  0
SECTION
  2
HEADER
  9
$ACADVER
  1
AC1015
  9
$ACADMAINTVER
 70
    20
  9
$DWGCODEPAGE
  3
ANSI_1252
  9
$INSBASE
 10
0.0
 20
0.0
 30
0.0
  9
$EXTMIN
 10
945.3886812493946
 20
525.0002887400127
 30
-0.0000000349181948
  9
$EXTMAX
 10
1340.724109217579
 20
1267.170064823132
 30
0.0000000814935746
  9
$LIMMIN
 10
0.0
 20
0.0
  9
$LIMMAX
 10
420.0
 20
297.0
  9
$ORTHOMODE
 70
     1
  9
$REGENMODE
 70
     1
  9
$FILLMODE
 70
     1
  9
$QTEXTMODE
 70
     0
  9
$MIRRTEXT
 70
     1
  9
$LTSCALE
 40
1.0
  9
$ATTMODE
 70
     1
  9
$TEXTSIZE
 40
2.5
  9
$TRACEWID
 40
1.0
  9
$TEXTSTYLE
  7
STANDARD
  9
$CLAYER
  8
0
  9
$CELTYPE
  6
ByLayer
  9
$CECOLOR
 62
   256
  9
$CELTSCALE
 40
1.0
  9
$DISPSILH
 70
     0
  9
$DIMSCALE
 40
1.0
  9
$DIMASZ
 40
2.5
  9
$DIMEXO
 40
1.0
  9
$DIMDLI
 40
10.0
  9
$DIMRND
 40
0.0
  9
$DIMDLE
 40
0.0
  9
$DIMEXE
 40
1.0
  9
$DIMTP
 40
0.1
  9
$DIMTM
 40
0.1
  9
$DIMTXT
 40
3.5
  9
$DIMCEN
 40
0.0
  9
$DIMTSZ
 40
0.0
  9
$DIMTOL
 70
     0
  9
$DIMLIM
 70
     0
  9
$DIMTIH
 70
     0
  9
$DIMTOH
 70
     0
  9
$DIMSE1
 70
     0
  9
$DIMSE2
 70
     0
  9
$DIMTAD
 70
     1
  9
$DIMZIN
 70
     8
  9
$DIMBLK
  1

  9
$DIMASO
 70
     1
  9
$DIMSHO
 70
     1
  9
$DIMPOST
  1

  9
$DIMAPOST
  1
"
  9
$DIMALT
 70
     0
  9
$DIMALTD
 70
     2
  9
$DIMALTF
 40
0.0393701
  9
$DIMLFAC
 40
1.0
  9
$DIMTOFL
 70
     1
  9
$DIMTVP
 40
0.0
  9
$DIMTIX
 70
     0
  9
$DIMSOXD
 70
     0
  9
$DIMSAH
 70
     0
  9
$DIMBLK1
  1

  9
$DIMBLK2
  1

  9
$DIMSTYLE
  2
AM_ISO
  9
$DIMCLRD
 70
   256
  9
$DIMCLRE
 70
   256
  9
$DIMCLRT
 70
     2
  9
$DIMTFAC
 40
0.71
  9
$DIMGAP
 40
1.5
  9
$DIMJUST
 70
     0
  9
$DIMSD1
 70
     0
  9
$DIMSD2
 70
     0
  9
$DIMTOLJ
 70
     0
  9
$DIMTZIN
 70
     8
  9
$DIMALTZ
 70
     0
  9
$DIMALTTZ
 70
     0
  9
$DIMUPT
 70
     0
  9
$DIMDEC
 70
     0
  9
$DIMTDEC
 70
     3
  9
$DIMALTU
 70
     2
  9
$DIMALTTD
 70
     4
  9
$DIMTXSTY
  7
STANDARD
  9
$DIMAUNIT
 70
     0
  9
$DIMADEC
 70
     0
  9
$DIMALTRND
 40
0.0
  9
$DIMAZIN
 70
     2
  9
$DIMDSEP
 70
    46
  9
$DIMATFIT
 70
     3
  9
$DIMFRAC
 70
     0
  9
$DIMLDRBLK
  1

  9
$DIMLUNIT
 70
     2
  9
$DIMLWD
 70
    -1
  9
$DIMLWE
 70
    -1
  9
$DIMTMOVE
 70
     0
  9
$LUNITS
 70
     2
  9
$LUPREC
 70
     2
  9
$SKETCHINC
 40
1.0
  9
$FILLETRAD
 40
2.5
  9
$AUNITS
 70
     0
  9
$AUPREC
 70
     0
  9
$MENU
  1
.
  9
$ELEVATION
 40
0.0
  9
$PELEVATION
 40
0.0
  9
$THICKNESS
 40
0.0
  9
$LIMCHECK
 70
     0
  9
$CHAMFERA
 40
2.5
  9
$CHAMFERB
 40
2.5
  9
$CHAMFERC
 40
20.0
  9
$CHAMFERD
 40
0.0
  9
$SKPOLY
 70
     0
  9
$TDCREATE
 40
2454061.468877697
  9
$TDUCREATE
 40
2454061.427211030
  9
$TDUPDATE
 40
2454081.797861991
  9
$TDUUPDATE
 40
2454081.756195324
  9
$TDINDWG
 40
0.0695498380
  9
$TDUSRTIMER
 40
0.0695498380
  9
$USRTIMER
 70
     1
  9
$ANGBASE
 50
0.0
  9
$ANGDIR
 70
     0
  9
$PDMODE
 70
     0
  9
$PDSIZE
 40
0.0
  9
$PLINEWID
 40
0.0
  9
$SPLFRAME
 70
     0
  9
$SPLINETYPE
 70
     6
  9
$SPLINESEGS
 70
     8
  9
$HANDSEED
  5
23B3
  9
$SURFTAB1
 70
     6
  9
$SURFTAB2
 70
     6
  9
$SURFTYPE
 70
     6
  9
$SURFU
 70
     6
  9
$SURFV
 70
     6
  9
$UCSBASE
  2

  9
$UCSNAME
  2

  9
$UCSORG
 10
0.0
 20
0.0
 30
0.0
  9
$UCSXDIR
 10
1.0
 20
0.0
 30
0.0
  9
$UCSYDIR
 10
0.0
 20
1.0
 30
0.0
  9
$UCSORTHOREF
  2

  9
$UCSORTHOVIEW
 70
     0
  9
$UCSORGTOP
 10
0.0
 20
0.0
 30
0.0
  9
$UCSORGBOTTOM
 10
0.0
 20
0.0
 30
0.0
  9
$UCSORGLEFT
 10
0.0
 20
0.0
 30
0.0
  9
$UCSORGRIGHT
 10
0.0
 20
0.0
 30
0.0
  9
$UCSORGFRONT
 10
0.0
 20
0.0
 30
0.0
  9
$UCSORGBACK
 10
0.0
 20
0.0
 30
0.0
  9
$PUCSBASE
  2

  9
$PUCSNAME
  2

  9
$PUCSORG
 10
0.0
 20
0.0
 30
0.0
  9
$PUCSXDIR
 10
1.0
 20
0.0
 30
0.0
  9
$PUCSYDIR
 10
0.0
 20
1.0
 30
0.0
  9
$PUCSORTHOREF
  2

  9
$PUCSORTHOVIEW
 70
     0
  9
$PUCSORGTOP
 10
0.0
 20
0.0
 30
0.0
  9
$PUCSORGBOTTOM
 10
0.0
 20
0.0
 30
0.0
  9
$PUCSORGLEFT
 10
0.0
 20
0.0
 30
0.0
  9
$PUCSORGRIGHT
 10
0.0
 20
0.0
 30
0.0
  9
$PUCSORGFRONT
 10
0.0
 20
0.0
 30
0.0
  9
$PUCSORGBACK
 10
0.0
 20
0.0
 30
0.0
  9
$USERI1
 70
     0
  9
$USERI2
 70
     0
  9
$USERI3
 70
     0
  9
$USERI4
 70
     0
  9
$USERI5
 70
     0
  9
$USERR1
 40
0.0
  9
$USERR2
 40
0.0
  9
$USERR3
 40
0.0
  9
$USERR4
 40
0.0
  9
$USERR5
 40
0.0
  9
$WORLDVIEW
 70
     1
  9
$SHADEDGE
 70
     3
  9
$SHADEDIF
 70
    70
  9
$TILEMODE
 70
     1
  9
$MAXACTVP
 70
    64
  9
$PINSBASE
 10
0.0
 20
0.0
 30
0.0
  9
$PLIMCHECK
 70
     0
  9
$PEXTMIN
 10
1.000000000000000E+20
 20
1.000000000000000E+20
 30
1.000000000000000E+20
  9
$PEXTMAX
 10
-1.000000000000000E+20
 20
-1.000000000000000E+20
 30
-1.000000000000000E+20
  9
$PLIMMIN
 10
0.0
 20
0.0
  9
$PLIMMAX
 10
420.0
 20
297.0
  9
$UNITMODE
 70
     0
  9
$VISRETAIN
 70
     1
  9
$PLINEGEN
 70
     0
  9
$PSLTSCALE
 70
     1
  9
$TREEDEPTH
 70
  3020
  9
$CMLSTYLE
  2
Standard
  9
$CMLJUST
 70
     0
  9
$CMLSCALE
 40
20.0
  9
$PROXYGRAPHICS
 70
     1
  9
$MEASUREMENT
 70
     1
  9
$CELWEIGHT
370
    -1
  9
$ENDCAPS
280
     0
  9
$JOINSTYLE
280
     0
  9
$LWDISPLAY
290
     0
  9
$INSUNITS
 70
     4
  9
$HYPERLINKBASE
  1

  9
$STYLESHEET
  1

  9
$XEDIT
290
     1
  9
$CEPSNTYPE
380
     0
  9
$PSTYLEMODE
290
     1
  9
$FINGERPRINTGUID
  2
{E8C84811-8A6B-4691-A242-689C10F9AAC1}
  9
$VERSIONGUID
  2
{92324F22-159B-4A48-A7F7-712057F8E04F}
  9
$EXTNAMES
290
     1
  9
$PSVPSCALE
 40
0.0
  9
$OLESTARTUP
290
     0
  0
ENDSEC
  0
SECTION
  2
CLASSES
  0
CLASS
  1
ACDBDICTIONARYWDFLT
  2
AcDbDictionaryWithDefault
  3
ObjectDBX Classes
 90
        0
280
     0
281
     0
  0
CLASS
  1
ACDBPLACEHOLDER
  2
AcDbPlaceHolder
  3
ObjectDBX Classes
 90
        0
280
     0
281
     0
  0
CLASS
  1
LAYOUT
  2
AcDbLayout
  3
ObjectDBX Classes
 90
        0
280
     0
281
     0
  0
CLASS
  1
ACME_DOCUMENT
  2
AcMeDbDoc
  3
AcMeServices
 90
        0
280
     0
281
     0
  0
CLASS
  1
AMGSETTINGSOBJ
  2
AmgSettingsObj
  3
"AcadM|Product Description: AutoCAD Mechanical 2000|Company: Autodesk"
 90
        0
280
     0
281
     0
  0
CLASS
  1
ACMESCOPE
  2
AcMeScope
  3
AcMeServices
 90
        0
280
     0
281
     0
  0
CLASS
  1
ACMECOMMANDHISTORY
  2
AcMeCommandHistory
  3
AcMeServices
 90
        0
280
     0
281
     0
  0
CLASS
  1
ACIMSYSVARMAN
  2
AcImSysVarManager
  3
AcMeServices
 90
        0
280
     0
281
     0
  0
CLASS
  1
ACIMREALSYSVAR
  2
AcImRealSysVar
  3
AcMeServices
 90
        0
280
     0
281
     0
  0
CLASS
  1
ACIMINTSYSVAR
  2
AcImIntSysVar
  3
AcMeServices
 90
        0
280
     0
281
     0
  0
CLASS
  1
ACMEDRAWINGMAN
  2
AcMeDrawingMan
  3
AcMeServices
 90
        0
280
     0
281
     0
  0
CLASS
  1
ACMEVIEW
  2
AcMeView
  3
AcMeServices
 90
        0
280
     0
281
     0
  0
CLASS
  1
ACDBENTITYCACHE
  2
AcMeEntityCache
  3
AcMeServices
 90
        0
280
     0
281
     0
  0
CLASS
  1
GSMANAGER
  2
AcMeGSManager
  3
AcMeServices
 90
        0
280
     0
281
     0
  0
CLASS
  1
AMDTINTERNALREACTOR
  2
AmdtInternalReactor
  3
AcMeServices
 90
        0
280
     0
281
     0
  0
CLASS
  1
ACMESTATEMGR
  2
AcMeStateMgr
  3
AcMeServices
 90
        0
280
     0
281
     0
  0
CLASS
  1
ACGREFMASTER
  2
AcGrefMaster
  3
AcAttribServices
 90
        0
280
     0
281
     0
  0
CLASS
  1
ACME_DATABASE
  2
AcMeDbDatabase
  3
AcMeServices
 90
        0
280
     0
281
     0
  0
CLASS
  1
ACRFINSADJUSTERMGR
  2
AcRfInsAdjusterMgr
  3
AcMeServices
 90
        0
280
     0
281
     0
  0
CLASS
  1
ACGREFACADMASTER
  2
AcGrefacadMaster
  3
AcGrefServices
 90
        0
280
     0
281
     0
  0
CLASS
  1
AMIMASTER
  2
AmiMaster
  3
AmiServices
 90
        0
280
     0
281
     0
  0
CLASS
  1
ACMDATADICTIONARY
  2
AcmDataDictionary
  3
"AcmSymBB|Product Description: AutoCAD Mechanical 2004 DX|Company: Autodesk"
 90
        0
280
     0
281
     0
  0
CLASS
  1
ACMDATAENTRYBLOCK
  2
AcmDataEntryBlock
  3
"AcmSymBB|Product Description: AutoCAD Mechanical 2004 DX|Company: Autodesk"
 90
        0
280
     0
281
     0
  0
CLASS
  1
ACIMSTRSYSVAR
  2
AcImStrSysVar
  3
AcMeServices
 90
        0
280
     0
281
     0
  0
CLASS
  1
ACMSTANDARDISO
  2
AcmStandardISO
  3
"Amdt_StdImp|Product Description: AutoCAD Mechanical 2004 DX|Company: Autodesk"
 90
        0
280
     0
281
     0
  0
CLASS
  1
AMGOBJPROPCFG
  2
AmgObjPropCfg
  3
"AmgLay|Product Description: AutoCAD Mechanical 2000|Company: Autodesk"
 90
        1
280
     0
281
     0
  0
CLASS
  1
AMDTEDGESTANDARDISO
  2
AmdtEdgeStdISO
  3
"Amdt_StdImp|Product Description: AutoCAD Mechanical 2004 DX|Company: Autodesk"
 90
        0
280
     0
281
     0
  0
CLASS
  1
ACMSURFSTANDARDISO
  2
AcmSurfTextStdISO
  3
"Amdt_StdImp|Product Description: AutoCAD Mechanical 2004 DX|Company: Autodesk"
 90
        0
280
     0
281
     0
  0
CLASS
  1
ACMFCFSTANDARDISO
  2
AcmFCFStdISO
  3
"Amdt_StdImp|Product Description: AutoCAD Mechanical 2004 DX|Company: Autodesk"
 90
        0
280
     0
281
     0
  0
CLASS
  1
ACMWELDSTANDARDISO
  2
AcmWeldingStdISO
  3
"Amdt_StdImp|Product Description: AutoCAD Mechanical 2004 DX|Company: Autodesk"
 90
        0
280
     0
281
     0
  0
CLASS
  1
ACMIDSTANDARDISO
  2
AcmIdStdISO
  3
"Amdt_StdImp|Product Description: AutoCAD Mechanical 2004 DX|Company: Autodesk"
 90
        0
280
     0
281
     0
  0
CLASS
  1
ACMDATUMSTANDARDISO
  2
AcmDatumStdISO
  3
"Amdt_StdImp|Product Description: AutoCAD Mechanical 2004 DX|Company: Autodesk"
 90
        0
280
     0
281
     0
  0
CLASS
  1
ACMBOMSTANDARDISO
  2
AcmBOMStdISO
  3
"Amdt_StdImp|Product Description: AutoCAD Mechanical 2004 DX|Company: Autodesk"
 90
        0
280
     0
281
     0
  0
CLASS
  1
ACMDETAILSTANDARDISO
  2
AmdtDetailSymStdISO
  3
"Amdt_StdImp|Product Description: AutoCAD Mechanical 2004 DX|Company: Autodesk"
 90
        0
280
     0
281
     0
  0
CLASS
  1
ACMSECTIONSTANDARDISO
  2
AmdtSectionSymStdISO
  3
"Amdt_StdImp|Product Description: AutoCAD Mechanical 2004 DX|Company: Autodesk"
 90
        0
280
     0
281
     0
  0
CLASS
  1
ACMCENTERLINESTANDARDISO
  2
AmdtCenterLineStdISO
  3
"Amdt_StdImp|Product Description: AutoCAD Mechanical 2004 DX|Company: Autodesk"
 90
        0
280
     0
281
     0
  0
CLASS
  1
ACMNOTESTANDARDISO
  2
AmdtNoteStdISO
  3
"Amdt_StdImp|Product Description: AutoCAD Mechanical 2004 DX|Company: Autodesk"
 90
        0
280
     0
281
     0
  0
CLASS
  1
ACAMGLAYSTD
  2
AcAmgLayStd
  3
"AcAmgLayStd|Product Description: AutoCAD Mechanical 2000|Company: Autodesk"
 90
        0
280
     0
281
     0
  0
CLASS
  1
ACAMGDIMSTD
  2
AcAmgDimStd
  3
"AcAmgDimStd|Product Description: AutoCAD Mechanical 2000|Company: Autodesk"
 90
        0
280
     0
281
     0
  0
CLASS
  1
ACAMGHOLECHARTSTDISO
  2
AcAmgHoleChartStdISO
  3
ACMSYMBB_MODULE_NAME
 90
        0
280
     0
281
     0
  0
CLASS
  1
ACAMGTITLESTD
  2
AcAmgTitleStd
  3
"TITLEAPP"
 90
        0
280
     0
281
     0
  0
CLASS
  1
LAYER_INDEX
  2
AcDbLayerIndex
  3
ObjectDBX Classes
 90
    32768
280
     0
281
     0
  0
CLASS
  1
IDBUFFER
  2
AcDbIdBuffer
  3
ObjectDBX Classes
 90
    32768
280
     0
281
     0
  0
CLASS
  1
DICTIONARYVAR
  2
AcDbDictionaryVar
  3
ObjectDBX Classes
 90
        0
280
     0
281
     0
  0
CLASS
  1
AM_DRAWING_MGR
  2
AcDmDwgMgr
  3
AcMechDwgViewMgmt
 90
        0
280
     0
281
     0
  0
CLASS
  1
AM_DWG_DOCUMENT
  2
AcDmDwgDocument
  3
AcMechDwgViewMgmt
 90
        0
280
     0
281
     0
  0
CLASS
  1
AM_DWG_SHEET
  2
AcDmSheet
  3
AcMechDwgViewMgmt
 90
        0
280
     0
281
     0
  0
CLASS
  1
AM_VIEWDIMPARMAP
  2
AcDmViewDimParMap
  3
AcMechDwgViewMgmt
 90
        0
280
     0
281
     0
  0
CLASS
  1
AM_DWGMGR_NAME
  2
AcDmDwgMgrName
  3
AcMechDwgViewMgmt
 90
        0
280
     0
281
     0
  0
CLASS
  1
AMDTMENUSTATEMGR
  2
AmdtMenuStateMgr
  3
McadcomServices
 90
        0
280
     0
281
     0
  0
CLASS
  1
AMDTMCOMMENUSTATE
  2
AmdtMcomMenuState
  3
McadcomServices
 90
        0
280
     0
281
     0
  0
CLASS
  1
MAPIAMMOUDLE
  2
MApiAmModule
  3
MApiAmServices
 90
        0
280
     0
281
     0
  0
CLASS
  1
AMDTADMENUSTATE
  2
AmdtAdMenuState
  3
DesignerServices
 90
        0
280
     0
281
     0
  0
CLASS
  1
ADAPPL
  2
AcAdAppl
  3
DesignerServices
 90
        0
280
     0
281
     0
  0
CLASS
  1
DEPMGR
  2
AcAdDepMgr
  3
DesignerServices
 90
        0
280
     0
281
     0
  0
CLASS
  1
PARAMMGR
  2
AcAdParamMgr
  3
DesignerServices
 90
        0
280
     0
281
     0
  0
CLASS
  1
PARAMSCOPE
  2
AcAdParamScope
  3
DesignerServices
 90
        0
280
     0
281
     0
  0
CLASS
  1
NAMEDAPPL
  2
AcAdNamedAppl
  3
DesignerServices
 90
        0
280
     0
281
     0
  0
CLASS
  1
AMDTDMMENUSTATE
  2
AmdtDmMenuState
  3
AcMechDwgViewMgmt
 90
        0
280
     0
281
     0
  0
CLASS
  1
AMDTAMMENUSTATE
  2
AmdtAmMenuState
  3
DesignerAssemblies
 90
        0
280
     0
281
     0
  0
CLASS
  1
ACAMPROJECT
  2
AcAmProject
  3
DesignerAssemblies
 90
        0
280
     0
281
     0
  0
CLASS
  1
ACAMGRCOMPDEF
  2
AcAmGrCompDef
  3
DesignerAssemblies
 90
        0
280
     0
281
     0
  0
CLASS
  1
ACCMCONTEXT
  2
AcCmContext
  3
DesignerAssemblies
 90
        0
280
     0
281
     0
  0
CLASS
  1
ACAMCOMPDEF
  2
AcAmCompDef
  3
DesignerAssemblies
 90
        0
280
     0
281
     0
  0
CLASS
  1
ACAMCOMPDEFMGR
  2
AcAmCompDefMgr
  3
DesignerAssemblies
 90
        0
280
     0
281
     0
  0
CLASS
  1
AMCONTEXTMGR
  2
AcAmContextMgr
  3
DesignerAssemblies
 90
        0
280
     0
281
     0
  0
CLASS
  1
ACAMCONTEXTMODELER
  2
AcAmContextModeler
  3
DesignerAssemblies
 90
        0
280
     0
281
     0
  0
CLASS
  1
ACMTHREADLINESTANDARDISO
  2
AmdtThreadLineStdISO
  3
"Amdt_StdImp|Product Description: AutoCAD Mechanical 2004 DX|Company: Autodesk"
 90
        0
280
     0
281
     0
  0
CLASS
  1
CATALOGSTATE
  2
AcAmCatalogState
  3
DesignerAssemblies
 90
        0
280
     0
281
     0
  0
CLASS
  1
ACAMGRCOMPDEFSET
  2
AcAmGrCompDefSet
  3
DesignerAssemblies
 90
        0
280
     0
281
     0
  0
CLASS
  1
AMDTBROWSERDBTAB
  2
AmdtBrowserDbTab
  3
McadcomServices
 90
        0
280
     0
281
     0
  0
CLASS
  1
CBROWSERAPPOBJECT
  2
CBrowserAppObject
  3
McadcomServices
 90
        0
280
     0
281
     0
  0
CLASS
  1
DM_PLACEHOLDER
  2
AcDmSelsetPlaceholder
  3
AcMechDwgViewMgmt
 90
        0
280
     0
281
     0
  0
CLASS
  1
TABLESTYLE
  2
AcDbTableStyle
  3
ObjectDBX Classes
 90
     2047
280
     0
281
     0
  0
CLASS
  1
VAACXREFPANELOBJECT
  2
VaAcXREFPanelObject
  3
VAAC_ADDIN
 90
    32768
280
     0
281
     0
  0
CLASS
  1
VAACIMAGEINVENTORY
  2
VaAcImageInventory
  3
VAAC_ADDIN
 90
    32768
280
     0
281
     0
  0
CLASS
  1
AMDTNOTETEMPLATEDB
  2
AmdtNoteTemplateDB
  3
AMDT_STDIMP_MODULE_NAME
 90
        0
280
     0
281
     0
  0
CLASS
  1
ACAMGFILTERDAT
  2
AcAmgFilterDat
  3
"AcadM|Product Description: AutoCAD Mechanical 2000|Company: Autodesk"
 90
        0
280
     0
281
     0
  0
CLASS
  1
ACMBOM
  2
AcmBom
  3
"AcmSymBB|Product Description: AutoCAD Mechanical 2004 DX|Company: Autodesk"
 90
    32768
280
     0
281
     0
  0
CLASS
  1
AMDTFORMULAUPDATEDISPATCHER
  2
AmdtFormulaUpdateDispatcher
  3
AcMeServices
 90
    32768
280
     0
281
     0
  0
CLASS
  1
ACMSTANDARDANSI
  2
AcmStandardANSI
  3
"Amdt_StdImp|Product Description: AutoCAD Mechanical 2004 DX|Company: Autodesk"
 90
        0
280
     0
281
     0
  0
CLASS
  1
ACMSURFSTANDARDANSI
  2
AcmSurfTextStdANSI
  3
"Amdt_StdImp|Product Description: AutoCAD Mechanical 2004 DX|Company: Autodesk"
 90
        0
280
     0
281
     0
  0
CLASS
  1
ACMFCFSTANDARDANSI
  2
AcmFCFStdANSI
  3
"Amdt_StdImp|Product Description: AutoCAD Mechanical 2004 DX|Company: Autodesk"
 90
        0
280
     0
281
     0
  0
CLASS
  1
ACMWELDSTANDARDANSI
  2
AcmWeldingStdANSI
  3
"Amdt_StdImp|Product Description: AutoCAD Mechanical 2004 DX|Company: Autodesk"
 90
        0
280
     0
281
     0
  0
CLASS
  1
ACMIDSTANDARDANSI
  2
AcmIdStdANSI
  3
"Amdt_StdImp|Product Description: AutoCAD Mechanical 2004 DX|Company: Autodesk"
 90
        0
280
     0
281
     0
  0
CLASS
  1
ACMDATUMSTANDARDANSI
  2
AcmDatumStdANSI
  3
"Amdt_StdImp|Product Description: AutoCAD Mechanical 2004 DX|Company: Autodesk"
 90
        0
280
     0
281
     0
  0
CLASS
  1
ACMBOMSTANDARDANSI
  2
AcmBOMStdANSI
  3
"Amdt_StdImp|Product Description: AutoCAD Mechanical 2004 DX|Company: Autodesk"
 90
        0
280
     0
281
     0
  0
CLASS
  1
ACMDETAILSTANDARDANSI
  2
AmdtDetailSymStdANSI
  3
"Amdt_StdImp|Product Description: AutoCAD Mechanical 2004 DX|Company: Autodesk"
 90
        0
280
     0
281
     0
  0
CLASS
  1
ACMSECTIONSTANDARDANSI
  2
AmdtSectionSymStdANSI
  3
"Amdt_StdImp|Product Description: AutoCAD Mechanical 2004 DX|Company: Autodesk"
 90
        0
280
     0
281
     0
  0
CLASS
  1
ACMCENTERLINESTANDARDANSI
  2
AmdtCenterLineStdANSI
  3
"Amdt_StdImp|Product Description: AutoCAD Mechanical 2004 DX|Company: Autodesk"
 90
        0
280
     0
281
     0
  0
CLASS
  1
ACMTHREADLINESTANDARDANSI
  2
AmdtThreadLineStdANSI
  3
"Amdt_StdImp|Product Description: AutoCAD Mechanical 2004 DX|Company: Autodesk"
 90
        0
280
     0
281
     0
  0
CLASS
  1
ACMNOTESTANDARDANSI
  2
AmdtNoteStdANSI
  3
"Amdt_StdImp|Product Description: AutoCAD Mechanical 2004 DX|Company: Autodesk"
 90
        0
280
     0
281
     0
  0
CLASS
  1
ACAMGHOLECHARTSTDANSI
  2
AcAmgHoleChartStdANSI
  3
ACMSYMBB_MODULE_NAME
 90
        0
280
     0
281
     0
  0
CLASS
  1
ACMSTANDARDDIN
  2
AcmStandardDIN
  3
"Amdt_StdImp|Product Description: AutoCAD Mechanical 2004 DX|Company: Autodesk"
 90
        0
280
     0
281
     0
  0
CLASS
  1
AMDTEDGESTANDARDDIN13715
  2
AmdtEdgeStdDIN13715
  3
"Amdt_StdImp|Product Description: AutoCAD Mechanical 2004 DX|Company: Autodesk"
 90
        0
280
     0
281
     0
  0
CLASS
  1
ACMSURFSTANDARDDIN
  2
AcmSurfTextStdDIN
  3
"Amdt_StdImp|Product Description: AutoCAD Mechanical 2004 DX|Company: Autodesk"
 90
        0
280
     0
281
     0
  0
CLASS
  1
ACMFCFSTANDARDDIN
  2
AcmFCFStdDIN
  3
"Amdt_StdImp|Product Description: AutoCAD Mechanical 2004 DX|Company: Autodesk"
 90
        0
280
     0
281
     0
  0
CLASS
  1
ACMWELDSTANDARDDIN
  2
AcmWeldingStdDIN
  3
"Amdt_StdImp|Product Description: AutoCAD Mechanical 2004 DX|Company: Autodesk"
 90
        0
280
     0
281
     0
  0
CLASS
  1
ACMIDSTANDARDDIN
  2
AcmIdStdDIN
  3
"Amdt_StdImp|Product Description: AutoCAD Mechanical 2004 DX|Company: Autodesk"
 90
        0
280
     0
281
     0
  0
CLASS
  1
ACMDATUMSTANDARDDIN
  2
AcmDatumStdDIN
  3
"Amdt_StdImp|Product Description: AutoCAD Mechanical 2004 DX|Company: Autodesk"
 90
        0
280
     0
281
     0
  0
CLASS
  1
ACMBOMSTANDARDDIN
  2
AcmBOMStdDIN
  3
"Amdt_StdImp|Product Description: AutoCAD Mechanical 2004 DX|Company: Autodesk"
 90
        0
280
     0
281
     0
  0
CLASS
  1
ACMDETAILSTANDARDDIN
  2
AmdtDetailSymStdDIN
  3
"Amdt_StdImp|Product Description: AutoCAD Mechanical 2004 DX|Company: Autodesk"
 90
        0
280
     0
281
     0
  0
CLASS
  1
ACMSECTIONSTANDARDDIN
  2
AmdtSectionSymStdDIN
  3
"Amdt_StdImp|Product Description: AutoCAD Mechanical 2004 DX|Company: Autodesk"
 90
        0
280
     0
281
     0
  0
CLASS
  1
ACMCENTERLINESTANDARDDIN
  2
AmdtCenterLineStdDIN
  3
"Amdt_StdImp|Product Description: AutoCAD Mechanical 2004 DX|Company: Autodesk"
 90
        0
280
     0
281
     0
  0
CLASS
  1
ACMTHREADLINESTANDARDDIN
  2
AmdtThreadLineStdDIN
  3
"Amdt_StdImp|Product Description: AutoCAD Mechanical 2004 DX|Company: Autodesk"
 90
        0
280
     0
281
     0
  0
CLASS
  1
ACMNOTESTANDARDDIN
  2
AmdtNoteStdDIN
  3
"Amdt_StdImp|Product Description: AutoCAD Mechanical 2004 DX|Company: Autodesk"
 90
        0
280
     0
281
     0
  0
CLASS
  1
ACAMGHOLECHARTSTDDIN
  2
AcAmgHoleChartStdDIN
  3
ACMSYMBB_MODULE_NAME
 90
        0
280
     0
281
     0
  0
CLASS
  1
DIMASSOC
  2
AcDbDimAssoc
  3
"AcDbDimAssoc|Product Desc:     AcDim ARX App For Dimension|Company:          Autodesk, Inc.|WEB Address:      www.autodesk.com"
 90
        0
280
     0
281
     0
  0
CLASS
  1
SORTENTSTABLE
  2
AcDbSortentsTable
  3
ObjectDBX Classes
 90
        0
280
     0
281
     0
  0
ENDSEC
  0
SECTION
  2
TABLES
  0
TABLE
  2
VPORT
  5
8
330
0
100
AcDbSymbolTable
 70
     4
  0
VPORT
  5
23AA
330
8
100
AcDbSymbolTableRecord
100
AcDbViewportTableRecord
  2
*Active
 70
     0
 10
0.0
 20
0.0
 11
1.0
 21
1.0
 12
1143.056395233487
 22
896.0851767815725
 13
0.0
 23
0.0
 14
2.5
 24
2.5
 15
10.0
 25
10.0
 16
0.0
 26
0.0
 36
1.0
 17
0.0
 27
0.0
 37
0.0
 40
747.5608398319072
 41
1.494545454545454
 42
50.0
 43
0.0
 44
0.0
 50
0.0
 51
0.0
 71
     0
 72
   100
 73
     1
 74
     3
 75
     0
 76
     0
 77
     0
 78
     0
281
     0
 65
     1
110
0.0
120
0.0
130
0.0
111
1.0
121
0.0
131
0.0
112
0.0
122
1.0
132
0.0
 79
     0
146
0.0
  0
ENDTAB
  0
TABLE
  2
LTYPE
  5
5
330
0
100
AcDbSymbolTable
 70
    21
  0
LTYPE
  5
14
330
5
100
AcDbSymbolTableRecord
100
AcDbLinetypeTableRecord
  2
ByBlock
 70
     0
  3

 72
    65
 73
     0
 40
0.0
  0
LTYPE
  5
15
330
5
100
AcDbSymbolTableRecord
100
AcDbLinetypeTableRecord
  2
ByLayer
 70
     0
  3

 72
    65
 73
     0
 40
0.0
  0
LTYPE
  5
16
330
5
100
AcDbSymbolTableRecord
100
AcDbLinetypeTableRecord
  2
Continuous
 70
     0
  3
Solid line
 72
    65
 73
     0
 40
0.0
  0
LTYPE
  5
64
330
5
100
AcDbSymbolTableRecord
100
AcDbLinetypeTableRecord
  2
AM_ISO02W050
 70
     0
  3
__ __ __ __ __ __ __ __ __ __ __ __ __ __ __
 72
    65
 73
     2
 40
7.5
 49
6.0
 74
     0
 49
-1.5
 74
     0
  0
LTYPE
  5
65
330
5
100
AcDbSymbolTableRecord
100
AcDbLinetypeTableRecord
  2
AM_ISO08W050
 70
     0
  3
____ . ____ . ____ . ____ . ____ . ____ . ____
 72
    65
 73
     4
 40
18.0
 49
12.0
 74
     0
 49
-1.5
 74
     0
 49
3.0
 74
     0
 49
-1.5
 74
     0
  0
LTYPE
  5
66
330
5
100
AcDbSymbolTableRecord
100
AcDbLinetypeTableRecord
  2
AM_ISO09W050
 70
     0
  3
_____ . . _____ . . _____ . . ____ .. ____
 72
    65
 73
     6
 40
22.5
 49
12.0
 74
     0
 49
-1.5
 74
     0
 49
3.0
 74
     0
 49
-1.5
 74
     0
 49
3.0
 74
     0
 49
-1.5
 74
     0
  0
LTYPE
  5
67
330
5
100
AcDbSymbolTableRecord
100
AcDbLinetypeTableRecord
  2
Amconstr
 70
     0
  3
_______________________
 72
    65
 73
     2
 40
9999.0
 49
9999.0
 74
     0
 49
0.0
 74
     0
  0
LTYPE
  5
68
330
5
100
AcDbSymbolTableRecord
100
AcDbLinetypeTableRecord
  2
AM_ISO08W050x2
 70
     0
  3
__ . __ . __ . __ . __ . __
 72
    65
 73
     4
 40
9.0
 49
6.0
 74
     0
 49
-0.75
 74
     0
 49
1.5
 74
     0
 49
-0.75
 74
     0
  0
LTYPE
  5
69
330
5
100
AcDbSymbolTableRecord
100
AcDbLinetypeTableRecord
  2
AM_ISO02W050x2
 70
     0
  3
 _ _ _ _ _ _ _ _ _ _ _ _
 72
    65
 73
     2
 40
3.75
 49
3.0
 74
     0
 49
-0.75
 74
     0
  0
LTYPE
  5
6C
330
5
100
AcDbSymbolTableRecord
100
AcDbLinetypeTableRecord
  2
Amzigzag
 70
     0
  3
/\/-/\/-/\/-/\/-/\/-/\/
 72
    65
 73
     2
 40
11.0001
 49
0.0001
 74
     4
 75
   136
340
22C
 46
0.04
 50
0.0
 44
0.0
 45
0.0
 49
-11.0
 74
     0
  0
LTYPE
  5
7A
330
5
100
AcDbSymbolTableRecord
100
AcDbLinetypeTableRecord
  2
ACISOWELD
 70
     0
  3
_ _ _ _ _
 72
    65
 73
     2
 40
2.0
 49
2.0
 74
     0
 49
-1.0
 74
     0
  0
LTYPE
  5
7B
330
5
100
AcDbSymbolTableRecord
100
AcDbLinetypeTableRecord
  2
ACISOTGB
 70
     0
  3
__ . . __ . .
 72
    65
 73
     6
 40
9.0
 49
4.0
 74
     0
 49
-1.0
 74
     0
 49
1.0
 74
     0
 49
-1.0
 74
     0
 49
1.0
 74
     0
 49
-1.0
 74
     0
  0
LTYPE
  5
7C
330
5
100
AcDbSymbolTableRecord
100
AcDbLinetypeTableRecord
  2
ACISOTGL
 70
     0
  3
_ _ _ _ _
 72
    65
 73
     2
 40
3.0
 49
2.0
 74
     0
 49
-1.0
 74
     0
  0
LTYPE
  5
7E
330
5
100
AcDbSymbolTableRecord
100
AcDbLinetypeTableRecord
  2
CENTER
 70
     0
  3
__ . __
 72
    65
 73
     4
 40
7.0
 49
4.0
 74
     0
 49
-1.0
 74
     0
 49
1.0
 74
     0
 49
-1.0
 74
     0
  0
LTYPE
  5
D8
330
5
100
AcDbSymbolTableRecord
100
AcDbLinetypeTableRecord
  2
HIDDEN
 70
     0
  3
Hidden __ __ __ __ __ __ __ __ __ __ __ __ __ _
 72
    65
 73
     2
 40
9.524999999999998
 49
6.349999999999999
 74
     0
 49
-3.174999999999999
 74
     0
  0
LTYPE
  5
D9
330
5
100
AcDbSymbolTableRecord
100
AcDbLinetypeTableRecord
  2
PHANTOM2
 70
     0
  3
Phantom (.5x) ___ _ _ ___ _ _ ___ _ _ ___ _ _
 72
    65
 73
     6
 40
31.75
 49
15.875
 74
     0
 49
-3.174999999999999
 74
     0
 49
3.174999999999999
 74
     0
 49
-3.174999999999999
 74
     0
 49
3.174999999999999
 74
     0
 49
-3.174999999999999
 74
     0
  0
LTYPE
  5
42B
330
5
100
AcDbSymbolTableRecord
100
AcDbLinetypeTableRecord
  2
GEN7
 70
     0
  3
____ _ ____ _ ____ _ ____ _ ____ _ ____ _ ____ _ ____ _ ____ _
 72
    65
 73
     4
 40
22.0
 49
10.75
 74
     0
 49
-3.75
 74
     0
 49
3.75
 74
     0
 49
-3.75
 74
     0
  0
LTYPE
  5
42F
330
5
100
AcDbSymbolTableRecord
100
AcDbLinetypeTableRecord
  2
ACANSTGB
 70
     0
  3
__ . . __ . .
 72
    65
 73
     6
 40
0.35433070866
 49
0.15748031496
 74
     0
 49
-0.03937007874
 74
     0
 49
0.03937007874
 74
     0
 49
-0.03937007874
 74
     0
 49
0.03937007874
 74
     0
 49
-0.03937007874
 74
     0
  0
LTYPE
  5
430
330
5
100
AcDbSymbolTableRecord
100
AcDbLinetypeTableRecord
  2
ACANSTGL
 70
     0
  3
_ _ _ _ _
 72
    65
 73
     2
 40
0.11811023622
 49
0.07874015748
 74
     0
 49
-0.03937007874
 74
     0
  0
LTYPE
  5
1006
330
5
100
AcDbSymbolTableRecord
100
AcDbLinetypeTableRecord
  2
AM_DIN_G_W050
 70
     0
  3
____ . ____ . ____ . ____ . ____ . ____ . ____
 72
    65
 73
     4
 40
13.75
 49
9.75
 74
     0
 49
-1.5
 74
     0
 49
1.0
 74
     0
 49
-1.5
 74
     0
  0
LTYPE
  5
100A
330
5
100
AcDbSymbolTableRecord
100
AcDbLinetypeTableRecord
  2
ACDINWELD
 70
     0
  3
_ _ _ _ _
 72
    65
 73
     2
 40
2.0
 49
2.0
 74
     0
 49
-1.0
 74
     0
  0
LTYPE
  5
100B
330
5
100
AcDbSymbolTableRecord
100
AcDbLinetypeTableRecord
  2
ACDINTGB
 70
     0
  3
__ . . __ . .
 72
    65
 73
     6
 40
9.0
 49
4.0
 74
     0
 49
-1.0
 74
     0
 49
1.0
 74
     0
 49
-1.0
 74
     0
 49
1.0
 74
     0
 49
-1.0
 74
     0
  0
LTYPE
  5
100C
330
5
100
AcDbSymbolTableRecord
100
AcDbLinetypeTableRecord
  2
ACDINTGL
 70
     0
  3
_ _ _ _ _
 72
    65
 73
     2
 40
3.0
 49
2.0
 74
     0
 49
-1.0
 74
     0
  0
ENDTAB
  0
TABLE
  2
LAYER
  5
2
102
{ACAD_XDICTIONARY
360
1839
102
}
330
0
100
AcDbSymbolTable
 70
     7
  0
LAYER
  5
10
330
2
100
AcDbSymbolTableRecord
100
AcDbLayerTableRecord
  2
0
 70
     0
 62
     7
  6
Continuous
370
    -3
390
F
  0
LAYER
  5
436
330
2
100
AcDbSymbolTableRecord
100
AcDbLayerTableRecord
  2
7
 70
     0
 62
     4
  6
GEN7
370
    -3
390
F
  0
LAYER
  5
437
330
2
100
AcDbSymbolTableRecord
100
AcDbLayerTableRecord
  2
8
 70
     0
 62
     1
  6
Continuous
370
    -3
390
F
  0
LAYER
  5
5A5
330
2
100
AcDbSymbolTableRecord
100
AcDbLayerTableRecord
  2
Defpoints
 70
     0
 62
     7
  6
Continuous
290
     0
370
    -3
390
F
  0
LAYER
  5
1298
330
2
100
AcDbSymbolTableRecord
100
AcDbLayerTableRecord
  2
AM_7
 70
     0
 62
     4
  6
AM_ISO08W050
370
    25
390
F
1001
AcAecLayerStandard
1000

1000

  0
LAYER
  5
13BA
330
2
100
AcDbSymbolTableRecord
100
AcDbLayerTableRecord
  2
AM_5
 70
     0
 62
     3
  6
Continuous
370
    25
390
F
1001
AcAecLayerStandard
1000

1000

  0
LAYER
  5
15A7
330
2
100
AcDbSymbolTableRecord
100
AcDbLayerTableRecord
  2
AM_8
 70
     0
 62
     1
  6
Continuous
370
    25
390
F
1001
AcAecLayerStandard
1000

1000

  0
ENDTAB
  0
TABLE
  2
STYLE
  5
3
330
0
100
AcDbSymbolTable
 70
     8
  0
STYLE
  5
11
330
3
100
AcDbSymbolTableRecord
100
AcDbTextStyleTableRecord
  2
STANDARD
 70
     0
 40
0.0
 41
1.0
 50
0.0
 71
     0
 42
2.5
  3
ISOCP.SHX
  4

  0
STYLE
  5
6D
330
3
100
AcDbSymbolTableRecord
100
AcDbTextStyleTableRecord
  2
ACISOTS
 70
     0
 40
1.0
 41
1.0
 50
0.0
 71
     0
 42
2.5
  3
isocp.shx
  4
bigfont.shx
  0
STYLE
  5
79
330
3
100
AcDbSymbolTableRecord
100
AcDbTextStyleTableRecord
  2
ACISOGDT
 70
     0
 40
0.0
 41
1.0
 50
0.0
 71
     0
 42
2.5
  3
AMGDT
  4
bigfont.shx
  0
STYLE
  5
22C
330
3
100
AcDbSymbolTableRecord
100
AcDbTextStyleTableRecord
  2

 70
     1
 40
0.0
 41
1.0
 50
0.0
 71
     0
 42
2.5
  3
genltshp.shx
  4

  0
STYLE
  5
43A
330
3
100
AcDbSymbolTableRecord
100
AcDbTextStyleTableRecord
  2
ACANSTS
 70
     0
 40
1.0
 41
1.0
 50
0.0
 71
     0
 42
0.2
  3
romans.shx
  4

  0
STYLE
  5
43B
330
3
100
AcDbSymbolTableRecord
100
AcDbTextStyleTableRecord
  2
ACANSGDT
 70
     0
 40
0.0
 41
1.0
 50
0.0
 71
     0
 42
0.2
  3
amgdt.shx
  4

  0
STYLE
  5
100D
330
3
100
AcDbSymbolTableRecord
100
AcDbTextStyleTableRecord
  2
ACDINTS
 70
     0
 40
1.0
 41
1.0
 50
0.0
 71
     0
 42
2.5
  3
isocp.shx
  4

  0
STYLE
  5
100E
330
3
100
AcDbSymbolTableRecord
100
AcDbTextStyleTableRecord
  2
ACDINGDT
 70
     0
 40
0.0
 41
1.0
 50
0.0
 71
     0
 42
2.5
  3
amgdt.shx
  4

  0
ENDTAB
  0
TABLE
  2
VIEW
  5
6
330
0
100
AcDbSymbolTable
 70
     0
  0
ENDTAB
  0
TABLE
  2
UCS
  5
7
330
0
100
AcDbSymbolTable
 70
     0
  0
ENDTAB
  0
TABLE
  2
APPID
  5
9
330
0
100
AcDbSymbolTable
 70
    27
  0
APPID
  5
12
330
9
100
AcDbSymbolTableRecord
100
AcDbRegAppTableRecord
  2
ACAD
 70
     0
  0
APPID
  5
46
330
9
100
AcDbSymbolTableRecord
100
AcDbRegAppTableRecord
  2
MCAD_NO_VIS
 70
     0
  0
APPID
  5
47
330
9
100
AcDbSymbolTableRecord
100
AcDbRegAppTableRecord
  2
ACAD_TEMP_GRAPHIC
 70
     0
  0
APPID
  5
58
330
9
100
AcDbSymbolTableRecord
100
AcDbRegAppTableRecord
  2
ACATTRIBSERVICES
 70
     0
  0
APPID
  5
EE
330
9
100
AcDbSymbolTableRecord
100
AcDbRegAppTableRecord
  2
AD_DRAW
 70
     0
  0
APPID
  5
10C
330
9
100
AcDbSymbolTableRecord
100
AcDbRegAppTableRecord
  2
DESIGNERASSEMBLIES
 70
     0
  0
APPID
  5
111
330
9
100
AcDbSymbolTableRecord
100
AcDbRegAppTableRecord
  2
ACADM_DIM_EDIT
 70
     0
  0
APPID
  5
112
330
9
100
AcDbSymbolTableRecord
100
AcDbRegAppTableRecord
  2
AMDT_DM_ADJ
 70
     0
  0
APPID
  5
1A3
330
9
100
AcDbSymbolTableRecord
100
AcDbRegAppTableRecord
  2
ACAD_DSTYLE_DIMARC_LENGTH_SYMBOL
 70
     0
  0
APPID
  5
1A4
330
9
100
AcDbSymbolTableRecord
100
AcDbRegAppTableRecord
  2
ACAD_DSTYLE_DIMJOGGED_JOGANGLE_SYMBOL
 70
     0
  0
APPID
  5
1016
330
9
100
AcDbSymbolTableRecord
100
AcDbRegAppTableRecord
  2
GENIUS_GENODEF_13
 70
     0
  0
APPID
  5
1017
330
9
100
AcDbSymbolTableRecord
100
AcDbRegAppTableRecord
  2
GENIUS_GENREC_13
 70
     0
  0
APPID
  5
1018
330
9
100
AcDbSymbolTableRecord
100
AcDbRegAppTableRecord
  2
GENIUS_GENOBJ-N-REC_13
 70
     0
  0
APPID
  5
1019
330
9
100
AcDbSymbolTableRecord
100
AcDbRegAppTableRecord
  2
GENIUS_GENDTOL_13
 70
     0
  0
APPID
  5
101A
330
9
100
AcDbSymbolTableRecord
100
AcDbRegAppTableRecord
  2
GENIUS_GENOBJ-N-CEN_13
 70
     0
  0
APPID
  5
101B
330
9
100
AcDbSymbolTableRecord
100
AcDbRegAppTableRecord
  2
GENIUS_GENOBJ-N-HTC_13
 70
     0
  0
APPID
  5
101C
330
9
100
AcDbSymbolTableRecord
100
AcDbRegAppTableRecord
  2
GENIUS_GENHATCH_13
 70
     0
  0
APPID
  5
101D
330
9
100
AcDbSymbolTableRecord
100
AcDbRegAppTableRecord
  2
GENIUS_GENFIL_13
 70
     0
  0
APPID
  5
101E
330
9
100
AcDbSymbolTableRecord
100
AcDbRegAppTableRecord
  2
GENIUS_GENOBJ-N-CHA_13
 70
     0
  0
APPID
  5
101F
330
9
100
AcDbSymbolTableRecord
100
AcDbRegAppTableRecord
  2
GENIUS_GENOBJ-N-FIL_13
 70
     0
  0
APPID
  5
1299
330
9
100
AcDbSymbolTableRecord
100
AcDbRegAppTableRecord
  2
AcAecLayerStandard
 70
     0
  0
APPID
  5
129B
330
9
100
AcDbSymbolTableRecord
100
AcDbRegAppTableRecord
  2
GENIUS_GENCEN_19
 70
     0
  0
APPID
  5
1F3B
330
9
100
AcDbSymbolTableRecord
100
AcDbRegAppTableRecord
  2
GENIUS_GENOLIS_13
 70
     0
  0
APPID
  5
1F3C
330
9
100
AcDbSymbolTableRecord
100
AcDbRegAppTableRecord
  2
GENIUS_GENOENT_13
 70
     0
  0
APPID
  5
1F3D
330
9
100
AcDbSymbolTableRecord
100
AcDbRegAppTableRecord
  2
GENIUS_GENOBJ-N-CRS_13
 70
     0
  0
APPID
  5
1F3E
330
9
100
AcDbSymbolTableRecord
100
AcDbRegAppTableRecord
  2
GENIUS_GENOREF_13
 70
     0
  0
APPID
  5
22A8
330
9
100
AcDbSymbolTableRecord
100
AcDbRegAppTableRecord
  2
ACAD_EXEMPT_FROM_CAD_STANDARDS
 70
     0
  0
ENDTAB
  0
TABLE
  2
DIMSTYLE
  5
A
330
0
100
AcDbSymbolTable
 70
    23
100
AcDbDimStyleTable
 71
     2
340
43C
340
81
  0
DIMSTYLE
105
81
330
A
100
AcDbSymbolTableRecord
100
AcDbDimStyleTableRecord
  2
AM_ISO
 70
     0
  4
"
 41
2.5
 42
1.0
 43
10.0
 44
1.0
 47
0.1
 48
0.1
 73
     0
 74
     0
 77
     1
 78
     8
 79
     2
140
3.5
141
0.0
143
0.0393701
146
0.71
147
1.5
172
     1
176
   256
177
   256
178
     2
271
     2
272
     3
274
     4
283
     0
284
     8
340
11
371
    -1
372
    -1
1001
ACAD_DSTYLE_DIMARC_LENGTH_SYMBOL
1070
   379
1070
     1
1001
ACAD_DSTYLE_DIMJOGGED_JOGANGLE_SYMBOL
1070
   384
1040
0.7853981633974483
  0
DIMSTYLE
105
82
330
A
100
AcDbSymbolTableRecord
100
AcDbDimStyleTableRecord
  2
AM_ISO$3
 70
     0
  4
"
 41
2.5
 42
1.0
 43
10.0
 44
1.0
 47
0.1
 48
0.1
 73
     0
 77
     1
 78
     8
 79
     2
140
3.5
141
0.0
143
0.0393701
146
0.71
147
1.5
176
   256
177
   256
178
     2
271
     2
272
     3
274
     4
283
     0
284
     8
288
     1
289
     0
340
11
371
    -1
372
    -1
1001
ACAD_DSTYLE_DIMARC_LENGTH_SYMBOL
1070
   379
1070
     1
1001
ACAD_DSTYLE_DIMJOGGED_JOGANGLE_SYMBOL
1070
   384
1040
0.7853981633974483
  0
DIMSTYLE
105
83
330
A
100
AcDbSymbolTableRecord
100
AcDbDimStyleTableRecord
  2
AM_ISO$4
 70
     0
  4
"
 41
2.5
 42
1.0
 43
10.0
 44
1.0
 47
0.1
 48
0.1
 73
     0
 77
     1
 78
     8
 79
     2
140
3.5
141
0.0
143
0.0393701
146
0.71
147
1.5
176
   256
177
   256
178
     2
271
     2
272
     3
274
     4
283
     0
284
     8
288
     1
289
     0
340
11
371
    -1
372
    -1
1001
ACAD_DSTYLE_DIMARC_LENGTH_SYMBOL
1070
   379
1070
     1
1001
ACAD_DSTYLE_DIMJOGGED_JOGANGLE_SYMBOL
1070
   384
1040
0.7853981633974483
  0
DIMSTYLE
105
84
330
A
100
AcDbSymbolTableRecord
100
AcDbDimStyleTableRecord
  2
AM_ISO$6
 70
     0
  4
"
 41
2.5
 42
1.0
 43
10.0
 44
1.0
 47
0.1
 48
0.1
 73
     0
 74
     0
 78
     8
 79
     2
140
3.5
141
0.0
143
0.0393701
146
0.71
147
1.5
172
     1
176
   256
177
   256
178
     2
271
     2
272
     3
274
     4
283
     0
284
     8
340
11
371
    -1
372
    -1
1001
ACAD_DSTYLE_DIMARC_LENGTH_SYMBOL
1070
   379
1070
     1
1001
ACAD_DSTYLE_DIMJOGGED_JOGANGLE_SYMBOL
1070
   384
1040
0.7853981633974483
  0
DIMSTYLE
105
85
330
A
100
AcDbSymbolTableRecord
100
AcDbDimStyleTableRecord
  2
AM_ISO$7
 70
     0
  4
"
 41
2.5
 42
1.0
 43
10.0
 44
1.0
 47
0.1
 48
0.1
 73
     0
 74
     0
 77
     1
 78
     8
 79
     2
140
5.0
141
0.0
143
0.0393701
146
0.71
147
1.5
172
     1
176
   256
177
   256
178
     2
271
     2
272
     3
274
     4
283
     0
284
     8
340
11
371
    -1
372
    -1
1001
ACAD_DSTYLE_DIMARC_LENGTH_SYMBOL
1070
   379
1070
     1
1001
ACAD_DSTYLE_DIMJOGGED_JOGANGLE_SYMBOL
1070
   384
1040
0.7853981633974483
  0
DIMSTYLE
105
86
330
A
100
AcDbSymbolTableRecord
100
AcDbDimStyleTableRecord
  2
AM_ISO$SF
 70
     0
  4
"
 41
2.5
 42
1.0
 43
10.0
 44
1.0
 47
0.1
 48
0.1
 73
     0
 74
     0
 75
     1
 76
     1
 77
     1
 78
     8
 79
     2
140
3.5
141
0.0
143
0.0393701
146
0.71
147
1.5
172
     1
176
   256
177
   256
178
     2
271
     2
272
     3
274
     4
283
     0
284
     8
340
11
371
    -1
372
    -1
1001
ACAD_DSTYLE_DIMARC_LENGTH_SYMBOL
1070
   379
1070
     1
1001
ACAD_DSTYLE_DIMJOGGED_JOGANGLE_SYMBOL
1070
   384
1040
0.7853981633974483
  0
DIMSTYLE
105
8B
330
A
100
AcDbSymbolTableRecord
100
AcDbDimStyleTableRecord
  2
AM_ISO$SH
 70
     0
  4
"
 41
2.5
 42
1.0
 43
10.0
 44
1.0
 47
0.1
 48
0.1
 73
     0
 74
     0
 75
     1
 76
     1
 77
     1
 78
     8
 79
     2
140
3.5
141
0.0
143
0.0393701
144
2.0
146
0.71
147
1.5
172
     1
173
     1
176
   256
177
   256
178
     2
271
     2
272
     3
274
     4
283
     0
284
     8
340
11
343
87
371
    -1
372
    -1
1001
ACAD_DSTYLE_DIMARC_LENGTH_SYMBOL
1070
   379
1070
     1
1001
ACAD_DSTYLE_DIMJOGGED_JOGANGLE_SYMBOL
1070
   384
1040
0.7853981633974483
  0
DIMSTYLE
105
43C
330
A
100
AcDbSymbolTableRecord
100
AcDbDimStyleTableRecord
  2
GEN-ISO
 70
     0
 41
3.5
 42
1.0
 43
8.0
 44
2.0
 47
0.1
 48
0.1
 73
     0
 74
     0
 77
     1
 78
     8
140
3.5
141
2.0
146
0.71
147
1.5
172
     1
176
   256
177
   256
178
     2
271
     2
272
     2
340
11
  0
DIMSTYLE
105
43D
330
A
100
AcDbSymbolTableRecord
100
AcDbDimStyleTableRecord
  2
AM_ANSI
 70
     0
  4
mm
 41
0.1
 42
0.05
 43
0.5
 44
0.1
 47
0.1
 48
0.1
 78
     7
 79
     2
140
0.12
141
0.0
146
0.71
147
0.06
176
   256
177
   256
178
     2
274
     4
284
     7
340
11
371
    -1
372
    -1
1001
ACAD_DSTYLE_DIMARC_LENGTH_SYMBOL
1070
   379
1070
     1
1001
ACAD_DSTYLE_DIMJOGGED_JOGANGLE_SYMBOL
1070
   384
1040
0.7853981633974483
  0
DIMSTYLE
105
43E
330
A
100
AcDbSymbolTableRecord
100
AcDbDimStyleTableRecord
  2
AM_ANSI$3
 70
     0
  4
mm
 41
0.1
 42
0.05
 43
0.5
 44
0.1
 47
0.1
 48
0.1
 78
     7
 79
     2
140
0.12
141
0.0
146
0.71
147
0.06
176
   256
177
   256
178
     2
274
     4
284
     7
288
     1
289
     0
340
11
371
    -1
372
    -1
1001
ACAD_DSTYLE_DIMARC_LENGTH_SYMBOL
1070
   379
1070
     1
1001
ACAD_DSTYLE_DIMJOGGED_JOGANGLE_SYMBOL
1070
   384
1040
0.7853981633974483
  0
DIMSTYLE
105
43F
330
A
100
AcDbSymbolTableRecord
100
AcDbDimStyleTableRecord
  2
AM_ANSI$4
 70
     0
  4
mm
 41
0.1
 42
0.05
 43
0.5
 44
0.1
 47
0.1
 48
0.1
 78
     7
 79
     2
140
0.12
141
0.0
146
0.71
147
0.06
176
   256
177
   256
178
     2
274
     4
284
     7
288
     1
289
     0
340
11
371
    -1
372
    -1
1001
ACAD_DSTYLE_DIMARC_LENGTH_SYMBOL
1070
   379
1070
     1
1001
ACAD_DSTYLE_DIMJOGGED_JOGANGLE_SYMBOL
1070
   384
1040
0.7853981633974483
  0
DIMSTYLE
105
440
330
A
100
AcDbSymbolTableRecord
100
AcDbDimStyleTableRecord
  2
AM_ANSI$7
 70
     0
  4
mm
 41
0.1
 42
0.05
 43
0.5
 44
0.1
 47
0.1
 48
0.1
 78
     7
 79
     2
140
0.24
141
0.0
146
0.71
147
0.06
176
   256
177
   256
178
     2
274
     4
284
     7
340
11
371
    -1
372
    -1
1001
ACAD_DSTYLE_DIMARC_LENGTH_SYMBOL
1070
   379
1070
     1
1001
ACAD_DSTYLE_DIMJOGGED_JOGANGLE_SYMBOL
1070
   384
1040
0.7853981633974483
  0
DIMSTYLE
105
441
330
A
100
AcDbSymbolTableRecord
100
AcDbDimStyleTableRecord
  2
AM_ANSI$SF
 70
     0
  4
mm
 41
0.1
 42
0.05
 43
0.5
 44
0.1
 47
0.1
 48
0.1
 75
     1
 76
     1
 78
     7
 79
     2
140
0.12
141
0.0
146
0.71
147
0.06
176
   256
177
   256
178
     2
274
     4
284
     7
340
11
371
    -1
372
    -1
1001
ACAD_DSTYLE_DIMARC_LENGTH_SYMBOL
1070
   379
1070
     1
1001
ACAD_DSTYLE_DIMJOGGED_JOGANGLE_SYMBOL
1070
   384
1040
0.7853981633974483
  0
DIMSTYLE
105
442
330
A
100
AcDbSymbolTableRecord
100
AcDbDimStyleTableRecord
  2
AM_ANSI$SH
 70
     0
  4
mm
 41
0.1
 42
0.05
 43
0.5
 44
0.1
 47
0.1
 48
0.1
 75
     1
 76
     1
 78
     7
 79
     2
140
0.12
141
0.0
146
0.71
147
0.06
173
     1
176
   256
177
   256
178
     2
274
     4
284
     7
340
11
343
87
371
    -1
372
    -1
1001
ACAD_DSTYLE_DIMARC_LENGTH_SYMBOL
1070
   379
1070
     1
1001
ACAD_DSTYLE_DIMJOGGED_JOGANGLE_SYMBOL
1070
   384
1040
0.7853981633974483
  0
DIMSTYLE
105
100F
330
A
100
AcDbSymbolTableRecord
100
AcDbDimStyleTableRecord
  2
AM_DIN
 70
     0
  4
"
 41
2.5
 42
1.0
 43
10.0
 44
1.0
 47
0.1
 48
0.1
 73
     0
 74
     0
 77
     1
 78
     8
 79
     2
140
3.5
141
0.0
143
0.0393701
146
0.71
147
1.5
172
     1
176
   256
177
   256
178
     2
271
     2
272
     3
274
     4
283
     0
284
     8
340
11
371
    -1
372
    -1
1001
ACAD_DSTYLE_DIMARC_LENGTH_SYMBOL
1070
   379
1070
     0
1001
ACAD_DSTYLE_DIMJOGGED_JOGANGLE_SYMBOL
1070
   384
1040
1.570796326794896
  0
DIMSTYLE
105
1010
330
A
100
AcDbSymbolTableRecord
100
AcDbDimStyleTableRecord
  2
AM_DIN$3
 70
     0
  4
"
 41
2.5
 42
1.0
 43
10.0
 44
1.0
 47
0.1
 48
0.1
 73
     0
 77
     1
 78
     8
 79
     2
140
3.5
141
0.0
143
0.0393701
146
0.71
147
1.5
176
   256
177
   256
178
     2
271
     2
272
     3
274
     4
283
     0
284
     8
288
     1
289
     0
340
11
371
    -1
372
    -1
1001
ACAD_DSTYLE_DIMARC_LENGTH_SYMBOL
1070
   379
1070
     0
1001
ACAD_DSTYLE_DIMJOGGED_JOGANGLE_SYMBOL
1070
   384
1040
1.570796326794896
  0
DIMSTYLE
105
1011
330
A
100
AcDbSymbolTableRecord
100
AcDbDimStyleTableRecord
  2
AM_DIN$4
 70
     0
  4
"
 41
2.5
 42
1.0
 43
10.0
 44
1.0
 47
0.1
 48
0.1
 73
     0
 77
     1
 78
     8
 79
     2
140
3.5
141
0.0
143
0.0393701
146
0.71
147
1.5
176
   256
177
   256
178
     2
271
     2
272
     3
274
     4
283
     0
284
     8
288
     1
289
     0
340
11
371
    -1
372
    -1
1001
ACAD_DSTYLE_DIMARC_LENGTH_SYMBOL
1070
   379
1070
     0
1001
ACAD_DSTYLE_DIMJOGGED_JOGANGLE_SYMBOL
1070
   384
1040
1.570796326794896
  0
DIMSTYLE
105
1012
330
A
100
AcDbSymbolTableRecord
100
AcDbDimStyleTableRecord
  2
AM_DIN$6
 70
     0
  4
"
 41
2.5
 42
1.0
 43
10.0
 44
1.0
 47
0.1
 48
0.1
 73
     0
 74
     0
 78
     8
 79
     2
140
3.5
141
0.0
143
0.0393701
146
0.71
147
1.5
172
     1
176
   256
177
   256
178
     2
271
     2
272
     3
274
     4
283
     0
284
     8
340
11
371
    -1
372
    -1
1001
ACAD_DSTYLE_DIMARC_LENGTH_SYMBOL
1070
   379
1070
     0
1001
ACAD_DSTYLE_DIMJOGGED_JOGANGLE_SYMBOL
1070
   384
1040
1.570796326794896
  0
DIMSTYLE
105
1013
330
A
100
AcDbSymbolTableRecord
100
AcDbDimStyleTableRecord
  2
AM_DIN$7
 70
     0
  4
"
 41
2.5
 42
1.0
 43
10.0
 44
1.0
 47
0.1
 48
0.1
 73
     0
 74
     0
 77
     1
 78
     8
 79
     2
140
5.0
141
0.0
143
0.0393701
146
0.71
147
1.5
172
     1
176
   256
177
   256
178
     2
271
     2
272
     3
274
     4
283
     0
284
     8
340
11
371
    -1
372
    -1
1001
ACAD_DSTYLE_DIMARC_LENGTH_SYMBOL
1070
   379
1070
     0
1001
ACAD_DSTYLE_DIMJOGGED_JOGANGLE_SYMBOL
1070
   384
1040
1.570796326794896
  0
DIMSTYLE
105
1014
330
A
100
AcDbSymbolTableRecord
100
AcDbDimStyleTableRecord
  2
AM_DIN$SF
 70
     0
  4
"
 41
2.5
 42
1.0
 43
10.0
 44
1.0
 47
0.1
 48
0.1
 73
     0
 74
     0
 75
     1
 76
     1
 77
     1
 78
     8
 79
     2
140
3.5
141
0.0
143
0.0393701
146
0.71
147
1.5
172
     1
176
   256
177
   256
178
     2
271
     2
272
     3
274
     4
283
     0
284
     8
340
11
371
    -1
372
    -1
1001
ACAD_DSTYLE_DIMARC_LENGTH_SYMBOL
1070
   379
1070
     0
1001
ACAD_DSTYLE_DIMJOGGED_JOGANGLE_SYMBOL
1070
   384
1040
1.570796326794896
  0
DIMSTYLE
105
1015
330
A
100
AcDbSymbolTableRecord
100
AcDbDimStyleTableRecord
  2
AM_DIN$SH
 70
     0
  4
"
 41
2.5
 42
1.0
 43
10.0
 44
1.0
 47
0.1
 48
0.1
 73
     0
 74
     0
 75
     1
 76
     1
 77
     1
 78
     8
 79
     2
140
3.5
141
0.0
143
0.0393701
144
2.0
146
0.71
147
1.5
172
     1
173
     1
176
   256
177
   256
178
     2
271
     2
272
     3
274
     4
283
     0
284
     8
340
11
343
87
371
    -1
372
    -1
1001
ACAD_DSTYLE_DIMARC_LENGTH_SYMBOL
1070
   379
1070
     0
1001
ACAD_DSTYLE_DIMJOGGED_JOGANGLE_SYMBOL
1070
   384
1040
1.570796326794896
  0
DIMSTYLE
105
13C6
330
A
100
AcDbSymbolTableRecord
100
AcDbDimStyleTableRecord
  2
AM_ISO$0
 70
     0
  4
"
 41
2.5
 42
1.0
 43
10.0
 44
1.0
 47
0.1
 48
0.1
 73
     0
 74
     0
 77
     1
 78
     8
 79
     2
140
3.5
141
0.0
143
0.0393701
146
0.71
147
1.5
172
     1
176
   256
177
   256
178
     2
271
     2
272
     3
274
     4
283
     0
284
     8
340
11
371
    -1
372
    -1
1001
ACAD_DSTYLE_DIMARC_LENGTH_SYMBOL
1070
   379
1070
     1
1001
ACAD_DSTYLE_DIMJOGGED_JOGANGLE_SYMBOL
1070
   384
1040
0.7853981633974483
  0
DIMSTYLE
105
15A8
102
{ACAD_REACTORS
330
1785
330
1AD8
330
1C4A
330
16EE
330
16ED
330
21BB
330
2217
330
2340
102
}
330
A
100
AcDbSymbolTableRecord
100
AcDbDimStyleTableRecord
  2
GEN-ISO$0
 70
     0
  3
<>
 40
4.5
 41
2.5
 42
1.0
 43
7.0
 44
1.0
 47
0.1
 48
0.1
 73
     0
 74
     0
 77
     1
 78
     8
140
3.5
141
0.0
143
0.03937
146
0.71
147
0.6
172
     1
176
   256
177
   256
178
     2
271
     2
272
     2
284
     8
285
     8
286
     8
340
11
  0
ENDTAB
  0
TABLE
  2
BLOCK_RECORD
  5
1
330
0
100
AcDbSymbolTable
 70
    17
  0
BLOCK_RECORD
  5
1F
102
{ACAD_XDICTIONARY
360
8F
102
}
330
1
100
AcDbSymbolTableRecord
100
AcDbBlockTableRecord
  2
*Model_Space
340
22
  0
BLOCK_RECORD
  5
1B
330
1
100
AcDbSymbolTableRecord
100
AcDbBlockTableRecord
  2
*Paper_Space
340
1E
  0
BLOCK_RECORD
  5
23
330
1
100
AcDbSymbolTableRecord
100
AcDbBlockTableRecord
  2
*Paper_Space0
340
26
  0
BLOCK_RECORD
  5
87
330
1
100
AcDbSymbolTableRecord
100
AcDbBlockTableRecord
  2
GENAXEH
340
0
  0
BLOCK_RECORD
  5
14D2
330
1
100
AcDbSymbolTableRecord
100
AcDbBlockTableRecord
  2
*X3
340
0
102
{BLKREFS
331
1781
102
}
  0
BLOCK_RECORD
  5
14ED
330
1
100
AcDbSymbolTableRecord
100
AcDbBlockTableRecord
  2
*X4
340
0
102
{BLKREFS
331
1783
102
}
  0
BLOCK_RECORD
  5
1796
330
1
100
AcDbSymbolTableRecord
100
AcDbBlockTableRecord
  2
*D5
340
0
  0
BLOCK_RECORD
  5
17A2
330
1
100
AcDbSymbolTableRecord
100
AcDbBlockTableRecord
  2
*D6
340
0
  0
BLOCK_RECORD
  5
17C6
330
1
100
AcDbSymbolTableRecord
100
AcDbBlockTableRecord
  2
*D7
340
0
  0
BLOCK_RECORD
  5
1976
330
1
100
AcDbSymbolTableRecord
100
AcDbBlockTableRecord
  2
*X8
340
0
102
{BLKREFS
331
1A15
102
}
  0
BLOCK_RECORD
  5
1980
330
1
100
AcDbSymbolTableRecord
100
AcDbBlockTableRecord
  2
*X9
340
0
102
{BLKREFS
331
1A17
102
}
  0
BLOCK_RECORD
  5
1989
330
1
100
AcDbSymbolTableRecord
100
AcDbBlockTableRecord
  2
*X10
340
0
102
{BLKREFS
331
1A3C
102
}
  0
BLOCK_RECORD
  5
1993
330
1
100
AcDbSymbolTableRecord
100
AcDbBlockTableRecord
  2
*X11
340
0
102
{BLKREFS
331
1A3E
102
}
  0
BLOCK_RECORD
  5
1AD9
330
1
100
AcDbSymbolTableRecord
100
AcDbBlockTableRecord
  2
*D12
340
0
  0
BLOCK_RECORD
  5
1C4B
330
1
100
AcDbSymbolTableRecord
100
AcDbBlockTableRecord
  2
*D13
340
0
  0
BLOCK_RECORD
  5
21BC
330
1
100
AcDbSymbolTableRecord
100
AcDbBlockTableRecord
  2
*D14
340
0
  0
BLOCK_RECORD
  5
2218
330
1
100
AcDbSymbolTableRecord
100
AcDbBlockTableRecord
  2
*D15
340
0
  0
BLOCK_RECORD
  5
2341
330
1
100
AcDbSymbolTableRecord
100
AcDbBlockTableRecord
  2
*D16
340
0
  0
ENDTAB
  0
ENDSEC
  0
SECTION
  2
BLOCKS
  0
BLOCK
  5
20
330
1F
100
AcDbEntity
  8
0
100
AcDbBlockBegin
  2
*Model_Space
 70
     0
 10
0.0
 20
0.0
 30
0.0
  3
*Model_Space
  1

  0
ENDBLK
  5
21
330
1F
100
AcDbEntity
  8
0
100
AcDbBlockEnd
  0
BLOCK
  5
1C
330
1B
100
AcDbEntity
 67
     1
  8
0
100
AcDbBlockBegin
  2
*Paper_Space
 70
     0
 10
0.0
 20
0.0
 30
0.0
  3
*Paper_Space
  1

  0
ENDBLK
  5
1D
330
1B
100
AcDbEntity
 67
     1
  8
0
100
AcDbBlockEnd
  0
BLOCK
  5
24
330
23
100
AcDbEntity
 67
     1
  8
0
100
AcDbBlockBegin
  2
*Paper_Space0
 70
     0
 10
0.0
 20
0.0
 30
0.0
  3
*Paper_Space0
  1

  0
ENDBLK
  5
25
330
23
100
AcDbEntity
 67
     1
  8
0
100
AcDbBlockEnd
  0
BLOCK
  5
89
330
87
100
AcDbEntity
  8
0
100
AcDbBlockBegin
  2
GENAXEH
 70
     0
 10
0.0
 20
0.0
 30
0.0
  3
GENAXEH
  1

  0
LINE
  5
88
330
87
100
AcDbEntity
  8
0
100
AcDbLine
 10
-1.0
 20
0.0
 30
0.0
 11
1.0
 21
0.0
 31
0.0
  0
ENDBLK
  5
8A
330
87
100
AcDbEntity
  8
0
100
AcDbBlockEnd
  0
BLOCK
  5
14D3
330
14D2
100
AcDbEntity
  8
0
100
AcDbBlockBegin
  2
*X3
 70
     1
 10
0.0
 20
0.0
 30
0.0
  3
*X3
  1
D:\Integra\Scan_2\50094000.dwg
  0
LINE
  5
14D4
330
14D2
100
AcDbEntity
  8
0
 62
     0
100
AcDbLine
 10
219.761134
 20
573.3145249999999
 30
0.0
 11
226.761134
 21
580.314525
 31
0.0
  0
LINE
  5
14D5
330
14D2
100
AcDbEntity
  8
0
 62
     0
100
AcDbLine
 10
219.761134
 20
580.385592
 30
0.0
 11
226.761134
 21
587.3855919999999
 31
0.0
  0
LINE
  5
14D6
330
14D2
100
AcDbEntity
  8
0
 62
     0
100
AcDbLine
 10
219.761134
 20
587.4566599999999
 30
0.0
 11
226.761134
 21
594.4566599999999
 31
0.0
  0
LINE
  5
14D7
330
14D2
100
AcDbEntity
  8
0
 62
     0
100
AcDbLine
 10
219.761134
 20
594.5277279999999
 30
0.0
 11
226.761134
 21
601.527728
 31
0.0
  0
LINE
  5
14D8
330
14D2
100
AcDbEntity
  8
0
 62
     0
100
AcDbLine
 10
219.761134
 20
601.598796
 30
0.0
 11
226.828416
 21
608.6660779999999
 31
0.0
  0
LINE
  5
14D9
330
14D2
100
AcDbEntity
  8
0
 62
     0
100
AcDbLine
 10
235.97202
 20
617.809682
 30
0.0
 11
239.213932
 21
621.051593
 31
0.0
  0
LINE
  5
14DA
330
14D2
100
AcDbEntity
  8
0
 62
     0
100
AcDbLine
 10
219.761134
 20
608.6698639999999
 30
0.0
 11
236.473936
 21
625.3826659999999
 31
0.0
  0
LINE
  5
14DB
330
14D2
100
AcDbEntity
  8
0
 62
     0
100
AcDbLine
 10
220.651455
 20
616.6312529999999
 30
0.0
 11
225.636361
 21
621.616159
 31
0.0
  0
LINE
  5
14DC
330
14D2
100
AcDbEntity
  8
0
 62
     0
100
AcDbLine
 10
219.761134
 20
566.243457
 30
0.0
 11
226.761134
 21
573.243457
 31
0.0
  0
LINE
  5
14DD
330
14D2
100
AcDbEntity
  8
0
 62
     0
100
AcDbLine
 10
219.761134
 20
559.1723889999999
 30
0.0
 11
226.761134
 21
566.1723889999999
 31
0.0
  0
LINE
  5
14DE
330
14D2
100
AcDbEntity
  8
0
 62
     0
100
AcDbLine
 10
219.761134
 20
552.1013209999999
 30
0.0
 11
226.761134
 21
559.1013209999999
 31
0.0
  0
LINE
  5
14DF
330
14D2
100
AcDbEntity
  8
0
 62
     0
100
AcDbLine
 10
222.617459
 20
547.8865789999999
 30
0.0
 11
226.761134
 21
552.030253
 31
0.0
  0
ENDBLK
  5
14E0
330
14D2
100
AcDbEntity
  8
0
100
AcDbBlockEnd
  0
BLOCK
  5
14EE
330
14ED
100
AcDbEntity
  8
0
100
AcDbBlockBegin
  2
*X4
 70
     1
 10
0.0
 20
0.0
 30
0.0
  3
*X4
  1
GEVFRAME
  0
LINE
  5
14EF
330
14ED
100
AcDbEntity
  8
0
 62
     0
100
AcDbLine
 10
142.305857
 20
549.599363
 30
0.0
 11
146.21681
 21
553.510316
 31
0.0
  0
LINE
  5
14F0
330
14ED
100
AcDbEntity
  8
0
 62
     0
100
AcDbLine
 10
196.380718
 20
603.6742239999999
 30
0.0
 11
200.546381
 21
607.839887
 31
0.0
  0
LINE
  5
14F1
330
14ED
100
AcDbEntity
  8
0
 62
     0
100
AcDbLine
 10
142.025776
 20
553.561923
 30
0.0
 11
145.96135
 21
557.4974969999999
 31
0.0
  0
LINE
  5
14F2
330
14ED
100
AcDbEntity
  8
0
 62
     0
100
AcDbLine
 10
195.782288
 20
607.318434
 30
0.0
 11
200.546381
 21
612.0825269999999
 31
0.0
  0
LINE
  5
14F3
330
14ED
100
AcDbEntity
  8
0
 62
     0
100
AcDbLine
 10
141.745696
 20
557.524483
 30
0.0
 11
145.7058909999999
 21
561.484678
 31
0.0
  0
LINE
  5
14F4
330
14ED
100
AcDbEntity
  8
0
 62
     0
100
AcDbLine
 10
195.782288
 20
611.561075
 30
0.0
 11
200.546381
 21
616.325168
 31
0.0
  0
LINE
  5
14F5
330
14ED
100
AcDbEntity
  8
0
 62
     0
100
AcDbLine
 10
141.465615
 20
561.4870429999999
 30
0.0
 11
145.450431
 21
565.4718589999999
 31
0.0
  0
LINE
  5
14F6
330
14ED
100
AcDbEntity
  8
0
 62
     0
100
AcDbLine
 10
195.782288
 20
615.803716
 30
0.0
 11
200.060034
 21
620.081462
 31
0.0
  0
LINE
  5
14F7
330
14ED
100
AcDbEntity
  8
0
 62
     0
100
AcDbLine
 10
141.185535
 20
565.449603
 30
0.0
 11
145.194971
 21
569.45904
 31
0.0
  0
LINE
  5
14F8
330
14ED
100
AcDbEntity
  8
0
 62
     0
100
AcDbLine
 10
195.782288
 20
620.0463570000001
 30
0.0
 11
195.817393
 21
620.081462
 31
0.0
  0
LINE
  5
14F9
330
14ED
100
AcDbEntity
  8
0
 62
     0
100
AcDbLine
 10
140.905454
 20
569.4121629999999
 30
0.0
 11
144.939511
 21
573.446221
 31
0.0
  0
LINE
  5
14FA
330
14ED
100
AcDbEntity
  8
0
 62
     0
100
AcDbLine
 10
140.625374
 20
573.374724
 30
0.0
 11
144.684051
 21
577.433402
 31
0.0
  0
LINE
  5
14FB
330
14ED
100
AcDbEntity
  8
0
 62
     0
100
AcDbLine
 10
140.345293
 20
577.3372839999999
 30
0.0
 11
144.428592
 21
581.420582
 31
0.0
  0
LINE
  5
14FC
330
14ED
100
AcDbEntity
  8
0
 62
     0
100
AcDbLine
 10
140.065212
 20
581.299844
 30
0.0
 11
144.173132
 21
585.407763
 31
0.0
  0
LINE
  5
14FD
330
14ED
100
AcDbEntity
  8
0
 62
     0
100
AcDbLine
 10
139.785132
 20
585.2624040000001
 30
0.0
 11
143.917672
 21
589.394944
 31
0.0
  0
LINE
  5
14FE
330
14ED
100
AcDbEntity
  8
0
 62
     0
100
AcDbLine
 10
139.505051
 20
589.224964
 30
0.0
 11
143.662212
 21
593.382125
 31
0.0
  0
LINE
  5
14FF
330
14ED
100
AcDbEntity
  8
0
 62
     0
100
AcDbLine
 10
139.2249709999999
 20
593.187524
 30
0.0
 11
143.406753
 21
597.3693059999999
 31
0.0
  0
LINE
  5
1500
330
14ED
100
AcDbEntity
  8
0
 62
     0
100
AcDbLine
 10
138.257412
 20
596.462607
 30
0.0
 11
143.151293
 21
601.356487
 31
0.0
  0
LINE
  5
1501
330
14ED
100
AcDbEntity
  8
0
 62
     0
100
AcDbLine
 10
137.000922
 20
599.448757
 30
0.0
 11
139.086314
 21
601.534149
 31
0.0
  0
LINE
  5
1502
330
14ED
100
AcDbEntity
  8
0
 62
     0
100
AcDbLine
 10
141.226389
 20
603.6742239999999
 30
0.0
 11
141.765015
 21
604.21285
 31
0.0
  0
LINE
  5
1503
330
14ED
100
AcDbEntity
  8
0
 62
     0
100
AcDbLine
 10
132.928865
 20
599.619341
 30
0.0
 11
134.843673
 21
601.534149
 31
0.0
  0
LINE
  5
1504
330
14ED
100
AcDbEntity
  8
0
 62
     0
100
AcDbLine
 10
136.983748
 20
603.6742239999999
 30
0.0
 11
141.765015
 21
608.45549
 31
0.0
  0
LINE
  5
1505
330
14ED
100
AcDbEntity
  8
0
 62
     0
100
AcDbLine
 10
129.840707
 20
600.773824
 30
0.0
 11
131.771081
 21
602.7041969999999
 31
0.0
  0
LINE
  5
1506
330
14ED
100
AcDbEntity
  8
0
 62
     0
100
AcDbLine
 10
137.000922
 20
607.9340379999999
 30
0.0
 11
141.765015
 21
612.6981309999999
 31
0.0
  0
LINE
  5
1507
330
14ED
100
AcDbEntity
  8
0
 62
     0
100
AcDbLine
 10
132.740658
 20
603.6737739999999
 30
0.0
 11
133.592447
 21
604.525563
 31
0.0
  0
LINE
  5
1508
330
14ED
100
AcDbEntity
  8
0
 62
     0
100
AcDbLine
 10
137.000922
 20
612.176679
 30
0.0
 11
141.765015
 21
616.9407719999999
 31
0.0
  0
LINE
  5
1509
330
14ED
100
AcDbEntity
  8
0
 62
     0
100
AcDbLine
 10
137.000922
 20
616.419319
 30
0.0
 11
140.663064
 21
620.081462
 31
0.0
  0
LINE
  5
150A
330
14ED
100
AcDbEntity
  8
0
 62
     0
100
AcDbLine
 10
142.585938
 20
545.636803
 30
0.0
 11
146.47227
 21
549.5231349999999
 31
0.0
  0
LINE
  5
150B
330
14ED
100
AcDbEntity
  8
0
 62
     0
100
AcDbLine
 10
200.623358
 20
603.6742239999999
 30
0.0
 11
201.474698
 21
604.525563
 31
0.0
  0
LINE
  5
150C
330
14ED
100
AcDbEntity
  8
0
 62
     0
100
AcDbLine
 10
194.128372
 20
597.1792370000001
 30
0.0
 11
198.483283
 21
601.534149
 31
0.0
  0
LINE
  5
150D
330
14ED
100
AcDbEntity
  8
0
 62
     0
100
AcDbLine
 10
142.866018
 20
541.6742429999999
 30
0.0
 11
146.72773
 21
545.5359539999999
 31
0.0
  0
LINE
  5
150E
330
14ED
100
AcDbEntity
  8
0
 62
     0
100
AcDbLine
 10
204.862324
 20
603.6705490000001
 30
0.0
 11
205.717338
 21
604.525563
 31
0.0
  0
LINE
  5
150F
330
14ED
100
AcDbEntity
  8
0
 62
     0
100
AcDbLine
 10
193.837937
 20
592.646161
 30
0.0
 11
200.546381
 21
599.3546049999999
 31
0.0
  0
LINE
  5
1510
330
14ED
100
AcDbEntity
  8
0
 62
     0
100
AcDbLine
 10
200.811116
 20
599.619341
 30
0.0
 11
202.725924
 21
601.534149
 31
0.0
  0
LINE
  5
1511
330
14ED
100
AcDbEntity
  8
0
 62
     0
100
AcDbLine
 10
143.146099
 20
537.711683
 30
0.0
 11
146.983189
 21
541.5487730000001
 31
0.0
  0
LINE
  5
1512
330
14ED
100
AcDbEntity
  8
0
 62
     0
100
AcDbLine
 10
205.053757
 20
599.619341
 30
0.0
 11
207.894111
 21
602.459695
 31
0.0
  0
LINE
  5
1513
330
14ED
100
AcDbEntity
  8
0
 62
     0
100
AcDbLine
 10
193.547501
 20
588.1130849999999
 30
0.0
 11
198.299544
 21
592.865128
 31
0.0
  0
LINE
  5
1514
330
14ED
100
AcDbEntity
  8
0
 62
     0
100
AcDbLine
 10
143.426179
 20
533.749123
 30
0.0
 11
147.246755
 21
537.5696979999999
 31
0.0
  0
LINE
  5
1515
330
14ED
100
AcDbEntity
  8
0
 62
     0
100
AcDbLine
 10
193.257066
 20
583.580009
 30
0.0
 11
197.976859
 21
588.299803
 31
0.0
  0
LINE
  5
1516
330
14ED
100
AcDbEntity
  8
0
 62
     0
100
AcDbLine
 10
147.489396
 20
533.569698
 30
0.0
 11
151.489396
 21
537.5696979999999
 31
0.0
  0
LINE
  5
1517
330
14ED
100
AcDbEntity
  8
0
 62
     0
100
AcDbLine
 10
192.96663
 20
579.0469329999999
 30
0.0
 11
197.654174
 21
583.7344769999999
 31
0.0
  0
LINE
  5
1518
330
14ED
100
AcDbEntity
  8
0
 62
     0
100
AcDbLine
 10
151.732036
 20
533.569698
 30
0.0
 11
155.732036
 21
537.5696979999999
 31
0.0
  0
LINE
  5
1519
330
14ED
100
AcDbEntity
  8
0
 62
     0
100
AcDbLine
 10
192.676195
 20
574.513857
 30
0.0
 11
197.3314889999999
 21
579.1691509999999
 31
0.0
  0
LINE
  5
151A
330
14ED
100
AcDbEntity
  8
0
 62
     0
100
AcDbLine
 10
155.974677
 20
533.569698
 30
0.0
 11
159.974677
 21
537.5696979999999
 31
0.0
  0
LINE
  5
151B
330
14ED
100
AcDbEntity
  8
0
 62
     0
100
AcDbLine
 10
192.38576
 20
569.980781
 30
0.0
 11
197.008804
 21
574.603825
 31
0.0
  0
LINE
  5
151C
330
14ED
100
AcDbEntity
  8
0
 62
     0
100
AcDbLine
 10
160.217318
 20
533.569698
 30
0.0
 11
164.217318
 21
537.5696979999999
 31
0.0
  0
LINE
  5
151D
330
14ED
100
AcDbEntity
  8
0
 62
     0
100
AcDbLine
 10
192.095324
 20
565.4477049999999
 30
0.0
 11
196.686119
 21
570.0384989999999
 31
0.0
  0
LINE
  5
151E
330
14ED
100
AcDbEntity
  8
0
 62
     0
100
AcDbLine
 10
164.459958
 20
533.569698
 30
0.0
 11
168.459958
 21
537.5696979999999
 31
0.0
  0
LINE
  5
151F
330
14ED
100
AcDbEntity
  8
0
 62
     0
100
AcDbLine
 10
191.804889
 20
560.9146289999999
 30
0.0
 11
196.363434
 21
565.4731739999999
 31
0.0
  0
LINE
  5
1520
330
14ED
100
AcDbEntity
  8
0
 62
     0
100
AcDbLine
 10
168.702599
 20
533.569698
 30
0.0
 11
172.702599
 21
537.5696979999999
 31
0.0
  0
LINE
  5
1521
330
14ED
100
AcDbEntity
  8
0
 62
     0
100
AcDbLine
 10
191.514453
 20
556.3815519999999
 30
0.0
 11
196.040749
 21
560.907848
 31
0.0
  0
LINE
  5
1522
330
14ED
100
AcDbEntity
  8
0
 62
     0
100
AcDbLine
 10
172.94524
 20
533.569698
 30
0.0
 11
176.94524
 21
537.5696979999999
 31
0.0
  0
LINE
  5
1523
330
14ED
100
AcDbEntity
  8
0
 62
     0
100
AcDbLine
 10
191.224018
 20
551.8484759999999
 30
0.0
 11
195.718064
 21
556.3425219999999
 31
0.0
  0
LINE
  5
1524
330
14ED
100
AcDbEntity
  8
0
 62
     0
100
AcDbLine
 10
177.18788
 20
533.569698
 30
0.0
 11
181.18788
 21
537.5696979999999
 31
0.0
  0
LINE
  5
1525
330
14ED
100
AcDbEntity
  8
0
 62
     0
100
AcDbLine
 10
190.933582
 20
547.3154
 30
0.0
 11
195.395379
 21
551.777196
 31
0.0
  0
LINE
  5
1526
330
14ED
100
AcDbEntity
  8
0
 62
     0
100
AcDbLine
 10
181.430521
 20
533.569698
 30
0.0
 11
185.430521
 21
537.5696979999999
 31
0.0
  0
LINE
  5
1527
330
14ED
100
AcDbEntity
  8
0
 62
     0
100
AcDbLine
 10
190.643147
 20
542.782324
 30
0.0
 11
195.072693
 21
547.21187
 31
0.0
  0
LINE
  5
1528
330
14ED
100
AcDbEntity
  8
0
 62
     0
100
AcDbLine
 10
185.673162
 20
533.569698
 30
0.0
 11
189.673162
 21
537.5696979999999
 31
0.0
  0
LINE
  5
1529
330
14ED
100
AcDbEntity
  8
0
 62
     0
100
AcDbLine
 10
190.352712
 20
538.249248
 30
0.0
 11
194.750008
 21
542.6465450000001
 31
0.0
  0
LINE
  5
152A
330
14ED
100
AcDbEntity
  8
0
 62
     0
100
AcDbLine
 10
189.915802
 20
533.569698
 30
0.0
 11
194.427323
 21
538.081219
 31
0.0
  0
LINE
  5
152B
330
14ED
100
AcDbEntity
  8
0
 62
     0
100
AcDbLine
 10
195.0844149999999
 20
547.3777049999999
 30
0.0
 11
191.187266
 21
551.274854
 31
0.0
  0
LINE
  5
152C
330
14ED
100
AcDbEntity
  8
0
 62
     0
100
AcDbLine
 10
138.787897
 20
603.6742239999999
 30
0.0
 11
137.000922
 21
605.461198
 31
0.0
  0
LINE
  5
152D
330
14ED
100
AcDbEntity
  8
0
 62
     0
100
AcDbLine
 10
143.291331
 20
599.170789
 30
0.0
 11
140.927972
 21
601.534149
 31
0.0
  0
LINE
  5
152E
330
14ED
100
AcDbEntity
  8
0
 62
     0
100
AcDbLine
 10
194.804334
 20
543.415145
 30
0.0
 11
190.931806
 21
547.287674
 31
0.0
  0
LINE
  5
152F
330
14ED
100
AcDbEntity
  8
0
 62
     0
100
AcDbLine
 10
134.545256
 20
603.6742239999999
 30
0.0
 11
133.693917
 21
604.525563
 31
0.0
  0
LINE
  5
1530
330
14ED
100
AcDbEntity
  8
0
 62
     0
100
AcDbLine
 10
143.581767
 20
594.637713
 30
0.0
 11
136.685331
 21
601.534149
 31
0.0
  0
LINE
  5
1531
330
14ED
100
AcDbEntity
  8
0
 62
     0
100
AcDbLine
 10
194.524254
 20
539.4525849999999
 30
0.0
 11
190.676346
 21
543.300493
 31
0.0
  0
LINE
  5
1532
330
14ED
100
AcDbEntity
  8
0
 62
     0
100
AcDbLine
 10
131.770631
 20
602.206208
 30
0.0
 11
130.141629
 21
603.83521
 31
0.0
  0
LINE
  5
1533
330
14ED
100
AcDbEntity
  8
0
 62
     0
100
AcDbLine
 10
143.872202
 20
590.104637
 30
0.0
 11
139.10599
 21
594.870849
 31
0.0
  0
LINE
  5
1534
330
14ED
100
AcDbEntity
  8
0
 62
     0
100
AcDbLine
 10
134.357498
 20
599.619341
 30
0.0
 11
132.44269
 21
601.534149
 31
0.0
  0
LINE
  5
1535
330
14ED
100
AcDbEntity
  8
0
 62
     0
100
AcDbLine
 10
137.148619
 20
596.8282199999999
 30
0.0
 11
137.000922
 21
596.9759169999999
 31
0.0
  0
LINE
  5
1536
330
14ED
100
AcDbEntity
  8
0
 62
     0
100
AcDbLine
 10
194.244173
 20
535.4900249999999
 30
0.0
 11
190.420886
 21
539.3133119999999
 31
0.0
  0
LINE
  5
1537
330
14ED
100
AcDbEntity
  8
0
 62
     0
100
AcDbLine
 10
144.162637
 20
585.571561
 30
0.0
 11
139.428675
 21
590.3055229999999
 31
0.0
  0
LINE
  5
1538
330
14ED
100
AcDbEntity
  8
0
 62
     0
100
AcDbLine
 10
191.921859
 20
533.569698
 30
0.0
 11
187.921859
 21
537.5696979999999
 31
0.0
  0
LINE
  5
1539
330
14ED
100
AcDbEntity
  8
0
 62
     0
100
AcDbLine
 10
144.453073
 20
581.0384849999999
 30
0.0
 11
139.751361
 21
585.7401969999999
 31
0.0
  0
LINE
  5
153A
330
14ED
100
AcDbEntity
  8
0
 62
     0
100
AcDbLine
 10
187.679219
 20
533.569698
 30
0.0
 11
183.679219
 21
537.5696979999999
 31
0.0
  0
LINE
  5
153B
330
14ED
100
AcDbEntity
  8
0
 62
     0
100
AcDbLine
 10
144.743508
 20
576.5054089999999
 30
0.0
 11
140.074046
 21
581.174871
 31
0.0
  0
LINE
  5
153C
330
14ED
100
AcDbEntity
  8
0
 62
     0
100
AcDbLine
 10
183.436578
 20
533.569698
 30
0.0
 11
179.436578
 21
537.5696979999999
 31
0.0
  0
LINE
  5
153D
330
14ED
100
AcDbEntity
  8
0
 62
     0
100
AcDbLine
 10
145.033944
 20
571.972332
 30
0.0
 11
140.396731
 21
576.609545
 31
0.0
  0
LINE
  5
153E
330
14ED
100
AcDbEntity
  8
0
 62
     0
100
AcDbLine
 10
179.193937
 20
533.569698
 30
0.0
 11
175.193937
 21
537.5696979999999
 31
0.0
  0
LINE
  5
153F
330
14ED
100
AcDbEntity
  8
0
 62
     0
100
AcDbLine
 10
145.324379
 20
567.439256
 30
0.0
 11
140.719416
 21
572.0442199999999
 31
0.0
  0
LINE
  5
1540
330
14ED
100
AcDbEntity
  8
0
 62
     0
100
AcDbLine
 10
174.951297
 20
533.569698
 30
0.0
 11
170.951297
 21
537.5696979999999
 31
0.0
  0
LINE
  5
1541
330
14ED
100
AcDbEntity
  8
0
 62
     0
100
AcDbLine
 10
145.614815
 20
562.9061799999999
 30
0.0
 11
141.042101
 21
567.478894
 31
0.0
  0
LINE
  5
1542
330
14ED
100
AcDbEntity
  8
0
 62
     0
100
AcDbLine
 10
170.708656
 20
533.569698
 30
0.0
 11
166.708656
 21
537.5696979999999
 31
0.0
  0
LINE
  5
1543
330
14ED
100
AcDbEntity
  8
0
 62
     0
100
AcDbLine
 10
145.90525
 20
558.3731039999999
 30
0.0
 11
141.364786
 21
562.9135679999999
 31
0.0
  0
LINE
  5
1544
330
14ED
100
AcDbEntity
  8
0
 62
     0
100
AcDbLine
 10
166.466015
 20
533.569698
 30
0.0
 11
162.466015
 21
537.5696979999999
 31
0.0
  0
LINE
  5
1545
330
14ED
100
AcDbEntity
  8
0
 62
     0
100
AcDbLine
 10
146.195685
 20
553.8400280000001
 30
0.0
 11
141.687471
 21
558.348242
 31
0.0
  0
LINE
  5
1546
330
14ED
100
AcDbEntity
  8
0
 62
     0
100
AcDbLine
 10
162.223375
 20
533.569698
 30
0.0
 11
158.223375
 21
537.5696979999999
 31
0.0
  0
LINE
  5
1547
330
14ED
100
AcDbEntity
  8
0
 62
     0
100
AcDbLine
 10
146.486121
 20
549.3069519999998
 30
0.0
 11
142.010156
 21
553.782916
 31
0.0
  0
LINE
  5
1548
330
14ED
100
AcDbEntity
  8
0
 62
     0
100
AcDbLine
 10
157.980734
 20
533.569698
 30
0.0
 11
153.980734
 21
537.5696979999999
 31
0.0
  0
LINE
  5
1549
330
14ED
100
AcDbEntity
  8
0
 62
     0
100
AcDbLine
 10
146.776556
 20
544.773876
 30
0.0
 11
142.332841
 21
549.2175909999999
 31
0.0
  0
LINE
  5
154A
330
14ED
100
AcDbEntity
  8
0
 62
     0
100
AcDbLine
 10
153.738093
 20
533.569698
 30
0.0
 11
149.738093
 21
537.5696979999999
 31
0.0
  0
LINE
  5
154B
330
14ED
100
AcDbEntity
  8
0
 62
     0
100
AcDbLine
 10
147.066992
 20
540.2408
 30
0.0
 11
142.655526
 21
544.652265
 31
0.0
  0
LINE
  5
154C
330
14ED
100
AcDbEntity
  8
0
 62
     0
100
AcDbLine
 10
149.495452
 20
533.569698
 30
0.0
 11
142.978212
 21
540.0869389999999
 31
0.0
  0
LINE
  5
154D
330
14ED
100
AcDbEntity
  8
0
 62
     0
100
AcDbLine
 10
145.252812
 20
533.569698
 30
0.0
 11
143.300897
 21
535.521613
 31
0.0
  0
LINE
  5
154E
330
14ED
100
AcDbEntity
  8
0
 62
     0
100
AcDbLine
 10
195.364495
 20
551.340265
 30
0.0
 11
191.442726
 21
555.2620349999999
 31
0.0
  0
LINE
  5
154F
330
14ED
100
AcDbEntity
  8
0
 62
     0
100
AcDbLine
 10
141.765015
 20
604.939746
 30
0.0
 11
137.000922
 21
609.703839
 31
0.0
  0
LINE
  5
1550
330
14ED
100
AcDbEntity
  8
0
 62
     0
100
AcDbLine
 10
195.644576
 20
555.3028259999999
 30
0.0
 11
191.698185
 21
559.249216
 31
0.0
  0
LINE
  5
1551
330
14ED
100
AcDbEntity
  8
0
 62
     0
100
AcDbLine
 10
141.765015
 20
609.182387
 30
0.0
 11
137.000922
 21
613.9464799999999
 31
0.0
  0
LINE
  5
1552
330
14ED
100
AcDbEntity
  8
0
 62
     0
100
AcDbLine
 10
195.924657
 20
559.265386
 30
0.0
 11
191.953645
 21
563.236397
 31
0.0
  0
LINE
  5
1553
330
14ED
100
AcDbEntity
  8
0
 62
     0
100
AcDbLine
 10
141.765015
 20
613.4250279999999
 30
0.0
 11
137.000922
 21
618.1891209999999
 31
0.0
  0
LINE
  5
1554
330
14ED
100
AcDbEntity
  8
0
 62
     0
100
AcDbLine
 10
196.204737
 20
563.2279459999999
 30
0.0
 11
192.209105
 21
567.223578
 31
0.0
  0
LINE
  5
1555
330
14ED
100
AcDbEntity
  8
0
 62
     0
100
AcDbLine
 10
141.765015
 20
617.6676679999999
 30
0.0
 11
139.351221
 21
620.081462
 31
0.0
  0
LINE
  5
1556
330
14ED
100
AcDbEntity
  8
0
 62
     0
100
AcDbLine
 10
196.484818
 20
567.1905059999999
 30
0.0
 11
192.464565
 21
571.2107589999999
 31
0.0
  0
LINE
  5
1557
330
14ED
100
AcDbEntity
  8
0
 62
     0
100
AcDbLine
 10
196.764898
 20
571.153066
 30
0.0
 11
192.720024
 21
575.19794
 31
0.0
  0
LINE
  5
1558
330
14ED
100
AcDbEntity
  8
0
 62
     0
100
AcDbLine
 10
197.044979
 20
575.115626
 30
0.0
 11
192.975484
 21
579.1851209999999
 31
0.0
  0
LINE
  5
1559
330
14ED
100
AcDbEntity
  8
0
 62
     0
100
AcDbLine
 10
197.32506
 20
579.078186
 30
0.0
 11
193.230944
 21
583.1723019999999
 31
0.0
  0
LINE
  5
155A
330
14ED
100
AcDbEntity
  8
0
 62
     0
100
AcDbLine
 10
197.60514
 20
583.0407459999999
 30
0.0
 11
193.486404
 21
587.159483
 31
0.0
  0
LINE
  5
155B
330
14ED
100
AcDbEntity
  8
0
 62
     0
100
AcDbLine
 10
197.885221
 20
587.0033059999999
 30
0.0
 11
193.741863
 21
591.1466639999999
 31
0.0
  0
LINE
  5
155C
330
14ED
100
AcDbEntity
  8
0
 62
     0
100
AcDbLine
 10
198.165301
 20
590.9658659999999
 30
0.0
 11
193.997323
 21
595.133845
 31
0.0
  0
LINE
  5
155D
330
14ED
100
AcDbEntity
  8
0
 62
     0
100
AcDbLine
 10
198.445382
 20
594.9284269999999
 30
0.0
 11
194.252783
 21
599.121025
 31
0.0
  0
LINE
  5
155E
330
14ED
100
AcDbEntity
  8
0
 62
     0
100
AcDbLine
 10
200.546381
 20
597.070068
 30
0.0
 11
196.082301
 21
601.534149
 31
0.0
  0
LINE
  5
155F
330
14ED
100
AcDbEntity
  8
0
 62
     0
100
AcDbLine
 10
202.239749
 20
599.619341
 30
0.0
 11
200.324941
 21
601.534149
 31
0.0
  0
LINE
  5
1560
330
14ED
100
AcDbEntity
  8
0
 62
     0
100
AcDbLine
 10
198.184866
 20
603.6742239999999
 30
0.0
 11
195.782288
 21
606.0768019999999
 31
0.0
  0
LINE
  5
1561
330
14ED
100
AcDbEntity
  8
0
 62
     0
100
AcDbLine
 10
206.413714
 20
599.6880169999999
 30
0.0
 11
204.567582
 21
601.534149
 31
0.0
  0
LINE
  5
1562
330
14ED
100
AcDbEntity
  8
0
 62
     0
100
AcDbLine
 10
200.546381
 20
605.55535
 30
0.0
 11
195.782288
 21
610.319443
 31
0.0
  0
LINE
  5
1563
330
14ED
100
AcDbEntity
  8
0
 62
     0
100
AcDbLine
 10
202.427507
 20
603.6742239999999
 30
0.0
 11
201.576168
 21
604.525563
 31
0.0
  0
LINE
  5
1564
330
14ED
100
AcDbEntity
  8
0
 62
     0
100
AcDbLine
 10
207.894111
 20
602.450261
 30
0.0
 11
205.818808
 21
604.525563
 31
0.0
  0
LINE
  5
1565
330
14ED
100
AcDbEntity
  8
0
 62
     0
100
AcDbLine
 10
200.546381
 20
609.797991
 30
0.0
 11
195.782288
 21
614.562083
 31
0.0
  0
LINE
  5
1566
330
14ED
100
AcDbEntity
  8
0
 62
     0
100
AcDbLine
 10
200.546381
 20
614.0406309999999
 30
0.0
 11
195.782288
 21
618.8047240000001
 31
0.0
  0
LINE
  5
1567
330
14ED
100
AcDbEntity
  8
0
 62
     0
100
AcDbLine
 10
200.546381
 20
618.283272
 30
0.0
 11
198.7481909999999
 21
620.081462
 31
0.0
  0
ENDBLK
  5
1568
330
14ED
100
AcDbEntity
  8
0
100
AcDbBlockEnd
  0
BLOCK
  5
17A0
330
1796
100
AcDbEntity
  8
0
100
AcDbBlockBegin
  2
*D5
 70
     1
 10
0.0
 20
0.0
 30
0.0
  3
*D5
  1

  0
LINE
  5
2179
330
1796
100
AcDbEntity
  8
AM_5
370
    -2
100
AcDbLine
 10
1249.670209334011
 20
574.5528387026663
 30
0.0
 11
1312.065937334011
 21
574.5528387026662
 31
0.0
  0
LINE
  5
217A
330
1796
100
AcDbEntity
  8
AM_5
370
    -2
100
AcDbLine
 10
1249.670209334011
 20
779.5528387026664
 30
0.0
 11
1312.065937334011
 21
779.5528387026662
 31
0.0
  0
LINE
  5
217B
330
1796
100
AcDbEntity
  8
AM_5
370
    -2
100
AcDbLine
 10
1307.565937334011
 20
585.8028387026662
 30
0.0
 11
1307.565937334011
 21
768.3028387026662
 31
0.0
  0
SOLID
  5
217C
330
1796
100
AcDbEntity
  8
AM_5
100
AcDbTrace
 10
1305.690937334011
 20
585.8028387026662
 30
0.0
 11
1309.440937334011
 21
585.8028387026662
 31
0.0
 12
1307.565937334011
 22
574.5528387026662
 32
0.0
 13
1307.565937334011
 23
574.5528387026662
 33
0.0
  0
SOLID
  5
217D
330
1796
100
AcDbEntity
  8
AM_5
100
AcDbTrace
 10
1305.690937334011
 20
768.3028387026662
 30
0.0
 11
1309.440937334011
 21
768.3028387026662
 31
0.0
 12
1307.565937334011
 22
779.5528387026662
 32
0.0
 13
1307.565937334011
 23
779.5528387026662
 33
0.0
  0
MTEXT
  5
217E
330
1796
100
AcDbEntity
  8
AM_5
 62
     2
100
AcDbMText
 10
1296.98938713716
 20
677.0528387026664
 30
0.0
 40
15.75
 41
0.0
 71
     5
 72
     1
  1
\A1;205
 11
0.0000000000000001
 21
1.0
 31
0.0
 73
     1
 44
1.0
1001
ACAD
1000
MTEXTBEGIN
1070
    73
1070
     1
1070
    44
1040
1.0
1070
    74
1070
     0
1000
MTEXTEND
  0
POINT
  5
217F
330
1796
100
AcDbEntity
  8
Defpoints
 62
     0
100
AcDbPoint
 10
1245.170209334011
 20
574.5528387026663
 30
0.0
  0
POINT
  5
2180
330
1796
100
AcDbEntity
  8
Defpoints
 62
     0
100
AcDbPoint
 10
1245.170209334011
 20
779.5528387026664
 30
0.0
  0
POINT
  5
2181
330
1796
100
AcDbEntity
  8
Defpoints
 62
     0
100
AcDbPoint
 10
1307.565937334011
 20
779.5528387026662
 30
0.0
  0
ENDBLK
  5
17A1
330
1796
100
AcDbEntity
  8
0
100
AcDbBlockEnd
  0
BLOCK
  5
17AC
330
17A2
100
AcDbEntity
  8
0
100
AcDbBlockBegin
  2
*D6
 70
     1
 10
0.0
 20
0.0
 30
0.0
  3
*D6
  1

  0
LINE
  5
2182
330
17A2
100
AcDbEntity
  8
AM_5
370
    -2
100
AcDbLine
 10
1245.170209334011
 20
570.0528387026663
 30
0.0
 11
1245.170209334011
 21
525.0528377026663
 31
0.0
  0
LINE
  5
2183
330
17A2
100
AcDbEntity
  8
AM_5
370
    -2
100
AcDbLine
 10
1040.170209334011
 20
570.0528387026663
 30
0.0
 11
1040.170209334011
 21
525.0528377026663
 31
0.0
  0
LINE
  5
2184
330
17A2
100
AcDbEntity
  8
AM_5
370
    -2
100
AcDbLine
 10
1233.920209334011
 20
529.5528377026663
 30
0.0
 11
1051.420209334011
 21
529.5528377026663
 31
0.0
  0
SOLID
  5
2185
330
17A2
100
AcDbEntity
  8
AM_5
100
AcDbTrace
 10
1233.920209334011
 20
531.4278377026663
 30
0.0
 11
1233.920209334011
 21
527.6778377026663
 31
0.0
 12
1245.170209334011
 22
529.5528377026663
 32
0.0
 13
1245.170209334011
 23
529.5528377026663
 33
0.0
  0
SOLID
  5
2186
330
17A2
100
AcDbEntity
  8
AM_5
100
AcDbTrace
 10
1051.420209334011
 20
531.4278377026663
 30
0.0
 11
1051.420209334011
 21
527.6778377026663
 31
0.0
 12
1040.170209334011
 22
529.5528377026663
 32
0.0
 13
1040.170209334011
 23
529.5528377026663
 33
0.0
  0
MTEXT
  5
2187
330
17A2
100
AcDbEntity
  8
AM_5
 62
     2
100
AcDbMText
 10
1142.670209334011
 20
540.1293878995167
 30
0.0
 40
15.75
 41
0.0
 71
     5
 72
     1
  1
\A1;205
 73
     1
 44
1.0
1001
ACAD
1000
MTEXTBEGIN
1070
    73
1070
     1
1070
    44
1040
1.0
1070
    74
1070
     0
1000
MTEXTEND
  0
POINT
  5
2188
330
17A2
100
AcDbEntity
  8
Defpoints
 62
     0
100
AcDbPoint
 10
1245.170209334011
 20
574.5528387026663
 30
0.0
  0
POINT
  5
2189
330
17A2
100
AcDbEntity
  8
Defpoints
 62
     0
100
AcDbPoint
 10
1040.170209334011
 20
574.5528387026663
 30
0.0
  0
POINT
  5
218A
330
17A2
100
AcDbEntity
  8
Defpoints
 62
     0
100
AcDbPoint
 10
1040.170209334011
 20
529.5528377026663
 30
0.0
  0
ENDBLK
  5
17AD
330
17A2
100
AcDbEntity
  8
0
100
AcDbBlockEnd
  0
BLOCK
  5
17D0
330
17C6
100
AcDbEntity
  8
0
100
AcDbBlockBegin
  2
*D7
 70
     1
 10
0.0
 20
0.0
 30
0.0
  3
*D7
  1

  0
LINE
  5
1801
330
17C6
100
AcDbEntity
  8
AM_5
370
    -2
100
AcDbLine
 10
1142.670209334011
 20
1039.147035509754
 30
0.0
 11
1142.670209334011
 21
869.0735645097543
 31
0.0
  0
LINE
  5
1802
330
17C6
100
AcDbEntity
  8
AM_5
370
    -2
100
AcDbLine
 10
1188.670209334011
 20
923.0735645097542
 30
0.0
 11
1188.670209334011
 21
869.0735645097543
 31
0.0
  0
LINE
  5
1803
330
17C6
100
AcDbEntity
  8
AM_5
370
    -2
100
AcDbLine
 10
1153.920209334011
 20
873.5735645097543
 30
0.0
 11
1177.420209334011
 21
873.5735645097543
 31
0.0
  0
SOLID
  5
1804
330
17C6
100
AcDbEntity
  8
AM_5
100
AcDbTrace
 10
1153.920209334011
 20
875.4485645097544
 30
0.0
 11
1153.920209334011
 21
871.6985645097542
 31
0.0
 12
1142.670209334011
 22
873.5735645097543
 32
0.0
 13
1142.670209334011
 23
873.5735645097543
 33
0.0
  0
SOLID
  5
1805
330
17C6
100
AcDbEntity
  8
AM_5
100
AcDbTrace
 10
1177.420209334011
 20
875.4485645097544
 30
0.0
 11
1177.420209334011
 21
871.6985645097542
 31
0.0
 12
1188.670209334011
 22
873.5735645097543
 32
0.0
 13
1188.670209334011
 23
873.5735645097543
 33
0.0
  0
MTEXT
  5
1806
330
17C6
100
AcDbEntity
  8
AM_5
 62
     2
100
AcDbMText
 10
1165.670209334011
 20
884.1485645097543
 30
0.0
 40
15.75
 41
0.0
 71
     5
 72
     1
  1
\A1;46
 73
     1
 44
1.0
1001
ACAD
1000
MTEXTBEGIN
1070
    73
1070
     1
1070
    44
1040
1.0
1070
    74
1070
     0
1000
MTEXTEND
  0
POINT
  5
1807
330
17C6
100
AcDbEntity
  8
Defpoints
 62
     0
100
AcDbPoint
 10
1142.670209334011
 20
1043.647035509754
 30
0.0
  0
POINT
  5
1808
330
17C6
100
AcDbEntity
  8
Defpoints
 62
     0
100
AcDbPoint
 10
1188.670209334011
 20
927.5735645097542
 30
0.0
  0
POINT
  5
1809
330
17C6
100
AcDbEntity
  8
Defpoints
 62
     0
100
AcDbPoint
 10
1188.670209334011
 20
873.5735645097543
 30
0.0
  0
ENDBLK
  5
17D1
330
17C6
100
AcDbEntity
  8
0
100
AcDbBlockEnd
  0
BLOCK
  5
1977
330
1976
100
AcDbEntity
  8
0
100
AcDbBlockBegin
  2
*X8
 70
     1
 10
0.0
 20
0.0
 30
0.0
  3
*X8
  1

  0
LINE
  5
1978
330
1976
100
AcDbEntity
  8
8
100
AcDbLine
 10
314.502
 20
247.182
 30
0.0
 11
317.502
 21
250.182
 31
0.0
  0
LINE
  5
1979
330
1976
100
AcDbEntity
  8
8
100
AcDbLine
 10
326.489
 20
259.169
 30
0.0
 11
327.902
 21
260.582
 31
0.0
  0
LINE
  5
197A
330
1976
100
AcDbEntity
  8
8
100
AcDbLine
 10
314.502
 20
251.672
 30
0.0
 11
324.999
 21
262.169
 31
0.0
  0
ENDBLK
  5
197B
330
1976
100
AcDbEntity
  8
0
100
AcDbBlockEnd
  0
BLOCK
  5
1981
330
1980
100
AcDbEntity
  8
0
100
AcDbBlockBegin
  2
*X9
 70
     1
 10
0.0
 20
0.0
 30
0.0
  3
*X9
  1

  0
LINE
  5
1982
330
1980
100
AcDbEntity
  8
8
100
AcDbLine
 10
324.525
 20
66.169
 30
0.0
 11
327.525
 21
69.169
 31
0.0
  0
LINE
  5
1983
330
1980
100
AcDbEntity
  8
8
100
AcDbLine
 10
320.897
 20
67.031
 30
0.0
 11
323.182
 21
69.31699999999999
 31
0.0
  0
LINE
  5
1984
330
1980
100
AcDbEntity
  8
8
100
AcDbLine
 10
319.681
 20
70.305
 30
0.0
 11
322.062
 21
72.68699999999999
 31
0.0
  0
LINE
  5
1985
330
1980
100
AcDbEntity
  8
8
100
AcDbLine
 10
316.421
 20
71.535
 30
0.0
 11
319.055
 21
74.169
 31
0.0
  0
LINE
  5
1986
330
1980
100
AcDbEntity
  8
8
100
AcDbLine
 10
314.5490000000001
 20
74.15300000000001
 30
0.0
 11
317.2709999999999
 21
76.876
 31
0.0
  0
LINE
  5
1987
330
1980
100
AcDbEntity
  8
8
100
AcDbLine
 10
314.502
 20
78.597
 30
0.0
 11
314.988
 21
79.083
 31
0.0
  0
ENDBLK
  5
1988
330
1980
100
AcDbEntity
  8
0
100
AcDbBlockEnd
  0
BLOCK
  5
198A
330
1989
100
AcDbEntity
  8
0
100
AcDbBlockBegin
  2
*X10
 70
     1
 10
0.0
 20
0.0
 30
0.0
  3
*X10
  1

  0
LINE
  5
198B
330
1989
100
AcDbEntity
  8
8
100
AcDbLine
 10
314.502
 20
247.182
 30
0.0
 11
317.502
 21
250.182
 31
0.0
  0
LINE
  5
198C
330
1989
100
AcDbEntity
  8
8
100
AcDbLine
 10
326.489
 20
259.169
 30
0.0
 11
327.902
 21
260.582
 31
0.0
  0
LINE
  5
198D
330
1989
100
AcDbEntity
  8
8
100
AcDbLine
 10
314.502
 20
251.672
 30
0.0
 11
324.999
 21
262.169
 31
0.0
  0
ENDBLK
  5
198E
330
1989
100
AcDbEntity
  8
0
100
AcDbBlockEnd
  0
BLOCK
  5
1994
330
1993
100
AcDbEntity
  8
0
100
AcDbBlockBegin
  2
*X11
 70
     1
 10
0.0
 20
0.0
 30
0.0
  3
*X11
  1

  0
LINE
  5
1995
330
1993
100
AcDbEntity
  8
8
100
AcDbLine
 10
324.525
 20
66.169
 30
0.0
 11
327.525
 21
69.169
 31
0.0
  0
LINE
  5
1996
330
1993
100
AcDbEntity
  8
8
100
AcDbLine
 10
320.897
 20
67.031
 30
0.0
 11
323.182
 21
69.31699999999999
 31
0.0
  0
LINE
  5
1997
330
1993
100
AcDbEntity
  8
8
100
AcDbLine
 10
319.681
 20
70.305
 30
0.0
 11
322.062
 21
72.68699999999999
 31
0.0
  0
LINE
  5
1998
330
1993
100
AcDbEntity
  8
8
100
AcDbLine
 10
316.421
 20
71.535
 30
0.0
 11
319.055
 21
74.169
 31
0.0
  0
LINE
  5
1999
330
1993
100
AcDbEntity
  8
8
100
AcDbLine
 10
314.5490000000001
 20
74.15300000000001
 30
0.0
 11
317.2709999999999
 21
76.876
 31
0.0
  0
LINE
  5
199A
330
1993
100
AcDbEntity
  8
8
100
AcDbLine
 10
314.502
 20
78.597
 30
0.0
 11
314.988
 21
79.083
 31
0.0
  0
ENDBLK
  5
199B
330
1993
100
AcDbEntity
  8
0
100
AcDbBlockEnd
  0
BLOCK
  5
1AE3
330
1AD9
100
AcDbEntity
  8
0
100
AcDbBlockBegin
  2
*D12
 70
     1
 10
0.0
 20
0.0
 30
0.0
  3
*D12
  1

  0
LINE
  5
2382
330
1AD9
100
AcDbEntity
  8
AM_5
370
    -2
100
AcDbLine
 10
1100.188820334011
 20
1027.573564509754
 30
0.0
 11
958.5980055833806
 21
1027.573564509754
 31
0.0
  0
LINE
  5
2383
330
1AD9
100
AcDbEntity
  8
AM_5
370
    -2
100
AcDbLine
 10
1040.170209334011
 20
1186.066457728568
 30
0.0
 11
958.5980055833806
 21
1186.066457728568
 31
0.0
  0
LINE
  5
2384
330
1AD9
100
AcDbEntity
  8
AM_5
370
    -2
100
AcDbLine
 10
963.0980055833806
 20
1038.823564509754
 30
0.0
 11
963.0980055833806
 21
1174.816457728567
 31
0.0
  0
SOLID
  5
2385
330
1AD9
100
AcDbEntity
  8
AM_5
100
AcDbTrace
 10
961.2230055833807
 20
1038.823564509754
 30
0.0
 11
964.9730055833806
 21
1038.823564509754
 31
0.0
 12
963.0980055833806
 22
1027.573564509754
 32
0.0
 13
963.0980055833806
 23
1027.573564509754
 33
0.0
  0
SOLID
  5
2386
330
1AD9
100
AcDbEntity
  8
AM_5
100
AcDbTrace
 10
961.2230055833807
 20
1174.816457728567
 30
0.0
 11
964.9730055833806
 21
1174.816457728567
 31
0.0
 12
963.0980055833806
 22
1186.066457728568
 32
0.0
 13
963.0980055833806
 23
1186.066457728568
 33
0.0
  0
MTEXT
  5
2387
330
1AD9
100
AcDbEntity
  8
AM_5
 62
     2
100
AcDbMText
 10
952.5230055833805
 20
1106.820011119161
 30
0.0
 40
15.75
 41
0.0
 71
     5
 72
     1
  1
\A1;158
 11
0.0000000000000001
 21
1.0
 31
0.0
 73
     1
 44
1.0
1001
ACAD
1000
MTEXTBEGIN
1070
    73
1070
     1
1070
    44
1040
1.0
1070
    74
1070
     0
1000
MTEXTEND
  0
POINT
  5
2388
330
1AD9
100
AcDbEntity
  8
Defpoints
 62
     0
100
AcDbPoint
 10
1104.688820334011
 20
1027.573564509754
 30
0.0
  0
POINT
  5
2389
330
1AD9
100
AcDbEntity
  8
Defpoints
 62
     0
100
AcDbPoint
 10
1044.670209334011
 20
1186.066457728568
 30
0.0
  0
POINT
  5
238A
330
1AD9
100
AcDbEntity
  8
Defpoints
 62
     0
100
AcDbPoint
 10
963.0980055833806
 20
1186.066457728568
 30
0.0
  0
ENDBLK
  5
1AE4
330
1AD9
100
AcDbEntity
  8
0
100
AcDbBlockEnd
  0
BLOCK
  5
1C55
330
1C4B
100
AcDbEntity
  8
0
100
AcDbBlockBegin
  2
*D13
 70
     1
 10
0.0
 20
0.0
 30
0.0
  3
*D13
  1

  0
LINE
  5
2328
330
1C4B
100
AcDbEntity
  8
AM_5
370
    -2
100
AcDbLine
 10
1044.670209334011
 20
1190.566457728567
 30
0.0
 11
1044.670209334011
 21
1253.180390704594
 31
0.0
  0
LINE
  5
2329
330
1C4B
100
AcDbEntity
  8
AM_5
370
    -2
100
AcDbLine
 10
1240.670209334011
 20
1190.566457728567
 30
0.0
 11
1240.670209334011
 21
1253.180390704594
 31
0.0
  0
LINE
  5
232A
330
1C4B
100
AcDbEntity
  8
AM_5
370
    -2
100
AcDbLine
 10
1055.920209334011
 20
1248.680390704594
 30
0.0
 11
1229.420209334011
 21
1248.680390704594
 31
0.0
  0
SOLID
  5
232B
330
1C4B
100
AcDbEntity
  8
AM_5
100
AcDbTrace
 10
1055.920209334011
 20
1250.555390704594
 30
0.0
 11
1055.920209334011
 21
1246.805390704594
 31
0.0
 12
1044.670209334011
 22
1248.680390704594
 32
0.0
 13
1044.670209334011
 23
1248.680390704594
 33
0.0
  0
SOLID
  5
232C
330
1C4B
100
AcDbEntity
  8
AM_5
100
AcDbTrace
 10
1229.420209334011
 20
1250.555390704594
 30
0.0
 11
1229.420209334011
 21
1246.805390704594
 31
0.0
 12
1240.670209334011
 22
1248.680390704594
 32
0.0
 13
1240.670209334011
 23
1248.680390704594
 33
0.0
  0
MTEXT
  5
232D
330
1C4B
100
AcDbEntity
  8
AM_5
 62
     2
100
AcDbMText
 10
1128.941543652456
 20
1259.255390704594
 30
0.0
 40
15.75
 41
0.0
 71
     5
 72
     1
  1
\A1;{\Famgdt|c0;o}196
 73
     1
 44
1.0
1001
ACAD
1000
MTEXTBEGIN
1070
    73
1070
     1
1070
    44
1040
1.0
1070
    74
1070
     0
1000
MTEXTEND
  0
POINT
  5
232E
330
1C4B
100
AcDbEntity
  8
Defpoints
 62
     0
100
AcDbPoint
 10
1044.670209334011
 20
1186.066457728568
 30
0.0
  0
POINT
  5
232F
330
1C4B
100
AcDbEntity
  8
Defpoints
 62
     0
100
AcDbPoint
 10
1240.670209334011
 20
1186.066457728568
 30
0.0
  0
POINT
  5
2330
330
1C4B
100
AcDbEntity
  8
Defpoints
 62
     0
100
AcDbPoint
 10
1240.670209334011
 20
1248.680390704594
 30
0.0
  0
ENDBLK
  5
1C56
330
1C4B
100
AcDbEntity
  8
0
100
AcDbBlockEnd
  0
BLOCK
  5
21C8
330
21BC
100
AcDbEntity
  8
0
100
AcDbBlockBegin
  2
*D14
 70
     1
 10
0.0
 20
0.0
 30
0.0
  3
*D14
  1

  0
LINE
  5
21DC
330
21BC
100
AcDbEntity
  8
AM_5
370
    -2
100
AcDbLine
 10
1200.670209334011
 20
750.0528387026661
 30
0.0
 11
1200.670209334011
 21
812.9230310122311
 31
0.0
  0
LINE
  5
21DD
330
21BC
100
AcDbEntity
  8
AM_5
370
    -2
100
AcDbLine
 10
1192.670209334011
 20
750.0528387026661
 30
0.0
 11
1192.670209334011
 21
812.9230310122311
 31
0.0
  0
LINE
  5
21DE
330
21BC
100
AcDbEntity
  8
AM_5
370
    -2
100
AcDbLine
 10
1211.920209334011
 20
808.4230310122311
 30
0.0
 11
1223.170209334011
 21
808.4230310122311
 31
0.0
  0
LINE
  5
21DF
330
21BC
100
AcDbEntity
  8
AM_5
370
    -2
100
AcDbLine
 10
1181.420209334011
 20
808.4230310122311
 30
0.0
 11
1158.470209334011
 21
808.4230310122311
 31
0.0
  0
LINE
  5
21E0
330
21BC
100
AcDbEntity
  8
AM_5
370
    -2
100
AcDbLine
 10
1200.670209334011
 20
808.4230310122311
 30
0.0
 11
1192.670209334011
 21
808.4230310122311
 31
0.0
  0
SOLID
  5
21E1
330
21BC
100
AcDbEntity
  8
AM_5
100
AcDbTrace
 10
1211.920209334011
 20
810.2980310122312
 30
0.0
 11
1211.920209334011
 21
806.548031012231
 31
0.0
 12
1200.670209334011
 22
808.4230310122311
 32
0.0
 13
1200.670209334011
 23
808.4230310122311
 33
0.0
  0
SOLID
  5
21E2
330
21BC
100
AcDbEntity
  8
AM_5
100
AcDbTrace
 10
1181.420209334011
 20
810.2980310122312
 30
0.0
 11
1181.420209334011
 21
806.548031012231
 31
0.0
 12
1192.670209334011
 22
808.4230310122311
 32
0.0
 13
1192.670209334011
 23
808.4230310122311
 33
0.0
  0
MTEXT
  5
21E3
330
21BC
100
AcDbEntity
  8
AM_5
 62
     2
100
AcDbMText
 10
1164.320209334011
 20
818.9980310122312
 30
0.0
 40
15.75
 41
0.0
 71
     5
 72
     1
  1
\A1;8
 73
     1
 44
1.0
1001
ACAD
1000
MTEXTBEGIN
1070
    73
1070
     1
1070
    44
1040
1.0
1070
    74
1070
     0
1000
MTEXTEND
  0
POINT
  5
21E4
330
21BC
100
AcDbEntity
  8
Defpoints
 62
     0
100
AcDbPoint
 10
1200.670209334011
 20
745.5528387026661
 30
0.0
  0
POINT
  5
21E5
330
21BC
100
AcDbEntity
  8
Defpoints
 62
     0
100
AcDbPoint
 10
1192.670209334011
 20
745.5528387026661
 30
0.0
  0
POINT
  5
21E6
330
21BC
100
AcDbEntity
  8
Defpoints
 62
     0
100
AcDbPoint
 10
1192.670209334011
 20
808.4230310122311
 30
0.0
  0
ENDBLK
  5
21C9
330
21BC
100
AcDbEntity
  8
0
100
AcDbBlockEnd
  0
BLOCK
  5
2222
330
2218
100
AcDbEntity
  8
0
100
AcDbBlockBegin
  2
*D15
 70
     1
 10
0.0
 20
0.0
 30
0.0
  3
*D15
  1

  0
LINE
  5
2378
330
2218
100
AcDbEntity
  8
AM_5
370
    -2
100
AcDbLine
 10
1245.170209334011
 20
1186.066457728568
 30
0.0
 11
1340.642275415116
 21
1186.066457728568
 31
0.0
  0
LINE
  5
2379
330
2218
100
AcDbEntity
  8
AM_5
370
    -2
100
AcDbLine
 10
1246.58107033401
 20
927.5735645097542
 30
0.0
 11
1340.642275415116
 21
927.5735645097542
 31
0.0
  0
LINE
  5
237A
330
2218
100
AcDbEntity
  8
AM_5
370
    -2
100
AcDbLine
 10
1336.142275415116
 20
1174.816457728567
 30
0.0
 11
1336.142275415116
 21
938.8235645097541
 31
0.0
  0
SOLID
  5
237B
330
2218
100
AcDbEntity
  8
AM_5
100
AcDbTrace
 10
1334.267275415116
 20
1174.816457728567
 30
0.0
 11
1338.017275415116
 21
1174.816457728567
 31
0.0
 12
1336.142275415116
 22
1186.066457728568
 32
0.0
 13
1336.142275415116
 23
1186.066457728568
 33
0.0
  0
SOLID
  5
237C
330
2218
100
AcDbEntity
  8
AM_5
100
AcDbTrace
 10
1334.267275415116
 20
938.8235645097541
 30
0.0
 11
1338.017275415116
 21
938.8235645097541
 31
0.0
 12
1336.142275415116
 22
927.5735645097542
 32
0.0
 13
1336.142275415116
 23
927.5735645097542
 33
0.0
  0
MTEXT
  5
237D
330
2218
100
AcDbEntity
  8
AM_5
 62
     2
100
AcDbMText
 10
1325.565725218265
 20
1056.820011119161
 30
0.0
 40
15.75
 41
0.0
 71
     5
 72
     1
  1
\A1;258
 11
0.0000000000000001
 21
1.0
 31
0.0
 73
     1
 44
1.0
1001
ACAD
1000
MTEXTBEGIN
1070
    73
1070
     1
1070
    44
1040
1.0
1070
    74
1070
     0
1000
MTEXTEND
  0
POINT
  5
237E
330
2218
100
AcDbEntity
  8
Defpoints
 62
     0
100
AcDbPoint
 10
1240.670209334011
 20
1186.066457728568
 30
0.0
  0
POINT
  5
237F
330
2218
100
AcDbEntity
  8
Defpoints
 62
     0
100
AcDbPoint
 10
1242.081070334011
 20
927.5735645097542
 30
0.0
  0
POINT
  5
2380
330
2218
100
AcDbEntity
  8
Defpoints
 62
     0
100
AcDbPoint
 10
1336.142275415116
 20
927.5735645097542
 30
0.0
  0
ENDBLK
  5
2223
330
2218
100
AcDbEntity
  8
0
100
AcDbBlockEnd
  0
BLOCK
  5
234B
330
2341
100
AcDbEntity
  8
0
100
AcDbBlockBegin
  2
*D16
 70
     1
 10
0.0
 20
0.0
 30
0.0
  3
*D16
  1

  0
LINE
  5
236E
330
2341
100
AcDbEntity
  8
AM_5
370
    -2
100
AcDbLine
 10
1236.720209334011
 20
1190.366457728568
 30
0.0
 11
1236.720209334011
 21
1217.719303067274
 31
0.0
  0
LINE
  5
236F
330
2341
100
AcDbEntity
  8
AM_5
370
    -2
100
AcDbLine
 10
1048.620209334011
 20
1190.366457728568
 30
0.0
 11
1048.620209334011
 21
1217.719303067274
 31
0.0
  0
LINE
  5
2370
330
2341
100
AcDbEntity
  8
AM_5
370
    -2
100
AcDbLine
 10
1225.470209334011
 20
1213.219303067274
 30
0.0
 11
1059.870209334011
 21
1213.219303067274
 31
0.0
  0
SOLID
  5
2371
330
2341
100
AcDbEntity
  8
AM_5
100
AcDbTrace
 10
1225.470209334011
 20
1215.094303067274
 30
0.0
 11
1225.470209334011
 21
1211.344303067274
 31
0.0
 12
1236.720209334011
 22
1213.219303067274
 32
0.0
 13
1236.720209334011
 23
1213.219303067274
 33
0.0
  0
SOLID
  5
2372
330
2341
100
AcDbEntity
  8
AM_5
100
AcDbTrace
 10
1059.870209334011
 20
1215.094303067274
 30
0.0
 11
1059.870209334011
 21
1211.344303067274
 31
0.0
 12
1048.620209334011
 22
1213.219303067274
 32
0.0
 13
1048.620209334011
 23
1213.219303067274
 33
0.0
  0
MTEXT
  5
2373
330
2341
100
AcDbEntity
  8
AM_5
 62
     2
100
AcDbMText
 10
1142.670209334011
 20
1223.794303067274
 30
0.0
 40
15.75
 41
0.0
 71
     5
 72
     1
  1
\A1;{\Famgdt|c0;o}188
 73
     1
 44
1.0
1001
ACAD
1000
MTEXTBEGIN
1070
    73
1070
     1
1070
    44
1040
1.0
1070
    74
1070
     0
1000
MTEXTEND
  0
POINT
  5
2374
330
2341
100
AcDbEntity
  8
Defpoints
 62
     0
100
AcDbPoint
 10
1236.720209334011
 20
1185.866457728568
 30
0.0
  0
POINT
  5
2375
330
2341
100
AcDbEntity
  8
Defpoints
 62
     0
100
AcDbPoint
 10
1048.620209334011
 20
1185.866457728568
 30
0.0
  0
POINT
  5
2376
330
2341
100
AcDbEntity
  8
Defpoints
 62
     0
100
AcDbPoint
 10
1048.620209334011
 20
1213.219303067274
 30
0.0
  0
ENDBLK
  5
234C
330
2341
100
AcDbEntity
  8
0
100
AcDbBlockEnd
  0
ENDSEC
  0
SECTION
  2
ENTITIES
  0
POLYLINE
  5
169C
330
1F
100
AcDbEntity
  8
0
100
AcDb2dPolyline
 66
     1
 10
0.0
 20
0.0
 30
0.0
 70
     1
1001
GENIUS_GENODEF_13
1002
{
1000
HIER
1070
     0
1002
}
1002
{
1000
MANEDIT
1070
     0
1002
}
1002
{
1000
NOSEL
1070
     0
1002
}
1002
{
1000
BEHIND
1070
     0
1002
}
1002
{
1000
REACTOR
1002
}
1001
GENIUS_GENOBJ-N-REC_13
1002
{
1000
OWNER
1000
GEN
1002
}
1001
GENIUS_GENREC_13
1070
     4
1070
     2
1070
     1
  0
VERTEX
  5
169D
330
169C
100
AcDbEntity
  8
0
100
AcDbVertex
100
AcDb2dVertex
 10
1245.170209334011
 20
574.5528387026663
 30
0.0
  0
VERTEX
  5
169E
330
169C
100
AcDbEntity
  8
0
100
AcDbVertex
100
AcDb2dVertex
 10
1245.170209334011
 20
779.5528387026664
 30
0.0
  0
VERTEX
  5
169F
330
169C
100
AcDbEntity
  8
0
100
AcDbVertex
100
AcDb2dVertex
 10
1040.170209334011
 20
779.5528387026664
 30
0.0
  0
VERTEX
  5
16A0
330
169C
100
AcDbEntity
  8
0
100
AcDbVertex
100
AcDb2dVertex
 10
1040.170209334011
 20
574.5528387026663
 30
0.0
  0
SEQEND
  5
16A1
330
169C
100
AcDbEntity
  8
0
  0
DIMENSION
  5
16ED
330
1F
100
AcDbEntity
  8
AM_5
100
AcDbDimension
  2
*D5
 10
1307.565937334011
 20
779.5528387026662
 30
0.0
 11
1296.98938713716
 21
677.0528387026664
 31
0.0
 70
    32
  1
<>
 71
     5
 42
205.0
  3
GEN-ISO$0
100
AcDbAlignedDimension
 13
1245.170209334011
 23
574.5528387026663
 33
0.0
 14
1245.170209334011
 24
779.5528387026664
 34
0.0
 50
90.0
100
AcDbRotatedDimension
1001
GENIUS_GENDTOL_13
1000

1000
h7
1000

1040
0.0
1001
ACAD
1000
DSTYLE
1002
{
1070
   271
1070
     0
1002
}
  0
DIMENSION
  5
16EE
330
1F
100
AcDbEntity
  8
AM_5
100
AcDbDimension
  2
*D6
 10
1040.170209334011
 20
529.5528377026663
 30
0.0
 11
1142.670209334011
 21
540.1293878995167
 31
0.0
 70
    32
  1
<>
 71
     5
 42
205.0
  3
GEN-ISO$0
100
AcDbAlignedDimension
 13
1245.170209334011
 23
574.5528387026663
 33
0.0
 14
1040.170209334011
 24
574.5528387026663
 34
0.0
 50
180.0
100
AcDbRotatedDimension
1001
GENIUS_GENDTOL_13
1000

1000
h7
1000

1040
0.0
1001
ACAD
1000
DSTYLE
1002
{
1070
   271
1070
     0
1002
}
  0
LINE
  5
16F0
330
1F
100
AcDbEntity
  8
0
100
AcDbLine
 10
1052.264200334011
 20
1148.203236509754
 30
0.0
 11
1042.672980334011
 21
1153.732552509754
 31
0.0
  0
LINE
  5
16F1
330
1F
100
AcDbEntity
  8
0
100
AcDbLine
 10
1054.761790334011
 20
1144.099058509754
 30
0.0
 11
1059.070180334011
 21
1049.526848509754
 31
0.0
  0
LINE
  5
16F2
330
1F
100
AcDbEntity
  8
0
100
AcDbLine
 10
1132.331290334011
 20
1022.573564509754
 30
0.0
 11
1132.331290334011
 21
927.5735645097542
 31
0.0
  0
LINE
  5
16F3
330
1F
100
AcDbEntity
  8
0
100
AcDbLine
 10
1132.331290334011
 20
927.5735645097542
 30
0.0
 11
1242.081070334011
 21
927.5735645097542
 31
0.0
  0
LINE
  5
16F4
330
1F
100
AcDbEntity
  8
0
100
AcDbLine
 10
1040.170209334011
 20
1177.573564509754
 30
0.0
 11
1040.170209334011
 21
1158.064277509754
 31
0.0
  0
LINE
  5
16F5
330
1F
100
AcDbEntity
  8
0
100
AcDbLine
 10
1082.046350334011
 20
1027.573564509754
 30
0.0
 11
1127.331290334011
 21
1027.573564509754
 31
0.0
  0
LINE
  5
16F6
330
1F
100
AcDbEntity
  8
0
100
AcDbLine
 10
1244.237862334011
 20
1154.509064509754
 30
0.0
 11
1243.013417334011
 21
1152.796105509754
 31
0.0
  0
LINE
  5
16F7
102
{ACAD_REACTORS
330
2225
102
}
330
1F
100
AcDbEntity
  8
0
100
AcDbLine
 10
1242.081070334011
 20
1149.888494509754
 30
0.0
 11
1242.081070334011
 21
927.5735645097542
 31
0.0
  0
LINE
  5
16F8
330
1F
100
AcDbEntity
  8
0
100
AcDbLine
 10
1206.765547334011
 20
1113.767071509754
 30
0.0
 11
1206.765547334011
 21
1050.707148509754
 31
0.0
  0
LINE
  5
16F9
330
1F
100
AcDbEntity
  8
0
100
AcDbLine
 10
1183.765547334011
 20
1027.707148509754
 30
0.0
 11
1144.331290334011
 21
1027.707148509754
 31
0.0
  0
LINE
  5
16FA
330
1F
100
AcDbEntity
  8
0
100
AcDbLine
 10
1228.458078334011
 20
1139.906801509754
 30
0.0
 11
1178.747354334011
 21
1122.847023509754
 31
0.0
  0
LINE
  5
16FB
330
1F
100
AcDbEntity
  8
0
100
AcDbLine
 10
1171.993339334011
 20
1113.388504509754
 30
0.0
 11
1171.993339334011
 21
1053.767071509754
 31
0.0
  0
LINE
  5
16FC
330
1F
100
AcDbEntity
  8
0
100
AcDbLine
 10
1061.111109334011
 20
1158.541333509754
 30
0.0
 11
1066.105755334011
 21
1048.905324509754
 31
0.0
  0
LINE
  5
16FD
330
1F
100
AcDbEntity
  8
0
100
AcDbLine
 10
1081.10527833401
 20
1034.587973509754
 30
0.0
 11
1184.78061233401
 21
1034.692098509754
 31
0.0
  0
LINE
  5
16FE
330
1F
100
AcDbEntity
  8
0
100
AcDbLine
 10
1139.331290334011
 20
1022.707148509754
 30
0.0
 11
1139.331290334011
 21
958.3539625097543
 31
0.0
  0
LINE
  5
16FF
330
1F
100
AcDbEntity
  8
0
100
AcDbLine
 10
1047.170209334011
 20
1177.573564509754
 30
0.0
 11
1047.170209334011
 21
1158.541333509754
 31
0.0
  0
LINE
  5
1700
330
1F
100
AcDbEntity
  8
0
100
AcDbLine
 10
1199.765547334011
 20
1113.767071509754
 30
0.0
 11
1199.765547334011
 21
1049.692090509754
 31
0.0
  0
LINE
  5
1701
330
1F
100
AcDbEntity
  8
0
100
AcDbLine
 10
1164.993339334011
 20
1118.386972509754
 30
0.0
 11
1164.993339334011
 21
1053.767071509754
 31
0.0
  0
LINE
  5
1702
330
1F
100
AcDbEntity
  8
0
100
AcDbLine
 10
1245.170209334011
 20
1177.573564509754
 30
0.0
 11
1245.170209334011
 21
1157.416674509754
 31
0.0
  0
LINE
  5
1703
330
1F
100
AcDbEntity
  8
0
100
AcDbLine
 10
1238.170209334011
 20
1177.573564509754
 30
0.0
 11
1238.170209334011
 21
1158.541333509754
 31
0.0
  0
LINE
  5
1704
330
1F
100
AcDbEntity
  8
0
100
AcDbLine
 10
1164.993339334011
 20
1053.767071509754
 30
0.0
 11
1171.993339334011
 21
1053.767071509754
 31
0.0
  0
LINE
  5
1705
330
1F
100
AcDbEntity
  8
0
100
AcDbLine
 10
1182.827704334011
 20
1131.648057509754
 30
0.0
 11
1185.09989433401
 21
1125.027094509754
 31
0.0
  0
LINE
  5
1706
330
1F
100
AcDbEntity
  8
0
100
AcDbLine
 10
1209.775151334011
 20
1140.895911509754
 30
0.0
 11
1212.115586334011
 21
1134.298368509754
 31
0.0
  0
LINE
  5
170F
330
1F
100
AcDbEntity
  8
0
100
AcDbLine
 10
1047.170209334011
 20
1158.541333509754
 30
0.0
 11
1238.170209334011
 21
1158.541333509754
 31
0.0
  0
LINE
  5
1711
330
1F
100
AcDbEntity
  8
7
100
AcDbLine
 10
1142.670209334011
 20
1180.573564509754
 30
0.0
 11
1142.670209334011
 21
1043.647035509754
 31
0.0
1001
GENIUS_GENODEF_13
1002
{
1000
HIER
1070
     0
1002
}
1002
{
1000
MANEDIT
1070
     0
1002
}
1002
{
1000
NOSEL
1070
     0
1002
}
1002
{
1000
BEHIND
1070
     0
1002
}
1002
{
1000
REACTOR
1002
}
1001
GENIUS_GENOBJ-N-CEN_13
1002
{
1000
OWNER
1000
GEN
1002
}
  0
LINE
  5
171B
330
1F
100
AcDbEntity
  8
0
100
AcDbLine
 10
1238.170209334011
 20
1177.573564509754
 30
0.0
 11
1238.170209334011
 21
1158.541333509754
 31
0.0
  0
LINE
  5
1725
330
1F
100
AcDbEntity
  8
0
100
AcDbLine
 10
1223.013313334011
 20
1158.541333509754
 30
0.0
 11
1223.013313334011
 21
1149.009332509754
 31
0.0
  0
LINE
  5
1726
330
1F
100
AcDbEntity
  8
0
100
AcDbLine
 10
1176.444590334011
 20
1135.330473509754
 30
0.0
 11
1211.802757334011
 21
1147.497817509754
 31
0.0
  0
LINE
  5
1727
330
1F
100
AcDbEntity
  8
0
100
AcDbLine
 10
1219.636306334011
 20
1144.280072509754
 30
0.0
 11
1171.747354334011
 21
1127.845491509754
 31
0.0
  0
LINE
  5
1728
330
1F
100
AcDbEntity
  8
0
100
AcDbLine
 10
1235.08107033401
 20
1135.177542509754
 30
0.0
 11
1235.08107033401
 21
958.3539625097543
 31
0.0
  0
LINE
  5
1729
330
1F
100
AcDbEntity
  8
0
100
AcDbLine
 10
1174.892136334011
 20
1132.152368509754
 30
0.0
 11
1175.883096334011
 21
1129.264799509754
 31
0.0
  0
LINE
  5
172A
330
1F
100
AcDbEntity
  8
0
100
AcDbLine
 10
1214.978203334011
 20
1145.946662509754
 30
0.0
 11
1215.98068033401
 21
1143.025531509754
 31
0.0
  0
LINE
  5
172B
330
1F
100
AcDbEntity
  8
0
100
AcDbLine
 10
1211.802757334011
 20
1147.497817509754
 30
0.0
 11
1214.978203334011
 21
1145.946662509754
 31
0.0
1001
GENIUS_GENODEF_13
1002
{
1000
HIER
1070
     0
1002
}
1002
{
1000
MANEDIT
1070
     0
1002
}
1002
{
1000
NOSEL
1070
     0
1002
}
1002
{
1000
BEHIND
1070
     0
1002
}
1002
{
1000
REACTOR
1002
}
1001
GENIUS_GENOBJ-N-CHA_13
1002
{
1000
OWNER
1000
GEN
1002
}
1001
GENIUS_GENFIL_13
1070
     0
1040
2.5
1040
2.5
1040
0.0
1040
0.0
1002
{
1002
}
  0
LINE
  5
172C
330
1F
100
AcDbEntity
  8
0
100
AcDbLine
 10
1176.444590334011
 20
1135.330473509754
 30
0.0
 11
1174.892136334011
 21
1132.152368509754
 31
0.0
1001
GENIUS_GENODEF_13
1002
{
1000
HIER
1070
     0
1002
}
1002
{
1000
MANEDIT
1070
     0
1002
}
1002
{
1000
NOSEL
1070
     0
1002
}
1002
{
1000
BEHIND
1070
     0
1002
}
1002
{
1000
REACTOR
1002
}
1001
GENIUS_GENOBJ-N-CHA_13
1002
{
1000
OWNER
1000
GEN
1002
}
1001
GENIUS_GENFIL_13
1070
     0
1040
2.5
1040
2.5
1040
0.0
1040
0.0
1002
{
1002
}
  0
LINE
  5
172D
330
1F
100
AcDbEntity
  8
0
100
AcDbLine
 10
1214.978203334011
 20
1145.946662509754
 30
0.0
 11
1211.802757334011
 21
1147.497817509754
 31
0.0
1001
GENIUS_GENODEF_13
1002
{
1000
HIER
1070
     0
1002
}
1002
{
1000
MANEDIT
1070
     0
1002
}
1002
{
1000
NOSEL
1070
     0
1002
}
1002
{
1000
BEHIND
1070
     0
1002
}
1002
{
1000
REACTOR
1002
}
1001
GENIUS_GENOBJ-N-CHA_13
1002
{
1000
OWNER
1000
GEN
1002
}
1001
GENIUS_GENFIL_13
1070
     0
1040
2.5
1040
2.5
1040
0.0
1040
0.0
1002
{
1002
}
  0
LINE
  5
172E
330
1F
100
AcDbEntity
  8
0
100
AcDbLine
 10
1199.765547334011
 20
1113.767071509754
 30
0.0
 11
1206.765547334011
 21
1113.767071509754
 31
0.0
  0
LINE
  5
172F
330
1F
100
AcDbEntity
  8
7
100
AcDbLine
 10
1188.670209334011
 20
1046.884672509754
 30
0.0
 11
1188.670209334011
 21
927.5735645097542
 31
0.0
1001
GENIUS_GENODEF_13
1002
{
1000
HIER
1070
     0
1002
}
1002
{
1000
MANEDIT
1070
     0
1002
}
1002
{
1000
NOSEL
1070
     0
1002
}
1002
{
1000
BEHIND
1070
     0
1002
}
1002
{
1000
REACTOR
1002
}
1001
GENIUS_GENOBJ-N-CEN_13
1002
{
1000
OWNER
1000
GEN
1002
}
  0
ARC
  5
1730
330
1F
100
AcDbEntity
  8
0
100
AcDbCircle
 10
1081.090213334011
 20
1049.587966509754
 30
0.0
 40
15.0
100
AcDbArc
 50
182.6083979999991
 51
270.0575440000003
1001
GENIUS_GENODEF_13
1002
{
1000
HIER
1070
     0
1002
}
1002
{
1000
MANEDIT
1070
     0
1002
}
1002
{
1000
NOSEL
1070
     0
1002
}
1002
{
1000
BEHIND
1070
     0
1002
}
1002
{
1000
REACTOR
1002
}
1001
GENIUS_GENOBJ-N-FIL_13
1002
{
1000
OWNER
1000
GEN
1002
}
  0
ARC
  5
1731
330
1F
100
AcDbEntity
  8
0
100
AcDbCircle
 10
1184.765547334011
 20
1049.692090509754
 30
0.0
 40
15.0
100
AcDbArc
 50
270.0575440000003
 51
0.0
1001
GENIUS_GENODEF_13
1002
{
1000
HIER
1070
     0
1002
}
1002
{
1000
MANEDIT
1070
     0
1002
}
1002
{
1000
NOSEL
1070
     0
1002
}
1002
{
1000
BEHIND
1070
     0
1002
}
1002
{
1000
REACTOR
1002
}
1001
GENIUS_GENOBJ-N-FIL_13
1002
{
1000
OWNER
1000
GEN
1002
}
  0
ARC
  5
1732
330
1F
100
AcDbEntity
  8
0
100
AcDbCircle
 10
1183.765547334011
 20
1050.707148509754
 30
0.0
 40
23.0
100
AcDbArc
 50
270.0
 51
0.0
1001
GENIUS_GENODEF_13
1002
{
1000
HIER
1070
     0
1002
}
1002
{
1000
MANEDIT
1070
     0
1002
}
1002
{
1000
NOSEL
1070
     0
1002
}
1002
{
1000
BEHIND
1070
     0
1002
}
1002
{
1000
REACTOR
1002
}
1001
GENIUS_GENOBJ-N-FIL_13
1002
{
1000
OWNER
1000
GEN
1002
}
  0
ARC
  5
1733
330
1F
100
AcDbEntity
  8
0
100
AcDbCircle
 10
1082.046350334011
 20
1050.573564509754
 30
0.0
 40
23.0
100
AcDbArc
 50
182.6083979999991
 51
270.0
1001
GENIUS_GENODEF_13
1002
{
1000
HIER
1070
     0
1002
}
1002
{
1000
MANEDIT
1070
     0
1002
}
1002
{
1000
NOSEL
1070
     0
1002
}
1002
{
1000
BEHIND
1070
     0
1002
}
1002
{
1000
REACTOR
1002
}
1001
GENIUS_GENOBJ-N-FIL_13
1002
{
1000
OWNER
1000
GEN
1002
}
  0
ARC
  5
1734
330
1F
100
AcDbEntity
  8
0
100
AcDbCircle
 10
1181.993339334011
 20
1113.388504509754
 30
0.0
 40
10.0
100
AcDbArc
 50
108.9412500000002
 51
180.0
1001
GENIUS_GENODEF_13
1002
{
1000
HIER
1070
     0
1002
}
1002
{
1000
MANEDIT
1070
     0
1002
}
1002
{
1000
NOSEL
1070
     0
1002
}
1002
{
1000
BEHIND
1070
     0
1002
}
1002
{
1000
REACTOR
1002
}
1001
GENIUS_GENOBJ-N-FIL_13
1002
{
1000
OWNER
1000
GEN
1002
}
  0
ARC
  5
1735
330
1F
100
AcDbEntity
  8
0
100
AcDbCircle
 10
1174.993339334011
 20
1118.386972509754
 30
0.0
 40
10.0
100
AcDbArc
 50
108.9412500000002
 51
180.0
1001
GENIUS_GENODEF_13
1002
{
1000
HIER
1070
     0
1002
}
1002
{
1000
MANEDIT
1070
     0
1002
}
1002
{
1000
NOSEL
1070
     0
1002
}
1002
{
1000
BEHIND
1070
     0
1002
}
1002
{
1000
REACTOR
1002
}
1001
GENIUS_GENOBJ-N-FIL_13
1002
{
1000
OWNER
1000
GEN
1002
}
  0
ARC
  5
1736
330
1F
100
AcDbEntity
  8
0
100
AcDbCircle
 10
1127.331290334011
 20
1022.573564509754
 30
0.0
 40
5.0
100
AcDbArc
 50
0.0
 51
90.0
1001
GENIUS_GENODEF_13
1002
{
1000
HIER
1070
     0
1002
}
1002
{
1000
MANEDIT
1070
     0
1002
}
1002
{
1000
NOSEL
1070
     0
1002
}
1002
{
1000
BEHIND
1070
     0
1002
}
1002
{
1000
REACTOR
1002
}
1001
GENIUS_GENOBJ-N-FIL_13
1002
{
1000
OWNER
1000
GEN
1002
}
  0
ARC
  5
1737
330
1F
100
AcDbEntity
  8
0
100
AcDbCircle
 10
1144.331290334011
 20
1022.707148509754
 30
0.0
 40
5.0
100
AcDbArc
 50
90.0
 51
180.0
1001
GENIUS_GENODEF_13
1002
{
1000
HIER
1070
     0
1002
}
1002
{
1000
MANEDIT
1070
     0
1002
}
1002
{
1000
NOSEL
1070
     0
1002
}
1002
{
1000
BEHIND
1070
     0
1002
}
1002
{
1000
REACTOR
1002
}
1001
GENIUS_GENOBJ-N-FIL_13
1002
{
1000
OWNER
1000
GEN
1002
}
  0
ARC
  5
1738
330
1F
100
AcDbEntity
  8
0
100
AcDbCircle
 10
1230.081070334011
 20
1135.177542509754
 30
0.0
 40
5.0
100
AcDbArc
 50
0.0
 51
108.9412500000002
1001
GENIUS_GENODEF_13
1002
{
1000
HIER
1070
     0
1002
}
1002
{
1000
MANEDIT
1070
     0
1002
}
1002
{
1000
NOSEL
1070
     0
1002
}
1002
{
1000
BEHIND
1070
     0
1002
}
1002
{
1000
REACTOR
1002
}
1001
GENIUS_GENOBJ-N-FIL_13
1002
{
1000
OWNER
1000
GEN
1002
}
  0
ARC
  5
1739
330
1F
100
AcDbEntity
  8
0
100
AcDbCircle
 10
1049.766971334011
 20
1143.871511509754
 30
0.0
 40
5.0
100
AcDbArc
 50
2.608397999999178
 51
60.03665400000134
1001
GENIUS_GENODEF_13
1002
{
1000
HIER
1070
     0
1002
}
1002
{
1000
MANEDIT
1070
     0
1002
}
1002
{
1000
NOSEL
1070
     0
1002
}
1002
{
1000
BEHIND
1070
     0
1002
}
1002
{
1000
REACTOR
1002
}
1001
GENIUS_GENOBJ-N-FIL_13
1002
{
1000
OWNER
1000
GEN
1002
}
  0
ARC
  5
173A
330
1F
100
AcDbEntity
  8
0
100
AcDbCircle
 10
1045.170209334011
 20
1158.064277509754
 30
0.0
 40
5.0
100
AcDbArc
 50
180.0
 51
240.0366540000014
1001
GENIUS_GENODEF_13
1002
{
1000
HIER
1070
     0
1002
}
1002
{
1000
MANEDIT
1070
     0
1002
}
1002
{
1000
NOSEL
1070
     0
1002
}
1002
{
1000
BEHIND
1070
     0
1002
}
1002
{
1000
REACTOR
1002
}
1001
GENIUS_GENOBJ-N-FIL_13
1002
{
1000
OWNER
1000
GEN
1002
}
  0
ARC
  5
173B
330
1F
100
AcDbEntity
  8
0
100
AcDbCircle
 10
1247.081070334011
 20
1149.888494509754
 30
0.0
 40
5.0
100
AcDbArc
 50
144.4423260000026
 51
180.0
1001
GENIUS_GENODEF_13
1002
{
1000
HIER
1070
     0
1002
}
1002
{
1000
MANEDIT
1070
     0
1002
}
1002
{
1000
NOSEL
1070
     0
1002
}
1002
{
1000
BEHIND
1070
     0
1002
}
1002
{
1000
REACTOR
1002
}
1001
GENIUS_GENOBJ-N-FIL_13
1002
{
1000
OWNER
1000
GEN
1002
}
  0
ARC
  5
173C
330
1F
100
AcDbEntity
  8
0
100
AcDbCircle
 10
1240.170209334011
 20
1157.416674509754
 30
0.0
 40
5.0
100
AcDbArc
 50
324.4423260000026
 51
0.0
1001
GENIUS_GENODEF_13
1002
{
1000
HIER
1070
     0
1002
}
1002
{
1000
MANEDIT
1070
     0
1002
}
1002
{
1000
NOSEL
1070
     0
1002
}
1002
{
1000
BEHIND
1070
     0
1002
}
1002
{
1000
REACTOR
1002
}
1001
GENIUS_GENOBJ-N-FIL_13
1002
{
1000
OWNER
1000
GEN
1002
}
  0
ARC
  5
173D
330
1F
100
AcDbEntity
  8
0
100
AcDbCircle
 10
1218.013313334011
 20
1149.009332509754
 30
0.0
 40
5.0
100
AcDbArc
 50
288.9412500000002
 51
0.0
1001
GENIUS_GENODEF_13
1002
{
1000
HIER
1070
     0
1002
}
1002
{
1000
MANEDIT
1070
     0
1002
}
1002
{
1000
NOSEL
1070
     0
1002
}
1002
{
1000
BEHIND
1070
     0
1002
}
1002
{
1000
REACTOR
1002
}
1001
GENIUS_GENOBJ-N-FIL_13
1002
{
1000
OWNER
1000
GEN
1002
}
  0
LINE
  5
173E
330
1F
100
AcDbEntity
  8
0
100
AcDbLine
 10
1139.331290334011
 20
958.3539625097543
 30
0.0
 11
1235.08107033401
 21
958.3539625097543
 31
0.0
  0
LINE
  5
173F
330
1F
100
AcDbEntity
  8
0
100
AcDbLine
 10
1144.34368233401
 20
938.1103335097543
 30
0.0
 11
1232.357798334011
 21
938.1103335097543
 31
0.0
  0
LINE
  5
1740
330
1F
100
AcDbEntity
  8
0
100
AcDbLine
 10
1232.357798334011
 20
938.1103335097543
 30
0.0
 11
1232.357798334011
 21
927.5735645097542
 31
0.0
  0
LINE
  5
1741
330
1F
100
AcDbEntity
  8
0
100
AcDbLine
 10
1144.34368233401
 20
938.1103335097543
 30
0.0
 11
1144.34368233401
 21
927.5735645097542
 31
0.0
  0
LINE
  5
1742
330
1F
100
AcDbEntity
  8
0
100
AcDbLine
 10
1235.08107033401
 20
958.3539625097543
 30
0.0
 11
1232.357798334011
 21
938.1103335097543
 31
0.0
  0
LINE
  5
1743
330
1F
100
AcDbEntity
  8
0
100
AcDbLine
 10
1139.331290334011
 20
958.3539625097543
 30
0.0
 11
1144.34368233401
 21
938.1103335097543
 31
0.0
  0
LINE
  5
1744
330
1F
100
AcDbEntity
  8
0
100
AcDbLine
 10
1101.58802033401
 20
1125.961954509754
 30
0.0
 11
1098.657336334011
 21
1088.867328509754
 31
0.0
  0
LINE
  5
1745
330
1F
100
AcDbEntity
  8
0
100
AcDbLine
 10
1098.657336334011
 20
1088.867328509754
 30
0.0
 11
1089.560446334011
 21
1088.867328509754
 31
0.0
  0
LINE
  5
1746
330
1F
100
AcDbEntity
  8
0
100
AcDbLine
 10
1107.744215334011
 20
1125.961954509754
 30
0.0
 11
1110.079492334011
 21
1088.391757509754
 31
0.0
  0
LINE
  5
1747
330
1F
100
AcDbEntity
  8
0
100
AcDbLine
 10
1110.079492334011
 20
1088.391757509754
 30
0.0
 11
1117.932221334011
 21
1088.391757509754
 31
0.0
  0
LINE
  5
1748
330
1F
100
AcDbEntity
  8
0
100
AcDbLine
 10
1117.932221334011
 20
1088.391757509754
 30
0.0
 11
1120.85900633401
 21
1125.961954509754
 31
0.0
  0
LINE
  5
1749
330
1F
100
AcDbEntity
  8
0
100
AcDbLine
 10
1089.614797334011
 20
1125.961954509754
 30
0.0
 11
1138.396915334011
 21
1125.961954509754
 31
0.0
  0
LINE
  5
174A
330
1F
100
AcDbEntity
  8
0
100
AcDbLine
 10
1088.362815334011
 20
1107.559791509754
 30
0.0
 11
1092.470335334011
 21
1043.450190509754
 31
0.0
  0
LINE
  5
174B
330
1F
100
AcDbEntity
  8
0
100
AcDbLine
 10
1092.470335334011
 20
1043.450190509754
 30
0.0
 11
1135.541378334011
 21
1043.450190509754
 31
0.0
  0
LINE
  5
174C
330
1F
100
AcDbEntity
  8
0
100
AcDbLine
 10
1114.005856334011
 20
1131.668819509754
 30
0.0
 11
1092.114797334011
 21
1131.668819509754
 31
0.0
  0
LINE
  5
174D
330
1F
100
AcDbEntity
  8
0
100
AcDbLine
 10
1089.614797334011
 20
1129.168819509754
 30
0.0
 11
1089.614797334011
 21
1109.414641509754
 31
0.0
  0
LINE
  5
174E
330
1F
100
AcDbEntity
  8
0
100
AcDbLine
 10
1087.614797334011
 20
1107.414641509754
 30
0.0
 11
1077.002836334011
 21
1107.414641509754
 31
0.0
  0
LINE
  5
174F
330
1F
100
AcDbEntity
  8
0
100
AcDbLine
 10
1077.002836334011
 20
1107.414641509754
 30
0.0
 11
1077.002836334011
 21
1108.554716509754
 31
0.0
  0
LINE
  5
1750
330
1F
100
AcDbEntity
  8
0
100
AcDbLine
 10
1078.002836334011
 20
1109.554716509754
 30
0.0
 11
1086.997220334011
 21
1109.554716509754
 31
0.0
  0
LINE
  5
1751
330
1F
100
AcDbEntity
  8
0
100
AcDbLine
 10
1086.997220334011
 20
1109.554716509754
 30
0.0
 11
1086.997220334011
 21
1132.260038509754
 31
0.0
  0
LINE
  5
1752
330
1F
100
AcDbEntity
  8
0
100
AcDbLine
 10
1089.497220334011
 20
1134.760038509754
 30
0.0
 11
1114.005856334011
 21
1134.760038509754
 31
0.0
  0
LINE
  5
1753
330
1F
100
AcDbEntity
  8
0
100
AcDbLine
 10
1084.331206334011
 20
1100.850222509754
 30
0.0
 11
1088.671066334011
 21
1039.450190509754
 31
0.0
  0
LINE
  5
1754
330
1F
100
AcDbEntity
  8
0
100
AcDbLine
 10
1088.671066334011
 20
1039.450190509754
 30
0.0
 11
1139.340646334011
 21
1039.450190509754
 31
0.0
  0
ARC
  5
1755
330
1F
100
AcDbEntity
  8
0
100
AcDbCircle
 10
1089.497220334011
 20
1132.260038509754
 30
0.0
 40
2.5
100
AcDbArc
 50
90.0
 51
180.0
1001
GENIUS_GENODEF_13
1002
{
1000
HIER
1070
     0
1002
}
1002
{
1000
MANEDIT
1070
     0
1002
}
1002
{
1000
NOSEL
1070
     0
1002
}
1002
{
1000
BEHIND
1070
     0
1002
}
1002
{
1000
REACTOR
1002
}
1001
GENIUS_GENOBJ-N-FIL_13
1002
{
1000
OWNER
1000
GEN
1002
}
  0
ARC
  5
1756
330
1F
100
AcDbEntity
  8
0
100
AcDbCircle
 10
1092.114797334011
 20
1129.168819509754
 30
0.0
 40
2.5
100
AcDbArc
 50
90.0
 51
180.0
1001
GENIUS_GENODEF_13
1002
{
1000
HIER
1070
     0
1002
}
1002
{
1000
MANEDIT
1070
     0
1002
}
1002
{
1000
NOSEL
1070
     0
1002
}
1002
{
1000
BEHIND
1070
     0
1002
}
1002
{
1000
REACTOR
1002
}
1001
GENIUS_GENOBJ-N-FIL_13
1002
{
1000
OWNER
1000
GEN
1002
}
  0
ARC
  5
1757
330
1F
100
AcDbEntity
  8
0
100
AcDbCircle
 10
1078.002836334011
 20
1108.554716509754
 30
0.0
 40
1.0
100
AcDbArc
 50
90.0
 51
180.0
1001
GENIUS_GENODEF_13
1002
{
1000
HIER
1070
     0
1002
}
1002
{
1000
MANEDIT
1070
     0
1002
}
1002
{
1000
NOSEL
1070
     0
1002
}
1002
{
1000
BEHIND
1070
     0
1002
}
1002
{
1000
REACTOR
1002
}
1001
GENIUS_GENOBJ-N-FIL_13
1002
{
1000
OWNER
1000
GEN
1002
}
  0
LINE
  5
1758
330
1F
100
AcDbEntity
  8
0
100
AcDbLine
 10
1086.997220334011
 20
1125.961954509754
 30
0.0
 11
1074.296216334011
 21
1125.961954509754
 31
0.0
  0
LINE
  5
1759
330
1F
100
AcDbEntity
  8
0
100
AcDbLine
 10
1074.296216334011
 20
1125.961954509754
 30
0.0
 11
1074.296216334011
 21
1121.592239509754
 31
0.0
  0
LINE
  5
175A
330
1F
100
AcDbEntity
  8
0
100
AcDbLine
 10
1074.296216334011
 20
1121.592239509754
 30
0.0
 11
1082.233127334011
 21
1120.105164509754
 31
0.0
  0
LINE
  5
175B
330
1F
100
AcDbEntity
  8
0
100
AcDbLine
 10
1082.233127334011
 20
1125.961954509754
 30
0.0
 11
1082.233127334011
 21
1110.406055509754
 31
0.0
  0
LINE
  5
175C
330
1F
100
AcDbEntity
  8
0
100
AcDbLine
 10
1082.233127334011
 20
1110.406055509754
 30
0.0
 11
1076.885397334011
 21
1110.406055509754
 31
0.0
  0
LINE
  5
175D
330
1F
100
AcDbEntity
  8
0
100
AcDbLine
 10
1074.885397334011
 20
1108.406055509754
 30
0.0
 11
1074.885397334011
 21
1107.499833509754
 31
0.0
  0
LINE
  5
175E
330
1F
100
AcDbEntity
  8
0
100
AcDbLine
 10
1076.885397334011
 20
1105.499833509754
 30
0.0
 11
1082.233127334011
 21
1105.499833509754
 31
0.0
  0
LINE
  5
175F
330
1F
100
AcDbEntity
  8
0
100
AcDbLine
 10
1082.233127334011
 20
1105.499833509754
 30
0.0
 11
1082.233127334011
 21
1102.709210509754
 31
0.0
  0
LINE
  5
1760
330
1F
100
AcDbEntity
  8
0
100
AcDbLine
 10
1082.233127334011
 20
1102.709210509754
 30
0.0
 11
1082.336183334011
 21
1102.709210509754
 31
0.0
  0
ARC
  5
1761
330
1F
100
AcDbEntity
  8
0
100
AcDbCircle
 10
1082.336183334011
 20
1100.709210509754
 30
0.0
 40
2.0
100
AcDbArc
 50
4.043040999998796
 51
90.0
1001
GENIUS_GENODEF_13
1002
{
1000
HIER
1070
     0
1002
}
1002
{
1000
MANEDIT
1070
     0
1002
}
1002
{
1000
NOSEL
1070
     0
1002
}
1002
{
1000
BEHIND
1070
     0
1002
}
1002
{
1000
REACTOR
1002
}
1001
GENIUS_GENOBJ-N-FIL_13
1002
{
1000
OWNER
1000
GEN
1002
}
  0
ARC
  5
1762
330
1F
100
AcDbEntity
  8
0
100
AcDbCircle
 10
1076.885397334011
 20
1108.406055509754
 30
0.0
 40
2.0
100
AcDbArc
 50
90.0
 51
180.0
1001
GENIUS_GENODEF_13
1002
{
1000
HIER
1070
     0
1002
}
1002
{
1000
MANEDIT
1070
     0
1002
}
1002
{
1000
NOSEL
1070
     0
1002
}
1002
{
1000
BEHIND
1070
     0
1002
}
1002
{
1000
REACTOR
1002
}
1001
GENIUS_GENOBJ-N-FIL_13
1002
{
1000
OWNER
1000
GEN
1002
}
  0
ARC
  5
1763
330
1F
100
AcDbEntity
  8
0
100
AcDbCircle
 10
1076.885397334011
 20
1107.499833509754
 30
0.0
 40
2.0
100
AcDbArc
 50
180.0
 51
270.0
1001
GENIUS_GENODEF_13
1002
{
1000
HIER
1070
     0
1002
}
1002
{
1000
MANEDIT
1070
     0
1002
}
1002
{
1000
NOSEL
1070
     0
1002
}
1002
{
1000
BEHIND
1070
     0
1002
}
1002
{
1000
REACTOR
1002
}
1001
GENIUS_GENOBJ-N-FIL_13
1002
{
1000
OWNER
1000
GEN
1002
}
  0
ARC
  5
1764
330
1F
100
AcDbEntity
  8
0
100
AcDbCircle
 10
1087.614797334011
 20
1109.414641509754
 30
0.0
 40
2.0
100
AcDbArc
 50
270.0
 51
0.0
1001
GENIUS_GENODEF_13
1002
{
1000
HIER
1070
     0
1002
}
1002
{
1000
MANEDIT
1070
     0
1002
}
1002
{
1000
NOSEL
1070
     0
1002
}
1002
{
1000
BEHIND
1070
     0
1002
}
1002
{
1000
REACTOR
1002
}
1001
GENIUS_GENOBJ-N-FIL_13
1002
{
1000
OWNER
1000
GEN
1002
}
  0
LINE
  5
1765
330
1F
100
AcDbEntity
  8
0
100
AcDbLine
 10
1139.648897334011
 20
1107.559791509754
 30
0.0
 11
1135.541378334011
 21
1043.450190509754
 31
0.0
  0
LINE
  5
1766
330
1F
100
AcDbEntity
  8
0
100
AcDbLine
 10
1143.68050633401
 20
1100.850222509754
 30
0.0
 11
1139.340646334011
 21
1039.450190509754
 31
0.0
  0
LINE
  5
1767
330
1F
100
AcDbEntity
  8
0
100
AcDbLine
 10
1138.514493334011
 20
1134.760038509754
 30
0.0
 11
1114.005856334011
 21
1134.760038509754
 31
0.0
  0
ARC
  5
1768
330
1F
100
AcDbEntity
  8
0
100
AcDbCircle
 10
1140.396915334011
 20
1109.414641509754
 30
0.0
 40
2.0
100
AcDbArc
 50
180.0
 51
270.0
1001
GENIUS_GENODEF_13
1002
{
1000
HIER
1070
     0
1002
}
1002
{
1000
MANEDIT
1070
     0
1002
}
1002
{
1000
NOSEL
1070
     0
1002
}
1002
{
1000
BEHIND
1070
     0
1002
}
1002
{
1000
REACTOR
1002
}
1001
GENIUS_GENOBJ-N-FIL_13
1002
{
1000
OWNER
1000
GEN
1002
}
  0
ARC
  5
1769
330
1F
100
AcDbEntity
  8
0
100
AcDbCircle
 10
1135.896915334011
 20
1129.168819509754
 30
0.0
 40
2.5
100
AcDbArc
 50
0.0
 51
90.0
1001
GENIUS_GENODEF_13
1002
{
1000
HIER
1070
     0
1002
}
1002
{
1000
MANEDIT
1070
     0
1002
}
1002
{
1000
NOSEL
1070
     0
1002
}
1002
{
1000
BEHIND
1070
     0
1002
}
1002
{
1000
REACTOR
1002
}
1001
GENIUS_GENOBJ-N-FIL_13
1002
{
1000
OWNER
1000
GEN
1002
}
  0
LINE
  5
176A
330
1F
100
AcDbEntity
  8
0
100
AcDbLine
 10
1129.354376334011
 20
1088.867328509754
 30
0.0
 11
1138.451266334011
 21
1088.867328509754
 31
0.0
  0
LINE
  5
176B
330
1F
100
AcDbEntity
  8
0
100
AcDbLine
 10
1153.126316334011
 20
1108.406055509754
 30
0.0
 11
1153.126316334011
 21
1107.499833509754
 31
0.0
  0
LINE
  5
176C
330
1F
100
AcDbEntity
  8
0
100
AcDbLine
 10
1151.008876334011
 20
1107.414641509754
 30
0.0
 11
1151.008876334011
 21
1108.554716509754
 31
0.0
  0
LINE
  5
176D
330
1F
100
AcDbEntity
  8
0
100
AcDbLine
 10
1140.396915334011
 20
1107.414641509754
 30
0.0
 11
1151.008876334011
 21
1107.414641509754
 31
0.0
  0
LINE
  5
176E
330
1F
100
AcDbEntity
  8
0
100
AcDbLine
 10
1151.126316334011
 20
1105.499833509754
 30
0.0
 11
1145.778586334011
 21
1105.499833509754
 31
0.0
  0
ARC
  5
176F
330
1F
100
AcDbEntity
  8
0
100
AcDbCircle
 10
1151.126316334011
 20
1107.499833509754
 30
0.0
 40
2.0
100
AcDbArc
 50
270.0
 51
0.0
1001
GENIUS_GENODEF_13
1002
{
1000
HIER
1070
     0
1002
}
1002
{
1000
MANEDIT
1070
     0
1002
}
1002
{
1000
NOSEL
1070
     0
1002
}
1002
{
1000
BEHIND
1070
     0
1002
}
1002
{
1000
REACTOR
1002
}
1001
GENIUS_GENOBJ-N-FIL_13
1002
{
1000
OWNER
1000
GEN
1002
}
  0
ARC
  5
1770
330
1F
100
AcDbEntity
  8
0
100
AcDbCircle
 10
1145.675529334011
 20
1100.709210509754
 30
0.0
 40
2.0
100
AcDbArc
 50
90.0
 51
175.9569590000012
1001
GENIUS_GENODEF_13
1002
{
1000
HIER
1070
     0
1002
}
1002
{
1000
MANEDIT
1070
     0
1002
}
1002
{
1000
NOSEL
1070
     0
1002
}
1002
{
1000
BEHIND
1070
     0
1002
}
1002
{
1000
REACTOR
1002
}
1001
GENIUS_GENOBJ-N-FIL_13
1002
{
1000
OWNER
1000
GEN
1002
}
  0
LINE
  5
1771
330
1F
100
AcDbEntity
  8
0
100
AcDbLine
 10
1145.778586334011
 20
1102.709210509754
 30
0.0
 11
1145.675529334011
 21
1102.709210509754
 31
0.0
  0
LINE
  5
1772
330
1F
100
AcDbEntity
  8
0
100
AcDbLine
 10
1145.778586334011
 20
1105.499833509754
 30
0.0
 11
1145.778586334011
 21
1102.709210509754
 31
0.0
  0
ARC
  5
1773
330
1F
100
AcDbEntity
  8
0
100
AcDbCircle
 10
1138.514493334011
 20
1132.260038509754
 30
0.0
 40
2.5
100
AcDbArc
 50
0.0
 51
90.0
1001
GENIUS_GENODEF_13
1002
{
1000
HIER
1070
     0
1002
}
1002
{
1000
MANEDIT
1070
     0
1002
}
1002
{
1000
NOSEL
1070
     0
1002
}
1002
{
1000
BEHIND
1070
     0
1002
}
1002
{
1000
REACTOR
1002
}
1001
GENIUS_GENOBJ-N-FIL_13
1002
{
1000
OWNER
1000
GEN
1002
}
  0
LINE
  5
1774
330
1F
100
AcDbEntity
  8
0
100
AcDbLine
 10
1145.778586334011
 20
1110.406055509754
 30
0.0
 11
1151.126316334011
 21
1110.406055509754
 31
0.0
  0
LINE
  5
1775
330
1F
100
AcDbEntity
  8
0
100
AcDbLine
 10
1153.71549733401
 20
1121.592239509754
 30
0.0
 11
1145.778586334011
 21
1120.105164509754
 31
0.0
  0
LINE
  5
1776
330
1F
100
AcDbEntity
  8
0
100
AcDbLine
 10
1141.01449333401
 20
1125.961954509754
 30
0.0
 11
1153.71549733401
 21
1125.961954509754
 31
0.0
  0
LINE
  5
1777
330
1F
100
AcDbEntity
  8
0
100
AcDbLine
 10
1150.008876334011
 20
1109.554716509754
 30
0.0
 11
1141.01449333401
 21
1109.554716509754
 31
0.0
  0
ARC
  5
1778
330
1F
100
AcDbEntity
  8
0
100
AcDbCircle
 10
1150.008876334011
 20
1108.554716509754
 30
0.0
 40
1.0
100
AcDbArc
 50
0.0
 51
90.0
1001
GENIUS_GENODEF_13
1002
{
1000
HIER
1070
     0
1002
}
1002
{
1000
MANEDIT
1070
     0
1002
}
1002
{
1000
NOSEL
1070
     0
1002
}
1002
{
1000
BEHIND
1070
     0
1002
}
1002
{
1000
REACTOR
1002
}
1001
GENIUS_GENOBJ-N-FIL_13
1002
{
1000
OWNER
1000
GEN
1002
}
  0
ARC
  5
1779
330
1F
100
AcDbEntity
  8
0
100
AcDbCircle
 10
1151.126316334011
 20
1108.406055509754
 30
0.0
 40
2.0
100
AcDbArc
 50
0.0
 51
90.0
1001
GENIUS_GENODEF_13
1002
{
1000
HIER
1070
     0
1002
}
1002
{
1000
MANEDIT
1070
     0
1002
}
1002
{
1000
NOSEL
1070
     0
1002
}
1002
{
1000
BEHIND
1070
     0
1002
}
1002
{
1000
REACTOR
1002
}
1001
GENIUS_GENOBJ-N-FIL_13
1002
{
1000
OWNER
1000
GEN
1002
}
  0
LINE
  5
177A
330
1F
100
AcDbEntity
  8
0
100
AcDbLine
 10
1153.71549733401
 20
1125.961954509754
 30
0.0
 11
1153.71549733401
 21
1121.592239509754
 31
0.0
  0
LINE
  5
177B
330
1F
100
AcDbEntity
  8
0
100
AcDbLine
 10
1145.778586334011
 20
1125.961954509754
 30
0.0
 11
1145.778586334011
 21
1110.406055509754
 31
0.0
  0
LINE
  5
177C
330
1F
100
AcDbEntity
  8
0
100
AcDbLine
 10
1141.01449333401
 20
1109.554716509754
 30
0.0
 11
1141.01449333401
 21
1132.260038509754
 31
0.0
  0
LINE
  5
177D
330
1F
100
AcDbEntity
  8
0
100
AcDbLine
 10
1138.396915334011
 20
1125.961954509754
 30
0.0
 11
1089.614797334011
 21
1125.961954509754
 31
0.0
  0
LINE
  5
177E
330
1F
100
AcDbEntity
  8
0
100
AcDbLine
 10
1126.423693334011
 20
1125.961954509754
 30
0.0
 11
1129.354376334011
 21
1088.867328509754
 31
0.0
  0
LINE
  5
177F
330
1F
100
AcDbEntity
  8
0
100
AcDbLine
 10
1114.005856334011
 20
1131.668819509754
 30
0.0
 11
1135.896915334011
 21
1131.668819509754
 31
0.0
  0
LINE
  5
1780
330
1F
100
AcDbEntity
  8
0
100
AcDbLine
 10
1138.396915334011
 20
1129.168819509754
 30
0.0
 11
1138.396915334011
 21
1109.414641509754
 31
0.0
  0
INSERT
  5
1781
330
1F
100
AcDbEntity
  8
8
100
AcDbBlockReference
  2
*X3
 10
945.2322053340107
 20
505.8804925097542
 30
0.0
1001
GENIUS_GENODEF_13
1002
{
1000
HIER
1070
     0
1002
}
1002
{
1000
MANEDIT
1070
     0
1002
}
1002
{
1000
NOSEL
1070
     0
1002
}
1002
{
1000
BEHIND
1070
     0
1002
}
1002
{
1000
REACTOR
1002
}
1001
GENIUS_GENOBJ-N-HTC_13
1002
{
1000
OWNER
1000
GEN
1002
}
1001
GENIUS_GENHATCH_13
1002
{
1000
DATA
1040
45.0
1042
5.0
1000
_U
1070
     0
1011
1168.811528334011
1021
1073.694813509754
1031
0.0
1002
}
1002
{
1000
UCS
1010
0.0
1020
0.0
1030
0.0
1010
1.0
1020
0.0
1030
0.0
1010
0.0
1020
1.0
1030
0.0
1002
}
1001
ACAD
1000
HATCH
1002
{
1070
    19
1000
_U
1040
5.0
1040
0.7853979999999999
1070
     0
1002
}
  0
INSERT
  5
1783
330
1F
100
AcDbEntity
  8
8
100
AcDbBlockReference
  2
*X4
 10
945.2322053340107
 20
505.8804925097542
 30
0.0
1001
GENIUS_GENODEF_13
1002
{
1000
HIER
1070
     0
1002
}
1002
{
1000
MANEDIT
1070
     0
1002
}
1002
{
1000
NOSEL
1070
     0
1002
}
1002
{
1000
BEHIND
1070
     0
1002
}
1002
{
1000
REACTOR
1002
}
1001
GENIUS_GENOBJ-N-HTC_13
1002
{
1000
OWNER
1000
GEN
1002
}
1001
GENIUS_GENHATCH_13
1002
{
1000
DATA
1040
45.0
1042
3.0
1000
_U
1070
     1
1011
1138.064776334011
1021
1044.897853509754
1031
0.0
1002
}
1002
{
1000
UCS
1010
0.0
1020
0.0
1030
0.0
1010
1.0
1020
0.0
1030
0.0
1010
0.0
1020
1.0
1030
0.0
1002
}
1001
ACAD
1000
HATCH
1002
{
1070
    19
1000
_U
1040
3.0
1040
0.7853979999999999
1070
     1
1002
}
  0
DIMENSION
  5
1785
330
1F
100
AcDbEntity
  8
AM_5
100
AcDbDimension
  2
*D7
 10
1188.670209334011
 20
873.5735645097543
 30
0.0
 11
1165.670209334011
 21
884.1485645097543
 31
0.0
 70
    32
 71
     5
 42
46.0
  3
GEN-ISO$0
100
AcDbAlignedDimension
 13
1142.670209334011
 23
1043.647035509754
 33
0.0
 14
1188.670209334011
 24
927.5735645097542
 34
0.0
100
AcDbRotatedDimension
1001
ACAD
1000
DSTYLE
1002
{
1070
   271
1070
     0
1002
}
  0
HATCH
  5
1786
330
1F
100
AcDbEntity
  8
AM_8
100
AcDbHatch
 10
0.0
 20
0.0
 30
0.0
210
0.0
220
0.0
230
1.0
  2
_U
 70
     0
 71
     0
 91
        1
 92
        1
 93
       19
 72
     1
 10
1232.357798334011
 20
938.1103335097543
 11
1232.357798334011
 21
927.5735645097542
 72
     1
 10
1232.357798334011
 20
927.5735645097542
 11
1242.081070334011
 21
927.5735645097542
 72
     1
 10
1242.081070334011
 20
927.5735645097542
 11
1242.081070334011
 21
1149.888494509754
 72
     2
 10
1247.081070334011
 20
1149.888494509754
 40
5.0
 50
180.0000000000013
 51
215.5576740000008
 73
     0
 72
     1
 10
1243.013417485423
 20
1152.796105264889
 11
1244.237862334011
 21
1154.509064509754
 72
     2
 10
1240.170209491985
 20
1157.416675002412
 40
4.999999842025461
 50
324.4423284031737
 51
359.9999943545518
 73
     1
 72
     1
 10
1245.170209334011
 20
1157.416674509754
 11
1245.170209334011
 21
1177.573564509754
 72
     1
 10
1245.170209334011
 20
1177.573564509754
 11
1238.170209334011
 21
1177.573564509754
 72
     1
 10
1238.170209334011
 20
1177.573564509754
 11
1238.170209334011
 21
1158.541333509754
 72
     1
 10
1238.170209334011
 20
1158.541333509754
 11
1223.013313334011
 21
1158.541333509754
 72
     1
 10
1223.013313334011
 20
1158.541333509754
 11
1223.013313334011
 21
1149.009332509754
 72
     2
 10
1218.013313334011
 20
1149.009332509754
 40
4.999999999999943
 50
360.0
 51
431.0587500000004
 73
     0
 72
     1
 10
1219.636305667777
 20
1144.280072960466
 11
1215.98068033401
 21
1143.025531509754
 72
     1
 10
1215.98068033401
 20
1143.025531509754
 11
1209.775151511728
 21
1140.895911008781
 72
     1
 10
1209.775151511728
 20
1140.895911008781
 11
1212.11558633401
 21
1134.298368509754
 72
     1
 10
1212.115586334011
 20
1134.298368509754
 11
1228.458078334011
 21
1139.906801509754
 72
     2
 10
1230.081070647953
 20
1135.177542285578
 40
4.999999686057289
 50
251.0587490055656
 51
359.9999974311294
 73
     0
 72
     1
 10
1235.08107033401
 20
1135.177542509754
 11
1235.08107033401
 21
958.3539625097543
 72
     1
 10
1235.08107033401
 20
958.3539625097543
 11
1232.357798334011
 21
938.1103335097543
 97
        0
 75
     0
 76
     0
 52
45.0
 41
11.25
 77
     0
 78
     1
 53
45.0
 43
945.2322053340107
 44
505.8804925097542
 45
-7.954951288348659
 46
7.954951288348659
 79
     0
 98
        1
 10
945.2322053340107
 20
505.8804925097542
1001
GENIUS_GENOBJ-N-HTC_13
1002
{
1000
OWNER
1000
GEN
1002
}
1001
GENIUS_GENODEF_13
1002
{
1000
HIER
1070
     0
1002
}
1002
{
1000
MANEDIT
1070
     0
1002
}
1002
{
1000
NOSEL
1070
     0
1002
}
1002
{
1000
BEHIND
1070
     0
1002
}
1002
{
1000
OTHER
1070
     0
1002
}
1002
{
1000
REACTOR
1002
}
1001
GENIUS_GENHATCH_13
1002
{
1000
DATA
1040
45.0
1042
2.5
1000
_U
1070
     0
1011
1237.467300311049
1021
1077.140663054024
1031
0.0
1002
}
1002
{
1000
UCS
1010
0.0
1020
0.0
1030
0.0
1010
1.0
1020
0.0
1030
0.0
1010
0.0
1020
1.0
1030
0.0
1002
}
  0
HATCH
  5
1787
330
1F
100
AcDbEntity
  8
AM_8
100
AcDbHatch
 10
0.0
 20
0.0
 30
0.0
210
0.0
220
0.0
230
1.0
  2
_U
 70
     0
 71
     0
 91
        1
 92
        1
 93
       24
 72
     1
 10
1144.34368233401
 20
927.5735645097542
 11
1144.34368233401
 21
938.1103335097543
 72
     1
 10
1144.34368233401
 20
938.1103335097543
 11
1139.33129033401
 21
958.3539625097543
 72
     1
 10
1139.331290334011
 20
958.3539625097543
 11
1139.331290334011
 21
1022.707148509754
 72
     2
 10
1144.331290334011
 20
1022.707148509754
 40
5.0
 50
180.0
 51
270.0
 73
     0
 72
     1
 10
1144.331290334011
 20
1027.707148509754
 11
1183.765547334011
 21
1027.707148509754
 72
     2
 10
1183.765547334011
 20
1050.707148509754
 40
23.0
 50
269.9999999999999
 51
282.3126544954055
 73
     1
 72
     1
 10
1188.670209334011
 20
1028.236183006114
 11
1188.670209334011
 21
1035.209217360211
 72
     2
 10
1184.765547334011
 20
1049.692090509754
 40
15.00000000000003
 50
74.91149528945419
 51
89.94245600000034
 73
     0
 72
     1
 10
1184.780612315449
 20
1034.692098074878
 11
1081.10527833401
 21
1034.587973509754
 72
     2
 10
1081.090213629734
 20
1049.58796622748
 40
15.00000028257131
 50
89.94245705976819
 51
177.3916031284984
 73
     0
 72
     1
 10
1066.10575468278
 20
1048.90532536717
 11
1061.111109334011
 21
1158.541333509754
 72
     1
 10
1061.111109334011
 20
1158.541333509754
 11
1047.17020933401
 21
1158.541333509754
 72
     1
 10
1047.170209334011
 20
1158.541333509754
 11
1047.170209334011
 21
1177.573564509754
 72
     1
 10
1047.170209334011
 20
1177.573564509754
 11
1040.170209334011
 21
1177.573564509754
 72
     1
 10
1040.170209334011
 20
1177.573564509754
 11
1040.170209334011
 21
1158.064277509754
 72
     2
 10
1045.170209334011
 20
1158.064277509754
 40
5.0
 50
180.0
 51
240.0366540000001
 73
     1
 72
     1
 10
1042.672979970474
 20
1153.732552044551
 11
1052.264200334011
 21
1148.203236509754
 72
     2
 10
1049.766971650287
 20
1143.871510990031
 40
4.999999707703286
 50
299.9633389390589
 51
357.3915958856408
 73
     0
 72
     1
 10
1054.761790884421
 20
1144.099058557282
 11
1059.070180334011
 21
1049.526848509754
 72
     2
 10
1082.046350308374
 20
1050.573564534249
 40
23.00000002449518
 50
182.6083970143666
 51
270.0000000638636
 73
     1
 72
     1
 10
1082.046350334011
 20
1027.573564509754
 11
1127.331290334011
 21
1027.573564509754
 72
     2
 10
1127.331290334011
 20
1022.573564509754
 40
5.0
 50
270.0
 51
360.0
 73
     0
 72
     1
 10
1132.331290334011
 20
1022.573564509754
 11
1132.331290334011
 21
927.5735645097542
 72
     1
 10
1132.331290334011
 20
927.5735645097542
 11
1144.343682334011
 21
927.5735645097542
 97
        0
 75
     0
 76
     0
 52
45.0
 41
11.25
 77
     0
 78
     1
 53
45.0
 43
945.2322053340107
 44
505.8804925097542
 45
-7.954951288348659
 46
7.954951288348659
 79
     0
 98
        1
 10
945.2322053340107
 20
505.8804925097542
1001
GENIUS_GENOBJ-N-HTC_13
1002
{
1000
OWNER
1000
GEN
1002
}
1001
GENIUS_GENODEF_13
1002
{
1000
HIER
1070
     0
1002
}
1002
{
1000
MANEDIT
1070
     0
1002
}
1002
{
1000
NOSEL
1070
     0
1002
}
1002
{
1000
BEHIND
1070
     0
1002
}
1002
{
1000
OTHER
1070
     0
1002
}
1002
{
1000
REACTOR
1002
}
1001
GENIUS_GENHATCH_13
1002
{
1000
DATA
1040
45.0
1042
2.5
1000
_U
1070
     0
1011
1135.631019303772
1021
1018.061770166346
1031
0.0
1002
}
1002
{
1000
UCS
1010
0.0
1020
0.0
1030
0.0
1010
1.0
1020
0.0
1030
0.0
1010
0.0
1020
1.0
1030
0.0
1002
}
  0
HATCH
  5
183D
330
1F
100
AcDbEntity
  8
AM_8
100
AcDbHatch
 10
0.0
 20
0.0
 30
0.0
210
0.0
220
0.0
230
1.0
  2
_U
 70
     0
 71
     0
 91
        1
 92
        1
 93
        6
 72
     1
 10
1199.765547334011
 20
1113.767071509754
 11
1199.765547334011
 21
1049.692090509754
 72
     2
 10
1184.765547334011
 20
1049.692090509754
 40
15.0
 50
359.9999999999992
 51
434.911495289453
 73
     0
 72
     1
 10
1188.670209334011
 20
1035.209217360211
 11
1188.670209334011
 21
1028.236183006114
 72
     2
 10
1183.765547334011
 20
1050.707148509754
 40
23.00000000000003
 50
282.3126544954059
 51
360.0
 73
     1
 72
     1
 10
1206.765547334011
 20
1050.707148509754
 11
1206.765547334011
 21
1113.767071509754
 72
     1
 10
1206.765547334011
 20
1113.767071509754
 11
1199.765547334011
 21
1113.767071509754
 97
        0
 75
     0
 76
     0
 52
45.0
 41
11.25
 77
     0
 78
     1
 53
45.0
 43
0.0
 44
0.0
 45
-7.954951288348659
 46
7.954951288348659
 79
     0
 98
        1
 10
0.0
 20
0.0
1001
GENIUS_GENODEF_13
1002
{
1000
HIER
1070
     0
1002
}
1002
{
1000
MANEDIT
1070
     0
1002
}
1002
{
1000
NOSEL
1070
     0
1002
}
1002
{
1000
BEHIND
1070
     0
1002
}
1002
{
1000
OTHER
1070
     0
1002
}
1002
{
1000
REACTOR
1002
}
1001
GENIUS_GENOBJ-N-HTC_13
1002
{
1000
OWNER
1000
GEN
1002
}
1001
GENIUS_GENHATCH_13
1002
{
1000
DATA
1040
45.0
1042
2.5
1000
_U
1070
     0
1011
1204.560822734815
1021
1090.334416440267
1031
0.0
1002
}
1002
{
1000
UCS
1010
0.0
1020
0.0
1030
0.0
1010
1.0
1020
0.0
1030
0.0
1010
0.0
1020
1.0
1030
0.0
1002
}
1001
ACAD
1010
0.0
1020
0.0
1030
0.0
  0
LINE
  5
19F1
330
1F
100
AcDbEntity
  8
0
100
AcDbLine
 10
1044.670209334011
 20
1186.066457728568
 30
0.0
 11
1142.670209334011
 21
1186.066457728568
 31
0.0
  0
LINE
  5
19F2
330
1F
100
AcDbEntity
  8
0
100
AcDbLine
 10
1048.670209334011
 20
1180.866457728568
 30
0.0
 11
1142.670209334011
 21
1180.866457728568
 31
0.0
  0
LINE
  5
19F3
330
1F
100
AcDbEntity
  8
0
100
AcDbLine
 10
1053.670209334011
 20
1175.666457728567
 30
0.0
 11
1142.670209334011
 21
1175.666457728567
 31
0.0
  0
LINE
  5
19F4
330
1F
100
AcDbEntity
  8
0
100
AcDbLine
 10
1053.170209334011
 20
1172.666457728567
 30
0.0
 11
1142.670209334011
 21
1172.666457728567
 31
0.0
  0
LINE
  5
19F6
330
1F
100
AcDbEntity
  8
0
100
AcDbLine
 10
1047.670209334011
 20
1186.066457728568
 30
0.0
 11
1047.670209334011
 21
1181.866457728568
 31
0.0
  0
ARC
  5
19F8
330
1F
100
AcDbEntity
  8
0
100
AcDbCircle
 10
1048.670209334011
 20
1181.866457728568
 30
0.0
 40
1.0
100
AcDbArc
 50
180.0
 51
270.0
  0
LINE
  5
19F9
330
1F
100
AcDbEntity
  8
0
100
AcDbLine
 10
1048.670209334011
 20
1177.866457728568
 30
0.0
 11
1048.170209334011
 21
1177.866457728568
 31
0.0
  0
LINE
  5
19FA
330
1F
100
AcDbEntity
  8
0
100
AcDbLine
 10
1049.670209334011
 20
1176.166457728567
 30
0.0
 11
1049.670209334011
 21
1176.866457728568
 31
0.0
  0
ARC
  5
19FB
330
1F
100
AcDbEntity
  8
0
100
AcDbCircle
 10
1048.170209334011
 20
1181.366457728568
 30
0.0
 40
3.5
100
AcDbArc
 50
180.0
 51
270.0
  0
LINE
  5
19FC
330
1F
100
AcDbEntity
  8
0
100
AcDbLine
 10
1052.670209334011
 20
1176.666457728567
 30
0.0
 11
1052.670209334011
 21
1177.366457728568
 31
0.0
  0
ARC
  5
19FD
330
1F
100
AcDbEntity
  8
0
100
AcDbCircle
 10
1049.170209334011
 20
1177.366457728568
 30
0.0
 40
3.5
100
AcDbArc
 50
0.0
 51
90.0
  0
ARC
  5
19FE
330
1F
100
AcDbEntity
  8
0
100
AcDbCircle
 10
1048.670209334011
 20
1176.866457728568
 30
0.0
 40
1.0
100
AcDbArc
 50
0.0
 51
90.0
  0
ARC
  5
19FF
330
1F
100
AcDbEntity
  8
0
100
AcDbCircle
 10
1053.670209334011
 20
1176.666457728567
 30
0.0
 40
1.0
100
AcDbArc
 50
180.0
 51
270.0
  0
ARC
  5
1A00
330
1F
100
AcDbEntity
  8
0
100
AcDbCircle
 10
1053.170209334011
 20
1176.166457728567
 30
0.0
 40
3.5
100
AcDbArc
 50
180.0
 51
270.0
  0
LINE
  5
1A01
330
1F
100
AcDbEntity
  8
0
100
AcDbLine
 10
1240.670209334011
 20
1186.066457728568
 30
0.0
 11
1142.670209334011
 21
1186.066457728568
 31
0.0
  0
LINE
  5
1A02
330
1F
100
AcDbEntity
  8
0
100
AcDbLine
 10
1236.670209334011
 20
1180.866457728568
 30
0.0
 11
1142.670209334011
 21
1180.866457728568
 31
0.0
  0
LINE
  5
1A03
330
1F
100
AcDbEntity
  8
0
100
AcDbLine
 10
1231.670209334011
 20
1175.666457728567
 30
0.0
 11
1142.412209334011
 21
1175.666457728567
 31
0.0
  0
LINE
  5
1A04
330
1F
100
AcDbEntity
  8
0
100
AcDbLine
 10
1232.170209334011
 20
1172.666457728567
 30
0.0
 11
1142.670209334011
 21
1172.666457728567
 31
0.0
  0
ARC
  5
1A0A
330
1F
100
AcDbEntity
  8
0
100
AcDbCircle
 10
1237.170209334011
 20
1181.366457728568
 30
0.0
 40
3.5
100
AcDbArc
 50
270.0
 51
0.0
  0
LINE
  5
1A10
330
1F
100
AcDbEntity
  8
0
100
AcDbLine
 10
1059.670209334011
 20
1172.666457728567
 30
0.0
 11
1059.670209334011
 21
1175.666457728567
 31
0.0
  0
INSERT
  5
1A15
330
1F
100
AcDbEntity
  8
8
100
AcDbBlockReference
  2
*X8
 10
1306.839209334011
 20
858.1644577285675
 30
0.0
 50
90.0
1001
ACAD
1000
HATCH
1002
{
1070
    19
1000
ANSI31,_I
1040
3.174999999999999
1040
0.7850000000000001
1002
}
  0
INSERT
  5
1A17
330
1F
100
AcDbEntity
  8
8
100
AcDbBlockReference
  2
*X9
 10
1306.839209334011
 20
858.1644577285675
 30
0.0
 50
90.0
1001
ACAD
1000
HATCH
1002
{
1070
    19
1000
ANSI31,_I
1040
3.174999999999999
1040
0.7850000000000001
1002
}
  0
LINE
  5
1A18
330
1F
100
AcDbEntity
  8
0
100
AcDbLine
 10
1044.670209334011
 20
1186.066457728568
 30
0.0
 11
1142.670209334011
 21
1186.066457728568
 31
0.0
  0
LINE
  5
1A19
330
1F
100
AcDbEntity
  8
0
100
AcDbLine
 10
1048.670209334011
 20
1180.866457728568
 30
0.0
 11
1142.670209334011
 21
1180.866457728568
 31
0.0
  0
LINE
  5
1A1A
330
1F
100
AcDbEntity
  8
0
100
AcDbLine
 10
1053.670209334011
 20
1175.666457728567
 30
0.0
 11
1142.670209334011
 21
1175.666457728567
 31
0.0
  0
LINE
  5
1A1B
330
1F
100
AcDbEntity
  8
0
100
AcDbLine
 10
1053.170209334011
 20
1172.666457728567
 30
0.0
 11
1142.670209334011
 21
1172.666457728567
 31
0.0
  0
LINE
  5
1A1C
102
{ACAD_REACTORS
330
1C58
102
}
330
1F
100
AcDbEntity
  8
0
100
AcDbLine
 10
1044.670209334011
 20
1186.066457728568
 30
0.0
 11
1044.670209334011
 21
1181.366457728568
 31
0.0
  0
LINE
  5
1A1D
330
1F
100
AcDbEntity
  8
0
100
AcDbLine
 10
1047.670209334011
 20
1186.066457728568
 30
0.0
 11
1047.670209334011
 21
1181.866457728568
 31
0.0
  0
ARC
  5
1A1F
330
1F
100
AcDbEntity
  8
0
100
AcDbCircle
 10
1048.670209334011
 20
1181.866457728568
 30
0.0
 40
1.0
100
AcDbArc
 50
180.0
 51
270.0
  0
LINE
  5
1A20
330
1F
100
AcDbEntity
  8
0
100
AcDbLine
 10
1048.670209334011
 20
1177.866457728568
 30
0.0
 11
1048.170209334011
 21
1177.866457728568
 31
0.0
  0
LINE
  5
1A21
330
1F
100
AcDbEntity
  8
0
100
AcDbLine
 10
1049.670209334011
 20
1176.166457728567
 30
0.0
 11
1049.670209334011
 21
1176.866457728568
 31
0.0
  0
ARC
  5
1A22
330
1F
100
AcDbEntity
  8
0
100
AcDbCircle
 10
1048.170209334011
 20
1181.366457728568
 30
0.0
 40
3.5
100
AcDbArc
 50
180.0
 51
270.0
  0
LINE
  5
1A23
330
1F
100
AcDbEntity
  8
0
100
AcDbLine
 10
1052.670209334011
 20
1176.666457728567
 30
0.0
 11
1052.670209334011
 21
1177.366457728568
 31
0.0
  0
ARC
  5
1A24
330
1F
100
AcDbEntity
  8
0
100
AcDbCircle
 10
1049.170209334011
 20
1177.366457728568
 30
0.0
 40
3.5
100
AcDbArc
 50
0.0
 51
90.0
  0
ARC
  5
1A25
330
1F
100
AcDbEntity
  8
0
100
AcDbCircle
 10
1048.670209334011
 20
1176.866457728568
 30
0.0
 40
1.0
100
AcDbArc
 50
0.0
 51
90.0
  0
ARC
  5
1A26
330
1F
100
AcDbEntity
  8
0
100
AcDbCircle
 10
1053.670209334011
 20
1176.666457728567
 30
0.0
 40
1.0
100
AcDbArc
 50
180.0
 51
270.0
  0
ARC
  5
1A27
330
1F
100
AcDbEntity
  8
0
100
AcDbCircle
 10
1053.170209334011
 20
1176.166457728567
 30
0.0
 40
3.5
100
AcDbArc
 50
180.0
 51
270.0
  0
LINE
  5
1A28
330
1F
100
AcDbEntity
  8
0
100
AcDbLine
 10
1240.670209334011
 20
1186.066457728568
 30
0.0
 11
1142.670209334011
 21
1186.066457728568
 31
0.0
  0
LINE
  5
1A29
330
1F
100
AcDbEntity
  8
0
100
AcDbLine
 10
1236.670209334011
 20
1180.866457728568
 30
0.0
 11
1142.670209334011
 21
1180.866457728568
 31
0.0
  0
LINE
  5
1A2A
330
1F
100
AcDbEntity
  8
0
100
AcDbLine
 10
1231.670209334011
 20
1175.666457728567
 30
0.0
 11
1142.412209334011
 21
1175.666457728567
 31
0.0
  0
LINE
  5
1A2B
330
1F
100
AcDbEntity
  8
0
100
AcDbLine
 10
1232.170209334011
 20
1172.666457728567
 30
0.0
 11
1142.670209334011
 21
1172.666457728567
 31
0.0
  0
LINE
  5
1A2D
330
1F
100
AcDbEntity
  8
0
100
AcDbLine
 10
1237.670209334011
 20
1186.066457728568
 30
0.0
 11
1237.670209334011
 21
1181.866457728568
 31
0.0
  0
ARC
  5
1A2E
330
1F
100
AcDbEntity
  8
0
100
AcDbCircle
 10
1236.670209334011
 20
1181.866457728568
 30
0.0
 40
1.0
100
AcDbArc
 50
270.0
 51
0.0
  0
ARC
  5
1A33
330
1F
100
AcDbEntity
  8
0
100
AcDbCircle
 10
1236.170209334011
 20
1177.366457728568
 30
0.0
 40
3.5
100
AcDbArc
 50
90.0
 51
180.0
  0
ARC
  5
1A34
330
1F
100
AcDbEntity
  8
0
100
AcDbCircle
 10
1236.670209334011
 20
1176.866457728568
 30
0.0
 40
1.0
100
AcDbArc
 50
90.0
 51
180.0
  0
ARC
  5
1A35
330
1F
100
AcDbEntity
  8
0
100
AcDbCircle
 10
1231.670209334011
 20
1176.666457728567
 30
0.0
 40
1.0
100
AcDbArc
 50
270.0
 51
0.0
  0
ARC
  5
1A36
330
1F
100
AcDbEntity
  8
0
100
AcDbCircle
 10
1232.170209334011
 20
1176.166457728567
 30
0.0
 40
3.5
100
AcDbArc
 50
270.0
 51
0.0
  0
LINE
  5
1A37
330
1F
100
AcDbEntity
  8
0
100
AcDbLine
 10
1059.670209334011
 20
1172.666457728567
 30
0.0
 11
1059.670209334011
 21
1175.666457728567
 31
0.0
  0
INSERT
  5
1A3C
330
1F
100
AcDbEntity
  8
8
100
AcDbBlockReference
  2
*X10
 10
1306.839209334011
 20
858.1644577285675
 30
0.0
 50
90.0
1001
ACAD
1000
HATCH
1002
{
1070
    19
1000
ANSI31,_I
1040
3.174999999999999
1040
0.7850000000000001
1002
}
  0
INSERT
  5
1A3E
330
1F
100
AcDbEntity
  8
8
100
AcDbBlockReference
  2
*X11
 10
1306.839209334011
 20
858.1644577285675
 30
0.0
 50
90.0
1001
ACAD
1000
HATCH
1002
{
1070
    19
1000
ANSI31,_I
1040
3.174999999999999
1040
0.7850000000000001
1002
}
  0
LINE
  5
1A3F
330
1F
100
AcDbEntity
  8
0
100
AcDbLine
 10
1232.670209334011
 20
1176.666457728567
 30
0.0
 11
1232.670209334011
 21
1177.366457728568
 31
0.0
  0
LINE
  5
1A40
330
1F
100
AcDbEntity
  8
0
100
AcDbLine
 10
1235.670209334011
 20
1176.166457728567
 30
0.0
 11
1235.670209334011
 21
1176.866457728568
 31
0.0
  0
LINE
  5
1A41
330
1F
100
AcDbEntity
  8
0
100
AcDbLine
 10
1236.670209334011
 20
1177.866457728568
 30
0.0
 11
1237.170209334011
 21
1177.866457728568
 31
0.0
  0
LINE
  5
1A42
102
{ACAD_REACTORS
330
1C58
330
2225
102
}
330
1F
100
AcDbEntity
  8
0
100
AcDbLine
 10
1240.670209334011
 20
1181.366457728568
 30
0.0
 11
1240.670209334011
 21
1186.066457728568
 31
0.0
  0
LINE
  5
1A43
330
1F
100
AcDbEntity
  8
0
100
AcDbLine
 10
1245.170209334011
 20
1177.573564509754
 30
0.0
 11
1238.170209334011
 21
1177.573564509754
 31
0.0
  0
LINE
  5
1A44
330
1F
100
AcDbEntity
  8
0
100
AcDbLine
 10
1047.170209334011
 20
1177.573564509754
 30
0.0
 11
1040.170209334011
 21
1177.573564509754
 31
0.0
  0
DIMENSION
  5
1AD8
330
1F
100
AcDbEntity
  8
AM_5
100
AcDbDimension
  2
*D12
 10
963.0980055833806
 20
1186.066457728568
 30
0.0
 11
952.5230055833805
 21
1106.820011119161
 31
0.0
 70
    32
 71
     5
 42
158.4928932188134
  3
GEN-ISO$0
100
AcDbAlignedDimension
 13
1104.688820334011
 23
1027.573564509754
 33
0.0
 14
1044.670209334011
 24
1186.066457728568
 34
0.0
 50
90.0
100
AcDbRotatedDimension
1001
ACAD
1000
DSTYLE
1002
{
1070
   271
1070
     0
1002
}
  0
LINE
  5
1BD4
330
1F
100
AcDbEntity
  8
0
100
AcDbLine
 10
1225.670209334011
 20
1175.666457728567
 30
0.0
 11
1225.670209334011
 21
1172.666457728567
 31
0.0
  0
HATCH
  5
1BDF
330
1F
100
AcDbEntity
  8
8
100
AcDbHatch
 10
0.0
 20
0.0
 30
0.0
210
0.0
220
0.0
230
1.0
  2
ANSI31,_I
 70
     0
 71
     0
 91
        2
 92
        7
 72
     0
 73
     1
 93
        4
 10
1945.874649789805
 20
1258.871377544199
 10
1940.874649789805
 20
1258.871377544199
 10
1940.874649789805
 20
1222.8213775442
 10
1945.874649789805
 20
1222.8213775442
 97
        0
 92
        7
 72
     0
 73
     1
 93
        4
 10
1945.874649789805
 20
1410.921377544199
 10
1940.874649789805
 20
1410.921377544199
 10
1940.874649789805
 20
1374.8713775442
 10
1945.874649789805
 20
1374.871377544199
 97
        0
 75
     2
 76
     1
 52
44.97718691776962
 41
3.174999999999999
 77
     0
 78
     1
 53
89.97718691776963
 43
0.0
 44
0.0
 45
-10.08062420093865
 46
0.0040137357923502
 79
     0
 47
0.2587560615270488
 98
        2
 10
1942.429095732081
 20
1243.319024405729
 10
1942.170219558749
 20
1389.257442619474
1001
ACAD
1010
0.0
1020
0.0
1030
0.0
  0
LINE
  5
1BEC
330
1F
100
AcDbEntity
  8
AM_7
  6
AM_ISO08W050x2
100
AcDbLine
 10
1142.670209334011
 20
1189.066457728567
 30
0.0
 11
1142.670209334011
 21
1178.866457728568
 31
0.0
1001
GENIUS_GENODEF_13
1002
{
1000
HIER
1070
     0
1002
}
1002
{
1000
MANEDIT
1070
     0
1002
}
1002
{
1000
NOSEL
1070
     0
1002
}
1002
{
1000
BEHIND
1070
     0
1002
}
1002
{
1000
OTHER
1070
     0
1002
}
1002
{
1000
REACTOR
1002
}
1001
GENIUS_GENOBJ-N-CEN_13
1002
{
1000
OWNER
1000
GEN
1002
}
1001
GENIUS_GENCEN_19
1002
{
1040
3.0
1002
}
  0
LINE
  5
1C22
330
1F
100
AcDbEntity
  8
0
100
AcDbLine
 10
1236.720209334011
 20
1180.866457728568
 30
0.0
 11
1236.720209334011
 21
1185.866457728568
 31
0.0
  0
LINE
  5
1C23
330
1F
100
AcDbEntity
  8
7
 48
0.314
100
AcDbLine
 10
1142.670209334011
 20
1175.866457728568
 30
0.0
 11
1142.670209334011
 21
1189.670457728568
 31
0.0
  0
LINE
  5
1C24
330
1F
100
AcDbEntity
  8
0
100
AcDbLine
 10
1236.720209334011
 20
1180.866457728568
 30
0.0
 11
1048.620209334011
 21
1180.866457728568
 31
0.0
  0
LINE
  5
1C25
102
{ACAD_REACTORS
330
234E
102
}
330
1F
100
AcDbEntity
  8
0
100
AcDbLine
 10
1048.620209334011
 20
1185.866457728568
 30
0.0
 11
1236.720209334011
 21
1185.866457728568
 31
0.0
  0
LINE
  5
1C26
330
1F
100
AcDbEntity
  8
0
100
AcDbLine
 10
1146.670209334011
 20
1180.866457728568
 30
0.0
 11
1146.670209334011
 21
1185.866457728568
 31
0.0
  0
LINE
  5
1C27
330
1F
100
AcDbEntity
  8
0
100
AcDbLine
 10
1138.670209334011
 20
1180.866457728568
 30
0.0
 11
1138.670209334011
 21
1185.866457728568
 31
0.0
  0
LINE
  5
1C28
330
1F
100
AcDbEntity
  8
0
100
AcDbLine
 10
1156.670209334011
 20
1180.866457728568
 30
0.0
 11
1156.670209334011
 21
1185.866457728568
 31
0.0
  0
LINE
  5
1C29
330
1F
100
AcDbEntity
  8
0
100
AcDbLine
 10
1128.670209334011
 20
1180.866457728568
 30
0.0
 11
1128.670209334011
 21
1185.866457728568
 31
0.0
  0
LINE
  5
1C2A
330
1F
100
AcDbEntity
  8
0
100
AcDbLine
 10
1164.670209334011
 20
1180.866457728568
 30
0.0
 11
1164.670209334011
 21
1185.866457728568
 31
0.0
  0
LINE
  5
1C2B
330
1F
100
AcDbEntity
  8
0
100
AcDbLine
 10
1120.670209334011
 20
1180.866457728568
 30
0.0
 11
1120.670209334011
 21
1185.866457728568
 31
0.0
  0
LINE
  5
1C2C
330
1F
100
AcDbEntity
  8
0
100
AcDbLine
 10
1110.670209334011
 20
1180.866457728568
 30
0.0
 11
1110.670209334011
 21
1185.866457728568
 31
0.0
  0
LINE
  5
1C2D
330
1F
100
AcDbEntity
  8
0
100
AcDbLine
 10
1174.670209334011
 20
1180.866457728568
 30
0.0
 11
1174.670209334011
 21
1185.866457728568
 31
0.0
  0
LINE
  5
1C2E
330
1F
100
AcDbEntity
  8
0
100
AcDbLine
 10
1182.670209334011
 20
1180.866457728568
 30
0.0
 11
1182.670209334011
 21
1185.866457728568
 31
0.0
  0
LINE
  5
1C2F
330
1F
100
AcDbEntity
  8
0
100
AcDbLine
 10
1102.670209334011
 20
1180.866457728568
 30
0.0
 11
1102.670209334011
 21
1185.866457728568
 31
0.0
  0
LINE
  5
1C30
330
1F
100
AcDbEntity
  8
0
100
AcDbLine
 10
1092.670209334011
 20
1180.866457728568
 30
0.0
 11
1092.670209334011
 21
1185.866457728568
 31
0.0
  0
LINE
  5
1C31
330
1F
100
AcDbEntity
  8
0
100
AcDbLine
 10
1192.670209334011
 20
1180.866457728568
 30
0.0
 11
1192.670209334011
 21
1185.866457728568
 31
0.0
  0
LINE
  5
1C32
330
1F
100
AcDbEntity
  8
0
100
AcDbLine
 10
1200.670209334011
 20
1180.866457728568
 30
0.0
 11
1200.670209334011
 21
1185.866457728568
 31
0.0
  0
LINE
  5
1C33
330
1F
100
AcDbEntity
  8
0
100
AcDbLine
 10
1084.670209334011
 20
1180.866457728568
 30
0.0
 11
1084.670209334011
 21
1185.866457728568
 31
0.0
  0
LINE
  5
1C3A
102
{ACAD_REACTORS
330
234E
102
}
330
1F
100
AcDbEntity
  8
0
100
AcDbLine
 10
1048.620209334011
 20
1185.866457728568
 30
0.0
 11
1048.620209334011
 21
1180.866457728568
 31
0.0
  0
DIMENSION
  5
1C4A
102
{ACAD_XDICTIONARY
360
1C57
102
}
102
{ACAD_REACTORS
330
1C58
102
}
330
1F
100
AcDbEntity
  8
AM_5
100
AcDbDimension
  2
*D13
 10
1240.670209334011
 20
1248.680390704594
 30
0.0
 11
1128.941543652456
 21
1248.680390704594
 31
0.0
 70
   160
  1
{\Famgdt;o}<>
 71
     5
 42
196.0
  3
GEN-ISO$0
100
AcDbAlignedDimension
 13
1044.670209334011
 23
1186.066457728568
 33
0.0
 14
1240.670209334011
 24
1186.066457728568
 34
0.0
100
AcDbRotatedDimension
1001
ACAD
1000
DSTYLE
1002
{
1070
   271
1070
     0
1002
}
  0
LINE
  5
1F3F
330
1F
100
AcDbEntity
  8
0
100
AcDbLine
 10
1236.720209334011
 20
585.5028387026662
 30
0.0
 11
1236.720209334011
 21
768.602838702666
 31
0.0
  0
LINE
  5
1F40
330
1F
100
AcDbEntity
  8
0
100
AcDbLine
 10
1048.620209334011
 20
585.5028387026662
 30
0.0
 11
1048.620209334011
 21
768.602838702666
 31
0.0
  0
LINE
  5
1F41
330
1F
100
AcDbEntity
  8
0
100
AcDbLine
 10
1234.220209334011
 20
771.1028387026661
 30
0.0
 11
1051.120209334011
 21
771.1028387026661
 31
0.0
  0
LINE
  5
1F42
330
1F
100
AcDbEntity
  8
0
100
AcDbLine
 10
1234.220209334011
 20
583.0028387026661
 30
0.0
 11
1051.120209334011
 21
583.0028387026661
 31
0.0
  0
ARC
  5
1F43
330
1F
100
AcDbEntity
  8
0
100
AcDbCircle
 10
1051.120209334011
 20
585.5028387026662
 30
0.0
 40
2.5
100
AcDbArc
 50
180.0
 51
270.0
  0
ARC
  5
1F44
330
1F
100
AcDbEntity
  8
0
100
AcDbCircle
 10
1051.120209334011
 20
768.602838702666
 30
0.0
 40
2.5
100
AcDbArc
 50
90.0
 51
180.0
  0
ARC
  5
1F45
330
1F
100
AcDbEntity
  8
0
100
AcDbCircle
 10
1234.220209334011
 20
768.602838702666
 30
0.0
 40
2.5
100
AcDbArc
 50
0.0
 51
90.0
  0
ARC
  5
1F46
330
1F
100
AcDbEntity
  8
0
100
AcDbCircle
 10
1234.220209334011
 20
585.5028387026662
 30
0.0
 40
2.5
100
AcDbArc
 50
270.0
 51
0.0
  0
LINE
  5
1F48
330
1F
100
AcDbEntity
  8
0
100
AcDbLine
 10
1218.670209334011
 20
623.5528387026661
 30
0.0
 11
1218.670209334011
 21
730.5528387026661
 31
0.0
  0
LINE
  5
1F49
330
1F
100
AcDbEntity
  8
0
100
AcDbLine
 10
1210.670209334011
 20
623.5528387026661
 30
0.0
 11
1210.670209334011
 21
730.5528387026661
 31
0.0
  0
LINE
  5
1F4A
330
1F
100
AcDbEntity
  8
0
100
AcDbLine
 10
1200.670209334011
 20
608.5528387026661
 30
0.0
 11
1200.670209334011
 21
745.5528387026661
 31
0.0
  0
LINE
  5
1F4B
330
1F
100
AcDbEntity
  8
0
100
AcDbLine
 10
1192.670209334011
 20
608.5528387026661
 30
0.0
 11
1192.670209334011
 21
745.5528387026661
 31
0.0
  0
LINE
  5
1F4C
330
1F
100
AcDbEntity
  8
0
100
AcDbLine
 10
1182.670209334011
 20
605.0528387026661
 30
0.0
 11
1182.670209334011
 21
749.0528387026661
 31
0.0
  0
LINE
  5
1F4D
330
1F
100
AcDbEntity
  8
0
100
AcDbLine
 10
1174.670209334011
 20
605.0528387026661
 30
0.0
 11
1174.670209334011
 21
749.0528387026661
 31
0.0
  0
LINE
  5
1F4E
330
1F
100
AcDbEntity
  8
0
100
AcDbLine
 10
1164.670209334011
 20
605.0528387026661
 30
0.0
 11
1164.670209334011
 21
749.0528387026661
 31
0.0
  0
LINE
  5
1F4F
330
1F
100
AcDbEntity
  8
0
100
AcDbLine
 10
1156.670209334011
 20
605.0528387026661
 30
0.0
 11
1156.670209334011
 21
749.0528387026661
 31
0.0
  0
LINE
  5
1F51
330
1F
100
AcDbEntity
  8
0
100
AcDbLine
 10
1138.670209334011
 20
605.0528387026661
 30
0.0
 11
1138.670209334011
 21
689.8028387026661
 31
0.0
  0
ARC
  5
1F52
330
1F
100
AcDbEntity
  8
0
100
AcDbCircle
 10
1142.670209334011
 20
605.0528387026661
 30
0.0
 40
4.0
100
AcDbArc
 50
180.0
 51
0.0
  0
ARC
  5
1F53
330
1F
100
AcDbEntity
  8
0
100
AcDbCircle
 10
1160.670209334011
 20
605.0528387026661
 30
0.0
 40
4.0
100
AcDbArc
 50
180.0
 51
0.0
  0
ARC
  5
1F54
330
1F
100
AcDbEntity
  8
0
100
AcDbCircle
 10
1178.670209334011
 20
605.0528387026661
 30
0.0
 40
4.0
100
AcDbArc
 50
180.0
 51
0.0
  0
ARC
  5
1F55
330
1F
100
AcDbEntity
  8
0
100
AcDbCircle
 10
1142.670209334011
 20
749.0528387026661
 30
0.0
 40
4.0
100
AcDbArc
 50
0.0
 51
180.0
  0
ARC
  5
1F56
330
1F
100
AcDbEntity
  8
0
100
AcDbCircle
 10
1160.670209334011
 20
749.0528387026661
 30
0.0
 40
4.0
100
AcDbArc
 50
0.0
 51
180.0
  0
ARC
  5
1F57
330
1F
100
AcDbEntity
  8
0
100
AcDbCircle
 10
1178.670209334011
 20
749.0528387026661
 30
0.0
 40
4.0
100
AcDbArc
 50
0.0
 51
180.0
  0
ARC
  5
1F58
330
1F
100
AcDbEntity
  8
0
100
AcDbCircle
 10
1196.670209334011
 20
608.5528387026661
 30
0.0
 40
4.0
100
AcDbArc
 50
180.0
 51
0.0
  0
ARC
  5
1F59
102
{ACAD_REACTORS
330
21CB
102
}
330
1F
100
AcDbEntity
  8
0
100
AcDbCircle
 10
1196.670209334011
 20
745.5528387026661
 30
0.0
 40
4.0
100
AcDbArc
 50
0.0
 51
180.0
  0
ARC
  5
1F5A
330
1F
100
AcDbEntity
  8
0
100
AcDbCircle
 10
1214.670209334011
 20
623.5528387026661
 30
0.0
 40
4.0
100
AcDbArc
 50
180.0
 51
0.0
  0
ARC
  5
1F5B
330
1F
100
AcDbEntity
  8
0
100
AcDbCircle
 10
1214.670209334011
 20
730.5528387026661
 30
0.0
 40
4.0
100
AcDbArc
 50
0.0
 51
180.0
  0
LINE
  5
1F5C
330
1F
100
AcDbEntity
  8
0
100
AcDbLine
 10
1066.670209334011
 20
623.5528387026661
 30
0.0
 11
1066.670209334011
 21
730.5528387026661
 31
0.0
  0
LINE
  5
1F5D
330
1F
100
AcDbEntity
  8
0
100
AcDbLine
 10
1074.670209334011
 20
623.5528387026661
 30
0.0
 11
1074.670209334011
 21
730.5528387026661
 31
0.0
  0
LINE
  5
1F5E
330
1F
100
AcDbEntity
  8
0
100
AcDbLine
 10
1084.670209334011
 20
608.5528387026661
 30
0.0
 11
1084.670209334011
 21
745.5528387026661
 31
0.0
  0
LINE
  5
1F5F
330
1F
100
AcDbEntity
  8
0
100
AcDbLine
 10
1092.670209334011
 20
608.5528387026661
 30
0.0
 11
1092.670209334011
 21
745.5528387026661
 31
0.0
  0
LINE
  5
1F60
330
1F
100
AcDbEntity
  8
0
100
AcDbLine
 10
1102.670209334011
 20
605.0528387026661
 30
0.0
 11
1102.670209334011
 21
749.0528387026661
 31
0.0
  0
LINE
  5
1F61
330
1F
100
AcDbEntity
  8
0
100
AcDbLine
 10
1110.670209334011
 20
605.0528387026661
 30
0.0
 11
1110.670209334011
 21
749.0528387026661
 31
0.0
  0
LINE
  5
1F62
330
1F
100
AcDbEntity
  8
0
100
AcDbLine
 10
1120.670209334011
 20
605.0528387026661
 30
0.0
 11
1120.670209334011
 21
749.0528387026661
 31
0.0
  0
LINE
  5
1F63
330
1F
100
AcDbEntity
  8
0
100
AcDbLine
 10
1128.670209334011
 20
605.0528387026661
 30
0.0
 11
1128.670209334011
 21
680.729838702666
 31
0.0
  0
ARC
  5
1F64
330
1F
100
AcDbEntity
  8
0
100
AcDbCircle
 10
1124.670209334011
 20
605.0528387026661
 30
0.0
 40
4.0
100
AcDbArc
 50
180.0
 51
0.0
  0
ARC
  5
1F65
330
1F
100
AcDbEntity
  8
0
100
AcDbCircle
 10
1106.670209334011
 20
605.0528387026661
 30
0.0
 40
4.0
100
AcDbArc
 50
180.0
 51
0.0
  0
ARC
  5
1F66
330
1F
100
AcDbEntity
  8
0
100
AcDbCircle
 10
1124.670209334011
 20
749.0528387026661
 30
0.0
 40
4.0
100
AcDbArc
 50
0.0
 51
180.0
  0
ARC
  5
1F67
330
1F
100
AcDbEntity
  8
0
100
AcDbCircle
 10
1106.670209334011
 20
749.0528387026661
 30
0.0
 40
4.0
100
AcDbArc
 50
0.0
 51
180.0
  0
ARC
  5
1F68
330
1F
100
AcDbEntity
  8
0
100
AcDbCircle
 10
1088.670209334011
 20
608.5528387026661
 30
0.0
 40
4.0
100
AcDbArc
 50
180.0
 51
0.0
  0
ARC
  5
1F69
330
1F
100
AcDbEntity
  8
0
100
AcDbCircle
 10
1088.670209334011
 20
745.5528387026661
 30
0.0
 40
4.0
100
AcDbArc
 50
0.0
 51
180.0
  0
ARC
  5
1F6A
330
1F
100
AcDbEntity
  8
0
100
AcDbCircle
 10
1070.670209334011
 20
623.5528387026661
 30
0.0
 40
4.0
100
AcDbArc
 50
180.0
 51
0.0
  0
ARC
  5
1F6B
330
1F
100
AcDbEntity
  8
0
100
AcDbCircle
 10
1070.670209334011
 20
730.5528387026661
 30
0.0
 40
4.0
100
AcDbArc
 50
0.0
 51
180.0
  0
CIRCLE
  5
1F6C
330
1F
100
AcDbEntity
  8
0
100
AcDbCircle
 10
1223.987209334011
 20
758.3698387026661
 30
0.0
 40
3.299999999999999
  0
CIRCLE
  5
1F6D
330
1F
100
AcDbEntity
  8
0
100
AcDbCircle
 10
1061.352209334011
 20
595.7348387026661
 30
0.0
 40
3.299999999999999
  0
CIRCLE
  5
1F6E
330
1F
100
AcDbEntity
  8
0
100
AcDbCircle
 10
1061.352209334011
 20
595.7348387026661
 30
0.0
 40
6.2
  0
CIRCLE
  5
1F6F
330
1F
100
AcDbEntity
  8
0
100
AcDbCircle
 10
1223.987209334011
 20
758.3698387026661
 30
0.0
 40
6.2
  0
LINE
  5
1F70
330
1F
100
AcDbEntity
  8
0
100
AcDbLine
 10
1128.670209334011
 20
696.286838702666
 30
0.0
 11
1128.670209334011
 21
749.0528387026661
 31
0.0
  0
LINE
  5
1F73
330
1F
100
AcDbEntity
  8
0
100
AcDbLine
 10
1138.670209334011
 20
703.671838702666
 30
0.0
 11
1138.670209334011
 21
749.0528387026661
 31
0.0
  0
LINE
  5
1F74
330
1F
100
AcDbEntity
  8
0
100
AcDbLine
 10
1128.670209334011
 20
680.729838702666
 30
0.0
 11
1128.670209334011
 21
696.286838702666
 31
0.0
  0
LINE
  5
1F75
330
1F
100
AcDbEntity
  8
0
100
AcDbLine
 10
1138.670209334011
 20
703.671838702666
 30
0.0
 11
1138.670209334011
 21
689.8028387026661
 31
0.0
  0
LINE
  5
211C
330
1F
100
AcDbEntity
  8
0
100
AcDbLine
 10
1240.670209334011
 20
585.5528387026661
 30
0.0
 11
1240.670209334011
 21
768.5528387026661
 31
0.0
  0
LINE
  5
211D
330
1F
100
AcDbEntity
  8
0
100
AcDbLine
 10
1237.670209334011
 20
585.5528387026661
 30
0.0
 11
1237.670209334011
 21
768.5528387026661
 31
0.0
  0
LINE
  5
211F
330
1F
100
AcDbEntity
  8
0
100
AcDbLine
 10
1047.670209334011
 20
585.5528387026661
 30
0.0
 11
1047.670209334011
 21
768.5528387026661
 31
0.0
  0
LINE
  5
2120
330
1F
100
AcDbEntity
  8
0
100
AcDbLine
 10
1044.670209334011
 20
585.5528387026661
 30
0.0
 11
1044.670209334011
 21
768.5528387026661
 31
0.0
  0
LINE
  5
2122
330
1F
100
AcDbEntity
  8
0
100
AcDbLine
 10
1051.170209334011
 20
579.0528387026661
 30
0.0
 11
1234.170209334011
 21
579.0528387026661
 31
0.0
  0
LINE
  5
2123
330
1F
100
AcDbEntity
  8
0
100
AcDbLine
 10
1051.170209334011
 20
582.0528387026661
 30
0.0
 11
1234.170209334011
 21
582.0528387026661
 31
0.0
  0
LINE
  5
2126
330
1F
100
AcDbEntity
  8
0
100
AcDbLine
 10
1234.170209334011
 20
772.0528387026661
 30
0.0
 11
1051.170209334011
 21
772.0528387026661
 31
0.0
  0
ARC
  5
212D
330
1F
100
AcDbEntity
  8
0
100
AcDbCircle
 10
1051.170209334011
 20
585.5528387026661
 30
0.0
 40
3.5
100
AcDbArc
 50
180.0
 51
270.0
  0
ARC
  5
212E
330
1F
100
AcDbEntity
  8
0
100
AcDbCircle
 10
1051.170209334011
 20
768.5528387026661
 30
0.0
 40
3.5
100
AcDbArc
 50
90.0
 51
180.0
  0
ARC
  5
212F
330
1F
100
AcDbEntity
  8
0
100
AcDbCircle
 10
1234.170209334011
 20
768.5528387026661
 30
0.0
 40
3.5
100
AcDbArc
 50
0.0
 51
90.0
  0
ARC
  5
2130
330
1F
100
AcDbEntity
  8
0
100
AcDbCircle
 10
1234.170209334011
 20
585.5528387026661
 30
0.0
 40
3.5
100
AcDbArc
 50
270.0
 51
0.0
  0
ARC
  5
2131
330
1F
100
AcDbEntity
  8
0
100
AcDbCircle
 10
1234.170209334011
 20
585.5528387026661
 30
0.0
 40
6.5
100
AcDbArc
 50
270.0
 51
0.0
  0
ARC
  5
2132
330
1F
100
AcDbEntity
  8
0
100
AcDbCircle
 10
1051.170209334011
 20
585.5528387026661
 30
0.0
 40
6.5
100
AcDbArc
 50
180.0
 51
270.0
  0
ARC
  5
2133
330
1F
100
AcDbEntity
  8
0
100
AcDbCircle
 10
1051.170209334011
 20
768.5528387026661
 30
0.0
 40
6.5
100
AcDbArc
 50
90.0
 51
180.0
  0
ARC
  5
2134
330
1F
100
AcDbEntity
  8
0
100
AcDbCircle
 10
1234.170209334011
 20
768.5528387026661
 30
0.0
 40
6.5
100
AcDbArc
 50
0.0
 51
90.0
  0
LINE
  5
2146
330
1F
100
AcDbEntity
  8
0
100
AcDbLine
 10
1051.170209334011
 20
775.0528387026661
 30
0.0
 11
1234.170209334011
 21
775.0528387026661
 31
0.0
  0
LINE
  5
2178
330
1F
100
AcDbEntity
  8
0
100
AcDbLine
 10
1146.670209334011
 20
749.0528387026661
 30
0.0
 11
1146.670209334011
 21
605.0528387026661
 31
0.0
  0
DIMENSION
  5
21BB
102
{ACAD_XDICTIONARY
360
21CA
102
}
102
{ACAD_REACTORS
330
21CB
102
}
330
1F
100
AcDbEntity
  8
AM_5
100
AcDbDimension
  2
*D14
 10
1192.670209334011
 20
808.4230310122311
 30
0.0
 11
1164.320209334011
 21
818.9980310122312
 31
0.0
 70
    32
 71
     5
 42
8.0
  3
GEN-ISO$0
100
AcDbAlignedDimension
 13
1200.670209334011
 23
745.5528387026661
 33
0.0
 14
1192.670209334011
 24
745.5528387026661
 34
0.0
100
AcDbRotatedDimension
1001
ACAD
1000
DSTYLE
1002
{
1070
   271
1070
     0
1002
}
  0
DIMENSION
  5
2217
102
{ACAD_XDICTIONARY
360
2224
102
}
102
{ACAD_REACTORS
330
2225
102
}
330
1F
100
AcDbEntity
  8
AM_5
100
AcDbDimension
  2
*D15
 10
1336.142275415116
 20
927.5735645097542
 30
0.0
 11
1325.565725218265
 21
1056.820011119161
 31
0.0
 70
    32
 71
     5
 42
258.4928932188134
  3
GEN-ISO$0
100
AcDbAlignedDimension
 13
1240.670209334011
 23
1186.066457728568
 33
0.0
 14
1242.081070334011
 24
927.5735645097542
 34
0.0
 50
90.0
100
AcDbRotatedDimension
1001
ACAD
1000
DSTYLE
1002
{
1070
   271
1070
     0
1002
}
  0
LINE
  5
22AE
330
1F
100
AcDbEntity
  8
0
100
AcDbLine
 10
1066.670209334011
 20
1185.866457728568
 30
0.0
 11
1066.670209334011
 21
1180.866457728568
 31
0.0
  0
LINE
  5
22AF
330
1F
100
AcDbEntity
  8
0
100
AcDbLine
 10
1074.670209334011
 20
1185.866457728568
 30
0.0
 11
1074.670209334011
 21
1180.866457728568
 31
0.0
  0
LINE
  5
22B0
330
1F
100
AcDbEntity
  8
0
100
AcDbLine
 10
1210.670209334011
 20
1185.866457728568
 30
0.0
 11
1210.670209334011
 21
1180.866457728568
 31
0.0
  0
LINE
  5
22B1
330
1F
100
AcDbEntity
  8
0
100
AcDbLine
 10
1218.670209334011
 20
1185.866457728568
 30
0.0
 11
1218.670209334011
 21
1180.866457728568
 31
0.0
  0
HATCH
  5
22CC
330
1F
100
AcDbEntity
  8
AM_8
100
AcDbHatch
 10
0.0
 20
0.0
 30
0.0
210
0.0
220
0.0
230
1.0
  2
_U
 70
     0
 71
     0
 91
        1
 92
        1
 93
        4
 72
     1
 10
1210.670209334011
 20
1185.866457728568
 11
1200.670209334011
 21
1185.866457728568
 72
     1
 10
1200.670209334011
 20
1185.866457728568
 11
1200.670209334011
 21
1180.866457728568
 72
     1
 10
1200.670209334011
 20
1180.866457728568
 11
1210.670209334011
 21
1180.866457728568
 72
     1
 10
1210.670209334011
 20
1180.866457728568
 11
1210.670209334011
 21
1185.866457728568
 97
        0
 75
     0
 76
     0
 52
45.0
 41
2.5
 77
     0
 78
     1
 53
45.0
 43
0.0
 44
0.0
 45
-1.767766952966368
 46
1.767766952966368
 79
     0
 98
        1
 10
0.0
 20
0.0
1001
GENIUS_GENOBJ-N-HTC_13
1002
{
1000
OWNER
1000
GEN
1002
}
1001
GENIUS_GENODEF_13
1002
{
1000
HIER
1070
     0
1002
}
1002
{
1000
MANEDIT
1070
     0
1002
}
1002
{
1000
NOSEL
1070
     0
1002
}
1002
{
1000
BEHIND
1070
     0
1002
}
1002
{
1000
OTHER
1070
     0
1002
}
1002
{
1000
REACTOR
1002
}
1001
GENIUS_GENHATCH_13
1002
{
1000
DATA
1040
135.0
1042
2.7
1000
_U
1070
     0
1011
1207.679320656713
1021
1183.206494223861
1031
0.0
1002
}
1002
{
1000
UCS
1010
0.0
1020
0.0
1030
0.0
1010
1.0
1020
0.0
1030
0.0
1010
0.0
1020
1.0
1030
0.0
1002
}
1001
ACAD
1010
0.0
1020
0.0
1030
0.0
  0
HATCH
  5
22D5
330
1F
100
AcDbEntity
  8
AM_8
100
AcDbHatch
 10
0.0
 20
0.0
 30
0.0
210
0.0
220
0.0
230
1.0
  2
_U
 70
     0
 71
     0
 91
        1
 92
        1
 93
        5
 72
     1
 10
1236.720209334011
 20
1180.867708510796
 11
1236.720209334011
 21
1185.866457728568
 72
     1
 10
1236.720209334011
 20
1185.866457728568
 11
1218.670209334011
 21
1185.866457728568
 72
     1
 10
1218.670209334011
 20
1185.866457728568
 11
1218.670209334011
 21
1180.866457728568
 72
     1
 10
1218.670209334011
 20
1180.866457728568
 11
1236.670209334011
 21
1180.866457728568
 72
     2
 10
1236.670209334013
 20
1181.866457728568
 40
1.0
 50
269.9999999998827
 51
272.8659839824919
 73
     1
 97
        0
 75
     0
 76
     0
 52
45.0
 41
2.5
 77
     0
 78
     1
 53
45.0
 43
0.0
 44
0.0
 45
-1.767766952966368
 46
1.767766952966368
 79
     0
 98
        1
 10
0.0
 20
0.0
1001
GENIUS_GENOBJ-N-HTC_13
1002
{
1000
OWNER
1000
GEN
1002
}
1001
GENIUS_GENODEF_13
1002
{
1000
HIER
1070
     0
1002
}
1002
{
1000
MANEDIT
1070
     0
1002
}
1002
{
1000
NOSEL
1070
     0
1002
}
1002
{
1000
BEHIND
1070
     0
1002
}
1002
{
1000
OTHER
1070
     0
1002
}
1002
{
1000
REACTOR
1002
}
1001
GENIUS_GENHATCH_13
1002
{
1000
DATA
1040
135.0
1042
2.7
1000
_U
1070
     0
1011
1227.951042361341
1021
1182.519751317866
1031
0.0
1002
}
1002
{
1000
UCS
1010
0.0
1020
0.0
1030
0.0
1010
1.0
1020
0.0
1030
0.0
1010
0.0
1020
1.0
1030
0.0
1002
}
1001
ACAD
1010
0.0
1020
0.0
1030
0.0
  0
HATCH
  5
22DE
330
1F
100
AcDbEntity
  8
AM_8
100
AcDbHatch
 10
0.0
 20
0.0
 30
0.0
210
0.0
220
0.0
230
1.0
  2
_U
 70
     0
 71
     0
 91
        1
 92
        1
 93
        5
 72
     1
 10
1066.670209334011
 20
1185.866457728568
 11
1048.620209334011
 21
1185.866457728568
 72
     1
 10
1048.620209334011
 20
1185.866457728568
 11
1048.620209334011
 21
1180.867708510796
 72
     2
 10
1048.670209334009
 20
1181.866457728568
 40
0.9999999999999991
 50
267.1340160175081
 51
270.0000000000912
 73
     1
 72
     1
 10
1048.670209334011
 20
1180.866457728568
 11
1066.670209334011
 21
1180.866457728568
 72
     1
 10
1066.670209334011
 20
1180.866457728568
 11
1066.670209334011
 21
1185.866457728568
 97
        0
 75
     0
 76
     0
 52
45.0
 41
2.5
 77
     0
 78
     1
 53
45.0
 43
0.0
 44
0.0
 45
-1.767766952966368
 46
1.767766952966368
 79
     0
 98
        1
 10
0.0
 20
0.0
1001
GENIUS_GENOBJ-N-HTC_13
1002
{
1000
OWNER
1000
GEN
1002
}
1001
GENIUS_GENODEF_13
1002
{
1000
HIER
1070
     0
1002
}
1002
{
1000
MANEDIT
1070
     0
1002
}
1002
{
1000
NOSEL
1070
     0
1002
}
1002
{
1000
BEHIND
1070
     0
1002
}
1002
{
1000
OTHER
1070
     0
1002
}
1002
{
1000
REACTOR
1002
}
1001
GENIUS_GENHATCH_13
1002
{
1000
DATA
1040
45.0
1042
2.5
1000
_U
1070
     0
1011
1058.561916233937
1021
1183.206494223861
1031
0.0
1002
}
1002
{
1000
UCS
1010
0.0
1020
0.0
1030
0.0
1010
1.0
1020
0.0
1030
0.0
1010
0.0
1020
1.0
1030
0.0
1002
}
  0
HATCH
  5
22E7
330
1F
100
AcDbEntity
  8
AM_8
100
AcDbHatch
 10
0.0
 20
0.0
 30
0.0
210
0.0
220
0.0
230
1.0
  2
_U
 70
     0
 71
     0
 91
        1
 92
        1
 93
        4
 72
     1
 10
1074.670209334011
 20
1180.866457728568
 11
1084.670209334011
 21
1180.866457728568
 72
     1
 10
1084.670209334011
 20
1180.866457728568
 11
1084.670209334011
 21
1185.866457728568
 72
     1
 10
1084.670209334011
 20
1185.866457728568
 11
1074.670209334011
 21
1185.866457728568
 72
     1
 10
1074.670209334011
 20
1185.866457728568
 11
1074.670209334011
 21
1180.866457728568
 97
        0
 75
     0
 76
     0
 52
45.0
 41
2.0
 77
     0
 78
     1
 53
45.0
 43
0.0
 44
0.0
 45
-1.414213562373094
 46
1.414213562373095
 79
     0
 98
        1
 10
0.0
 20
0.0
1001
GENIUS_GENOBJ-N-HTC_13
1002
{
1000
OWNER
1000
GEN
1002
}
1001
GENIUS_GENODEF_13
1002
{
1000
HIER
1070
     0
1002
}
1002
{
1000
MANEDIT
1070
     0
1002
}
1002
{
1000
NOSEL
1070
     0
1002
}
1002
{
1000
BEHIND
1070
     0
1002
}
1002
{
1000
OTHER
1070
     0
1002
}
1002
{
1000
REACTOR
1002
}
1001
GENIUS_GENHATCH_13
1002
{
1000
DATA
1040
45.0
1042
5.0
1000
_U
1070
     0
1011
1078.146459898759
1021
1183.549863587334
1031
0.0
1002
}
1002
{
1000
UCS
1010
0.0
1020
0.0
1030
0.0
1010
1.0
1020
0.0
1030
0.0
1010
0.0
1020
1.0
1030
0.0
1002
}
  0
HATCH
  5
22F0
330
1F
100
AcDbEntity
  8
AM_8
100
AcDbHatch
 10
0.0
 20
0.0
 30
0.0
210
0.0
220
0.0
230
1.0
  2
_U
 70
     0
 71
     0
 91
        1
 92
        1
 93
        4
 72
     1
 10
1102.670209334011
 20
1185.866457728568
 11
1092.670209334011
 21
1185.866457728568
 72
     1
 10
1092.670209334011
 20
1185.866457728568
 11
1092.670209334011
 21
1180.866457728568
 72
     1
 10
1092.670209334011
 20
1180.866457728568
 11
1102.670209334011
 21
1180.866457728568
 72
     1
 10
1102.670209334011
 20
1180.866457728568
 11
1102.670209334011
 21
1185.866457728568
 97
        0
 75
     0
 76
     0
 52
45.0
 41
2.0
 77
     0
 78
     1
 53
45.0
 43
0.0
 44
0.0
 45
-1.414213562373094
 46
1.414213562373095
 79
     0
 98
        1
 10
0.0
 20
0.0
1001
GENIUS_GENODEF_13
1002
{
1000
HIER
1070
     0
1002
}
1002
{
1000
MANEDIT
1070
     0
1002
}
1002
{
1000
NOSEL
1070
     0
1002
}
1002
{
1000
BEHIND
1070
     0
1002
}
1002
{
1000
OTHER
1070
     0
1002
}
1002
{
1000
REACTOR
1002
}
1001
GENIUS_GENOBJ-N-HTC_13
1002
{
1000
OWNER
1000
GEN
1002
}
1001
GENIUS_GENHATCH_13
1002
{
1000
DATA
1040
45.0
1042
5.0
1000
_U
1070
     0
1011
1098.418181603386
1021
1182.519751317866
1031
0.0
1002
}
1002
{
1000
UCS
1010
0.0
1020
0.0
1030
0.0
1010
1.0
1020
0.0
1030
0.0
1010
0.0
1020
1.0
1030
0.0
1002
}
  0
HATCH
  5
22F9
330
1F
100
AcDbEntity
  8
AM_8
100
AcDbHatch
 10
0.0
 20
0.0
 30
0.0
210
0.0
220
0.0
230
1.0
  2
_U
 70
     0
 71
     0
 91
        1
 92
        1
 93
        4
 72
     1
 10
1110.670209334011
 20
1180.866457728568
 11
1120.670209334011
 21
1180.866457728568
 72
     1
 10
1120.670209334011
 20
1180.866457728568
 11
1120.670209334011
 21
1185.866457728568
 72
     1
 10
1120.670209334011
 20
1185.866457728568
 11
1110.670209334011
 21
1185.866457728568
 72
     1
 10
1110.670209334011
 20
1185.866457728568
 11
1110.670209334011
 21
1180.866457728568
 97
        0
 75
     0
 76
     0
 52
45.0
 41
2.0
 77
     0
 78
     1
 53
45.0
 43
0.0
 44
0.0
 45
-1.414213562373094
 46
1.414213562373095
 79
     0
 98
        1
 10
0.0
 20
0.0
1001
GENIUS_GENODEF_13
1002
{
1000
HIER
1070
     0
1002
}
1002
{
1000
MANEDIT
1070
     0
1002
}
1002
{
1000
NOSEL
1070
     0
1002
}
1002
{
1000
BEHIND
1070
     0
1002
}
1002
{
1000
OTHER
1070
     0
1002
}
1002
{
1000
REACTOR
1002
}
1001
GENIUS_GENOBJ-N-HTC_13
1002
{
1000
OWNER
1000
GEN
1002
}
1001
GENIUS_GENHATCH_13
1002
{
1000
DATA
1040
45.0
1042
5.0
1000
_U
1070
     0
1011
1115.941194534307
1021
1183.893235040332
1031
0.0
1002
}
1002
{
1000
UCS
1010
0.0
1020
0.0
1030
0.0
1010
1.0
1020
0.0
1030
0.0
1010
0.0
1020
1.0
1030
0.0
1002
}
  0
HATCH
  5
2302
330
1F
100
AcDbEntity
  8
AM_8
100
AcDbHatch
 10
0.0
 20
0.0
 30
0.0
210
0.0
220
0.0
230
1.0
  2
_U
 70
     0
 71
     0
 91
        1
 92
        1
 93
        4
 72
     1
 10
1138.670209334011
 20
1185.866457728568
 11
1128.670209334011
 21
1185.866457728568
 72
     1
 10
1128.670209334011
 20
1185.866457728568
 11
1128.670209334011
 21
1180.866457728568
 72
     1
 10
1128.670209334011
 20
1180.866457728568
 11
1138.670209334011
 21
1180.866457728568
 72
     1
 10
1138.670209334011
 20
1180.866457728568
 11
1138.670209334011
 21
1185.866457728568
 97
        0
 75
     0
 76
     0
 52
45.0
 41
1.92
 77
     0
 78
     1
 53
45.0
 43
0.0
 44
0.0
 45
-1.357645019878171
 46
1.357645019878171
 79
     0
 98
        1
 10
0.0
 20
0.0
1001
GENIUS_GENOBJ-N-HTC_13
1002
{
1000
OWNER
1000
GEN
1002
}
1001
GENIUS_GENODEF_13
1002
{
1000
HIER
1070
     0
1002
}
1002
{
1000
MANEDIT
1070
     0
1002
}
1002
{
1000
NOSEL
1070
     0
1002
}
1002
{
1000
BEHIND
1070
     0
1002
}
1002
{
1000
OTHER
1070
     0
1002
}
1002
{
1000
REACTOR
1002
}
1001
GENIUS_GENHATCH_13
1002
{
1000
DATA
1040
45.0
1042
5.0
1000
_U
1070
     0
1011
1133.80779648513
1021
1182.863122770864
1031
0.0
1002
}
1002
{
1000
UCS
1010
0.0
1020
0.0
1030
0.0
1010
1.0
1020
0.0
1030
0.0
1010
0.0
1020
1.0
1030
0.0
1002
}
  0
HATCH
  5
230B
330
1F
100
AcDbEntity
  8
AM_8
100
AcDbHatch
 10
0.0
 20
0.0
 30
0.0
210
0.0
220
0.0
230
1.0
  2
_U
 70
     0
 71
     0
 91
        1
 92
        1
 93
        4
 72
     1
 10
1156.670209334011
 20
1185.866457728568
 11
1146.670209334011
 21
1185.866457728568
 72
     1
 10
1146.670209334011
 20
1185.866457728568
 11
1146.670209334011
 21
1180.866457728568
 72
     1
 10
1146.670209334011
 20
1180.866457728568
 11
1156.670209334011
 21
1180.866457728568
 72
     1
 10
1156.670209334011
 20
1180.866457728568
 11
1156.670209334011
 21
1185.866457728568
 97
        0
 75
     0
 76
     0
 52
45.0
 41
2.0
 77
     0
 78
     1
 53
45.0
 43
0.0
 44
0.0
 45
-1.414213562373094
 46
1.414213562373095
 79
     0
 98
        1
 10
0.0
 20
0.0
1001
GENIUS_GENOBJ-N-HTC_13
1002
{
1000
OWNER
1000
GEN
1002
}
1001
GENIUS_GENODEF_13
1002
{
1000
HIER
1070
     0
1002
}
1002
{
1000
MANEDIT
1070
     0
1002
}
1002
{
1000
NOSEL
1070
     0
1002
}
1002
{
1000
BEHIND
1070
     0
1002
}
1002
{
1000
OTHER
1070
     0
1002
}
1002
{
1000
REACTOR
1002
}
1001
GENIUS_GENHATCH_13
1002
{
1000
DATA
1040
45.0
1042
5.0
1000
_U
1070
     0
1011
1151.674398435953
1021
1182.863122770864
1031
0.0
1002
}
1002
{
1000
UCS
1010
0.0
1020
0.0
1030
0.0
1010
1.0
1020
0.0
1030
0.0
1010
0.0
1020
1.0
1030
0.0
1002
}
  0
HATCH
  5
2314
330
1F
100
AcDbEntity
  8
AM_8
100
AcDbHatch
 10
0.0
 20
0.0
 30
0.0
210
0.0
220
0.0
230
1.0
  2
_U
 70
     0
 71
     0
 91
        1
 92
        1
 93
        4
 72
     1
 10
1174.670209334011
 20
1185.866457728568
 11
1164.670209334011
 21
1185.866457728568
 72
     1
 10
1164.670209334011
 20
1185.866457728568
 11
1164.670209334011
 21
1180.866457728568
 72
     1
 10
1164.670209334011
 20
1180.866457728568
 11
1174.670209334011
 21
1180.866457728568
 72
     1
 10
1174.670209334011
 20
1180.866457728568
 11
1174.670209334011
 21
1185.866457728568
 97
        0
 75
     0
 76
     0
 52
45.0
 41
2.0
 77
     0
 78
     1
 53
45.0
 43
0.0
 44
0.0
 45
-1.414213562373094
 46
1.414213562373095
 79
     0
 98
        1
 10
0.0
 20
0.0
1001
GENIUS_GENODEF_13
1002
{
1000
HIER
1070
     0
1002
}
1002
{
1000
MANEDIT
1070
     0
1002
}
1002
{
1000
NOSEL
1070
     0
1002
}
1002
{
1000
BEHIND
1070
     0
1002
}
1002
{
1000
OTHER
1070
     0
1002
}
1002
{
1000
REACTOR
1002
}
1001
GENIUS_GENOBJ-N-HTC_13
1002
{
1000
OWNER
1000
GEN
1002
}
1001
GENIUS_GENHATCH_13
1002
{
1000
DATA
1040
45.0
1042
5.0
1000
_U
1070
     0
1011
1169.540997001263
1021
1183.206494223861
1031
0.0
1002
}
1002
{
1000
UCS
1010
0.0
1020
0.0
1030
0.0
1010
1.0
1020
0.0
1030
0.0
1010
0.0
1020
1.0
1030
0.0
1002
}
  0
HATCH
  5
231D
330
1F
100
AcDbEntity
  8
AM_8
100
AcDbHatch
 10
0.0
 20
0.0
 30
0.0
210
0.0
220
0.0
230
1.0
  2
_U
 70
     0
 71
     0
 91
        1
 92
        1
 93
        4
 72
     1
 10
1192.670209334011
 20
1185.866457728568
 11
1182.670209334011
 21
1185.866457728568
 72
     1
 10
1182.670209334011
 20
1185.866457728568
 11
1182.670209334011
 21
1180.866457728568
 72
     1
 10
1182.670209334011
 20
1180.866457728568
 11
1192.670209334011
 21
1180.866457728568
 72
     1
 10
1192.670209334011
 20
1180.866457728568
 11
1192.670209334011
 21
1185.866457728568
 97
        0
 75
     0
 76
     0
 52
45.0
 41
2.0
 77
     0
 78
     1
 53
45.0
 43
0.0
 44
0.0
 45
-1.414213562373094
 46
1.414213562373095
 79
     0
 98
        1
 10
0.0
 20
0.0
1001
GENIUS_GENODEF_13
1002
{
1000
HIER
1070
     0
1002
}
1002
{
1000
MANEDIT
1070
     0
1002
}
1002
{
1000
NOSEL
1070
     0
1002
}
1002
{
1000
BEHIND
1070
     0
1002
}
1002
{
1000
OTHER
1070
     0
1002
}
1002
{
1000
REACTOR
1002
}
1001
GENIUS_GENOBJ-N-HTC_13
1002
{
1000
OWNER
1000
GEN
1002
}
1001
GENIUS_GENHATCH_13
1002
{
1000
DATA
1040
45.0
1042
5.0
1000
_U
1070
     0
1011
1185.346068218184
1021
1182.519751317866
1031
0.0
1002
}
1002
{
1000
UCS
1010
0.0
1020
0.0
1030
0.0
1010
1.0
1020
0.0
1030
0.0
1010
0.0
1020
1.0
1030
0.0
1002
}
  0
DIMENSION
  5
2340
102
{ACAD_XDICTIONARY
360
234D
102
}
102
{ACAD_REACTORS
330
234E
102
}
330
1F
100
AcDbEntity
  8
AM_5
100
AcDbDimension
  2
*D16
 10
1048.620209334011
 20
1213.219303067274
 30
0.0
 11
1142.670209334011
 21
1223.794303067274
 31
0.0
 70
    32
  1
{\Famgdt;o}<>
 71
     5
 42
188.0999999999999
  3
GEN-ISO$0
100
AcDbAlignedDimension
 13
1236.720209334011
 23
1185.866457728568
 33
0.0
 14
1048.620209334011
 24
1185.866457728568
 34
0.0
 50
0.0000000000000114
100
AcDbRotatedDimension
1001
ACAD
1000
DSTYLE
1002
{
1070
   271
1070
     0
1002
}
  0
ENDSEC
  0
SECTION
  2
OBJECTS
  0
DICTIONARY
  5
C
330
0
100
AcDbDictionary
281
     1
  3
ACAD_COLOR
350
BE
  3
ACAD_GROUP
350
D
  3
ACAD_LAYOUT
350
1A
  3
ACAD_MATERIAL
350
BD
  3
ACAD_MLINESTYLE
350
17
  3
ACAD_PLOTSETTINGS
350
19
  3
ACAD_PLOTSTYLENAME
350
E
  3
ACAD_TABLESTYLE
350
11A
  3
ACDBHEADERROUNDTRIPXREC
350
23AC
  3
AcDbVariableDictionary
350
94
  3
AcmDictionary
350
5B
  3
AMG
350
41
  3
AMGSNAPSETTINGS
350
26B
  3
DWGPROPS
350
23AB
  0
DICTIONARY
  5
1839
330
2
100
AcDbDictionary
280
     1
281
     1
  3
AMLAYER_GROUPCOLORS
360
183A
  0
DICTIONARY
  5
8F
330
1F
100
AcDbDictionary
280
     1
281
     1
  3
ACAD_SORTENTS
360
183E
  0
DICTIONARY
  5
1C57
330
1C4A
100
AcDbDictionary
280
     1
281
     1
  3
ACAD_DIMASSOC
360
1C58
  0
DICTIONARY
  5
21CA
330
21BB
100
AcDbDictionary
280
     1
281
     1
  3
ACAD_DIMASSOC
360
21CB
  0
DICTIONARY
  5
2224
330
2217
100
AcDbDictionary
280
     1
281
     1
  3
ACAD_DIMASSOC
360
2225
  0
DICTIONARY
  5
234D
330
2340
100
AcDbDictionary
280
     1
281
     1
  3
ACAD_DIMASSOC
360
234E
  0
DICTIONARY
  5
BE
102
{ACAD_REACTORS
330
C
102
}
330
C
100
AcDbDictionary
281
     1
  0
DICTIONARY
  5
D
102
{ACAD_REACTORS
330
C
102
}
330
C
100
AcDbDictionary
281
     1
  0
DICTIONARY
  5
1A
102
{ACAD_REACTORS
330
C
102
}
330
C
100
AcDbDictionary
281
     1
  3
Layout1
350
1E
  3
Layout2
350
26
  3
Model
350
22
  0
DICTIONARY
  5
BD
102
{ACAD_REACTORS
330
C
102
}
330
C
100
AcDbDictionary
281
     1
  0
DICTIONARY
  5
17
102
{ACAD_REACTORS
330
C
102
}
330
C
100
AcDbDictionary
281
     1
  3
Standard
350
18
  0
DICTIONARY
  5
19
102
{ACAD_REACTORS
330
C
102
}
330
C
100
AcDbDictionary
281
     1
  0
ACDBDICTIONARYWDFLT
  5
E
102
{ACAD_REACTORS
330
C
102
}
330
C
100
AcDbDictionary
281
     1
  3
Normal
350
F
100
AcDbDictionaryWithDefault
340
F
  0
DICTIONARY
  5
11A
102
{ACAD_REACTORS
330
C
102
}
330
C
100
AcDbDictionary
281
     1
  3
Standard
350
11B
  0
DICTIONARY
  5
23AC
102
{ACAD_REACTORS
330
C
102
}
330
C
100
AcDbDictionary
281
     1
  0
DICTIONARY
  5
94
102
{ACAD_REACTORS
330
C
102
}
330
C
100
AcDbDictionary
281
     1
  3
CTABLESTYLE
350
138
  3
DIMASSOC
350
96
  3
INDEXCTL
350
95
  3
PROJECTNAME
350
23A9
  0
DICTIONARY
  5
5B
102
{ACAD_REACTORS
330
C
102
}
330
C
100
AcDbDictionary
281
     1
  3
AcmBOM
350
272
  3
AcmStdDictionary
350
61
  3
AMDTSECTSYM_ARROWCOLOR
350
123
  0
DICTIONARY
  5
41
102
{ACAD_REACTORS
330
C
102
}
330
C
100
AcDbDictionary
281
     1
  0
DICTIONARY
  5
26B
102
{ACAD_REACTORS
330
C
102
}
330
C
100
AcDbDictionary
281
     1
  0
XRECORD
  5
23AB
102
{ACAD_REACTORS
330
C
102
}
330
C
100
AcDbXrecord
280
     1
  1
DWGPROPS COOKIE
  2

  3

  4

  6

  7

  8

  9

300
AmdtFileType=84
301
=
302
=
303
=
304
=
305
=
306
=
307
=
308
=
309
=
 40
0.0695494907407408
 41
2454061.468877697
 42
2454081.797861991
  1

 90
        1
  0
DICTIONARY
  5
183A
102
{ACAD_REACTORS
330
1839
102
}
330
1839
100
AcDbDictionary
280
     1
281
     1
  0
SORTENTSTABLE
  5
183E
102
{ACAD_REACTORS
330
8F
102
}
330
8F
100
AcDbSortentsTable
330
1F
331
171B
  5
1728
331
169C
  5
16AF
331
1752
  5
1756
331
22B1
  5
22B1
331
1F44
  5
1F44
331
2123
  5
2123
331
1A3E
  5
1A42
331
1C2D
  5
1C2D
331
175A
  5
175E
331
1F4C
  5
1F4C
331
172B
  5
172F
331
1762
  5
1766
331
1F54
  5
1F54
331
2133
  5
2133
331
1A17
  5
1A1B
331
16F4
  5
16F8
331
176A
  5
176E
331
1F5C
  5
1F5C
331
16FC
  5
1700
331
1733
  5
1737
331
1772
  5
1776
331
1F64
  5
1F64
331
1A1F
  5
1A23
331
177A
  5
177E
331
1704
  5
1711
331
173B
  5
173F
331
1F6C
  5
1F6C
331
1A27
  5
1A2B
331
1743
  5
1747
331
1F74
  5
1F74
331
19F8
  5
19FC
331
174B
  5
174F
331
211C
  5
211C
331
1A37
  5
1A40
331
1C26
  5
1C26
331
22F9
  5
22F8
331
1A00
  5
1A04
331
1753
  5
1757
331
21BB
  5
21BB
331
1F45
  5
1F45
331
1A3F
  5
1A43
331
1C2E
  5
1C2E
331
175B
  5
175F
331
1F4D
  5
1F4D
331
1A10
  5
1A19
331
16ED
  5
16F2
331
172C
  5
1730
331
1763
  5
1767
331
1F55
  5
1F55
331
2134
  5
2134
331
16F5
  5
16F9
331
176B
  5
176F
331
1F5D
  5
1F5D
331
1A18
  5
1A1C
331
16FD
  5
1701
331
1734
  5
1738
331
1773
  5
1777
331
1F65
  5
1F65
331
1A20
  5
1A24
331
177B
  5
177F
331
1705
  5
171B
331
173C
  5
1740
331
1F6D
  5
1F6D
331
1BDF
  5
502
331
19F1
  5
19F6
331
1A28
  5
1A2D
331
1744
  5
1748
331
1783
  5
1787
331
1F75
  5
1F75
331
19F9
  5
19FD
331
174C
  5
1750
331
211D
  5
211D
331
1C27
  5
1C27
331
1A01
  5
1A0A
331
1754
  5
1758
331
1F46
  5
1F46
331
1A40
  5
1A44
331
1C2F
  5
1C2F
331
1725
  5
1729
331
175C
  5
1760
331
2302
  5
2301
331
1F4E
  5
1F4E
331
212D
  5
212D
331
1AD8
  5
1BD7
331
172D
  5
1731
331
16EE
  5
16F3
331
1764
  5
1768
331
1F56
  5
1F56
331
16F6
  5
16FA
331
176C
  5
1770
331
1F5E
  5
1F5E
331
1A19
  5
1A1D
331
16FE
  5
1702
331
1735
  5
1739
331
1774
  5
1778
331
1F66
  5
1F66
331
1A21
  5
1A25
331
177C
  5
1780
331
1706
  5
1725
331
173D
  5
1741
331
1F6E
  5
1F6E
331
19F2
  5
19F8
331
1A29
  5
1A2E
331
1745
  5
1749
331
19FA
  5
19FE
331
174D
  5
1751
331
1F3F
  5
1F3F
331
1A02
  5
1A10
331
1C28
  5
1C28
331
1755
  5
1759
331
2126
  5
2126
331
1A0A
  5
1A18
331
1A41
  5
1AD8
331
1C30
  5
1C30
331
1726
  5
172A
331
175D
  5
1761
331
230B
  5
230A
331
1F4F
  5
1F4F
331
212E
  5
212E
331
172E
  5
1732
331
1765
  5
1769
331
22CC
  5
22CB
331
1F57
  5
1F57
331
16F7
  5
16FB
331
176D
  5
1771
331
1F5F
  5
1F5F
331
1A1A
  5
1A1F
331
16FF
  5
1703
331
1736
  5
173A
331
1775
  5
1779
331
1F67
  5
1F67
331
2146
  5
2146
331
1A22
  5
1A26
331
177D
  5
1781
331
173E
  5
1742
331
1F6F
  5
1F6F
331
19F3
  5
19F9
331
1A2A
  5
1A33
331
170F
  5
1726
331
1746
  5
174A
331
1785
  5
1882
331
19FB
  5
19FF
331
174E
  5
1752
331
211F
  5
211F
331
1F40
  5
1F40
331
1A03
  5
1A15
331
1C29
  5
1C29
331
1756
  5
175A
331
1F48
  5
1F48
331
1A42
  5
1BA9
331
1C31
  5
1C31
331
1727
  5
172B
331
175E
  5
1762
331
212F
  5
212F
331
16F0
  5
16F4
331
172F
  5
1733
331
1766
  5
176A
331
2314
  5
2313
331
1F58
  5
1F58
331
176E
  5
1772
331
22D5
  5
22D4
331
16F8
  5
16FC
331
1F60
  5
1F60
331
1A1B
  5
1A20
331
1700
  5
1704
331
1737
  5
173B
331
1776
  5
177A
331
1A23
  5
1A27
331
177E
  5
1783
331
173F
  5
1743
331
1F68
  5
1F68
331
19F4
  5
19FA
331
1A2B
  5
1A34
331
1747
  5
174B
331
1786
  5
1883
331
1F70
  5
1F70
331
19FC
  5
1A00
331
174F
  5
1753
331
183D
  5
1885
331
1A33
  5
1A37
331
1C22
  5
1C22
331
22AE
  5
22AE
331
1F41
  5
1F41
331
2120
  5
2120
331
1757
  5
175B
331
1A04
  5
1A17
331
1C2A
  5
1C2A
331
1F49
  5
1F49
331
1A43
  5
1BD4
331
1C32
  5
1C32
331
1728
  5
172C
331
175F
  5
1763
331
1F51
  5
1F51
331
2130
  5
2130
331
1C3A
  5
1C3A
331
16F1
  5
16F5
331
1767
  5
176B
331
1F59
  5
1F59
331
176F
  5
1773
331
231D
  5
231C
331
16F9
  5
16FD
331
1730
  5
1734
331
1F61
  5
1F61
331
1A1C
  5
1A21
331
1C4A
  5
1C4A
331
1701
  5
1705
331
1738
  5
173C
331
1777
  5
177B
331
22DE
  5
22DD
331
2178
  5
2178
331
2217
  5
2217
331
1F69
  5
1F69
331
1A24
  5
1A28
331
1740
  5
1744
331
177F
  5
1784
331
1711
  5
1727
331
1748
  5
174C
331
1787
  5
1884
331
19FD
  5
1A01
331
1A34
  5
1A3C
331
1C23
  5
1C23
331
22AF
  5
22AF
331
1750
  5
1754
331
1F42
  5
1F42
331
1A3C
  5
1A41
331
1C2B
  5
1C2B
331
1758
  5
175C
331
1F4A
  5
1F4A
331
1A44
  5
1BD6
331
1C33
  5
1C33
331
1729
  5
172D
331
1760
  5
1764
331
1F52
  5
1F52
331
2131
  5
2131
331
1A15
  5
1A1A
331
16F2
  5
16F6
331
1768
  5
176C
331
1F5A
  5
1F5A
331
16FA
  5
16FE
331
1731
  5
1735
331
1770
  5
1774
331
1F62
  5
1F62
331
1BD4
  5
1BE1
331
1A1D
  5
1A22
331
1778
  5
177C
331
1702
  5
1706
331
1739
  5
173D
331
1F6A
  5
1F6A
331
1A25
  5
1A29
331
1741
  5
1745
331
1780
  5
1785
331
22E7
  5
22E6
331
1BEC
  5
1BEC
331
19F6
  5
19FB
331
1A2D
  5
1A35
331
1749
  5
174D
331
19FE
  5
1A02
331
1A35
  5
1A3E
331
1C24
  5
1C24
331
1751
  5
1755
331
22B0
  5
22B0
331
1F43
  5
1F43
331
2122
  5
2122
331
1C2C
  5
1C2C
331
1759
  5
175D
331
1F4B
  5
1F4B
331
172A
  5
172E
331
1761
  5
1765
331
1F53
  5
1F53
331
2132
  5
2132
331
16F3
  5
16F7
331
1769
  5
176D
331
1F5B
  5
1F5B
331
16FB
  5
16FF
331
1732
  5
1736
331
1771
  5
1775
331
1F63
  5
1F63
331
1779
  5
177D
331
1703
  5
170F
331
173A
  5
173E
331
1F6B
  5
1F6B
331
1A26
  5
1A2A
331
1742
  5
1746
331
1781
  5
1786
331
22F0
  5
22EF
331
1F73
  5
1F73
331
1A2E
  5
1A36
331
174A
  5
174E
331
19FF
  5
1A03
331
1A36
  5
1A3F
331
1C25
  5
1C25
  0
DIMASSOC
  5
1C58
102
{ACAD_REACTORS
330
1C57
102
}
330
1C57
100
AcDbDimAssoc
330
1C4A
 90
        3
 70
     0
 71
     0
  1
AcDbOsnapPointRef
 72
    13
331
1A1C
 73
     0
 91
        0
 40
0.0
 10
0.0
 20
0.0
 30
2.000000000000000E+50
 75
     0
  1
AcDbOsnapPointRef
 72
     1
331
1A42
 73
     0
 91
        0
 40
0.0
 10
0.0
 20
0.0
 30
2.000000000000000E+50
 75
     0
  0
DIMASSOC
  5
21CB
102
{ACAD_REACTORS
330
21CA
102
}
330
21CA
100
AcDbDimAssoc
330
21BB
 90
        3
 70
     0
 71
     0
  1
AcDbOsnapPointRef
 72
    13
331
1F59
 73
     0
 91
        0
 40
0.0
 10
0.0
 20
0.0
 30
2.000000000000000E+50
 75
     0
  1
AcDbOsnapPointRef
 72
     1
331
1F59
 73
     0
 91
        0
 40
0.0
 10
0.0
 20
0.0
 30
2.000000000000000E+50
 75
     0
  0
DIMASSOC
  5
2225
102
{ACAD_REACTORS
330
2224
102
}
330
2224
100
AcDbDimAssoc
330
2217
 90
        3
 70
     0
 71
     0
  1
AcDbOsnapPointRef
 72
     1
331
1A42
 73
     0
 91
        0
 40
0.0
 10
0.0
 20
0.0
 30
2.000000000000000E+50
 75
     0
  1
AcDbOsnapPointRef
 72
     1
331
16F7
 73
     0
 91
        0
 40
0.0
 10
0.0
 20
0.0
 30
2.000000000000000E+50
 75
     0
  0
DIMASSOC
  5
234E
102
{ACAD_REACTORS
330
234D
102
}
330
234D
100
AcDbDimAssoc
330
2340
 90
        3
 70
     0
 71
     0
  1
AcDbOsnapPointRef
 72
     1
331
1C25
 73
     0
 91
        0
 40
0.0
 10
0.0
 20
0.0
 30
2.000000000000000E+50
 75
     0
  1
AcDbOsnapPointRef
 72
    13
331
1C3A
 73
     0
 91
        0
 40
0.0
 10
0.0
 20
0.0
 30
2.000000000000000E+50
 75
     0
  0
LAYOUT
  5
1E
102
{ACAD_XDICTIONARY
360
23AD
102
}
102
{ACAD_REACTORS
330
1A
102
}
330
1A
100
AcDbPlotSettings
  1

  2

  4

  6

 40
0.0
 41
0.0
 42
0.0
 43
0.0
 44
0.0
 45
0.0
 46
0.0
 47
0.0
 48
0.0
 49
0.0
140
0.0
141
0.0
142
1.0
143
1.0
 70
   688
 72
     0
 73
     0
 74
     5
  7

 75
    16
147
1.0
148
0.0
149
0.0
100
AcDbLayout
  1
Layout1
 70
     1
 71
     1
 10
0.0
 20
0.0
 11
420.0
 21
297.0
 12
0.0
 22
0.0
 32
0.0
 14
1.000000000000000E+20
 24
1.000000000000000E+20
 34
1.000000000000000E+20
 15
-1.000000000000000E+20
 25
-1.000000000000000E+20
 35
-1.000000000000000E+20
146
0.0
 13
0.0
 23
0.0
 33
0.0
 16
1.0
 26
0.0
 36
0.0
 17
0.0
 27
1.0
 37
0.0
 76
     0
330
1B
  0
LAYOUT
  5
26
102
{ACAD_XDICTIONARY
360
23B1
102
}
102
{ACAD_REACTORS
330
1A
102
}
330
1A
100
AcDbPlotSettings
  1

  2

  4

  6

 40
0.0
 41
0.0
 42
0.0
 43
0.0
 44
0.0
 45
0.0
 46
0.0
 47
0.0
 48
0.0
 49
0.0
140
0.0
141
0.0
142
1.0
143
1.0
 70
   688
 72
     0
 73
     0
 74
     5
  7

 75
    16
147
1.0
148
0.0
149
0.0
100
AcDbLayout
  1
Layout2
 70
     1
 71
     2
 10
0.0
 20
0.0
 11
12.0
 21
9.0
 12
0.0
 22
0.0
 32
0.0
 14
0.0
 24
0.0
 34
0.0
 15
0.0
 25
0.0
 35
0.0
146
0.0
 13
0.0
 23
0.0
 33
0.0
 16
1.0
 26
0.0
 36
0.0
 17
0.0
 27
1.0
 37
0.0
 76
     0
330
23
  0
LAYOUT
  5
22
102
{ACAD_XDICTIONARY
360
23AF
102
}
102
{ACAD_REACTORS
330
1A
102
}
330
1A
100
AcDbPlotSettings
  1

  2

  4

  6

 40
0.0
 41
0.0
 42
0.0
 43
0.0
 44
0.0
 45
0.0
 46
0.0
 47
0.0
 48
0.0
 49
0.0
140
0.0
141
0.0
142
1.0
143
1.0
 70
  1712
 72
     0
 73
     0
 74
     0
  7

 75
     0
147
1.0
148
0.0
149
0.0
100
AcDbLayout
  1
Model
 70
     1
 71
     0
 10
0.0
 20
0.0
 11
12.0
 21
9.0
 12
0.0
 22
0.0
 32
0.0
 14
0.0
 24
0.0
 34
0.0
 15
0.0
 25
0.0
 35
0.0
146
0.0
 13
0.0
 23
0.0
 33
0.0
 16
1.0
 26
0.0
 36
0.0
 17
0.0
 27
1.0
 37
0.0
 76
     0
330
1F
  0
MLINESTYLE
  5
18
102
{ACAD_REACTORS
330
17
102
}
330
17
100
AcDbMlineStyle
  2
STANDARD
 70
     0
  3

 62
   256
 51
90.0
 52
90.0
 71
     2
 49
0.5
 62
   256
  6
BYLAYER
 49
-0.5
 62
   256
  6
BYLAYER
  0
ACDBPLACEHOLDER
  5
F
102
{ACAD_REACTORS
330
E
102
}
330
E
  0
TABLESTYLE
  5
11B
102
{ACAD_REACTORS
330
11A
102
}
330
11A
100
AcDbTableStyle
  3
Standard
 70
     0
 71
     0
 40
1.5
 41
1.5
280
     0
281
     0
  7
STANDARD
140
4.5
170
     2
 62
     0
 63
     7
283
     0
274
    -2
284
     1
 64
     0
275
    -2
285
     1
 65
     0
276
    -2
286
     1
 66
     0
277
    -2
287
     1
 67
     0
278
    -2
288
     1
 68
     0
279
    -2
289
     1
 69
     0
  7
STANDARD
140
6.0
170
     5
 62
     0
 63
     7
283
     0
274
    -2
284
     1
 64
     0
275
    -2
285
     1
 65
     0
276
    -2
286
     1
 66
     0
277
    -2
287
     1
 67
     0
278
    -2
288
     1
 68
     0
279
    -2
289
     1
 69
     0
  7
STANDARD
140
4.5
170
     5
 62
     0
 63
     7
283
     0
274
    -2
284
     1
 64
     0
275
    -2
285
     1
 65
     0
276
    -2
286
     1
 66
     0
277
    -2
287
     1
 67
     0
278
    -2
288
     1
 68
     0
279
    -2
289
     1
 69
     0
  0
DICTIONARYVAR
  5
138
102
{ACAD_REACTORS
330
94
102
}
330
94
100
DictionaryVariables
280
     0
  1
STANDARD
  0
DICTIONARYVAR
  5
96
102
{ACAD_REACTORS
330
94
102
}
330
94
100
DictionaryVariables
280
     0
  1
2
  0
DICTIONARYVAR
  5
95
102
{ACAD_REACTORS
330
94
102
}
330
94
100
DictionaryVariables
280
     0
  1
0
  0
DICTIONARYVAR
  5
23A9
102
{ACAD_REACTORS
330
94
102
}
330
94
100
DictionaryVariables
280
     0
  1

  0
DICTIONARY
  5
272
102
{ACAD_REACTORS
330
5B
102
}
330
5B
100
AcDbDictionary
281
     1
  0
DICTIONARY
  5
61
102
{ACAD_REACTORS
330
5B
102
}
330
5B
100
AcDbDictionary
281
     1
  0
XRECORD
  5
123
102
{ACAD_REACTORS
330
5B
102
}
330
5B
100
AcDbXrecord
280
     1
 90
-1023410169
  0
DICTIONARY
  5
23AD
330
1E
100
AcDbDictionary
280
     1
281
     1
  3
ACAD_XREC_ROUNDTRIP
360
23AE
  0
DICTIONARY
  5
23B1
330
26
100
AcDbDictionary
280
     1
281
     1
  3
ACAD_XREC_ROUNDTRIP
360
23B2
  0
DICTIONARY
  5
23AF
330
22
100
AcDbDictionary
280
     1
281
     1
  3
ACAD_XREC_ROUNDTRIP
360
23B0
  0
XRECORD
  5
23AE
102
{ACAD_REACTORS
330
23AD
102
}
330
23AD
100
AcDbXrecord
280
     1
102
SHADEPLOT
 70
     0
102
SHADEPLOTRESLEVEL
 70
     2
102
SHADEPLOTCUSTOMDPI
 70
   300
  0
XRECORD
  5
23B2
102
{ACAD_REACTORS
330
23B1
102
}
330
23B1
100
AcDbXrecord
280
     1
102
SHADEPLOT
 70
     0
102
SHADEPLOTRESLEVEL
 70
     2
102
SHADEPLOTCUSTOMDPI
 70
   300
  0
XRECORD
  5
23B0
102
{ACAD_REACTORS
330
23AF
102
}
330
23AF
100
AcDbXrecord
280
     1
102
SHADEPLOT
 70
     0
102
SHADEPLOTRESLEVEL
 70
     2
102
SHADEPLOTCUSTOMDPI
 70
   300
  0
ENDSEC
  0
EOF
