  0
SECTION
  2
HEADER
  9
$ACADVER
  1
AC1018
  9
$ACADMAINTVER
 70
   104
  9
$DWGCODEPAGE
  3
ANSI_1252
  9
$LASTSAVEDBY
  1
kbaersch
  9
$CUSTOMPROPERTYTAG
  1
AmdtFileType
  9
$CUSTOMPROPERTY
  1
84
  9
$INSBASE
 10
0.0
 20
0.0
 30
0.0
  9
$EXTMIN
 10
10.98964505670084
 20
-44.80111012300295
 30
0.0
  9
$EXTMAX
 10
335.8666322413872
 20
437.0959139522419
 30
0.0
  9
$LIMMIN
 10
-0.0000000000001137
 20
0.0
  9
$LIMMAX
 10
594.0
 20
420.0
  9
$ORTHOMODE
 70
     1
  9
$REGENMODE
 70
     1
  9
$FILLMODE
 70
     1
  9
$QTEXTMODE
 70
     0
  9
$MIRRTEXT
 70
     1
  9
$LTSCALE
 40
1.0
  9
$ATTMODE
 70
     1
  9
$TEXTSIZE
 40
2.5
  9
$TRACEWID
 40
1.0
  9
$TEXTSTYLE
  7
STANDARD
  9
$CLAYER
  8
0
  9
$CELTYPE
  6
ByLayer
  9
$CECOLOR
 62
   256
  9
$CELTSCALE
 40
1.0
  9
$DISPSILH
 70
     0
  9
$DIMSCALE
 40
1.0
  9
$DIMASZ
 40
2.5
  9
$DIMEXO
 40
1.0
  9
$DIMDLI
 40
10.0
  9
$DIMRND
 40
0.0
  9
$DIMDLE
 40
0.0
  9
$DIMEXE
 40
1.0
  9
$DIMTP
 40
0.1
  9
$DIMTM
 40
0.1
  9
$DIMTXT
 40
3.5
  9
$DIMCEN
 40
0.0
  9
$DIMTSZ
 40
0.0
  9
$DIMTOL
 70
     0
  9
$DIMLIM
 70
     0
  9
$DIMTIH
 70
     0
  9
$DIMTOH
 70
     0
  9
$DIMSE1
 70
     0
  9
$DIMSE2
 70
     0
  9
$DIMTAD
 70
     1
  9
$DIMZIN
 70
     8
  9
$DIMBLK
  1

  9
$DIMASO
 70
     1
  9
$DIMSHO
 70
     1
  9
$DIMPOST
  1

  9
$DIMAPOST
  1
"
  9
$DIMALT
 70
     0
  9
$DIMALTD
 70
     2
  9
$DIMALTF
 40
0.0393701
  9
$DIMLFAC
 40
1.0
  9
$DIMTOFL
 70
     1
  9
$DIMTVP
 40
0.0
  9
$DIMTIX
 70
     0
  9
$DIMSOXD
 70
     0
  9
$DIMSAH
 70
     0
  9
$DIMBLK1
  1

  9
$DIMBLK2
  1

  9
$DIMSTYLE
  2
AM_DIN
  9
$DIMCLRD
 70
   256
  9
$DIMCLRE
 70
   256
  9
$DIMCLRT
 70
     2
  9
$DIMTFAC
 40
0.71
  9
$DIMGAP
 40
1.5
  9
$DIMJUST
 70
     0
  9
$DIMSD1
 70
     0
  9
$DIMSD2
 70
     0
  9
$DIMTOLJ
 70
     0
  9
$DIMTZIN
 70
     8
  9
$DIMALTZ
 70
     0
  9
$DIMALTTZ
 70
     0
  9
$DIMUPT
 70
     0
  9
$DIMDEC
 70
     2
  9
$DIMTDEC
 70
     3
  9
$DIMALTU
 70
     2
  9
$DIMALTTD
 70
     4
  9
$DIMTXSTY
  7
STANDARD
  9
$DIMAUNIT
 70
     0
  9
$DIMADEC
 70
     0
  9
$DIMALTRND
 40
0.0
  9
$DIMAZIN
 70
     2
  9
$DIMDSEP
 70
    46
  9
$DIMATFIT
 70
     3
  9
$DIMFRAC
 70
     0
  9
$DIMLDRBLK
  1

  9
$DIMLUNIT
 70
     2
  9
$DIMLWD
 70
    -1
  9
$DIMLWE
 70
    -1
  9
$DIMTMOVE
 70
     0
  9
$LUNITS
 70
     2
  9
$LUPREC
 70
     2
  9
$SKETCHINC
 40
1.0
  9
$FILLETRAD
 40
0.0
  9
$AUNITS
 70
     0
  9
$AUPREC
 70
     0
  9
$MENU
  1
.
  9
$ELEVATION
 40
0.0
  9
$PELEVATION
 40
0.0
  9
$THICKNESS
 40
0.0
  9
$LIMCHECK
 70
     0
  9
$CHAMFERA
 40
2.5
  9
$CHAMFERB
 40
2.5
  9
$CHAMFERC
 40
20.0
  9
$CHAMFERD
 40
0.0
  9
$SKPOLY
 70
     0
  9
$TDCREATE
 40
2452702.557501690
  9
$TDUCREATE
 40
2452702.474168357
  9
$TDUPDATE
 40
2456150.600672199
  9
$TDUUPDATE
 40
2456150.517338866
  9
$TDINDWG
 40
0.3033776273
  9
$TDUSRTIMER
 40
0.3033776273
  9
$USRTIMER
 70
     1
  9
$ANGBASE
 50
0.0
  9
$ANGDIR
 70
     0
  9
$PDMODE
 70
     0
  9
$PDSIZE
 40
0.0
  9
$PLINEWID
 40
0.0
  9
$SPLFRAME
 70
     0
  9
$SPLINETYPE
 70
     6
  9
$SPLINESEGS
 70
     8
  9
$HANDSEED
  5
2768
  9
$SURFTAB1
 70
     6
  9
$SURFTAB2
 70
     6
  9
$SURFTYPE
 70
     6
  9
$SURFU
 70
     6
  9
$SURFV
 70
     6
  9
$UCSBASE
  2

  9
$UCSNAME
  2

  9
$UCSORG
 10
0.0
 20
0.0
 30
0.0
  9
$UCSXDIR
 10
1.0
 20
0.0
 30
0.0
  9
$UCSYDIR
 10
0.0
 20
1.0
 30
0.0
  9
$UCSORTHOREF
  2

  9
$UCSORTHOVIEW
 70
     0
  9
$UCSORGTOP
 10
0.0
 20
0.0
 30
0.0
  9
$UCSORGBOTTOM
 10
0.0
 20
0.0
 30
0.0
  9
$UCSORGLEFT
 10
0.0
 20
0.0
 30
0.0
  9
$UCSORGRIGHT
 10
0.0
 20
0.0
 30
0.0
  9
$UCSORGFRONT
 10
0.0
 20
0.0
 30
0.0
  9
$UCSORGBACK
 10
0.0
 20
0.0
 30
0.0
  9
$PUCSBASE
  2

  9
$PUCSNAME
  2

  9
$PUCSORG
 10
0.0
 20
0.0
 30
0.0
  9
$PUCSXDIR
 10
1.0
 20
0.0
 30
0.0
  9
$PUCSYDIR
 10
0.0
 20
1.0
 30
0.0
  9
$PUCSORTHOREF
  2

  9
$PUCSORTHOVIEW
 70
     0
  9
$PUCSORGTOP
 10
0.0
 20
0.0
 30
0.0
  9
$PUCSORGBOTTOM
 10
0.0
 20
0.0
 30
0.0
  9
$PUCSORGLEFT
 10
0.0
 20
0.0
 30
0.0
  9
$PUCSORGRIGHT
 10
0.0
 20
0.0
 30
0.0
  9
$PUCSORGFRONT
 10
0.0
 20
0.0
 30
0.0
  9
$PUCSORGBACK
 10
0.0
 20
0.0
 30
0.0
  9
$USERI1
 70
     0
  9
$USERI2
 70
     0
  9
$USERI3
 70
     0
  9
$USERI4
 70
     0
  9
$USERI5
 70
     0
  9
$USERR1
 40
0.0
  9
$USERR2
 40
0.0
  9
$USERR3
 40
0.0
  9
$USERR4
 40
0.0
  9
$USERR5
 40
0.0
  9
$WORLDVIEW
 70
     1
  9
$SHADEDGE
 70
     3
  9
$SHADEDIF
 70
    70
  9
$TILEMODE
 70
     1
  9
$MAXACTVP
 70
    64
  9
$PINSBASE
 10
0.0
 20
0.0
 30
0.0
  9
$PLIMCHECK
 70
     0
  9
$PEXTMIN
 10
1.000000000000000E+20
 20
1.000000000000000E+20
 30
1.000000000000000E+20
  9
$PEXTMAX
 10
-1.000000000000000E+20
 20
-1.000000000000000E+20
 30
-1.000000000000000E+20
  9
$PLIMMIN
 10
0.0
 20
0.0
  9
$PLIMMAX
 10
420.0
 20
297.0
  9
$UNITMODE
 70
     0
  9
$VISRETAIN
 70
     1
  9
$PLINEGEN
 70
     0
  9
$PSLTSCALE
 70
     1
  9
$TREEDEPTH
 70
  3020
  9
$CMLSTYLE
  2
Standard
  9
$CMLJUST
 70
     0
  9
$CMLSCALE
 40
20.0
  9
$PROXYGRAPHICS
 70
     1
  9
$MEASUREMENT
 70
     1
  9
$CELWEIGHT
370
    -1
  9
$ENDCAPS
280
     0
  9
$JOINSTYLE
280
     0
  9
$LWDISPLAY
290
     0
  9
$INSUNITS
 70
     4
  9
$HYPERLINKBASE
  1

  9
$STYLESHEET
  1
monochrome.ctb
  9
$XEDIT
290
     1
  9
$CEPSNTYPE
380
     0
  9
$PSTYLEMODE
290
     1
  9
$FINGERPRINTGUID
  2
{D5091DE6-A8E7-4749-B1FA-F4240FAEB0F0}
  9
$VERSIONGUID
  2
{94D0AF5C-3B09-43EE-9B29-7A3C1ECDAB1E}
  9
$EXTNAMES
290
     1
  9
$PSVPSCALE
 40
0.0
  9
$OLESTARTUP
290
     0
  9
$SORTENTS
280
   127
  9
$INDEXCTL
280
     0
  9
$HIDETEXT
280
     0
  9
$XCLIPFRAME
290
     0
  9
$HALOGAP
280
     0
  9
$OBSCOLOR
 70
   257
  9
$OBSLTYPE
280
     0
  9
$INTERSECTIONDISPLAY
280
     0
  9
$INTERSECTIONCOLOR
 70
   257
  9
$DIMASSOC
280
     1
  9
$PROJECTNAME
  1

  0
ENDSEC
  0
SECTION
  2
CLASSES
  0
CLASS
  1
ACDBDICTIONARYWDFLT
  2
AcDbDictionaryWithDefault
  3
ObjectDBX Classes
 90
        0
 91
        1
280
     0
281
     0
  0
CLASS
  1
AMGSETTINGSOBJ
  2
AmgSettingsObj
  3
"AcadM|Product Description: AutoCAD Mechanical|Company: Autodesk, Inc."
 90
     1024
 91
        3
280
     0
281
     0
  0
CLASS
  1
ACME_DOCUMENT
  2
AcMeDbDoc
  3
AcMeServices
 90
     1024
 91
        2
280
     0
281
     0
  0
CLASS
  1
ACMESCOPE
  2
AcMeScope
  3
AcMeServices
 90
     1024
 91
        1
280
     0
281
     0
  0
CLASS
  1
ACMECOMMANDHISTORY
  2
AcMeCommandHistory
  3
AcMeServices
 90
     1024
 91
        1
280
     0
281
     0
  0
CLASS
  1
DICTIONARYVAR
  2
AcDbDictionaryVar
  3
ObjectDBX Classes
 90
        0
 91
        8
280
     0
281
     0
  0
CLASS
  1
ACIMSYSVARMAN
  2
AcImSysVarManager
  3
AcMeServices
 90
     1024
 91
        5
280
     0
281
     0
  0
CLASS
  1
ACIMREALSYSVAR
  2
AcImRealSysVar
  3
AcMeServices
 90
     1024
 91
        3
280
     0
281
     0
  0
CLASS
  1
ACIMINTSYSVAR
  2
AcImIntSysVar
  3
AcMeServices
 90
     1024
 91
       28
280
     0
281
     0
  0
CLASS
  1
ACMEDRAWINGMAN
  2
AcMeDrawingMan
  3
AcMeServices
 90
     1024
 91
        1
280
     0
281
     0
  0
CLASS
  1
ACMEVIEW
  2
AcMeView
  3
AcMeServices
 90
     1024
 91
        1
280
     0
281
     0
  0
CLASS
  1
ACDBENTITYCACHE
  2
AcMeEntityCache
  3
AcMeServices
 90
     1024
 91
        1
280
     0
281
     0
  0
CLASS
  1
GSMANAGER
  2
AcMeGSManager
  3
AcMeServices
 90
     1024
 91
        1
280
     0
281
     0
  0
CLASS
  1
AMDTINTERNALREACTOR
  2
AmdtInternalReactor
  3
AcMeServices
 90
     1024
 91
        4
280
     0
281
     0
  0
CLASS
  1
ACMESTATEMGR
  2
AcMeStateMgr
  3
AcMeServices
 90
     1024
 91
        1
280
     0
281
     0
  0
CLASS
  1
ACGREFMASTER
  2
AcGrefMaster
  3
AcAttribServices
 90
     1024
 91
        1
280
     0
281
     0
  0
CLASS
  1
ACME_DATABASE
  2
AcMeDbDatabase
  3
AcMeServices
 90
     1024
 91
        1
280
     0
281
     0
  0
CLASS
  1
ACRFINSADJUSTERMGR
  2
AcRfInsAdjusterMgr
  3
AcMeServices
 90
     1024
 91
        1
280
     0
281
     0
  0
CLASS
  1
ACGREFACADMASTER
  2
AcGrefacadMaster
  3
AcGrefServices
 90
     1024
 91
        1
280
     0
281
     0
  0
CLASS
  1
AMIMASTER
  2
AmiMaster
  3
AmiServices
 90
     1024
 91
        1
280
     0
281
     0
  0
CLASS
  1
ACMDATADICTIONARY
  2
AcmDataDictionary
  3
"AcmSymBB|Product Description: AutoCAD Mechanical|Company: Autodesk, Inc."
 90
     1024
 91
        1
280
     0
281
     0
  0
CLASS
  1
ACMDATAENTRYBLOCK
  2
AcmDataEntryBlock
  3
AcmSymBB|Product Description: AutoCAD Mechanical|Company: Autodesk, Inc.
 90
     1024
 91
        1
280
     0
281
     0
  0
CLASS
  1
ACIMSTRSYSVAR
  2
AcImStrSysVar
  3
AcMeServices
 90
     1024
 91
        5
280
     0
281
     0
  0
CLASS
  1
ACMSTANDARDDIN
  2
AcmStandardDIN
  3
"Amdt_StdImp|Product Description: AutoCAD Mechanical|Company: Autodesk, Inc."
 90
     1024
 91
        1
280
     0
281
     0
  0
CLASS
  1
AMGOBJPROPCFG
  2
AmgObjPropCfg
  3
"AmgLay|Product Description: AutoCAD Mechanical|Company: Autodesk, Inc."
 90
     1025
 91
        1
280
     0
281
     0
  0
CLASS
  1
AMDTEDGESTANDARDDIN
  2
AmdtEdgeStdDIN
  3
"Amdt_StdImp|Product Description: AutoCAD Mechanical|Company: Autodesk, Inc."
 90
     1024
 91
        1
280
     0
281
     0
  0
CLASS
  1
ACMSURFSTANDARDDIN
  2
AcmSurfTextStdDIN
  3
"Amdt_StdImp|Product Description: AutoCAD Mechanical|Company: Autodesk, Inc."
 90
     1024
 91
        1
280
     0
281
     0
  0
CLASS
  1
ACMFCFSTANDARDDIN
  2
AcmFCFStdDIN
  3
"Amdt_StdImp|Product Description: AutoCAD Mechanical|Company: Autodesk, Inc."
 90
     1024
 91
        1
280
     0
281
     0
  0
CLASS
  1
ACMWELDSTANDARDDIN
  2
AcmWeldingStdDIN
  3
"Amdt_StdImp|Product Description: AutoCAD Mechanical|Company: Autodesk, Inc."
 90
     1024
 91
        1
280
     0
281
     0
  0
CLASS
  1
ACMIDSTANDARDDIN
  2
AcmIdStdDIN
  3
"Amdt_StdImp|Product Description: AutoCAD Mechanical|Company: Autodesk, Inc."
 90
     1024
 91
        1
280
     0
281
     0
  0
CLASS
  1
ACMDATUMSTANDARDDIN
  2
AcmDatumStdDIN
  3
"Amdt_StdImp|Product Description: AutoCAD Mechanical|Company: Autodesk, Inc."
 90
     1024
 91
        1
280
     0
281
     0
  0
CLASS
  1
ACMBOMSTANDARDDIN
  2
AcmBOMStdDIN
  3
"Amdt_StdImp|Product Description: AutoCAD Mechanical|Company: Autodesk, Inc."
 90
     1024
 91
        1
280
     0
281
     0
  0
CLASS
  1
ACMDETAILSTANDARDDIN
  2
AmdtDetailSymStdDIN
  3
"Amdt_StdImp|Product Description: AutoCAD Mechanical|Company: Autodesk, Inc."
 90
     1024
 91
        1
280
     0
281
     0
  0
CLASS
  1
ACMSECTIONSTANDARDDIN
  2
AmdtSectionSymStdDIN
  3
"Amdt_StdImp|Product Description: AutoCAD Mechanical|Company: Autodesk, Inc."
 90
     1024
 91
        1
280
     0
281
     0
  0
CLASS
  1
ACMCENTERLINESTANDARDDIN
  2
AmdtCenterLineStdDIN
  3
"Amdt_StdImp|Product Description: AutoCAD Mechanical|Company: Autodesk, Inc."
 90
     1024
 91
        1
280
     0
281
     0
  0
CLASS
  1
ACAMGLAYSTD
  2
AcAmgLayStd
  3
"AmgLay|Product Description: AutoCAD Mechanical|Company: Autodesk, Inc."
 90
     1024
 91
        1
280
     0
281
     0
  0
CLASS
  1
ACAMGDIMSTD
  2
AcAmgDimStd
  3
"AmgDim|Product Description: AutoCAD Mechanical|Company: Autodesk, Inc."
 90
     1024
 91
        1
280
     0
281
     0
  0
CLASS
  1
ACAMGTITLESTD
  2
AcAmgTitleStd
  3
"AmgTitle|Product Description: AutoCAD Mechanical|Company: Autodesk, Inc."
 90
     4095
 91
        1
280
     0
281
     0
  0
CLASS
  1
LAYER_INDEX
  2
AcDbLayerIndex
  3
ObjectDBX Classes
 90
        0
 91
        0
280
     0
281
     0
  0
CLASS
  1
IDBUFFER
  2
AcDbIdBuffer
  3
ObjectDBX Classes
 90
        0
 91
        0
280
     0
281
     0
  0
CLASS
  1
TABLESTYLE
  2
AcDbTableStyle
  3
ObjectDBX Classes
 90
     4095
 91
        1
280
     0
281
     0
  0
CLASS
  1
AM_DRAWING_MGR
  2
AcDmDwgMgr
  3
AcMechDwgViewMgmt
 90
     1024
 91
        1
280
     0
281
     0
  0
CLASS
  1
AM_DWG_DOCUMENT
  2
AcDmDwgDocument
  3
AcMechDwgViewMgmt
 90
     1024
 91
        1
280
     0
281
     0
  0
CLASS
  1
AM_DWG_SHEET
  2
AcDmSheet
  3
AcMechDwgViewMgmt
 90
     1024
 91
        2
280
     0
281
     0
  0
CLASS
  1
AM_VIEWDIMPARMAP
  2
AcDmViewDimParMap
  3
AcMechDwgViewMgmt
 90
     1024
 91
        2
280
     0
281
     0
  0
CLASS
  1
AM_DWGMGR_NAME
  2
AcDmDwgMgrName
  3
AcMechDwgViewMgmt
 90
     1024
 91
        1
280
     0
281
     0
  0
CLASS
  1
AMDTMENUSTATEMGR
  2
AmdtMenuStateMgr
  3
McadcomServices
 90
     1024
 91
        1
280
     0
281
     0
  0
CLASS
  1
AMDTMCOMMENUSTATE
  2
AmdtMcomMenuState
  3
McadcomServices
 90
     1024
 91
        1
280
     0
281
     0
  0
CLASS
  1
MAPIAMMOUDLE
  2
MApiAmModule
  3
MApiAmServices
 90
     1024
 91
        1
280
     0
281
     0
  0
CLASS
  1
AMDTADMENUSTATE
  2
AmdtAdMenuState
  3
DesignerServices
 90
     1024
 91
        1
280
     0
281
     0
  0
CLASS
  1
ADAPPL
  2
AcAdAppl
  3
DesignerServices
 90
     1024
 91
        1
280
     0
281
     0
  0
CLASS
  1
DEPMGR
  2
AcAdDepMgr
  3
DesignerServices
 90
     1024
 91
        1
280
     0
281
     0
  0
CLASS
  1
PARAMMGR
  2
AcAdParamMgr
  3
DesignerServices
 90
     1024
 91
        1
280
     0
281
     0
  0
CLASS
  1
PARAMSCOPE
  2
AcAdParamScope
  3
DesignerServices
 90
     1024
 91
        1
280
     0
281
     0
  0
CLASS
  1
NAMEDAPPL
  2
AcAdNamedAppl
  3
DesignerServices
 90
     1024
 91
        1
280
     0
281
     0
  0
CLASS
  1
AMDTDMMENUSTATE
  2
AmdtDmMenuState
  3
AcMechDwgViewMgmt
 90
     1024
 91
        1
280
     0
281
     0
  0
CLASS
  1
AMDTAMMENUSTATE
  2
AmdtAmMenuState
  3
DesignerAssemblies
 90
     1024
 91
        1
280
     0
281
     0
  0
CLASS
  1
ACAMPROJECT
  2
AcAmProject
  3
DesignerAssemblies
 90
     1024
 91
        1
280
     0
281
     0
  0
CLASS
  1
ACAMGRCOMPDEF
  2
AcAmGrCompDef
  3
DesignerAssemblies
 90
     1024
 91
        1
280
     0
281
     0
  0
CLASS
  1
ACCMCONTEXT
  2
AcCmContext
  3
DesignerAssemblies
 90
     1024
 91
        1
280
     0
281
     0
  0
CLASS
  1
ACAMCOMPDEF
  2
AcAmCompDef
  3
DesignerAssemblies
 90
     1024
 91
        1
280
     0
281
     0
  0
CLASS
  1
ACAMCOMPDEFMGR
  2
AcAmCompDefMgr
  3
DesignerAssemblies
 90
     1024
 91
        1
280
     0
281
     0
  0
CLASS
  1
AMCONTEXTMGR
  2
AcAmContextMgr
  3
DesignerAssemblies
 90
     1024
 91
        1
280
     0
281
     0
  0
CLASS
  1
ACAMCONTEXTMODELER
  2
AcAmContextModeler
  3
DesignerAssemblies
 90
     1024
 91
        1
280
     0
281
     0
  0
CLASS
  1
ACMTHREADLINESTANDARDDIN
  2
AmdtThreadLineStdDIN
  3
"Amdt_StdImp|Product Description: AutoCAD Mechanical|Company: Autodesk, Inc."
 90
     1024
 91
        1
280
     0
281
     0
  0
CLASS
  1
ACMNOTESTANDARDDIN
  2
AmdtNoteStdDIN
  3
"Amdt_StdImp|Product Description: AutoCAD Mechanical|Company: Autodesk, Inc."
 90
     1024
 91
        1
280
     0
281
     0
  0
CLASS
  1
AMDTNOTETEMPLATEDB
  2
AmdtNoteTemplateDB
  3
AcmSymBB|Product Description: AutoCAD Mechanical|Company: Autodesk, Inc.
 90
     1024
 91
        6
280
     0
281
     0
  0
CLASS
  1
CATALOGSTATE
  2
AcAmCatalogState
  3
DesignerAssemblies
 90
     1024
 91
        1
280
     0
281
     0
  0
CLASS
  1
ACAMGRCOMPDEFSET
  2
AcAmGrCompDefSet
  3
DesignerAssemblies
 90
     1024
 91
        1
280
     0
281
     0
  0
CLASS
  1
AMDTBROWSERDBTAB
  2
AmdtBrowserDbTab
  3
McadcomServices
 90
     1024
 91
        1
280
     0
281
     0
  0
CLASS
  1
CBROWSERAPPOBJECT
  2
CBrowserAppObject
  3
McadcomServices
 90
     1024
 91
        3
280
     0
281
     0
  0
CLASS
  1
DM_PLACEHOLDER
  2
AcDmSelsetPlaceholder
  3
AcMechDwgViewMgmt
 90
     1024
 91
        1
280
     0
281
     0
  0
CLASS
  1
MATERIAL
  2
AcDbMaterial
  3
ObjectDBX Classes
 90
     1153
 91
        3
280
     0
281
     0
  0
CLASS
  1
VISUALSTYLE
  2
AcDbVisualStyle
  3
ObjectDBX Classes
 90
     4095
 91
       16
280
     0
281
     0
  0
CLASS
  1
SCALE
  2
AcDbScale
  3
ObjectDBX Classes
 90
     1153
 91
       33
280
     0
281
     0
  0
CLASS
  1
MLEADERSTYLE
  2
AcDbMLeaderStyle
  3
ACDB_MLEADERSTYLE_CLASS
 90
     4095
 91
        1
280
     0
281
     0
  0
CLASS
  1
CELLSTYLEMAP
  2
AcDbCellStyleMap
  3
ObjectDBX Classes
 90
     1152
 91
        2
280
     0
281
     0
  0
CLASS
  1
ACRFATTGENMGR
  2
AcRfAttGeneralMgr
  3
AcAttribServices
 90
     1024
 91
        1
280
     0
281
     0
  0
CLASS
  1
ACRFOBJATTMGR
  2
AcRfObjAttGroupMgr
  3
AcAttribServices
 90
     1024
 91
        1
280
     0
281
     0
  0
CLASS
  1
ACRFMCADAPIATTHOLDER
  2
AcRfMCADAPIAttHolder
  3
AcAttribServices
 90
     1024
 91
        1
280
     0
281
     0
  0
CLASS
  1
AMDTSYSATTR
  2
AmdtSystemAttribute
  3
AcAttribServices
 90
     1024
 91
        1
280
     0
281
     0
  0
CLASS
  1
ACMTAPERSTANDARDDIN
  2
AcmTaperStdDIN
  3
"Amdt_StdImp|Product Description: AutoCAD Mechanical|Company: Autodesk, Inc."
 90
     1024
 91
        1
280
     0
281
     0
  0
CLASS
  1
ACMANOOTATIONVIEWSTANDARDDIN
  2
AmdtAnViewStdDIN
  3
"Amdt_StdImp|Product Description: AutoCAD Mechanical|Company: Autodesk, Inc."
 90
     1024
 91
        1
280
     0
281
     0
  0
CLASS
  1
EXACXREFPANELOBJECT
  2
ExAcXREFPanelObject
  3
EXAC_ESW
 90
     1025
 91
        1
280
     0
281
     0
  0
CLASS
  1
NPOCOLLECTION
  2
AcDbImpNonPersistentObjectsCollection
  3
ObjectDBX Classes
 90
     1153
 91
        1
280
     0
281
     0
  0
CLASS
  1
IMAGE
  2
AcDbRasterImage
  3
ISM
 90
     2175
 91
        0
280
     0
281
     1
  0
CLASS
  1
IMAGEDEF_REACTOR
  2
AcDbRasterImageDefReactor
  3
ISM
 90
        1
 91
        0
280
     0
281
     0
  0
CLASS
  1
AMDTDETAILSYM
  2
AmdtDetailSym
  3
"AcmSymBB|Product Description: AutoCAD Mechanical|Company: Autodesk, Inc."
 90
     4095
 91
        0
280
     0
281
     1
  0
CLASS
  1
AMDTDETAILSYMLABEL
  2
AmdtDetailSymLabel
  3
"AcmSymBB|Product Description: AutoCAD Mechanical|Company: Autodesk, Inc."
 90
     4095
 91
        0
280
     0
281
     1
  0
CLASS
  1
SORTENTSTABLE
  2
AcDbSortentsTable
  3
ObjectDBX Classes
 90
        0
 91
        1
280
     0
281
     0
  0
CLASS
  1
IMAGEDEF
  2
AcDbRasterImageDef
  3
ISM
 90
        0
 91
        1
280
     0
281
     0
  0
CLASS
  1
ACAMGFILTERDAT
  2
AcAmgFilterDat
  3
"AcadM|Product Description: AutoCAD Mechanical|Company: Autodesk, Inc."
 90
     1024
 91
        6
280
     0
281
     0
  0
CLASS
  1
RASTERVARIABLES
  2
AcDbRasterVariables
  3
ISM
 90
        0
 91
        1
280
     0
281
     0
  0
CLASS
  1
CAMSSTRUCTBTNSTATE
  2
StructBtnState
  3
DesignerAssemblies
 90
     1024
 91
        1
280
     0
281
     0
  0
CLASS
  1
STDPART2D
  2
AmgStdPart
  3
AmgStdPart|Product Description: AutoCAD Mechanical|Company: Autodesk, Inc.
 90
     4095
 91
        2
280
     0
281
     1
  0
CLASS
  1
ACMDATAENTRYPART
  2
AcmDataEntryPart
  3
AcmSymBB|Product Description: AutoCAD Mechanical|Company: Autodesk, Inc.
 90
     1024
 91
        1
280
     0
281
     0
  0
CLASS
  1
ACMPARTREF
  2
AcmPartRef
  3
"AcmSymBB|Product Description: AutoCAD Mechanical|Company: Autodesk, Inc."
 90
     4095
 91
        2
280
     0
281
     1
  0
CLASS
  1
ACDBSTDPARTRES_LINE
  2
AcDbStdPartRes_Line
  3
AmgStdPart|Product Description: AutoCAD Mechanical|Company: Autodesk, Inc.
 90
     1024
 91
        2
280
     0
281
     0
  0
CLASS
  1
AEC_REFEDIT_STATUS_TRACKER
  2
AecDbRefEditStatusTracker
  3
AecArchBase50|Product Desc: Autodesk Architectural Desktop 2007 |Company: Autodesk,Inc. |WEB Address: www.autodesk.com
 90
      129
 91
        1
280
     0
281
     0
  0
CLASS
  1
SOLID_BACKGROUND
  2
AcDbSolidBackground
  3
SCENEOE
 90
     4095
 91
        0
280
     0
281
     0
  0
ENDSEC
  0
SECTION
  2
TABLES
  0
TABLE
  2
VPORT
  5
8
330
0
100
AcDbSymbolTable
 70
     1
  0
VPORT
  5
110
330
8
100
AcDbSymbolTableRecord
100
AcDbViewportTableRecord
  2
*Active
 70
     0
 10
0.0
 20
0.0
 11
1.0
 21
1.0
 12
165.3127261790343
 22
121.9855753371403
 13
0.0
 23
0.0
 14
2.5
 24
2.5
 15
10.0
 25
10.0
 16
0.0
 26
0.0
 36
1535.851292257524
 17
525.2398199331099
 27
193.1204276230323
 37
0.0
 40
915.8791296877071
 41
2.865921787709497
 42
50.0
 43
0.0
 44
0.0
 50
0.0
 51
0.0
 71
     0
 72
   100
 73
     1
 74
     3
 75
     0
 76
     0
 77
     0
 78
     0
281
     0
 65
     1
110
0.0
120
0.0
130
0.0
111
1.0
121
0.0
131
0.0
112
0.0
122
1.0
132
0.0
 79
     0
146
0.0
  0
ENDTAB
  0
TABLE
  2
LTYPE
  5
5
330
0
100
AcDbSymbolTable
 70
    16
  0
LTYPE
  5
14
330
5
100
AcDbSymbolTableRecord
100
AcDbLinetypeTableRecord
  2
ByBlock
 70
     0
  3

 72
    65
 73
     0
 40
0.0
  0
LTYPE
  5
15
330
5
100
AcDbSymbolTableRecord
100
AcDbLinetypeTableRecord
  2
ByLayer
 70
     0
  3

 72
    65
 73
     0
 40
0.0
  0
LTYPE
  5
16
330
5
100
AcDbSymbolTableRecord
100
AcDbLinetypeTableRecord
  2
Continuous
 70
     0
  3
Solid line
 72
    65
 73
     0
 40
0.0
  0
LTYPE
  5
52
330
5
100
AcDbSymbolTableRecord
100
AcDbLinetypeTableRecord
  2
Amconstr
 70
     0
  3
_______________________
 72
    65
 73
     2
 40
9999.0
 49
9999.0
 74
     0
 49
0.0
 74
     0
  0
LTYPE
  5
57
330
5
100
AcDbSymbolTableRecord
100
AcDbLinetypeTableRecord
  2
Amzigzag
 70
     0
  3
/\/-/\/-/\/-/\/-/\/-/\/
 72
    65
 73
     2
 40
11.0001
 49
0.0001
 74
     4
 75
   135
340
56
 46
0.04
 50
0.0
 44
0.0
 45
0.0
 49
-11.0
 74
     0
  0
LTYPE
  5
58
330
5
100
AcDbSymbolTableRecord
100
AcDbLinetypeTableRecord
  2
AM_DIN_F_W050
 70
     0
  3
__ __ __ __ __ __ __ __ __ __ __ __ __ __ __
 72
    65
 73
     2
 40
6.25
 49
4.75
 74
     0
 49
-1.5
 74
     0
  0
LTYPE
  5
59
330
5
100
AcDbSymbolTableRecord
100
AcDbLinetypeTableRecord
  2
AM_DIN_G_W050
 70
     0
  3
____ . ____ . ____ . ____ . ____ . ____ . ____
 72
    65
 73
     4
 40
13.75
 49
9.75
 74
     0
 49
-1.5
 74
     0
 49
1.0
 74
     0
 49
-1.5
 74
     0
  0
LTYPE
  5
5A
330
5
100
AcDbSymbolTableRecord
100
AcDbLinetypeTableRecord
  2
AM_DIN_K_W050
 70
     0
  3
_____ . . _____ . . _____ . . ____ .. ____
 72
    65
 73
     6
 40
16.25
 49
9.75
 74
     0
 49
-1.5
 74
     0
 49
1.0
 74
     0
 49
-1.5
 74
     0
 49
1.0
 74
     0
 49
-1.5
 74
     0
  0
LTYPE
  5
5B
330
5
100
AcDbSymbolTableRecord
100
AcDbLinetypeTableRecord
  2
AM_DIN_G_W050x2
 70
     0
  3
__ . __ . __ . __ . __ . __
 72
    65
 73
     4
 40
6.875
 49
4.75
 74
     0
 49
-0.875
 74
     0
 49
0.375
 74
     0
 49
-0.875
 74
     0
  0
LTYPE
  5
5C
330
5
100
AcDbSymbolTableRecord
100
AcDbLinetypeTableRecord
  2
AM_DIN_F_W050x2
 70
     0
  3
 _ _ _ _ _ _ _ _ _ _ _ _
 72
    65
 73
     2
 40
3.125
 49
2.25
 74
     0
 49
-0.875
 74
     0
  0
LTYPE
  5
69
330
5
100
AcDbSymbolTableRecord
100
AcDbLinetypeTableRecord
  2
ACDINWELD
 70
     0
  3
_ _ _ _ _
 72
    65
 73
     2
 40
2.0
 49
2.0
 74
     0
 49
-1.0
 74
     0
  0
LTYPE
  5
6A
330
5
100
AcDbSymbolTableRecord
100
AcDbLinetypeTableRecord
  2
ACDINTGB
 70
     0
  3
__ . . __ . .
 72
    65
 73
     6
 40
9.0
 49
4.0
 74
     0
 49
-1.0
 74
     0
 49
1.0
 74
     0
 49
-1.0
 74
     0
 49
1.0
 74
     0
 49
-1.0
 74
     0
  0
LTYPE
  5
6B
330
5
100
AcDbSymbolTableRecord
100
AcDbLinetypeTableRecord
  2
ACDINTGL
 70
     0
  3
_ _ _ _ _
 72
    65
 73
     2
 40
3.0
 49
2.0
 74
     0
 49
-1.0
 74
     0
  0
LTYPE
  5
6D
330
5
100
AcDbSymbolTableRecord
100
AcDbLinetypeTableRecord
  2
CENTER
 70
     0
  3
__ . __
 72
    65
 73
     4
 40
7.0
 49
4.0
 74
     0
 49
-1.0
 74
     0
 49
1.0
 74
     0
 49
-1.0
 74
     0
  0
LTYPE
  5
18A
330
5
100
AcDbSymbolTableRecord
100
AcDbLinetypeTableRecord
  2
HIDDEN
 70
     0
  3
Verdeckt
 72
    65
 73
     2
 40
9.525
 49
6.349999999999999
 74
     0
 49
-3.174999999999999
 74
     0
  0
LTYPE
  5
18B
330
5
100
AcDbSymbolTableRecord
100
AcDbLinetypeTableRecord
  2
PHANTOM2
 70
     0
  3
Phantom (.5x) ___ _ _ ___ _ _ ___ _ _ ___ _ _
 72
    65
 73
     6
 40
31.75
 49
15.875
 74
     0
 49
-3.174999999999999
 74
     0
 49
3.174999999999999
 74
     0
 49
-3.174999999999999
 74
     0
 49
3.174999999999999
 74
     0
 49
-3.174999999999999
 74
     0
  0
LTYPE
  5
516
330
5
100
AcDbSymbolTableRecord
100
AcDbLinetypeTableRecord
  2
STRICHPUNKT
 70
     0
  3
__ . __ . __ . __ . __ . __ . __ . __ . __ . __
 72
    65
 73
     4
 40
1.0
 49
0.5
 74
     0
 49
-0.25
 74
     0
 49
0.0
 74
     0
 49
-0.25
 74
     0
  0
LTYPE
  5
51D
330
5
100
AcDbSymbolTableRecord
100
AcDbLinetypeTableRecord
  2
gen7a
 70
     0
  3
__ . __ . __
 72
    65
 73
     4
 40
6.875
 49
4.75
 74
     0
 49
-0.875
 74
     0
 49
0.375
 74
     0
 49
-0.875
 74
     0
  0
ENDTAB
  0
TABLE
  2
LAYER
  5
2
102
{ACAD_XDICTIONARY
360
55B
102
}
330
0
100
AcDbSymbolTable
 70
    16
  0
LAYER
  5
10
102
{ACAD_XDICTIONARY
360
165
102
}
330
2
100
AcDbSymbolTableRecord
100
AcDbLayerTableRecord
  2
0
 70
     0
 62
     7
  6
Continuous
370
    -3
390
F
  0
LAYER
  5
523
330
2
100
AcDbSymbolTableRecord
100
AcDbLayerTableRecord
  2
DEFPOINTS
 70
     0
 62
     7
  6
Continuous
290
     0
370
    -3
390
F
  0
LAYER
  5
528
102
{ACAD_XDICTIONARY
360
529
102
}
330
2
100
AcDbSymbolTableRecord
100
AcDbLayerTableRecord
  2
BEMASS
 70
     0
 62
     3
  6
Continuous
370
    -3
390
F
  0
LAYER
  5
52A
102
{ACAD_XDICTIONARY
360
52B
102
}
330
2
100
AcDbSymbolTableRecord
100
AcDbLayerTableRecord
  2
MITTE
 70
     0
 62
     1
  6
STRICHPUNKT
370
    -3
390
F
  0
LAYER
  5
52C
102
{ACAD_XDICTIONARY
360
52D
102
}
330
2
100
AcDbSymbolTableRecord
100
AcDbLayerTableRecord
  2
SCHRAFF
 70
     0
 62
     6
  6
Continuous
370
    -3
390
F
  0
LAYER
  5
532
102
{ACAD_XDICTIONARY
360
533
102
}
330
2
100
AcDbSymbolTableRecord
100
AcDbLayerTableRecord
  2
Kontur
 70
     0
 62
     7
  6
Continuous
370
    -3
390
F
  0
LAYER
  5
10AC
102
{ACAD_XDICTIONARY
360
10AD
102
}
330
2
100
AcDbSymbolTableRecord
100
AcDbLayerTableRecord
  2
7A
 70
     0
 62
     4
  6
gen7a
370
    -3
390
F
  0
LAYER
  5
10AE
102
{ACAD_XDICTIONARY
360
10AF
102
}
330
2
100
AcDbSymbolTableRecord
100
AcDbLayerTableRecord
  2
8
 70
     0
 62
     1
  6
Continuous
370
    -3
390
F
  0
LAYER
  5
1CCC
330
2
100
AcDbSymbolTableRecord
100
AcDbLayerTableRecord
  2
AM_5
 70
     0
 62
     3
  6
Continuous
370
    25
390
F
1001
AcAecLayerStandard
1000

1000

  0
LAYER
  5
1DA9
330
2
100
AcDbSymbolTableRecord
100
AcDbLayerTableRecord
  2
AM_0N
 70
     0
 62
     7
  6
Continuous
370
    50
390
F
1001
AcAecLayerStandard
1000

1000

  0
LAYER
  5
1DAF
330
2
100
AcDbSymbolTableRecord
100
AcDbLayerTableRecord
  2
AM_7N
 70
     0
 62
     4
  6
AM_DIN_G_W050
370
    25
390
F
1001
AcAecLayerStandard
1000

1000

  0
LAYER
  5
1DB0
330
2
100
AcDbSymbolTableRecord
100
AcDbLayerTableRecord
  2
AM_9
 70
     0
 62
  -253
  6
Continuous
370
     0
390
F
1001
AcAecLayerStandard
1000

1000

  0
LAYER
  5
1DB3
330
2
100
AcDbSymbolTableRecord
100
AcDbLayerTableRecord
  2
AM_PAREF
 70
     0
 62
     4
  6
Continuous
290
     0
370
    25
390
F
1001
AcAecLayerStandard
1000

1000

  0
LAYER
  5
1DB4
330
2
100
AcDbSymbolTableRecord
100
AcDbLayerTableRecord
  2
AM_12N
 70
     0
 62
     7
  6
Continuous
290
     0
370
    50
390
F
1001
AcAecLayerStandard
1000

1000

  0
LAYER
  5
1E1F
330
2
100
AcDbSymbolTableRecord
100
AcDbLayerTableRecord
  2
AM_INV
 70
     0
 62
  -253
  6
Continuous
370
     0
390
F
1001
AcAecLayerStandard
1000

1000

  0
LAYER
  5
2194
330
2
100
AcDbSymbolTableRecord
100
AcDbLayerTableRecord
  2
AM_7
 70
     0
 62
     4
  6
AM_DIN_G_W050
370
    25
390
F
1001
AcAecLayerStandard
1000

1000

  0
ENDTAB
  0
TABLE
  2
STYLE
  5
3
330
0
100
AcDbSymbolTable
 70
     4
  0
STYLE
  5
11
330
3
100
AcDbSymbolTableRecord
100
AcDbTextStyleTableRecord
  2
STANDARD
 70
     0
 40
0.0
 41
1.0
 50
0.0
 71
     0
 42
2.5
  3
ISOCP.SHX
  4

  0
STYLE
  5
56
330
3
100
AcDbSymbolTableRecord
100
AcDbTextStyleTableRecord
  2

 70
     1
 40
0.0
 41
1.0
 50
0.0
 71
     0
 42
2.5
  3
ltypeshp.shx
  4

  0
STYLE
  5
5D
330
3
100
AcDbSymbolTableRecord
100
AcDbTextStyleTableRecord
  2
ACDINTS
 70
     0
 40
1.0
 41
1.0
 50
0.0
 71
     0
 42
2.5
  3
isocp.shx
  4

  0
STYLE
  5
68
330
3
100
AcDbSymbolTableRecord
100
AcDbTextStyleTableRecord
  2
ACDINGDT
 70
     0
 40
0.0
 41
1.0
 50
0.0
 71
     0
 42
2.5
  3
amgdt.shx
  4

  0
ENDTAB
  0
TABLE
  2
VIEW
  5
6
330
0
100
AcDbSymbolTable
 70
     6
  0
VIEW
  5
1F71
330
6
100
AcDbSymbolTableRecord
100
AcDbViewTableRecord
  2
AM_VIEW1
 70
     0
 40
210.0
 10
192.4168646080758
 20
315.0
 41
384.833729216152
 11
0.0
 21
0.0
 31
1.0
 12
0.0
 22
0.0
 32
0.0
 42
50.0
 43
0.0
 44
0.0
 50
0.0
 71
     0
281
     0
 72
     0
  0
VIEW
  5
1F72
330
6
100
AcDbSymbolTableRecord
100
AcDbViewTableRecord
  2
AM_VIEW2
 70
     0
 40
210.0
 10
401.583135391924
 20
315.0
 41
384.833729216152
 11
0.0
 21
0.0
 31
1.0
 12
0.0
 22
0.0
 32
0.0
 42
50.0
 43
0.0
 44
0.0
 50
0.0
 71
     0
281
     0
 72
     0
  0
VIEW
  5
1F73
330
6
100
AcDbSymbolTableRecord
100
AcDbViewTableRecord
  2
AM_VIEW3
 70
     0
 40
210.0
 10
192.4168646080758
 20
105.0
 41
384.833729216152
 11
0.0
 21
0.0
 31
1.0
 12
0.0
 22
0.0
 32
0.0
 42
50.0
 43
0.0
 44
0.0
 50
0.0
 71
     0
281
     0
 72
     0
  0
VIEW
  5
1F74
330
6
100
AcDbSymbolTableRecord
100
AcDbViewTableRecord
  2
AM_VIEW4
 70
     0
 40
210.0
 10
401.583135391924
 20
105.0
 41
384.833729216152
 11
0.0
 21
0.0
 31
1.0
 12
0.0
 22
0.0
 32
0.0
 42
50.0
 43
0.0
 44
0.0
 50
0.0
 71
     0
281
     0
 72
     0
  0
VIEW
  5
1F75
330
6
100
AcDbSymbolTableRecord
100
AcDbViewTableRecord
  2
AM_VIEW5
 70
     0
 40
210.0
 10
296.9999999999999
 20
210.0
 41
384.8337292161519
 11
0.0
 21
0.0
 31
1.0
 12
0.0
 22
0.0
 32
0.0
 42
50.0
 43
0.0
 44
0.0
 50
0.0
 71
     0
281
     0
 72
     0
  0
VIEW
  5
1F76
330
6
100
AcDbSymbolTableRecord
100
AcDbViewTableRecord
  2
AM_VIEW6
 70
     0
 40
419.9958
 10
296.9999999999999
 20
210.0
 41
769.6597617577197
 11
0.0
 21
0.0
 31
1.0
 12
0.0
 22
0.0
 32
0.0
 42
50.0
 43
0.0
 44
0.0
 50
0.0
 71
     0
281
     0
 72
     0
  0
ENDTAB
  0
TABLE
  2
UCS
  5
7
330
0
100
AcDbSymbolTable
 70
     0
  0
ENDTAB
  0
TABLE
  2
APPID
  5
9
330
0
100
AcDbSymbolTable
 70
    59
  0
APPID
  5
12
330
9
100
AcDbSymbolTableRecord
100
AcDbRegAppTableRecord
  2
ACAD
 70
     0
  0
APPID
  5
30
330
9
100
AcDbSymbolTableRecord
100
AcDbRegAppTableRecord
  2
MCAD_NO_VIS
 70
     0
  0
APPID
  5
31
330
9
100
AcDbSymbolTableRecord
100
AcDbRegAppTableRecord
  2
ACAD_TEMP_GRAPHIC
 70
     0
  0
APPID
  5
44
330
9
100
AcDbSymbolTableRecord
100
AcDbRegAppTableRecord
  2
ACATTRIBSERVICES
 70
     0
  0
APPID
  5
CE
330
9
100
AcDbSymbolTableRecord
100
AcDbRegAppTableRecord
  2
AD_DRAW
 70
     0
  0
APPID
  5
EC
330
9
100
AcDbSymbolTableRecord
100
AcDbRegAppTableRecord
  2
DESIGNERASSEMBLIES
 70
     0
  0
APPID
  5
F6
330
9
100
AcDbSymbolTableRecord
100
AcDbRegAppTableRecord
  2
ACAD_DSTYLE_DIMARC_LENGTH_SYMBOL
 70
     0
  0
APPID
  5
F7
330
9
100
AcDbSymbolTableRecord
100
AcDbRegAppTableRecord
  2
ACAD_DSTYLE_DIMJOGGED_JOGANGLE_SYMBOL
 70
     0
  0
APPID
  5
107
330
9
100
AcDbSymbolTableRecord
100
AcDbRegAppTableRecord
  2
ACADM_DIM_EDIT
 70
     0
  0
APPID
  5
108
330
9
100
AcDbSymbolTableRecord
100
AcDbRegAppTableRecord
  2
AMDT_DM_ADJ
 70
     0
  0
APPID
  5
15F
330
9
100
AcDbSymbolTableRecord
100
AcDbRegAppTableRecord
  2
ACAD_MLEADERVER
 70
     0
  0
APPID
  5
54D
330
9
100
AcDbSymbolTableRecord
100
AcDbRegAppTableRecord
  2
GENIUS_GENBLLY_14
 70
     0
  0
APPID
  5
54E
330
9
100
AcDbSymbolTableRecord
100
AcDbRegAppTableRecord
  2
GENIUS_VERSION2
 70
     0
  0
APPID
  5
54F
330
9
100
AcDbSymbolTableRecord
100
AcDbRegAppTableRecord
  2
GENIUS_GENREC_14
 70
     0
  0
APPID
  5
550
330
9
100
AcDbSymbolTableRecord
100
AcDbRegAppTableRecord
  2
GENIUS_GENODEF_13
 70
     0
  0
APPID
  5
551
330
9
100
AcDbSymbolTableRecord
100
AcDbRegAppTableRecord
  2
GENIUS_GENOBJ-N-REC_13
 70
     0
  0
APPID
  5
552
330
9
100
AcDbSymbolTableRecord
100
AcDbRegAppTableRecord
  2
GENIUS_GENOBJ-N-SDF_13
 70
     0
  0
APPID
  5
553
330
9
100
AcDbSymbolTableRecord
100
AcDbRegAppTableRecord
  2
AcAecLayerStandard
 70
     0
  0
APPID
  5
554
330
9
100
AcDbSymbolTableRecord
100
AcDbRegAppTableRecord
  2
ACAD_DSTYLE_DIMINSPECT
 70
     0
  0
APPID
  5
555
330
9
100
AcDbSymbolTableRecord
100
AcDbRegAppTableRecord
  2
ACAD_DSTYLE_DIMRADIAL_EXTENSION
 70
     0
  0
APPID
  5
556
330
9
100
AcDbSymbolTableRecord
100
AcDbRegAppTableRecord
  2
GENIUS_GENOBJ-N-FIL_13
 70
     0
  0
APPID
  5
557
330
9
100
AcDbSymbolTableRecord
100
AcDbRegAppTableRecord
  2
GENIUS_GENSCREG_15
 70
     0
  0
APPID
  5
558
330
9
100
AcDbSymbolTableRecord
100
AcDbRegAppTableRecord
  2
GENIUS_GENOBJ-N-ZOO_13
 70
     0
  0
APPID
  5
559
330
9
100
AcDbSymbolTableRecord
100
AcDbRegAppTableRecord
  2
GENIUS_GENZOO_17
 70
     0
  0
APPID
  5
55A
330
9
100
AcDbSymbolTableRecord
100
AcDbRegAppTableRecord
  2
ACAD_PSEXT
 70
     0
  0
APPID
  5
10B2
330
9
100
AcDbSymbolTableRecord
100
AcDbRegAppTableRecord
  2
GENIUS_GENOENT_13
 70
     0
  0
APPID
  5
10B3
330
9
100
AcDbSymbolTableRecord
100
AcDbRegAppTableRecord
  2
GENIUS_GENDTOL_13
 70
     0
  0
APPID
  5
10B4
330
9
100
AcDbSymbolTableRecord
100
AcDbRegAppTableRecord
  2
GENIUS_GENTRA_14
 70
     0
  0
APPID
  5
10B5
330
9
100
AcDbSymbolTableRecord
100
AcDbRegAppTableRecord
  2
GENIUS_GENOBJ-N-TIT_13
 70
     0
  0
APPID
  5
10B6
330
9
100
AcDbSymbolTableRecord
100
AcDbRegAppTableRecord
  2
GENIUS_GENTITLE_13
 70
     0
  0
APPID
  5
10B7
330
9
100
AcDbSymbolTableRecord
100
AcDbRegAppTableRecord
  2
GENIUS_GENOREF_13
 70
     0
  0
APPID
  5
10B8
330
9
100
AcDbSymbolTableRecord
100
AcDbRegAppTableRecord
  2
GENIUS_GENOLIS_13
 70
     0
  0
APPID
  5
10B9
330
9
100
AcDbSymbolTableRecord
100
AcDbRegAppTableRecord
  2
GENIUS_GENOBJ-N-HTC_13
 70
     0
  0
APPID
  5
10BA
330
9
100
AcDbSymbolTableRecord
100
AcDbRegAppTableRecord
  2
GENIUS_GENHATCH_13
 70
     0
  0
APPID
  5
10BB
330
9
100
AcDbSymbolTableRecord
100
AcDbRegAppTableRecord
  2
GENIUS_GENHINW_13
 70
     0
  0
APPID
  5
10BC
330
9
100
AcDbSymbolTableRecord
100
AcDbRegAppTableRecord
  2
GENIUS_FIRSTVISTXT_14
 70
     0
  0
APPID
  5
10BD
330
9
100
AcDbSymbolTableRecord
100
AcDbRegAppTableRecord
  2
GENIUS_GENOBJ-N-LEADER_13
 70
     0
  0
APPID
  5
1DA5
330
9
100
AcDbSymbolTableRecord
100
AcDbRegAppTableRecord
  2
GEVID1266308564
 70
     0
  0
APPID
  5
1DA6
330
9
100
AcDbSymbolTableRecord
100
AcDbRegAppTableRecord
  2
GEVMK
 70
     0
  0
APPID
  5
1DA7
330
9
100
AcDbSymbolTableRecord
100
AcDbRegAppTableRecord
  2
GEVDC
 70
     0
  0
APPID
  5
1DAA
330
9
100
AcDbSymbolTableRecord
100
AcDbRegAppTableRecord
  2
GENIUS_GENBH_13
 70
     0
  0
APPID
  5
1DAC
330
9
100
AcDbSymbolTableRecord
100
AcDbRegAppTableRecord
  2
GENIUS_GENOBJ-NBEHI-BHF_13
 70
     0
  0
APPID
  5
1DAE
330
9
100
AcDbSymbolTableRecord
100
AcDbRegAppTableRecord
  2
GENIUS_GENOBJ-NBEHI-BHB_13
 70
     0
  0
APPID
  5
1E1D
330
9
100
AcDbSymbolTableRecord
100
AcDbRegAppTableRecord
  2
GEVID1266308565
 70
     0
  0
APPID
  5
1EAD
330
9
100
AcDbSymbolTableRecord
100
AcDbRegAppTableRecord
  2
ACAD_EXEMPT_FROM_CAD_STANDARDS
 70
     0
  0
APPID
  5
1F1D
330
9
100
AcDbSymbolTableRecord
100
AcDbRegAppTableRecord
  2
GENIUS_GENCFG_13
 70
     0
  0
APPID
  5
1F1E
330
9
100
AcDbSymbolTableRecord
100
AcDbRegAppTableRecord
  2
GENIUS_GENCFG0_13
 70
     0
  0
APPID
  5
1F1F
330
9
100
AcDbSymbolTableRecord
100
AcDbRegAppTableRecord
  2
GENIUS_GENCFG1_13
 70
     0
  0
APPID
  5
1F20
330
9
100
AcDbSymbolTableRecord
100
AcDbRegAppTableRecord
  2
GENIUS_GENCFG2_13
 70
     0
  0
APPID
  5
1F21
330
9
100
AcDbSymbolTableRecord
100
AcDbRegAppTableRecord
  2
GENIUS_GENCFG3_13
 70
     0
  0
APPID
  5
1F22
330
9
100
AcDbSymbolTableRecord
100
AcDbRegAppTableRecord
  2
GENIUS_GENCFG4_13
 70
     0
  0
APPID
  5
1F23
330
9
100
AcDbSymbolTableRecord
100
AcDbRegAppTableRecord
  2
GENIUS_GENCFG5_13
 70
     0
  0
APPID
  5
1F24
330
9
100
AcDbSymbolTableRecord
100
AcDbRegAppTableRecord
  2
GENIUS_GEVCFG0_13
 70
     0
  0
APPID
  5
2197
330
9
100
AcDbSymbolTableRecord
100
AcDbRegAppTableRecord
  2
GENIUS_GENOBJ-N-CEN_13
 70
     0
  0
APPID
  5
2198
330
9
100
AcDbSymbolTableRecord
100
AcDbRegAppTableRecord
  2
GENIUS_GENCEN_19
 70
     0
  0
APPID
  5
21B2
330
9
100
AcDbSymbolTableRecord
100
AcDbRegAppTableRecord
  2
GENIUS_GENOBJ-N-CRS_13
 70
     0
  0
APPID
  5
2765
330
9
100
AcDbSymbolTableRecord
100
AcDbRegAppTableRecord
  2
ACAD_DSTYLE_DIM_LINETYPE
 70
     0
  0
APPID
  5
2766
330
9
100
AcDbSymbolTableRecord
100
AcDbRegAppTableRecord
  2
ACAD_DSTYLE_DIM_EXT1_LINETYPE
 70
     0
  0
APPID
  5
2767
330
9
100
AcDbSymbolTableRecord
100
AcDbRegAppTableRecord
  2
ACAD_DSTYLE_DIM_EXT2_LINETYPE
 70
     0
  0
ENDTAB
  0
TABLE
  2
DIMSTYLE
  5
A
330
0
100
AcDbSymbolTable
 70
     8
100
AcDbDimStyleTable
 71
     1
340
70
  0
DIMSTYLE
105
70
330
A
100
AcDbSymbolTableRecord
100
AcDbDimStyleTableRecord
  2
AM_DIN
 70
     0
  4
"
 41
2.5
 42
1.0
 43
10.0
 44
1.0
 47
0.1
 48
0.1
 73
     0
 74
     0
 77
     1
 78
     8
 79
     2
140
3.5
141
0.0
143
0.0393701
146
0.71
147
1.5
172
     1
176
   256
177
   256
178
     2
271
     2
272
     3
274
     4
283
     0
284
     8
340
11
371
    -1
372
    -1
1001
ACAD_DSTYLE_DIMJOGGED_JOGANGLE_SYMBOL
1070
   384
1040
1.570796326794896
  0
DIMSTYLE
105
71
330
A
100
AcDbSymbolTableRecord
100
AcDbDimStyleTableRecord
  2
AM_DIN$3
 70
     0
  4
"
 41
2.5
 42
1.0
 43
10.0
 44
1.0
 47
0.1
 48
0.1
 73
     0
 77
     1
 78
     8
 79
     2
140
3.5
141
0.0
143
0.0393701
146
0.71
147
1.5
176
   256
177
   256
178
     2
271
     2
272
     3
274
     4
283
     0
284
     8
288
     1
289
     0
340
11
371
    -1
372
    -1
1001
ACAD_DSTYLE_DIMJOGGED_JOGANGLE_SYMBOL
1070
   384
1040
1.570796326794896
  0
DIMSTYLE
105
72
330
A
100
AcDbSymbolTableRecord
100
AcDbDimStyleTableRecord
  2
AM_DIN$4
 70
     0
  4
"
 41
2.5
 42
1.0
 43
10.0
 44
1.0
 47
0.1
 48
0.1
 73
     0
 77
     1
 78
     8
 79
     2
140
3.5
141
0.0
143
0.0393701
146
0.71
147
1.5
176
   256
177
   256
178
     2
271
     2
272
     3
274
     4
283
     0
284
     8
288
     1
289
     0
340
11
371
    -1
372
    -1
1001
ACAD_DSTYLE_DIMJOGGED_JOGANGLE_SYMBOL
1070
   384
1040
1.570796326794896
  0
DIMSTYLE
105
73
330
A
100
AcDbSymbolTableRecord
100
AcDbDimStyleTableRecord
  2
AM_DIN$6
 70
     0
  4
"
 41
2.5
 42
1.0
 43
10.0
 44
1.0
 47
0.1
 48
0.1
 73
     0
 74
     0
 78
     8
 79
     2
140
3.5
141
0.0
143
0.0393701
146
0.71
147
1.5
172
     1
176
   256
177
   256
178
     2
271
     2
272
     3
274
     4
283
     0
284
     8
340
11
371
    -1
372
    -1
1001
ACAD_DSTYLE_DIMJOGGED_JOGANGLE_SYMBOL
1070
   384
1040
1.570796326794896
  0
DIMSTYLE
105
74
330
A
100
AcDbSymbolTableRecord
100
AcDbDimStyleTableRecord
  2
AM_DIN$7
 70
     0
  4
"
 41
2.5
 42
1.0
 43
10.0
 44
1.0
 47
0.1
 48
0.1
 73
     0
 74
     0
 77
     1
 78
     8
 79
     2
140
5.0
141
0.0
143
0.0393701
146
0.71
147
1.5
172
     1
176
   256
177
   256
178
     2
271
     2
272
     3
274
     4
283
     0
284
     8
340
11
371
    -1
372
    -1
1001
ACAD_DSTYLE_DIMJOGGED_JOGANGLE_SYMBOL
1070
   384
1040
1.570796326794896
  0
DIMSTYLE
105
75
330
A
100
AcDbSymbolTableRecord
100
AcDbDimStyleTableRecord
  2
AM_DIN$SF
 70
     0
  4
"
 41
2.5
 42
1.0
 43
10.0
 44
1.0
 47
0.1
 48
0.1
 73
     0
 74
     0
 75
     1
 76
     1
 77
     1
 78
     8
 79
     2
140
3.5
141
0.0
143
0.0393701
146
0.71
147
1.5
172
     1
176
   256
177
   256
178
     2
271
     2
272
     3
274
     4
283
     0
284
     8
340
11
371
    -1
372
    -1
1001
ACAD_DSTYLE_DIMJOGGED_JOGANGLE_SYMBOL
1070
   384
1040
1.570796326794896
  0
DIMSTYLE
105
7A
330
A
100
AcDbSymbolTableRecord
100
AcDbDimStyleTableRecord
  2
AM_DIN$SH
 70
     0
  4
"
 41
2.5
 42
1.0
 43
10.0
 44
1.0
 47
0.1
 48
0.1
 73
     0
 74
     0
 75
     1
 76
     1
 77
     1
 78
     8
 79
     2
140
3.5
141
0.0
143
0.0393701
144
2.0
146
0.71
147
1.5
172
     1
173
     1
176
   256
177
   256
178
     2
271
     2
272
     3
274
     4
283
     0
284
     8
340
11
343
76
371
    -1
372
    -1
1001
ACAD_DSTYLE_DIMJOGGED_JOGANGLE_SYMBOL
1070
   384
1040
1.570796326794896
  0
DIMSTYLE
105
54C
102
{ACAD_REACTORS
330
4D
330
2494
330
204B
330
22AB
330
20AD
330
20F4
102
}
330
A
100
AcDbSymbolTableRecord
100
AcDbDimStyleTableRecord
  2
AM_DIN$0
 70
     0
  4
"
 41
3.5
 42
1.0
 43
10.0
 44
1.0
 47
0.1
 48
0.1
 73
     0
 74
     0
 77
     1
 78
     8
 79
     2
140
3.5
141
0.0
143
0.0393701
146
0.71
147
1.5
172
     1
176
   256
177
   256
178
     2
271
     2
272
     3
274
     4
283
     0
284
     8
340
11
371
    -1
372
    -1
1001
ACAD_DSTYLE_DIMJOGGED_JOGANGLE_SYMBOL
1070
   384
1040
1.570796326794896
1001
ACAD_DSTYLE_DIM_LINETYPE
1070
   380
1005
14
1001
ACAD_DSTYLE_DIM_EXT1_LINETYPE
1070
   381
1005
14
1001
ACAD_DSTYLE_DIM_EXT2_LINETYPE
1070
   382
1005
14
  0
ENDTAB
  0
TABLE
  2
BLOCK_RECORD
  5
1
330
0
100
AcDbSymbolTable
 70
    12
  0
BLOCK_RECORD
  5
1F
102
{ACAD_XDICTIONARY
360
81
102
}
330
1
100
AcDbSymbolTableRecord
100
AcDbBlockTableRecord
  2
*Model_Space
340
22
  0
BLOCK_RECORD
  5
1B
330
1
100
AcDbSymbolTableRecord
100
AcDbBlockTableRecord
  2
*Paper_Space
340
1E
  0
BLOCK_RECORD
  5
23
330
1
100
AcDbSymbolTableRecord
100
AcDbBlockTableRecord
  2
*Paper_Space0
340
26
  0
BLOCK_RECORD
  5
76
330
1
100
AcDbSymbolTableRecord
100
AcDbBlockTableRecord
  2
GENAXEH
340
0
  0
BLOCK_RECORD
  5
204C
330
1
100
AcDbSymbolTableRecord
100
AcDbBlockTableRecord
  2
*D3
340
0
  0
BLOCK_RECORD
  5
20AE
330
1
100
AcDbSymbolTableRecord
100
AcDbBlockTableRecord
  2
*D4
340
0
  0
BLOCK_RECORD
  5
20F5
330
1
100
AcDbSymbolTableRecord
100
AcDbBlockTableRecord
  2
*D5
340
0
  0
BLOCK_RECORD
  5
22AC
330
1
100
AcDbSymbolTableRecord
100
AcDbBlockTableRecord
  2
*D6
340
0
  0
BLOCK_RECORD
  5
2495
330
1
100
AcDbSymbolTableRecord
100
AcDbBlockTableRecord
  2
*D7
340
0
  0
BLOCK_RECORD
  5
2735
330
1
100
AcDbSymbolTableRecord
100
AcDbBlockTableRecord
  2
*U8
340
0
  0
BLOCK_RECORD
  5
2743
330
1
100
AcDbSymbolTableRecord
100
AcDbBlockTableRecord
  2
*U9
340
0
  0
BLOCK_RECORD
  5
2750
330
1
100
AcDbSymbolTableRecord
100
AcDbBlockTableRecord
  2
*S10
340
0
  0
BLOCK_RECORD
  5
2757
330
1
100
AcDbSymbolTableRecord
100
AcDbBlockTableRecord
  2
*S11
340
0
  0
ENDTAB
  0
ENDSEC
  0
SECTION
  2
BLOCKS
  0
BLOCK
  5
20
330
1F
100
AcDbEntity
  8
0
100
AcDbBlockBegin
  2
*Model_Space
 70
     0
 10
0.0
 20
0.0
 30
0.0
  3
*Model_Space
  1

  0
ENDBLK
  5
21
330
1F
100
AcDbEntity
  8
0
100
AcDbBlockEnd
  0
BLOCK
  5
1C
330
1B
100
AcDbEntity
 67
     1
  8
0
100
AcDbBlockBegin
  2
*Paper_Space
 70
     0
 10
0.0
 20
0.0
 30
0.0
  3
*Paper_Space
  1

  0
ENDBLK
  5
1D
330
1B
100
AcDbEntity
 67
     1
  8
0
100
AcDbBlockEnd
  0
BLOCK
  5
24
330
23
100
AcDbEntity
 67
     1
  8
0
100
AcDbBlockBegin
  2
*Paper_Space0
 70
     0
 10
0.0
 20
0.0
 30
0.0
  3
*Paper_Space0
  1

  0
ENDBLK
  5
25
330
23
100
AcDbEntity
 67
     1
  8
0
100
AcDbBlockEnd
  0
BLOCK
  5
78
330
76
100
AcDbEntity
  8
0
100
AcDbBlockBegin
  2
GENAXEH
 70
     0
 10
0.0
 20
0.0
 30
0.0
  3
GENAXEH
  1

  0
LINE
  5
77
330
76
100
AcDbEntity
  8
0
100
AcDbLine
 10
-1.0
 20
0.0
 30
0.0
 11
1.0
 21
0.0
 31
0.0
  0
ENDBLK
  5
79
330
76
100
AcDbEntity
  8
0
100
AcDbBlockEnd
  0
BLOCK
  5
204D
330
204C
100
AcDbEntity
  8
0
100
AcDbBlockBegin
  2
*D3
 70
     1
 10
0.0
 20
0.0
 30
0.0
  3
*D3
  1

  0
LINE
  5
26CE
330
204C
100
AcDbEntity
  8
AM_5
  6
ByBlock
100
AcDbLine
 10
57.72298791455796
 20
371.6004562659289
 30
0.0
 11
57.72298791455796
 21
391.364675913601
 31
0.0
  0
LINE
  5
26CF
330
204C
100
AcDbEntity
  8
AM_5
  6
ByBlock
100
AcDbLine
 10
254.722987914558
 20
371.6004562659289
 30
0.0
 11
254.722987914558
 21
391.364675913601
 31
0.0
  0
LINE
  5
26D0
330
204C
100
AcDbEntity
  8
AM_5
  6
ByBlock
100
AcDbLine
 10
61.22298791455796
 20
390.3646759136011
 30
0.0
 11
251.2229879145579
 21
390.3646759136011
 31
0.0
  0
SOLID
  5
26D1
330
204C
100
AcDbEntity
  8
AM_5
100
AcDbTrace
 10
61.22298791455796
 20
390.9480092469344
 30
0.0
 11
61.22298791455796
 21
389.7813425802677
 31
0.0
 12
57.72298791455796
 22
390.3646759136011
 32
0.0
 13
57.72298791455796
 23
390.3646759136011
 33
0.0
  0
SOLID
  5
26D2
330
204C
100
AcDbEntity
  8
AM_5
100
AcDbTrace
 10
251.2229879145579
 20
390.9480092469344
 30
0.0
 11
251.2229879145579
 21
389.7813425802677
 31
0.0
 12
254.722987914558
 22
390.3646759136011
 32
0.0
 13
254.722987914558
 23
390.3646759136011
 33
0.0
  0
MTEXT
  5
26D3
330
204C
100
AcDbEntity
  8
AM_5
 62
     2
100
AcDbMText
 10
156.2229879145579
 20
399.364675913601
 30
0.0
 40
15.0
 41
0.0
 71
     5
 72
     1
  1
{\Famgdt;o}197
 73
     1
 44
1.0
  0
POINT
  5
26D4
330
204C
100
AcDbEntity
  8
DEFPOINTS
 62
     0
100
AcDbPoint
 10
57.72298791455796
 20
370.6004562659289
 30
0.0
  0
POINT
  5
26D5
330
204C
100
AcDbEntity
  8
DEFPOINTS
 62
     0
100
AcDbPoint
 10
254.722987914558
 20
370.6004562659289
 30
0.0
  0
POINT
  5
26D6
330
204C
100
AcDbEntity
  8
DEFPOINTS
 62
     0
100
AcDbPoint
 10
254.722987914558
 20
390.3646759136011
 30
0.0
  0
ENDBLK
  5
204E
330
204C
100
AcDbEntity
  8
0
100
AcDbBlockEnd
  0
BLOCK
  5
20AF
330
20AE
100
AcDbEntity
  8
0
100
AcDbBlockBegin
  2
*D4
 70
     1
 10
0.0
 20
0.0
 30
0.0
  3
*D4
  1

  0
LINE
  5
26E2
330
20AE
100
AcDbEntity
  8
AM_5
  6
ByBlock
100
AcDbLine
 10
255.722987914558
 20
370.6004562659289
 30
0.0
 11
317.2781525990379
 21
370.6004562659289
 31
0.0
  0
LINE
  5
26E3
330
20AE
100
AcDbEntity
  8
AM_5
  6
ByBlock
100
AcDbLine
 10
287.222987914558
 20
320.6004562659289
 30
0.0
 11
317.2781525990379
 21
320.6004562659289
 31
0.0
  0
LINE
  5
26E4
330
20AE
100
AcDbEntity
  8
AM_5
  6
ByBlock
100
AcDbLine
 10
316.2781525990379
 20
367.1004562659289
 30
0.0
 11
316.2781525990379
 21
324.1004562659289
 31
0.0
  0
SOLID
  5
26E5
330
20AE
100
AcDbEntity
  8
AM_5
100
AcDbTrace
 10
315.6948192657046
 20
367.1004562659289
 30
0.0
 11
316.8614859323712
 21
367.1004562659289
 31
0.0
 12
316.2781525990379
 22
370.6004562659289
 32
0.0
 13
316.2781525990379
 23
370.6004562659289
 33
0.0
  0
SOLID
  5
26E6
330
20AE
100
AcDbEntity
  8
AM_5
100
AcDbTrace
 10
315.6948192657046
 20
324.1004562659289
 30
0.0
 11
316.8614859323712
 21
324.1004562659289
 31
0.0
 12
316.2781525990379
 22
320.6004562659289
 32
0.0
 13
316.2781525990379
 23
320.6004562659289
 33
0.0
  0
MTEXT
  5
26E7
330
20AE
100
AcDbEntity
  8
AM_5
 62
     2
100
AcDbMText
 10
307.2781525990379
 20
345.600456265929
 30
0.0
 40
15.0
 41
0.0
 71
     5
 72
     1
  1
50
 11
0.0000000000000001
 21
1.0
 31
0.0
 73
     1
 44
1.0
  0
POINT
  5
26E8
330
20AE
100
AcDbEntity
  8
DEFPOINTS
 62
     0
100
AcDbPoint
 10
254.722987914558
 20
370.6004562659289
 30
0.0
  0
POINT
  5
26E9
330
20AE
100
AcDbEntity
  8
DEFPOINTS
 62
     0
100
AcDbPoint
 10
286.222987914558
 20
320.6004562659289
 30
0.0
  0
POINT
  5
26EA
330
20AE
100
AcDbEntity
  8
DEFPOINTS
 62
     0
100
AcDbPoint
 10
316.2781525990379
 20
320.6004562659289
 30
0.0
  0
ENDBLK
  5
20B0
330
20AE
100
AcDbEntity
  8
0
100
AcDbBlockEnd
  0
BLOCK
  5
20F6
330
20F5
100
AcDbEntity
  8
0
100
AcDbBlockBegin
  2
*D5
 70
     1
 10
0.0
 20
0.0
 30
0.0
  3
*D5
  1

  0
LINE
  5
26EB
330
20F5
100
AcDbEntity
  8
AM_5
  6
ByBlock
100
AcDbLine
 10
255.722987914558
 20
370.6004562659289
 30
0.0
 11
335.8666322413872
 21
370.6004562659289
 31
0.0
  0
LINE
  5
26EC
330
20F5
100
AcDbEntity
  8
AM_5
  6
ByBlock
100
AcDbLine
 10
236.6120606420704
 20
195.6004562659289
 30
0.0
 11
335.8666322413872
 21
195.6004562659289
 31
0.0
  0
LINE
  5
26ED
330
20F5
100
AcDbEntity
  8
AM_5
  6
ByBlock
100
AcDbLine
 10
334.8666322413872
 20
367.1004562659289
 30
0.0
 11
334.8666322413872
 21
199.1004562659289
 31
0.0
  0
SOLID
  5
26EE
330
20F5
100
AcDbEntity
  8
AM_5
100
AcDbTrace
 10
334.2832989080539
 20
367.1004562659289
 30
0.0
 11
335.4499655747205
 21
367.1004562659289
 31
0.0
 12
334.8666322413872
 22
370.6004562659289
 32
0.0
 13
334.8666322413872
 23
370.6004562659289
 33
0.0
  0
SOLID
  5
26EF
330
20F5
100
AcDbEntity
  8
AM_5
100
AcDbTrace
 10
334.2832989080539
 20
199.1004562659289
 30
0.0
 11
335.4499655747205
 21
199.1004562659289
 31
0.0
 12
334.8666322413872
 22
195.6004562659289
 32
0.0
 13
334.8666322413872
 23
195.6004562659289
 33
0.0
  0
MTEXT
  5
26F0
330
20F5
100
AcDbEntity
  8
AM_5
 62
     2
100
AcDbMText
 10
325.8666322413871
 20
283.100456265929
 30
0.0
 40
15.0
 41
0.0
 71
     5
 72
     1
  1
175
 11
0.0000000000000001
 21
1.0
 31
0.0
 73
     1
 44
1.0
  0
POINT
  5
26F1
330
20F5
100
AcDbEntity
  8
DEFPOINTS
 62
     0
100
AcDbPoint
 10
254.722987914558
 20
370.6004562659289
 30
0.0
  0
POINT
  5
26F2
330
20F5
100
AcDbEntity
  8
DEFPOINTS
 62
     0
100
AcDbPoint
 10
235.6120606420704
 20
195.6004562659289
 30
0.0
  0
POINT
  5
26F3
330
20F5
100
AcDbEntity
  8
DEFPOINTS
 62
     0
100
AcDbPoint
 10
334.8666322413872
 20
195.6004562659289
 30
0.0
  0
ENDBLK
  5
20F7
330
20F5
100
AcDbEntity
  8
0
100
AcDbBlockEnd
  0
BLOCK
  5
22AD
330
22AC
100
AcDbEntity
  8
0
100
AcDbBlockBegin
  2
*D6
 70
     1
 10
0.0
 20
0.0
 30
0.0
  3
*D6
  1

  0
LINE
  5
270A
330
22AC
100
AcDbEntity
  8
AM_5
  6
ByBlock
100
AcDbLine
 10
36.72298791455796
 20
319.6004562659289
 30
0.0
 11
36.72298791455796
 21
284.4900495888438
 31
0.0
  0
LINE
  5
270B
330
22AC
100
AcDbEntity
  8
AM_5
  6
ByBlock
100
AcDbLine
 10
45.72298791455795
 20
319.6004562659289
 30
0.0
 11
45.72298791455795
 21
284.4900495888438
 31
0.0
  0
LINE
  5
270C
330
22AC
100
AcDbEntity
  8
AM_5
  6
ByBlock
100
AcDbLine
 10
33.22298791455796
 20
285.4900495888438
 30
0.0
 11
29.72298791455796
 21
285.4900495888438
 31
0.0
  0
LINE
  5
270D
330
22AC
100
AcDbEntity
  8
AM_5
  6
ByBlock
100
AcDbLine
 10
49.22298791455796
 20
285.4900495888438
 30
0.0
 11
52.72298791455796
 21
285.4900495888438
 31
0.0
  0
MTEXT
  5
270E
330
22AC
100
AcDbEntity
  8
AM_5
 62
     2
100
AcDbMText
 10
21.27659614921402
 20
295.6152935003357
 30
0.0
 40
15.0
 41
0.0
 71
     5
 72
     1
  1
%%c9
 73
     1
 44
1.0
  0
LINE
  5
270F
330
22AC
100
AcDbEntity
  8
AM_5
  6
ByBlock
100
AcDbLine
 10
36.72298791455796
 20
285.4900495888438
 30
0.0
 11
45.72298791455795
 21
285.4900495888438
 31
0.0
  0
SOLID
  5
2710
330
22AC
100
AcDbEntity
  8
AM_5
100
AcDbTrace
 10
33.22298791455796
 20
286.0733829221771
 30
0.0
 11
33.22298791455796
 21
284.9067162555105
 31
0.0
 12
36.72298791455796
 22
285.4900495888438
 32
0.0
 13
36.72298791455796
 23
285.4900495888438
 33
0.0
  0
SOLID
  5
2711
330
22AC
100
AcDbEntity
  8
AM_5
100
AcDbTrace
 10
49.22298791455796
 20
286.0733829221771
 30
0.0
 11
49.22298791455796
 21
284.9067162555105
 31
0.0
 12
45.72298791455795
 22
285.4900495888438
 32
0.0
 13
45.72298791455795
 23
285.4900495888438
 33
0.0
  0
POINT
  5
2712
330
22AC
100
AcDbEntity
  8
DEFPOINTS
 62
     0
100
AcDbPoint
 10
36.72298791455796
 20
320.6004562659289
 30
0.0
  0
POINT
  5
2713
330
22AC
100
AcDbEntity
  8
DEFPOINTS
 62
     0
100
AcDbPoint
 10
45.72298791455795
 20
320.6004562659289
 30
0.0
  0
POINT
  5
2714
330
22AC
100
AcDbEntity
  8
DEFPOINTS
 62
     0
100
AcDbPoint
 10
45.72298791455795
 20
285.4900495888438
 30
0.0
  0
ENDBLK
  5
22AE
330
22AC
100
AcDbEntity
  8
0
100
AcDbBlockEnd
  0
BLOCK
  5
2496
330
2495
100
AcDbEntity
  8
0
100
AcDbBlockBegin
  2
*D7
 70
     1
 10
0.0
 20
0.0
 30
0.0
  3
*D7
  1

  0
LINE
  5
26C5
330
2495
100
AcDbEntity
  8
AM_5
  6
ByBlock
100
AcDbLine
 10
26.22298791455796
 20
321.6004562659289
 30
0.0
 11
26.22298791455797
 21
422.340008440431
 31
0.0
  0
LINE
  5
26C6
330
2495
100
AcDbEntity
  8
AM_5
  6
ByBlock
100
AcDbLine
 10
286.222987914558
 20
321.6004562659289
 30
0.0
 11
286.222987914558
 21
422.340008440431
 31
0.0
  0
LINE
  5
26C7
330
2495
100
AcDbEntity
  8
AM_5
  6
ByBlock
100
AcDbLine
 10
29.72298791455797
 20
421.340008440431
 30
0.0
 11
282.722987914558
 21
421.340008440431
 31
0.0
  0
SOLID
  5
26C8
330
2495
100
AcDbEntity
  8
AM_5
100
AcDbTrace
 10
29.72298791455797
 20
421.9233417737643
 30
0.0
 11
29.72298791455797
 21
420.7566751070976
 31
0.0
 12
26.22298791455797
 22
421.340008440431
 32
0.0
 13
26.22298791455797
 23
421.340008440431
 33
0.0
  0
SOLID
  5
26C9
330
2495
100
AcDbEntity
  8
AM_5
100
AcDbTrace
 10
282.722987914558
 20
421.9233417737643
 30
0.0
 11
282.722987914558
 21
420.7566751070976
 31
0.0
 12
286.222987914558
 22
421.340008440431
 32
0.0
 13
286.222987914558
 23
421.340008440431
 33
0.0
  0
MTEXT
  5
26CA
330
2495
100
AcDbEntity
  8
AM_5
 62
     2
100
AcDbMText
 10
164.3753407011486
 20
430.3414848183837
 30
0.0
 40
15.0
 41
0.0
 71
     5
 72
     1
  1
260
 73
     1
 44
1.0
  0
POINT
  5
26CB
330
2495
100
AcDbEntity
  8
DEFPOINTS
 62
     0
100
AcDbPoint
 10
26.22298791455796
 20
320.6004562659289
 30
0.0
  0
POINT
  5
26CC
330
2495
100
AcDbEntity
  8
DEFPOINTS
 62
     0
100
AcDbPoint
 10
286.222987914558
 20
320.6004562659289
 30
0.0
  0
POINT
  5
26CD
330
2495
100
AcDbEntity
  8
DEFPOINTS
 62
     0
100
AcDbPoint
 10
286.222987914558
 20
421.340008440431
 30
0.0
  0
ENDBLK
  5
2497
330
2495
100
AcDbEntity
  8
0
100
AcDbBlockEnd
  0
BLOCK
  5
273F
330
2735
100
AcDbEntity
  8
0
100
AcDbBlockBegin
  2
*U8
 70
     1
 10
0.0
 20
0.0
 30
0.0
  3
*U8
  1

  0
LINE
  5
2736
330
2735
100
AcDbEntity
  8
AM_7N
  6
AM_DIN_G_W050x2
100
AcDbLine
 10
80.77076207559327
 20
128.4518312367328
 30
0.0
 11
95.62785831477498
 21
113.5947349975548
 31
0.0
  0
LINE
  5
2737
330
2735
100
AcDbEntity
  8
AM_0N
100
AcDbLine
 10
86.25673000548749
 20
113.7734751514159
 30
0.0
 11
93.50653797121504
 21
115.7160553411142
 31
0.0
  0
LINE
  5
2738
330
2735
100
AcDbEntity
  8
AM_0N
100
AcDbLine
 10
93.50653797121504
 20
115.7160553411142
 30
0.0
 11
95.44911816091167
 21
122.9658633068421
 31
0.0
  0
LINE
  5
2739
330
2735
100
AcDbEntity
  8
AM_0N
100
AcDbLine
 10
95.44911816091167
 20
122.9658633068421
 30
0.0
 11
90.14189038488074
 21
128.2730910828717
 31
0.0
  0
LINE
  5
273A
330
2735
100
AcDbEntity
  8
AM_0N
100
AcDbLine
 10
90.14189038488074
 20
128.2730910828717
 30
0.0
 11
82.89208241915321
 21
126.3305108931734
 31
0.0
  0
LINE
  5
273B
330
2735
100
AcDbEntity
  8
AM_0N
100
AcDbLine
 10
82.89208241915321
 20
126.3305108931734
 30
0.0
 11
80.94950222945659
 21
119.0807029274455
 31
0.0
  0
LINE
  5
273C
330
2735
100
AcDbEntity
  8
AM_0N
100
AcDbLine
 10
80.94950222945659
 20
119.0807029274455
 30
0.0
 11
86.25673000548749
 21
113.7734751514159
 31
0.0
  0
CIRCLE
  5
273D
330
2735
100
AcDbEntity
  8
AM_0N
100
AcDbCircle
 10
88.19931019518412
 20
121.0232831171438
 30
0.0
 40
6.5
  0
LINE
  5
273E
330
2735
100
AcDbEntity
  8
AM_7N
  6
AM_DIN_G_W050x2
100
AcDbLine
 10
80.77076207559526
 20
113.5947349975531
 30
0.0
 11
95.62785831477299
 21
128.4518312367345
 31
0.0
  0
ENDBLK
  5
2740
330
2735
100
AcDbEntity
  8
0
100
AcDbBlockEnd
  0
BLOCK
  5
274D
330
2743
100
AcDbEntity
  8
0
100
AcDbBlockBegin
  2
*U9
 70
     1
 10
0.0
 20
0.0
 30
0.0
  3
*U9
  1

  0
LINE
  5
2744
330
2743
100
AcDbEntity
  8
AM_7N
  6
AM_DIN_G_W050x2
100
AcDbLine
 10
231.6752137535226
 20
-19.05848641458874
 30
0.0
 11
216.8181175143409
 21
-4.201390175410777
 31
0.0
  0
LINE
  5
2745
330
2743
100
AcDbEntity
  8
AM_0N
100
AcDbLine
 10
226.1892458236284
 20
-4.380130329271878
 30
0.0
 11
218.9394378579009
 21
-6.322710518970154
 31
0.0
  0
LINE
  5
2746
330
2743
100
AcDbEntity
  8
AM_0N
100
AcDbLine
 10
218.9394378579009
 20
-6.322710518970154
 30
0.0
 11
216.9968576682042
 21
-13.57251848469809
 31
0.0
  0
LINE
  5
2747
330
2743
100
AcDbEntity
  8
AM_0N
100
AcDbLine
 10
216.9968576682042
 20
-13.57251848469809
 30
0.0
 11
222.3040854442352
 21
-18.87974626072764
 31
0.0
  0
LINE
  5
2748
330
2743
100
AcDbEntity
  8
AM_0N
100
AcDbLine
 10
222.3040854442352
 20
-18.87974626072764
 30
0.0
 11
229.5538934099627
 21
-16.93716607102937
 31
0.0
  0
LINE
  5
2749
330
2743
100
AcDbEntity
  8
AM_0N
100
AcDbLine
 10
229.5538934099627
 20
-16.93716607102937
 30
0.0
 11
231.4964735996593
 21
-9.687358105301427
 31
0.0
  0
LINE
  5
274A
330
2743
100
AcDbEntity
  8
AM_0N
100
AcDbLine
 10
231.4964735996593
 20
-9.687358105301427
 30
0.0
 11
226.1892458236284
 21
-4.380130329271878
 31
0.0
  0
CIRCLE
  5
274B
330
2743
100
AcDbEntity
  8
AM_0N
100
AcDbCircle
 10
224.2466656339318
 20
-11.62993829499976
 30
0.0
 40
6.5
  0
LINE
  5
274C
330
2743
100
AcDbEntity
  8
AM_7N
  6
AM_DIN_G_W050x2
100
AcDbLine
 10
231.6752137535207
 20
-4.201390175409016
 30
0.0
 11
216.8181175143429
 21
-19.05848641459051
 31
0.0
  0
ENDBLK
  5
274E
330
2743
100
AcDbEntity
  8
0
100
AcDbBlockEnd
  0
BLOCK
  5
2754
330
2750
100
AcDbEntity
  8
0
100
AcDbBlockBegin
  2
*S10
 70
     1
 10
0.0
 20
0.0
 30
0.0
  3
*S10
  1

  0
CIRCLE
  5
2751
330
2750
100
AcDbEntity
  8
AM_12N
 62
     4
100
AcDbCircle
 10
88.19931019518412
 20
121.0232831171438
 30
0.0
 40
1.75
  0
LINE
  5
2752
330
2750
100
AcDbEntity
  8
AM_12N
 62
     4
100
AcDbLine
 10
86.44931019518413
 20
119.2732831171438
 30
0.0
 11
89.94931019518412
 21
122.7732831171438
 31
0.0
  0
LINE
  5
2753
330
2750
100
AcDbEntity
  8
AM_12N
 62
     4
100
AcDbLine
 10
86.44931019518413
 20
122.7732831171438
 30
0.0
 11
89.94931019518412
 21
119.2732831171438
 31
0.0
  0
ENDBLK
  5
2755
330
2750
100
AcDbEntity
  8
0
100
AcDbBlockEnd
  0
BLOCK
  5
275B
330
2757
100
AcDbEntity
  8
0
100
AcDbBlockBegin
  2
*S11
 70
     1
 10
0.0
 20
0.0
 30
0.0
  3
*S11
  1

  0
CIRCLE
  5
2758
330
2757
100
AcDbEntity
  8
AM_12N
 62
     4
100
AcDbCircle
 10
224.2466656339318
 20
-11.62993829499976
 30
0.0
 40
1.75
  0
LINE
  5
2759
330
2757
100
AcDbEntity
  8
AM_12N
 62
     4
100
AcDbLine
 10
225.9966656339318
 20
-9.87993829499976
 30
0.0
 11
222.4966656339318
 21
-13.37993829499976
 31
0.0
  0
LINE
  5
275A
330
2757
100
AcDbEntity
  8
AM_12N
 62
     4
100
AcDbLine
 10
225.9966656339318
 20
-13.37993829499976
 30
0.0
 11
222.4966656339318
 21
-9.87993829499976
 31
0.0
  0
ENDBLK
  5
275C
330
2757
100
AcDbEntity
  8
0
100
AcDbBlockEnd
  0
ENDSEC
  0
SECTION
  2
ENTITIES
  0
HATCH
  5
13D7
330
1F
100
AcDbEntity
  8
SCHRAFF
100
AcDbHatch
 10
0.0
 20
0.0
 30
0.0
210
0.0
220
0.0
230
1.0
  2
ANSI31
 70
     0
 71
     0
 91
        2
 92
        7
 72
     1
 73
     1
 93
       18
 10
254.7229879145582
 20
370.6004562659289
 42
0.0
 10
246.7229879145582
 20
370.6004562659289
 42
0.0
 10
243.5718684271062
 20
361.9428266281516
 42
0.0
 10
243.014382304084
 20
330.0044680305238
 42
-0.4091108014277049
 10
237.5152199807237
 20
324.6004562659289
 42
0.0
 10
231.4736249939906
 20
324.6004562659289
 42
0.0
 10
230.4439501404843
 20
265.6104234163819
 42
0.0
 10
230.1601999784052
 20
220.6004562659288
 42
0.0
 10
229.222987914558
 20
215.600456265929
 42
0.0
 10
229.222987914558
 20
195.6102588323566
 42
0.0
 10
235.6122467222642
 20
195.6111167930948
 42
0.0
 10
236.222987914558
 20
230.6004562659289
 42
0.0
 10
236.8341041421627
 20
265.6112814973301
 42
0.0
 10
239.2193149959951
 20
311.1238158283584
 42
-0.3989595459737179
 10
249.2056103435407
 20
320.600456265929
 42
0.0
 10
266.722987914558
 20
320.6004562659289
 42
0.0
 10
264.472987914558
 20
330.6004562659289
 42
0.0
 10
256.8192990858797
 20
330.6004562659289
 42
0.0
 97
        0
 92
        7
 72
     1
 73
     1
 93
        5
 10
285.7982400578071
 20
328.7051281784148
 42
0.3989595459737195
 10
283.8009809882978
 20
330.6004562659289
 42
0.0
 10
277.9729879145582
 20
330.6004562659289
 42
0.0
 10
275.7229879145582
 20
320.6004562659289
 42
0.0
 10
286.222987914558
 20
320.6004562659289
 42
0.0
 97
        0
 75
     0
 76
     1
 52
0.0
 41
1.0
 77
     0
 78
     1
 53
45.0
 43
-84.26420008183573
 44
111.9983131888864
 45
-2.245064030267287
 46
2.245064030267288
 79
     0
 47
0.419398667212953
 98
        2
 10
246.1548207576097
 20
348.631474814132
 10
278.4658946418022
 20
321.7899598481387
  0
ARC
  5
13D8
330
1F
100
AcDbEntity
  8
Kontur
100
AcDbCircle
 10
249.2056103435407
 20
310.600456265929
 30
0.0
 40
10.0
100
AcDbArc
 50
90.0
 51
176.9999999999992
  0
LINE
  5
13D9
330
1F
100
AcDbEntity
  8
Kontur
100
AcDbLine
 10
59.8229879145581
 20
151.096672411072
 30
0.0
 11
252.6229879145581
 21
151.096672411072
 31
0.0
  0
LINE
  5
13DB
330
1F
100
AcDbEntity
  8
Kontur
100
AcDbLine
 10
57.72298791455796
 20
153.196672411072
 30
0.0
 11
254.722987914558
 21
153.196672411072
 31
0.0
  0
LINE
  5
13DC
330
1F
100
AcDbEntity
  8
0
100
AcDbLine
 10
246.722987914558
 20
370.6004562659289
 30
0.0
 11
243.5718684271062
 21
361.9428266281515
 31
0.0
  0
LINE
  5
13DD
330
1F
100
AcDbEntity
  8
0
100
AcDbLine
 10
156.2229879145579
 20
370.6004562659289
 30
0.0
 11
254.722987914558
 21
370.6004562659289
 31
0.0
  0
HATCH
  5
13E5
330
1F
100
AcDbEntity
  8
SCHRAFF
100
AcDbHatch
 10
0.0
 20
0.0
 30
0.0
210
0.0
220
0.0
230
1.0
  2
ANSI31
 70
     0
 71
     0
 91
        2
 92
        7
 72
     1
 73
     1
 93
       18
 10
68.87410740200994
 20
361.9428266281517
 42
0.0
 10
65.72298791455796
 20
370.6004562659289
 42
0.0
 10
57.72298791455796
 20
370.6004562659289
 42
0.0
 10
55.62667674323643
 20
330.6004562659289
 42
0.0
 10
47.97298791455796
 20
330.6004562659289
 42
0.0
 10
45.72298791455795
 20
320.6004562659289
 42
0.0
 10
63.24036548557524
 20
320.600456265929
 42
-0.3989595459737212
 10
73.22666083312106
 20
311.1238158283584
 42
0.0
 10
75.61187168695346
 20
265.6112814973317
 42
0.0
 10
76.22298791455818
 20
230.6004562659289
 42
0.0
 10
76.83372910685193
 20
195.6111167930948
 42
0.0
 10
83.22298791455796
 20
195.6102588323566
 42
0.0
 10
83.22298791455796
 20
215.600456265929
 42
0.0
 10
82.2857758507107
 20
220.600456265929
 42
0.0
 10
82.00202568863188
 20
265.6104234163824
 42
0.0
 10
80.97235083512533
 20
324.6004562659289
 42
0.0
 10
74.93075584839243
 20
324.6004562659289
 42
-0.4091108014277109
 10
69.43159352503221
 20
330.0044680305239
 42
0.0
 97
        0
 92
        7
 72
     1
 73
     1
 93
        5
 10
34.47298791455796
 20
330.6004562659289
 42
0.0
 10
28.6449948408183
 20
330.6004562659289
 42
0.3989595459737195
 10
26.64773577130905
 20
328.7051281784148
 42
0.0
 10
26.22298791455796
 20
320.6004562659289
 42
0.0
 10
36.72298791455796
 20
320.6004562659289
 42
0.0
 97
        0
 75
     0
 76
     1
 52
0.0
 41
1.0
 77
     0
 78
     1
 53
45.0
 43
-84.26420008183573
 44
111.9983131888864
 45
-2.245064030267287
 46
2.245064030267288
 79
     0
 47
0.5058178846321708
 98
        2
 10
62.27109636227851
 20
353.1569190421633
 10
33.93005328820436
 20
323.3136640497342
  0
LINE
  5
13E6
330
1F
100
AcDbEntity
  8
0
100
AcDbLine
 10
76.83391518704571
 20
195.6004562659289
 30
0.0
 11
76.22298791455818
 21
230.6004562659289
 31
0.0
  0
LINE
  5
13E7
330
1F
100
AcDbEntity
  8
0
100
AcDbLine
 10
83.22298791455796
 20
195.6004562659289
 30
0.0
 11
83.22298791455796
 21
215.6004562659289
 31
0.0
  0
LINE
  5
13E8
330
1F
100
AcDbEntity
  8
0
100
AcDbLine
 10
229.222987914558
 20
195.6004562659289
 30
0.0
 11
229.222987914558
 21
215.6004562659289
 31
0.0
  0
LINE
  5
13E9
330
1F
100
AcDbEntity
  8
0
100
AcDbLine
 10
235.6120606420704
 20
195.6004562659289
 30
0.0
 11
236.222987914558
 21
230.6004562659289
 31
0.0
  0
CIRCLE
  5
13F0
330
1F
100
AcDbEntity
  8
Kontur
100
AcDbCircle
 10
41.22298791455796
 20
54.69667241107202
 30
0.0
 40
4.5
  0
CIRCLE
  5
13F1
330
1F
100
AcDbEntity
  8
Kontur
100
AcDbCircle
 10
41.22298791455796
 20
54.69667241107202
 30
0.0
 40
6.75
  0
LINE
  5
13F2
330
1F
100
AcDbEntity
  8
Kontur
100
AcDbLine
 10
57.72298791455796
 20
94.69667241107202
 30
0.0
 11
30.67007364394294
 21
87.44786587935232
 31
0.0
  0
LINE
  5
13F3
330
1F
100
AcDbEntity
  8
Kontur
100
AcDbLine
 10
57.8523974371094
 20
94.21370949792748
 30
0.0
 11
30.79948316649416
 21
86.96490296620783
 31
0.0
  0
LINE
  5
13FB
330
1F
100
AcDbEntity
  8
Kontur
100
AcDbLine
 10
26.72298791455819
 20
81.65231092161793
 30
0.0
 11
26.72298791455796
 21
46.93937854989695
 31
0.0
  0
LINE
  5
13FC
330
1F
100
AcDbEntity
  8
Kontur
100
AcDbLine
 10
26.22298791455819
 20
81.65231092161793
 30
0.0
 11
26.22298791455796
 21
46.81589866863447
 31
0.0
  0
LINE
  5
13FD
330
1F
100
AcDbEntity
  8
Kontur
100
AcDbLine
 10
26.22298791455819
 20
81.65231092161793
 30
0.0
 11
26.22298791455796
 21
54.69667241107202
 31
0.0
  0
LINE
  5
13FE
330
1F
100
AcDbEntity
  8
Kontur
100
AcDbLine
 10
26.72298791455819
 20
81.65231092161793
 30
0.0
 11
26.72298791455796
 21
54.69667241107202
 31
0.0
  0
ARC
  5
1401
330
1F
100
AcDbEntity
  8
Kontur
100
AcDbCircle
 10
32.22298791455819
 20
81.65231092161793
 30
0.0
 40
6.0
100
AcDbArc
 50
105.0000000000012
 51
180.0
  0
ARC
  5
1402
330
1F
100
AcDbEntity
  8
Kontur
100
AcDbCircle
 10
32.22298791455819
 20
81.65231092161793
 30
0.0
 40
5.5
100
AcDbArc
 50
105.0000000000012
 51
180.0
  0
LINE
  5
1406
330
1F
100
AcDbEntity
  8
Kontur
100
AcDbLine
 10
59.8229879145581
 20
151.096672411072
 30
0.0
 11
59.8229879145581
 21
45.29298343080774
 31
0.0
  0
LINE
  5
1407
330
1F
100
AcDbEntity
  8
Kontur
100
AcDbLine
 10
68.72302090125618
 20
139.696672411072
 30
0.0
 11
68.72302090125618
 21
54.69667241107202
 31
0.0
  0
LINE
  5
1408
330
1F
100
AcDbEntity
  8
Kontur
100
AcDbLine
 10
243.7229879145582
 20
139.6966724110721
 30
0.0
 11
243.7229879145577
 21
54.69667241107202
 31
0.0
  0
LINE
  5
140B
330
1F
100
AcDbEntity
  8
Kontur
100
AcDbLine
 10
242.9200549278601
 20
138.896672411072
 30
0.0
 11
242.9200549278601
 21
54.69667241107202
 31
0.0
  0
LINE
  5
140C
330
1F
100
AcDbEntity
  8
Kontur
100
AcDbLine
 10
69.52592090125609
 20
138.896672411072
 30
0.0
 11
69.52592090125607
 21
54.69667241107202
 31
0.0
  0
LINE
  5
1415
330
1F
100
AcDbEntity
  8
Kontur
100
AcDbLine
 10
59.8229879145581
 20
151.096672411072
 30
0.0
 11
59.8229879145581
 21
54.69667241107202
 31
0.0
  0
LINE
  5
1416
330
1F
100
AcDbEntity
  8
Kontur
100
AcDbLine
 10
57.72298791455796
 20
153.196672411072
 30
0.0
 11
57.72298791455796
 21
94.17903432086701
 31
0.0
  0
LINE
  5
1418
330
1F
100
AcDbEntity
  8
BEMASS
100
AcDbLine
 10
58.44311460877839
 20
45.21066350996619
 30
0.0
 11
58.44311460877839
 21
94.09422351833319
 31
0.0
  0
LINE
  5
1419
330
1F
100
AcDbEntity
  8
BEMASS
100
AcDbLine
 10
58.44311460877839
 20
54.69667241107202
 30
0.0
 11
58.44311460877839
 21
94.09422351833319
 31
0.0
  0
LINE
  5
142A
330
1F
100
AcDbEntity
  8
Kontur
100
AcDbLine
 10
71.22302090125618
 20
142.196672411072
 30
0.0
 11
241.222987914558
 21
142.196672411072
 31
0.0
  0
LINE
  5
142B
330
1F
100
AcDbEntity
  8
Kontur
100
AcDbLine
 10
72.02592090125609
 20
141.396672411072
 30
0.0
 11
240.4200549278601
 21
141.396672411072
 31
0.0
  0
LINE
  5
142C
330
1F
100
AcDbEntity
  8
0
100
AcDbLine
 10
156.2229879145579
 20
195.6004562659289
 30
0.0
 11
76.83372910685193
 21
195.6111167930948
 31
0.0
  0
LINE
  5
1432
330
1F
100
AcDbEntity
  8
Kontur
100
AcDbLine
 10
59.8229879145581
 20
151.096672411072
 30
0.0
 11
57.72298791455796
 21
153.196672411072
 31
0.0
  0
ARC
  5
1433
330
1F
100
AcDbEntity
  8
Kontur
100
AcDbCircle
 10
72.02592090125609
 20
138.896672411072
 30
0.0
 40
2.5
100
AcDbArc
 50
90.0
 51
180.0
  0
ARC
  5
1434
330
1F
100
AcDbEntity
  8
Kontur
100
AcDbCircle
 10
71.22302090125618
 20
139.696672411072
 30
0.0
 40
2.5
100
AcDbArc
 50
90.0
 51
180.0
  0
ARC
  5
144E
330
1F
100
AcDbEntity
  8
Kontur
100
AcDbCircle
 10
240.4200549278601
 20
138.896672411072
 30
0.0
 40
2.5
100
AcDbArc
 50
0.0
 51
90.0
  0
ARC
  5
144F
330
1F
100
AcDbEntity
  8
Kontur
100
AcDbCircle
 10
241.2229879145582
 20
139.6966724110721
 30
0.0
 40
2.5
100
AcDbArc
 50
0.0
 51
90.0
  0
LINE
  5
1450
330
1F
100
AcDbEntity
  8
0
100
AcDbLine
 10
156.2229879145579
 20
195.6004562659289
 30
0.0
 11
235.6122467222642
 21
195.6111167930948
 31
0.0
  0
LINE
  5
1456
330
1F
100
AcDbEntity
  8
0
100
AcDbLine
 10
28.6449948408183
 20
330.6004562659289
 30
0.0
 11
54.203229893164
 21
330.6004562659289
 31
0.0
  0
LINE
  5
1457
330
1F
100
AcDbEntity
  8
0
100
AcDbLine
 10
26.22298791455796
 20
320.6004562659289
 30
0.0
 11
63.24036548557524
 21
320.600456265929
 31
0.0
  0
LINE
  5
1459
330
1F
100
AcDbEntity
  8
0
100
AcDbLine
 10
26.22298791455796
 20
320.6004562659289
 30
0.0
 11
26.64773577130905
 21
328.7051281784148
 31
0.0
  0
LINE
  5
145A
330
1F
100
AcDbEntity
  8
0
100
AcDbLine
 10
36.72298791455796
 20
320.6004562659289
 30
0.0
 11
34.47298791455796
 21
330.6004562659289
 31
0.0
  0
ARC
  5
145B
330
1F
100
AcDbEntity
  8
0
100
AcDbCircle
 10
28.6449948408183
 20
328.6004562659289
 30
0.0
 40
2.0
100
AcDbArc
 50
90.0
 51
176.9999999999992
  0
LINE
  5
1461
330
1F
100
AcDbEntity
  8
0
100
AcDbLine
 10
57.72298791455796
 20
370.6004562659289
 30
0.0
 11
55.70117419529606
 21
332.0219523315645
 31
0.0
  0
LINE
  5
1462
330
1F
100
AcDbEntity
  8
0
100
AcDbLine
 10
68.72298791455796
 20
370.6004562659289
 30
0.0
 11
69.43159352503221
 21
330.0044680305239
 31
0.0
  0
LINE
  5
1463
330
1F
100
AcDbEntity
  8
0
100
AcDbLine
 10
243.722987914558
 20
370.6004562659289
 30
0.0
 11
243.014382304084
 21
330.0044680305239
 31
0.0
  0
LINE
  5
1464
330
1F
100
AcDbEntity
  8
0
100
AcDbLine
 10
156.2229879145579
 20
332.0096300382412
 30
0.0
 11
69.39500791429463
 21
332.0096300382413
 31
0.0
  0
LINE
  5
1465
330
1F
100
AcDbEntity
  8
0
100
AcDbLine
 10
156.2229879145579
 20
324.6004562659289
 30
0.0
 11
74.93075584839243
 21
324.6004562659289
 31
0.0
  0
LINE
  5
1468
330
1F
100
AcDbEntity
  8
Kontur
100
AcDbLine
 10
75.61187168695346
 20
265.6112814973306
 30
0.0
 11
74.06671959013511
 21
295.0945398600493
 31
0.0
  0
LINE
  5
146B
330
1F
100
AcDbEntity
  8
0
100
AcDbLine
 10
82.00202568863188
 20
265.6104234163843
 30
0.0
 11
80.97235083512533
 21
324.6004562659289
 31
0.0
  0
LINE
  5
146C
330
1F
100
AcDbEntity
  8
Kontur
100
AcDbLine
 10
76.22298791455818
 20
230.6004562659289
 30
0.0
 11
75.61187168695346
 21
265.6112814973306
 31
0.0
  0
LINE
  5
146D
330
1F
100
AcDbEntity
  8
Kontur
100
AcDbLine
 10
82.2857758507107
 20
220.600456265929
 30
0.0
 11
82.00202568863188
 21
265.6104234163843
 31
0.0
  0
LINE
  5
1474
330
1F
100
AcDbEntity
  8
0
100
AcDbLine
 10
83.22298791455796
 20
215.6004562659289
 30
0.0
 11
82.2857758507107
 21
220.6004562659289
 31
0.0
  0
LINE
  5
1475
330
1F
100
AcDbEntity
  8
0
100
AcDbLine
 10
111.0042662557432
 20
334.6004562659289
 30
0.0
 11
69.351370251974
 21
334.6004562659289
 31
0.0
  0
LINE
  5
1478
330
1F
100
AcDbEntity
  8
Kontur
100
AcDbLine
 10
74.06671959013511
 20
295.0945398600493
 30
0.0
 11
73.22666083312106
 21
311.1238158283584
 31
0.0
  0
LINE
  5
1479
330
1F
100
AcDbEntity
  8
BEMASS
100
AcDbLine
 10
75.87774558114119
 20
285.6106430334672
 30
0.0
 11
75.87774558114119
 21
285.6106430334672
 31
0.0
  0
ARC
  5
147A
330
1F
100
AcDbEntity
  8
Kontur
100
AcDbCircle
 10
63.24036548557524
 20
310.600456265929
 30
0.0
 40
10.0
100
AcDbArc
 50
3.000000000000724
 51
90.0
  0
LINE
  5
147B
330
1F
100
AcDbEntity
  8
MITTE
 48
10000000.0
100
AcDbLine
 10
41.22298791455796
 20
334.676882727339
 30
0.0
 11
41.22298791455796
 21
315.5093054996053
 31
0.0
  0
LINE
  5
147C
330
1F
100
AcDbEntity
  8
0
100
AcDbLine
 10
45.72298791455795
 20
320.6004562659289
 30
0.0
 11
47.97298791455796
 21
330.6004562659289
 31
0.0
  0
ARC
  5
147D
330
1F
100
AcDbEntity
  8
0
100
AcDbCircle
 10
54.203229893164
 20
332.1004562659289
 30
0.0
 40
1.5
100
AcDbArc
 50
270.0
 51
356.9999999999993
  0
ARC
  5
147E
330
1F
100
AcDbEntity
  8
0
100
AcDbCircle
 10
74.93075584839243
 20
330.1004562659289
 30
0.0
 40
5.5
100
AcDbArc
 50
181.0000000000001
 51
270.0
  0
LINE
  5
147F
330
1F
100
AcDbEntity
  8
Kontur
100
AcDbLine
 10
80.72298791455796
 20
332.1004562659289
 30
0.0
 11
80.50426625574322
 21
334.6004562659289
 31
0.0
  0
LINE
  5
1480
330
1F
100
AcDbEntity
  8
Kontur
100
AcDbLine
 10
111.2229879145579
 20
332.1004562659289
 30
0.0
 11
111.0042662557432
 21
334.6004562659289
 31
0.0
  0
LINE
  5
1481
330
1F
100
AcDbEntity
  8
Kontur
100
AcDbLine
 10
230.9519986245843
 20
294.716501577041
 30
0.0
 11
230.4439501404843
 21
265.6104234163843
 31
0.0
  0
LINE
  5
1482
330
1F
100
AcDbEntity
  8
Kontur
100
AcDbLine
 10
236.8341041421627
 20
265.6112814973306
 30
0.0
 11
239.2193149959951
 21
311.1238158283584
 31
0.0
  0
LINE
  5
1485
330
1F
100
AcDbEntity
  8
Kontur
100
AcDbLine
 10
230.1601999784052
 20
220.600456265929
 30
0.0
 11
230.4439501404843
 21
265.6104234163843
 31
0.0
  0
LINE
  5
1486
330
1F
100
AcDbEntity
  8
Kontur
100
AcDbLine
 10
236.222987914558
 20
230.6004562659289
 30
0.0
 11
236.8341041421627
 21
265.6112814973306
 31
0.0
  0
LINE
  5
1487
330
1F
100
AcDbEntity
  8
0
100
AcDbLine
 10
229.222987914558
 20
215.6004562659289
 30
0.0
 11
230.1601999784052
 21
220.6004562659289
 31
0.0
  0
LINE
  5
1488
330
1F
100
AcDbEntity
  8
0
100
AcDbLine
 10
156.2229879145579
 20
332.0096300382412
 30
0.0
 11
243.0509679148217
 21
332.0096300382412
 31
0.0
  0
LINE
  5
1489
330
1F
100
AcDbEntity
  8
0
100
AcDbLine
 10
156.2229879145579
 20
324.6004562659289
 30
0.0
 11
237.5152199807237
 21
324.6004562659289
 31
0.0
  0
LINE
  5
148C
330
1F
100
AcDbEntity
  8
0
100
AcDbLine
 10
230.9519986245843
 20
294.716501577041
 30
0.0
 11
231.4736249939906
 21
324.6004562659289
 31
0.0
  0
LINE
  5
148D
330
1F
100
AcDbEntity
  8
0
100
AcDbLine
 10
201.4417095733729
 20
334.5096300382412
 30
0.0
 11
243.0946055771421
 21
334.5096300382413
 31
0.0
  0
LINE
  5
148E
330
1F
100
AcDbEntity
  8
Kontur
100
AcDbLine
 10
201.2229879145579
 20
332.0096300382412
 30
0.0
 11
201.4417095733729
 21
334.5096300382412
 31
0.0
  0
ARC
  5
148F
330
1F
100
AcDbEntity
  8
0
100
AcDbCircle
 10
237.5152199807237
 20
330.1004562659289
 30
0.0
 40
5.5
100
AcDbArc
 50
270.0
 51
358.9999999999998
  0
LINE
  5
1490
330
1F
100
AcDbEntity
  8
Kontur
100
AcDbLine
 10
231.722987914558
 20
332.0096300382412
 30
0.0
 11
231.9417095733729
 21
334.5096300382412
 31
0.0
  0
LINE
  5
1493
330
1F
100
AcDbEntity
  8
0
100
AcDbLine
 10
156.2229879145579
 20
370.6004562659289
 30
0.0
 11
57.72298791455796
 21
370.6004562659289
 31
0.0
  0
LINE
  5
1494
330
1F
100
AcDbEntity
  8
0
100
AcDbLine
 10
65.72298791455796
 20
370.6004562659289
 30
0.0
 11
68.87410740200994
 21
361.9428266281515
 31
0.0
  0
LINE
  5
14B3
330
1F
100
AcDbEntity
  8
Kontur
100
AcDbLine
 10
252.6229879145581
 20
151.096672411072
 30
0.0
 11
252.6229879145581
 21
45.29298343080774
 31
0.0
  0
LINE
  5
14B4
330
1F
100
AcDbEntity
  8
Kontur
100
AcDbLine
 10
254.722987914558
 20
153.196672411072
 30
0.0
 11
254.722987914558
 21
94.17903432086701
 31
0.0
  0
LINE
  5
14BC
330
1F
100
AcDbEntity
  8
BEMASS
100
AcDbLine
 10
254.0028612203378
 20
45.21066350996619
 30
0.0
 11
254.0028612203378
 21
94.09422351833319
 31
0.0
  0
LINE
  5
14BD
330
1F
100
AcDbEntity
  8
Kontur
100
AcDbLine
 10
285.722987914558
 20
81.65231092161793
 30
0.0
 11
285.722987914558
 21
46.93937854989695
 31
0.0
  0
LINE
  5
14BE
330
1F
100
AcDbEntity
  8
Kontur
100
AcDbLine
 10
286.222987914558
 20
81.65231092161793
 30
0.0
 11
286.222987914558
 21
46.81589866863447
 31
0.0
  0
CIRCLE
  5
14C0
330
1F
100
AcDbEntity
  8
Kontur
100
AcDbCircle
 10
271.222987914558
 20
54.69667241107202
 30
0.0
 40
4.5
  0
CIRCLE
  5
14C1
330
1F
100
AcDbEntity
  8
Kontur
100
AcDbCircle
 10
271.222987914558
 20
54.69667241107202
 30
0.0
 40
6.75
  0
LINE
  5
14C5
330
1F
100
AcDbEntity
  8
Kontur
100
AcDbLine
 10
254.5935783920068
 20
94.21370949792748
 30
0.0
 11
281.6464926626218
 21
86.96490296620783
 31
0.0
  0
LINE
  5
14C6
330
1F
100
AcDbEntity
  8
Kontur
100
AcDbLine
 10
254.722987914558
 20
94.69667241107202
 30
0.0
 11
281.7759021851732
 21
87.44786587935232
 31
0.0
  0
ARC
  5
14C8
330
1F
100
AcDbEntity
  8
Kontur
100
AcDbCircle
 10
280.2229879145579
 20
81.65231092161793
 30
0.0
 40
6.0
100
AcDbArc
 50
0.0
 51
74.99999999999879
  0
ARC
  5
14C9
330
1F
100
AcDbEntity
  8
Kontur
100
AcDbCircle
 10
280.2229879145579
 20
81.65231092161793
 30
0.0
 40
5.5
100
AcDbArc
 50
0.0
 51
74.99999999999879
  0
LINE
  5
14D0
330
1F
100
AcDbEntity
  8
Kontur
100
AcDbLine
 10
252.6229879145581
 20
151.096672411072
 30
0.0
 11
254.722987914558
 21
153.196672411072
 31
0.0
  0
LINE
  5
151A
330
1F
100
AcDbEntity
  8
0
100
AcDbLine
 10
254.722987914558
 20
370.6004562659289
 30
0.0
 11
256.7448016338201
 21
332.0219523315645
 31
0.0
  0
LINE
  5
151C
330
1F
100
AcDbEntity
  8
0
100
AcDbLine
 10
283.8009809882978
 20
330.6004562659289
 30
0.0
 11
258.2427459359519
 21
330.6004562659289
 31
0.0
  0
LINE
  5
151D
330
1F
100
AcDbEntity
  8
0
100
AcDbLine
 10
286.222987914558
 20
320.6004562659289
 30
0.0
 11
249.2056103435407
 21
320.600456265929
 31
0.0
  0
LINE
  5
151E
330
1F
100
AcDbEntity
  8
MITTE
 48
10000000.0
100
AcDbLine
 10
271.222987914558
 20
334.676882727339
 30
0.0
 11
271.222987914558
 21
315.5093054996053
 31
0.0
  0
LINE
  5
151F
330
1F
100
AcDbEntity
  8
0
100
AcDbLine
 10
266.722987914558
 20
320.6004562659289
 30
0.0
 11
264.472987914558
 21
330.6004562659289
 31
0.0
  0
ARC
  5
1520
330
1F
100
AcDbEntity
  8
0
100
AcDbCircle
 10
258.2427459359519
 20
332.1004562659289
 30
0.0
 40
1.5
100
AcDbArc
 50
183.0000000000007
 51
270.0
  0
LINE
  5
1521
330
1F
100
AcDbEntity
  8
BEMASS
100
AcDbLine
 10
286.222987914558
 20
320.6004562659289
 30
0.0
 11
286.222987914558
 21
326.6246515582484
 31
0.0
  0
LINE
  5
1522
330
1F
100
AcDbEntity
  8
0
100
AcDbLine
 10
275.722987914558
 20
320.6004562659289
 30
0.0
 11
277.972987914558
 21
330.6004562659289
 31
0.0
  0
LINE
  5
1523
330
1F
100
AcDbEntity
  8
0
100
AcDbLine
 10
286.222987914558
 20
320.6004562659289
 30
0.0
 11
285.7982400578071
 21
328.7051281784148
 31
0.0
  0
ARC
  5
1524
330
1F
100
AcDbEntity
  8
0
100
AcDbCircle
 10
283.8009809882978
 20
328.6004562659289
 30
0.0
 40
2.0
100
AcDbArc
 50
3.000000000000724
 51
90.0
  0
LINE
  5
15B4
330
1F
100
AcDbEntity
  8
Kontur
 62
     0
100
AcDbLine
 10
74.56363605202842
 20
285.6128089282852
 30
0.0
 11
74.56363605202842
 21
285.6128089282852
 31
0.0
  0
LINE
  5
15B5
330
1F
100
AcDbEntity
  8
Kontur
 62
     0
100
AcDbLine
 10
74.56363605202842
 20
285.6128089282852
 30
0.0
 11
74.56363605202842
 21
285.6128089282852
 31
0.0
  0
LINE
  5
15B8
330
1F
100
AcDbEntity
  8
7A
100
AcDbLine
 10
67.88177812687241
 20
54.69667241107202
 30
0.0
 11
247.4353793781804
 21
54.69667241107202
 31
0.0
  0
LINE
  5
15BA
330
1F
100
AcDbEntity
  8
7A
100
AcDbLine
 10
156.2229879145579
 20
139.696672411072
 30
0.0
 11
156.2229879145579
 21
154.194454945147
 31
0.0
  0
LINE
  5
15BB
330
1F
100
AcDbEntity
  8
0
100
AcDbLine
 10
71.22298791455796
 20
137.196672411072
 30
0.0
 11
71.22298791455796
 21
54.69667241107203
 31
0.0
  0
LINE
  5
15BE
330
1F
100
AcDbEntity
  8
0
100
AcDbLine
 10
238.7229879145579
 20
139.696672411072
 30
0.0
 11
73.72298791455796
 21
139.696672411072
 31
0.0
  0
LINE
  5
15BF
330
1F
100
AcDbEntity
  8
0
100
AcDbLine
 10
238.7404429794862
 20
369.6004562659289
 30
0.0
 11
68.74044297948626
 21
369.6004562659289
 31
0.0
  0
LINE
  5
15C1
330
1F
100
AcDbEntity
  8
0
100
AcDbLine
 10
223.722987914558
 20
115.696672411072
 30
0.0
 11
223.722987914558
 21
54.69667241107202
 31
0.0
  0
LINE
  5
15C2
330
1F
100
AcDbEntity
  8
0
100
AcDbLine
 10
210.722987914558
 20
115.696672411072
 30
0.0
 11
210.722987914558
 21
54.69667241107202
 31
0.0
  0
LINE
  5
15C3
330
1F
100
AcDbEntity
  8
0
100
AcDbLine
 10
193.2229879145579
 20
115.696672411072
 30
0.0
 11
193.2229879145579
 21
54.69667241107202
 31
0.0
  0
LINE
  5
15C4
330
1F
100
AcDbEntity
  8
0
100
AcDbLine
 10
180.2229879145579
 20
115.696672411072
 30
0.0
 11
180.2229879145579
 21
54.69667241107202
 31
0.0
  0
LINE
  5
15C5
330
1F
100
AcDbEntity
  8
0
100
AcDbLine
 10
162.7229879145579
 20
115.696672411072
 30
0.0
 11
162.7229879145579
 21
54.69667241107202
 31
0.0
  0
ARC
  5
15C6
330
1F
100
AcDbEntity
  8
0
100
AcDbCircle
 10
156.2229879145579
 20
115.696672411072
 30
0.0
 40
6.5
100
AcDbArc
 50
0.0
 51
90.0
  0
ARC
  5
15C7
330
1F
100
AcDbEntity
  8
0
100
AcDbCircle
 10
186.7229879145579
 20
115.696672411072
 30
0.0
 40
6.499999999999992
100
AcDbArc
 50
0.0
 51
180.0
  0
ARC
  5
15C8
330
1F
100
AcDbEntity
  8
0
100
AcDbCircle
 10
217.222987914558
 20
115.696672411072
 30
0.0
 40
6.5
100
AcDbArc
 50
0.0
 51
180.0
  0
ARC
  5
15D9
330
1F
100
AcDbEntity
  8
0
100
AcDbCircle
 10
156.2229879145579
 20
115.696672411072
 30
0.0
 40
6.5
100
AcDbArc
 50
90.0
 51
180.0
  0
LINE
  5
15DA
330
1F
100
AcDbEntity
  8
0
100
AcDbLine
 10
119.2229879145579
 20
115.696672411072
 30
0.0
 11
119.2229879145579
 21
54.69667241107202
 31
0.0
  0
LINE
  5
15DB
330
1F
100
AcDbEntity
  8
0
100
AcDbLine
 10
132.2229879145579
 20
115.696672411072
 30
0.0
 11
132.2229879145579
 21
54.69667241107202
 31
0.0
  0
LINE
  5
15DC
330
1F
100
AcDbEntity
  8
0
100
AcDbLine
 10
149.7229879145579
 20
115.696672411072
 30
0.0
 11
149.7229879145579
 21
54.69667241107202
 31
0.0
  0
ARC
  5
15DD
330
1F
100
AcDbEntity
  8
0
100
AcDbCircle
 10
125.7229879145579
 20
115.696672411072
 30
0.0
 40
6.499999999999992
100
AcDbArc
 50
0.0
 51
180.0
  0
LINE
  5
15DE
330
1F
100
AcDbEntity
  8
0
100
AcDbLine
 10
88.72298791455795
 20
98.19667241107204
 30
0.0
 11
88.72298791455795
 21
54.69667241107202
 31
0.0
  0
LINE
  5
15DF
330
1F
100
AcDbEntity
  8
0
100
AcDbLine
 10
101.7229879145579
 20
98.19667241107204
 30
0.0
 11
101.7229879145579
 21
54.69667241107202
 31
0.0
  0
ARC
  5
15E0
330
1F
100
AcDbEntity
  8
0
100
AcDbCircle
 10
95.22298791455796
 20
98.19667241107204
 30
0.0
 40
6.5
100
AcDbArc
 50
0.0
 51
180.0
  0
LINE
  5
15E1
330
1F
100
AcDbEntity
  8
0
100
AcDbLine
 10
153.7404429794862
 20
334.6004562659289
 30
0.0
 11
74.37057352125226
 21
334.6004562659289
 31
0.0
  0
LINE
  5
15E2
330
1F
100
AcDbEntity
  8
0
100
AcDbLine
 10
112.5830486586069
 20
335.6004562659289
 30
0.0
 11
108.3629271705092
 21
335.6004562659289
 31
0.0
  0
LINE
  5
15E4
330
1F
100
AcDbEntity
  8
0
100
AcDbLine
 10
88.72298791455795
 20
369.6004562659289
 30
0.0
 11
85.98033878744809
 21
338.2518332949383
 31
0.0
  0
LINE
  5
15E5
330
1F
100
AcDbEntity
  8
0
100
AcDbLine
 10
101.7229879145579
 20
369.6004562659289
 30
0.0
 11
104.3781483781422
 21
339.2518332949383
 31
0.0
  0
LINE
  5
15E6
330
1F
100
AcDbEntity
  8
0
100
AcDbLine
 10
119.2229879145579
 20
369.6004562659289
 30
0.0
 11
116.5678274509739
 21
339.2518332949383
 31
0.0
  0
ARC
  5
15E7
330
1F
100
AcDbEntity
  8
0
100
AcDbCircle
 10
108.3629271705092
 20
339.6004562659289
 30
0.0
 40
4.0
100
AcDbArc
 50
184.9999999999997
 51
270.0
  0
ARC
  5
15E8
330
1F
100
AcDbEntity
  8
0
100
AcDbCircle
 10
112.5830486586069
 20
339.6004562659289
 30
0.0
 40
4.0
100
AcDbArc
 50
270.0
 51
355.0000000000003
  0
ARC
  5
15E9
330
1F
100
AcDbEntity
  8
0
100
AcDbCircle
 10
143.0830486586069
 20
339.6004562659289
 30
0.0
 40
4.0
100
AcDbArc
 50
270.0
 51
355.0000000000003
  0
LINE
  5
15EA
330
1F
100
AcDbEntity
  8
0
100
AcDbLine
 10
143.0830486586069
 20
335.6004562659289
 30
0.0
 11
138.8629271705092
 21
335.6004562659289
 31
0.0
  0
ARC
  5
15EB
330
1F
100
AcDbEntity
  8
0
100
AcDbCircle
 10
138.8629271705092
 20
339.6004562659289
 30
0.0
 40
4.0
100
AcDbArc
 50
184.9999999999997
 51
270.0
  0
LINE
  5
15EC
330
1F
100
AcDbEntity
  8
0
100
AcDbLine
 10
132.2229879145579
 20
369.6004562659289
 30
0.0
 11
134.8781483781422
 21
339.2518332949383
 31
0.0
  0
LINE
  5
15ED
330
1F
100
AcDbEntity
  8
0
100
AcDbLine
 10
149.7229879145579
 20
369.6004562659289
 30
0.0
 11
147.0678274509739
 21
339.2518332949383
 31
0.0
  0
ARC
  5
15EE
330
1F
100
AcDbEntity
  8
0
100
AcDbCircle
 10
76.85311845632395
 20
338.6004562659289
 30
0.0
 40
4.0
100
AcDbArc
 50
182.9999999999926
 51
270.0
  0
ARC
  5
15EF
330
1F
100
AcDbEntity
  8
0
100
AcDbCircle
 10
81.99555999508106
 20
338.6004562659289
 30
0.0
 40
4.0
100
AcDbArc
 50
270.0
 51
355.0000000000003
  0
LINE
  5
15F0
330
1F
100
AcDbEntity
  8
0
100
AcDbLine
 10
153.7404429794862
 20
334.6004562659289
 30
0.0
 11
233.1103124377203
 21
334.6004562659289
 31
0.0
  0
LINE
  5
15F1
330
1F
100
AcDbEntity
  8
0
100
AcDbLine
 10
210.722987914558
 20
369.6004562659289
 30
0.0
 11
208.0678274509739
 21
339.2518332949383
 31
0.0
  0
ARC
  5
15F2
330
1F
100
AcDbEntity
  8
0
100
AcDbCircle
 10
235.592857372792
 20
338.6004562659289
 30
0.0
 40
4.0
100
AcDbArc
 50
270.0
 51
357.0000000000074
  0
LINE
  5
15F3
330
1F
100
AcDbEntity
  8
0
100
AcDbLine
 10
241.222987914558
 20
369.6004562659289
 30
0.0
 11
239.5873755118105
 21
338.3911124409572
 31
0.0
  0
LINE
  5
15F4
330
1F
100
AcDbEntity
  8
0
100
AcDbLine
 10
223.722987914558
 20
369.6004562659289
 30
0.0
 11
226.465637041668
 21
338.2518332949383
 31
0.0
  0
ARC
  5
15F5
330
1F
100
AcDbEntity
  8
0
100
AcDbCircle
 10
230.4504158340351
 20
338.6004562659289
 30
0.0
 40
4.0
100
AcDbArc
 50
184.9999999999997
 51
270.0
  0
LINE
  5
15F6
330
1F
100
AcDbEntity
  8
0
100
AcDbLine
 10
193.2229879145579
 20
369.6004562659289
 30
0.0
 11
195.8781483781422
 21
339.2518332949383
 31
0.0
  0
ARC
  5
15F7
330
1F
100
AcDbEntity
  8
0
100
AcDbCircle
 10
199.8629271705092
 20
339.6004562659289
 30
0.0
 40
4.0
100
AcDbArc
 50
184.9999999999997
 51
270.0
  0
ARC
  5
15F8
330
1F
100
AcDbEntity
  8
0
100
AcDbCircle
 10
204.0830486586069
 20
339.6004562659289
 30
0.0
 40
4.0
100
AcDbArc
 50
270.0
 51
355.0000000000003
  0
LINE
  5
15F9
330
1F
100
AcDbEntity
  8
0
100
AcDbLine
 10
199.8629271705092
 20
335.6004562659289
 30
0.0
 11
204.0830486586069
 21
335.6004562659289
 31
0.0
  0
LINE
  5
15FA
330
1F
100
AcDbEntity
  8
0
100
AcDbLine
 10
162.7229879145579
 20
369.6004562659289
 30
0.0
 11
165.3781483781422
 21
339.2518332949383
 31
0.0
  0
LINE
  5
15FB
330
1F
100
AcDbEntity
  8
0
100
AcDbLine
 10
180.2229879145579
 20
369.6004562659289
 30
0.0
 11
177.5678274509739
 21
339.2518332949383
 31
0.0
  0
LINE
  5
15FC
330
1F
100
AcDbEntity
  8
0
100
AcDbLine
 10
169.3629271705092
 20
335.6004562659289
 30
0.0
 11
173.5830486586069
 21
335.6004562659289
 31
0.0
  0
ARC
  5
15FD
330
1F
100
AcDbEntity
  8
0
100
AcDbCircle
 10
173.5830486586069
 20
339.6004562659289
 30
0.0
 40
4.0
100
AcDbArc
 50
270.0
 51
355.0000000000003
  0
ARC
  5
15FE
330
1F
100
AcDbEntity
  8
0
100
AcDbCircle
 10
169.3629271705092
 20
339.6004562659289
 30
0.0
 40
4.0
100
AcDbArc
 50
184.9999999999997
 51
270.0
  0
HATCH
  5
15FF
330
1F
100
AcDbEntity
  8
8
100
AcDbHatch
 10
0.0
 20
0.0
 30
0.0
210
0.0
220
0.0
230
1.0
  2
ANSI31
 70
     0
 71
     0
 91
        6
 92
        7
 72
     1
 73
     1
 93
        6
 10
226.465637041668
 20
338.2518332949383
 42
0.3888787318529906
 10
230.4504158340351
 20
334.6004562659289
 42
0.0
 10
235.592857372792
 20
334.6004562659289
 42
0.3989595459737225
 10
239.5873755118105
 20
338.3911124409572
 42
0.0
 10
241.2229879145582
 20
369.6004562659289
 42
0.0
 10
223.722987914558
 20
369.6004562659289
 42
0.0
 97
        0
 92
        7
 72
     1
 73
     1
 93
        6
 10
210.722987914558
 20
369.6004562659289
 42
0.0
 10
193.2229879145579
 20
369.6004562659289
 42
0.0
 10
195.8781483781422
 20
339.2518332949383
 42
0.3888787318529896
 10
199.8629271705092
 20
335.6004562659289
 42
0.0
 10
204.0830486586069
 20
335.6004562659289
 42
0.3888787318529878
 10
208.0678274509739
 20
339.2518332949383
 42
0.0
 97
        0
 92
        7
 72
     1
 73
     1
 93
        6
 10
180.2229879145579
 20
369.6004562659289
 42
0.0
 10
162.7229879145579
 20
369.6004562659289
 42
0.0
 10
165.3781483781422
 20
339.2518332949383
 42
0.3888787318529896
 10
169.3629271705092
 20
335.6004562659289
 42
0.0
 10
173.5830486586069
 20
335.6004562659289
 42
0.3888787318529898
 10
177.5678274509739
 20
339.2518332949383
 42
0.0
 97
        0
 92
        7
 72
     1
 73
     1
 93
        6
 10
134.8781483781422
 20
339.2518332949383
 42
0.3888787318529907
 10
138.8629271705092
 20
335.6004562659289
 42
0.0
 10
143.0830486586069
 20
335.6004562659289
 42
0.3888787318529896
 10
147.0678274509739
 20
339.2518332949383
 42
0.0
 10
149.7229879145579
 20
369.6004562659289
 42
0.0
 10
132.2229879145579
 20
369.6004562659289
 42
0.0
 97
        0
 92
        7
 72
     1
 73
     1
 93
        6
 10
119.2229879145579
 20
369.6004562659289
 42
0.0
 10
101.7229879145579
 20
369.6004562659289
 42
0.0
 10
104.3781483781422
 20
339.2518332949383
 42
0.3888787318529896
 10
108.3629271705092
 20
335.6004562659289
 42
0.0
 10
112.5830486586069
 20
335.6004562659289
 42
0.3888787318529876
 10
116.5678274509739
 20
339.2518332949383
 42
0.0
 97
        0
 92
        7
 72
     1
 73
     1
 93
        6
 10
88.72298791455795
 20
369.6004562659289
 42
0.0
 10
71.22298791455796
 20
369.6004562659289
 42
0.0
 10
72.85860031730567
 20
338.3911124409572
 42
0.3989595459737195
 10
76.85311845632395
 20
334.6004562659289
 42
0.0
 10
81.99555999508106
 20
334.6004562659289
 42
0.3888787318529896
 10
85.98033878744809
 20
338.2518332949383
 42
0.0
 97
        0
 75
     0
 76
     1
 52
-90.00000000000001
 41
1.0
 77
     0
 78
     1
 53
315.0
 43
71.22298791455796
 44
259.3623593425308
 45
2.245064030267288
 46
2.245064030267287
 79
     0
 47
0.3332794630270903
 98
        6
 10
228.497846714497
 20
344.9244961765103
 10
202.5020482894904
 20
352.9286965298719
 10
174.8398530319946
 20
348.5930877836548
 10
140.8453478914866
 20
347.9260706445817
 10
112.1833138946463
 20
349.2601049227276
 10
81.18832337254479
 20
348.9265963531912
  0
ARC
  5
1601
330
1F
100
AcDbEntity
  8
0
100
AcDbCircle
 10
238.7229879145579
 20
137.196672411072
 30
0.0
 40
2.5
100
AcDbArc
 50
0.0
 51
90.0
  0
ARC
  5
1604
330
1F
100
AcDbEntity
  8
0
100
AcDbCircle
 10
73.72298791455796
 20
137.196672411072
 30
0.0
 40
2.5
100
AcDbArc
 50
90.0
 51
180.0
  0
LINE
  5
164B
330
1F
100
AcDbEntity
  8
0
100
AcDbLine
 10
71.22298791455796
 20
369.6004562659289
 30
0.0
 11
72.85860031730567
 21
338.3911124409572
 31
0.0
  0
LINE
  5
1D7D
330
1F
100
AcDbEntity
  8
0
100
AcDbLine
 10
241.222987914558
 20
54.69667241107203
 30
0.0
 11
241.222987914558
 21
137.196672411072
 31
0.0
  0
LINE
  5
1D7F
330
1F
100
AcDbEntity
  8
7A
100
AcDbLine
 10
156.222987914558
 20
54.69667241107203
 30
0.0
 11
156.2229879145579
 21
139.696672411072
 31
0.0
  0
ARC
  5
1D91
330
1F
100
AcDbEntity
  8
Kontur
100
AcDbCircle
 10
156.2229879145579
 20
52.9996053977701
 30
0.0
 40
75.5
100
AcDbArc
 50
26.61464803832232
 51
43.79221176945651
  0
ARC
  5
1D94
330
1F
100
AcDbEntity
  8
Kontur
100
AcDbCircle
 10
156.2229879145579
 20
52.9996053977701
 30
0.0
 40
73.0
100
AcDbArc
 50
22.38322938373169
 51
41.70541205852042
  0
ARC
  5
1D95
330
1F
100
AcDbEntity
  8
Kontur
100
AcDbCircle
 10
156.2229879145579
 20
52.9996053977701
 30
0.0
 40
73.0
100
AcDbArc
 50
59.54964303015923
 51
68.56765160520748
  0
ARC
  5
1D98
330
1F
100
AcDbEntity
  8
Kontur
100
AcDbCircle
 10
156.2229879145579
 20
52.9996053977701
 30
0.0
 40
75.5
100
AcDbArc
 50
61.70708169743913
 51
66.41021293792807
  0
ARC
  5
1D99
330
1F
100
AcDbEntity
  8
Kontur
100
AcDbCircle
 10
156.2229879145579
 20
52.9996053977701
 30
0.0
 40
73.0
100
AcDbArc
 50
111.4323483947925
 51
120.4503569698407
  0
ARC
  5
1D9C
330
1F
100
AcDbEntity
  8
Kontur
100
AcDbCircle
 10
156.2229879145579
 20
52.9996053977701
 30
0.0
 40
75.5
100
AcDbArc
 50
113.5897870620719
 51
118.2929183025609
  0
ARC
  5
1D9D
330
1F
100
AcDbEntity
  8
Kontur
100
AcDbCircle
 10
156.2229879145579
 20
52.9996053977701
 30
0.0
 40
73.0
100
AcDbArc
 50
138.9932001197612
 51
157.6167706162683
  0
ARC
  5
1DA0
330
1F
100
AcDbEntity
  8
Kontur
100
AcDbCircle
 10
156.2229879145579
 20
52.9996053977701
 30
0.0
 40
75.5
100
AcDbArc
 50
138.5535918744304
 51
153.3853519616776
  0
INSERT
  5
1E1E
330
1F
100
AcDbEntity
  8
AM_0N
100
AcDbBlockReference
  2
*U8
 10
0.0
 20
0.0
 30
0.0
1001
GENIUS_GENOREF_13
1005
1E22
  0
LINE
  5
1E20
330
1F
100
AcDbEntity
  8
AM_INV
100
AcDbLine
 10
93.50653797121481
 20
117.4131223544151
 30
0.0
 11
82.89208241915435
 21
128.0275779064756
 31
0.0
1001
GENIUS_GENBH_13
1002
{
1000
OA
1000
0
1070
   256
1000
ByLayer
1005
10
1005
15
1071
       -1
1002
}
1001
GENIUS_GENOREF_13
1005
1E23
  0
POINT
  5
1E22
330
1F
100
AcDbEntity
  8
0
 60
     1
100
AcDbPoint
 10
0.0
 20
0.0
 30
0.0
1001
GENIUS_GENOENT_13
1002
{
1000
MYREF
1005
1E22
1002
}
1002
{
1000
GRP
1005
0
1002
}
1001
GENIUS_GENOLIS_13
1002
{
1000
ENT
1005
1E1E
1002
}
1001
GENIUS_GENODEF_13
1002
{
1000
HIER
1070
     1
1002
}
1002
{
1000
MANEDIT
1070
     0
1002
}
1002
{
1000
NOSEL
1070
     1
1002
}
1002
{
1000
BEHIND
1070
     0
1002
}
1002
{
1000
OTHER
1070
     0
1002
}
1002
{
1000
REACTOR
1002
}
1001
GENIUS_GENOBJ-NBEHI-BHF_13
1002
{
1000
OWNER
1000
genbehi
1002
}
1001
GENIUS_GENBH_13
1002
{
1000
BGZLEVEL
1070
    -1
1002
}
1002
{
1000
FGZLEVEL
1070
    -1
1002
}
1002
{
1000
OIUMAP
1000
OIU
1002
}
1002
{
1000
FLAGS
1070
    32
1002
}
1002
{
1000
BGO
1005
1E23
1002
}
  0
POINT
  5
1E23
330
1F
100
AcDbEntity
  8
0
 60
     1
100
AcDbPoint
 10
0.0
 20
0.0
 30
0.0
1001
GENIUS_GENOBJ-NBEHI-BHB_13
1002
{
1000
OWNER
1000
genbehi
1002
}
1001
GENIUS_GENOLIS_13
1002
{
1000
ENT
1005
1E21
1005
1E20
1005
1DBF
1002
}
1001
GENIUS_GENOENT_13
1002
{
1000
MYREF
1005
1E23
1002
}
1002
{
1000
GRP
1005
0
1002
}
1001
GENIUS_GENBH_13
1002
{
1000
FGO
1005
1E22
1002
}
1001
GENIUS_GENODEF_13
1002
{
1000
HIER
1070
     1
1002
}
1002
{
1000
MANEDIT
1070
     1
1002
}
1002
{
1000
NOSEL
1070
     1
1002
}
1002
{
1000
BEHIND
1070
     0
1002
}
1002
{
1000
OTHER
1070
     1
1002
}
1002
{
1000
REACTOR
1002
}
  0
INSERT
  5
1E25
102
{ACAD_REACTORS
330
1E24
102
}
330
1F
100
AcDbEntity
  8
AM_12N
100
AcDbBlockReference
  2
*S10
 10
0.0
 20
0.0
 30
0.0
  0
CIRCLE
  5
2047
330
1F
100
AcDbEntity
  8
0
100
AcDbCircle
 10
88.19931019518412
 20
121.0232831171438
 30
0.0
 40
11.5
  0
DIMENSION
  5
204B
330
1F
100
AcDbEntity
  8
AM_5
100
AcDbDimension
  2
*D3
 10
254.722987914558
 20
390.3646759136011
 30
0.0
 11
156.2229879145579
 21
399.364675913601
 31
0.0
 70
    32
  1
{\Famgdt;o}<>
 71
     5
 42
197.0
  3
AM_DIN$0
100
AcDbAlignedDimension
 13
57.72298791455796
 23
370.6004562659289
 33
0.0
 14
254.722987914558
 24
370.6004562659289
 34
0.0
 50
0.0000000000000114
100
AcDbRotatedDimension
1001
ACAD_DSTYLE_DIMINSPECT
1070
   396
1000
100%
1070
   395
1000

1070
   394
1070
    33
1070
   393
1070
     0
1001
ACAD
1000
DSTYLE
1002
{
1070
   140
1040
15.0
1002
}
  0
DIMENSION
  5
20AD
330
1F
100
AcDbEntity
  8
AM_5
100
AcDbDimension
  2
*D4
 10
316.2781525990379
 20
320.6004562659289
 30
0.0
 11
307.2781525990379
 21
345.600456265929
 31
0.0
 70
    32
 71
     5
 42
50.0
  3
AM_DIN$0
100
AcDbAlignedDimension
 13
254.722987914558
 23
370.6004562659289
 33
0.0
 14
286.222987914558
 24
320.6004562659289
 34
0.0
 50
90.0
100
AcDbRotatedDimension
1001
ACAD_DSTYLE_DIMINSPECT
1070
   396
1000
100%
1070
   395
1000

1070
   394
1070
    33
1070
   393
1070
     0
1001
ACAD
1000
DSTYLE
1002
{
1070
   140
1040
15.0
1002
}
  0
DIMENSION
  5
20F4
330
1F
100
AcDbEntity
  8
AM_5
100
AcDbDimension
  2
*D5
 10
334.8666322413872
 20
195.6004562659289
 30
0.0
 11
325.8666322413871
 21
283.100456265929
 31
0.0
 70
    32
 71
     5
 42
175.0
  3
AM_DIN$0
100
AcDbAlignedDimension
 13
254.722987914558
 23
370.6004562659289
 33
0.0
 14
235.6120606420704
 24
195.6004562659289
 34
0.0
 50
90.0
100
AcDbRotatedDimension
1001
ACAD_DSTYLE_DIMINSPECT
1070
   396
1000
100%
1070
   395
1000

1070
   394
1070
    33
1070
   393
1070
     0
1001
ACAD
1000
DSTYLE
1002
{
1070
   140
1040
15.0
1002
}
  0
LINE
  5
2195
330
1F
100
AcDbEntity
  8
AM_7
100
AcDbLine
 10
156.2229879145579
 20
188.0102214466512
 30
0.0
 11
156.2229879145579
 21
376.4205072251047
 31
0.0
1001
GENIUS_GENOBJ-N-CEN_13
1002
{
1000
OWNER
1000
GEN
1002
}
1001
GENIUS_GENODEF_13
1002
{
1000
HIER
1070
     0
1002
}
1002
{
1000
MANEDIT
1070
     0
1002
}
1002
{
1000
NOSEL
1070
     0
1002
}
1002
{
1000
BEHIND
1070
     0
1002
}
1002
{
1000
OTHER
1070
     0
1002
}
1002
{
1000
REACTOR
1002
}
1001
GENIUS_GENCEN_19
1002
{
1040
3.0
1002
}
  0
LINE
  5
21AE
330
1F
100
AcDbEntity
  8
AM_7
  6
AM_DIN_G_W050x2
100
AcDbLine
 10
41.22298791455796
 20
54.69667241107202
 30
0.0
 11
41.22298791455796
 21
64.44667241107203
 31
0.0
1001
GENIUS_GENOREF_13
1005
21B1
  0
LINE
  5
21B0
330
1F
100
AcDbEntity
  8
AM_7
  6
AM_DIN_G_W050x2
100
AcDbLine
 10
41.22298791455796
 20
54.69667241107202
 30
0.0
 11
41.22298791455796
 21
44.94667241107203
 31
0.0
1001
GENIUS_GENOREF_13
1005
21B1
  0
POINT
  5
21B1
330
1F
100
AcDbEntity
  8
0
 60
     1
100
AcDbPoint
 10
0.0
 20
0.0
 30
0.0
1001
GENIUS_GENOENT_13
1002
{
1000
MYREF
1005
21B1
1002
}
1002
{
1000
GRP
1005
0
1002
}
1001
GENIUS_GENOBJ-N-CRS_13
1002
{
1000
OWNER
1000
GEN
1002
}
1001
GENIUS_GENOLIS_13
1002
{
1000
ENT
1005
21B0
1005
21AF
1005
21AE
1005
21AD
1002
}
1001
GENIUS_GENODEF_13
1002
{
1000
HIER
1070
    10
1002
}
1002
{
1000
MANEDIT
1070
     1
1002
}
1002
{
1000
NOSEL
1070
     0
1002
}
1002
{
1000
BEHIND
1070
     0
1002
}
1002
{
1000
OTHER
1070
     0
1002
}
1002
{
1000
REACTOR
1002
}
  0
LINE
  5
21B6
330
1F
100
AcDbEntity
  8
AM_7
  6
AM_DIN_G_W050x2
100
AcDbLine
 10
271.222987914558
 20
54.69667241107202
 30
0.0
 11
50.97298791455796
 21
54.69667241107202
 31
0.0
1001
GENIUS_GENOREF_13
1005
21B8
  0
POINT
  5
21B8
330
1F
100
AcDbEntity
  8
0
 60
     1
100
AcDbPoint
 10
0.0
 20
0.0
 30
0.0
1001
GENIUS_GENOLIS_13
1002
{
1000
ENT
1005
21B7
1005
21B6
1005
21B5
1005
21B4
1002
}
1001
GENIUS_GENOENT_13
1002
{
1000
MYREF
1005
21B8
1002
}
1002
{
1000
GRP
1005
0
1002
}
1001
GENIUS_GENOBJ-N-CRS_13
1002
{
1000
OWNER
1000
GEN
1002
}
1001
GENIUS_GENODEF_13
1002
{
1000
HIER
1070
    10
1002
}
1002
{
1000
MANEDIT
1070
     1
1002
}
1002
{
1000
NOSEL
1070
     0
1002
}
1002
{
1000
BEHIND
1070
     0
1002
}
1002
{
1000
OTHER
1070
     0
1002
}
1002
{
1000
REACTOR
1002
}
  0
DIMENSION
  5
22AB
330
1F
100
AcDbEntity
  8
AM_5
100
AcDbDimension
  2
*D6
 10
45.72298791455795
 20
285.4900495888438
 30
0.0
 11
21.27659614921402
 21
295.6152935003357
 31
0.0
 70
   160
  1
%%c<>
 71
     5
 42
9.0
  3
AM_DIN$0
100
AcDbAlignedDimension
 13
36.72298791455796
 23
320.6004562659289
 33
0.0
 14
45.72298791455795
 24
320.6004562659289
 34
0.0
 50
0.000000000000215
100
AcDbRotatedDimension
1001
ACAD_DSTYLE_DIMINSPECT
1070
   396
1000
100%
1070
   395
1000

1070
   394
1070
    33
1070
   393
1070
     0
1001
ACAD
1000
DSTYLE
1002
{
1070
   140
1040
15.0
1070
   279
1070
     2
1002
}
  0
DIMENSION
  5
2494
330
1F
100
AcDbEntity
  8
AM_5
100
AcDbDimension
  2
*D7
 10
286.222987914558
 20
421.340008440431
 30
0.0
 11
164.3753407011486
 21
421.340008440431
 31
0.0
 70
   160
 71
     5
 42
260.0
  3
AM_DIN$0
100
AcDbAlignedDimension
 13
26.22298791455796
 23
320.6004562659289
 33
0.0
 14
286.222987914558
 24
320.6004562659289
 34
0.0
 50
0.000000000000215
100
AcDbRotatedDimension
1001
ACAD_DSTYLE_DIMINSPECT
1070
   396
1000
100%
1070
   395
1000

1070
   394
1070
    33
1070
   393
1070
     0
1001
ACAD
1000
DSTYLE
1002
{
1070
   140
1040
15.0
1002
}
  0
LINE
  5
2644
330
1F
100
AcDbEntity
  8
Kontur
100
AcDbLine
 10
59.8229879145581
 20
-41.70332758892794
 30
0.0
 11
252.6229879145581
 21
-41.70332758892794
 31
0.0
  0
LINE
  5
2645
330
1F
100
AcDbEntity
  8
Kontur
100
AcDbLine
 10
57.72298791455796
 20
-43.80332758892797
 30
0.0
 11
254.722987914558
 21
-43.80332758892797
 31
0.0
  0
CIRCLE
  5
2647
330
1F
100
AcDbEntity
  8
Kontur
100
AcDbCircle
 10
41.22298791455796
 20
54.69667241107202
 30
0.0
 40
4.5
  0
CIRCLE
  5
2648
330
1F
100
AcDbEntity
  8
Kontur
100
AcDbCircle
 10
41.22298791455796
 20
54.69667241107202
 30
0.0
 40
6.75
  0
LINE
  5
2649
330
1F
100
AcDbEntity
  8
Kontur
100
AcDbLine
 10
57.72298791455796
 20
14.69667241107203
 30
0.0
 11
30.67007364394294
 21
21.94547894279174
 31
0.0
  0
LINE
  5
264A
330
1F
100
AcDbEntity
  8
Kontur
100
AcDbLine
 10
57.8523974371094
 20
15.17963532421658
 30
0.0
 11
30.79948316649416
 21
22.42844185593623
 31
0.0
  0
LINE
  5
264B
330
1F
100
AcDbEntity
  8
Kontur
100
AcDbLine
 10
26.72298791455819
 20
27.74103390052613
 30
0.0
 11
26.72298791455796
 21
62.4539662722471
 31
0.0
  0
LINE
  5
264C
330
1F
100
AcDbEntity
  8
Kontur
100
AcDbLine
 10
26.22298791455819
 20
27.74103390052613
 30
0.0
 11
26.22298791455796
 21
62.57744615350958
 31
0.0
  0
LINE
  5
264D
330
1F
100
AcDbEntity
  8
Kontur
100
AcDbLine
 10
26.22298791455819
 20
27.74103390052613
 30
0.0
 11
26.22298791455796
 21
54.69667241107202
 31
0.0
  0
LINE
  5
264E
330
1F
100
AcDbEntity
  8
Kontur
100
AcDbLine
 10
26.72298791455819
 20
27.74103390052613
 30
0.0
 11
26.72298791455796
 21
54.69667241107202
 31
0.0
  0
ARC
  5
264F
330
1F
100
AcDbEntity
  8
Kontur
100
AcDbCircle
 10
32.22298791455819
 20
27.74103390052613
 30
0.0
 40
6.0
100
AcDbArc
 50
180.0
 51
254.9999999999988
  0
ARC
  5
2650
330
1F
100
AcDbEntity
  8
Kontur
100
AcDbCircle
 10
32.22298791455819
 20
27.74103390052613
 30
0.0
 40
5.5
100
AcDbArc
 50
180.0
 51
254.9999999999988
  0
LINE
  5
2651
330
1F
100
AcDbEntity
  8
Kontur
100
AcDbLine
 10
59.8229879145581
 20
-41.70332758892794
 30
0.0
 11
59.8229879145581
 21
64.10036139133632
 31
0.0
  0
LINE
  5
2652
330
1F
100
AcDbEntity
  8
Kontur
100
AcDbLine
 10
68.72302090125618
 20
-30.30332758892797
 30
0.0
 11
68.72302090125618
 21
54.69667241107202
 31
0.0
  0
LINE
  5
2653
330
1F
100
AcDbEntity
  8
Kontur
100
AcDbLine
 10
243.7229879145582
 20
-30.30332758892803
 30
0.0
 11
243.7229879145577
 21
54.69667241107202
 31
0.0
  0
LINE
  5
2654
330
1F
100
AcDbEntity
  8
Kontur
100
AcDbLine
 10
242.9200549278601
 20
-29.50332758892796
 30
0.0
 11
242.9200549278601
 21
54.69667241107202
 31
0.0
  0
LINE
  5
2655
330
1F
100
AcDbEntity
  8
Kontur
100
AcDbLine
 10
69.52592090125609
 20
-29.50332758892796
 30
0.0
 11
69.52592090125607
 21
54.69667241107202
 31
0.0
  0
ARC
  5
2656
330
1F
100
AcDbEntity
  8
Kontur
100
AcDbCircle
 10
156.2229879145579
 20
56.39373942437396
 30
0.0
 40
75.5
100
AcDbArc
 50
318.5535918744318
 51
333.3853519616778
  0
ARC
  5
2657
330
1F
100
AcDbEntity
  8
Kontur
100
AcDbCircle
 10
156.2229879145579
 20
56.39373942437396
 30
0.0
 40
75.5
100
AcDbArc
 50
293.5897870620721
 51
298.2929183025609
  0
ARC
  5
2658
330
1F
100
AcDbEntity
  8
Kontur
100
AcDbCircle
 10
156.2229879145579
 20
56.39373942437396
 30
0.0
 40
75.5
100
AcDbArc
 50
241.7070816974391
 51
246.4102129379279
  0
ARC
  5
2659
330
1F
100
AcDbEntity
  8
Kontur
100
AcDbCircle
 10
156.2229879145579
 20
56.39373942437396
 30
0.0
 40
75.5
100
AcDbArc
 50
206.6146480383222
 51
221.4464081255694
  0
ARC
  5
265A
330
1F
100
AcDbEntity
  8
Kontur
100
AcDbCircle
 10
156.2229879145579
 20
56.39373942437396
 30
0.0
 40
73.0
100
AcDbArc
 50
318.9932001197596
 51
337.6167706162683
  0
ARC
  5
265B
330
1F
100
AcDbEntity
  8
Kontur
100
AcDbCircle
 10
156.2229879145579
 20
56.39373942437396
 30
0.0
 40
73.0
100
AcDbArc
 50
291.4323483947925
 51
300.4503569698406
  0
ARC
  5
265C
330
1F
100
AcDbEntity
  8
Kontur
100
AcDbCircle
 10
156.2229879145579
 20
56.39373942437396
 30
0.0
 40
73.0
100
AcDbArc
 50
239.5496430301593
 51
248.5676516052075
  0
ARC
  5
265D
330
1F
100
AcDbEntity
  8
Kontur
100
AcDbCircle
 10
156.2229879145579
 20
56.39373942437396
 30
0.0
 40
73.0
100
AcDbArc
 50
202.3832293837317
 51
221.0067998802389
  0
LINE
  5
265E
330
1F
100
AcDbEntity
  8
Kontur
100
AcDbLine
 10
59.8229879145581
 20
-41.70332758892794
 30
0.0
 11
59.8229879145581
 21
54.69667241107202
 31
0.0
  0
LINE
  5
265F
330
1F
100
AcDbEntity
  8
Kontur
100
AcDbLine
 10
57.72298791455796
 20
-43.80332758892797
 30
0.0
 11
57.72298791455796
 21
15.21431050127705
 31
0.0
  0
LINE
  5
2660
330
1F
100
AcDbEntity
  8
BEMASS
100
AcDbLine
 10
58.44311460877839
 20
64.18268131217786
 30
0.0
 11
58.44311460877839
 21
15.29912130381086
 31
0.0
  0
LINE
  5
2661
330
1F
100
AcDbEntity
  8
BEMASS
100
AcDbLine
 10
58.44311460877839
 20
54.69667241107202
 30
0.0
 11
58.44311460877839
 21
15.29912130381086
 31
0.0
  0
LINE
  5
2662
330
1F
100
AcDbEntity
  8
Kontur
100
AcDbLine
 10
71.22302090125618
 20
-32.80332758892797
 30
0.0
 11
241.222987914558
 21
-32.80332758892797
 31
0.0
  0
LINE
  5
2663
330
1F
100
AcDbEntity
  8
Kontur
100
AcDbLine
 10
72.02592090125609
 20
-32.00332758892796
 30
0.0
 11
240.4200549278601
 21
-32.00332758892796
 31
0.0
  0
LINE
  5
2664
330
1F
100
AcDbEntity
  8
Kontur
100
AcDbLine
 10
59.8229879145581
 20
-41.70332758892794
 30
0.0
 11
57.72298791455796
 21
-43.80332758892797
 31
0.0
  0
ARC
  5
2665
330
1F
100
AcDbEntity
  8
Kontur
100
AcDbCircle
 10
72.02592090125609
 20
-29.50332758892796
 30
0.0
 40
2.5
100
AcDbArc
 50
180.0
 51
270.0
  0
ARC
  5
2666
330
1F
100
AcDbEntity
  8
Kontur
100
AcDbCircle
 10
71.22302090125618
 20
-30.30332758892797
 30
0.0
 40
2.5
100
AcDbArc
 50
180.0
 51
270.0
  0
ARC
  5
2667
330
1F
100
AcDbEntity
  8
Kontur
100
AcDbCircle
 10
240.4200549278601
 20
-29.50332758892796
 30
0.0
 40
2.5
100
AcDbArc
 50
270.0
 51
0.0
  0
ARC
  5
2668
330
1F
100
AcDbEntity
  8
Kontur
100
AcDbCircle
 10
241.2229879145582
 20
-30.30332758892803
 30
0.0
 40
2.5
100
AcDbArc
 50
270.0
 51
0.0
  0
LINE
  5
2669
330
1F
100
AcDbEntity
  8
Kontur
100
AcDbLine
 10
252.6229879145581
 20
-41.70332758892794
 30
0.0
 11
252.6229879145581
 21
64.10036139133632
 31
0.0
  0
LINE
  5
266A
330
1F
100
AcDbEntity
  8
Kontur
100
AcDbLine
 10
254.722987914558
 20
-43.80332758892797
 30
0.0
 11
254.722987914558
 21
15.21431050127705
 31
0.0
  0
LINE
  5
266B
330
1F
100
AcDbEntity
  8
BEMASS
100
AcDbLine
 10
254.0028612203378
 20
64.18268131217786
 30
0.0
 11
254.0028612203378
 21
15.29912130381086
 31
0.0
  0
LINE
  5
266C
330
1F
100
AcDbEntity
  8
Kontur
100
AcDbLine
 10
285.722987914558
 20
27.74103390052613
 30
0.0
 11
285.722987914558
 21
62.4539662722471
 31
0.0
  0
LINE
  5
266D
330
1F
100
AcDbEntity
  8
Kontur
100
AcDbLine
 10
286.222987914558
 20
27.74103390052613
 30
0.0
 11
286.222987914558
 21
62.57744615350958
 31
0.0
  0
CIRCLE
  5
266F
330
1F
100
AcDbEntity
  8
Kontur
100
AcDbCircle
 10
271.222987914558
 20
54.69667241107202
 30
0.0
 40
4.5
  0
CIRCLE
  5
2670
330
1F
100
AcDbEntity
  8
Kontur
100
AcDbCircle
 10
271.222987914558
 20
54.69667241107202
 30
0.0
 40
6.75
  0
LINE
  5
2671
330
1F
100
AcDbEntity
  8
Kontur
100
AcDbLine
 10
254.5935783920068
 20
15.17963532421658
 30
0.0
 11
281.6464926626218
 21
22.42844185593623
 31
0.0
  0
LINE
  5
2672
330
1F
100
AcDbEntity
  8
Kontur
100
AcDbLine
 10
254.722987914558
 20
14.69667241107203
 30
0.0
 11
281.7759021851732
 21
21.94547894279174
 31
0.0
  0
ARC
  5
2673
330
1F
100
AcDbEntity
  8
Kontur
100
AcDbCircle
 10
280.2229879145579
 20
27.74103390052613
 30
0.0
 40
6.0
100
AcDbArc
 50
285.0000000000012
 51
0.0
  0
ARC
  5
2674
330
1F
100
AcDbEntity
  8
Kontur
100
AcDbCircle
 10
280.2229879145579
 20
27.74103390052613
 30
0.0
 40
5.5
100
AcDbArc
 50
285.0000000000012
 51
0.0
  0
LINE
  5
2675
330
1F
100
AcDbEntity
  8
Kontur
100
AcDbLine
 10
252.6229879145581
 20
-41.70332758892794
 30
0.0
 11
254.722987914558
 21
-43.80332758892797
 31
0.0
  0
LINE
  5
2676
330
1F
100
AcDbEntity
  8
7A
100
AcDbLine
 10
67.88177812687241
 20
54.69667241107202
 30
0.0
 11
247.4353793781804
 21
54.69667241107202
 31
0.0
  0
LINE
  5
2677
330
1F
100
AcDbEntity
  8
7A
100
AcDbLine
 10
156.222987914558
 20
54.69667241107202
 30
0.0
 11
156.2229879145579
 21
-30.30332758892797
 31
0.0
  0
LINE
  5
2678
330
1F
100
AcDbEntity
  8
7A
100
AcDbLine
 10
156.2229879145579
 20
-30.30332758892797
 30
0.0
 11
156.2229879145579
 21
-44.80111012300295
 31
0.0
  0
LINE
  5
2679
330
1F
100
AcDbEntity
  8
0
100
AcDbLine
 10
71.22298791455796
 20
-27.80332758892797
 30
0.0
 11
71.22298791455796
 21
54.69667241107202
 31
0.0
  0
LINE
  5
267A
330
1F
100
AcDbEntity
  8
0
100
AcDbLine
 10
241.222987914558
 20
54.69667241107202
 30
0.0
 11
241.222987914558
 21
-27.80332758892797
 31
0.0
  0
LINE
  5
267B
330
1F
100
AcDbEntity
  8
0
100
AcDbLine
 10
238.7229879145579
 20
-30.30332758892797
 30
0.0
 11
73.72298791455796
 21
-30.30332758892797
 31
0.0
  0
LINE
  5
267E
330
1F
100
AcDbEntity
  8
0
100
AcDbLine
 10
193.2229879145579
 20
-6.30332758892797
 30
0.0
 11
193.2229879145579
 21
54.69667241107202
 31
0.0
  0
LINE
  5
267F
330
1F
100
AcDbEntity
  8
0
100
AcDbLine
 10
180.2229879145579
 20
-6.30332758892797
 30
0.0
 11
180.2229879145579
 21
54.69667241107202
 31
0.0
  0
LINE
  5
2680
330
1F
100
AcDbEntity
  8
0
100
AcDbLine
 10
162.7229879145579
 20
-6.30332758892797
 30
0.0
 11
162.7229879145579
 21
54.69667241107202
 31
0.0
  0
ARC
  5
2681
330
1F
100
AcDbEntity
  8
0
100
AcDbCircle
 10
156.2229879145579
 20
-6.30332758892797
 30
0.0
 40
6.5
100
AcDbArc
 50
270.0
 51
0.0
  0
ARC
  5
2682
330
1F
100
AcDbEntity
  8
0
100
AcDbCircle
 10
186.7229879145579
 20
-6.30332758892797
 30
0.0
 40
6.499999999999992
100
AcDbArc
 50
180.0
 51
0.0
  0
ARC
  5
2684
330
1F
100
AcDbEntity
  8
0
100
AcDbCircle
 10
156.2229879145579
 20
-6.30332758892797
 30
0.0
 40
6.5
100
AcDbArc
 50
180.0
 51
270.0
  0
LINE
  5
2685
330
1F
100
AcDbEntity
  8
0
100
AcDbLine
 10
119.2229879145579
 20
-6.30332758892797
 30
0.0
 11
119.2229879145579
 21
54.69667241107202
 31
0.0
  0
LINE
  5
2686
330
1F
100
AcDbEntity
  8
0
100
AcDbLine
 10
132.2229879145579
 20
-6.30332758892797
 30
0.0
 11
132.2229879145579
 21
54.69667241107202
 31
0.0
  0
LINE
  5
2687
330
1F
100
AcDbEntity
  8
0
100
AcDbLine
 10
149.7229879145579
 20
-6.30332758892797
 30
0.0
 11
149.7229879145579
 21
54.69667241107202
 31
0.0
  0
ARC
  5
2688
330
1F
100
AcDbEntity
  8
0
100
AcDbCircle
 10
125.7229879145579
 20
-6.30332758892797
 30
0.0
 40
6.499999999999992
100
AcDbArc
 50
180.0
 51
0.0
  0
LINE
  5
2689
330
1F
100
AcDbEntity
  8
0
100
AcDbLine
 10
88.72298791455795
 20
11.19667241107203
 30
0.0
 11
88.72298791455795
 21
54.69667241107202
 31
0.0
  0
LINE
  5
268A
330
1F
100
AcDbEntity
  8
0
100
AcDbLine
 10
101.7229879145579
 20
11.19667241107203
 30
0.0
 11
101.7229879145579
 21
54.69667241107202
 31
0.0
  0
ARC
  5
268B
330
1F
100
AcDbEntity
  8
0
100
AcDbCircle
 10
95.22298791455796
 20
11.19667241107203
 30
0.0
 40
6.5
100
AcDbArc
 50
180.0
 51
0.0
  0
ARC
  5
268C
330
1F
100
AcDbEntity
  8
0
100
AcDbCircle
 10
238.7229879145579
 20
-27.80332758892797
 30
0.0
 40
2.5
100
AcDbArc
 50
270.0
 51
0.0
  0
ARC
  5
268D
330
1F
100
AcDbEntity
  8
0
100
AcDbCircle
 10
73.72298791455796
 20
-27.80332758892797
 30
0.0
 40
2.5
100
AcDbArc
 50
180.0
 51
270.0
  0
LINE
  5
268F
330
1F
100
AcDbEntity
  8
AM_INV
100
AcDbLine
 10
93.50653797121481
 20
-8.019777532271064
 30
0.0
 11
82.89208241915435
 21
-18.63423308433158
 31
0.0
1001
GENIUS_GENBH_13
1002
{
1000
OA
1000
0
1070
   256
1000
ByLayer
1005
10
1005
15
1071
       -1
1002
}
1001
GENIUS_GENOREF_13
1005
269D
  0
LINE
  5
2694
330
1F
100
AcDbEntity
  8
AM_7
  6
AM_DIN_G_W050x2
100
AcDbLine
 10
41.22298791455796
 20
54.69667241107202
 30
0.0
 11
41.22298791455796
 21
44.94667241107203
 31
0.0
1001
GENIUS_GENOREF_13
1005
269C
  0
LINE
  5
2696
330
1F
100
AcDbEntity
  8
AM_7
  6
AM_DIN_G_W050x2
100
AcDbLine
 10
41.22298791455796
 20
54.69667241107202
 30
0.0
 11
41.22298791455796
 21
64.44667241107203
 31
0.0
1001
GENIUS_GENOREF_13
1005
269C
  0
LINE
  5
2699
330
1F
100
AcDbEntity
  8
AM_7
  6
AM_DIN_G_W050x2
100
AcDbLine
 10
288.288164967343
 20
54.69667241107202
 30
0.0
 11
20.95599737485589
 21
54.69667241107202
 31
0.0
1001
GENIUS_GENOREF_13
1005
269B
  0
POINT
  5
269B
330
1F
100
AcDbEntity
  8
0
 60
     1
100
AcDbPoint
 10
0.0
 20
109.393344822144
 30
0.0
1001
GENIUS_GENOLIS_13
1002
{
1000
ENT
1005
269A
1005
2699
1005
2698
1005
2697
1002
}
1001
GENIUS_GENOENT_13
1002
{
1000
MYREF
1005
269B
1002
}
1002
{
1000
GRP
1005
0
1002
}
1001
GENIUS_GENOBJ-N-CRS_13
1002
{
1000
OWNER
1000
GEN
1002
}
1001
GENIUS_GENODEF_13
1002
{
1000
HIER
1070
    10
1002
}
1002
{
1000
MANEDIT
1070
     1
1002
}
1002
{
1000
NOSEL
1070
     0
1002
}
1002
{
1000
BEHIND
1070
     0
1002
}
1002
{
1000
OTHER
1070
     0
1002
}
1002
{
1000
REACTOR
1002
}
  0
POINT
  5
269C
330
1F
100
AcDbEntity
  8
0
 60
     1
100
AcDbPoint
 10
0.0
 20
109.393344822144
 30
0.0
1001
GENIUS_GENOENT_13
1002
{
1000
MYREF
1005
269C
1002
}
1002
{
1000
GRP
1005
0
1002
}
1001
GENIUS_GENOBJ-N-CRS_13
1002
{
1000
OWNER
1000
GEN
1002
}
1001
GENIUS_GENOLIS_13
1002
{
1000
ENT
1005
2696
1005
2695
1005
2694
1005
2693
1002
}
1001
GENIUS_GENODEF_13
1002
{
1000
HIER
1070
    10
1002
}
1002
{
1000
MANEDIT
1070
     1
1002
}
1002
{
1000
NOSEL
1070
     0
1002
}
1002
{
1000
BEHIND
1070
     0
1002
}
1002
{
1000
OTHER
1070
     0
1002
}
1002
{
1000
REACTOR
1002
}
  0
POINT
  5
269D
330
1F
100
AcDbEntity
  8
0
 60
     1
100
AcDbPoint
 10
0.0
 20
109.393344822144
 30
0.0
1001
GENIUS_GENOBJ-NBEHI-BHB_13
1002
{
1000
OWNER
1000
genbehi
1002
}
1001
GENIUS_GENOLIS_13
1002
{
1000
ENT
1005
0
1005
268F
1005
0
1002
}
1001
GENIUS_GENOENT_13
1002
{
1000
MYREF
1005
269D
1002
}
1002
{
1000
GRP
1005
0
1002
}
1001
GENIUS_GENBH_13
1002
{
1000
FGO
1005
269E
1002
}
1001
GENIUS_GENODEF_13
1002
{
1000
HIER
1070
     1
1002
}
1002
{
1000
MANEDIT
1070
     1
1002
}
1002
{
1000
NOSEL
1070
     1
1002
}
1002
{
1000
BEHIND
1070
     0
1002
}
1002
{
1000
OTHER
1070
     1
1002
}
1002
{
1000
REACTOR
1002
}
  0
INSERT
  5
26A1
330
1F
100
AcDbEntity
  8
AM_0N
100
AcDbBlockReference
  2
*U9
 10
0.0
 20
0.0
 30
0.0
1001
GENIUS_GENOREF_13
1005
26A7
  0
LINE
  5
26A2
330
1F
100
AcDbEntity
  8
AM_INV
100
AcDbLine
 10
218.9394378579011
 20
-8.019777532271064
 30
0.0
 11
229.5538934099616
 21
-18.63423308433158
 31
0.0
1001
GENIUS_GENBH_13
1002
{
1000
OA
1000
0
1070
   256
1000
ByLayer
1005
10
1005
15
1071
       -1
1002
}
1001
GENIUS_GENOREF_13
1005
26A6
  0
INSERT
  5
26A3
102
{ACAD_REACTORS
330
1E24
102
}
330
1F
100
AcDbEntity
  8
AM_12N
100
AcDbBlockReference
  2
*S11
 10
0.0
 20
0.0
 30
0.0
  0
CIRCLE
  5
26A5
330
1F
100
AcDbEntity
  8
0
100
AcDbCircle
 10
224.2466656339318
 20
-11.62993829499976
 30
0.0
 40
11.5
  0
POINT
  5
26A6
330
1F
100
AcDbEntity
  8
0
 60
     1
100
AcDbPoint
 10
312.4459758291159
 20
109.393344822144
 30
0.0
 50
180.0
1001
GENIUS_GENOBJ-NBEHI-BHB_13
1002
{
1000
OWNER
1000
genbehi
1002
}
1001
GENIUS_GENOLIS_13
1002
{
1000
ENT
1005
0
1005
26A2
1005
0
1002
}
1001
GENIUS_GENOENT_13
1002
{
1000
MYREF
1005
26A6
1002
}
1002
{
1000
GRP
1005
0
1002
}
1001
GENIUS_GENBH_13
1002
{
1000
FGO
1005
26A7
1002
}
1001
GENIUS_GENODEF_13
1002
{
1000
HIER
1070
     1
1002
}
1002
{
1000
MANEDIT
1070
     1
1002
}
1002
{
1000
NOSEL
1070
     1
1002
}
1002
{
1000
BEHIND
1070
     0
1002
}
1002
{
1000
OTHER
1070
     1
1002
}
1002
{
1000
REACTOR
1002
}
  0
POINT
  5
26A7
330
1F
100
AcDbEntity
  8
0
 60
     1
100
AcDbPoint
 10
312.4459758291159
 20
109.393344822144
 30
0.0
 50
180.0
1001
GENIUS_GENOENT_13
1002
{
1000
MYREF
1005
26A7
1002
}
1002
{
1000
GRP
1005
0
1002
}
1001
GENIUS_GENOLIS_13
1002
{
1000
ENT
1005
26A1
1002
}
1001
GENIUS_GENODEF_13
1002
{
1000
HIER
1070
     1
1002
}
1002
{
1000
MANEDIT
1070
     0
1002
}
1002
{
1000
NOSEL
1070
     1
1002
}
1002
{
1000
BEHIND
1070
     0
1002
}
1002
{
1000
OTHER
1070
     0
1002
}
1002
{
1000
REACTOR
1002
}
1001
GENIUS_GENOBJ-NBEHI-BHF_13
1002
{
1000
OWNER
1000
genbehi
1002
}
1001
GENIUS_GENBH_13
1002
{
1000
BGZLEVEL
1070
    -1
1002
}
1002
{
1000
FGZLEVEL
1070
    -1
1002
}
1002
{
1000
OIUMAP
1000
OIU
1002
}
1002
{
1000
FLAGS
1070
    32
1002
}
1002
{
1000
BGO
1005
26A6
1002
}
  0
LINE
  5
26A9
330
1F
100
AcDbEntity
  8
0
100
AcDbLine
 10
223.722987914558
 20
11.19667241107203
 30
0.0
 11
223.722987914558
 21
54.69667241107202
 31
0.0
  0
LINE
  5
26AA
330
1F
100
AcDbEntity
  8
0
100
AcDbLine
 10
210.722987914558
 20
11.19667241107203
 30
0.0
 11
210.722987914558
 21
54.69667241107202
 31
0.0
  0
ARC
  5
26AB
330
1F
100
AcDbEntity
  8
0
100
AcDbCircle
 10
217.222987914558
 20
11.19667241107203
 30
0.0
 40
6.5
100
AcDbArc
 50
180.0
 51
0.000000000000007
  0
ENDSEC
  0
SECTION
  2
OBJECTS
  0
DICTIONARY
  5
C
330
0
100
AcDbDictionary
281
     1
  3
ACAD_2007HEADERVARS_RT
350
275F
  3
ACAD_BACKGROUND
350
25C9
  3
ACAD_COLOR
350
9B
  3
ACAD_GROUP
350
D
  3
ACAD_IMAGE_DICT
350
752
  3
ACAD_IMAGE_VARS
350
763
  3
ACAD_LAYOUT
350
1A
  3
ACAD_MATERIAL
350
9A
  3
ACAD_MLEADERSTYLE
350
15D
  3
ACAD_MLINESTYLE
350
17
  3
ACAD_PLOTSETTINGS
350
19
  3
ACAD_PLOTSTYLENAME
350
E
  3
ACAD_SCALELIST
350
13B
  3
ACAD_TABLESTYLE
350
9C
  3
ACAD_VISUALSTYLE
350
12A
  3
ACDB_RECOMPOSE_DATA
350
169
  3
AcDbVariableDictionary
350
34
  3
AcmDictionary
350
47
  3
AEC_PROPERTY_SET_DEFS
350
21C7
  3
AMG
350
2B
  3
AMGSNAPSETTINGS
350
757
  0
DICTIONARY
  5
55B
330
2
100
AcDbDictionary
280
     1
281
     1
  3
ACAD_LAYERSTATES
360
55C
  0
DICTIONARY
  5
165
330
10
100
AcDbDictionary
280
     1
281
     1
  3
ADSK_XREC_LAYER_RECONCILED
360
166
  0
DICTIONARY
  5
529
330
528
100
AcDbDictionary
280
     1
281
     1
  0
DICTIONARY
  5
52B
330
52A
100
AcDbDictionary
280
     1
281
     1
  0
DICTIONARY
  5
52D
330
52C
100
AcDbDictionary
280
     1
281
     1
  0
DICTIONARY
  5
533
330
532
100
AcDbDictionary
280
     1
281
     1
  0
DICTIONARY
  5
10AD
330
10AC
100
AcDbDictionary
280
     1
281
     1
  0
DICTIONARY
  5
10AF
330
10AE
100
AcDbDictionary
280
     1
281
     1
  0
DICTIONARY
  5
81
330
1F
100
AcDbDictionary
280
     1
281
     1
  3
ACAD_SORTENTS
360
1D7E
  0
DICTIONARY
  5
275F
102
{ACAD_REACTORS
330
C
102
}
330
C
100
AcDbDictionary
281
     1
  3
DIMJOGANG
350
2760
  0
DICTIONARY
  5
25C9
102
{ACAD_REACTORS
330
C
102
}
330
C
100
AcDbDictionary
281
     1
  0
DICTIONARY
  5
9B
102
{ACAD_REACTORS
330
C
102
}
330
C
100
AcDbDictionary
281
     1
  0
DICTIONARY
  5
D
102
{ACAD_REACTORS
330
C
102
}
330
C
100
AcDbDictionary
281
     1
  0
DICTIONARY
  5
752
102
{ACAD_REACTORS
330
C
102
}
330
C
100
AcDbDictionary
281
     1
  3
ACO-Logo
350
753
  0
RASTERVARIABLES
  5
763
102
{ACAD_REACTORS
330
C
102
}
330
C
100
AcDbRasterVariables
 90
        0
 70
     1
 71
     1
 72
     1
  0
DICTIONARY
  5
1A
102
{ACAD_REACTORS
330
C
102
}
330
C
100
AcDbDictionary
281
     1
  3
Layout1
350
1E
  3
Layout2
350
26
  3
Model
350
22
  0
DICTIONARY
  5
9A
102
{ACAD_REACTORS
330
C
102
}
330
C
100
AcDbDictionary
281
     1
  3
ByBlock
350
11A
  3
ByLayer
350
112
  3
Global
350
122
  0
DICTIONARY
  5
15D
102
{ACAD_REACTORS
330
C
102
}
330
C
100
AcDbDictionary
281
     1
  3
Standard
350
15E
  0
DICTIONARY
  5
17
102
{ACAD_REACTORS
330
C
102
}
330
C
100
AcDbDictionary
281
     1
  3
Standard
350
18
  0
DICTIONARY
  5
19
102
{ACAD_REACTORS
330
C
102
}
330
C
100
AcDbDictionary
281
     1
  0
ACDBDICTIONARYWDFLT
  5
E
102
{ACAD_REACTORS
330
C
102
}
330
C
100
AcDbDictionary
281
     1
  3
Normal
350
F
100
AcDbDictionaryWithDefault
340
F
  0
DICTIONARY
  5
13B
102
{ACAD_REACTORS
330
C
102
}
330
C
100
AcDbDictionary
281
     1
  3
A0
350
13C
  3
A1
350
13D
  3
A2
350
13E
  3
A3
350
13F
  3
A4
350
140
  3
A5
350
141
  3
A6
350
142
  3
A7
350
143
  3
A8
350
144
  3
A9
350
145
  3
B0
350
146
  3
B1
350
147
  3
B2
350
148
  3
B3
350
149
  3
B4
350
14A
  3
B5
350
14B
  3
B6
350
14C
  3
B7
350
14D
  3
B8
350
14E
  3
B9
350
14F
  3
C0
350
150
  3
C1
350
151
  3
C2
350
152
  3
C3
350
153
  3
C4
350
154
  3
C5
350
155
  3
C6
350
156
  3
C7
350
157
  3
C8
350
158
  3
C9
350
159
  3
D0
350
15A
  3
D1
350
15B
  3
D2
350
15C
  0
DICTIONARY
  5
9C
102
{ACAD_REACTORS
330
C
102
}
330
C
100
AcDbDictionary
281
     1
  3
Standard
350
9D
  0
DICTIONARY
  5
12A
102
{ACAD_REACTORS
330
C
102
}
330
C
100
AcDbDictionary
281
     1
  3
2dWireframe
350
130
  3
3D Hidden
350
132
  3
3dWireframe
350
131
  3
Basic
350
12F
  3
Brighten
350
136
  3
ColorChange
350
13A
  3
Conceptual
350
133
  3
Dim
350
135
  3
Facepattern
350
139
  3
Flat
350
12B
  3
FlatWithEdges
350
12C
  3
Gouraud
350
12D
  3
GouraudWithEdges
350
12E
  3
Linepattern
350
138
  3
Realistic
350
134
  3
Thicken
350
137
  0
XRECORD
  5
169
102
{ACAD_REACTORS
330
C
102
}
330
C
100
AcDbXrecord
280
     1
 90
        1
330
9D
330
22AB
  0
DICTIONARY
  5
34
102
{ACAD_REACTORS
330
C
102
}
330
C
100
AcDbDictionary
281
     1
  3
CANNOSCALE
350
16C
  3
CMLEADERSTYLE
350
16A
  3
CTABLESTYLE
350
10F
  3
INDEXCTL
350
35
  3
LAYEREVAL
350
216F
  3
LAYERNOTIFY
350
2170
  3
LIGHTINGUNITS
350
16D
  3
MSLTSCALE
350
16B
  0
DICTIONARY
  5
47
102
{ACAD_REACTORS
330
C
102
}
330
C
100
AcDbDictionary
281
     1
  3
AcmStdDictionary
350
4C
  3
AMDTSECTSYM_ARROWCOLOR
350
F5
  0
DICTIONARY
  5
21C7
102
{ACAD_REACTORS
330
C
102
}
330
C
100
AcDbDictionary
281
     1
  0
DICTIONARY
  5
2B
102
{ACAD_REACTORS
330
C
102
}
330
C
100
AcDbDictionary
281
     1
  0
DICTIONARY
  5
757
102
{ACAD_REACTORS
330
C
102
}
330
C
100
AcDbDictionary
281
     1
  0
DICTIONARY
  5
55C
102
{ACAD_REACTORS
330
55B
102
}
330
55B
100
AcDbDictionary
281
     1
  0
XRECORD
  5
166
102
{ACAD_REACTORS
330
165
102
}
330
165
100
AcDbXrecord
280
     1
290
     1
  0
SORTENTSTABLE
  5
1D7E
102
{ACAD_REACTORS
330
81
102
}
330
81
100
AcDbSortentsTable
330
1F
331
140C
  5
140C
331
1463
  5
1481
331
1408
  5
1408
331
14BD
  5
1524
331
15FF
  5
1D9F
331
15FB
  5
1D9B
331
15B8
  5
15D2
331
145B
  5
147E
331
1457
  5
147B
331
13FC
  5
13FC
331
15F7
  5
1D97
331
15B4
  5
15CF
331
15F3
  5
1D93
331
1524
  5
1597
331
148D
  5
151A
331
15EF
  5
1D7D
331
1520
  5
1593
331
1489
  5
14C8
331
15EB
  5
1603
331
144F
  5
1478
331
13F0
  5
13F0
331
1433
  5
145A
331
13E8
  5
13E8
331
151C
  5
158F
331
1485
  5
14C1
331
15E7
  5
15FE
331
1481
  5
14BD
331
147D
  5
1494
331
15DF
  5
15F7
331
14D0
  5
158D
331
1479
  5
148E
331
15DB
  5
15F3
331
21B6
  5
21B6
331
1E20
  5
1E20
331
142B
  5
1456
331
13DC
  5
13DC
331
13D8
  5
13D8
331
1475
  5
148C
331
14C8
  5
158B
331
146D
  5
1489
331
15C7
  5
15E5
331
14C0
  5
1586
331
15C3
  5
15E0
331
21AE
  5
21AE
331
204B
  5
204B
331
140B
  5
140B
331
1462
  5
1480
331
14BC
  5
1523
331
15BF
  5
15DC
331
14B4
  5
1522
331
15FE
  5
1D9E
331
15BB
  5
15D7
331
2047
  5
2047
331
15FA
  5
1D9A
331
1407
  5
1407
331
145A
  5
147D
331
1456
  5
147A
331
13FB
  5
13FB
331
1494
  5
1520
331
15F6
  5
1D96
331
1490
  5
151E
331
15F2
  5
1D92
331
1523
  5
1596
331
148C
  5
14D0
331
15EE
  5
1664
331
1D9D
  5
1447
331
1488
  5
14C6
331
15EA
  5
1602
331
1D99
  5
1446
331
144E
  5
1475
331
13F3
  5
13F3
331
1432
  5
1459
331
151F
  5
1592
331
15E6
  5
15FD
331
1D95
  5
1444
331
1480
  5
14BC
331
15E2
  5
15FA
331
1D91
  5
142C
331
147C
  5
1493
331
15DE
  5
15F6
331
1D7D
  5
15D8
331
1478
  5
148D
331
15DA
  5
15F2
331
13E7
  5
13E7
331
142A
  5
1450
331
13DB
  5
13DB
331
1474
  5
148B
331
146C
  5
1488
331
15C6
  5
15E4
331
1468
  5
1486
331
15C2
  5
15DF
331
1416
  5
144A
331
13D7
  5
13D7
331
1465
  5
1483
331
1461
  5
147F
331
1601
  5
1DA0
331
15BE
  5
15D9
331
15BA
  5
15D6
331
15FD
  5
1D9D
331
14B3
  5
1521
331
15F9
  5
1D99
331
2195
  5
2195
331
1406
  5
1406
331
1402
  5
1402
331
1459
  5
147C
331
13FE
  5
13FE
331
15F5
  5
1D95
331
1493
  5
151F
331
15F1
  5
1D91
331
1DA0
  5
1434
331
148F
  5
151D
331
15ED
  5
164B
331
1D9C
  5
1433
331
1522
  5
1595
331
15E9
  5
1601
331
1D98
  5
1432
331
13F2
  5
13F2
331
151E
  5
1591
331
1487
  5
14C5
331
15E5
  5
15FC
331
1D94
  5
1440
331
151A
  5
158E
331
15E1
  5
15F9
331
147F
  5
14B4
331
15DD
  5
15F5
331
147B
  5
1490
331
15D9
  5
15F1
331
21B0
  5
21B0
331
13E6
  5
13E6
331
1419
  5
144C
331
14C6
  5
158A
331
146B
  5
1487
331
20AD
  5
20AD
331
1E1E
  5
1E1E
331
15C5
  5
15E2
331
15C1
  5
15DE
331
1415
  5
1449
331
1464
  5
1482
331
14BE
  5
1544
331
1604
  5
1DA1
331
15FC
  5
1D9C
331
15F8
  5
1D98
331
1401
  5
1401
331
13FD
  5
13FD
331
1450
  5
1479
331
15B5
  5
15D1
331
15F4
  5
1D94
331
148E
  5
151C
331
15F0
  5
1D7F
331
1521
  5
1594
331
15EC
  5
1604
331
15E8
  5
15FF
331
13F1
  5
13F1
331
1434
  5
145B
331
13E9
  5
13E9
331
1486
  5
14C4
331
151D
  5
1590
331
1482
  5
14BE
331
15E4
  5
15FB
331
147E
  5
14B3
331
15E0
  5
15F8
331
1D7F
  5
15D5
331
147A
  5
148F
331
20F4
  5
20F4
331
15DC
  5
15F4
331
1E25
  5
1E25
331
13E5
  5
13E5
331
142C
  5
1457
331
13DD
  5
13DD
331
1418
  5
144B
331
13D9
  5
13D9
331
14C9
  5
158C
331
14C5
  5
1589
331
15C8
  5
15E6
331
14C1
  5
1587
331
164B
  5
1DA2
331
15C4
  5
15E1
  0
XRECORD
  5
2760
102
{ACAD_REACTORS
330
275F
102
}
330
275F
100
AcDbXrecord
280
     1
 40
1.570796326794896
  0
IMAGEDEF
  5
753
102
{ACAD_REACTORS
330
752
102
}
330
752
100
AcDbRasterImageDef
 90
        0
  1
L:\calink52\templates\ACO-Logo.jpg
 10
75.0
 20
57.0
 11
0.3527777777777778
 21
0.3527777777777778
280
     1
281
     5
  0
LAYOUT
  5
1E
102
{ACAD_REACTORS
330
1A
102
}
330
1A
100
AcDbPlotSettings
  1

  2
C:\Programme\Acadm 2000i\plotters\PH36.pc3
  4

  6

 40
0.0
 41
0.0
 42
0.0
 43
0.0
 44
0.0
 45
0.0
 46
0.0
 47
0.0
 48
0.0
 49
0.0
140
0.0
141
0.0
142
1.0
143
1.0
 70
   688
 72
     0
 73
     0
 74
     5
  7
monochrome.ctb
 75
    16
147
1.0
 76
     0
 77
     2
 78
   300
148
0.0
149
0.0
100
AcDbLayout
  1
Layout1
 70
     1
 71
     1
 10
0.0
 20
0.0
 11
420.0
 21
297.0
 12
0.0
 22
0.0
 32
0.0
 14
1.000000000000000E+20
 24
1.000000000000000E+20
 34
1.000000000000000E+20
 15
-1.000000000000000E+20
 25
-1.000000000000000E+20
 35
-1.000000000000000E+20
146
0.0
 13
0.0
 23
0.0
 33
0.0
 16
1.0
 26
0.0
 36
0.0
 17
0.0
 27
1.0
 37
0.0
 76
     0
330
1B
  0
LAYOUT
  5
26
102
{ACAD_REACTORS
330
1A
102
}
330
1A
100
AcDbPlotSettings
  1

  2
C:\Programme\Acadm 2000i\plotters\PH36.pc3
  4

  6

 40
0.0
 41
0.0
 42
0.0
 43
0.0
 44
0.0
 45
0.0
 46
0.0
 47
0.0
 48
0.0
 49
0.0
140
0.0
141
0.0
142
1.0
143
1.0
 70
   688
 72
     0
 73
     0
 74
     5
  7
monochrome.ctb
 75
    16
147
1.0
 76
     0
 77
     2
 78
   300
148
0.0
149
0.0
100
AcDbLayout
  1
Layout2
 70
     1
 71
     2
 10
0.0
 20
0.0
 11
12.0
 21
9.0
 12
0.0
 22
0.0
 32
0.0
 14
0.0
 24
0.0
 34
0.0
 15
0.0
 25
0.0
 35
0.0
146
0.0
 13
0.0
 23
0.0
 33
0.0
 16
1.0
 26
0.0
 36
0.0
 17
0.0
 27
1.0
 37
0.0
 76
     0
330
23
  0
LAYOUT
  5
22
102
{ACAD_REACTORS
330
1A
102
}
330
1A
100
AcDbPlotSettings
  1

  2
\\rd-sr-230\ST-PR-055
  4
A4
  6

 40
6.805083274841308
 41
5.619739055633544
 42
7.016738891601562
 43
7.14373779296875
 44
209.9733276367187
 45
296.9683227539062
 46
0.0
 47
3.395286941528354
 48
0.0000000000000257
 49
0.0
140
593.9999999999998
141
420.0
142
1.0
143
2.141202021330625
 70
 11956
 72
     1
 73
     1
 74
     4
  7
monochrome.ctb
 75
     0
147
0.4670273939768474
 76
     0
 77
     2
 78
   300
148
-0.0000000000000257
149
0.0
100
AcDbLayout
  1
Model
 70
     1
 71
     0
 10
0.0
 20
0.0
 11
12.0
 21
9.0
 12
0.0
 22
0.0
 32
0.0
 14
0.0
 24
0.0
 34
0.0
 15
0.0
 25
0.0
 35
0.0
146
0.0
 13
0.0
 23
0.0
 33
0.0
 16
1.0
 26
0.0
 36
0.0
 17
0.0
 27
1.0
 37
0.0
 76
     0
330
1F
331
110
1001
ACAD_PSEXT
1000
\\rd-sr-230\ST-PR-055
1000
Xerox Document Centre 440
1000
ST
1000
*** 
1070
     0
  0
MATERIAL
  5
11A
102
{ACAD_XDICTIONARY
360
11B
102
}
102
{ACAD_REACTORS
330
9A
102
}
330
9A
100
AcDbMaterial
  1
ByBlock
 72
     0
 43
0.0008202099737533
 43
0.0
 43
0.0
 43
0.0
 43
0.0
 43
0.0008202099737533
 43
0.0
 43
0.0
 43
0.0
 43
0.0
 43
1.0
 43
0.0
 43
0.0
 43
0.0
 43
0.0
 43
1.0
 77
     0
 47
0.0008202099737533
 47
0.0
 47
0.0
 47
0.0
 47
0.0
 47
0.0008202099737533
 47
0.0
 47
0.0
 47
0.0
 47
0.0
 47
1.0
 47
0.0
 47
0.0
 47
0.0
 47
0.0
 47
1.0
171
     0
 49
0.0008202099737533
 49
0.0
 49
0.0
 49
0.0
 49
0.0
 49
0.0008202099737533
 49
0.0
 49
0.0
 49
0.0
 49
0.0
 49
1.0
 49
0.0
 49
0.0
 49
0.0
 49
0.0
 49
1.0
175
     0
142
0.0008202099737533
142
0.0
142
0.0
142
0.0
142
0.0
142
0.0008202099737533
142
0.0
142
0.0
142
0.0
142
0.0
142
1.0
142
0.0
142
0.0
142
0.0
142
0.0
142
1.0
179
     0
144
0.0008202099737533
144
0.0
144
0.0
144
0.0
144
0.0
144
0.0008202099737533
144
0.0
144
0.0
144
0.0
144
0.0
144
1.0
144
0.0
144
0.0
144
0.0
144
0.0
144
1.0
147
0.0008202099737533
147
0.0
147
0.0
147
0.0
147
0.0
147
0.0008202099737533
147
0.0
147
0.0
147
0.0
147
0.0
147
1.0
147
0.0
147
0.0
147
0.0
147
0.0
147
1.0
  0
MATERIAL
  5
112
102
{ACAD_XDICTIONARY
360
113
102
}
102
{ACAD_REACTORS
330
9A
102
}
330
9A
100
AcDbMaterial
  1
ByLayer
 72
     0
 43
0.0008202099737533
 43
0.0
 43
0.0
 43
0.0
 43
0.0
 43
0.0008202099737533
 43
0.0
 43
0.0
 43
0.0
 43
0.0
 43
1.0
 43
0.0
 43
0.0
 43
0.0
 43
0.0
 43
1.0
 77
     0
 47
0.0008202099737533
 47
0.0
 47
0.0
 47
0.0
 47
0.0
 47
0.0008202099737533
 47
0.0
 47
0.0
 47
0.0
 47
0.0
 47
1.0
 47
0.0
 47
0.0
 47
0.0
 47
0.0
 47
1.0
171
     0
 49
0.0008202099737533
 49
0.0
 49
0.0
 49
0.0
 49
0.0
 49
0.0008202099737533
 49
0.0
 49
0.0
 49
0.0
 49
0.0
 49
1.0
 49
0.0
 49
0.0
 49
0.0
 49
0.0
 49
1.0
175
     0
142
0.0008202099737533
142
0.0
142
0.0
142
0.0
142
0.0
142
0.0008202099737533
142
0.0
142
0.0
142
0.0
142
0.0
142
1.0
142
0.0
142
0.0
142
0.0
142
0.0
142
1.0
179
     0
144
0.0008202099737533
144
0.0
144
0.0
144
0.0
144
0.0
144
0.0008202099737533
144
0.0
144
0.0
144
0.0
144
0.0
144
1.0
144
0.0
144
0.0
144
0.0
144
0.0
144
1.0
147
0.0008202099737533
147
0.0
147
0.0
147
0.0
147
0.0
147
0.0008202099737533
147
0.0
147
0.0
147
0.0
147
0.0
147
1.0
147
0.0
147
0.0
147
0.0
147
0.0
147
1.0
  0
MATERIAL
  5
122
102
{ACAD_XDICTIONARY
360
123
102
}
102
{ACAD_REACTORS
330
9A
102
}
330
9A
100
AcDbMaterial
  1
Global
 72
     0
 43
0.0008202099737533
 43
0.0
 43
0.0
 43
0.0
 43
0.0
 43
0.0008202099737533
 43
0.0
 43
0.0
 43
0.0
 43
0.0
 43
1.0
 43
0.0
 43
0.0
 43
0.0
 43
0.0
 43
1.0
 77
     0
 47
0.0008202099737533
 47
0.0
 47
0.0
 47
0.0
 47
0.0
 47
0.0008202099737533
 47
0.0
 47
0.0
 47
0.0
 47
0.0
 47
1.0
 47
0.0
 47
0.0
 47
0.0
 47
0.0
 47
1.0
171
     0
 49
0.0008202099737533
 49
0.0
 49
0.0
 49
0.0
 49
0.0
 49
0.0008202099737533
 49
0.0
 49
0.0
 49
0.0
 49
0.0
 49
1.0
 49
0.0
 49
0.0
 49
0.0
 49
0.0
 49
1.0
175
     0
142
0.0008202099737533
142
0.0
142
0.0
142
0.0
142
0.0
142
0.0008202099737533
142
0.0
142
0.0
142
0.0
142
0.0
142
1.0
142
0.0
142
0.0
142
0.0
142
0.0
142
1.0
179
     0
144
0.0008202099737533
144
0.0
144
0.0
144
0.0
144
0.0
144
0.0008202099737533
144
0.0
144
0.0
144
0.0
144
0.0
144
1.0
144
0.0
144
0.0
144
0.0
144
0.0
144
1.0
147
0.0008202099737533
147
0.0
147
0.0
147
0.0
147
0.0
147
0.0008202099737533
147
0.0
147
0.0
147
0.0
147
0.0
147
1.0
147
0.0
147
0.0
147
0.0
147
0.0
147
1.0
  0
MLEADERSTYLE
  5
15E
102
{ACAD_REACTORS
330
15D
102
}
330
15D
100
AcDbMLeaderStyle
170
     2
171
     1
172
     0
 90
        2
 40
0.0
 41
0.0
173
     1
 91
-1056964608
340
14
 92
       -2
290
     1
 42
2.0
291
     1
 43
0.36
  3
Standard
 44
4.0
300

342
11
174
     1
178
     6
175
     1
176
     0
 93
-1056964608
 45
4.0
292
     0
297
     0
 46
4.0
 94
-1056964608
 47
1.0
 49
1.0
140
1.0
293
     1
141
0.0
294
     1
177
     0
142
1.0
295
     0
296
     0
143
0.125
1001
ACAD_MLEADERVER
1070
     2
  0
MLINESTYLE
  5
18
102
{ACAD_REACTORS
330
17
102
}
330
17
100
AcDbMlineStyle
  2
STANDARD
 70
     0
  3

 62
   256
 51
90.0
 52
90.0
 71
     2
 49
0.5
 62
   256
  6
BYLAYER
 49
-0.5
 62
   256
  6
BYLAYER
  0
ACDBPLACEHOLDER
  5
F
102
{ACAD_REACTORS
330
E
102
}
330
E
  0
SCALE
  5
13C
102
{ACAD_REACTORS
330
13B
102
}
330
13B
100
AcDbScale
 70
     0
300
1:1
140
1.0
141
1.0
290
     1
  0
SCALE
  5
13D
102
{ACAD_REACTORS
330
13B
102
}
330
13B
100
AcDbScale
 70
     0
300
1:2
140
1.0
141
2.0
290
     0
  0
SCALE
  5
13E
102
{ACAD_REACTORS
330
13B
102
}
330
13B
100
AcDbScale
 70
     0
300
1:4
140
1.0
141
4.0
290
     0
  0
SCALE
  5
13F
102
{ACAD_REACTORS
330
13B
102
}
330
13B
100
AcDbScale
 70
     0
300
1:5
140
1.0
141
5.0
290
     0
  0
SCALE
  5
140
102
{ACAD_REACTORS
330
13B
102
}
330
13B
100
AcDbScale
 70
     0
300
1:8
140
1.0
141
8.0
290
     0
  0
SCALE
  5
141
102
{ACAD_REACTORS
330
13B
102
}
330
13B
100
AcDbScale
 70
     0
300
1:10
140
1.0
141
10.0
290
     0
  0
SCALE
  5
142
102
{ACAD_REACTORS
330
13B
102
}
330
13B
100
AcDbScale
 70
     0
300
1:16
140
1.0
141
16.0
290
     0
  0
SCALE
  5
143
102
{ACAD_REACTORS
330
13B
102
}
330
13B
100
AcDbScale
 70
     0
300
1:20
140
1.0
141
20.0
290
     0
  0
SCALE
  5
144
102
{ACAD_REACTORS
330
13B
102
}
330
13B
100
AcDbScale
 70
     0
300
1:30
140
1.0
141
30.0
290
     0
  0
SCALE
  5
145
102
{ACAD_REACTORS
330
13B
102
}
330
13B
100
AcDbScale
 70
     0
300
1:40
140
1.0
141
40.0
290
     0
  0
SCALE
  5
146
102
{ACAD_REACTORS
330
13B
102
}
330
13B
100
AcDbScale
 70
     0
300
1:50
140
1.0
141
50.0
290
     0
  0
SCALE
  5
147
102
{ACAD_REACTORS
330
13B
102
}
330
13B
100
AcDbScale
 70
     0
300
1:100
140
1.0
141
100.0
290
     0
  0
SCALE
  5
148
102
{ACAD_REACTORS
330
13B
102
}
330
13B
100
AcDbScale
 70
     0
300
2:1
140
2.0
141
1.0
290
     0
  0
SCALE
  5
149
102
{ACAD_REACTORS
330
13B
102
}
330
13B
100
AcDbScale
 70
     0
300
4:1
140
4.0
141
1.0
290
     0
  0
SCALE
  5
14A
102
{ACAD_REACTORS
330
13B
102
}
330
13B
100
AcDbScale
 70
     0
300
8:1
140
8.0
141
1.0
290
     0
  0
SCALE
  5
14B
102
{ACAD_REACTORS
330
13B
102
}
330
13B
100
AcDbScale
 70
     0
300
10:1
140
10.0
141
1.0
290
     0
  0
SCALE
  5
14C
102
{ACAD_REACTORS
330
13B
102
}
330
13B
100
AcDbScale
 70
     0
300
100:1
140
100.0
141
1.0
290
     0
  0
SCALE
  5
14D
102
{ACAD_REACTORS
330
13B
102
}
330
13B
100
AcDbScale
 70
     0
300
1/128" = 1'-0"
140
0.0078125
141
12.0
290
     0
  0
SCALE
  5
14E
102
{ACAD_REACTORS
330
13B
102
}
330
13B
100
AcDbScale
 70
     0
300
1/64" = 1'-0"
140
0.015625
141
12.0
290
     0
  0
SCALE
  5
14F
102
{ACAD_REACTORS
330
13B
102
}
330
13B
100
AcDbScale
 70
     0
300
1/32" = 1'-0"
140
0.03125
141
12.0
290
     0
  0
SCALE
  5
150
102
{ACAD_REACTORS
330
13B
102
}
330
13B
100
AcDbScale
 70
     0
300
1/16" = 1'-0"
140
0.0625
141
12.0
290
     0
  0
SCALE
  5
151
102
{ACAD_REACTORS
330
13B
102
}
330
13B
100
AcDbScale
 70
     0
300
3/32" = 1'-0"
140
0.09375
141
12.0
290
     0
  0
SCALE
  5
152
102
{ACAD_REACTORS
330
13B
102
}
330
13B
100
AcDbScale
 70
     0
300
1/8" = 1'-0"
140
0.125
141
12.0
290
     0
  0
SCALE
  5
153
102
{ACAD_REACTORS
330
13B
102
}
330
13B
100
AcDbScale
 70
     0
300
3/16" = 1'-0"
140
0.1875
141
12.0
290
     0
  0
SCALE
  5
154
102
{ACAD_REACTORS
330
13B
102
}
330
13B
100
AcDbScale
 70
     0
300
1/4" = 1'-0"
140
0.25
141
12.0
290
     0
  0
SCALE
  5
155
102
{ACAD_REACTORS
330
13B
102
}
330
13B
100
AcDbScale
 70
     0
300
3/8" = 1'-0"
140
0.375
141
12.0
290
     0
  0
SCALE
  5
156
102
{ACAD_REACTORS
330
13B
102
}
330
13B
100
AcDbScale
 70
     0
300
1/2" = 1'-0"
140
0.5
141
12.0
290
     0
  0
SCALE
  5
157
102
{ACAD_REACTORS
330
13B
102
}
330
13B
100
AcDbScale
 70
     0
300
3/4" = 1'-0"
140
0.75
141
12.0
290
     0
  0
SCALE
  5
158
102
{ACAD_REACTORS
330
13B
102
}
330
13B
100
AcDbScale
 70
     0
300
1" = 1'-0"
140
1.0
141
12.0
290
     0
  0
SCALE
  5
159
102
{ACAD_REACTORS
330
13B
102
}
330
13B
100
AcDbScale
 70
     0
300
1-1/2" = 1'-0"
140
1.5
141
12.0
290
     0
  0
SCALE
  5
15A
102
{ACAD_REACTORS
330
13B
102
}
330
13B
100
AcDbScale
 70
     0
300
3" = 1'-0"
140
3.0
141
12.0
290
     0
  0
SCALE
  5
15B
102
{ACAD_REACTORS
330
13B
102
}
330
13B
100
AcDbScale
 70
     0
300
6" = 1'-0"
140
6.0
141
12.0
290
     0
  0
SCALE
  5
15C
102
{ACAD_REACTORS
330
13B
102
}
330
13B
100
AcDbScale
 70
     0
300
1'-0" = 1'-0"
140
12.0
141
12.0
290
     0
  0
TABLESTYLE
  5
9D
102
{ACAD_XDICTIONARY
360
167
102
}
102
{ACAD_REACTORS
330
9C
102
}
330
9C
100
AcDbTableStyle
  3
Standard
 70
     0
 71
     0
 40
1.5
 41
1.5
280
     0
281
     0
  7
STANDARD
140
4.5
170
     2
 62
     0
 63
     7
283
     0
274
    -2
284
     1
 64
     0
275
    -2
285
     1
 65
     0
276
    -2
286
     1
 66
     0
277
    -2
287
     1
 67
     0
278
    -2
288
     1
 68
     0
279
    -2
289
     1
 69
     0
  7
STANDARD
140
6.0
170
     5
 62
     0
 63
     7
283
     0
274
    -2
284
     1
 64
     0
275
    -2
285
     1
 65
     0
276
    -2
286
     1
 66
     0
277
    -2
287
     1
 67
     0
278
    -2
288
     1
 68
     0
279
    -2
289
     1
 69
     0
  7
STANDARD
140
4.5
170
     5
 62
     0
 63
     7
283
     0
274
    -2
284
     1
 64
     0
275
    -2
285
     1
 65
     0
276
    -2
286
     1
 66
     0
277
    -2
287
     1
 67
     0
278
    -2
288
     1
 68
     0
279
    -2
289
     1
 69
     0
  0
VISUALSTYLE
  5
130
102
{ACAD_REACTORS
330
12A
102
}
330
12A
100
AcDbVisualStyle
  2
2dWireframe
 70
     4
 71
     0
 72
     2
 73
     0
 90
        0
 40
-0.6
 41
-30.0
 62
     5
 63
     7
421
 16777215
 74
     1
 91
        4
 64
     7
 65
   257
 75
     1
175
     1
 42
1.0
 92
        0
 66
   257
 43
1.0
 76
     1
 77
     6
 78
     2
 67
     7
 79
     5
170
     0
171
     0
290
     0
174
     0
 93
        1
 44
0.0
173
     0
291
     0
 45
0.0
1001
ACAD
1000
AcDbSavedByObjectVersion
1070
     0
  0
VISUALSTYLE
  5
132
102
{ACAD_REACTORS
330
12A
102
}
330
12A
100
AcDbVisualStyle
  2
3D Hidden
 70
     6
 71
     1
 72
     2
 73
     2
 90
        0
 40
-0.6
 41
-30.0
 62
     5
 63
     7
421
 16777215
 74
     2
 91
        2
 64
     7
 65
   257
 75
     2
175
     1
 42
40.0
 92
        0
 66
   257
 43
1.0
 76
     1
 77
     6
 78
     2
 67
     7
 79
     3
170
     0
171
     0
290
     0
174
     0
 93
        1
 44
0.0
173
     0
291
     0
 45
0.0
1001
ACAD
1000
AcDbSavedByObjectVersion
1070
     0
  0
VISUALSTYLE
  5
131
102
{ACAD_REACTORS
330
12A
102
}
330
12A
100
AcDbVisualStyle
  2
3dWireframe
 70
     5
 71
     0
 72
     2
 73
     0
 90
        0
 40
-0.6
 41
-30.0
 62
     5
 63
     7
421
 16777215
 74
     1
 91
        4
 64
     7
 65
   257
 75
     1
175
     1
 42
1.0
 92
        0
 66
   257
 43
1.0
 76
     1
 77
     6
 78
     2
 67
     7
 79
     5
170
     0
171
     0
290
     0
174
     0
 93
        1
 44
0.0
173
     0
291
     0
 45
0.0
1001
ACAD
1000
AcDbSavedByObjectVersion
1070
     0
  0
VISUALSTYLE
  5
12F
102
{ACAD_REACTORS
330
12A
102
}
330
12A
100
AcDbVisualStyle
  2
Basic
 70
     7
 71
     1
 72
     0
 73
     1
 90
        0
 40
-0.6
 41
-30.0
 62
     5
 63
     7
421
 16777215
 74
     0
 91
        4
 64
     7
 65
   257
 75
     1
175
     1
 42
1.0
 92
        8
 66
     7
 43
1.0
 76
     1
 77
     6
 78
     2
 67
     7
 79
     5
170
     0
171
     0
290
     0
174
     0
 93
        1
 44
0.0
173
     0
291
     1
 45
0.0
1001
ACAD
1000
AcDbSavedByObjectVersion
1070
     0
  0
VISUALSTYLE
  5
136
102
{ACAD_REACTORS
330
12A
102
}
330
12A
100
AcDbVisualStyle
  2
Brighten
 70
    12
 71
     2
 72
     2
 73
     0
 90
        0
 40
-0.6
 41
-30.0
 62
     5
 63
     7
421
 16777215
 74
     1
 91
        4
 64
     7
 65
   257
 75
     1
175
     1
 42
1.0
 92
        8
 66
     7
 43
1.0
 76
     1
 77
     6
 78
     2
 67
     7
 79
     5
170
     0
171
     0
290
     0
174
     0
 93
        1
 44
50.0
173
     0
291
     1
 45
0.0
1001
ACAD
1000
AcDbSavedByObjectVersion
1070
     0
  0
VISUALSTYLE
  5
13A
102
{ACAD_REACTORS
330
12A
102
}
330
12A
100
AcDbVisualStyle
  2
ColorChange
 70
    16
 71
     2
 72
     2
 73
     3
 90
        0
 40
-0.6
 41
-30.0
 62
     5
 63
     8
421
  8421504
 74
     1
 91
        4
 64
     7
 65
   257
 75
     1
175
     1
 42
1.0
 92
        8
 66
     8
424
  8421504
 43
1.0
 76
     1
 77
     6
 78
     2
 67
     7
 79
     5
170
     0
171
     0
290
     0
174
     0
 93
        1
 44
0.0
173
     0
291
     1
 45
0.0
1001
ACAD
1000
AcDbSavedByObjectVersion
1070
     0
  0
VISUALSTYLE
  5
133
102
{ACAD_REACTORS
330
12A
102
}
330
12A
100
AcDbVisualStyle
  2
Conceptual
 70
     9
 71
     3
 72
     2
 73
     0
 90
        0
 40
-0.6
 41
-30.0
 62
     5
 63
     7
421
 16777215
 74
     2
 91
        2
 64
     7
 65
   257
 75
     1
175
     1
 42
40.0
 92
        8
 66
     7
 43
1.0
 76
     1
 77
     6
 78
     2
 67
     7
 79
     3
170
     0
171
     0
290
     0
174
     0
 93
        1
 44
0.0
173
     0
291
     0
 45
0.0
1001
ACAD
1000
AcDbSavedByObjectVersion
1070
     0
  0
VISUALSTYLE
  5
135
102
{ACAD_REACTORS
330
12A
102
}
330
12A
100
AcDbVisualStyle
  2
Dim
 70
    11
 71
     2
 72
     2
 73
     0
 90
        0
 40
-0.6
 41
-30.0
 62
     5
 63
     7
421
 16777215
 74
     1
 91
        4
 64
     7
 65
   257
 75
     1
175
     1
 42
1.0
 92
        8
 66
     7
 43
1.0
 76
     1
 77
     6
 78
     2
 67
     7
 79
     5
170
     0
171
     0
290
     0
174
     0
 93
        1
 44
-50.0
173
     0
291
     1
 45
0.0
1001
ACAD
1000
AcDbSavedByObjectVersion
1070
     0
  0
VISUALSTYLE
  5
139
102
{ACAD_REACTORS
330
12A
102
}
330
12A
100
AcDbVisualStyle
  2
Facepattern
 70
    15
 71
     2
 72
     2
 73
     0
 90
        0
 40
-0.6
 41
-30.0
 62
     5
 63
     7
421
 16777215
 74
     1
 91
        4
 64
     7
 65
   257
 75
     1
175
     1
 42
1.0
 92
        8
 66
     7
 43
1.0
 76
     1
 77
     6
 78
     2
 67
     7
 79
     5
170
     0
171
     0
290
     0
174
     0
 93
        1
 44
0.0
173
     0
291
     1
 45
0.0
1001
ACAD
1000
AcDbSavedByObjectVersion
1070
     0
  0
VISUALSTYLE
  5
12B
102
{ACAD_REACTORS
330
12A
102
}
330
12A
100
AcDbVisualStyle
  2
Flat
 70
     0
 71
     2
 72
     1
 73
     1
 90
        2
 40
-0.6
 41
30.0
 62
     5
 63
     7
421
 16777215
 74
     0
 91
        4
 64
     7
 65
   257
 75
     1
175
     1
 42
1.0
 92
        8
 66
     7
 43
1.0
 76
     1
 77
     6
 78
     2
 67
     7
 79
     5
170
     0
171
     0
290
     0
174
     0
 93
       13
 44
0.0
173
     0
291
     1
 45
0.0
1001
ACAD
1000
AcDbSavedByObjectVersion
1070
     0
  0
VISUALSTYLE
  5
12C
102
{ACAD_REACTORS
330
12A
102
}
330
12A
100
AcDbVisualStyle
  2
FlatWithEdges
 70
     1
 71
     2
 72
     1
 73
     1
 90
        2
 40
-0.6
 41
30.0
 62
     5
 63
     7
421
 16777215
 74
     1
 91
        4
 64
     7
 65
   257
 75
     1
175
     1
 42
1.0
 92
        0
 66
   257
 43
1.0
 76
     1
 77
     6
 78
     2
 67
     7
 79
     5
170
     0
171
     0
290
     0
174
     0
 93
       13
 44
0.0
173
     0
291
     1
 45
0.0
1001
ACAD
1000
AcDbSavedByObjectVersion
1070
     0
  0
VISUALSTYLE
  5
12D
102
{ACAD_REACTORS
330
12A
102
}
330
12A
100
AcDbVisualStyle
  2
Gouraud
 70
     2
 71
     2
 72
     2
 73
     1
 90
        2
 40
-0.6
 41
30.0
 62
     5
 63
     7
421
 16777215
 74
     0
 91
        4
 64
     7
 65
   257
 75
     1
175
     1
 42
1.0
 92
        0
 66
     7
 43
1.0
 76
     1
 77
     6
 78
     2
 67
     7
 79
     5
170
     0
171
     0
290
     0
174
     0
 93
       13
 44
0.0
173
     0
291
     1
 45
0.0
1001
ACAD
1000
AcDbSavedByObjectVersion
1070
     0
  0
VISUALSTYLE
  5
12E
102
{ACAD_REACTORS
330
12A
102
}
330
12A
100
AcDbVisualStyle
  2
GouraudWithEdges
 70
     3
 71
     2
 72
     2
 73
     1
 90
        2
 40
-0.6
 41
30.0
 62
     5
 63
     7
421
 16777215
 74
     1
 91
        4
 64
     7
 65
   257
 75
     1
175
     1
 42
1.0
 92
        0
 66
   257
 43
1.0
 76
     1
 77
     6
 78
     2
 67
     7
 79
     5
170
     0
171
     0
290
     0
174
     0
 93
       13
 44
0.0
173
     0
291
     1
 45
0.0
1001
ACAD
1000
AcDbSavedByObjectVersion
1070
     0
  0
VISUALSTYLE
  5
138
102
{ACAD_REACTORS
330
12A
102
}
330
12A
100
AcDbVisualStyle
  2
Linepattern
 70
    14
 71
     2
 72
     2
 73
     0
 90
        0
 40
-0.6
 41
-30.0
 62
     5
 63
     7
421
 16777215
 74
     1
 91
        4
 64
     7
 65
   257
 75
     7
175
     7
 42
1.0
 92
        8
 66
     7
 43
1.0
 76
     1
 77
     6
 78
     2
 67
     7
 79
     5
170
     0
171
     0
290
     0
174
     0
 93
        1
 44
0.0
173
     0
291
     1
 45
0.0
1001
ACAD
1000
AcDbSavedByObjectVersion
1070
     0
  0
VISUALSTYLE
  5
134
102
{ACAD_REACTORS
330
12A
102
}
330
12A
100
AcDbVisualStyle
  2
Realistic
 70
     8
 71
     2
 72
     2
 73
     0
 90
        0
 40
-0.6
 41
-30.0
 62
     5
 63
     7
421
 16777215
 74
     1
 91
        0
 64
     7
 65
   257
 75
     1
175
     1
 42
1.0
 92
        8
 66
     8
424
  7895160
 43
1.0
 76
     1
 77
     6
 78
     2
 67
     7
 79
     5
170
     0
171
     0
290
     0
174
     0
 93
       13
 44
0.0
173
     0
291
     0
 45
0.0
1001
ACAD
1000
AcDbSavedByObjectVersion
1070
     0
  0
VISUALSTYLE
  5
137
102
{ACAD_REACTORS
330
12A
102
}
330
12A
100
AcDbVisualStyle
  2
Thicken
 70
    13
 71
     2
 72
     2
 73
     0
 90
        0
 40
-0.6
 41
-30.0
 62
     5
 63
     7
421
 16777215
 74
     1
 91
        4
 64
     7
 65
   257
 75
     1
175
     1
 42
1.0
 92
       12
 66
     7
 43
1.0
 76
     1
 77
     6
 78
     2
 67
     7
 79
     5
170
     0
171
     0
290
     0
174
     0
 93
        1
 44
0.0
173
     0
291
     1
 45
0.0
1001
ACAD
1000
AcDbSavedByObjectVersion
1070
     0
  0
DICTIONARYVAR
  5
16C
102
{ACAD_REACTORS
330
34
102
}
330
34
100
DictionaryVariables
280
     0
  1
1:1
  0
DICTIONARYVAR
  5
16A
102
{ACAD_REACTORS
330
34
102
}
330
34
100
DictionaryVariables
280
     0
  1
STANDARD
  0
DICTIONARYVAR
  5
10F
102
{ACAD_REACTORS
330
34
102
}
330
34
100
DictionaryVariables
280
     0
  1
STANDARD
  0
DICTIONARYVAR
  5
35
102
{ACAD_REACTORS
330
34
102
}
330
34
100
DictionaryVariables
280
     0
  1
1
  0
DICTIONARYVAR
  5
216F
102
{ACAD_REACTORS
330
34
102
}
330
34
100
DictionaryVariables
280
     0
  1
1
  0
DICTIONARYVAR
  5
2170
102
{ACAD_REACTORS
330
34
102
}
330
34
100
DictionaryVariables
280
     0
  1
15
  0
DICTIONARYVAR
  5
16D
102
{ACAD_REACTORS
330
34
102
}
330
34
100
DictionaryVariables
280
     0
  1
0
  0
DICTIONARYVAR
  5
16B
102
{ACAD_REACTORS
330
34
102
}
330
34
100
DictionaryVariables
280
     0
  1
0
  0
DICTIONARY
  5
4C
102
{ACAD_REACTORS
330
47
102
}
330
47
100
AcDbDictionary
281
     1
  0
XRECORD
  5
F5
102
{ACAD_REACTORS
330
47
102
}
330
47
100
AcDbXrecord
280
     1
 90
-1023410169
  0
DICTIONARY
  5
11B
330
11A
100
AcDbDictionary
280
     1
281
     1
  3
ACAD_XREC_ROUNDTRIP
360
2763
  3
BUMPTILE
360
11D
  3
DIFFUSETILE
360
11C
  3
OPACITYTILE
360
120
  3
REFLECTIONTILE
360
11F
  3
REFRACTIONTILE
360
121
  3
SPECULARTILE
360
11E
  0
DICTIONARY
  5
113
330
112
100
AcDbDictionary
280
     1
281
     1
  3
ACAD_XREC_ROUNDTRIP
360
2762
  3
BUMPTILE
360
115
  3
DIFFUSETILE
360
114
  3
OPACITYTILE
360
118
  3
REFLECTIONTILE
360
117
  3
REFRACTIONTILE
360
119
  3
SPECULARTILE
360
116
  0
DICTIONARY
  5
123
330
122
100
AcDbDictionary
280
     1
281
     1
  3
ACAD_XREC_ROUNDTRIP
360
2764
  3
BUMPTILE
360
125
  3
DIFFUSETILE
360
124
  3
OPACITYTILE
360
128
  3
REFLECTIONTILE
360
127
  3
REFRACTIONTILE
360
129
  3
SPECULARTILE
360
126
  0
DICTIONARY
  5
167
330
9D
100
AcDbDictionary
280
     1
281
     1
  3
ACAD_ROUNDTRIP_2008_TABLESTYLE_CELLSTYLEMAP
360
275E
  3
ACAD_XREC_ROUNDTRIP
360
2761
  0
XRECORD
  5
2763
102
{ACAD_REACTORS
330
11B
102
}
330
11B
100
AcDbXrecord
280
     1
102
MATERIAL
148
0.0
149
0.0
149
0.0
 93
        0
 94
      127
282
     0
 72
     0
 77
     0
171
     0
175
     0
179
     0
273
     0
  0
XRECORD
  5
11D
102
{ACAD_REACTORS
330
11B
102
}
330
11B
100
AcDbXrecord
280
     1
270
     1
271
     1
  0
XRECORD
  5
11C
102
{ACAD_REACTORS
330
11B
102
}
330
11B
100
AcDbXrecord
280
     1
270
     1
271
     1
  0
XRECORD
  5
120
102
{ACAD_REACTORS
330
11B
102
}
330
11B
100
AcDbXrecord
280
     1
270
     1
271
     1
  0
XRECORD
  5
11F
102
{ACAD_REACTORS
330
11B
102
}
330
11B
100
AcDbXrecord
280
     1
270
     1
271
     1
  0
XRECORD
  5
121
102
{ACAD_REACTORS
330
11B
102
}
330
11B
100
AcDbXrecord
280
     1
270
     1
271
     1
  0
XRECORD
  5
11E
102
{ACAD_REACTORS
330
11B
102
}
330
11B
100
AcDbXrecord
280
     1
270
     1
271
     1
  0
XRECORD
  5
2762
102
{ACAD_REACTORS
330
113
102
}
330
113
100
AcDbXrecord
280
     1
102
MATERIAL
148
0.0
149
0.0
149
0.0
 93
        0
 94
      127
282
     0
 72
     0
 77
     0
171
     0
175
     0
179
     0
273
     0
  0
XRECORD
  5
115
102
{ACAD_REACTORS
330
113
102
}
330
113
100
AcDbXrecord
280
     1
270
     1
271
     1
  0
XRECORD
  5
114
102
{ACAD_REACTORS
330
113
102
}
330
113
100
AcDbXrecord
280
     1
270
     1
271
     1
  0
XRECORD
  5
118
102
{ACAD_REACTORS
330
113
102
}
330
113
100
AcDbXrecord
280
     1
270
     1
271
     1
  0
XRECORD
  5
117
102
{ACAD_REACTORS
330
113
102
}
330
113
100
AcDbXrecord
280
     1
270
     1
271
     1
  0
XRECORD
  5
119
102
{ACAD_REACTORS
330
113
102
}
330
113
100
AcDbXrecord
280
     1
270
     1
271
     1
  0
XRECORD
  5
116
102
{ACAD_REACTORS
330
113
102
}
330
113
100
AcDbXrecord
280
     1
270
     1
271
     1
  0
XRECORD
  5
2764
102
{ACAD_REACTORS
330
123
102
}
330
123
100
AcDbXrecord
280
     1
102
MATERIAL
148
0.0
149
0.0
149
0.0
 93
        0
 94
      127
282
     0
 72
     0
 77
     0
171
     0
175
     0
179
     0
273
     0
  0
XRECORD
  5
125
102
{ACAD_REACTORS
330
123
102
}
330
123
100
AcDbXrecord
280
     1
270
     1
271
     1
  0
XRECORD
  5
124
102
{ACAD_REACTORS
330
123
102
}
330
123
100
AcDbXrecord
280
     1
270
     1
271
     1
  0
XRECORD
  5
128
102
{ACAD_REACTORS
330
123
102
}
330
123
100
AcDbXrecord
280
     1
270
     1
271
     1
  0
XRECORD
  5
127
102
{ACAD_REACTORS
330
123
102
}
330
123
100
AcDbXrecord
280
     1
270
     1
271
     1
  0
XRECORD
  5
129
102
{ACAD_REACTORS
330
123
102
}
330
123
100
AcDbXrecord
280
     1
270
     1
271
     1
  0
XRECORD
  5
126
102
{ACAD_REACTORS
330
123
102
}
330
123
100
AcDbXrecord
280
     1
270
     1
271
     1
  0
CELLSTYLEMAP
  5
275E
102
{ACAD_REACTORS
330
167
102
}
330
167
100
AcDbCellStyleMap
 90
        3
300
CELLSTYLE
  1
TABLEFORMAT_BEGIN
 90
        5
170
     1
 91
        0
 92
    32768
 62
   257
 93
        1
300
CONTENTFORMAT
  1
CONTENTFORMAT_BEGIN
 90
        0
 91
        0
 92
        4
 93
        0
300

 40
0.0
140
1.0
 94
        5
 62
     0
340
11
144
6.0
309
CONTENTFORMAT_END
171
     1
301
MARGIN
  1
CELLMARGIN_BEGIN
 40
1.5
 40
1.5
 40
1.5
 40
1.5
 40
0.18
 40
0.18
309
CELLMARGIN_END
 94
        6
 95
        1
302
GRIDFORMAT
  1
GRIDFORMAT_BEGIN
 90
        0
 91
        1
 62
     0
 92
       -2
340
0
 93
        0
 40
0.045
309
GRIDFORMAT_END
 95
        2
302
GRIDFORMAT
  1
GRIDFORMAT_BEGIN
 90
        0
 91
        1
 62
     0
 92
       -2
340
0
 93
        0
 40
0.045
309
GRIDFORMAT_END
 95
        4
302
GRIDFORMAT
  1
GRIDFORMAT_BEGIN
 90
        0
 91
        1
 62
     0
 92
       -2
340
0
 93
        0
 40
0.045
309
GRIDFORMAT_END
 95
        8
302
GRIDFORMAT
  1
GRIDFORMAT_BEGIN
 90
        0
 91
        1
 62
     0
 92
       -2
340
0
 93
        0
 40
0.045
309
GRIDFORMAT_END
 95
       16
302
GRIDFORMAT
  1
GRIDFORMAT_BEGIN
 90
        0
 91
        1
 62
     0
 92
       -2
340
0
 93
        0
 40
0.045
309
GRIDFORMAT_END
 95
       32
302
GRIDFORMAT
  1
GRIDFORMAT_BEGIN
 90
        0
 91
        1
 62
     0
 92
       -2
340
0
 93
        0
 40
0.045
309
GRIDFORMAT_END
309
TABLEFORMAT_END
  1
CELLSTYLE_BEGIN
 90
        1
 91
        1
300
_TITLE
309
CELLSTYLE_END
300
CELLSTYLE
  1
TABLEFORMAT_BEGIN
 90
        5
170
     1
 91
        0
 92
        0
 62
   257
 93
        1
300
CONTENTFORMAT
  1
CONTENTFORMAT_BEGIN
 90
        0
 91
        0
 92
        4
 93
        0
300

 40
0.0
140
1.0
 94
        5
 62
     0
340
11
144
4.5
309
CONTENTFORMAT_END
171
     1
301
MARGIN
  1
CELLMARGIN_BEGIN
 40
1.5
 40
1.5
 40
1.5
 40
1.5
 40
0.18
 40
0.18
309
CELLMARGIN_END
 94
        6
 95
        1
302
GRIDFORMAT
  1
GRIDFORMAT_BEGIN
 90
        0
 91
        1
 62
     0
 92
       -2
340
0
 93
        0
 40
0.045
309
GRIDFORMAT_END
 95
        2
302
GRIDFORMAT
  1
GRIDFORMAT_BEGIN
 90
        0
 91
        1
 62
     0
 92
       -2
340
0
 93
        0
 40
0.045
309
GRIDFORMAT_END
 95
        4
302
GRIDFORMAT
  1
GRIDFORMAT_BEGIN
 90
        0
 91
        1
 62
     0
 92
       -2
340
0
 93
        0
 40
0.045
309
GRIDFORMAT_END
 95
        8
302
GRIDFORMAT
  1
GRIDFORMAT_BEGIN
 90
        0
 91
        1
 62
     0
 92
       -2
340
0
 93
        0
 40
0.045
309
GRIDFORMAT_END
 95
       16
302
GRIDFORMAT
  1
GRIDFORMAT_BEGIN
 90
        0
 91
        1
 62
     0
 92
       -2
340
0
 93
        0
 40
0.045
309
GRIDFORMAT_END
 95
       32
302
GRIDFORMAT
  1
GRIDFORMAT_BEGIN
 90
        0
 91
        1
 62
     0
 92
       -2
340
0
 93
        0
 40
0.045
309
GRIDFORMAT_END
309
TABLEFORMAT_END
  1
CELLSTYLE_BEGIN
 90
        2
 91
        1
300
_HEADER
309
CELLSTYLE_END
300
CELLSTYLE
  1
TABLEFORMAT_BEGIN
 90
        5
170
     1
 91
        0
 92
        0
 62
   257
 93
        1
300
CONTENTFORMAT
  1
CONTENTFORMAT_BEGIN
 90
        0
 91
        0
 92
        4
 93
        0
300

 40
0.0
140
1.0
 94
        2
 62
     0
340
11
144
4.5
309
CONTENTFORMAT_END
171
     1
301
MARGIN
  1
CELLMARGIN_BEGIN
 40
1.5
 40
1.5
 40
1.5
 40
1.5
 40
0.18
 40
0.18
309
CELLMARGIN_END
 94
        6
 95
        1
302
GRIDFORMAT
  1
GRIDFORMAT_BEGIN
 90
        0
 91
        1
 62
     0
 92
       -2
340
0
 93
        0
 40
0.045
309
GRIDFORMAT_END
 95
        2
302
GRIDFORMAT
  1
GRIDFORMAT_BEGIN
 90
        0
 91
        1
 62
     0
 92
       -2
340
0
 93
        0
 40
0.045
309
GRIDFORMAT_END
 95
        4
302
GRIDFORMAT
  1
GRIDFORMAT_BEGIN
 90
        0
 91
        1
 62
     0
 92
       -2
340
0
 93
        0
 40
0.045
309
GRIDFORMAT_END
 95
        8
302
GRIDFORMAT
  1
GRIDFORMAT_BEGIN
 90
        0
 91
        1
 62
     0
 92
       -2
340
0
 93
        0
 40
0.045
309
GRIDFORMAT_END
 95
       16
302
GRIDFORMAT
  1
GRIDFORMAT_BEGIN
 90
        0
 91
        1
 62
     0
 92
       -2
340
0
 93
        0
 40
0.045
309
GRIDFORMAT_END
 95
       32
302
GRIDFORMAT
  1
GRIDFORMAT_BEGIN
 90
        0
 91
        1
 62
     0
 92
       -2
340
0
 93
        0
 40
0.045
309
GRIDFORMAT_END
309
TABLEFORMAT_END
  1
CELLSTYLE_BEGIN
 90
        3
 91
        2
300
_DATA
309
CELLSTYLE_END
  0
XRECORD
  5
2761
102
{ACAD_REACTORS
330
167
102
}
330
167
100
AcDbXrecord
280
     1
102
ACAD_ROUNDTRIP_PRE2007_TABLESTYLE
 90
        4
 91
        0
  1

 92
        4
 93
        0
  2

 94
        4
 95
        0
  3

  0
ENDSEC
  0
EOF
