  0
SECTION
  2
HEADER
  9
$ACADVER
  1
AC1015
  9
$ACADMAINTVER
 70
    20
  9
$DWGCODEPAGE
  3
ANSI_1252
  9
$INSBASE
 10
0.0
 20
0.0
 30
0.0
  9
$EXTMIN
 10
157.3013331942506
 20
53.48053229213746
 30
-0.0015258207003583
  9
$EXTMAX
 10
576.990510927269
 20
615.5227680522048
 30
0.0000000349246037
  9
$LIMMIN
 10
0.0
 20
0.0
  9
$LIMMAX
 10
1050.0
 20
1050.0
  9
$ORTHOMODE
 70
     0
  9
$REGENMODE
 70
     1
  9
$FILLMODE
 70
     1
  9
$QTEXTMODE
 70
     0
  9
$MIRRTEXT
 70
     0
  9
$LTSCALE
 40
5.0
  9
$ATTMODE
 70
     1
  9
$TEXTSIZE
 40
12.5
  9
$TRACEWID
 40
0.05
  9
$TEXTSTYLE
  7
STANDARD
  9
$CLAYER
  8
0
  9
$CELTYPE
  6
BYLAYER
  9
$CECOLOR
 62
   256
  9
$CELTSCALE
 40
1.0
  9
$DISPSILH
 70
     0
  9
$DIMSCALE
 40
5.0
  9
$DIMASZ
 40
2.5
  9
$DIMEXO
 40
1.0
  9
$DIMDLI
 40
7.0
  9
$DIMRND
 40
0.0
  9
$DIMDLE
 40
0.0
  9
$DIMEXE
 40
1.0
  9
$DIMTP
 40
0.1
  9
$DIMTM
 40
0.1
  9
$DIMTXT
 40
3.5
  9
$DIMCEN
 40
0.0
  9
$DIMTSZ
 40
0.0
  9
$DIMTOL
 70
     0
  9
$DIMLIM
 70
     0
  9
$DIMTIH
 70
     0
  9
$DIMTOH
 70
     0
  9
$DIMSE1
 70
     0
  9
$DIMSE2
 70
     0
  9
$DIMTAD
 70
     1
  9
$DIMZIN
 70
    12
  9
$DIMBLK
  1

  9
$DIMASO
 70
     1
  9
$DIMSHO
 70
     1
  9
$DIMPOST
  1

  9
$DIMAPOST
  1
"
  9
$DIMALT
 70
     0
  9
$DIMALTD
 70
     2
  9
$DIMALTF
 40
0.03937
  9
$DIMLFAC
 40
1.0
  9
$DIMTOFL
 70
     1
  9
$DIMTVP
 40
0.0
  9
$DIMTIX
 70
     0
  9
$DIMSOXD
 70
     0
  9
$DIMSAH
 70
     0
  9
$DIMBLK1
  1

  9
$DIMBLK2
  1

  9
$DIMSTYLE
  2
GEN-ISO
  9
$DIMCLRD
 70
   256
  9
$DIMCLRE
 70
   256
  9
$DIMCLRT
 70
     2
  9
$DIMTFAC
 40
0.71
  9
$DIMGAP
 40
0.6
  9
$DIMJUST
 70
     0
  9
$DIMSD1
 70
     0
  9
$DIMSD2
 70
     0
  9
$DIMTOLJ
 70
     0
  9
$DIMTZIN
 70
     0
  9
$DIMALTZ
 70
     0
  9
$DIMALTTZ
 70
     0
  9
$DIMUPT
 70
     0
  9
$DIMDEC
 70
     2
  9
$DIMTDEC
 70
     3
  9
$DIMALTU
 70
     2
  9
$DIMALTTD
 70
     4
  9
$DIMTXSTY
  7
STANDARD
  9
$DIMAUNIT
 70
     0
  9
$DIMADEC
 70
     0
  9
$DIMALTRND
 40
0.0
  9
$DIMAZIN
 70
     0
  9
$DIMDSEP
 70
    46
  9
$DIMATFIT
 70
     3
  9
$DIMFRAC
 70
     0
  9
$DIMLDRBLK
  1

  9
$DIMLUNIT
 70
     2
  9
$DIMLWD
 70
    -2
  9
$DIMLWE
 70
    -2
  9
$DIMTMOVE
 70
     0
  9
$LUNITS
 70
     2
  9
$LUPREC
 70
     2
  9
$SKETCHINC
 40
0.1
  9
$FILLETRAD
 40
12.5
  9
$AUNITS
 70
     0
  9
$AUPREC
 70
     2
  9
$MENU
  1
.
  9
$ELEVATION
 40
0.0
  9
$PELEVATION
 40
0.0
  9
$THICKNESS
 40
0.0
  9
$LIMCHECK
 70
     0
  9
$CHAMFERA
 40
12.5
  9
$CHAMFERB
 40
12.5
  9
$CHAMFERC
 40
0.0
  9
$CHAMFERD
 40
0.0
  9
$SKPOLY
 70
     0
  9
$TDCREATE
 40
2451261.425752847
  9
$TDUCREATE
 40
2451261.384086181
  9
$TDUPDATE
 40
2454081.837337326
  9
$TDUUPDATE
 40
2454081.795670660
  9
$TDINDWG
 40
0.0016767477
  9
$TDUSRTIMER
 40
0.0016766319
  9
$USRTIMER
 70
     1
  9
$ANGBASE
 50
0.0
  9
$ANGDIR
 70
     0
  9
$PDMODE
 70
     0
  9
$PDSIZE
 40
0.0
  9
$PLINEWID
 40
0.0
  9
$SPLFRAME
 70
     0
  9
$SPLINETYPE
 70
     6
  9
$SPLINESEGS
 70
     8
  9
$HANDSEED
  5
1A94
  9
$SURFTAB1
 70
     6
  9
$SURFTAB2
 70
     6
  9
$SURFTYPE
 70
     6
  9
$SURFU
 70
     6
  9
$SURFV
 70
     6
  9
$UCSBASE
  2

  9
$UCSNAME
  2

  9
$UCSORG
 10
0.0
 20
0.0
 30
0.0
  9
$UCSXDIR
 10
1.0
 20
0.0
 30
0.0
  9
$UCSYDIR
 10
0.0
 20
1.0
 30
0.0
  9
$UCSORTHOREF
  2

  9
$UCSORTHOVIEW
 70
     0
  9
$UCSORGTOP
 10
0.0
 20
0.0
 30
0.0
  9
$UCSORGBOTTOM
 10
0.0
 20
0.0
 30
0.0
  9
$UCSORGLEFT
 10
0.0
 20
0.0
 30
0.0
  9
$UCSORGRIGHT
 10
0.0
 20
0.0
 30
0.0
  9
$UCSORGFRONT
 10
0.0
 20
0.0
 30
0.0
  9
$UCSORGBACK
 10
0.0
 20
0.0
 30
0.0
  9
$PUCSBASE
  2

  9
$PUCSNAME
  2

  9
$PUCSORG
 10
0.0
 20
0.0
 30
0.0
  9
$PUCSXDIR
 10
1.0
 20
0.0
 30
0.0
  9
$PUCSYDIR
 10
0.0
 20
1.0
 30
0.0
  9
$PUCSORTHOREF
  2

  9
$PUCSORTHOVIEW
 70
     0
  9
$PUCSORGTOP
 10
0.0
 20
0.0
 30
0.0
  9
$PUCSORGBOTTOM
 10
0.0
 20
0.0
 30
0.0
  9
$PUCSORGLEFT
 10
0.0
 20
0.0
 30
0.0
  9
$PUCSORGRIGHT
 10
0.0
 20
0.0
 30
0.0
  9
$PUCSORGFRONT
 10
0.0
 20
0.0
 30
0.0
  9
$PUCSORGBACK
 10
0.0
 20
0.0
 30
0.0
  9
$USERI1
 70
     0
  9
$USERI2
 70
     0
  9
$USERI3
 70
     0
  9
$USERI4
 70
     0
  9
$USERI5
 70
     0
  9
$USERR1
 40
0.0
  9
$USERR2
 40
0.0
  9
$USERR3
 40
0.0
  9
$USERR4
 40
0.0
  9
$USERR5
 40
0.0
  9
$WORLDVIEW
 70
     1
  9
$SHADEDGE
 70
     3
  9
$SHADEDIF
 70
    70
  9
$TILEMODE
 70
     1
  9
$MAXACTVP
 70
    48
  9
$PINSBASE
 10
0.0
 20
0.0
 30
0.0
  9
$PLIMCHECK
 70
     0
  9
$PEXTMIN
 10
0.0
 20
0.0
 30
0.0
  9
$PEXTMAX
 10
209.9
 20
296.9
 30
0.0
  9
$PLIMMIN
 10
0.0
 20
0.0
  9
$PLIMMAX
 10
209.9
 20
296.9
  9
$UNITMODE
 70
     0
  9
$VISRETAIN
 70
     1
  9
$PLINEGEN
 70
     1
  9
$PSLTSCALE
 70
     1
  9
$TREEDEPTH
 70
 -3020
  9
$CMLSTYLE
  2
STANDARD
  9
$CMLJUST
 70
     0
  9
$CMLSCALE
 40
1.0
  9
$PROXYGRAPHICS
 70
     1
  9
$MEASUREMENT
 70
     1
  9
$CELWEIGHT
370
    -1
  9
$ENDCAPS
280
     0
  9
$JOINSTYLE
280
     0
  9
$LWDISPLAY
290
     0
  9
$INSUNITS
 70
     0
  9
$HYPERLINKBASE
  1

  9
$STYLESHEET
  1

  9
$XEDIT
290
     1
  9
$CEPSNTYPE
380
     0
  9
$PSTYLEMODE
290
     1
  9
$FINGERPRINTGUID
  2
{FAAB7EF0-6B28-497F-81B3-5EFD00F51CAA}
  9
$VERSIONGUID
  2
{0D4B1D62-7C1E-4749-BDDD-9DC92B9A1F9E}
  9
$EXTNAMES
290
     1
  9
$PSVPSCALE
 40
0.0
  9
$OLESTARTUP
290
     0
  0
ENDSEC
  0
SECTION
  2
CLASSES
  0
CLASS
  1
ACDBDICTIONARYWDFLT
  2
AcDbDictionaryWithDefault
  3
ObjectDBX Classes
 90
        0
280
     0
281
     0
  0
CLASS
  1
TABLESTYLE
  2
AcDbTableStyle
  3
ObjectDBX Classes
 90
     2047
280
     0
281
     0
  0
CLASS
  1
AMGSETTINGSOBJ
  2
AmgSettingsObj
  3
"AcadM|Product Description: AutoCAD Mechanical 2000|Company: Autodesk"
 90
        0
280
     0
281
     0
  0
CLASS
  1
ACME_DOCUMENT
  2
AcMeDbDoc
  3
AcMeServices
 90
        0
280
     0
281
     0
  0
CLASS
  1
ACMESCOPE
  2
AcMeScope
  3
AcMeServices
 90
        0
280
     0
281
     0
  0
CLASS
  1
ACMECOMMANDHISTORY
  2
AcMeCommandHistory
  3
AcMeServices
 90
        0
280
     0
281
     0
  0
CLASS
  1
ACIMSYSVARMAN
  2
AcImSysVarManager
  3
AcMeServices
 90
        0
280
     0
281
     0
  0
CLASS
  1
ACIMINTSYSVAR
  2
AcImIntSysVar
  3
AcMeServices
 90
        0
280
     0
281
     0
  0
CLASS
  1
ACMEDRAWINGMAN
  2
AcMeDrawingMan
  3
AcMeServices
 90
        0
280
     0
281
     0
  0
CLASS
  1
ACMEVIEW
  2
AcMeView
  3
AcMeServices
 90
        0
280
     0
281
     0
  0
CLASS
  1
ACDBENTITYCACHE
  2
AcMeEntityCache
  3
AcMeServices
 90
        0
280
     0
281
     0
  0
CLASS
  1
GSMANAGER
  2
AcMeGSManager
  3
AcMeServices
 90
        0
280
     0
281
     0
  0
CLASS
  1
AMDTINTERNALREACTOR
  2
AmdtInternalReactor
  3
AcMeServices
 90
        0
280
     0
281
     0
  0
CLASS
  1
ACMESTATEMGR
  2
AcMeStateMgr
  3
AcMeServices
 90
        0
280
     0
281
     0
  0
CLASS
  1
ACGREFMASTER
  2
AcGrefMaster
  3
AcAttribServices
 90
        0
280
     0
281
     0
  0
CLASS
  1
AM_DRAWING_MGR
  2
AcDmDwgMgr
  3
AcMechDwgViewMgmt
 90
        0
280
     0
281
     0
  0
CLASS
  1
AM_DWG_DOCUMENT
  2
AcDmDwgDocument
  3
AcMechDwgViewMgmt
 90
        0
280
     0
281
     0
  0
CLASS
  1
AM_DWG_SHEET
  2
AcDmSheet
  3
AcMechDwgViewMgmt
 90
        0
280
     0
281
     0
  0
CLASS
  1
AM_VIEWDIMPARMAP
  2
AcDmViewDimParMap
  3
AcMechDwgViewMgmt
 90
        0
280
     0
281
     0
  0
CLASS
  1
ACIMREALSYSVAR
  2
AcImRealSysVar
  3
AcMeServices
 90
        0
280
     0
281
     0
  0
CLASS
  1
AM_DWGMGR_NAME
  2
AcDmDwgMgrName
  3
AcMechDwgViewMgmt
 90
        0
280
     0
281
     0
  0
CLASS
  1
ACME_DATABASE
  2
AcMeDbDatabase
  3
AcMeServices
 90
        0
280
     0
281
     0
  0
CLASS
  1
ACRFINSADJUSTERMGR
  2
AcRfInsAdjusterMgr
  3
AcMeServices
 90
        0
280
     0
281
     0
  0
CLASS
  1
ACGREFACADMASTER
  2
AcGrefacadMaster
  3
AcGrefServices
 90
        0
280
     0
281
     0
  0
CLASS
  1
AMDTMENUSTATEMGR
  2
AmdtMenuStateMgr
  3
McadcomServices
 90
        0
280
     0
281
     0
  0
CLASS
  1
AMDTMCOMMENUSTATE
  2
AmdtMcomMenuState
  3
McadcomServices
 90
        0
280
     0
281
     0
  0
CLASS
  1
AMIMASTER
  2
AmiMaster
  3
AmiServices
 90
        0
280
     0
281
     0
  0
CLASS
  1
MAPIAMMOUDLE
  2
MApiAmModule
  3
MApiAmServices
 90
        0
280
     0
281
     0
  0
CLASS
  1
ACIMSTRSYSVAR
  2
AcImStrSysVar
  3
AcMeServices
 90
        0
280
     0
281
     0
  0
CLASS
  1
AMDTADMENUSTATE
  2
AmdtAdMenuState
  3
DesignerServices
 90
        0
280
     0
281
     0
  0
CLASS
  1
ADAPPL
  2
AcAdAppl
  3
DesignerServices
 90
        0
280
     0
281
     0
  0
CLASS
  1
DEPMGR
  2
AcAdDepMgr
  3
DesignerServices
 90
        0
280
     0
281
     0
  0
CLASS
  1
PARAMMGR
  2
AcAdParamMgr
  3
DesignerServices
 90
        0
280
     0
281
     0
  0
CLASS
  1
PARAMSCOPE
  2
AcAdParamScope
  3
DesignerServices
 90
        0
280
     0
281
     0
  0
CLASS
  1
NAMEDAPPL
  2
AcAdNamedAppl
  3
DesignerServices
 90
        0
280
     0
281
     0
  0
CLASS
  1
AMDTDMMENUSTATE
  2
AmdtDmMenuState
  3
AcMechDwgViewMgmt
 90
        0
280
     0
281
     0
  0
CLASS
  1
AMDTAMMENUSTATE
  2
AmdtAmMenuState
  3
DesignerAssemblies
 90
        0
280
     0
281
     0
  0
CLASS
  1
ACAMPROJECT
  2
AcAmProject
  3
DesignerAssemblies
 90
        0
280
     0
281
     0
  0
CLASS
  1
ACAMGRCOMPDEF
  2
AcAmGrCompDef
  3
DesignerAssemblies
 90
        0
280
     0
281
     0
  0
CLASS
  1
ACCMCONTEXT
  2
AcCmContext
  3
DesignerAssemblies
 90
        0
280
     0
281
     0
  0
CLASS
  1
ACAMCOMPDEF
  2
AcAmCompDef
  3
DesignerAssemblies
 90
        0
280
     0
281
     0
  0
CLASS
  1
ACAMCOMPDEFMGR
  2
AcAmCompDefMgr
  3
DesignerAssemblies
 90
        0
280
     0
281
     0
  0
CLASS
  1
AMCONTEXTMGR
  2
AcAmContextMgr
  3
DesignerAssemblies
 90
        0
280
     0
281
     0
  0
CLASS
  1
ACAMCONTEXTMODELER
  2
AcAmContextModeler
  3
DesignerAssemblies
 90
        0
280
     0
281
     0
  0
CLASS
  1
ACMDATADICTIONARY
  2
AcmDataDictionary
  3
"AcmSymBB|Product Description: AutoCAD Mechanical 2004 DX|Company: Autodesk"
 90
        0
280
     0
281
     0
  0
CLASS
  1
CATALOGSTATE
  2
AcAmCatalogState
  3
DesignerAssemblies
 90
        0
280
     0
281
     0
  0
CLASS
  1
ACAMGRCOMPDEFSET
  2
AcAmGrCompDefSet
  3
DesignerAssemblies
 90
        0
280
     0
281
     0
  0
CLASS
  1
AMDTBROWSERDBTAB
  2
AmdtBrowserDbTab
  3
McadcomServices
 90
        0
280
     0
281
     0
  0
CLASS
  1
CBROWSERAPPOBJECT
  2
CBrowserAppObject
  3
McadcomServices
 90
        0
280
     0
281
     0
  0
CLASS
  1
DM_PLACEHOLDER
  2
AcDmSelsetPlaceholder
  3
AcMechDwgViewMgmt
 90
        0
280
     0
281
     0
  0
CLASS
  1
ACMSTANDARDDIN
  2
AcmStandardDIN
  3
"Amdt_StdImp|Product Description: AutoCAD Mechanical 2004 DX|Company: Autodesk"
 90
        0
280
     0
281
     0
  0
CLASS
  1
AMGOBJPROPCFG
  2
AmgObjPropCfg
  3
"AmgLay|Product Description: AutoCAD Mechanical 2000|Company: Autodesk"
 90
        1
280
     0
281
     0
  0
CLASS
  1
AMDTEDGESTANDARDDIN13715
  2
AmdtEdgeStdDIN13715
  3
"Amdt_StdImp|Product Description: AutoCAD Mechanical 2004 DX|Company: Autodesk"
 90
        0
280
     0
281
     0
  0
CLASS
  1
ACMSURFSTANDARDDIN
  2
AcmSurfTextStdDIN
  3
"Amdt_StdImp|Product Description: AutoCAD Mechanical 2004 DX|Company: Autodesk"
 90
        0
280
     0
281
     0
  0
CLASS
  1
ACMFCFSTANDARDDIN
  2
AcmFCFStdDIN
  3
"Amdt_StdImp|Product Description: AutoCAD Mechanical 2004 DX|Company: Autodesk"
 90
        0
280
     0
281
     0
  0
CLASS
  1
ACMWELDSTANDARDDIN
  2
AcmWeldingStdDIN
  3
"Amdt_StdImp|Product Description: AutoCAD Mechanical 2004 DX|Company: Autodesk"
 90
        0
280
     0
281
     0
  0
CLASS
  1
ACMIDSTANDARDDIN
  2
AcmIdStdDIN
  3
"Amdt_StdImp|Product Description: AutoCAD Mechanical 2004 DX|Company: Autodesk"
 90
        0
280
     0
281
     0
  0
CLASS
  1
ACMDATUMSTANDARDDIN
  2
AcmDatumStdDIN
  3
"Amdt_StdImp|Product Description: AutoCAD Mechanical 2004 DX|Company: Autodesk"
 90
        0
280
     0
281
     0
  0
CLASS
  1
ACMBOMSTANDARDDIN
  2
AcmBOMStdDIN
  3
"Amdt_StdImp|Product Description: AutoCAD Mechanical 2004 DX|Company: Autodesk"
 90
        0
280
     0
281
     0
  0
CLASS
  1
ACMDETAILSTANDARDDIN
  2
AmdtDetailSymStdDIN
  3
"Amdt_StdImp|Product Description: AutoCAD Mechanical 2004 DX|Company: Autodesk"
 90
        0
280
     0
281
     0
  0
CLASS
  1
ACMSECTIONSTANDARDDIN
  2
AmdtSectionSymStdDIN
  3
"Amdt_StdImp|Product Description: AutoCAD Mechanical 2004 DX|Company: Autodesk"
 90
        0
280
     0
281
     0
  0
CLASS
  1
ACMCENTERLINESTANDARDDIN
  2
AmdtCenterLineStdDIN
  3
"Amdt_StdImp|Product Description: AutoCAD Mechanical 2004 DX|Company: Autodesk"
 90
        0
280
     0
281
     0
  0
CLASS
  1
ACMTHREADLINESTANDARDDIN
  2
AmdtThreadLineStdDIN
  3
"Amdt_StdImp|Product Description: AutoCAD Mechanical 2004 DX|Company: Autodesk"
 90
        0
280
     0
281
     0
  0
CLASS
  1
ACMNOTESTANDARDDIN
  2
AmdtNoteStdDIN
  3
"Amdt_StdImp|Product Description: AutoCAD Mechanical 2004 DX|Company: Autodesk"
 90
        0
280
     0
281
     0
  0
CLASS
  1
AMDTNOTETEMPLATEDB
  2
AmdtNoteTemplateDB
  3
AMDT_STDIMP_MODULE_NAME
 90
        0
280
     0
281
     0
  0
CLASS
  1
ACAMGLAYSTD
  2
AcAmgLayStd
  3
"AcAmgLayStd|Product Description: AutoCAD Mechanical 2000|Company: Autodesk"
 90
        0
280
     0
281
     0
  0
CLASS
  1
ACAMGDIMSTD
  2
AcAmgDimStd
  3
"AcAmgDimStd|Product Description: AutoCAD Mechanical 2000|Company: Autodesk"
 90
        0
280
     0
281
     0
  0
CLASS
  1
ACAMGHOLECHARTSTDDIN
  2
AcAmgHoleChartStdDIN
  3
ACMSYMBB_MODULE_NAME
 90
        0
280
     0
281
     0
  0
CLASS
  1
ACAMGTITLESTD
  2
AcAmgTitleStd
  3
"TITLEAPP"
 90
        0
280
     0
281
     0
  0
CLASS
  1
ACAMGFILTERDAT
  2
AcAmgFilterDat
  3
"AcadM|Product Description: AutoCAD Mechanical 2000|Company: Autodesk"
 90
        0
280
     0
281
     0
  0
CLASS
  1
DICTIONARYVAR
  2
AcDbDictionaryVar
  3
ObjectDBX Classes
 90
        0
280
     0
281
     0
  0
CLASS
  1
ACDBPLACEHOLDER
  2
AcDbPlaceHolder
  3
ObjectDBX Classes
 90
        0
280
     0
281
     0
  0
CLASS
  1
LAYOUT
  2
AcDbLayout
  3
ObjectDBX Classes
 90
        0
280
     0
281
     0
  0
ENDSEC
  0
SECTION
  2
TABLES
  0
TABLE
  2
VPORT
  5
16B3
330
0
100
AcDbSymbolTable
 70
     4
  0
VPORT
  5
1A8E
330
16B3
100
AcDbSymbolTableRecord
100
AcDbViewportTableRecord
  2
*Active
 70
     0
 10
0.0
 20
0.0
 11
1.0
 21
1.0
 12
367.1459220607598
 22
334.5016501721711
 13
0.0
 23
0.0
 14
5.0
 24
5.0
 15
50.0
 25
50.0
 16
0.0
 26
0.0
 36
1.0
 17
0.0
 27
0.0
 37
0.0
 40
566.1248670125616
 41
1.494545454545454
 42
50.0
 43
0.0
 44
0.0
 50
0.0
 51
0.0
 71
     0
 72
  1000
 73
     1
 74
     1
 75
     0
 76
     0
 77
     0
 78
     0
281
     0
 65
     0
110
0.0
120
0.0
130
0.0
111
1.0
121
0.0
131
0.0
112
0.0
122
1.0
132
0.0
 79
     0
146
0.0
  0
ENDTAB
  0
TABLE
  2
LTYPE
  5
16B0
330
0
100
AcDbSymbolTable
 70
    19
  0
LTYPE
  5
16BD
330
16B0
100
AcDbSymbolTableRecord
100
AcDbLinetypeTableRecord
  2
BYBLOCK
 70
     0
  3

 72
    65
 73
     0
 40
0.0
  0
LTYPE
  5
16BE
330
16B0
100
AcDbSymbolTableRecord
100
AcDbLinetypeTableRecord
  2
BYLAYER
 70
     0
  3

 72
    65
 73
     0
 40
0.0
  0
LTYPE
  5
16BF
330
16B0
100
AcDbSymbolTableRecord
100
AcDbLinetypeTableRecord
  2
CONTINUOUS
 70
     0
  3
Solid line
 72
    65
 73
     0
 40
0.0
  0
LTYPE
  5
19ED
330
16B0
100
AcDbSymbolTableRecord
100
AcDbLinetypeTableRecord
  2
HIDDEN
 70
     0
  3
Verdeckt
 72
    65
 73
     2
 40
9.525
 49
6.349999999999999
 74
     0
 49
-3.174999999999999
 74
     0
  0
LTYPE
  5
19EE
330
16B0
100
AcDbSymbolTableRecord
100
AcDbLinetypeTableRecord
  2
PHANTOM2
 70
     0
  3
Phantom (.5x) ___ _ _ ___ _ _ ___ _ _ ___ _ _
 72
    65
 73
     6
 40
31.75
 49
15.875
 74
     0
 49
-3.174999999999999
 74
     0
 49
3.174999999999999
 74
     0
 49
-3.174999999999999
 74
     0
 49
3.174999999999999
 74
     0
 49
-3.174999999999999
 74
     0
  0
LTYPE
  5
19EF
330
16B0
100
AcDbSymbolTableRecord
100
AcDbLinetypeTableRecord
  2
CENTER
 70
     0
  3
Mitte ____ _ ____ _ ____ _ ____ _ ____ _ ____
 72
    65
 73
     4
 40
50.8
 49
31.75
 74
     0
 49
-6.349999999999999
 74
     0
 49
6.349999999999999
 74
     0
 49
-6.349999999999999
 74
     0
  0
LTYPE
  5
1A23
330
16B0
100
AcDbSymbolTableRecord
100
AcDbLinetypeTableRecord
  2
AM_ISO02W050
 70
     0
  3
__ __ __ __ __ __ __ __ __ __ __ __ __ __ __
 72
    65
 73
     2
 40
7.5
 49
6.0
 74
     0
 49
-1.5
 74
     0
  0
LTYPE
  5
1A24
330
16B0
100
AcDbSymbolTableRecord
100
AcDbLinetypeTableRecord
  2
AM_ISO08W050
 70
     0
  3
____ . ____ . ____ . ____ . ____ . ____ . ____
 72
    65
 73
     4
 40
18.0
 49
12.0
 74
     0
 49
-1.5
 74
     0
 49
3.0
 74
     0
 49
-1.5
 74
     0
  0
LTYPE
  5
1A25
330
16B0
100
AcDbSymbolTableRecord
100
AcDbLinetypeTableRecord
  2
AM_ISO09W050
 70
     0
  3
_____ . . _____ . . _____ . . ____ .. ____
 72
    65
 73
     6
 40
22.5
 49
12.0
 74
     0
 49
-1.5
 74
     0
 49
3.0
 74
     0
 49
-1.5
 74
     0
 49
3.0
 74
     0
 49
-1.5
 74
     0
  0
LTYPE
  5
1A26
330
16B0
100
AcDbSymbolTableRecord
100
AcDbLinetypeTableRecord
  2
Amconstr
 70
     0
  3
_______________________
 72
    65
 73
     2
 40
9999.0
 49
9999.0
 74
     0
 49
0.0
 74
     0
  0
LTYPE
  5
1A27
330
16B0
100
AcDbSymbolTableRecord
100
AcDbLinetypeTableRecord
  2
AM_ISO08W050x2
 70
     0
  3
__ . __ . __ . __ . __ . __
 72
    65
 73
     4
 40
9.0
 49
6.0
 74
     0
 49
-0.75
 74
     0
 49
1.5
 74
     0
 49
-0.75
 74
     0
  0
LTYPE
  5
1A28
330
16B0
100
AcDbSymbolTableRecord
100
AcDbLinetypeTableRecord
  2
AM_ISO02W050x2
 70
     0
  3
 _ _ _ _ _ _ _ _ _ _ _ _
 72
    65
 73
     2
 40
3.75
 49
3.0
 74
     0
 49
-0.75
 74
     0
  0
LTYPE
  5
1A2B
330
16B0
100
AcDbSymbolTableRecord
100
AcDbLinetypeTableRecord
  2
Amzigzag
 70
     0
  3
/\/-/\/-/\/-/\/-/\/-/\/
 72
    65
 73
     2
 40
11.0001
 49
0.0001
 74
     4
 75
   136
340
1A2A
 46
0.04
 50
0.0
 44
0.0
 45
0.0
 49
-11.0
 74
     0
  0
LTYPE
  5
1A2C
330
16B0
100
AcDbSymbolTableRecord
100
AcDbLinetypeTableRecord
  2
AM_DIN_F_W050
 70
     0
  3
__ __ __ __ __ __ __ __ __ __ __ __ __ __ __
 72
    65
 73
     2
 40
6.25
 49
4.75
 74
     0
 49
-1.5
 74
     0
  0
LTYPE
  5
1A2D
330
16B0
100
AcDbSymbolTableRecord
100
AcDbLinetypeTableRecord
  2
AM_DIN_G_W050
 70
     0
  3
____ . ____ . ____ . ____ . ____ . ____ . ____
 72
    65
 73
     4
 40
13.75
 49
9.75
 74
     0
 49
-1.5
 74
     0
 49
1.0
 74
     0
 49
-1.5
 74
     0
  0
LTYPE
  5
1A2E
330
16B0
100
AcDbSymbolTableRecord
100
AcDbLinetypeTableRecord
  2
AM_DIN_K_W050
 70
     0
  3
_____ . . _____ . . _____ . . ____ .. ____
 72
    65
 73
     6
 40
16.25
 49
9.75
 74
     0
 49
-1.5
 74
     0
 49
1.0
 74
     0
 49
-1.5
 74
     0
 49
1.0
 74
     0
 49
-1.5
 74
     0
  0
LTYPE
  5
1A2F
330
16B0
100
AcDbSymbolTableRecord
100
AcDbLinetypeTableRecord
  2
AM_DIN_G_W050x2
 70
     0
  3
__ . __ . __ . __ . __ . __
 72
    65
 73
     4
 40
6.875
 49
4.75
 74
     0
 49
-0.875
 74
     0
 49
0.375
 74
     0
 49
-0.875
 74
     0
  0
LTYPE
  5
1A30
330
16B0
100
AcDbSymbolTableRecord
100
AcDbLinetypeTableRecord
  2
AM_DIN_F_W050x2
 70
     0
  3
 _ _ _ _ _ _ _ _ _ _ _ _
 72
    65
 73
     2
 40
3.125
 49
2.25
 74
     0
 49
-0.875
 74
     0
  0
LTYPE
  5
1A3F
330
16B0
100
AcDbSymbolTableRecord
100
AcDbLinetypeTableRecord
  2
ACDINWELD
 70
     0
  3
_ _ _ _ _
 72
    65
 73
     2
 40
2.0
 49
2.0
 74
     0
 49
-1.0
 74
     0
  0
LTYPE
  5
1A40
330
16B0
100
AcDbSymbolTableRecord
100
AcDbLinetypeTableRecord
  2
ACDINTGB
 70
     0
  3
__ . . __ . .
 72
    65
 73
     6
 40
9.0
 49
4.0
 74
     0
 49
-1.0
 74
     0
 49
1.0
 74
     0
 49
-1.0
 74
     0
 49
1.0
 74
     0
 49
-1.0
 74
     0
  0
LTYPE
  5
1A41
330
16B0
100
AcDbSymbolTableRecord
100
AcDbLinetypeTableRecord
  2
ACDINTGL
 70
     0
  3
_ _ _ _ _
 72
    65
 73
     2
 40
3.0
 49
2.0
 74
     0
 49
-1.0
 74
     0
  0
ENDTAB
  0
TABLE
  2
LAYER
  5
16AD
330
0
100
AcDbSymbolTable
 70
     8
  0
LAYER
  5
16B9
330
16AD
100
AcDbSymbolTableRecord
100
AcDbLayerTableRecord
  2
0
 70
     0
 62
     7
  6
CONTINUOUS
370
    -3
390
19B1
  0
LAYER
  5
16D6
330
16AD
100
AcDbSymbolTableRecord
100
AcDbLayerTableRecord
  2
5
 70
     0
 62
     3
  6
CONTINUOUS
370
    -3
390
19B1
  0
LAYER
  5
16D9
330
16AD
100
AcDbSymbolTableRecord
100
AcDbLayerTableRecord
  2
8
 70
     0
 62
     1
  6
CONTINUOUS
370
    -3
390
19B1
  0
LAYER
  5
16DA
330
16AD
100
AcDbSymbolTableRecord
100
AcDbLayerTableRecord
  2
PUNKTE
 70
     0
 62
     1
  6
CONTINUOUS
370
    -3
390
19B1
  0
LAYER
  5
16DB
330
16AD
100
AcDbSymbolTableRecord
100
AcDbLayerTableRecord
  2
SCHRAFFUR_RAND
 70
     0
 62
    36
  6
CONTINUOUS
370
    -3
390
19B1
  0
LAYER
  5
1705
330
16AD
100
AcDbSymbolTableRecord
100
AcDbLayerTableRecord
  2
DEFPOINTS
 70
     0
 62
     7
  6
CONTINUOUS
290
     0
370
    -3
390
19B1
  0
LAYER
  5
1729
330
16AD
100
AcDbSymbolTableRecord
100
AcDbLayerTableRecord
  2
RAHM2
 70
     0
 62
     1
  6
CONTINUOUS
370
    -3
390
19B1
  0
LAYER
  5
172A
330
16AD
100
AcDbSymbolTableRecord
100
AcDbLayerTableRecord
  2
RAHM3
 70
     0
 62
     2
  6
CONTINUOUS
370
    -3
390
19B1
  0
ENDTAB
  0
TABLE
  2
STYLE
  5
16AE
330
0
100
AcDbSymbolTable
 70
     4
  0
STYLE
  5
16BA
330
16AE
100
AcDbSymbolTableRecord
100
AcDbTextStyleTableRecord
  2
STANDARD
 70
     0
 40
0.0
 41
1.0
 50
0.0
 71
     0
 42
12.5
  3
ISOCP.SHX
  4

  0
STYLE
  5
1A2A
330
16AE
100
AcDbSymbolTableRecord
100
AcDbTextStyleTableRecord
  2

 70
     1
 40
0.0
 41
1.0
 50
0.0
 71
     0
 42
0.2
  3
genltshp.shx
  4

  0
STYLE
  5
1A31
330
16AE
100
AcDbSymbolTableRecord
100
AcDbTextStyleTableRecord
  2
ACDINTS
 70
     0
 40
1.0
 41
1.0
 50
0.0
 71
     0
 42
0.2
  3
isocp.shx
  4

  0
STYLE
  5
1A3E
330
16AE
100
AcDbSymbolTableRecord
100
AcDbTextStyleTableRecord
  2
ACDINGDT
 70
     0
 40
0.0
 41
1.0
 50
0.0
 71
     0
 42
0.2
  3
AMGDT
  4

  0
ENDTAB
  0
TABLE
  2
VIEW
  5
16B1
330
0
100
AcDbSymbolTable
 70
     6
  0
VIEW
  5
1768
330
16B1
100
AcDbSymbolTableRecord
100
AcDbViewTableRecord
  2
GEN1
 70
     0
 40
525.0
 10
403.491903
 20
787.5
 41
806.983806
 11
0.0
 21
0.0
 31
1.0
 12
0.0
 22
0.0
 32
0.0
 42
50.0
 43
0.0
 44
0.0
 50
0.0
 71
     0
281
     0
 72
     0
  0
VIEW
  5
1769
330
16B1
100
AcDbSymbolTableRecord
100
AcDbViewTableRecord
  2
GEN2
 70
     0
 40
525.0
 10
646.508097
 20
787.5
 41
806.983806
 11
0.0
 21
0.0
 31
1.0
 12
0.0
 22
0.0
 32
0.0
 42
50.0
 43
0.0
 44
0.0
 50
0.0
 71
     0
281
     0
 72
     0
  0
VIEW
  5
176A
330
16B1
100
AcDbSymbolTableRecord
100
AcDbViewTableRecord
  2
GEN3
 70
     0
 40
525.0
 10
403.491903
 20
262.5
 41
806.983806
 11
0.0
 21
0.0
 31
1.0
 12
0.0
 22
0.0
 32
0.0
 42
50.0
 43
0.0
 44
0.0
 50
0.0
 71
     0
281
     0
 72
     0
  0
VIEW
  5
176B
330
16B1
100
AcDbSymbolTableRecord
100
AcDbViewTableRecord
  2
GEN4
 70
     0
 40
525.0
 10
646.508097
 20
262.5
 41
806.983806
 11
0.0
 21
0.0
 31
1.0
 12
0.0
 22
0.0
 32
0.0
 42
50.0
 43
0.0
 44
0.0
 50
0.0
 71
     0
281
     0
 72
     0
  0
VIEW
  5
176C
330
16B1
100
AcDbSymbolTableRecord
100
AcDbViewTableRecord
  2
GEN5
 70
     0
 40
525.0
 10
525.0
 20
525.0
 41
806.983806
 11
0.0
 21
0.0
 31
1.0
 12
0.0
 22
0.0
 32
0.0
 42
50.0
 43
0.0
 44
0.0
 50
0.0
 71
     0
281
     0
 72
     0
  0
VIEW
  5
176D
330
16B1
100
AcDbSymbolTableRecord
100
AcDbViewTableRecord
  2
GEN6
 70
     0
 40
1049.9895
 10
525.0
 20
525.0
 41
1613.951472
 11
0.0
 21
0.0
 31
1.0
 12
0.0
 22
0.0
 32
0.0
 42
50.0
 43
0.0
 44
0.0
 50
0.0
 71
     0
281
     0
 72
     0
  0
ENDTAB
  0
TABLE
  2
UCS
  5
16B2
330
0
100
AcDbSymbolTable
 70
     0
  0
ENDTAB
  0
TABLE
  2
APPID
  5
16B4
330
0
100
AcDbSymbolTable
 70
    38
  0
APPID
  5
16BB
330
16B4
100
AcDbSymbolTableRecord
100
AcDbRegAppTableRecord
  2
ACAD
 70
     0
  0
APPID
  5
16F5
330
16B4
100
AcDbSymbolTableRecord
100
AcDbRegAppTableRecord
  2
GENIUS_GENCFG_13
 70
     0
1001
GENIUS_DUMCFG0_13
1000
DUM
1001
GENIUS_GENCFG0_13
1000
GEN@INFO_POS@XLATE
1001
GENIUS_GENCFG1_13
1000
GEN@INFO_POS
1001
GENIUS_GENCFG2_13
1000
GEN@LAYER@DEFS
1001
GENIUS_GENCFG3_13
1000
GEN@LAYER@ENTSORT
1001
GENIUS_GENCFG4_13
1000
GEN
1001
GENIUS_GEVCFG0_13
1000
GEV
  0
APPID
  5
16F6
330
16B4
100
AcDbSymbolTableRecord
100
AcDbRegAppTableRecord
  2
GENIUS_DUMCFG0_13
 70
     0
1001
GENIUS_GENCFG_13
1071
922180494
1000
16F6
1000
DUM
1070
     0
  0
APPID
  5
16F7
330
16B4
100
AcDbSymbolTableRecord
100
AcDbRegAppTableRecord
  2
GENIUS_GENCFG0_13
 70
     0
1001
GENIUS_GENCFG_13
1071
1043072397
1000
16F7
1000
GEN@INFO_POS@XLATE
1070
     8
1000
GenCfgObject
1000
GenCfgShort
1000
GenCfgReal
1000
GenCfgBool
1000
GenCfgString
1000
GenCfgDim
1000
GenCfgPoint
1000
GenCfgAttrInf
1000
INFOPOINTS
1070
     0
1002
{
1000
GENINF14
1070
     0
1002
{
1000
2GENINF
1070
     4
1000
2
1002
{
1002
}
1000
5GENINF
1070
     4
1000
5
1002
{
1002
}
1000
7GENINF
1070
     4
1000
7
1002
{
1002
}
1000
9GENINF
1070
     4
1000
9
1002
{
1002
}
1000
11GENINF
1070
     4
1000
11
1002
{
1002
}
1000
14GENINF
1070
     4
1000
14
1002
{
1002
}
1002
}
1000
GENINF13
1070
     0
1002
{
1000
2GENINF
1070
     4
1000
2
1002
{
1002
}
1000
3GENINF
1070
     4
1000
3
1002
{
1002
}
1000
4GENINF
1070
     4
1000
4
1002
{
1002
}
1000
5GENINF
1070
     4
1000
5
1002
{
1002
}
1000
6GENINF
1070
     4
1000
6
1002
{
1002
}
1000
7GENINF
1070
     4
1000
7
1002
{
1002
}
1000
8GENINF
1070
     4
1000
8
1002
{
1002
}
1000
9GENINF
1070
     4
1000
9
1002
{
1002
}
1000
10GENINF
1070
     4
1000
10
1002
{
1002
}
1000
11GENINF
1070
     4
1000
11
1002
{
1002
}
1000
12GENINF
1070
     4
1000
12
1002
{
1002
}
1000
13GENINF
1070
     4
1000
13
1002
{
1002
}
1000
14GENINF
1070
     4
1000
14
1002
{
1002
}
1000
15GENINF
1070
     4
1000
15
1002
{
1002
}
1000
16GENINF
1070
     4
1000
16
1002
{
1002
}
1000
17GENINF
1070
     4
1000
17
1002
{
1002
}
1000
18GENINF
1070
     4
1000
18
1002
{
1002
}
1000
19GENINF
1070
     4
1000
19
1002
{
1002
}
1000
20GENINF
1070
     4
1000
20
1002
{
1002
}
1000
21GENINF
1070
     4
1000
21
1002
{
1002
}
1000
22GENINF
1070
     4
1000
22
1002
{
1002
}
1000
23GENINF
1070
     4
1000
23
1002
{
1002
}
1000
24GENINF
1070
     4
1000
24
1002
{
1002
}
1000
0GENINF
1070
     4
1000
0
1002
{
1002
}
1002
}
1000
GENINFO
1070
     0
1002
{
1000
3GENINF
1070
     4
1000
3
1002
{
1002
}
1000
4GENINF
1070
     4
1000
4
1002
{
1002
}
1000
5GENINF
1070
     4
1000
5
1002
{
1002
}
1000
6GENINF
1070
     4
1000
6
1002
{
1002
}
1000
7GENINF
1070
     4
1000
7
1002
{
1002
}
1000
8GENINF
1070
     4
1000
8
1002
{
1002
}
1000
9GENINF
1070
     4
1000
9
1002
{
1002
}
1000
10GENINF
1070
     4
1000
10
1002
{
1002
}
1000
11GENINF
1070
     4
1000
11
1002
{
1002
}
1000
12GENINF
1070
     4
1000
12
1002
{
1002
}
1000
13GENINF
1070
     4
1000
13
1002
{
1002
}
1000
14GENINF
1070
     4
1000
14
1002
{
1002
}
1000
15GENINF
1070
     4
1000
15
1002
{
1002
}
1000
16GENINF
1070
     4
1000
16
1002
{
1002
}
1000
17GENINF
1070
     4
1000
17
1002
{
1002
}
1000
18GENINF
1070
     4
1000
18
1002
{
1002
}
1000
19GENINF
1070
     4
1000
19
1002
{
1002
}
1000
20GENINF
1070
     4
1000
20
1002
{
1002
}
1000
21GENINF
1070
     4
1000
21
1002
{
1002
}
1000
22GENINF
1070
     4
1000
22
1002
{
1002
}
1002
}
1000
DININFO
1070
     0
1002
{
1000
ST-NAME1
1070
     4
1000
5
1002
{
1002
}
1000
ST-NAME2
1070
     4
1000
6
1002
{
1002
}
1000
ST-NORM1
1070
     4
1000
7
1002
{
1002
}
1000
ST-NORM2
1070
     4
1000
8
1002
{
1002
}
1000
ST-MAT1
1070
     4
1000
9
1002
{
1002
}
1000
ST-MAT2
1070
     4
1000
10
1002
{
1002
}
1002
}
1002
}
1000
POS_NUMBERS
1070
     0
1002
{
1000
GENPOS14
1070
     0
1002
{
1000
1GENPOS
1070
     4
1000
1
1002
{
1002
}
1000
2GENPOS
1070
     4
1000
2
1002
{
1002
}
1000
5GENPOS
1070
     4
1000
5
1002
{
1002
}
1000
7GENPOS
1070
     4
1000
7
1002
{
1002
}
1000
9GENPOS
1070
     4
1000
9
1002
{
1002
}
1000
11GENPOS
1070
     4
1000
11
1002
{
1002
}
1000
14GENPOS
1070
     4
1000
14
1002
{
1002
}
1002
}
1000
GENPOS13
1070
     0
1002
{
1000
1GENPOS
1070
     4
1000
1
1002
{
1002
}
1000
2GENPOS
1070
     4
1000
2
1002
{
1002
}
1000
3GENPOS
1070
     4
1000
3
1002
{
1002
}
1000
4GENPOS
1070
     4
1000
4
1002
{
1002
}
1000
5GENPOS
1070
     4
1000
5
1002
{
1002
}
1000
6GENPOS
1070
     4
1000
6
1002
{
1002
}
1000
7GENPOS
1070
     4
1000
7
1002
{
1002
}
1000
8GENPOS
1070
     4
1000
8
1002
{
1002
}
1000
9GENPOS
1070
     4
1000
9
1002
{
1002
}
1000
10GENPOS
1070
     4
1000
10
1002
{
1002
}
1000
11GENPOS
1070
     4
1000
11
1002
{
1002
}
1000
12GENPOS
1070
     4
1000
12
1002
{
1002
}
1000
13GENPOS
1070
     4
1000
13
1002
{
1002
}
1000
14GENPOS
1070
     4
1000
14
1002
{
1002
}
1000
15GENPOS
1070
     4
1000
15
1002
{
1002
}
1000
16GENPOS
1070
     4
1000
16
1002
{
1002
}
1000
17GENPOS
1070
     4
1000
17
1002
{
1002
}
1000
18GENPOS
1070
     4
1000
18
1002
{
1002
}
1000
19GENPOS
1070
     4
1000
19
1002
{
1002
}
1000
20GENPOS
1070
     4
1000
20
1002
{
1002
}
1000
21GENPOS
1070
     4
1000
21
1002
{
1002
}
1000
22GENPOS
1070
     4
1000
22
1002
{
1002
}
1000
23GENPOS
1070
     4
1000
23
1002
{
1002
}
1000
24GENPOS
1070
     4
1000
24
1002
{
1002
}
1000
0GENPOS
1070
     4
1000
0
1002
{
1002
}
1002
}
1000
GENPOS
1070
     0
1002
{
1000
1GENPOS
1070
     4
1000
1
1002
{
1002
}
1000
2GENPOS
1070
     4
1000
2
1002
{
1002
}
1000
3GENPOS
1070
     4
1000
3
1002
{
1002
}
1000
4GENPOS
1070
     4
1000
4
1002
{
1002
}
1000
5GENPOS
1070
     4
1000
5
1002
{
1002
}
1000
6GENPOS
1070
     4
1000
6
1002
{
1002
}
1000
7GENPOS
1070
     4
1000
7
1002
{
1002
}
1000
8GENPOS
1070
     4
1000
8
1002
{
1002
}
1000
9GENPOS
1070
     4
1000
9
1002
{
1002
}
1000
10GENPOS
1070
     4
1000
10
1002
{
1002
}
1000
11GENPOS
1070
     4
1000
11
1002
{
1002
}
1000
12GENPOS
1070
     4
1000
12
1002
{
1002
}
1000
13GENPOS
1070
     4
1000
13
1002
{
1002
}
1000
14GENPOS
1070
     4
1000
14
1002
{
1002
}
1000
15GENPOS
1070
     4
1000
15
1002
{
1002
}
1000
16GENPOS
1070
     4
1000
16
1002
{
1002
}
1000
17GENPOS
1070
     4
1000
17
1002
{
1002
}
1000
18GENPOS
1070
     4
1000
18
1002
{
1002
}
1000
19GENPOS
1070
     4
1000
19
1002
{
1002
}
1000
20GENPOS
1070
     4
1000
20
1002
{
1002
}
1000
21GENPOS
1070
     4
1000
21
1002
{
1002
}
1000
22GENPOS
1070
     4
1000
22
1002
{
1002
}
1000
23GENPOS
1070
     4
1000
23
1002
{
1002
}
1002
}
1000
DIN985
1070
     0
1002
{
1000
POSITION
1070
     4
1000
1
1002
{
1002
}
1000
MENGE
1070
     4
1000
2
1002
{
1002
}
1000
BLATT
1070
     4
1000
3
1002
{
1002
}
1000
BENENN
1070
     4
1000
5
1002
{
1002
}
1000
BENENN2
1070
     4
1000
6
1002
{
1002
}
1000
NORM
1070
     4
1000
7
1002
{
1002
}
1000
NORM2
1070
     4
1000
8
1002
{
1002
}
1000
WERKSTOFF
1070
     4
1000
9
1002
{
1002
}
1000
WERKSTOFF2
1070
     4
1000
10
1002
{
1002
}
1002
}
1000
DIN986
1070
     0
1002
{
1000
POSITION
1070
     4
1000
1
1002
{
1002
}
1000
MENGE
1070
     4
1000
2
1002
{
1002
}
1000
BLATT
1070
     4
1000
3
1002
{
1002
}
1000
BENENN
1070
     4
1000
5
1002
{
1002
}
1000
BENENN2
1070
     4
1000
6
1002
{
1002
}
1000
NORM
1070
     4
1000
7
1002
{
1002
}
1000
NORM2
1070
     4
1000
8
1002
{
1002
}
1000
WERKSTOFF
1070
     4
1000
9
1002
{
1002
}
1000
WERKSTOFF2
1070
     4
1000
10
1002
{
1002
}
1002
}
1000
DIN987
1070
     0
1002
{
1000
POSITION
1070
     4
1000
1
1002
{
1002
}
1000
MENGE
1070
     4
1000
2
1002
{
1002
}
1000
BLATT
1070
     4
1000
3
1002
{
1002
}
1000
BENENN
1070
     4
1000
5
1002
{
1002
}
1000
BENENN2
1070
     4
1000
6
1002
{
1002
}
1000
NORM
1070
     4
1000
7
1002
{
1002
}
1000
NORM2
1070
     4
1000
8
1002
{
1002
}
1000
WERKSTOFF
1070
     4
1000
9
1002
{
1002
}
1000
WERKSTOFF2
1070
     4
1000
10
1002
{
1002
}
1002
}
1002
}
  0
APPID
  5
16F8
330
16B4
100
AcDbSymbolTableRecord
100
AcDbRegAppTableRecord
  2
GENIUS_GENCFG1_13
 70
     0
1001
GENIUS_GENCFG_13
1071
1043072397
1000
16F8
1000
GEN@INFO_POS
1070
     8
1000
GenCfgObject
1000
GenCfgShort
1000
GenCfgReal
1000
GenCfgBool
1000
GenCfgString
1000
GenCfgDim
1000
GenCfgPoint
1000
GenCfgAttrInf
1000
DescrText
1070
     4
1000
5, ,6, ,7, ,8
1002
{
1002
}
1000
DescrText2
1070
     4
1000
26
1002
{
1002
}
1000
VisibleAttr1
1070
     4
1000
1
1002
{
1002
}
1000
VisibleAttr2
1070
     4
1000
26
1002
{
1002
}
1000
UpdateBlock
1070
     3
1070
     1
1002
{
1002
}
1000
Attrib
1070
     0
1002
{
1000
0
1070
     7
1002
{
1000
Prompt
1070
     4
1000
(genmsg gendwg 103)
1002
{
1002
}
1000
Value
1070
     4
1000

1002
{
1002
}
1000
EditFlag
1070
     1
1070
     0
1002
{
1002
}
1000
PosInDDATTE
1070
     1
1070
    27
1002
{
1002
}
1000
FieldLen
1070
     1
1070
    -1
1002
{
1002
}
1002
}
1000
1
1070
     7
1002
{
1000
Prompt
1070
     4
1000
(genmsg gendwg 31)
1002
{
1002
}
1000
Value
1070
     4
1000
1
1002
{
1002
}
1000
EditFlag
1070
     1
1070
     1
1002
{
1002
}
1000
PosInDDATTE
1070
     1
1070
     1
1002
{
1002
}
1000
FieldLen
1070
     1
1070
    -1
1002
{
1002
}
1002
}
1000
2
1070
     7
1002
{
1000
Prompt
1070
     4
1000
(genmsg gendwg 32)
1002
{
1002
}
1000
Value
1070
     4
1000
1
1002
{
1002
}
1000
EditFlag
1070
     1
1070
     1
1002
{
1002
}
1000
PosInDDATTE
1070
     1
1070
     2
1002
{
1002
}
1000
FieldLen
1070
     1
1070
    -1
1002
{
1002
}
1002
}
1000
3
1070
     7
1002
{
1000
Prompt
1070
     4
1000
(genmsg gendwg 33)
1002
{
1002
}
1000
Value
1070
     4
1000

1002
{
1002
}
1000
EditFlag
1070
     1
1070
     1
1002
{
1002
}
1000
PosInDDATTE
1070
     1
1070
     3
1002
{
1002
}
1000
FieldLen
1070
     1
1070
    -1
1002
{
1002
}
1002
}
1000
4
1070
     7
1002
{
1000
Prompt
1070
     4
1000
(genmsg gendwg 34)
1002
{
1002
}
1000
Value
1070
     4
1000

1002
{
1002
}
1000
EditFlag
1070
     1
1070
     1
1002
{
1002
}
1000
PosInDDATTE
1070
     1
1070
     4
1002
{
1002
}
1000
FieldLen
1070
     1
1070
    -1
1002
{
1002
}
1002
}
1000
5
1070
     7
1002
{
1000
Prompt
1070
     4
1000
(genmsg gendwg 35)
1002
{
1002
}
1000
Value
1070
     4
1000

1002
{
1002
}
1000
EditFlag
1070
     1
1070
     1
1002
{
1002
}
1000
PosInDDATTE
1070
     1
1070
     5
1002
{
1002
}
1000
FieldLen
1070
     1
1070
    -1
1002
{
1002
}
1002
}
1000
6
1070
     7
1002
{
1000
Prompt
1070
     4
1000
(genmsg gendwg 36)
1002
{
1002
}
1000
Value
1070
     4
1000

1002
{
1002
}
1000
EditFlag
1070
     1
1070
     1
1002
{
1002
}
1000
PosInDDATTE
1070
     1
1070
     6
1002
{
1002
}
1000
FieldLen
1070
     1
1070
    -1
1002
{
1002
}
1002
}
1000
7
1070
     7
1002
{
1000
Prompt
1070
     4
1000
(genmsg gendwg 37)
1002
{
1002
}
1000
Value
1070
     4
1000

1002
{
1002
}
1000
EditFlag
1070
     1
1070
     1
1002
{
1002
}
1000
PosInDDATTE
1070
     1
1070
     7
1002
{
1002
}
1000
FieldLen
1070
     1
1070
    -1
1002
{
1002
}
1002
}
1000
8
1070
     7
1002
{
1000
Prompt
1070
     4
1000
(genmsg gendwg 38)
1002
{
1002
}
1000
Value
1070
     4
1000

1002
{
1002
}
1000
EditFlag
1070
     1
1070
     1
1002
{
1002
}
1000
PosInDDATTE
1070
     1
1070
     8
1002
{
1002
}
1000
FieldLen
1070
     1
1070
    -1
1002
{
1002
}
1002
}
1000
9
1070
     7
1002
{
1000
Prompt
1070
     4
1000
(genmsg gendwg 39)
1002
{
1002
}
1000
Value
1070
     4
1000

1002
{
1002
}
1000
EditFlag
1070
     1
1070
     1
1002
{
1002
}
1000
PosInDDATTE
1070
     1
1070
     9
1002
{
1002
}
1000
FieldLen
1070
     1
1070
    -1
1002
{
1002
}
1002
}
1000
10
1070
     7
1002
{
1000
Prompt
1070
     4
1000
(genmsg gendwg 40)
1002
{
1002
}
1000
Value
1070
     4
1000

1002
{
1002
}
1000
EditFlag
1070
     1
1070
     1
1002
{
1002
}
1000
PosInDDATTE
1070
     1
1070
    10
1002
{
1002
}
1000
FieldLen
1070
     1
1070
    -1
1002
{
1002
}
1002
}
1000
11
1070
     7
1002
{
1000
Prompt
1070
     4
1000
(genmsg gendwg 41)
1002
{
1002
}
1000
Value
1070
     4
1000

1002
{
1002
}
1000
EditFlag
1070
     1
1070
     1
1002
{
1002
}
1000
PosInDDATTE
1070
     1
1070
    11
1002
{
1002
}
1000
FieldLen
1070
     1
1070
    -1
1002
{
1002
}
1002
}
1000
12
1070
     7
1002
{
1000
Prompt
1070
     4
1000
(genmsg gendwg 42)
1002
{
1002
}
1000
Value
1070
     4
1000

1002
{
1002
}
1000
EditFlag
1070
     1
1070
     1
1002
{
1002
}
1000
PosInDDATTE
1070
     1
1070
    12
1002
{
1002
}
1000
FieldLen
1070
     1
1070
    -1
1002
{
1002
}
1002
}
1000
13
1070
     7
1002
{
1000
Prompt
1070
     4
1000
(genmsg gendwg 43)
1002
{
1002
}
1000
Value
1070
     4
1000

1002
{
1002
}
1000
EditFlag
1070
     1
1070
     1
1002
{
1002
}
1000
PosInDDATTE
1070
     1
1070
    13
1002
{
1002
}
1000
FieldLen
1070
     1
1070
    -1
1002
{
1002
}
1002
}
1000
14
1070
     7
1002
{
1000
Prompt
1070
     4
1000
(genmsg gendwg 44)
1002
{
1002
}
1000
Value
1070
     4
1000

1002
{
1002
}
1000
EditFlag
1070
     1
1070
     1
1002
{
1002
}
1000
PosInDDATTE
1070
     1
1070
    14
1002
{
1002
}
1000
FieldLen
1070
     1
1070
    -1
1002
{
1002
}
1002
}
1000
15
1070
     7
1002
{
1000
Prompt
1070
     4
1000
(genmsg gendwg 45)
1002
{
1002
}
1000
Value
1070
     4
1000

1002
{
1002
}
1000
EditFlag
1070
     1
1070
     1
1002
{
1002
}
1000
PosInDDATTE
1070
     1
1070
    15
1002
{
1002
}
1000
FieldLen
1070
     1
1070
    -1
1002
{
1002
}
1002
}
1000
16
1070
     7
1002
{
1000
Prompt
1070
     4
1000
(genmsg gendwg 46)
1002
{
1002
}
1000
Value
1070
     4
1000

1002
{
1002
}
1000
EditFlag
1070
     1
1070
     1
1002
{
1002
}
1000
PosInDDATTE
1070
     1
1070
    16
1002
{
1002
}
1000
FieldLen
1070
     1
1070
    -1
1002
{
1002
}
1002
}
1000
17
1070
     7
1002
{
1000
Prompt
1070
     4
1000
(genmsg gendwg 47)
1002
{
1002
}
1000
Value
1070
     4
1000

1002
{
1002
}
1000
EditFlag
1070
     1
1070
     1
1002
{
1002
}
1000
PosInDDATTE
1070
     1
1070
    17
1002
{
1002
}
1000
FieldLen
1070
     1
1070
    -1
1002
{
1002
}
1002
}
1000
18
1070
     7
1002
{
1000
Prompt
1070
     4
1000
(genmsg gendwg 48)
1002
{
1002
}
1000
Value
1070
     4
1000

1002
{
1002
}
1000
EditFlag
1070
     1
1070
     1
1002
{
1002
}
1000
PosInDDATTE
1070
     1
1070
    18
1002
{
1002
}
1000
FieldLen
1070
     1
1070
    -1
1002
{
1002
}
1002
}
1000
19
1070
     7
1002
{
1000
Prompt
1070
     4
1000
(genmsg gendwg 99)
1002
{
1002
}
1000
Value
1070
     4
1000

1002
{
1002
}
1000
EditFlag
1070
     1
1070
     1
1002
{
1002
}
1000
PosInDDATTE
1070
     1
1070
    19
1002
{
1002
}
1000
FieldLen
1070
     1
1070
    -1
1002
{
1002
}
1002
}
1000
20
1070
     7
1002
{
1000
Prompt
1070
     4
1000
(genmsg gendwg 100)
1002
{
1002
}
1000
Value
1070
     4
1000

1002
{
1002
}
1000
EditFlag
1070
     1
1070
     1
1002
{
1002
}
1000
PosInDDATTE
1070
     1
1070
    20
1002
{
1002
}
1000
FieldLen
1070
     1
1070
    -1
1002
{
1002
}
1002
}
1000
21
1070
     7
1002
{
1000
Prompt
1070
     4
1000
(genmsg gendwg 101)
1002
{
1002
}
1000
Value
1070
     4
1000

1002
{
1002
}
1000
EditFlag
1070
     1
1070
     1
1002
{
1002
}
1000
PosInDDATTE
1070
     1
1070
    21
1002
{
1002
}
1000
FieldLen
1070
     1
1070
    -1
1002
{
1002
}
1002
}
1000
22
1070
     7
1002
{
1000
Prompt
1070
     4
1000
(genmsg gendwg 102)
1002
{
1002
}
1000
Value
1070
     4
1000

1002
{
1002
}
1000
EditFlag
1070
     1
1070
     1
1002
{
1002
}
1000
PosInDDATTE
1070
     1
1070
    22
1002
{
1002
}
1000
FieldLen
1070
     1
1070
    -1
1002
{
1002
}
1002
}
1000
23
1070
     7
1002
{
1000
Prompt
1070
     4
1000
(genmsg gendwg 30)
1002
{
1002
}
1000
Value
1070
     4
1000

1002
{
1002
}
1000
EditFlag
1070
     1
1070
     1
1002
{
1002
}
1000
PosInDDATTE
1070
     1
1070
    23
1002
{
1002
}
1000
FieldLen
1070
     1
1070
    -1
1002
{
1002
}
1002
}
1000
24
1070
     7
1002
{
1000
Prompt
1070
     4
1000
(genmsg gendwg 104)
1002
{
1002
}
1000
Value
1070
     4
1000

1002
{
1002
}
1000
EditFlag
1070
     1
1070
     1
1002
{
1002
}
1000
PosInDDATTE
1070
     1
1070
    24
1002
{
1002
}
1000
FieldLen
1070
     1
1070
    -1
1002
{
1002
}
1002
}
1000
25
1070
     7
1002
{
1000
Prompt
1070
     4
1000
(genmsg gendwg 105)
1002
{
1002
}
1000
Value
1070
     4
1000

1002
{
1002
}
1000
EditFlag
1070
     1
1070
     1
1002
{
1002
}
1000
PosInDDATTE
1070
     1
1070
    25
1002
{
1002
}
1000
FieldLen
1070
     1
1070
    -1
1002
{
1002
}
1002
}
1000
26
1070
     7
1002
{
1000
Prompt
1070
     4
1000
(genmsg gendwg 106)
1002
{
1002
}
1000
Value
1070
     4
1000

1002
{
1002
}
1000
EditFlag
1070
     1
1070
     1
1002
{
1002
}
1000
PosInDDATTE
1070
     1
1070
    26
1002
{
1002
}
1000
FieldLen
1070
     1
1070
    -1
1002
{
1002
}
1002
}
1000
27
1070
     7
1002
{
1000
Prompt
1070
     4
1000
(genmsg gendwg 109)
1002
{
1002
}
1000
Value
1070
     4
1000

1002
{
1002
}
1000
EditFlag
1070
     1
1070
     2
1002
{
1002
}
1000
PosInDDATTE
1070
     1
1070
    27
1002
{
1002
}
1000
FieldLen
1070
     1
1070
    -1
1002
{
1002
}
1002
}
1002
}
1000
Xlate
1070
     0
1002
{
1000
>
1002
}
  0
APPID
  5
16F9
330
16B4
100
AcDbSymbolTableRecord
100
AcDbRegAppTableRecord
  2
GENIUS_GENCFG2_13
 70
     0
1001
GENIUS_GENCFG_13
1071
1043072397
1000
16F9
1000
GEN@LAYER@DEFS
1070
    10
1000
GenCfgObject
1000
GenCfgShort
1000
GenCfgReal
1000
GenCfgBool
1000
GenCfgString
1000
GenCfgDim
1000
GenCfgPoint
1000
GenCfgAttrInf
1000
GenCfgLaySection
1000
GenCfgLayer
1000
Basic
1070
     0
1002
{
1000
0
1070
     9
1000
0
1002
{
1000
Color
1070
     1
1070
     7
1002
{
1002
}
1000
LType
1070
     4
1000
CONTINUOUS
1002
{
1002
}
1000
Base
1070
     3
1070
     0
1002
{
1002
}
1002
}
1000
1
1070
     9
1000
1
1002
{
1000
Color
1070
     1
1070
    14
1002
{
1002
}
1000
LType
1070
     4
1000
CONTINUOUS
1002
{
1002
}
1000
Base
1070
     3
1070
     0
1002
{
1002
}
1002
}
1000
2
1070
     9
1000
2
1002
{
1000
Color
1070
     1
1070
     5
1002
{
1002
}
1000
LType
1070
     4
1000
CONTINUOUS
1002
{
1002
}
1000
Base
1070
     3
1070
     0
1002
{
1002
}
1002
}
1000
3
1070
     9
1000
3
1002
{
1000
Color
1070
     1
1070
     6
1002
{
1002
}
1000
LType
1070
     4
1000
GEN3
1002
{
1002
}
1000
Base
1070
     3
1070
     0
1002
{
1002
}
1002
}
1000
4
1070
     9
1000
4
1002
{
1000
Color
1070
     1
1070
     3
1002
{
1002
}
1000
LType
1070
     4
1000
CONTINUOUS
1002
{
1002
}
1000
Base
1070
     3
1070
     0
1002
{
1002
}
1002
}
1000
5
1070
     9
1000
5
1002
{
1000
Color
1070
     1
1070
     3
1002
{
1002
}
1000
LType
1070
     4
1000
CONTINUOUS
1002
{
1002
}
1000
Base
1070
     3
1070
     0
1002
{
1002
}
1002
}
1000
6
1070
     9
1000
6
1002
{
1000
Color
1070
     1
1070
     2
1002
{
1002
}
1000
LType
1070
     4
1000
CONTINUOUS
1002
{
1002
}
1000
Base
1070
     3
1070
     0
1002
{
1002
}
1002
}
1000
7
1070
     9
1000
7
1002
{
1000
Color
1070
     1
1070
     4
1002
{
1002
}
1000
LType
1070
     4
1000
GEN7
1002
{
1002
}
1000
Base
1070
     3
1070
     0
1002
{
1002
}
1002
}
1000
8
1070
     9
1000
8
1002
{
1000
Color
1070
     1
1070
     1
1002
{
1002
}
1000
LType
1070
     4
1000
CONTINUOUS
1002
{
1002
}
1000
Base
1070
     3
1070
     0
1002
{
1002
}
1002
}
1000
3A
1070
     9
1000
3A
1002
{
1000
Color
1070
     1
1070
     6
1002
{
1002
}
1000
LType
1070
     4
1000
GEN3A
1002
{
1002
}
1000
Base
1070
     3
1070
     0
1002
{
1002
}
1002
}
1000
7A
1070
     9
1000
7A
1002
{
1000
Color
1070
     1
1070
     4
1002
{
1002
}
1000
LType
1070
     4
1000
GEN7A
1002
{
1002
}
1000
Base
1070
     3
1070
     0
1002
{
1002
}
1002
}
1000
2A
1070
     9
1000
2A
1002
{
1000
Color
1070
     1
1070
     7
1002
{
1002
}
1000
LType
1070
     4
1000
GEN7
1002
{
1002
}
1000
Base
1070
     3
1070
     0
1002
{
1002
}
1002
}
1000
4A
1070
     9
1000
4A
1002
{
1000
Color
1070
     1
1070
     3
1002
{
1002
}
1000
LType
1070
     4
1000
GEN4A
1002
{
1002
}
1000
Base
1070
     3
1070
     0
1002
{
1002
}
1002
}
1000
9
1070
     9
1000
9
1002
{
1000
Color
1070
     1
1070
   253
1002
{
1002
}
1000
LType
1070
     4
1000
CONTINUOUS
1002
{
1002
}
1000
Base
1070
     3
1070
     0
1002
{
1002
}
1002
}
1000
IP
1070
     9
1000
IP
1002
{
1000
Color
1070
     1
1070
     7
1002
{
1002
}
1000
LType
1070
     4
1000
CONTINUOUS
1002
{
1002
}
1000
Base
1070
     3
1070
     0
1002
{
1002
}
1002
}
1002
}
1000
Standard
1070
     0
1002
{
1000
0N
1070
     9
1000
0N
1002
{
1000
Color
1070
     1
1070
     7
1002
{
1002
}
1000
LType
1070
     4
1000
CONTINUOUS
1002
{
1002
}
1000
Base
1070
     3
1070
     0
1002
{
1002
}
1002
}
1000
1N
1070
     9
1000
1N
1002
{
1000
Color
1070
     1
1070
    14
1002
{
1002
}
1000
LType
1070
     4
1000
CONTINUOUS
1002
{
1002
}
1000
Base
1070
     3
1070
     0
1002
{
1002
}
1002
}
1000
2N
1070
     9
1000
2N
1002
{
1000
Color
1070
     1
1070
     5
1002
{
1002
}
1000
LType
1070
     4
1000
CONTINUOUS
1002
{
1002
}
1000
Base
1070
     3
1070
     0
1002
{
1002
}
1002
}
1000
3N
1070
     9
1000
3N
1002
{
1000
Color
1070
     1
1070
     6
1002
{
1002
}
1000
LType
1070
     4
1000
GEN3
1002
{
1002
}
1000
Base
1070
     3
1070
     0
1002
{
1002
}
1002
}
1000
4N
1070
     9
1000
4N
1002
{
1000
Color
1070
     1
1070
     3
1002
{
1002
}
1000
LType
1070
     4
1000
CONTINUOUS
1002
{
1002
}
1000
Base
1070
     3
1070
     0
1002
{
1002
}
1002
}
1000
5N
1070
     9
1000
5N
1002
{
1000
Color
1070
     1
1070
     3
1002
{
1002
}
1000
LType
1070
     4
1000
CONTINUOUS
1002
{
1002
}
1000
Base
1070
     3
1070
     0
1002
{
1002
}
1002
}
1000
6N
1070
     9
1000
6N
1002
{
1000
Color
1070
     1
1070
     2
1002
{
1002
}
1000
LType
1070
     4
1000
CONTINUOUS
1002
{
1002
}
1000
Base
1070
     3
1070
     0
1002
{
1002
}
1002
}
1000
7N
1070
     9
1000
7N
1002
{
1000
Color
1070
     1
1070
     4
1002
{
1002
}
1000
LType
1070
     4
1000
GEN7
1002
{
1002
}
1000
Base
1070
     3
1070
     0
1002
{
1002
}
1002
}
1000
8N
1070
     9
1000
8N
1002
{
1000
Color
1070
     1
1070
     1
1002
{
1002
}
1000
LType
1070
     4
1000
CONTINUOUS
1002
{
1002
}
1000
Base
1070
     3
1070
     0
1002
{
1002
}
1002
}
1000
3AN
1070
     9
1000
3AN
1002
{
1000
Color
1070
     1
1070
     6
1002
{
1002
}
1000
LType
1070
     4
1000
GEN3A
1002
{
1002
}
1000
Base
1070
     3
1070
     0
1002
{
1002
}
1002
}
1000
7AN
1070
     9
1000
7AN
1002
{
1000
Color
1070
     1
1070
     4
1002
{
1002
}
1000
LType
1070
     4
1000
GEN7A
1002
{
1002
}
1000
Base
1070
     3
1070
     0
1002
{
1002
}
1002
}
1000
2AN
1070
     9
1000
2AN
1002
{
1000
Color
1070
     1
1070
     7
1002
{
1002
}
1000
LType
1070
     4
1000
GEN7
1002
{
1002
}
1000
Base
1070
     3
1070
     0
1002
{
1002
}
1002
}
1000
4AN
1070
     9
1000
4AN
1002
{
1000
Color
1070
     1
1070
     3
1002
{
1002
}
1000
LType
1070
     4
1000
GEN4A
1002
{
1002
}
1000
Base
1070
     3
1070
     0
1002
{
1002
}
1002
}
1000
9N
1070
     9
1000
9N
1002
{
1000
Color
1070
     1
1070
   253
1002
{
1002
}
1000
LType
1070
     4
1000
CONTINUOUS
1002
{
1002
}
1000
Base
1070
     3
1070
     0
1002
{
1002
}
1002
}
1000
IPN
1070
     9
1000
IPN
1002
{
1000
Color
1070
     1
1070
     7
1002
{
1002
}
1000
LType
1070
     4
1000
CONTINUOUS
1002
{
1002
}
1000
Base
1070
     3
1070
     0
1002
{
1002
}
1002
}
1002
}
1000
Extra
1070
     0
1002
{
1000
Klin
1070
     9
1000
KLIN
1002
{
1000
Color
1070
     1
1070
     1
1002
{
1002
}
1000
LType
1070
     4
1000
CONTINUOUS
1002
{
1002
}
1000
Base
1070
     3
1070
     1
1002
{
1002
}
1002
}
1000
Info
1070
     9
1000
INFO
1002
{
1000
Color
1070
     1
1070
     4
1002
{
1002
}
1000
LType
1070
     4
1000
CONTINUOUS
1002
{
1002
}
1000
Base
1070
     3
1070
     1
1002
{
1002
}
1002
}
1000
Rahm2
1070
     9
1000
RAHM2
1002
{
1000
Color
1070
     1
1070
     1
1002
{
1002
}
1000
LType
1070
     4
1000
CONTINUOUS
1002
{
1002
}
1000
Base
1070
     3
1070
     1
1002
{
1002
}
1002
}
1000
Rahm3
1070
     9
1000
RAHM3
1002
{
1000
Color
1070
     1
1070
     2
1002
{
1002
}
1000
LType
1070
     4
1000
CONTINUOUS
1002
{
1002
}
1000
Base
1070
     3
1070
     1
1002
{
1002
}
1002
}
1000
Rahm5
1070
     9
1000
RAHM5
1002
{
1000
Color
1070
     1
1070
     7
1002
{
1002
}
1000
LType
1070
     4
1000
CONTINUOUS
1002
{
1002
}
1000
Base
1070
     3
1070
     1
1002
{
1002
}
1002
}
1000
View
1070
     9
1000
VIEW
1002
{
1000
Color
1070
     1
1070
     1
1002
{
1002
}
1000
LType
1070
     4
1000
CONTINUOUS
1002
{
1002
}
1000
Base
1070
     3
1070
     1
1002
{
1002
}
1002
}
1000
Behind
1070
     9
1000
BEHIND
1002
{
1000
Color
1070
     1
1070
   253
1002
{
1002
}
1000
LType
1070
     4
1000
CONTINUOUS
1002
{
1002
}
1000
Base
1070
     3
1070
     1
1002
{
1002
}
1002
}
1002
}
  0
APPID
  5
16FA
330
16B4
100
AcDbSymbolTableRecord
100
AcDbRegAppTableRecord
  2
GENIUS_GENCFG3_13
 70
     0
1001
GENIUS_GENCFG_13
1071
1043072397
1000
16FA
1000
GEN@LAYER@ENTSORT
1070
    11
1000
GenCfgObject
1000
GenCfgShort
1000
GenCfgReal
1000
GenCfgBool
1000
GenCfgString
1000
GenCfgDim
1000
GenCfgPoint
1000
GenCfgAttrInf
1000
GenCfgLaySection
1000
GenCfgLayer
1000
GenCfgEntSort
1000
ADDL
1070
    10
1000
5
1002
{
1000
Class
1070
     4
1000
SYM
1002
{
1002
}
1000
Color
1070
     1
1070
     1
1002
{
1002
}
1000
LType
1070
     4
1000
BYLAYER
1002
{
1002
}
1002
}
1000
ALTR
1070
    10
1000
4
1002
{
1000
Class
1070
     4
1000

1002
{
1002
}
1000
Color
1070
     1
1070
     7
1002
{
1002
}
1000
LType
1070
     4
1000
GEN3A
1002
{
1002
}
1002
}
1000
BELI
1070
    10
1000
4
1002
{
1000
Class
1070
     4
1000

1002
{
1002
}
1000
Color
1070
     1
1070
   256
1002
{
1002
}
1000
LType
1070
     4
1000
BYLAYER
1002
{
1002
}
1002
}
1000
BHNV
1070
    10
1000
9
1002
{
1000
Class
1070
     4
1000
INV
1002
{
1002
}
1000
Color
1070
     1
1070
   256
1002
{
1002
}
1000
LType
1070
     4
1000
BYLAYER
1002
{
1002
}
1002
}
1000
BHNVS
1070
    10
1000
BEHIND
1002
{
1000
Class
1070
     4
1000
INV
1002
{
1002
}
1000
Color
1070
     1
1070
   256
1002
{
1002
}
1000
LType
1070
     4
1000
BYLAYER
1002
{
1002
}
1002
}
1000
BLID
1070
    10
1000
4A
1002
{
1000
Class
1070
     4
1000

1002
{
1002
}
1000
Color
1070
     1
1070
   256
1002
{
1002
}
1000
LType
1070
     4
1000
BYLAYER
1002
{
1002
}
1002
}
1000
BOAP
1070
    10
1000
4A
1002
{
1000
Class
1070
     4
1000

1002
{
1002
}
1000
Color
1070
     1
1070
   256
1002
{
1002
}
1000
LType
1070
     4
1000
BYLAYER
1002
{
1002
}
1002
}
1000
BOR2
1070
    10
1000
RAHM2
1002
{
1000
Class
1070
     4
1000
SPZ,SYM
1002
{
1002
}
1000
Color
1070
     1
1070
   256
1002
{
1002
}
1000
LType
1070
     4
1000
BYLAYER
1002
{
1002
}
1002
}
1000
BOR3
1070
    10
1000
RAHM3
1002
{
1000
Class
1070
     4
1000
SPZ,SYM
1002
{
1002
}
1000
Color
1070
     1
1070
   256
1002
{
1002
}
1000
LType
1070
     4
1000
BYLAYER
1002
{
1002
}
1002
}
1000
BOR5
1070
    10
1000
RAHM5
1002
{
1000
Class
1070
     4
1000
SPZ,SYM
1002
{
1002
}
1000
Color
1070
     1
1070
   256
1002
{
1002
}
1000
LType
1070
     4
1000
BYLAYER
1002
{
1002
}
1002
}
1000
BOR7
1070
    10
1000
RAHM5
1002
{
1000
Class
1070
     4
1000
SPZ,SYM
1002
{
1002
}
1000
Color
1070
     1
1070
     7
1002
{
1002
}
1000
LType
1070
     4
1000
CONTINUOUS
1002
{
1002
}
1002
}
1000
BPAP
1070
    10
1000
4A
1002
{
1000
Class
1070
     4
1000

1002
{
1002
}
1000
Color
1070
     1
1070
   256
1002
{
1002
}
1000
LType
1070
     4
1000
BYLAYER
1002
{
1002
}
1002
}
1000
BPEX
1070
    10
1000
4A
1002
{
1000
Class
1070
     4
1000

1002
{
1002
}
1000
Color
1070
     1
1070
   256
1002
{
1002
}
1000
LType
1070
     4
1000
BYLAYER
1002
{
1002
}
1002
}
1000
BTDI
1070
    10
1000
5
1002
{
1000
Class
1070
     4
1000
DIM,SYM
1002
{
1002
}
1000
Color
1070
     1
1070
   256
1002
{
1002
}
1000
LType
1070
     4
1000
BYLAYER
1002
{
1002
}
1002
}
1000
CAL2
1070
    10
1000
4
1002
{
1000
Class
1070
     4
1000
SYM
1002
{
1002
}
1000
Color
1070
     1
1070
   256
1002
{
1002
}
1000
LType
1070
     4
1000
BYLAYER
1002
{
1002
}
1002
}
1000
CAL3
1070
    10
1000
4
1002
{
1000
Class
1070
     4
1000
SYM
1002
{
1002
}
1000
Color
1070
     1
1070
     2
1002
{
1002
}
1000
LType
1070
     4
1000
BYLAYER
1002
{
1002
}
1002
}
1000
CAL5
1070
    10
1000
4
1002
{
1000
Class
1070
     4
1000
SYM
1002
{
1002
}
1000
Color
1070
     1
1070
     7
1002
{
1002
}
1000
LType
1070
     4
1000
BYLAYER
1002
{
1002
}
1002
}
1000
CAL7
1070
    10
1000
4
1002
{
1000
Class
1070
     4
1000
SYM
1002
{
1002
}
1000
Color
1070
     1
1070
     5
1002
{
1002
}
1000
LType
1070
     4
1000
BYLAYER
1002
{
1002
}
1002
}
1000
CENN
1070
    10
1000
7A
1002
{
1000
Class
1070
     4
1000
CEN
1002
{
1002
}
1000
Color
1070
     1
1070
   256
1002
{
1002
}
1000
LType
1070
     4
1000
BYLAYER
1002
{
1002
}
1002
}
1000
CENW
1070
    10
1000
7
1002
{
1000
Class
1070
     4
1000
CEN
1002
{
1002
}
1000
Color
1070
     1
1070
   256
1002
{
1002
}
1000
LType
1070
     4
1000
BYLAYER
1002
{
1002
}
1002
}
1000
CLIN
1070
    10
1000
KLIN
1002
{
1000
Class
1070
     4
1000
SPZ
1002
{
1002
}
1000
Color
1070
     1
1070
   256
1002
{
1002
}
1000
LType
1070
     4
1000
BYLAYER
1002
{
1002
}
1002
}
1000
CON1
1070
    10
1000
0
1002
{
1000
Class
1070
     4
1000
CON,BGD
1002
{
1002
}
1000
Color
1070
     1
1070
   256
1002
{
1002
}
1000
LType
1070
     4
1000
BYLAYER
1002
{
1002
}
1002
}
1000
CON2
1070
    10
1000
1
1002
{
1000
Class
1070
     4
1000
CON,BGD
1002
{
1002
}
1000
Color
1070
     1
1070
   256
1002
{
1002
}
1000
LType
1070
     4
1000
BYLAYER
1002
{
1002
}
1002
}
1000
CON3
1070
    10
1000
2
1002
{
1000
Class
1070
     4
1000
CON,BGD
1002
{
1002
}
1000
Color
1070
     1
1070
   256
1002
{
1002
}
1000
LType
1070
     4
1000
BYLAYER
1002
{
1002
}
1002
}
1000
CON4
1070
    10
1000
2
1002
{
1000
Class
1070
     4
1000
CON,BGD
1002
{
1002
}
1000
Color
1070
     1
1070
   256
1002
{
1002
}
1000
LType
1070
     4
1000
BYLAYER
1002
{
1002
}
1002
}
1000
DERP
1070
    10
1000
4
1002
{
1000
Class
1070
     4
1000

1002
{
1002
}
1000
Color
1070
     1
1070
   256
1002
{
1002
}
1000
LType
1070
     4
1000
BYLAYER
1002
{
1002
}
1002
}
1000
DETA
1070
    10
1000
4
1002
{
1000
Class
1070
     4
1000

1002
{
1002
}
1000
Color
1070
     1
1070
   256
1002
{
1002
}
1000
LType
1070
     4
1000
BYLAYER
1002
{
1002
}
1002
}
1000
DIAG
1070
    10
1000
5
1002
{
1000
Class
1070
     4
1000
SYM
1002
{
1002
}
1000
Color
1070
     1
1070
   256
1002
{
1002
}
1000
LType
1070
     4
1000
BYLAYER
1002
{
1002
}
1002
}
1000
DILI
1070
    10
1000
5
1002
{
1000
Class
1070
     4
1000
DIM,SYM
1002
{
1002
}
1000
Color
1070
     1
1070
   256
1002
{
1002
}
1000
LType
1070
     4
1000
BYLAYER
1002
{
1002
}
1002
}
1000
DITO2
1070
    10
1000
5
1002
{
1000
Class
1070
     4
1000
DIM,SYM
1002
{
1002
}
1000
Color
1070
     1
1070
     3
1002
{
1002
}
1000
LType
1070
     4
1000
BYLAYER
1002
{
1002
}
1002
}
1000
DITO3
1070
    10
1000
5
1002
{
1000
Class
1070
     4
1000
DIM,SYM
1002
{
1002
}
1000
Color
1070
     1
1070
     2
1002
{
1002
}
1000
LType
1070
     4
1000
BYLAYER
1002
{
1002
}
1002
}
1000
DITX
1070
    10
1000
5
1002
{
1000
Class
1070
     4
1000
DIM,SYM
1002
{
1002
}
1000
Color
1070
     1
1070
     2
1002
{
1002
}
1000
LType
1070
     4
1000
CONTINUOUS
1002
{
1002
}
1002
}
1000
DIXL
1070
    10
1000
5
1002
{
1000
Class
1070
     4
1000
DIM,SYM
1002
{
1002
}
1000
Color
1070
     1
1070
   256
1002
{
1002
}
1000
LType
1070
     4
1000
BYLAYER
1002
{
1002
}
1002
}
1000
EXMP
1070
    10
1000
4A
1002
{
1000
Class
1070
     4
1000

1002
{
1002
}
1000
Color
1070
     1
1070
   256
1002
{
1002
}
1000
LType
1070
     4
1000
BYLAYER
1002
{
1002
}
1002
}
1000
FEMN
1070
    10
1000
8
1002
{
1000
Class
1070
     4
1000

1002
{
1002
}
1000
Color
1070
     1
1070
   256
1002
{
1002
}
1000
LType
1070
     4
1000
BYLAYER
1002
{
1002
}
1002
}
1000
FEMPN
1070
    10
1000
8
1002
{
1000
Class
1070
     4
1000
SYM
1002
{
1002
}
1000
Color
1070
     1
1070
     3
1002
{
1002
}
1000
LType
1070
     4
1000
BYLAYER
1002
{
1002
}
1002
}
1000
FEMSP
1070
    10
1000
4A
1002
{
1000
Class
1070
     4
1000

1002
{
1002
}
1000
Color
1070
     1
1070
   256
1002
{
1002
}
1000
LType
1070
     4
1000
CONTINUOUS
1002
{
1002
}
1002
}
1000
FEMST
1070
    10
1000
4A
1002
{
1000
Class
1070
     4
1000
SYM
1002
{
1002
}
1000
Color
1070
     1
1070
     3
1002
{
1002
}
1000
LType
1070
     4
1000
BYLAYER
1002
{
1002
}
1002
}
1000
FEMVN
1070
    10
1000
2
1002
{
1000
Class
1070
     4
1000
CON
1002
{
1002
}
1000
Color
1070
     1
1070
   256
1002
{
1002
}
1000
LType
1070
     4
1000
BYLAYER
1002
{
1002
}
1002
}
1000
FEMVT
1070
    10
1000
2
1002
{
1000
Class
1070
     4
1000
SYM
1002
{
1002
}
1000
Color
1070
     1
1070
     3
1002
{
1002
}
1000
LType
1070
     4
1000
BYLAYER
1002
{
1002
}
1002
}
1000
FLAT
1070
    10
1000
0
1002
{
1000
Class
1070
     4
1000

1002
{
1002
}
1000
Color
1070
     1
1070
   256
1002
{
1002
}
1000
LType
1070
     4
1000
BYLAYER
1002
{
1002
}
1002
}
1000
FRAR
1070
    10
1000
4A
1002
{
1000
Class
1070
     4
1000

1002
{
1002
}
1000
Color
1070
     1
1070
   256
1002
{
1002
}
1000
LType
1070
     4
1000
BYLAYER
1002
{
1002
}
1002
}
1000
GRLI
1070
    10
1000
5
1002
{
1000
Class
1070
     4
1000
SYM
1002
{
1002
}
1000
Color
1070
     1
1070
   256
1002
{
1002
}
1000
LType
1070
     4
1000
BYLAYER
1002
{
1002
}
1002
}
1000
GVLI
1070
    10
1000
4A
1002
{
1000
Class
1070
     4
1000

1002
{
1002
}
1000
Color
1070
     1
1070
   256
1002
{
1002
}
1000
LType
1070
     4
1000
BYLAYER
1002
{
1002
}
1002
}
1000
HATC
1070
    10
1000
8
1002
{
1000
Class
1070
     4
1000
HTC,BGD
1002
{
1002
}
1000
Color
1070
     1
1070
   256
1002
{
1002
}
1000
LType
1070
     4
1000
BYLAYER
1002
{
1002
}
1002
}
1000
HIDN
1070
    10
1000
3A
1002
{
1000
Class
1070
     4
1000
HID,BGD
1002
{
1002
}
1000
Color
1070
     1
1070
   256
1002
{
1002
}
1000
LType
1070
     4
1000
BYLAYER
1002
{
1002
}
1002
}
1000
HIDW
1070
    10
1000
3
1002
{
1000
Class
1070
     4
1000
HID,BGD
1002
{
1002
}
1000
Color
1070
     1
1070
   256
1002
{
1002
}
1000
LType
1070
     4
1000
BYLAYER
1002
{
1002
}
1002
}
1000
HLIN
1070
    10
1000
4
1002
{
1000
Class
1070
     4
1000
BGD
1002
{
1002
}
1000
Color
1070
     1
1070
   256
1002
{
1002
}
1000
LType
1070
     4
1000
BYLAYER
1002
{
1002
}
1002
}
1000
HOCN
1070
    10
1000
7A
1002
{
1000
Class
1070
     4
1000
CEN
1002
{
1002
}
1000
Color
1070
     1
1070
   256
1002
{
1002
}
1000
LType
1070
     4
1000
BYLAYER
1002
{
1002
}
1002
}
1000
HOCW
1070
    10
1000
7
1002
{
1000
Class
1070
     4
1000
CEN
1002
{
1002
}
1000
Color
1070
     1
1070
   256
1002
{
1002
}
1000
LType
1070
     4
1000
BYLAYER
1002
{
1002
}
1002
}
1000
INFO
1070
    10
1000
INFO
1002
{
1000
Class
1070
     4
1000
SPZ,SYM
1002
{
1002
}
1000
Color
1070
     1
1070
   256
1002
{
1002
}
1000
LType
1070
     4
1000
BYLAYER
1002
{
1002
}
1002
}
1000
LADI
1070
    10
1000
4
1002
{
1000
Class
1070
     4
1000
BGD
1002
{
1002
}
1000
Color
1070
     1
1070
   256
1002
{
1002
}
1000
LType
1070
     4
1000
BYLAYER
1002
{
1002
}
1002
}
1000
LEAD
1070
    10
1000
5
1002
{
1000
Class
1070
     4
1000
SYM
1002
{
1002
}
1000
Color
1070
     1
1070
   256
1002
{
1002
}
1000
LType
1070
     4
1000
BYLAYER
1002
{
1002
}
1002
}
1000
N_ADDL
1070
    10
1000
5N
1002
{
1000
Class
1070
     4
1000
SYM
1002
{
1002
}
1000
Color
1070
     1
1070
     1
1002
{
1002
}
1000
LType
1070
     4
1000
BYLAYER
1002
{
1002
}
1002
}
1000
N_BHNV
1070
    10
1000
9N
1002
{
1000
Class
1070
     4
1000
INV
1002
{
1002
}
1000
Color
1070
     1
1070
   256
1002
{
1002
}
1000
LType
1070
     4
1000
BYLAYER
1002
{
1002
}
1002
}
1000
N_CON1
1070
    10
1000
0N
1002
{
1000
Class
1070
     4
1000
CON,BGD
1002
{
1002
}
1000
Color
1070
     1
1070
   256
1002
{
1002
}
1000
LType
1070
     4
1000
BYLAYER
1002
{
1002
}
1002
}
1000
N_CON2
1070
    10
1000
1N
1002
{
1000
Class
1070
     4
1000
CON,BGD
1002
{
1002
}
1000
Color
1070
     1
1070
   256
1002
{
1002
}
1000
LType
1070
     4
1000
BYLAYER
1002
{
1002
}
1002
}
1000
N_CON3
1070
    10
1000
2N
1002
{
1000
Class
1070
     4
1000
CON,BGD
1002
{
1002
}
1000
Color
1070
     1
1070
   256
1002
{
1002
}
1000
LType
1070
     4
1000
BYLAYER
1002
{
1002
}
1002
}
1000
N_CON4
1070
    10
1000
2N
1002
{
1000
Class
1070
     4
1000
CON,BGD
1002
{
1002
}
1000
Color
1070
     1
1070
   256
1002
{
1002
}
1000
LType
1070
     4
1000
BYLAYER
1002
{
1002
}
1002
}
1000
N_CENN
1070
    10
1000
7AN
1002
{
1000
Class
1070
     4
1000
CEN
1002
{
1002
}
1000
Color
1070
     1
1070
   256
1002
{
1002
}
1000
LType
1070
     4
1000
BYLAYER
1002
{
1002
}
1002
}
1000
N_CENW
1070
    10
1000
7N
1002
{
1000
Class
1070
     4
1000
CEN
1002
{
1002
}
1000
Color
1070
     1
1070
   256
1002
{
1002
}
1000
LType
1070
     4
1000
BYLAYER
1002
{
1002
}
1002
}
1000
N_DILI
1070
    10
1000
5N
1002
{
1000
Class
1070
     4
1000
DIM,SYM
1002
{
1002
}
1000
Color
1070
     1
1070
   256
1002
{
1002
}
1000
LType
1070
     4
1000
BYLAYER
1002
{
1002
}
1002
}
1000
N_DITX
1070
    10
1000
5N
1002
{
1000
Class
1070
     4
1000
DIM,SYM
1002
{
1002
}
1000
Color
1070
     1
1070
     2
1002
{
1002
}
1000
LType
1070
     4
1000
CONTINUOUS
1002
{
1002
}
1002
}
1000
N_DIXL
1070
    10
1000
5N
1002
{
1000
Class
1070
     4
1000
DIM,SYM
1002
{
1002
}
1000
Color
1070
     1
1070
   256
1002
{
1002
}
1000
LType
1070
     4
1000
BYLAYER
1002
{
1002
}
1002
}
1000
N_HATC
1070
    10
1000
8N
1002
{
1000
Class
1070
     4
1000
HTC,BGD
1002
{
1002
}
1000
Color
1070
     1
1070
   256
1002
{
1002
}
1000
LType
1070
     4
1000
BYLAYER
1002
{
1002
}
1002
}
1000
N_HIDN
1070
    10
1000
3AN
1002
{
1000
Class
1070
     4
1000
HID,BGD
1002
{
1002
}
1000
Color
1070
     1
1070
   256
1002
{
1002
}
1000
LType
1070
     4
1000
BYLAYER
1002
{
1002
}
1002
}
1000
N_HIDW
1070
    10
1000
3N
1002
{
1000
Class
1070
     4
1000
HID,BGD
1002
{
1002
}
1000
Color
1070
     1
1070
   256
1002
{
1002
}
1000
LType
1070
     4
1000
BYLAYER
1002
{
1002
}
1002
}
1000
N_NGIP
1070
    10
1000
IPN
1002
{
1000
Class
1070
     4
1000

1002
{
1002
}
1000
Color
1070
     1
1070
   256
1002
{
1002
}
1000
LType
1070
     4
1000
BYLAYER
1002
{
1002
}
1002
}
1000
N_PHAN
1070
    10
1000
4AN
1002
{
1000
Class
1070
     4
1000

1002
{
1002
}
1000
Color
1070
     1
1070
   256
1002
{
1002
}
1000
LType
1070
     4
1000
BYLAYER
1002
{
1002
}
1002
}
1000
N_POSL
1070
    10
1000
5N
1002
{
1000
Class
1070
     4
1000
SYM
1002
{
1002
}
1000
Color
1070
     1
1070
   256
1002
{
1002
}
1000
LType
1070
     4
1000
BYLAYER
1002
{
1002
}
1002
}
1000
N_TCON
1070
    10
1000
0N
1002
{
1000
Class
1070
     4
1000
CON,BGD
1002
{
1002
}
1000
Color
1070
     1
1070
   256
1002
{
1002
}
1000
LType
1070
     4
1000
BYLAYER
1002
{
1002
}
1002
}
1000
N_THLI
1070
    10
1000
4N
1002
{
1000
Class
1070
     4
1000
BGD
1002
{
1002
}
1000
Color
1070
     1
1070
   256
1002
{
1002
}
1000
LType
1070
     4
1000
BYLAYER
1002
{
1002
}
1002
}
1000
N_TLEN
1070
    10
1000
0N
1002
{
1000
Class
1070
     4
1000
CON,BGD
1002
{
1002
}
1000
Color
1070
     1
1070
   256
1002
{
1002
}
1000
LType
1070
     4
1000
BYLAYER
1002
{
1002
}
1002
}
1000
N_TXT3
1070
    10
1000
6N
1002
{
1000
Class
1070
     4
1000
SYM
1002
{
1002
}
1000
Color
1070
     1
1070
   256
1002
{
1002
}
1000
LType
1070
     4
1000
BYLAYER
1002
{
1002
}
1002
}
1000
N_VPLI
1070
    10
1000
2AN
1002
{
1000
Class
1070
     4
1000

1002
{
1002
}
1000
Color
1070
     1
1070
   256
1002
{
1002
}
1000
LType
1070
     4
1000
BYLAYER
1002
{
1002
}
1002
}
1000
NGIP
1070
    10
1000
IP
1002
{
1000
Class
1070
     4
1000

1002
{
1002
}
1000
Color
1070
     1
1070
   256
1002
{
1002
}
1000
LType
1070
     4
1000
BYLAYER
1002
{
1002
}
1002
}
1000
PAL2
1070
    10
1000
RAHM2
1002
{
1000
Class
1070
     4
1000
SPZ,SYM
1002
{
1002
}
1000
Color
1070
     1
1070
   256
1002
{
1002
}
1000
LType
1070
     4
1000
BYLAYER
1002
{
1002
}
1002
}
1000
PAL3
1070
    10
1000
RAHM3
1002
{
1000
Class
1070
     4
1000
SPZ,SYM
1002
{
1002
}
1000
Color
1070
     1
1070
   256
1002
{
1002
}
1000
LType
1070
     4
1000
BYLAYER
1002
{
1002
}
1002
}
1000
PAL5
1070
    10
1000
RAHM5
1002
{
1000
Class
1070
     4
1000
SPZ,SYM
1002
{
1002
}
1000
Color
1070
     1
1070
   256
1002
{
1002
}
1000
LType
1070
     4
1000
BYLAYER
1002
{
1002
}
1002
}
1000
PAL7
1070
    10
1000
RAHM5
1002
{
1000
Class
1070
     4
1000
SPZ,SYM
1002
{
1002
}
1000
Color
1070
     1
1070
     7
1002
{
1002
}
1000
LType
1070
     4
1000
CONTINUOUS
1002
{
1002
}
1002
}
1000
PHAN
1070
    10
1000
4A
1002
{
1000
Class
1070
     4
1000

1002
{
1002
}
1000
Color
1070
     1
1070
   256
1002
{
1002
}
1000
LType
1070
     4
1000
BYLAYER
1002
{
1002
}
1002
}
1000
POSL
1070
    10
1000
5
1002
{
1000
Class
1070
     4
1000
SYM
1002
{
1002
}
1000
Color
1070
     1
1070
   256
1002
{
1002
}
1000
LType
1070
     4
1000
BYLAYER
1002
{
1002
}
1002
}
1000
POSN
1070
    10
1000
6
1002
{
1000
Class
1070
     4
1000
SYM
1002
{
1002
}
1000
Color
1070
     1
1070
     7
1002
{
1002
}
1000
LType
1070
     4
1000
BYLAYER
1002
{
1002
}
1002
}
1000
POSREF
1070
    10
1000
6
1002
{
1000
Class
1070
     4
1000
SYM
1002
{
1002
}
1000
Color
1070
     1
1070
     5
1002
{
1002
}
1000
LType
1070
     4
1000
BYLAYER
1002
{
1002
}
1002
}
1000
POSX
1070
    10
1000
5
1002
{
1000
Class
1070
     4
1000
SYM
1002
{
1002
}
1000
Color
1070
     1
1070
     2
1002
{
1002
}
1000
LType
1070
     4
1000
CONTINUOUS
1002
{
1002
}
1002
}
1000
PSEC
1070
    10
1000
4A
1002
{
1000
Class
1070
     4
1000

1002
{
1002
}
1000
Color
1070
     1
1070
   256
1002
{
1002
}
1000
LType
1070
     4
1000
BYLAYER
1002
{
1002
}
1002
}
1000
RCGN
1070
    10
1000
7A
1002
{
1000
Class
1070
     4
1000
CEN
1002
{
1002
}
1000
Color
1070
     1
1070
   256
1002
{
1002
}
1000
LType
1070
     4
1000
BYLAYER
1002
{
1002
}
1002
}
1000
RCGW
1070
    10
1000
7
1002
{
1000
Class
1070
     4
1000
CEN
1002
{
1002
}
1000
Color
1070
     1
1070
   256
1002
{
1002
}
1000
LType
1070
     4
1000
BYLAYER
1002
{
1002
}
1002
}
1000
RFDI
1070
    10
1000
4
1002
{
1000
Class
1070
     4
1000
BGD
1002
{
1002
}
1000
Color
1070
     1
1070
   256
1002
{
1002
}
1000
LType
1070
     4
1000
BYLAYER
1002
{
1002
}
1002
}
1000
RQTR
1070
    10
1000
4
1002
{
1000
Class
1070
     4
1000

1002
{
1002
}
1000
Color
1070
     1
1070
     7
1002
{
1002
}
1000
LType
1070
     4
1000
GEN7A
1002
{
1002
}
1002
}
1000
RSBO
1070
    10
1000
4
1002
{
1000
Class
1070
     4
1000
BGD
1002
{
1002
}
1000
Color
1070
     1
1070
   256
1002
{
1002
}
1000
LType
1070
     4
1000
BYLAYER
1002
{
1002
}
1002
}
1000
SBRK
1070
    10
1000
4
1002
{
1000
Class
1070
     4
1000
BGD
1002
{
1002
}
1000
Color
1070
     1
1070
   256
1002
{
1002
}
1000
LType
1070
     4
1000
BYLAYER
1002
{
1002
}
1002
}
1000
SCEN
1070
    10
1000
7
1002
{
1000
Class
1070
     4
1000

1002
{
1002
}
1000
Color
1070
     1
1070
   256
1002
{
1002
}
1000
LType
1070
     4
1000
CONTINUOUS
1002
{
1002
}
1002
}
1000
SECT
1070
    10
1000
4
1002
{
1000
Class
1070
     4
1000
BGD
1002
{
1002
}
1000
Color
1070
     1
1070
   256
1002
{
1002
}
1000
LType
1070
     4
1000
BYLAYER
1002
{
1002
}
1002
}
1000
SELN
1070
    10
1000
7A
1002
{
1000
Class
1070
     4
1000

1002
{
1002
}
1000
Color
1070
     1
1070
   256
1002
{
1002
}
1000
LType
1070
     4
1000
BYLAYER
1002
{
1002
}
1002
}
1000
SELW
1070
    10
1000
7
1002
{
1000
Class
1070
     4
1000

1002
{
1002
}
1000
Color
1070
     1
1070
   256
1002
{
1002
}
1000
LType
1070
     4
1000
BYLAYER
1002
{
1002
}
1002
}
1000
SSYS
1070
    10
1000
0
1002
{
1000
Class
1070
     4
1000

1002
{
1002
}
1000
Color
1070
     1
1070
   256
1002
{
1002
}
1000
LType
1070
     4
1000
BYLAYER
1002
{
1002
}
1002
}
1000
STLI
1070
    10
1000
4
1002
{
1000
Class
1070
     4
1000

1002
{
1002
}
1000
Color
1070
     1
1070
     7
1002
{
1002
}
1000
LType
1070
     4
1000
GEN3A
1002
{
1002
}
1002
}
1000
SYB1
1070
    10
1000
5
1002
{
1000
Class
1070
     4
1000
SYM
1002
{
1002
}
1000
Color
1070
     1
1070
   256
1002
{
1002
}
1000
LType
1070
     4
1000
BYLAYER
1002
{
1002
}
1002
}
1000
SYB2
1070
    10
1000
5
1002
{
1000
Class
1070
     4
1000
SYM
1002
{
1002
}
1000
Color
1070
     1
1070
   256
1002
{
1002
}
1000
LType
1070
     4
1000
BYLAYER
1002
{
1002
}
1002
}
1000
SYB3
1070
    10
1000
6
1002
{
1000
Class
1070
     4
1000
SYM
1002
{
1002
}
1000
Color
1070
     1
1070
   256
1002
{
1002
}
1000
LType
1070
     4
1000
CONTINUOUS
1002
{
1002
}
1002
}
1000
SYB5
1070
    10
1000
5
1002
{
1000
Class
1070
     4
1000
SYM
1002
{
1002
}
1000
Color
1070
     1
1070
     7
1002
{
1002
}
1000
LType
1070
     4
1000
BYLAYER
1002
{
1002
}
1002
}
1000
SYMN
1070
    10
1000
7A
1002
{
1000
Class
1070
     4
1000
CEN
1002
{
1002
}
1000
Color
1070
     1
1070
   256
1002
{
1002
}
1000
LType
1070
     4
1000
BYLAYER
1002
{
1002
}
1002
}
1000
SYMW
1070
    10
1000
7
1002
{
1000
Class
1070
     4
1000
CEN
1002
{
1002
}
1000
Color
1070
     1
1070
   256
1002
{
1002
}
1000
LType
1070
     4
1000
BYLAYER
1002
{
1002
}
1002
}
1000
TCON
1070
    10
1000
0
1002
{
1000
Class
1070
     4
1000
CON,BGD
1002
{
1002
}
1000
Color
1070
     1
1070
   256
1002
{
1002
}
1000
LType
1070
     4
1000
BYLAYER
1002
{
1002
}
1002
}
1000
THLI
1070
    10
1000
4
1002
{
1000
Class
1070
     4
1000
BGD
1002
{
1002
}
1000
Color
1070
     1
1070
   256
1002
{
1002
}
1000
LType
1070
     4
1000
BYLAYER
1002
{
1002
}
1002
}
1000
TIT2
1070
    10
1000
RAHM2
1002
{
1000
Class
1070
     4
1000
SPZ,SYM
1002
{
1002
}
1000
Color
1070
     1
1070
   256
1002
{
1002
}
1000
LType
1070
     4
1000
BYLAYER
1002
{
1002
}
1002
}
1000
TIT3
1070
    10
1000
RAHM3
1002
{
1000
Class
1070
     4
1000
SPZ,SYM
1002
{
1002
}
1000
Color
1070
     1
1070
   256
1002
{
1002
}
1000
LType
1070
     4
1000
BYLAYER
1002
{
1002
}
1002
}
1000
TIT5
1070
    10
1000
RAHM5
1002
{
1000
Class
1070
     4
1000
SPZ,SYM
1002
{
1002
}
1000
Color
1070
     1
1070
   256
1002
{
1002
}
1000
LType
1070
     4
1000
BYLAYER
1002
{
1002
}
1002
}
1000
TIT7
1070
    10
1000
RAHM5
1002
{
1000
Class
1070
     4
1000
SPZ,SYM
1002
{
1002
}
1000
Color
1070
     1
1070
     7
1002
{
1002
}
1000
LType
1070
     4
1000
CONTINUOUS
1002
{
1002
}
1002
}
1000
TLEN
1070
    10
1000
0
1002
{
1000
Class
1070
     4
1000
CON,BGD
1002
{
1002
}
1000
Color
1070
     1
1070
   256
1002
{
1002
}
1000
LType
1070
     4
1000
BYLAYER
1002
{
1002
}
1002
}
1000
TRKN
1070
    10
1000
7A
1002
{
1000
Class
1070
     4
1000

1002
{
1002
}
1000
Color
1070
     1
1070
   256
1002
{
1002
}
1000
LType
1070
     4
1000
BYLAYER
1002
{
1002
}
1002
}
1000
TRKW
1070
    10
1000
7
1002
{
1000
Class
1070
     4
1000

1002
{
1002
}
1000
Color
1070
     1
1070
   256
1002
{
1002
}
1000
LType
1070
     4
1000
BYLAYER
1002
{
1002
}
1002
}
1000
TRLI
1070
    10
1000
4
1002
{
1000
Class
1070
     4
1000
BGD
1002
{
1002
}
1000
Color
1070
     1
1070
   256
1002
{
1002
}
1000
LType
1070
     4
1000
BYLAYER
1002
{
1002
}
1002
}
1000
TXT1
1070
    10
1000
6
1002
{
1000
Class
1070
     4
1000
SYM
1002
{
1002
}
1000
Color
1070
     1
1070
     2
1002
{
1002
}
1000
LType
1070
     4
1000
BYLAYER
1002
{
1002
}
1002
}
1000
TXT2
1070
    10
1000
6
1002
{
1000
Class
1070
     4
1000
SYM
1002
{
1002
}
1000
Color
1070
     1
1070
     2
1002
{
1002
}
1000
LType
1070
     4
1000
BYLAYER
1002
{
1002
}
1002
}
1000
TXT3
1070
    10
1000
6
1002
{
1000
Class
1070
     4
1000
SYM
1002
{
1002
}
1000
Color
1070
     1
1070
   256
1002
{
1002
}
1000
LType
1070
     4
1000
BYLAYER
1002
{
1002
}
1002
}
1000
TXT5
1070
    10
1000
6
1002
{
1000
Class
1070
     4
1000
SYM
1002
{
1002
}
1000
Color
1070
     1
1070
     7
1002
{
1002
}
1000
LType
1070
     4
1000
BYLAYER
1002
{
1002
}
1002
}
1000
TXT7
1070
    10
1000
6
1002
{
1000
Class
1070
     4
1000
SYM
1002
{
1002
}
1000
Color
1070
     1
1070
     7
1002
{
1002
}
1000
LType
1070
     4
1000
BYLAYER
1002
{
1002
}
1002
}
1000
VIEW
1070
    10
1000
VIEW
1002
{
1000
Class
1070
     4
1000
SPZ
1002
{
1002
}
1000
Color
1070
     1
1070
   256
1002
{
1002
}
1000
LType
1070
     4
1000
BYLAYER
1002
{
1002
}
1002
}
1000
VPLI
1070
    10
1000
2A
1002
{
1000
Class
1070
     4
1000

1002
{
1002
}
1000
Color
1070
     1
1070
   256
1002
{
1002
}
1000
LType
1070
     4
1000
BYLAYER
1002
{
1002
}
1002
}
1000
ZIZA
1070
    10
1000
4
1002
{
1000
Class
1070
     4
1000
BGD
1002
{
1002
}
1000
Color
1070
     1
1070
   256
1002
{
1002
}
1000
LType
1070
     4
1000
GENZIGZAG
1002
{
1002
}
1002
}
  0
APPID
  5
16FB
330
16B4
100
AcDbSymbolTableRecord
100
AcDbRegAppTableRecord
  2
GENIUS_GENCFG4_13
 70
     0
1001
GENIUS_GENCFG_13
1071
1043072433
1000
16FB
1000
GEN
1070
    10
1000
GenCfgObject
1000
GenCfgShort
1000
GenCfgReal
1000
GenCfgBool
1000
GenCfgString
1000
GenCfgDim
1000
GenCfgPoint
1000
GenCfgLaySection
1000
GenCfgLType
1000
GenCfgFilter
1000
Balloon
1070
     0
1002
{
1000
GenIF
1070
     1
1070
     0
1002
{
1002
}
1000
GenPosInc
1070
     1
1070
     1
1002
{
1002
}
1000
GenPosBlk
1070
     1
1070
     8
1002
{
1002
}
1000
GenPosVar
1070
     1
1070
     0
1002
{
1002
}
1000
GenZiCir
1070
     2
1040
1.5
1002
{
1002
}
1000
MaxCharForCenteredText
1070
     1
1070
    30
1002
{
1002
}
1000
Snap
1070
     0
1002
{
1000
ActivationRadius
1070
     2
1040
1.0
1002
{
1002
}
1000
M
1070
     0
1002
{
1000
SnapStepX
1070
     2
1040
20.0
1002
{
1002
}
1000
SnapStepY
1070
     2
1040
10.0
1002
{
1002
}
1002
}
1000
I
1070
     0
1002
{
1000
SnapStepX
1070
     2
1040
1.0
1002
{
1002
}
1000
SnapStepY
1070
     2
1040
0.5
1002
{
1002
}
1002
}
1002
}
1002
}
1000
Centerline
1070
     0
1002
{
1000
ScaleNot
1070
     3
1070
     0
1002
{
1002
}
1000
M
1070
     0
1002
{
1000
GenCenAng
1070
     4
1000
45|90|135
1002
{
1002
}
1000
GenCenDia
1070
     2
1040
10.0
1002
{
1002
}
1000
GenCenDias
1070
     4
1000
10|20|30
1002
{
1002
}
1000
GenCenDist
1070
     2
1040
3.0
1002
{
1002
}
1000
GenCenLen
1070
     2
1040
10.0
1002
{
1002
}
1000
GenCenOff
1070
     2
1040
10.0
1002
{
1002
}
1002
}
1000
I
1070
     0
1002
{
1000
GenCenAng
1070
     4
1000
45|90|135
1002
{
1002
}
1000
GenCenDia
1070
     2
1040
0.5
1002
{
1002
}
1000
GenCenDias
1070
     4
1000
0.5|1.0|1.5
1002
{
1002
}
1000
GenCenDist
1070
     2
1040
0.125
1002
{
1002
}
1000
GenCenLen
1070
     2
1040
0.5
1002
{
1002
}
1000
GenCenOff
1070
     2
1040
0.5
1002
{
1002
}
1002
}
1002
}
1000
CLine
1070
     0
1002
{
1000
CAngArray
1070
     4
1000
30|45|60
1002
{
1002
}
1000
Typ
1070
     4
1000
XLINE
1002
{
1002
}
1000
M
1070
     0
1002
{
1000
CLinArray
1070
     4
1000
10|20|30
1002
{
1002
}
1002
}
1000
I
1070
     0
1002
{
1000
CLinArray
1070
     4
1000
0.125|0.25|0.5
1002
{
1002
}
1002
}
1002
}
1000
Detail
1070
     0
1002
{
1002
}
1000
Dimension
1070
     5
1002
{
1000
DIMALT
1070
     1
1070
     0
1002
{
1002
}
1000
DIMALTD
1070
     1
1070
     2
1002
{
1002
}
1000
DIMALTTD
1070
     1
1070
     4
1002
{
1002
}
1000
DIMALTTZ
1070
     1
1070
     0
1002
{
1002
}
1000
DIMALTU
1070
     1
1070
     2
1002
{
1002
}
1000
DIMALTZ
1070
     1
1070
     0
1002
{
1002
}
1000
DIMAUNIT
1070
     1
1070
     0
1002
{
1002
}
1000
DIMBLK
1070
     4
1000

1002
{
1002
}
1000
DIMBLK1
1070
     4
1000

1002
{
1002
}
1000
DIMBLK2
1070
     4
1000

1002
{
1002
}
1000
DIMCLRD
1070
     1
1070
   256
1002
{
1002
}
1000
DIMCLRE
1070
     1
1070
   256
1002
{
1002
}
1000
DIMCLRT
1070
     1
1070
     2
1002
{
1002
}
1000
DIMDLE
1070
     2
1040
0.0
1002
{
1002
}
1000
DIMFIT
1070
     1
1070
     3
1002
{
1002
}
1000
DIMJUST
1070
     1
1070
     0
1002
{
1002
}
1000
DIMLFAC
1070
     2
1040
1.0
1002
{
1002
}
1000
DIMLIM
1070
     1
1070
     0
1002
{
1002
}
1000
DIMPOST
1070
     4
1000

1002
{
1002
}
1000
DIMRND
1070
     2
1040
0.0
1002
{
1002
}
1000
DIMSAH
1070
     1
1070
     0
1002
{
1002
}
1000
DIMSCALE
1070
     2
1040
1.0
1002
{
1002
}
1000
DIMSD1
1070
     1
1070
     0
1002
{
1002
}
1000
DIMSD2
1070
     1
1070
     0
1002
{
1002
}
1000
DIMSE1
1070
     1
1070
     0
1002
{
1002
}
1000
DIMSE2
1070
     1
1070
     0
1002
{
1002
}
1000
DIMSOXD
1070
     1
1070
     0
1002
{
1002
}
1000
DIMTAD
1070
     1
1070
     0
1002
{
1002
}
1000
DIMTFAC
1070
     2
1040
0.71
1002
{
1002
}
1000
DIMTIH
1070
     1
1070
     0
1002
{
1002
}
1000
DIMTIX
1070
     1
1070
     0
1002
{
1002
}
1000
DIMTM
1070
     2
1040
0.1
1002
{
1002
}
1000
DIMTOFL
1070
     1
1070
     0
1002
{
1002
}
1000
DIMTOH
1070
     1
1070
     0
1002
{
1002
}
1000
DIMTOL
1070
     1
1070
     0
1002
{
1002
}
1000
DIMTOLJ
1070
     1
1070
     1
1002
{
1002
}
1000
DIMTP
1070
     2
1040
0.1
1002
{
1002
}
1000
DIMTSZ
1070
     2
1040
0.0
1002
{
1002
}
1000
DIMTVP
1070
     2
1040
0.0
1002
{
1002
}
1000
DIMTXSTY
1070
     4
1000
STANDARD
1002
{
1002
}
1000
DIMTZIN
1070
     1
1070
     0
1002
{
1002
}
1000
DIMUNIT
1070
     1
1070
     2
1002
{
1002
}
1000
DIMUPT
1070
     1
1070
     0
1002
{
1002
}
1000
M
1070
     0
1002
{
1000
DIMALTF
1070
     2
1040
0.03937
1002
{
1002
}
1000
DIMAPOST
1070
     4
1000
"
1002
{
1002
}
1000
DIMASZ
1070
     2
1040
2.5
1002
{
1002
}
1000
DIMCEN
1070
     2
1040
0.0
1002
{
1002
}
1000
DIMDEC
1070
     1
1070
     2
1002
{
1002
}
1000
DIMDLI
1070
     2
1040
7.0
1002
{
1002
}
1000
DIMEXE
1070
     2
1040
1.0
1002
{
1002
}
1000
DIMEXO
1070
     2
1040
1.0
1002
{
1002
}
1000
DIMGAP
1070
     2
1040
0.6
1002
{
1002
}
1000
DIMTDEC
1070
     1
1070
     3
1002
{
1002
}
1000
DIMTXT
1070
     2
1040
3.5
1002
{
1002
}
1000
DIMZIN
1070
     1
1070
     8
1002
{
1002
}
1002
}
1000
I
1070
     0
1002
{
1000
DIMALTF
1070
     2
1040
25.4
1002
{
1002
}
1000
DIMAPOST
1070
     4
1000
mm
1002
{
1002
}
1000
DIMASZ
1070
     2
1040
0.1
1002
{
1002
}
1000
DIMCEN
1070
     2
1040
0.0
1002
{
1002
}
1000
DIMDEC
1070
     1
1070
     4
1002
{
1002
}
1000
DIMDLI
1070
     2
1040
0.5
1002
{
1002
}
1000
DIMEXE
1070
     2
1040
0.1
1002
{
1002
}
1000
DIMEXO
1070
     2
1040
0.05
1002
{
1002
}
1000
DIMGAP
1070
     2
1040
0.06
1002
{
1002
}
1000
DIMTDEC
1070
     1
1070
     4
1002
{
1002
}
1000
DIMTXT
1070
     2
1040
0.12
1002
{
1002
}
1000
DIMZIN
1070
     1
1070
     7
1002
{
1002
}
1002
}
1000
GEN-ISO
1070
     5
1002
{
1000
NAME
1070
     4
1000
GEN-ISO
1002
{
1002
}
1000
DIMTAD
1070
     1
1070
     1
1002
{
1002
}
1000
DIMTOLJ
1070
     1
1070
     0
1002
{
1002
}
1000
DIMTOFL
1070
     1
1070
     1
1002
{
1002
}
1000
M
1070
     0
1002
{
1002
}
1000
I
1070
     0
1002
{
1002
}
1002
}
1000
GEN-ISO-POS
1070
     5
1002
{
1000
NAME
1070
     4
1000
GEN-ISO-POS
1002
{
1002
}
1000
DIMTOLJ
1070
     1
1070
     0
1002
{
1002
}
1000
DIMTXSTY
1070
     4
1000
STANDARD
1002
{
1002
}
1000
M
1070
     0
1002
{
1000
DIMASZ
1070
     2
1040
2.5
1002
{
1002
}
1000
DIMGAP
1070
     2
1040
1.5
1002
{
1002
}
1000
DIMTXT
1070
     2
1040
5.0
1002
{
1002
}
1002
}
1000
I
1070
     0
1002
{
1000
DIMASZ
1070
     2
1040
0.1
1002
{
1002
}
1000
DIMGAP
1070
     2
1040
0.06
1002
{
1002
}
1000
DIMTXT
1070
     2
1040
0.2
1002
{
1002
}
1002
}
1002
}
1000
GEN-ISO-CIR
1070
     5
1002
{
1000
NAME
1070
     4
1000
GEN-ISO$3
1002
{
1002
}
1000
DIMFIT
1070
     1
1070
     0
1002
{
1002
}
1000
DIMTAD
1070
     1
1070
     1
1002
{
1002
}
1000
DIMTOH
1070
     1
1070
     1
1002
{
1002
}
1000
DIMTOLJ
1070
     1
1070
     0
1002
{
1002
}
1000
DIMUPT
1070
     1
1070
     1
1002
{
1002
}
1000
M
1070
     0
1002
{
1002
}
1000
I
1070
     0
1002
{
1002
}
1002
}
1000
GEN-ISO-RAD
1070
     5
1002
{
1000
NAME
1070
     4
1000
GEN-ISO$4
1002
{
1002
}
1000
DIMFIT
1070
     1
1070
     0
1002
{
1002
}
1000
DIMTAD
1070
     1
1070
     1
1002
{
1002
}
1000
DIMTIH
1070
     1
1070
     0
1002
{
1002
}
1000
DIMTIX
1070
     1
1070
     0
1002
{
1002
}
1000
DIMTOH
1070
     1
1070
     1
1002
{
1002
}
1000
DIMTOLJ
1070
     1
1070
     0
1002
{
1002
}
1000
DIMTOFL
1070
     1
1070
     0
1002
{
1002
}
1000
DIMUPT
1070
     1
1070
     1
1002
{
1002
}
1000
M
1070
     0
1002
{
1002
}
1000
I
1070
     0
1002
{
1002
}
1002
}
1000
GEN-ISO-ORD
1070
     5
1002
{
1000
NAME
1070
     4
1000
GEN-ISO$6
1002
{
1002
}
1000
DIMTOLJ
1070
     1
1070
     0
1002
{
1002
}
1000
M
1070
     0
1002
{
1002
}
1000
I
1070
     0
1002
{
1002
}
1002
}
1000
GEN-ISO-AXE-F
1070
     5
1002
{
1000
NAME
1070
     4
1000
GEN-ISO-AXE-F
1002
{
1002
}
1000
DIMSE1
1070
     1
1070
     1
1002
{
1002
}
1000
DIMSE2
1070
     1
1070
     1
1002
{
1002
}
1000
DIMTAD
1070
     1
1070
     1
1002
{
1002
}
1000
DIMTOLJ
1070
     1
1070
     0
1002
{
1002
}
1000
DIMTOFL
1070
     1
1070
     1
1002
{
1002
}
1000
M
1070
     0
1002
{
1002
}
1000
I
1070
     0
1002
{
1002
}
1002
}
1000
GEN-ISO-AXE-H
1070
     5
1002
{
1000
NAME
1070
     4
1000
GEN-ISO-AXE-H
1002
{
1002
}
1000
DIMBLK1
1070
     4
1000
GENAXEH
1002
{
1002
}
1000
DIMLFAC
1070
     2
1040
2.0
1002
{
1002
}
1000
DIMSAH
1070
     1
1070
     1
1002
{
1002
}
1000
DIMSE1
1070
     1
1070
     1
1002
{
1002
}
1000
DIMSE2
1070
     1
1070
     1
1002
{
1002
}
1000
DIMTAD
1070
     1
1070
     1
1002
{
1002
}
1000
DIMTOLJ
1070
     1
1070
     0
1002
{
1002
}
1000
DIMTOFL
1070
     1
1070
     1
1002
{
1002
}
1000
M
1070
     0
1002
{
1002
}
1000
I
1070
     0
1002
{
1002
}
1002
}
1000
GEN-ANSI
1070
     5
1002
{
1000
NAME
1070
     4
1000
GEN-ANSI
1002
{
1002
}
1000
DIMTIH
1070
     1
1070
     1
1002
{
1002
}
1000
DIMTOH
1070
     1
1070
     1
1002
{
1002
}
1000
DIMTAD
1070
     1
1070
     0
1002
{
1002
}
1000
DIMTOLJ
1070
     1
1070
     1
1002
{
1002
}
1000
M
1070
     0
1002
{
1002
}
1000
I
1070
     0
1002
{
1002
}
1002
}
1000
GEN-ANSI-POS
1070
     5
1002
{
1000
NAME
1070
     4
1000
GEN-ANSI-POS
1002
{
1002
}
1000
DIMTOLJ
1070
     1
1070
     1
1002
{
1002
}
1000
DIMTXSTY
1070
     4
1000
STANDARD
1002
{
1002
}
1000
M
1070
     0
1002
{
1000
DIMASZ
1070
     2
1040
2.5
1002
{
1002
}
1000
DIMGAP
1070
     2
1040
1.5
1002
{
1002
}
1000
DIMTXT
1070
     2
1040
5.0
1002
{
1002
}
1002
}
1000
I
1070
     0
1002
{
1000
DIMASZ
1070
     2
1040
0.1
1002
{
1002
}
1000
DIMGAP
1070
     2
1040
0.06
1002
{
1002
}
1000
DIMTXT
1070
     2
1040
0.2
1002
{
1002
}
1002
}
1002
}
1000
GEN-ANSI-CIR
1070
     5
1002
{
1000
NAME
1070
     4
1000
GEN-ANSI$3
1002
{
1002
}
1000
DIMFIT
1070
     1
1070
     0
1002
{
1002
}
1000
DIMTAD
1070
     1
1070
     0
1002
{
1002
}
1000
DIMTIH
1070
     1
1070
     1
1002
{
1002
}
1000
DIMTIX
1070
     1
1070
     0
1002
{
1002
}
1000
DIMTOFL
1070
     1
1070
     0
1002
{
1002
}
1000
DIMTOH
1070
     1
1070
     1
1002
{
1002
}
1000
DIMTOLJ
1070
     1
1070
     1
1002
{
1002
}
1000
DIMUPT
1070
     1
1070
     1
1002
{
1002
}
1000
M
1070
     0
1002
{
1002
}
1000
I
1070
     0
1002
{
1002
}
1002
}
1000
GEN-ANSI-RAD
1070
     5
1002
{
1000
NAME
1070
     4
1000
GEN-ANSI$4
1002
{
1002
}
1000
DIMFIT
1070
     1
1070
     0
1002
{
1002
}
1000
DIMTAD
1070
     1
1070
     0
1002
{
1002
}
1000
DIMTIH
1070
     1
1070
     1
1002
{
1002
}
1000
DIMTIX
1070
     1
1070
     0
1002
{
1002
}
1000
DIMTOFL
1070
     1
1070
     0
1002
{
1002
}
1000
DIMTOH
1070
     1
1070
     1
1002
{
1002
}
1000
DIMTOLJ
1070
     1
1070
     1
1002
{
1002
}
1000
DIMUPT
1070
     1
1070
     1
1002
{
1002
}
1000
M
1070
     0
1002
{
1002
}
1000
I
1070
     0
1002
{
1002
}
1002
}
1000
GEN-ANSI-ORD
1070
     5
1002
{
1000
NAME
1070
     4
1000
GEN-ANSI$6
1002
{
1002
}
1000
DIMTAD
1070
     1
1070
     0
1002
{
1002
}
1000
DIMTIH
1070
     1
1070
     1
1002
{
1002
}
1000
DIMTOH
1070
     1
1070
     1
1002
{
1002
}
1000
DIMTOLJ
1070
     1
1070
     1
1002
{
1002
}
1000
M
1070
     0
1002
{
1002
}
1000
I
1070
     0
1002
{
1002
}
1002
}
1000
GEN-ANSI-AXE-F
1070
     5
1002
{
1000
NAME
1070
     4
1000
GEN-ANSI-AXE-F
1002
{
1002
}
1000
DIMBLK1
1070
     4
1000
GENAXEH
1002
{
1002
}
1000
DIMSAH
1070
     1
1070
     1
1002
{
1002
}
1000
DIMSE1
1070
     1
1070
     1
1002
{
1002
}
1000
DIMSE2
1070
     1
1070
     1
1002
{
1002
}
1000
DIMTAD
1070
     1
1070
     0
1002
{
1002
}
1000
DIMTIH
1070
     1
1070
     1
1002
{
1002
}
1000
DIMTOH
1070
     1
1070
     1
1002
{
1002
}
1000
DIMTOLJ
1070
     1
1070
     1
1002
{
1002
}
1000
M
1070
     0
1002
{
1002
}
1000
I
1070
     0
1002
{
1002
}
1002
}
1000
GEN-ANSI-AXE-H
1070
     5
1002
{
1000
NAME
1070
     4
1000
GEN-ANSI-AXE-H
1002
{
1002
}
1000
DIMBLK1
1070
     4
1000
GENAXEH
1002
{
1002
}
1000
DIMLFAC
1070
     2
1040
2.0
1002
{
1002
}
1000
DIMSAH
1070
     1
1070
     1
1002
{
1002
}
1000
DIMSE1
1070
     1
1070
     1
1002
{
1002
}
1000
DIMSE2
1070
     1
1070
     1
1002
{
1002
}
1000
DIMTAD
1070
     1
1070
     0
1002
{
1002
}
1000
DIMTOFL
1070
     1
1070
     1
1002
{
1002
}
1000
DIMTOLJ
1070
     1
1070
     1
1002
{
1002
}
1000
M
1070
     0
1002
{
1002
}
1000
I
1070
     0
1002
{
1002
}
1002
}
1002
}
1000
DimSet
1070
     0
1002
{
1000
ChainSum
1070
     3
1070
     0
1002
{
1002
}
1000
DimDclTyp0
1070
     4
1000
dim23
1002
{
1002
}
1000
HorBra
1070
     3
1070
     0
1002
{
1002
}
1000
StrDia
1070
     4
1000
%%c<>
1002
{
1002
}
1000
StrRad
1070
     4
1000
R<>
1002
{
1002
}
1000
TextMinus
1070
     4
1000
<>
1002
{
1002
}
1000
TextPlus
1070
     4
1000
<>
1002
{
1002
}
1000
M
1070
     0
1002
{
1000
DimdliFirst
1070
     2
1040
10.0
1002
{
1002
}
1000
PointMakeDist
1070
     2
1040
10.0
1002
{
1002
}
1002
}
1000
I
1070
     0
1002
{
1000
DimdliFirst
1070
     2
1040
0.5
1002
{
1002
}
1000
PointMakeDist
1070
     2
1040
0.5
1002
{
1002
}
1002
}
1000
FitGrade
1070
     4
1000
h7
1002
{
1002
}
1002
}
1000
Drawing
1070
     0
1002
{
1000
ChamferDimMode
1070
     1
1070
     2
1002
{
1002
}
1000
Gen_Fiso
1070
    -3
1040
1.0
1002
{
1002
}
1000
GenDimStil
1070
     4
1000
ISO
1002
{
1002
}
1000
GenDwgUScale
1070
     2
1040
1.0
1002
{
1002
}
1000
GenInch
1070
     4
1000
M
1002
{
1002
}
1000
GenPlotScale
1070
     4
1000
1:5
1002
{
1002
}
1000
Revisi
1070
     4
1000
0
1002
{
1002
}
1000
Version
1070
    -5
1000
14.01/Apr  1 1998
1002
{
1002
}
1000
Platform
1070
    -5
1000
WINNT
1002
{
1002
}
1002
}
1000
DwgVar
1070
     0
1002
{
1000
M
1070
     0
1002
{
1000
CHAMFERA
1070
     2
1040
0.00001
1002
{
1002
}
1000
CHAMFERB
1070
     2
1040
0.000001
1002
{
1002
}
1000
FILLETRAD
1070
     2
1040
0.000001
1002
{
1002
}
1000
LIMMAX
1070
     6
1010
-1.000000000000000E+20
1020
0.0
1030
0.0
1002
{
1002
}
1000
LTSCALE
1070
     2
1040
0.000001
1002
{
1002
}
1002
}
1000
I
1070
     0
1002
{
1000
CHAMFERA
1070
     2
1040
0.0
1002
{
1002
}
1000
CHAMFERB
1070
     2
1040
0.0
1002
{
1002
}
1000
FILLETRAD
1070
     2
1040
0.0
1002
{
1002
}
1000
LIMMAX
1070
     6
1010
-1.000000000000000E+20
1020
0.0
1030
0.0
1002
{
1002
}
1002
}
1002
}
1000
Hatch
1070
     0
1002
{
1000
GenHtcFlag
1070
     3
1070
     0
1002
{
1002
}
1002
}
1000
Info_Pos
1070
     0
1002
{
1000
>
1002
}
1000
Layer
1070
     7
1002
{
1000
Defs
1070
     0
1002
{
1000
>
1002
}
1000
EntSort
1070
     0
1002
{
1000
>
1002
}
1000
Match
1070
     0
1002
{
1002
}
1000
Settings
1070
     0
1002
{
1000
FocGrNC
1070
     3
1070
     0
1002
{
1002
}
1000
FocGrLo
1070
     3
1070
     0
1002
{
1002
}
1000
FocLoNC
1070
     3
1070
     0
1002
{
1002
}
1000
FocusCol
1070
     1
1070
   253
1002
{
1002
}
1000
GenStdLG
1070
     4
1000

1002
{
1002
}
1000
LayMatch
1070
     3
1070
     0
1002
{
1002
}
1000
LgOff
1070
     3
1070
     0
1002
{
1002
}
1000
CurLG
1070
    -5
1000

1002
{
1002
}
1002
}
1002
}
1000
LType
1070
     0
1002
{
1000
GEN3
1070
     8
1000
genius.lin
1002
{
1002
}
1000
GEN7
1070
     8
1000
genius.lin
1002
{
1002
}
1000
GEN4A
1070
     8
1000
genius.lin
1002
{
1002
}
1000
GEN3A
1070
     8
1000
genius.lin
1002
{
1002
}
1000
GEN7A
1070
     8
1000
genius.lin
1002
{
1002
}
1000
GENZIGZAG
1070
     8
1000
genius.lin
1002
{
1002
}
1002
}
1000
Objecter
1070
     0
1002
{
1000
CreateGroups
1070
     3
1070
     0
1002
{
1002
}
1000
LaySwitch
1070
     3
1070
     1
1002
{
1002
}
1000
LastObj
1070
    -5
1000
176F
1002
{
1002
}
1000
TimeStamp
1070
    -5
1000
20030120.15195520
1002
{
1002
}
1002
}
1000
OSWiz
1070
     0
1002
{
1000
Filter
1070
     0
1002
{
1000
HATCH
1070
     9
1002
{
1000
EntityType
1070
     4
1000
LINE
1002
{
1002
}
1000
Layer
1070
     4
1000
8,8N,*-8,*-8N
1002
{
1002
}
1000
Linetype
1070
     4
1000
*
1002
{
1002
}
1000
Color
1070
     4
1000
*
1002
{
1002
}
1000
ApplyInDims
1070
     3
1070
     1
1002
{
1002
}
1002
}
1000
SYMBOLS
1070
     9
1002
{
1000
EntityType
1070
     4
1000
*
1002
{
1002
}
1000
Layer
1070
     4
1000
[5-6],[5-6]N,*-[5-6],*-[5-6]N
1002
{
1002
}
1000
Linetype
1070
     4
1000
*
1002
{
1002
}
1000
Color
1070
     4
1000
*
1002
{
1002
}
1000
ApplyInDims
1070
     3
1070
     1
1002
{
1002
}
1002
}
1000
FEM
1070
     9
1002
{
1000
EntityType
1070
     4
1000
*
1002
{
1002
}
1000
Layer
1070
     4
1000
4A,4AN,*-4A,*-4AN
1002
{
1002
}
1000
Linetype
1070
     4
1000
*
1002
{
1002
}
1000
Color
1070
     4
1000
*
1002
{
1002
}
1000
ApplyInDims
1070
     3
1070
     1
1002
{
1002
}
1002
}
1002
}
1002
}
1000
PaList
1070
     0
1002
{
1000
AutoUpdatePartList
1070
     1
1070
     0
1002
{
1002
}
1000
ReadInfoPoint
1070
     3
1070
     0
1002
{
1002
}
1000
ReadPosNr
1070
     3
1070
     1
1002
{
1002
}
1000
RevStr
1070
     4
1000
0
1002
{
1002
}
1002
}
1000
Paper
1070
     0
1002
{
1002
}
1000
PartDB
1070
     0
1002
{
1000
GenDbOwner
1070
     4
1000

1002
{
1002
}
1002
}
1000
System
1070
     0
1002
{
1000
Menu
1070
     4
1000
GEV
1002
{
1002
}
1002
}
1000
Title
1070
     0
1002
{
1000
MakeView
1070
     1
1070
     2
1002
{
1002
}
1002
}
1000
Tools
1070
     0
1002
{
1000
Trans
1070
     0
1002
{
1000
Drawingtranslation
1070
    -4
1070
     1
1002
{
1002
}
1000
upreserve
1070
     3
1070
     0
1002
{
1002
}
1000
originally_on
1070
    -4
1070
     0
1002
{
1002
}
1000
sourcelang
1070
    -5
1000
D
1002
{
1002
}
1002
}
1002
}
  0
APPID
  5
16FC
330
16B4
100
AcDbSymbolTableRecord
100
AcDbRegAppTableRecord
  2
GENIUS_GEVCFG0_13
 70
     0
1001
GENIUS_GENCFG_13
1071
1043072397
1000
16FC
1000
GEV
1070
     1
1000
GenCfgObject
1000
VED
1070
     0
1002
{
1002
}
  0
APPID
  5
173E
330
16B4
100
AcDbSymbolTableRecord
100
AcDbRegAppTableRecord
  2
GEV_VCCNULL_SWITCH_OFF
 70
     0
  0
APPID
  5
173F
330
16B4
100
AcDbSymbolTableRecord
100
AcDbRegAppTableRecord
  2
GENIUS_GENDTOL_13
 70
     0
  0
APPID
  5
1740
330
16B4
100
AcDbSymbolTableRecord
100
AcDbRegAppTableRecord
  2
GENIUS_GENOENT_13
 70
     0
  0
APPID
  5
1741
330
16B4
100
AcDbSymbolTableRecord
100
AcDbRegAppTableRecord
  2
GENIUS_GENBLLY_14
 70
     0
  0
APPID
  5
1742
330
16B4
100
AcDbSymbolTableRecord
100
AcDbRegAppTableRecord
  2
GENIUS_GENODEF_13
 70
     0
  0
APPID
  5
1743
330
16B4
100
AcDbSymbolTableRecord
100
AcDbRegAppTableRecord
  2
GENIUS_GENOBJ-N-CRS_13
 70
     0
  0
APPID
  5
1744
330
16B4
100
AcDbSymbolTableRecord
100
AcDbRegAppTableRecord
  2
GENIUS_GENOREF_13
 70
     0
  0
APPID
  5
1745
330
16B4
100
AcDbSymbolTableRecord
100
AcDbRegAppTableRecord
  2
GENIUS_GENOLIS_13
 70
     0
  0
APPID
  5
1746
330
16B4
100
AcDbSymbolTableRecord
100
AcDbRegAppTableRecord
  2
GENIUS_GEFCFG0_13
 70
     0
  0
APPID
  5
1747
330
16B4
100
AcDbSymbolTableRecord
100
AcDbRegAppTableRecord
  2
GENIUS_VERSION2
 70
     0
  0
APPID
  5
1748
330
16B4
100
AcDbSymbolTableRecord
100
AcDbRegAppTableRecord
  2
GENIUS_GENREC_14
 70
     0
  0
APPID
  5
1749
330
16B4
100
AcDbSymbolTableRecord
100
AcDbRegAppTableRecord
  2
GENIUS_GENOBJ-N-REC_13
 70
     0
  0
APPID
  5
174A
330
16B4
100
AcDbSymbolTableRecord
100
AcDbRegAppTableRecord
  2
GENIUS_GENOBJ-N-TIT_13
 70
     0
  0
APPID
  5
174B
330
16B4
100
AcDbSymbolTableRecord
100
AcDbRegAppTableRecord
  2
GENIUS_GENTITLE_13
 70
     0
  0
APPID
  5
174C
330
16B4
100
AcDbSymbolTableRecord
100
AcDbRegAppTableRecord
  2
GENIUS_GENZVEED_13
 70
     0
  0
APPID
  5
174D
330
16B4
100
AcDbSymbolTableRecord
100
AcDbRegAppTableRecord
  2
GENIUS_GENOBJ-N-SDF_13
 70
     0
  0
APPID
  5
174E
330
16B4
100
AcDbSymbolTableRecord
100
AcDbRegAppTableRecord
  2
GENIUS_GENSCREG_13
 70
     0
  0
APPID
  5
174F
330
16B4
100
AcDbSymbolTableRecord
100
AcDbRegAppTableRecord
  2
GENIUS_GENBLKED_14
 70
     0
  0
APPID
  5
18A8
330
16B4
100
AcDbSymbolTableRecord
100
AcDbRegAppTableRecord
  2
GENIUS_GENOBJ-N-HTC_13
 70
     0
  0
APPID
  5
18A9
330
16B4
100
AcDbSymbolTableRecord
100
AcDbRegAppTableRecord
  2
GENIUS_GENHATCH_13
 70
     0
  0
APPID
  5
19C0
330
16B4
100
AcDbSymbolTableRecord
100
AcDbRegAppTableRecord
  2
MCAD_NO_VIS
 70
     0
  0
APPID
  5
19C1
330
16B4
100
AcDbSymbolTableRecord
100
AcDbRegAppTableRecord
  2
ACAD_TEMP_GRAPHIC
 70
     0
  0
APPID
  5
19F1
330
16B4
100
AcDbSymbolTableRecord
100
AcDbRegAppTableRecord
  2
AD_DRAW
 70
     0
  0
APPID
  5
19F4
330
16B4
100
AcDbSymbolTableRecord
100
AcDbRegAppTableRecord
  2
ACATTRIBSERVICES
 70
     0
  0
APPID
  5
1A14
330
16B4
100
AcDbSymbolTableRecord
100
AcDbRegAppTableRecord
  2
DESIGNERASSEMBLIES
 70
     0
  0
APPID
  5
1A1A
330
16B4
100
AcDbSymbolTableRecord
100
AcDbRegAppTableRecord
  2
ACADM_DIM_EDIT
 70
     0
  0
APPID
  5
1A1B
330
16B4
100
AcDbSymbolTableRecord
100
AcDbRegAppTableRecord
  2
AMDT_DM_ADJ
 70
     0
  0
APPID
  5
1A4D
330
16B4
100
AcDbSymbolTableRecord
100
AcDbRegAppTableRecord
  2
ACAD_DSTYLE_DIMARC_LENGTH_SYMBOL
 70
     0
  0
APPID
  5
1A4E
330
16B4
100
AcDbSymbolTableRecord
100
AcDbRegAppTableRecord
  2
ACAD_DSTYLE_DIMJOGGED_JOGANGLE_SYMBOL
 70
     0
  0
ENDTAB
  0
TABLE
  2
DIMSTYLE
  5
16B5
330
0
100
AcDbSymbolTable
 70
     8
100
AcDbDimStyleTable
 71
     0
  0
DIMSTYLE
105
16DC
102
{ACAD_REACTORS
330
1652
330
165C
330
1666
330
1670
330
167B
330
1686
102
}
330
16B5
100
AcDbSymbolTableRecord
100
AcDbDimStyleTableRecord
  2
GEN-ISO
 70
     0
  4
"
 40
5.0
 41
2.5
 42
1.0
 43
7.0
 44
1.0
 47
0.1
 48
0.1
 73
     0
 74
     0
 77
     1
 78
     8
140
3.5
141
0.0
143
0.03937
146
0.71
147
0.6
172
     1
176
   256
177
   256
178
     2
271
     2
272
     3
274
     4
283
     0
340
16BA
  0
DIMSTYLE
105
1A4C
330
16B5
100
AcDbSymbolTableRecord
100
AcDbDimStyleTableRecord
  2
AM_DIN
 70
     0
  4
"
 41
2.5
 42
1.0
 43
10.0
 44
1.0
 47
0.1
 48
0.1
 73
     0
 74
     0
 77
     1
 78
     8
 79
     2
140
3.5
141
0.0
143
0.0393701
146
0.71
147
1.5
172
     1
176
   256
177
   256
178
     2
271
     2
272
     3
274
     4
283
     0
284
     8
340
16BA
371
    -1
372
    -1
1001
ACAD_DSTYLE_DIMARC_LENGTH_SYMBOL
1070
   379
1070
     0
1001
ACAD_DSTYLE_DIMJOGGED_JOGANGLE_SYMBOL
1070
   384
1040
1.570796326794896
  0
DIMSTYLE
105
1A5D
330
16B5
100
AcDbSymbolTableRecord
100
AcDbDimStyleTableRecord
  2
AM_DIN$3
 70
     0
  4
"
 41
2.5
 42
1.0
 43
10.0
 44
1.0
 47
0.1
 48
0.1
 73
     0
 77
     1
 78
     8
 79
     2
140
3.5
141
0.0
143
0.0393701
146
0.71
147
1.5
176
   256
177
   256
178
     2
271
     2
272
     3
274
     4
283
     0
284
     8
288
     1
289
     0
340
16BA
371
    -1
372
    -1
1001
ACAD_DSTYLE_DIMARC_LENGTH_SYMBOL
1070
   379
1070
     0
1001
ACAD_DSTYLE_DIMJOGGED_JOGANGLE_SYMBOL
1070
   384
1040
1.570796326794896
  0
DIMSTYLE
105
1A62
330
16B5
100
AcDbSymbolTableRecord
100
AcDbDimStyleTableRecord
  2
AM_DIN$4
 70
     0
  4
"
 41
2.5
 42
1.0
 43
10.0
 44
1.0
 47
0.1
 48
0.1
 73
     0
 77
     1
 78
     8
 79
     2
140
3.5
141
0.0
143
0.0393701
146
0.71
147
1.5
176
   256
177
   256
178
     2
271
     2
272
     3
274
     4
283
     0
284
     8
288
     1
289
     0
340
16BA
371
    -1
372
    -1
1001
ACAD_DSTYLE_DIMARC_LENGTH_SYMBOL
1070
   379
1070
     0
1001
ACAD_DSTYLE_DIMJOGGED_JOGANGLE_SYMBOL
1070
   384
1040
1.570796326794896
  0
DIMSTYLE
105
1A67
330
16B5
100
AcDbSymbolTableRecord
100
AcDbDimStyleTableRecord
  2
AM_DIN$6
 70
     0
  4
"
 41
2.5
 42
1.0
 43
10.0
 44
1.0
 47
0.1
 48
0.1
 73
     0
 74
     0
 78
     8
 79
     2
140
3.5
141
0.0
143
0.0393701
146
0.71
147
1.5
172
     1
176
   256
177
   256
178
     2
271
     2
272
     3
274
     4
283
     0
284
     8
340
16BA
371
    -1
372
    -1
1001
ACAD_DSTYLE_DIMARC_LENGTH_SYMBOL
1070
   379
1070
     0
1001
ACAD_DSTYLE_DIMJOGGED_JOGANGLE_SYMBOL
1070
   384
1040
1.570796326794896
  0
DIMSTYLE
105
1A6C
330
16B5
100
AcDbSymbolTableRecord
100
AcDbDimStyleTableRecord
  2
AM_DIN$7
 70
     0
  4
"
 41
2.5
 42
1.0
 43
10.0
 44
1.0
 47
0.1
 48
0.1
 73
     0
 74
     0
 77
     1
 78
     8
 79
     2
140
5.0
141
0.0
143
0.0393701
146
0.71
147
1.5
172
     1
176
   256
177
   256
178
     2
271
     2
272
     3
274
     4
283
     0
284
     8
340
16BA
371
    -1
372
    -1
1001
ACAD_DSTYLE_DIMARC_LENGTH_SYMBOL
1070
   379
1070
     0
1001
ACAD_DSTYLE_DIMJOGGED_JOGANGLE_SYMBOL
1070
   384
1040
1.570796326794896
  0
DIMSTYLE
105
1A71
330
16B5
100
AcDbSymbolTableRecord
100
AcDbDimStyleTableRecord
  2
AM_DIN$SF
 70
     0
  4
"
 41
2.5
 42
1.0
 43
10.0
 44
1.0
 47
0.1
 48
0.1
 73
     0
 74
     0
 75
     1
 76
     1
 77
     1
 78
     8
 79
     2
140
3.5
141
0.0
143
0.0393701
146
0.71
147
1.5
172
     1
176
   256
177
   256
178
     2
271
     2
272
     3
274
     4
283
     0
284
     8
340
16BA
371
    -1
372
    -1
1001
ACAD_DSTYLE_DIMARC_LENGTH_SYMBOL
1070
   379
1070
     0
1001
ACAD_DSTYLE_DIMJOGGED_JOGANGLE_SYMBOL
1070
   384
1040
1.570796326794896
  0
DIMSTYLE
105
1A7A
330
16B5
100
AcDbSymbolTableRecord
100
AcDbDimStyleTableRecord
  2
AM_DIN$SH
 70
     0
  4
"
 41
2.5
 42
1.0
 43
10.0
 44
1.0
 47
0.1
 48
0.1
 73
     0
 74
     0
 75
     1
 76
     1
 77
     1
 78
     8
 79
     2
140
3.5
141
0.0
143
0.0393701
144
2.0
146
0.71
147
1.5
172
     1
173
     1
176
   256
177
   256
178
     2
271
     2
272
     3
274
     4
283
     0
284
     8
340
16BA
343
1A72
371
    -1
372
    -1
1001
ACAD_DSTYLE_DIMARC_LENGTH_SYMBOL
1070
   379
1070
     0
1001
ACAD_DSTYLE_DIMJOGGED_JOGANGLE_SYMBOL
1070
   384
1040
1.570796326794896
  0
ENDTAB
  0
TABLE
  2
BLOCK_RECORD
  5
16AC
330
0
100
AcDbSymbolTable
 70
    10
  0
BLOCK_RECORD
  5
16C3
330
16AC
100
AcDbSymbolTableRecord
100
AcDbBlockTableRecord
  2
*MODEL_SPACE
340
19B8
  0
BLOCK_RECORD
  5
16C0
330
16AC
100
AcDbSymbolTableRecord
100
AcDbBlockTableRecord
  2
*PAPER_SPACE
340
19B9
  0
BLOCK_RECORD
  5
16FE
330
16AC
100
AcDbSymbolTableRecord
100
AcDbBlockTableRecord
  2
*D0
340
0
  0
BLOCK_RECORD
  5
170C
330
16AC
100
AcDbSymbolTableRecord
100
AcDbBlockTableRecord
  2
KATALOG_LEER
340
0
102
{BLKREFS
331
1751
331
176E
102
}
  0
BLOCK_RECORD
  5
1750
330
16AC
100
AcDbSymbolTableRecord
100
AcDbBlockTableRecord
  2
KATALOG
340
0
  0
BLOCK_RECORD
  5
177A
330
16AC
100
AcDbSymbolTableRecord
100
AcDbBlockTableRecord
  2
*D3
340
0
  0
BLOCK_RECORD
  5
1795
330
16AC
100
AcDbSymbolTableRecord
100
AcDbBlockTableRecord
  2
*D4
340
0
  0
BLOCK_RECORD
  5
17B0
330
16AC
100
AcDbSymbolTableRecord
100
AcDbBlockTableRecord
  2
*D5
340
0
  0
BLOCK_RECORD
  5
17C7
330
16AC
100
AcDbSymbolTableRecord
100
AcDbBlockTableRecord
  2
*D6
340
0
  0
BLOCK_RECORD
  5
17DE
330
16AC
100
AcDbSymbolTableRecord
100
AcDbBlockTableRecord
  2
*D7
340
0
  0
BLOCK_RECORD
  5
1A72
330
16AC
100
AcDbSymbolTableRecord
100
AcDbBlockTableRecord
  2
GENAXEH
340
0
  0
ENDTAB
  0
ENDSEC
  0
SECTION
  2
BLOCKS
  0
BLOCK
  5
16C4
330
16C3
100
AcDbEntity
  8
0
100
AcDbBlockBegin
  2
*MODEL_SPACE
 70
     0
 10
0.0
 20
0.0
 30
0.0
  3
*MODEL_SPACE
  1

  0
ENDBLK
  5
16C5
330
16C3
100
AcDbEntity
  8
0
100
AcDbBlockEnd
  0
BLOCK
  5
16C1
330
16C0
100
AcDbEntity
 67
     1
  8
0
100
AcDbBlockBegin
  2
*PAPER_SPACE
 70
     0
 10
0.0
 20
0.0
 30
0.0
  3
*PAPER_SPACE
  1

  0
ENDBLK
  5
16C2
330
16C0
100
AcDbEntity
 67
     1
  8
0
100
AcDbBlockEnd
  0
BLOCK
  5
199A
330
16FE
100
AcDbEntity
  8
0
100
AcDbBlockBegin
  2
*D0
 70
     1
 10
0.0
 20
0.0
 30
0.0
  3
*D0
  1

  0
LINE
  5
199B
330
16FE
100
AcDbEntity
  8
0
  6
ByBlock
100
AcDbLine
 10
256.949454
 20
565.511484
 30
0.0
 11
206.949454
 21
565.511484
 31
0.0
  0
LINE
  5
199C
330
16FE
100
AcDbEntity
  8
0
  6
ByBlock
100
AcDbLine
 10
237.619454
 20
615.511484
 30
0.0
 11
206.949454
 21
615.511484
 31
0.0
  0
LINE
  5
199D
330
16FE
100
AcDbEntity
  8
0
  6
ByBlock
100
AcDbLine
 10
211.949454
 20
578.011484
 30
0.0
 11
211.949454
 21
603.011484
 31
0.0
  0
SOLID
  5
199E
330
16FE
100
AcDbEntity
  8
0
  6
ByBlock
100
AcDbTrace
 10
209.86612
 20
578.011484
 30
0.0
 11
214.032787
 21
578.011484
 31
0.0
 12
211.949454
 22
565.511484
 32
0.0
 13
211.949454
 23
565.511484
 33
0.0
  0
SOLID
  5
199F
330
16FE
100
AcDbEntity
  8
0
  6
ByBlock
100
AcDbTrace
 10
209.86612
 20
603.011484
 30
0.0
 11
214.032787
 21
603.011484
 31
0.0
 12
211.949454
 22
615.511484
 32
0.0
 13
211.949454
 23
615.511484
 33
0.0
  0
MTEXT
  5
19A0
330
16FE
100
AcDbEntity
  8
0
  6
ByBlock
 62
     2
100
AcDbMText
 10
200.199454
 20
590.511484
 30
0.0
 40
17.5
 41
0.0
 71
     5
 72
     1
  1
50
 11
0.0
 21
1.0
 31
0.0
 73
     1
 44
1.0
1001
ACAD
1000
MTEXTBEGIN
1070
    73
1070
     1
1070
    44
1040
1.0
1070
    74
1070
     0
1000
MTEXTEND
  0
POINT
  5
19A1
330
16FE
100
AcDbEntity
  8
DEFPOINTS
  6
ByBlock
 62
     0
100
AcDbPoint
 10
261.949454
 20
565.511484
 30
0.0
  0
POINT
  5
19A2
330
16FE
100
AcDbEntity
  8
DEFPOINTS
  6
ByBlock
 62
     0
100
AcDbPoint
 10
242.619454
 20
615.511484
 30
0.0
  0
POINT
  5
19A3
330
16FE
100
AcDbEntity
  8
DEFPOINTS
  6
ByBlock
 62
     0
100
AcDbPoint
 10
211.949454
 20
615.511484
 30
0.0
  0
ENDBLK
  5
19A4
330
16FE
100
AcDbEntity
  8
0
100
AcDbBlockEnd
  0
BLOCK
  5
170D
330
170C
100
AcDbEntity
  8
0
100
AcDbBlockBegin
  2
KATALOG_LEER
 70
     0
 10
0.0
 20
0.0
 30
0.0
  3
KATALOG_LEER
  1

  0
ENDBLK
  5
170E
330
170C
100
AcDbEntity
  8
0
100
AcDbBlockEnd
  0
BLOCK
  5
1762
330
1750
100
AcDbEntity
  8
0
100
AcDbBlockBegin
  2
KATALOG
 70
     0
 10
0.0
 20
0.0
 30
0.0
  3
KATALOG
  1

  0
INSERT
  5
1751
330
1750
100
AcDbEntity
  8
0
100
AcDbBlockReference
  2
KATALOG_LEER
 10
205.0
 20
5.0
 30
0.0
1001
GENIUS_GENOREF_13
1005
1752
  0
POINT
  5
1752
330
1750
100
AcDbEntity
  8
0
 60
     1
100
AcDbPoint
 10
0.0
 20
0.0
 30
0.0
1001
GENIUS_GENOBJ-N-TIT_13
1002
{
1000
OWNER
1000
GEN
1002
}
1001
GENIUS_GENOENT_13
1002
{
1000
MYREF
1005
1752
1002
}
1002
{
1000
GRP
1005
0
1002
}
1001
GENIUS_GENOLIS_13
1002
{
1000
ENT
1005
1751
1005
0
1002
}
1001
GENIUS_GENTITLE_13
1002
{
1000
SCALE
1000
1:1
1002
}
1002
{
1000
BORDER
1000
KATALOG
1002
}
1002
{
1000
TITLE
1000
KATALOG_LEER
1002
}
1002
{
1000
UNCHG
1002
{
1000
GEN-TITLE-SCA
1000
GEN-TITLE-SIZ
1002
}
1002
}
1002
{
1000
HRA
1005
0
1002
}
1002
{
1000
HTIT
1005
1751
1002
}
1002
{
1000
GENIUSID
1005
1752
1002
}
1001
GENIUS_GENODEF_13
1002
{
1000
HIER
1070
     1
1002
}
1002
{
1000
MANEDIT
1070
     0
1002
}
1002
{
1000
NOSEL
1070
     0
1002
}
1002
{
1000
BEHIND
1070
     0
1002
}
1002
{
1000
REACTOR
1002
}
  0
TEXT
  5
1753
330
1750
100
AcDbEntity
  8
RAHM3
 60
     1
100
AcDbText
 10
29.391383
 20
162.283165
 30
0.0
 40
3.5
  1
!GENTITLE-MAX
100
AcDbText
  0
TEXT
  5
1754
330
1750
100
AcDbEntity
  8
RAHM3
 60
     1
100
AcDbText
 10
30.988432
 20
153.503279
 30
0.0
 40
3.5
  1
!GENTITLE-RU
100
AcDbText
  0
TEXT
  5
1755
330
1750
100
AcDbEntity
  8
RAHM3
 60
     1
100
AcDbText
 10
-85.995418
 20
56.924537
 30
0.0
 40
3.5
  1
!GENTITLE-LL
100
AcDbText
  0
TEXT
  5
1756
330
1750
100
AcDbEntity
  8
RAHM3
 60
     1
100
AcDbText
 10
50.36794099999999
 20
2.260896999999999
 30
0.0
 40
3.5
  1
!GENTITLE-INSERT
100
AcDbText
  0
LINE
  5
1757
330
1750
100
AcDbEntity
  8
RAHM2
100
AcDbLine
 10
0.0
 20
0.0
 30
0.0
 11
148.5
 21
0.0
 31
0.0
  0
LINE
  5
1758
330
1750
100
AcDbEntity
  8
RAHM2
100
AcDbLine
 10
148.5
 20
210.0
 30
0.0
 11
0.0
 21
210.0
 31
0.0
  0
LINE
  5
1759
330
1750
100
AcDbEntity
  8
RAHM2
100
AcDbLine
 10
0.0
 20
210.0
 30
0.0
 11
0.0
 21
0.0
 31
0.0
  0
TEXT
  5
175A
330
1750
100
AcDbEntity
  8
RAHM3
 60
     1
100
AcDbText
 10
184.023441
 20
165.022268
 30
0.0
 40
3.5
  1
!GENTITLE-MAX
100
AcDbText
  0
TEXT
  5
175B
330
1750
100
AcDbEntity
  8
RAHM3
 60
     1
100
AcDbText
 10
185.620491
 20
156.242382
 30
0.0
 40
3.5
  1
!GENTITLE-RU
100
AcDbText
  0
TEXT
  5
175C
330
1750
100
AcDbEntity
  8
RAHM3
 60
     1
100
AcDbText
 10
68.636641
 20
59.663641
 30
0.0
 40
3.5
  1
!GENTITLE-LL
100
AcDbText
  0
TEXT
  5
175D
330
1750
100
AcDbEntity
  8
RAHM3
 60
     1
100
AcDbText
 10
205.0
 20
5.0
 30
0.0
 40
3.5
  1
!GENTITLE-INSERT
100
AcDbText
  0
LINE
  5
175E
330
1750
100
AcDbEntity
  8
RAHM2
100
AcDbLine
 10
148.5
 20
0.0
 30
0.0
 11
148.5
 21
210.0
 31
0.0
  0
LINE
  5
175F
330
1750
100
AcDbEntity
  8
RAHM2
100
AcDbLine
 10
210.0
 20
148.5
 30
0.0
 11
0.0
 21
148.5
 31
0.0
  0
LINE
  5
1760
330
1750
100
AcDbEntity
  8
RAHM2
100
AcDbLine
 10
210.0
 20
0.0
 30
0.0
 11
210.0
 21
148.5
 31
0.0
  0
LINE
  5
1761
330
1750
100
AcDbEntity
  8
RAHM2
100
AcDbLine
 10
0.0
 20
0.0
 30
0.0
 11
210.0
 21
0.0
 31
0.0
  0
ENDBLK
  5
1763
330
1750
100
AcDbEntity
  8
0
100
AcDbBlockEnd
  0
BLOCK
  5
1890
330
177A
100
AcDbEntity
  8
0
100
AcDbBlockBegin
  2
*D3
 70
     1
 10
0.0
 20
0.0
 30
0.0
  3
*D3
  1

  0
LINE
  5
1891
330
177A
100
AcDbEntity
  8
0
  6
ByBlock
100
AcDbLine
 10
510.027454
 20
237.511484
 30
0.0
 11
576.950454
 21
237.511484
 31
0.0
  0
LINE
  5
1892
330
177A
100
AcDbEntity
  8
0
  6
ByBlock
100
AcDbLine
 10
509.735454
 20
246.511484
 30
0.0
 11
576.950454
 21
246.511484
 31
0.0
  0
LINE
  5
1893
330
177A
100
AcDbEntity
  8
0
  6
ByBlock
100
AcDbLine
 10
571.950454
 20
225.011484
 30
0.0
 11
571.950454
 21
212.511484
 31
0.0
  0
LINE
  5
1894
330
177A
100
AcDbEntity
  8
0
  6
ByBlock
100
AcDbLine
 10
571.950454
 20
259.011484
 30
0.0
 11
571.950454
 21
286.428093
 31
0.0
  0
LINE
  5
1895
330
177A
100
AcDbEntity
  8
0
  6
ByBlock
100
AcDbLine
 10
571.950454
 20
237.511484
 30
0.0
 11
571.950454
 21
246.511484
 31
0.0
  0
SOLID
  5
1896
330
177A
100
AcDbEntity
  8
0
  6
ByBlock
100
AcDbTrace
 10
569.8671199999999
 20
225.011484
 30
0.0
 11
574.0337869999999
 21
225.011484
 31
0.0
 12
571.950454
 22
237.511484
 32
0.0
 13
571.950454
 23
237.511484
 33
0.0
  0
SOLID
  5
1897
330
177A
100
AcDbEntity
  8
0
  6
ByBlock
100
AcDbTrace
 10
569.8671199999999
 20
259.011484
 30
0.0
 11
574.0337869999999
 21
259.011484
 31
0.0
 12
571.950454
 22
246.511484
 32
0.0
 13
571.950454
 23
246.511484
 33
0.0
  0
MTEXT
  5
1898
330
177A
100
AcDbEntity
  8
0
  6
ByBlock
 62
     2
100
AcDbMText
 10
560.200454
 20
278.969788
 30
0.0
 40
17.5
 41
0.0
 71
     5
 72
     1
  1
9
 11
0.0
 21
1.0
 31
0.0
 73
     1
 44
1.0
1001
ACAD
1000
MTEXTBEGIN
1070
    73
1070
     1
1070
    44
1040
1.0
1070
    74
1070
     0
1000
MTEXTEND
  0
POINT
  5
1899
330
177A
100
AcDbEntity
  8
DEFPOINTS
  6
ByBlock
 62
     0
100
AcDbPoint
 10
505.027454
 20
237.511484
 30
0.0
  0
POINT
  5
189A
330
177A
100
AcDbEntity
  8
DEFPOINTS
  6
ByBlock
 62
     0
100
AcDbPoint
 10
504.7354539999999
 20
246.511484
 30
0.0
  0
POINT
  5
189B
330
177A
100
AcDbEntity
  8
DEFPOINTS
  6
ByBlock
 62
     0
100
AcDbPoint
 10
571.950454
 20
246.511484
 30
0.0
  0
ENDBLK
  5
189C
330
177A
100
AcDbEntity
  8
0
100
AcDbBlockEnd
  0
BLOCK
  5
1874
330
1795
100
AcDbEntity
  8
0
100
AcDbBlockBegin
  2
*D4
 70
     1
 10
0.0
 20
0.0
 30
0.0
  3
*D4
  1

  0
LINE
  5
1875
330
1795
100
AcDbEntity
  8
0
  6
ByBlock
100
AcDbLine
 10
324.449454
 20
176.011484
 30
0.0
 11
324.449454
 21
88.51248400000001
 31
0.0
  0
LINE
  5
1876
330
1795
100
AcDbEntity
  8
0
  6
ByBlock
100
AcDbLine
 10
337.450454
 20
176.011484
 30
0.0
 11
337.450454
 21
88.51248400000001
 31
0.0
  0
LINE
  5
1877
330
1795
100
AcDbEntity
  8
0
  6
ByBlock
100
AcDbLine
 10
311.949454
 20
93.51248400000001
 30
0.0
 11
299.449454
 21
93.51248400000001
 31
0.0
  0
LINE
  5
1878
330
1795
100
AcDbEntity
  8
0
  6
ByBlock
100
AcDbLine
 10
349.950454
 20
93.51248400000001
 30
0.0
 11
384.925327
 21
93.51248400000001
 31
0.0
  0
LINE
  5
1879
330
1795
100
AcDbEntity
  8
0
  6
ByBlock
100
AcDbLine
 10
324.449454
 20
93.51248400000001
 30
0.0
 11
337.450454
 21
93.51248400000001
 31
0.0
  0
SOLID
  5
187A
330
1795
100
AcDbEntity
  8
0
  6
ByBlock
100
AcDbTrace
 10
311.949454
 20
95.595817
 30
0.0
 11
311.949454
 21
91.42915
 31
0.0
 12
324.449454
 22
93.51248400000001
 32
0.0
 13
324.449454
 23
93.51248400000001
 33
0.0
  0
SOLID
  5
187B
330
1795
100
AcDbEntity
  8
0
  6
ByBlock
100
AcDbTrace
 10
349.950454
 20
95.595817
 30
0.0
 11
349.950454
 21
91.42915
 31
0.0
 12
337.450454
 22
93.51248400000001
 32
0.0
 13
337.450454
 23
93.51248400000001
 33
0.0
  0
MTEXT
  5
187C
330
1795
100
AcDbEntity
  8
0
  6
ByBlock
 62
     2
100
AcDbMText
 10
373.6878910000001
 20
105.262484
 30
0.0
 40
17.5
 41
0.0
 71
     5
 72
     1
  1
13
 73
     1
 44
1.0
1001
ACAD
1000
MTEXTBEGIN
1070
    73
1070
     1
1070
    44
1040
1.0
1070
    74
1070
     0
1000
MTEXTEND
  0
POINT
  5
187D
330
1795
100
AcDbEntity
  8
DEFPOINTS
  6
ByBlock
 62
     0
100
AcDbPoint
 10
324.449454
 20
181.011484
 30
0.0
  0
POINT
  5
187E
330
1795
100
AcDbEntity
  8
DEFPOINTS
  6
ByBlock
 62
     0
100
AcDbPoint
 10
337.450454
 20
181.011484
 30
0.0
  0
POINT
  5
187F
330
1795
100
AcDbEntity
  8
DEFPOINTS
  6
ByBlock
 62
     0
100
AcDbPoint
 10
337.450454
 20
93.51248400000001
 30
0.0
  0
ENDBLK
  5
1880
330
1795
100
AcDbEntity
  8
0
100
AcDbBlockEnd
  0
BLOCK
  5
1869
330
17B0
100
AcDbEntity
  8
0
100
AcDbBlockBegin
  2
*D5
 70
     1
 10
0.0
 20
0.0
 30
0.0
  3
*D5
  1

  0
LINE
  5
186A
330
17B0
100
AcDbEntity
  8
0
  6
ByBlock
100
AcDbLine
 10
261.949454
 20
209.495484
 30
0.0
 11
261.949454
 21
53.51248399999999
 31
0.0
  0
LINE
  5
186B
330
17B0
100
AcDbEntity
  8
0
  6
ByBlock
100
AcDbLine
 10
521.949454
 20
209.495484
 30
0.0
 11
521.949454
 21
53.51248399999999
 31
0.0
  0
LINE
  5
186C
330
17B0
100
AcDbEntity
  8
0
  6
ByBlock
100
AcDbLine
 10
274.449454
 20
58.51248399999999
 30
0.0
 11
509.449454
 21
58.51248399999999
 31
0.0
  0
SOLID
  5
186D
330
17B0
100
AcDbEntity
  8
0
  6
ByBlock
100
AcDbTrace
 10
274.449454
 20
60.595817
 30
0.0
 11
274.449454
 21
56.42915
 31
0.0
 12
261.949454
 22
58.51248399999999
 32
0.0
 13
261.949454
 23
58.51248399999999
 33
0.0
  0
SOLID
  5
186E
330
17B0
100
AcDbEntity
  8
0
  6
ByBlock
100
AcDbTrace
 10
509.449454
 20
60.595817
 30
0.0
 11
509.449454
 21
56.42915
 31
0.0
 12
521.949454
 22
58.51248399999999
 32
0.0
 13
521.949454
 23
58.51248399999999
 33
0.0
  0
MTEXT
  5
186F
330
17B0
100
AcDbEntity
  8
0
  6
ByBlock
 62
     2
100
AcDbMText
 10
391.949454
 20
70.264206
 30
0.0
 40
17.5
 41
0.0
 71
     5
 72
     1
  1
260
 73
     1
 44
1.0
1001
ACAD
1000
MTEXTBEGIN
1070
    73
1070
     1
1070
    44
1040
1.0
1070
    74
1070
     0
1000
MTEXTEND
  0
POINT
  5
1870
330
17B0
100
AcDbEntity
  8
DEFPOINTS
  6
ByBlock
 62
     0
100
AcDbPoint
 10
261.949454
 20
214.495484
 30
0.0
  0
POINT
  5
1871
330
17B0
100
AcDbEntity
  8
DEFPOINTS
  6
ByBlock
 62
     0
100
AcDbPoint
 10
521.949454
 20
214.495484
 30
0.0
  0
POINT
  5
1872
330
17B0
100
AcDbEntity
  8
DEFPOINTS
  6
ByBlock
 62
     0
100
AcDbPoint
 10
521.949454
 20
58.51248399999999
 30
0.0
  0
ENDBLK
  5
1873
330
17B0
100
AcDbEntity
  8
0
100
AcDbBlockEnd
  0
BLOCK
  5
1980
330
17C7
100
AcDbEntity
  8
0
100
AcDbBlockBegin
  2
*D6
 70
     1
 10
0.0
 20
0.0
 30
0.0
  3
*D6
  1
GEVFRAME
  0
LINE
  5
1981
330
17C7
100
AcDbEntity
  8
0
  6
ByBlock
100
AcDbLine
 10
286.356454
 20
143.512484
 30
0.0
 11
206.949454
 21
143.512484
 31
0.0
  0
LINE
  5
1982
330
17C7
100
AcDbEntity
  8
0
  6
ByBlock
100
AcDbLine
 10
286.356454
 20
340.511484
 30
0.0
 11
206.949454
 21
340.511484
 31
0.0
  0
LINE
  5
1983
330
17C7
100
AcDbEntity
  8
0
  6
ByBlock
100
AcDbLine
 10
211.949454
 20
156.012484
 30
0.0
 11
211.949454
 21
328.011484
 31
0.0
  0
SOLID
  5
1984
330
17C7
100
AcDbEntity
  8
0
  6
ByBlock
100
AcDbTrace
 10
209.86612
 20
156.012484
 30
0.0
 11
214.032787
 21
156.012484
 31
0.0
 12
211.949454
 22
143.512484
 32
0.0
 13
211.949454
 23
143.512484
 33
0.0
  0
SOLID
  5
1985
330
17C7
100
AcDbEntity
  8
0
  6
ByBlock
100
AcDbTrace
 10
209.86612
 20
328.011484
 30
0.0
 11
214.032787
 21
328.011484
 31
0.0
 12
211.949454
 22
340.511484
 32
0.0
 13
211.949454
 23
340.511484
 33
0.0
  0
MTEXT
  5
1986
330
17C7
100
AcDbEntity
  8
0
  6
ByBlock
 62
     2
100
AcDbMText
 10
200.199454
 20
242.011984
 30
0.0
 40
17.5
 41
0.0
 71
     5
 72
     1
  1
{\Fgeniso.shx|c0;\U+25A1}197
 11
0.0
 21
1.0
 31
0.0
 73
     1
 44
1.0
1001
ACAD
1000
MTEXTBEGIN
1070
    73
1070
     1
1070
    44
1040
1.0
1070
    74
1070
     0
1000
MTEXTEND
  0
POINT
  5
1987
330
17C7
100
AcDbEntity
  8
DEFPOINTS
  6
ByBlock
 62
     0
100
AcDbPoint
 10
291.356454
 20
143.512484
 30
0.0
  0
POINT
  5
1988
330
17C7
100
AcDbEntity
  8
DEFPOINTS
  6
ByBlock
 62
     0
100
AcDbPoint
 10
291.356454
 20
340.511484
 30
0.0
  0
POINT
  5
1989
330
17C7
100
AcDbEntity
  8
DEFPOINTS
  6
ByBlock
 62
     0
100
AcDbPoint
 10
211.949454
 20
340.511484
 30
0.0
  0
ENDBLK
  5
198A
330
17C7
100
AcDbEntity
  8
0
100
AcDbBlockEnd
  0
BLOCK
  5
1839
330
17DE
100
AcDbEntity
  8
0
100
AcDbBlockBegin
  2
*D7
 70
     1
 10
0.0
 20
0.0
 30
0.0
  3
*D7
  1

  0
LINE
  5
183A
330
17DE
100
AcDbEntity
  8
0
  6
ByBlock
100
AcDbLine
 10
288.450454
 20
615.511484
 30
0.0
 11
171.949454
 21
615.511484
 31
0.0
  0
LINE
  5
183B
330
17DE
100
AcDbEntity
  8
0
  6
ByBlock
100
AcDbLine
 10
308.173454
 20
440.511484
 30
0.0
 11
171.949454
 21
440.511484
 31
0.0
  0
LINE
  5
183C
330
17DE
100
AcDbEntity
  8
0
  6
ByBlock
100
AcDbLine
 10
176.949454
 20
603.011484
 30
0.0
 11
176.949454
 21
453.011484
 31
0.0
  0
SOLID
  5
183D
330
17DE
100
AcDbEntity
  8
0
  6
ByBlock
100
AcDbTrace
 10
174.86612
 20
603.011484
 30
0.0
 11
179.032787
 21
603.011484
 31
0.0
 12
176.949454
 22
615.511484
 32
0.0
 13
176.949454
 23
615.511484
 33
0.0
  0
SOLID
  5
183E
330
17DE
100
AcDbEntity
  8
0
  6
ByBlock
100
AcDbTrace
 10
174.86612
 20
453.011484
 30
0.0
 11
179.032787
 21
453.011484
 31
0.0
 12
176.949454
 22
440.511484
 32
0.0
 13
176.949454
 23
440.511484
 33
0.0
  0
MTEXT
  5
183F
330
17DE
100
AcDbEntity
  8
0
  6
ByBlock
 62
     2
100
AcDbMText
 10
165.199454
 20
528.011484
 30
0.0
 40
17.5
 41
0.0
 71
     5
 72
     1
  1
175
 11
0.0
 21
1.0
 31
0.0
 73
     1
 44
1.0
1001
ACAD
1000
MTEXTBEGIN
1070
    73
1070
     1
1070
    44
1040
1.0
1070
    74
1070
     0
1000
MTEXTEND
  0
POINT
  5
1840
330
17DE
100
AcDbEntity
  8
DEFPOINTS
  6
ByBlock
 62
     0
100
AcDbPoint
 10
293.450454
 20
615.511484
 30
0.0
  0
POINT
  5
1841
330
17DE
100
AcDbEntity
  8
DEFPOINTS
  6
ByBlock
 62
     0
100
AcDbPoint
 10
313.173454
 20
440.511484
 30
0.0
  0
POINT
  5
1842
330
17DE
100
AcDbEntity
  8
DEFPOINTS
  6
ByBlock
 62
     0
100
AcDbPoint
 10
176.949454
 20
440.511484
 30
0.0
  0
ENDBLK
  5
1843
330
17DE
100
AcDbEntity
  8
0
100
AcDbBlockEnd
  0
BLOCK
  5
1A74
330
1A72
100
AcDbEntity
  8
0
100
AcDbBlockBegin
  2
GENAXEH
 70
     0
 10
0.0
 20
0.0
 30
0.0
  3
GENAXEH
  1

  0
LINE
  5
1A73
330
1A72
100
AcDbEntity
  8
0
100
AcDbLine
 10
-1.0
 20
0.0
 30
0.0
 11
1.0
 21
0.0
 31
0.0
  0
ENDBLK
  5
1A75
330
1A72
100
AcDbEntity
  8
0
100
AcDbBlockEnd
  0
ENDSEC
  0
SECTION
  2
ENTITIES
  0
POINT
  5
1001
330
16C3
100
AcDbEntity
  8
PUNKTE
100
AcDbPoint
 10
492.543454
 20
143.512484
 30
0.0
  0
POINT
  5
1002
330
16C3
100
AcDbEntity
  8
PUNKTE
100
AcDbPoint
 10
291.356454
 20
143.512484
 30
0.0
  0
POINT
  5
1003
330
16C3
100
AcDbEntity
  8
PUNKTE
100
AcDbPoint
 10
391.950454
 20
143.512484
 30
0.0
  0
LINE
  5
1004
330
16C3
100
AcDbEntity
  8
0
100
AcDbLine
 10
293.450454
 20
615.511484
 30
0.0
 11
391.950454
 21
615.511484
 31
0.0
  0
LINE
  5
1005
330
16C3
100
AcDbEntity
  8
0
100
AcDbLine
 10
291.356454
 20
575.5664839999999
 30
0.0
 11
293.449454
 21
615.512484
 31
0.0
  0
LINE
  5
1006
330
16C3
100
AcDbEntity
  8
0
100
AcDbLine
 10
261.949454
 20
565.511484
 30
0.0
 11
262.472454
 21
575.4984839999999
 31
0.0
  0
LINE
  5
1007
330
16C3
100
AcDbEntity
  8
0
100
AcDbLine
 10
291.356454
 20
575.5664839999999
 30
0.0
 11
262.477454
 21
575.5664839999999
 31
0.0
  0
LINE
  5
1008
330
16C3
100
AcDbEntity
  8
0
100
AcDbLine
 10
305.158454
 20
574.9164839999999
 30
0.0
 11
304.601454
 21
606.8544839999999
 31
0.0
  0
LINE
  5
1009
330
16C3
100
AcDbEntity
  8
0
100
AcDbLine
 10
301.450454
 20
615.511484
 30
0.0
 11
304.601454
 21
606.8544839999999
 31
0.0
  0
ARC
  5
100A
330
16C3
100
AcDbEntity
  8
0
100
AcDbCircle
 10
310.657454
 20
575.011484
 30
0.0
 40
5.5
100
AcDbArc
 50
181.0
 51
270.0
  0
LINE
  5
100B
330
16C3
100
AcDbEntity
  8
0
100
AcDbLine
 10
470.7264539999999
 20
440.511484
 30
0.0
 11
313.173454
 21
440.511484
 31
0.0
  0
LINE
  5
100C
330
16C3
100
AcDbEntity
  8
0
100
AcDbLine
 10
261.949454
 20
565.511484
 30
0.0
 11
297.132454
 21
565.511484
 31
0.0
  0
LINE
  5
100D
330
16C3
100
AcDbEntity
  8
0
100
AcDbLine
 10
316.449454
 20
569.511484
 30
0.0
 11
318.269454
 21
465.282484
 31
0.0
  0
LINE
  5
100E
330
16C3
100
AcDbEntity
  8
0
100
AcDbLine
 10
313.173454
 20
440.511484
 30
0.0
 11
307.118454
 21
556.035484
 31
0.0
  0
ARC
  5
100F
330
16C3
100
AcDbEntity
  8
0
100
AcDbCircle
 10
297.132454
 20
555.5114839999999
 30
0.0
 40
10.0
100
AcDbArc
 50
3.0
 51
90.0
  0
LINE
  5
1010
330
16C3
100
AcDbEntity
  8
0
100
AcDbLine
 10
270.727454
 20
575.5664839999999
 30
0.0
 11
272.977454
 21
565.511484
 31
0.0
  0
LINE
  5
1011
330
16C3
100
AcDbEntity
  8
0
100
AcDbLine
 10
281.977454
 20
565.511484
 30
0.0
 11
284.227454
 21
575.5664839999999
 31
0.0
  0
LINE
  5
1012
330
16C3
100
AcDbEntity
  8
0
100
AcDbLine
 10
490.4504539999999
 20
615.511484
 30
0.0
 11
391.950454
 21
615.511484
 31
0.0
  0
LINE
  5
1013
330
16C3
100
AcDbEntity
  8
0
100
AcDbLine
 10
492.543454
 20
575.5664839999999
 30
0.0
 11
490.4504539999999
 21
615.511484
 31
0.0
  0
LINE
  5
1014
330
16C3
100
AcDbEntity
  8
0
100
AcDbLine
 10
521.950454
 20
565.511484
 30
0.0
 11
521.426454
 21
575.4984839999999
 31
0.0
  0
LINE
  5
1015
330
16C3
100
AcDbEntity
  8
0
100
AcDbLine
 10
492.543454
 20
575.5664839999999
 30
0.0
 11
521.4234539999999
 21
575.5664839999999
 31
0.0
  0
LINE
  5
1016
330
16C3
100
AcDbEntity
  8
0
100
AcDbLine
 10
478.7414539999999
 20
574.9164839999999
 30
0.0
 11
479.2984539999999
 21
606.8544839999999
 31
0.0
  0
LINE
  5
1017
330
16C3
100
AcDbEntity
  8
0
100
AcDbLine
 10
482.4504539999999
 20
615.511484
 30
0.0
 11
479.2984539999999
 21
606.8544839999999
 31
0.0
  0
ARC
  5
1018
330
16C3
100
AcDbEntity
  8
0
100
AcDbCircle
 10
473.242454
 20
575.011484
 30
0.0
 40
5.5
100
AcDbArc
 50
270.0
 51
359.0
  0
LINE
  5
1019
330
16C3
100
AcDbEntity
  8
0
100
AcDbLine
 10
521.950454
 20
565.511484
 30
0.0
 11
486.767454
 21
565.511484
 31
0.0
  0
LINE
  5
101A
330
16C3
100
AcDbEntity
  8
0
100
AcDbLine
 10
467.449454
 20
569.511484
 30
0.0
 11
465.6304539999999
 21
465.2814839999999
 31
0.0
  0
LINE
  5
101B
330
16C3
100
AcDbEntity
  8
0
100
AcDbLine
 10
470.7264539999999
 20
440.511484
 30
0.0
 11
476.7814539999999
 21
556.035484
 31
0.0
  0
ARC
  5
101C
330
16C3
100
AcDbEntity
  8
0
100
AcDbCircle
 10
486.767454
 20
555.5114839999999
 30
0.0
 40
10.0
100
AcDbArc
 50
90.0
 51
177.0
  0
LINE
  5
101D
330
16C3
100
AcDbEntity
  8
0
100
AcDbLine
 10
513.173454
 20
575.5664839999999
 30
0.0
 11
510.923454
 21
565.511484
 31
0.0
  0
LINE
  5
101E
330
16C3
100
AcDbEntity
  8
0
100
AcDbLine
 10
501.923454
 20
565.511484
 30
0.0
 11
499.673454
 21
575.5664839999999
 31
0.0
  0
LINE
  5
101F
330
16C3
100
AcDbEntity
  8
0
100
AcDbLine
 10
473.242454
 20
569.511484
 30
0.0
 11
310.657454
 21
569.511484
 31
0.0
  0
LINE
  5
1020
330
16C3
100
AcDbEntity
  8
0
100
AcDbLine
 10
318.949454
 20
460.282484
 30
0.0
 11
318.949454
 21
440.2814839999999
 31
0.0
  0
LINE
  5
1021
330
16C3
100
AcDbEntity
  8
0
100
AcDbLine
 10
318.269454
 20
465.282484
 30
0.0
 11
318.949454
 21
460.2814839999999
 31
0.0
  0
LINE
  5
1022
330
16C3
100
AcDbEntity
  8
0
100
AcDbLine
 10
464.9504539999999
 20
460.282484
 30
0.0
 11
464.9504539999999
 21
440.2814839999999
 31
0.0
  0
LINE
  5
1023
330
16C3
100
AcDbEntity
  8
0
100
AcDbLine
 10
465.6304539999999
 20
465.2814839999999
 30
0.0
 11
464.9504539999999
 21
460.2814839999999
 31
0.0
  0
LINE
  5
1024
330
16C3
100
AcDbEntity
  8
0
100
AcDbLine
 10
261.949454
 20
214.495484
 30
0.0
 11
261.949454
 21
269.528484
 31
0.0
  0
LINE
  5
1025
330
16C3
100
AcDbEntity
  8
0
100
AcDbLine
 10
293.450454
 20
145.511484
 30
0.0
 11
293.450454
 21
338.511484
 31
0.0
  0
LINE
  5
1026
330
16C3
100
AcDbEntity
  8
0
100
AcDbLine
 10
291.356454
 20
143.512484
 30
0.0
 11
291.356454
 21
340.511484
 31
0.0
  0
LINE
  5
1027
330
16C3
100
AcDbEntity
  8
0
100
AcDbLine
 10
492.543454
 20
143.512484
 30
0.0
 11
291.356454
 21
143.512484
 31
0.0
  0
LINE
  5
1028
330
16C3
100
AcDbEntity
  8
0
100
AcDbLine
 10
490.4504539999999
 20
145.511484
 30
0.0
 11
293.450454
 21
145.511484
 31
0.0
  0
LINE
  5
1029
330
16C3
100
AcDbEntity
  8
0
100
AcDbLine
 10
263.949454
 20
214.495484
 30
0.0
 11
263.949454
 21
269.528484
 31
0.0
  0
LINE
  5
102A
330
16C3
100
AcDbEntity
  8
0
100
AcDbLine
 10
291.356454
 20
282.011484
 30
0.0
 11
266.396454
 21
275.324484
 31
0.0
  0
LINE
  5
102B
330
16C3
100
AcDbEntity
  8
0
100
AcDbLine
 10
291.356454
 20
202.011484
 30
0.0
 11
266.397454
 21
208.699484
 31
0.0
  0
LINE
  5
102C
330
16C3
100
AcDbEntity
  8
0
100
AcDbLine
 10
291.356454
 20
279.941484
 30
0.0
 11
266.914454
 21
273.392484
 31
0.0
  0
LINE
  5
102D
330
16C3
100
AcDbEntity
  8
0
100
AcDbLine
 10
291.356454
 20
204.082484
 30
0.0
 11
266.914454
 21
210.631484
 31
0.0
  0
ARC
  5
102E
330
16C3
100
AcDbEntity
  8
0
100
AcDbCircle
 10
267.950454
 20
269.528484
 30
0.0
 40
6.0
100
AcDbArc
 50
105.0
 51
180.0
  0
ARC
  5
102F
330
16C3
100
AcDbEntity
  8
0
100
AcDbCircle
 10
267.950454
 20
214.495484
 30
0.0
 40
6.0
100
AcDbArc
 50
180.0
 51
255.0
  0
ARC
  5
1030
330
16C3
100
AcDbEntity
  8
0
100
AcDbCircle
 10
267.950454
 20
269.528484
 30
0.0
 40
4.0
100
AcDbArc
 50
105.0
 51
180.0
  0
ARC
  5
1031
330
16C3
100
AcDbEntity
  8
0
100
AcDbCircle
 10
267.950454
 20
214.495484
 30
0.0
 40
4.0
100
AcDbArc
 50
180.0
 51
255.0
  0
LINE
  5
1032
330
16C3
100
AcDbEntity
  8
0
100
AcDbLine
 10
304.449454
 20
329.511484
 30
0.0
 11
479.450454
 21
329.511484
 31
0.0
  0
LINE
  5
1033
330
16C3
100
AcDbEntity
  8
0
100
AcDbLine
 10
304.449454
 20
154.511484
 30
0.0
 11
304.449454
 21
258.511484
 31
0.0
  0
CIRCLE
  5
1034
330
16C3
100
AcDbEntity
  8
0
100
AcDbCircle
 10
277.477454
 20
242.011484
 30
0.0
 40
6.75
  0
LINE
  5
1035
330
16C3
100
AcDbEntity
  8
0
100
AcDbLine
 10
521.950454
 20
214.495484
 30
0.0
 11
521.950454
 21
269.528484
 31
0.0
  0
LINE
  5
1036
330
16C3
100
AcDbEntity
  8
0
100
AcDbLine
 10
490.4504539999999
 20
145.511484
 30
0.0
 11
490.4504539999999
 21
338.511484
 31
0.0
  0
LINE
  5
1037
330
16C3
100
AcDbEntity
  8
0
100
AcDbLine
 10
492.543454
 20
143.512484
 30
0.0
 11
492.543454
 21
340.511484
 31
0.0
  0
LINE
  5
1038
330
16C3
100
AcDbEntity
  8
0
100
AcDbLine
 10
293.450454
 20
338.511484
 30
0.0
 11
490.4504539999999
 21
338.511484
 31
0.0
  0
LINE
  5
1039
330
16C3
100
AcDbEntity
  8
0
100
AcDbLine
 10
291.356454
 20
340.511484
 30
0.0
 11
492.543454
 21
340.511484
 31
0.0
  0
LINE
  5
103A
330
16C3
100
AcDbEntity
  8
0
100
AcDbLine
 10
519.950454
 20
214.495484
 30
0.0
 11
519.950454
 21
269.528484
 31
0.0
  0
LINE
  5
103B
330
16C3
100
AcDbEntity
  8
0
100
AcDbLine
 10
492.543454
 20
282.011484
 30
0.0
 11
517.503454
 21
275.323484
 31
0.0
  0
LINE
  5
103C
330
16C3
100
AcDbEntity
  8
0
100
AcDbLine
 10
492.543454
 20
202.011484
 30
0.0
 11
517.503454
 21
208.699484
 31
0.0
  0
LINE
  5
103D
330
16C3
100
AcDbEntity
  8
0
100
AcDbLine
 10
492.543454
 20
279.941484
 30
0.0
 11
516.985454
 21
273.392484
 31
0.0
  0
LINE
  5
103E
330
16C3
100
AcDbEntity
  8
0
100
AcDbLine
 10
492.543454
 20
204.082484
 30
0.0
 11
516.985454
 21
210.631484
 31
0.0
  0
ARC
  5
103F
330
16C3
100
AcDbEntity
  8
0
100
AcDbCircle
 10
515.950454
 20
269.528484
 30
0.0
 40
6.0
100
AcDbArc
 50
0.0
 51
75.0
  0
ARC
  5
1040
330
16C3
100
AcDbEntity
  8
0
100
AcDbCircle
 10
515.950454
 20
214.495484
 30
0.0
 40
6.0
100
AcDbArc
 50
285.0
 51
0.0
  0
ARC
  5
1041
330
16C3
100
AcDbEntity
  8
0
100
AcDbCircle
 10
515.950454
 20
269.528484
 30
0.0
 40
4.0
100
AcDbArc
 50
0.0
 51
75.0
  0
ARC
  5
1042
330
16C3
100
AcDbEntity
  8
0
100
AcDbCircle
 10
515.950454
 20
214.495484
 30
0.0
 40
4.0
100
AcDbArc
 50
285.0
 51
0.0
  0
LINE
  5
1043
330
16C3
100
AcDbEntity
  8
0
100
AcDbLine
 10
479.450454
 20
154.511484
 30
0.0
 11
479.450454
 21
258.511484
 31
0.0
  0
CIRCLE
  5
1044
330
16C3
100
AcDbEntity
  8
0
100
AcDbCircle
 10
506.423454
 20
242.011484
 30
0.0
 40
6.75
  0
LINE
  5
1045
330
16C3
100
AcDbEntity
  8
0
100
AcDbLine
 10
299.449454
 20
228.511484
 30
0.0
 11
304.449454
 21
228.511484
 31
0.0
  0
LINE
  5
1046
330
16C3
100
AcDbEntity
  8
0
100
AcDbLine
 10
299.449454
 20
258.511484
 30
0.0
 11
304.449454
 21
258.511484
 31
0.0
  0
LINE
  5
1047
330
16C3
100
AcDbEntity
  8
0
100
AcDbLine
 10
299.449454
 20
228.511484
 30
0.0
 11
299.449454
 21
258.511484
 31
0.0
  0
LINE
  5
1048
330
16C3
100
AcDbEntity
  8
0
100
AcDbLine
 10
484.4504539999999
 20
228.511484
 30
0.0
 11
479.450454
 21
228.511484
 31
0.0
  0
LINE
  5
1049
330
16C3
100
AcDbEntity
  8
0
100
AcDbLine
 10
484.4504539999999
 20
258.511484
 30
0.0
 11
479.450454
 21
258.511484
 31
0.0
  0
LINE
  5
104A
330
16C3
100
AcDbEntity
  8
0
100
AcDbLine
 10
484.4504539999999
 20
228.511484
 30
0.0
 11
484.4504539999999
 21
258.511484
 31
0.0
  0
LINE
  5
104B
330
16C3
100
AcDbEntity
  8
0
100
AcDbLine
 10
304.449454
 20
154.511484
 30
0.0
 11
479.450454
 21
154.511484
 31
0.0
  0
LINE
  5
104C
330
16C3
100
AcDbEntity
  8
0
100
AcDbLine
 10
304.449454
 20
258.511484
 30
0.0
 11
304.449454
 21
329.511484
 31
0.0
  0
LINE
  5
104D
330
16C3
100
AcDbEntity
  8
0
100
AcDbLine
 10
479.450454
 20
258.511484
 30
0.0
 11
479.450454
 21
329.511484
 31
0.0
  0
LINE
  5
104E
330
16C3
100
AcDbEntity
  8
0
100
AcDbLine
 10
344.089454
 20
580.5114839999999
 30
0.0
 11
348.310454
 21
580.5114839999999
 31
0.0
  0
LINE
  5
104F
330
16C3
100
AcDbEntity
  8
0
100
AcDbLine
 10
308.585454
 20
583.3024839999999
 30
0.0
 11
306.897454
 21
615.511484
 31
0.0
  0
LINE
  5
1050
330
16C3
100
AcDbEntity
  8
0
100
AcDbLine
 10
322.814454
 20
583.3024839999999
 30
0.0
 11
324.502454
 21
615.511484
 31
0.0
  0
LINE
  5
1051
330
16C3
100
AcDbEntity
  8
0
100
AcDbLine
 10
340.105454
 20
584.1624839999999
 30
0.0
 11
337.362454
 21
615.511484
 31
0.0
  0
LINE
  5
1052
330
16C3
100
AcDbEntity
  8
0
100
AcDbLine
 10
370.605454
 20
584.163484
 30
0.0
 11
367.862454
 21
615.511484
 31
0.0
  0
LINE
  5
1053
330
16C3
100
AcDbEntity
  8
0
100
AcDbLine
 10
352.2944540000001
 20
584.163484
 30
0.0
 11
355.037454
 21
615.511484
 31
0.0
  0
LINE
  5
1054
330
16C3
100
AcDbEntity
  8
0
100
AcDbLine
 10
382.794454
 20
584.1624839999999
 30
0.0
 11
385.537454
 21
615.511484
 31
0.0
  0
LINE
  5
1055
330
16C3
100
AcDbEntity
  8
0
 48
0.338
100
AcDbLine
 10
374.589454
 20
580.5114839999999
 30
0.0
 11
378.810454
 21
580.5114839999999
 31
0.0
  0
ARC
  5
1056
330
16C3
100
AcDbEntity
  8
0
100
AcDbCircle
 10
344.089454
 20
584.5114839999999
 30
0.0
 40
4.0
100
AcDbArc
 50
185.0
 51
270.0
  0
ARC
  5
1057
330
16C3
100
AcDbEntity
  8
0
100
AcDbCircle
 10
318.819454
 20
583.511484
 30
0.0
 40
4.0
100
AcDbArc
 50
270.0
 51
357.0
  0
ARC
  5
1058
330
16C3
100
AcDbEntity
  8
0
100
AcDbCircle
 10
348.310454
 20
584.5114839999999
 30
0.0
 40
4.0
100
AcDbArc
 50
270.0
 51
355.0
  0
ARC
  5
1059
330
16C3
100
AcDbEntity
  8
0
100
AcDbCircle
 10
374.589454
 20
584.5114839999999
 30
0.0
 40
4.0
100
AcDbArc
 50
185.0
 51
270.0
  0
ARC
  5
105A
330
16C3
100
AcDbEntity
  8
0
100
AcDbCircle
 10
378.810454
 20
584.5114839999999
 30
0.0
 40
4.0
100
AcDbArc
 50
270.0
 51
355.0
  0
ARC
  5
105B
330
16C3
100
AcDbEntity
  8
0
100
AcDbCircle
 10
312.580454
 20
583.511484
 30
0.0
 40
4.0
100
AcDbArc
 50
183.0
 51
270.0
  0
LINE
  5
105C
330
16C3
100
AcDbEntity
  8
0
100
AcDbLine
 10
439.810454
 20
580.5114839999999
 30
0.0
 11
435.589454
 21
580.5114839999999
 31
0.0
  0
LINE
  5
105D
330
16C3
100
AcDbEntity
  8
0
100
AcDbLine
 10
475.314454
 20
583.3024839999999
 30
0.0
 11
477.002454
 21
615.511484
 31
0.0
  0
LINE
  5
105E
330
16C3
100
AcDbEntity
  8
0
100
AcDbLine
 10
461.085454
 20
583.3024839999999
 30
0.0
 11
459.3974539999999
 21
615.511484
 31
0.0
  0
LINE
  5
105F
330
16C3
100
AcDbEntity
  8
0
100
AcDbLine
 10
443.794454
 20
584.1624839999999
 30
0.0
 11
446.537454
 21
615.511484
 31
0.0
  0
LINE
  5
1060
330
16C3
100
AcDbEntity
  8
0
100
AcDbLine
 10
413.294454
 20
584.1624839999999
 30
0.0
 11
416.037454
 21
615.511484
 31
0.0
  0
LINE
  5
1061
330
16C3
100
AcDbEntity
  8
0
100
AcDbLine
 10
431.605454
 20
584.163484
 30
0.0
 11
428.8624539999999
 21
615.511484
 31
0.0
  0
LINE
  5
1062
330
16C3
100
AcDbEntity
  8
0
100
AcDbLine
 10
401.1054539999999
 20
584.1624839999999
 30
0.0
 11
398.362454
 21
615.511484
 31
0.0
  0
LINE
  5
1063
330
16C3
100
AcDbEntity
  8
0
 48
0.338
100
AcDbLine
 10
409.3104539999999
 20
580.5114839999999
 30
0.0
 11
405.0894539999999
 21
580.5114839999999
 31
0.0
  0
ARC
  5
1064
330
16C3
100
AcDbEntity
  8
0
100
AcDbCircle
 10
439.810454
 20
584.5114839999999
 30
0.0
 40
4.0
100
AcDbArc
 50
270.0
 51
355.0
  0
ARC
  5
1065
330
16C3
100
AcDbEntity
  8
0
100
AcDbCircle
 10
465.080454
 20
583.511484
 30
0.0
 40
4.0
100
AcDbArc
 50
183.0
 51
270.0
  0
ARC
  5
1066
330
16C3
100
AcDbEntity
  8
0
100
AcDbCircle
 10
435.589454
 20
584.5114839999999
 30
0.0
 40
4.0
100
AcDbArc
 50
185.0
 51
270.0
  0
ARC
  5
1067
330
16C3
100
AcDbEntity
  8
0
100
AcDbCircle
 10
409.3104539999999
 20
584.5114839999999
 30
0.0
 40
4.0
100
AcDbArc
 50
270.0
 51
355.0
  0
ARC
  5
1068
330
16C3
100
AcDbEntity
  8
0
100
AcDbCircle
 10
405.0894539999999
 20
584.5114839999999
 30
0.0
 40
4.0
100
AcDbArc
 50
185.0
 51
270.0
  0
ARC
  5
1069
330
16C3
100
AcDbEntity
  8
0
100
AcDbCircle
 10
471.3194539999999
 20
583.511484
 30
0.0
 40
4.0
100
AcDbArc
 50
270.0
 51
357.0
  0
LINE
  5
106A
330
16C3
100
AcDbEntity
  8
0
100
AcDbLine
 10
478.777454
 20
577.0114839999999
 30
0.0
 11
305.122454
 21
577.0114839999999
 31
0.0
  0
LINE
  5
106B
330
16C3
100
AcDbEntity
  8
0
100
AcDbLine
 10
478.821454
 20
579.511484
 30
0.0
 11
305.078454
 21
579.511484
 31
0.0
  0
LINE
  5
106C
330
16C3
100
AcDbEntity
  8
0
100
AcDbLine
 10
436.2804539999999
 20
577.0114839999999
 30
0.0
 11
436.9494539999999
 21
579.511484
 31
0.0
  0
LINE
  5
106D
330
16C3
100
AcDbEntity
  8
0
100
AcDbLine
 10
347.619454
 20
577.0114839999999
 30
0.0
 11
346.949454
 21
579.511484
 31
0.0
  0
LINE
  5
106E
330
16C3
100
AcDbEntity
  8
0
100
AcDbLine
 10
476.9504539999999
 20
327.011484
 30
0.0
 11
476.9504539999999
 21
157.011484
 31
0.0
  0
LINE
  5
106F
330
16C3
100
AcDbEntity
  8
0
100
AcDbLine
 10
306.949454
 20
327.011484
 30
0.0
 11
306.949454
 21
157.011484
 31
0.0
  0
LINE
  5
1070
330
16C3
100
AcDbEntity
  8
0
100
AcDbLine
 10
306.949454
 20
327.011484
 30
0.0
 11
476.9504539999999
 21
327.011484
 31
0.0
  0
LINE
  5
1071
330
16C3
100
AcDbEntity
  8
0
100
AcDbLine
 10
306.949454
 20
157.011484
 30
0.0
 11
476.9504539999999
 21
157.011484
 31
0.0
  0
LINE
  5
1072
330
16C3
100
AcDbEntity
  8
0
100
AcDbLine
 10
324.449454
 20
303.011484
 30
0.0
 11
324.449454
 21
181.011484
 31
0.0
  0
LINE
  5
1073
330
16C3
100
AcDbEntity
  8
0
100
AcDbLine
 10
459.4504539999999
 20
303.011484
 30
0.0
 11
459.4504539999999
 21
181.011484
 31
0.0
  0
LINE
  5
1074
330
16C3
100
AcDbEntity
  8
0
100
AcDbLine
 10
446.450454
 20
303.011484
 30
0.0
 11
446.450454
 21
181.011484
 31
0.0
  0
LINE
  5
1075
330
16C3
100
AcDbEntity
  8
0
100
AcDbLine
 10
337.450454
 20
303.011484
 30
0.0
 11
337.450454
 21
181.011484
 31
0.0
  0
LINE
  5
1076
330
16C3
100
AcDbEntity
  8
0
100
AcDbLine
 10
354.950454
 20
303.011484
 30
0.0
 11
354.950454
 21
181.011484
 31
0.0
  0
LINE
  5
1077
330
16C3
100
AcDbEntity
  8
0
100
AcDbLine
 10
428.950454
 20
303.011484
 30
0.0
 11
428.950454
 21
181.011484
 31
0.0
  0
LINE
  5
1078
330
16C3
100
AcDbEntity
  8
0
100
AcDbLine
 10
415.9504539999999
 20
303.011484
 30
0.0
 11
415.9504539999999
 21
181.011484
 31
0.0
  0
LINE
  5
1079
330
16C3
100
AcDbEntity
  8
0
100
AcDbLine
 10
367.950454
 20
303.011484
 30
0.0
 11
367.950454
 21
181.011484
 31
0.0
  0
LINE
  5
107A
330
16C3
100
AcDbEntity
  8
0
100
AcDbLine
 10
385.450454
 20
303.011484
 30
0.0
 11
385.450454
 21
181.011484
 31
0.0
  0
LINE
  5
107B
330
16C3
100
AcDbEntity
  8
0
100
AcDbLine
 10
398.450454
 20
303.011484
 30
0.0
 11
398.450454
 21
181.011484
 31
0.0
  0
ARC
  5
107C
330
16C3
100
AcDbEntity
  8
0
100
AcDbCircle
 10
452.9504539999999
 20
303.011484
 30
0.0
 40
6.5
100
AcDbArc
 50
0.0
 51
180.0
  0
ARC
  5
107D
330
16C3
100
AcDbEntity
  8
0
100
AcDbCircle
 10
422.4504539999999
 20
303.011484
 30
0.0
 40
6.5
100
AcDbArc
 50
0.0
 51
180.0
  0
ARC
  5
107E
330
16C3
100
AcDbEntity
  8
0
100
AcDbCircle
 10
391.950454
 20
303.011484
 30
0.0
 40
6.5
100
AcDbArc
 50
0.0
 51
180.0
  0
ARC
  5
107F
330
16C3
100
AcDbEntity
  8
0
100
AcDbCircle
 10
361.450454
 20
303.011484
 30
0.0
 40
6.5
100
AcDbArc
 50
0.0
 51
180.0
  0
ARC
  5
1080
330
16C3
100
AcDbEntity
  8
0
100
AcDbCircle
 10
330.950454
 20
303.011484
 30
0.0
 40
6.5
100
AcDbArc
 50
0.0
 51
180.0
  0
ARC
  5
1081
330
16C3
100
AcDbEntity
  8
0
100
AcDbCircle
 10
452.9504539999999
 20
181.011484
 30
0.0
 40
6.5
100
AcDbArc
 50
180.0
 51
0.0
  0
ARC
  5
1082
330
16C3
100
AcDbEntity
  8
0
100
AcDbCircle
 10
422.4504539999999
 20
181.011484
 30
0.0
 40
6.5
100
AcDbArc
 50
180.0
 51
0.0
  0
ARC
  5
1083
330
16C3
100
AcDbEntity
  8
0
100
AcDbCircle
 10
391.950454
 20
181.011484
 30
0.0
 40
6.5
100
AcDbArc
 50
180.0
 51
0.0
  0
ARC
  5
1084
330
16C3
100
AcDbEntity
  8
0
100
AcDbCircle
 10
361.450454
 20
181.011484
 30
0.0
 40
6.5
100
AcDbArc
 50
180.0
 51
0.0
  0
ARC
  5
1085
330
16C3
100
AcDbEntity
  8
0
100
AcDbCircle
 10
330.950454
 20
181.011484
 30
0.0
 40
6.5
100
AcDbArc
 50
180.0
 51
0.0
  0
ARC
  5
1086
330
16C3
100
AcDbEntity
  8
0
100
AcDbCircle
 10
391.950454
 20
242.011484
 30
0.0
 40
73.0
100
AcDbArc
 50
318.295
 51
337.617
  0
ARC
  5
1087
330
16C3
100
AcDbEntity
  8
0
100
AcDbCircle
 10
391.950454
 20
242.011484
 30
0.0
 40
73.0
100
AcDbArc
 50
138.295
 51
157.617
  0
ARC
  5
1088
330
16C3
100
AcDbEntity
  8
0
100
AcDbCircle
 10
391.950454
 20
242.011484
 30
0.0
 40
73.0
100
AcDbArc
 50
113.006
 51
120.454
  0
ARC
  5
1089
330
16C3
100
AcDbEntity
  8
0
100
AcDbCircle
 10
391.950454
 20
242.011484
 30
0.0
 40
73.0
100
AcDbArc
 50
59.54600000000001
 51
66.994
  0
ARC
  5
108A
330
16C3
100
AcDbEntity
  8
0
100
AcDbCircle
 10
391.950454
 20
242.011484
 30
0.0
 40
73.0
100
AcDbArc
 50
22.383
 51
41.70499999999999
  0
ARC
  5
108B
330
16C3
100
AcDbEntity
  8
0
100
AcDbCircle
 10
391.950454
 20
242.011484
 30
0.0
 40
73.0
100
AcDbArc
 50
293.005
 51
300.454
  0
ARC
  5
108C
330
16C3
100
AcDbEntity
  8
0
100
AcDbCircle
 10
391.950454
 20
242.011484
 30
0.0
 40
73.0
100
AcDbArc
 50
239.546
 51
246.995
  0
ARC
  5
108D
330
16C3
100
AcDbEntity
  8
0
100
AcDbCircle
 10
391.950454
 20
242.011484
 30
0.0
 40
73.0
100
AcDbArc
 50
202.383
 51
221.705
  0
CIRCLE
  5
108E
330
16C3
100
AcDbEntity
  8
0
100
AcDbCircle
 10
277.477454
 20
242.011484
 30
0.0
 40
4.5
  0
CIRCLE
  5
108F
330
16C3
100
AcDbEntity
  8
0
100
AcDbCircle
 10
506.423454
 20
242.011484
 30
0.0
 40
4.5
  0
POLYLINE
  5
1090
330
16C3
100
AcDbEntity
  8
SCHRAFFUR_RAND
100
AcDb2dPolyline
 66
     1
 10
0.0
 20
0.0
 30
0.0
 70
     1
  0
VERTEX
  5
1091
330
1090
100
AcDbEntity
  8
SCHRAFFUR_RAND
100
AcDbVertex
100
AcDb2dVertex
 10
510.923454
 20
565.511484
 30
0.0
  0
VERTEX
  5
1092
330
1090
100
AcDbEntity
  8
SCHRAFFUR_RAND
100
AcDbVertex
100
AcDb2dVertex
 10
521.950454
 20
565.511484
 30
0.0
  0
VERTEX
  5
1093
330
1090
100
AcDbEntity
  8
SCHRAFFUR_RAND
100
AcDbVertex
100
AcDb2dVertex
 10
521.426454
 20
575.4984839999999
 30
0.0
  0
VERTEX
  5
1094
330
1090
100
AcDbEntity
  8
SCHRAFFUR_RAND
100
AcDbVertex
100
AcDb2dVertex
 10
513.173454
 20
575.5664839999999
 30
0.0
  0
VERTEX
  5
1095
330
1090
100
AcDbEntity
  8
SCHRAFFUR_RAND
100
AcDbVertex
100
AcDb2dVertex
 10
510.923454
 20
565.511484
 30
0.0
  0
SEQEND
  5
1096
330
1090
100
AcDbEntity
  8
SCHRAFFUR_RAND
  0
POLYLINE
  5
10B0
330
16C3
100
AcDbEntity
  8
SCHRAFFUR_RAND
100
AcDb2dPolyline
 66
     1
 10
0.0
 20
0.0
 30
0.0
 70
     1
  0
VERTEX
  5
10B1
330
10B0
100
AcDbEntity
  8
SCHRAFFUR_RAND
100
AcDbVertex
100
AcDb2dVertex
 10
270.727454
 20
575.5664839999999
 30
0.0
  0
VERTEX
  5
10B2
330
10B0
100
AcDbEntity
  8
SCHRAFFUR_RAND
100
AcDbVertex
100
AcDb2dVertex
 10
262.473454
 20
575.4984839999999
 30
0.0
  0
VERTEX
  5
10B3
330
10B0
100
AcDbEntity
  8
SCHRAFFUR_RAND
100
AcDbVertex
100
AcDb2dVertex
 10
261.949454
 20
565.511484
 30
0.0
  0
VERTEX
  5
10B4
330
10B0
100
AcDbEntity
  8
SCHRAFFUR_RAND
100
AcDbVertex
100
AcDb2dVertex
 10
272.977454
 20
565.511484
 30
0.0
  0
VERTEX
  5
10B5
330
10B0
100
AcDbEntity
  8
SCHRAFFUR_RAND
100
AcDbVertex
100
AcDb2dVertex
 10
270.727454
 20
575.5664839999999
 30
0.0
  0
SEQEND
  5
10B6
330
10B0
100
AcDbEntity
  8
SCHRAFFUR_RAND
  0
POLYLINE
  5
10D0
330
16C3
100
AcDbEntity
  8
SCHRAFFUR_RAND
100
AcDb2dPolyline
 66
     1
 10
0.0
 20
0.0
 30
0.0
 70
     1
  0
VERTEX
  5
10D1
330
10D0
100
AcDbEntity
  8
SCHRAFFUR_RAND
100
AcDbVertex
100
AcDb2dVertex
 10
324.502454
 20
615.511484
 30
0.0
  0
VERTEX
  5
10D2
330
10D0
100
AcDbEntity
  8
SCHRAFFUR_RAND
100
AcDbVertex
100
AcDb2dVertex
 10
306.897454
 20
615.511484
 30
0.0
  0
VERTEX
  5
10D3
330
10D0
100
AcDbEntity
  8
SCHRAFFUR_RAND
100
AcDbVertex
100
AcDb2dVertex
 10
308.585454
 20
583.3024839999999
 30
0.0
  0
VERTEX
  5
10D4
330
10D0
100
AcDbEntity
  8
SCHRAFFUR_RAND
100
AcDbVertex
100
AcDb2dVertex
 10
308.866454
 20
581.7994839999999
 30
0.0
  0
VERTEX
  5
10D5
330
10D0
100
AcDbEntity
  8
SCHRAFFUR_RAND
100
AcDbVertex
100
AcDb2dVertex
 10
309.765454
 20
580.545484
 30
0.0
  0
VERTEX
  5
10D6
330
10D0
100
AcDbEntity
  8
SCHRAFFUR_RAND
100
AcDbVertex
100
AcDb2dVertex
 10
311.064454
 20
579.713484
 30
0.0
  0
VERTEX
  5
10D7
330
10D0
100
AcDbEntity
  8
SCHRAFFUR_RAND
100
AcDbVertex
100
AcDb2dVertex
 10
312.580454
 20
579.511484
 30
0.0
  0
VERTEX
  5
10D8
330
10D0
100
AcDbEntity
  8
SCHRAFFUR_RAND
100
AcDbVertex
100
AcDb2dVertex
 10
318.819454
 20
579.511484
 30
0.0
  0
VERTEX
  5
10D9
330
10D0
100
AcDbEntity
  8
SCHRAFFUR_RAND
100
AcDbVertex
100
AcDb2dVertex
 10
320.335454
 20
579.713484
 30
0.0
  0
VERTEX
  5
10DA
330
10D0
100
AcDbEntity
  8
SCHRAFFUR_RAND
100
AcDbVertex
100
AcDb2dVertex
 10
321.634454
 20
580.545484
 30
0.0
  0
VERTEX
  5
10DB
330
10D0
100
AcDbEntity
  8
SCHRAFFUR_RAND
100
AcDbVertex
100
AcDb2dVertex
 10
322.533454
 20
581.7994839999999
 30
0.0
  0
VERTEX
  5
10DC
330
10D0
100
AcDbEntity
  8
SCHRAFFUR_RAND
100
AcDbVertex
100
AcDb2dVertex
 10
322.814454
 20
583.3024839999999
 30
0.0
  0
VERTEX
  5
10DD
330
10D0
100
AcDbEntity
  8
SCHRAFFUR_RAND
100
AcDbVertex
100
AcDb2dVertex
 10
324.502454
 20
615.511484
 30
0.0
  0
SEQEND
  5
10DE
330
10D0
100
AcDbEntity
  8
SCHRAFFUR_RAND
  0
POLYLINE
  5
1131
330
16C3
100
AcDbEntity
  8
SCHRAFFUR_RAND
100
AcDb2dPolyline
 66
     1
 10
0.0
 20
0.0
 30
0.0
 70
     1
  0
VERTEX
  5
1132
330
1131
100
AcDbEntity
  8
SCHRAFFUR_RAND
100
AcDbVertex
100
AcDb2dVertex
 10
355.037454
 20
615.511484
 30
0.0
  0
VERTEX
  5
1133
330
1131
100
AcDbEntity
  8
SCHRAFFUR_RAND
100
AcDbVertex
100
AcDb2dVertex
 10
337.362454
 20
615.511484
 30
0.0
  0
VERTEX
  5
1134
330
1131
100
AcDbEntity
  8
SCHRAFFUR_RAND
100
AcDbVertex
100
AcDb2dVertex
 10
340.105454
 20
584.1624839999999
 30
0.0
  0
VERTEX
  5
1135
330
1131
100
AcDbEntity
  8
SCHRAFFUR_RAND
100
AcDbVertex
100
AcDb2dVertex
 10
340.673454
 20
582.264484
 30
0.0
  0
VERTEX
  5
1136
330
1131
100
AcDbEntity
  8
SCHRAFFUR_RAND
100
AcDbVertex
100
AcDb2dVertex
 10
342.149454
 20
580.9124839999999
 30
0.0
  0
VERTEX
  5
1137
330
1131
100
AcDbEntity
  8
SCHRAFFUR_RAND
100
AcDbVertex
100
AcDb2dVertex
 10
344.089454
 20
580.5114839999999
 30
0.0
  0
VERTEX
  5
1138
330
1131
100
AcDbEntity
  8
SCHRAFFUR_RAND
100
AcDbVertex
100
AcDb2dVertex
 10
348.310454
 20
580.5114839999999
 30
0.0
  0
VERTEX
  5
1139
330
1131
100
AcDbEntity
  8
SCHRAFFUR_RAND
100
AcDbVertex
100
AcDb2dVertex
 10
350.250454
 20
580.9124839999999
 30
0.0
  0
VERTEX
  5
113A
330
1131
100
AcDbEntity
  8
SCHRAFFUR_RAND
100
AcDbVertex
100
AcDb2dVertex
 10
351.726454
 20
582.264484
 30
0.0
  0
VERTEX
  5
113B
330
1131
100
AcDbEntity
  8
SCHRAFFUR_RAND
100
AcDbVertex
100
AcDb2dVertex
 10
352.2944540000001
 20
584.1624839999999
 30
0.0
  0
VERTEX
  5
113C
330
1131
100
AcDbEntity
  8
SCHRAFFUR_RAND
100
AcDbVertex
100
AcDb2dVertex
 10
355.037454
 20
615.511484
 30
0.0
  0
SEQEND
  5
113D
330
1131
100
AcDbEntity
  8
SCHRAFFUR_RAND
  0
POLYLINE
  5
118E
330
16C3
100
AcDbEntity
  8
SCHRAFFUR_RAND
100
AcDb2dPolyline
 66
     1
 10
0.0
 20
0.0
 30
0.0
 70
     1
  0
VERTEX
  5
118F
330
118E
100
AcDbEntity
  8
SCHRAFFUR_RAND
100
AcDbVertex
100
AcDb2dVertex
 10
385.537454
 20
615.511484
 30
0.0
  0
VERTEX
  5
1190
330
118E
100
AcDbEntity
  8
SCHRAFFUR_RAND
100
AcDbVertex
100
AcDb2dVertex
 10
367.862454
 20
615.511484
 30
0.0
  0
VERTEX
  5
1191
330
118E
100
AcDbEntity
  8
SCHRAFFUR_RAND
100
AcDbVertex
100
AcDb2dVertex
 10
370.605454
 20
584.1624839999999
 30
0.0
  0
VERTEX
  5
1192
330
118E
100
AcDbEntity
  8
SCHRAFFUR_RAND
100
AcDbVertex
100
AcDb2dVertex
 10
371.173454
 20
582.264484
 30
0.0
  0
VERTEX
  5
1193
330
118E
100
AcDbEntity
  8
SCHRAFFUR_RAND
100
AcDbVertex
100
AcDb2dVertex
 10
372.649454
 20
580.9124839999999
 30
0.0
  0
VERTEX
  5
1194
330
118E
100
AcDbEntity
  8
SCHRAFFUR_RAND
100
AcDbVertex
100
AcDb2dVertex
 10
374.589454
 20
580.5114839999999
 30
0.0
  0
VERTEX
  5
1195
330
118E
100
AcDbEntity
  8
SCHRAFFUR_RAND
100
AcDbVertex
100
AcDb2dVertex
 10
378.810454
 20
580.5114839999999
 30
0.0
  0
VERTEX
  5
1196
330
118E
100
AcDbEntity
  8
SCHRAFFUR_RAND
100
AcDbVertex
100
AcDb2dVertex
 10
380.750454
 20
580.9124839999999
 30
0.0
  0
VERTEX
  5
1197
330
118E
100
AcDbEntity
  8
SCHRAFFUR_RAND
100
AcDbVertex
100
AcDb2dVertex
 10
382.226454
 20
582.264484
 30
0.0
  0
VERTEX
  5
1198
330
118E
100
AcDbEntity
  8
SCHRAFFUR_RAND
100
AcDbVertex
100
AcDb2dVertex
 10
382.794454
 20
584.1624839999999
 30
0.0
  0
VERTEX
  5
1199
330
118E
100
AcDbEntity
  8
SCHRAFFUR_RAND
100
AcDbVertex
100
AcDb2dVertex
 10
385.537454
 20
615.511484
 30
0.0
  0
SEQEND
  5
119A
330
118E
100
AcDbEntity
  8
SCHRAFFUR_RAND
  0
POLYLINE
  5
11EB
330
16C3
100
AcDbEntity
  8
SCHRAFFUR_RAND
100
AcDb2dPolyline
 66
     1
 10
0.0
 20
0.0
 30
0.0
 70
     1
  0
VERTEX
  5
11EC
330
11EB
100
AcDbEntity
  8
SCHRAFFUR_RAND
100
AcDbVertex
100
AcDb2dVertex
 10
416.037454
 20
615.511484
 30
0.0
  0
VERTEX
  5
11ED
330
11EB
100
AcDbEntity
  8
SCHRAFFUR_RAND
100
AcDbVertex
100
AcDb2dVertex
 10
398.362454
 20
615.511484
 30
0.0
  0
VERTEX
  5
11EE
330
11EB
100
AcDbEntity
  8
SCHRAFFUR_RAND
100
AcDbVertex
100
AcDb2dVertex
 10
401.1054539999999
 20
584.1624839999999
 30
0.0
  0
VERTEX
  5
11EF
330
11EB
100
AcDbEntity
  8
SCHRAFFUR_RAND
100
AcDbVertex
100
AcDb2dVertex
 10
401.6734539999999
 20
582.264484
 30
0.0
  0
VERTEX
  5
11F0
330
11EB
100
AcDbEntity
  8
SCHRAFFUR_RAND
100
AcDbVertex
100
AcDb2dVertex
 10
403.1494539999999
 20
580.9124839999999
 30
0.0
  0
VERTEX
  5
11F1
330
11EB
100
AcDbEntity
  8
SCHRAFFUR_RAND
100
AcDbVertex
100
AcDb2dVertex
 10
405.0894539999999
 20
580.5114839999999
 30
0.0
  0
VERTEX
  5
11F2
330
11EB
100
AcDbEntity
  8
SCHRAFFUR_RAND
100
AcDbVertex
100
AcDb2dVertex
 10
409.3104539999999
 20
580.5114839999999
 30
0.0
  0
VERTEX
  5
11F3
330
11EB
100
AcDbEntity
  8
SCHRAFFUR_RAND
100
AcDbVertex
100
AcDb2dVertex
 10
411.2504539999999
 20
580.9124839999999
 30
0.0
  0
VERTEX
  5
11F4
330
11EB
100
AcDbEntity
  8
SCHRAFFUR_RAND
100
AcDbVertex
100
AcDb2dVertex
 10
412.7264539999999
 20
582.264484
 30
0.0
  0
VERTEX
  5
11F5
330
11EB
100
AcDbEntity
  8
SCHRAFFUR_RAND
100
AcDbVertex
100
AcDb2dVertex
 10
413.294454
 20
584.1624839999999
 30
0.0
  0
VERTEX
  5
11F6
330
11EB
100
AcDbEntity
  8
SCHRAFFUR_RAND
100
AcDbVertex
100
AcDb2dVertex
 10
416.037454
 20
615.511484
 30
0.0
  0
SEQEND
  5
11F7
330
11EB
100
AcDbEntity
  8
SCHRAFFUR_RAND
  0
POLYLINE
  5
1248
330
16C3
100
AcDbEntity
  8
SCHRAFFUR_RAND
100
AcDb2dPolyline
 66
     1
 10
0.0
 20
0.0
 30
0.0
 70
     1
  0
VERTEX
  5
1249
330
1248
100
AcDbEntity
  8
SCHRAFFUR_RAND
100
AcDbVertex
100
AcDb2dVertex
 10
446.537454
 20
615.511484
 30
0.0
  0
VERTEX
  5
124A
330
1248
100
AcDbEntity
  8
SCHRAFFUR_RAND
100
AcDbVertex
100
AcDb2dVertex
 10
428.8624539999999
 20
615.511484
 30
0.0
  0
VERTEX
  5
124B
330
1248
100
AcDbEntity
  8
SCHRAFFUR_RAND
100
AcDbVertex
100
AcDb2dVertex
 10
431.605454
 20
584.1624839999999
 30
0.0
  0
VERTEX
  5
124C
330
1248
100
AcDbEntity
  8
SCHRAFFUR_RAND
100
AcDbVertex
100
AcDb2dVertex
 10
432.173454
 20
582.264484
 30
0.0
  0
VERTEX
  5
124D
330
1248
100
AcDbEntity
  8
SCHRAFFUR_RAND
100
AcDbVertex
100
AcDb2dVertex
 10
433.649454
 20
580.9124839999999
 30
0.0
  0
VERTEX
  5
124E
330
1248
100
AcDbEntity
  8
SCHRAFFUR_RAND
100
AcDbVertex
100
AcDb2dVertex
 10
435.589454
 20
580.5114839999999
 30
0.0
  0
VERTEX
  5
124F
330
1248
100
AcDbEntity
  8
SCHRAFFUR_RAND
100
AcDbVertex
100
AcDb2dVertex
 10
439.810454
 20
580.5114839999999
 30
0.0
  0
VERTEX
  5
1250
330
1248
100
AcDbEntity
  8
SCHRAFFUR_RAND
100
AcDbVertex
100
AcDb2dVertex
 10
441.750454
 20
580.9124839999999
 30
0.0
  0
VERTEX
  5
1251
330
1248
100
AcDbEntity
  8
SCHRAFFUR_RAND
100
AcDbVertex
100
AcDb2dVertex
 10
443.226454
 20
582.264484
 30
0.0
  0
VERTEX
  5
1252
330
1248
100
AcDbEntity
  8
SCHRAFFUR_RAND
100
AcDbVertex
100
AcDb2dVertex
 10
443.794454
 20
584.1624839999999
 30
0.0
  0
VERTEX
  5
1253
330
1248
100
AcDbEntity
  8
SCHRAFFUR_RAND
100
AcDbVertex
100
AcDb2dVertex
 10
446.537454
 20
615.511484
 30
0.0
  0
SEQEND
  5
1254
330
1248
100
AcDbEntity
  8
SCHRAFFUR_RAND
  0
POLYLINE
  5
12A5
330
16C3
100
AcDbEntity
  8
SCHRAFFUR_RAND
100
AcDb2dPolyline
 66
     1
 10
0.0
 20
0.0
 30
0.0
 70
     1
  0
VERTEX
  5
12A6
330
12A5
100
AcDbEntity
  8
SCHRAFFUR_RAND
100
AcDbVertex
100
AcDb2dVertex
 10
477.002454
 20
615.511484
 30
0.0
  0
VERTEX
  5
12A7
330
12A5
100
AcDbEntity
  8
SCHRAFFUR_RAND
100
AcDbVertex
100
AcDb2dVertex
 10
459.3974539999999
 20
615.511484
 30
0.0
  0
VERTEX
  5
12A8
330
12A5
100
AcDbEntity
  8
SCHRAFFUR_RAND
100
AcDbVertex
100
AcDb2dVertex
 10
461.085454
 20
583.3024839999999
 30
0.0
  0
VERTEX
  5
12A9
330
12A5
100
AcDbEntity
  8
SCHRAFFUR_RAND
100
AcDbVertex
100
AcDb2dVertex
 10
461.366454
 20
581.7994839999999
 30
0.0
  0
VERTEX
  5
12AA
330
12A5
100
AcDbEntity
  8
SCHRAFFUR_RAND
100
AcDbVertex
100
AcDb2dVertex
 10
462.265454
 20
580.545484
 30
0.0
  0
VERTEX
  5
12AB
330
12A5
100
AcDbEntity
  8
SCHRAFFUR_RAND
100
AcDbVertex
100
AcDb2dVertex
 10
463.564454
 20
579.713484
 30
0.0
  0
VERTEX
  5
12AC
330
12A5
100
AcDbEntity
  8
SCHRAFFUR_RAND
100
AcDbVertex
100
AcDb2dVertex
 10
465.080454
 20
579.511484
 30
0.0
  0
VERTEX
  5
12AD
330
12A5
100
AcDbEntity
  8
SCHRAFFUR_RAND
100
AcDbVertex
100
AcDb2dVertex
 10
471.3194539999999
 20
579.511484
 30
0.0
  0
VERTEX
  5
12AE
330
12A5
100
AcDbEntity
  8
SCHRAFFUR_RAND
100
AcDbVertex
100
AcDb2dVertex
 10
472.835454
 20
579.713484
 30
0.0
  0
VERTEX
  5
12AF
330
12A5
100
AcDbEntity
  8
SCHRAFFUR_RAND
100
AcDbVertex
100
AcDb2dVertex
 10
474.134454
 20
580.545484
 30
0.0
  0
VERTEX
  5
12B0
330
12A5
100
AcDbEntity
  8
SCHRAFFUR_RAND
100
AcDbVertex
100
AcDb2dVertex
 10
475.0334539999999
 20
581.7994839999999
 30
0.0
  0
VERTEX
  5
12B1
330
12A5
100
AcDbEntity
  8
SCHRAFFUR_RAND
100
AcDbVertex
100
AcDb2dVertex
 10
475.314454
 20
583.3024839999999
 30
0.0
  0
VERTEX
  5
12B2
330
12A5
100
AcDbEntity
  8
SCHRAFFUR_RAND
100
AcDbVertex
100
AcDb2dVertex
 10
477.002454
 20
615.511484
 30
0.0
  0
SEQEND
  5
12B3
330
12A5
100
AcDbEntity
  8
SCHRAFFUR_RAND
  0
POLYLINE
  5
1306
330
16C3
100
AcDbEntity
  8
SCHRAFFUR_RAND
100
AcDb2dPolyline
 66
     1
 10
0.0
 20
0.0
 30
0.0
 70
     1
  0
VERTEX
  5
1307
330
1306
100
AcDbEntity
  8
SCHRAFFUR_RAND
100
AcDbVertex
100
AcDb2dVertex
 10
464.9504539999999
 20
440.511484
 30
0.0
  0
VERTEX
  5
1308
330
1306
100
AcDbEntity
  8
SCHRAFFUR_RAND
100
AcDbVertex
100
AcDb2dVertex
 10
470.7264539999999
 20
440.511484
 30
0.0
  0
VERTEX
  5
1309
330
1306
100
AcDbEntity
  8
SCHRAFFUR_RAND
100
AcDbVertex
100
AcDb2dVertex
 10
476.7814539999999
 20
556.035484
 30
0.0
  0
VERTEX
  5
130A
330
1306
100
AcDbEntity
  8
SCHRAFFUR_RAND
100
AcDbVertex
100
AcDb2dVertex
 10
477.317454
 20
559.0264839999999
 30
0.0
  0
VERTEX
  5
130B
330
1306
100
AcDbEntity
  8
SCHRAFFUR_RAND
100
AcDbVertex
100
AcDb2dVertex
 10
478.800454
 20
561.6914839999999
 30
0.0
  0
VERTEX
  5
130C
330
1306
100
AcDbEntity
  8
SCHRAFFUR_RAND
100
AcDbVertex
100
AcDb2dVertex
 10
481.012454
 20
563.790484
 30
0.0
  0
VERTEX
  5
130D
330
1306
100
AcDbEntity
  8
SCHRAFFUR_RAND
100
AcDbVertex
100
AcDb2dVertex
 10
483.752454
 20
565.132484
 30
0.0
  0
VERTEX
  5
130E
330
1306
100
AcDbEntity
  8
SCHRAFFUR_RAND
100
AcDbVertex
100
AcDb2dVertex
 10
486.767454
 20
565.511484
 30
0.0
  0
VERTEX
  5
130F
330
1306
100
AcDbEntity
  8
SCHRAFFUR_RAND
100
AcDbVertex
100
AcDb2dVertex
 10
501.923454
 20
565.511484
 30
0.0
  0
VERTEX
  5
1310
330
1306
100
AcDbEntity
  8
SCHRAFFUR_RAND
100
AcDbVertex
100
AcDb2dVertex
 10
499.673454
 20
575.5664839999999
 30
0.0
  0
VERTEX
  5
1311
330
1306
100
AcDbEntity
  8
SCHRAFFUR_RAND
100
AcDbVertex
100
AcDb2dVertex
 10
492.543454
 20
575.5664839999999
 30
0.0
  0
VERTEX
  5
1312
330
1306
100
AcDbEntity
  8
SCHRAFFUR_RAND
100
AcDbVertex
100
AcDb2dVertex
 10
490.4504539999999
 20
615.511484
 30
0.0
  0
VERTEX
  5
1313
330
1306
100
AcDbEntity
  8
SCHRAFFUR_RAND
100
AcDbVertex
100
AcDb2dVertex
 10
482.4504539999999
 20
615.511484
 30
0.0
  0
VERTEX
  5
1314
330
1306
100
AcDbEntity
  8
SCHRAFFUR_RAND
100
AcDbVertex
100
AcDb2dVertex
 10
479.2984539999999
 20
606.8544839999999
 30
0.0
  0
VERTEX
  5
1315
330
1306
100
AcDbEntity
  8
SCHRAFFUR_RAND
100
AcDbVertex
100
AcDb2dVertex
 10
478.821454
 20
579.511484
 30
0.0
  0
VERTEX
  5
1316
330
1306
100
AcDbEntity
  8
SCHRAFFUR_RAND
100
AcDbVertex
100
AcDb2dVertex
 10
478.777454
 20
577.0114839999999
 30
0.0
  0
VERTEX
  5
1317
330
1306
100
AcDbEntity
  8
SCHRAFFUR_RAND
100
AcDbVertex
100
AcDb2dVertex
 10
478.7414539999999
 20
574.9164839999999
 30
0.0
  0
VERTEX
  5
1318
330
1306
100
AcDbEntity
  8
SCHRAFFUR_RAND
100
AcDbVertex
100
AcDb2dVertex
 10
478.371454
 20
572.8074839999999
 30
0.0
  0
VERTEX
  5
1319
330
1306
100
AcDbEntity
  8
SCHRAFFUR_RAND
100
AcDbVertex
100
AcDb2dVertex
 10
477.155454
 20
571.029484
 30
0.0
  0
VERTEX
  5
131A
330
1306
100
AcDbEntity
  8
SCHRAFFUR_RAND
100
AcDbVertex
100
AcDb2dVertex
 10
475.356454
 20
569.8444839999999
 30
0.0
  0
VERTEX
  5
131B
330
1306
100
AcDbEntity
  8
SCHRAFFUR_RAND
100
AcDbVertex
100
AcDb2dVertex
 10
473.242454
 20
569.511484
 30
0.0
  0
VERTEX
  5
131C
330
1306
100
AcDbEntity
  8
SCHRAFFUR_RAND
100
AcDbVertex
100
AcDb2dVertex
 10
467.449454
 20
569.511484
 30
0.0
  0
VERTEX
  5
131D
330
1306
100
AcDbEntity
  8
SCHRAFFUR_RAND
100
AcDbVertex
100
AcDb2dVertex
 10
465.6304539999999
 20
465.2814839999999
 30
0.0
  0
VERTEX
  5
131E
330
1306
100
AcDbEntity
  8
SCHRAFFUR_RAND
100
AcDbVertex
100
AcDb2dVertex
 10
464.9504539999999
 20
460.282484
 30
0.0
  0
VERTEX
  5
131F
330
1306
100
AcDbEntity
  8
SCHRAFFUR_RAND
100
AcDbVertex
100
AcDb2dVertex
 10
464.9504539999999
 20
440.511484
 30
0.0
  0
SEQEND
  5
1320
330
1306
100
AcDbEntity
  8
SCHRAFFUR_RAND
  0
POLYLINE
  5
14A8
330
16C3
100
AcDbEntity
  8
SCHRAFFUR_RAND
100
AcDb2dPolyline
 66
     1
 10
0.0
 20
0.0
 30
0.0
 70
     1
  0
VERTEX
  5
14A9
330
14A8
100
AcDbEntity
  8
SCHRAFFUR_RAND
100
AcDbVertex
100
AcDb2dVertex
 10
301.450454
 20
615.511484
 30
0.0
  0
VERTEX
  5
14AA
330
14A8
100
AcDbEntity
  8
SCHRAFFUR_RAND
100
AcDbVertex
100
AcDb2dVertex
 10
293.450454
 20
615.511484
 30
0.0
  0
VERTEX
  5
14AB
330
14A8
100
AcDbEntity
  8
SCHRAFFUR_RAND
100
AcDbVertex
100
AcDb2dVertex
 10
291.356454
 20
575.5664839999999
 30
0.0
  0
VERTEX
  5
14AC
330
14A8
100
AcDbEntity
  8
SCHRAFFUR_RAND
100
AcDbVertex
100
AcDb2dVertex
 10
284.227454
 20
575.5664839999999
 30
0.0
  0
VERTEX
  5
14AD
330
14A8
100
AcDbEntity
  8
SCHRAFFUR_RAND
100
AcDbVertex
100
AcDb2dVertex
 10
281.977454
 20
565.511484
 30
0.0
  0
VERTEX
  5
14AE
330
14A8
100
AcDbEntity
  8
SCHRAFFUR_RAND
100
AcDbVertex
100
AcDb2dVertex
 10
297.132454
 20
565.511484
 30
0.0
  0
VERTEX
  5
14AF
330
14A8
100
AcDbEntity
  8
SCHRAFFUR_RAND
100
AcDbVertex
100
AcDb2dVertex
 10
300.148454
 20
565.132484
 30
0.0
  0
VERTEX
  5
14B0
330
14A8
100
AcDbEntity
  8
SCHRAFFUR_RAND
100
AcDbVertex
100
AcDb2dVertex
 10
302.887454
 20
563.790484
 30
0.0
  0
VERTEX
  5
14B1
330
14A8
100
AcDbEntity
  8
SCHRAFFUR_RAND
100
AcDbVertex
100
AcDb2dVertex
 10
305.099454
 20
561.6914839999999
 30
0.0
  0
VERTEX
  5
14B2
330
14A8
100
AcDbEntity
  8
SCHRAFFUR_RAND
100
AcDbVertex
100
AcDb2dVertex
 10
306.583454
 20
559.0264839999999
 30
0.0
  0
VERTEX
  5
14B3
330
14A8
100
AcDbEntity
  8
SCHRAFFUR_RAND
100
AcDbVertex
100
AcDb2dVertex
 10
307.118454
 20
556.035484
 30
0.0
  0
VERTEX
  5
14B4
330
14A8
100
AcDbEntity
  8
SCHRAFFUR_RAND
100
AcDbVertex
100
AcDb2dVertex
 10
313.173454
 20
440.511484
 30
0.0
  0
VERTEX
  5
14B5
330
14A8
100
AcDbEntity
  8
SCHRAFFUR_RAND
100
AcDbVertex
100
AcDb2dVertex
 10
318.949454
 20
440.511484
 30
0.0
  0
VERTEX
  5
14B6
330
14A8
100
AcDbEntity
  8
SCHRAFFUR_RAND
100
AcDbVertex
100
AcDb2dVertex
 10
318.949454
 20
460.282484
 30
0.0
  0
VERTEX
  5
14B7
330
14A8
100
AcDbEntity
  8
SCHRAFFUR_RAND
100
AcDbVertex
100
AcDb2dVertex
 10
318.269454
 20
465.282484
 30
0.0
  0
VERTEX
  5
14B8
330
14A8
100
AcDbEntity
  8
SCHRAFFUR_RAND
100
AcDbVertex
100
AcDb2dVertex
 10
316.450454
 20
569.511484
 30
0.0
  0
VERTEX
  5
14B9
330
14A8
100
AcDbEntity
  8
SCHRAFFUR_RAND
100
AcDbVertex
100
AcDb2dVertex
 10
310.657454
 20
569.511484
 30
0.0
  0
VERTEX
  5
14BA
330
14A8
100
AcDbEntity
  8
SCHRAFFUR_RAND
100
AcDbVertex
100
AcDb2dVertex
 10
308.543454
 20
569.8444839999999
 30
0.0
  0
VERTEX
  5
14BB
330
14A8
100
AcDbEntity
  8
SCHRAFFUR_RAND
100
AcDbVertex
100
AcDb2dVertex
 10
306.744454
 20
571.029484
 30
0.0
  0
VERTEX
  5
14BC
330
14A8
100
AcDbEntity
  8
SCHRAFFUR_RAND
100
AcDbVertex
100
AcDb2dVertex
 10
305.528454
 20
572.8074839999999
 30
0.0
  0
VERTEX
  5
14BD
330
14A8
100
AcDbEntity
  8
SCHRAFFUR_RAND
100
AcDbVertex
100
AcDb2dVertex
 10
305.158454
 20
574.9164839999999
 30
0.0
  0
VERTEX
  5
14BE
330
14A8
100
AcDbEntity
  8
SCHRAFFUR_RAND
100
AcDbVertex
100
AcDb2dVertex
 10
305.122454
 20
577.0114839999999
 30
0.0
  0
VERTEX
  5
14BF
330
14A8
100
AcDbEntity
  8
SCHRAFFUR_RAND
100
AcDbVertex
100
AcDb2dVertex
 10
305.078454
 20
579.511484
 30
0.0
  0
VERTEX
  5
14C0
330
14A8
100
AcDbEntity
  8
SCHRAFFUR_RAND
100
AcDbVertex
100
AcDb2dVertex
 10
304.601454
 20
606.8544839999999
 30
0.0
  0
VERTEX
  5
14C1
330
14A8
100
AcDbEntity
  8
SCHRAFFUR_RAND
100
AcDbVertex
100
AcDb2dVertex
 10
301.450454
 20
615.511484
 30
0.0
  0
SEQEND
  5
14C2
330
14A8
100
AcDbEntity
  8
SCHRAFFUR_RAND
  0
DIMENSION
  5
1652
330
16C3
100
AcDbEntity
  8
5
100
AcDbDimension
  2
*D0
 10
211.949454
 20
615.511484
 30
0.0
 11
200.199454
 21
590.511484
 31
0.0
 70
    32
  1
50
 71
     5
 42
-1.0
  3
GEN-ISO
100
AcDbAlignedDimension
 13
261.949454
 23
565.511484
 33
0.0
 14
242.619454
 24
615.511484
 34
0.0
 50
90.0
100
AcDbRotatedDimension
  0
DIMENSION
  5
165C
330
16C3
100
AcDbEntity
  8
5
100
AcDbDimension
  2
*D7
 10
176.949454
 20
440.511484
 30
0.0
 11
165.199454
 21
528.011484
 31
0.0
 70
    32
  1
175
 71
     5
 42
-1.0
  3
GEN-ISO
100
AcDbAlignedDimension
 13
293.450454
 23
615.511484
 33
0.0
 14
313.173454
 24
440.511484
 34
0.0
 50
270.0
100
AcDbRotatedDimension
  0
DIMENSION
  5
1666
330
16C3
100
AcDbEntity
  8
5
100
AcDbDimension
  2
*D6
 10
211.949454
 20
340.511484
 30
0.0
 11
200.199454
 21
242.011984
 31
0.0
 70
    32
  1
{\Fgeniso.shx;\U+25A1}197
 71
     5
 42
-1.0
  3
GEN-ISO
100
AcDbAlignedDimension
 13
291.356454
 23
143.512484
 33
0.0
 14
291.356454
 24
340.511484
 34
0.0
 50
90.0
100
AcDbRotatedDimension
1001
GENIUS_GENDTOL_13
1000

1000
h7
1000

1040
0.0
1000
{\Fgeniso.shx;\U+25A1}197
  0
DIMENSION
  5
1670
330
16C3
100
AcDbEntity
  8
5
100
AcDbDimension
  2
*D5
 10
521.949454
 20
58.51248399999999
 30
0.0
 11
391.949454
 21
70.264206
 31
0.0
 70
    32
  1
260
 71
     5
 42
-1.0
  3
GEN-ISO
100
AcDbAlignedDimension
 13
261.949454
 23
214.495484
 33
0.0
 14
521.949454
 24
214.495484
 34
0.0
100
AcDbRotatedDimension
  0
DIMENSION
  5
167B
330
16C3
100
AcDbEntity
  8
5
100
AcDbDimension
  2
*D4
 10
337.450454
 20
93.51248400000001
 30
0.0
 11
373.6878910000001
 21
105.262484
 31
0.0
 70
    32
  1
13
 71
     5
 42
-1.0
  3
GEN-ISO
100
AcDbAlignedDimension
 13
324.449454
 23
181.011484
 33
0.0
 14
337.450454
 24
181.011484
 34
0.0
100
AcDbRotatedDimension
  0
DIMENSION
  5
1686
330
16C3
100
AcDbEntity
  8
5
100
AcDbDimension
  2
*D3
 10
571.950454
 20
246.511484
 30
0.0
 11
560.200454
 21
278.969788
 31
0.0
 70
    32
  1
9
 71
     5
 42
-1.0
  3
GEN-ISO
100
AcDbAlignedDimension
 13
505.027454
 23
237.511484
 33
0.0
 14
504.7354539999999
 24
246.511484
 34
0.0
 50
90.0
100
AcDbRotatedDimension
  0
INSERT
  5
176E
330
16C3
100
AcDbEntity
  8
0
100
AcDbBlockReference
  2
KATALOG_LEER
 10
251.839706
 20
11.304483
 30
0.0
 41
5.0
 42
5.0
 43
5.0
1001
GENIUS_GENOREF_13
1005
176F
  0
POINT
  5
176F
330
16C3
100
AcDbEntity
  8
0
 60
     1
100
AcDbPoint
 10
0.0
 20
0.0
 30
0.0
1001
GENIUS_GENOBJ-N-TIT_13
1002
{
1000
OWNER
1000
GEN
1002
}
1001
GENIUS_GENOENT_13
1002
{
1000
MYREF
1005
176F
1002
}
1002
{
1000
GRP
1005
0
1002
}
1001
GENIUS_GENOLIS_13
1002
{
1000
ENT
1005
176E
1002
}
1001
GENIUS_GENTITLE_13
1002
{
1000
SCALE
1000
1:5
1002
}
1002
{
1000
BORDER
1000
KATALOG
1002
}
1002
{
1000
TITLE
1000
KATALOG_LEER
1002
}
1002
{
1000
UNCHG
1002
{
1000
GEN-TITLE-SCA
1000
GEN-TITLE-SIZ
1002
}
1002
}
1002
{
1000
HRA
1005
1767
1002
}
1002
{
1000
HTIT
1005
176E
1002
}
1002
{
1000
GENIUSID
1005
176F
1002
}
1001
GENIUS_GENODEF_13
1002
{
1000
HIER
1070
     1
1002
}
1002
{
1000
MANEDIT
1070
     1
1002
}
1002
{
1000
NOSEL
1070
     0
1002
}
1002
{
1000
BEHIND
1070
     0
1002
}
1002
{
1000
REACTOR
1002
}
  0
HATCH
  5
18A7
330
16C3
100
AcDbEntity
  8
8
100
AcDbHatch
 10
0.0
 20
0.0
 30
0.0
210
0.0
220
0.0
230
1.0
  2
_U
 70
     0
 71
     0
 91
        1
 92
        1
 93
        4
 72
     1
 10
262.473454
 20
575.4984839999999
 11
261.949454
 21
565.511484
 72
     1
 10
261.949454
 20
565.511484
 11
272.977454
 21
565.511484
 72
     1
 10
272.977454
 20
565.511484
 11
270.727454
 21
575.5664839999999
 72
     1
 10
270.727454
 20
575.5664839999999
 11
262.473454
 21
575.4984839999999
 97
        0
 75
     0
 76
     0
 52
45.0
 41
2.5
 77
     0
 78
     1
 53
45.0
 43
0.0
 44
0.0
 45
-1.767766952966368
 46
1.767766952966368
 79
     0
 98
        1
 10
0.0
 20
0.0
1001
GENIUS_GENODEF_13
1002
{
1000
HIER
1070
     0
1002
}
1002
{
1000
MANEDIT
1070
     0
1002
}
1002
{
1000
NOSEL
1070
     0
1002
}
1002
{
1000
BEHIND
1070
     0
1002
}
1002
{
1000
REACTOR
1002
}
1001
GENIUS_GENOBJ-N-HTC_13
1002
{
1000
OWNER
1000
GEN
1002
}
1001
GENIUS_GENHATCH_13
1002
{
1000
DATA
1040
45.0
1042
2.5
1000
_U
1070
     0
1011
267.841249
1021
571.143961
1031
0.0
1002
}
1002
{
1000
UCS
1010
0.0
1020
0.0
1030
0.0
1010
1.0
1020
0.0
1030
0.0
1010
0.0
1020
1.0
1030
0.0
1002
}
  0
HATCH
  5
18D0
330
16C3
100
AcDbEntity
  8
8
100
AcDbHatch
 10
0.0
 20
0.0
 30
0.0
210
0.0
220
0.0
230
1.0
  2
_U
 70
     0
 71
     0
 91
        1
 92
        1
 93
       34
 72
     1
 10
307.118454
 20
556.035484
 11
313.173454
 21
440.511484
 72
     1
 10
313.173454
 20
440.511484
 11
318.949454
 21
440.511484
 72
     1
 10
318.949454
 20
440.511484
 11
318.949454
 21
460.2814839999999
 72
     1
 10
318.949454
 20
460.2814839999999
 11
318.269454
 21
465.282484
 72
     1
 10
318.269454
 20
465.282484
 11
316.449454
 21
569.511484
 72
     1
 10
316.449454
 20
569.511484
 11
310.657454
 21
569.511484
 72
     2
 10
310.657454
 20
575.011484
 40
5.5
 50
90.0
 51
107.903498
 73
     0
 72
     1
 10
308.966673
 20
569.777818
 11
308.543454
 21
569.8444839999999
 72
     1
 10
308.543454
 20
569.8444839999999
 11
308.055619
 21
570.16582
 72
     2
 10
310.657454
 20
575.011484
 40
5.5
 50
118.233166
 51
128.512569
 73
     0
 72
     1
 10
307.232679
 20
570.7078899999999
 11
306.744454
 21
571.029484
 72
     1
 10
306.744454
 20
571.029484
 11
306.414777
 21
571.511527
 72
     2
 10
310.657454
 20
575.011484
 40
5.5
 50
140.479388
 51
150.78303
 73
     0
 72
     1
 10
305.857177
 20
572.3268339999999
 11
305.528454
 21
572.8074839999999
 72
     1
 10
305.528454
 20
572.8074839999999
 11
305.158454
 21
574.9164839999999
 72
     1
 10
305.158454
 20
574.9164839999999
 11
304.601454
 21
606.8544839999999
 72
     1
 10
304.601454
 20
606.8544839999999
 11
301.450454
 21
615.511484
 72
     1
 10
301.450454
 20
615.511484
 11
293.450454
 21
615.511484
 72
     1
 10
293.450454
 20
615.511484
 11
291.356454
 21
575.5664839999999
 72
     1
 10
291.356454
 20
575.5664839999999
 11
284.227454
 21
575.5664839999999
 72
     1
 10
284.227454
 20
575.5664839999999
 11
281.977454
 21
565.511484
 72
     1
 10
281.977454
 20
565.511484
 11
297.132454
 21
565.511484
 72
     2
 10
297.132454
 20
555.5114839999999
 40
10.0
 50
270.0
 51
284.324847
 73
     0
 72
     1
 10
299.606646
 20
565.2005690000001
 11
300.148454
 21
565.132484
 72
     1
 10
300.148454
 20
565.132484
 11
300.785424
 21
564.8203940000001
 72
     2
 10
297.132454
 20
555.5114839999999
 40
10.0
 50
291.425863
 51
300.780134
 73
     0
 72
     1
 10
302.249904
 20
564.1028579999999
 11
302.887454
 21
563.790484
 72
     1
 10
302.887454
 20
563.790484
 11
303.403261
 21
563.3010269999999
 72
     2
 10
297.132454
 20
555.5114839999999
 40
10.0
 50
308.83507
 51
318.161941
 73
     0
 72
     1
 10
304.582785
 20
562.1817589999999
 11
305.099454
 21
561.6914839999999
 72
     1
 10
305.099454
 20
561.6914839999999
 11
305.446807
 21
561.0676999999999
 72
     2
 10
297.132454
 20
555.5114839999999
 40
10.0
 50
326.246461
 51
335.531217
 73
     0
 72
     1
 10
306.234324
 20
559.653458
 11
306.583454
 21
559.0264839999999
 72
     1
 10
306.583454
 20
559.0264839999999
 11
307.118454
 21
556.035484
 97
        0
 75
     0
 76
     0
 52
45.0
 41
12.5
 77
     0
 78
     1
 53
45.0
 43
0.0
 44
0.0
 45
-8.838834764831842
 46
8.838834764831842
 79
     0
 98
        1
 10
0.0
 20
0.0
1001
GENIUS_GENODEF_13
1002
{
1000
HIER
1070
     0
1002
}
1002
{
1000
MANEDIT
1070
     0
1002
}
1002
{
1000
NOSEL
1070
     0
1002
}
1002
{
1000
BEHIND
1070
     0
1002
}
1002
{
1000
REACTOR
1002
}
1001
GENIUS_GENOBJ-N-HTC_13
1002
{
1000
OWNER
1000
GEN
1002
}
1001
GENIUS_GENHATCH_13
1002
{
1000
DATA
1040
45.0
1042
2.5
1000
_U
1070
     0
1011
300.039901
1021
571.775008
1031
0.0
1002
}
1002
{
1000
UCS
1010
0.0
1020
0.0
1030
0.0
1010
1.0
1020
0.0
1030
0.0
1010
0.0
1020
1.0
1030
0.0
1002
}
  0
HATCH
  5
18F7
330
16C3
100
AcDbEntity
  8
8
100
AcDbHatch
 10
0.0
 20
0.0
 30
0.0
210
0.0
220
0.0
230
1.0
  2
_U
 70
     0
 71
     0
 91
        1
 92
        1
 93
       34
 72
     1
 10
477.317454
 20
559.0264839999999
 11
477.6621709999999
 21
559.645953
 72
     2
 10
486.767454
 20
555.5114839999999
 40
10.0
 50
204.421551
 51
213.767945
 73
     0
 72
     1
 10
478.454498
 20
561.0697899999999
 11
478.800454
 21
561.6914839999999
 72
     1
 10
478.800454
 20
561.6914839999999
 11
479.317123
 21
562.1817589999999
 72
     2
 10
486.767454
 20
555.5114839999999
 40
10.0
 50
221.838059
 51
231.16493
 73
     0
 72
     1
 10
480.496646
 20
563.3010269999999
 11
481.012454
 21
563.790484
 72
     1
 10
481.012454
 20
563.790484
 11
481.6489279999999
 21
564.102217
 72
     2
 10
486.767454
 20
555.5114839999999
 40
10.0
 50
239.21269
 51
248.597838
 73
     0
 72
     1
 10
483.1183339999999
 20
564.8219039999999
 11
483.752454
 21
565.132484
 72
     1
 10
483.752454
 20
565.132484
 11
484.292466
 21
565.200366
 72
     2
 10
486.767454
 20
555.5114839999999
 40
10.0
 50
255.670452
 51
270.0
 73
     0
 72
     1
 10
486.767454
 20
565.511484
 11
501.923454
 21
565.511484
 72
     1
 10
501.923454
 20
565.511484
 11
499.673454
 21
575.5664839999999
 72
     1
 10
499.673454
 20
575.5664839999999
 11
492.543454
 21
575.5664839999999
 72
     1
 10
492.543454
 20
575.5664839999999
 11
490.4504539999999
 21
615.511484
 72
     1
 10
490.4504539999999
 20
615.511484
 11
482.4504539999999
 21
615.511484
 72
     1
 10
482.4504539999999
 20
615.511484
 11
479.2984539999999
 21
606.8544839999999
 72
     1
 10
479.2984539999999
 20
606.8544839999999
 11
478.7414539999999
 21
574.9164839999999
 72
     1
 10
478.7414539999999
 20
574.9164839999999
 11
478.371454
 21
572.8074839999999
 72
     1
 10
478.371454
 20
572.8074839999999
 11
478.04273
 21
572.3268339999999
 72
     2
 10
473.242454
 20
575.011484
 40
5.5
 50
29.21697
 51
39.520612
 73
     0
 72
     1
 10
477.4851299999999
 20
571.511527
 11
477.155454
 21
571.029484
 72
     1
 10
477.155454
 20
571.029484
 11
476.667228
 21
570.7078899999999
 72
     2
 10
473.242454
 20
575.011484
 40
5.5
 50
51.487431
 51
61.766834
 73
     0
 72
     1
 10
475.844288
 20
570.16582
 11
475.356454
 21
569.8444839999999
 72
     1
 10
475.356454
 20
569.8444839999999
 11
474.9332349999999
 21
569.777818
 72
     2
 10
473.242454
 20
575.011484
 40
5.5
 50
72.096502
 51
90.0
 73
     0
 72
     1
 10
473.242454
 20
569.511484
 11
467.449454
 21
569.511484
 72
     1
 10
467.449454
 20
569.511484
 11
465.6304539999999
 21
465.2814839999999
 72
     1
 10
465.6304539999999
 20
465.2814839999999
 11
464.9504539999999
 21
460.2814839999999
 72
     1
 10
464.9504539999999
 20
460.2814839999999
 11
464.9504539999999
 21
440.511484
 72
     1
 10
464.9504539999999
 20
440.511484
 11
470.7264539999999
 21
440.511484
 72
     1
 10
470.7264539999999
 20
440.511484
 11
476.7814539999999
 21
556.035484
 72
     1
 10
476.7814539999999
 20
556.035484
 11
477.317454
 21
559.0264839999999
 97
        0
 75
     0
 76
     0
 52
45.0
 41
12.5
 77
     0
 78
     1
 53
45.0
 43
0.0
 44
0.0
 45
-8.838834764831842
 46
8.838834764831842
 79
     0
 98
        1
 10
0.0
 20
0.0
1001
GENIUS_GENODEF_13
1002
{
1000
HIER
1070
     0
1002
}
1002
{
1000
MANEDIT
1070
     0
1002
}
1002
{
1000
NOSEL
1070
     0
1002
}
1002
{
1000
BEHIND
1070
     0
1002
}
1002
{
1000
REACTOR
1002
}
1001
GENIUS_GENOBJ-N-HTC_13
1002
{
1000
OWNER
1000
GEN
1002
}
1001
GENIUS_GENHATCH_13
1002
{
1000
DATA
1040
45.0
1042
2.5
1000
_U
1070
     0
1011
473.028736
1021
562.6248099999998
1031
0.0
1002
}
1002
{
1000
UCS
1010
0.0
1020
0.0
1030
0.0
1010
1.0
1020
0.0
1030
0.0
1010
0.0
1020
1.0
1030
0.0
1002
}
  0
HATCH
  5
1900
330
16C3
100
AcDbEntity
  8
8
100
AcDbHatch
 10
0.0
 20
0.0
 30
0.0
210
0.0
220
0.0
230
1.0
  2
_U
 70
     0
 71
     0
 91
        1
 92
        1
 93
        4
 72
     1
 10
521.950454
 20
565.511484
 11
521.426454
 21
575.4984839999999
 72
     1
 10
521.426454
 20
575.4984839999999
 11
513.173454
 21
575.5664839999999
 72
     1
 10
513.173454
 20
575.5664839999999
 11
510.923454
 21
565.511484
 72
     1
 10
510.923454
 20
565.511484
 11
521.950454
 21
565.511484
 97
        0
 75
     0
 76
     0
 52
45.0
 41
2.5
 77
     0
 78
     1
 53
45.0
 43
0.0
 44
0.0
 45
-1.767766952966368
 46
1.767766952966368
 79
     0
 98
        1
 10
0.0
 20
0.0
1001
GENIUS_GENODEF_13
1002
{
1000
HIER
1070
     0
1002
}
1002
{
1000
MANEDIT
1070
     0
1002
}
1002
{
1000
NOSEL
1070
     0
1002
}
1002
{
1000
BEHIND
1070
     0
1002
}
1002
{
1000
REACTOR
1002
}
1001
GENIUS_GENOBJ-N-HTC_13
1002
{
1000
OWNER
1000
GEN
1002
}
1001
GENIUS_GENHATCH_13
1002
{
1000
DATA
1040
45.0
1042
2.5
1000
_U
1070
     0
1011
516.591617
1021
570.828435
1031
0.0
1002
}
1002
{
1000
UCS
1010
0.0
1020
0.0
1030
0.0
1010
1.0
1020
0.0
1030
0.0
1010
0.0
1020
1.0
1030
0.0
1002
}
  0
HATCH
  5
1912
330
16C3
100
AcDbEntity
  8
8
100
AcDbHatch
 10
0.0
 20
0.0
 30
0.0
210
0.0
220
0.0
230
1.0
  2
_U
 70
     0
 71
     0
 91
        1
 92
        1
 93
       12
 72
     1
 10
322.813807
 20
583.2990269999998
 11
322.814454
 21
583.3024839999999
 72
     1
 10
322.814454
 20
583.3024839999999
 11
324.502454
 21
615.511484
 72
     1
 10
324.502454
 20
615.511484
 11
306.897454
 21
615.511484
 72
     1
 10
306.897454
 20
615.511484
 11
308.585454
 21
583.3024839999999
 72
     1
 10
308.585454
 20
583.3024839999999
 11
308.5861
 21
583.2990269999998
 72
     1
 10
308.5861
 20
583.2990269999998
 11
308.779147
 21
582.2664679999999
 72
     2
 10
312.580454
 20
583.511484
 40
4.0
 50
198.134816
 51
254.820616
 73
     1
 72
     1
 10
311.533086
 20
579.6510409999999
 11
312.580454
 21
579.511484
 72
     1
 10
312.580454
 20
579.511484
 11
318.819454
 21
579.511484
 72
     1
 10
318.819454
 20
579.511484
 11
319.866821
 21
579.6510409999999
 72
     2
 10
318.819454
 20
583.511484
 40
4.0
 50
285.179384
 51
341.865184
 73
     1
 72
     1
 10
322.6207609999999
 20
582.2664679999999
 11
322.813807
 21
583.2990269999998
 97
        0
 75
     0
 76
     0
 52
135.0
 41
8.099999999999999
 77
     0
 78
     1
 53
135.0
 43
0.0
 44
0.0
 45
-5.727564927611036
 46
-5.727564927611035
 79
     0
 98
        1
 10
0.0
 20
0.0
1001
GENIUS_GENODEF_13
1002
{
1000
HIER
1070
     0
1002
}
1002
{
1000
MANEDIT
1070
     0
1002
}
1002
{
1000
NOSEL
1070
     0
1002
}
1002
{
1000
BEHIND
1070
     0
1002
}
1002
{
1000
REACTOR
1002
}
1001
GENIUS_GENOBJ-N-HTC_13
1002
{
1000
OWNER
1000
GEN
1002
}
1001
GENIUS_GENHATCH_13
1002
{
1000
DATA
1040
135.0
1042
2.7
1000
_U
1070
     0
1011
319.295957
1021
605.2205589999999
1031
0.0
1002
}
1002
{
1000
UCS
1010
0.0
1020
0.0
1030
0.0
1010
1.0
1020
0.0
1030
0.0
1010
0.0
1020
1.0
1030
0.0
1002
}
  0
HATCH
  5
1925
330
16C3
100
AcDbEntity
  8
8
100
AcDbHatch
 10
0.0
 20
0.0
 30
0.0
210
0.0
220
0.0
230
1.0
  2
_U
 70
     0
 71
     0
 91
        1
 92
        1
 93
       14
 72
     1
 10
355.037454
 20
615.511484
 11
337.362454
 21
615.511484
 72
     1
 10
337.362454
 20
615.511484
 11
340.105454
 21
584.1624839999999
 72
     1
 10
340.105454
 20
584.1624839999999
 11
340.569733
 21
582.6110719999999
 72
     2
 10
344.089454
 20
584.5114839999999
 40
4.0
 50
208.366057
 51
219.8491740000001
 73
     1
 72
     1
 10
341.018518
 20
581.9484079999999
 11
341.805002
 21
581.227998
 72
     2
 10
344.089454
 20
584.5114839999999
 40
4.0
 50
235.172133
 51
246.642748
 73
     1
 72
     1
 10
342.503601
 20
580.8392809999999
 11
344.089454
 21
580.5114839999999
 72
     1
 10
344.089454
 20
580.5114839999999
 11
348.310454
 21
580.5114839999999
 72
     1
 10
348.310454
 20
580.5114839999999
 11
349.896306
 21
580.8392809999999
 72
     2
 10
348.310454
 20
584.5114839999999
 40
4.0
 50
293.3572520000001
 51
304.827867
 73
     1
 72
     1
 10
350.594905
 20
581.227998
 11
351.381389
 21
581.9484079999999
 72
     2
 10
348.310454
 20
584.5114839999999
 40
4.0
 50
320.150826
 51
331.6339430000001
 73
     1
 72
     1
 10
351.830174
 20
582.6110719999999
 11
352.2944540000001
 21
584.1624839999999
 72
     1
 10
352.2944540000001
 20
584.1624839999999
 11
355.037454
 21
615.511484
 97
        0
 75
     0
 76
     0
 52
135.0
 41
5.4
 77
     0
 78
     1
 53
135.0
 43
0.0
 44
0.0
 45
-3.818376618407356
 46
-3.818376618407356
 79
     0
 98
        1
 10
0.0
 20
0.0
1001
GENIUS_GENODEF_13
1002
{
1000
HIER
1070
     0
1002
}
1002
{
1000
MANEDIT
1070
     0
1002
}
1002
{
1000
NOSEL
1070
     0
1002
}
1002
{
1000
BEHIND
1070
     0
1002
}
1002
{
1000
REACTOR
1002
}
1001
GENIUS_GENOBJ-N-HTC_13
1002
{
1000
OWNER
1000
GEN
1002
}
1001
GENIUS_GENHATCH_13
1002
{
1000
DATA
1040
135.0
1042
2.7
1000
_U
1070
     0
1011
349.284898
1021
604.589511
1031
0.0
1002
}
1002
{
1000
UCS
1010
0.0
1020
0.0
1030
0.0
1010
1.0
1020
0.0
1030
0.0
1010
0.0
1020
1.0
1030
0.0
1002
}
  0
HATCH
  5
1938
330
16C3
100
AcDbEntity
  8
8
100
AcDbHatch
 10
0.0
 20
0.0
 30
0.0
210
0.0
220
0.0
230
1.0
  2
_U
 70
     0
 71
     0
 91
        1
 92
        1
 93
       14
 72
     1
 10
367.862454
 20
615.511484
 11
370.605454
 21
584.1624839999999
 72
     1
 10
370.605454
 20
584.1624839999999
 11
371.069733
 21
582.6110719999999
 72
     2
 10
374.589454
 20
584.5114839999999
 40
4.0
 50
208.366057
 51
219.8491740000001
 73
     1
 72
     1
 10
371.518518
 20
581.9484079999999
 11
372.305002
 21
581.227998
 72
     2
 10
374.589454
 20
584.5114839999999
 40
4.0
 50
235.172133
 51
246.642748
 73
     1
 72
     1
 10
373.003601
 20
580.8392809999999
 11
374.589454
 21
580.5114839999999
 72
     1
 10
374.589454
 20
580.5114839999999
 11
378.810454
 21
580.5114839999999
 72
     1
 10
378.810454
 20
580.5114839999999
 11
380.396306
 21
580.8392809999999
 72
     2
 10
378.810454
 20
584.5114839999999
 40
4.0
 50
293.3572520000001
 51
304.827867
 73
     1
 72
     1
 10
381.094905
 20
581.227998
 11
381.881389
 21
581.9484079999999
 72
     2
 10
378.810454
 20
584.5114839999999
 40
4.0
 50
320.150826
 51
331.6339430000001
 73
     1
 72
     1
 10
382.330174
 20
582.6110719999999
 11
382.794454
 21
584.1624839999999
 72
     1
 10
382.794454
 20
584.1624839999999
 11
385.537454
 21
615.511484
 72
     1
 10
385.537454
 20
615.511484
 11
367.862454
 21
615.511484
 97
        0
 75
     0
 76
     0
 52
135.0
 41
6.48
 77
     0
 78
     1
 53
135.0
 43
0.0
 44
0.0
 45
-4.582051942088829
 46
-4.582051942088828
 79
     0
 98
        1
 10
0.0
 20
0.0
1001
GENIUS_GENODEF_13
1002
{
1000
HIER
1070
     0
1002
}
1002
{
1000
MANEDIT
1070
     0
1002
}
1002
{
1000
NOSEL
1070
     0
1002
}
1002
{
1000
BEHIND
1070
     0
1002
}
1002
{
1000
REACTOR
1002
}
1001
GENIUS_GENOBJ-N-HTC_13
1002
{
1000
OWNER
1000
GEN
1002
}
1001
GENIUS_GENHATCH_13
1002
{
1000
DATA
1040
135.0
1042
2.7
1000
_U
1070
     0
1011
373.276051
1021
604.273986
1031
0.0
1002
}
1002
{
1000
UCS
1010
0.0
1020
0.0
1030
0.0
1010
1.0
1020
0.0
1030
0.0
1010
0.0
1020
1.0
1030
0.0
1002
}
  0
HATCH
  5
194B
330
16C3
100
AcDbEntity
  8
8
100
AcDbHatch
 10
0.0
 20
0.0
 30
0.0
210
0.0
220
0.0
230
1.0
  2
_U
 70
     0
 71
     0
 91
        1
 92
        1
 93
       14
 72
     2
 10
405.0894539999999
 20
584.5114839999999
 40
4.0
 50
208.366057
 51
219.8491740000001
 73
     1
 72
     1
 10
402.018518
 20
581.9484079999999
 11
402.805002
 21
581.227998
 72
     2
 10
405.0894539999999
 20
584.5114839999999
 40
4.0
 50
235.172133
 51
246.642748
 73
     1
 72
     1
 10
403.5036009999999
 20
580.8392809999999
 11
405.0894539999999
 21
580.5114839999999
 72
     1
 10
405.0894539999999
 20
580.5114839999999
 11
409.3104539999999
 21
580.5114839999999
 72
     1
 10
409.3104539999999
 20
580.5114839999999
 11
410.8963059999999
 21
580.8392809999999
 72
     2
 10
409.3104539999999
 20
584.5114839999999
 40
4.0
 50
293.3572520000001
 51
304.827867
 73
     1
 72
     1
 10
411.594905
 20
581.227998
 11
412.381389
 21
581.9484079999999
 72
     2
 10
409.3104539999999
 20
584.5114839999999
 40
4.0
 50
320.150826
 51
331.6339430000001
 73
     1
 72
     1
 10
412.830174
 20
582.6110719999999
 11
413.294454
 21
584.1624839999999
 72
     1
 10
413.294454
 20
584.1624839999999
 11
416.037454
 21
615.511484
 72
     1
 10
416.037454
 20
615.511484
 11
398.362454
 21
615.511484
 72
     1
 10
398.362454
 20
615.511484
 11
401.1054539999999
 21
584.1624839999999
 72
     1
 10
401.1054539999999
 20
584.1624839999999
 11
401.569733
 21
582.6110719999999
 97
        0
 75
     0
 76
     0
 52
135.0
 41
8.099999999999999
 77
     0
 78
     1
 53
135.0
 43
0.0
 44
0.0
 45
-5.727564927611036
 46
-5.727564927611035
 79
     0
 98
        1
 10
0.0
 20
0.0
1001
GENIUS_GENODEF_13
1002
{
1000
HIER
1070
     0
1002
}
1002
{
1000
MANEDIT
1070
     0
1002
}
1002
{
1000
NOSEL
1070
     0
1002
}
1002
{
1000
BEHIND
1070
     0
1002
}
1002
{
1000
REACTOR
1002
}
1001
GENIUS_GENOBJ-N-HTC_13
1002
{
1000
OWNER
1000
GEN
1002
}
1001
GENIUS_GENHATCH_13
1002
{
1000
DATA
1040
135.0
1042
2.7
1000
_U
1070
     0
1011
406.106048
1021
601.118746
1031
0.0
1002
}
1002
{
1000
UCS
1010
0.0
1020
0.0
1030
0.0
1010
1.0
1020
0.0
1030
0.0
1010
0.0
1020
1.0
1030
0.0
1002
}
  0
HATCH
  5
195E
330
16C3
100
AcDbEntity
  8
8
100
AcDbHatch
 10
0.0
 20
0.0
 30
0.0
210
0.0
220
0.0
230
1.0
  2
_U
 70
     0
 71
     0
 91
        1
 92
        1
 93
       14
 72
     1
 10
428.8624539999999
 20
615.511484
 11
431.605454
 21
584.1624839999999
 72
     1
 10
431.605454
 20
584.1624839999999
 11
432.0697329999999
 21
582.6110719999999
 72
     2
 10
435.589454
 20
584.5114839999999
 40
4.0
 50
208.366057
 51
219.8491740000001
 73
     1
 72
     1
 10
432.518518
 20
581.9484079999999
 11
433.3050019999999
 21
581.227998
 72
     2
 10
435.589454
 20
584.5114839999999
 40
4.0
 50
235.172133
 51
246.642748
 73
     1
 72
     1
 10
434.003601
 20
580.8392809999999
 11
435.589454
 21
580.5114839999999
 72
     1
 10
435.589454
 20
580.5114839999999
 11
439.810454
 21
580.5114839999999
 72
     1
 10
439.810454
 20
580.5114839999999
 11
441.3963059999999
 21
580.8392809999999
 72
     2
 10
439.810454
 20
584.5114839999999
 40
4.0
 50
293.3572520000001
 51
304.827867
 73
     1
 72
     1
 10
442.0949049999999
 20
581.227998
 11
442.8813889999999
 21
581.9484079999999
 72
     2
 10
439.810454
 20
584.5114839999999
 40
4.0
 50
320.150826
 51
331.6339430000001
 73
     1
 72
     1
 10
443.330174
 20
582.6110719999999
 11
443.794454
 21
584.1624839999999
 72
     1
 10
443.794454
 20
584.1624839999999
 11
446.537454
 21
615.511484
 72
     1
 10
446.537454
 20
615.511484
 11
428.8624539999999
 21
615.511484
 97
        0
 75
     0
 76
     0
 52
135.0
 41
5.4
 77
     0
 78
     1
 53
135.0
 43
0.0
 44
0.0
 45
-3.818376618407356
 46
-3.818376618407356
 79
     0
 98
        1
 10
0.0
 20
0.0
1001
GENIUS_GENODEF_13
1002
{
1000
HIER
1070
     0
1002
}
1002
{
1000
MANEDIT
1070
     0
1002
}
1002
{
1000
NOSEL
1070
     0
1002
}
1002
{
1000
BEHIND
1070
     0
1002
}
1002
{
1000
REACTOR
1002
}
1001
GENIUS_GENOBJ-N-HTC_13
1002
{
1000
OWNER
1000
GEN
1002
}
1001
GENIUS_GENHATCH_13
1002
{
1000
DATA
1040
135.0
1042
2.7
1000
_U
1070
     0
1011
438.9360459999999
1021
601.7497940000001
1031
0.0
1002
}
1002
{
1000
UCS
1010
0.0
1020
0.0
1030
0.0
1010
1.0
1020
0.0
1030
0.0
1010
0.0
1020
1.0
1030
0.0
1002
}
  0
HATCH
  5
196F
330
16C3
100
AcDbEntity
  8
8
100
AcDbHatch
 10
0.0
 20
0.0
 30
0.0
210
0.0
220
0.0
230
1.0
  2
_U
 70
     0
 71
     0
 91
        1
 92
        1
 93
       12
 72
     1
 10
475.313807
 20
583.2990269999998
 11
475.314454
 21
583.3024839999999
 72
     1
 10
475.314454
 20
583.3024839999999
 11
477.002454
 21
615.511484
 72
     1
 10
477.002454
 20
615.511484
 11
459.3974539999999
 21
615.511484
 72
     1
 10
459.3974539999999
 20
615.511484
 11
461.085454
 21
583.3024839999999
 72
     1
 10
461.085454
 20
583.3024839999999
 11
461.0860999999999
 21
583.2990269999998
 72
     1
 10
461.0860999999999
 20
583.2990269999998
 11
461.2791469999999
 21
582.2664679999999
 72
     2
 10
465.080454
 20
583.511484
 40
4.0
 50
198.134816
 51
254.820616
 73
     1
 72
     1
 10
464.033086
 20
579.6510409999999
 11
465.080454
 21
579.511484
 72
     1
 10
465.080454
 20
579.511484
 11
471.3194539999999
 21
579.511484
 72
     1
 10
471.3194539999999
 20
579.511484
 11
472.366821
 21
579.6510409999999
 72
     2
 10
471.3194539999999
 20
583.511484
 40
4.0
 50
285.179384
 51
341.865184
 73
     1
 72
     1
 10
475.120761
 20
582.2664679999999
 11
475.313807
 21
583.2990269999998
 97
        0
 75
     0
 76
     0
 52
135.0
 41
6.48
 77
     0
 78
     1
 53
135.0
 43
0.0
 44
0.0
 45
-4.582051942088829
 46
-4.582051942088828
 79
     0
 98
        1
 10
0.0
 20
0.0
1001
GENIUS_GENODEF_13
1002
{
1000
HIER
1070
     0
1002
}
1002
{
1000
MANEDIT
1070
     0
1002
}
1002
{
1000
NOSEL
1070
     0
1002
}
1002
{
1000
BEHIND
1070
     0
1002
}
1002
{
1000
REACTOR
1002
}
1001
GENIUS_GENOBJ-N-HTC_13
1002
{
1000
OWNER
1000
GEN
1002
}
1001
GENIUS_GENHATCH_13
1002
{
1000
DATA
1040
135.0
1042
2.7
1000
_U
1070
     0
1011
466.083929
1021
601.7497940000001
1031
0.0
1002
}
1002
{
1000
UCS
1010
0.0
1020
0.0
1030
0.0
1010
1.0
1020
0.0
1030
0.0
1010
0.0
1020
1.0
1030
0.0
1002
}
  0
ENDSEC
  0
SECTION
  2
OBJECTS
  0
DICTIONARY
  5
16B7
330
0
100
AcDbDictionary
281
     1
  3
ACAD_COLOR
350
19B3
  3
ACAD_GROUP
350
16B8
  3
ACAD_LAYOUT
350
19B6
  3
ACAD_MATERIAL
350
19B2
  3
ACAD_MLINESTYLE
350
16C6
  3
ACAD_PLOTSETTINGS
350
19B7
  3
ACAD_PLOTSTYLENAME
350
19B0
  3
ACAD_TABLESTYLE
350
19B4
  3
ACDBHEADERROUNDTRIPXREC
350
1A8F
  3
AcDbVariableDictionary
350
1A8A
  3
AcmDictionary
350
1A15
  3
AMG
350
19BB
  3
AMGSNAPSETTINGS
350
1A82
  0
DICTIONARY
  5
19B3
102
{ACAD_REACTORS
330
16B7
102
}
330
16B7
100
AcDbDictionary
281
     1
  0
DICTIONARY
  5
16B8
102
{ACAD_REACTORS
330
16B7
102
}
330
16B7
100
AcDbDictionary
281
     1
  0
DICTIONARY
  5
19B6
102
{ACAD_REACTORS
330
16B7
102
}
330
16B7
100
AcDbDictionary
281
     1
  3
Layout1
350
19B9
  3
Model
350
19B8
  0
DICTIONARY
  5
19B2
102
{ACAD_REACTORS
330
16B7
102
}
330
16B7
100
AcDbDictionary
281
     1
  0
DICTIONARY
  5
16C6
102
{ACAD_REACTORS
330
16B7
102
}
330
16B7
100
AcDbDictionary
281
     1
  3
STANDARD
350
16C7
  0
DICTIONARY
  5
19B7
102
{ACAD_REACTORS
330
16B7
102
}
330
16B7
100
AcDbDictionary
281
     1
  0
ACDBDICTIONARYWDFLT
  5
19B0
102
{ACAD_REACTORS
330
16B7
102
}
330
16B7
100
AcDbDictionary
281
     1
  3
Normal
350
19B1
100
AcDbDictionaryWithDefault
340
19B1
  0
DICTIONARY
  5
19B4
102
{ACAD_REACTORS
330
16B7
102
}
330
16B7
100
AcDbDictionary
281
     1
  3
Standard
350
19B5
  0
DICTIONARY
  5
1A8F
102
{ACAD_REACTORS
330
16B7
102
}
330
16B7
100
AcDbDictionary
281
     1
  0
DICTIONARY
  5
1A8A
102
{ACAD_REACTORS
330
16B7
102
}
330
16B7
100
AcDbDictionary
281
     1
  3
CTABLESTYLE
350
1A8B
  3
DIMASSOC
350
1A8C
  3
PROJECTNAME
350
1A8D
  0
DICTIONARY
  5
1A15
102
{ACAD_REACTORS
330
16B7
102
}
330
16B7
100
AcDbDictionary
281
     1
  3
AcmStdDictionary
350
1A20
  3
AMDTSECTSYM_ARROWCOLOR
350
1A43
  0
DICTIONARY
  5
19BB
102
{ACAD_REACTORS
330
16B7
102
}
330
16B7
100
AcDbDictionary
281
     1
  0
DICTIONARY
  5
1A82
102
{ACAD_REACTORS
330
16B7
102
}
330
16B7
100
AcDbDictionary
281
     1
  0
LAYOUT
  5
19B9
102
{ACAD_XDICTIONARY
360
1A92
102
}
102
{ACAD_REACTORS
330
19B6
102
}
330
19B6
100
AcDbPlotSettings
  1

  2
Xerox Document Centre CS50 PS
  4

  6

 40
0.0
 41
0.0
 42
0.0
 43
0.0
 44
0.0
 45
0.0
 46
0.0
 47
0.0
 48
0.0
 49
0.0
140
0.0
141
0.0
142
1.0
143
1.0
 70
   688
 72
     0
 73
     0
 74
     5
  7

 75
    16
147
1.0
148
0.0
149
0.0
100
AcDbLayout
  1
Layout1
 70
     1
 71
     1
 10
0.0
 20
0.0
 11
209.9
 21
296.9
 12
0.0
 22
0.0
 32
0.0
 14
0.0
 24
0.0
 34
0.0
 15
209.9
 25
296.9
 35
0.0
146
0.0
 13
0.0
 23
0.0
 33
0.0
 16
1.0
 26
0.0
 36
0.0
 17
0.0
 27
1.0
 37
0.0
 76
     0
330
16C0
  0
LAYOUT
  5
19B8
102
{ACAD_XDICTIONARY
360
1A90
102
}
102
{ACAD_REACTORS
330
19B6
102
}
330
19B6
100
AcDbPlotSettings
  1

  2
Xerox Document Centre CS50 PS
  4

  6

 40
0.0
 41
0.0
 42
0.0
 43
0.0
 44
0.0
 45
0.0
 46
0.0
 47
0.0
 48
0.0
 49
0.0
140
0.0
141
0.0
142
1.0
143
1.0
 70
  1712
 72
     0
 73
     0
 74
     0
  7

 75
     0
147
1.0
148
0.0
149
0.0
100
AcDbLayout
  1
Model
 70
     1
 71
     0
 10
0.0
 20
0.0
 11
12.0
 21
9.0
 12
0.0
 22
0.0
 32
0.0
 14
0.0
 24
0.0
 34
0.0
 15
0.0
 25
0.0
 35
0.0
146
0.0
 13
0.0
 23
0.0
 33
0.0
 16
1.0
 26
0.0
 36
0.0
 17
0.0
 27
1.0
 37
0.0
 76
     0
330
16C3
  0
MLINESTYLE
  5
16C7
102
{ACAD_REACTORS
330
16C6
102
}
330
16C6
100
AcDbMlineStyle
  2
STANDARD
 70
     0
  3

 62
   256
 51
90.0
 52
90.0
 71
     2
 49
0.5
 62
   256
  6
BYLAYER
 49
-0.5
 62
   256
  6
BYLAYER
  0
ACDBPLACEHOLDER
  5
19B1
102
{ACAD_REACTORS
330
19B0
102
}
330
19B0
  0
TABLESTYLE
  5
19B5
102
{ACAD_REACTORS
330
19B4
102
}
330
19B4
100
AcDbTableStyle
  3
Standard
 70
     0
 71
     0
 40
1.5
 41
1.5
280
     0
281
     0
  7
STANDARD
140
4.5
170
     2
 62
     0
 63
     7
283
     0
274
    -2
284
     1
 64
     0
275
    -2
285
     1
 65
     0
276
    -2
286
     1
 66
     0
277
    -2
287
     1
 67
     0
278
    -2
288
     1
 68
     0
279
    -2
289
     1
 69
     0
  7
STANDARD
140
6.0
170
     5
 62
     0
 63
     7
283
     0
274
    -2
284
     1
 64
     0
275
    -2
285
     1
 65
     0
276
    -2
286
     1
 66
     0
277
    -2
287
     1
 67
     0
278
    -2
288
     1
 68
     0
279
    -2
289
     1
 69
     0
  7
STANDARD
140
4.5
170
     5
 62
     0
 63
     7
283
     0
274
    -2
284
     1
 64
     0
275
    -2
285
     1
 65
     0
276
    -2
286
     1
 66
     0
277
    -2
287
     1
 67
     0
278
    -2
288
     1
 68
     0
279
    -2
289
     1
 69
     0
  0
DICTIONARYVAR
  5
1A8B
102
{ACAD_REACTORS
330
1A8A
102
}
330
1A8A
100
DictionaryVariables
280
     0
  1
STANDARD
  0
DICTIONARYVAR
  5
1A8C
102
{ACAD_REACTORS
330
1A8A
102
}
330
1A8A
100
DictionaryVariables
280
     0
  1
1
  0
DICTIONARYVAR
  5
1A8D
102
{ACAD_REACTORS
330
1A8A
102
}
330
1A8A
100
DictionaryVariables
280
     0
  1

  0
DICTIONARY
  5
1A20
102
{ACAD_REACTORS
330
1A15
102
}
330
1A15
100
AcDbDictionary
281
     1
  0
XRECORD
  5
1A43
102
{ACAD_REACTORS
330
1A15
102
}
330
1A15
100
AcDbXrecord
280
     1
 90
-1023410169
  0
DICTIONARY
  5
1A92
330
19B9
100
AcDbDictionary
280
     1
281
     1
  3
ACAD_XREC_ROUNDTRIP
360
1A93
  0
DICTIONARY
  5
1A90
330
19B8
100
AcDbDictionary
280
     1
281
     1
  3
ACAD_XREC_ROUNDTRIP
360
1A91
  0
XRECORD
  5
1A93
102
{ACAD_REACTORS
330
1A92
102
}
330
1A92
100
AcDbXrecord
280
     1
102
SHADEPLOT
 70
     0
102
SHADEPLOTRESLEVEL
 70
     2
102
SHADEPLOTCUSTOMDPI
 70
   300
  0
XRECORD
  5
1A91
102
{ACAD_REACTORS
330
1A90
102
}
330
1A90
100
AcDbXrecord
280
     1
102
SHADEPLOT
 70
     0
102
SHADEPLOTRESLEVEL
 70
     2
102
SHADEPLOTCUSTOMDPI
 70
   300
  0
ENDSEC
  0
EOF
