  0
SECTION
  2
HEADER
  9
$ACADVER
  1
AC1015
  9
$ACADMAINTVER
 70
    20
  9
$DWGCODEPAGE
  3
ANSI_1252
  9
$INSBASE
 10
0.0
 20
0.0
 30
0.0
  9
$EXTMIN
 10
181.333925995666
 20
50.03586065726813
 30
-0.0015258207003583
  9
$EXTMAX
 10
596.537019739087
 20
587.0841999038634
 30
0.0000000349246037
  9
$LIMMIN
 10
0.0
 20
0.0
  9
$LIMMAX
 10
1050.0
 20
1050.0
  9
$ORTHOMODE
 70
     0
  9
$REGENMODE
 70
     1
  9
$FILLMODE
 70
     1
  9
$QTEXTMODE
 70
     0
  9
$MIRRTEXT
 70
     0
  9
$LTSCALE
 40
5.0
  9
$ATTMODE
 70
     1
  9
$TEXTSIZE
 40
12.5
  9
$TRACEWID
 40
0.05
  9
$TEXTSTYLE
  7
STANDARD
  9
$CLAYER
  8
0
  9
$CELTYPE
  6
BYLAYER
  9
$CECOLOR
 62
   256
  9
$CELTSCALE
 40
1.0
  9
$DISPSILH
 70
     0
  9
$DIMSCALE
 40
5.0
  9
$DIMASZ
 40
2.5
  9
$DIMEXO
 40
1.0
  9
$DIMDLI
 40
7.0
  9
$DIMRND
 40
0.0
  9
$DIMDLE
 40
0.0
  9
$DIMEXE
 40
1.0
  9
$DIMTP
 40
0.1
  9
$DIMTM
 40
0.1
  9
$DIMTXT
 40
3.5
  9
$DIMCEN
 40
0.0
  9
$DIMTSZ
 40
0.0
  9
$DIMTOL
 70
     0
  9
$DIMLIM
 70
     0
  9
$DIMTIH
 70
     0
  9
$DIMTOH
 70
     0
  9
$DIMSE1
 70
     0
  9
$DIMSE2
 70
     0
  9
$DIMTAD
 70
     1
  9
$DIMZIN
 70
    12
  9
$DIMBLK
  1

  9
$DIMASO
 70
     1
  9
$DIMSHO
 70
     1
  9
$DIMPOST
  1

  9
$DIMAPOST
  1
"
  9
$DIMALT
 70
     0
  9
$DIMALTD
 70
     2
  9
$DIMALTF
 40
0.03937
  9
$DIMLFAC
 40
1.0
  9
$DIMTOFL
 70
     1
  9
$DIMTVP
 40
0.0
  9
$DIMTIX
 70
     0
  9
$DIMSOXD
 70
     0
  9
$DIMSAH
 70
     0
  9
$DIMBLK1
  1

  9
$DIMBLK2
  1

  9
$DIMSTYLE
  2
GEN-ISO
  9
$DIMCLRD
 70
   256
  9
$DIMCLRE
 70
   256
  9
$DIMCLRT
 70
     2
  9
$DIMTFAC
 40
0.71
  9
$DIMGAP
 40
0.6
  9
$DIMJUST
 70
     0
  9
$DIMSD1
 70
     0
  9
$DIMSD2
 70
     0
  9
$DIMTOLJ
 70
     0
  9
$DIMTZIN
 70
     0
  9
$DIMALTZ
 70
     0
  9
$DIMALTTZ
 70
     0
  9
$DIMUPT
 70
     0
  9
$DIMDEC
 70
     2
  9
$DIMTDEC
 70
     3
  9
$DIMALTU
 70
     2
  9
$DIMALTTD
 70
     4
  9
$DIMTXSTY
  7
STANDARD
  9
$DIMAUNIT
 70
     0
  9
$DIMADEC
 70
     0
  9
$DIMALTRND
 40
0.0
  9
$DIMAZIN
 70
     0
  9
$DIMDSEP
 70
    46
  9
$DIMATFIT
 70
     3
  9
$DIMFRAC
 70
     0
  9
$DIMLDRBLK
  1

  9
$DIMLUNIT
 70
     2
  9
$DIMLWD
 70
    -2
  9
$DIMLWE
 70
    -2
  9
$DIMTMOVE
 70
     0
  9
$LUNITS
 70
     2
  9
$LUPREC
 70
     2
  9
$SKETCHINC
 40
0.1
  9
$FILLETRAD
 40
12.5
  9
$AUNITS
 70
     0
  9
$AUPREC
 70
     2
  9
$MENU
  1
.
  9
$ELEVATION
 40
0.0
  9
$PELEVATION
 40
0.0
  9
$THICKNESS
 40
0.0
  9
$LIMCHECK
 70
     0
  9
$CHAMFERA
 40
12.5
  9
$CHAMFERB
 40
12.5
  9
$CHAMFERC
 40
0.0
  9
$CHAMFERD
 40
0.0
  9
$SKPOLY
 70
     0
  9
$TDCREATE
 40
2451260.621011007
  9
$TDUCREATE
 40
2451260.579344340
  9
$TDUPDATE
 40
2454081.832617639
  9
$TDUUPDATE
 40
2454081.790950972
  9
$TDINDWG
 40
0.0043987384
  9
$TDUSRTIMER
 40
0.0043923611
  9
$USRTIMER
 70
     1
  9
$ANGBASE
 50
0.0
  9
$ANGDIR
 70
     0
  9
$PDMODE
 70
     0
  9
$PDSIZE
 40
0.0
  9
$PLINEWID
 40
0.0
  9
$SPLFRAME
 70
     0
  9
$SPLINETYPE
 70
     6
  9
$SPLINESEGS
 70
     8
  9
$HANDSEED
  5
1B97
  9
$SURFTAB1
 70
     6
  9
$SURFTAB2
 70
     6
  9
$SURFTYPE
 70
     6
  9
$SURFU
 70
     6
  9
$SURFV
 70
     6
  9
$UCSBASE
  2

  9
$UCSNAME
  2

  9
$UCSORG
 10
0.0
 20
0.0
 30
0.0
  9
$UCSXDIR
 10
1.0
 20
0.0
 30
0.0
  9
$UCSYDIR
 10
0.0
 20
1.0
 30
0.0
  9
$UCSORTHOREF
  2

  9
$UCSORTHOVIEW
 70
     0
  9
$UCSORGTOP
 10
0.0
 20
0.0
 30
0.0
  9
$UCSORGBOTTOM
 10
0.0
 20
0.0
 30
0.0
  9
$UCSORGLEFT
 10
0.0
 20
0.0
 30
0.0
  9
$UCSORGRIGHT
 10
0.0
 20
0.0
 30
0.0
  9
$UCSORGFRONT
 10
0.0
 20
0.0
 30
0.0
  9
$UCSORGBACK
 10
0.0
 20
0.0
 30
0.0
  9
$PUCSBASE
  2

  9
$PUCSNAME
  2

  9
$PUCSORG
 10
0.0
 20
0.0
 30
0.0
  9
$PUCSXDIR
 10
1.0
 20
0.0
 30
0.0
  9
$PUCSYDIR
 10
0.0
 20
1.0
 30
0.0
  9
$PUCSORTHOREF
  2

  9
$PUCSORTHOVIEW
 70
     0
  9
$PUCSORGTOP
 10
0.0
 20
0.0
 30
0.0
  9
$PUCSORGBOTTOM
 10
0.0
 20
0.0
 30
0.0
  9
$PUCSORGLEFT
 10
0.0
 20
0.0
 30
0.0
  9
$PUCSORGRIGHT
 10
0.0
 20
0.0
 30
0.0
  9
$PUCSORGFRONT
 10
0.0
 20
0.0
 30
0.0
  9
$PUCSORGBACK
 10
0.0
 20
0.0
 30
0.0
  9
$USERI1
 70
     0
  9
$USERI2
 70
     0
  9
$USERI3
 70
     0
  9
$USERI4
 70
     0
  9
$USERI5
 70
     0
  9
$USERR1
 40
0.0
  9
$USERR2
 40
0.0
  9
$USERR3
 40
0.0
  9
$USERR4
 40
0.0
  9
$USERR5
 40
0.0
  9
$WORLDVIEW
 70
     1
  9
$SHADEDGE
 70
     3
  9
$SHADEDIF
 70
    70
  9
$TILEMODE
 70
     1
  9
$MAXACTVP
 70
    48
  9
$PINSBASE
 10
0.0
 20
0.0
 30
0.0
  9
$PLIMCHECK
 70
     0
  9
$PEXTMIN
 10
0.0
 20
0.0
 30
0.0
  9
$PEXTMAX
 10
209.9
 20
296.9
 30
0.0
  9
$PLIMMIN
 10
0.0
 20
0.0
  9
$PLIMMAX
 10
209.9
 20
296.9
  9
$UNITMODE
 70
     0
  9
$VISRETAIN
 70
     1
  9
$PLINEGEN
 70
     1
  9
$PSLTSCALE
 70
     1
  9
$TREEDEPTH
 70
 -3020
  9
$CMLSTYLE
  2
STANDARD
  9
$CMLJUST
 70
     0
  9
$CMLSCALE
 40
1.0
  9
$PROXYGRAPHICS
 70
     1
  9
$MEASUREMENT
 70
     1
  9
$CELWEIGHT
370
    -1
  9
$ENDCAPS
280
     0
  9
$JOINSTYLE
280
     0
  9
$LWDISPLAY
290
     0
  9
$INSUNITS
 70
     0
  9
$HYPERLINKBASE
  1

  9
$STYLESHEET
  1

  9
$XEDIT
290
     1
  9
$CEPSNTYPE
380
     0
  9
$PSTYLEMODE
290
     1
  9
$FINGERPRINTGUID
  2
{FD406C52-5A74-4CC0-8C76-C49EA9F2AAD1}
  9
$VERSIONGUID
  2
{F6ADD17A-CACF-41FD-B857-E62390E6B279}
  9
$EXTNAMES
290
     1
  9
$PSVPSCALE
 40
0.0
  9
$OLESTARTUP
290
     0
  0
ENDSEC
  0
SECTION
  2
CLASSES
  0
CLASS
  1
ACDBDICTIONARYWDFLT
  2
AcDbDictionaryWithDefault
  3
ObjectDBX Classes
 90
        0
280
     0
281
     0
  0
CLASS
  1
TABLESTYLE
  2
AcDbTableStyle
  3
ObjectDBX Classes
 90
     2047
280
     0
281
     0
  0
CLASS
  1
AMGSETTINGSOBJ
  2
AmgSettingsObj
  3
"AcadM|Product Description: AutoCAD Mechanical 2000|Company: Autodesk"
 90
        0
280
     0
281
     0
  0
CLASS
  1
ACME_DOCUMENT
  2
AcMeDbDoc
  3
AcMeServices
 90
        0
280
     0
281
     0
  0
CLASS
  1
ACMESCOPE
  2
AcMeScope
  3
AcMeServices
 90
        0
280
     0
281
     0
  0
CLASS
  1
ACMECOMMANDHISTORY
  2
AcMeCommandHistory
  3
AcMeServices
 90
        0
280
     0
281
     0
  0
CLASS
  1
ACIMSYSVARMAN
  2
AcImSysVarManager
  3
AcMeServices
 90
        0
280
     0
281
     0
  0
CLASS
  1
ACIMINTSYSVAR
  2
AcImIntSysVar
  3
AcMeServices
 90
        0
280
     0
281
     0
  0
CLASS
  1
ACMEDRAWINGMAN
  2
AcMeDrawingMan
  3
AcMeServices
 90
        0
280
     0
281
     0
  0
CLASS
  1
ACMEVIEW
  2
AcMeView
  3
AcMeServices
 90
        0
280
     0
281
     0
  0
CLASS
  1
ACDBENTITYCACHE
  2
AcMeEntityCache
  3
AcMeServices
 90
        0
280
     0
281
     0
  0
CLASS
  1
GSMANAGER
  2
AcMeGSManager
  3
AcMeServices
 90
        0
280
     0
281
     0
  0
CLASS
  1
AMDTINTERNALREACTOR
  2
AmdtInternalReactor
  3
AcMeServices
 90
        0
280
     0
281
     0
  0
CLASS
  1
ACMESTATEMGR
  2
AcMeStateMgr
  3
AcMeServices
 90
        0
280
     0
281
     0
  0
CLASS
  1
ACGREFMASTER
  2
AcGrefMaster
  3
AcAttribServices
 90
        0
280
     0
281
     0
  0
CLASS
  1
AM_DRAWING_MGR
  2
AcDmDwgMgr
  3
AcMechDwgViewMgmt
 90
        0
280
     0
281
     0
  0
CLASS
  1
AM_DWG_DOCUMENT
  2
AcDmDwgDocument
  3
AcMechDwgViewMgmt
 90
        0
280
     0
281
     0
  0
CLASS
  1
AM_DWG_SHEET
  2
AcDmSheet
  3
AcMechDwgViewMgmt
 90
        0
280
     0
281
     0
  0
CLASS
  1
AM_VIEWDIMPARMAP
  2
AcDmViewDimParMap
  3
AcMechDwgViewMgmt
 90
        0
280
     0
281
     0
  0
CLASS
  1
ACIMREALSYSVAR
  2
AcImRealSysVar
  3
AcMeServices
 90
        0
280
     0
281
     0
  0
CLASS
  1
AM_DWGMGR_NAME
  2
AcDmDwgMgrName
  3
AcMechDwgViewMgmt
 90
        0
280
     0
281
     0
  0
CLASS
  1
ACME_DATABASE
  2
AcMeDbDatabase
  3
AcMeServices
 90
        0
280
     0
281
     0
  0
CLASS
  1
ACRFINSADJUSTERMGR
  2
AcRfInsAdjusterMgr
  3
AcMeServices
 90
        0
280
     0
281
     0
  0
CLASS
  1
ACGREFACADMASTER
  2
AcGrefacadMaster
  3
AcGrefServices
 90
        0
280
     0
281
     0
  0
CLASS
  1
AMDTMENUSTATEMGR
  2
AmdtMenuStateMgr
  3
McadcomServices
 90
        0
280
     0
281
     0
  0
CLASS
  1
AMDTMCOMMENUSTATE
  2
AmdtMcomMenuState
  3
McadcomServices
 90
        0
280
     0
281
     0
  0
CLASS
  1
AMIMASTER
  2
AmiMaster
  3
AmiServices
 90
        0
280
     0
281
     0
  0
CLASS
  1
MAPIAMMOUDLE
  2
MApiAmModule
  3
MApiAmServices
 90
        0
280
     0
281
     0
  0
CLASS
  1
ACIMSTRSYSVAR
  2
AcImStrSysVar
  3
AcMeServices
 90
        0
280
     0
281
     0
  0
CLASS
  1
AMDTADMENUSTATE
  2
AmdtAdMenuState
  3
DesignerServices
 90
        0
280
     0
281
     0
  0
CLASS
  1
ADAPPL
  2
AcAdAppl
  3
DesignerServices
 90
        0
280
     0
281
     0
  0
CLASS
  1
DEPMGR
  2
AcAdDepMgr
  3
DesignerServices
 90
        0
280
     0
281
     0
  0
CLASS
  1
PARAMMGR
  2
AcAdParamMgr
  3
DesignerServices
 90
        0
280
     0
281
     0
  0
CLASS
  1
PARAMSCOPE
  2
AcAdParamScope
  3
DesignerServices
 90
        0
280
     0
281
     0
  0
CLASS
  1
NAMEDAPPL
  2
AcAdNamedAppl
  3
DesignerServices
 90
        0
280
     0
281
     0
  0
CLASS
  1
AMDTDMMENUSTATE
  2
AmdtDmMenuState
  3
AcMechDwgViewMgmt
 90
        0
280
     0
281
     0
  0
CLASS
  1
AMDTAMMENUSTATE
  2
AmdtAmMenuState
  3
DesignerAssemblies
 90
        0
280
     0
281
     0
  0
CLASS
  1
ACAMPROJECT
  2
AcAmProject
  3
DesignerAssemblies
 90
        0
280
     0
281
     0
  0
CLASS
  1
ACAMGRCOMPDEF
  2
AcAmGrCompDef
  3
DesignerAssemblies
 90
        0
280
     0
281
     0
  0
CLASS
  1
ACCMCONTEXT
  2
AcCmContext
  3
DesignerAssemblies
 90
        0
280
     0
281
     0
  0
CLASS
  1
ACAMCOMPDEF
  2
AcAmCompDef
  3
DesignerAssemblies
 90
        0
280
     0
281
     0
  0
CLASS
  1
ACAMCOMPDEFMGR
  2
AcAmCompDefMgr
  3
DesignerAssemblies
 90
        0
280
     0
281
     0
  0
CLASS
  1
AMCONTEXTMGR
  2
AcAmContextMgr
  3
DesignerAssemblies
 90
        0
280
     0
281
     0
  0
CLASS
  1
ACAMCONTEXTMODELER
  2
AcAmContextModeler
  3
DesignerAssemblies
 90
        0
280
     0
281
     0
  0
CLASS
  1
ACMDATADICTIONARY
  2
AcmDataDictionary
  3
"AcmSymBB|Product Description: AutoCAD Mechanical 2004 DX|Company: Autodesk"
 90
        0
280
     0
281
     0
  0
CLASS
  1
CATALOGSTATE
  2
AcAmCatalogState
  3
DesignerAssemblies
 90
        0
280
     0
281
     0
  0
CLASS
  1
ACAMGRCOMPDEFSET
  2
AcAmGrCompDefSet
  3
DesignerAssemblies
 90
        0
280
     0
281
     0
  0
CLASS
  1
AMDTBROWSERDBTAB
  2
AmdtBrowserDbTab
  3
McadcomServices
 90
        0
280
     0
281
     0
  0
CLASS
  1
CBROWSERAPPOBJECT
  2
CBrowserAppObject
  3
McadcomServices
 90
        0
280
     0
281
     0
  0
CLASS
  1
DM_PLACEHOLDER
  2
AcDmSelsetPlaceholder
  3
AcMechDwgViewMgmt
 90
        0
280
     0
281
     0
  0
CLASS
  1
ACMSTANDARDDIN
  2
AcmStandardDIN
  3
"Amdt_StdImp|Product Description: AutoCAD Mechanical 2004 DX|Company: Autodesk"
 90
        0
280
     0
281
     0
  0
CLASS
  1
AMGOBJPROPCFG
  2
AmgObjPropCfg
  3
"AmgLay|Product Description: AutoCAD Mechanical 2000|Company: Autodesk"
 90
        1
280
     0
281
     0
  0
CLASS
  1
AMDTEDGESTANDARDDIN13715
  2
AmdtEdgeStdDIN13715
  3
"Amdt_StdImp|Product Description: AutoCAD Mechanical 2004 DX|Company: Autodesk"
 90
        0
280
     0
281
     0
  0
CLASS
  1
ACMSURFSTANDARDDIN
  2
AcmSurfTextStdDIN
  3
"Amdt_StdImp|Product Description: AutoCAD Mechanical 2004 DX|Company: Autodesk"
 90
        0
280
     0
281
     0
  0
CLASS
  1
ACMFCFSTANDARDDIN
  2
AcmFCFStdDIN
  3
"Amdt_StdImp|Product Description: AutoCAD Mechanical 2004 DX|Company: Autodesk"
 90
        0
280
     0
281
     0
  0
CLASS
  1
ACMWELDSTANDARDDIN
  2
AcmWeldingStdDIN
  3
"Amdt_StdImp|Product Description: AutoCAD Mechanical 2004 DX|Company: Autodesk"
 90
        0
280
     0
281
     0
  0
CLASS
  1
ACMIDSTANDARDDIN
  2
AcmIdStdDIN
  3
"Amdt_StdImp|Product Description: AutoCAD Mechanical 2004 DX|Company: Autodesk"
 90
        0
280
     0
281
     0
  0
CLASS
  1
ACMDATUMSTANDARDDIN
  2
AcmDatumStdDIN
  3
"Amdt_StdImp|Product Description: AutoCAD Mechanical 2004 DX|Company: Autodesk"
 90
        0
280
     0
281
     0
  0
CLASS
  1
ACMBOMSTANDARDDIN
  2
AcmBOMStdDIN
  3
"Amdt_StdImp|Product Description: AutoCAD Mechanical 2004 DX|Company: Autodesk"
 90
        0
280
     0
281
     0
  0
CLASS
  1
ACMDETAILSTANDARDDIN
  2
AmdtDetailSymStdDIN
  3
"Amdt_StdImp|Product Description: AutoCAD Mechanical 2004 DX|Company: Autodesk"
 90
        0
280
     0
281
     0
  0
CLASS
  1
ACMSECTIONSTANDARDDIN
  2
AmdtSectionSymStdDIN
  3
"Amdt_StdImp|Product Description: AutoCAD Mechanical 2004 DX|Company: Autodesk"
 90
        0
280
     0
281
     0
  0
CLASS
  1
ACMCENTERLINESTANDARDDIN
  2
AmdtCenterLineStdDIN
  3
"Amdt_StdImp|Product Description: AutoCAD Mechanical 2004 DX|Company: Autodesk"
 90
        0
280
     0
281
     0
  0
CLASS
  1
ACMTHREADLINESTANDARDDIN
  2
AmdtThreadLineStdDIN
  3
"Amdt_StdImp|Product Description: AutoCAD Mechanical 2004 DX|Company: Autodesk"
 90
        0
280
     0
281
     0
  0
CLASS
  1
ACMNOTESTANDARDDIN
  2
AmdtNoteStdDIN
  3
"Amdt_StdImp|Product Description: AutoCAD Mechanical 2004 DX|Company: Autodesk"
 90
        0
280
     0
281
     0
  0
CLASS
  1
AMDTNOTETEMPLATEDB
  2
AmdtNoteTemplateDB
  3
AMDT_STDIMP_MODULE_NAME
 90
        0
280
     0
281
     0
  0
CLASS
  1
ACAMGLAYSTD
  2
AcAmgLayStd
  3
"AcAmgLayStd|Product Description: AutoCAD Mechanical 2000|Company: Autodesk"
 90
        0
280
     0
281
     0
  0
CLASS
  1
ACAMGDIMSTD
  2
AcAmgDimStd
  3
"AcAmgDimStd|Product Description: AutoCAD Mechanical 2000|Company: Autodesk"
 90
        0
280
     0
281
     0
  0
CLASS
  1
ACAMGHOLECHARTSTDDIN
  2
AcAmgHoleChartStdDIN
  3
ACMSYMBB_MODULE_NAME
 90
        0
280
     0
281
     0
  0
CLASS
  1
ACAMGTITLESTD
  2
AcAmgTitleStd
  3
"TITLEAPP"
 90
        0
280
     0
281
     0
  0
CLASS
  1
ACAMGFILTERDAT
  2
AcAmgFilterDat
  3
"AcadM|Product Description: AutoCAD Mechanical 2000|Company: Autodesk"
 90
        0
280
     0
281
     0
  0
CLASS
  1
DICTIONARYVAR
  2
AcDbDictionaryVar
  3
ObjectDBX Classes
 90
        0
280
     0
281
     0
  0
CLASS
  1
ACDBPLACEHOLDER
  2
AcDbPlaceHolder
  3
ObjectDBX Classes
 90
        0
280
     0
281
     0
  0
CLASS
  1
LAYOUT
  2
AcDbLayout
  3
ObjectDBX Classes
 90
        0
280
     0
281
     0
  0
ENDSEC
  0
SECTION
  2
TABLES
  0
TABLE
  2
VPORT
  5
16F8
330
0
100
AcDbSymbolTable
 70
     4
  0
VPORT
  5
1B91
330
16F8
100
AcDbSymbolTableRecord
100
AcDbViewportTableRecord
  2
*Active
 70
     0
 10
0.0
 20
0.0
 11
1.0
 21
1.0
 12
388.9354728673766
 22
318.5600302805658
 13
0.0
 23
0.0
 14
5.0
 24
5.0
 15
50.0
 25
50.0
 16
0.0
 26
0.0
 36
1.0
 17
0.0
 27
0.0
 37
0.0
 40
540.949416771389
 41
1.494545454545454
 42
50.0
 43
0.0
 44
0.0
 50
0.0
 51
0.0
 71
     0
 72
  1000
 73
     1
 74
     1
 75
     0
 76
     0
 77
     0
 78
     0
281
     0
 65
     0
110
0.0
120
0.0
130
0.0
111
1.0
121
0.0
131
0.0
112
0.0
122
1.0
132
0.0
 79
     0
146
0.0
  0
ENDTAB
  0
TABLE
  2
LTYPE
  5
16F5
330
0
100
AcDbSymbolTable
 70
    20
  0
LTYPE
  5
1702
330
16F5
100
AcDbSymbolTableRecord
100
AcDbLinetypeTableRecord
  2
BYBLOCK
 70
     0
  3

 72
    65
 73
     0
 40
0.0
  0
LTYPE
  5
1703
330
16F5
100
AcDbSymbolTableRecord
100
AcDbLinetypeTableRecord
  2
BYLAYER
 70
     0
  3

 72
    65
 73
     0
 40
0.0
  0
LTYPE
  5
1704
330
16F5
100
AcDbSymbolTableRecord
100
AcDbLinetypeTableRecord
  2
CONTINUOUS
 70
     0
  3
Solid line
 72
    65
 73
     0
 40
0.0
  0
LTYPE
  5
1712
330
16F5
100
AcDbSymbolTableRecord
100
AcDbLinetypeTableRecord
  2
GEN4A
 70
     0
  3
______  __  __  ______  __  __  ______  __  __  ______  __  __
 72
    65
 73
     6
 40
2.5
 49
1.25
 74
     0
 49
-0.25
 74
     0
 49
0.25
 74
     0
 49
-0.25
 74
     0
 49
0.25
 74
     0
 49
-0.25
 74
     0
  0
LTYPE
  5
1AF0
330
16F5
100
AcDbSymbolTableRecord
100
AcDbLinetypeTableRecord
  2
HIDDEN
 70
     0
  3
Verdeckt
 72
    65
 73
     2
 40
9.525
 49
6.349999999999999
 74
     0
 49
-3.174999999999999
 74
     0
  0
LTYPE
  5
1AF1
330
16F5
100
AcDbSymbolTableRecord
100
AcDbLinetypeTableRecord
  2
PHANTOM2
 70
     0
  3
Phantom (.5x) ___ _ _ ___ _ _ ___ _ _ ___ _ _
 72
    65
 73
     6
 40
31.75
 49
15.875
 74
     0
 49
-3.174999999999999
 74
     0
 49
3.174999999999999
 74
     0
 49
-3.174999999999999
 74
     0
 49
3.174999999999999
 74
     0
 49
-3.174999999999999
 74
     0
  0
LTYPE
  5
1AF2
330
16F5
100
AcDbSymbolTableRecord
100
AcDbLinetypeTableRecord
  2
CENTER
 70
     0
  3
Mitte ____ _ ____ _ ____ _ ____ _ ____ _ ____
 72
    65
 73
     4
 40
50.8
 49
31.75
 74
     0
 49
-6.349999999999999
 74
     0
 49
6.349999999999999
 74
     0
 49
-6.349999999999999
 74
     0
  0
LTYPE
  5
1B29
330
16F5
100
AcDbSymbolTableRecord
100
AcDbLinetypeTableRecord
  2
Amconstr
 70
     0
  3
_______________________
 72
    65
 73
     2
 40
9999.0
 49
9999.0
 74
     0
 49
0.0
 74
     0
  0
LTYPE
  5
1B2E
330
16F5
100
AcDbSymbolTableRecord
100
AcDbLinetypeTableRecord
  2
Amzigzag
 70
     0
  3
/\/-/\/-/\/-/\/-/\/-/\/
 72
    65
 73
     2
 40
11.0001
 49
0.0001
 74
     4
 75
   136
340
1B2D
 46
0.04
 50
0.0
 44
0.0
 45
0.0
 49
-11.0
 74
     0
  0
LTYPE
  5
1B2F
330
16F5
100
AcDbSymbolTableRecord
100
AcDbLinetypeTableRecord
  2
AM_DIN_F_W050
 70
     0
  3
__ __ __ __ __ __ __ __ __ __ __ __ __ __ __
 72
    65
 73
     2
 40
6.25
 49
4.75
 74
     0
 49
-1.5
 74
     0
  0
LTYPE
  5
1B30
330
16F5
100
AcDbSymbolTableRecord
100
AcDbLinetypeTableRecord
  2
AM_DIN_G_W050
 70
     0
  3
____ . ____ . ____ . ____ . ____ . ____ . ____
 72
    65
 73
     4
 40
13.75
 49
9.75
 74
     0
 49
-1.5
 74
     0
 49
1.0
 74
     0
 49
-1.5
 74
     0
  0
LTYPE
  5
1B31
330
16F5
100
AcDbSymbolTableRecord
100
AcDbLinetypeTableRecord
  2
AM_DIN_K_W050
 70
     0
  3
_____ . . _____ . . _____ . . ____ .. ____
 72
    65
 73
     6
 40
16.25
 49
9.75
 74
     0
 49
-1.5
 74
     0
 49
1.0
 74
     0
 49
-1.5
 74
     0
 49
1.0
 74
     0
 49
-1.5
 74
     0
  0
LTYPE
  5
1B32
330
16F5
100
AcDbSymbolTableRecord
100
AcDbLinetypeTableRecord
  2
AM_DIN_G_W050x2
 70
     0
  3
__ . __ . __ . __ . __ . __
 72
    65
 73
     4
 40
6.875
 49
4.75
 74
     0
 49
-0.875
 74
     0
 49
0.375
 74
     0
 49
-0.875
 74
     0
  0
LTYPE
  5
1B33
330
16F5
100
AcDbSymbolTableRecord
100
AcDbLinetypeTableRecord
  2
AM_DIN_F_W050x2
 70
     0
  3
 _ _ _ _ _ _ _ _ _ _ _ _
 72
    65
 73
     2
 40
3.125
 49
2.25
 74
     0
 49
-0.875
 74
     0
  0
LTYPE
  5
1B42
330
16F5
100
AcDbSymbolTableRecord
100
AcDbLinetypeTableRecord
  2
ACDINWELD
 70
     0
  3
_ _ _ _ _
 72
    65
 73
     2
 40
2.0
 49
2.0
 74
     0
 49
-1.0
 74
     0
  0
LTYPE
  5
1B43
330
16F5
100
AcDbSymbolTableRecord
100
AcDbLinetypeTableRecord
  2
ACDINTGB
 70
     0
  3
__ . . __ . .
 72
    65
 73
     6
 40
9.0
 49
4.0
 74
     0
 49
-1.0
 74
     0
 49
1.0
 74
     0
 49
-1.0
 74
     0
 49
1.0
 74
     0
 49
-1.0
 74
     0
  0
LTYPE
  5
1B44
330
16F5
100
AcDbSymbolTableRecord
100
AcDbLinetypeTableRecord
  2
ACDINTGL
 70
     0
  3
_ _ _ _ _
 72
    65
 73
     2
 40
3.0
 49
2.0
 74
     0
 49
-1.0
 74
     0
  0
ENDTAB
  0
TABLE
  2
LAYER
  5
16F2
330
0
100
AcDbSymbolTable
 70
     9
  0
LAYER
  5
16FE
330
16F2
100
AcDbSymbolTableRecord
100
AcDbLayerTableRecord
  2
0
 70
     0
 62
     7
  6
CONTINUOUS
370
    -3
390
1AB4
  0
LAYER
  5
1719
330
16F2
100
AcDbSymbolTableRecord
100
AcDbLayerTableRecord
  2
4
 70
     0
 62
     3
  6
CONTINUOUS
370
    -3
390
1AB4
  0
LAYER
  5
171A
330
16F2
100
AcDbSymbolTableRecord
100
AcDbLayerTableRecord
  2
4A
 70
     0
 62
     3
  6
GEN4A
370
    -3
390
1AB4
  0
LAYER
  5
171B
330
16F2
100
AcDbSymbolTableRecord
100
AcDbLayerTableRecord
  2
5
 70
     0
 62
     3
  6
CONTINUOUS
370
    -3
390
1AB4
  0
LAYER
  5
171F
330
16F2
100
AcDbSymbolTableRecord
100
AcDbLayerTableRecord
  2
SCHRAFFUR_RAND
 70
     0
 62
    36
  6
CONTINUOUS
370
    -3
390
1AB4
  0
LAYER
  5
174D
330
16F2
100
AcDbSymbolTableRecord
100
AcDbLayerTableRecord
  2
DEFPOINTS
 70
     0
 62
     7
  6
CONTINUOUS
290
     0
370
    -3
390
1AB4
  0
LAYER
  5
175D
330
16F2
100
AcDbSymbolTableRecord
100
AcDbLayerTableRecord
  2
8
 70
     0
 62
     1
  6
CONTINUOUS
370
    -3
390
1AB4
  0
ENDTAB
  0
TABLE
  2
STYLE
  5
16F3
330
0
100
AcDbSymbolTable
 70
     4
  0
STYLE
  5
16FF
330
16F3
100
AcDbSymbolTableRecord
100
AcDbTextStyleTableRecord
  2
STANDARD
 70
     0
 40
0.0
 41
1.0
 50
0.0
 71
     0
 42
12.5
  3
ISOCP.SHX
  4

  0
STYLE
  5
1B2D
330
16F3
100
AcDbSymbolTableRecord
100
AcDbTextStyleTableRecord
  2

 70
     1
 40
0.0
 41
1.0
 50
0.0
 71
     0
 42
0.2
  3
genltshp.shx
  4

  0
STYLE
  5
1B34
330
16F3
100
AcDbSymbolTableRecord
100
AcDbTextStyleTableRecord
  2
ACDINTS
 70
     0
 40
1.0
 41
1.0
 50
0.0
 71
     0
 42
0.2
  3
isocp.shx
  4

  0
STYLE
  5
1B41
330
16F3
100
AcDbSymbolTableRecord
100
AcDbTextStyleTableRecord
  2
ACDINGDT
 70
     0
 40
0.0
 41
1.0
 50
0.0
 71
     0
 42
0.2
  3
AMGDT
  4

  0
ENDTAB
  0
TABLE
  2
VIEW
  5
16F6
330
0
100
AcDbSymbolTable
 70
     6
  0
VIEW
  5
1901
330
16F6
100
AcDbSymbolTableRecord
100
AcDbViewTableRecord
  2
GEN1
 70
     0
 40
525.0
 10
403.491903
 20
787.5
 41
806.983806
 11
0.0
 21
0.0
 31
1.0
 12
0.0
 22
0.0
 32
0.0
 42
50.0
 43
0.0
 44
0.0
 50
0.0
 71
     0
281
     0
 72
     0
  0
VIEW
  5
1902
330
16F6
100
AcDbSymbolTableRecord
100
AcDbViewTableRecord
  2
GEN2
 70
     0
 40
525.0
 10
646.508097
 20
787.5
 41
806.983806
 11
0.0
 21
0.0
 31
1.0
 12
0.0
 22
0.0
 32
0.0
 42
50.0
 43
0.0
 44
0.0
 50
0.0
 71
     0
281
     0
 72
     0
  0
VIEW
  5
1903
330
16F6
100
AcDbSymbolTableRecord
100
AcDbViewTableRecord
  2
GEN3
 70
     0
 40
525.0
 10
403.491903
 20
262.5
 41
806.983806
 11
0.0
 21
0.0
 31
1.0
 12
0.0
 22
0.0
 32
0.0
 42
50.0
 43
0.0
 44
0.0
 50
0.0
 71
     0
281
     0
 72
     0
  0
VIEW
  5
1904
330
16F6
100
AcDbSymbolTableRecord
100
AcDbViewTableRecord
  2
GEN4
 70
     0
 40
525.0
 10
646.508097
 20
262.5
 41
806.983806
 11
0.0
 21
0.0
 31
1.0
 12
0.0
 22
0.0
 32
0.0
 42
50.0
 43
0.0
 44
0.0
 50
0.0
 71
     0
281
     0
 72
     0
  0
VIEW
  5
1905
330
16F6
100
AcDbSymbolTableRecord
100
AcDbViewTableRecord
  2
GEN5
 70
     0
 40
525.0
 10
525.0
 20
525.0
 41
806.983806
 11
0.0
 21
0.0
 31
1.0
 12
0.0
 22
0.0
 32
0.0
 42
50.0
 43
0.0
 44
0.0
 50
0.0
 71
     0
281
     0
 72
     0
  0
VIEW
  5
1906
330
16F6
100
AcDbSymbolTableRecord
100
AcDbViewTableRecord
  2
GEN6
 70
     0
 40
1049.9895
 10
525.0
 20
525.0
 41
1613.951472
 11
0.0
 21
0.0
 31
1.0
 12
0.0
 22
0.0
 32
0.0
 42
50.0
 43
0.0
 44
0.0
 50
0.0
 71
     0
281
     0
 72
     0
  0
ENDTAB
  0
TABLE
  2
UCS
  5
16F7
330
0
100
AcDbSymbolTable
 70
     0
  0
ENDTAB
  0
TABLE
  2
APPID
  5
16F9
330
0
100
AcDbSymbolTable
 70
    38
  0
APPID
  5
1700
330
16F9
100
AcDbSymbolTableRecord
100
AcDbRegAppTableRecord
  2
ACAD
 70
     0
  0
APPID
  5
173B
330
16F9
100
AcDbSymbolTableRecord
100
AcDbRegAppTableRecord
  2
GENIUS_GENOENT_13
 70
     0
  0
APPID
  5
173C
330
16F9
100
AcDbSymbolTableRecord
100
AcDbRegAppTableRecord
  2
GENIUS_GENCFG_13
 70
     0
1001
GENIUS_DUMCFG0_13
1000
DUM
1001
GENIUS_GENCFG0_13
1000
GEN@INFO_POS@XLATE
1001
GENIUS_GENCFG1_13
1000
GEN@INFO_POS
1001
GENIUS_GENCFG2_13
1000
GEN@LAYER@DEFS
1001
GENIUS_GENCFG3_13
1000
GEN@LAYER@ENTSORT
1001
GENIUS_GENCFG4_13
1000
GEN
1001
GENIUS_GEVCFG0_13
1000
GEV
  0
APPID
  5
173D
330
16F9
100
AcDbSymbolTableRecord
100
AcDbRegAppTableRecord
  2
GENIUS_DUMCFG0_13
 70
     0
1001
GENIUS_GENCFG_13
1071
922111061
1000
173D
1000
DUM
1070
     0
  0
APPID
  5
173E
330
16F9
100
AcDbSymbolTableRecord
100
AcDbRegAppTableRecord
  2
GENIUS_GENCFG0_13
 70
     0
1001
GENIUS_GENCFG_13
1071
1043070648
1000
173E
1000
GEN@INFO_POS@XLATE
1070
     7
1000
GenCfgObject
1000
GenCfgShort
1000
GenCfgReal
1000
GenCfgBool
1000
GenCfgString
1000
GenCfgDim
1000
GenCfgAttrInf
1000
INFOPOINTS
1070
     0
1002
{
1000
GENINF14
1070
     0
1002
{
1000
2GENINF
1070
     4
1000
2
1002
{
1002
}
1000
5GENINF
1070
     4
1000
5
1002
{
1002
}
1000
7GENINF
1070
     4
1000
7
1002
{
1002
}
1000
9GENINF
1070
     4
1000
9
1002
{
1002
}
1000
11GENINF
1070
     4
1000
11
1002
{
1002
}
1000
14GENINF
1070
     4
1000
14
1002
{
1002
}
1002
}
1000
GENINF13
1070
     0
1002
{
1000
2GENINF
1070
     4
1000
2
1002
{
1002
}
1000
3GENINF
1070
     4
1000
3
1002
{
1002
}
1000
4GENINF
1070
     4
1000
4
1002
{
1002
}
1000
5GENINF
1070
     4
1000
5
1002
{
1002
}
1000
6GENINF
1070
     4
1000
6
1002
{
1002
}
1000
7GENINF
1070
     4
1000
7
1002
{
1002
}
1000
8GENINF
1070
     4
1000
8
1002
{
1002
}
1000
9GENINF
1070
     4
1000
9
1002
{
1002
}
1000
10GENINF
1070
     4
1000
10
1002
{
1002
}
1000
11GENINF
1070
     4
1000
11
1002
{
1002
}
1000
12GENINF
1070
     4
1000
12
1002
{
1002
}
1000
13GENINF
1070
     4
1000
13
1002
{
1002
}
1000
14GENINF
1070
     4
1000
14
1002
{
1002
}
1000
15GENINF
1070
     4
1000
15
1002
{
1002
}
1000
16GENINF
1070
     4
1000
16
1002
{
1002
}
1000
17GENINF
1070
     4
1000
17
1002
{
1002
}
1000
18GENINF
1070
     4
1000
18
1002
{
1002
}
1000
19GENINF
1070
     4
1000
19
1002
{
1002
}
1000
20GENINF
1070
     4
1000
20
1002
{
1002
}
1000
21GENINF
1070
     4
1000
21
1002
{
1002
}
1000
22GENINF
1070
     4
1000
22
1002
{
1002
}
1000
23GENINF
1070
     4
1000
23
1002
{
1002
}
1000
24GENINF
1070
     4
1000
24
1002
{
1002
}
1000
0GENINF
1070
     4
1000
0
1002
{
1002
}
1002
}
1000
GENINFO
1070
     0
1002
{
1000
3GENINF
1070
     4
1000
3
1002
{
1002
}
1000
4GENINF
1070
     4
1000
4
1002
{
1002
}
1000
5GENINF
1070
     4
1000
5
1002
{
1002
}
1000
6GENINF
1070
     4
1000
6
1002
{
1002
}
1000
7GENINF
1070
     4
1000
7
1002
{
1002
}
1000
8GENINF
1070
     4
1000
8
1002
{
1002
}
1000
9GENINF
1070
     4
1000
9
1002
{
1002
}
1000
10GENINF
1070
     4
1000
10
1002
{
1002
}
1000
11GENINF
1070
     4
1000
11
1002
{
1002
}
1000
12GENINF
1070
     4
1000
12
1002
{
1002
}
1000
13GENINF
1070
     4
1000
13
1002
{
1002
}
1000
14GENINF
1070
     4
1000
14
1002
{
1002
}
1000
15GENINF
1070
     4
1000
15
1002
{
1002
}
1000
16GENINF
1070
     4
1000
16
1002
{
1002
}
1000
17GENINF
1070
     4
1000
17
1002
{
1002
}
1000
18GENINF
1070
     4
1000
18
1002
{
1002
}
1000
19GENINF
1070
     4
1000
19
1002
{
1002
}
1000
20GENINF
1070
     4
1000
20
1002
{
1002
}
1000
21GENINF
1070
     4
1000
21
1002
{
1002
}
1000
22GENINF
1070
     4
1000
22
1002
{
1002
}
1002
}
1000
DININFO
1070
     0
1002
{
1000
ST-NAME1
1070
     4
1000
5
1002
{
1002
}
1000
ST-NAME2
1070
     4
1000
6
1002
{
1002
}
1000
ST-NORM1
1070
     4
1000
7
1002
{
1002
}
1000
ST-NORM2
1070
     4
1000
8
1002
{
1002
}
1000
ST-MAT1
1070
     4
1000
9
1002
{
1002
}
1000
ST-MAT2
1070
     4
1000
10
1002
{
1002
}
1002
}
1002
}
1000
POS_NUMBERS
1070
     0
1002
{
1000
GENPOS14
1070
     0
1002
{
1000
1GENPOS
1070
     4
1000
1
1002
{
1002
}
1000
2GENPOS
1070
     4
1000
2
1002
{
1002
}
1000
5GENPOS
1070
     4
1000
5
1002
{
1002
}
1000
7GENPOS
1070
     4
1000
7
1002
{
1002
}
1000
9GENPOS
1070
     4
1000
9
1002
{
1002
}
1000
11GENPOS
1070
     4
1000
11
1002
{
1002
}
1000
14GENPOS
1070
     4
1000
14
1002
{
1002
}
1002
}
1000
GENPOS13
1070
     0
1002
{
1000
1GENPOS
1070
     4
1000
1
1002
{
1002
}
1000
2GENPOS
1070
     4
1000
2
1002
{
1002
}
1000
3GENPOS
1070
     4
1000
3
1002
{
1002
}
1000
4GENPOS
1070
     4
1000
4
1002
{
1002
}
1000
5GENPOS
1070
     4
1000
5
1002
{
1002
}
1000
6GENPOS
1070
     4
1000
6
1002
{
1002
}
1000
7GENPOS
1070
     4
1000
7
1002
{
1002
}
1000
8GENPOS
1070
     4
1000
8
1002
{
1002
}
1000
9GENPOS
1070
     4
1000
9
1002
{
1002
}
1000
10GENPOS
1070
     4
1000
10
1002
{
1002
}
1000
11GENPOS
1070
     4
1000
11
1002
{
1002
}
1000
12GENPOS
1070
     4
1000
12
1002
{
1002
}
1000
13GENPOS
1070
     4
1000
13
1002
{
1002
}
1000
14GENPOS
1070
     4
1000
14
1002
{
1002
}
1000
15GENPOS
1070
     4
1000
15
1002
{
1002
}
1000
16GENPOS
1070
     4
1000
16
1002
{
1002
}
1000
17GENPOS
1070
     4
1000
17
1002
{
1002
}
1000
18GENPOS
1070
     4
1000
18
1002
{
1002
}
1000
19GENPOS
1070
     4
1000
19
1002
{
1002
}
1000
20GENPOS
1070
     4
1000
20
1002
{
1002
}
1000
21GENPOS
1070
     4
1000
21
1002
{
1002
}
1000
22GENPOS
1070
     4
1000
22
1002
{
1002
}
1000
23GENPOS
1070
     4
1000
23
1002
{
1002
}
1000
24GENPOS
1070
     4
1000
24
1002
{
1002
}
1000
0GENPOS
1070
     4
1000
0
1002
{
1002
}
1002
}
1000
GENPOS
1070
     0
1002
{
1000
1GENPOS
1070
     4
1000
1
1002
{
1002
}
1000
2GENPOS
1070
     4
1000
2
1002
{
1002
}
1000
3GENPOS
1070
     4
1000
3
1002
{
1002
}
1000
4GENPOS
1070
     4
1000
4
1002
{
1002
}
1000
5GENPOS
1070
     4
1000
5
1002
{
1002
}
1000
6GENPOS
1070
     4
1000
6
1002
{
1002
}
1000
7GENPOS
1070
     4
1000
7
1002
{
1002
}
1000
8GENPOS
1070
     4
1000
8
1002
{
1002
}
1000
9GENPOS
1070
     4
1000
9
1002
{
1002
}
1000
10GENPOS
1070
     4
1000
10
1002
{
1002
}
1000
11GENPOS
1070
     4
1000
11
1002
{
1002
}
1000
12GENPOS
1070
     4
1000
12
1002
{
1002
}
1000
13GENPOS
1070
     4
1000
13
1002
{
1002
}
1000
14GENPOS
1070
     4
1000
14
1002
{
1002
}
1000
15GENPOS
1070
     4
1000
15
1002
{
1002
}
1000
16GENPOS
1070
     4
1000
16
1002
{
1002
}
1000
17GENPOS
1070
     4
1000
17
1002
{
1002
}
1000
18GENPOS
1070
     4
1000
18
1002
{
1002
}
1000
19GENPOS
1070
     4
1000
19
1002
{
1002
}
1000
20GENPOS
1070
     4
1000
20
1002
{
1002
}
1000
21GENPOS
1070
     4
1000
21
1002
{
1002
}
1000
22GENPOS
1070
     4
1000
22
1002
{
1002
}
1000
23GENPOS
1070
     4
1000
23
1002
{
1002
}
1002
}
1000
DIN985
1070
     0
1002
{
1000
POSITION
1070
     4
1000
1
1002
{
1002
}
1000
MENGE
1070
     4
1000
2
1002
{
1002
}
1000
BLATT
1070
     4
1000
3
1002
{
1002
}
1000
BENENN
1070
     4
1000
5
1002
{
1002
}
1000
BENENN2
1070
     4
1000
6
1002
{
1002
}
1000
NORM
1070
     4
1000
7
1002
{
1002
}
1000
NORM2
1070
     4
1000
8
1002
{
1002
}
1000
WERKSTOFF
1070
     4
1000
9
1002
{
1002
}
1000
WERKSTOFF2
1070
     4
1000
10
1002
{
1002
}
1002
}
1000
DIN986
1070
     0
1002
{
1000
POSITION
1070
     4
1000
1
1002
{
1002
}
1000
MENGE
1070
     4
1000
2
1002
{
1002
}
1000
BLATT
1070
     4
1000
3
1002
{
1002
}
1000
BENENN
1070
     4
1000
5
1002
{
1002
}
1000
BENENN2
1070
     4
1000
6
1002
{
1002
}
1000
NORM
1070
     4
1000
7
1002
{
1002
}
1000
NORM2
1070
     4
1000
8
1002
{
1002
}
1000
WERKSTOFF
1070
     4
1000
9
1002
{
1002
}
1000
WERKSTOFF2
1070
     4
1000
10
1002
{
1002
}
1002
}
1000
DIN987
1070
     0
1002
{
1000
POSITION
1070
     4
1000
1
1002
{
1002
}
1000
MENGE
1070
     4
1000
2
1002
{
1002
}
1000
BLATT
1070
     4
1000
3
1002
{
1002
}
1000
BENENN
1070
     4
1000
5
1002
{
1002
}
1000
BENENN2
1070
     4
1000
6
1002
{
1002
}
1000
NORM
1070
     4
1000
7
1002
{
1002
}
1000
NORM2
1070
     4
1000
8
1002
{
1002
}
1000
WERKSTOFF
1070
     4
1000
9
1002
{
1002
}
1000
WERKSTOFF2
1070
     4
1000
10
1002
{
1002
}
1002
}
1002
}
  0
APPID
  5
173F
330
16F9
100
AcDbSymbolTableRecord
100
AcDbRegAppTableRecord
  2
GENIUS_GENCFG1_13
 70
     0
1001
GENIUS_GENCFG_13
1071
1043070648
1000
173F
1000
GEN@INFO_POS
1070
     7
1000
GenCfgObject
1000
GenCfgShort
1000
GenCfgReal
1000
GenCfgBool
1000
GenCfgString
1000
GenCfgDim
1000
GenCfgAttrInf
1000
DescrText
1070
     4
1000
5, ,6, ,7, ,8
1002
{
1002
}
1000
DescrText2
1070
     4
1000
26
1002
{
1002
}
1000
VisibleAttr1
1070
     4
1000
1
1002
{
1002
}
1000
VisibleAttr2
1070
     4
1000
26
1002
{
1002
}
1000
UpdateBlock
1070
     3
1070
     1
1002
{
1002
}
1000
Attrib
1070
     0
1002
{
1000
0
1070
     6
1002
{
1000
Prompt
1070
     4
1000
(genmsg gendwg 103)
1002
{
1002
}
1000
Value
1070
     4
1000

1002
{
1002
}
1000
EditFlag
1070
     1
1070
     0
1002
{
1002
}
1000
PosInDDATTE
1070
     1
1070
    27
1002
{
1002
}
1000
FieldLen
1070
     1
1070
    -1
1002
{
1002
}
1002
}
1000
1
1070
     6
1002
{
1000
Prompt
1070
     4
1000
(genmsg gendwg 31)
1002
{
1002
}
1000
Value
1070
     4
1000
1
1002
{
1002
}
1000
EditFlag
1070
     1
1070
     1
1002
{
1002
}
1000
PosInDDATTE
1070
     1
1070
     1
1002
{
1002
}
1000
FieldLen
1070
     1
1070
    -1
1002
{
1002
}
1002
}
1000
2
1070
     6
1002
{
1000
Prompt
1070
     4
1000
(genmsg gendwg 32)
1002
{
1002
}
1000
Value
1070
     4
1000
1
1002
{
1002
}
1000
EditFlag
1070
     1
1070
     1
1002
{
1002
}
1000
PosInDDATTE
1070
     1
1070
     2
1002
{
1002
}
1000
FieldLen
1070
     1
1070
    -1
1002
{
1002
}
1002
}
1000
3
1070
     6
1002
{
1000
Prompt
1070
     4
1000
(genmsg gendwg 33)
1002
{
1002
}
1000
Value
1070
     4
1000

1002
{
1002
}
1000
EditFlag
1070
     1
1070
     1
1002
{
1002
}
1000
PosInDDATTE
1070
     1
1070
     3
1002
{
1002
}
1000
FieldLen
1070
     1
1070
    -1
1002
{
1002
}
1002
}
1000
4
1070
     6
1002
{
1000
Prompt
1070
     4
1000
(genmsg gendwg 34)
1002
{
1002
}
1000
Value
1070
     4
1000

1002
{
1002
}
1000
EditFlag
1070
     1
1070
     1
1002
{
1002
}
1000
PosInDDATTE
1070
     1
1070
     4
1002
{
1002
}
1000
FieldLen
1070
     1
1070
    -1
1002
{
1002
}
1002
}
1000
5
1070
     6
1002
{
1000
Prompt
1070
     4
1000
(genmsg gendwg 35)
1002
{
1002
}
1000
Value
1070
     4
1000

1002
{
1002
}
1000
EditFlag
1070
     1
1070
     1
1002
{
1002
}
1000
PosInDDATTE
1070
     1
1070
     5
1002
{
1002
}
1000
FieldLen
1070
     1
1070
    -1
1002
{
1002
}
1002
}
1000
6
1070
     6
1002
{
1000
Prompt
1070
     4
1000
(genmsg gendwg 36)
1002
{
1002
}
1000
Value
1070
     4
1000

1002
{
1002
}
1000
EditFlag
1070
     1
1070
     1
1002
{
1002
}
1000
PosInDDATTE
1070
     1
1070
     6
1002
{
1002
}
1000
FieldLen
1070
     1
1070
    -1
1002
{
1002
}
1002
}
1000
7
1070
     6
1002
{
1000
Prompt
1070
     4
1000
(genmsg gendwg 37)
1002
{
1002
}
1000
Value
1070
     4
1000

1002
{
1002
}
1000
EditFlag
1070
     1
1070
     1
1002
{
1002
}
1000
PosInDDATTE
1070
     1
1070
     7
1002
{
1002
}
1000
FieldLen
1070
     1
1070
    -1
1002
{
1002
}
1002
}
1000
8
1070
     6
1002
{
1000
Prompt
1070
     4
1000
(genmsg gendwg 38)
1002
{
1002
}
1000
Value
1070
     4
1000

1002
{
1002
}
1000
EditFlag
1070
     1
1070
     1
1002
{
1002
}
1000
PosInDDATTE
1070
     1
1070
     8
1002
{
1002
}
1000
FieldLen
1070
     1
1070
    -1
1002
{
1002
}
1002
}
1000
9
1070
     6
1002
{
1000
Prompt
1070
     4
1000
(genmsg gendwg 39)
1002
{
1002
}
1000
Value
1070
     4
1000

1002
{
1002
}
1000
EditFlag
1070
     1
1070
     1
1002
{
1002
}
1000
PosInDDATTE
1070
     1
1070
     9
1002
{
1002
}
1000
FieldLen
1070
     1
1070
    -1
1002
{
1002
}
1002
}
1000
10
1070
     6
1002
{
1000
Prompt
1070
     4
1000
(genmsg gendwg 40)
1002
{
1002
}
1000
Value
1070
     4
1000

1002
{
1002
}
1000
EditFlag
1070
     1
1070
     1
1002
{
1002
}
1000
PosInDDATTE
1070
     1
1070
    10
1002
{
1002
}
1000
FieldLen
1070
     1
1070
    -1
1002
{
1002
}
1002
}
1000
11
1070
     6
1002
{
1000
Prompt
1070
     4
1000
(genmsg gendwg 41)
1002
{
1002
}
1000
Value
1070
     4
1000

1002
{
1002
}
1000
EditFlag
1070
     1
1070
     1
1002
{
1002
}
1000
PosInDDATTE
1070
     1
1070
    11
1002
{
1002
}
1000
FieldLen
1070
     1
1070
    -1
1002
{
1002
}
1002
}
1000
12
1070
     6
1002
{
1000
Prompt
1070
     4
1000
(genmsg gendwg 42)
1002
{
1002
}
1000
Value
1070
     4
1000

1002
{
1002
}
1000
EditFlag
1070
     1
1070
     1
1002
{
1002
}
1000
PosInDDATTE
1070
     1
1070
    12
1002
{
1002
}
1000
FieldLen
1070
     1
1070
    -1
1002
{
1002
}
1002
}
1000
13
1070
     6
1002
{
1000
Prompt
1070
     4
1000
(genmsg gendwg 43)
1002
{
1002
}
1000
Value
1070
     4
1000

1002
{
1002
}
1000
EditFlag
1070
     1
1070
     1
1002
{
1002
}
1000
PosInDDATTE
1070
     1
1070
    13
1002
{
1002
}
1000
FieldLen
1070
     1
1070
    -1
1002
{
1002
}
1002
}
1000
14
1070
     6
1002
{
1000
Prompt
1070
     4
1000
(genmsg gendwg 44)
1002
{
1002
}
1000
Value
1070
     4
1000

1002
{
1002
}
1000
EditFlag
1070
     1
1070
     1
1002
{
1002
}
1000
PosInDDATTE
1070
     1
1070
    14
1002
{
1002
}
1000
FieldLen
1070
     1
1070
    -1
1002
{
1002
}
1002
}
1000
15
1070
     6
1002
{
1000
Prompt
1070
     4
1000
(genmsg gendwg 45)
1002
{
1002
}
1000
Value
1070
     4
1000

1002
{
1002
}
1000
EditFlag
1070
     1
1070
     1
1002
{
1002
}
1000
PosInDDATTE
1070
     1
1070
    15
1002
{
1002
}
1000
FieldLen
1070
     1
1070
    -1
1002
{
1002
}
1002
}
1000
16
1070
     6
1002
{
1000
Prompt
1070
     4
1000
(genmsg gendwg 46)
1002
{
1002
}
1000
Value
1070
     4
1000

1002
{
1002
}
1000
EditFlag
1070
     1
1070
     1
1002
{
1002
}
1000
PosInDDATTE
1070
     1
1070
    16
1002
{
1002
}
1000
FieldLen
1070
     1
1070
    -1
1002
{
1002
}
1002
}
1000
17
1070
     6
1002
{
1000
Prompt
1070
     4
1000
(genmsg gendwg 47)
1002
{
1002
}
1000
Value
1070
     4
1000

1002
{
1002
}
1000
EditFlag
1070
     1
1070
     1
1002
{
1002
}
1000
PosInDDATTE
1070
     1
1070
    17
1002
{
1002
}
1000
FieldLen
1070
     1
1070
    -1
1002
{
1002
}
1002
}
1000
18
1070
     6
1002
{
1000
Prompt
1070
     4
1000
(genmsg gendwg 48)
1002
{
1002
}
1000
Value
1070
     4
1000

1002
{
1002
}
1000
EditFlag
1070
     1
1070
     1
1002
{
1002
}
1000
PosInDDATTE
1070
     1
1070
    18
1002
{
1002
}
1000
FieldLen
1070
     1
1070
    -1
1002
{
1002
}
1002
}
1000
19
1070
     6
1002
{
1000
Prompt
1070
     4
1000
(genmsg gendwg 99)
1002
{
1002
}
1000
Value
1070
     4
1000

1002
{
1002
}
1000
EditFlag
1070
     1
1070
     1
1002
{
1002
}
1000
PosInDDATTE
1070
     1
1070
    19
1002
{
1002
}
1000
FieldLen
1070
     1
1070
    -1
1002
{
1002
}
1002
}
1000
20
1070
     6
1002
{
1000
Prompt
1070
     4
1000
(genmsg gendwg 100)
1002
{
1002
}
1000
Value
1070
     4
1000

1002
{
1002
}
1000
EditFlag
1070
     1
1070
     1
1002
{
1002
}
1000
PosInDDATTE
1070
     1
1070
    20
1002
{
1002
}
1000
FieldLen
1070
     1
1070
    -1
1002
{
1002
}
1002
}
1000
21
1070
     6
1002
{
1000
Prompt
1070
     4
1000
(genmsg gendwg 101)
1002
{
1002
}
1000
Value
1070
     4
1000

1002
{
1002
}
1000
EditFlag
1070
     1
1070
     1
1002
{
1002
}
1000
PosInDDATTE
1070
     1
1070
    21
1002
{
1002
}
1000
FieldLen
1070
     1
1070
    -1
1002
{
1002
}
1002
}
1000
22
1070
     6
1002
{
1000
Prompt
1070
     4
1000
(genmsg gendwg 102)
1002
{
1002
}
1000
Value
1070
     4
1000

1002
{
1002
}
1000
EditFlag
1070
     1
1070
     1
1002
{
1002
}
1000
PosInDDATTE
1070
     1
1070
    22
1002
{
1002
}
1000
FieldLen
1070
     1
1070
    -1
1002
{
1002
}
1002
}
1000
23
1070
     6
1002
{
1000
Prompt
1070
     4
1000
(genmsg gendwg 30)
1002
{
1002
}
1000
Value
1070
     4
1000

1002
{
1002
}
1000
EditFlag
1070
     1
1070
     1
1002
{
1002
}
1000
PosInDDATTE
1070
     1
1070
    23
1002
{
1002
}
1000
FieldLen
1070
     1
1070
    -1
1002
{
1002
}
1002
}
1000
24
1070
     6
1002
{
1000
Prompt
1070
     4
1000
(genmsg gendwg 104)
1002
{
1002
}
1000
Value
1070
     4
1000

1002
{
1002
}
1000
EditFlag
1070
     1
1070
     1
1002
{
1002
}
1000
PosInDDATTE
1070
     1
1070
    24
1002
{
1002
}
1000
FieldLen
1070
     1
1070
    -1
1002
{
1002
}
1002
}
1000
25
1070
     6
1002
{
1000
Prompt
1070
     4
1000
(genmsg gendwg 105)
1002
{
1002
}
1000
Value
1070
     4
1000

1002
{
1002
}
1000
EditFlag
1070
     1
1070
     1
1002
{
1002
}
1000
PosInDDATTE
1070
     1
1070
    25
1002
{
1002
}
1000
FieldLen
1070
     1
1070
    -1
1002
{
1002
}
1002
}
1000
26
1070
     6
1002
{
1000
Prompt
1070
     4
1000
(genmsg gendwg 106)
1002
{
1002
}
1000
Value
1070
     4
1000

1002
{
1002
}
1000
EditFlag
1070
     1
1070
     1
1002
{
1002
}
1000
PosInDDATTE
1070
     1
1070
    26
1002
{
1002
}
1000
FieldLen
1070
     1
1070
    -1
1002
{
1002
}
1002
}
1000
27
1070
     6
1002
{
1000
Prompt
1070
     4
1000
(genmsg gendwg 109)
1002
{
1002
}
1000
Value
1070
     4
1000

1002
{
1002
}
1000
EditFlag
1070
     1
1070
     2
1002
{
1002
}
1000
PosInDDATTE
1070
     1
1070
    27
1002
{
1002
}
1000
FieldLen
1070
     1
1070
    -1
1002
{
1002
}
1002
}
1002
}
1000
Xlate
1070
     0
1002
{
1000
>
1002
}
  0
APPID
  5
1740
330
16F9
100
AcDbSymbolTableRecord
100
AcDbRegAppTableRecord
  2
GENIUS_GENCFG2_13
 70
     0
1001
GENIUS_GENCFG_13
1071
1043070648
1000
1740
1000
GEN@LAYER@DEFS
1070
     9
1000
GenCfgObject
1000
GenCfgShort
1000
GenCfgReal
1000
GenCfgBool
1000
GenCfgString
1000
GenCfgDim
1000
GenCfgAttrInf
1000
GenCfgLaySection
1000
GenCfgLayer
1000
Basic
1070
     0
1002
{
1000
0
1070
     8
1000
0
1002
{
1000
Color
1070
     1
1070
     7
1002
{
1002
}
1000
LType
1070
     4
1000
CONTINUOUS
1002
{
1002
}
1000
Base
1070
     3
1070
     0
1002
{
1002
}
1002
}
1000
1
1070
     8
1000
1
1002
{
1000
Color
1070
     1
1070
    14
1002
{
1002
}
1000
LType
1070
     4
1000
CONTINUOUS
1002
{
1002
}
1000
Base
1070
     3
1070
     0
1002
{
1002
}
1002
}
1000
2
1070
     8
1000
2
1002
{
1000
Color
1070
     1
1070
     5
1002
{
1002
}
1000
LType
1070
     4
1000
CONTINUOUS
1002
{
1002
}
1000
Base
1070
     3
1070
     0
1002
{
1002
}
1002
}
1000
3
1070
     8
1000
3
1002
{
1000
Color
1070
     1
1070
     6
1002
{
1002
}
1000
LType
1070
     4
1000
GEN3
1002
{
1002
}
1000
Base
1070
     3
1070
     0
1002
{
1002
}
1002
}
1000
4
1070
     8
1000
4
1002
{
1000
Color
1070
     1
1070
     3
1002
{
1002
}
1000
LType
1070
     4
1000
CONTINUOUS
1002
{
1002
}
1000
Base
1070
     3
1070
     0
1002
{
1002
}
1002
}
1000
5
1070
     8
1000
5
1002
{
1000
Color
1070
     1
1070
     3
1002
{
1002
}
1000
LType
1070
     4
1000
CONTINUOUS
1002
{
1002
}
1000
Base
1070
     3
1070
     0
1002
{
1002
}
1002
}
1000
6
1070
     8
1000
6
1002
{
1000
Color
1070
     1
1070
     2
1002
{
1002
}
1000
LType
1070
     4
1000
CONTINUOUS
1002
{
1002
}
1000
Base
1070
     3
1070
     0
1002
{
1002
}
1002
}
1000
7
1070
     8
1000
7
1002
{
1000
Color
1070
     1
1070
     4
1002
{
1002
}
1000
LType
1070
     4
1000
GEN7
1002
{
1002
}
1000
Base
1070
     3
1070
     0
1002
{
1002
}
1002
}
1000
8
1070
     8
1000
8
1002
{
1000
Color
1070
     1
1070
     1
1002
{
1002
}
1000
LType
1070
     4
1000
CONTINUOUS
1002
{
1002
}
1000
Base
1070
     3
1070
     0
1002
{
1002
}
1002
}
1000
3A
1070
     8
1000
3A
1002
{
1000
Color
1070
     1
1070
     6
1002
{
1002
}
1000
LType
1070
     4
1000
GEN3A
1002
{
1002
}
1000
Base
1070
     3
1070
     0
1002
{
1002
}
1002
}
1000
7A
1070
     8
1000
7A
1002
{
1000
Color
1070
     1
1070
     4
1002
{
1002
}
1000
LType
1070
     4
1000
GEN7A
1002
{
1002
}
1000
Base
1070
     3
1070
     0
1002
{
1002
}
1002
}
1000
2A
1070
     8
1000
2A
1002
{
1000
Color
1070
     1
1070
     7
1002
{
1002
}
1000
LType
1070
     4
1000
GEN7
1002
{
1002
}
1000
Base
1070
     3
1070
     0
1002
{
1002
}
1002
}
1000
4A
1070
     8
1000
4A
1002
{
1000
Color
1070
     1
1070
     3
1002
{
1002
}
1000
LType
1070
     4
1000
GEN4A
1002
{
1002
}
1000
Base
1070
     3
1070
     0
1002
{
1002
}
1002
}
1000
9
1070
     8
1000
9
1002
{
1000
Color
1070
     1
1070
   253
1002
{
1002
}
1000
LType
1070
     4
1000
CONTINUOUS
1002
{
1002
}
1000
Base
1070
     3
1070
     0
1002
{
1002
}
1002
}
1000
IP
1070
     8
1000
IP
1002
{
1000
Color
1070
     1
1070
     7
1002
{
1002
}
1000
LType
1070
     4
1000
CONTINUOUS
1002
{
1002
}
1000
Base
1070
     3
1070
     0
1002
{
1002
}
1002
}
1002
}
1000
Standard
1070
     0
1002
{
1000
0N
1070
     8
1000
0N
1002
{
1000
Color
1070
     1
1070
     7
1002
{
1002
}
1000
LType
1070
     4
1000
CONTINUOUS
1002
{
1002
}
1000
Base
1070
     3
1070
     0
1002
{
1002
}
1002
}
1000
1N
1070
     8
1000
1N
1002
{
1000
Color
1070
     1
1070
    14
1002
{
1002
}
1000
LType
1070
     4
1000
CONTINUOUS
1002
{
1002
}
1000
Base
1070
     3
1070
     0
1002
{
1002
}
1002
}
1000
2N
1070
     8
1000
2N
1002
{
1000
Color
1070
     1
1070
     5
1002
{
1002
}
1000
LType
1070
     4
1000
CONTINUOUS
1002
{
1002
}
1000
Base
1070
     3
1070
     0
1002
{
1002
}
1002
}
1000
3N
1070
     8
1000
3N
1002
{
1000
Color
1070
     1
1070
     6
1002
{
1002
}
1000
LType
1070
     4
1000
GEN3
1002
{
1002
}
1000
Base
1070
     3
1070
     0
1002
{
1002
}
1002
}
1000
4N
1070
     8
1000
4N
1002
{
1000
Color
1070
     1
1070
     3
1002
{
1002
}
1000
LType
1070
     4
1000
CONTINUOUS
1002
{
1002
}
1000
Base
1070
     3
1070
     0
1002
{
1002
}
1002
}
1000
5N
1070
     8
1000
5N
1002
{
1000
Color
1070
     1
1070
     3
1002
{
1002
}
1000
LType
1070
     4
1000
CONTINUOUS
1002
{
1002
}
1000
Base
1070
     3
1070
     0
1002
{
1002
}
1002
}
1000
6N
1070
     8
1000
6N
1002
{
1000
Color
1070
     1
1070
     2
1002
{
1002
}
1000
LType
1070
     4
1000
CONTINUOUS
1002
{
1002
}
1000
Base
1070
     3
1070
     0
1002
{
1002
}
1002
}
1000
7N
1070
     8
1000
7N
1002
{
1000
Color
1070
     1
1070
     4
1002
{
1002
}
1000
LType
1070
     4
1000
GEN7
1002
{
1002
}
1000
Base
1070
     3
1070
     0
1002
{
1002
}
1002
}
1000
8N
1070
     8
1000
8N
1002
{
1000
Color
1070
     1
1070
     1
1002
{
1002
}
1000
LType
1070
     4
1000
CONTINUOUS
1002
{
1002
}
1000
Base
1070
     3
1070
     0
1002
{
1002
}
1002
}
1000
3AN
1070
     8
1000
3AN
1002
{
1000
Color
1070
     1
1070
     6
1002
{
1002
}
1000
LType
1070
     4
1000
GEN3A
1002
{
1002
}
1000
Base
1070
     3
1070
     0
1002
{
1002
}
1002
}
1000
7AN
1070
     8
1000
7AN
1002
{
1000
Color
1070
     1
1070
     4
1002
{
1002
}
1000
LType
1070
     4
1000
GEN7A
1002
{
1002
}
1000
Base
1070
     3
1070
     0
1002
{
1002
}
1002
}
1000
2AN
1070
     8
1000
2AN
1002
{
1000
Color
1070
     1
1070
     7
1002
{
1002
}
1000
LType
1070
     4
1000
GEN7
1002
{
1002
}
1000
Base
1070
     3
1070
     0
1002
{
1002
}
1002
}
1000
4AN
1070
     8
1000
4AN
1002
{
1000
Color
1070
     1
1070
     3
1002
{
1002
}
1000
LType
1070
     4
1000
GEN4A
1002
{
1002
}
1000
Base
1070
     3
1070
     0
1002
{
1002
}
1002
}
1000
9N
1070
     8
1000
9N
1002
{
1000
Color
1070
     1
1070
   253
1002
{
1002
}
1000
LType
1070
     4
1000
CONTINUOUS
1002
{
1002
}
1000
Base
1070
     3
1070
     0
1002
{
1002
}
1002
}
1000
IPN
1070
     8
1000
IPN
1002
{
1000
Color
1070
     1
1070
     7
1002
{
1002
}
1000
LType
1070
     4
1000
CONTINUOUS
1002
{
1002
}
1000
Base
1070
     3
1070
     0
1002
{
1002
}
1002
}
1002
}
1000
Extra
1070
     0
1002
{
1000
Klin
1070
     8
1000
KLIN
1002
{
1000
Color
1070
     1
1070
     1
1002
{
1002
}
1000
LType
1070
     4
1000
CONTINUOUS
1002
{
1002
}
1000
Base
1070
     3
1070
     1
1002
{
1002
}
1002
}
1000
Info
1070
     8
1000
INFO
1002
{
1000
Color
1070
     1
1070
     4
1002
{
1002
}
1000
LType
1070
     4
1000
CONTINUOUS
1002
{
1002
}
1000
Base
1070
     3
1070
     1
1002
{
1002
}
1002
}
1000
Rahm2
1070
     8
1000
RAHM2
1002
{
1000
Color
1070
     1
1070
     1
1002
{
1002
}
1000
LType
1070
     4
1000
CONTINUOUS
1002
{
1002
}
1000
Base
1070
     3
1070
     1
1002
{
1002
}
1002
}
1000
Rahm3
1070
     8
1000
RAHM3
1002
{
1000
Color
1070
     1
1070
     2
1002
{
1002
}
1000
LType
1070
     4
1000
CONTINUOUS
1002
{
1002
}
1000
Base
1070
     3
1070
     1
1002
{
1002
}
1002
}
1000
Rahm5
1070
     8
1000
RAHM5
1002
{
1000
Color
1070
     1
1070
     7
1002
{
1002
}
1000
LType
1070
     4
1000
CONTINUOUS
1002
{
1002
}
1000
Base
1070
     3
1070
     1
1002
{
1002
}
1002
}
1000
View
1070
     8
1000
VIEW
1002
{
1000
Color
1070
     1
1070
     1
1002
{
1002
}
1000
LType
1070
     4
1000
CONTINUOUS
1002
{
1002
}
1000
Base
1070
     3
1070
     1
1002
{
1002
}
1002
}
1000
Behind
1070
     8
1000
BEHIND
1002
{
1000
Color
1070
     1
1070
   253
1002
{
1002
}
1000
LType
1070
     4
1000
CONTINUOUS
1002
{
1002
}
1000
Base
1070
     3
1070
     1
1002
{
1002
}
1002
}
1002
}
  0
APPID
  5
1741
330
16F9
100
AcDbSymbolTableRecord
100
AcDbRegAppTableRecord
  2
GENIUS_GENCFG3_13
 70
     0
1001
GENIUS_GENCFG_13
1071
1043070648
1000
1741
1000
GEN@LAYER@ENTSORT
1070
    10
1000
GenCfgObject
1000
GenCfgShort
1000
GenCfgReal
1000
GenCfgBool
1000
GenCfgString
1000
GenCfgDim
1000
GenCfgAttrInf
1000
GenCfgLaySection
1000
GenCfgLayer
1000
GenCfgEntSort
1000
ADDL
1070
     9
1000
5
1002
{
1000
Class
1070
     4
1000
SYM
1002
{
1002
}
1000
Color
1070
     1
1070
     1
1002
{
1002
}
1000
LType
1070
     4
1000
BYLAYER
1002
{
1002
}
1002
}
1000
ALTR
1070
     9
1000
4
1002
{
1000
Class
1070
     4
1000

1002
{
1002
}
1000
Color
1070
     1
1070
     7
1002
{
1002
}
1000
LType
1070
     4
1000
GEN3A
1002
{
1002
}
1002
}
1000
BELI
1070
     9
1000
4
1002
{
1000
Class
1070
     4
1000

1002
{
1002
}
1000
Color
1070
     1
1070
   256
1002
{
1002
}
1000
LType
1070
     4
1000
BYLAYER
1002
{
1002
}
1002
}
1000
BHNV
1070
     9
1000
9
1002
{
1000
Class
1070
     4
1000
INV
1002
{
1002
}
1000
Color
1070
     1
1070
   256
1002
{
1002
}
1000
LType
1070
     4
1000
BYLAYER
1002
{
1002
}
1002
}
1000
BHNVS
1070
     9
1000
BEHIND
1002
{
1000
Class
1070
     4
1000
INV
1002
{
1002
}
1000
Color
1070
     1
1070
   256
1002
{
1002
}
1000
LType
1070
     4
1000
BYLAYER
1002
{
1002
}
1002
}
1000
BLID
1070
     9
1000
4A
1002
{
1000
Class
1070
     4
1000

1002
{
1002
}
1000
Color
1070
     1
1070
   256
1002
{
1002
}
1000
LType
1070
     4
1000
BYLAYER
1002
{
1002
}
1002
}
1000
BOAP
1070
     9
1000
4A
1002
{
1000
Class
1070
     4
1000

1002
{
1002
}
1000
Color
1070
     1
1070
   256
1002
{
1002
}
1000
LType
1070
     4
1000
BYLAYER
1002
{
1002
}
1002
}
1000
BOR2
1070
     9
1000
RAHM2
1002
{
1000
Class
1070
     4
1000
SPZ,SYM
1002
{
1002
}
1000
Color
1070
     1
1070
   256
1002
{
1002
}
1000
LType
1070
     4
1000
BYLAYER
1002
{
1002
}
1002
}
1000
BOR3
1070
     9
1000
RAHM3
1002
{
1000
Class
1070
     4
1000
SPZ,SYM
1002
{
1002
}
1000
Color
1070
     1
1070
   256
1002
{
1002
}
1000
LType
1070
     4
1000
BYLAYER
1002
{
1002
}
1002
}
1000
BOR5
1070
     9
1000
RAHM5
1002
{
1000
Class
1070
     4
1000
SPZ,SYM
1002
{
1002
}
1000
Color
1070
     1
1070
   256
1002
{
1002
}
1000
LType
1070
     4
1000
BYLAYER
1002
{
1002
}
1002
}
1000
BOR7
1070
     9
1000
RAHM5
1002
{
1000
Class
1070
     4
1000
SPZ,SYM
1002
{
1002
}
1000
Color
1070
     1
1070
     7
1002
{
1002
}
1000
LType
1070
     4
1000
CONTINUOUS
1002
{
1002
}
1002
}
1000
BPAP
1070
     9
1000
4A
1002
{
1000
Class
1070
     4
1000

1002
{
1002
}
1000
Color
1070
     1
1070
   256
1002
{
1002
}
1000
LType
1070
     4
1000
BYLAYER
1002
{
1002
}
1002
}
1000
BPEX
1070
     9
1000
4A
1002
{
1000
Class
1070
     4
1000

1002
{
1002
}
1000
Color
1070
     1
1070
   256
1002
{
1002
}
1000
LType
1070
     4
1000
BYLAYER
1002
{
1002
}
1002
}
1000
BTDI
1070
     9
1000
5
1002
{
1000
Class
1070
     4
1000
DIM,SYM
1002
{
1002
}
1000
Color
1070
     1
1070
   256
1002
{
1002
}
1000
LType
1070
     4
1000
BYLAYER
1002
{
1002
}
1002
}
1000
CAL2
1070
     9
1000
4
1002
{
1000
Class
1070
     4
1000
SYM
1002
{
1002
}
1000
Color
1070
     1
1070
   256
1002
{
1002
}
1000
LType
1070
     4
1000
BYLAYER
1002
{
1002
}
1002
}
1000
CAL3
1070
     9
1000
4
1002
{
1000
Class
1070
     4
1000
SYM
1002
{
1002
}
1000
Color
1070
     1
1070
     2
1002
{
1002
}
1000
LType
1070
     4
1000
BYLAYER
1002
{
1002
}
1002
}
1000
CAL5
1070
     9
1000
4
1002
{
1000
Class
1070
     4
1000
SYM
1002
{
1002
}
1000
Color
1070
     1
1070
     7
1002
{
1002
}
1000
LType
1070
     4
1000
BYLAYER
1002
{
1002
}
1002
}
1000
CAL7
1070
     9
1000
4
1002
{
1000
Class
1070
     4
1000
SYM
1002
{
1002
}
1000
Color
1070
     1
1070
     5
1002
{
1002
}
1000
LType
1070
     4
1000
BYLAYER
1002
{
1002
}
1002
}
1000
CENN
1070
     9
1000
7A
1002
{
1000
Class
1070
     4
1000
CEN
1002
{
1002
}
1000
Color
1070
     1
1070
   256
1002
{
1002
}
1000
LType
1070
     4
1000
BYLAYER
1002
{
1002
}
1002
}
1000
CENW
1070
     9
1000
7
1002
{
1000
Class
1070
     4
1000
CEN
1002
{
1002
}
1000
Color
1070
     1
1070
   256
1002
{
1002
}
1000
LType
1070
     4
1000
BYLAYER
1002
{
1002
}
1002
}
1000
CLIN
1070
     9
1000
KLIN
1002
{
1000
Class
1070
     4
1000
SPZ
1002
{
1002
}
1000
Color
1070
     1
1070
   256
1002
{
1002
}
1000
LType
1070
     4
1000
BYLAYER
1002
{
1002
}
1002
}
1000
CON1
1070
     9
1000
0
1002
{
1000
Class
1070
     4
1000
CON,BGD
1002
{
1002
}
1000
Color
1070
     1
1070
   256
1002
{
1002
}
1000
LType
1070
     4
1000
BYLAYER
1002
{
1002
}
1002
}
1000
CON2
1070
     9
1000
1
1002
{
1000
Class
1070
     4
1000
CON,BGD
1002
{
1002
}
1000
Color
1070
     1
1070
   256
1002
{
1002
}
1000
LType
1070
     4
1000
BYLAYER
1002
{
1002
}
1002
}
1000
CON3
1070
     9
1000
2
1002
{
1000
Class
1070
     4
1000
CON,BGD
1002
{
1002
}
1000
Color
1070
     1
1070
   256
1002
{
1002
}
1000
LType
1070
     4
1000
BYLAYER
1002
{
1002
}
1002
}
1000
CON4
1070
     9
1000
2
1002
{
1000
Class
1070
     4
1000
CON,BGD
1002
{
1002
}
1000
Color
1070
     1
1070
   256
1002
{
1002
}
1000
LType
1070
     4
1000
BYLAYER
1002
{
1002
}
1002
}
1000
DERP
1070
     9
1000
4
1002
{
1000
Class
1070
     4
1000

1002
{
1002
}
1000
Color
1070
     1
1070
   256
1002
{
1002
}
1000
LType
1070
     4
1000
BYLAYER
1002
{
1002
}
1002
}
1000
DETA
1070
     9
1000
4
1002
{
1000
Class
1070
     4
1000

1002
{
1002
}
1000
Color
1070
     1
1070
   256
1002
{
1002
}
1000
LType
1070
     4
1000
BYLAYER
1002
{
1002
}
1002
}
1000
DIAG
1070
     9
1000
5
1002
{
1000
Class
1070
     4
1000
SYM
1002
{
1002
}
1000
Color
1070
     1
1070
   256
1002
{
1002
}
1000
LType
1070
     4
1000
BYLAYER
1002
{
1002
}
1002
}
1000
DILI
1070
     9
1000
5
1002
{
1000
Class
1070
     4
1000
DIM,SYM
1002
{
1002
}
1000
Color
1070
     1
1070
   256
1002
{
1002
}
1000
LType
1070
     4
1000
BYLAYER
1002
{
1002
}
1002
}
1000
DITO2
1070
     9
1000
5
1002
{
1000
Class
1070
     4
1000
DIM,SYM
1002
{
1002
}
1000
Color
1070
     1
1070
     3
1002
{
1002
}
1000
LType
1070
     4
1000
BYLAYER
1002
{
1002
}
1002
}
1000
DITO3
1070
     9
1000
5
1002
{
1000
Class
1070
     4
1000
DIM,SYM
1002
{
1002
}
1000
Color
1070
     1
1070
     2
1002
{
1002
}
1000
LType
1070
     4
1000
BYLAYER
1002
{
1002
}
1002
}
1000
DITX
1070
     9
1000
5
1002
{
1000
Class
1070
     4
1000
DIM,SYM
1002
{
1002
}
1000
Color
1070
     1
1070
     2
1002
{
1002
}
1000
LType
1070
     4
1000
CONTINUOUS
1002
{
1002
}
1002
}
1000
DIXL
1070
     9
1000
5
1002
{
1000
Class
1070
     4
1000
DIM,SYM
1002
{
1002
}
1000
Color
1070
     1
1070
   256
1002
{
1002
}
1000
LType
1070
     4
1000
BYLAYER
1002
{
1002
}
1002
}
1000
EXMP
1070
     9
1000
4A
1002
{
1000
Class
1070
     4
1000

1002
{
1002
}
1000
Color
1070
     1
1070
   256
1002
{
1002
}
1000
LType
1070
     4
1000
BYLAYER
1002
{
1002
}
1002
}
1000
FEMN
1070
     9
1000
8
1002
{
1000
Class
1070
     4
1000

1002
{
1002
}
1000
Color
1070
     1
1070
   256
1002
{
1002
}
1000
LType
1070
     4
1000
BYLAYER
1002
{
1002
}
1002
}
1000
FEMPN
1070
     9
1000
8
1002
{
1000
Class
1070
     4
1000
SYM
1002
{
1002
}
1000
Color
1070
     1
1070
     3
1002
{
1002
}
1000
LType
1070
     4
1000
BYLAYER
1002
{
1002
}
1002
}
1000
FEMSP
1070
     9
1000
4A
1002
{
1000
Class
1070
     4
1000

1002
{
1002
}
1000
Color
1070
     1
1070
   256
1002
{
1002
}
1000
LType
1070
     4
1000
CONTINUOUS
1002
{
1002
}
1002
}
1000
FEMST
1070
     9
1000
4A
1002
{
1000
Class
1070
     4
1000
SYM
1002
{
1002
}
1000
Color
1070
     1
1070
     3
1002
{
1002
}
1000
LType
1070
     4
1000
BYLAYER
1002
{
1002
}
1002
}
1000
FEMVN
1070
     9
1000
2
1002
{
1000
Class
1070
     4
1000
CON
1002
{
1002
}
1000
Color
1070
     1
1070
   256
1002
{
1002
}
1000
LType
1070
     4
1000
BYLAYER
1002
{
1002
}
1002
}
1000
FEMVT
1070
     9
1000
2
1002
{
1000
Class
1070
     4
1000
SYM
1002
{
1002
}
1000
Color
1070
     1
1070
     3
1002
{
1002
}
1000
LType
1070
     4
1000
BYLAYER
1002
{
1002
}
1002
}
1000
FLAT
1070
     9
1000
0
1002
{
1000
Class
1070
     4
1000

1002
{
1002
}
1000
Color
1070
     1
1070
   256
1002
{
1002
}
1000
LType
1070
     4
1000
BYLAYER
1002
{
1002
}
1002
}
1000
FRAR
1070
     9
1000
4A
1002
{
1000
Class
1070
     4
1000

1002
{
1002
}
1000
Color
1070
     1
1070
   256
1002
{
1002
}
1000
LType
1070
     4
1000
BYLAYER
1002
{
1002
}
1002
}
1000
GRLI
1070
     9
1000
5
1002
{
1000
Class
1070
     4
1000
SYM
1002
{
1002
}
1000
Color
1070
     1
1070
   256
1002
{
1002
}
1000
LType
1070
     4
1000
BYLAYER
1002
{
1002
}
1002
}
1000
GVLI
1070
     9
1000
4A
1002
{
1000
Class
1070
     4
1000

1002
{
1002
}
1000
Color
1070
     1
1070
   256
1002
{
1002
}
1000
LType
1070
     4
1000
BYLAYER
1002
{
1002
}
1002
}
1000
HATC
1070
     9
1000
8
1002
{
1000
Class
1070
     4
1000
HTC,BGD
1002
{
1002
}
1000
Color
1070
     1
1070
   256
1002
{
1002
}
1000
LType
1070
     4
1000
BYLAYER
1002
{
1002
}
1002
}
1000
HIDN
1070
     9
1000
3A
1002
{
1000
Class
1070
     4
1000
HID,BGD
1002
{
1002
}
1000
Color
1070
     1
1070
   256
1002
{
1002
}
1000
LType
1070
     4
1000
BYLAYER
1002
{
1002
}
1002
}
1000
HIDW
1070
     9
1000
3
1002
{
1000
Class
1070
     4
1000
HID,BGD
1002
{
1002
}
1000
Color
1070
     1
1070
   256
1002
{
1002
}
1000
LType
1070
     4
1000
BYLAYER
1002
{
1002
}
1002
}
1000
HLIN
1070
     9
1000
4
1002
{
1000
Class
1070
     4
1000
BGD
1002
{
1002
}
1000
Color
1070
     1
1070
   256
1002
{
1002
}
1000
LType
1070
     4
1000
BYLAYER
1002
{
1002
}
1002
}
1000
HOCN
1070
     9
1000
7A
1002
{
1000
Class
1070
     4
1000
CEN
1002
{
1002
}
1000
Color
1070
     1
1070
   256
1002
{
1002
}
1000
LType
1070
     4
1000
BYLAYER
1002
{
1002
}
1002
}
1000
HOCW
1070
     9
1000
7
1002
{
1000
Class
1070
     4
1000
CEN
1002
{
1002
}
1000
Color
1070
     1
1070
   256
1002
{
1002
}
1000
LType
1070
     4
1000
BYLAYER
1002
{
1002
}
1002
}
1000
INFO
1070
     9
1000
INFO
1002
{
1000
Class
1070
     4
1000
SPZ,SYM
1002
{
1002
}
1000
Color
1070
     1
1070
   256
1002
{
1002
}
1000
LType
1070
     4
1000
BYLAYER
1002
{
1002
}
1002
}
1000
LADI
1070
     9
1000
4
1002
{
1000
Class
1070
     4
1000
BGD
1002
{
1002
}
1000
Color
1070
     1
1070
   256
1002
{
1002
}
1000
LType
1070
     4
1000
BYLAYER
1002
{
1002
}
1002
}
1000
LEAD
1070
     9
1000
5
1002
{
1000
Class
1070
     4
1000
SYM
1002
{
1002
}
1000
Color
1070
     1
1070
   256
1002
{
1002
}
1000
LType
1070
     4
1000
BYLAYER
1002
{
1002
}
1002
}
1000
N_ADDL
1070
     9
1000
5N
1002
{
1000
Class
1070
     4
1000
SYM
1002
{
1002
}
1000
Color
1070
     1
1070
     1
1002
{
1002
}
1000
LType
1070
     4
1000
BYLAYER
1002
{
1002
}
1002
}
1000
N_BHNV
1070
     9
1000
9N
1002
{
1000
Class
1070
     4
1000
INV
1002
{
1002
}
1000
Color
1070
     1
1070
   256
1002
{
1002
}
1000
LType
1070
     4
1000
BYLAYER
1002
{
1002
}
1002
}
1000
N_CON1
1070
     9
1000
0N
1002
{
1000
Class
1070
     4
1000
CON,BGD
1002
{
1002
}
1000
Color
1070
     1
1070
   256
1002
{
1002
}
1000
LType
1070
     4
1000
BYLAYER
1002
{
1002
}
1002
}
1000
N_CON2
1070
     9
1000
1N
1002
{
1000
Class
1070
     4
1000
CON,BGD
1002
{
1002
}
1000
Color
1070
     1
1070
   256
1002
{
1002
}
1000
LType
1070
     4
1000
BYLAYER
1002
{
1002
}
1002
}
1000
N_CON3
1070
     9
1000
2N
1002
{
1000
Class
1070
     4
1000
CON,BGD
1002
{
1002
}
1000
Color
1070
     1
1070
   256
1002
{
1002
}
1000
LType
1070
     4
1000
BYLAYER
1002
{
1002
}
1002
}
1000
N_CON4
1070
     9
1000
2N
1002
{
1000
Class
1070
     4
1000
CON,BGD
1002
{
1002
}
1000
Color
1070
     1
1070
   256
1002
{
1002
}
1000
LType
1070
     4
1000
BYLAYER
1002
{
1002
}
1002
}
1000
N_CENN
1070
     9
1000
7AN
1002
{
1000
Class
1070
     4
1000
CEN
1002
{
1002
}
1000
Color
1070
     1
1070
   256
1002
{
1002
}
1000
LType
1070
     4
1000
BYLAYER
1002
{
1002
}
1002
}
1000
N_CENW
1070
     9
1000
7N
1002
{
1000
Class
1070
     4
1000
CEN
1002
{
1002
}
1000
Color
1070
     1
1070
   256
1002
{
1002
}
1000
LType
1070
     4
1000
BYLAYER
1002
{
1002
}
1002
}
1000
N_DILI
1070
     9
1000
5N
1002
{
1000
Class
1070
     4
1000
DIM,SYM
1002
{
1002
}
1000
Color
1070
     1
1070
   256
1002
{
1002
}
1000
LType
1070
     4
1000
BYLAYER
1002
{
1002
}
1002
}
1000
N_DITX
1070
     9
1000
5N
1002
{
1000
Class
1070
     4
1000
DIM,SYM
1002
{
1002
}
1000
Color
1070
     1
1070
     2
1002
{
1002
}
1000
LType
1070
     4
1000
CONTINUOUS
1002
{
1002
}
1002
}
1000
N_DIXL
1070
     9
1000
5N
1002
{
1000
Class
1070
     4
1000
DIM,SYM
1002
{
1002
}
1000
Color
1070
     1
1070
   256
1002
{
1002
}
1000
LType
1070
     4
1000
BYLAYER
1002
{
1002
}
1002
}
1000
N_HATC
1070
     9
1000
8N
1002
{
1000
Class
1070
     4
1000
HTC,BGD
1002
{
1002
}
1000
Color
1070
     1
1070
   256
1002
{
1002
}
1000
LType
1070
     4
1000
BYLAYER
1002
{
1002
}
1002
}
1000
N_HIDN
1070
     9
1000
3AN
1002
{
1000
Class
1070
     4
1000
HID,BGD
1002
{
1002
}
1000
Color
1070
     1
1070
   256
1002
{
1002
}
1000
LType
1070
     4
1000
BYLAYER
1002
{
1002
}
1002
}
1000
N_HIDW
1070
     9
1000
3N
1002
{
1000
Class
1070
     4
1000
HID,BGD
1002
{
1002
}
1000
Color
1070
     1
1070
   256
1002
{
1002
}
1000
LType
1070
     4
1000
BYLAYER
1002
{
1002
}
1002
}
1000
N_NGIP
1070
     9
1000
IPN
1002
{
1000
Class
1070
     4
1000

1002
{
1002
}
1000
Color
1070
     1
1070
   256
1002
{
1002
}
1000
LType
1070
     4
1000
BYLAYER
1002
{
1002
}
1002
}
1000
N_PHAN
1070
     9
1000
4AN
1002
{
1000
Class
1070
     4
1000

1002
{
1002
}
1000
Color
1070
     1
1070
   256
1002
{
1002
}
1000
LType
1070
     4
1000
BYLAYER
1002
{
1002
}
1002
}
1000
N_POSL
1070
     9
1000
5N
1002
{
1000
Class
1070
     4
1000
SYM
1002
{
1002
}
1000
Color
1070
     1
1070
   256
1002
{
1002
}
1000
LType
1070
     4
1000
BYLAYER
1002
{
1002
}
1002
}
1000
N_TCON
1070
     9
1000
0N
1002
{
1000
Class
1070
     4
1000
CON,BGD
1002
{
1002
}
1000
Color
1070
     1
1070
   256
1002
{
1002
}
1000
LType
1070
     4
1000
BYLAYER
1002
{
1002
}
1002
}
1000
N_THLI
1070
     9
1000
4N
1002
{
1000
Class
1070
     4
1000
BGD
1002
{
1002
}
1000
Color
1070
     1
1070
   256
1002
{
1002
}
1000
LType
1070
     4
1000
BYLAYER
1002
{
1002
}
1002
}
1000
N_TLEN
1070
     9
1000
0N
1002
{
1000
Class
1070
     4
1000
CON,BGD
1002
{
1002
}
1000
Color
1070
     1
1070
   256
1002
{
1002
}
1000
LType
1070
     4
1000
BYLAYER
1002
{
1002
}
1002
}
1000
N_TXT3
1070
     9
1000
6N
1002
{
1000
Class
1070
     4
1000
SYM
1002
{
1002
}
1000
Color
1070
     1
1070
   256
1002
{
1002
}
1000
LType
1070
     4
1000
BYLAYER
1002
{
1002
}
1002
}
1000
N_VPLI
1070
     9
1000
2AN
1002
{
1000
Class
1070
     4
1000

1002
{
1002
}
1000
Color
1070
     1
1070
   256
1002
{
1002
}
1000
LType
1070
     4
1000
BYLAYER
1002
{
1002
}
1002
}
1000
NGIP
1070
     9
1000
IP
1002
{
1000
Class
1070
     4
1000

1002
{
1002
}
1000
Color
1070
     1
1070
   256
1002
{
1002
}
1000
LType
1070
     4
1000
BYLAYER
1002
{
1002
}
1002
}
1000
PAL2
1070
     9
1000
RAHM2
1002
{
1000
Class
1070
     4
1000
SPZ,SYM
1002
{
1002
}
1000
Color
1070
     1
1070
   256
1002
{
1002
}
1000
LType
1070
     4
1000
BYLAYER
1002
{
1002
}
1002
}
1000
PAL3
1070
     9
1000
RAHM3
1002
{
1000
Class
1070
     4
1000
SPZ,SYM
1002
{
1002
}
1000
Color
1070
     1
1070
   256
1002
{
1002
}
1000
LType
1070
     4
1000
BYLAYER
1002
{
1002
}
1002
}
1000
PAL5
1070
     9
1000
RAHM5
1002
{
1000
Class
1070
     4
1000
SPZ,SYM
1002
{
1002
}
1000
Color
1070
     1
1070
   256
1002
{
1002
}
1000
LType
1070
     4
1000
BYLAYER
1002
{
1002
}
1002
}
1000
PAL7
1070
     9
1000
RAHM5
1002
{
1000
Class
1070
     4
1000
SPZ,SYM
1002
{
1002
}
1000
Color
1070
     1
1070
     7
1002
{
1002
}
1000
LType
1070
     4
1000
CONTINUOUS
1002
{
1002
}
1002
}
1000
PHAN
1070
     9
1000
4A
1002
{
1000
Class
1070
     4
1000

1002
{
1002
}
1000
Color
1070
     1
1070
   256
1002
{
1002
}
1000
LType
1070
     4
1000
BYLAYER
1002
{
1002
}
1002
}
1000
POSL
1070
     9
1000
5
1002
{
1000
Class
1070
     4
1000
SYM
1002
{
1002
}
1000
Color
1070
     1
1070
   256
1002
{
1002
}
1000
LType
1070
     4
1000
BYLAYER
1002
{
1002
}
1002
}
1000
POSN
1070
     9
1000
6
1002
{
1000
Class
1070
     4
1000
SYM
1002
{
1002
}
1000
Color
1070
     1
1070
     7
1002
{
1002
}
1000
LType
1070
     4
1000
BYLAYER
1002
{
1002
}
1002
}
1000
POSREF
1070
     9
1000
6
1002
{
1000
Class
1070
     4
1000
SYM
1002
{
1002
}
1000
Color
1070
     1
1070
     5
1002
{
1002
}
1000
LType
1070
     4
1000
BYLAYER
1002
{
1002
}
1002
}
1000
POSX
1070
     9
1000
5
1002
{
1000
Class
1070
     4
1000
SYM
1002
{
1002
}
1000
Color
1070
     1
1070
     2
1002
{
1002
}
1000
LType
1070
     4
1000
CONTINUOUS
1002
{
1002
}
1002
}
1000
PSEC
1070
     9
1000
4A
1002
{
1000
Class
1070
     4
1000

1002
{
1002
}
1000
Color
1070
     1
1070
   256
1002
{
1002
}
1000
LType
1070
     4
1000
BYLAYER
1002
{
1002
}
1002
}
1000
RCGN
1070
     9
1000
7A
1002
{
1000
Class
1070
     4
1000
CEN
1002
{
1002
}
1000
Color
1070
     1
1070
   256
1002
{
1002
}
1000
LType
1070
     4
1000
BYLAYER
1002
{
1002
}
1002
}
1000
RCGW
1070
     9
1000
7
1002
{
1000
Class
1070
     4
1000
CEN
1002
{
1002
}
1000
Color
1070
     1
1070
   256
1002
{
1002
}
1000
LType
1070
     4
1000
BYLAYER
1002
{
1002
}
1002
}
1000
RFDI
1070
     9
1000
4
1002
{
1000
Class
1070
     4
1000
BGD
1002
{
1002
}
1000
Color
1070
     1
1070
   256
1002
{
1002
}
1000
LType
1070
     4
1000
BYLAYER
1002
{
1002
}
1002
}
1000
RQTR
1070
     9
1000
4
1002
{
1000
Class
1070
     4
1000

1002
{
1002
}
1000
Color
1070
     1
1070
     7
1002
{
1002
}
1000
LType
1070
     4
1000
GEN7A
1002
{
1002
}
1002
}
1000
RSBO
1070
     9
1000
4
1002
{
1000
Class
1070
     4
1000
BGD
1002
{
1002
}
1000
Color
1070
     1
1070
   256
1002
{
1002
}
1000
LType
1070
     4
1000
BYLAYER
1002
{
1002
}
1002
}
1000
SBRK
1070
     9
1000
4
1002
{
1000
Class
1070
     4
1000
BGD
1002
{
1002
}
1000
Color
1070
     1
1070
   256
1002
{
1002
}
1000
LType
1070
     4
1000
BYLAYER
1002
{
1002
}
1002
}
1000
SCEN
1070
     9
1000
7
1002
{
1000
Class
1070
     4
1000

1002
{
1002
}
1000
Color
1070
     1
1070
   256
1002
{
1002
}
1000
LType
1070
     4
1000
CONTINUOUS
1002
{
1002
}
1002
}
1000
SECT
1070
     9
1000
4
1002
{
1000
Class
1070
     4
1000
BGD
1002
{
1002
}
1000
Color
1070
     1
1070
   256
1002
{
1002
}
1000
LType
1070
     4
1000
BYLAYER
1002
{
1002
}
1002
}
1000
SELN
1070
     9
1000
7A
1002
{
1000
Class
1070
     4
1000

1002
{
1002
}
1000
Color
1070
     1
1070
   256
1002
{
1002
}
1000
LType
1070
     4
1000
BYLAYER
1002
{
1002
}
1002
}
1000
SELW
1070
     9
1000
7
1002
{
1000
Class
1070
     4
1000

1002
{
1002
}
1000
Color
1070
     1
1070
   256
1002
{
1002
}
1000
LType
1070
     4
1000
BYLAYER
1002
{
1002
}
1002
}
1000
SSYS
1070
     9
1000
0
1002
{
1000
Class
1070
     4
1000

1002
{
1002
}
1000
Color
1070
     1
1070
   256
1002
{
1002
}
1000
LType
1070
     4
1000
BYLAYER
1002
{
1002
}
1002
}
1000
STLI
1070
     9
1000
4
1002
{
1000
Class
1070
     4
1000

1002
{
1002
}
1000
Color
1070
     1
1070
     7
1002
{
1002
}
1000
LType
1070
     4
1000
GEN3A
1002
{
1002
}
1002
}
1000
SYB1
1070
     9
1000
5
1002
{
1000
Class
1070
     4
1000
SYM
1002
{
1002
}
1000
Color
1070
     1
1070
   256
1002
{
1002
}
1000
LType
1070
     4
1000
BYLAYER
1002
{
1002
}
1002
}
1000
SYB2
1070
     9
1000
5
1002
{
1000
Class
1070
     4
1000
SYM
1002
{
1002
}
1000
Color
1070
     1
1070
   256
1002
{
1002
}
1000
LType
1070
     4
1000
BYLAYER
1002
{
1002
}
1002
}
1000
SYB3
1070
     9
1000
6
1002
{
1000
Class
1070
     4
1000
SYM
1002
{
1002
}
1000
Color
1070
     1
1070
   256
1002
{
1002
}
1000
LType
1070
     4
1000
CONTINUOUS
1002
{
1002
}
1002
}
1000
SYB5
1070
     9
1000
5
1002
{
1000
Class
1070
     4
1000
SYM
1002
{
1002
}
1000
Color
1070
     1
1070
     7
1002
{
1002
}
1000
LType
1070
     4
1000
BYLAYER
1002
{
1002
}
1002
}
1000
SYMN
1070
     9
1000
7A
1002
{
1000
Class
1070
     4
1000
CEN
1002
{
1002
}
1000
Color
1070
     1
1070
   256
1002
{
1002
}
1000
LType
1070
     4
1000
BYLAYER
1002
{
1002
}
1002
}
1000
SYMW
1070
     9
1000
7
1002
{
1000
Class
1070
     4
1000
CEN
1002
{
1002
}
1000
Color
1070
     1
1070
   256
1002
{
1002
}
1000
LType
1070
     4
1000
BYLAYER
1002
{
1002
}
1002
}
1000
TCON
1070
     9
1000
0
1002
{
1000
Class
1070
     4
1000
CON,BGD
1002
{
1002
}
1000
Color
1070
     1
1070
   256
1002
{
1002
}
1000
LType
1070
     4
1000
BYLAYER
1002
{
1002
}
1002
}
1000
THLI
1070
     9
1000
4
1002
{
1000
Class
1070
     4
1000
BGD
1002
{
1002
}
1000
Color
1070
     1
1070
   256
1002
{
1002
}
1000
LType
1070
     4
1000
BYLAYER
1002
{
1002
}
1002
}
1000
TIT2
1070
     9
1000
RAHM2
1002
{
1000
Class
1070
     4
1000
SPZ,SYM
1002
{
1002
}
1000
Color
1070
     1
1070
   256
1002
{
1002
}
1000
LType
1070
     4
1000
BYLAYER
1002
{
1002
}
1002
}
1000
TIT3
1070
     9
1000
RAHM3
1002
{
1000
Class
1070
     4
1000
SPZ,SYM
1002
{
1002
}
1000
Color
1070
     1
1070
   256
1002
{
1002
}
1000
LType
1070
     4
1000
BYLAYER
1002
{
1002
}
1002
}
1000
TIT5
1070
     9
1000
RAHM5
1002
{
1000
Class
1070
     4
1000
SPZ,SYM
1002
{
1002
}
1000
Color
1070
     1
1070
   256
1002
{
1002
}
1000
LType
1070
     4
1000
BYLAYER
1002
{
1002
}
1002
}
1000
TIT7
1070
     9
1000
RAHM5
1002
{
1000
Class
1070
     4
1000
SPZ,SYM
1002
{
1002
}
1000
Color
1070
     1
1070
     7
1002
{
1002
}
1000
LType
1070
     4
1000
CONTINUOUS
1002
{
1002
}
1002
}
1000
TLEN
1070
     9
1000
0
1002
{
1000
Class
1070
     4
1000
CON,BGD
1002
{
1002
}
1000
Color
1070
     1
1070
   256
1002
{
1002
}
1000
LType
1070
     4
1000
BYLAYER
1002
{
1002
}
1002
}
1000
TRKN
1070
     9
1000
7A
1002
{
1000
Class
1070
     4
1000

1002
{
1002
}
1000
Color
1070
     1
1070
   256
1002
{
1002
}
1000
LType
1070
     4
1000
BYLAYER
1002
{
1002
}
1002
}
1000
TRKW
1070
     9
1000
7
1002
{
1000
Class
1070
     4
1000

1002
{
1002
}
1000
Color
1070
     1
1070
   256
1002
{
1002
}
1000
LType
1070
     4
1000
BYLAYER
1002
{
1002
}
1002
}
1000
TRLI
1070
     9
1000
4
1002
{
1000
Class
1070
     4
1000
BGD
1002
{
1002
}
1000
Color
1070
     1
1070
   256
1002
{
1002
}
1000
LType
1070
     4
1000
BYLAYER
1002
{
1002
}
1002
}
1000
TXT1
1070
     9
1000
6
1002
{
1000
Class
1070
     4
1000
SYM
1002
{
1002
}
1000
Color
1070
     1
1070
     2
1002
{
1002
}
1000
LType
1070
     4
1000
BYLAYER
1002
{
1002
}
1002
}
1000
TXT2
1070
     9
1000
6
1002
{
1000
Class
1070
     4
1000
SYM
1002
{
1002
}
1000
Color
1070
     1
1070
     2
1002
{
1002
}
1000
LType
1070
     4
1000
BYLAYER
1002
{
1002
}
1002
}
1000
TXT3
1070
     9
1000
6
1002
{
1000
Class
1070
     4
1000
SYM
1002
{
1002
}
1000
Color
1070
     1
1070
   256
1002
{
1002
}
1000
LType
1070
     4
1000
BYLAYER
1002
{
1002
}
1002
}
1000
TXT5
1070
     9
1000
6
1002
{
1000
Class
1070
     4
1000
SYM
1002
{
1002
}
1000
Color
1070
     1
1070
     7
1002
{
1002
}
1000
LType
1070
     4
1000
BYLAYER
1002
{
1002
}
1002
}
1000
TXT7
1070
     9
1000
6
1002
{
1000
Class
1070
     4
1000
SYM
1002
{
1002
}
1000
Color
1070
     1
1070
     7
1002
{
1002
}
1000
LType
1070
     4
1000
BYLAYER
1002
{
1002
}
1002
}
1000
VIEW
1070
     9
1000
VIEW
1002
{
1000
Class
1070
     4
1000
SPZ
1002
{
1002
}
1000
Color
1070
     1
1070
   256
1002
{
1002
}
1000
LType
1070
     4
1000
BYLAYER
1002
{
1002
}
1002
}
1000
VPLI
1070
     9
1000
2A
1002
{
1000
Class
1070
     4
1000

1002
{
1002
}
1000
Color
1070
     1
1070
   256
1002
{
1002
}
1000
LType
1070
     4
1000
BYLAYER
1002
{
1002
}
1002
}
1000
ZIZA
1070
     9
1000
4
1002
{
1000
Class
1070
     4
1000
BGD
1002
{
1002
}
1000
Color
1070
     1
1070
   256
1002
{
1002
}
1000
LType
1070
     4
1000
GENZIGZAG
1002
{
1002
}
1002
}
  0
APPID
  5
1742
330
16F9
100
AcDbSymbolTableRecord
100
AcDbRegAppTableRecord
  2
GENIUS_GENCFG4_13
 70
     0
1001
GENIUS_GENCFG_13
1071
1043070648
1000
1742
1000
GEN
1070
    12
1000
GenCfgObject
1000
GenCfgShort
1000
GenCfgReal
1000
GenCfgBool
1000
GenCfgString
1000
GenCfgDim
1000
GenCfgAttrInf
1000
GenCfgLaySection
1000
GenCfgLayer
1000
GenCfgEntSort
1000
GenCfgLType
1000
GenCfgFilter
1000
Balloon
1070
     0
1002
{
1000
GenIF
1070
     1
1070
     0
1002
{
1002
}
1000
GenPosInc
1070
     1
1070
     1
1002
{
1002
}
1000
GenPosBlk
1070
     1
1070
     8
1002
{
1002
}
1000
GenPosVar
1070
     1
1070
     0
1002
{
1002
}
1000
GenZiCir
1070
     2
1040
1.5
1002
{
1002
}
1000
MaxCharForCenteredText
1070
     1
1070
    30
1002
{
1002
}
1000
Snap
1070
     0
1002
{
1000
ActivationRadius
1070
     2
1040
1.0
1002
{
1002
}
1000
M
1070
     0
1002
{
1000
SnapStepX
1070
     2
1040
20.0
1002
{
1002
}
1000
SnapStepY
1070
     2
1040
10.0
1002
{
1002
}
1002
}
1000
I
1070
     0
1002
{
1000
SnapStepX
1070
     2
1040
1.0
1002
{
1002
}
1000
SnapStepY
1070
     2
1040
0.5
1002
{
1002
}
1002
}
1002
}
1002
}
1000
Centerline
1070
     0
1002
{
1000
ScaleNot
1070
     3
1070
     0
1002
{
1002
}
1000
M
1070
     0
1002
{
1000
GenCenAng
1070
     4
1000
45|90|135
1002
{
1002
}
1000
GenCenDia
1070
     2
1040
10.0
1002
{
1002
}
1000
GenCenDias
1070
     4
1000
10|20|30
1002
{
1002
}
1000
GenCenDist
1070
     2
1040
3.0
1002
{
1002
}
1000
GenCenLen
1070
     2
1040
10.0
1002
{
1002
}
1000
GenCenOff
1070
     2
1040
10.0
1002
{
1002
}
1002
}
1000
I
1070
     0
1002
{
1000
GenCenAng
1070
     4
1000
45|90|135
1002
{
1002
}
1000
GenCenDia
1070
     2
1040
0.5
1002
{
1002
}
1000
GenCenDias
1070
     4
1000
0.5|1.0|1.5
1002
{
1002
}
1000
GenCenDist
1070
     2
1040
0.125
1002
{
1002
}
1000
GenCenLen
1070
     2
1040
0.5
1002
{
1002
}
1000
GenCenOff
1070
     2
1040
0.5
1002
{
1002
}
1002
}
1002
}
1000
CLine
1070
     0
1002
{
1000
CAngArray
1070
     4
1000
30|45|60
1002
{
1002
}
1000
Typ
1070
     4
1000
XLINE
1002
{
1002
}
1000
M
1070
     0
1002
{
1000
CLinArray
1070
     4
1000
10|20|30
1002
{
1002
}
1002
}
1000
I
1070
     0
1002
{
1000
CLinArray
1070
     4
1000
0.125|0.25|0.5
1002
{
1002
}
1002
}
1002
}
1000
Detail
1070
     0
1002
{
1002
}
1000
Dimension
1070
     5
1002
{
1000
DIMALT
1070
     1
1070
     0
1002
{
1002
}
1000
DIMALTD
1070
     1
1070
     2
1002
{
1002
}
1000
DIMALTTD
1070
     1
1070
     4
1002
{
1002
}
1000
DIMALTTZ
1070
     1
1070
     0
1002
{
1002
}
1000
DIMALTU
1070
     1
1070
     2
1002
{
1002
}
1000
DIMALTZ
1070
     1
1070
     0
1002
{
1002
}
1000
DIMAUNIT
1070
     1
1070
     0
1002
{
1002
}
1000
DIMBLK
1070
     4
1000

1002
{
1002
}
1000
DIMBLK1
1070
     4
1000

1002
{
1002
}
1000
DIMBLK2
1070
     4
1000

1002
{
1002
}
1000
DIMCLRD
1070
     1
1070
   256
1002
{
1002
}
1000
DIMCLRE
1070
     1
1070
   256
1002
{
1002
}
1000
DIMCLRT
1070
     1
1070
     2
1002
{
1002
}
1000
DIMDLE
1070
     2
1040
0.0
1002
{
1002
}
1000
DIMFIT
1070
     1
1070
     3
1002
{
1002
}
1000
DIMJUST
1070
     1
1070
     0
1002
{
1002
}
1000
DIMLFAC
1070
     2
1040
1.0
1002
{
1002
}
1000
DIMLIM
1070
     1
1070
     0
1002
{
1002
}
1000
DIMPOST
1070
     4
1000

1002
{
1002
}
1000
DIMRND
1070
     2
1040
0.0
1002
{
1002
}
1000
DIMSAH
1070
     1
1070
     0
1002
{
1002
}
1000
DIMSCALE
1070
     2
1040
1.0
1002
{
1002
}
1000
DIMSD1
1070
     1
1070
     0
1002
{
1002
}
1000
DIMSD2
1070
     1
1070
     0
1002
{
1002
}
1000
DIMSE1
1070
     1
1070
     0
1002
{
1002
}
1000
DIMSE2
1070
     1
1070
     0
1002
{
1002
}
1000
DIMSOXD
1070
     1
1070
     0
1002
{
1002
}
1000
DIMTAD
1070
     1
1070
     0
1002
{
1002
}
1000
DIMTFAC
1070
     2
1040
0.71
1002
{
1002
}
1000
DIMTIH
1070
     1
1070
     0
1002
{
1002
}
1000
DIMTIX
1070
     1
1070
     0
1002
{
1002
}
1000
DIMTM
1070
     2
1040
0.1
1002
{
1002
}
1000
DIMTOFL
1070
     1
1070
     0
1002
{
1002
}
1000
DIMTOH
1070
     1
1070
     0
1002
{
1002
}
1000
DIMTOL
1070
     1
1070
     0
1002
{
1002
}
1000
DIMTOLJ
1070
     1
1070
     1
1002
{
1002
}
1000
DIMTP
1070
     2
1040
0.1
1002
{
1002
}
1000
DIMTSZ
1070
     2
1040
0.0
1002
{
1002
}
1000
DIMTVP
1070
     2
1040
0.0
1002
{
1002
}
1000
DIMTXSTY
1070
     4
1000
STANDARD
1002
{
1002
}
1000
DIMTZIN
1070
     1
1070
     0
1002
{
1002
}
1000
DIMUNIT
1070
     1
1070
     2
1002
{
1002
}
1000
DIMUPT
1070
     1
1070
     0
1002
{
1002
}
1000
M
1070
     0
1002
{
1000
DIMALTF
1070
     2
1040
0.03937
1002
{
1002
}
1000
DIMAPOST
1070
     4
1000
"
1002
{
1002
}
1000
DIMASZ
1070
     2
1040
2.5
1002
{
1002
}
1000
DIMCEN
1070
     2
1040
0.0
1002
{
1002
}
1000
DIMDEC
1070
     1
1070
     2
1002
{
1002
}
1000
DIMDLI
1070
     2
1040
7.0
1002
{
1002
}
1000
DIMEXE
1070
     2
1040
1.0
1002
{
1002
}
1000
DIMEXO
1070
     2
1040
1.0
1002
{
1002
}
1000
DIMGAP
1070
     2
1040
0.6
1002
{
1002
}
1000
DIMTDEC
1070
     1
1070
     3
1002
{
1002
}
1000
DIMTXT
1070
     2
1040
3.5
1002
{
1002
}
1000
DIMZIN
1070
     1
1070
     8
1002
{
1002
}
1002
}
1000
I
1070
     0
1002
{
1000
DIMALTF
1070
     2
1040
25.4
1002
{
1002
}
1000
DIMAPOST
1070
     4
1000
mm
1002
{
1002
}
1000
DIMASZ
1070
     2
1040
0.1
1002
{
1002
}
1000
DIMCEN
1070
     2
1040
0.0
1002
{
1002
}
1000
DIMDEC
1070
     1
1070
     4
1002
{
1002
}
1000
DIMDLI
1070
     2
1040
0.5
1002
{
1002
}
1000
DIMEXE
1070
     2
1040
0.1
1002
{
1002
}
1000
DIMEXO
1070
     2
1040
0.05
1002
{
1002
}
1000
DIMGAP
1070
     2
1040
0.06
1002
{
1002
}
1000
DIMTDEC
1070
     1
1070
     4
1002
{
1002
}
1000
DIMTXT
1070
     2
1040
0.12
1002
{
1002
}
1000
DIMZIN
1070
     1
1070
     7
1002
{
1002
}
1002
}
1000
GEN-ISO
1070
     5
1002
{
1000
NAME
1070
     4
1000
GEN-ISO
1002
{
1002
}
1000
DIMTAD
1070
     1
1070
     1
1002
{
1002
}
1000
DIMTOLJ
1070
     1
1070
     0
1002
{
1002
}
1000
DIMTOFL
1070
     1
1070
     1
1002
{
1002
}
1000
M
1070
     0
1002
{
1002
}
1000
I
1070
     0
1002
{
1002
}
1002
}
1000
GEN-ISO-POS
1070
     5
1002
{
1000
NAME
1070
     4
1000
GEN-ISO-POS
1002
{
1002
}
1000
DIMTOLJ
1070
     1
1070
     0
1002
{
1002
}
1000
DIMTXSTY
1070
     4
1000
STANDARD
1002
{
1002
}
1000
M
1070
     0
1002
{
1000
DIMASZ
1070
     2
1040
2.5
1002
{
1002
}
1000
DIMGAP
1070
     2
1040
1.5
1002
{
1002
}
1000
DIMTXT
1070
     2
1040
5.0
1002
{
1002
}
1002
}
1000
I
1070
     0
1002
{
1000
DIMASZ
1070
     2
1040
0.1
1002
{
1002
}
1000
DIMGAP
1070
     2
1040
0.06
1002
{
1002
}
1000
DIMTXT
1070
     2
1040
0.2
1002
{
1002
}
1002
}
1002
}
1000
GEN-ISO-CIR
1070
     5
1002
{
1000
NAME
1070
     4
1000
GEN-ISO$3
1002
{
1002
}
1000
DIMFIT
1070
     1
1070
     0
1002
{
1002
}
1000
DIMTAD
1070
     1
1070
     1
1002
{
1002
}
1000
DIMTOH
1070
     1
1070
     1
1002
{
1002
}
1000
DIMTOLJ
1070
     1
1070
     0
1002
{
1002
}
1000
DIMUPT
1070
     1
1070
     1
1002
{
1002
}
1000
M
1070
     0
1002
{
1002
}
1000
I
1070
     0
1002
{
1002
}
1002
}
1000
GEN-ISO-RAD
1070
     5
1002
{
1000
NAME
1070
     4
1000
GEN-ISO$4
1002
{
1002
}
1000
DIMFIT
1070
     1
1070
     0
1002
{
1002
}
1000
DIMTAD
1070
     1
1070
     1
1002
{
1002
}
1000
DIMTIH
1070
     1
1070
     0
1002
{
1002
}
1000
DIMTIX
1070
     1
1070
     0
1002
{
1002
}
1000
DIMTOH
1070
     1
1070
     1
1002
{
1002
}
1000
DIMTOLJ
1070
     1
1070
     0
1002
{
1002
}
1000
DIMTOFL
1070
     1
1070
     0
1002
{
1002
}
1000
DIMUPT
1070
     1
1070
     1
1002
{
1002
}
1000
M
1070
     0
1002
{
1002
}
1000
I
1070
     0
1002
{
1002
}
1002
}
1000
GEN-ISO-ORD
1070
     5
1002
{
1000
NAME
1070
     4
1000
GEN-ISO$6
1002
{
1002
}
1000
DIMTOLJ
1070
     1
1070
     0
1002
{
1002
}
1000
M
1070
     0
1002
{
1002
}
1000
I
1070
     0
1002
{
1002
}
1002
}
1000
GEN-ISO-AXE-F
1070
     5
1002
{
1000
NAME
1070
     4
1000
GEN-ISO-AXE-F
1002
{
1002
}
1000
DIMSE1
1070
     1
1070
     1
1002
{
1002
}
1000
DIMSE2
1070
     1
1070
     1
1002
{
1002
}
1000
DIMTAD
1070
     1
1070
     1
1002
{
1002
}
1000
DIMTOLJ
1070
     1
1070
     0
1002
{
1002
}
1000
DIMTOFL
1070
     1
1070
     1
1002
{
1002
}
1000
M
1070
     0
1002
{
1002
}
1000
I
1070
     0
1002
{
1002
}
1002
}
1000
GEN-ISO-AXE-H
1070
     5
1002
{
1000
NAME
1070
     4
1000
GEN-ISO-AXE-H
1002
{
1002
}
1000
DIMBLK1
1070
     4
1000
GENAXEH
1002
{
1002
}
1000
DIMLFAC
1070
     2
1040
2.0
1002
{
1002
}
1000
DIMSAH
1070
     1
1070
     1
1002
{
1002
}
1000
DIMSE1
1070
     1
1070
     1
1002
{
1002
}
1000
DIMSE2
1070
     1
1070
     1
1002
{
1002
}
1000
DIMTAD
1070
     1
1070
     1
1002
{
1002
}
1000
DIMTOLJ
1070
     1
1070
     0
1002
{
1002
}
1000
DIMTOFL
1070
     1
1070
     1
1002
{
1002
}
1000
M
1070
     0
1002
{
1002
}
1000
I
1070
     0
1002
{
1002
}
1002
}
1000
GEN-ANSI
1070
     5
1002
{
1000
NAME
1070
     4
1000
GEN-ANSI
1002
{
1002
}
1000
DIMTIH
1070
     1
1070
     1
1002
{
1002
}
1000
DIMTOH
1070
     1
1070
     1
1002
{
1002
}
1000
DIMTAD
1070
     1
1070
     0
1002
{
1002
}
1000
DIMTOLJ
1070
     1
1070
     1
1002
{
1002
}
1000
M
1070
     0
1002
{
1002
}
1000
I
1070
     0
1002
{
1002
}
1002
}
1000
GEN-ANSI-POS
1070
     5
1002
{
1000
NAME
1070
     4
1000
GEN-ANSI-POS
1002
{
1002
}
1000
DIMTOLJ
1070
     1
1070
     1
1002
{
1002
}
1000
DIMTXSTY
1070
     4
1000
STANDARD
1002
{
1002
}
1000
M
1070
     0
1002
{
1000
DIMASZ
1070
     2
1040
2.5
1002
{
1002
}
1000
DIMGAP
1070
     2
1040
1.5
1002
{
1002
}
1000
DIMTXT
1070
     2
1040
5.0
1002
{
1002
}
1002
}
1000
I
1070
     0
1002
{
1000
DIMASZ
1070
     2
1040
0.1
1002
{
1002
}
1000
DIMGAP
1070
     2
1040
0.06
1002
{
1002
}
1000
DIMTXT
1070
     2
1040
0.2
1002
{
1002
}
1002
}
1002
}
1000
GEN-ANSI-CIR
1070
     5
1002
{
1000
NAME
1070
     4
1000
GEN-ANSI$3
1002
{
1002
}
1000
DIMFIT
1070
     1
1070
     0
1002
{
1002
}
1000
DIMTAD
1070
     1
1070
     0
1002
{
1002
}
1000
DIMTIH
1070
     1
1070
     1
1002
{
1002
}
1000
DIMTIX
1070
     1
1070
     0
1002
{
1002
}
1000
DIMTOFL
1070
     1
1070
     0
1002
{
1002
}
1000
DIMTOH
1070
     1
1070
     1
1002
{
1002
}
1000
DIMTOLJ
1070
     1
1070
     1
1002
{
1002
}
1000
DIMUPT
1070
     1
1070
     1
1002
{
1002
}
1000
M
1070
     0
1002
{
1002
}
1000
I
1070
     0
1002
{
1002
}
1002
}
1000
GEN-ANSI-RAD
1070
     5
1002
{
1000
NAME
1070
     4
1000
GEN-ANSI$4
1002
{
1002
}
1000
DIMFIT
1070
     1
1070
     0
1002
{
1002
}
1000
DIMTAD
1070
     1
1070
     0
1002
{
1002
}
1000
DIMTIH
1070
     1
1070
     1
1002
{
1002
}
1000
DIMTIX
1070
     1
1070
     0
1002
{
1002
}
1000
DIMTOFL
1070
     1
1070
     0
1002
{
1002
}
1000
DIMTOH
1070
     1
1070
     1
1002
{
1002
}
1000
DIMTOLJ
1070
     1
1070
     1
1002
{
1002
}
1000
DIMUPT
1070
     1
1070
     1
1002
{
1002
}
1000
M
1070
     0
1002
{
1002
}
1000
I
1070
     0
1002
{
1002
}
1002
}
1000
GEN-ANSI-ORD
1070
     5
1002
{
1000
NAME
1070
     4
1000
GEN-ANSI$6
1002
{
1002
}
1000
DIMTAD
1070
     1
1070
     0
1002
{
1002
}
1000
DIMTIH
1070
     1
1070
     1
1002
{
1002
}
1000
DIMTOH
1070
     1
1070
     1
1002
{
1002
}
1000
DIMTOLJ
1070
     1
1070
     1
1002
{
1002
}
1000
M
1070
     0
1002
{
1002
}
1000
I
1070
     0
1002
{
1002
}
1002
}
1000
GEN-ANSI-AXE-F
1070
     5
1002
{
1000
NAME
1070
     4
1000
GEN-ANSI-AXE-F
1002
{
1002
}
1000
DIMBLK1
1070
     4
1000
GENAXEH
1002
{
1002
}
1000
DIMSAH
1070
     1
1070
     1
1002
{
1002
}
1000
DIMSE1
1070
     1
1070
     1
1002
{
1002
}
1000
DIMSE2
1070
     1
1070
     1
1002
{
1002
}
1000
DIMTAD
1070
     1
1070
     0
1002
{
1002
}
1000
DIMTIH
1070
     1
1070
     1
1002
{
1002
}
1000
DIMTOH
1070
     1
1070
     1
1002
{
1002
}
1000
DIMTOLJ
1070
     1
1070
     1
1002
{
1002
}
1000
M
1070
     0
1002
{
1002
}
1000
I
1070
     0
1002
{
1002
}
1002
}
1000
GEN-ANSI-AXE-H
1070
     5
1002
{
1000
NAME
1070
     4
1000
GEN-ANSI-AXE-H
1002
{
1002
}
1000
DIMBLK1
1070
     4
1000
GENAXEH
1002
{
1002
}
1000
DIMLFAC
1070
     2
1040
2.0
1002
{
1002
}
1000
DIMSAH
1070
     1
1070
     1
1002
{
1002
}
1000
DIMSE1
1070
     1
1070
     1
1002
{
1002
}
1000
DIMSE2
1070
     1
1070
     1
1002
{
1002
}
1000
DIMTAD
1070
     1
1070
     0
1002
{
1002
}
1000
DIMTOFL
1070
     1
1070
     1
1002
{
1002
}
1000
DIMTOLJ
1070
     1
1070
     1
1002
{
1002
}
1000
M
1070
     0
1002
{
1002
}
1000
I
1070
     0
1002
{
1002
}
1002
}
1002
}
1000
DimSet
1070
     0
1002
{
1000
ChainSum
1070
     3
1070
     0
1002
{
1002
}
1000
DimDclTyp0
1070
     4
1000
dim23
1002
{
1002
}
1000
HorBra
1070
     3
1070
     0
1002
{
1002
}
1000
StrDia
1070
     4
1000
%%c<>
1002
{
1002
}
1000
StrRad
1070
     4
1000
R<>
1002
{
1002
}
1000
TextMinus
1070
     4
1000
<>
1002
{
1002
}
1000
TextPlus
1070
     4
1000
<>
1002
{
1002
}
1000
M
1070
     0
1002
{
1000
DimdliFirst
1070
     2
1040
10.0
1002
{
1002
}
1000
PointMakeDist
1070
     2
1040
10.0
1002
{
1002
}
1002
}
1000
I
1070
     0
1002
{
1000
DimdliFirst
1070
     2
1040
0.5
1002
{
1002
}
1000
PointMakeDist
1070
     2
1040
0.5
1002
{
1002
}
1002
}
1000
FitGrade
1070
     4
1000
h7
1002
{
1002
}
1002
}
1000
Drawing
1070
     0
1002
{
1000
ChamferDimMode
1070
     1
1070
     2
1002
{
1002
}
1000
Gen_Fiso
1070
    -3
1040
1.0
1002
{
1002
}
1000
GenDimStil
1070
     4
1000
ISO
1002
{
1002
}
1000
GenDwgUScale
1070
     2
1040
1.0
1002
{
1002
}
1000
GenInch
1070
     4
1000
M
1002
{
1002
}
1000
GenPlotScale
1070
     4
1000
1:5
1002
{
1002
}
1000
Revisi
1070
     4
1000
0
1002
{
1002
}
1000
Version
1070
    -5
1000
14.01/Apr  1 1998
1002
{
1002
}
1000
Platform
1070
    -5
1000
WINNT
1002
{
1002
}
1002
}
1000
DwgVar
1070
     0
1002
{
1000
M
1070
     0
1002
{
1002
}
1000
I
1070
     0
1002
{
1002
}
1002
}
1000
Hatch
1070
     0
1002
{
1000
GenHtcFlag
1070
     3
1070
     0
1002
{
1002
}
1002
}
1000
Info_Pos
1070
     0
1002
{
1000
>
1002
}
1000
Layer
1070
     7
1002
{
1000
Defs
1070
     0
1002
{
1000
>
1002
}
1000
EntSort
1070
     0
1002
{
1000
>
1002
}
1000
Match
1070
     0
1002
{
1002
}
1000
Settings
1070
     0
1002
{
1000
FocGrNC
1070
     3
1070
     0
1002
{
1002
}
1000
FocGrLo
1070
     3
1070
     0
1002
{
1002
}
1000
FocLoNC
1070
     3
1070
     0
1002
{
1002
}
1000
FocusCol
1070
     1
1070
   253
1002
{
1002
}
1000
GenStdLG
1070
     4
1000

1002
{
1002
}
1000
LayMatch
1070
     3
1070
     0
1002
{
1002
}
1000
LgOff
1070
     3
1070
     0
1002
{
1002
}
1000
CurLG
1070
    -5
1000

1002
{
1002
}
1002
}
1002
}
1000
LType
1070
     0
1002
{
1000
GEN3
1070
    10
1000
genius.lin
1002
{
1002
}
1000
GEN7
1070
    10
1000
genius.lin
1002
{
1002
}
1000
GEN4A
1070
    10
1000
genius.lin
1002
{
1002
}
1000
GEN3A
1070
    10
1000
genius.lin
1002
{
1002
}
1000
GEN7A
1070
    10
1000
genius.lin
1002
{
1002
}
1000
GENZIGZAG
1070
    10
1000
genius.lin
1002
{
1002
}
1002
}
1000
Objecter
1070
     0
1002
{
1000
CreateGroups
1070
     3
1070
     0
1002
{
1002
}
1000
LaySwitch
1070
     3
1070
     1
1002
{
1002
}
1000
LastObj
1070
    -5
1000
1908
1002
{
1002
}
1000
TimeStamp
1070
    -5
1000
20030120.14501542
1002
{
1002
}
1002
}
1000
OSWiz
1070
     0
1002
{
1000
Filter
1070
     0
1002
{
1000
HATCH
1070
    11
1002
{
1000
EntityType
1070
     4
1000
LINE
1002
{
1002
}
1000
Layer
1070
     4
1000
8,8N,*-8,*-8N
1002
{
1002
}
1000
Linetype
1070
     4
1000
*
1002
{
1002
}
1000
Color
1070
     4
1000
*
1002
{
1002
}
1000
ApplyInDims
1070
     3
1070
     1
1002
{
1002
}
1002
}
1000
SYMBOLS
1070
    11
1002
{
1000
EntityType
1070
     4
1000
*
1002
{
1002
}
1000
Layer
1070
     4
1000
[5-6],[5-6]N,*-[5-6],*-[5-6]N
1002
{
1002
}
1000
Linetype
1070
     4
1000
*
1002
{
1002
}
1000
Color
1070
     4
1000
*
1002
{
1002
}
1000
ApplyInDims
1070
     3
1070
     1
1002
{
1002
}
1002
}
1000
FEM
1070
    11
1002
{
1000
EntityType
1070
     4
1000
*
1002
{
1002
}
1000
Layer
1070
     4
1000
4A,4AN,*-4A,*-4AN
1002
{
1002
}
1000
Linetype
1070
     4
1000
*
1002
{
1002
}
1000
Color
1070
     4
1000
*
1002
{
1002
}
1000
ApplyInDims
1070
     3
1070
     1
1002
{
1002
}
1002
}
1002
}
1002
}
1000
PaList
1070
     0
1002
{
1000
AutoUpdatePartList
1070
     1
1070
     0
1002
{
1002
}
1000
ReadInfoPoint
1070
     3
1070
     0
1002
{
1002
}
1000
ReadPosNr
1070
     3
1070
     1
1002
{
1002
}
1000
RevStr
1070
     4
1000
0
1002
{
1002
}
1002
}
1000
Paper
1070
     0
1002
{
1000
Layer
1070
    -5
1000
8
1002
{
1002
}
1002
}
1000
PartDB
1070
     0
1002
{
1000
GenDbOwner
1070
     4
1000

1002
{
1002
}
1002
}
1000
System
1070
     0
1002
{
1000
Menu
1070
     4
1000
GEV
1002
{
1002
}
1002
}
1000
Title
1070
     0
1002
{
1000
MakeView
1070
     1
1070
     2
1002
{
1002
}
1002
}
1000
Tools
1070
     0
1002
{
1000
Trans
1070
     0
1002
{
1000
Drawingtranslation
1070
    -4
1070
     1
1002
{
1002
}
1000
upreserve
1070
     3
1070
     0
1002
{
1002
}
1000
originally_on
1070
    -4
1070
     0
1002
{
1002
}
1000
sourcelang
1070
    -5
1000
D
1002
{
1002
}
1002
}
1002
}
  0
APPID
  5
1743
330
16F9
100
AcDbSymbolTableRecord
100
AcDbRegAppTableRecord
  2
GENIUS_GEVCFG0_13
 70
     0
1001
GENIUS_GENCFG_13
1071
1043070648
1000
1743
1000
GEV
1070
     1
1000
GenCfgObject
1000
VED
1070
     0
1002
{
1002
}
  0
APPID
  5
175E
330
16F9
100
AcDbSymbolTableRecord
100
AcDbRegAppTableRecord
  2
GENIUS_GENODEF_13
 70
     0
  0
APPID
  5
175F
330
16F9
100
AcDbSymbolTableRecord
100
AcDbRegAppTableRecord
  2
GENIUS_GENOBJ-N-HTC_13
 70
     0
  0
APPID
  5
1760
330
16F9
100
AcDbSymbolTableRecord
100
AcDbRegAppTableRecord
  2
GENIUS_GENHATCH_13
 70
     0
  0
APPID
  5
18D9
330
16F9
100
AcDbSymbolTableRecord
100
AcDbRegAppTableRecord
  2
GEV_VCCNULL_SWITCH_OFF
 70
     0
  0
APPID
  5
18DA
330
16F9
100
AcDbSymbolTableRecord
100
AcDbRegAppTableRecord
  2
GENIUS_GENDTOL_13
 70
     0
  0
APPID
  5
18DB
330
16F9
100
AcDbSymbolTableRecord
100
AcDbRegAppTableRecord
  2
GENIUS_GENBLLY_14
 70
     0
  0
APPID
  5
18DC
330
16F9
100
AcDbSymbolTableRecord
100
AcDbRegAppTableRecord
  2
GENIUS_GENOBJ-N-CRS_13
 70
     0
  0
APPID
  5
18DD
330
16F9
100
AcDbSymbolTableRecord
100
AcDbRegAppTableRecord
  2
GENIUS_GENOREF_13
 70
     0
  0
APPID
  5
18DE
330
16F9
100
AcDbSymbolTableRecord
100
AcDbRegAppTableRecord
  2
GENIUS_GENOLIS_13
 70
     0
  0
APPID
  5
18DF
330
16F9
100
AcDbSymbolTableRecord
100
AcDbRegAppTableRecord
  2
GENIUS_GEFCFG0_13
 70
     0
  0
APPID
  5
18E0
330
16F9
100
AcDbSymbolTableRecord
100
AcDbRegAppTableRecord
  2
GENIUS_VERSION2
 70
     0
  0
APPID
  5
18E1
330
16F9
100
AcDbSymbolTableRecord
100
AcDbRegAppTableRecord
  2
GENIUS_GENREC_14
 70
     0
  0
APPID
  5
18E2
330
16F9
100
AcDbSymbolTableRecord
100
AcDbRegAppTableRecord
  2
GENIUS_GENOBJ-N-REC_13
 70
     0
  0
APPID
  5
18E3
330
16F9
100
AcDbSymbolTableRecord
100
AcDbRegAppTableRecord
  2
GENIUS_GENOBJ-N-TIT_13
 70
     0
  0
APPID
  5
18E4
330
16F9
100
AcDbSymbolTableRecord
100
AcDbRegAppTableRecord
  2
GENIUS_GENTITLE_13
 70
     0
  0
APPID
  5
18E5
330
16F9
100
AcDbSymbolTableRecord
100
AcDbRegAppTableRecord
  2
GENIUS_GENZVEED_13
 70
     0
  0
APPID
  5
18E6
330
16F9
100
AcDbSymbolTableRecord
100
AcDbRegAppTableRecord
  2
GENIUS_GENOBJ-N-SDF_13
 70
     0
  0
APPID
  5
18E7
330
16F9
100
AcDbSymbolTableRecord
100
AcDbRegAppTableRecord
  2
GENIUS_GENSCREG_13
 70
     0
  0
APPID
  5
18E8
330
16F9
100
AcDbSymbolTableRecord
100
AcDbRegAppTableRecord
  2
GENIUS_GENBLKED_14
 70
     0
  0
APPID
  5
1AC3
330
16F9
100
AcDbSymbolTableRecord
100
AcDbRegAppTableRecord
  2
MCAD_NO_VIS
 70
     0
  0
APPID
  5
1AC4
330
16F9
100
AcDbSymbolTableRecord
100
AcDbRegAppTableRecord
  2
ACAD_TEMP_GRAPHIC
 70
     0
  0
APPID
  5
1AF4
330
16F9
100
AcDbSymbolTableRecord
100
AcDbRegAppTableRecord
  2
AD_DRAW
 70
     0
  0
APPID
  5
1AF7
330
16F9
100
AcDbSymbolTableRecord
100
AcDbRegAppTableRecord
  2
ACATTRIBSERVICES
 70
     0
  0
APPID
  5
1B17
330
16F9
100
AcDbSymbolTableRecord
100
AcDbRegAppTableRecord
  2
DESIGNERASSEMBLIES
 70
     0
  0
APPID
  5
1B1D
330
16F9
100
AcDbSymbolTableRecord
100
AcDbRegAppTableRecord
  2
ACADM_DIM_EDIT
 70
     0
  0
APPID
  5
1B1E
330
16F9
100
AcDbSymbolTableRecord
100
AcDbRegAppTableRecord
  2
AMDT_DM_ADJ
 70
     0
  0
APPID
  5
1B50
330
16F9
100
AcDbSymbolTableRecord
100
AcDbRegAppTableRecord
  2
ACAD_DSTYLE_DIMARC_LENGTH_SYMBOL
 70
     0
  0
APPID
  5
1B51
330
16F9
100
AcDbSymbolTableRecord
100
AcDbRegAppTableRecord
  2
ACAD_DSTYLE_DIMJOGGED_JOGANGLE_SYMBOL
 70
     0
  0
ENDTAB
  0
TABLE
  2
DIMSTYLE
  5
16FA
330
0
100
AcDbSymbolTable
 70
     8
100
AcDbDimStyleTable
 71
     0
  0
DIMSTYLE
105
1720
102
{ACAD_REACTORS
330
1684
330
168E
330
1698
330
16A2
330
16AD
330
16B7
330
16C1
330
16CC
102
}
330
16FA
100
AcDbSymbolTableRecord
100
AcDbDimStyleTableRecord
  2
GEN-ISO
 70
     0
  4
"
 40
5.0
 41
2.5
 42
1.0
 43
7.0
 44
1.0
 47
0.1
 48
0.1
 73
     0
 74
     0
 77
     1
 78
     8
140
3.5
141
0.0
143
0.03937
146
0.71
147
0.6
172
     1
176
   256
177
   256
178
     2
271
     2
272
     3
274
     4
283
     0
340
16FF
  0
DIMSTYLE
105
1B4F
330
16FA
100
AcDbSymbolTableRecord
100
AcDbDimStyleTableRecord
  2
AM_DIN
 70
     0
  4
"
 41
2.5
 42
1.0
 43
10.0
 44
1.0
 47
0.1
 48
0.1
 73
     0
 74
     0
 77
     1
 78
     8
 79
     2
140
3.5
141
0.0
143
0.0393701
146
0.71
147
1.5
172
     1
176
   256
177
   256
178
     2
271
     2
272
     3
274
     4
283
     0
284
     8
340
16FF
371
    -1
372
    -1
1001
ACAD_DSTYLE_DIMARC_LENGTH_SYMBOL
1070
   379
1070
     0
1001
ACAD_DSTYLE_DIMJOGGED_JOGANGLE_SYMBOL
1070
   384
1040
1.570796326794896
  0
DIMSTYLE
105
1B60
330
16FA
100
AcDbSymbolTableRecord
100
AcDbDimStyleTableRecord
  2
AM_DIN$3
 70
     0
  4
"
 41
2.5
 42
1.0
 43
10.0
 44
1.0
 47
0.1
 48
0.1
 73
     0
 77
     1
 78
     8
 79
     2
140
3.5
141
0.0
143
0.0393701
146
0.71
147
1.5
176
   256
177
   256
178
     2
271
     2
272
     3
274
     4
283
     0
284
     8
288
     1
289
     0
340
16FF
371
    -1
372
    -1
1001
ACAD_DSTYLE_DIMARC_LENGTH_SYMBOL
1070
   379
1070
     0
1001
ACAD_DSTYLE_DIMJOGGED_JOGANGLE_SYMBOL
1070
   384
1040
1.570796326794896
  0
DIMSTYLE
105
1B65
330
16FA
100
AcDbSymbolTableRecord
100
AcDbDimStyleTableRecord
  2
AM_DIN$4
 70
     0
  4
"
 41
2.5
 42
1.0
 43
10.0
 44
1.0
 47
0.1
 48
0.1
 73
     0
 77
     1
 78
     8
 79
     2
140
3.5
141
0.0
143
0.0393701
146
0.71
147
1.5
176
   256
177
   256
178
     2
271
     2
272
     3
274
     4
283
     0
284
     8
288
     1
289
     0
340
16FF
371
    -1
372
    -1
1001
ACAD_DSTYLE_DIMARC_LENGTH_SYMBOL
1070
   379
1070
     0
1001
ACAD_DSTYLE_DIMJOGGED_JOGANGLE_SYMBOL
1070
   384
1040
1.570796326794896
  0
DIMSTYLE
105
1B6A
330
16FA
100
AcDbSymbolTableRecord
100
AcDbDimStyleTableRecord
  2
AM_DIN$6
 70
     0
  4
"
 41
2.5
 42
1.0
 43
10.0
 44
1.0
 47
0.1
 48
0.1
 73
     0
 74
     0
 78
     8
 79
     2
140
3.5
141
0.0
143
0.0393701
146
0.71
147
1.5
172
     1
176
   256
177
   256
178
     2
271
     2
272
     3
274
     4
283
     0
284
     8
340
16FF
371
    -1
372
    -1
1001
ACAD_DSTYLE_DIMARC_LENGTH_SYMBOL
1070
   379
1070
     0
1001
ACAD_DSTYLE_DIMJOGGED_JOGANGLE_SYMBOL
1070
   384
1040
1.570796326794896
  0
DIMSTYLE
105
1B6F
330
16FA
100
AcDbSymbolTableRecord
100
AcDbDimStyleTableRecord
  2
AM_DIN$7
 70
     0
  4
"
 41
2.5
 42
1.0
 43
10.0
 44
1.0
 47
0.1
 48
0.1
 73
     0
 74
     0
 77
     1
 78
     8
 79
     2
140
5.0
141
0.0
143
0.0393701
146
0.71
147
1.5
172
     1
176
   256
177
   256
178
     2
271
     2
272
     3
274
     4
283
     0
284
     8
340
16FF
371
    -1
372
    -1
1001
ACAD_DSTYLE_DIMARC_LENGTH_SYMBOL
1070
   379
1070
     0
1001
ACAD_DSTYLE_DIMJOGGED_JOGANGLE_SYMBOL
1070
   384
1040
1.570796326794896
  0
DIMSTYLE
105
1B74
330
16FA
100
AcDbSymbolTableRecord
100
AcDbDimStyleTableRecord
  2
AM_DIN$SF
 70
     0
  4
"
 41
2.5
 42
1.0
 43
10.0
 44
1.0
 47
0.1
 48
0.1
 73
     0
 74
     0
 75
     1
 76
     1
 77
     1
 78
     8
 79
     2
140
3.5
141
0.0
143
0.0393701
146
0.71
147
1.5
172
     1
176
   256
177
   256
178
     2
271
     2
272
     3
274
     4
283
     0
284
     8
340
16FF
371
    -1
372
    -1
1001
ACAD_DSTYLE_DIMARC_LENGTH_SYMBOL
1070
   379
1070
     0
1001
ACAD_DSTYLE_DIMJOGGED_JOGANGLE_SYMBOL
1070
   384
1040
1.570796326794896
  0
DIMSTYLE
105
1B7D
330
16FA
100
AcDbSymbolTableRecord
100
AcDbDimStyleTableRecord
  2
AM_DIN$SH
 70
     0
  4
"
 41
2.5
 42
1.0
 43
10.0
 44
1.0
 47
0.1
 48
0.1
 73
     0
 74
     0
 75
     1
 76
     1
 77
     1
 78
     8
 79
     2
140
3.5
141
0.0
143
0.0393701
144
2.0
146
0.71
147
1.5
172
     1
173
     1
176
   256
177
   256
178
     2
271
     2
272
     3
274
     4
283
     0
284
     8
340
16FF
343
1B75
371
    -1
372
    -1
1001
ACAD_DSTYLE_DIMARC_LENGTH_SYMBOL
1070
   379
1070
     0
1001
ACAD_DSTYLE_DIMJOGGED_JOGANGLE_SYMBOL
1070
   384
1040
1.570796326794896
  0
ENDTAB
  0
TABLE
  2
BLOCK_RECORD
  5
16F1
330
0
100
AcDbSymbolTable
 70
    12
  0
BLOCK_RECORD
  5
1708
330
16F1
100
AcDbSymbolTableRecord
100
AcDbBlockTableRecord
  2
*MODEL_SPACE
340
1ABB
  0
BLOCK_RECORD
  5
1705
330
16F1
100
AcDbSymbolTableRecord
100
AcDbBlockTableRecord
  2
*PAPER_SPACE
340
1ABC
  0
BLOCK_RECORD
  5
1746
330
16F1
100
AcDbSymbolTableRecord
100
AcDbBlockTableRecord
  2
*D0
340
0
  0
BLOCK_RECORD
  5
1850
330
16F1
100
AcDbSymbolTableRecord
100
AcDbBlockTableRecord
  2
*D1
340
0
  0
BLOCK_RECORD
  5
185C
330
16F1
100
AcDbSymbolTableRecord
100
AcDbBlockTableRecord
  2
*D2
340
0
  0
BLOCK_RECORD
  5
1868
330
16F1
100
AcDbSymbolTableRecord
100
AcDbBlockTableRecord
  2
*D3
340
0
  0
BLOCK_RECORD
  5
1874
330
16F1
100
AcDbSymbolTableRecord
100
AcDbBlockTableRecord
  2
*D4
340
0
  0
BLOCK_RECORD
  5
1882
330
16F1
100
AcDbSymbolTableRecord
100
AcDbBlockTableRecord
  2
*D5
340
0
  0
BLOCK_RECORD
  5
188E
330
16F1
100
AcDbSymbolTableRecord
100
AcDbBlockTableRecord
  2
*D6
340
0
  0
BLOCK_RECORD
  5
189A
330
16F1
100
AcDbSymbolTableRecord
100
AcDbBlockTableRecord
  2
*D7
340
0
  0
BLOCK_RECORD
  5
18A9
330
16F1
100
AcDbSymbolTableRecord
100
AcDbBlockTableRecord
  2
KATALOG_LEER
340
0
102
{BLKREFS
331
18EA
331
1907
102
}
  0
BLOCK_RECORD
  5
1B75
330
16F1
100
AcDbSymbolTableRecord
100
AcDbBlockTableRecord
  2
GENAXEH
340
0
  0
ENDTAB
  0
ENDSEC
  0
SECTION
  2
BLOCKS
  0
BLOCK
  5
1709
330
1708
100
AcDbEntity
  8
0
100
AcDbBlockBegin
  2
*MODEL_SPACE
 70
     0
 10
0.0
 20
0.0
 30
0.0
  3
*MODEL_SPACE
  1

  0
ENDBLK
  5
170A
330
1708
100
AcDbEntity
  8
0
100
AcDbBlockEnd
  0
BLOCK
  5
1706
330
1705
100
AcDbEntity
 67
     1
  8
0
100
AcDbBlockBegin
  2
*PAPER_SPACE
 70
     0
 10
0.0
 20
0.0
 30
0.0
  3
*PAPER_SPACE
  1

  0
ENDBLK
  5
1707
330
1705
100
AcDbEntity
 67
     1
  8
0
100
AcDbBlockEnd
  0
BLOCK
  5
1A98
330
1746
100
AcDbEntity
  8
0
100
AcDbBlockBegin
  2
*D0
 70
     1
 10
0.0
 20
0.0
 30
0.0
  3
*D0
  1

  0
LINE
  5
1A99
330
1746
100
AcDbEntity
  8
0
  6
ByBlock
100
AcDbLine
 10
280.9629970000001
 20
537.0419329999999
 30
0.0
 11
230.962997
 21
537.0419329999999
 31
0.0
  0
LINE
  5
1A9A
330
1746
100
AcDbEntity
  8
0
  6
ByBlock
100
AcDbLine
 10
264.557997
 20
587.0419329999999
 30
0.0
 11
230.962997
 21
587.0419329999999
 31
0.0
  0
LINE
  5
1A9B
330
1746
100
AcDbEntity
  8
0
  6
ByBlock
100
AcDbLine
 10
235.962997
 20
549.5419329999999
 30
0.0
 11
235.962997
 21
574.5419329999999
 31
0.0
  0
SOLID
  5
1A9C
330
1746
100
AcDbEntity
  8
0
  6
ByBlock
100
AcDbTrace
 10
233.879664
 20
549.5419329999999
 30
0.0
 11
238.04633
 21
549.5419329999999
 31
0.0
 12
235.962997
 22
537.0419329999999
 32
0.0
 13
235.962997
 23
537.0419329999999
 33
0.0
  0
SOLID
  5
1A9D
330
1746
100
AcDbEntity
  8
0
  6
ByBlock
100
AcDbTrace
 10
233.879664
 20
574.5419329999999
 30
0.0
 11
238.04633
 21
574.5419329999999
 31
0.0
 12
235.962997
 22
587.0419329999999
 32
0.0
 13
235.962997
 23
587.0419329999999
 33
0.0
  0
MTEXT
  5
1A9E
330
1746
100
AcDbEntity
  8
0
  6
ByBlock
 62
     2
100
AcDbMText
 10
224.212997
 20
562.0419329999999
 30
0.0
 40
17.5
 41
0.0
 71
     5
 72
     1
  1
50
 11
0.0
 21
1.0
 31
0.0
 73
     1
 44
1.0
1001
ACAD
1000
MTEXTBEGIN
1070
    73
1070
     1
1070
    44
1040
1.0
1070
    74
1070
     0
1000
MTEXTEND
  0
POINT
  5
1A9F
330
1746
100
AcDbEntity
  8
DEFPOINTS
  6
ByBlock
 62
     0
100
AcDbPoint
 10
285.962997
 20
537.0419329999999
 30
0.0
  0
POINT
  5
1AA0
330
1746
100
AcDbEntity
  8
DEFPOINTS
  6
ByBlock
 62
     0
100
AcDbPoint
 10
269.557997
 20
587.0419329999999
 30
0.0
  0
POINT
  5
1AA1
330
1746
100
AcDbEntity
  8
DEFPOINTS
  6
ByBlock
 62
     0
100
AcDbPoint
 10
235.962997
 20
587.0419329999999
 30
0.0
  0
ENDBLK
  5
1AA2
330
1746
100
AcDbEntity
  8
0
100
AcDbBlockEnd
  0
BLOCK
  5
19F9
330
1850
100
AcDbEntity
  8
0
100
AcDbBlockBegin
  2
*D1
 70
     1
 10
0.0
 20
0.0
 30
0.0
  3
*D1
  1

  0
LINE
  5
19FA
330
1850
100
AcDbEntity
  8
0
  6
ByBlock
100
AcDbLine
 10
355.713997
 20
412.041933
 30
0.0
 11
195.962997
 21
412.041933
 31
0.0
  0
LINE
  5
19FB
330
1850
100
AcDbEntity
  8
0
  6
ByBlock
100
AcDbLine
 10
312.463997
 20
587.0419329999999
 30
0.0
 11
195.962997
 21
587.0419329999999
 31
0.0
  0
LINE
  5
19FC
330
1850
100
AcDbEntity
  8
0
  6
ByBlock
100
AcDbLine
 10
200.962997
 20
424.541933
 30
0.0
 11
200.962997
 21
574.5419329999999
 31
0.0
  0
SOLID
  5
19FD
330
1850
100
AcDbEntity
  8
0
  6
ByBlock
100
AcDbTrace
 10
198.879664
 20
424.541933
 30
0.0
 11
203.04633
 21
424.541933
 31
0.0
 12
200.962997
 22
412.041933
 32
0.0
 13
200.962997
 23
412.041933
 33
0.0
  0
SOLID
  5
19FE
330
1850
100
AcDbEntity
  8
0
  6
ByBlock
100
AcDbTrace
 10
198.879664
 20
574.5419329999999
 30
0.0
 11
203.04633
 21
574.5419329999999
 31
0.0
 12
200.962997
 22
587.0419329999999
 32
0.0
 13
200.962997
 23
587.0419329999999
 33
0.0
  0
MTEXT
  5
19FF
330
1850
100
AcDbEntity
  8
0
  6
ByBlock
 62
     2
100
AcDbMText
 10
189.212997
 20
499.541933
 30
0.0
 40
17.5
 41
0.0
 71
     5
 72
     1
  1
175
 11
0.0
 21
1.0
 31
0.0
 73
     1
 44
1.0
1001
ACAD
1000
MTEXTBEGIN
1070
    73
1070
     1
1070
    44
1040
1.0
1070
    74
1070
     0
1000
MTEXTEND
  0
POINT
  5
1A00
330
1850
100
AcDbEntity
  8
DEFPOINTS
  6
ByBlock
 62
     0
100
AcDbPoint
 10
360.713997
 20
412.041933
 30
0.0
  0
POINT
  5
1A01
330
1850
100
AcDbEntity
  8
DEFPOINTS
  6
ByBlock
 62
     0
100
AcDbPoint
 10
317.463997
 20
587.0419329999999
 30
0.0
  0
POINT
  5
1A02
330
1850
100
AcDbEntity
  8
DEFPOINTS
  6
ByBlock
 62
     0
100
AcDbPoint
 10
200.962997
 20
587.0419329999999
 30
0.0
  0
ENDBLK
  5
1A03
330
1850
100
AcDbEntity
  8
0
100
AcDbBlockEnd
  0
BLOCK
  5
1A71
330
185C
100
AcDbEntity
  8
0
100
AcDbBlockBegin
  2
*D2
 70
     1
 10
0.0
 20
0.0
 30
0.0
  3
*D2
  1

  0
LINE
  5
1A72
330
185C
100
AcDbEntity
  8
0
  6
ByBlock
100
AcDbLine
 10
476.2139969999999
 20
412.041933
 30
0.0
 11
596.5169969999999
 21
412.041933
 31
0.0
  0
LINE
  5
1A73
330
185C
100
AcDbEntity
  8
0
  6
ByBlock
100
AcDbLine
 10
476.2139969999999
 20
485.735933
 30
0.0
 11
596.5169969999999
 21
485.735933
 31
0.0
  0
LINE
  5
1A74
330
185C
100
AcDbEntity
  8
0
  6
ByBlock
100
AcDbLine
 10
591.5169969999999
 20
424.541933
 30
0.0
 11
591.5169969999999
 21
473.235933
 31
0.0
  0
SOLID
  5
1A75
330
185C
100
AcDbEntity
  8
0
  6
ByBlock
100
AcDbTrace
 10
589.433664
 20
424.541933
 30
0.0
 11
593.60033
 21
424.541933
 31
0.0
 12
591.5169969999999
 22
412.041933
 32
0.0
 13
591.5169969999999
 23
412.041933
 33
0.0
  0
SOLID
  5
1A76
330
185C
100
AcDbEntity
  8
0
  6
ByBlock
100
AcDbTrace
 10
589.433664
 20
473.235933
 30
0.0
 11
593.60033
 21
473.235933
 31
0.0
 12
591.5169969999999
 22
485.735933
 32
0.0
 13
591.5169969999999
 23
485.735933
 33
0.0
  0
MTEXT
  5
1A77
330
185C
100
AcDbEntity
  8
0
  6
ByBlock
 62
     2
100
AcDbMText
 10
579.7669969999999
 20
448.888933
 30
0.0
 40
17.5
 41
0.0
 71
     5
 72
     1
  1
75
 11
0.0
 21
1.0
 31
0.0
 73
     1
 44
1.0
1001
ACAD
1000
MTEXTBEGIN
1070
    73
1070
     1
1070
    44
1040
1.0
1070
    74
1070
     0
1000
MTEXTEND
  0
POINT
  5
1A78
330
185C
100
AcDbEntity
  8
DEFPOINTS
  6
ByBlock
 62
     0
100
AcDbPoint
 10
471.2139969999999
 20
412.041933
 30
0.0
  0
POINT
  5
1A79
330
185C
100
AcDbEntity
  8
DEFPOINTS
  6
ByBlock
 62
     0
100
AcDbPoint
 10
471.2139969999999
 20
485.735933
 30
0.0
  0
POINT
  5
1A7A
330
185C
100
AcDbEntity
  8
DEFPOINTS
  6
ByBlock
 62
     0
100
AcDbPoint
 10
591.5169969999999
 20
485.735933
 30
0.0
  0
ENDBLK
  5
1A7B
330
185C
100
AcDbEntity
  8
0
100
AcDbBlockEnd
  0
BLOCK
  5
1A04
330
1868
100
AcDbEntity
  8
0
100
AcDbBlockBegin
  2
*D3
 70
     1
 10
0.0
 20
0.0
 30
0.0
  3
*D3
  1

  0
LINE
  5
1A05
330
1868
100
AcDbEntity
  8
0
  6
ByBlock
100
AcDbLine
 10
312.463997
 20
175.042933
 30
0.0
 11
230.962997
 21
175.042933
 31
0.0
  0
LINE
  5
1A06
330
1868
100
AcDbEntity
  8
0
  6
ByBlock
100
AcDbLine
 10
312.463997
 20
372.041933
 30
0.0
 11
230.962997
 21
372.041933
 31
0.0
  0
LINE
  5
1A07
330
1868
100
AcDbEntity
  8
0
  6
ByBlock
100
AcDbLine
 10
235.962997
 20
187.542933
 30
0.0
 11
235.962997
 21
359.541933
 31
0.0
  0
SOLID
  5
1A08
330
1868
100
AcDbEntity
  8
0
  6
ByBlock
100
AcDbTrace
 10
233.879664
 20
187.542933
 30
0.0
 11
238.04633
 21
187.542933
 31
0.0
 12
235.962997
 22
175.042933
 32
0.0
 13
235.962997
 23
175.042933
 33
0.0
  0
SOLID
  5
1A09
330
1868
100
AcDbEntity
  8
0
  6
ByBlock
100
AcDbTrace
 10
233.879664
 20
359.541933
 30
0.0
 11
238.04633
 21
359.541933
 31
0.0
 12
235.962997
 22
372.041933
 32
0.0
 13
235.962997
 23
372.041933
 33
0.0
  0
MTEXT
  5
1A0A
330
1868
100
AcDbEntity
  8
0
  6
ByBlock
 62
     2
100
AcDbMText
 10
224.212997
 20
273.542433
 30
0.0
 40
17.5
 41
0.0
 71
     5
 72
     1
  1
197
 11
0.0
 21
1.0
 31
0.0
 73
     1
 44
1.0
1001
ACAD
1000
MTEXTBEGIN
1070
    73
1070
     1
1070
    44
1040
1.0
1070
    74
1070
     0
1000
MTEXTEND
  0
POINT
  5
1A0B
330
1868
100
AcDbEntity
  8
DEFPOINTS
  6
ByBlock
 62
     0
100
AcDbPoint
 10
317.463997
 20
175.042933
 30
0.0
  0
POINT
  5
1A0C
330
1868
100
AcDbEntity
  8
DEFPOINTS
  6
ByBlock
 62
     0
100
AcDbPoint
 10
317.463997
 20
372.041933
 30
0.0
  0
POINT
  5
1A0D
330
1868
100
AcDbEntity
  8
DEFPOINTS
  6
ByBlock
 62
     0
100
AcDbPoint
 10
235.962997
 20
372.041933
 30
0.0
  0
ENDBLK
  5
1A0E
330
1868
100
AcDbEntity
  8
0
100
AcDbBlockEnd
  0
BLOCK
  5
1A3F
330
1874
100
AcDbEntity
  8
0
100
AcDbBlockBegin
  2
*D4
 70
     1
 10
0.0
 20
0.0
 30
0.0
  3
*D4
  1

  0
LINE
  5
1A40
330
1874
100
AcDbEntity
  8
0
  6
ByBlock
100
AcDbLine
 10
348.462997
 20
207.541933
 30
0.0
 11
348.462997
 21
120.042933
 31
0.0
  0
LINE
  5
1A41
330
1874
100
AcDbEntity
  8
0
  6
ByBlock
100
AcDbLine
 10
361.463997
 20
207.541933
 30
0.0
 11
361.463997
 21
120.042933
 31
0.0
  0
LINE
  5
1A42
330
1874
100
AcDbEntity
  8
0
  6
ByBlock
100
AcDbLine
 10
335.962997
 20
125.042933
 30
0.0
 11
323.462997
 21
125.042933
 31
0.0
  0
LINE
  5
1A43
330
1874
100
AcDbEntity
  8
0
  6
ByBlock
100
AcDbLine
 10
373.963997
 20
125.042933
 30
0.0
 11
408.9388709999999
 21
125.042933
 31
0.0
  0
LINE
  5
1A44
330
1874
100
AcDbEntity
  8
0
  6
ByBlock
100
AcDbLine
 10
348.462997
 20
125.042933
 30
0.0
 11
361.463997
 21
125.042933
 31
0.0
  0
SOLID
  5
1A45
330
1874
100
AcDbEntity
  8
0
  6
ByBlock
100
AcDbTrace
 10
335.962997
 20
127.126266
 30
0.0
 11
335.962997
 21
122.959599
 31
0.0
 12
348.462997
 22
125.042933
 32
0.0
 13
348.462997
 23
125.042933
 33
0.0
  0
SOLID
  5
1A46
330
1874
100
AcDbEntity
  8
0
  6
ByBlock
100
AcDbTrace
 10
373.963997
 20
127.126266
 30
0.0
 11
373.963997
 21
122.959599
 31
0.0
 12
361.463997
 22
125.042933
 32
0.0
 13
361.463997
 23
125.042933
 33
0.0
  0
MTEXT
  5
1A47
330
1874
100
AcDbEntity
  8
0
  6
ByBlock
 62
     2
100
AcDbMText
 10
397.701434
 20
136.792933
 30
0.0
 40
17.5
 41
0.0
 71
     5
 72
     1
  1
13
 73
     1
 44
1.0
1001
ACAD
1000
MTEXTBEGIN
1070
    73
1070
     1
1070
    44
1040
1.0
1070
    74
1070
     0
1000
MTEXTEND
  0
POINT
  5
1A48
330
1874
100
AcDbEntity
  8
DEFPOINTS
  6
ByBlock
 62
     0
100
AcDbPoint
 10
348.462997
 20
212.541933
 30
0.0
  0
POINT
  5
1A49
330
1874
100
AcDbEntity
  8
DEFPOINTS
  6
ByBlock
 62
     0
100
AcDbPoint
 10
361.463997
 20
212.541933
 30
0.0
  0
POINT
  5
1A4A
330
1874
100
AcDbEntity
  8
DEFPOINTS
  6
ByBlock
 62
     0
100
AcDbPoint
 10
361.463997
 20
125.042933
 30
0.0
  0
ENDBLK
  5
1A4B
330
1874
100
AcDbEntity
  8
0
100
AcDbBlockEnd
  0
BLOCK
  5
1A4C
330
1882
100
AcDbEntity
  8
0
100
AcDbBlockBegin
  2
*D5
 70
     1
 10
0.0
 20
0.0
 30
0.0
  3
*D5
  1

  0
LINE
  5
1A4D
330
1882
100
AcDbEntity
  8
0
  6
ByBlock
100
AcDbLine
 10
317.463997
 20
170.042933
 30
0.0
 11
317.463997
 21
85.04293299999998
 31
0.0
  0
LINE
  5
1A4E
330
1882
100
AcDbEntity
  8
0
  6
ByBlock
100
AcDbLine
 10
514.4629969999999
 20
170.042933
 30
0.0
 11
514.4629969999999
 21
85.04293299999998
 31
0.0
  0
LINE
  5
1A4F
330
1882
100
AcDbEntity
  8
0
  6
ByBlock
100
AcDbLine
 10
329.963997
 20
90.04293299999998
 30
0.0
 11
501.9629969999999
 21
90.04293299999998
 31
0.0
  0
SOLID
  5
1A50
330
1882
100
AcDbEntity
  8
0
  6
ByBlock
100
AcDbTrace
 10
329.963997
 20
92.126266
 30
0.0
 11
329.963997
 21
87.95959899999999
 31
0.0
 12
317.463997
 22
90.04293299999998
 32
0.0
 13
317.463997
 23
90.04293299999998
 33
0.0
  0
SOLID
  5
1A51
330
1882
100
AcDbEntity
  8
0
  6
ByBlock
100
AcDbTrace
 10
501.9629969999999
 20
92.126266
 30
0.0
 11
501.9629969999999
 21
87.95959899999999
 31
0.0
 12
514.4629969999999
 22
90.04293299999998
 32
0.0
 13
514.4629969999999
 23
90.04293299999998
 33
0.0
  0
MTEXT
  5
1A52
330
1882
100
AcDbEntity
  8
0
  6
ByBlock
 62
     2
100
AcDbMText
 10
415.9634969999999
 20
101.792933
 30
0.0
 40
17.5
 41
0.0
 71
     5
 72
     1
  1
197
 73
     1
 44
1.0
1001
ACAD
1000
MTEXTBEGIN
1070
    73
1070
     1
1070
    44
1040
1.0
1070
    74
1070
     0
1000
MTEXTEND
  0
POINT
  5
1A53
330
1882
100
AcDbEntity
  8
DEFPOINTS
  6
ByBlock
 62
     0
100
AcDbPoint
 10
317.463997
 20
175.042933
 30
0.0
  0
POINT
  5
1A54
330
1882
100
AcDbEntity
  8
DEFPOINTS
  6
ByBlock
 62
     0
100
AcDbPoint
 10
514.4629969999999
 20
175.042933
 30
0.0
  0
POINT
  5
1A55
330
1882
100
AcDbEntity
  8
DEFPOINTS
  6
ByBlock
 62
     0
100
AcDbPoint
 10
514.4629969999999
 20
90.04293299999998
 30
0.0
  0
ENDBLK
  5
1A56
330
1882
100
AcDbEntity
  8
0
100
AcDbBlockEnd
  0
BLOCK
  5
1A34
330
188E
100
AcDbEntity
  8
0
100
AcDbBlockBegin
  2
*D6
 70
     1
 10
0.0
 20
0.0
 30
0.0
  3
*D6
  1

  0
LINE
  5
1A35
330
188E
100
AcDbEntity
  8
0
  6
ByBlock
100
AcDbLine
 10
285.962997
 20
241.025933
 30
0.0
 11
285.962997
 21
50.042933
 31
0.0
  0
LINE
  5
1A36
330
188E
100
AcDbEntity
  8
0
  6
ByBlock
100
AcDbLine
 10
545.9629969999999
 20
241.025933
 30
0.0
 11
545.9629969999999
 21
50.042933
 31
0.0
  0
LINE
  5
1A37
330
188E
100
AcDbEntity
  8
0
  6
ByBlock
100
AcDbLine
 10
298.462997
 20
55.042933
 30
0.0
 11
533.4629969999999
 21
55.042933
 31
0.0
  0
SOLID
  5
1A38
330
188E
100
AcDbEntity
  8
0
  6
ByBlock
100
AcDbTrace
 10
298.462997
 20
57.126266
 30
0.0
 11
298.462997
 21
52.95959899999999
 31
0.0
 12
285.962997
 22
55.042933
 32
0.0
 13
285.962997
 23
55.042933
 33
0.0
  0
SOLID
  5
1A39
330
188E
100
AcDbEntity
  8
0
  6
ByBlock
100
AcDbTrace
 10
533.4629969999999
 20
57.126266
 30
0.0
 11
533.4629969999999
 21
52.95959899999999
 31
0.0
 12
545.9629969999999
 22
55.042933
 32
0.0
 13
545.9629969999999
 23
55.042933
 33
0.0
  0
MTEXT
  5
1A3A
330
188E
100
AcDbEntity
  8
0
  6
ByBlock
 62
     2
100
AcDbMText
 10
415.962997
 20
66.794655
 30
0.0
 40
17.5
 41
0.0
 71
     5
 72
     1
  1
260
 73
     1
 44
1.0
1001
ACAD
1000
MTEXTBEGIN
1070
    73
1070
     1
1070
    44
1040
1.0
1070
    74
1070
     0
1000
MTEXTEND
  0
POINT
  5
1A3B
330
188E
100
AcDbEntity
  8
DEFPOINTS
  6
ByBlock
 62
     0
100
AcDbPoint
 10
285.962997
 20
246.025933
 30
0.0
  0
POINT
  5
1A3C
330
188E
100
AcDbEntity
  8
DEFPOINTS
  6
ByBlock
 62
     0
100
AcDbPoint
 10
545.9629969999999
 20
246.025933
 30
0.0
  0
POINT
  5
1A3D
330
188E
100
AcDbEntity
  8
DEFPOINTS
  6
ByBlock
 62
     0
100
AcDbPoint
 10
545.9629969999999
 20
55.042933
 30
0.0
  0
ENDBLK
  5
1A3E
330
188E
100
AcDbEntity
  8
0
100
AcDbBlockEnd
  0
BLOCK
  5
1A7C
330
189A
100
AcDbEntity
  8
0
100
AcDbBlockBegin
  2
*D7
 70
     1
 10
0.0
 20
0.0
 30
0.0
  3
*D7
  1

  0
LINE
  5
1A7D
330
189A
100
AcDbEntity
  8
0
  6
ByBlock
100
AcDbLine
 10
535.436997
 20
269.041933
 30
0.0
 11
596.5169969999999
 21
269.041933
 31
0.0
  0
LINE
  5
1A7E
330
189A
100
AcDbEntity
  8
0
  6
ByBlock
100
AcDbLine
 10
535.436997
 20
278.041933
 30
0.0
 11
596.5169969999999
 21
278.041933
 31
0.0
  0
LINE
  5
1A7F
330
189A
100
AcDbEntity
  8
0
  6
ByBlock
100
AcDbLine
 10
591.5169969999999
 20
256.541933
 30
0.0
 11
591.5169969999999
 21
244.041933
 31
0.0
  0
LINE
  5
1A80
330
189A
100
AcDbEntity
  8
0
  6
ByBlock
100
AcDbLine
 10
591.5169969999999
 20
290.541933
 30
0.0
 11
591.5169969999999
 21
317.9585419999999
 31
0.0
  0
LINE
  5
1A81
330
189A
100
AcDbEntity
  8
0
  6
ByBlock
100
AcDbLine
 10
591.5169969999999
 20
269.041933
 30
0.0
 11
591.5169969999999
 21
278.041933
 31
0.0
  0
SOLID
  5
1A82
330
189A
100
AcDbEntity
  8
0
  6
ByBlock
100
AcDbTrace
 10
589.433664
 20
256.541933
 30
0.0
 11
593.60033
 21
256.541933
 31
0.0
 12
591.5169969999999
 22
269.041933
 32
0.0
 13
591.5169969999999
 23
269.041933
 33
0.0
  0
SOLID
  5
1A83
330
189A
100
AcDbEntity
  8
0
  6
ByBlock
100
AcDbTrace
 10
589.433664
 20
290.541933
 30
0.0
 11
593.60033
 21
290.541933
 31
0.0
 12
591.5169969999999
 22
278.041933
 32
0.0
 13
591.5169969999999
 23
278.041933
 33
0.0
  0
MTEXT
  5
1A84
330
189A
100
AcDbEntity
  8
0
  6
ByBlock
 62
     2
100
AcDbMText
 10
579.7669969999999
 20
310.500237
 30
0.0
 40
17.5
 41
0.0
 71
     5
 72
     1
  1
9
 11
0.0
 21
1.0
 31
0.0
 73
     1
 44
1.0
1001
ACAD
1000
MTEXTBEGIN
1070
    73
1070
     1
1070
    44
1040
1.0
1070
    74
1070
     0
1000
MTEXTEND
  0
POINT
  5
1A85
330
189A
100
AcDbEntity
  8
DEFPOINTS
  6
ByBlock
 62
     0
100
AcDbPoint
 10
530.436997
 20
269.041933
 30
0.0
  0
POINT
  5
1A86
330
189A
100
AcDbEntity
  8
DEFPOINTS
  6
ByBlock
 62
     0
100
AcDbPoint
 10
530.436997
 20
278.041933
 30
0.0
  0
POINT
  5
1A87
330
189A
100
AcDbEntity
  8
DEFPOINTS
  6
ByBlock
 62
     0
100
AcDbPoint
 10
591.5169969999999
 20
278.041933
 30
0.0
  0
ENDBLK
  5
1A88
330
189A
100
AcDbEntity
  8
0
100
AcDbBlockEnd
  0
BLOCK
  5
18AA
330
18A9
100
AcDbEntity
  8
0
100
AcDbBlockBegin
  2
KATALOG_LEER
 70
     0
 10
0.0
 20
0.0
 30
0.0
  3
KATALOG_LEER
  1

  0
ENDBLK
  5
18AB
330
18A9
100
AcDbEntity
  8
0
100
AcDbBlockEnd
  0
BLOCK
  5
1B77
330
1B75
100
AcDbEntity
  8
0
100
AcDbBlockBegin
  2
GENAXEH
 70
     0
 10
0.0
 20
0.0
 30
0.0
  3
GENAXEH
  1

  0
LINE
  5
1B76
330
1B75
100
AcDbEntity
  8
0
100
AcDbLine
 10
-1.0
 20
0.0
 30
0.0
 11
1.0
 21
0.0
 31
0.0
  0
ENDBLK
  5
1B78
330
1B75
100
AcDbEntity
  8
0
100
AcDbBlockEnd
  0
ENDSEC
  0
SECTION
  2
ENTITIES
  0
LINE
  5
1001
330
1708
100
AcDbEntity
  8
0
100
AcDbLine
 10
317.463997
 20
587.0419329999999
 30
0.0
 11
415.9639969999999
 21
587.0419329999999
 31
0.0
  0
LINE
  5
1002
330
1708
100
AcDbEntity
  8
0
100
AcDbLine
 10
315.369997
 20
547.096933
 30
0.0
 11
317.462997
 21
587.042933
 31
0.0
  0
LINE
  5
1003
330
1708
100
AcDbEntity
  8
0
100
AcDbLine
 10
285.962997
 20
537.0419329999999
 30
0.0
 11
286.485997
 21
547.028933
 31
0.0
  0
LINE
  5
1004
330
1708
100
AcDbEntity
  8
0
100
AcDbLine
 10
315.369997
 20
547.096933
 30
0.0
 11
286.490997
 21
547.096933
 31
0.0
  0
LINE
  5
1005
330
1708
100
AcDbEntity
  8
0
100
AcDbLine
 10
329.171997
 20
546.446933
 30
0.0
 11
328.614997
 21
578.384933
 31
0.0
  0
LINE
  5
1006
330
1708
100
AcDbEntity
  8
0
100
AcDbLine
 10
325.463997
 20
587.0419329999999
 30
0.0
 11
328.614997
 21
578.384933
 31
0.0
  0
ARC
  5
1007
330
1708
100
AcDbEntity
  8
0
100
AcDbCircle
 10
334.670997
 20
546.5419329999999
 30
0.0
 40
5.5
100
AcDbArc
 50
181.0
 51
270.0
  0
LINE
  5
1008
330
1708
100
AcDbEntity
  8
0
100
AcDbLine
 10
471.2139969999999
 20
412.041933
 30
0.0
 11
360.713997
 21
412.041933
 31
0.0
  0
LINE
  5
1009
330
1708
100
AcDbEntity
  8
0
100
AcDbLine
 10
285.962997
 20
537.0419329999999
 30
0.0
 11
321.145997
 21
537.0419329999999
 31
0.0
  0
LINE
  5
100A
330
1708
100
AcDbEntity
  8
0
100
AcDbLine
 10
340.462997
 20
541.0419329999999
 30
0.0
 11
341.070997
 21
506.2449329999999
 31
0.0
  0
LINE
  5
100B
330
1708
100
AcDbEntity
  8
0
100
AcDbLine
 10
332.1859970000001
 20
507.464933
 30
0.0
 11
331.131997
 21
527.5659329999999
 31
0.0
  0
ARC
  5
100C
330
1708
100
AcDbEntity
  8
0
100
AcDbCircle
 10
321.145997
 20
527.041933
 30
0.0
 40
10.0
100
AcDbArc
 50
3.0
 51
90.0
  0
LINE
  5
100D
330
1708
100
AcDbEntity
  8
0
100
AcDbLine
 10
294.740997
 20
547.096933
 30
0.0
 11
296.990997
 21
537.0419329999999
 31
0.0
  0
LINE
  5
100E
330
1708
100
AcDbEntity
  8
0
100
AcDbLine
 10
305.990997
 20
537.0419329999999
 30
0.0
 11
308.240997
 21
547.096933
 31
0.0
  0
LINE
  5
100F
330
1708
100
AcDbEntity
  8
0
100
AcDbLine
 10
514.4639969999999
 20
587.0419329999999
 30
0.0
 11
415.9639969999999
 21
587.0419329999999
 31
0.0
  0
LINE
  5
1010
330
1708
100
AcDbEntity
  8
0
100
AcDbLine
 10
516.5569969999999
 20
547.096933
 30
0.0
 11
514.4639969999999
 21
587.0419329999999
 31
0.0
  0
LINE
  5
1011
330
1708
100
AcDbEntity
  8
0
100
AcDbLine
 10
545.9639969999999
 20
537.0419329999999
 30
0.0
 11
545.4399969999999
 21
547.028933
 31
0.0
  0
LINE
  5
1012
330
1708
100
AcDbEntity
  8
0
100
AcDbLine
 10
516.5569969999999
 20
547.096933
 30
0.0
 11
545.436997
 21
547.096933
 31
0.0
  0
LINE
  5
1013
330
1708
100
AcDbEntity
  8
0
100
AcDbLine
 10
502.7549969999999
 20
546.446933
 30
0.0
 11
503.3119969999999
 21
578.384933
 31
0.0
  0
LINE
  5
1014
330
1708
100
AcDbEntity
  8
0
100
AcDbLine
 10
506.4639969999999
 20
587.0419329999999
 30
0.0
 11
503.3119969999999
 21
578.384933
 31
0.0
  0
ARC
  5
1015
330
1708
100
AcDbEntity
  8
0
100
AcDbCircle
 10
497.2559969999999
 20
546.5419329999999
 30
0.0
 40
5.5
100
AcDbArc
 50
270.0
 51
359.0
  0
LINE
  5
1016
330
1708
100
AcDbEntity
  8
0
100
AcDbLine
 10
545.9639969999999
 20
537.0419329999999
 30
0.0
 11
510.7809969999999
 21
537.0419329999999
 31
0.0
  0
LINE
  5
1017
330
1708
100
AcDbEntity
  8
0
100
AcDbLine
 10
491.462997
 20
541.0419329999999
 30
0.0
 11
490.8559969999999
 21
506.2449329999999
 31
0.0
  0
LINE
  5
1018
330
1708
100
AcDbEntity
  8
0
100
AcDbLine
 10
499.7409969999999
 20
507.463933
 30
0.0
 11
500.7949969999999
 21
527.5659329999999
 31
0.0
  0
ARC
  5
1019
330
1708
100
AcDbEntity
  8
0
100
AcDbCircle
 10
510.7809969999999
 20
527.041933
 30
0.0
 40
10.0
100
AcDbArc
 50
90.0
 51
177.0
  0
LINE
  5
101A
330
1708
100
AcDbEntity
  8
0
100
AcDbLine
 10
537.186997
 20
547.096933
 30
0.0
 11
534.936997
 21
537.0419329999999
 31
0.0
  0
LINE
  5
101B
330
1708
100
AcDbEntity
  8
0
100
AcDbLine
 10
525.936997
 20
537.0419329999999
 30
0.0
 11
523.6869969999999
 21
547.096933
 31
0.0
  0
LINE
  5
101C
330
1708
100
AcDbEntity
  8
0
100
AcDbLine
 10
497.2559969999999
 20
541.0419329999999
 30
0.0
 11
334.670997
 21
541.0419329999999
 31
0.0
  0
LINE
  5
101D
330
1708
100
AcDbEntity
  8
0
100
AcDbLine
 10
337.172997
 20
499.326933
 30
0.0
 11
357.713997
 21
487.467933
 31
0.0
  0
LINE
  5
101E
330
1708
100
AcDbEntity
  8
0
100
AcDbLine
 10
474.2139969999999
 20
487.467933
 30
0.0
 11
494.7549969999999
 21
499.326933
 31
0.0
  0
LINE
  5
101F
330
1708
100
AcDbEntity
  8
0
100
AcDbLine
 10
470.6439969999999
 20
492.334933
 30
0.0
 11
488.8569969999999
 21
502.849933
 31
0.0
  0
ARC
  5
1020
330
1708
100
AcDbEntity
  8
0
100
AcDbCircle
 10
489.7549969999999
 20
507.9879329999999
 30
0.0
 40
10.0
100
AcDbArc
 50
300.0
 51
357.0
  0
ARC
  5
1021
330
1708
100
AcDbEntity
  8
0
100
AcDbCircle
 10
342.171997
 20
507.9879329999999
 30
0.0
 40
10.0
100
AcDbArc
 50
183.0
 51
240.0
  0
ARC
  5
1022
330
1708
100
AcDbEntity
  8
0
100
AcDbCircle
 10
345.069997
 20
506.3149329999999
 30
0.0
 40
4.0
100
AcDbArc
 50
181.0
 51
240.0
  0
ARC
  5
1023
330
1708
100
AcDbEntity
  8
0
100
AcDbCircle
 10
486.856997
 20
506.3149329999999
 30
0.0
 40
4.0
100
AcDbArc
 50
300.0
 51
359.0
  0
LINE
  5
1024
330
1708
100
AcDbEntity
  8
0
100
AcDbLine
 10
343.069997
 20
502.850933
 30
0.0
 11
361.282997
 21
492.334933
 31
0.0
  0
LINE
  5
1025
330
1708
100
AcDbEntity
  8
0
100
AcDbLine
 10
285.962997
 20
246.025933
 30
0.0
 11
285.962997
 21
301.058933
 31
0.0
  0
LINE
  5
1026
330
1708
100
AcDbEntity
  8
0
100
AcDbLine
 10
317.463997
 20
175.042933
 30
0.0
 11
317.463997
 21
372.041933
 31
0.0
  0
LINE
  5
1027
330
1708
100
AcDbEntity
  8
0
100
AcDbLine
 10
514.4639969999999
 20
175.042933
 30
0.0
 11
317.463997
 21
175.042933
 31
0.0
  0
LINE
  5
1028
330
1708
100
AcDbEntity
  8
0
100
AcDbLine
 10
512.369997
 20
177.041933
 30
0.0
 11
319.556997
 21
177.041933
 31
0.0
  0
LINE
  5
1029
330
1708
100
AcDbEntity
  8
0
100
AcDbLine
 10
287.962997
 20
246.025933
 30
0.0
 11
287.962997
 21
301.058933
 31
0.0
  0
LINE
  5
102A
330
1708
100
AcDbEntity
  8
0
100
AcDbLine
 10
317.463997
 20
314.103933
 30
0.0
 11
290.409997
 21
306.854933
 31
0.0
  0
LINE
  5
102B
330
1708
100
AcDbEntity
  8
0
100
AcDbLine
 10
317.463997
 20
232.980933
 30
0.0
 11
290.410997
 21
240.229933
 31
0.0
  0
LINE
  5
102C
330
1708
100
AcDbEntity
  8
0
100
AcDbLine
 10
317.463997
 20
312.032933
 30
0.0
 11
290.927997
 21
304.922933
 31
0.0
  0
LINE
  5
102D
330
1708
100
AcDbEntity
  8
0
100
AcDbLine
 10
317.463997
 20
235.051933
 30
0.0
 11
290.927997
 21
242.161933
 31
0.0
  0
ARC
  5
102E
330
1708
100
AcDbEntity
  8
0
100
AcDbCircle
 10
291.963997
 20
301.058933
 30
0.0
 40
6.0
100
AcDbArc
 50
105.0
 51
180.0
  0
ARC
  5
102F
330
1708
100
AcDbEntity
  8
0
100
AcDbCircle
 10
291.963997
 20
246.025933
 30
0.0
 40
6.0
100
AcDbArc
 50
180.0
 51
255.0
  0
ARC
  5
1030
330
1708
100
AcDbEntity
  8
0
100
AcDbCircle
 10
291.963997
 20
301.058933
 30
0.0
 40
4.0
100
AcDbArc
 50
105.0
 51
180.0
  0
ARC
  5
1031
330
1708
100
AcDbEntity
  8
0
100
AcDbCircle
 10
291.963997
 20
246.025933
 30
0.0
 40
4.0
100
AcDbArc
 50
180.0
 51
255.0
  0
LINE
  5
1032
330
1708
100
AcDbEntity
  8
0
100
AcDbLine
 10
328.4629970000001
 20
361.041933
 30
0.0
 11
503.4639969999999
 21
361.041933
 31
0.0
  0
LINE
  5
1033
330
1708
100
AcDbEntity
  8
0
100
AcDbLine
 10
328.4629970000001
 20
186.041933
 30
0.0
 11
328.4629970000001
 21
290.041933
 31
0.0
  0
CIRCLE
  5
1034
330
1708
100
AcDbEntity
  8
0
100
AcDbCircle
 10
301.490997
 20
273.541933
 30
0.0
 40
6.75
  0
LINE
  5
1035
330
1708
100
AcDbEntity
  8
0
100
AcDbLine
 10
545.9639969999999
 20
246.025933
 30
0.0
 11
545.9639969999999
 21
301.058933
 31
0.0
  0
LINE
  5
1036
330
1708
100
AcDbEntity
  8
0
100
AcDbLine
 10
514.4639969999999
 20
175.042933
 30
0.0
 11
514.4639969999999
 21
372.041933
 31
0.0
  0
LINE
  5
1037
330
1708
100
AcDbEntity
  8
0
100
AcDbLine
 10
319.556997
 20
370.041933
 30
0.0
 11
512.369997
 21
370.041933
 31
0.0
  0
LINE
  5
1038
330
1708
100
AcDbEntity
  8
0
100
AcDbLine
 10
317.463997
 20
372.041933
 30
0.0
 11
514.4639969999999
 21
372.041933
 31
0.0
  0
LINE
  5
1039
330
1708
100
AcDbEntity
  8
0
100
AcDbLine
 10
543.9639969999999
 20
246.025933
 30
0.0
 11
543.9639969999999
 21
301.058933
 31
0.0
  0
LINE
  5
103A
330
1708
100
AcDbEntity
  8
0
100
AcDbLine
 10
514.4639969999999
 20
314.102933
 30
0.0
 11
541.5169969999999
 21
306.854933
 31
0.0
  0
LINE
  5
103B
330
1708
100
AcDbEntity
  8
0
100
AcDbLine
 10
514.4639969999999
 20
232.980933
 30
0.0
 11
541.5159969999999
 21
240.229933
 31
0.0
  0
LINE
  5
103C
330
1708
100
AcDbEntity
  8
0
100
AcDbLine
 10
514.4639969999999
 20
312.032933
 30
0.0
 11
540.9989969999998
 21
304.922933
 31
0.0
  0
LINE
  5
103D
330
1708
100
AcDbEntity
  8
0
100
AcDbLine
 10
514.4639969999999
 20
235.051933
 30
0.0
 11
540.9989969999998
 21
242.161933
 31
0.0
  0
ARC
  5
103E
330
1708
100
AcDbEntity
  8
0
100
AcDbCircle
 10
539.9639969999999
 20
301.058933
 30
0.0
 40
6.0
100
AcDbArc
 50
0.0
 51
75.0
  0
ARC
  5
103F
330
1708
100
AcDbEntity
  8
0
100
AcDbCircle
 10
539.9639969999999
 20
246.025933
 30
0.0
 40
6.0
100
AcDbArc
 50
285.0
 51
0.0
  0
ARC
  5
1040
330
1708
100
AcDbEntity
  8
0
100
AcDbCircle
 10
539.9639969999999
 20
301.058933
 30
0.0
 40
4.0
100
AcDbArc
 50
0.0
 51
75.0
  0
ARC
  5
1041
330
1708
100
AcDbEntity
  8
0
100
AcDbCircle
 10
539.9639969999999
 20
246.025933
 30
0.0
 40
4.0
100
AcDbArc
 50
285.0
 51
0.0
  0
LINE
  5
1042
330
1708
100
AcDbEntity
  8
0
100
AcDbLine
 10
503.4639969999999
 20
186.041933
 30
0.0
 11
503.4639969999999
 21
290.041933
 31
0.0
  0
CIRCLE
  5
1043
330
1708
100
AcDbEntity
  8
0
100
AcDbCircle
 10
530.436997
 20
273.541933
 30
0.0
 40
6.75
  0
LINE
  5
1044
330
1708
100
AcDbEntity
  8
0
100
AcDbLine
 10
323.462997
 20
260.041933
 30
0.0
 11
328.4629970000001
 21
260.041933
 31
0.0
  0
LINE
  5
1045
330
1708
100
AcDbEntity
  8
0
100
AcDbLine
 10
323.462997
 20
290.041933
 30
0.0
 11
328.4629970000001
 21
290.041933
 31
0.0
  0
LINE
  5
1046
330
1708
100
AcDbEntity
  8
0
100
AcDbLine
 10
323.462997
 20
260.041933
 30
0.0
 11
323.462997
 21
290.041933
 31
0.0
  0
LINE
  5
1047
330
1708
100
AcDbEntity
  8
0
100
AcDbLine
 10
508.4639969999999
 20
260.041933
 30
0.0
 11
503.4639969999999
 21
260.041933
 31
0.0
  0
LINE
  5
1048
330
1708
100
AcDbEntity
  8
0
100
AcDbLine
 10
508.4639969999999
 20
290.041933
 30
0.0
 11
503.4639969999999
 21
290.041933
 31
0.0
  0
LINE
  5
1049
330
1708
100
AcDbEntity
  8
0
100
AcDbLine
 10
508.4639969999999
 20
260.041933
 30
0.0
 11
508.4639969999999
 21
290.041933
 31
0.0
  0
LINE
  5
104A
330
1708
100
AcDbEntity
  8
0
100
AcDbLine
 10
328.4629970000001
 20
186.041933
 30
0.0
 11
503.4639969999999
 21
186.041933
 31
0.0
  0
LINE
  5
104B
330
1708
100
AcDbEntity
  8
0
100
AcDbLine
 10
328.4629970000001
 20
290.041933
 30
0.0
 11
328.4629970000001
 21
361.041933
 31
0.0
  0
LINE
  5
104C
330
1708
100
AcDbEntity
  8
0
100
AcDbLine
 10
503.4639969999999
 20
290.041933
 30
0.0
 11
503.4639969999999
 21
361.041933
 31
0.0
  0
LINE
  5
104D
330
1708
100
AcDbEntity
  8
4
100
AcDbLine
 10
485.3529969999999
 20
504.3709329999999
 30
0.0
 11
346.573997
 21
504.3709329999999
 31
0.0
  0
LINE
  5
104E
330
1708
100
AcDbEntity
  8
0
100
AcDbLine
 10
368.102997
 20
552.041933
 30
0.0
 11
372.323997
 21
552.041933
 31
0.0
  0
LINE
  5
104F
330
1708
100
AcDbEntity
  8
0
100
AcDbLine
 10
332.598997
 20
554.832933
 30
0.0
 11
330.910997
 21
587.0419329999999
 31
0.0
  0
LINE
  5
1050
330
1708
100
AcDbEntity
  8
0
100
AcDbLine
 10
346.8279970000001
 20
554.832933
 30
0.0
 11
348.515997
 21
587.0419329999999
 31
0.0
  0
LINE
  5
1051
330
1708
100
AcDbEntity
  8
0
100
AcDbLine
 10
364.118997
 20
555.692933
 30
0.0
 11
361.375997
 21
587.0419329999999
 31
0.0
  0
LINE
  5
1052
330
1708
100
AcDbEntity
  8
0
100
AcDbLine
 10
394.618997
 20
555.693933
 30
0.0
 11
391.875997
 21
587.0419329999999
 31
0.0
  0
LINE
  5
1053
330
1708
100
AcDbEntity
  8
0
100
AcDbLine
 10
376.307997
 20
555.693933
 30
0.0
 11
379.050997
 21
587.0419329999999
 31
0.0
  0
LINE
  5
1054
330
1708
100
AcDbEntity
  8
0
100
AcDbLine
 10
406.807997
 20
555.692933
 30
0.0
 11
409.550997
 21
587.0419329999999
 31
0.0
  0
LINE
  5
1055
330
1708
100
AcDbEntity
  8
4A
 48
0.338
100
AcDbLine
 10
398.602997
 20
552.041933
 30
0.0
 11
402.823997
 21
552.041933
 31
0.0
  0
ARC
  5
1056
330
1708
100
AcDbEntity
  8
0
100
AcDbCircle
 10
368.102997
 20
556.041933
 30
0.0
 40
4.0
100
AcDbArc
 50
185.0
 51
270.0
  0
ARC
  5
1057
330
1708
100
AcDbEntity
  8
0
100
AcDbCircle
 10
342.832997
 20
555.0419329999999
 30
0.0
 40
4.0
100
AcDbArc
 50
270.0
 51
357.0
  0
ARC
  5
1058
330
1708
100
AcDbEntity
  8
0
100
AcDbCircle
 10
372.323997
 20
556.041933
 30
0.0
 40
4.0
100
AcDbArc
 50
270.0
 51
355.0
  0
ARC
  5
1059
330
1708
100
AcDbEntity
  8
0
100
AcDbCircle
 10
398.602997
 20
556.041933
 30
0.0
 40
4.0
100
AcDbArc
 50
185.0
 51
270.0
  0
ARC
  5
105A
330
1708
100
AcDbEntity
  8
0
100
AcDbCircle
 10
402.823997
 20
556.041933
 30
0.0
 40
4.0
100
AcDbArc
 50
270.0
 51
355.0
  0
ARC
  5
105B
330
1708
100
AcDbEntity
  8
0
100
AcDbCircle
 10
336.593997
 20
555.0419329999999
 30
0.0
 40
4.0
100
AcDbArc
 50
183.0
 51
270.0
  0
LINE
  5
105C
330
1708
100
AcDbEntity
  8
0
100
AcDbLine
 10
463.8239969999999
 20
552.041933
 30
0.0
 11
459.602997
 21
552.041933
 31
0.0
  0
LINE
  5
105D
330
1708
100
AcDbEntity
  8
0
100
AcDbLine
 10
499.3279969999999
 20
554.832933
 30
0.0
 11
501.015997
 21
587.0419329999999
 31
0.0
  0
LINE
  5
105E
330
1708
100
AcDbEntity
  8
0
100
AcDbLine
 10
485.0989969999999
 20
554.832933
 30
0.0
 11
483.4109969999999
 21
587.0419329999999
 31
0.0
  0
LINE
  5
105F
330
1708
100
AcDbEntity
  8
0
100
AcDbLine
 10
467.8079969999999
 20
555.692933
 30
0.0
 11
470.550997
 21
587.0419329999999
 31
0.0
  0
LINE
  5
1060
330
1708
100
AcDbEntity
  8
0
100
AcDbLine
 10
437.307997
 20
555.692933
 30
0.0
 11
440.0509969999999
 21
587.0419329999999
 31
0.0
  0
LINE
  5
1061
330
1708
100
AcDbEntity
  8
0
100
AcDbLine
 10
455.618997
 20
555.693933
 30
0.0
 11
452.875997
 21
587.0419329999999
 31
0.0
  0
LINE
  5
1062
330
1708
100
AcDbEntity
  8
0
100
AcDbLine
 10
425.1189969999999
 20
555.692933
 30
0.0
 11
422.3759969999999
 21
587.0419329999999
 31
0.0
  0
LINE
  5
1063
330
1708
100
AcDbEntity
  8
4A
 48
0.338
100
AcDbLine
 10
433.323997
 20
552.041933
 30
0.0
 11
429.1029969999999
 21
552.041933
 31
0.0
  0
ARC
  5
1064
330
1708
100
AcDbEntity
  8
0
100
AcDbCircle
 10
463.8239969999999
 20
556.041933
 30
0.0
 40
4.0
100
AcDbArc
 50
270.0
 51
355.0
  0
ARC
  5
1065
330
1708
100
AcDbEntity
  8
0
100
AcDbCircle
 10
489.0939969999999
 20
555.0419329999999
 30
0.0
 40
4.0
100
AcDbArc
 50
183.0
 51
270.0
  0
ARC
  5
1066
330
1708
100
AcDbEntity
  8
0
100
AcDbCircle
 10
459.602997
 20
556.041933
 30
0.0
 40
4.0
100
AcDbArc
 50
185.0
 51
270.0
  0
ARC
  5
1067
330
1708
100
AcDbEntity
  8
0
100
AcDbCircle
 10
433.323997
 20
556.041933
 30
0.0
 40
4.0
100
AcDbArc
 50
270.0
 51
355.0
  0
ARC
  5
1068
330
1708
100
AcDbEntity
  8
0
100
AcDbCircle
 10
429.1029969999999
 20
556.041933
 30
0.0
 40
4.0
100
AcDbArc
 50
185.0
 51
270.0
  0
ARC
  5
1069
330
1708
100
AcDbEntity
  8
0
100
AcDbCircle
 10
495.3329969999999
 20
555.0419329999999
 30
0.0
 40
4.0
100
AcDbArc
 50
270.0
 51
357.0
  0
LINE
  5
106A
330
1708
100
AcDbEntity
  8
0
100
AcDbLine
 10
502.7909969999999
 20
548.541933
 30
0.0
 11
329.135997
 21
548.541933
 31
0.0
  0
LINE
  5
106B
330
1708
100
AcDbEntity
  8
0
100
AcDbLine
 10
502.8349969999999
 20
551.0419329999999
 30
0.0
 11
329.091997
 21
551.0419329999999
 31
0.0
  0
LINE
  5
106C
330
1708
100
AcDbEntity
  8
0
100
AcDbLine
 10
460.293997
 20
548.541933
 30
0.0
 11
460.9629969999999
 21
551.0419329999999
 31
0.0
  0
LINE
  5
106D
330
1708
100
AcDbEntity
  8
0
100
AcDbLine
 10
371.632997
 20
548.541933
 30
0.0
 11
370.962997
 21
551.0419329999999
 31
0.0
  0
LINE
  5
106E
330
1708
100
AcDbEntity
  8
0
100
AcDbLine
 10
500.9639969999999
 20
358.5419330000001
 30
0.0
 11
500.9639969999999
 21
188.541933
 31
0.0
  0
LINE
  5
106F
330
1708
100
AcDbEntity
  8
0
100
AcDbLine
 10
330.962997
 20
358.5419330000001
 30
0.0
 11
330.962997
 21
188.541933
 31
0.0
  0
LINE
  5
1070
330
1708
100
AcDbEntity
  8
0
100
AcDbLine
 10
330.962997
 20
358.5419330000001
 30
0.0
 11
500.9639969999999
 21
358.5419330000001
 31
0.0
  0
LINE
  5
1071
330
1708
100
AcDbEntity
  8
0
100
AcDbLine
 10
330.962997
 20
188.541933
 30
0.0
 11
500.9639969999999
 21
188.541933
 31
0.0
  0
LINE
  5
1072
330
1708
100
AcDbEntity
  8
0
100
AcDbLine
 10
348.462997
 20
334.541933
 30
0.0
 11
348.462997
 21
212.541933
 31
0.0
  0
LINE
  5
1073
330
1708
100
AcDbEntity
  8
0
100
AcDbLine
 10
483.4639969999999
 20
334.541933
 30
0.0
 11
483.4639969999999
 21
212.541933
 31
0.0
  0
LINE
  5
1074
330
1708
100
AcDbEntity
  8
0
100
AcDbLine
 10
470.4639969999999
 20
334.541933
 30
0.0
 11
470.4639969999999
 21
212.541933
 31
0.0
  0
LINE
  5
1075
330
1708
100
AcDbEntity
  8
0
100
AcDbLine
 10
361.463997
 20
334.541933
 30
0.0
 11
361.463997
 21
212.541933
 31
0.0
  0
LINE
  5
1076
330
1708
100
AcDbEntity
  8
0
100
AcDbLine
 10
378.963997
 20
334.541933
 30
0.0
 11
378.963997
 21
212.541933
 31
0.0
  0
LINE
  5
1077
330
1708
100
AcDbEntity
  8
0
100
AcDbLine
 10
452.9639969999999
 20
334.541933
 30
0.0
 11
452.9639969999999
 21
212.541933
 31
0.0
  0
LINE
  5
1078
330
1708
100
AcDbEntity
  8
0
100
AcDbLine
 10
439.9639969999999
 20
334.541933
 30
0.0
 11
439.9639969999999
 21
212.541933
 31
0.0
  0
LINE
  5
1079
330
1708
100
AcDbEntity
  8
0
100
AcDbLine
 10
391.963997
 20
334.541933
 30
0.0
 11
391.963997
 21
212.541933
 31
0.0
  0
LINE
  5
107A
330
1708
100
AcDbEntity
  8
0
100
AcDbLine
 10
409.463997
 20
334.541933
 30
0.0
 11
409.463997
 21
212.541933
 31
0.0
  0
LINE
  5
107B
330
1708
100
AcDbEntity
  8
0
100
AcDbLine
 10
422.4639969999999
 20
334.541933
 30
0.0
 11
422.4639969999999
 21
212.541933
 31
0.0
  0
ARC
  5
107C
330
1708
100
AcDbEntity
  8
0
100
AcDbCircle
 10
476.9639969999999
 20
334.541933
 30
0.0
 40
6.5
100
AcDbArc
 50
0.0
 51
180.0
  0
ARC
  5
107D
330
1708
100
AcDbEntity
  8
0
100
AcDbCircle
 10
446.4639969999999
 20
334.541933
 30
0.0
 40
6.5
100
AcDbArc
 50
0.0
 51
180.0
  0
ARC
  5
107E
330
1708
100
AcDbEntity
  8
0
100
AcDbCircle
 10
415.9639969999999
 20
334.541933
 30
0.0
 40
6.5
100
AcDbArc
 50
0.0
 51
180.0
  0
ARC
  5
107F
330
1708
100
AcDbEntity
  8
0
100
AcDbCircle
 10
385.463997
 20
334.541933
 30
0.0
 40
6.5
100
AcDbArc
 50
0.0
 51
180.0
  0
ARC
  5
1080
330
1708
100
AcDbEntity
  8
0
100
AcDbCircle
 10
354.963997
 20
334.541933
 30
0.0
 40
6.5
100
AcDbArc
 50
0.0
 51
180.0
  0
ARC
  5
1081
330
1708
100
AcDbEntity
  8
0
100
AcDbCircle
 10
476.9639969999999
 20
212.541933
 30
0.0
 40
6.5
100
AcDbArc
 50
180.0
 51
0.0
  0
ARC
  5
1082
330
1708
100
AcDbEntity
  8
0
100
AcDbCircle
 10
446.4639969999999
 20
212.541933
 30
0.0
 40
6.5
100
AcDbArc
 50
180.0
 51
0.0
  0
ARC
  5
1083
330
1708
100
AcDbEntity
  8
0
100
AcDbCircle
 10
415.9639969999999
 20
212.541933
 30
0.0
 40
6.5
100
AcDbArc
 50
180.0
 51
0.0
  0
ARC
  5
1084
330
1708
100
AcDbEntity
  8
0
100
AcDbCircle
 10
385.463997
 20
212.541933
 30
0.0
 40
6.5
100
AcDbArc
 50
180.0
 51
0.0
  0
ARC
  5
1085
330
1708
100
AcDbEntity
  8
0
100
AcDbCircle
 10
354.963997
 20
212.541933
 30
0.0
 40
6.5
100
AcDbArc
 50
180.0
 51
0.0
  0
LINE
  5
1086
330
1708
100
AcDbEntity
  8
0
100
AcDbLine
 10
471.2139969999999
 20
482.2719329999999
 30
0.0
 11
471.2139969999999
 21
412.041933
 31
0.0
  0
LINE
  5
1087
330
1708
100
AcDbEntity
  8
0
100
AcDbLine
 10
366.963997
 20
432.042933
 30
0.0
 11
366.963997
 21
412.041933
 31
0.0
  0
LINE
  5
1088
330
1708
100
AcDbEntity
  8
0
100
AcDbLine
 10
360.713997
 20
482.2719329999999
 30
0.0
 11
360.713997
 21
412.041933
 31
0.0
  0
LINE
  5
1089
330
1708
100
AcDbEntity
  8
0
100
AcDbLine
 10
464.9639969999999
 20
432.042933
 30
0.0
 11
464.9639969999999
 21
412.041933
 31
0.0
  0
LINE
  5
108A
330
1708
100
AcDbEntity
  8
0
100
AcDbLine
 10
465.643997
 20
483.673933
 30
0.0
 11
465.643997
 21
437.041933
 31
0.0
  0
LINE
  5
108B
330
1708
100
AcDbEntity
  8
0
100
AcDbLine
 10
366.282997
 20
483.6749329999999
 30
0.0
 11
366.282997
 21
437.041933
 31
0.0
  0
LINE
  5
108C
330
1708
100
AcDbEntity
  8
0
100
AcDbLine
 10
464.9639969999999
 20
432.042933
 30
0.0
 11
465.643997
 21
437.041933
 31
0.0
  0
LINE
  5
108D
330
1708
100
AcDbEntity
  8
0
100
AcDbLine
 10
366.963997
 20
432.042933
 30
0.0
 11
366.282997
 21
437.041933
 31
0.0
  0
ARC
  5
108E
330
1708
100
AcDbEntity
  8
0
100
AcDbCircle
 10
475.6439969999999
 20
483.673933
 30
0.0
 40
10.0
100
AcDbArc
 50
120.0
 51
180.0
  0
ARC
  5
108F
330
1708
100
AcDbEntity
  8
0
100
AcDbCircle
 10
356.282997
 20
483.6749329999999
 30
0.0
 40
10.0
100
AcDbArc
 50
0.0
 51
60.0
  0
ARC
  5
1090
330
1708
100
AcDbEntity
  8
0
100
AcDbCircle
 10
354.713997
 20
482.2719329999999
 30
0.0
 40
6.0
100
AcDbArc
 50
0.0
 51
60.0
  0
ARC
  5
1091
330
1708
100
AcDbEntity
  8
0
100
AcDbCircle
 10
477.2139969999999
 20
482.2719329999999
 30
0.0
 40
6.0
100
AcDbArc
 50
120.0
 51
180.0
  0
LINE
  5
1092
330
1708
100
AcDbEntity
  8
4
100
AcDbLine
 10
369.4479970000001
 20
489.447933
 30
0.0
 11
462.478997
 21
489.447933
 31
0.0
  0
ARC
  5
1093
330
1708
100
AcDbEntity
  8
0
100
AcDbCircle
 10
415.9639969999999
 20
273.541933
 30
0.0
 40
49.0
100
AcDbArc
 50
0.0
 51
40.966
  0
ARC
  5
1094
330
1708
100
AcDbEntity
  8
0
100
AcDbCircle
 10
415.9639969999999
 20
273.541933
 30
0.0
 40
49.0
100
AcDbArc
 50
97.62299999999999
 51
119.327
  0
ARC
  5
1095
330
1708
100
AcDbEntity
  8
0
100
AcDbCircle
 10
415.9639969999999
 20
273.541933
 30
0.0
 40
49.0
100
AcDbArc
 50
60.67299999999999
 51
82.37700000000002
  0
ARC
  5
1096
330
1708
100
AcDbEntity
  8
0
100
AcDbCircle
 10
415.9639969999999
 20
273.541933
 30
0.0
 40
49.0
100
AcDbArc
 50
319.034
 51
0.0
  0
ARC
  5
1097
330
1708
100
AcDbEntity
  8
0
100
AcDbCircle
 10
415.9639969999999
 20
273.541933
 30
0.0
 40
49.0
100
AcDbArc
 50
277.623
 51
299.327
  0
ARC
  5
1098
330
1708
100
AcDbEntity
  8
0
100
AcDbCircle
 10
415.9639969999999
 20
273.541933
 30
0.0
 40
49.0
100
AcDbArc
 50
240.673
 51
262.377
  0
ARC
  5
1099
330
1708
100
AcDbEntity
  8
0
100
AcDbCircle
 10
415.9639969999999
 20
273.541933
 30
0.0
 40
49.0
100
AcDbArc
 50
139.034
 51
220.966
  0
CIRCLE
  5
109A
330
1708
100
AcDbEntity
  8
0
100
AcDbCircle
 10
530.436997
 20
273.541933
 30
0.0
 40
4.5
  0
CIRCLE
  5
109B
330
1708
100
AcDbEntity
  8
0
100
AcDbCircle
 10
301.490997
 20
273.541933
 30
0.0
 40
4.5
  0
LINE
  5
109C
330
1708
100
AcDbEntity
  8
0
100
AcDbLine
 10
319.556997
 20
370.041933
 30
0.0
 11
319.556997
 21
177.041933
 31
0.0
  0
LINE
  5
109D
330
1708
100
AcDbEntity
  8
0
100
AcDbLine
 10
512.369997
 20
177.041933
 30
0.0
 11
512.369997
 21
370.041933
 31
0.0
  0
POLYLINE
  5
109E
330
1708
100
AcDbEntity
  8
SCHRAFFUR_RAND
100
AcDb2dPolyline
 66
     1
 10
0.0
 20
0.0
 30
0.0
 70
     1
  0
VERTEX
  5
109F
330
109E
100
AcDbEntity
  8
SCHRAFFUR_RAND
100
AcDbVertex
100
AcDb2dVertex
 10
534.936997
 20
537.0419329999999
 30
0.0
  0
VERTEX
  5
10A0
330
109E
100
AcDbEntity
  8
SCHRAFFUR_RAND
100
AcDbVertex
100
AcDb2dVertex
 10
545.9639969999999
 20
537.0419329999999
 30
0.0
  0
VERTEX
  5
10A1
330
109E
100
AcDbEntity
  8
SCHRAFFUR_RAND
100
AcDbVertex
100
AcDb2dVertex
 10
545.4399969999999
 20
547.028933
 30
0.0
  0
VERTEX
  5
10A2
330
109E
100
AcDbEntity
  8
SCHRAFFUR_RAND
100
AcDbVertex
100
AcDb2dVertex
 10
537.186997
 20
547.096933
 30
0.0
  0
VERTEX
  5
10A3
330
109E
100
AcDbEntity
  8
SCHRAFFUR_RAND
100
AcDbVertex
100
AcDb2dVertex
 10
534.936997
 20
537.0419329999999
 30
0.0
  0
SEQEND
  5
10A4
330
109E
100
AcDbEntity
  8
SCHRAFFUR_RAND
  0
POLYLINE
  5
10BE
330
1708
100
AcDbEntity
  8
SCHRAFFUR_RAND
100
AcDb2dPolyline
 66
     1
 10
0.0
 20
0.0
 30
0.0
 70
     1
  0
VERTEX
  5
10BF
330
10BE
100
AcDbEntity
  8
SCHRAFFUR_RAND
100
AcDbVertex
100
AcDb2dVertex
 10
294.740997
 20
547.096933
 30
0.0
  0
VERTEX
  5
10C0
330
10BE
100
AcDbEntity
  8
SCHRAFFUR_RAND
100
AcDbVertex
100
AcDb2dVertex
 10
286.486997
 20
547.028933
 30
0.0
  0
VERTEX
  5
10C1
330
10BE
100
AcDbEntity
  8
SCHRAFFUR_RAND
100
AcDbVertex
100
AcDb2dVertex
 10
285.962997
 20
537.0419329999999
 30
0.0
  0
VERTEX
  5
10C2
330
10BE
100
AcDbEntity
  8
SCHRAFFUR_RAND
100
AcDbVertex
100
AcDb2dVertex
 10
296.990997
 20
537.0419329999999
 30
0.0
  0
VERTEX
  5
10C3
330
10BE
100
AcDbEntity
  8
SCHRAFFUR_RAND
100
AcDbVertex
100
AcDb2dVertex
 10
294.740997
 20
547.096933
 30
0.0
  0
SEQEND
  5
10C4
330
10BE
100
AcDbEntity
  8
SCHRAFFUR_RAND
  0
POLYLINE
  5
10DE
330
1708
100
AcDbEntity
  8
SCHRAFFUR_RAND
100
AcDb2dPolyline
 66
     1
 10
0.0
 20
0.0
 30
0.0
 70
     1
  0
VERTEX
  5
10DF
330
10DE
100
AcDbEntity
  8
SCHRAFFUR_RAND
100
AcDbVertex
100
AcDb2dVertex
 10
348.515997
 20
587.0419329999999
 30
0.0
  0
VERTEX
  5
10E0
330
10DE
100
AcDbEntity
  8
SCHRAFFUR_RAND
100
AcDbVertex
100
AcDb2dVertex
 10
330.910997
 20
587.0419329999999
 30
0.0
  0
VERTEX
  5
10E1
330
10DE
100
AcDbEntity
  8
SCHRAFFUR_RAND
100
AcDbVertex
100
AcDb2dVertex
 10
332.598997
 20
554.832933
 30
0.0
  0
VERTEX
  5
10E2
330
10DE
100
AcDbEntity
  8
SCHRAFFUR_RAND
100
AcDbVertex
100
AcDb2dVertex
 10
332.879997
 20
553.329933
 30
0.0
  0
VERTEX
  5
10E3
330
10DE
100
AcDbEntity
  8
SCHRAFFUR_RAND
100
AcDbVertex
100
AcDb2dVertex
 10
333.778997
 20
552.0759329999999
 30
0.0
  0
VERTEX
  5
10E4
330
10DE
100
AcDbEntity
  8
SCHRAFFUR_RAND
100
AcDbVertex
100
AcDb2dVertex
 10
335.077997
 20
551.2439329999999
 30
0.0
  0
VERTEX
  5
10E5
330
10DE
100
AcDbEntity
  8
SCHRAFFUR_RAND
100
AcDbVertex
100
AcDb2dVertex
 10
336.593997
 20
551.0419329999999
 30
0.0
  0
VERTEX
  5
10E6
330
10DE
100
AcDbEntity
  8
SCHRAFFUR_RAND
100
AcDbVertex
100
AcDb2dVertex
 10
342.832997
 20
551.0419329999999
 30
0.0
  0
VERTEX
  5
10E7
330
10DE
100
AcDbEntity
  8
SCHRAFFUR_RAND
100
AcDbVertex
100
AcDb2dVertex
 10
344.348997
 20
551.2439329999999
 30
0.0
  0
VERTEX
  5
10E8
330
10DE
100
AcDbEntity
  8
SCHRAFFUR_RAND
100
AcDbVertex
100
AcDb2dVertex
 10
345.647997
 20
552.0759329999999
 30
0.0
  0
VERTEX
  5
10E9
330
10DE
100
AcDbEntity
  8
SCHRAFFUR_RAND
100
AcDbVertex
100
AcDb2dVertex
 10
346.546997
 20
553.329933
 30
0.0
  0
VERTEX
  5
10EA
330
10DE
100
AcDbEntity
  8
SCHRAFFUR_RAND
100
AcDbVertex
100
AcDb2dVertex
 10
346.8279970000001
 20
554.832933
 30
0.0
  0
VERTEX
  5
10EB
330
10DE
100
AcDbEntity
  8
SCHRAFFUR_RAND
100
AcDbVertex
100
AcDb2dVertex
 10
348.515997
 20
587.0419329999999
 30
0.0
  0
SEQEND
  5
10EC
330
10DE
100
AcDbEntity
  8
SCHRAFFUR_RAND
  0
POLYLINE
  5
113F
330
1708
100
AcDbEntity
  8
SCHRAFFUR_RAND
100
AcDb2dPolyline
 66
     1
 10
0.0
 20
0.0
 30
0.0
 70
     1
  0
VERTEX
  5
1140
330
113F
100
AcDbEntity
  8
SCHRAFFUR_RAND
100
AcDbVertex
100
AcDb2dVertex
 10
379.050997
 20
587.0419329999999
 30
0.0
  0
VERTEX
  5
1141
330
113F
100
AcDbEntity
  8
SCHRAFFUR_RAND
100
AcDbVertex
100
AcDb2dVertex
 10
361.375997
 20
587.0419329999999
 30
0.0
  0
VERTEX
  5
1142
330
113F
100
AcDbEntity
  8
SCHRAFFUR_RAND
100
AcDbVertex
100
AcDb2dVertex
 10
364.118997
 20
555.692933
 30
0.0
  0
VERTEX
  5
1143
330
113F
100
AcDbEntity
  8
SCHRAFFUR_RAND
100
AcDbVertex
100
AcDb2dVertex
 10
364.686997
 20
553.794933
 30
0.0
  0
VERTEX
  5
1144
330
113F
100
AcDbEntity
  8
SCHRAFFUR_RAND
100
AcDbVertex
100
AcDb2dVertex
 10
366.162997
 20
552.442933
 30
0.0
  0
VERTEX
  5
1145
330
113F
100
AcDbEntity
  8
SCHRAFFUR_RAND
100
AcDbVertex
100
AcDb2dVertex
 10
368.102997
 20
552.041933
 30
0.0
  0
VERTEX
  5
1146
330
113F
100
AcDbEntity
  8
SCHRAFFUR_RAND
100
AcDbVertex
100
AcDb2dVertex
 10
372.323997
 20
552.041933
 30
0.0
  0
VERTEX
  5
1147
330
113F
100
AcDbEntity
  8
SCHRAFFUR_RAND
100
AcDbVertex
100
AcDb2dVertex
 10
374.263997
 20
552.442933
 30
0.0
  0
VERTEX
  5
1148
330
113F
100
AcDbEntity
  8
SCHRAFFUR_RAND
100
AcDbVertex
100
AcDb2dVertex
 10
375.739997
 20
553.794933
 30
0.0
  0
VERTEX
  5
1149
330
113F
100
AcDbEntity
  8
SCHRAFFUR_RAND
100
AcDbVertex
100
AcDb2dVertex
 10
376.307997
 20
555.692933
 30
0.0
  0
VERTEX
  5
114A
330
113F
100
AcDbEntity
  8
SCHRAFFUR_RAND
100
AcDbVertex
100
AcDb2dVertex
 10
379.050997
 20
587.0419329999999
 30
0.0
  0
SEQEND
  5
114B
330
113F
100
AcDbEntity
  8
SCHRAFFUR_RAND
  0
POLYLINE
  5
119C
330
1708
100
AcDbEntity
  8
SCHRAFFUR_RAND
100
AcDb2dPolyline
 66
     1
 10
0.0
 20
0.0
 30
0.0
 70
     1
  0
VERTEX
  5
119D
330
119C
100
AcDbEntity
  8
SCHRAFFUR_RAND
100
AcDbVertex
100
AcDb2dVertex
 10
409.550997
 20
587.0419329999999
 30
0.0
  0
VERTEX
  5
119E
330
119C
100
AcDbEntity
  8
SCHRAFFUR_RAND
100
AcDbVertex
100
AcDb2dVertex
 10
391.875997
 20
587.0419329999999
 30
0.0
  0
VERTEX
  5
119F
330
119C
100
AcDbEntity
  8
SCHRAFFUR_RAND
100
AcDbVertex
100
AcDb2dVertex
 10
394.618997
 20
555.692933
 30
0.0
  0
VERTEX
  5
11A0
330
119C
100
AcDbEntity
  8
SCHRAFFUR_RAND
100
AcDbVertex
100
AcDb2dVertex
 10
395.186997
 20
553.794933
 30
0.0
  0
VERTEX
  5
11A1
330
119C
100
AcDbEntity
  8
SCHRAFFUR_RAND
100
AcDbVertex
100
AcDb2dVertex
 10
396.662997
 20
552.442933
 30
0.0
  0
VERTEX
  5
11A2
330
119C
100
AcDbEntity
  8
SCHRAFFUR_RAND
100
AcDbVertex
100
AcDb2dVertex
 10
398.602997
 20
552.041933
 30
0.0
  0
VERTEX
  5
11A3
330
119C
100
AcDbEntity
  8
SCHRAFFUR_RAND
100
AcDbVertex
100
AcDb2dVertex
 10
402.823997
 20
552.041933
 30
0.0
  0
VERTEX
  5
11A4
330
119C
100
AcDbEntity
  8
SCHRAFFUR_RAND
100
AcDbVertex
100
AcDb2dVertex
 10
404.763997
 20
552.442933
 30
0.0
  0
VERTEX
  5
11A5
330
119C
100
AcDbEntity
  8
SCHRAFFUR_RAND
100
AcDbVertex
100
AcDb2dVertex
 10
406.239997
 20
553.794933
 30
0.0
  0
VERTEX
  5
11A6
330
119C
100
AcDbEntity
  8
SCHRAFFUR_RAND
100
AcDbVertex
100
AcDb2dVertex
 10
406.807997
 20
555.692933
 30
0.0
  0
VERTEX
  5
11A7
330
119C
100
AcDbEntity
  8
SCHRAFFUR_RAND
100
AcDbVertex
100
AcDb2dVertex
 10
409.550997
 20
587.0419329999999
 30
0.0
  0
SEQEND
  5
11A8
330
119C
100
AcDbEntity
  8
SCHRAFFUR_RAND
  0
POLYLINE
  5
11F9
330
1708
100
AcDbEntity
  8
SCHRAFFUR_RAND
100
AcDb2dPolyline
 66
     1
 10
0.0
 20
0.0
 30
0.0
 70
     1
  0
VERTEX
  5
11FA
330
11F9
100
AcDbEntity
  8
SCHRAFFUR_RAND
100
AcDbVertex
100
AcDb2dVertex
 10
440.0509969999999
 20
587.0419329999999
 30
0.0
  0
VERTEX
  5
11FB
330
11F9
100
AcDbEntity
  8
SCHRAFFUR_RAND
100
AcDbVertex
100
AcDb2dVertex
 10
422.3759969999999
 20
587.0419329999999
 30
0.0
  0
VERTEX
  5
11FC
330
11F9
100
AcDbEntity
  8
SCHRAFFUR_RAND
100
AcDbVertex
100
AcDb2dVertex
 10
425.1189969999999
 20
555.692933
 30
0.0
  0
VERTEX
  5
11FD
330
11F9
100
AcDbEntity
  8
SCHRAFFUR_RAND
100
AcDbVertex
100
AcDb2dVertex
 10
425.6869969999999
 20
553.794933
 30
0.0
  0
VERTEX
  5
11FE
330
11F9
100
AcDbEntity
  8
SCHRAFFUR_RAND
100
AcDbVertex
100
AcDb2dVertex
 10
427.1629969999999
 20
552.442933
 30
0.0
  0
VERTEX
  5
11FF
330
11F9
100
AcDbEntity
  8
SCHRAFFUR_RAND
100
AcDbVertex
100
AcDb2dVertex
 10
429.1029969999999
 20
552.041933
 30
0.0
  0
VERTEX
  5
1200
330
11F9
100
AcDbEntity
  8
SCHRAFFUR_RAND
100
AcDbVertex
100
AcDb2dVertex
 10
433.323997
 20
552.041933
 30
0.0
  0
VERTEX
  5
1201
330
11F9
100
AcDbEntity
  8
SCHRAFFUR_RAND
100
AcDbVertex
100
AcDb2dVertex
 10
435.2639969999999
 20
552.442933
 30
0.0
  0
VERTEX
  5
1202
330
11F9
100
AcDbEntity
  8
SCHRAFFUR_RAND
100
AcDbVertex
100
AcDb2dVertex
 10
436.739997
 20
553.794933
 30
0.0
  0
VERTEX
  5
1203
330
11F9
100
AcDbEntity
  8
SCHRAFFUR_RAND
100
AcDbVertex
100
AcDb2dVertex
 10
437.307997
 20
555.692933
 30
0.0
  0
VERTEX
  5
1204
330
11F9
100
AcDbEntity
  8
SCHRAFFUR_RAND
100
AcDbVertex
100
AcDb2dVertex
 10
440.0509969999999
 20
587.0419329999999
 30
0.0
  0
SEQEND
  5
1205
330
11F9
100
AcDbEntity
  8
SCHRAFFUR_RAND
  0
POLYLINE
  5
1256
330
1708
100
AcDbEntity
  8
SCHRAFFUR_RAND
100
AcDb2dPolyline
 66
     1
 10
0.0
 20
0.0
 30
0.0
 70
     1
  0
VERTEX
  5
1257
330
1256
100
AcDbEntity
  8
SCHRAFFUR_RAND
100
AcDbVertex
100
AcDb2dVertex
 10
470.550997
 20
587.0419329999999
 30
0.0
  0
VERTEX
  5
1258
330
1256
100
AcDbEntity
  8
SCHRAFFUR_RAND
100
AcDbVertex
100
AcDb2dVertex
 10
452.875997
 20
587.0419329999999
 30
0.0
  0
VERTEX
  5
1259
330
1256
100
AcDbEntity
  8
SCHRAFFUR_RAND
100
AcDbVertex
100
AcDb2dVertex
 10
455.618997
 20
555.692933
 30
0.0
  0
VERTEX
  5
125A
330
1256
100
AcDbEntity
  8
SCHRAFFUR_RAND
100
AcDbVertex
100
AcDb2dVertex
 10
456.186997
 20
553.794933
 30
0.0
  0
VERTEX
  5
125B
330
1256
100
AcDbEntity
  8
SCHRAFFUR_RAND
100
AcDbVertex
100
AcDb2dVertex
 10
457.6629969999999
 20
552.442933
 30
0.0
  0
VERTEX
  5
125C
330
1256
100
AcDbEntity
  8
SCHRAFFUR_RAND
100
AcDbVertex
100
AcDb2dVertex
 10
459.602997
 20
552.041933
 30
0.0
  0
VERTEX
  5
125D
330
1256
100
AcDbEntity
  8
SCHRAFFUR_RAND
100
AcDbVertex
100
AcDb2dVertex
 10
463.8239969999999
 20
552.041933
 30
0.0
  0
VERTEX
  5
125E
330
1256
100
AcDbEntity
  8
SCHRAFFUR_RAND
100
AcDbVertex
100
AcDb2dVertex
 10
465.7639969999999
 20
552.442933
 30
0.0
  0
VERTEX
  5
125F
330
1256
100
AcDbEntity
  8
SCHRAFFUR_RAND
100
AcDbVertex
100
AcDb2dVertex
 10
467.2399969999999
 20
553.794933
 30
0.0
  0
VERTEX
  5
1260
330
1256
100
AcDbEntity
  8
SCHRAFFUR_RAND
100
AcDbVertex
100
AcDb2dVertex
 10
467.8079969999999
 20
555.692933
 30
0.0
  0
VERTEX
  5
1261
330
1256
100
AcDbEntity
  8
SCHRAFFUR_RAND
100
AcDbVertex
100
AcDb2dVertex
 10
470.550997
 20
587.0419329999999
 30
0.0
  0
SEQEND
  5
1262
330
1256
100
AcDbEntity
  8
SCHRAFFUR_RAND
  0
POLYLINE
  5
12B3
330
1708
100
AcDbEntity
  8
SCHRAFFUR_RAND
100
AcDb2dPolyline
 66
     1
 10
0.0
 20
0.0
 30
0.0
 70
     1
  0
VERTEX
  5
12B4
330
12B3
100
AcDbEntity
  8
SCHRAFFUR_RAND
100
AcDbVertex
100
AcDb2dVertex
 10
501.015997
 20
587.0419329999999
 30
0.0
  0
VERTEX
  5
12B5
330
12B3
100
AcDbEntity
  8
SCHRAFFUR_RAND
100
AcDbVertex
100
AcDb2dVertex
 10
483.4109969999999
 20
587.0419329999999
 30
0.0
  0
VERTEX
  5
12B6
330
12B3
100
AcDbEntity
  8
SCHRAFFUR_RAND
100
AcDbVertex
100
AcDb2dVertex
 10
485.0989969999999
 20
554.832933
 30
0.0
  0
VERTEX
  5
12B7
330
12B3
100
AcDbEntity
  8
SCHRAFFUR_RAND
100
AcDbVertex
100
AcDb2dVertex
 10
485.3799969999999
 20
553.329933
 30
0.0
  0
VERTEX
  5
12B8
330
12B3
100
AcDbEntity
  8
SCHRAFFUR_RAND
100
AcDbVertex
100
AcDb2dVertex
 10
486.2789969999999
 20
552.0759329999999
 30
0.0
  0
VERTEX
  5
12B9
330
12B3
100
AcDbEntity
  8
SCHRAFFUR_RAND
100
AcDbVertex
100
AcDb2dVertex
 10
487.5779969999999
 20
551.2439329999999
 30
0.0
  0
VERTEX
  5
12BA
330
12B3
100
AcDbEntity
  8
SCHRAFFUR_RAND
100
AcDbVertex
100
AcDb2dVertex
 10
489.0939969999999
 20
551.0419329999999
 30
0.0
  0
VERTEX
  5
12BB
330
12B3
100
AcDbEntity
  8
SCHRAFFUR_RAND
100
AcDbVertex
100
AcDb2dVertex
 10
495.3329969999999
 20
551.0419329999999
 30
0.0
  0
VERTEX
  5
12BC
330
12B3
100
AcDbEntity
  8
SCHRAFFUR_RAND
100
AcDbVertex
100
AcDb2dVertex
 10
496.848997
 20
551.2439329999999
 30
0.0
  0
VERTEX
  5
12BD
330
12B3
100
AcDbEntity
  8
SCHRAFFUR_RAND
100
AcDbVertex
100
AcDb2dVertex
 10
498.1479969999999
 20
552.0759329999999
 30
0.0
  0
VERTEX
  5
12BE
330
12B3
100
AcDbEntity
  8
SCHRAFFUR_RAND
100
AcDbVertex
100
AcDb2dVertex
 10
499.0469969999999
 20
553.329933
 30
0.0
  0
VERTEX
  5
12BF
330
12B3
100
AcDbEntity
  8
SCHRAFFUR_RAND
100
AcDbVertex
100
AcDb2dVertex
 10
499.3279969999999
 20
554.832933
 30
0.0
  0
VERTEX
  5
12C0
330
12B3
100
AcDbEntity
  8
SCHRAFFUR_RAND
100
AcDbVertex
100
AcDb2dVertex
 10
501.015997
 20
587.0419329999999
 30
0.0
  0
SEQEND
  5
12C1
330
12B3
100
AcDbEntity
  8
SCHRAFFUR_RAND
  0
POLYLINE
  5
1314
330
1708
100
AcDbEntity
  8
SCHRAFFUR_RAND
100
AcDb2dPolyline
 66
     1
 10
0.0
 20
0.0
 30
0.0
 70
     1
  0
VERTEX
  5
1315
330
1314
100
AcDbEntity
  8
SCHRAFFUR_RAND
100
AcDbVertex
100
AcDb2dVertex
 10
464.9639969999999
 20
412.041933
 30
0.0
  0
VERTEX
  5
1316
330
1314
100
AcDbEntity
  8
SCHRAFFUR_RAND
100
AcDbVertex
100
AcDb2dVertex
 10
471.2139969999999
 20
412.041933
 30
0.0
  0
VERTEX
  5
1317
330
1314
100
AcDbEntity
  8
SCHRAFFUR_RAND
100
AcDbVertex
100
AcDb2dVertex
 10
471.2139969999999
 20
482.2719329999999
 30
0.0
  0
VERTEX
  5
1318
330
1314
100
AcDbEntity
  8
SCHRAFFUR_RAND
100
AcDbVertex
100
AcDb2dVertex
 10
471.4929969999999
 20
484.3539329999999
 30
0.0
  0
VERTEX
  5
1319
330
1314
100
AcDbEntity
  8
SCHRAFFUR_RAND
100
AcDbVertex
100
AcDb2dVertex
 10
472.5499969999999
 20
486.184933
 30
0.0
  0
VERTEX
  5
131A
330
1314
100
AcDbEntity
  8
SCHRAFFUR_RAND
100
AcDbVertex
100
AcDb2dVertex
 10
474.2139969999999
 20
487.467933
 30
0.0
  0
VERTEX
  5
131B
330
1314
100
AcDbEntity
  8
SCHRAFFUR_RAND
100
AcDbVertex
100
AcDb2dVertex
 10
494.7549969999999
 20
499.326933
 30
0.0
  0
VERTEX
  5
131C
330
1314
100
AcDbEntity
  8
SCHRAFFUR_RAND
100
AcDbVertex
100
AcDb2dVertex
 10
496.7939969999999
 20
500.7619329999999
 30
0.0
  0
VERTEX
  5
131D
330
1314
100
AcDbEntity
  8
SCHRAFFUR_RAND
100
AcDbVertex
100
AcDb2dVertex
 10
498.3559969999999
 20
502.7169329999999
 30
0.0
  0
VERTEX
  5
131E
330
1314
100
AcDbEntity
  8
SCHRAFFUR_RAND
100
AcDbVertex
100
AcDb2dVertex
 10
499.3889969999999
 20
504.996933
 30
0.0
  0
VERTEX
  5
131F
330
1314
100
AcDbEntity
  8
SCHRAFFUR_RAND
100
AcDbVertex
100
AcDb2dVertex
 10
499.7409969999999
 20
507.463933
 30
0.0
  0
VERTEX
  5
1320
330
1314
100
AcDbEntity
  8
SCHRAFFUR_RAND
100
AcDbVertex
100
AcDb2dVertex
 10
500.7949969999999
 20
527.5659329999999
 30
0.0
  0
VERTEX
  5
1321
330
1314
100
AcDbEntity
  8
SCHRAFFUR_RAND
100
AcDbVertex
100
AcDb2dVertex
 10
501.325997
 20
530.557933
 30
0.0
  0
VERTEX
  5
1322
330
1314
100
AcDbEntity
  8
SCHRAFFUR_RAND
100
AcDbVertex
100
AcDb2dVertex
 10
502.8099969999999
 20
533.2249329999999
 30
0.0
  0
VERTEX
  5
1323
330
1314
100
AcDbEntity
  8
SCHRAFFUR_RAND
100
AcDbVertex
100
AcDb2dVertex
 10
505.022997
 20
535.3259329999999
 30
0.0
  0
VERTEX
  5
1324
330
1314
100
AcDbEntity
  8
SCHRAFFUR_RAND
100
AcDbVertex
100
AcDb2dVertex
 10
507.7639969999999
 20
536.6679330000001
 30
0.0
  0
VERTEX
  5
1325
330
1314
100
AcDbEntity
  8
SCHRAFFUR_RAND
100
AcDbVertex
100
AcDb2dVertex
 10
510.7809969999999
 20
537.0419329999999
 30
0.0
  0
VERTEX
  5
1326
330
1314
100
AcDbEntity
  8
SCHRAFFUR_RAND
100
AcDbVertex
100
AcDb2dVertex
 10
525.936997
 20
537.0419329999999
 30
0.0
  0
VERTEX
  5
1327
330
1314
100
AcDbEntity
  8
SCHRAFFUR_RAND
100
AcDbVertex
100
AcDb2dVertex
 10
523.6869969999999
 20
547.096933
 30
0.0
  0
VERTEX
  5
1328
330
1314
100
AcDbEntity
  8
SCHRAFFUR_RAND
100
AcDbVertex
100
AcDb2dVertex
 10
516.5569969999999
 20
547.096933
 30
0.0
  0
VERTEX
  5
1329
330
1314
100
AcDbEntity
  8
SCHRAFFUR_RAND
100
AcDbVertex
100
AcDb2dVertex
 10
514.4639969999999
 20
587.0419329999999
 30
0.0
  0
VERTEX
  5
132A
330
1314
100
AcDbEntity
  8
SCHRAFFUR_RAND
100
AcDbVertex
100
AcDb2dVertex
 10
506.4639969999999
 20
587.0419329999999
 30
0.0
  0
VERTEX
  5
132B
330
1314
100
AcDbEntity
  8
SCHRAFFUR_RAND
100
AcDbVertex
100
AcDb2dVertex
 10
503.3119969999999
 20
578.384933
 30
0.0
  0
VERTEX
  5
132C
330
1314
100
AcDbEntity
  8
SCHRAFFUR_RAND
100
AcDbVertex
100
AcDb2dVertex
 10
502.8349969999999
 20
551.0419329999999
 30
0.0
  0
VERTEX
  5
132D
330
1314
100
AcDbEntity
  8
SCHRAFFUR_RAND
100
AcDbVertex
100
AcDb2dVertex
 10
502.7909969999999
 20
548.541933
 30
0.0
  0
VERTEX
  5
132E
330
1314
100
AcDbEntity
  8
SCHRAFFUR_RAND
100
AcDbVertex
100
AcDb2dVertex
 10
502.7549969999999
 20
546.446933
 30
0.0
  0
VERTEX
  5
132F
330
1314
100
AcDbEntity
  8
SCHRAFFUR_RAND
100
AcDbVertex
100
AcDb2dVertex
 10
502.389997
 20
544.3359329999999
 30
0.0
  0
VERTEX
  5
1330
330
1314
100
AcDbEntity
  8
SCHRAFFUR_RAND
100
AcDbVertex
100
AcDb2dVertex
 10
501.1719969999999
 20
542.556933
 30
0.0
  0
VERTEX
  5
1331
330
1314
100
AcDbEntity
  8
SCHRAFFUR_RAND
100
AcDbVertex
100
AcDb2dVertex
 10
499.3719969999999
 20
541.369933
 30
0.0
  0
VERTEX
  5
1332
330
1314
100
AcDbEntity
  8
SCHRAFFUR_RAND
100
AcDbVertex
100
AcDb2dVertex
 10
497.2559969999999
 20
541.0419329999999
 30
0.0
  0
VERTEX
  5
1333
330
1314
100
AcDbEntity
  8
SCHRAFFUR_RAND
100
AcDbVertex
100
AcDb2dVertex
 10
491.462997
 20
541.0419329999999
 30
0.0
  0
VERTEX
  5
1334
330
1314
100
AcDbEntity
  8
SCHRAFFUR_RAND
100
AcDbVertex
100
AcDb2dVertex
 10
490.8559969999999
 20
506.2449329999999
 30
0.0
  0
VERTEX
  5
1335
330
1314
100
AcDbEntity
  8
SCHRAFFUR_RAND
100
AcDbVertex
100
AcDb2dVertex
 10
490.6819969999999
 20
504.8719329999999
 30
0.0
  0
VERTEX
  5
1336
330
1314
100
AcDbEntity
  8
SCHRAFFUR_RAND
100
AcDbVertex
100
AcDb2dVertex
 10
489.972997
 20
503.6689329999999
 30
0.0
  0
VERTEX
  5
1337
330
1314
100
AcDbEntity
  8
SCHRAFFUR_RAND
100
AcDbVertex
100
AcDb2dVertex
 10
488.8569969999999
 20
502.849933
 30
0.0
  0
VERTEX
  5
1338
330
1314
100
AcDbEntity
  8
SCHRAFFUR_RAND
100
AcDbVertex
100
AcDb2dVertex
 10
470.6439969999999
 20
492.334933
 30
0.0
  0
VERTEX
  5
1339
330
1314
100
AcDbEntity
  8
SCHRAFFUR_RAND
100
AcDbVertex
100
AcDb2dVertex
 10
468.509997
 20
490.8079329999999
 30
0.0
  0
VERTEX
  5
133A
330
1314
100
AcDbEntity
  8
SCHRAFFUR_RAND
100
AcDbVertex
100
AcDb2dVertex
 10
466.9069969999999
 20
488.717933
 30
0.0
  0
VERTEX
  5
133B
330
1314
100
AcDbEntity
  8
SCHRAFFUR_RAND
100
AcDbVertex
100
AcDb2dVertex
 10
465.8989969999999
 20
486.284933
 30
0.0
  0
VERTEX
  5
133C
330
1314
100
AcDbEntity
  8
SCHRAFFUR_RAND
100
AcDbVertex
100
AcDb2dVertex
 10
465.643997
 20
483.673933
 30
0.0
  0
VERTEX
  5
133D
330
1314
100
AcDbEntity
  8
SCHRAFFUR_RAND
100
AcDbVertex
100
AcDb2dVertex
 10
465.643997
 20
437.041933
 30
0.0
  0
VERTEX
  5
133E
330
1314
100
AcDbEntity
  8
SCHRAFFUR_RAND
100
AcDbVertex
100
AcDb2dVertex
 10
464.9639969999999
 20
432.042933
 30
0.0
  0
VERTEX
  5
133F
330
1314
100
AcDbEntity
  8
SCHRAFFUR_RAND
100
AcDbVertex
100
AcDb2dVertex
 10
464.9639969999999
 20
412.041933
 30
0.0
  0
SEQEND
  5
1340
330
1314
100
AcDbEntity
  8
SCHRAFFUR_RAND
  0
POLYLINE
  5
14C8
330
1708
100
AcDbEntity
  8
SCHRAFFUR_RAND
100
AcDb2dPolyline
 66
     1
 10
0.0
 20
0.0
 30
0.0
 70
     1
  0
VERTEX
  5
14C9
330
14C8
100
AcDbEntity
  8
SCHRAFFUR_RAND
100
AcDbVertex
100
AcDb2dVertex
 10
325.463997
 20
587.0419329999999
 30
0.0
  0
VERTEX
  5
14CA
330
14C8
100
AcDbEntity
  8
SCHRAFFUR_RAND
100
AcDbVertex
100
AcDb2dVertex
 10
317.463997
 20
587.0419329999999
 30
0.0
  0
VERTEX
  5
14CB
330
14C8
100
AcDbEntity
  8
SCHRAFFUR_RAND
100
AcDbVertex
100
AcDb2dVertex
 10
315.369997
 20
547.096933
 30
0.0
  0
VERTEX
  5
14CC
330
14C8
100
AcDbEntity
  8
SCHRAFFUR_RAND
100
AcDbVertex
100
AcDb2dVertex
 10
308.240997
 20
547.096933
 30
0.0
  0
VERTEX
  5
14CD
330
14C8
100
AcDbEntity
  8
SCHRAFFUR_RAND
100
AcDbVertex
100
AcDb2dVertex
 10
305.990997
 20
537.0419329999999
 30
0.0
  0
VERTEX
  5
14CE
330
14C8
100
AcDbEntity
  8
SCHRAFFUR_RAND
100
AcDbVertex
100
AcDb2dVertex
 10
321.145997
 20
537.0419329999999
 30
0.0
  0
VERTEX
  5
14CF
330
14C8
100
AcDbEntity
  8
SCHRAFFUR_RAND
100
AcDbVertex
100
AcDb2dVertex
 10
324.162997
 20
536.6679330000001
 30
0.0
  0
VERTEX
  5
14D0
330
14C8
100
AcDbEntity
  8
SCHRAFFUR_RAND
100
AcDbVertex
100
AcDb2dVertex
 10
326.903997
 20
535.3259329999999
 30
0.0
  0
VERTEX
  5
14D1
330
14C8
100
AcDbEntity
  8
SCHRAFFUR_RAND
100
AcDbVertex
100
AcDb2dVertex
 10
329.116997
 20
533.2249329999999
 30
0.0
  0
VERTEX
  5
14D2
330
14C8
100
AcDbEntity
  8
SCHRAFFUR_RAND
100
AcDbVertex
100
AcDb2dVertex
 10
330.601997
 20
530.557933
 30
0.0
  0
VERTEX
  5
14D3
330
14C8
100
AcDbEntity
  8
SCHRAFFUR_RAND
100
AcDbVertex
100
AcDb2dVertex
 10
331.131997
 20
527.5659329999999
 30
0.0
  0
VERTEX
  5
14D4
330
14C8
100
AcDbEntity
  8
SCHRAFFUR_RAND
100
AcDbVertex
100
AcDb2dVertex
 10
332.1859970000001
 20
507.464933
 30
0.0
  0
VERTEX
  5
14D5
330
14C8
100
AcDbEntity
  8
SCHRAFFUR_RAND
100
AcDbVertex
100
AcDb2dVertex
 10
332.537997
 20
504.996933
 30
0.0
  0
VERTEX
  5
14D6
330
14C8
100
AcDbEntity
  8
SCHRAFFUR_RAND
100
AcDbVertex
100
AcDb2dVertex
 10
333.570997
 20
502.7169329999999
 30
0.0
  0
VERTEX
  5
14D7
330
14C8
100
AcDbEntity
  8
SCHRAFFUR_RAND
100
AcDbVertex
100
AcDb2dVertex
 10
335.132997
 20
500.7619329999999
 30
0.0
  0
VERTEX
  5
14D8
330
14C8
100
AcDbEntity
  8
SCHRAFFUR_RAND
100
AcDbVertex
100
AcDb2dVertex
 10
337.172997
 20
499.326933
 30
0.0
  0
VERTEX
  5
14D9
330
14C8
100
AcDbEntity
  8
SCHRAFFUR_RAND
100
AcDbVertex
100
AcDb2dVertex
 10
357.713997
 20
487.467933
 30
0.0
  0
VERTEX
  5
14DA
330
14C8
100
AcDbEntity
  8
SCHRAFFUR_RAND
100
AcDbVertex
100
AcDb2dVertex
 10
359.376997
 20
486.184933
 30
0.0
  0
VERTEX
  5
14DB
330
14C8
100
AcDbEntity
  8
SCHRAFFUR_RAND
100
AcDbVertex
100
AcDb2dVertex
 10
360.433997
 20
484.3539329999999
 30
0.0
  0
VERTEX
  5
14DC
330
14C8
100
AcDbEntity
  8
SCHRAFFUR_RAND
100
AcDbVertex
100
AcDb2dVertex
 10
360.713997
 20
482.2719329999999
 30
0.0
  0
VERTEX
  5
14DD
330
14C8
100
AcDbEntity
  8
SCHRAFFUR_RAND
100
AcDbVertex
100
AcDb2dVertex
 10
360.713997
 20
412.041933
 30
0.0
  0
VERTEX
  5
14DE
330
14C8
100
AcDbEntity
  8
SCHRAFFUR_RAND
100
AcDbVertex
100
AcDb2dVertex
 10
366.963997
 20
412.041933
 30
0.0
  0
VERTEX
  5
14DF
330
14C8
100
AcDbEntity
  8
SCHRAFFUR_RAND
100
AcDbVertex
100
AcDb2dVertex
 10
366.963997
 20
432.042933
 30
0.0
  0
VERTEX
  5
14E0
330
14C8
100
AcDbEntity
  8
SCHRAFFUR_RAND
100
AcDbVertex
100
AcDb2dVertex
 10
366.282997
 20
437.041933
 30
0.0
  0
VERTEX
  5
14E1
330
14C8
100
AcDbEntity
  8
SCHRAFFUR_RAND
100
AcDbVertex
100
AcDb2dVertex
 10
366.282997
 20
483.6749329999999
 30
0.0
  0
VERTEX
  5
14E2
330
14C8
100
AcDbEntity
  8
SCHRAFFUR_RAND
100
AcDbVertex
100
AcDb2dVertex
 10
366.027997
 20
486.285933
 30
0.0
  0
VERTEX
  5
14E3
330
14C8
100
AcDbEntity
  8
SCHRAFFUR_RAND
100
AcDbVertex
100
AcDb2dVertex
 10
365.019997
 20
488.7189329999999
 30
0.0
  0
VERTEX
  5
14E4
330
14C8
100
AcDbEntity
  8
SCHRAFFUR_RAND
100
AcDbVertex
100
AcDb2dVertex
 10
363.416997
 20
490.8079329999999
 30
0.0
  0
VERTEX
  5
14E5
330
14C8
100
AcDbEntity
  8
SCHRAFFUR_RAND
100
AcDbVertex
100
AcDb2dVertex
 10
361.282997
 20
492.334933
 30
0.0
  0
VERTEX
  5
14E6
330
14C8
100
AcDbEntity
  8
SCHRAFFUR_RAND
100
AcDbVertex
100
AcDb2dVertex
 10
343.069997
 20
502.850933
 30
0.0
  0
VERTEX
  5
14E7
330
14C8
100
AcDbEntity
  8
SCHRAFFUR_RAND
100
AcDbVertex
100
AcDb2dVertex
 10
341.953997
 20
503.6689329999999
 30
0.0
  0
VERTEX
  5
14E8
330
14C8
100
AcDbEntity
  8
SCHRAFFUR_RAND
100
AcDbVertex
100
AcDb2dVertex
 10
341.245997
 20
504.8719329999999
 30
0.0
  0
VERTEX
  5
14E9
330
14C8
100
AcDbEntity
  8
SCHRAFFUR_RAND
100
AcDbVertex
100
AcDb2dVertex
 10
341.070997
 20
506.2449329999999
 30
0.0
  0
VERTEX
  5
14EA
330
14C8
100
AcDbEntity
  8
SCHRAFFUR_RAND
100
AcDbVertex
100
AcDb2dVertex
 10
340.463997
 20
541.0419329999999
 30
0.0
  0
VERTEX
  5
14EB
330
14C8
100
AcDbEntity
  8
SCHRAFFUR_RAND
100
AcDbVertex
100
AcDb2dVertex
 10
334.670997
 20
541.0419329999999
 30
0.0
  0
VERTEX
  5
14EC
330
14C8
100
AcDbEntity
  8
SCHRAFFUR_RAND
100
AcDbVertex
100
AcDb2dVertex
 10
332.554997
 20
541.369933
 30
0.0
  0
VERTEX
  5
14ED
330
14C8
100
AcDbEntity
  8
SCHRAFFUR_RAND
100
AcDbVertex
100
AcDb2dVertex
 10
330.754997
 20
542.556933
 30
0.0
  0
VERTEX
  5
14EE
330
14C8
100
AcDbEntity
  8
SCHRAFFUR_RAND
100
AcDbVertex
100
AcDb2dVertex
 10
329.536997
 20
544.3359329999999
 30
0.0
  0
VERTEX
  5
14EF
330
14C8
100
AcDbEntity
  8
SCHRAFFUR_RAND
100
AcDbVertex
100
AcDb2dVertex
 10
329.171997
 20
546.446933
 30
0.0
  0
VERTEX
  5
14F0
330
14C8
100
AcDbEntity
  8
SCHRAFFUR_RAND
100
AcDbVertex
100
AcDb2dVertex
 10
329.135997
 20
548.541933
 30
0.0
  0
VERTEX
  5
14F1
330
14C8
100
AcDbEntity
  8
SCHRAFFUR_RAND
100
AcDbVertex
100
AcDb2dVertex
 10
329.091997
 20
551.0419329999999
 30
0.0
  0
VERTEX
  5
14F2
330
14C8
100
AcDbEntity
  8
SCHRAFFUR_RAND
100
AcDbVertex
100
AcDb2dVertex
 10
328.614997
 20
578.384933
 30
0.0
  0
VERTEX
  5
14F3
330
14C8
100
AcDbEntity
  8
SCHRAFFUR_RAND
100
AcDbVertex
100
AcDb2dVertex
 10
325.463997
 20
587.0419329999999
 30
0.0
  0
SEQEND
  5
14F4
330
14C8
100
AcDbEntity
  8
SCHRAFFUR_RAND
  0
DIMENSION
  5
1684
330
1708
100
AcDbEntity
  8
5
100
AcDbDimension
  2
*D0
 10
235.962997
 20
587.0419329999999
 30
0.0
 11
224.212997
 21
562.0419329999999
 31
0.0
 70
    32
  1
50
 71
     5
 42
-1.0
  3
GEN-ISO
100
AcDbAlignedDimension
 13
285.962997
 23
537.0419329999999
 33
0.0
 14
269.557997
 24
587.0419329999999
 34
0.0
 50
90.0
100
AcDbRotatedDimension
  0
DIMENSION
  5
168E
330
1708
100
AcDbEntity
  8
5
100
AcDbDimension
  2
*D1
 10
200.962997
 20
587.0419329999999
 30
0.0
 11
189.212997
 21
499.541933
 31
0.0
 70
    32
  1
175
 71
     5
 42
-1.0
  3
GEN-ISO
100
AcDbAlignedDimension
 13
360.713997
 23
412.041933
 33
0.0
 14
317.463997
 24
587.0419329999999
 34
0.0
 50
90.0
100
AcDbRotatedDimension
  0
DIMENSION
  5
1698
330
1708
100
AcDbEntity
  8
5
100
AcDbDimension
  2
*D2
 10
591.5169969999999
 20
485.735933
 30
0.0
 11
579.7669969999999
 21
448.888933
 31
0.0
 70
    32
  1
75
 71
     5
 42
-1.0
  3
GEN-ISO
100
AcDbAlignedDimension
 13
471.2139969999999
 23
412.041933
 33
0.0
 14
471.2139969999999
 24
485.735933
 34
0.0
 50
90.0
100
AcDbRotatedDimension
  0
DIMENSION
  5
16A2
330
1708
100
AcDbEntity
  8
5
100
AcDbDimension
  2
*D3
 10
235.962997
 20
372.041933
 30
0.0
 11
224.212997
 21
273.542433
 31
0.0
 70
    32
  1
197
 71
     5
 42
-1.0
  3
GEN-ISO
100
AcDbAlignedDimension
 13
317.463997
 23
175.042933
 33
0.0
 14
317.463997
 24
372.041933
 34
0.0
 50
90.0
100
AcDbRotatedDimension
  0
DIMENSION
  5
16AD
330
1708
100
AcDbEntity
  8
5
100
AcDbDimension
  2
*D4
 10
361.463997
 20
125.042933
 30
0.0
 11
397.701434
 21
136.792933
 31
0.0
 70
    32
  1
13
 71
     5
 42
-1.0
  3
GEN-ISO
100
AcDbAlignedDimension
 13
348.462997
 23
212.541933
 33
0.0
 14
361.463997
 24
212.541933
 34
0.0
100
AcDbRotatedDimension
  0
DIMENSION
  5
16B7
330
1708
100
AcDbEntity
  8
5
100
AcDbDimension
  2
*D5
 10
514.4629969999999
 20
90.04293299999998
 30
0.0
 11
415.9634969999999
 21
101.792933
 31
0.0
 70
    32
  1
197
 71
     5
 42
-1.0
  3
GEN-ISO
100
AcDbAlignedDimension
 13
317.463997
 23
175.042933
 33
0.0
 14
514.4629969999999
 24
175.042933
 34
0.0
100
AcDbRotatedDimension
  0
DIMENSION
  5
16C1
330
1708
100
AcDbEntity
  8
5
100
AcDbDimension
  2
*D6
 10
545.9629969999999
 20
55.042933
 30
0.0
 11
415.962997
 21
66.794655
 31
0.0
 70
    32
  1
260
 71
     5
 42
-1.0
  3
GEN-ISO
100
AcDbAlignedDimension
 13
285.962997
 23
246.025933
 33
0.0
 14
545.9629969999999
 24
246.025933
 34
0.0
100
AcDbRotatedDimension
  0
DIMENSION
  5
16CC
330
1708
100
AcDbEntity
  8
5
100
AcDbDimension
  2
*D7
 10
591.5169969999999
 20
278.041933
 30
0.0
 11
579.7669969999999
 21
310.500237
 31
0.0
 70
    32
  1
9
 71
     5
 42
-1.0
  3
GEN-ISO
100
AcDbAlignedDimension
 13
530.436997
 23
269.041933
 33
0.0
 14
530.436997
 24
278.041933
 34
0.0
 50
90.0
100
AcDbRotatedDimension
  0
HATCH
  5
175C
330
1708
100
AcDbEntity
  8
8
100
AcDbHatch
 10
0.0
 20
0.0
 30
0.0
210
0.0
220
0.0
230
1.0
  2
_U
 70
     0
 71
     0
 91
        1
 92
        1
 93
        4
 72
     1
 10
294.740997
 20
547.096933
 11
286.486997
 21
547.028933
 72
     1
 10
286.486997
 20
547.028933
 11
285.962997
 21
537.0419329999999
 72
     1
 10
285.962997
 20
537.0419329999999
 11
296.990997
 21
537.0419329999999
 72
     1
 10
296.990997
 20
537.0419329999999
 11
294.740997
 21
547.096933
 97
        0
 75
     0
 76
     0
 52
45.0
 41
3.0
 77
     0
 78
     1
 53
45.0
 43
0.0
 44
0.0
 45
-2.121320343559641
 46
2.121320343559641
 79
     0
 98
        1
 10
116.741997
 20
-84.87306700000001
1001
GENIUS_GENODEF_13
1002
{
1000
HIER
1070
     0
1002
}
1002
{
1000
MANEDIT
1070
     0
1002
}
1002
{
1000
NOSEL
1070
     0
1002
}
1002
{
1000
BEHIND
1070
     0
1002
}
1002
{
1000
REACTOR
1002
}
1001
GENIUS_GENOBJ-N-HTC_13
1002
{
1000
OWNER
1000
GEN
1002
}
1001
GENIUS_GENHATCH_13
1002
{
1000
DATA
1040
45.0
1042
2.5
1000
_U
1070
     0
1011
291.190402
1021
541.055582
1031
0.0
1002
}
1002
{
1000
UCS
1010
0.0
1020
0.0
1030
0.0
1010
1.0
1020
0.0
1030
0.0
1010
0.0
1020
1.0
1030
0.0
1002
}
  0
HATCH
  5
179B
330
1708
100
AcDbEntity
  8
8
100
AcDbHatch
 10
0.0
 20
0.0
 30
0.0
210
0.0
220
0.0
230
1.0
  2
_U
 70
     0
 71
     0
 91
        1
 92
        1
 93
       54
 72
     1
 10
329.171997
 20
546.446933
 11
328.614997
 21
578.384933
 72
     1
 10
328.614997
 20
578.384933
 11
325.463997
 21
587.0419329999999
 72
     1
 10
325.463997
 20
587.0419329999999
 11
317.463997
 21
587.0419329999999
 72
     1
 10
317.463997
 20
587.0419329999999
 11
315.369997
 21
547.096933
 72
     1
 10
315.369997
 20
547.096933
 11
308.240997
 21
547.096933
 72
     1
 10
308.240997
 20
547.096933
 11
305.990997
 21
537.0419329999999
 72
     1
 10
305.990997
 20
537.0419329999999
 11
321.145997
 21
537.0419329999999
 72
     2
 10
321.145997
 20
527.041933
 40
10.0
 50
270.0
 51
284.13315
 73
     0
 72
     1
 10
323.587758
 20
536.7392419999999
 11
324.162997
 21
536.6679330000001
 72
     1
 10
324.162997
 20
536.6679330000001
 11
324.860193
 21
536.326584
 72
     2
 10
321.145997
 20
527.041933
 40
10.0
 50
291.803194
 51
300.369762
 73
     0
 72
     1
 10
326.201782
 20
535.6697389999999
 11
326.903997
 21
535.3259329999999
 72
     1
 10
326.903997
 20
535.3259329999999
 11
327.471692
 21
534.786968
 72
     2
 10
321.145997
 20
527.041933
 40
10.0
 50
309.239954
 51
317.78569
 73
     0
 72
     1
 10
328.552365
 20
533.760989
 11
329.116997
 21
533.2249329999999
 72
     1
 10
329.116997
 20
533.2249329999999
 11
329.495394
 21
532.545348
 72
     2
 10
321.145997
 20
527.041933
 40
10.0
 50
326.609556
 51
335.1718510000001
 73
     0
 72
     1
 10
330.22171
 20
531.2409129999999
 11
330.601997
 21
530.557933
 72
     1
 10
330.601997
 20
530.557933
 11
331.131997
 21
527.5659329999999
 72
     1
 10
331.131997
 20
527.5659329999999
 11
332.1859970000001
 21
507.464933
 72
     1
 10
332.1859970000001
 20
507.464933
 11
332.438452
 21
505.694876
 72
     2
 10
342.171997
 20
507.9879329999999
 40
10.0
 50
193.256199
 51
229.75472
 73
     1
 72
     1
 10
335.711386
 20
500.355076
 11
337.17166
 21
499.327873
 72
     1
 10
337.17166
 20
499.327873
 11
337.172997
 21
499.326933
 72
     1
 10
337.172997
 20
499.326933
 11
357.713997
 21
487.467933
 72
     1
 10
357.713997
 20
487.467933
 11
359.376997
 21
486.184933
 72
     1
 10
359.376997
 20
486.184933
 11
359.779927
 21
485.486952
 72
     2
 10
354.713997
 20
482.2719329999999
 40
6.0
 50
327.59934
 51
332.406684
 73
     0
 72
     1
 10
360.031543
 20
485.0510889999999
 11
360.433997
 21
484.3539329999999
 72
     1
 10
360.433997
 20
484.3539329999999
 11
360.500815
 21
483.857096
 72
     2
 10
354.713997
 20
482.2719329999999
 40
6.0
 50
344.680946
 51
360.0
 73
     0
 72
     1
 10
360.713997
 20
482.2719329999999
 11
360.713997
 21
412.041933
 72
     1
 10
360.713997
 20
412.041933
 11
366.963997
 21
412.041933
 72
     1
 10
366.963997
 20
412.041933
 11
366.963997
 21
432.042933
 72
     1
 10
366.963997
 20
432.042933
 11
366.282997
 21
437.041933
 72
     1
 10
366.282997
 20
437.041933
 11
366.282997
 21
483.6749329999999
 72
     1
 10
366.282997
 20
483.6749329999999
 11
366.094035
 21
485.609753
 72
     2
 10
356.282997
 20
483.6749329999999
 40
10.0
 50
11.156059
 51
48.816044
 73
     1
 72
     1
 10
362.867784
 20
491.2009259999999
 11
361.282997
 21
492.334933
 72
     1
 10
361.282997
 20
492.334933
 11
343.069997
 21
502.850933
 72
     1
 10
343.069997
 20
502.850933
 11
341.953997
 21
503.6689329999999
 72
     1
 10
341.953997
 20
503.6689329999999
 11
341.245997
 21
504.8719329999999
 72
     1
 10
341.245997
 20
504.8719329999999
 11
341.070997
 21
506.2449329999999
 72
     1
 10
341.070997
 20
506.2449329999999
 11
340.462997
 21
541.0419329999999
 72
     1
 10
340.462997
 20
541.0419329999999
 11
334.670997
 21
541.0419329999999
 72
     2
 10
334.670997
 20
546.5419329999999
 40
5.5
 50
90.0
 51
107.622524
 73
     0
 72
     1
 10
333.005902
 20
541.3000379999999
 11
332.554997
 21
541.369933
 72
     1
 10
332.554997
 20
541.369933
 11
332.017653
 21
541.7242809999999
 72
     2
 10
334.670997
 20
546.5419329999999
 40
5.5
 50
118.843982
 51
127.961283
 73
     0
 72
     1
 10
331.287788
 20
542.205586
 11
330.754997
 21
542.556933
 72
     1
 10
330.754997
 20
542.556933
 11
330.394899
 21
543.0828889999999
 72
     2
 10
334.670997
 20
546.5419329999999
 40
5.5
 50
141.029725
 51
150.174955
 73
     0
 72
     1
 10
329.899482
 20
543.80649
 11
329.536997
 21
544.3359329999999
 72
     1
 10
329.536997
 20
544.3359329999999
 11
329.171997
 21
546.446933
 97
        0
 75
     0
 76
     0
 52
45.0
 41
12.5
 77
     0
 78
     1
 53
45.0
 43
116.741997
 44
-84.87306700000001
 45
-8.838834764831842
 46
8.838834764831842
 79
     0
 98
        1
 10
116.741997
 20
-84.87306700000001
1001
GENIUS_GENODEF_13
1002
{
1000
HIER
1070
     0
1002
}
1002
{
1000
MANEDIT
1070
     0
1002
}
1002
{
1000
NOSEL
1070
     0
1002
}
1002
{
1000
BEHIND
1070
     0
1002
}
1002
{
1000
REACTOR
1002
}
1001
GENIUS_GENOBJ-N-HTC_13
1002
{
1000
OWNER
1000
GEN
1002
}
1001
GENIUS_GENHATCH_13
1002
{
1000
DATA
1040
45.0
1042
2.5
1000
_U
1070
     0
1011
321.86533
1021
543.907716
1031
0.0
1002
}
1002
{
1000
UCS
1010
0.0
1020
0.0
1030
0.0
1010
1.0
1020
0.0
1030
0.0
1010
0.0
1020
1.0
1030
0.0
1002
}
  0
HATCH
  5
17D8
330
1708
100
AcDbEntity
  8
8
100
AcDbHatch
 10
0.0
 20
0.0
 30
0.0
210
0.0
220
0.0
230
1.0
  2
_U
 70
     0
 71
     0
 91
        1
 92
        1
 93
       56
 72
     1
 10
501.325997
 20
530.557933
 11
501.701638
 21
531.233024
 72
     2
 10
510.7809969999999
 20
527.041933
 40
10.0
 50
204.7783550000001
 51
213.407435
 73
     0
 72
     1
 10
502.433233
 20
532.5478229999999
 11
502.8099969999999
 21
533.2249329999999
 72
     1
 10
502.8099969999999
 20
533.2249329999999
 11
503.374629
 21
533.760989
 72
     2
 10
510.7809969999999
 20
527.041933
 40
10.0
 50
222.21431
 51
230.760046
 73
     0
 72
     1
 10
504.4553019999999
 20
534.786968
 11
505.022997
 21
535.3259329999999
 72
     1
 10
505.022997
 20
535.3259329999999
 11
505.725212
 21
535.6697389999999
 72
     2
 10
510.7809969999999
 20
527.041933
 40
10.0
 50
239.630238
 51
248.196806
 73
     0
 72
     1
 10
507.066801
 20
536.326584
 11
507.7639969999999
 21
536.6679330000001
 72
     1
 10
507.7639969999999
 20
536.6679330000001
 11
508.339236
 21
536.7392419999999
 72
     2
 10
510.7809969999999
 20
527.041933
 40
10.0
 50
255.86685
 51
270.0
 73
     0
 72
     1
 10
510.7809969999999
 20
537.0419329999999
 11
525.936997
 21
537.0419329999999
 72
     1
 10
525.936997
 20
537.0419329999999
 11
523.6869969999999
 21
547.096933
 72
     1
 10
523.6869969999999
 20
547.096933
 11
516.5569969999999
 21
547.096933
 72
     1
 10
516.5569969999999
 20
547.096933
 11
514.4639969999999
 21
587.0419329999999
 72
     1
 10
514.4639969999999
 20
587.0419329999999
 11
506.4639969999999
 21
587.0419329999999
 72
     1
 10
506.4639969999999
 20
587.0419329999999
 11
503.3119969999999
 21
578.384933
 72
     1
 10
503.3119969999999
 20
578.384933
 11
502.7549969999999
 21
546.446933
 72
     1
 10
502.7549969999999
 20
546.446933
 11
502.389997
 21
544.3359329999999
 72
     1
 10
502.389997
 20
544.3359329999999
 11
502.0275119999999
 21
543.80649
 72
     2
 10
497.2559969999999
 20
546.5419329999999
 40
5.5
 50
29.82504500000001
 51
38.970275
 73
     0
 72
     1
 10
501.532095
 20
543.0828889999999
 11
501.1719969999999
 21
542.556933
 72
     1
 10
501.1719969999999
 20
542.556933
 11
500.6392059999999
 21
542.205586
 72
     2
 10
497.2559969999999
 20
546.5419329999999
 40
5.5
 50
52.038717
 51
61.156018
 73
     0
 72
     1
 10
499.909341
 20
541.7242809999999
 11
499.3719969999999
 21
541.369933
 72
     1
 10
499.3719969999999
 20
541.369933
 11
498.9210919999999
 21
541.3000379999999
 72
     2
 10
497.2559969999999
 20
546.5419329999999
 40
5.5
 50
72.377476
 51
90.0
 73
     0
 72
     1
 10
497.2559969999999
 20
541.0419329999999
 11
491.462997
 21
541.0419329999999
 72
     1
 10
491.462997
 20
541.0419329999999
 11
490.8559969999999
 21
506.2449329999999
 72
     1
 10
490.8559969999999
 20
506.2449329999999
 11
490.6819969999999
 21
504.8719329999999
 72
     1
 10
490.6819969999999
 20
504.8719329999999
 11
489.972997
 21
503.6689329999999
 72
     1
 10
489.972997
 20
503.6689329999999
 11
489.5568899999999
 21
503.3635639999999
 72
     2
 10
486.856997
 20
506.3149329999999
 40
4.0
 50
47.547932
 51
59.90433899999999
 73
     0
 72
     1
 10
488.862778
 20
502.854175
 11
488.8569969999999
 21
502.849933
 72
     1
 10
488.8569969999999
 20
502.849933
 11
470.6439969999999
 21
492.334933
 72
     1
 10
470.6439969999999
 20
492.334933
 11
469.065513
 21
491.2054359999999
 72
     2
 10
475.6439969999999
 20
483.673933
 40
10.0
 50
131.135985
 51
168.843941
 73
     1
 72
     1
 10
465.832959
 20
485.608753
 11
465.643997
 21
483.673933
 72
     1
 10
465.643997
 20
483.673933
 11
465.643997
 21
437.041933
 72
     1
 10
465.643997
 20
437.041933
 11
464.9639969999999
 21
432.042933
 72
     1
 10
464.9639969999999
 20
432.042933
 11
464.9639969999999
 21
412.041933
 72
     1
 10
464.9639969999999
 20
412.041933
 11
471.2139969999999
 21
412.041933
 72
     1
 10
471.2139969999999
 20
412.041933
 11
471.2139969999999
 21
482.2719329999999
 72
     2
 10
477.2139969999999
 20
482.2719329999999
 40
6.0
 50
180.0
 51
195.264989
 73
     0
 72
     1
 10
471.425686
 20
483.8516339999999
 11
471.4929969999999
 21
484.3539329999999
 72
     1
 10
471.4929969999999
 20
484.3539329999999
 11
471.906478
 21
485.070191
 72
     2
 10
477.2139969999999
 20
482.2719329999999
 40
6.0
 50
207.799332
 51
212.194643
 73
     0
 72
     1
 10
472.1365389999999
 20
485.468716
 11
472.5499969999999
 21
486.184933
 72
     1
 10
472.5499969999999
 20
486.184933
 11
474.2139969999999
 21
487.467933
 72
     1
 10
474.2139969999999
 20
487.467933
 11
494.7549969999999
 21
499.326933
 72
     1
 10
494.7549969999999
 20
499.326933
 11
494.760919
 21
499.3311
 72
     1
 10
494.760919
 20
499.3311
 11
496.2142079999999
 21
500.353891
 72
     2
 10
489.7549969999999
 20
507.9879329999999
 40
10.0
 50
310.234769
 51
346.746358
 73
     1
 72
     1
 10
499.488644
 20
505.6953099999999
 11
499.7409969999999
 21
507.463933
 72
     1
 10
499.7409969999999
 20
507.463933
 11
500.7949969999999
 21
527.5659329999999
 72
     1
 10
500.7949969999999
 20
527.5659329999999
 11
501.325997
 21
530.557933
 97
        0
 75
     0
 76
     0
 52
45.0
 41
12.5
 77
     0
 78
     1
 53
45.0
 43
116.741997
 44
-84.87306700000001
 45
-8.838834764831842
 46
8.838834764831842
 79
     0
 98
        1
 10
116.741997
 20
-84.87306700000001
1001
GENIUS_GENODEF_13
1002
{
1000
HIER
1070
     0
1002
}
1002
{
1000
MANEDIT
1070
     0
1002
}
1002
{
1000
NOSEL
1070
     0
1002
}
1002
{
1000
BEHIND
1070
     0
1002
}
1002
{
1000
REACTOR
1002
}
1001
GENIUS_GENOBJ-N-HTC_13
1002
{
1000
OWNER
1000
GEN
1002
}
1001
GENIUS_GENHATCH_13
1002
{
1000
DATA
1040
45.0
1042
2.5
1000
_U
1070
     0
1011
508.055015
1021
542.4816499999999
1031
0.0
1002
}
1002
{
1000
UCS
1010
0.0
1020
0.0
1030
0.0
1010
1.0
1020
0.0
1030
0.0
1010
0.0
1020
1.0
1030
0.0
1002
}
  0
HATCH
  5
17E1
330
1708
100
AcDbEntity
  8
8
100
AcDbHatch
 10
0.0
 20
0.0
 30
0.0
210
0.0
220
0.0
230
1.0
  2
_U
 70
     0
 71
     0
 91
        1
 92
        1
 93
        4
 72
     1
 10
545.4399969999999
 20
547.028933
 11
537.186997
 21
547.096933
 72
     1
 10
537.186997
 20
547.096933
 11
534.936997
 21
537.0419329999999
 72
     1
 10
534.936997
 20
537.0419329999999
 11
545.9639969999999
 21
537.0419329999999
 72
     1
 10
545.9639969999999
 20
537.0419329999999
 11
545.4399969999999
 21
547.028933
 97
        0
 75
     0
 76
     0
 52
45.0
 41
2.5
 77
     0
 78
     1
 53
45.0
 43
0.0
 44
0.0
 45
-1.767766952966368
 46
1.767766952966368
 79
     0
 98
        1
 10
116.741997
 20
-84.87306700000001
1001
GENIUS_GENODEF_13
1002
{
1000
HIER
1070
     0
1002
}
1002
{
1000
MANEDIT
1070
     0
1002
}
1002
{
1000
NOSEL
1070
     0
1002
}
1002
{
1000
BEHIND
1070
     0
1002
}
1002
{
1000
REACTOR
1002
}
1001
GENIUS_GENOBJ-N-HTC_13
1002
{
1000
OWNER
1000
GEN
1002
}
1001
GENIUS_GENHATCH_13
1002
{
1000
DATA
1040
45.0
1042
2.5
1000
_U
1070
     0
1011
540.8700559999999
1021
541.055582
1031
0.0
1002
}
1002
{
1000
UCS
1010
0.0
1020
0.0
1030
0.0
1010
1.0
1020
0.0
1030
0.0
1010
0.0
1020
1.0
1030
0.0
1002
}
  0
HATCH
  5
17F2
330
1708
100
AcDbEntity
  8
8
100
AcDbHatch
 10
0.0
 20
0.0
 30
0.0
210
0.0
220
0.0
230
1.0
  2
_U
 70
     0
 71
     0
 91
        1
 92
        1
 93
       12
 72
     1
 10
499.3273509999999
 20
554.829476
 11
499.3279969999999
 21
554.832933
 72
     1
 10
499.3279969999999
 20
554.832933
 11
501.015997
 21
587.0419329999999
 72
     1
 10
501.015997
 20
587.0419329999999
 11
483.4109969999999
 21
587.0419329999999
 72
     1
 10
483.4109969999999
 20
587.0419329999999
 11
485.0989969999999
 21
554.832933
 72
     1
 10
485.0989969999999
 20
554.832933
 11
485.0996429999999
 21
554.829476
 72
     1
 10
485.0996429999999
 20
554.829476
 11
485.29269
 21
553.796917
 72
     2
 10
489.0939969999999
 20
555.0419329999999
 40
4.0
 50
198.134816
 51
254.820616
 73
     1
 72
     1
 10
488.046629
 20
551.18149
 11
489.0939969999999
 21
551.0419329999999
 72
     1
 10
489.0939969999999
 20
551.0419329999999
 11
495.3329969999999
 21
551.0419329999999
 72
     1
 10
495.3329969999999
 20
551.0419329999999
 11
496.380365
 21
551.18149
 72
     2
 10
495.3329969999999
 20
555.0419329999999
 40
4.0
 50
285.179384
 51
341.865184
 73
     1
 72
     1
 10
499.134304
 20
553.796917
 11
499.3273509999999
 21
554.829476
 97
        0
 75
     0
 76
     0
 52
135.0
 41
6.48
 77
     0
 78
     1
 53
135.0
 43
0.0
 44
0.0
 45
-4.582051942088829
 46
-4.582051942088828
 79
     0
 98
        1
 10
116.741997
 20
-84.87306700000001
1001
GENIUS_GENODEF_13
1002
{
1000
HIER
1070
     0
1002
}
1002
{
1000
MANEDIT
1070
     0
1002
}
1002
{
1000
NOSEL
1070
     0
1002
}
1002
{
1000
BEHIND
1070
     0
1002
}
1002
{
1000
REACTOR
1002
}
1001
GENIUS_GENOBJ-N-HTC_13
1002
{
1000
OWNER
1000
GEN
1002
}
1001
GENIUS_GENHATCH_13
1002
{
1000
DATA
1040
135.0
1042
2.7
1000
_U
1070
     0
1011
490.9341249999999
1021
571.002999
1031
0.0
1002
}
1002
{
1000
UCS
1010
0.0
1020
0.0
1030
0.0
1010
1.0
1020
0.0
1030
0.0
1010
0.0
1020
1.0
1030
0.0
1002
}
  0
HATCH
  5
1805
330
1708
100
AcDbEntity
  8
8
100
AcDbHatch
 10
0.0
 20
0.0
 30
0.0
210
0.0
220
0.0
230
1.0
  2
_U
 70
     0
 71
     0
 91
        1
 92
        1
 93
       14
 72
     1
 10
452.875997
 20
587.0419329999999
 11
455.618997
 21
555.692933
 72
     1
 10
455.618997
 20
555.692933
 11
456.0832759999999
 21
554.141521
 72
     2
 10
459.602997
 20
556.041933
 40
4.0
 50
208.366057
 51
219.8491740000001
 73
     1
 72
     1
 10
456.532061
 20
553.478857
 11
457.318545
 21
552.7584469999999
 72
     2
 10
459.602997
 20
556.041933
 40
4.0
 50
235.172133
 51
246.642748
 73
     1
 72
     1
 10
458.017145
 20
552.36973
 11
459.602997
 21
552.041933
 72
     1
 10
459.602997
 20
552.041933
 11
463.8239969999999
 21
552.041933
 72
     1
 10
463.8239969999999
 20
552.041933
 11
465.4098489999999
 21
552.36973
 72
     2
 10
463.8239969999999
 20
556.041933
 40
4.0
 50
293.3572520000001
 51
304.827867
 73
     1
 72
     1
 10
466.108448
 20
552.7584469999999
 11
466.894932
 21
553.478857
 72
     2
 10
463.8239969999999
 20
556.041933
 40
4.0
 50
320.150826
 51
331.6339430000001
 73
     1
 72
     1
 10
467.3437179999999
 20
554.141521
 11
467.8079969999999
 21
555.692933
 72
     1
 10
467.8079969999999
 20
555.692933
 11
470.550997
 21
587.0419329999999
 72
     1
 10
470.550997
 20
587.0419329999999
 11
452.875997
 21
587.0419329999999
 97
        0
 75
     0
 76
     0
 52
135.0
 41
5.4
 77
     0
 78
     1
 53
135.0
 43
0.0
 44
0.0
 45
-3.818376618407356
 46
-3.818376618407356
 79
     0
 98
        1
 10
116.741997
 20
-84.87306700000001
1001
GENIUS_GENODEF_13
1002
{
1000
HIER
1070
     0
1002
}
1002
{
1000
MANEDIT
1070
     0
1002
}
1002
{
1000
NOSEL
1070
     0
1002
}
1002
{
1000
BEHIND
1070
     0
1002
}
1002
{
1000
REACTOR
1002
}
1001
GENIUS_GENOBJ-N-HTC_13
1002
{
1000
OWNER
1000
GEN
1002
}
1001
GENIUS_GENHATCH_13
1002
{
1000
DATA
1040
135.0
1042
2.7
1000
_U
1070
     0
1011
460.9725669999999
1021
573.142101
1031
0.0
1002
}
1002
{
1000
UCS
1010
0.0
1020
0.0
1030
0.0
1010
1.0
1020
0.0
1030
0.0
1010
0.0
1020
1.0
1030
0.0
1002
}
  0
HATCH
  5
1818
330
1708
100
AcDbEntity
  8
8
100
AcDbHatch
 10
0.0
 20
0.0
 30
0.0
210
0.0
220
0.0
230
1.0
  2
_U
 70
     0
 71
     0
 91
        1
 92
        1
 93
       14
 72
     2
 10
429.1029969999999
 20
556.041933
 40
4.0
 50
208.366057
 51
219.8491740000001
 73
     1
 72
     1
 10
426.032061
 20
553.478857
 11
426.818545
 21
552.7584469999999
 72
     2
 10
429.1029969999999
 20
556.041933
 40
4.0
 50
235.172133
 51
246.642748
 73
     1
 72
     1
 10
427.517145
 20
552.36973
 11
429.1029969999999
 21
552.041933
 72
     1
 10
429.1029969999999
 20
552.041933
 11
433.323997
 21
552.041933
 72
     1
 10
433.323997
 20
552.041933
 11
434.909849
 21
552.36973
 72
     2
 10
433.323997
 20
556.041933
 40
4.0
 50
293.3572520000001
 51
304.827867
 73
     1
 72
     1
 10
435.608448
 20
552.7584469999999
 11
436.394932
 21
553.478857
 72
     2
 10
433.323997
 20
556.041933
 40
4.0
 50
320.150826
 51
331.6339430000001
 73
     1
 72
     1
 10
436.8437179999999
 20
554.141521
 11
437.307997
 21
555.692933
 72
     1
 10
437.307997
 20
555.692933
 11
440.0509969999999
 21
587.0419329999999
 72
     1
 10
440.0509969999999
 20
587.0419329999999
 11
422.3759969999999
 21
587.0419329999999
 72
     1
 10
422.3759969999999
 20
587.0419329999999
 11
425.1189969999999
 21
555.692933
 72
     1
 10
425.1189969999999
 20
555.692933
 11
425.5832759999999
 21
554.141521
 97
        0
 75
     0
 76
     0
 52
135.0
 41
6.48
 77
     0
 78
     1
 53
135.0
 43
0.0
 44
0.0
 45
-4.582051942088829
 46
-4.582051942088828
 79
     0
 98
        1
 10
116.741997
 20
-84.87306700000001
1001
GENIUS_GENODEF_13
1002
{
1000
HIER
1070
     0
1002
}
1002
{
1000
MANEDIT
1070
     0
1002
}
1002
{
1000
NOSEL
1070
     0
1002
}
1002
{
1000
BEHIND
1070
     0
1002
}
1002
{
1000
REACTOR
1002
}
1001
GENIUS_GENOBJ-N-HTC_13
1002
{
1000
OWNER
1000
GEN
1002
}
1001
GENIUS_GENHATCH_13
1002
{
1000
DATA
1040
135.0
1042
2.7
1000
_U
1070
     0
1011
430.297637
1021
573.142101
1031
0.0
1002
}
1002
{
1000
UCS
1010
0.0
1020
0.0
1030
0.0
1010
1.0
1020
0.0
1030
0.0
1010
0.0
1020
1.0
1030
0.0
1002
}
  0
HATCH
  5
182B
330
1708
100
AcDbEntity
  8
8
100
AcDbHatch
 10
0.0
 20
0.0
 30
0.0
210
0.0
220
0.0
230
1.0
  2
_U
 70
     0
 71
     0
 91
        1
 92
        1
 93
       14
 72
     1
 10
391.875997
 20
587.0419329999999
 11
394.618997
 21
555.692933
 72
     1
 10
394.618997
 20
555.692933
 11
395.0832759999999
 21
554.141521
 72
     2
 10
398.602997
 20
556.041933
 40
4.0
 50
208.366057
 51
219.8491740000001
 73
     1
 72
     1
 10
395.532061
 20
553.478857
 11
396.318545
 21
552.7584469999999
 72
     2
 10
398.602997
 20
556.041933
 40
4.0
 50
235.172133
 51
246.642748
 73
     1
 72
     1
 10
397.017145
 20
552.36973
 11
398.602997
 21
552.041933
 72
     1
 10
398.602997
 20
552.041933
 11
402.823997
 21
552.041933
 72
     1
 10
402.823997
 20
552.041933
 11
404.409849
 21
552.36973
 72
     2
 10
402.823997
 20
556.041933
 40
4.0
 50
293.3572520000001
 51
304.827867
 73
     1
 72
     1
 10
405.108448
 20
552.7584469999999
 11
405.8949319999999
 21
553.478857
 72
     2
 10
402.823997
 20
556.041933
 40
4.0
 50
320.150826
 51
331.6339430000001
 73
     1
 72
     1
 10
406.343718
 20
554.141521
 11
406.807997
 21
555.692933
 72
     1
 10
406.807997
 20
555.692933
 11
409.550997
 21
587.0419329999999
 72
     1
 10
409.550997
 20
587.0419329999999
 11
391.875997
 21
587.0419329999999
 97
        0
 75
     0
 76
     0
 52
135.0
 41
5.4
 77
     0
 78
     1
 53
135.0
 43
0.0
 44
0.0
 45
-3.818376618407356
 46
-3.818376618407356
 79
     0
 98
        1
 10
116.741997
 20
-84.87306700000001
1001
GENIUS_GENODEF_13
1002
{
1000
HIER
1070
     0
1002
}
1002
{
1000
MANEDIT
1070
     0
1002
}
1002
{
1000
NOSEL
1070
     0
1002
}
1002
{
1000
BEHIND
1070
     0
1002
}
1002
{
1000
REACTOR
1002
}
1001
GENIUS_GENOBJ-N-HTC_13
1002
{
1000
OWNER
1000
GEN
1002
}
1001
GENIUS_GENHATCH_13
1002
{
1000
DATA
1040
135.0
1042
2.7
1000
_U
1070
     0
1011
400.336079
1021
571.002999
1031
0.0
1002
}
1002
{
1000
UCS
1010
0.0
1020
0.0
1030
0.0
1010
1.0
1020
0.0
1030
0.0
1010
0.0
1020
1.0
1030
0.0
1002
}
  0
HATCH
  5
183E
330
1708
100
AcDbEntity
  8
8
100
AcDbHatch
 10
0.0
 20
0.0
 30
0.0
210
0.0
220
0.0
230
1.0
  2
_U
 70
     0
 71
     0
 91
        1
 92
        1
 93
       14
 72
     1
 10
379.050997
 20
587.0419329999999
 11
361.375997
 21
587.0419329999999
 72
     1
 10
361.375997
 20
587.0419329999999
 11
364.118997
 21
555.692933
 72
     1
 10
364.118997
 20
555.692933
 11
364.583276
 21
554.141521
 72
     2
 10
368.102997
 20
556.041933
 40
4.0
 50
208.366057
 51
219.8491740000001
 73
     1
 72
     1
 10
365.032061
 20
553.478857
 11
365.818545
 21
552.7584469999999
 72
     2
 10
368.102997
 20
556.041933
 40
4.0
 50
235.172133
 51
246.642748
 73
     1
 72
     1
 10
366.517145
 20
552.36973
 11
368.102997
 21
552.041933
 72
     1
 10
368.102997
 20
552.041933
 11
372.323997
 21
552.041933
 72
     1
 10
372.323997
 20
552.041933
 11
373.909849
 21
552.36973
 72
     2
 10
372.323997
 20
556.041933
 40
4.0
 50
293.3572520000001
 51
304.827867
 73
     1
 72
     1
 10
374.608448
 20
552.7584469999999
 11
375.394932
 21
553.478857
 72
     2
 10
372.323997
 20
556.041933
 40
4.0
 50
320.150826
 51
331.6339430000001
 73
     1
 72
     1
 10
375.843718
 20
554.141521
 11
376.307997
 21
555.692933
 72
     1
 10
376.307997
 20
555.692933
 11
379.050997
 21
587.0419329999999
 97
        0
 75
     0
 76
     0
 52
135.0
 41
5.4
 77
     0
 78
     1
 53
135.0
 43
0.0
 44
0.0
 45
-3.818376618407356
 46
-3.818376618407356
 79
     0
 98
        1
 10
116.741997
 20
-84.87306700000001
1001
GENIUS_GENODEF_13
1002
{
1000
HIER
1070
     0
1002
}
1002
{
1000
MANEDIT
1070
     0
1002
}
1002
{
1000
NOSEL
1070
     0
1002
}
1002
{
1000
BEHIND
1070
     0
1002
}
1002
{
1000
REACTOR
1002
}
1001
GENIUS_GENOBJ-N-HTC_13
1002
{
1000
OWNER
1000
GEN
1002
}
1001
GENIUS_GENHATCH_13
1002
{
1000
DATA
1040
135.0
1042
2.7
1000
_U
1070
     0
1011
369.66115
1021
575.281202
1031
0.0
1002
}
1002
{
1000
UCS
1010
0.0
1020
0.0
1030
0.0
1010
1.0
1020
0.0
1030
0.0
1010
0.0
1020
1.0
1030
0.0
1002
}
  0
HATCH
  5
184F
330
1708
100
AcDbEntity
  8
8
100
AcDbHatch
 10
0.0
 20
0.0
 30
0.0
210
0.0
220
0.0
230
1.0
  2
_U
 70
     0
 71
     0
 91
        1
 92
        1
 93
       12
 72
     1
 10
346.8273509999999
 20
554.829476
 11
346.8279970000001
 21
554.832933
 72
     1
 10
346.8279970000001
 20
554.832933
 11
348.515997
 21
587.0419329999999
 72
     1
 10
348.515997
 20
587.0419329999999
 11
330.910997
 21
587.0419329999999
 72
     1
 10
330.910997
 20
587.0419329999999
 11
332.598997
 21
554.832933
 72
     1
 10
332.598997
 20
554.832933
 11
332.599643
 21
554.829476
 72
     1
 10
332.599643
 20
554.829476
 11
332.79269
 21
553.796917
 72
     2
 10
336.593997
 20
555.0419329999999
 40
4.0
 50
198.134816
 51
254.820616
 73
     1
 72
     1
 10
335.546629
 20
551.18149
 11
336.593997
 21
551.0419329999999
 72
     1
 10
336.593997
 20
551.0419329999999
 11
342.832997
 21
551.0419329999999
 72
     1
 10
342.832997
 20
551.0419329999999
 11
343.880365
 21
551.18149
 72
     2
 10
342.832997
 20
555.0419329999999
 40
4.0
 50
285.179384
 51
341.865184
 73
     1
 72
     1
 10
346.634304
 20
553.796917
 11
346.8273509999999
 21
554.829476
 97
        0
 75
     0
 76
     0
 52
135.0
 41
6.48
 77
     0
 78
     1
 53
135.0
 43
0.0
 44
0.0
 45
-4.582051942088829
 46
-4.582051942088828
 79
     0
 98
        1
 10
116.741997
 20
-84.87306700000001
1001
GENIUS_GENODEF_13
1002
{
1000
HIER
1070
     0
1002
}
1002
{
1000
MANEDIT
1070
     0
1002
}
1002
{
1000
NOSEL
1070
     0
1002
}
1002
{
1000
BEHIND
1070
     0
1002
}
1002
{
1000
REACTOR
1002
}
1001
GENIUS_GENOBJ-N-HTC_13
1002
{
1000
OWNER
1000
GEN
1002
}
1001
GENIUS_GENHATCH_13
1002
{
1000
DATA
1040
135.0
1042
2.7
1000
_U
1070
     0
1011
338.27285
1021
573.8551339999999
1031
0.0
1002
}
1002
{
1000
UCS
1010
0.0
1020
0.0
1030
0.0
1010
1.0
1020
0.0
1030
0.0
1010
0.0
1020
1.0
1030
0.0
1002
}
  0
INSERT
  5
1907
330
1708
100
AcDbEntity
  8
0
100
AcDbBlockReference
  2
KATALOG_LEER
 10
251.839706
 20
11.304483
 30
0.0
 41
5.0
 42
5.0
 43
5.0
1001
GENIUS_GENOREF_13
1005
1908
  0
POINT
  5
1908
330
1708
100
AcDbEntity
  8
0
 60
     1
100
AcDbPoint
 10
0.0
 20
0.0
 30
0.0
1001
GENIUS_GENOBJ-N-TIT_13
1002
{
1000
OWNER
1000
GEN
1002
}
1001
GENIUS_GENOENT_13
1002
{
1000
MYREF
1005
1908
1002
}
1002
{
1000
GRP
1005
0
1002
}
1001
GENIUS_GENOLIS_13
1002
{
1000
ENT
1005
1907
1002
}
1001
GENIUS_GENTITLE_13
1002
{
1000
SCALE
1000
1:5
1002
}
1002
{
1000
BORDER
1000
KATALOG
1002
}
1002
{
1000
TITLE
1000
KATALOG_LEER
1002
}
1002
{
1000
UNCHG
1002
{
1000
GEN-TITLE-SCA
1000
GEN-TITLE-SIZ
1002
}
1002
}
1002
{
1000
HRA
1005
1900
1002
}
1002
{
1000
HTIT
1005
1907
1002
}
1002
{
1000
GENIUSID
1005
1908
1002
}
1001
GENIUS_GENODEF_13
1002
{
1000
HIER
1070
     1
1002
}
1002
{
1000
MANEDIT
1070
     1
1002
}
1002
{
1000
NOSEL
1070
     0
1002
}
1002
{
1000
BEHIND
1070
     0
1002
}
1002
{
1000
REACTOR
1002
}
  0
ENDSEC
  0
SECTION
  2
OBJECTS
  0
DICTIONARY
  5
16FC
330
0
100
AcDbDictionary
281
     1
  3
ACAD_COLOR
350
1AB6
  3
ACAD_GROUP
350
16FD
  3
ACAD_LAYOUT
350
1AB9
  3
ACAD_MATERIAL
350
1AB5
  3
ACAD_MLINESTYLE
350
170B
  3
ACAD_PLOTSETTINGS
350
1ABA
  3
ACAD_PLOTSTYLENAME
350
1AB3
  3
ACAD_TABLESTYLE
350
1AB7
  3
ACDBHEADERROUNDTRIPXREC
350
1B92
  3
AcDbVariableDictionary
350
1B8D
  3
AcmDictionary
350
1B18
  3
AMG
350
1ABE
  3
AMGSNAPSETTINGS
350
1B85
  0
DICTIONARY
  5
1AB6
102
{ACAD_REACTORS
330
16FC
102
}
330
16FC
100
AcDbDictionary
281
     1
  0
DICTIONARY
  5
16FD
102
{ACAD_REACTORS
330
16FC
102
}
330
16FC
100
AcDbDictionary
281
     1
  0
DICTIONARY
  5
1AB9
102
{ACAD_REACTORS
330
16FC
102
}
330
16FC
100
AcDbDictionary
281
     1
  3
Layout1
350
1ABC
  3
Model
350
1ABB
  0
DICTIONARY
  5
1AB5
102
{ACAD_REACTORS
330
16FC
102
}
330
16FC
100
AcDbDictionary
281
     1
  0
DICTIONARY
  5
170B
102
{ACAD_REACTORS
330
16FC
102
}
330
16FC
100
AcDbDictionary
281
     1
  3
STANDARD
350
170C
  0
DICTIONARY
  5
1ABA
102
{ACAD_REACTORS
330
16FC
102
}
330
16FC
100
AcDbDictionary
281
     1
  0
ACDBDICTIONARYWDFLT
  5
1AB3
102
{ACAD_REACTORS
330
16FC
102
}
330
16FC
100
AcDbDictionary
281
     1
  3
Normal
350
1AB4
100
AcDbDictionaryWithDefault
340
1AB4
  0
DICTIONARY
  5
1AB7
102
{ACAD_REACTORS
330
16FC
102
}
330
16FC
100
AcDbDictionary
281
     1
  3
Standard
350
1AB8
  0
DICTIONARY
  5
1B92
102
{ACAD_REACTORS
330
16FC
102
}
330
16FC
100
AcDbDictionary
281
     1
  0
DICTIONARY
  5
1B8D
102
{ACAD_REACTORS
330
16FC
102
}
330
16FC
100
AcDbDictionary
281
     1
  3
CTABLESTYLE
350
1B8E
  3
DIMASSOC
350
1B8F
  3
PROJECTNAME
350
1B90
  0
DICTIONARY
  5
1B18
102
{ACAD_REACTORS
330
16FC
102
}
330
16FC
100
AcDbDictionary
281
     1
  3
AcmStdDictionary
350
1B23
  3
AMDTSECTSYM_ARROWCOLOR
350
1B46
  0
DICTIONARY
  5
1ABE
102
{ACAD_REACTORS
330
16FC
102
}
330
16FC
100
AcDbDictionary
281
     1
  0
DICTIONARY
  5
1B85
102
{ACAD_REACTORS
330
16FC
102
}
330
16FC
100
AcDbDictionary
281
     1
  0
LAYOUT
  5
1ABC
102
{ACAD_XDICTIONARY
360
1B95
102
}
102
{ACAD_REACTORS
330
1AB9
102
}
330
1AB9
100
AcDbPlotSettings
  1

  2
Xerox Document Centre CS50 PS
  4

  6

 40
0.0
 41
0.0
 42
0.0
 43
0.0
 44
0.0
 45
0.0
 46
0.0
 47
0.0
 48
0.0
 49
0.0
140
0.0
141
0.0
142
1.0
143
1.0
 70
   688
 72
     0
 73
     0
 74
     5
  7

 75
    16
147
1.0
148
0.0
149
0.0
100
AcDbLayout
  1
Layout1
 70
     1
 71
     1
 10
0.0
 20
0.0
 11
209.9
 21
296.9
 12
0.0
 22
0.0
 32
0.0
 14
0.0
 24
0.0
 34
0.0
 15
209.9
 25
296.9
 35
0.0
146
0.0
 13
0.0
 23
0.0
 33
0.0
 16
1.0
 26
0.0
 36
0.0
 17
0.0
 27
1.0
 37
0.0
 76
     0
330
1705
  0
LAYOUT
  5
1ABB
102
{ACAD_XDICTIONARY
360
1B93
102
}
102
{ACAD_REACTORS
330
1AB9
102
}
330
1AB9
100
AcDbPlotSettings
  1

  2
Xerox Document Centre CS50 PS
  4

  6

 40
0.0
 41
0.0
 42
0.0
 43
0.0
 44
0.0
 45
0.0
 46
0.0
 47
0.0
 48
0.0
 49
0.0
140
0.0
141
0.0
142
1.0
143
1.0
 70
  1712
 72
     0
 73
     0
 74
     0
  7

 75
     0
147
1.0
148
0.0
149
0.0
100
AcDbLayout
  1
Model
 70
     1
 71
     0
 10
0.0
 20
0.0
 11
12.0
 21
9.0
 12
0.0
 22
0.0
 32
0.0
 14
0.0
 24
0.0
 34
0.0
 15
0.0
 25
0.0
 35
0.0
146
0.0
 13
0.0
 23
0.0
 33
0.0
 16
1.0
 26
0.0
 36
0.0
 17
0.0
 27
1.0
 37
0.0
 76
     0
330
1708
  0
MLINESTYLE
  5
170C
102
{ACAD_REACTORS
330
170B
102
}
330
170B
100
AcDbMlineStyle
  2
STANDARD
 70
     0
  3

 62
   256
 51
90.0
 52
90.0
 71
     2
 49
0.5
 62
   256
  6
BYLAYER
 49
-0.5
 62
   256
  6
BYLAYER
  0
ACDBPLACEHOLDER
  5
1AB4
102
{ACAD_REACTORS
330
1AB3
102
}
330
1AB3
  0
TABLESTYLE
  5
1AB8
102
{ACAD_REACTORS
330
1AB7
102
}
330
1AB7
100
AcDbTableStyle
  3
Standard
 70
     0
 71
     0
 40
1.5
 41
1.5
280
     0
281
     0
  7
STANDARD
140
4.5
170
     2
 62
     0
 63
     7
283
     0
274
    -2
284
     1
 64
     0
275
    -2
285
     1
 65
     0
276
    -2
286
     1
 66
     0
277
    -2
287
     1
 67
     0
278
    -2
288
     1
 68
     0
279
    -2
289
     1
 69
     0
  7
STANDARD
140
6.0
170
     5
 62
     0
 63
     7
283
     0
274
    -2
284
     1
 64
     0
275
    -2
285
     1
 65
     0
276
    -2
286
     1
 66
     0
277
    -2
287
     1
 67
     0
278
    -2
288
     1
 68
     0
279
    -2
289
     1
 69
     0
  7
STANDARD
140
4.5
170
     5
 62
     0
 63
     7
283
     0
274
    -2
284
     1
 64
     0
275
    -2
285
     1
 65
     0
276
    -2
286
     1
 66
     0
277
    -2
287
     1
 67
     0
278
    -2
288
     1
 68
     0
279
    -2
289
     1
 69
     0
  0
DICTIONARYVAR
  5
1B8E
102
{ACAD_REACTORS
330
1B8D
102
}
330
1B8D
100
DictionaryVariables
280
     0
  1
STANDARD
  0
DICTIONARYVAR
  5
1B8F
102
{ACAD_REACTORS
330
1B8D
102
}
330
1B8D
100
DictionaryVariables
280
     0
  1
1
  0
DICTIONARYVAR
  5
1B90
102
{ACAD_REACTORS
330
1B8D
102
}
330
1B8D
100
DictionaryVariables
280
     0
  1

  0
DICTIONARY
  5
1B23
102
{ACAD_REACTORS
330
1B18
102
}
330
1B18
100
AcDbDictionary
281
     1
  0
XRECORD
  5
1B46
102
{ACAD_REACTORS
330
1B18
102
}
330
1B18
100
AcDbXrecord
280
     1
 90
-1023410169
  0
DICTIONARY
  5
1B95
330
1ABC
100
AcDbDictionary
280
     1
281
     1
  3
ACAD_XREC_ROUNDTRIP
360
1B96
  0
DICTIONARY
  5
1B93
330
1ABB
100
AcDbDictionary
280
     1
281
     1
  3
ACAD_XREC_ROUNDTRIP
360
1B94
  0
XRECORD
  5
1B96
102
{ACAD_REACTORS
330
1B95
102
}
330
1B95
100
AcDbXrecord
280
     1
102
SHADEPLOT
 70
     0
102
SHADEPLOTRESLEVEL
 70
     2
102
SHADEPLOTCUSTOMDPI
 70
   300
  0
XRECORD
  5
1B94
102
{ACAD_REACTORS
330
1B93
102
}
330
1B93
100
AcDbXrecord
280
     1
102
SHADEPLOT
 70
     0
102
SHADEPLOTRESLEVEL
 70
     2
102
SHADEPLOTCUSTOMDPI
 70
   300
  0
ENDSEC
  0
EOF
