  0
SECTION
  2
HEADER
  9
$ACADVER
  1
AC1015
  9
$ACADMAINTVER
 70
    20
  9
$DWGCODEPAGE
  3
ANSI_1252
  9
$INSBASE
 10
0.0
 20
0.0
 30
0.0
  9
$EXTMIN
 10
162.6850972481968
 20
39.26958679667496
 30
-0.0000000000000129
  9
$EXTMAX
 10
485.2344168672154
 20
569.6002097451155
 30
0.0000000000000023
  9
$LIMMIN
 10
0.0
 20
0.0
  9
$LIMMAX
 10
12.0
 20
9.0
  9
$ORTHOMODE
 70
     0
  9
$REGENMODE
 70
     1
  9
$FILLMODE
 70
     1
  9
$QTEXTMODE
 70
     0
  9
$MIRRTEXT
 70
     0
  9
$LTSCALE
 40
10.0
  9
$ATTMODE
 70
     1
  9
$TEXTSIZE
 40
2.5
  9
$TRACEWID
 40
0.05
  9
$TEXTSTYLE
  7
isocp
  9
$CLAYER
  8
0
  9
$CELTYPE
  6
ByLayer
  9
$CECOLOR
 62
   256
  9
$CELTSCALE
 40
1.0
  9
$DISPSILH
 70
     0
  9
$DIMSCALE
 40
1.0
  9
$DIMASZ
 40
2.5
  9
$DIMEXO
 40
0.0
  9
$DIMDLI
 40
1.0
  9
$DIMRND
 40
0.0
  9
$DIMDLE
 40
0.0
  9
$DIMEXE
 40
1.0
  9
$DIMTP
 40
0.0
  9
$DIMTM
 40
0.0
  9
$DIMTXT
 40
2.5
  9
$DIMCEN
 40
0.0
  9
$DIMTSZ
 40
0.0
  9
$DIMTOL
 70
     0
  9
$DIMLIM
 70
     0
  9
$DIMTIH
 70
     0
  9
$DIMTOH
 70
     0
  9
$DIMSE1
 70
     0
  9
$DIMSE2
 70
     0
  9
$DIMTAD
 70
     1
  9
$DIMZIN
 70
     0
  9
$DIMBLK
  1

  9
$DIMASO
 70
     1
  9
$DIMSHO
 70
     1
  9
$DIMPOST
  1

  9
$DIMAPOST
  1

  9
$DIMALT
 70
     0
  9
$DIMALTD
 70
     2
  9
$DIMALTF
 40
25.4
  9
$DIMLFAC
 40
1.0
  9
$DIMTOFL
 70
     0
  9
$DIMTVP
 40
0.0
  9
$DIMTIX
 70
     0
  9
$DIMSOXD
 70
     0
  9
$DIMSAH
 70
     0
  9
$DIMBLK1
  1

  9
$DIMBLK2
  1

  9
$DIMSTYLE
  2
dim
  9
$DIMCLRD
 70
     0
  9
$DIMCLRE
 70
     0
  9
$DIMCLRT
 70
     2
  9
$DIMTFAC
 40
1.0
  9
$DIMGAP
 40
1.0
  9
$DIMJUST
 70
     0
  9
$DIMSD1
 70
     0
  9
$DIMSD2
 70
     0
  9
$DIMTOLJ
 70
     1
  9
$DIMTZIN
 70
     0
  9
$DIMALTZ
 70
     0
  9
$DIMALTTZ
 70
     0
  9
$DIMUPT
 70
     0
  9
$DIMDEC
 70
     0
  9
$DIMTDEC
 70
     0
  9
$DIMALTU
 70
     2
  9
$DIMALTTD
 70
     2
  9
$DIMTXSTY
  7
isocp
  9
$DIMAUNIT
 70
     0
  9
$DIMADEC
 70
     0
  9
$DIMALTRND
 40
0.0
  9
$DIMAZIN
 70
     0
  9
$DIMDSEP
 70
    46
  9
$DIMATFIT
 70
     3
  9
$DIMFRAC
 70
     0
  9
$DIMLDRBLK
  1

  9
$DIMLUNIT
 70
     2
  9
$DIMLWD
 70
    -2
  9
$DIMLWE
 70
    -2
  9
$DIMTMOVE
 70
     2
  9
$LUNITS
 70
     2
  9
$LUPREC
 70
     4
  9
$SKETCHINC
 40
0.1
  9
$FILLETRAD
 40
6.0
  9
$AUNITS
 70
     0
  9
$AUPREC
 70
     8
  9
$MENU
  1
.
  9
$ELEVATION
 40
0.0
  9
$PELEVATION
 40
0.0
  9
$THICKNESS
 40
0.0
  9
$LIMCHECK
 70
     0
  9
$CHAMFERA
 40
0.0
  9
$CHAMFERB
 40
0.0
  9
$CHAMFERC
 40
0.0
  9
$CHAMFERD
 40
0.0
  9
$SKPOLY
 70
     0
  9
$TDCREATE
 40
2454023.098591574
  9
$TDUCREATE
 40
2454023.056924908
  9
$TDUPDATE
 40
2454087.934090116
  9
$TDUUPDATE
 40
2454087.892423449
  9
$TDINDWG
 40
0.2714677546
  9
$TDUSRTIMER
 40
0.2714677546
  9
$USRTIMER
 70
     1
  9
$ANGBASE
 50
0.0
  9
$ANGDIR
 70
     0
  9
$PDMODE
 70
     0
  9
$PDSIZE
 40
0.0
  9
$PLINEWID
 40
0.0
  9
$SPLFRAME
 70
     0
  9
$SPLINETYPE
 70
     6
  9
$SPLINESEGS
 70
     8
  9
$HANDSEED
  5
5B50
  9
$SURFTAB1
 70
     6
  9
$SURFTAB2
 70
     6
  9
$SURFTYPE
 70
     6
  9
$SURFU
 70
     6
  9
$SURFV
 70
     6
  9
$UCSBASE
  2

  9
$UCSNAME
  2

  9
$UCSORG
 10
0.0
 20
0.0
 30
0.0
  9
$UCSXDIR
 10
1.0
 20
0.0
 30
0.0
  9
$UCSYDIR
 10
0.0
 20
1.0
 30
0.0
  9
$UCSORTHOREF
  2

  9
$UCSORTHOVIEW
 70
     0
  9
$UCSORGTOP
 10
0.0
 20
0.0
 30
0.0
  9
$UCSORGBOTTOM
 10
0.0
 20
0.0
 30
0.0
  9
$UCSORGLEFT
 10
0.0
 20
0.0
 30
0.0
  9
$UCSORGRIGHT
 10
0.0
 20
0.0
 30
0.0
  9
$UCSORGFRONT
 10
0.0
 20
0.0
 30
0.0
  9
$UCSORGBACK
 10
0.0
 20
0.0
 30
0.0
  9
$PUCSBASE
  2

  9
$PUCSNAME
  2

  9
$PUCSORG
 10
0.0
 20
0.0
 30
0.0
  9
$PUCSXDIR
 10
1.0
 20
0.0
 30
0.0
  9
$PUCSYDIR
 10
0.0
 20
1.0
 30
0.0
  9
$PUCSORTHOREF
  2

  9
$PUCSORTHOVIEW
 70
     0
  9
$PUCSORGTOP
 10
0.0
 20
0.0
 30
0.0
  9
$PUCSORGBOTTOM
 10
0.0
 20
0.0
 30
0.0
  9
$PUCSORGLEFT
 10
0.0
 20
0.0
 30
0.0
  9
$PUCSORGRIGHT
 10
0.0
 20
0.0
 30
0.0
  9
$PUCSORGFRONT
 10
0.0
 20
0.0
 30
0.0
  9
$PUCSORGBACK
 10
0.0
 20
0.0
 30
0.0
  9
$USERI1
 70
     0
  9
$USERI2
 70
     0
  9
$USERI3
 70
     0
  9
$USERI4
 70
     0
  9
$USERI5
 70
     0
  9
$USERR1
 40
0.0
  9
$USERR2
 40
0.0
  9
$USERR3
 40
0.0
  9
$USERR4
 40
0.0
  9
$USERR5
 40
0.0
  9
$WORLDVIEW
 70
     1
  9
$SHADEDGE
 70
     3
  9
$SHADEDIF
 70
    70
  9
$TILEMODE
 70
     1
  9
$MAXACTVP
 70
    64
  9
$PINSBASE
 10
0.0
 20
0.0
 30
0.0
  9
$PLIMCHECK
 70
     0
  9
$PEXTMIN
 10
0.0
 20
0.0
 30
0.0
  9
$PEXTMAX
 10
0.0
 20
0.0
 30
0.0
  9
$PLIMMIN
 10
0.0
 20
0.0
  9
$PLIMMAX
 10
12.0
 20
9.0
  9
$UNITMODE
 70
     0
  9
$VISRETAIN
 70
     1
  9
$PLINEGEN
 70
     0
  9
$PSLTSCALE
 70
     1
  9
$TREEDEPTH
 70
  3020
  9
$CMLSTYLE
  2
Standard
  9
$CMLJUST
 70
     0
  9
$CMLSCALE
 40
1.0
  9
$PROXYGRAPHICS
 70
     1
  9
$MEASUREMENT
 70
     0
  9
$CELWEIGHT
370
    -1
  9
$ENDCAPS
280
     0
  9
$JOINSTYLE
280
     0
  9
$LWDISPLAY
290
     0
  9
$INSUNITS
 70
     4
  9
$HYPERLINKBASE
  1

  9
$STYLESHEET
  1
monochrome.ctb
  9
$XEDIT
290
     1
  9
$CEPSNTYPE
380
     0
  9
$PSTYLEMODE
290
     1
  9
$FINGERPRINTGUID
  2
{FDEAD576-A652-11D2-9A35-0060089B3A3F}
  9
$VERSIONGUID
  2
{C39AC8C8-4FBA-49C0-AEC8-99554C1BA911}
  9
$EXTNAMES
290
     1
  9
$PSVPSCALE
 40
0.0
  9
$OLESTARTUP
290
     0
  0
ENDSEC
  0
SECTION
  2
CLASSES
  0
CLASS
  1
ACDBDICTIONARYWDFLT
  2
AcDbDictionaryWithDefault
  3
ObjectDBX Classes
 90
        0
280
     0
281
     0
  0
CLASS
  1
ACDBPLACEHOLDER
  2
AcDbPlaceHolder
  3
ObjectDBX Classes
 90
        0
280
     0
281
     0
  0
CLASS
  1
LAYOUT
  2
AcDbLayout
  3
ObjectDBX Classes
 90
        0
280
     0
281
     0
  0
CLASS
  1
DICTIONARYVAR
  2
AcDbDictionaryVar
  3
ObjectDBX Classes
 90
        0
280
     0
281
     0
  0
CLASS
  1
RASTERVARIABLES
  2
AcDbRasterVariables
  3
ISM
 90
        0
280
     0
281
     0
  0
CLASS
  1
IMAGEDEF
  2
AcDbRasterImageDef
  3
ISM
 90
    32768
280
     0
281
     0
  0
CLASS
  1
IMAGEDEF_REACTOR
  2
AcDbRasterImageDefReactor
  3
ISM
 90
    32769
280
     0
281
     0
  0
CLASS
  1
IMAGE
  2
AcDbRasterImage
  3
ISM
 90
    32895
280
     0
281
     1
  0
CLASS
  1
DIMASSOC
  2
AcDbDimAssoc
  3
"AcDbDimAssoc|Product Desc:     AcDim ARX App For Dimension|Company:          Autodesk, Inc.|WEB Address:      www.autodesk.com"
 90
    32768
280
     0
281
     0
  0
CLASS
  1
TABLESTYLE
  2
AcDbTableStyle
  3
ObjectDBX Classes
 90
     2047
280
     0
281
     0
  0
CLASS
  1
ACME_DOCUMENT
  2
AcMeDbDoc
  3
AcMeServices
 90
        0
280
     0
281
     0
  0
CLASS
  1
AMGSETTINGSOBJ
  2
AmgSettingsObj
  3
"AcadM|Product Description: AutoCAD Mechanical 2000|Company: Autodesk"
 90
        0
280
     0
281
     0
  0
CLASS
  1
ACMESCOPE
  2
AcMeScope
  3
AcMeServices
 90
        0
280
     0
281
     0
  0
CLASS
  1
ACMECOMMANDHISTORY
  2
AcMeCommandHistory
  3
AcMeServices
 90
        0
280
     0
281
     0
  0
CLASS
  1
ACIMSYSVARMAN
  2
AcImSysVarManager
  3
AcMeServices
 90
        0
280
     0
281
     0
  0
CLASS
  1
ACIMINTSYSVAR
  2
AcImIntSysVar
  3
AcMeServices
 90
        0
280
     0
281
     0
  0
CLASS
  1
ACMEDRAWINGMAN
  2
AcMeDrawingMan
  3
AcMeServices
 90
        0
280
     0
281
     0
  0
CLASS
  1
ACMEVIEW
  2
AcMeView
  3
AcMeServices
 90
        0
280
     0
281
     0
  0
CLASS
  1
ACDBENTITYCACHE
  2
AcMeEntityCache
  3
AcMeServices
 90
        0
280
     0
281
     0
  0
CLASS
  1
GSMANAGER
  2
AcMeGSManager
  3
AcMeServices
 90
        0
280
     0
281
     0
  0
CLASS
  1
AMDTINTERNALREACTOR
  2
AmdtInternalReactor
  3
AcMeServices
 90
        0
280
     0
281
     0
  0
CLASS
  1
ACMESTATEMGR
  2
AcMeStateMgr
  3
AcMeServices
 90
        0
280
     0
281
     0
  0
CLASS
  1
ACGREFMASTER
  2
AcGrefMaster
  3
AcAttribServices
 90
        0
280
     0
281
     0
  0
CLASS
  1
AM_DRAWING_MGR
  2
AcDmDwgMgr
  3
AcMechDwgViewMgmt
 90
        0
280
     0
281
     0
  0
CLASS
  1
AM_DWG_DOCUMENT
  2
AcDmDwgDocument
  3
AcMechDwgViewMgmt
 90
        0
280
     0
281
     0
  0
CLASS
  1
AM_DWG_SHEET
  2
AcDmSheet
  3
AcMechDwgViewMgmt
 90
        0
280
     0
281
     0
  0
CLASS
  1
AM_VIEWDIMPARMAP
  2
AcDmViewDimParMap
  3
AcMechDwgViewMgmt
 90
        0
280
     0
281
     0
  0
CLASS
  1
ACIMREALSYSVAR
  2
AcImRealSysVar
  3
AcMeServices
 90
        0
280
     0
281
     0
  0
CLASS
  1
AM_DWGMGR_NAME
  2
AcDmDwgMgrName
  3
AcMechDwgViewMgmt
 90
        0
280
     0
281
     0
  0
CLASS
  1
ACME_DATABASE
  2
AcMeDbDatabase
  3
AcMeServices
 90
        0
280
     0
281
     0
  0
CLASS
  1
ACRFINSADJUSTERMGR
  2
AcRfInsAdjusterMgr
  3
AcMeServices
 90
        0
280
     0
281
     0
  0
CLASS
  1
ACGREFACADMASTER
  2
AcGrefacadMaster
  3
AcGrefServices
 90
        0
280
     0
281
     0
  0
CLASS
  1
AMDTMENUSTATEMGR
  2
AmdtMenuStateMgr
  3
McadcomServices
 90
        0
280
     0
281
     0
  0
CLASS
  1
AMDTMCOMMENUSTATE
  2
AmdtMcomMenuState
  3
McadcomServices
 90
        0
280
     0
281
     0
  0
CLASS
  1
AMIMASTER
  2
AmiMaster
  3
AmiServices
 90
        0
280
     0
281
     0
  0
CLASS
  1
MAPIAMMOUDLE
  2
MApiAmModule
  3
MApiAmServices
 90
        0
280
     0
281
     0
  0
CLASS
  1
ACIMSTRSYSVAR
  2
AcImStrSysVar
  3
AcMeServices
 90
        0
280
     0
281
     0
  0
CLASS
  1
AMDTADMENUSTATE
  2
AmdtAdMenuState
  3
DesignerServices
 90
        0
280
     0
281
     0
  0
CLASS
  1
ADAPPL
  2
AcAdAppl
  3
DesignerServices
 90
        0
280
     0
281
     0
  0
CLASS
  1
DEPMGR
  2
AcAdDepMgr
  3
DesignerServices
 90
        0
280
     0
281
     0
  0
CLASS
  1
PARAMMGR
  2
AcAdParamMgr
  3
DesignerServices
 90
        0
280
     0
281
     0
  0
CLASS
  1
PARAMSCOPE
  2
AcAdParamScope
  3
DesignerServices
 90
        0
280
     0
281
     0
  0
CLASS
  1
NAMEDAPPL
  2
AcAdNamedAppl
  3
DesignerServices
 90
        0
280
     0
281
     0
  0
CLASS
  1
AMDTDMMENUSTATE
  2
AmdtDmMenuState
  3
AcMechDwgViewMgmt
 90
        0
280
     0
281
     0
  0
CLASS
  1
AMDTAMMENUSTATE
  2
AmdtAmMenuState
  3
DesignerAssemblies
 90
        0
280
     0
281
     0
  0
CLASS
  1
ACAMPROJECT
  2
AcAmProject
  3
DesignerAssemblies
 90
        0
280
     0
281
     0
  0
CLASS
  1
ACAMGRCOMPDEF
  2
AcAmGrCompDef
  3
DesignerAssemblies
 90
        0
280
     0
281
     0
  0
CLASS
  1
ACCMCONTEXT
  2
AcCmContext
  3
DesignerAssemblies
 90
        0
280
     0
281
     0
  0
CLASS
  1
ACAMCOMPDEF
  2
AcAmCompDef
  3
DesignerAssemblies
 90
        0
280
     0
281
     0
  0
CLASS
  1
ACAMCOMPDEFMGR
  2
AcAmCompDefMgr
  3
DesignerAssemblies
 90
        0
280
     0
281
     0
  0
CLASS
  1
AMCONTEXTMGR
  2
AcAmContextMgr
  3
DesignerAssemblies
 90
        0
280
     0
281
     0
  0
CLASS
  1
ACAMCONTEXTMODELER
  2
AcAmContextModeler
  3
DesignerAssemblies
 90
        0
280
     0
281
     0
  0
CLASS
  1
ACMDATADICTIONARY
  2
AcmDataDictionary
  3
"AcmSymBB|Product Description: AutoCAD Mechanical 2004 DX|Company: Autodesk"
 90
        0
280
     0
281
     0
  0
CLASS
  1
CATALOGSTATE
  2
AcAmCatalogState
  3
DesignerAssemblies
 90
        0
280
     0
281
     0
  0
CLASS
  1
ACAMGRCOMPDEFSET
  2
AcAmGrCompDefSet
  3
DesignerAssemblies
 90
        0
280
     0
281
     0
  0
CLASS
  1
AMDTBROWSERDBTAB
  2
AmdtBrowserDbTab
  3
McadcomServices
 90
        0
280
     0
281
     0
  0
CLASS
  1
CBROWSERAPPOBJECT
  2
CBrowserAppObject
  3
McadcomServices
 90
        0
280
     0
281
     0
  0
CLASS
  1
DM_PLACEHOLDER
  2
AcDmSelsetPlaceholder
  3
AcMechDwgViewMgmt
 90
        0
280
     0
281
     0
  0
CLASS
  1
ACMSTANDARDANSI
  2
AcmStandardANSI
  3
"Amdt_StdImp|Product Description: AutoCAD Mechanical 2004 DX|Company: Autodesk"
 90
        0
280
     0
281
     0
  0
CLASS
  1
AMGOBJPROPCFG
  2
AmgObjPropCfg
  3
"AmgLay|Product Description: AutoCAD Mechanical 2000|Company: Autodesk"
 90
        1
280
     0
281
     0
  0
CLASS
  1
ACMSURFSTANDARDANSI
  2
AcmSurfTextStdANSI
  3
"Amdt_StdImp|Product Description: AutoCAD Mechanical 2004 DX|Company: Autodesk"
 90
        0
280
     0
281
     0
  0
CLASS
  1
ACMFCFSTANDARDANSI
  2
AcmFCFStdANSI
  3
"Amdt_StdImp|Product Description: AutoCAD Mechanical 2004 DX|Company: Autodesk"
 90
        0
280
     0
281
     0
  0
CLASS
  1
ACMWELDSTANDARDANSI
  2
AcmWeldingStdANSI
  3
"Amdt_StdImp|Product Description: AutoCAD Mechanical 2004 DX|Company: Autodesk"
 90
        0
280
     0
281
     0
  0
CLASS
  1
ACMIDSTANDARDANSI
  2
AcmIdStdANSI
  3
"Amdt_StdImp|Product Description: AutoCAD Mechanical 2004 DX|Company: Autodesk"
 90
        0
280
     0
281
     0
  0
CLASS
  1
ACMDATUMSTANDARDANSI
  2
AcmDatumStdANSI
  3
"Amdt_StdImp|Product Description: AutoCAD Mechanical 2004 DX|Company: Autodesk"
 90
        0
280
     0
281
     0
  0
CLASS
  1
ACMBOMSTANDARDANSI
  2
AcmBOMStdANSI
  3
"Amdt_StdImp|Product Description: AutoCAD Mechanical 2004 DX|Company: Autodesk"
 90
        0
280
     0
281
     0
  0
CLASS
  1
ACMDETAILSTANDARDANSI
  2
AmdtDetailSymStdANSI
  3
"Amdt_StdImp|Product Description: AutoCAD Mechanical 2004 DX|Company: Autodesk"
 90
        0
280
     0
281
     0
  0
CLASS
  1
ACMSECTIONSTANDARDANSI
  2
AmdtSectionSymStdANSI
  3
"Amdt_StdImp|Product Description: AutoCAD Mechanical 2004 DX|Company: Autodesk"
 90
        0
280
     0
281
     0
  0
CLASS
  1
ACMCENTERLINESTANDARDANSI
  2
AmdtCenterLineStdANSI
  3
"Amdt_StdImp|Product Description: AutoCAD Mechanical 2004 DX|Company: Autodesk"
 90
        0
280
     0
281
     0
  0
CLASS
  1
ACMTHREADLINESTANDARDANSI
  2
AmdtThreadLineStdANSI
  3
"Amdt_StdImp|Product Description: AutoCAD Mechanical 2004 DX|Company: Autodesk"
 90
        0
280
     0
281
     0
  0
CLASS
  1
ACMNOTESTANDARDANSI
  2
AmdtNoteStdANSI
  3
"Amdt_StdImp|Product Description: AutoCAD Mechanical 2004 DX|Company: Autodesk"
 90
        0
280
     0
281
     0
  0
CLASS
  1
AMDTNOTETEMPLATEDB
  2
AmdtNoteTemplateDB
  3
AMDT_STDIMP_MODULE_NAME
 90
        0
280
     0
281
     0
  0
CLASS
  1
ACAMGLAYSTD
  2
AcAmgLayStd
  3
"AcAmgLayStd|Product Description: AutoCAD Mechanical 2000|Company: Autodesk"
 90
        0
280
     0
281
     0
  0
CLASS
  1
ACAMGDIMSTD
  2
AcAmgDimStd
  3
"AcAmgDimStd|Product Description: AutoCAD Mechanical 2000|Company: Autodesk"
 90
        0
280
     0
281
     0
  0
CLASS
  1
ACAMGHOLECHARTSTDANSI
  2
AcAmgHoleChartStdANSI
  3
ACMSYMBB_MODULE_NAME
 90
        0
280
     0
281
     0
  0
CLASS
  1
ACAMGTITLESTD
  2
AcAmgTitleStd
  3
"TITLEAPP"
 90
        0
280
     0
281
     0
  0
CLASS
  1
ACAMGFILTERDAT
  2
AcAmgFilterDat
  3
"AcadM|Product Description: AutoCAD Mechanical 2000|Company: Autodesk"
 90
        0
280
     0
281
     0
  0
CLASS
  1
ACMSTANDARDDIN
  2
AcmStandardDIN
  3
"Amdt_StdImp|Product Description: AutoCAD Mechanical 2004 DX|Company: Autodesk"
 90
        0
280
     0
281
     0
  0
CLASS
  1
AMDTEDGESTANDARDDIN13715
  2
AmdtEdgeStdDIN13715
  3
"Amdt_StdImp|Product Description: AutoCAD Mechanical 2004 DX|Company: Autodesk"
 90
        0
280
     0
281
     0
  0
CLASS
  1
ACMSURFSTANDARDDIN
  2
AcmSurfTextStdDIN
  3
"Amdt_StdImp|Product Description: AutoCAD Mechanical 2004 DX|Company: Autodesk"
 90
        0
280
     0
281
     0
  0
CLASS
  1
ACMFCFSTANDARDDIN
  2
AcmFCFStdDIN
  3
"Amdt_StdImp|Product Description: AutoCAD Mechanical 2004 DX|Company: Autodesk"
 90
        0
280
     0
281
     0
  0
CLASS
  1
ACMWELDSTANDARDDIN
  2
AcmWeldingStdDIN
  3
"Amdt_StdImp|Product Description: AutoCAD Mechanical 2004 DX|Company: Autodesk"
 90
        0
280
     0
281
     0
  0
CLASS
  1
ACMIDSTANDARDDIN
  2
AcmIdStdDIN
  3
"Amdt_StdImp|Product Description: AutoCAD Mechanical 2004 DX|Company: Autodesk"
 90
        0
280
     0
281
     0
  0
CLASS
  1
ACMDATUMSTANDARDDIN
  2
AcmDatumStdDIN
  3
"Amdt_StdImp|Product Description: AutoCAD Mechanical 2004 DX|Company: Autodesk"
 90
        0
280
     0
281
     0
  0
CLASS
  1
ACMBOMSTANDARDDIN
  2
AcmBOMStdDIN
  3
"Amdt_StdImp|Product Description: AutoCAD Mechanical 2004 DX|Company: Autodesk"
 90
        0
280
     0
281
     0
  0
CLASS
  1
ACMDETAILSTANDARDDIN
  2
AmdtDetailSymStdDIN
  3
"Amdt_StdImp|Product Description: AutoCAD Mechanical 2004 DX|Company: Autodesk"
 90
        0
280
     0
281
     0
  0
CLASS
  1
ACMSECTIONSTANDARDDIN
  2
AmdtSectionSymStdDIN
  3
"Amdt_StdImp|Product Description: AutoCAD Mechanical 2004 DX|Company: Autodesk"
 90
        0
280
     0
281
     0
  0
CLASS
  1
ACMCENTERLINESTANDARDDIN
  2
AmdtCenterLineStdDIN
  3
"Amdt_StdImp|Product Description: AutoCAD Mechanical 2004 DX|Company: Autodesk"
 90
        0
280
     0
281
     0
  0
CLASS
  1
ACMTHREADLINESTANDARDDIN
  2
AmdtThreadLineStdDIN
  3
"Amdt_StdImp|Product Description: AutoCAD Mechanical 2004 DX|Company: Autodesk"
 90
        0
280
     0
281
     0
  0
CLASS
  1
ACMNOTESTANDARDDIN
  2
AmdtNoteStdDIN
  3
"Amdt_StdImp|Product Description: AutoCAD Mechanical 2004 DX|Company: Autodesk"
 90
        0
280
     0
281
     0
  0
CLASS
  1
ACAMGHOLECHARTSTDDIN
  2
AcAmgHoleChartStdDIN
  3
ACMSYMBB_MODULE_NAME
 90
        0
280
     0
281
     0
  0
CLASS
  1
ACMDATAENTRYBLOCK
  2
AcmDataEntryBlock
  3
"AcmSymBB|Product Description: AutoCAD Mechanical 2004 DX|Company: Autodesk"
 90
    32768
280
     0
281
     0
  0
CLASS
  1
SORTENTSTABLE
  2
AcDbSortentsTable
  3
ObjectDBX Classes
 90
        0
280
     0
281
     0
  0
ENDSEC
  0
SECTION
  2
TABLES
  0
TABLE
  2
VPORT
  5
8
330
0
100
AcDbSymbolTable
 70
     4
  0
VPORT
  5
5B46
330
8
100
AcDbSymbolTableRecord
100
AcDbViewportTableRecord
  2
*Active
 70
     0
 10
0.0
 20
0.0
 11
1.0
 21
1.0
 12
323.9597570577061
 22
304.4348982708953
 13
0.0
 23
0.0
 14
0.3
 24
0.3
 15
0.5
 25
0.5
 16
0.0
 26
0.0
 36
1.0
 17
0.0
 27
0.0
 37
0.0
 40
534.1829035025455
 41
1.494545454545454
 42
50.0
 43
0.0
 44
0.0
 50
0.0
 51
0.0
 71
     0
 72
  1000
 73
     1
 74
     3
 75
     1
 76
     0
 77
     0
 78
     1
281
     0
 65
     1
110
0.0
120
0.0
130
0.0
111
1.0
121
0.0
131
0.0
112
0.0
122
1.0
132
0.0
 79
     0
146
0.0
  0
ENDTAB
  0
TABLE
  2
LTYPE
  5
5
330
0
100
AcDbSymbolTable
 70
    29
  0
LTYPE
  5
14
330
5
100
AcDbSymbolTableRecord
100
AcDbLinetypeTableRecord
  2
ByBlock
 70
     0
  3

 72
    65
 73
     0
 40
0.0
  0
LTYPE
  5
15
330
5
100
AcDbSymbolTableRecord
100
AcDbLinetypeTableRecord
  2
ByLayer
 70
     0
  3

 72
    65
 73
     0
 40
0.0
  0
LTYPE
  5
16
330
5
100
AcDbSymbolTableRecord
100
AcDbLinetypeTableRecord
  2
Continuous
 70
     0
  3
Solid line
 72
    65
 73
     0
 40
0.0
  0
LTYPE
  5
B9
330
5
100
AcDbSymbolTableRecord
100
AcDbLinetypeTableRecord
  2
CENTER
 70
     0
  3
Center ____ _ ____ _ ____ _ ____ _ ____ _ ____
 72
    65
 73
     4
 40
2.0
 49
1.25
 74
     0
 49
-0.25
 74
     0
 49
0.25
 74
     0
 49
-0.25
 74
     0
  0
LTYPE
  5
BF
330
5
100
AcDbSymbolTableRecord
100
AcDbLinetypeTableRecord
  2
DASHED
 70
     0
  3
Dashed __ __ __ __ __ __ __ __ __ __ __ __ __ _
 72
    65
 73
     2
 40
0.75
 49
0.5
 74
     0
 49
-0.25
 74
     0
  0
LTYPE
  5
2175
330
5
100
AcDbSymbolTableRecord
100
AcDbLinetypeTableRecord
  2
ACAD_ISO04W100
 70
     0
  3
ISO long-dash dot ____ . ____ . ____ . ____ . _
 72
    65
 73
     4
 40
30.0
 49
24.0
 74
     0
 49
-3.0
 74
     0
 49
0.0
 74
     0
 49
-3.0
 74
     0
  0
LTYPE
  5
3D22
330
5
100
AcDbSymbolTableRecord
100
AcDbLinetypeTableRecord
  2
GEN3A
 70
     0
  3
 - - - - -
 72
    65
 73
     2
 40
3.125
 49
2.25
 74
     0
 49
-0.875
 74
     0
  0
LTYPE
  5
3D24
330
5
100
AcDbSymbolTableRecord
100
AcDbLinetypeTableRecord
  2
GEN7A
 70
     0
  3
__ . __ . __
 72
    65
 73
     4
 40
6.875
 49
4.75
 74
     0
 49
-0.875
 74
     0
 49
0.375
 74
     0
 49
-0.875
 74
     0
  0
LTYPE
  5
3D25
330
5
100
AcDbSymbolTableRecord
100
AcDbLinetypeTableRecord
  2
STRICHPUNKT
 70
     0
  3
__ . __ . __ . __ . __ . __ . __ . __ . __ . __
 72
    65
 73
     4
 40
1.0
 49
0.5
 74
     0
 49
-0.25
 74
     0
 49
0.0
 74
     0
 49
-0.25
 74
     0
  0
LTYPE
  5
4960
330
5
100
AcDbSymbolTableRecord
100
AcDbLinetypeTableRecord
  2
HIDDEN
 70
     0
  3
Verdeckt
 72
    65
 73
     2
 40
0.375
 49
0.25
 74
     0
 49
-0.125
 74
     0
  0
LTYPE
  5
4961
330
5
100
AcDbSymbolTableRecord
100
AcDbLinetypeTableRecord
  2
PHANTOM2
 70
     0
  3
Phantom (.5x) ___ _ _ ___ _ _ ___ _ _ ___ _ _
 72
    65
 73
     6
 40
1.25
 49
0.625
 74
     0
 49
-0.125
 74
     0
 49
0.125
 74
     0
 49
-0.125
 74
     0
 49
0.125
 74
     0
 49
-0.125
 74
     0
  0
LTYPE
  5
4995
330
5
100
AcDbSymbolTableRecord
100
AcDbLinetypeTableRecord
  2
AM_ISO02W050
 70
     0
  3
__ __ __ __ __ __ __ __ __ __ __ __ __ __ __
 72
    65
 73
     2
 40
7.5
 49
6.0
 74
     0
 49
-1.5
 74
     0
  0
LTYPE
  5
4996
330
5
100
AcDbSymbolTableRecord
100
AcDbLinetypeTableRecord
  2
AM_ISO08W050
 70
     0
  3
____ . ____ . ____ . ____ . ____ . ____ . ____
 72
    65
 73
     4
 40
18.0
 49
12.0
 74
     0
 49
-1.5
 74
     0
 49
3.0
 74
     0
 49
-1.5
 74
     0
  0
LTYPE
  5
4997
330
5
100
AcDbSymbolTableRecord
100
AcDbLinetypeTableRecord
  2
AM_ISO09W050
 70
     0
  3
_____ . . _____ . . _____ . . ____ .. ____
 72
    65
 73
     6
 40
22.5
 49
12.0
 74
     0
 49
-1.5
 74
     0
 49
3.0
 74
     0
 49
-1.5
 74
     0
 49
3.0
 74
     0
 49
-1.5
 74
     0
  0
LTYPE
  5
4998
330
5
100
AcDbSymbolTableRecord
100
AcDbLinetypeTableRecord
  2
Amconstr
 70
     0
  3
_______________________
 72
    65
 73
     2
 40
9999.0
 49
9999.0
 74
     0
 49
0.0
 74
     0
  0
LTYPE
  5
4999
330
5
100
AcDbSymbolTableRecord
100
AcDbLinetypeTableRecord
  2
AM_ISO08W050x2
 70
     0
  3
__ . __ . __ . __ . __ . __
 72
    65
 73
     4
 40
9.0
 49
6.0
 74
     0
 49
-0.75
 74
     0
 49
1.5
 74
     0
 49
-0.75
 74
     0
  0
LTYPE
  5
499A
330
5
100
AcDbSymbolTableRecord
100
AcDbLinetypeTableRecord
  2
AM_ISO02W050x2
 70
     0
  3
 _ _ _ _ _ _ _ _ _ _ _ _
 72
    65
 73
     2
 40
3.75
 49
3.0
 74
     0
 49
-0.75
 74
     0
  0
LTYPE
  5
499D
330
5
100
AcDbSymbolTableRecord
100
AcDbLinetypeTableRecord
  2
Amzigzag
 70
     0
  3
/\/-/\/-/\/-/\/-/\/-/\/
 72
    65
 73
     2
 40
11.0001
 49
0.0001
 74
     4
 75
   136
340
499C
 46
0.04
 50
0.0
 44
0.0
 45
0.0
 49
-11.0
 74
     0
  0
LTYPE
  5
499E
330
5
100
AcDbSymbolTableRecord
100
AcDbLinetypeTableRecord
  2
CENTER2
 70
     0
  3
Center (.5x) ___ _ ___ _ ___ _ ___ _ ___ _ ___
 72
    65
 73
     4
 40
1.125
 49
0.75
 74
     0
 49
-0.125
 74
     0
 49
0.125
 74
     0
 49
-0.125
 74
     0
  0
LTYPE
  5
499F
330
5
100
AcDbSymbolTableRecord
100
AcDbLinetypeTableRecord
  2
HIDDEN2
 70
     0
  3
Hidden (.5x) _ _ _ _ _ _ _ _ _ _ _ _ _ _ _ _ _
 72
    65
 73
     2
 40
0.1875
 49
0.125
 74
     0
 49
-0.0625
 74
     0
  0
LTYPE
  5
49A0
330
5
100
AcDbSymbolTableRecord
100
AcDbLinetypeTableRecord
  2
Amzigzag2
 70
     0
  3
/\/-/\/-/\/-/\/-/\/-/\/
 72
    65
 73
     2
 40
0.4401
 49
0.0001
 74
     4
 75
   136
340
499C
 46
0.0016
 50
0.0
 44
0.0
 45
0.0
 49
-0.4400000000000001
 74
     0
  0
LTYPE
  5
49AE
330
5
100
AcDbSymbolTableRecord
100
AcDbLinetypeTableRecord
  2
ACANSTGB
 70
     0
  3
__ . . __ . .
 72
    65
 73
     6
 40
0.35433070866
 49
0.15748031496
 74
     0
 49
-0.03937007874
 74
     0
 49
0.03937007874
 74
     0
 49
-0.03937007874
 74
     0
 49
0.03937007874
 74
     0
 49
-0.03937007874
 74
     0
  0
LTYPE
  5
49AF
330
5
100
AcDbSymbolTableRecord
100
AcDbLinetypeTableRecord
  2
ACANSTGL
 70
     0
  3
_ _ _ _ _
 72
    65
 73
     2
 40
0.11811023622
 49
0.07874015748
 74
     0
 49
-0.03937007874
 74
     0
  0
LTYPE
  5
4B49
330
5
100
AcDbSymbolTableRecord
100
AcDbLinetypeTableRecord
  2
GEN7
 70
     0
  3
____ . ____ . ____ . ____ . ____ . ____ . ____
 72
    65
 73
     4
 40
13.75
 49
9.75
 74
     0
 49
-1.5
 74
     0
 49
1.0
 74
     0
 49
-1.5
 74
     0
  0
LTYPE
  5
4B4A
330
5
100
AcDbSymbolTableRecord
100
AcDbLinetypeTableRecord
  2
GEN3
 70
     0
  3
-- -- -- -- -- -- -- -- -- -- -- -- -- -- --
 72
    65
 73
     2
 40
6.25
 49
4.75
 74
     0
 49
-1.5
 74
     0
  0
LTYPE
  5
4B4B
330
5
100
AcDbSymbolTableRecord
100
AcDbLinetypeTableRecord
  2
GEN4A
 70
     0
  3
_____ . . _____ . . _____ . . ____ .. ____
 72
    65
 73
     6
 40
16.25
 49
9.75
 74
     0
 49
-1.5
 74
     0
 49
1.0
 74
     0
 49
-1.5
 74
     0
 49
1.0
 74
     0
 49
-1.5
 74
     0
  0
LTYPE
  5
4B4C
330
5
100
AcDbSymbolTableRecord
100
AcDbLinetypeTableRecord
  2
AM_DIN_G_W050
 70
     0
  3
____ . ____ . ____ . ____ . ____ . ____ . ____
 72
    65
 73
     4
 40
13.75
 49
9.75
 74
     0
 49
-1.5
 74
     0
 49
1.0
 74
     0
 49
-1.5
 74
     0
  0
LTYPE
  5
4B4D
330
5
100
AcDbSymbolTableRecord
100
AcDbLinetypeTableRecord
  2
ACDINWELD
 70
     0
  3
_ _ _ _ _
 72
    65
 73
     2
 40
2.0
 49
2.0
 74
     0
 49
-1.0
 74
     0
  0
LTYPE
  5
4B4E
330
5
100
AcDbSymbolTableRecord
100
AcDbLinetypeTableRecord
  2
ACDINTGB
 70
     0
  3
__ . . __ . .
 72
    65
 73
     6
 40
9.0
 49
4.0
 74
     0
 49
-1.0
 74
     0
 49
1.0
 74
     0
 49
-1.0
 74
     0
 49
1.0
 74
     0
 49
-1.0
 74
     0
  0
LTYPE
  5
4B4F
330
5
100
AcDbSymbolTableRecord
100
AcDbLinetypeTableRecord
  2
ACDINTGL
 70
     0
  3
_ _ _ _ _
 72
    65
 73
     2
 40
3.0
 49
2.0
 74
     0
 49
-1.0
 74
     0
  0
LTYPE
  5
4B50
330
5
100
AcDbSymbolTableRecord
100
AcDbLinetypeTableRecord
  2
genzigzag
 70
     0
  3
/\/-/\/-/\/-/\/-/\/-/\/
 72
    65
 73
     2
 40
12.0001
 49
0.0001
 74
     4
 75
   135
340
499C
 46
2.0
 50
0.0
 44
0.0
 45
0.0
 49
-12.0
 74
     0
  0
ENDTAB
  0
TABLE
  2
LAYER
  5
2
102
{ACAD_XDICTIONARY
360
5851
102
}
330
0
100
AcDbSymbolTable
 70
    18
  0
LAYER
  5
10
330
2
100
AcDbSymbolTableRecord
100
AcDbLayerTableRecord
  2
0
 70
     0
 62
     7
  6
Continuous
370
    -3
390
F
  0
LAYER
  5
15A
330
2
100
AcDbSymbolTableRecord
100
AcDbLayerTableRecord
  2
Defpoints
 70
     0
 62
     7
  6
Continuous
290
     0
370
    -3
390
F
  0
LAYER
  5
3D27
330
2
100
AcDbSymbolTableRecord
100
AcDbLayerTableRecord
  2
RAHM2
 70
     0
 62
     1
  6
Continuous
370
    -3
390
F
  0
LAYER
  5
3D29
330
2
100
AcDbSymbolTableRecord
100
AcDbLayerTableRecord
  2
RAHM5
 70
     0
 62
     7
  6
Continuous
370
    -3
390
F
  0
LAYER
  5
3D2A
330
2
100
AcDbSymbolTableRecord
100
AcDbLayerTableRecord
  2
3A
 70
     0
 62
     6
  6
GEN3A
370
    -3
390
F
  0
LAYER
  5
3D2C
330
2
100
AcDbSymbolTableRecord
100
AcDbLayerTableRecord
  2
4
 70
     0
 62
     3
  6
Continuous
370
    -3
390
F
  0
LAYER
  5
3D2D
330
2
100
AcDbSymbolTableRecord
100
AcDbLayerTableRecord
  2
6
 70
     0
 62
     2
  6
Continuous
370
    -3
390
F
  0
LAYER
  5
3D2E
330
2
100
AcDbSymbolTableRecord
100
AcDbLayerTableRecord
  2
7A
 70
     0
 62
     4
  6
GEN7A
370
    -3
390
F
  0
LAYER
  5
3D2F
330
2
100
AcDbSymbolTableRecord
100
AcDbLayerTableRecord
  2
8
 70
     0
 62
     1
  6
Continuous
370
    -3
390
F
  0
LAYER
  5
3D31
330
2
100
AcDbSymbolTableRecord
100
AcDbLayerTableRecord
  2
BEMASS
 70
     0
 62
     3
  6
Continuous
370
    -3
390
F
  0
LAYER
  5
3D34
330
2
100
AcDbSymbolTableRecord
100
AcDbLayerTableRecord
  2
Schnitt
 70
     0
 62
     5
  6
STRICHPUNKT
370
    -3
390
F
  0
LAYER
  5
4B51
330
2
100
AcDbSymbolTableRecord
100
AcDbLayerTableRecord
  2
5
 70
     0
 62
     3
  6
Continuous
370
    -3
390
F
  0
LAYER
  5
4B52
330
2
100
AcDbSymbolTableRecord
100
AcDbLayerTableRecord
  2
RAHM3
 70
     0
 62
     2
  6
Continuous
370
    -3
390
F
  0
LAYER
  5
557C
330
2
100
AcDbSymbolTableRecord
100
AcDbLayerTableRecord
  2
AM_5
 70
     0
 62
     3
  6
Continuous
370
    15
390
F
1001
AcAecLayerStandard
1000

1000

  0
LAYER
  5
55F9
330
2
100
AcDbSymbolTableRecord
100
AcDbLayerTableRecord
  2
AM_CL
 70
     0
 62
     1
  6
Amconstr
370
    15
390
F
1001
AcAecLayerStandard
1000

1000

  0
LAYER
  5
5850
330
2
100
AcDbSymbolTableRecord
100
AcDbLayerTableRecord
  2
AM_0
 70
     0
 62
     7
  6
Continuous
370
    30
390
F
1001
AcAecLayerStandard
1000

1000

  0
LAYER
  5
5854
330
2
100
AcDbSymbolTableRecord
100
AcDbLayerTableRecord
  2
AM_4
 70
     0
 62
     3
  6
Continuous
370
    15
390
F
1001
AcAecLayerStandard
1000

1000

  0
LAYER
  5
5858
330
2
100
AcDbSymbolTableRecord
100
AcDbLayerTableRecord
  2
AM_8
 70
     0
 62
     1
  6
Continuous
370
    15
390
F
1001
AcAecLayerStandard
1000

1000

  0
ENDTAB
  0
TABLE
  2
STYLE
  5
3
330
0
100
AcDbSymbolTable
 70
     8
  0
STYLE
  5
11
330
3
100
AcDbSymbolTableRecord
100
AcDbTextStyleTableRecord
  2
Standard
 70
     0
 40
0.0
 41
1.0
 50
0.0
 71
     0
 42
0.2
  3
txt
  4

  0
STYLE
  5
196
330
3
100
AcDbSymbolTableRecord
100
AcDbTextStyleTableRecord
  2
isocp
 70
     0
 40
0.0
 41
1.0
 50
0.0
 71
     0
 42
2.5
  3
isocp.shx
  4

  0
STYLE
  5
499C
330
3
100
AcDbSymbolTableRecord
100
AcDbTextStyleTableRecord
  2

 70
     1
 40
0.0
 41
1.0
 50
0.0
 71
     0
 42
2.5
  3
genltshp.shx
  4

  0
STYLE
  5
49A1
330
3
100
AcDbSymbolTableRecord
100
AcDbTextStyleTableRecord
  2
ACANSTS
 70
     0
 40
1.0
 41
1.0
 50
0.0
 71
     0
 42
2.5
  3
romans.shx
  4

  0
STYLE
  5
49AD
330
3
100
AcDbSymbolTableRecord
100
AcDbTextStyleTableRecord
  2
ACANSGDT
 70
     0
 40
0.0
 41
1.0
 50
0.0
 71
     0
 42
2.5
  3
AMGDT
  4

  0
STYLE
  5
4B53
330
3
100
AcDbSymbolTableRecord
100
AcDbTextStyleTableRecord
  2
STIL1
 70
     0
 40
0.0
 41
1.0
 50
0.0
 71
     0
 42
2.5
  3
isoct.shx
  4

  0
STYLE
  5
4B54
330
3
100
AcDbSymbolTableRecord
100
AcDbTextStyleTableRecord
  2
ACDINTS
 70
     0
 40
1.0
 41
1.0
 50
0.0
 71
     0
 42
3.5
  3
isocp.shx
  4

  0
STYLE
  5
4B55
330
3
100
AcDbSymbolTableRecord
100
AcDbTextStyleTableRecord
  2
ACDINGDT
 70
     0
 40
0.0
 41
1.0
 50
0.0
 71
     0
 42
3.5
  3
AMGDT
  4

  0
ENDTAB
  0
TABLE
  2
VIEW
  5
6
330
0
100
AcDbSymbolTable
 70
     0
  0
ENDTAB
  0
TABLE
  2
UCS
  5
7
330
0
100
AcDbSymbolTable
 70
     0
  0
ENDTAB
  0
TABLE
  2
APPID
  5
9
330
0
100
AcDbSymbolTable
 70
    33
  0
APPID
  5
12
330
9
100
AcDbSymbolTableRecord
100
AcDbRegAppTableRecord
  2
ACAD
 70
     0
  0
APPID
  5
3D3A
330
9
100
AcDbSymbolTableRecord
100
AcDbRegAppTableRecord
  2
GENIUS_GENBLLY_14
 70
     0
  0
APPID
  5
3D3B
330
9
100
AcDbSymbolTableRecord
100
AcDbRegAppTableRecord
  2
GENIUS_VERSION2
 70
     0
  0
APPID
  5
3D3C
330
9
100
AcDbSymbolTableRecord
100
AcDbRegAppTableRecord
  2
GENIUS_GENREC_14
 70
     0
  0
APPID
  5
3D3D
330
9
100
AcDbSymbolTableRecord
100
AcDbRegAppTableRecord
  2
GENIUS_GENODEF_13
 70
     0
  0
APPID
  5
3D3E
330
9
100
AcDbSymbolTableRecord
100
AcDbRegAppTableRecord
  2
GENIUS_GENOBJ-N-REC_13
 70
     0
  0
APPID
  5
3D3F
330
9
100
AcDbSymbolTableRecord
100
AcDbRegAppTableRecord
  2
GENIUS_GENTRA_14
 70
     0
  0
APPID
  5
3D40
330
9
100
AcDbSymbolTableRecord
100
AcDbRegAppTableRecord
  2
GENIUS_GENOREF_13
 70
     0
  0
APPID
  5
3D41
330
9
100
AcDbSymbolTableRecord
100
AcDbRegAppTableRecord
  2
GENIUS_GENOBJ-N-SDF_13
 70
     0
  0
APPID
  5
3D42
330
9
100
AcDbSymbolTableRecord
100
AcDbRegAppTableRecord
  2
GENIUS_GENSCREG_13
 70
     0
  0
APPID
  5
3D43
330
9
100
AcDbSymbolTableRecord
100
AcDbRegAppTableRecord
  2
GENIUS_GENOBJ-N-HTC_13
 70
     0
  0
APPID
  5
3D44
330
9
100
AcDbSymbolTableRecord
100
AcDbRegAppTableRecord
  2
GENIUS_GENHATCH_13
 70
     0
  0
APPID
  5
3D45
330
9
100
AcDbSymbolTableRecord
100
AcDbRegAppTableRecord
  2
GENIUS_GENOBJ-N-FIL_13
 70
     0
  0
APPID
  5
4931
330
9
100
AcDbSymbolTableRecord
100
AcDbRegAppTableRecord
  2
MCAD_NO_VIS
 70
     0
  0
APPID
  5
4932
330
9
100
AcDbSymbolTableRecord
100
AcDbRegAppTableRecord
  2
ACAD_TEMP_GRAPHIC
 70
     0
  0
APPID
  5
4963
330
9
100
AcDbSymbolTableRecord
100
AcDbRegAppTableRecord
  2
AD_DRAW
 70
     0
  0
APPID
  5
4966
330
9
100
AcDbSymbolTableRecord
100
AcDbRegAppTableRecord
  2
ACATTRIBSERVICES
 70
     0
  0
APPID
  5
4986
330
9
100
AcDbSymbolTableRecord
100
AcDbRegAppTableRecord
  2
DESIGNERASSEMBLIES
 70
     0
  0
APPID
  5
498C
330
9
100
AcDbSymbolTableRecord
100
AcDbRegAppTableRecord
  2
ACADM_DIM_EDIT
 70
     0
  0
APPID
  5
498D
330
9
100
AcDbSymbolTableRecord
100
AcDbRegAppTableRecord
  2
AMDT_DM_ADJ
 70
     0
  0
APPID
  5
49BB
330
9
100
AcDbSymbolTableRecord
100
AcDbRegAppTableRecord
  2
ACAD_DSTYLE_DIMARC_LENGTH_SYMBOL
 70
     0
  0
APPID
  5
49BC
330
9
100
AcDbSymbolTableRecord
100
AcDbRegAppTableRecord
  2
ACAD_DSTYLE_DIMJOGGED_JOGANGLE_SYMBOL
 70
     0
  0
APPID
  5
4B57
330
9
100
AcDbSymbolTableRecord
100
AcDbRegAppTableRecord
  2
GENIUS_GENDTOL_13
 70
     0
  0
APPID
  5
4B58
330
9
100
AcDbSymbolTableRecord
100
AcDbRegAppTableRecord
  2
GENIUS_GENOENT_13
 70
     0
  0
APPID
  5
4B59
330
9
100
AcDbSymbolTableRecord
100
AcDbRegAppTableRecord
  2
GENIUS_GENOLIS_13
 70
     0
  0
APPID
  5
4B5A
330
9
100
AcDbSymbolTableRecord
100
AcDbRegAppTableRecord
  2
GENIUS_GENOBJ-N-TIT_13
 70
     0
  0
APPID
  5
4B5B
330
9
100
AcDbSymbolTableRecord
100
AcDbRegAppTableRecord
  2
GENIUS_GENTITLE_13
 70
     0
  0
APPID
  5
4B5C
330
9
100
AcDbSymbolTableRecord
100
AcDbRegAppTableRecord
  2
GENIUS_GENHINW_13
 70
     0
  0
APPID
  5
4B5D
330
9
100
AcDbSymbolTableRecord
100
AcDbRegAppTableRecord
  2
GENIUS_FIRSTVISTXT_14
 70
     0
  0
APPID
  5
4B5E
330
9
100
AcDbSymbolTableRecord
100
AcDbRegAppTableRecord
  2
GENIUS_GENOBJ-N-LEADER_13
 70
     0
  0
APPID
  5
4B5F
330
9
100
AcDbSymbolTableRecord
100
AcDbRegAppTableRecord
  2
ACAD_PSEXT
 70
     0
  0
APPID
  5
557D
330
9
100
AcDbSymbolTableRecord
100
AcDbRegAppTableRecord
  2
AcAecLayerStandard
 70
     0
  0
APPID
  5
5A90
330
9
100
AcDbSymbolTableRecord
100
AcDbRegAppTableRecord
  2
ACAD_EXEMPT_FROM_CAD_STANDARDS
 70
     0
  0
ENDTAB
  0
TABLE
  2
DIMSTYLE
  5
A
330
0
100
AcDbSymbolTable
 70
    10
100
AcDbDimStyleTable
 71
     3
340
199
340
4B56
340
A13
  0
DIMSTYLE
105
199
330
A
100
AcDbSymbolTableRecord
100
AcDbDimStyleTableRecord
  2
dim
 70
     0
 41
2.5
 42
0.0
 43
1.0
 44
1.0
 73
     0
 74
     0
 77
     1
140
2.5
141
0.0
147
1.0
178
     2
271
     0
272
     0
279
     2
340
196
  0
DIMSTYLE
105
A13
330
A
100
AcDbSymbolTableRecord
100
AcDbDimStyleTableRecord
  2
leader
 70
     0
 40
10.0
 41
0.25
 42
0.0
 43
0.1
 44
0.0
 73
     0
 74
     0
 77
     1
140
0.25
141
0.0
147
0.1
271
     0
272
     0
279
     2
340
196
341
A10
  0
DIMSTYLE
105
49BA
330
A
100
AcDbSymbolTableRecord
100
AcDbDimStyleTableRecord
  2
AM_ANSI
 70
     0
  4
mm
 41
0.1
 42
0.05
 43
0.5
 44
0.1
 47
0.1
 48
0.1
 78
     7
 79
     2
140
0.12
141
0.0
146
0.71
147
0.06
176
   256
177
   256
178
     2
274
     4
284
     7
340
11
371
    -1
372
    -1
1001
ACAD_DSTYLE_DIMARC_LENGTH_SYMBOL
1070
   379
1070
     1
1001
ACAD_DSTYLE_DIMJOGGED_JOGANGLE_SYMBOL
1070
   384
1040
0.7853981633974483
  0
DIMSTYLE
105
49C3
330
A
100
AcDbSymbolTableRecord
100
AcDbDimStyleTableRecord
  2
AM_ANSI$3
 70
     0
  4
mm
 41
0.1
 42
0.05
 43
0.5
 44
0.1
 47
0.1
 48
0.1
 78
     7
 79
     2
140
0.12
141
0.0
146
0.71
147
0.06
176
   256
177
   256
178
     2
274
     4
284
     7
288
     1
289
     0
340
11
371
    -1
372
    -1
1001
ACAD_DSTYLE_DIMARC_LENGTH_SYMBOL
1070
   379
1070
     1
1001
ACAD_DSTYLE_DIMJOGGED_JOGANGLE_SYMBOL
1070
   384
1040
0.7853981633974483
  0
DIMSTYLE
105
49C6
330
A
100
AcDbSymbolTableRecord
100
AcDbDimStyleTableRecord
  2
AM_ANSI$4
 70
     0
  4
mm
 41
0.1
 42
0.05
 43
0.5
 44
0.1
 47
0.1
 48
0.1
 78
     7
 79
     2
140
0.12
141
0.0
146
0.71
147
0.06
176
   256
177
   256
178
     2
274
     4
284
     7
288
     1
289
     0
340
11
371
    -1
372
    -1
1001
ACAD_DSTYLE_DIMARC_LENGTH_SYMBOL
1070
   379
1070
     1
1001
ACAD_DSTYLE_DIMJOGGED_JOGANGLE_SYMBOL
1070
   384
1040
0.7853981633974483
  0
DIMSTYLE
105
49CB
330
A
100
AcDbSymbolTableRecord
100
AcDbDimStyleTableRecord
  2
AM_ANSI$7
 70
     0
  4
mm
 41
0.1
 42
0.05
 43
0.5
 44
0.1
 47
0.1
 48
0.1
 78
     7
 79
     2
140
0.24
141
0.0
146
0.71
147
0.06
176
   256
177
   256
178
     2
274
     4
284
     7
340
11
371
    -1
372
    -1
1001
ACAD_DSTYLE_DIMARC_LENGTH_SYMBOL
1070
   379
1070
     1
1001
ACAD_DSTYLE_DIMJOGGED_JOGANGLE_SYMBOL
1070
   384
1040
0.7853981633974483
  0
DIMSTYLE
105
49CE
330
A
100
AcDbSymbolTableRecord
100
AcDbDimStyleTableRecord
  2
AM_ANSI$SF
 70
     0
  4
mm
 41
0.1
 42
0.05
 43
0.5
 44
0.1
 47
0.1
 48
0.1
 75
     1
 76
     1
 78
     7
 79
     2
140
0.12
141
0.0
146
0.71
147
0.06
176
   256
177
   256
178
     2
274
     4
284
     7
340
11
371
    -1
372
    -1
1001
ACAD_DSTYLE_DIMARC_LENGTH_SYMBOL
1070
   379
1070
     1
1001
ACAD_DSTYLE_DIMJOGGED_JOGANGLE_SYMBOL
1070
   384
1040
0.7853981633974483
  0
DIMSTYLE
105
49D5
330
A
100
AcDbSymbolTableRecord
100
AcDbDimStyleTableRecord
  2
AM_ANSI$SH
 70
     0
  4
mm
 41
0.1
 42
0.05
 43
0.5
 44
0.1
 47
0.1
 48
0.1
 75
     1
 76
     1
 78
     7
 79
     2
140
0.12
141
0.0
146
0.71
147
0.06
173
     1
176
   256
177
   256
178
     2
274
     4
284
     7
340
11
343
49CF
371
    -1
372
    -1
1001
ACAD_DSTYLE_DIMARC_LENGTH_SYMBOL
1070
   379
1070
     1
1001
ACAD_DSTYLE_DIMJOGGED_JOGANGLE_SYMBOL
1070
   384
1040
0.7853981633974483
  0
DIMSTYLE
105
4B56
102
{ACAD_REACTORS
330
56BB
330
56BC
330
4FE
330
4DD
330
56C5
330
4AF
330
56C6
330
59BF
330
5AF3
102
}
330
A
100
AcDbSymbolTableRecord
100
AcDbDimStyleTableRecord
  2
GEN-ISO
 70
     0
  4
"
 41
2.5
 42
1.0
 43
7.0
 44
1.0
 47
0.1
 48
0.1
 73
     0
 74
     0
 77
     1
 78
     8
140
3.5
141
0.0
143
0.0393701
146
0.71
147
0.6
172
     1
176
   256
177
   256
178
     2
271
     2
272
     3
274
     4
283
     0
340
11
  0
DIMSTYLE
105
5589
102
{ACAD_REACTORS
330
4AF
330
4DD
330
4FE
330
5AC2
102
}
330
A
100
AcDbSymbolTableRecord
100
AcDbDimStyleTableRecord
  2
dim$0
 70
     0
 41
2.5
 42
0.0
 43
1.0
 44
1.0
 73
     0
 74
     0
 77
     1
140
2.5
141
0.0
147
1.0
178
     2
271
     0
272
     0
279
     2
340
196
  0
ENDTAB
  0
TABLE
  2
BLOCK_RECORD
  5
1
330
0
100
AcDbSymbolTable
 70
    18
  0
BLOCK_RECORD
  5
1F
102
{ACAD_XDICTIONARY
360
5856
102
}
330
1
100
AcDbSymbolTableRecord
100
AcDbBlockTableRecord
  2
*Model_Space
340
22
  0
BLOCK_RECORD
  5
58
330
1
100
AcDbSymbolTableRecord
100
AcDbBlockTableRecord
  2
*Paper_Space
340
59
  0
BLOCK_RECORD
  5
5D
330
1
100
AcDbSymbolTableRecord
100
AcDbBlockTableRecord
  2
*Paper_Space0
340
5E
  0
BLOCK_RECORD
  5
4B0
330
1
100
AcDbSymbolTableRecord
100
AcDbBlockTableRecord
  2
*D1
340
0
  0
BLOCK_RECORD
  5
4DE
330
1
100
AcDbSymbolTableRecord
100
AcDbBlockTableRecord
  2
*D2
340
0
  0
BLOCK_RECORD
  5
501
330
1
100
AcDbSymbolTableRecord
100
AcDbBlockTableRecord
  2
*D3
340
0
  0
BLOCK_RECORD
  5
A10
330
1
100
AcDbSymbolTableRecord
100
AcDbBlockTableRecord
  2
_None
340
0
102
{BLKREFS
331
28A8
102
}
  0
BLOCK_RECORD
  5
A4E
330
1
100
AcDbSymbolTableRecord
100
AcDbBlockTableRecord
  2
01
340
0
  0
BLOCK_RECORD
  5
49CF
330
1
100
AcDbSymbolTableRecord
100
AcDbBlockTableRecord
  2
GENAXEH
340
0
  0
BLOCK_RECORD
  5
49E6
330
1
100
AcDbSymbolTableRecord
100
AcDbBlockTableRecord
  2
GUSS_A3
340
0
  0
BLOCK_RECORD
  5
4A29
330
1
100
AcDbSymbolTableRecord
100
AcDbBlockTableRecord
  2
GUSS
340
0
  0
BLOCK_RECORD
  5
56C7
330
1
100
AcDbSymbolTableRecord
100
AcDbBlockTableRecord
  2
*D10
340
0
  0
BLOCK_RECORD
  5
56D3
330
1
100
AcDbSymbolTableRecord
100
AcDbBlockTableRecord
  2
*D11
340
0
  0
BLOCK_RECORD
  5
56EB
330
1
100
AcDbSymbolTableRecord
100
AcDbBlockTableRecord
  2
*D13
340
0
  0
BLOCK_RECORD
  5
56F7
330
1
100
AcDbSymbolTableRecord
100
AcDbBlockTableRecord
  2
*D14
340
0
  0
BLOCK_RECORD
  5
59C0
330
1
100
AcDbSymbolTableRecord
100
AcDbBlockTableRecord
  2
*D15
340
0
  0
BLOCK_RECORD
  5
5AC3
330
1
100
AcDbSymbolTableRecord
100
AcDbBlockTableRecord
  2
*D16
340
0
  0
BLOCK_RECORD
  5
5AF4
330
1
100
AcDbSymbolTableRecord
100
AcDbBlockTableRecord
  2
*D17
340
0
  0
ENDTAB
  0
ENDSEC
  0
SECTION
  2
BLOCKS
  0
BLOCK
  5
20
330
1F
100
AcDbEntity
  8
0
100
AcDbBlockBegin
  2
*Model_Space
 70
     0
 10
0.0
 20
0.0
 30
0.0
  3
*Model_Space
  1

  0
ENDBLK
  5
21
330
1F
100
AcDbEntity
  8
0
100
AcDbBlockEnd
  0
BLOCK
  5
5A
330
58
100
AcDbEntity
 67
     1
  8
0
100
AcDbBlockBegin
  2
*Paper_Space
 70
     0
 10
0.0
 20
0.0
 30
0.0
  3
*Paper_Space
  1

  0
ENDBLK
  5
5B
330
58
100
AcDbEntity
 67
     1
  8
0
100
AcDbBlockEnd
  0
BLOCK
  5
5F
330
5D
100
AcDbEntity
 67
     1
  8
0
100
AcDbBlockBegin
  2
*Paper_Space0
 70
     0
 10
0.0
 20
0.0
 30
0.0
  3
*Paper_Space0
  1

  0
ENDBLK
  5
60
330
5D
100
AcDbEntity
 67
     1
  8
0
100
AcDbBlockEnd
  0
BLOCK
  5
4BA
330
4B0
100
AcDbEntity
  8
0
100
AcDbBlockBegin
  2
*D1
 70
     1
 10
0.0
 20
0.0
 30
0.0
  3
*D1
  1

  0
LINE
  5
5912
330
4B0
100
AcDbEntity
  8
5
370
    -2
100
AcDbLine
 10
227.7999999999998
 20
532.699999999999
 30
0.0
 11
227.7999999999998
 21
566.5
 31
0.0
  0
LINE
  5
5913
330
4B0
100
AcDbEntity
  8
5
370
    -2
100
AcDbLine
 10
451.8
 20
532.6999999999989
 30
0.0
 11
451.8
 21
566.5
 31
0.0
  0
LINE
  5
5914
330
4B0
100
AcDbEntity
  8
5
370
    -2
100
AcDbLine
 10
230.2999999999999
 20
565.5
 30
0.0
 11
449.3000000000001
 21
565.5
 31
0.0
  0
SOLID
  5
5915
330
4B0
100
AcDbEntity
  8
5
100
AcDbTrace
 10
230.2999999999999
 20
565.9166666666666
 30
0.0
 11
230.2999999999999
 21
565.0833333333333
 31
0.0
 12
227.7999999999998
 22
565.5
 32
0.0
 13
227.7999999999998
 23
565.5
 33
0.0
  0
SOLID
  5
5916
330
4B0
100
AcDbEntity
  8
5
100
AcDbTrace
 10
449.3000000000001
 20
565.9166666666666
 30
0.0
 11
449.3000000000001
 21
565.0833333333333
 31
0.0
 12
451.8
 22
565.5
 32
0.0
 13
451.8
 23
565.5
 33
0.0
  0
MTEXT
  5
5917
330
4B0
100
AcDbEntity
  8
5
 62
     2
100
AcDbMText
 10
339.3
 20
567.85
 30
0.0
 40
3.5
 41
0.0
 71
     5
 72
     1
  1
{\Famgdt|c0;o} 224
 73
     1
 44
1.0
1001
ACAD
1000
MTEXTBEGIN
1070
    73
1070
     1
1070
    44
1040
1.0
1070
    74
1070
     0
1000
MTEXTEND
  0
POINT
  5
5918
330
4B0
100
AcDbEntity
  8
Defpoints
 62
     0
100
AcDbPoint
 10
227.7999999999998
 20
531.699999999999
 30
0.0
  0
POINT
  5
5919
330
4B0
100
AcDbEntity
  8
Defpoints
 62
     0
100
AcDbPoint
 10
451.8
 20
531.6999999999989
 30
0.0
  0
POINT
  5
591A
330
4B0
100
AcDbEntity
  8
Defpoints
 62
     0
100
AcDbPoint
 10
451.8
 20
565.5
 30
0.0
  0
ENDBLK
  5
4BB
330
4B0
100
AcDbEntity
  8
0
100
AcDbBlockEnd
  0
BLOCK
  5
4E8
330
4DE
100
AcDbEntity
  8
0
100
AcDbBlockBegin
  2
*D2
 70
     1
 10
0.0
 20
0.0
 30
0.0
  3
*D2
  1

  0
LINE
  5
5925
330
4DE
100
AcDbEntity
  8
5
370
    -2
100
AcDbLine
 10
226.7999999999999
 20
531.699999999999
 30
0.0
 11
165.8000000000001
 21
531.699999999999
 31
0.0
  0
LINE
  5
5926
330
4DE
100
AcDbEntity
  8
5
370
    -2
100
AcDbLine
 10
231.7999999999998
 20
501.6999999999988
 30
0.0
 11
165.8000000000001
 21
501.6999999999988
 31
0.0
  0
LINE
  5
5927
330
4DE
100
AcDbEntity
  8
5
370
    -2
100
AcDbLine
 10
166.8000000000001
 20
529.199999999999
 30
0.0
 11
166.8000000000001
 21
504.1999999999989
 31
0.0
  0
SOLID
  5
5928
330
4DE
100
AcDbEntity
  8
5
100
AcDbTrace
 10
166.3833333333334
 20
529.199999999999
 30
0.0
 11
167.2166666666667
 21
529.199999999999
 31
0.0
 12
166.8000000000001
 22
531.699999999999
 32
0.0
 13
166.8000000000001
 23
531.699999999999
 33
0.0
  0
SOLID
  5
5929
330
4DE
100
AcDbEntity
  8
5
100
AcDbTrace
 10
166.3833333333334
 20
504.1999999999989
 30
0.0
 11
167.2166666666667
 21
504.1999999999989
 31
0.0
 12
166.8000000000001
 22
501.6999999999988
 32
0.0
 13
166.8000000000001
 23
501.6999999999988
 33
0.0
  0
MTEXT
  5
592A
330
4DE
100
AcDbEntity
  8
5
 62
     2
100
AcDbMText
 10
164.45
 20
519.2999999999999
 30
0.0
 40
3.5
 41
0.0
 71
     5
 72
     1
  1
30
 11
0.0000000000000001
 21
1.0
 31
0.0
 73
     1
 44
1.0
1001
ACAD
1000
MTEXTBEGIN
1070
    73
1070
     1
1070
    44
1040
1.0
1070
    74
1070
     0
1000
MTEXTEND
  0
POINT
  5
592B
330
4DE
100
AcDbEntity
  8
Defpoints
 62
     0
100
AcDbPoint
 10
227.7999999999999
 20
531.699999999999
 30
0.0
  0
POINT
  5
592C
330
4DE
100
AcDbEntity
  8
Defpoints
 62
     0
100
AcDbPoint
 10
232.7999999999998
 20
501.6999999999988
 30
0.0
  0
POINT
  5
592D
330
4DE
100
AcDbEntity
  8
Defpoints
 62
     0
100
AcDbPoint
 10
166.8000000000001
 20
501.6999999999988
 30
0.0
  0
ENDBLK
  5
4E9
330
4DE
100
AcDbEntity
  8
0
100
AcDbBlockEnd
  0
BLOCK
  5
50B
330
501
100
AcDbEntity
  8
0
100
AcDbBlockBegin
  2
*D3
 70
     1
 10
0.0
 20
0.0
 30
0.0
  3
*D3
  1

  0
LINE
  5
5937
330
501
100
AcDbEntity
  8
5
370
    -2
100
AcDbLine
 10
226.7999999999999
 20
531.699999999999
 30
0.0
 11
186.2
 21
531.699999999999
 31
0.0
  0
LINE
  5
5938
330
501
100
AcDbEntity
  8
5
370
    -2
100
AcDbLine
 10
242.7289140049903
 20
510.6999999999989
 30
0.0
 11
186.2
 21
510.6999999999989
 31
0.0
  0
LINE
  5
5939
330
501
100
AcDbEntity
  8
5
370
    -2
100
AcDbLine
 10
187.2
 20
529.199999999999
 30
0.0
 11
187.2
 21
513.1999999999989
 31
0.0
  0
SOLID
  5
593A
330
501
100
AcDbEntity
  8
5
100
AcDbTrace
 10
186.7833333333334
 20
529.199999999999
 30
0.0
 11
187.6166666666667
 21
529.199999999999
 31
0.0
 12
187.2
 22
531.699999999999
 32
0.0
 13
187.2
 23
531.699999999999
 33
0.0
  0
SOLID
  5
593B
330
501
100
AcDbEntity
  8
5
100
AcDbTrace
 10
186.7833333333334
 20
513.1999999999989
 30
0.0
 11
187.6166666666667
 21
513.1999999999989
 31
0.0
 12
187.2
 22
510.6999999999989
 32
0.0
 13
187.2
 23
510.6999999999989
 33
0.0
  0
MTEXT
  5
593C
330
501
100
AcDbEntity
  8
5
 62
     2
100
AcDbMText
 10
184.85
 20
521.1
 30
0.0
 40
3.5
 41
0.0
 71
     5
 72
     1
  1
21
 11
0.0000000000000001
 21
1.0
 31
0.0
 73
     1
 44
1.0
1001
ACAD
1000
MTEXTBEGIN
1070
    73
1070
     1
1070
    44
1040
1.0
1070
    74
1070
     0
1000
MTEXTEND
  0
POINT
  5
593D
330
501
100
AcDbEntity
  8
Defpoints
 62
     0
100
AcDbPoint
 10
227.7999999999999
 20
531.699999999999
 30
0.0
  0
POINT
  5
593E
330
501
100
AcDbEntity
  8
Defpoints
 62
     0
100
AcDbPoint
 10
243.7289140049903
 20
510.6999999999989
 30
0.0
  0
POINT
  5
593F
330
501
100
AcDbEntity
  8
Defpoints
 62
     0
100
AcDbPoint
 10
187.2
 20
510.6999999999989
 30
0.0
  0
ENDBLK
  5
50C
330
501
100
AcDbEntity
  8
0
100
AcDbBlockEnd
  0
BLOCK
  5
A11
330
A10
100
AcDbEntity
  8
0
100
AcDbBlockBegin
  2
_None
 70
     0
 10
0.0
 20
0.0
 30
0.0
  3
_None
  1

  0
ENDBLK
  5
A12
330
A10
100
AcDbEntity
  8
0
100
AcDbBlockEnd
  0
BLOCK
  5
A4F
330
A4E
100
AcDbEntity
  8
0
100
AcDbBlockBegin
  2
01
 70
     0
 10
0.0
 20
0.0
 30
0.0
  3
01
  1

  0
CIRCLE
  5
A50
330
A4E
100
AcDbEntity
  8
0
100
AcDbCircle
 10
0.0
 20
0.0
 30
0.0
 40
2.5
  0
ENDBLK
  5
A51
330
A4E
100
AcDbEntity
  8
0
100
AcDbBlockEnd
  0
BLOCK
  5
49D1
330
49CF
100
AcDbEntity
  8
0
100
AcDbBlockBegin
  2
GENAXEH
 70
     0
 10
0.0
 20
0.0
 30
0.0
  3
GENAXEH
  1

  0
LINE
  5
49D0
330
49CF
100
AcDbEntity
  8
0
100
AcDbLine
 10
-1.0
 20
0.0
 30
0.0
 11
1.0
 21
0.0
 31
0.0
  0
ENDBLK
  5
49D2
330
49CF
100
AcDbEntity
  8
0
100
AcDbBlockEnd
  0
BLOCK
  5
49E7
330
49E6
100
AcDbEntity
  8
0
100
AcDbBlockBegin
  2
GUSS_A3
 70
     0
 10
0.0
 20
0.0
 30
0.0
  3
GUSS_A3
  1

  0
LINE
  5
49E8
330
49E6
100
AcDbEntity
  8
RAHM2
100
AcDbLine
 10
420.0
 20
297.0
 30
0.0
 11
419.9999999999999
 21
0.0
 31
0.0
  0
LINE
  5
49E9
330
49E6
100
AcDbEntity
  8
RAHM2
100
AcDbLine
 10
230.0
 20
5.00000000000005
 30
0.0
 11
230.0
 21
0.0000000000000233
 31
0.0
  0
LINE
  5
49EA
330
49E6
100
AcDbEntity
  8
RAHM2
100
AcDbLine
 10
157.12
 20
10.00000000000003
 30
0.0
 11
9.999999999999943
 21
10.00000000000005
 31
0.0
  0
TEXT
  5
49EB
330
49E6
100
AcDbEntity
  8
RAHM2
100
AcDbText
 10
411.0
 20
262.0
 30
0.0
 40
4.0
  1
A
100
AcDbText
  0
TEXT
  5
49EC
330
49E6
100
AcDbEntity
  8
RAHM2
100
AcDbText
 10
411.0
 20
216.0
 30
0.0
 40
4.0
  1
B
100
AcDbText
  0
TEXT
  5
49ED
330
49E6
100
AcDbEntity
  8
RAHM2
100
AcDbText
 10
411.0
 20
170.0
 30
0.0
 40
4.0
  1
C
100
AcDbText
  0
TEXT
  5
49EE
330
49E6
100
AcDbEntity
  8
RAHM2
100
AcDbText
 10
411.0
 20
123.0
 30
0.0
 40
4.0
  1
D
100
AcDbText
  0
TEXT
  5
49EF
330
49E6
100
AcDbEntity
  8
RAHM2
100
AcDbText
 10
411.0
 20
77.0
 30
0.0
 40
4.0
  1
E
100
AcDbText
  0
TEXT
  5
49F0
330
49E6
100
AcDbEntity
  8
RAHM2
100
AcDbText
 10
411.0
 20
31.0
 30
0.0
 40
4.0
  1
F
100
AcDbText
  0
LINE
  5
49F1
330
49E6
100
AcDbEntity
  8
RAHM2
100
AcDbLine
 10
415.0
 20
240.83
 30
0.0
 11
410.0
 21
240.83
 31
0.0
  0
LINE
  5
49F2
330
49E6
100
AcDbEntity
  8
RAHM2
100
AcDbLine
 10
415.0
 20
194.664
 30
0.0
 11
410.0
 21
194.664
 31
0.0
  0
LINE
  5
49F3
330
49E6
100
AcDbEntity
  8
RAHM2
100
AcDbLine
 10
415.0
 20
148.498
 30
0.0
 11
410.0
 21
148.498
 31
0.0
  0
LINE
  5
49F4
330
49E6
100
AcDbEntity
  8
RAHM2
100
AcDbLine
 10
415.0
 20
102.332
 30
0.0
 11
410.0
 21
102.332
 31
0.0
  0
LINE
  5
49F5
330
49E6
100
AcDbEntity
  8
RAHM2
100
AcDbLine
 10
415.0
 20
56.166
 30
0.0
 11
410.0
 21
56.166
 31
0.0
  0
LINE
  5
49F6
330
49E6
100
AcDbEntity
  8
RAHM2
100
AcDbLine
 10
60.0
 20
291.9999999999999
 30
0.0
 11
60.0
 21
287.0
 31
0.0
  0
LINE
  5
49F7
330
49E6
100
AcDbEntity
  8
RAHM2
100
AcDbLine
 10
110.0
 20
291.9999999999999
 30
0.0
 11
110.0
 21
287.0
 31
0.0
  0
LINE
  5
49F8
330
49E6
100
AcDbEntity
  8
RAHM2
100
AcDbLine
 10
160.0
 20
291.9999999999999
 30
0.0
 11
160.0
 21
287.0
 31
0.0
  0
LINE
  5
49F9
330
49E6
100
AcDbEntity
  8
RAHM2
100
AcDbLine
 10
210.0
 20
291.9999999999999
 30
0.0
 11
210.0
 21
287.0
 31
0.0
  0
LINE
  5
49FA
330
49E6
100
AcDbEntity
  8
RAHM2
100
AcDbLine
 10
260.0
 20
291.9999999999999
 30
0.0
 11
260.0
 21
287.0
 31
0.0
  0
LINE
  5
49FB
330
49E6
100
AcDbEntity
  8
RAHM2
100
AcDbLine
 10
310.0
 20
291.9999999999999
 30
0.0
 11
310.0
 21
287.0
 31
0.0
  0
LINE
  5
49FC
330
49E6
100
AcDbEntity
  8
RAHM2
100
AcDbLine
 10
360.0
 20
291.9999999999999
 30
0.0
 11
360.0
 21
287.0
 31
0.0
  0
TEXT
  5
49FD
330
49E6
100
AcDbEntity
  8
RAHM2
100
AcDbText
 10
384.0
 20
287.5
 30
0.0
 40
4.0
  1
8
100
AcDbText
  0
TEXT
  5
49FE
330
49E6
100
AcDbEntity
  8
RAHM2
100
AcDbText
 10
334.0
 20
287.5
 30
0.0
 40
4.0
  1
7
100
AcDbText
  0
TEXT
  5
49FF
330
49E6
100
AcDbEntity
  8
RAHM2
100
AcDbText
 10
284.0
 20
287.5
 30
0.0
 40
4.0
  1
6
100
AcDbText
  0
TEXT
  5
4A00
330
49E6
100
AcDbEntity
  8
RAHM2
100
AcDbText
 10
233.5
 20
287.5
 30
0.0
 40
4.0
  1
5
100
AcDbText
  0
TEXT
  5
4A01
330
49E6
100
AcDbEntity
  8
RAHM2
100
AcDbText
 10
183.5
 20
287.5
 30
0.0
 40
4.0
  1
4
100
AcDbText
  0
TEXT
  5
4A02
330
49E6
100
AcDbEntity
  8
RAHM2
100
AcDbText
 10
133.5
 20
287.5
 30
0.0
 40
4.0
  1
3
100
AcDbText
  0
TEXT
  5
4A03
330
49E6
100
AcDbEntity
  8
RAHM2
100
AcDbText
 10
83.49999999999999
 20
287.5
 30
0.0
 40
4.0
  1
2
100
AcDbText
  0
TEXT
  5
4A04
330
49E6
100
AcDbEntity
  8
RAHM2
100
AcDbText
 10
33.5
 20
287.5
 30
0.0
 40
4.0
  1
1
100
AcDbText
  0
TEXT
  5
4A05
330
49E6
100
AcDbEntity
  8
RAHM2
100
AcDbText
 10
33.5
 20
5.5
 30
0.0
 40
4.0
  1
1
100
AcDbText
  0
TEXT
  5
4A06
330
49E6
100
AcDbEntity
  8
RAHM2
100
AcDbText
 10
83.49999999999999
 20
5.5
 30
0.0
 40
4.0
  1
2
100
AcDbText
  0
TEXT
  5
4A07
330
49E6
100
AcDbEntity
  8
RAHM2
100
AcDbText
 10
133.5
 20
5.5
 30
0.0
 40
4.0
  1
3
100
AcDbText
  0
TEXT
  5
4A08
330
49E6
100
AcDbEntity
  8
RAHM2
100
AcDbText
 10
6.0
 20
262.0
 30
0.0
 40
4.0
  1
A
100
AcDbText
  0
TEXT
  5
4A09
330
49E6
100
AcDbEntity
  8
RAHM2
100
AcDbText
 10
6.0
 20
216.0
 30
0.0
 40
4.0
  1
B
100
AcDbText
  0
TEXT
  5
4A0A
330
49E6
100
AcDbEntity
  8
RAHM2
100
AcDbText
 10
6.0
 20
170.0
 30
0.0
 40
4.0
  1
C
100
AcDbText
  0
TEXT
  5
4A0B
330
49E6
100
AcDbEntity
  8
RAHM2
100
AcDbText
 10
6.0
 20
123.0
 30
0.0
 40
4.0
  1
D
100
AcDbText
  0
TEXT
  5
4A0C
330
49E6
100
AcDbEntity
  8
RAHM2
100
AcDbText
 10
6.0
 20
77.0
 30
0.0
 40
4.0
  1
E
100
AcDbText
  0
TEXT
  5
4A0D
330
49E6
100
AcDbEntity
  8
RAHM2
100
AcDbText
 10
6.0
 20
31.0
 30
0.0
 40
4.0
  1
F
100
AcDbText
  0
LINE
  5
4A0E
330
49E6
100
AcDbEntity
  8
RAHM2
100
AcDbLine
 10
110.0
 20
10.0
 30
0.0
 11
110.0
 21
5.0
 31
0.0
  0
LINE
  5
4A0F
330
49E6
100
AcDbEntity
  8
RAHM2
100
AcDbLine
 10
60.0
 20
10.0
 30
0.0
 11
60.0
 21
5.0
 31
0.0
  0
LINE
  5
4A10
330
49E6
100
AcDbEntity
  8
RAHM2
100
AcDbLine
 10
10.0
 20
240.83
 30
0.0
 11
5.0
 21
240.83
 31
0.0
  0
LINE
  5
4A11
330
49E6
100
AcDbEntity
  8
RAHM2
100
AcDbLine
 10
10.0
 20
194.664
 30
0.0
 11
5.0
 21
194.664
 31
0.0
  0
LINE
  5
4A12
330
49E6
100
AcDbEntity
  8
RAHM2
100
AcDbLine
 10
10.0
 20
148.498
 30
0.0
 11
5.0
 21
148.498
 31
0.0
  0
LINE
  5
4A13
330
49E6
100
AcDbEntity
  8
RAHM2
100
AcDbLine
 10
10.0
 20
102.332
 30
0.0
 11
5.0
 21
102.332
 31
0.0
  0
LINE
  5
4A14
330
49E6
100
AcDbEntity
  8
RAHM2
100
AcDbLine
 10
10.0
 20
56.166
 30
0.0
 11
5.0
 21
56.166
 31
0.0
  0
LINE
  5
4A15
330
49E6
100
AcDbEntity
  8
RAHM2
100
AcDbLine
 10
410.0
 20
287.0
 30
0.0
 11
409.9999999999999
 21
5.0
 31
0.0
  0
LINE
  5
4A16
330
49E6
100
AcDbEntity
  8
RAHM2
100
AcDbLine
 10
10.00000000000001
 20
287.0
 30
0.0
 11
410.0
 21
287.0
 31
0.0
  0
LINE
  5
4A17
330
49E6
100
AcDbEntity
  8
RAHM2
100
AcDbLine
 10
10.0
 20
10.0
 30
0.0
 11
10.00000000000001
 21
287.0
 31
0.0
  0
LINE
  5
4A18
330
49E6
100
AcDbEntity
  8
0
100
AcDbLine
 10
414.9999999999999
 20
5.0
 30
0.0
 11
4.999999999999943
 21
5.00000000000005
 31
0.0
  0
LINE
  5
4A19
330
49E6
100
AcDbEntity
  8
0
100
AcDbLine
 10
415.0
 20
292.0
 30
0.0
 11
414.9999999999999
 21
5.0
 31
0.0
  0
LINE
  5
4A1A
330
49E6
100
AcDbEntity
  8
0
100
AcDbLine
 10
5.000000000000017
 20
292.0
 30
0.0
 11
415.0
 21
292.0
 31
0.0
  0
LINE
  5
4A1B
330
49E6
100
AcDbEntity
  8
RAHM2
100
AcDbLine
 10
0.0000000000000182
 20
297.0
 30
0.0
 11
420.0
 21
297.0
 31
0.0
  0
LINE
  5
4A1C
330
49E6
100
AcDbEntity
  8
RAHM2
100
AcDbLine
 10
0.0
 20
0.0
 30
0.0
 11
0.0000000000000182
 21
297.0
 31
0.0
  0
LINE
  5
4A1D
330
49E6
100
AcDbEntity
  8
RAHM2
100
AcDbLine
 10
125.0
 20
0.0000000000000514
 30
0.0
 11
125.0
 21
5.000000000000035
 31
0.0
  0
TEXT
  5
4A1E
330
49E6
100
AcDbEntity
  8
0
 60
     1
100
AcDbText
 10
420.0
 20
297.0
 30
0.0
 40
2.0
  1
!GENTITLE-MAX
100
AcDbText
  0
TEXT
  5
4A1F
330
49E6
100
AcDbEntity
  8
0
 60
     1
100
AcDbText
 10
410.0
 20
287.0
 30
0.0
 40
2.0
  1
!GENTITLE-RU
100
AcDbText
  0
TEXT
  5
4A20
330
49E6
100
AcDbEntity
  8
0
 60
     1
100
AcDbText
 10
409.9999999999999
 20
5.0
 30
0.0
 40
2.0
  1
!GENTITLE-INSERT
100
AcDbText
  0
TEXT
  5
4A21
330
49E6
100
AcDbEntity
  8
0
 60
     1
100
AcDbText
 10
10.0
 20
10.00000000000005
 30
0.0
 40
2.0
  1
!GENTITLE-LL
100
AcDbText
  0
LINE
  5
4A22
330
49E6
100
AcDbEntity
  8
0
100
AcDbLine
 10
5.0
 20
5.0
 30
0.0
 11
5.000000000000017
 21
292.0
 31
0.0
  0
LINE
  5
4A23
330
49E6
100
AcDbEntity
  8
RAHM2
100
AcDbLine
 10
419.9999999999999
 20
0.0
 30
0.0
 11
-0.0000000000000568
 21
0.0000000000000514
 31
0.0
1001
GENIUS_VERSION2
1070
     2
  0
LWPOLYLINE
  5
4A24
330
49E6
100
AcDbEntity
  8
RAHM2
100
AcDbPolyline
 90
        4
 70
     1
 43
0.0
 10
227.1200000000001
 20
5.000000000000031
 10
157.12
 20
5.000000000000031
 10
157.12
 20
13.50000000000003
 10
227.1200000000001
 20
13.50000000000002
1001
GENIUS_GENREC_14
1002
{
1000
PXDIR
1011
157.12
1021
5.000000000000031
1031
0.0
1002
}
1002
{
1000
PORI
1011
227.1200000000001
1021
5.000000000000031
1031
0.0
1002
}
1002
{
1000
PINS
1011
227.1200000000001
1021
5.000000000000031
1031
0.0
1002
}
1002
{
1000
HVAL
1000
8.5
1002
}
1002
{
1000
H
1070
     2
1002
}
1002
{
1000
WVAL
1000
-70
1002
}
1002
{
1000
W
1070
     2
1002
}
1002
{
1000
C
1070
     1
1002
}
1001
GENIUS_GENODEF_13
1002
{
1000
HIER
1070
     0
1002
}
1002
{
1000
MANEDIT
1070
     0
1002
}
1002
{
1000
NOSEL
1070
     0
1002
}
1002
{
1000
BEHIND
1070
     0
1002
}
1002
{
1000
REACTOR
1002
}
1001
GENIUS_GENOBJ-N-REC_13
1002
{
1000
OWNER
1000
GEN
1002
}
  0
MTEXT
  5
4A25
330
49E6
100
AcDbEntity
  8
RAHM2
100
AcDbMText
 10
158.8183525451007
 20
12.32474728438519
 30
0.0
 40
3.5
 41
4.301759591192151
 71
     1
 72
     5
  1
\fArial|b0|i0|c0|p32;©
 73
     1
 44
1.0
1001
ACAD
1000
MTEXTBEGIN
1070
    73
1070
     1
1070
    44
1040
1.0
1070
    74
1070
     0
1000
MTEXTEND
  0
MTEXT
  5
4A26
330
49E6
100
AcDbEntity
  8
RAHM2
100
AcDbMText
 10
165.5515418910248
 20
11.24554815700972
 30
0.0
 40
2.0
 41
5.51747446855813
 71
     1
 72
     5
  1
2001
 73
     1
 44
1.0
1001
ACAD
1000
MTEXTBEGIN
1070
    73
1070
     1
1070
    44
1040
1.0
1070
    74
1070
     0
1000
MTEXTEND
  0
MTEXT
  5
4A27
330
49E6
100
AcDbEntity
  8
RAHM2
100
AcDbMText
 10
200.9022594589521
 20
9.282856166729633
 30
0.0
 40
2.5
 41
51.25
 71
     5
 72
     5
  1
PASSAVANT GUSS GmbH\P\H1.8;Schutzvermerk nach DIN 34
 73
     1
 44
1.0
1001
ACAD
1000
MTEXTBEGIN
1070
    73
1070
     1
1070
    44
1040
1.0
1070
    74
1070
     0
1000
MTEXTEND
  0
ENDBLK
  5
4A28
330
49E6
100
AcDbEntity
  8
0
100
AcDbBlockEnd
  0
BLOCK
  5
4A2A
330
4A29
100
AcDbEntity
  8
0
100
AcDbBlockBegin
  2
GUSS
 70
     2
 10
0.0
 20
0.0
 30
0.0
  3
GUSS
  1

  0
ATTDEF
  5
4A2B
330
4A29
100
AcDbEntity
  8
RAHM2
100
AcDbText
 10
-111.76
 20
30.47499999999984
 30
0.0
 40
2.500000000000367
  1

 41
0.9
 72
     1
 11
-111.76
 21
31.72500000000002
 31
0.0
100
AcDbAttributeDefinition
  3
Bearbeiterdatum
  2
CRDA
 70
     0
 74
     2
  0
ATTDEF
  5
4A2C
330
4A29
100
AcDbEntity
  8
RAHM2
100
AcDbText
 10
-95.24999999999998
 20
30.47499999999984
 30
0.0
 40
2.500000000000367
  1

 41
0.8
 72
     1
 11
-95.24999999999998
 21
31.72500000000002
 31
0.0
100
AcDbAttributeDefinition
  3
Bearbeitername
  2
CRNA
 70
     0
 74
     2
  0
ATTDEF
  5
4A2D
330
4A29
100
AcDbEntity
  8
RAHM5
100
AcDbText
 10
-85.0
 20
26.50208258201252
 30
0.0
 40
5.00000000000049
  1

 41
0.7
100
AcDbAttributeDefinition
  3
Benenn1
  2
DES1
 70
     0
  0
ATTDEF
  5
4A2E
330
4A29
100
AcDbEntity
  8
RAHM3
100
AcDbText
 10
-85.0
 20
18.99958139598453
 30
0.0
 40
5.0
  1

 41
0.7
100
AcDbAttributeDefinition
  3
Benenn2
  2
DES2
 70
     0
  0
ATTDEF
  5
4A2F
330
4A29
100
AcDbEntity
  8
RAHM5
100
AcDbText
 10
-29.77732432370673
 20
6.239436680117933
 30
0.0
 40
5.000000000000735
  1
-
 41
1.3
  7
STIL1
 72
     2
 11
-24.90232432370601
 21
6.239436680117933
 31
0.0
100
AcDbAttributeDefinition
  3
Zeichnungsnummer
  2
IDNR
 70
     0
  0
LINE
  5
4A30
330
4A29
100
AcDbEntity
  8
RAHM2
100
AcDbLine
 10
-50.80000000000001
 20
54.99000000000006
 30
0.0
 11
-50.80000000000001
 21
48.66000000000008
 31
0.0
  0
LINE
  5
4A31
330
4A29
100
AcDbEntity
  8
RAHM2
100
AcDbLine
 10
-10.15999999999997
 20
8.460000000000036
 30
0.0
 11
0.0
 21
8.460000000000022
 31
0.0
  0
LINE
  5
4A32
330
4A29
100
AcDbEntity
  8
RAHM2
100
AcDbLine
 10
-10.15999999999999
 20
54.99000000000001
 30
0.0
 11
-10.16
 21
0.0
 31
0.0
  0
LINE
  5
4A33
330
4A29
100
AcDbEntity
  8
RAHM2
100
AcDbLine
 10
-182.88
 20
33.84000000000003
 30
0.0
 11
-86.35999999999999
 21
33.84000000000003
 31
0.0
  0
LINE
  5
4A34
330
4A29
100
AcDbEntity
  8
RAHM2
100
AcDbLine
 10
-182.88
 20
29.61000000000002
 30
0.0
 11
-86.35999999999999
 21
29.61000000000002
 31
0.0
  0
LINE
  5
4A35
330
4A29
100
AcDbEntity
  8
RAHM2
100
AcDbLine
 10
-129.54
 20
21.15000000000003
 30
0.0
 11
-86.35999999999999
 21
21.15000000000003
 31
0.0
  0
LINE
  5
4A36
330
4A29
100
AcDbEntity
  8
RAHM3
100
AcDbLine
 10
-129.54
 20
21.15000000000003
 30
0.0
 11
-129.54
 21
0.0
 31
0.0
  0
LINE
  5
4A37
330
4A29
100
AcDbEntity
  8
RAHM2
100
AcDbLine
 10
-182.88
 20
25.38000000000002
 30
0.0
 11
-86.35999999999999
 21
25.38000000000002
 31
0.0
  0
LINE
  5
4A38
330
4A29
100
AcDbEntity
  8
RAHM2
100
AcDbLine
 10
-182.88
 20
8.460000000000022
 30
0.0
 11
-129.54
 21
8.460000000000036
 31
0.0
  0
LINE
  5
4A39
330
4A29
100
AcDbEntity
  8
RAHM2
100
AcDbLine
 10
-182.88
 20
21.15000000000003
 30
0.0
 11
-129.54
 21
21.15000000000003
 31
0.0
  0
LINE
  5
4A3A
330
4A29
100
AcDbEntity
  8
RAHM2
100
AcDbLine
 10
-182.88
 20
16.92000000000001
 30
0.0
 11
-129.54
 21
16.92000000000003
 31
0.0
  0
LINE
  5
4A3B
330
4A29
100
AcDbEntity
  8
RAHM2
100
AcDbLine
 10
-182.88
 20
12.69000000000003
 30
0.0
 11
-129.54
 21
12.69000000000004
 31
0.0
  0
LINE
  5
4A3C
330
4A29
100
AcDbEntity
  8
RAHM2
100
AcDbLine
 10
-156.21
 20
38.07000000000004
 30
0.0
 11
-156.21
 21
0.0000000000000142
 31
0.0
  0
LINE
  5
4A3D
330
4A29
100
AcDbEntity
  8
RAHM2
100
AcDbLine
 10
-175.26
 20
38.07000000000002
 30
0.0
 11
-175.26
 21
0.0
 31
0.0
  0
LINE
  5
4A3E
330
4A29
100
AcDbEntity
  8
RAHM2
100
AcDbLine
 10
-119.38
 20
38.07000000000002
 30
0.0
 11
-119.3799999999999
 21
21.15000000000003
 31
0.0
  0
LINE
  5
4A3F
330
4A29
100
AcDbEntity
  8
RAHM3
100
AcDbLine
 10
-129.54
 20
54.99000000000006
 30
0.0
 11
-129.54
 21
21.15000000000003
 31
0.0
  0
LINE
  5
4A40
330
4A29
100
AcDbEntity
  8
RAHM2
100
AcDbLine
 10
-104.14
 20
54.99000000000006
 30
0.0
 11
-104.14
 21
16.92000000000003
 31
0.0
  0
LINE
  5
4A41
330
4A29
100
AcDbEntity
  8
RAHM3
100
AcDbLine
 10
-86.35999999999999
 20
54.99000000000006
 30
0.0
 11
-86.35999999999999
 21
0.0
 31
0.0
  0
LINE
  5
4A42
330
4A29
100
AcDbEntity
  8
RAHM2
100
AcDbLine
 10
-182.88
 20
4.230000000000018
 30
0.0
 11
0.0
 21
4.230000000000018
 31
0.0
  0
POLYLINE
  5
4A43
330
4A29
100
AcDbEntity
  8
0
100
AcDb2dPolyline
 66
     1
 10
0.0
 20
0.0
 30
0.0
 70
     1
  0
VERTEX
  5
4A44
330
4A43
100
AcDbEntity
  8
0
100
AcDbVertex
100
AcDb2dVertex
 10
-182.88
 20
0.0
 30
0.0
  0
VERTEX
  5
4A45
330
4A43
100
AcDbEntity
  8
0
100
AcDbVertex
100
AcDb2dVertex
 10
0.0
 20
0.0
 30
0.0
  0
VERTEX
  5
4A46
330
4A43
100
AcDbEntity
  8
0
100
AcDbVertex
100
AcDb2dVertex
 10
0.0
 20
54.99000000000001
 30
0.0
  0
VERTEX
  5
4A47
330
4A43
100
AcDbEntity
  8
0
100
AcDbVertex
100
AcDb2dVertex
 10
-182.88
 20
54.99000000000004
 30
0.0
  0
SEQEND
  5
4A48
330
4A43
100
AcDbEntity
  8
0
  0
LINE
  5
4A49
330
4A29
100
AcDbEntity
  8
RAHM3
100
AcDbLine
 10
-129.54
 20
16.92000000000003
 30
0.0
 11
0.0
 21
16.92000000000003
 31
0.0
  0
LINE
  5
4A4A
330
4A29
100
AcDbEntity
  8
RAHM3
100
AcDbLine
 10
-182.88
 20
38.07000000000002
 30
0.0
 11
-10.16000000000002
 21
38.07000000000002
 31
0.0
  0
LINE
  5
4A4B
330
4A29
100
AcDbEntity
  8
RAHM2
100
AcDbLine
 10
-86.35999999999999
 20
48.66000000000008
 30
0.0
 11
0.0
 21
48.66000000000005
 31
0.0
  0
MTEXT
  5
4A4C
330
4A29
100
AcDbEntity
  8
0
100
AcDbMText
 10
-108.0273898520486
 20
15.32059257944939
 30
0.0
 40
2.0
 41
43.18
 71
     2
 72
     5
  1
\fBankGothic Md BT|b0|i0|c0|p34;PASSAVANT GUSS
 73
     1
 44
1.0
1001
ACAD
1000
MTEXTBEGIN
1070
    73
1070
     1
1070
    44
1040
1.0
1070
    74
1070
     0
1000
MTEXTEND
  0
MTEXT
  5
4A4D
330
4A29
100
AcDbEntity
  8
0
100
AcDbMText
 10
-107.95
 20
11.06973231467286
 30
0.0
 40
2.5
 41
43.18
 71
     2
 72
     5
  1
PASSAVANT GUSS GmbH
 73
     1
 44
1.0
1001
ACAD
1000
MTEXTBEGIN
1070
    73
1070
     1
1070
    44
1040
1.0
1070
    74
1070
     0
1000
MTEXTEND
  0
MTEXT
  5
4A4E
330
4A29
100
AcDbEntity
  8
0
100
AcDbMText
 10
-107.95
 20
7.593894934984106
 30
0.0
 40
2.5
 41
43.18
 71
     2
 72
     5
  1
65322 Aarbergen
 73
     1
 44
1.0
1001
ACAD
1000
MTEXTBEGIN
1070
    73
1070
     1
1070
    44
1040
1.0
1070
    74
1070
     0
1000
MTEXTEND
  0
MTEXT
  5
4A4F
330
4A29
100
AcDbEntity
  8
RAHM2
100
AcDbMText
 10
-181.4767878194093
 20
54.17857627136107
 30
0.0
 40
2.399999999999999
 41
24.57
 71
     1
 72
     5
  1
Maße in (...)\Pgelten nicht\Pfür die\PFertigung
 73
     1
 44
1.0
1001
ACAD
1000
MTEXTBEGIN
1070
    73
1070
     1
1070
    44
1040
1.0
1070
    74
1070
     0
1000
MTEXTEND
  0
LINE
  5
4A50
330
4A29
100
AcDbEntity
  8
RAHM2
100
AcDbLine
 10
-156.21
 20
38.07000000000004
 30
0.0
 11
-156.21
 21
54.99000000000003
 31
0.0
  0
MTEXT
  5
4A51
330
4A29
100
AcDbEntity
  8
RAHM2
100
AcDbMText
 10
-154.8067878194093
 20
54.17857627136106
 30
0.0
 40
2.399999999999999
 41
24.57
 71
     1
 72
     5
  1
Werkstück-\PKanten\Pnach PW\P0-200.750
 73
     1
 44
1.0
1001
ACAD
1000
MTEXTBEGIN
1070
    73
1070
     1
1070
    44
1040
1.0
1070
    74
1070
     0
1000
MTEXTEND
  0
MTEXT
  5
4A52
330
4A29
100
AcDbEntity
  8
RAHM2
100
AcDbMText
 10
-128.1367878194093
 20
54.17857627136109
 30
0.0
 40
2.399999999999999
 41
22.38289646142594
 71
     1
 72
     5
  1
Zul. Abw.\Pnach PW\P0-200.680
 73
     1
 44
1.0
1001
ACAD
1000
MTEXTBEGIN
1070
    73
1070
     1
1070
    44
1040
1.0
1070
    74
1070
     0
1000
MTEXTEND
  0
MTEXT
  5
4A53
330
4A29
100
AcDbEntity
  8
RAHM2
100
AcDbMText
 10
-102.7367878194093
 20
54.17857627136109
 30
0.0
 40
2.2
 41
15.94221488455651
 71
     1
 72
     5
  1
Oberflächen\P\H2.4;DIN ISO\P1302
 73
     1
 44
1.0
1001
ACAD
1000
MTEXTBEGIN
1070
    73
1070
     1
1070
    44
1040
1.0
1070
    74
1070
     0
1000
MTEXTEND
  0
MTEXT
  5
4A54
330
4A29
100
AcDbEntity
  8
RAHM2
100
AcDbMText
 10
-84.91456038966111
 20
51.82500000000008
 30
0.0
 40
2.0
 41
11.21910417767216
 71
     4
 72
     5
  1
Maßstab
 73
     1
 44
1.0
1001
ACAD
1000
MTEXTBEGIN
1070
    73
1070
     1
1070
    44
1040
1.0
1070
    74
1070
     0
1000
MTEXTEND
  0
MTEXT
  5
4A55
330
4A29
100
AcDbEntity
  8
RAHM2
100
AcDbMText
 10
-49.35456038966115
 20
51.82500000000006
 30
0.0
 40
2.0
 41
11.21910417767216
 71
     4
 72
     5
  1
Gewicht
 73
     1
 44
1.0
1001
ACAD
1000
MTEXTBEGIN
1070
    73
1070
     1
1070
    44
1040
1.0
1070
    74
1070
     0
1000
MTEXTEND
  0
MTEXT
  5
4A56
330
4A29
100
AcDbEntity
  8
RAHM2
100
AcDbMText
 10
-85.14759485471325
 20
35.61334508310381
 30
0.0
 40
2.0
 41
11.91257244082952
 71
     4
 72
     5
  1
Benennung
 73
     1
 44
1.0
1001
ACAD
1000
MTEXTBEGIN
1070
    73
1070
     1
1070
    44
1040
1.0
1070
    74
1070
     0
1000
MTEXTEND
  0
ATTDEF
  5
4A57
330
4A29
100
AcDbEntity
  8
RAHM2
100
AcDbText
 10
-111.7599999999999
 20
26.24499999999982
 30
0.0
 40
2.500000000000367
  1

 41
0.9
 72
     1
 11
-111.7599999999999
 21
27.49500000000001
 31
0.0
100
AcDbAttributeDefinition
  3
Prüfdatum
  2
INDA
 70
     0
 74
     2
  0
ATTDEF
  5
4A58
330
4A29
100
AcDbEntity
  8
RAHM2
100
AcDbText
 10
-95.24999999999998
 20
26.24499999999982
 30
0.0
 40
2.500000000000367
  1

 41
0.8
 72
     1
 11
-95.24999999999998
 21
27.49500000000001
 31
0.0
100
AcDbAttributeDefinition
  3
Prüfname
  2
INNA
 70
     0
 74
     2
  0
MTEXT
  5
4A59
330
4A29
100
AcDbEntity
  8
RAHM2
100
AcDbMText
 10
-116.0330976821806
 20
35.95500000000003
 30
0.0
 40
2.0
 41
7.499471710434931
 71
     4
 72
     5
  1
Datum
 73
     1
 44
1.0
1001
ACAD
1000
MTEXTBEGIN
1070
    73
1070
     1
1070
    44
1040
1.0
1070
    74
1070
     0
1000
MTEXTEND
  0
MTEXT
  5
4A5A
330
4A29
100
AcDbEntity
  8
RAHM2
100
AcDbMText
 10
-98.97179931943435
 20
35.95500000000003
 30
0.0
 40
2.0
 41
7.624463545517301
 71
     4
 72
     5
  1
Name
 73
     1
 44
1.0
1001
ACAD
1000
MTEXTBEGIN
1070
    73
1070
     1
1070
    44
1040
1.0
1070
    74
1070
     0
1000
MTEXTEND
  0
MTEXT
  5
4A5B
330
4A29
100
AcDbEntity
  8
RAHM2
100
AcDbMText
 10
-128.817912928504
 20
31.72500000000004
 30
0.0
 40
2.0
 41
11.21910417767216
 71
     4
 72
     5
  1
Gez.:
 73
     1
 44
1.0
1001
ACAD
1000
MTEXTBEGIN
1070
    73
1070
     1
1070
    44
1040
1.0
1070
    74
1070
     0
1000
MTEXTEND
  0
MTEXT
  5
4A5C
330
4A29
100
AcDbEntity
  8
RAHM2
100
AcDbMText
 10
-128.817912928504
 20
27.49500000000002
 30
0.0
 40
2.0
 41
11.21910417767216
 71
     4
 72
     5
  1
Gepr.:
 73
     1
 44
1.0
1001
ACAD
1000
MTEXTBEGIN
1070
    73
1070
     1
1070
    44
1040
1.0
1070
    74
1070
     0
1000
MTEXTEND
  0
MTEXT
  5
4A5D
330
4A29
100
AcDbEntity
  8
RAHM2
100
AcDbMText
 10
-128.817912928504
 20
23.26500000000003
 30
0.0
 40
2.0
 41
11.21910417767216
 71
     4
 72
     5
  1
Norm:
 73
     1
 44
1.0
1001
ACAD
1000
MTEXTBEGIN
1070
    73
1070
     1
1070
    44
1040
1.0
1070
    74
1070
     0
1000
MTEXTEND
  0
ATTDEF
  5
4A5E
330
4A29
100
AcDbEntity
  8
RAHM3
100
AcDbText
 10
-29.31453274468528
 20
50.40908037512628
 30
0.0
 40
3.0
  1
-
 41
0.8
 72
     1
 11
-28.51453274468528
 21
50.40908037512628
 31
0.0
100
AcDbAttributeDefinition
  3
Gewicht
  2
GEWICHT
 70
     0
  0
MTEXT
  5
4A5F
330
4A29
100
AcDbEntity
  8
RAHM2
100
AcDbMText
 10
-84.77897137392389
 20
45.83838764368829
 30
0.0
 40
2.0
 41
11.22
 71
     4
 72
     5
  1
Werkstoff
 73
     1
 44
1.0
1001
ACAD
1000
MTEXTBEGIN
1070
    73
1070
     1
1070
    44
1040
1.0
1070
    74
1070
     0
1000
MTEXTEND
  0
ATTDEF
  5
4A60
330
4A29
100
AcDbEntity
  8
RAHM3
100
AcDbText
 10
-62.67498919895991
 20
44.32065763438527
 30
0.0
 40
3.0
  1
-
 41
0.8
100
AcDbAttributeDefinition
  3
Werkstoff
  2
WERKSTOFF
 70
     0
  0
MTEXT
  5
4A61
330
4A29
100
AcDbEntity
  8
RAHM2
100
AcDbMText
 10
-85.14759485471326
 20
14.46334508310382
 30
0.0
 40
2.0
 41
11.91257244082952
 71
     4
 72
     5
  1
Zeichnungsnummer
 73
     1
 44
1.0
1001
ACAD
1000
MTEXTBEGIN
1070
    73
1070
     1
1070
    44
1040
1.0
1070
    74
1070
     0
1000
MTEXTEND
  0
LINE
  5
4A62
330
4A29
100
AcDbEntity
  8
RAHM3
100
AcDbLine
 10
-23.16
 20
16.92000000000003
 30
0.0
 11
-23.16
 21
4.230000000000018
 31
0.0
  0
LINE
  5
4A63
330
4A29
100
AcDbEntity
  8
RAHM2
100
AcDbLine
 10
-44.15999999999999
 20
4.230000000000018
 30
0.0
 11
-44.15999999999999
 21
0.0
 31
0.0
  0
MTEXT
  5
4A64
330
4A29
100
AcDbEntity
  8
RAHM2
100
AcDbMText
 10
-21.94759485471327
 20
14.46334508310382
 30
0.0
 40
2.0
 41
11.91257244082952
 71
     4
 72
     5
  1
Sprache
 73
     1
 44
1.0
1001
ACAD
1000
MTEXTBEGIN
1070
    73
1070
     1
1070
    44
1040
1.0
1070
    74
1070
     0
1000
MTEXTEND
  0
ATTDEF
  5
4A65
330
4A29
100
AcDbEntity
  8
RAHM3
100
AcDbText
 10
-17.45999999999999
 20
7.301001410493938
 30
0.0
 40
3.0
  1
-
 41
0.8
 72
     1
 11
-16.65999999999999
 21
7.301001410493938
 31
0.0
100
AcDbAttributeDefinition
  3
Sprache
  2
LANG
 70
     0
  0
MTEXT
  5
4A66
330
4A29
100
AcDbEntity
  8
RAHM2
100
AcDbMText
 10
-5.079999999999995
 20
51.82500000000003
 30
0.0
 40
1.8
 41
11.29
 71
     5
 72
     5
  1
weitere\PSprachen
 73
     1
 44
1.0
1001
ACAD
1000
MTEXTBEGIN
1070
    73
1070
     1
1070
    44
1040
1.0
1070
    74
1070
     0
1000
MTEXTEND
  0
LINE
  5
4A67
330
4A29
100
AcDbEntity
  8
RAHM3
100
AcDbLine
 10
-10.16000000000002
 20
38.07000000000002
 30
0.0
 11
0.0
 21
38.07000000000002
 31
0.0
  0
LINE
  5
4A68
330
4A29
100
AcDbEntity
  8
RAHM3
100
AcDbLine
 10
-10.16000000000002
 20
32.78300000000002
 30
0.0
 11
0.0
 21
32.78300000000002
 31
0.0
  0
LINE
  5
4A69
330
4A29
100
AcDbEntity
  8
RAHM3
100
AcDbLine
 10
-10.16000000000002
 20
27.49300000000002
 30
0.0
 11
0.0
 21
27.49300000000002
 31
0.0
  0
LINE
  5
4A6A
330
4A29
100
AcDbEntity
  8
RAHM3
100
AcDbLine
 10
-10.16000000000002
 20
22.20300000000003
 30
0.0
 11
0.0
 21
22.20300000000003
 31
0.0
  0
LINE
  5
4A6B
330
4A29
100
AcDbEntity
  8
RAHM3
100
AcDbLine
 10
-10.16000000000002
 20
43.36000000000002
 30
0.0
 11
0.0
 21
43.36000000000002
 31
0.0
  0
LINE
  5
4A6C
330
4A29
100
AcDbEntity
  8
RAHM2
100
AcDbLine
 10
-5.080000000000012
 20
43.36000000000002
 30
0.0
 11
-5.080000000000012
 21
16.92000000000003
 31
0.0
  0
MTEXT
  5
4A6D
330
4A29
100
AcDbEntity
  8
RAHM2
100
AcDbMText
 10
-7.856144535752036
 20
14.61821708041282
 30
0.0
 40
2.0
 41
5.723485139280796
 71
     4
 72
     5
  1
Blatt
 73
     1
 44
1.0
1001
ACAD
1000
MTEXTBEGIN
1070
    73
1070
     1
1070
    44
1040
1.0
1070
    74
1070
     0
1000
MTEXTEND
  0
ATTDEF
  5
4A6E
330
4A29
100
AcDbEntity
  8
RAHM3
100
AcDbText
 10
-5.879999999999998
 20
9.238696270187517
 30
0.0
 40
3.0
  1
-
 41
0.8
 72
     1
 11
-5.079999999999998
 21
9.238696270187517
 31
0.0
100
AcDbAttributeDefinition
  3
Blatt
  2
SHNR
 70
     0
  0
MTEXT
  5
4A6F
330
4A29
100
AcDbEntity
  8
RAHM2
100
AcDbMText
 10
-9.746833214585421
 20
6.154926572906106
 30
0.0
 40
2.0
 41
4.600541847406361
 71
     4
 72
     5
  1
v.Bl.
 73
     1
 44
1.0
1001
ACAD
1000
MTEXTBEGIN
1070
    73
1070
     1
1070
    44
1040
1.0
1070
    74
1070
     0
1000
MTEXTEND
  0
ATTDEF
  5
4A70
330
4A29
100
AcDbEntity
  8
RAHM2
100
AcDbText
 10
-3.491179933904559
 20
5.0457767515923
 30
0.0
 40
2.500000000000367
  1
1
 41
0.9
 72
     1
 11
-3.116179933904504
 21
6.295776751592484
 31
0.0
100
AcDbAttributeDefinition
  3
von Blatt
  2
VONBLATT
 70
     0
 74
     2
  0
MTEXT
  5
4A71
330
4A29
100
AcDbEntity
  8
RAHM2
100
AcDbMText
 10
-182.157912928504
 20
2.115000000000023
 30
0.0
 40
2.0
 41
11.21910417767216
 71
     4
 72
     5
  1
Zust.
 73
     1
 44
1.0
1001
ACAD
1000
MTEXTBEGIN
1070
    73
1070
     1
1070
    44
1040
1.0
1070
    74
1070
     0
1000
MTEXTEND
  0
MTEXT
  5
4A72
330
4A29
100
AcDbEntity
  8
RAHM2
100
AcDbMText
 10
-174.537912928504
 20
2.115000000000023
 30
0.0
 40
2.0
 41
11.21910417767216
 71
     4
 72
     5
  1
Änderung
 73
     1
 44
1.0
1001
ACAD
1000
MTEXTBEGIN
1070
    73
1070
     1
1070
    44
1040
1.0
1070
    74
1070
     0
1000
MTEXTEND
  0
LINE
  5
4A73
330
4A29
100
AcDbEntity
  8
RAHM2
100
AcDbLine
 10
-142.875
 20
38.07000000000003
 30
0.0
 11
-142.875
 21
0.0
 31
0.0
  0
LINE
  5
4A74
330
4A29
100
AcDbEntity
  8
RAHM2
100
AcDbLine
 10
-136.2075
 20
38.07000000000004
 30
0.0
 11
-136.2075
 21
0.0
 31
0.0
  0
MTEXT
  5
4A75
330
4A29
100
AcDbEntity
  8
RAHM2
100
AcDbMText
 10
-155.487912928504
 20
2.115000000000023
 30
0.0
 40
2.0
 41
11.21910417767216
 71
     4
 72
     5
  1
Datum
 73
     1
 44
1.0
1001
ACAD
1000
MTEXTBEGIN
1070
    73
1070
     1
1070
    44
1040
1.0
1070
    74
1070
     0
1000
MTEXTEND
  0
MTEXT
  5
4A76
330
4A29
100
AcDbEntity
  8
RAHM2
100
AcDbMText
 10
-142.152912928504
 20
2.115000000000023
 30
0.0
 40
2.0
 41
11.21910417767216
 71
     4
 72
     5
  1
Name
 73
     1
 44
1.0
1001
ACAD
1000
MTEXTBEGIN
1070
    73
1070
     1
1070
    44
1040
1.0
1070
    74
1070
     0
1000
MTEXTEND
  0
MTEXT
  5
4A77
330
4A29
100
AcDbEntity
  8
RAHM2
100
AcDbMText
 10
-135.485412928504
 20
2.115000000000023
 30
0.0
 40
2.0
 41
11.21910417767216
 71
     4
 72
     5
  1
Norm
 73
     1
 44
1.0
1001
ACAD
1000
MTEXTBEGIN
1070
    73
1070
     1
1070
    44
1040
1.0
1070
    74
1070
     0
1000
MTEXTEND
  0
MTEXT
  5
4A78
330
4A29
100
AcDbEntity
  8
RAHM2
100
AcDbMText
 10
-128.817912928504
 20
2.115000000000023
 30
0.0
 40
2.0
 41
11.21910417767216
 71
     4
 72
     5
  1
Urspr.
 73
     1
 44
1.0
1001
ACAD
1000
MTEXTBEGIN
1070
    73
1070
     1
1070
    44
1040
1.0
1070
    74
1070
     0
1000
MTEXTEND
  0
ATTDEF
  5
4A79
330
4A29
100
AcDbEntity
  8
RAHM2
100
AcDbText
 10
-120.3690329675373
 20
1.055184394999855
 30
0.0
 40
2.500000000000367
  1

 41
0.9
100
AcDbAttributeDefinition
  3
Ursprung
  2
URSPRUNG
 70
     0
  0
MTEXT
  5
4A7A
330
4A29
100
AcDbEntity
  8
RAHM2
100
AcDbMText
 10
-85.63791292850398
 20
2.115000000000023
 30
0.0
 40
2.0
 41
11.21910417767216
 71
     4
 72
     5
  1
Ers. f.
 73
     1
 44
1.0
1001
ACAD
1000
MTEXTBEGIN
1070
    73
1070
     1
1070
    44
1040
1.0
1070
    74
1070
     0
1000
MTEXTEND
  0
MTEXT
  5
4A7B
330
4A29
100
AcDbEntity
  8
RAHM2
100
AcDbMText
 10
-43.437912928504
 20
2.115000000000023
 30
0.0
 40
2.0
 41
11.21910417767216
 71
     4
 72
     5
  1
Ers. d.
 73
     1
 44
1.0
1001
ACAD
1000
MTEXTBEGIN
1070
    73
1070
     1
1070
    44
1040
1.0
1070
    74
1070
     0
1000
MTEXTEND
  0
ATTDEF
  5
4A7C
330
4A29
100
AcDbEntity
  8
RAHM2
100
AcDbText
 10
-77.18903296753727
 20
1.055184394999855
 30
0.0
 40
2.500000000000367
  1

 41
0.9
100
AcDbAttributeDefinition
  3
Ersatz
  2
ERSATZ
 70
     0
  0
ATTDEF
  5
4A7D
330
4A29
100
AcDbEntity
  8
RAHM2
100
AcDbText
 10
-34.9890329675373
 20
1.055184394999855
 30
0.0
 40
2.500000000000367
  1

 41
0.9
100
AcDbAttributeDefinition
  3
Ersetzt
  2
ERSETZT
 70
     0
  0
POINT
  5
4A7E
330
4A29
100
AcDbEntity
  8
0
100
AcDbPoint
 10
-37.24914111943679
 20
6.05830421643111
 30
0.0
  0
POINT
  5
4A7F
330
4A29
100
AcDbEntity
  8
0
100
AcDbPoint
 10
-51.78577208710669
 20
6.05830421643111
 30
0.0
  0
ATTDEF
  5
4A80
330
4A29
100
AcDbEntity
  8
RAHM3
100
AcDbText
 10
-64.80041433486502
 20
50.40908037512629
 30
0.0
 40
3.0
  1
-
 72
     1
 11
-63.80041433486502
 21
50.40908037512629
 31
0.0
100
AcDbAttributeDefinition
  3
Maßstab
  2
GEN-TITLE-SCA{5.42}
 70
     0
1001
GENIUS_GENTRA_14
1002
{
1070
     3
1000
GENTRAPR,%s,(GENMSG gendwg 83)
1000
Maßstab
1000
d
1070
     0
1002
}
  0
ATTDEF
  5
4A81
330
4A29
100
AcDbEntity
  8
RAHM2
100
AcDbText
 10
-95.24999999999998
 20
22.01499999999983
 30
0.0
 40
2.500000000000367
  1

 41
0.8
 72
     1
 11
-95.24999999999998
 21
23.26500000000002
 31
0.0
100
AcDbAttributeDefinition
  3
Normname
  2
RENA
 70
     0
 74
     2
  0
ATTDEF
  5
4A82
330
4A29
100
AcDbEntity
  8
RAHM2
100
AcDbText
 10
-111.7599999999999
 20
22.01499999999983
 30
0.0
 40
2.500000000000367
  1

 41
0.8
 72
     1
 11
-111.7599999999999
 21
23.26500000000002
 31
0.0
100
AcDbAttributeDefinition
  3
Normdatum
  2
REDA
 70
     0
 74
     2
  0
MTEXT
  5
4A83
330
4A29
100
AcDbEntity
  8
RAHM2
100
AcDbMText
 10
-84.77897137392389
 20
41.01265116342552
 30
0.0
 40
2.0
 41
11.22
 71
     4
 72
     5
  1
Rohteil-Nr.
 73
     1
 44
1.0
1001
ACAD
1000
MTEXTBEGIN
1070
    73
1070
     1
1070
    44
1040
1.0
1070
    74
1070
     0
1000
MTEXTEND
  0
ATTDEF
  5
4A84
330
4A29
100
AcDbEntity
  8
RAHM3
100
AcDbText
 10
-62.67498919895991
 20
39.50985543043567
 30
0.0
 40
3.0
  1
-
 41
0.8
100
AcDbAttributeDefinition
  3
Rohteil-Nr.
  2
ROHTEILNR
 70
     0
  0
ENDBLK
  5
4A85
330
4A29
100
AcDbEntity
  8
0
100
AcDbBlockEnd
  0
BLOCK
  5
56D1
330
56C7
100
AcDbEntity
  8
0
100
AcDbBlockBegin
  2
*D10
 70
     1
 10
0.0
 20
0.0
 30
0.0
  3
*D10
  1

  0
LINE
  5
5949
330
56C7
100
AcDbEntity
  8
5
370
    -2
100
AcDbLine
 10
236.8000000000001
 20
530.7306938310913
 30
0.0
 11
202.4000000000001
 21
530.7306938310913
 31
0.0
  0
LINE
  5
594A
330
56C7
100
AcDbEntity
  8
5
370
    -2
100
AcDbLine
 10
242.8000000000001
 20
510.7328750101102
 30
0.0
 11
202.4000000000001
 21
510.7328750101102
 31
0.0
  0
LINE
  5
594B
330
56C7
100
AcDbEntity
  8
5
370
    -2
100
AcDbLine
 10
203.4000000000001
 20
528.2306938310913
 30
0.0
 11
203.4000000000001
 21
513.2328750101103
 31
0.0
  0
SOLID
  5
594C
330
56C7
100
AcDbEntity
  8
5
100
AcDbTrace
 10
202.9833333333334
 20
528.2306938310913
 30
0.0
 11
203.8166666666668
 21
528.2306938310913
 31
0.0
 12
203.4000000000001
 22
530.7306938310913
 32
0.0
 13
203.4000000000001
 23
530.7306938310913
 33
0.0
  0
SOLID
  5
594D
330
56C7
100
AcDbEntity
  8
5
100
AcDbTrace
 10
202.9833333333334
 20
513.2328750101103
 30
0.0
 11
203.8166666666668
 21
513.2328750101103
 31
0.0
 12
203.4000000000001
 22
510.7328750101102
 32
0.0
 13
203.4000000000001
 23
510.7328750101102
 33
0.0
  0
MTEXT
  5
594E
330
56C7
100
AcDbEntity
  8
5
 62
     2
100
AcDbMText
 10
201.05
 20
523.5
 30
0.0
 40
3.5
 41
0.0
 71
     5
 72
     1
  1
20
 11
0.0000000000000001
 21
1.0
 31
0.0
 73
     1
 44
1.0
1001
ACAD
1000
MTEXTBEGIN
1070
    73
1070
     1
1070
    44
1040
1.0
1070
    74
1070
     0
1000
MTEXTEND
  0
POINT
  5
594F
330
56C7
100
AcDbEntity
  8
Defpoints
 62
     0
100
AcDbPoint
 10
237.8000000000001
 20
530.7306938310913
 30
0.0
  0
POINT
  5
5950
330
56C7
100
AcDbEntity
  8
Defpoints
 62
     0
100
AcDbPoint
 10
243.8000000000001
 20
510.7328750101102
 30
0.0
  0
POINT
  5
5951
330
56C7
100
AcDbEntity
  8
Defpoints
 62
     0
100
AcDbPoint
 10
203.4000000000001
 20
510.7328750101102
 30
0.0
  0
ENDBLK
  5
56D2
330
56C7
100
AcDbEntity
  8
0
100
AcDbBlockEnd
  0
BLOCK
  5
56DD
330
56D3
100
AcDbEntity
  8
0
100
AcDbBlockBegin
  2
*D11
 70
     1
 10
0.0
 20
0.0
 30
0.0
  3
*D11
  1

  0
LINE
  5
595B
330
56D3
100
AcDbEntity
  8
5
370
    -2
100
AcDbLine
 10
236.8000000000001
 20
530.7306938310913
 30
0.0
 11
213.2000000000001
 21
530.7306938310913
 31
0.0
  0
LINE
  5
595C
330
56D3
100
AcDbEntity
  8
5
370
    -2
100
AcDbLine
 10
338.7999999999997
 20
520.7306938310913
 30
0.0
 11
213.2000000000001
 21
520.7306938310914
 31
0.0
  0
LINE
  5
595D
330
56D3
100
AcDbEntity
  8
5
370
    -2
100
AcDbLine
 10
214.2000000000001
 20
528.2306938310913
 30
0.0
 11
214.2000000000001
 21
523.2306938310914
 31
0.0
  0
SOLID
  5
595E
330
56D3
100
AcDbEntity
  8
5
100
AcDbTrace
 10
213.7833333333334
 20
528.2306938310913
 30
0.0
 11
214.6166666666667
 21
528.2306938310913
 31
0.0
 12
214.2000000000001
 22
530.7306938310913
 32
0.0
 13
214.2000000000001
 23
530.7306938310913
 33
0.0
  0
SOLID
  5
595F
330
56D3
100
AcDbEntity
  8
5
100
AcDbTrace
 10
213.7833333333334
 20
523.2306938310914
 30
0.0
 11
214.6166666666667
 21
523.2306938310914
 31
0.0
 12
214.2000000000001
 22
520.7306938310914
 32
0.0
 13
214.2000000000001
 23
520.7306938310914
 33
0.0
  0
MTEXT
  5
5960
330
56D3
100
AcDbEntity
  8
5
 62
     2
100
AcDbMText
 10
211.85
 20
524.1
 30
0.0
 40
3.5
 41
0.0
 71
     5
 72
     1
  1
10
 11
0.0000000000000001
 21
1.0
 31
0.0
 73
     1
 44
1.0
1001
ACAD
1000
MTEXTBEGIN
1070
    73
1070
     1
1070
    44
1040
1.0
1070
    74
1070
     0
1000
MTEXTEND
  0
POINT
  5
5961
330
56D3
100
AcDbEntity
  8
Defpoints
 62
     0
100
AcDbPoint
 10
237.8000000000001
 20
530.7306938310913
 30
0.0
  0
POINT
  5
5962
330
56D3
100
AcDbEntity
  8
Defpoints
 62
     0
100
AcDbPoint
 10
339.7999999999997
 20
520.7306938310913
 30
0.0
  0
POINT
  5
5963
330
56D3
100
AcDbEntity
  8
Defpoints
 62
     0
100
AcDbPoint
 10
214.2000000000001
 20
520.7306938310914
 30
0.0
  0
ENDBLK
  5
56DE
330
56D3
100
AcDbEntity
  8
0
100
AcDbBlockEnd
  0
BLOCK
  5
56F5
330
56EB
100
AcDbEntity
  8
0
100
AcDbBlockBegin
  2
*D13
 70
     1
 10
0.0
 20
0.0
 30
0.0
  3
*D13
  1

  0
LINE
  5
58CF
330
56EB
100
AcDbEntity
  8
5
370
    -2
100
AcDbLine
 10
346.8000000000001
 20
521.799174392281
 30
0.0
 11
346.8000000000001
 21
546.3809754912849
 31
0.0
  0
LINE
  5
58D0
330
56EB
100
AcDbEntity
  8
5
370
    -2
100
AcDbLine
 10
332.8000000000001
 20
521.799174392281
 30
0.0
 11
332.8000000000001
 21
546.3809754912849
 31
0.0
  0
LINE
  5
58D1
330
56EB
100
AcDbEntity
  8
5
370
    -2
100
AcDbLine
 10
344.3000000000001
 20
545.380975491285
 30
0.0
 11
335.3000000000001
 21
545.380975491285
 31
0.0
  0
SOLID
  5
58D2
330
56EB
100
AcDbEntity
  8
5
100
AcDbTrace
 10
344.3000000000001
 20
545.7976421579515
 30
0.0
 11
344.3000000000001
 21
544.9643088246183
 31
0.0
 12
346.8000000000001
 22
545.380975491285
 32
0.0
 13
346.8000000000001
 23
545.380975491285
 33
0.0
  0
SOLID
  5
58D3
330
56EB
100
AcDbEntity
  8
5
100
AcDbTrace
 10
335.3000000000001
 20
545.7976421579515
 30
0.0
 11
335.3000000000001
 21
544.9643088246183
 31
0.0
 12
332.8000000000001
 22
545.380975491285
 32
0.0
 13
332.8000000000001
 23
545.380975491285
 33
0.0
  0
MTEXT
  5
58D4
330
56EB
100
AcDbEntity
  8
5
 62
     2
100
AcDbMText
 10
339.8000000000001
 20
547.730975491285
 30
0.0
 40
3.5
 41
0.0
 71
     5
 72
     1
  1
14
 73
     1
 44
1.0
1001
ACAD
1000
MTEXTBEGIN
1070
    73
1070
     1
1070
    44
1040
1.0
1070
    74
1070
     0
1000
MTEXTEND
  0
POINT
  5
58D5
330
56EB
100
AcDbEntity
  8
Defpoints
 62
     0
100
AcDbPoint
 10
346.8000000000001
 20
520.799174392281
 30
0.0
  0
POINT
  5
58D6
330
56EB
100
AcDbEntity
  8
Defpoints
 62
     0
100
AcDbPoint
 10
332.8000000000001
 20
520.799174392281
 30
0.0
  0
POINT
  5
58D7
330
56EB
100
AcDbEntity
  8
Defpoints
 62
     0
100
AcDbPoint
 10
332.8000000000001
 20
545.380975491285
 30
0.0
  0
ENDBLK
  5
56F6
330
56EB
100
AcDbEntity
  8
0
100
AcDbBlockEnd
  0
BLOCK
  5
5701
330
56F7
100
AcDbEntity
  8
0
100
AcDbBlockBegin
  2
*D14
 70
     1
 10
0.0
 20
0.0
 30
0.0
  3
*D14
  1

  0
LINE
  5
58D8
330
56F7
100
AcDbEntity
  8
5
370
    -2
100
AcDbLine
 10
384.8000000000001
 20
524.5717666296473
 30
0.0
 11
384.8000000000001
 21
546.980975491285
 31
0.0
  0
LINE
  5
58D9
330
56F7
100
AcDbEntity
  8
5
370
    -2
100
AcDbLine
 10
372.8228718296326
 20
523.0694677236174
 30
0.0
 11
372.8228718296326
 21
546.980975491285
 31
0.0
  0
LINE
  5
58DA
330
56F7
100
AcDbEntity
  8
5
370
    -2
100
AcDbLine
 10
382.3000000000001
 20
545.980975491285
 30
0.0
 11
375.3228718296326
 21
545.980975491285
 31
0.0
  0
SOLID
  5
58DB
330
56F7
100
AcDbEntity
  8
5
100
AcDbTrace
 10
382.3000000000001
 20
546.3976421579515
 30
0.0
 11
382.3000000000001
 21
545.5643088246183
 31
0.0
 12
384.8000000000001
 22
545.980975491285
 32
0.0
 13
384.8000000000001
 23
545.980975491285
 33
0.0
  0
SOLID
  5
58DC
330
56F7
100
AcDbEntity
  8
5
100
AcDbTrace
 10
375.3228718296326
 20
546.3976421579515
 30
0.0
 11
375.3228718296326
 21
545.5643088246183
 31
0.0
 12
372.8228718296326
 22
545.980975491285
 32
0.0
 13
372.8228718296326
 23
545.980975491285
 33
0.0
  0
MTEXT
  5
58DD
330
56F7
100
AcDbEntity
  8
5
 62
     2
100
AcDbMText
 10
378.8114359148163
 20
548.330975491285
 30
0.0
 40
3.5
 41
0.0
 71
     5
 72
     1
  1
12
 73
     1
 44
1.0
1001
ACAD
1000
MTEXTBEGIN
1070
    73
1070
     1
1070
    44
1040
1.0
1070
    74
1070
     0
1000
MTEXTEND
  0
POINT
  5
58DE
330
56F7
100
AcDbEntity
  8
Defpoints
 62
     0
100
AcDbPoint
 10
384.8000000000001
 20
523.5717666296473
 30
0.0
  0
POINT
  5
58DF
330
56F7
100
AcDbEntity
  8
Defpoints
 62
     0
100
AcDbPoint
 10
372.8228718296326
 20
522.0694677236174
 30
0.0
  0
POINT
  5
58E0
330
56F7
100
AcDbEntity
  8
Defpoints
 62
     0
100
AcDbPoint
 10
372.8228718296326
 20
545.980975491285
 30
0.0
  0
ENDBLK
  5
5702
330
56F7
100
AcDbEntity
  8
0
100
AcDbBlockEnd
  0
BLOCK
  5
59CA
330
59C0
100
AcDbEntity
  8
0
100
AcDbBlockBegin
  2
*D15
 70
     1
 10
0.0
 20
0.0
 30
0.0
  3
*D15
  1

  0
LINE
  5
59D7
330
59C0
100
AcDbEntity
  8
5
370
    -2
100
AcDbLine
 10
452.8
 20
531.6999999999989
 30
0.0
 11
485.2
 21
531.6999999999989
 31
0.0
  0
LINE
  5
59D8
330
59C0
100
AcDbEntity
  8
5
370
    -2
100
AcDbLine
 10
399.7999999999999
 20
341.6999999999989
 30
0.0
 11
485.1999999999999
 21
341.6999999999989
 31
0.0
  0
LINE
  5
59D9
330
59C0
100
AcDbEntity
  8
5
370
    -2
100
AcDbLine
 10
484.1999999999999
 20
529.1999999999989
 30
0.0
 11
484.1999999999999
 21
344.1999999999989
 31
0.0
  0
SOLID
  5
59DA
330
59C0
100
AcDbEntity
  8
5
100
AcDbTrace
 10
483.7833333333333
 20
529.1999999999989
 30
0.0
 11
484.6166666666666
 21
529.1999999999989
 31
0.0
 12
484.1999999999999
 22
531.6999999999989
 32
0.0
 13
484.1999999999999
 23
531.6999999999989
 33
0.0
  0
SOLID
  5
59DB
330
59C0
100
AcDbEntity
  8
5
100
AcDbTrace
 10
483.7833333333332
 20
344.1999999999989
 30
0.0
 11
484.6166666666666
 21
344.1999999999989
 31
0.0
 12
484.1999999999999
 22
341.6999999999989
 32
0.0
 13
484.1999999999999
 23
341.6999999999989
 33
0.0
  0
MTEXT
  5
59DC
330
59C0
100
AcDbEntity
  8
5
 62
     2
100
AcDbMText
 10
481.8499999999998
 20
436.6999999999989
 30
0.0
 40
3.5
 41
0.0
 71
     5
 72
     1
  1
190
 11
0.0000000000000001
 21
1.0
 31
0.0
 73
     1
 44
1.0
1001
ACAD
1000
MTEXTBEGIN
1070
    73
1070
     1
1070
    44
1040
1.0
1070
    74
1070
     0
1000
MTEXTEND
  0
POINT
  5
59DD
330
59C0
100
AcDbEntity
  8
Defpoints
 62
     0
100
AcDbPoint
 10
451.8
 20
531.6999999999989
 30
0.0
  0
POINT
  5
59DE
330
59C0
100
AcDbEntity
  8
Defpoints
 62
     0
100
AcDbPoint
 10
398.7999999999999
 20
341.6999999999989
 30
0.0
  0
POINT
  5
59DF
330
59C0
100
AcDbEntity
  8
Defpoints
 62
     0
100
AcDbPoint
 10
484.1999999999999
 20
341.6999999999989
 30
0.0
  0
ENDBLK
  5
59CB
330
59C0
100
AcDbEntity
  8
0
100
AcDbBlockEnd
  0
BLOCK
  5
5ACD
330
5AC3
100
AcDbEntity
  8
0
100
AcDbBlockBegin
  2
*D16
 70
     1
 10
0.0
 20
0.0
 30
0.0
  3
*D16
  1

  0
LINE
  5
5AD8
330
5AC3
100
AcDbEntity
  8
AM_5
 62
     0
370
    -2
100
AcDbLine
 10
248.5268822458804
 20
501.6999999999988
 30
0.0
 11
248.5268822458804
 21
465.2
 31
0.0
  0
LINE
  5
5AD9
330
5AC3
100
AcDbEntity
  8
AM_5
 62
     0
370
    -2
100
AcDbLine
 10
431.0731177541195
 20
501.6999999999988
 30
0.0
 11
431.0731177541195
 21
465.2
 31
0.0
  0
LINE
  5
5ADA
330
5AC3
100
AcDbEntity
  8
AM_5
 62
     0
370
    -2
100
AcDbLine
 10
251.0268822458804
 20
466.1999999999999
 30
0.0
 11
428.5731177541195
 21
466.1999999999999
 31
0.0
  0
SOLID
  5
5ADB
330
5AC3
100
AcDbEntity
  8
AM_5
 62
     0
100
AcDbTrace
 10
251.0268822458804
 20
466.6166666666667
 30
0.0
 11
251.0268822458804
 21
465.7833333333333
 31
0.0
 12
248.5268822458804
 22
466.1999999999999
 32
0.0
 13
248.5268822458804
 23
466.1999999999999
 33
0.0
  0
SOLID
  5
5ADC
330
5AC3
100
AcDbEntity
  8
AM_5
 62
     0
100
AcDbTrace
 10
428.5731177541195
 20
466.6166666666667
 30
0.0
 11
428.5731177541195
 21
465.7833333333333
 31
0.0
 12
431.0731177541195
 22
466.1999999999999
 32
0.0
 13
431.0731177541195
 23
466.1999999999999
 33
0.0
  0
MTEXT
  5
5ADD
330
5AC3
100
AcDbEntity
  8
AM_5
 62
     2
100
AcDbMText
 10
339.8
 20
468.4499999999999
 30
0.0
 40
2.5
 41
0.0
 71
     5
 72
     1
  1
\A1;{\Famgdt|c0;o}183
  7
isocp
 73
     1
 44
1.0
1001
ACAD
1000
MTEXTBEGIN
1070
    73
1070
     1
1070
    44
1040
1.0
1070
    74
1070
     0
1000
MTEXTEND
  0
POINT
  5
5ADE
330
5AC3
100
AcDbEntity
  8
Defpoints
 62
     0
100
AcDbPoint
 10
248.5268822458804
 20
501.6999999999988
 30
0.0
  0
POINT
  5
5ADF
330
5AC3
100
AcDbEntity
  8
Defpoints
 62
     0
100
AcDbPoint
 10
431.0731177541195
 20
501.6999999999988
 30
0.0
  0
POINT
  5
5AE0
330
5AC3
100
AcDbEntity
  8
Defpoints
 62
     0
100
AcDbPoint
 10
431.0731177541195
 20
466.1999999999999
 30
0.0
  0
ENDBLK
  5
5ACE
330
5AC3
100
AcDbEntity
  8
0
100
AcDbBlockEnd
  0
BLOCK
  5
5AFE
330
5AF4
100
AcDbEntity
  8
0
100
AcDbBlockBegin
  2
*D17
 70
     1
 10
0.0
 20
0.0
 30
0.0
  3
*D17
  1

  0
LINE
  5
5B14
330
5AF4
100
AcDbEntity
  8
5
370
    -2
100
AcDbLine
 10
394.2999999999999
 20
340.6184933046864
 30
0.0
 11
394.2999999999999
 21
309.8
 31
0.0
  0
LINE
  5
5B15
330
5AF4
100
AcDbEntity
  8
5
370
    -2
100
AcDbLine
 10
285.297785144149
 20
340.6999999999988
 30
0.0
 11
285.297785144149
 21
309.8
 31
0.0
  0
LINE
  5
5B16
330
5AF4
100
AcDbEntity
  8
5
370
    -2
100
AcDbLine
 10
391.8
 20
310.8
 30
0.0
 11
287.797785144149
 21
310.8
 31
0.0
  0
SOLID
  5
5B17
330
5AF4
100
AcDbEntity
  8
5
100
AcDbTrace
 10
391.8
 20
311.2166666666667
 30
0.0
 11
391.8
 21
310.3833333333333
 31
0.0
 12
394.2999999999999
 22
310.8
 32
0.0
 13
394.2999999999999
 23
310.8
 33
0.0
  0
SOLID
  5
5B18
330
5AF4
100
AcDbEntity
  8
5
100
AcDbTrace
 10
287.797785144149
 20
311.2166666666667
 30
0.0
 11
287.797785144149
 21
310.3833333333333
 31
0.0
 12
285.297785144149
 22
310.8
 32
0.0
 13
285.297785144149
 23
310.8
 33
0.0
  0
MTEXT
  5
5B19
330
5AF4
100
AcDbEntity
  8
5
 62
     2
100
AcDbMText
 10
339.7988925720745
 20
313.15
 30
0.0
 40
3.5
 41
0.0
 71
     5
 72
     1
  1
%%c109
 73
     1
 44
1.0
1001
ACAD
1000
MTEXTBEGIN
1070
    73
1070
     1
1070
    44
1040
1.0
1070
    74
1070
     0
1000
MTEXTEND
  0
POINT
  5
5B1A
330
5AF4
100
AcDbEntity
  8
Defpoints
 62
     0
100
AcDbPoint
 10
394.2999999999999
 20
341.6184933046864
 30
0.0
  0
POINT
  5
5B1B
330
5AF4
100
AcDbEntity
  8
Defpoints
 62
     0
100
AcDbPoint
 10
285.297785144149
 20
341.6999999999989
 30
0.0
  0
POINT
  5
5B1C
330
5AF4
100
AcDbEntity
  8
Defpoints
 62
     0
100
AcDbPoint
 10
285.297785144149
 20
310.8
 30
0.0
  0
ENDBLK
  5
5AFF
330
5AF4
100
AcDbEntity
  8
0
100
AcDbBlockEnd
  0
ENDSEC
  0
SECTION
  2
ENTITIES
  0
LINE
  5
422
330
1F
100
AcDbEntity
  8
7A
  6
CENTER
100
AcDbLine
 10
339.8
 20
530.6999999999999
 30
0.0
 11
339.8
 21
338.0
 31
0.0
  0
LINE
  5
430
330
1F
100
AcDbEntity
  8
7A
  6
CENTER
100
AcDbLine
 10
339.8
 20
273.4
 30
0.0
 11
339.8
 21
148.1
 31
0.0
  0
DIMENSION
  5
4AF
330
1F
100
AcDbEntity
  8
5
100
AcDbDimension
  2
*D1
 10
451.8
 20
565.5
 30
0.0
 11
339.3
 21
565.5
 31
0.0
 70
   160
  1
{\Famgdt;o} <>
 71
     5
 42
224.0000000000002
  3
GEN-ISO
100
AcDbAlignedDimension
 13
227.7999999999998
 23
531.699999999999
 33
0.0
 14
451.8
 24
531.6999999999989
 34
0.0
100
AcDbRotatedDimension
1001
ACAD
1000
DSTYLE
1002
{
1070
    47
1040
0.0
1070
    48
1040
0.5
1070
   271
1070
     0
1070
   272
1070
     1
1070
   274
1070
     2
1002
}
  0
DIMENSION
  5
4DD
330
1F
100
AcDbEntity
  8
5
100
AcDbDimension
  2
*D2
 10
166.8000000000001
 20
501.6999999999988
 30
0.0
 11
166.8
 21
519.2999999999999
 31
0.0
 70
   160
 71
     5
 42
30.00000000000006
  3
GEN-ISO
100
AcDbAlignedDimension
 13
227.7999999999999
 23
531.699999999999
 33
0.0
 14
232.7999999999998
 24
501.6999999999988
 34
0.0
 50
90.0
100
AcDbRotatedDimension
1001
ACAD
1000
DSTYLE
1002
{
1070
    47
1040
0.0
1070
    48
1040
0.5
1070
   271
1070
     0
1070
   272
1070
     1
1070
   274
1070
     2
1002
}
  0
DIMENSION
  5
4FE
330
1F
100
AcDbEntity
  8
5
100
AcDbDimension
  2
*D3
 10
187.2
 20
510.6999999999989
 30
0.0
 11
187.2
 21
521.1
 31
0.0
 70
   160
  1
<>
 71
     5
 42
21.00000000000006
  3
GEN-ISO
100
AcDbAlignedDimension
 13
227.7999999999999
 23
531.699999999999
 33
0.0
 14
243.7289140049903
 24
510.6999999999989
 34
0.0
 50
90.0
100
AcDbRotatedDimension
1001
ACAD
1000
DSTYLE
1002
{
1070
    47
1040
0.0
1070
    48
1040
0.5
1070
   271
1070
     0
1070
   272
1070
     1
1070
   274
1070
     2
1002
}
  0
LINE
  5
53F
330
1F
100
AcDbEntity
  8
0
100
AcDbLine
 10
255.7999999999998
 20
531.6999999999989
 30
0.0
 11
227.7999999999998
 21
531.6999999999989
 31
0.0
  0
LINE
  5
540
330
1F
100
AcDbEntity
  8
0
100
AcDbLine
 10
255.3000000000001
 20
510.6999999999989
 30
0.0
 11
243.7289140049903
 21
510.6999999999989
 31
0.0
  0
LINE
  5
541
330
1F
100
AcDbEntity
  8
0
100
AcDbLine
 10
244.8320447019314
 20
501.6999999999988
 30
0.0
 11
230.6318825995685
 21
501.699999999999
 31
0.0
  0
LINE
  5
543
330
1F
100
AcDbEntity
  8
0
100
AcDbLine
 10
240.8311365261231
 20
512.9235428646913
 30
0.0
 11
235.7999999999998
 21
531.699999999999
 31
0.0
  0
ARC
  5
547
330
1F
100
AcDbEntity
  8
0
100
AcDbCircle
 10
243.7289140049903
 20
513.6999999999988
 30
0.0
 40
3.0
100
AcDbArc
 50
194.9999999999996
 51
270.0
  0
ARC
  5
54A
330
1F
100
AcDbEntity
  8
3A
  6
DASHED
100
AcDbCircle
 10
435.8710859950096
 20
513.6999999999988
 30
0.0
 40
3.0
100
AcDbArc
 50
270.0
 51
345.0000000000004
  0
LINE
  5
54C
330
1F
100
AcDbEntity
  8
3A
  6
DASHED
100
AcDbLine
 10
438.7688634738768
 20
512.9235428646913
 30
0.0
 11
443.8000000000001
 21
531.699999999999
 31
0.0
  0
LINE
  5
54D
330
1F
100
AcDbEntity
  8
0
100
AcDbLine
 10
440.8999999999998
 20
501.6999999999988
 30
0.0
 11
446.8
 21
501.6999999999988
 31
0.0
  0
LINE
  5
54E
330
1F
100
AcDbEntity
  8
3A
  6
DASHED
100
AcDbLine
 10
425.6468014279672
 20
510.6999999999989
 30
0.0
 11
435.8710859950096
 21
510.6999999999989
 31
0.0
  0
LINE
  5
54F
330
1F
100
AcDbEntity
  8
0
100
AcDbLine
 10
423.8
 20
531.6999999999989
 30
0.0
 11
451.8
 21
531.6999999999989
 31
0.0
  0
ARC
  5
551
330
1F
100
AcDbEntity
  8
0
100
AcDbCircle
 10
339.8
 20
879.7057470789804
 30
0.0
 40
358.0
100
AcDbArc
 50
256.4297814339048
 51
283.5702185660951
  0
ARC
  5
562
330
1F
100
AcDbEntity
  8
0
100
AcDbCircle
 10
435.2076144413183
 20
494.9695677100357
 30
0.0
 40
6.733656256855236
100
AcDbArc
 50
91.7730654813493
 51
149.764955182333
  0
LINE
  5
563
330
1F
100
AcDbEntity
  8
0
100
AcDbLine
 10
429.5520211031587
 20
501.6999999999988
 30
0.0
 11
447.8768088993621
 21
501.699999999999
 31
0.0
  0
LINE
  5
565
330
1F
100
AcDbEntity
  8
3A
  6
DASHED
100
AcDbLine
 10
250.0479788968405
 20
501.699999999999
 30
0.0
 11
244.6007308866988
 21
501.6999999999988
 31
0.0
  0
ARC
  5
568
330
1F
100
AcDbEntity
  8
0
100
AcDbCircle
 10
339.3
 20
858.7057470789803
 30
0.0
 40
358.0
100
AcDbArc
 50
256.4297814339048
 51
270.0800207018013
  0
LINE
  5
66A
330
1F
100
AcDbEntity
  8
0
100
AcDbLine
 10
227.8
 20
152.0999999999999
 30
0.0
 11
227.8
 21
259.8999999999999
 31
0.0
  0
LINE
  5
66B
330
1F
100
AcDbEntity
  8
0
100
AcDbLine
 10
235.8
 20
152.0999999999999
 30
0.0
 11
235.8
 21
252.6999999999999
 31
0.0
  0
LINE
  5
66E
330
1F
100
AcDbEntity
  8
Schnitt
  6
CENTER
100
AcDbLine
 10
460.7069155658605
 20
152.1
 30
0.0
 11
217.2999999999996
 21
152.1
 31
0.0
  0
ARC
  5
670
330
1F
100
AcDbEntity
  8
0
100
AcDbCircle
 10
339.8
 20
152.0999999999997
 30
0.0
 40
51.0
100
AcDbArc
 50
82.11096976992243
 51
97.88903023007737
  0
LINE
  5
671
330
1F
100
AcDbEntity
  8
0
100
AcDbLine
 10
339.8
 20
264.8999999999997
 30
0.0
 11
232.7999999999999
 21
264.8999999999999
 31
0.0
  0
ARC
  5
673
330
1F
100
AcDbEntity
  8
0
100
AcDbCircle
 10
232.7999999999999
 20
259.8999999999999
 30
0.0
 40
5.0
100
AcDbArc
 50
90.0
 51
180.0
  0
LINE
  5
676
330
1F
100
AcDbEntity
  8
0
100
AcDbLine
 10
228.6
 20
152.0999999999999
 30
0.0
 11
228.6
 21
259.0999999999999
 31
0.0
  0
LINE
  5
677
330
1F
100
AcDbEntity
  8
0
100
AcDbLine
 10
339.8
 20
264.0999999999997
 30
0.0
 11
233.6
 21
264.0999999999999
 31
0.0
  0
LINE
  5
678
330
1F
100
AcDbEntity
  8
0
100
AcDbLine
 10
255.7999999999999
 20
255.6999999999999
 30
0.0
 11
238.7999999999999
 21
255.6999999999999
 31
0.0
  0
ARC
  5
679
330
1F
100
AcDbEntity
  8
0
100
AcDbCircle
 10
238.7999999999999
 20
252.6999999999999
 30
0.0
 40
3.0
100
AcDbArc
 50
90.0
 51
180.0
  0
ARC
  5
684
330
1F
100
AcDbEntity
  8
0
100
AcDbCircle
 10
440.7999999999997
 20
252.7000000000004
 30
0.0
 40
3.0
100
AcDbArc
 50
0.0
 51
90.0
  0
LINE
  5
685
330
1F
100
AcDbEntity
  8
0
100
AcDbLine
 10
423.8
 20
255.7000000000003
 30
0.0
 11
440.7999999999996
 21
255.7000000000004
 31
0.0
  0
LINE
  5
686
330
1F
100
AcDbEntity
  8
0
100
AcDbLine
 10
339.7999999999997
 20
264.0999999999997
 30
0.0
 11
446.7999999999996
 21
264.1000000000005
 31
0.0
  0
LINE
  5
687
330
1F
100
AcDbEntity
  8
0
100
AcDbLine
 10
451.0000000000001
 20
152.1000000000005
 30
0.0
 11
450.9999999999997
 21
259.9000000000004
 31
0.0
  0
ARC
  5
688
330
1F
100
AcDbEntity
  8
0
100
AcDbCircle
 10
446.7999999999996
 20
259.9000000000004
 30
0.0
 40
4.2
100
AcDbArc
 50
0.0
 51
90.0
  0
ARC
  5
689
330
1F
100
AcDbEntity
  8
0
100
AcDbCircle
 10
446.7999999999996
 20
259.9000000000004
 30
0.0
 40
5.0
100
AcDbArc
 50
0.0
 51
90.0
  0
LINE
  5
68A
330
1F
100
AcDbEntity
  8
0
100
AcDbLine
 10
339.7999999999997
 20
264.8999999999996
 30
0.0
 11
446.7999999999996
 21
264.9000000000004
 31
0.0
  0
LINE
  5
68B
330
1F
100
AcDbEntity
  8
0
100
AcDbLine
 10
443.8000000000002
 20
152.1000000000005
 30
0.0
 11
443.7999999999997
 21
252.7000000000004
 31
0.0
  0
LINE
  5
68C
330
1F
100
AcDbEntity
  8
0
100
AcDbLine
 10
451.8000000000001
 20
152.1000000000005
 30
0.0
 11
451.7999999999997
 21
259.9000000000004
 31
0.0
  0
LINE
  5
6AF
330
1F
100
AcDbEntity
  8
0
100
AcDbLine
 10
255.7999999999999
 20
255.6999999999999
 30
0.0
 11
255.7999999999998
 21
264.0999999999999
 31
0.0
  0
LINE
  5
6B0
330
1F
100
AcDbEntity
  8
0
100
AcDbLine
 10
423.8
 20
255.6999999999995
 30
0.0
 11
423.7999999999998
 21
264.0999999999996
 31
0.0
  0
ARC
  5
6C7
330
1F
100
AcDbEntity
  8
0
100
AcDbCircle
 10
233.6
 20
259.0999999999999
 30
0.0
 40
5.0
100
AcDbArc
 50
90.0
 51
180.0
  0
ARC
  5
6E3
330
1F
100
AcDbEntity
  8
0
100
AcDbCircle
 10
339.8000000000031
 20
1560.999965525166
 30
0.0
 40
1308.0
100
AcDbArc
 50
266.317920604632
 51
267.6500027829955
  0
LINE
  5
ADE
330
1F
100
AcDbEntity
  8
0
100
AcDbLine
 10
453.8539770879126
 20
508.2229344564849
 30
0.0
 11
451.8
 21
531.699999999999
 31
0.0
  0
ARC
  5
ADF
330
1F
100
AcDbEntity
  8
0
100
AcDbCircle
 10
447.8768088993621
 20
507.699999999999
 30
0.0
 40
6.0
100
AcDbArc
 50
270.0
 51
4.999999999999743
  0
LINE
  5
AE0
330
1F
100
AcDbEntity
  8
BEMASS
100
AcDbLine
 10
451.8
 20
531.6999999999989
 30
0.0
 11
451.8
 21
548.1999999999989
 31
0.0
  0
LINE
  5
1EEF
330
1F
100
AcDbEntity
  8
0
100
AcDbLine
 10
339.7999999999999
 20
436.0525291254838
 30
0.0
 11
339.7999999999999
 21
437.9230094959987
 31
0.0
  0
ARC
  5
1FBE
330
1F
100
AcDbEntity
  8
3A
  6
DASHED
100
AcDbCircle
 10
425.6468014279672
 20
490.699999999999
 30
0.0
 40
20.0
100
AcDbArc
 50
90.0
 51
103.2046975945139
  0
ARC
  5
205B
330
1F
100
AcDbEntity
  8
3A
  6
DASHED
100
AcDbCircle
 10
339.8
 20
879.7057470789804
 30
0.0
 40
388.0
100
AcDbArc
 50
257.2921156275797
 51
270.0
  0
ARC
  5
205C
330
1F
100
AcDbEntity
  8
3A
100
AcDbCircle
 10
429.5520211031589
 20
481.6999999999989
 30
0.0
 40
20.0
100
AcDbArc
 50
90.0
 51
102.7078843724203
  0
ARC
  5
205D
330
1F
100
AcDbEntity
  8
3A
100
AcDbCircle
 10
250.0479788968406
 20
481.6999999999989
 30
0.0
 40
20.0
100
AcDbArc
 50
77.29211562757971
 51
90.0
  0
LINE
  5
2094
330
1F
100
AcDbEntity
  8
0
100
AcDbLine
 10
225.6509091091098
 20
507.1357787137372
 30
0.0
 11
227.7999999999998
 21
531.6999999999989
 31
0.0
  0
ARC
  5
209A
330
1F
100
AcDbEntity
  8
0
100
AcDbCircle
 10
230.6318825995685
 20
506.699999999999
 30
0.0
 40
5.0
100
AcDbArc
 50
175.0000000000002
 51
270.0
  0
LINE
  5
20B0
330
1F
100
AcDbEntity
  8
0
100
AcDbLine
 10
288.7999999999999
 20
433.6999999999989
 30
0.0
 11
250.7999999999999
 21
510.699999999999
 31
0.0
  0
LINE
  5
20B3
330
1F
100
AcDbEntity
  8
0
100
AcDbLine
 10
282.797785144148
 20
433.6999999999989
 30
0.0
 11
250.2100421481348
 21
498.360290109861
 31
0.0
  0
ARC
  5
20B9
330
1F
100
AcDbEntity
  8
0
100
AcDbCircle
 10
244.8320447019314
 20
495.6999999999989
 30
0.0
 40
6.0
100
AcDbArc
 50
26.31984584164829
 51
90.0
  0
ARC
  5
20BB
330
1F
100
AcDbEntity
  8
3A
  6
DASHED
100
AcDbCircle
 10
339.3
 20
858.7057470789803
 30
0.0
 40
358.0
100
AcDbArc
 50
270.0800207018013
 51
283.2046975945139
  0
LINE
  5
218E
330
1F
100
AcDbEntity
  8
0
100
AcDbLine
 10
449.7698484809832
 20
262.869848480984
 30
0.0
 11
450.3355339059323
 21
263.4355339059332
 31
0.0
  0
INSERT
  5
28A8
330
1F
100
AcDbEntity
  8
0
100
AcDbBlockReference
  2
_None
 10
2428.103514874348
 20
23.81564495716448
 30
0.0
  0
TEXT
  5
28C0
330
1F
100
AcDbEntity
  8
0
100
AcDbText
 10
1432.5
 20
181.7
 30
0.0
 40
3.5
  1

  7
isocp
 72
     4
 11
1432.5
 21
181.7
 31
0.0
100
AcDbText
  0
TEXT
  5
28C1
330
1F
100
AcDbEntity
  8
0
100
AcDbText
 10
1432.5
 20
173.1
 30
0.0
 40
3.5
  1

  7
isocp
 72
     4
 11
1432.5
 21
173.1
 31
0.0
100
AcDbText
  0
TEXT
  5
28C2
330
1F
100
AcDbEntity
  8
0
100
AcDbText
 10
1340.75
 20
157.0000000000002
 30
0.0
 40
2.0
  1

  7
isocp
 72
     4
 11
1340.75
 21
157.0000000000002
 31
0.0
100
AcDbText
  0
TEXT
  5
296F
330
1F
100
AcDbEntity
  8
0
100
AcDbText
 10
2211.90675510158
 20
93.13347684708373
 30
0.0
 40
3.0
  1

  7
isocp
 72
     4
 11
2211.90675510158
 21
93.13347684708373
 31
0.0
100
AcDbText
  0
LINE
  5
569C
330
1F
100
AcDbEntity
  8
0
100
AcDbLine
 10
237.8000000000001
 20
530.7306938310913
 30
0.0
 11
255.8000000000001
 21
530.7306938310913
 31
0.0
  0
LINE
  5
569D
330
1F
100
AcDbEntity
  8
0
100
AcDbLine
 10
239.943593539449
 20
522.7306938310913
 30
0.0
 11
240.2015306419938
 21
522.7306938310913
 31
0.0
  0
LINE
  5
569E
330
1F
100
AcDbEntity
  8
0
100
AcDbLine
 10
243.8005844451567
 20
510.7306938310913
 30
0.0
 11
253.344308781942
 21
510.7306938310913
 31
0.0
  0
LINE
  5
569F
330
1F
100
AcDbEntity
  8
7A
100
AcDbLine
 10
339.8000000000001
 20
530.7306938310913
 30
0.0
 11
339.8000000000001
 21
491.5939000782524
 31
0.0
  0
LINE
  5
56A0
330
1F
100
AcDbEntity
  8
0
100
AcDbLine
 10
240.6844935551384
 20
522.3601033536426
 30
0.0
 11
243.8005844451567
 21
510.7306938310913
 31
0.0
  0
LINE
  5
56A1
330
1F
100
AcDbEntity
  8
0
100
AcDbLine
 10
255.8000000000001
 20
530.7306938310913
 30
0.0
 11
253.344308781942
 21
510.7306938310913
 31
0.0
  0
LINE
  5
56A2
102
{ACAD_REACTORS
330
56B7
102
}
330
1F
100
AcDbEntity
  8
0
100
AcDbLine
 10
435.8000002492345
 20
510.7306938310913
 30
0.0
 11
426.2556912180579
 21
510.7306938310913
 31
0.0
  0
LINE
  5
56A3
102
{ACAD_REACTORS
330
56B7
102
}
330
1F
100
AcDbEntity
  8
0
100
AcDbLine
 10
441.8000000000001
 20
530.7306938310913
 30
0.0
 11
423.7999999999999
 21
530.7306938310913
 31
0.0
  0
LINE
  5
56A4
102
{ACAD_REACTORS
330
56B7
102
}
330
1F
100
AcDbEntity
  8
0
100
AcDbLine
 10
438.918163805254
 20
522.3572098784086
 30
0.0
 11
435.8000002492345
 21
510.7306938310913
 31
0.0
  0
LINE
  5
56A5
102
{ACAD_REACTORS
330
56B7
102
}
330
1F
100
AcDbEntity
  8
0
100
AcDbLine
 10
441.8000000000001
 20
530.7306938310913
 30
0.0
 11
439.6564064605511
 21
522.7306938310913
 31
0.0
  0
LINE
  5
56A6
102
{ACAD_REACTORS
330
56B7
102
}
330
1F
100
AcDbEntity
  8
0
100
AcDbLine
 10
439.6564064605511
 20
522.7306938310913
 30
0.0
 11
439.3984693580063
 21
522.7306938310913
 31
0.0
  0
LINE
  5
56A7
102
{ACAD_REACTORS
330
56B7
102
}
330
1F
100
AcDbEntity
  8
0
100
AcDbLine
 10
423.7999999999999
 20
530.7306938310913
 30
0.0
 11
426.2556912180579
 21
510.7306938310913
 31
0.0
  0
ARC
  5
56A8
102
{ACAD_REACTORS
330
56BA
102
}
330
1F
100
AcDbEntity
  8
0
100
AcDbCircle
 10
339.8000000000001
 20
878.5306938310913
 30
0.0
 40
357.8
100
AcDbArc
 50
256.4220508511223
 51
283.5779491488777
  0
ARC
  5
56A9
102
{ACAD_REACTORS
330
56BA
102
}
330
1F
100
AcDbEntity
  8
0
100
AcDbCircle
 10
339.8000000000001
 20
878.5306938310913
 30
0.0
 40
377.8245975899296
100
AcDbArc
 50
256.7720990170485
 51
283.2279009829515
  0
LINE
  5
56AA
330
1F
100
AcDbEntity
  8
0
100
AcDbLine
 10
346.8000000000001
 20
520.799174392281
 30
0.0
 11
349.252598863457
 21
500.8243595994308
 31
0.0
  0
LINE
  5
56AB
330
1F
100
AcDbEntity
  8
0
100
AcDbLine
 10
358.8000000000001
 20
521.2355217394438
 30
0.0
 11
356.3236894420485
 21
501.0675906922349
 31
0.0
  0
LINE
  5
56AC
330
1F
100
AcDbEntity
  8
0
100
AcDbLine
 10
372.8000000000001
 20
522.2557438275863
 30
0.0
 11
375.2414118465795
 21
502.3720399756824
 31
0.0
  0
LINE
  5
56AD
330
1F
100
AcDbEntity
  8
0
100
AcDbLine
 10
398.8000000000001
 20
525.6286677671992
 30
0.0
 11
401.2425706598192
 21
505.7355261388245
 31
0.0
  0
LINE
  5
56AE
330
1F
100
AcDbEntity
  8
0
100
AcDbLine
 10
410.8
 20
527.8458780776857
 30
0.0
 11
408.2349917372992
 21
506.9555621956332
 31
0.0
  0
ARC
  5
56AF
102
{ACAD_REACTORS
330
56B7
102
}
330
1F
100
AcDbEntity
  8
0
100
AcDbCircle
 10
439.4278209201329
 20
522.1973655306416
 30
0.0
 40
0.5341353669808912
100
AcDbArc
 50
93.15007816794967
 51
162.5869502229195
  0
ARC
  5
56B0
330
1F
100
AcDbEntity
  8
0
100
AcDbCircle
 10
240.2015306419938
 20
522.2306938310913
 30
0.0
 40
0.5
100
AcDbArc
 50
15.00000000000116
 51
90.0
  0
LINE
  5
56B1
102
{ACAD_REACTORS
330
56BA
102
}
330
1F
100
AcDbEntity
  8
0
100
AcDbLine
 10
294.8000000000001
 20
523.5717666296474
 30
0.0
 11
297.3133064304256
 21
503.1025283806057
 31
0.0
  0
LINE
  5
56B2
102
{ACAD_REACTORS
330
56BA
102
}
330
1F
100
AcDbEntity
  8
0
100
AcDbLine
 10
332.8000000000001
 20
520.799174392281
 30
0.0
 11
330.3474011365431
 21
500.8243595994308
 31
0.0
  0
LINE
  5
56B3
102
{ACAD_REACTORS
330
56BA
102
}
330
1F
100
AcDbEntity
  8
0
100
AcDbLine
 10
320.8000000000001
 20
521.2355217394438
 30
0.0
 11
323.2763105579516
 21
501.0675906922349
 31
0.0
  0
LINE
  5
56B4
102
{ACAD_REACTORS
330
56BA
102
}
330
1F
100
AcDbEntity
  8
0
100
AcDbLine
 10
306.8000000000001
 20
522.2557438275863
 30
0.0
 11
304.3585881534207
 21
502.3720399756824
 31
0.0
  0
LINE
  5
56B5
102
{ACAD_REACTORS
330
56BA
102
}
330
1F
100
AcDbEntity
  8
0
100
AcDbLine
 10
280.8000000000001
 20
525.6286677671992
 30
0.0
 11
278.3574293401808
 21
505.7355261388245
 31
0.0
  0
LINE
  5
56B6
102
{ACAD_REACTORS
330
56BA
102
}
330
1F
100
AcDbEntity
  8
0
100
AcDbLine
 10
268.8000000000001
 20
527.8458780776857
 30
0.0
 11
271.365008262701
 21
506.9555621956332
 31
0.0
  0
HATCH
  5
56B7
330
1F
100
AcDbEntity
  8
8
100
AcDbHatch
 10
0.0
 20
0.0
 30
0.0
210
0.0
220
0.0
230
1.0
  2
ANSI31
 70
     0
 71
     1
 91
        1
 92
        7
 72
     1
 73
     1
 93
        7
 10
426.2556912180579
 20
510.7306938310913
 42
0.0
 10
435.8000002492345
 20
510.7306938310913
 42
0.0
 10
438.9065759938957
 20
522.3140030766195
 42
-0.3666257133498496
 10
439.4571724822574
 20
522.7306938310913
 42
0.0
 10
439.6564064605511
 20
522.7306938310913
 42
0.0
 10
441.8
 20
530.7306938310913
 42
0.0
 10
423.8
 20
530.7306938310914
 42
0.0
 97
        7
330
56A3
330
56A7
330
56A2
330
56A4
330
56AF
330
56A6
330
56A5
 75
     0
 76
     1
 52
0.0
 41
1.0
 77
     0
 78
     1
 53
45.0
 43
237.8000000000001
 44
530.7306938310913
 45
-2.245064030267287
 46
2.245064030267288
 79
     0
 47
0.0688827508589803
 98
        1
 10
431.384539012337
 20
523.4676097117289
  0
HATCH
  5
56B8
330
1F
100
AcDbEntity
  8
8
100
AcDbHatch
 10
0.0
 20
0.0
 30
0.0
210
0.0
220
0.0
230
1.0
  2
ANSI31
 70
     0
 71
     0
 91
        1
 92
        7
 72
     1
 73
     1
 93
        7
 10
255.8000000000001
 20
530.7306938310913
 42
0.0
 10
237.8000000000001
 20
530.7306938310913
 42
0.0
 10
239.9435935394491
 20
522.7306938310913
 42
0.0
 10
240.2015306419938
 20
522.7306938310913
 42
-0.3394542588633797
 10
240.6844935551384
 20
522.3601033536426
 42
0.0
 10
243.8005844451567
 20
510.7306938310913
 42
0.0
 10
253.344308781942
 20
510.7306938310913
 42
0.0
 97
        0
 75
     0
 76
     1
 52
0.0
 41
1.0
 77
     0
 78
     1
 53
45.0
 43
237.8000000000001
 44
530.7306938310913
 45
-2.245064030267287
 46
2.245064030267288
 79
     0
 47
0.4035538348906919
 98
        1
 10
250.5287030535226
 20
523.6432010389092
  0
HATCH
  5
56B9
330
1F
100
AcDbEntity
  8
8
100
AcDbHatch
 10
0.0
 20
0.0
 30
0.0
210
0.0
220
0.0
230
1.0
  2
ANSI31
 70
     0
 71
     0
 91
        3
 92
        7
 72
     1
 73
     1
 93
        4
 10
410.8
 20
527.8458780776857
 42
-0.0085271118980562
 10
398.8000000000001
 20
525.628667767199
 42
0.0
 10
401.2425706598192
 20
505.7355261388245
 42
0.0046967664035498
 10
408.2349917372992
 20
506.9555621956332
 42
0.0
 97
        0
 92
        7
 72
     1
 73
     1
 93
        4
 10
375.2414118465795
 20
502.3720399756824
 42
0.0046868350950203
 10
382.2866935695745
 20
503.1025283806055
 42
0.0
 10
384.8000000000001
 20
523.5717666296473
 42
-0.0084354433218975
 10
372.8000000000001
 20
522.2557438275862
 42
0.0
 97
        0
 92
        7
 72
     1
 73
     1
 93
        4
 10
358.8000000000001
 20
521.2355217394438
 42
-0.0083907043576802
 10
346.8000000000001
 20
520.7991743922808
 42
0.0
 10
349.252598863457
 20
500.8243595994308
 42
0.0046816881371735
 10
356.3236894420485
 20
501.0675906922349
 42
0.0
 97
        0
 75
     0
 76
     1
 52
0.0
 41
1.0
 77
     0
 78
     1
 53
45.0
 43
237.8000000000001
 44
530.7306938310913
 45
-2.245064030267287
 46
2.245064030267288
 79
     0
 47
0.4035538348906919
 98
        3
 10
405.1892048701906
 20
518.3970010909946
 10
376.114645614088
 20
515.5721243636456
 10
353.0972865649842
 20
514.3614627533628
  0
HATCH
  5
56BA
330
1F
100
AcDbEntity
  8
8
100
AcDbHatch
 10
0.0
 20
0.0
 30
0.0
210
0.0
220
0.0
230
1.0
  2
ANSI31
 70
     0
 71
     1
 91
        3
 92
        7
 72
     1
 73
     1
 93
        4
 10
323.2763105579516
 20
501.0675906922349
 42
0.0046816881371734
 10
330.3474011365431
 20
500.8243595994309
 42
0.0
 10
332.8000000000001
 20
520.7991743922807
 42
-0.0083907043576802
 10
320.8000000000001
 20
521.2355217394437
 42
0.0
 97
        4
330
56A8
330
56B3
330
56A9
330
56B2
 92
        7
 72
     1
 73
     1
 93
        4
 10
306.8000000000001
 20
522.2557438275862
 42
-0.0084354433218975
 10
294.8000000000001
 20
523.5717666296473
 42
0.0
 10
297.3133064304256
 20
503.1025283806055
 42
0.0046868350950203
 10
304.3585881534207
 20
502.3720399756823
 42
0.0
 97
        4
330
56A8
330
56B1
330
56A9
330
56B4
 92
        7
 72
     1
 73
     1
 93
        4
 10
280.8000000000001
 20
525.628667767199
 42
-0.0085271118980562
 10
268.8000000000001
 20
527.8458780776857
 42
0.0
 10
271.365008262701
 20
506.9555621956332
 42
0.0046967664035497
 10
278.3574293401808
 20
505.7355261388246
 42
0.0
 97
        4
330
56A8
330
56B6
330
56A9
330
56B5
 75
     0
 76
     1
 52
0.0
 41
1.0
 77
     0
 78
     1
 53
45.0
 43
237.8000000000001
 44
530.7306938310913
 45
-2.245064030267287
 46
2.245064030267288
 79
     0
 47
0.4035538348906919
 98
        3
 10
326.4456073916812
 20
512.7472476362966
 10
301.8129952436264
 20
513.9579087016131
 10
275.9689421854259
 20
519.6076627012774
  0
DIMENSION
  5
56BB
330
1F
100
AcDbEntity
  8
5
100
AcDbDimension
  2
*D10
 10
203.4000000000001
 20
510.7328750101102
 30
0.0
 11
203.4
 21
523.5
 31
0.0
 70
   160
  1
<>
 71
     5
 42
19.99781882098097
  3
GEN-ISO
100
AcDbAlignedDimension
 13
237.8000000000001
 23
530.7306938310913
 33
0.0
 14
243.8000000000001
 24
510.7328750101102
 34
0.0
 50
90.0
100
AcDbRotatedDimension
1001
ACAD
1000
DSTYLE
1002
{
1070
   286
1070
     0
1070
   284
1070
     0
1070
    47
1040
0.0
1070
    48
1040
0.5
1070
   271
1070
     0
1070
   272
1070
     1
1070
   274
1070
     2
1002
}
  0
DIMENSION
  5
56BC
330
1F
100
AcDbEntity
  8
5
100
AcDbDimension
  2
*D11
 10
214.2000000000001
 20
520.7306938310914
 30
0.0
 11
214.2
 21
524.1
 31
0.0
 70
   160
 71
     5
 42
9.999999999999886
  3
GEN-ISO
100
AcDbAlignedDimension
 13
237.8000000000001
 23
530.7306938310913
 33
0.0
 14
339.7999999999997
 24
520.7306938310913
 34
0.0
 50
90.0
100
AcDbRotatedDimension
  0
POINT
  5
56BD
330
1F
100
AcDbEntity
  8
Defpoints
  6
ByBlock
 62
     0
100
AcDbPoint
 10
435.8000002492345
 20
510.7306938310913
 30
0.0
  0
POINT
  5
56BE
330
1F
100
AcDbEntity
  8
Defpoints
  6
ByBlock
 62
     0
100
AcDbPoint
 10
243.8000000000001
 20
510.7328750101102
 30
0.0
  0
LINE
  5
56BF
330
1F
100
AcDbEntity
  8
0
100
AcDbLine
 10
237.8000000000001
 20
530.7306938310913
 30
0.0
 11
239.943593539449
 21
522.7306938310913
 31
0.0
  0
POINT
  5
56C0
330
1F
100
AcDbEntity
  8
Defpoints
  6
ByBlock
 62
     0
100
AcDbPoint
 10
288.9086949432088
 20
524.368421603209
 30
0.0
  0
POINT
  5
56C2
330
1F
100
AcDbEntity
  8
Defpoints
  6
ByBlock
 62
     0
100
AcDbPoint
 10
372.8228718296326
 20
522.0694677236174
 30
0.0
  0
POINT
  5
56C3
330
1F
100
AcDbEntity
  8
Defpoints
  6
ByBlock
 62
     0
100
AcDbPoint
 10
384.8000000000001
 20
523.5717666296474
 30
0.0
  0
LINE
  5
56C4
330
1F
100
AcDbEntity
  8
0
100
AcDbLine
 10
384.8000000000001
 20
523.5717666296473
 30
0.0
 11
382.2866935695745
 21
503.1025283806057
 31
0.0
  0
DIMENSION
  5
56C5
330
1F
100
AcDbEntity
  8
5
100
AcDbDimension
  2
*D13
 10
332.8000000000001
 20
545.380975491285
 30
0.0
 11
339.8000000000001
 21
547.730975491285
 31
0.0
 70
    32
 71
     5
 42
14.0
  3
GEN-ISO
100
AcDbAlignedDimension
 13
346.8000000000001
 23
520.799174392281
 33
0.0
 14
332.8000000000001
 24
520.799174392281
 34
0.0
100
AcDbRotatedDimension
1001
ACAD
1000
DSTYLE
1002
{
1070
    47
1040
0.0
1070
    48
1040
0.5
1070
   271
1070
     0
1070
   272
1070
     1
1070
   274
1070
     2
1002
}
  0
DIMENSION
  5
56C6
330
1F
100
AcDbEntity
  8
5
100
AcDbDimension
  2
*D14
 10
372.8228718296326
 20
545.980975491285
 30
0.0
 11
378.8114359148163
 21
548.330975491285
 31
0.0
 70
    32
 71
     5
 42
11.97712817036745
  3
GEN-ISO
100
AcDbAlignedDimension
 13
384.8000000000001
 23
523.5717666296473
 33
0.0
 14
372.8228718296326
 24
522.0694677236174
 34
0.0
100
AcDbRotatedDimension
1001
ACAD
1000
DSTYLE
1002
{
1070
    47
1040
0.0
1070
    48
1040
0.5
1070
   271
1070
     0
1070
   272
1070
     1
1070
   274
1070
     2
1002
}
  0
ARC
  5
573A
330
1F
100
AcDbEntity
  8
3A
  6
DASHED
100
AcDbCircle
 10
339.8000000000004
 20
879.7057470789804
 30
0.0
 40
388.0000000000002
100
AcDbArc
 50
270.0
 51
282.7078843724187
  0
LINE
  5
57D4
330
1F
100
AcDbEntity
  8
7A
100
AcDbLine
 10
339.8
 20
262.9848286595994
 30
0.0
 11
339.8
 21
144.8166039741341
 31
0.0
  0
LINE
  5
57D5
330
1F
100
AcDbEntity
  8
0
100
AcDbLine
 10
339.8
 20
254.1
 30
0.0
 11
237.8
 21
254.1
 31
0.0
  0
LINE
  5
57D6
330
1F
100
AcDbEntity
  8
7A
100
AcDbLine
 10
339.8
 20
152.1
 30
0.0
 11
226.3539480062708
 21
152.1
 31
0.0
  0
LINE
  5
57D7
330
1F
100
AcDbEntity
  8
0
100
AcDbLine
 10
237.8
 20
254.1
 30
0.0
 11
237.8
 21
152.1
 31
0.0
  0
LINE
  5
57D8
330
1F
100
AcDbEntity
  8
0
100
AcDbLine
 10
255.7999999999997
 20
254.1
 30
0.0
 11
255.7999999999997
 21
254.1
 31
0.0
  0
LINE
  5
57D9
330
1F
100
AcDbEntity
  8
0
100
AcDbLine
 10
255.7999999999997
 20
229.5999999999998
 30
0.0
 11
255.7999999999997
 21
152.1
 31
0.0
  0
LINE
  5
57DA
330
1F
100
AcDbEntity
  8
0
100
AcDbLine
 10
268.8
 20
229.5999999999998
 30
0.0
 11
268.8
 21
152.1
 31
0.0
  0
LINE
  5
57DB
330
1F
100
AcDbEntity
  8
0
100
AcDbLine
 10
280.8
 20
152.1
 30
0.0
 11
280.8
 21
229.1
 31
0.0
  0
LINE
  5
57DC
330
1F
100
AcDbEntity
  8
0
100
AcDbLine
 10
294.8
 20
229.1
 30
0.0
 11
294.8
 21
152.1
 31
0.0
  0
LINE
  5
57DD
330
1F
100
AcDbEntity
  8
0
100
AcDbLine
 10
306.8
 20
152.1
 30
0.0
 11
306.8
 21
229.1
 31
0.0
  0
LINE
  5
57DE
330
1F
100
AcDbEntity
  8
0
100
AcDbLine
 10
320.8
 20
229.1
 30
0.0
 11
320.8
 21
152.1
 31
0.0
  0
LINE
  5
57DF
330
1F
100
AcDbEntity
  8
0
100
AcDbLine
 10
332.8
 20
152.1
 30
0.0
 11
332.8
 21
229.1
 31
0.0
  0
ARC
  5
57E0
330
1F
100
AcDbEntity
  8
0
100
AcDbCircle
 10
262.2999999999999
 20
229.5999999999998
 30
0.0
 40
6.500000000000149
100
AcDbArc
 50
0.0
 51
180.0
  0
ARC
  5
57E1
330
1F
100
AcDbEntity
  8
0
100
AcDbCircle
 10
287.8
 20
229.1
 30
0.0
 40
7.000000000000003
100
AcDbArc
 50
0.0
 51
180.0
  0
ARC
  5
57E2
330
1F
100
AcDbEntity
  8
0
100
AcDbCircle
 10
313.8
 20
229.1
 30
0.0
 40
7.0
100
AcDbArc
 50
0.0
 51
180.0
  0
ARC
  5
57E3
330
1F
100
AcDbEntity
  8
0
100
AcDbCircle
 10
339.8
 20
229.1
 30
0.0
 40
7.0
100
AcDbArc
 50
90.0
 51
180.0
  0
LINE
  5
57E4
330
1F
100
AcDbEntity
  8
7A
100
AcDbLine
 10
339.8
 20
152.1
 30
0.0
 11
465.5814011452837
 21
152.1
 31
0.0
  0
LINE
  5
57E5
330
1F
100
AcDbEntity
  8
0
100
AcDbLine
 10
339.8
 20
254.1
 30
0.0
 11
441.8
 21
254.1
 31
0.0
  0
LINE
  5
57E6
330
1F
100
AcDbEntity
  8
0
100
AcDbLine
 10
384.8
 20
229.1
 30
0.0
 11
384.8
 21
152.1
 31
0.0
  0
LINE
  5
57E7
330
1F
100
AcDbEntity
  8
0
100
AcDbLine
 10
398.8
 20
152.1
 30
0.0
 11
398.8
 21
229.1
 31
0.0
  0
LINE
  5
57E8
330
1F
100
AcDbEntity
  8
0
100
AcDbLine
 10
423.8000000000002
 20
229.5999999999998
 30
0.0
 11
423.8000000000002
 21
74.60000000000016
 31
0.0
  0
LINE
  5
57E9
330
1F
100
AcDbEntity
  8
0
100
AcDbLine
 10
410.8
 20
229.5999999999998
 30
0.0
 11
410.8
 21
74.60000000000016
 31
0.0
  0
LINE
  5
57EA
330
1F
100
AcDbEntity
  8
0
100
AcDbLine
 10
441.8
 20
254.1
 30
0.0
 11
441.8
 21
50.09999999999999
 31
0.0
  0
ARC
  5
57EB
330
1F
100
AcDbEntity
  8
0
100
AcDbCircle
 10
417.3
 20
229.5999999999998
 30
0.0
 40
6.500000000000149
100
AcDbArc
 50
0.0
 51
180.0
  0
ARC
  5
57EC
330
1F
100
AcDbEntity
  8
0
100
AcDbCircle
 10
391.8
 20
229.1
 30
0.0
 40
7.000000000000003
100
AcDbArc
 50
0.0
 51
180.0
  0
LINE
  5
57ED
330
1F
100
AcDbEntity
  8
0
100
AcDbLine
 10
423.8000000000003
 20
254.1
 30
0.0
 11
423.8000000000003
 21
254.1
 31
0.0
  0
LINE
  5
57EE
330
1F
100
AcDbEntity
  8
0
100
AcDbLine
 10
346.8
 20
152.1
 30
0.0
 11
346.8
 21
229.1
 31
0.0
  0
LINE
  5
57EF
330
1F
100
AcDbEntity
  8
0
100
AcDbLine
 10
358.8
 20
229.1
 30
0.0
 11
358.8
 21
152.1
 31
0.0
  0
LINE
  5
57F0
330
1F
100
AcDbEntity
  8
0
100
AcDbLine
 10
372.8
 20
152.1
 30
0.0
 11
372.8
 21
229.1
 31
0.0
  0
ARC
  5
57F1
330
1F
100
AcDbEntity
  8
0
100
AcDbCircle
 10
365.8
 20
229.1
 30
0.0
 40
7.0
100
AcDbArc
 50
0.0
 51
180.0
  0
ARC
  5
57F2
330
1F
100
AcDbEntity
  8
0
100
AcDbCircle
 10
339.8
 20
229.1
 30
0.0
 40
7.0
100
AcDbArc
 50
0.0
 51
90.0
  0
POINT
  5
57F3
330
1F
100
AcDbEntity
  8
Defpoints
  6
ByBlock
 62
     0
100
AcDbPoint
 10
237.8
 20
254.1
 30
0.0
  0
POINT
  5
57F4
330
1F
100
AcDbEntity
  8
Defpoints
  6
ByBlock
 62
     0
100
AcDbPoint
 10
237.8
 20
254.1
 30
0.0
  0
LINE
  5
57F5
330
1F
100
AcDbEntity
  8
7A
100
AcDbLine
 10
339.8
 20
41.21517134040053
 30
0.0
 11
339.8
 21
159.3833960258659
 31
0.0
  0
LINE
  5
57F6
330
1F
100
AcDbEntity
  8
0
100
AcDbLine
 10
339.8
 20
50.09999999999999
 30
0.0
 11
237.8
 21
50.09999999999999
 31
0.0
  0
LINE
  5
57F7
330
1F
100
AcDbEntity
  8
0
100
AcDbLine
 10
237.8
 20
50.09999999999999
 30
0.0
 11
237.8
 21
152.1
 31
0.0
  0
LINE
  5
57F8
330
1F
100
AcDbEntity
  8
0
100
AcDbLine
 10
255.7999999999997
 20
50.09999999999999
 30
0.0
 11
255.7999999999997
 21
50.09999999999999
 31
0.0
  0
LINE
  5
57F9
330
1F
100
AcDbEntity
  8
0
100
AcDbLine
 10
255.7999999999997
 20
74.60000000000016
 30
0.0
 11
255.7999999999997
 21
152.1
 31
0.0
  0
LINE
  5
57FA
330
1F
100
AcDbEntity
  8
0
100
AcDbLine
 10
268.8
 20
74.60000000000016
 30
0.0
 11
268.8
 21
152.1
 31
0.0
  0
LINE
  5
57FB
330
1F
100
AcDbEntity
  8
0
100
AcDbLine
 10
280.8
 20
152.1
 30
0.0
 11
280.8
 21
75.09999999999999
 31
0.0
  0
LINE
  5
57FC
330
1F
100
AcDbEntity
  8
0
100
AcDbLine
 10
294.8
 20
75.09999999999999
 30
0.0
 11
294.8
 21
152.1
 31
0.0
  0
LINE
  5
57FD
330
1F
100
AcDbEntity
  8
0
100
AcDbLine
 10
306.8
 20
152.1
 30
0.0
 11
306.8
 21
75.09999999999999
 31
0.0
  0
LINE
  5
57FE
330
1F
100
AcDbEntity
  8
0
100
AcDbLine
 10
320.8
 20
75.09999999999999
 30
0.0
 11
320.8
 21
152.1
 31
0.0
  0
LINE
  5
57FF
330
1F
100
AcDbEntity
  8
0
100
AcDbLine
 10
332.8
 20
152.1
 30
0.0
 11
332.8
 21
75.09999999999999
 31
0.0
  0
ARC
  5
5800
330
1F
100
AcDbEntity
  8
0
100
AcDbCircle
 10
262.2999999999999
 20
74.60000000000016
 30
0.0
 40
6.500000000000149
100
AcDbArc
 50
180.0
 51
0.0
  0
ARC
  5
5801
330
1F
100
AcDbEntity
  8
0
100
AcDbCircle
 10
287.8
 20
75.09999999999999
 30
0.0
 40
7.000000000000003
100
AcDbArc
 50
180.0
 51
0.0
  0
ARC
  5
5802
330
1F
100
AcDbEntity
  8
0
100
AcDbCircle
 10
313.8
 20
75.09999999999999
 30
0.0
 40
7.0
100
AcDbArc
 50
180.0
 51
0.0
  0
ARC
  5
5803
330
1F
100
AcDbEntity
  8
0
100
AcDbCircle
 10
339.8
 20
75.09999999999999
 30
0.0
 40
7.0
100
AcDbArc
 50
180.0
 51
270.0
  0
LINE
  5
5804
330
1F
100
AcDbEntity
  8
0
100
AcDbLine
 10
339.8
 20
50.09999999999999
 30
0.0
 11
441.8
 21
50.09999999999999
 31
0.0
  0
LINE
  5
5805
330
1F
100
AcDbEntity
  8
0
100
AcDbLine
 10
384.8
 20
75.09999999999999
 30
0.0
 11
384.8
 21
152.1
 31
0.0
  0
LINE
  5
5806
330
1F
100
AcDbEntity
  8
0
100
AcDbLine
 10
398.8
 20
152.1
 30
0.0
 11
398.8
 21
75.09999999999999
 31
0.0
  0
ARC
  5
5807
330
1F
100
AcDbEntity
  8
0
100
AcDbCircle
 10
417.3
 20
74.60000000000016
 30
0.0
 40
6.500000000000149
100
AcDbArc
 50
180.0
 51
0.0
  0
ARC
  5
5808
330
1F
100
AcDbEntity
  8
0
100
AcDbCircle
 10
391.8
 20
75.09999999999999
 30
0.0
 40
7.000000000000003
100
AcDbArc
 50
180.0
 51
0.0
  0
LINE
  5
5809
330
1F
100
AcDbEntity
  8
0
100
AcDbLine
 10
423.8000000000003
 20
50.09999999999999
 30
0.0
 11
423.8000000000003
 21
50.09999999999999
 31
0.0
  0
LINE
  5
580A
330
1F
100
AcDbEntity
  8
0
100
AcDbLine
 10
346.8
 20
152.1
 30
0.0
 11
346.8
 21
75.09999999999999
 31
0.0
  0
LINE
  5
580B
330
1F
100
AcDbEntity
  8
0
100
AcDbLine
 10
358.8
 20
75.09999999999999
 30
0.0
 11
358.8
 21
152.1
 31
0.0
  0
LINE
  5
580C
330
1F
100
AcDbEntity
  8
0
100
AcDbLine
 10
372.8
 20
152.1
 30
0.0
 11
372.8
 21
75.09999999999999
 31
0.0
  0
ARC
  5
580D
330
1F
100
AcDbEntity
  8
0
100
AcDbCircle
 10
365.8
 20
75.09999999999999
 30
0.0
 40
7.0
100
AcDbArc
 50
180.0
 51
0.0
  0
ARC
  5
580E
330
1F
100
AcDbEntity
  8
0
100
AcDbCircle
 10
339.8
 20
75.09999999999999
 30
0.0
 40
7.0
100
AcDbArc
 50
270.0
 51
0.0
  0
POINT
  5
580F
330
1F
100
AcDbEntity
  8
Defpoints
  6
ByBlock
 62
     0
100
AcDbPoint
 10
237.8
 20
50.09999999999999
 30
0.0
  0
POINT
  5
5810
330
1F
100
AcDbEntity
  8
Defpoints
  6
ByBlock
 62
     0
100
AcDbPoint
 10
237.8
 20
50.09999999999999
 30
0.0
  0
LINE
  5
5811
330
1F
100
AcDbEntity
  8
0
100
AcDbLine
 10
227.8
 20
152.1
 30
0.0
 11
227.8
 21
44.30000000000006
 31
0.0
  0
LINE
  5
5812
330
1F
100
AcDbEntity
  8
0
100
AcDbLine
 10
235.8
 20
152.1
 30
0.0
 11
235.8
 21
51.50000000000009
 31
0.0
  0
LINE
  5
5813
330
1F
100
AcDbEntity
  8
0
100
AcDbLine
 10
339.8
 20
39.3000000000003
 30
0.0
 11
232.7999999999999
 21
39.30000000000007
 31
0.0
  0
ARC
  5
5814
330
1F
100
AcDbEntity
  8
0
100
AcDbCircle
 10
232.7999999999999
 20
44.30000000000006
 30
0.0
 40
5.0
100
AcDbArc
 50
180.0
 51
270.0
  0
LINE
  5
5815
330
1F
100
AcDbEntity
  8
0
100
AcDbLine
 10
228.6
 20
152.1
 30
0.0
 11
228.6
 21
45.10000000000005
 31
0.0
  0
LINE
  5
5816
330
1F
100
AcDbEntity
  8
0
100
AcDbLine
 10
339.8
 20
40.1000000000003
 30
0.0
 11
233.6
 21
40.10000000000005
 31
0.0
  0
LINE
  5
5817
330
1F
100
AcDbEntity
  8
0
100
AcDbLine
 10
255.7999999999999
 20
48.50000000000012
 30
0.0
 11
238.7999999999999
 21
48.50000000000008
 31
0.0
  0
ARC
  5
5818
330
1F
100
AcDbEntity
  8
0
100
AcDbCircle
 10
238.7999999999999
 20
51.50000000000009
 30
0.0
 40
3.0
100
AcDbArc
 50
180.0
 51
270.0
  0
ARC
  5
5819
330
1F
100
AcDbEntity
  8
0
100
AcDbCircle
 10
440.7999999999997
 20
51.49999999999957
 30
0.0
 40
3.0
100
AcDbArc
 50
270.0
 51
0.0
  0
LINE
  5
581A
330
1F
100
AcDbEntity
  8
0
100
AcDbLine
 10
423.8
 20
48.49999999999972
 30
0.0
 11
440.7999999999996
 21
48.49999999999957
 31
0.0
  0
LINE
  5
581B
330
1F
100
AcDbEntity
  8
0
100
AcDbLine
 10
339.7999999999997
 20
40.10000000000033
 30
0.0
 11
446.7999999999996
 21
40.09999999999954
 31
0.0
  0
LINE
  5
581C
330
1F
100
AcDbEntity
  8
0
100
AcDbLine
 10
451.0000000000001
 20
152.0999999999994
 30
0.0
 11
450.9999999999997
 21
44.29999999999952
 31
0.0
  0
ARC
  5
581D
330
1F
100
AcDbEntity
  8
0
100
AcDbCircle
 10
446.7999999999996
 20
44.29999999999952
 30
0.0
 40
4.2
100
AcDbArc
 50
270.0
 51
0.0
  0
ARC
  5
581E
330
1F
100
AcDbEntity
  8
0
100
AcDbCircle
 10
446.7999999999996
 20
44.29999999999952
 30
0.0
 40
5.0
100
AcDbArc
 50
270.0
 51
0.0
  0
LINE
  5
581F
330
1F
100
AcDbEntity
  8
0
100
AcDbLine
 10
339.7999999999997
 20
39.30000000000033
 30
0.0
 11
446.7999999999996
 21
39.29999999999953
 31
0.0
  0
LINE
  5
5820
330
1F
100
AcDbEntity
  8
0
100
AcDbLine
 10
443.8000000000002
 20
152.0999999999995
 30
0.0
 11
443.7999999999997
 21
51.49999999999957
 31
0.0
  0
LINE
  5
5821
330
1F
100
AcDbEntity
  8
0
100
AcDbLine
 10
451.8000000000001
 20
152.0999999999994
 30
0.0
 11
451.7999999999997
 21
44.29999999999952
 31
0.0
  0
LINE
  5
5822
330
1F
100
AcDbEntity
  8
0
100
AcDbLine
 10
255.7999999999999
 20
48.50000000000012
 30
0.0
 11
255.7999999999998
 21
40.10000000000011
 31
0.0
  0
LINE
  5
5823
330
1F
100
AcDbEntity
  8
0
100
AcDbLine
 10
423.8
 20
48.50000000000051
 30
0.0
 11
423.7999999999998
 21
40.10000000000045
 31
0.0
  0
ARC
  5
5824
330
1F
100
AcDbEntity
  8
0
100
AcDbCircle
 10
233.6
 20
45.10000000000005
 30
0.0
 40
5.0
100
AcDbArc
 50
180.0
 51
270.0
  0
ARC
  5
5825
330
1F
100
AcDbEntity
  8
0
100
AcDbCircle
 10
339.8000000000031
 20
-1256.799965525166
 30
0.0
 40
1308.0
100
AcDbArc
 50
86.31792060463205
 51
87.65000278299586
  0
LINE
  5
5826
330
1F
100
AcDbEntity
  8
0
100
AcDbLine
 10
449.7698484809832
 20
41.330151519016
 30
0.0
 11
450.3355339059323
 21
40.76446609406676
 31
0.0
  0
LINE
  5
583E
330
1F
100
AcDbEntity
  8
0
100
AcDbLine
 10
285.297785144149
 20
341.6999999999989
 30
0.0
 11
394.3022148558509
 21
341.6999999999989
 31
0.0
  0
HATCH
  5
5855
330
1F
100
AcDbEntity
  8
AM_8
100
AcDbHatch
 10
0.0
 20
0.0
 30
0.0
210
0.0
220
0.0
230
1.0
  2
_U
 70
     0
 71
     0
 91
        1
 92
        1
 93
       10
 72
     1
 10
453.8539770879126
 20
508.2229344564849
 11
451.8
 21
531.699999999999
 72
     1
 10
451.8
 20
531.699999999999
 11
443.8
 21
531.6999999999989
 72
     1
 10
443.8
 20
531.6999999999989
 11
438.7688634738768
 21
512.9235428646913
 72
     2
 10
435.8710859950096
 20
513.6999999999988
 40
3.000000000000021
 50
14.99999999999998
 51
90.0
 73
     0
 72
     1
 10
435.8710859950096
 20
510.6999999999989
 11
428.8
 21
510.6999999999989
 72
     1
 10
428.8
 20
510.6999999999989
 11
423.9753531857241
 21
500.9465756836737
 72
     2
 10
339.7999999998384
 20
879.7057470788779
 40
387.9999999999359
 50
282.5297661010749
 51
282.7078843724454
 73
     1
 72
     2
 10
429.5520211031596
 20
481.699999999999
 40
19.99999999999987
 50
257.2921156275601
 51
269.9999999999976
 73
     0
 72
     1
 10
429.5520211031587
 20
501.6999999999988
 11
447.8768088993621
 21
501.699999999999
 72
     2
 10
447.8768088993621
 20
507.699999999999
 40
6.0
 50
270.0
 51
364.9999999999998
 73
     1
 97
        0
 75
     0
 76
     0
 52
135.0
 41
5.0
 77
     0
 78
     1
 53
135.0
 43
142.3069155658605
 44
178.1
 45
-3.535533905932737
 46
-3.535533905932737
 79
     0
 98
        1
 10
142.3069155658605
 20
178.1
1001
GENIUS_GENOBJ-N-HTC_13
1002
{
1000
OWNER
1000
GEN
1002
}
1001
GENIUS_GENODEF_13
1002
{
1000
HIER
1070
     0
1002
}
1002
{
1000
MANEDIT
1070
     0
1002
}
1002
{
1000
NOSEL
1070
     0
1002
}
1002
{
1000
BEHIND
1070
     0
1002
}
1002
{
1000
OTHER
1070
     0
1002
}
1002
{
1000
REACTOR
1002
}
1001
GENIUS_GENHATCH_13
1002
{
1000
DATA
1040
45.0
1042
0.22
1000
_U
1070
     0
1011
442.6069155658605
1021
506.8999999999999
1031
0.0
1002
}
1002
{
1000
UCS
1010
0.0
1020
0.0
1030
0.0
1010
1.0
1020
0.0
1030
0.0
1010
0.0
1020
1.0
1030
0.0
1002
}
1001
ACAD
1010
0.0
1020
0.0
1030
0.0
  0
HATCH
  5
588F
330
1F
100
AcDbEntity
  8
AM_8
100
AcDbHatch
 10
0.0
 20
0.0
 30
0.0
210
0.0
220
0.0
230
1.0
  2
_U
 70
     0
 71
     0
 91
        1
 92
        1
 93
       10
 72
     2
 10
243.7289140049903
 20
513.6999999999988
 40
2.999999999999994
 50
195.0000000000001
 51
270.0000000000005
 73
     1
 72
     1
 10
243.7289140049903
 20
510.6999999999989
 11
250.7999999999999
 21
510.6999999999989
 72
     1
 10
250.7999999999999
 20
510.699999999999
 11
255.6246468142756
 21
500.9465756836741
 72
     2
 10
339.8000000018623
 20
879.7057470866556
 40
388.000000007897
 50
102.5297661010708
 51
102.7078843724388
 73
     0
 72
     2
 10
250.0479788968405
 20
481.7000000000016
 40
19.99999999999733
 50
77.29211562757844
 51
90.00000000000019
 73
     1
 72
     1
 10
250.0479788968405
 20
501.699999999999
 11
230.6318825995685
 21
501.699999999999
 72
     2
 10
230.6318825995685
 20
506.699999999999
 40
5.0
 50
90.0
 51
184.9999999999998
 73
     0
 72
     1
 10
225.6509091091098
 20
507.1357787137372
 11
227.7999999999998
 21
531.6999999999989
 72
     1
 10
227.7999999999998
 20
531.6999999999989
 11
235.7999999999998
 21
531.699999999999
 72
     1
 10
235.7999999999998
 20
531.699999999999
 11
240.8311365261231
 21
512.9235428646913
 97
        0
 75
     0
 76
     0
 52
135.0
 41
5.0
 77
     0
 78
     1
 53
135.0
 43
142.3069155658605
 44
178.1
 45
-3.535533905932737
 46
-3.535533905932737
 79
     0
 98
        1
 10
142.3069155658605
 20
178.1
1001
GENIUS_GENOBJ-N-HTC_13
1002
{
1000
OWNER
1000
GEN
1002
}
1001
GENIUS_GENODEF_13
1002
{
1000
HIER
1070
     0
1002
}
1002
{
1000
MANEDIT
1070
     0
1002
}
1002
{
1000
NOSEL
1070
     0
1002
}
1002
{
1000
BEHIND
1070
     0
1002
}
1002
{
1000
OTHER
1070
     0
1002
}
1002
{
1000
REACTOR
1002
}
1001
GENIUS_GENHATCH_13
1002
{
1000
DATA
1040
135.0
1042
5.0
1000
_U
1070
     0
1011
233.5069155658605
1021
515.8999999999999
1031
0.0
1002
}
1002
{
1000
UCS
1010
0.0
1020
0.0
1030
0.0
1010
1.0
1020
0.0
1030
0.0
1010
0.0
1020
1.0
1030
0.0
1002
}
  0
ARC
  5
5890
330
1F
100
AcDbEntity
  8
0
100
AcDbCircle
 10
339.8
 20
152.0999999999997
 30
0.0
 40
51.0
100
AcDbArc
 50
111.872908066407
 51
130.3202150699712
  0
ARC
  5
5891
330
1F
100
AcDbEntity
  8
0
100
AcDbCircle
 10
339.8
 20
152.0999999999997
 30
0.0
 40
51.0
100
AcDbArc
 50
151.9275130641469
 51
180.0
  0
ARC
  5
5892
330
1F
100
AcDbEntity
  8
0
100
AcDbCircle
 10
339.8
 20
152.0999999999997
 30
0.0
 40
50.99999999999998
100
AcDbArc
 50
49.6797849300311
 51
68.12709193359296
  0
ARC
  5
5893
330
1F
100
AcDbEntity
  8
0
100
AcDbCircle
 10
339.8
 20
152.0999999999997
 30
0.0
 40
50.99999999999998
100
AcDbArc
 50
0.0
 51
28.07248693585306
  0
ARC
  5
5894
330
1F
100
AcDbEntity
  8
0
100
AcDbCircle
 10
339.8
 20
152.0999999999997
 30
0.0
 40
51.0
100
AcDbArc
 50
262.1109697699224
 51
277.8890302300776
  0
ARC
  5
5895
330
1F
100
AcDbEntity
  8
0
100
AcDbCircle
 10
339.8
 20
152.0999999999997
 30
0.0
 40
51.0
100
AcDbArc
 50
229.6797849300288
 51
248.127091933593
  0
ARC
  5
5896
330
1F
100
AcDbEntity
  8
0
100
AcDbCircle
 10
339.8
 20
152.0999999999997
 30
0.0
 40
51.0
100
AcDbArc
 50
180.0
 51
208.072486935853
  0
ARC
  5
5897
330
1F
100
AcDbEntity
  8
0
100
AcDbCircle
 10
339.8
 20
152.0999999999997
 30
0.0
 40
50.99999999999998
100
AcDbArc
 50
291.872908066407
 51
310.3202150699689
  0
ARC
  5
5898
330
1F
100
AcDbEntity
  8
0
100
AcDbCircle
 10
339.8
 20
152.0999999999997
 30
0.0
 40
50.99999999999998
100
AcDbArc
 50
331.9275130641469
 51
0.0
  0
ARC
  5
5964
330
1F
100
AcDbEntity
  8
0
100
AcDbCircle
 10
339.8000000000031
 20
1560.999965525166
 30
0.0
 40
1308.0
100
AcDbArc
 50
272.3499972170044
 51
273.6820793953679
  0
ARC
  5
5965
330
1F
100
AcDbEntity
  8
0
100
AcDbCircle
 10
339.8000000000031
 20
-1256.799965525166
 30
0.0
 40
1308.0
100
AcDbArc
 50
92.34999721700415
 51
93.68207939536793
  0
DIMENSION
  5
59BF
330
1F
100
AcDbEntity
  8
5
100
AcDbDimension
  2
*D15
 10
484.1999999999999
 20
341.6999999999989
 30
0.0
 11
481.8499999999998
 21
436.6999999999989
 31
0.0
 70
    32
 71
     5
 42
190.0
  3
GEN-ISO
100
AcDbAlignedDimension
 13
451.8
 23
531.6999999999989
 33
0.0
 14
398.7999999999999
 24
341.6999999999989
 34
0.0
 50
90.0
100
AcDbRotatedDimension
1001
ACAD
1000
DSTYLE
1002
{
1070
    47
1040
0.0
1070
    48
1040
0.5
1070
   271
1070
     0
1070
   272
1070
     1
1070
   274
1070
     2
1002
}
  0
LINE
  5
5A46
330
1F
100
AcDbEntity
  8
0
100
AcDbLine
 10
291.3
 20
341.6999999999989
 30
0.0
 11
288.7999999999999
 21
433.6999999999989
 31
0.0
  0
LINE
  5
5A68
330
1F
100
AcDbEntity
  8
0
100
AcDbLine
 10
285.3
 20
341.6184933046864
 30
0.0
 11
282.797785144148
 21
433.6999999999989
 31
0.0
  0
LINE
  5
5A96
330
1F
100
AcDbEntity
  8
0
100
AcDbLine
 10
288.7999999999999
 20
433.6999999999989
 30
0.0
 11
339.8
 21
433.6999999999989
 31
0.0
  0
LINE
  5
5A97
330
1F
100
AcDbEntity
  8
0
100
AcDbLine
 10
390.7999999999999
 20
433.6999999999989
 30
0.0
 11
428.8
 21
510.699999999999
 31
0.0
  0
LINE
  5
5A98
330
1F
100
AcDbEntity
  8
0
100
AcDbLine
 10
396.802214855852
 20
433.6999999999989
 30
0.0
 11
429.3899578518651
 21
498.360290109861
 31
0.0
  0
LINE
  5
5A9A
330
1F
100
AcDbEntity
  8
0
100
AcDbLine
 10
388.3
 20
341.6999999999989
 30
0.0
 11
390.7999999999999
 21
433.6999999999989
 31
0.0
  0
LINE
  5
5A9C
330
1F
100
AcDbEntity
  8
0
100
AcDbLine
 10
394.2999999999999
 20
341.6184933046864
 30
0.0
 11
396.802214855852
 21
433.6999999999989
 31
0.0
  0
LINE
  5
5A9D
330
1F
100
AcDbEntity
  8
0
100
AcDbLine
 10
390.7999999999999
 20
433.6999999999989
 30
0.0
 11
339.8
 21
433.6999999999989
 31
0.0
  0
HATCH
  5
5AA6
330
1F
100
AcDbEntity
  8
AM_8
100
AcDbHatch
 10
0.0
 20
0.0
 30
0.0
210
0.0
220
0.0
230
1.0
  2
_U
 70
     0
 71
     0
 91
        1
 92
        1
 93
        9
 72
     2
 10
339.7999999999272
 20
879.7057470789832
 40
387.9999999999868
 50
102.5316807396195
 51
102.7078843724097
 73
     0
 72
     2
 10
250.0479788968413
 20
481.6999999999987
 40
20.00000000000011
 50
77.29211562759193
 51
90.00000000000204
 73
     1
 72
     1
 10
250.0479788968406
 20
501.6999999999988
 11
244.8320447019313
 21
501.6999999999988
 72
     2
 10
244.8320447019314
 20
495.6999999999989
 40
6.0
 50
269.9999999999989
 51
333.6801541583517
 73
     0
 72
     1
 10
250.2100421481348
 20
498.3602901098611
 11
282.797785144148
 21
433.6999999999989
 72
     1
 10
282.797785144148
 20
433.6999999999989
 11
285.2977851441491
 21
341.6999999999989
 72
     1
 10
285.2977851441491
 20
341.6999999999989
 11
291.3
 21
341.6999999999989
 72
     1
 10
291.3
 20
341.6999999999989
 11
288.7999999999999
 21
433.6999999999989
 72
     1
 10
288.7999999999999
 20
433.6999999999989
 11
255.6119899617816
 21
500.9493887616517
 97
        0
 75
     0
 76
     0
 52
135.0
 41
5.0
 77
     0
 78
     1
 53
135.0
 43
0.0
 44
0.0
 45
-3.535533905932737
 46
-3.535533905932737
 79
     0
 98
        1
 10
0.0
 20
0.0
1001
GENIUS_GENODEF_13
1002
{
1000
HIER
1070
     0
1002
}
1002
{
1000
MANEDIT
1070
     0
1002
}
1002
{
1000
NOSEL
1070
     0
1002
}
1002
{
1000
BEHIND
1070
     0
1002
}
1002
{
1000
OTHER
1070
     0
1002
}
1002
{
1000
REACTOR
1002
}
1001
GENIUS_GENOBJ-N-HTC_13
1002
{
1000
OWNER
1000
GEN
1002
}
1001
GENIUS_GENHATCH_13
1002
{
1000
DATA
1040
135.0
1042
0.12
1000
_U
1070
     0
1011
286.2
1021
429.5999999999999
1031
0.0
1002
}
1002
{
1000
UCS
1010
0.0
1020
0.0
1030
0.0
1010
1.0
1020
0.0
1030
0.0
1010
0.0
1020
1.0
1030
0.0
1002
}
1001
ACAD
1010
0.0
1020
0.0
1030
0.0
  0
HATCH
  5
5AB2
330
1F
100
AcDbEntity
  8
AM_8
100
AcDbHatch
 10
0.0
 20
0.0
 30
0.0
210
0.0
220
0.0
230
1.0
  2
_U
 70
     0
 71
     0
 91
        1
 92
        1
 93
        9
 72
     2
 10
339.8000000000735
 20
879.7057470789832
 40
387.9999999999868
 50
282.5316807396195
 51
282.7078843724097
 73
     1
 72
     2
 10
429.5520211031589
 20
481.6999999999986
 40
20.00000000000011
 50
-102.707884372408
 51
-89.99999999999788
 73
     0
 72
     1
 10
429.5520211031596
 20
501.6999999999987
 11
434.7679552980689
 21
501.6999999999987
 72
     2
 10
434.7679552980688
 20
495.6999999999988
 40
6.0
 50
449.9999999999988
 51
513.6801541583516
 73
     1
 72
     1
 10
429.3899578518654
 20
498.3602901098609
 11
396.8022148558521
 21
433.6999999999988
 72
     1
 10
396.8022148558522
 20
433.6999999999988
 11
394.302214855851
 21
341.6999999999988
 72
     1
 10
394.3022148558509
 20
341.6999999999988
 11
388.3
 21
341.6999999999989
 72
     1
 10
388.3
 20
341.6999999999989
 11
390.8000000000001
 21
433.6999999999988
 72
     1
 10
390.8000000000002
 20
433.6999999999988
 11
423.9880100382185
 21
500.9493887616515
 97
        0
 75
     0
 76
     0
 52
135.0
 41
5.0
 77
     0
 78
     1
 53
135.0
 43
0.0
 44
0.0
 45
-3.535533905932737
 46
-3.535533905932737
 79
     0
 98
        1
 10
679.5999999999994
 20
-0.0000000000005116
1001
GENIUS_GENODEF_13
1002
{
1000
HIER
1070
     0
1002
}
1002
{
1000
MANEDIT
1070
     0
1002
}
1002
{
1000
NOSEL
1070
     0
1002
}
1002
{
1000
BEHIND
1070
     0
1002
}
1002
{
1000
OTHER
1070
     0
1002
}
1002
{
1000
REACTOR
1002
}
1001
GENIUS_GENOBJ-N-HTC_13
1002
{
1000
OWNER
1000
GEN
1002
}
1001
GENIUS_GENHATCH_13
1002
{
1000
DATA
1040
135.0
1042
-0.12
1000
_U
1070
     0
1011
393.4000000000001
1021
429.5999999999999
1031
0.0
1002
}
1002
{
1000
UCS
1010
0.0
1020
0.0
1030
0.0
1010
1.0
1020
0.0
1030
0.0
1010
0.0
1020
1.0
1030
0.0
1002
}
1001
ACAD
1010
0.0
1020
0.0
1030
0.0
  0
DIMENSION
  5
5AC2
330
1F
100
AcDbEntity
  8
AM_5
100
AcDbDimension
  2
*D16
 10
431.0731177541195
 20
466.1999999999999
 30
0.0
 11
339.8
 21
468.4499999999999
 31
0.0
 70
    32
  1
{\Famgdt;o}<>
 71
     5
 42
182.5462355082391
  3
dim$0
100
AcDbAlignedDimension
 13
248.5268822458804
 23
501.6999999999988
 33
0.0
 14
431.0731177541195
 24
501.6999999999988
 34
0.0
 50
0.0000000000013345
100
AcDbRotatedDimension
  0
DIMENSION
  5
5AF3
330
1F
100
AcDbEntity
  8
5
100
AcDbDimension
  2
*D17
 10
285.297785144149
 20
310.8
 30
0.0
 11
339.7988925720745
 21
313.15
 31
0.0
 70
    32
  1
%%c<>
 71
     5
 42
109.0022148558509
  3
GEN-ISO
100
AcDbAlignedDimension
 13
394.2999999999999
 23
341.6184933046864
 33
0.0
 14
285.297785144149
 24
341.6999999999989
 34
0.0
 50
0.0000000000001132
100
AcDbRotatedDimension
1001
ACAD
1000
DSTYLE
1002
{
1070
    47
1040
0.0
1070
    48
1040
0.5
1070
   271
1070
     0
1070
   272
1070
     1
1070
   274
1070
     2
1002
}
  0
ENDSEC
  0
SECTION
  2
OBJECTS
  0
DICTIONARY
  5
C
330
0
100
AcDbDictionary
281
     1
  3
ACAD_COLOR
350
73
  3
ACAD_GROUP
350
D
  3
ACAD_IMAGE_DICT
350
89
  3
ACAD_IMAGE_VARS
350
8A
  3
ACAD_LAYOUT
350
1A
  3
ACAD_MATERIAL
350
72
  3
ACAD_MLINESTYLE
350
17
  3
ACAD_PLOTSETTINGS
350
19
  3
ACAD_PLOTSTYLENAME
350
E
  3
ACAD_TABLESTYLE
350
4926
  3
ACDBHEADERROUNDTRIPXREC
350
5B47
  3
AcDbVariableDictionary
350
66
  3
AcmDictionary
350
4987
  3
AMG
350
492C
  3
AMGSNAPSETTINGS
350
49DD
  0
DICTIONARY
  5
5851
330
2
100
AcDbDictionary
280
     1
281
     1
  3
AMLAYER_GROUPCOLORS
360
5852
  0
DICTIONARY
  5
5856
330
1F
100
AcDbDictionary
280
     1
281
     1
  3
ACAD_SORTENTS
360
5857
  0
DICTIONARY
  5
73
102
{ACAD_REACTORS
330
C
102
}
330
C
100
AcDbDictionary
281
     1
  0
DICTIONARY
  5
D
102
{ACAD_REACTORS
330
C
102
}
330
C
100
AcDbDictionary
281
     1
  0
DICTIONARY
  5
89
102
{ACAD_REACTORS
330
C
102
}
330
C
100
AcDbDictionary
281
     1
  0
RASTERVARIABLES
  5
8A
102
{ACAD_REACTORS
330
C
102
}
330
C
100
AcDbRasterVariables
 90
        0
 70
     1
 71
     1
 72
     1
  0
DICTIONARY
  5
1A
102
{ACAD_REACTORS
330
C
102
}
330
C
100
AcDbDictionary
281
     1
  3
Layout1
350
59
  3
Layout2
350
5E
  3
Model
350
22
  0
DICTIONARY
  5
72
102
{ACAD_REACTORS
330
C
102
}
330
C
100
AcDbDictionary
281
     1
  0
DICTIONARY
  5
17
102
{ACAD_REACTORS
330
C
102
}
330
C
100
AcDbDictionary
281
     1
  3
Standard
350
18
  0
DICTIONARY
  5
19
102
{ACAD_REACTORS
330
C
102
}
330
C
100
AcDbDictionary
281
     1
  0
ACDBDICTIONARYWDFLT
  5
E
102
{ACAD_REACTORS
330
C
102
}
330
C
100
AcDbDictionary
281
     1
  3
Normal
350
F
100
AcDbDictionaryWithDefault
340
F
  0
DICTIONARY
  5
4926
102
{ACAD_REACTORS
330
C
102
}
330
C
100
AcDbDictionary
281
     1
  3
Standard
350
4927
  0
DICTIONARY
  5
5B47
102
{ACAD_REACTORS
330
C
102
}
330
C
100
AcDbDictionary
281
     1
  0
DICTIONARY
  5
66
102
{ACAD_REACTORS
330
C
102
}
330
C
100
AcDbDictionary
281
     1
  3
CTABLESTYLE
350
49DC
  3
DIMASSOC
350
67
  3
HIDETEXT
350
6B
  3
PROJECTNAME
350
108B
  0
DICTIONARY
  5
4987
102
{ACAD_REACTORS
330
C
102
}
330
C
100
AcDbDictionary
281
     1
  3
AcmStdDictionary
350
4992
  3
AMDTSECTSYM_ARROWCOLOR
350
49B1
  0
DICTIONARY
  5
492C
102
{ACAD_REACTORS
330
C
102
}
330
C
100
AcDbDictionary
281
     1
  0
DICTIONARY
  5
49DD
102
{ACAD_REACTORS
330
C
102
}
330
C
100
AcDbDictionary
281
     1
  0
DICTIONARY
  5
5852
102
{ACAD_REACTORS
330
5851
102
}
330
5851
100
AcDbDictionary
280
     1
281
     1
  0
SORTENTSTABLE
  5
5857
102
{ACAD_REACTORS
330
5856
102
}
330
5856
100
AcDbSortentsTable
330
1F
331
573A
  5
573D
331
56B3
  5
56B6
331
5801
  5
5804
331
540
  5
540
331
677
  5
679
331
56BB
  5
56BE
331
5809
  5
580C
331
205D
  5
20B0
331
5890
  5
671
331
5898
  5
5965
331
687
  5
689
331
56C3
  5
56C6
331
57DA
  5
57DD
331
5811
  5
5814
331
57E2
  5
57E5
331
5819
  5
581C
331
ADE
  5
1EEE
331
6AF
  5
6C7
331
568
  5
568
331
569C
  5
569F
331
57EA
  5
57ED
331
5821
  5
5824
331
5A9D
  5
5A9D
331
56A4
  5
56A7
331
57F2
  5
57F5
331
6C7
  5
ADE
331
56AC
  5
56AF
331
57FA
  5
57FD
331
670
  5
670
331
678
  5
684
331
541
  5
541
331
1FBE
  5
205D
331
56B4
  5
56B7
331
5802
  5
5805
331
5891
  5
673
331
56BC
  5
56BF
331
580A
  5
580D
331
5A46
  5
5A46
331
56C4
  5
573A
331
57DB
  5
57DE
331
5812
  5
5815
331
57E3
  5
57E6
331
581A
  5
581D
331
5A96
  5
5A96
331
59BF
  5
59BF
331
688
  5
68A
331
551
  5
551
331
ADF
  5
1EEF
331
6B0
  5
6E3
331
569D
  5
56A0
331
57EB
  5
57EE
331
5822
  5
5825
331
56A5
  5
56A8
331
57F3
  5
57F6
331
5AA6
  5
5AA5
331
56AD
  5
56B0
331
57FB
  5
57FE
331
218E
  5
28C1
331
671
  5
676
331
1EEF
  5
205C
331
679
  5
685
331
56B5
  5
56B8
331
5803
  5
5806
331
5892
  5
5894
331
57D4
  5
57D7
331
54A
  5
54A
331
56BD
  5
56C0
331
580B
  5
580E
331
56C5
  5
573B
331
57DC
  5
57DF
331
5813
  5
5816
331
57E4
  5
57E7
331
581B
  5
581E
331
5A97
  5
5A97
331
689
  5
68B
331
AE0
  5
1FBE
331
562
  5
562
331
569E
  5
56A1
331
57EC
  5
57EF
331
5823
  5
5826
331
56A6
  5
56A9
331
57F4
  5
57F7
331
56AE
  5
56B1
331
57FC
  5
57FF
331
66A
  5
66A
331
543
  5
543
331
56B6
  5
56B9
331
5804
  5
5807
331
5893
  5
5895
331
57D5
  5
57D8
331
56BE
  5
56C1
331
580C
  5
580F
331
296F
  5
569E
331
56C6
  5
573C
331
57DD
  5
57E0
331
5814
  5
5817
331
5A68
  5
5A68
331
57E5
  5
57E8
331
581C
  5
581F
331
68A
  5
68C
331
20B0
  5
20BB
331
563
  5
563
331
569F
  5
56A2
331
57ED
  5
57F0
331
5824
  5
583E
331
5A98
  5
5A98
331
56A7
  5
56AA
331
57F5
  5
57F8
331
56AF
  5
56B2
331
57FD
  5
5800
331
66B
  5
66B
331
28A8
  5
28C2
331
673
  5
677
331
28C0
  5
296F
331
56B7
  5
56BA
331
5805
  5
5808
331
5894
  5
5896
331
57D6
  5
57D9
331
54C
  5
54C
331
56BF
  5
56C2
331
580D
  5
5810
331
57DE
  5
57E1
331
5815
  5
5818
331
57E6
  5
57E9
331
581D
  5
5820
331
68B
  5
6AF
331
4DD
  5
4DD
331
20B9
  5
20BD
331
56A0
  5
56A3
331
57EE
  5
57F1
331
5825
  5
5853
331
56A8
  5
56AB
331
57F6
  5
57F9
331
57FE
  5
5801
331
5855
  5
5890
331
6E3
  5
ADF
331
56B0
  5
56B3
331
28C1
  5
569C
331
56B8
  5
56BB
331
5806
  5
5809
331
5895
  5
5897
331
54D
  5
54D
331
684
  5
686
331
56C0
  5
56C4
331
57D7
  5
57DA
331
580E
  5
5811
331
57DF
  5
57E2
331
5816
  5
5819
331
57E7
  5
57EA
331
581E
  5
5821
331
209A
  5
20B9
331
68C
  5
6B0
331
565
  5
565
331
4FE
  5
4FE
331
56A1
  5
56A4
331
57EF
  5
57F2
331
5826
  5
587E
331
5A9A
  5
5A9A
331
56A9
  5
56AC
331
57F7
  5
57FA
331
583E
  5
588E
331
57FF
  5
5802
331
4AF
  5
4AF
331
56B1
  5
56B4
331
56B9
  5
56BC
331
5807
  5
580A
331
205B
  5
2094
331
28C2
  5
569D
331
5896
  5
5898
331
685
  5
687
331
54E
  5
54E
331
57D8
  5
57DB
331
580F
  5
5812
331
5964
  5
AE0
331
57E0
  5
57E3
331
5817
  5
581A
331
581F
  5
5822
331
57E8
  5
57EB
331
20B3
  5
20BC
331
56A2
  5
56A5
331
57F0
  5
57F3
331
20BB
  5
2122
331
56AA
  5
56AD
331
57F8
  5
57FB
331
422
  5
422
331
430
  5
430
331
66E
  5
66E
331
676
  5
678
331
53F
  5
53F
331
56B2
  5
56B5
331
5800
  5
5803
331
588F
  5
5893
331
56BA
  5
56BD
331
5808
  5
580B
331
547
  5
547
331
205C
  5
209A
331
5897
  5
5964
331
56C2
  5
56C5
331
57D9
  5
57DC
331
5810
  5
5813
331
2094
  5
20B3
331
686
  5
688
331
54F
  5
54F
331
57E1
  5
57E4
331
5818
  5
581B
331
5965
  5
5860
331
57E9
  5
57EC
331
5820
  5
5823
331
56A3
  5
56A6
331
57F1
  5
57F4
331
5A9C
  5
5A9C
331
56AB
  5
56AE
331
57F9
  5
57FC
  0
LAYOUT
  5
59
102
{ACAD_XDICTIONARY
360
5B4A
102
}
102
{ACAD_REACTORS
330
1A
102
}
330
1A
100
AcDbPlotSettings
  1

  2
None
  4

  6

 40
0.0
 41
0.0
 42
0.0
 43
0.0
 44
0.0
 45
0.0
 46
0.0
 47
0.0
 48
0.0
 49
0.0
140
0.0
141
0.0
142
1.0
143
1.0
 70
   688
 72
     0
 73
     0
 74
     5
  7
monochrome.ctb
 75
    16
147
1.0
148
0.0
149
0.0
100
AcDbLayout
  1
Layout1
 70
     1
 71
     1
 10
0.0
 20
0.0
 11
12.0
 21
9.0
 12
0.0
 22
0.0
 32
0.0
 14
0.0
 24
0.0
 34
0.0
 15
0.0
 25
0.0
 35
0.0
146
0.0
 13
0.0
 23
0.0
 33
0.0
 16
1.0
 26
0.0
 36
0.0
 17
0.0
 27
1.0
 37
0.0
 76
     0
330
58
  0
LAYOUT
  5
5E
102
{ACAD_XDICTIONARY
360
5B4C
102
}
102
{ACAD_REACTORS
330
1A
102
}
330
1A
100
AcDbPlotSettings
  1

  2
None
  4

  6

 40
0.0
 41
0.0
 42
0.0
 43
0.0
 44
0.0
 45
0.0
 46
0.0
 47
0.0
 48
0.0
 49
0.0
140
0.0
141
0.0
142
1.0
143
1.0
 70
   688
 72
     0
 73
     0
 74
     5
  7
monochrome.ctb
 75
    16
147
1.0
148
0.0
149
0.0
100
AcDbLayout
  1
Layout2
 70
     1
 71
     2
 10
0.0
 20
0.0
 11
12.0
 21
9.0
 12
0.0
 22
0.0
 32
0.0
 14
0.0
 24
0.0
 34
0.0
 15
0.0
 25
0.0
 35
0.0
146
0.0
 13
0.0
 23
0.0
 33
0.0
 16
1.0
 26
0.0
 36
0.0
 17
0.0
 27
1.0
 37
0.0
 76
     0
330
5D
  0
LAYOUT
  5
22
102
{ACAD_XDICTIONARY
360
5B48
102
}
102
{ACAD_REACTORS
330
1A
102
}
330
1A
100
AcDbPlotSettings
  1

  2
none_device
  4
ANSI_A_(8.50_x_11.00_Inches)
  6

 40
6.349999904632568
 41
19.04999923706055
 42
6.350006103515625
 43
19.04998779296875
 44
215.8999938964844
 45
279.3999938964844
 46
0.0
 47
0.0
 48
0.0
 49
0.0
140
0.0
141
0.0
142
1.0
143
2.584895464708373
 70
 11952
 72
     0
 73
     1
 74
     0
  7
monochrome.ctb
 75
     0
147
0.3868628397755418
148
0.0
149
0.0
100
AcDbLayout
  1
Model
 70
     1
 71
     0
 10
0.0
 20
0.0
 11
12.0
 21
9.0
 12
0.0
 22
0.0
 32
0.0
 14
0.0
 24
0.0
 34
0.0
 15
0.0
 25
0.0
 35
0.0
146
0.0
 13
0.0
 23
0.0
 33
0.0
 16
1.0
 26
0.0
 36
0.0
 17
0.0
 27
1.0
 37
0.0
 76
     0
330
1F
  0
MLINESTYLE
  5
18
102
{ACAD_REACTORS
330
17
102
}
330
17
100
AcDbMlineStyle
  2
STANDARD
 70
     0
  3

 62
   256
 51
90.0
 52
90.0
 71
     2
 49
0.5
 62
   256
  6
BYLAYER
 49
-0.5
 62
   256
  6
BYLAYER
  0
ACDBPLACEHOLDER
  5
F
102
{ACAD_REACTORS
330
E
102
}
330
E
  0
TABLESTYLE
  5
4927
102
{ACAD_REACTORS
330
4926
102
}
330
4926
100
AcDbTableStyle
  3
Standard
 70
     0
 71
     0
 40
0.06
 41
0.06
280
     0
281
     0
  7
Standard
140
0.18
170
     2
 62
     0
 63
     7
283
     0
274
    -2
284
     1
 64
     0
275
    -2
285
     1
 65
     0
276
    -2
286
     1
 66
     0
277
    -2
287
     1
 67
     0
278
    -2
288
     1
 68
     0
279
    -2
289
     1
 69
     0
  7
Standard
140
0.25
170
     5
 62
     0
 63
     7
283
     0
274
    -2
284
     1
 64
     0
275
    -2
285
     1
 65
     0
276
    -2
286
     1
 66
     0
277
    -2
287
     1
 67
     0
278
    -2
288
     1
 68
     0
279
    -2
289
     1
 69
     0
  7
Standard
140
0.18
170
     5
 62
     0
 63
     7
283
     0
274
    -2
284
     1
 64
     0
275
    -2
285
     1
 65
     0
276
    -2
286
     1
 66
     0
277
    -2
287
     1
 67
     0
278
    -2
288
     1
 68
     0
279
    -2
289
     1
 69
     0
  0
DICTIONARYVAR
  5
49DC
102
{ACAD_REACTORS
330
66
102
}
330
66
100
DictionaryVariables
280
     0
  1
STANDARD
  0
DICTIONARYVAR
  5
67
102
{ACAD_REACTORS
330
66
102
}
330
66
100
DictionaryVariables
280
     0
  1
1
  0
DICTIONARYVAR
  5
6B
102
{ACAD_REACTORS
330
66
102
}
330
66
100
DictionaryVariables
280
     0
  1
1
  0
DICTIONARYVAR
  5
108B
102
{ACAD_REACTORS
330
66
102
}
330
66
100
DictionaryVariables
280
     0
  1

  0
DICTIONARY
  5
4992
102
{ACAD_REACTORS
330
4987
102
}
330
4987
100
AcDbDictionary
281
     1
  0
XRECORD
  5
49B1
102
{ACAD_REACTORS
330
4987
102
}
330
4987
100
AcDbXrecord
280
     1
 90
-1023410169
  0
DICTIONARY
  5
5B4A
330
59
100
AcDbDictionary
280
     1
281
     1
  3
ACAD_XREC_ROUNDTRIP
360
5B4B
  0
DICTIONARY
  5
5B4C
330
5E
100
AcDbDictionary
280
     1
281
     1
  3
ACAD_XREC_ROUNDTRIP
360
5B4D
  0
DICTIONARY
  5
5B48
330
22
100
AcDbDictionary
280
     1
281
     1
  3
ACAD_XREC_ROUNDTRIP
360
5B49
  0
XRECORD
  5
5B4B
102
{ACAD_REACTORS
330
5B4A
102
}
330
5B4A
100
AcDbXrecord
280
     1
102
SHADEPLOT
 70
     0
102
SHADEPLOTRESLEVEL
 70
     2
102
SHADEPLOTCUSTOMDPI
 70
   300
  0
XRECORD
  5
5B4D
102
{ACAD_REACTORS
330
5B4C
102
}
330
5B4C
100
AcDbXrecord
280
     1
102
SHADEPLOT
 70
     0
102
SHADEPLOTRESLEVEL
 70
     2
102
SHADEPLOTCUSTOMDPI
 70
   300
  0
XRECORD
  5
5B49
102
{ACAD_REACTORS
330
5B48
102
}
330
5B48
100
AcDbXrecord
280
     1
102
SHADEPLOT
 70
     0
102
SHADEPLOTRESLEVEL
 70
     2
102
SHADEPLOTCUSTOMDPI
 70
   300
  0
ENDSEC
  0
EOF
