  0
SECTION
  2
HEADER
  9
$ACADVER
  1
AC1015
  9
$ACADMAINTVER
 70
    20
  9
$DWGCODEPAGE
  3
ANSI_1252
  9
$INSBASE
 10
0.0
 20
0.0
 30
0.0
  9
$EXTMIN
 10
709.7456517627406
 20
-18.72592821808916
 30
-0.0015258207003583
  9
$EXTMAX
 10
1056.733845657026
 20
603.2874112250042
 30
0.0000000349246037
  9
$LIMMIN
 10
0.0
 20
0.0
  9
$LIMMAX
 10
12.0
 20
9.0
  9
$ORTHOMODE
 70
     1
  9
$REGENMODE
 70
     1
  9
$FILLMODE
 70
     1
  9
$QTEXTMODE
 70
     0
  9
$MIRRTEXT
 70
     0
  9
$LTSCALE
 40
12.5
  9
$ATTMODE
 70
     1
  9
$TEXTSIZE
 40
12.0
  9
$TRACEWID
 40
0.05
  9
$TEXTSTYLE
  7
ISOCP
  9
$CLAYER
  8
0
  9
$CELTYPE
  6
ByLayer
  9
$CECOLOR
 62
   256
  9
$CELTSCALE
 40
1.0
  9
$DISPSILH
 70
     0
  9
$DIMSCALE
 40
2.5
  9
$DIMASZ
 40
2.5
  9
$DIMEXO
 40
1.0
  9
$DIMDLI
 40
0.38
  9
$DIMRND
 40
0.0
  9
$DIMDLE
 40
0.0
  9
$DIMEXE
 40
1.0
  9
$DIMTP
 40
0.0
  9
$DIMTM
 40
0.0
  9
$DIMTXT
 40
2.5
  9
$DIMCEN
 40
0.0
  9
$DIMTSZ
 40
0.0
  9
$DIMTOL
 70
     0
  9
$DIMLIM
 70
     0
  9
$DIMTIH
 70
     0
  9
$DIMTOH
 70
     0
  9
$DIMSE1
 70
     0
  9
$DIMSE2
 70
     0
  9
$DIMTAD
 70
     0
  9
$DIMZIN
 70
     0
  9
$DIMBLK
  1

  9
$DIMASO
 70
     1
  9
$DIMSHO
 70
     1
  9
$DIMPOST
  1

  9
$DIMAPOST
  1

  9
$DIMALT
 70
     0
  9
$DIMALTD
 70
     2
  9
$DIMALTF
 40
25.4
  9
$DIMLFAC
 40
1.0
  9
$DIMTOFL
 70
     1
  9
$DIMTVP
 40
0.0
  9
$DIMTIX
 70
     1
  9
$DIMSOXD
 70
     0
  9
$DIMSAH
 70
     0
  9
$DIMBLK1
  1

  9
$DIMBLK2
  1

  9
$DIMSTYLE
  2
DIM
  9
$DIMCLRD
 70
     0
  9
$DIMCLRE
 70
     0
  9
$DIMCLRT
 70
     0
  9
$DIMTFAC
 40
1.0
  9
$DIMGAP
 40
1.0
  9
$DIMJUST
 70
     0
  9
$DIMSD1
 70
     0
  9
$DIMSD2
 70
     0
  9
$DIMTOLJ
 70
     1
  9
$DIMTZIN
 70
     0
  9
$DIMALTZ
 70
     0
  9
$DIMALTTZ
 70
     0
  9
$DIMUPT
 70
     0
  9
$DIMDEC
 70
     0
  9
$DIMTDEC
 70
     0
  9
$DIMALTU
 70
     2
  9
$DIMALTTD
 70
     2
  9
$DIMTXSTY
  7
ISOCP
  9
$DIMAUNIT
 70
     0
  9
$DIMADEC
 70
     0
  9
$DIMALTRND
 40
0.0
  9
$DIMAZIN
 70
     0
  9
$DIMDSEP
 70
    46
  9
$DIMATFIT
 70
     3
  9
$DIMFRAC
 70
     0
  9
$DIMLDRBLK
  1

  9
$DIMLUNIT
 70
     2
  9
$DIMLWD
 70
    -2
  9
$DIMLWE
 70
    -2
  9
$DIMTMOVE
 70
     2
  9
$LUNITS
 70
     2
  9
$LUPREC
 70
     4
  9
$SKETCHINC
 40
0.1
  9
$FILLETRAD
 40
0.0
  9
$AUNITS
 70
     0
  9
$AUPREC
 70
     6
  9
$MENU
  1
.
  9
$ELEVATION
 40
0.0
  9
$PELEVATION
 40
0.0
  9
$THICKNESS
 40
0.0
  9
$LIMCHECK
 70
     0
  9
$CHAMFERA
 40
0.0
  9
$CHAMFERB
 40
0.0
  9
$CHAMFERC
 40
0.0
  9
$CHAMFERD
 40
0.0
  9
$SKPOLY
 70
     0
  9
$TDCREATE
 40
2454023.103121447
  9
$TDUCREATE
 40
2454023.061454780
  9
$TDUPDATE
 40
2454089.437715857
  9
$TDUUPDATE
 40
2454089.396049190
  9
$TDINDWG
 40
0.2108744792
  9
$TDUSRTIMER
 40
0.2108744792
  9
$USRTIMER
 70
     1
  9
$ANGBASE
 50
0.0
  9
$ANGDIR
 70
     0
  9
$PDMODE
 70
     0
  9
$PDSIZE
 40
0.0
  9
$PLINEWID
 40
0.0
  9
$SPLFRAME
 70
     0
  9
$SPLINETYPE
 70
     6
  9
$SPLINESEGS
 70
     8
  9
$HANDSEED
  5
239E
  9
$SURFTAB1
 70
     6
  9
$SURFTAB2
 70
     6
  9
$SURFTYPE
 70
     6
  9
$SURFU
 70
     6
  9
$SURFV
 70
     6
  9
$UCSBASE
  2

  9
$UCSNAME
  2

  9
$UCSORG
 10
0.0
 20
0.0
 30
0.0
  9
$UCSXDIR
 10
1.0
 20
0.0
 30
0.0
  9
$UCSYDIR
 10
0.0
 20
1.0
 30
0.0
  9
$UCSORTHOREF
  2

  9
$UCSORTHOVIEW
 70
     0
  9
$UCSORGTOP
 10
0.0
 20
0.0
 30
0.0
  9
$UCSORGBOTTOM
 10
0.0
 20
0.0
 30
0.0
  9
$UCSORGLEFT
 10
0.0
 20
0.0
 30
0.0
  9
$UCSORGRIGHT
 10
0.0
 20
0.0
 30
0.0
  9
$UCSORGFRONT
 10
0.0
 20
0.0
 30
0.0
  9
$UCSORGBACK
 10
0.0
 20
0.0
 30
0.0
  9
$PUCSBASE
  2

  9
$PUCSNAME
  2

  9
$PUCSORG
 10
0.0
 20
0.0
 30
0.0
  9
$PUCSXDIR
 10
1.0
 20
0.0
 30
0.0
  9
$PUCSYDIR
 10
0.0
 20
1.0
 30
0.0
  9
$PUCSORTHOREF
  2

  9
$PUCSORTHOVIEW
 70
     0
  9
$PUCSORGTOP
 10
0.0
 20
0.0
 30
0.0
  9
$PUCSORGBOTTOM
 10
0.0
 20
0.0
 30
0.0
  9
$PUCSORGLEFT
 10
0.0
 20
0.0
 30
0.0
  9
$PUCSORGRIGHT
 10
0.0
 20
0.0
 30
0.0
  9
$PUCSORGFRONT
 10
0.0
 20
0.0
 30
0.0
  9
$PUCSORGBACK
 10
0.0
 20
0.0
 30
0.0
  9
$USERI1
 70
     0
  9
$USERI2
 70
     0
  9
$USERI3
 70
     0
  9
$USERI4
 70
     0
  9
$USERI5
 70
     0
  9
$USERR1
 40
0.0
  9
$USERR2
 40
0.0
  9
$USERR3
 40
0.0
  9
$USERR4
 40
0.0
  9
$USERR5
 40
0.0
  9
$WORLDVIEW
 70
     1
  9
$SHADEDGE
 70
     3
  9
$SHADEDIF
 70
    70
  9
$TILEMODE
 70
     1
  9
$MAXACTVP
 70
    64
  9
$PINSBASE
 10
0.0
 20
0.0
 30
0.0
  9
$PLIMCHECK
 70
     0
  9
$PEXTMIN
 10
0.0
 20
0.0
 30
0.0
  9
$PEXTMAX
 10
0.0
 20
0.0
 30
0.0
  9
$PLIMMIN
 10
0.0
 20
0.0
  9
$PLIMMAX
 10
12.0
 20
9.0
  9
$UNITMODE
 70
     0
  9
$VISRETAIN
 70
     1
  9
$PLINEGEN
 70
     0
  9
$PSLTSCALE
 70
     1
  9
$TREEDEPTH
 70
  3020
  9
$CMLSTYLE
  2
Standard
  9
$CMLJUST
 70
     0
  9
$CMLSCALE
 40
1.0
  9
$PROXYGRAPHICS
 70
     1
  9
$MEASUREMENT
 70
     0
  9
$CELWEIGHT
370
    -1
  9
$ENDCAPS
280
     0
  9
$JOINSTYLE
280
     0
  9
$LWDISPLAY
290
     0
  9
$INSUNITS
 70
     4
  9
$HYPERLINKBASE
  1

  9
$STYLESHEET
  1

  9
$XEDIT
290
     1
  9
$CEPSNTYPE
380
     0
  9
$PSTYLEMODE
290
     1
  9
$FINGERPRINTGUID
  2
{FDEAD576-A652-11D2-9A35-0060089B3A3F}
  9
$VERSIONGUID
  2
{ADA99467-3EEA-4655-AF67-4EFCBE9606D4}
  9
$EXTNAMES
290
     1
  9
$PSVPSCALE
 40
0.0
  9
$OLESTARTUP
290
     0
  0
ENDSEC
  0
SECTION
  2
CLASSES
  0
CLASS
  1
ACDBDICTIONARYWDFLT
  2
AcDbDictionaryWithDefault
  3
ObjectDBX Classes
 90
        0
280
     0
281
     0
  0
CLASS
  1
ACDBPLACEHOLDER
  2
AcDbPlaceHolder
  3
ObjectDBX Classes
 90
        0
280
     0
281
     0
  0
CLASS
  1
LAYOUT
  2
AcDbLayout
  3
ObjectDBX Classes
 90
        0
280
     0
281
     0
  0
CLASS
  1
DICTIONARYVAR
  2
AcDbDictionaryVar
  3
ObjectDBX Classes
 90
        0
280
     0
281
     0
  0
CLASS
  1
RASTERVARIABLES
  2
AcDbRasterVariables
  3
ISM
 90
        0
280
     0
281
     0
  0
CLASS
  1
IMAGEDEF
  2
AcDbRasterImageDef
  3
ISM
 90
    32768
280
     0
281
     0
  0
CLASS
  1
IMAGEDEF_REACTOR
  2
AcDbRasterImageDefReactor
  3
ISM
 90
    32769
280
     0
281
     0
  0
CLASS
  1
IMAGE
  2
AcDbRasterImage
  3
ISM
 90
    32895
280
     0
281
     1
  0
CLASS
  1
DIMASSOC
  2
AcDbDimAssoc
  3
"AcDbDimAssoc|Product Desc:     AcDim ARX App For Dimension|Company:          Autodesk, Inc.|WEB Address:      www.autodesk.com"
 90
        0
280
     0
281
     0
  0
CLASS
  1
TABLESTYLE
  2
AcDbTableStyle
  3
ObjectDBX Classes
 90
     2047
280
     0
281
     0
  0
CLASS
  1
ACME_DOCUMENT
  2
AcMeDbDoc
  3
AcMeServices
 90
        0
280
     0
281
     0
  0
CLASS
  1
AMGSETTINGSOBJ
  2
AmgSettingsObj
  3
"AcadM|Product Description: AutoCAD Mechanical 2000|Company: Autodesk"
 90
        0
280
     0
281
     0
  0
CLASS
  1
ACMESCOPE
  2
AcMeScope
  3
AcMeServices
 90
        0
280
     0
281
     0
  0
CLASS
  1
ACMECOMMANDHISTORY
  2
AcMeCommandHistory
  3
AcMeServices
 90
        0
280
     0
281
     0
  0
CLASS
  1
ACIMSYSVARMAN
  2
AcImSysVarManager
  3
AcMeServices
 90
        0
280
     0
281
     0
  0
CLASS
  1
ACIMINTSYSVAR
  2
AcImIntSysVar
  3
AcMeServices
 90
        0
280
     0
281
     0
  0
CLASS
  1
ACMEDRAWINGMAN
  2
AcMeDrawingMan
  3
AcMeServices
 90
        0
280
     0
281
     0
  0
CLASS
  1
ACMEVIEW
  2
AcMeView
  3
AcMeServices
 90
        0
280
     0
281
     0
  0
CLASS
  1
ACDBENTITYCACHE
  2
AcMeEntityCache
  3
AcMeServices
 90
        0
280
     0
281
     0
  0
CLASS
  1
GSMANAGER
  2
AcMeGSManager
  3
AcMeServices
 90
        0
280
     0
281
     0
  0
CLASS
  1
AMDTINTERNALREACTOR
  2
AmdtInternalReactor
  3
AcMeServices
 90
        0
280
     0
281
     0
  0
CLASS
  1
ACMESTATEMGR
  2
AcMeStateMgr
  3
AcMeServices
 90
        0
280
     0
281
     0
  0
CLASS
  1
ACGREFMASTER
  2
AcGrefMaster
  3
AcAttribServices
 90
        0
280
     0
281
     0
  0
CLASS
  1
AM_DRAWING_MGR
  2
AcDmDwgMgr
  3
AcMechDwgViewMgmt
 90
        0
280
     0
281
     0
  0
CLASS
  1
AM_DWG_DOCUMENT
  2
AcDmDwgDocument
  3
AcMechDwgViewMgmt
 90
        0
280
     0
281
     0
  0
CLASS
  1
AM_DWG_SHEET
  2
AcDmSheet
  3
AcMechDwgViewMgmt
 90
        0
280
     0
281
     0
  0
CLASS
  1
AM_VIEWDIMPARMAP
  2
AcDmViewDimParMap
  3
AcMechDwgViewMgmt
 90
        0
280
     0
281
     0
  0
CLASS
  1
ACIMREALSYSVAR
  2
AcImRealSysVar
  3
AcMeServices
 90
        0
280
     0
281
     0
  0
CLASS
  1
AM_DWGMGR_NAME
  2
AcDmDwgMgrName
  3
AcMechDwgViewMgmt
 90
        0
280
     0
281
     0
  0
CLASS
  1
ACME_DATABASE
  2
AcMeDbDatabase
  3
AcMeServices
 90
        0
280
     0
281
     0
  0
CLASS
  1
ACRFINSADJUSTERMGR
  2
AcRfInsAdjusterMgr
  3
AcMeServices
 90
        0
280
     0
281
     0
  0
CLASS
  1
ACGREFACADMASTER
  2
AcGrefacadMaster
  3
AcGrefServices
 90
        0
280
     0
281
     0
  0
CLASS
  1
AMDTMENUSTATEMGR
  2
AmdtMenuStateMgr
  3
McadcomServices
 90
        0
280
     0
281
     0
  0
CLASS
  1
AMDTMCOMMENUSTATE
  2
AmdtMcomMenuState
  3
McadcomServices
 90
        0
280
     0
281
     0
  0
CLASS
  1
AMIMASTER
  2
AmiMaster
  3
AmiServices
 90
        0
280
     0
281
     0
  0
CLASS
  1
MAPIAMMOUDLE
  2
MApiAmModule
  3
MApiAmServices
 90
        0
280
     0
281
     0
  0
CLASS
  1
ACIMSTRSYSVAR
  2
AcImStrSysVar
  3
AcMeServices
 90
        0
280
     0
281
     0
  0
CLASS
  1
AMDTADMENUSTATE
  2
AmdtAdMenuState
  3
DesignerServices
 90
        0
280
     0
281
     0
  0
CLASS
  1
ADAPPL
  2
AcAdAppl
  3
DesignerServices
 90
        0
280
     0
281
     0
  0
CLASS
  1
DEPMGR
  2
AcAdDepMgr
  3
DesignerServices
 90
        0
280
     0
281
     0
  0
CLASS
  1
PARAMMGR
  2
AcAdParamMgr
  3
DesignerServices
 90
        0
280
     0
281
     0
  0
CLASS
  1
PARAMSCOPE
  2
AcAdParamScope
  3
DesignerServices
 90
        0
280
     0
281
     0
  0
CLASS
  1
NAMEDAPPL
  2
AcAdNamedAppl
  3
DesignerServices
 90
        0
280
     0
281
     0
  0
CLASS
  1
AMDTDMMENUSTATE
  2
AmdtDmMenuState
  3
AcMechDwgViewMgmt
 90
        0
280
     0
281
     0
  0
CLASS
  1
AMDTAMMENUSTATE
  2
AmdtAmMenuState
  3
DesignerAssemblies
 90
        0
280
     0
281
     0
  0
CLASS
  1
ACAMPROJECT
  2
AcAmProject
  3
DesignerAssemblies
 90
        0
280
     0
281
     0
  0
CLASS
  1
ACAMGRCOMPDEF
  2
AcAmGrCompDef
  3
DesignerAssemblies
 90
        0
280
     0
281
     0
  0
CLASS
  1
ACCMCONTEXT
  2
AcCmContext
  3
DesignerAssemblies
 90
        0
280
     0
281
     0
  0
CLASS
  1
ACAMCOMPDEF
  2
AcAmCompDef
  3
DesignerAssemblies
 90
        0
280
     0
281
     0
  0
CLASS
  1
ACAMCOMPDEFMGR
  2
AcAmCompDefMgr
  3
DesignerAssemblies
 90
        0
280
     0
281
     0
  0
CLASS
  1
AMCONTEXTMGR
  2
AcAmContextMgr
  3
DesignerAssemblies
 90
        0
280
     0
281
     0
  0
CLASS
  1
ACAMCONTEXTMODELER
  2
AcAmContextModeler
  3
DesignerAssemblies
 90
        0
280
     0
281
     0
  0
CLASS
  1
ACMDATADICTIONARY
  2
AcmDataDictionary
  3
"AcmSymBB|Product Description: AutoCAD Mechanical 2004 DX|Company: Autodesk"
 90
        0
280
     0
281
     0
  0
CLASS
  1
CATALOGSTATE
  2
AcAmCatalogState
  3
DesignerAssemblies
 90
        0
280
     0
281
     0
  0
CLASS
  1
ACAMGRCOMPDEFSET
  2
AcAmGrCompDefSet
  3
DesignerAssemblies
 90
        0
280
     0
281
     0
  0
CLASS
  1
AMDTBROWSERDBTAB
  2
AmdtBrowserDbTab
  3
McadcomServices
 90
        0
280
     0
281
     0
  0
CLASS
  1
CBROWSERAPPOBJECT
  2
CBrowserAppObject
  3
McadcomServices
 90
        0
280
     0
281
     0
  0
CLASS
  1
DM_PLACEHOLDER
  2
AcDmSelsetPlaceholder
  3
AcMechDwgViewMgmt
 90
        0
280
     0
281
     0
  0
CLASS
  1
ACMSTANDARDANSI
  2
AcmStandardANSI
  3
"Amdt_StdImp|Product Description: AutoCAD Mechanical 2004 DX|Company: Autodesk"
 90
        0
280
     0
281
     0
  0
CLASS
  1
AMGOBJPROPCFG
  2
AmgObjPropCfg
  3
"AmgLay|Product Description: AutoCAD Mechanical 2000|Company: Autodesk"
 90
        1
280
     0
281
     0
  0
CLASS
  1
ACMSURFSTANDARDANSI
  2
AcmSurfTextStdANSI
  3
"Amdt_StdImp|Product Description: AutoCAD Mechanical 2004 DX|Company: Autodesk"
 90
        0
280
     0
281
     0
  0
CLASS
  1
ACMFCFSTANDARDANSI
  2
AcmFCFStdANSI
  3
"Amdt_StdImp|Product Description: AutoCAD Mechanical 2004 DX|Company: Autodesk"
 90
        0
280
     0
281
     0
  0
CLASS
  1
ACMWELDSTANDARDANSI
  2
AcmWeldingStdANSI
  3
"Amdt_StdImp|Product Description: AutoCAD Mechanical 2004 DX|Company: Autodesk"
 90
        0
280
     0
281
     0
  0
CLASS
  1
ACMIDSTANDARDANSI
  2
AcmIdStdANSI
  3
"Amdt_StdImp|Product Description: AutoCAD Mechanical 2004 DX|Company: Autodesk"
 90
        0
280
     0
281
     0
  0
CLASS
  1
ACMDATUMSTANDARDANSI
  2
AcmDatumStdANSI
  3
"Amdt_StdImp|Product Description: AutoCAD Mechanical 2004 DX|Company: Autodesk"
 90
        0
280
     0
281
     0
  0
CLASS
  1
ACMBOMSTANDARDANSI
  2
AcmBOMStdANSI
  3
"Amdt_StdImp|Product Description: AutoCAD Mechanical 2004 DX|Company: Autodesk"
 90
        0
280
     0
281
     0
  0
CLASS
  1
ACMDETAILSTANDARDANSI
  2
AmdtDetailSymStdANSI
  3
"Amdt_StdImp|Product Description: AutoCAD Mechanical 2004 DX|Company: Autodesk"
 90
        0
280
     0
281
     0
  0
CLASS
  1
ACMSECTIONSTANDARDANSI
  2
AmdtSectionSymStdANSI
  3
"Amdt_StdImp|Product Description: AutoCAD Mechanical 2004 DX|Company: Autodesk"
 90
        0
280
     0
281
     0
  0
CLASS
  1
ACMCENTERLINESTANDARDANSI
  2
AmdtCenterLineStdANSI
  3
"Amdt_StdImp|Product Description: AutoCAD Mechanical 2004 DX|Company: Autodesk"
 90
        0
280
     0
281
     0
  0
CLASS
  1
ACMTHREADLINESTANDARDANSI
  2
AmdtThreadLineStdANSI
  3
"Amdt_StdImp|Product Description: AutoCAD Mechanical 2004 DX|Company: Autodesk"
 90
        0
280
     0
281
     0
  0
CLASS
  1
ACMNOTESTANDARDANSI
  2
AmdtNoteStdANSI
  3
"Amdt_StdImp|Product Description: AutoCAD Mechanical 2004 DX|Company: Autodesk"
 90
        0
280
     0
281
     0
  0
CLASS
  1
AMDTNOTETEMPLATEDB
  2
AmdtNoteTemplateDB
  3
AMDT_STDIMP_MODULE_NAME
 90
        0
280
     0
281
     0
  0
CLASS
  1
ACAMGLAYSTD
  2
AcAmgLayStd
  3
"AcAmgLayStd|Product Description: AutoCAD Mechanical 2000|Company: Autodesk"
 90
        0
280
     0
281
     0
  0
CLASS
  1
ACAMGDIMSTD
  2
AcAmgDimStd
  3
"AcAmgDimStd|Product Description: AutoCAD Mechanical 2000|Company: Autodesk"
 90
        0
280
     0
281
     0
  0
CLASS
  1
ACAMGHOLECHARTSTDANSI
  2
AcAmgHoleChartStdANSI
  3
ACMSYMBB_MODULE_NAME
 90
        0
280
     0
281
     0
  0
CLASS
  1
ACAMGTITLESTD
  2
AcAmgTitleStd
  3
"TITLEAPP"
 90
        0
280
     0
281
     0
  0
CLASS
  1
ACAMGFILTERDAT
  2
AcAmgFilterDat
  3
"AcadM|Product Description: AutoCAD Mechanical 2000|Company: Autodesk"
 90
        0
280
     0
281
     0
  0
CLASS
  1
ACMDATAENTRYBLOCK
  2
AcmDataEntryBlock
  3
"AcmSymBB|Product Description: AutoCAD Mechanical 2004 DX|Company: Autodesk"
 90
    32768
280
     0
281
     0
  0
CLASS
  1
SORTENTSTABLE
  2
AcDbSortentsTable
  3
ObjectDBX Classes
 90
        0
280
     0
281
     0
  0
ENDSEC
  0
SECTION
  2
TABLES
  0
TABLE
  2
VPORT
  5
8
330
0
100
AcDbSymbolTable
 70
     4
  0
VPORT
  5
2396
330
8
100
AcDbSymbolTableRecord
100
AcDbViewportTableRecord
  2
*Active
 70
     0
 10
0.0
 20
0.0
 11
1.0
 21
1.0
 12
883.2397487098836
 22
292.2807415034575
 13
0.0
 23
0.0
 14
0.1
 24
0.1
 15
0.5
 25
0.5
 16
0.0
 26
0.0
 36
1.0
 17
0.0
 27
0.0
 37
0.0
 40
626.5315961460698
 41
1.494545454545454
 42
50.0
 43
0.0
 44
0.0
 50
0.0
 51
0.0
 71
     0
 72
  1000
 73
     1
 74
     3
 75
     0
 76
     0
 77
     0
 78
     0
281
     0
 65
     1
110
0.0
120
0.0
130
0.0
111
1.0
121
0.0
131
0.0
112
0.0
122
1.0
132
0.0
 79
     0
146
0.0
  0
ENDTAB
  0
TABLE
  2
LTYPE
  5
5
330
0
100
AcDbSymbolTable
 70
    18
  0
LTYPE
  5
14
330
5
100
AcDbSymbolTableRecord
100
AcDbLinetypeTableRecord
  2
ByBlock
 70
     0
  3

 72
    65
 73
     0
 40
0.0
  0
LTYPE
  5
15
330
5
100
AcDbSymbolTableRecord
100
AcDbLinetypeTableRecord
  2
ByLayer
 70
     0
  3

 72
    65
 73
     0
 40
0.0
  0
LTYPE
  5
16
330
5
100
AcDbSymbolTableRecord
100
AcDbLinetypeTableRecord
  2
Continuous
 70
     0
  3
Solid line
 72
    65
 73
     0
 40
0.0
  0
LTYPE
  5
B2
330
5
100
AcDbSymbolTableRecord
100
AcDbLinetypeTableRecord
  2
CENTER
 70
     0
  3
Center ____ _ ____ _ ____ _ ____ _ ____ _ ____
 72
    65
 73
     4
 40
2.0
 49
1.25
 74
     0
 49
-0.25
 74
     0
 49
0.25
 74
     0
 49
-0.25
 74
     0
  0
LTYPE
  5
1298
330
5
100
AcDbSymbolTableRecord
100
AcDbLinetypeTableRecord
  2
GEN3A
 70
     0
  3
 - - - - -
 72
    65
 73
     2
 40
3.125
 49
2.25
 74
     0
 49
-0.875
 74
     0
  0
LTYPE
  5
129A
330
5
100
AcDbSymbolTableRecord
100
AcDbLinetypeTableRecord
  2
GEN7A
 70
     0
  3
__ . __ . __
 72
    65
 73
     4
 40
6.875
 49
4.75
 74
     0
 49
-0.875
 74
     0
 49
0.375
 74
     0
 49
-0.875
 74
     0
  0
LTYPE
  5
1A80
330
5
100
AcDbSymbolTableRecord
100
AcDbLinetypeTableRecord
  2
HIDDEN
 70
     0
  3
Verdeckt
 72
    65
 73
     2
 40
0.375
 49
0.25
 74
     0
 49
-0.125
 74
     0
  0
LTYPE
  5
1A81
330
5
100
AcDbSymbolTableRecord
100
AcDbLinetypeTableRecord
  2
PHANTOM2
 70
     0
  3
Phantom (.5x) ___ _ _ ___ _ _ ___ _ _ ___ _ _
 72
    65
 73
     6
 40
1.25
 49
0.625
 74
     0
 49
-0.125
 74
     0
 49
0.125
 74
     0
 49
-0.125
 74
     0
 49
0.125
 74
     0
 49
-0.125
 74
     0
  0
LTYPE
  5
1AB4
330
5
100
AcDbSymbolTableRecord
100
AcDbLinetypeTableRecord
  2
AM_ISO02W050
 70
     0
  3
__ __ __ __ __ __ __ __ __ __ __ __ __ __ __
 72
    65
 73
     2
 40
7.5
 49
6.0
 74
     0
 49
-1.5
 74
     0
  0
LTYPE
  5
1AB5
330
5
100
AcDbSymbolTableRecord
100
AcDbLinetypeTableRecord
  2
AM_ISO08W050
 70
     0
  3
____ . ____ . ____ . ____ . ____ . ____ . ____
 72
    65
 73
     4
 40
18.0
 49
12.0
 74
     0
 49
-1.5
 74
     0
 49
3.0
 74
     0
 49
-1.5
 74
     0
  0
LTYPE
  5
1AB6
330
5
100
AcDbSymbolTableRecord
100
AcDbLinetypeTableRecord
  2
AM_ISO09W050
 70
     0
  3
_____ . . _____ . . _____ . . ____ .. ____
 72
    65
 73
     6
 40
22.5
 49
12.0
 74
     0
 49
-1.5
 74
     0
 49
3.0
 74
     0
 49
-1.5
 74
     0
 49
3.0
 74
     0
 49
-1.5
 74
     0
  0
LTYPE
  5
1AB7
330
5
100
AcDbSymbolTableRecord
100
AcDbLinetypeTableRecord
  2
Amconstr
 70
     0
  3
_______________________
 72
    65
 73
     2
 40
9999.0
 49
9999.0
 74
     0
 49
0.0
 74
     0
  0
LTYPE
  5
1AB8
330
5
100
AcDbSymbolTableRecord
100
AcDbLinetypeTableRecord
  2
AM_ISO08W050x2
 70
     0
  3
__ . __ . __ . __ . __ . __
 72
    65
 73
     4
 40
9.0
 49
6.0
 74
     0
 49
-0.75
 74
     0
 49
1.5
 74
     0
 49
-0.75
 74
     0
  0
LTYPE
  5
1AB9
330
5
100
AcDbSymbolTableRecord
100
AcDbLinetypeTableRecord
  2
AM_ISO02W050x2
 70
     0
  3
 _ _ _ _ _ _ _ _ _ _ _ _
 72
    65
 73
     2
 40
3.75
 49
3.0
 74
     0
 49
-0.75
 74
     0
  0
LTYPE
  5
1ABC
330
5
100
AcDbSymbolTableRecord
100
AcDbLinetypeTableRecord
  2
Amzigzag
 70
     0
  3
/\/-/\/-/\/-/\/-/\/-/\/
 72
    65
 73
     2
 40
11.0001
 49
0.0001
 74
     4
 75
   136
340
1ABB
 46
0.04
 50
0.0
 44
0.0
 45
0.0
 49
-11.0
 74
     0
  0
LTYPE
  5
1ABD
330
5
100
AcDbSymbolTableRecord
100
AcDbLinetypeTableRecord
  2
CENTER2
 70
     0
  3
Center (.5x) ___ _ ___ _ ___ _ ___ _ ___ _ ___
 72
    65
 73
     4
 40
1.125
 49
0.75
 74
     0
 49
-0.125
 74
     0
 49
0.125
 74
     0
 49
-0.125
 74
     0
  0
LTYPE
  5
1ABE
330
5
100
AcDbSymbolTableRecord
100
AcDbLinetypeTableRecord
  2
HIDDEN2
 70
     0
  3
Hidden (.5x) _ _ _ _ _ _ _ _ _ _ _ _ _ _ _ _ _
 72
    65
 73
     2
 40
0.1875
 49
0.125
 74
     0
 49
-0.0625
 74
     0
  0
LTYPE
  5
1ABF
330
5
100
AcDbSymbolTableRecord
100
AcDbLinetypeTableRecord
  2
Amzigzag2
 70
     0
  3
/\/-/\/-/\/-/\/-/\/-/\/
 72
    65
 73
     2
 40
0.4401
 49
0.0001
 74
     4
 75
   136
340
1ABB
 46
0.0016
 50
0.0
 44
0.0
 45
0.0
 49
-0.4400000000000001
 74
     0
  0
LTYPE
  5
1ACD
330
5
100
AcDbSymbolTableRecord
100
AcDbLinetypeTableRecord
  2
ACANSTGB
 70
     0
  3
__ . . __ . .
 72
    65
 73
     6
 40
0.35433070866
 49
0.15748031496
 74
     0
 49
-0.03937007874
 74
     0
 49
0.03937007874
 74
     0
 49
-0.03937007874
 74
     0
 49
0.03937007874
 74
     0
 49
-0.03937007874
 74
     0
  0
LTYPE
  5
1ACE
330
5
100
AcDbSymbolTableRecord
100
AcDbLinetypeTableRecord
  2
ACANSTGL
 70
     0
  3
_ _ _ _ _
 72
    65
 73
     2
 40
0.11811023622
 49
0.07874015748
 74
     0
 49
-0.03937007874
 74
     0
  0
ENDTAB
  0
TABLE
  2
LAYER
  5
2
330
0
100
AcDbSymbolTable
 70
    14
  0
LAYER
  5
10
330
2
100
AcDbSymbolTableRecord
100
AcDbLayerTableRecord
  2
0
 70
     0
 62
     7
  6
Continuous
370
    -3
390
F
  0
LAYER
  5
14D
330
2
100
AcDbSymbolTableRecord
100
AcDbLayerTableRecord
  2
SCHRAFFUREN
 70
     0
 62
     4
  6
Continuous
370
    -3
390
F
  0
LAYER
  5
16E
330
2
100
AcDbSymbolTableRecord
100
AcDbLayerTableRecord
  2
Defpoints
 70
     0
 62
     7
  6
Continuous
290
     0
370
    -3
390
F
  0
LAYER
  5
12A4
330
2
100
AcDbSymbolTableRecord
100
AcDbLayerTableRecord
  2
RAHM2
 70
     0
 62
     1
  6
Continuous
370
    -3
390
F
  0
LAYER
  5
12A6
330
2
100
AcDbSymbolTableRecord
100
AcDbLayerTableRecord
  2
RAHM5
 70
     0
 62
     7
  6
Continuous
370
    -3
390
F
  0
LAYER
  5
12A7
330
2
100
AcDbSymbolTableRecord
100
AcDbLayerTableRecord
  2
3A
 70
     0
 62
     6
  6
GEN3A
370
    -3
390
F
  0
LAYER
  5
12A9
330
2
100
AcDbSymbolTableRecord
100
AcDbLayerTableRecord
  2
4
 70
     0
 62
     3
  6
Continuous
370
    -3
390
F
  0
LAYER
  5
12AA
330
2
100
AcDbSymbolTableRecord
100
AcDbLayerTableRecord
  2
6
 70
     0
 62
     2
  6
Continuous
370
    -3
390
F
  0
LAYER
  5
12AB
330
2
100
AcDbSymbolTableRecord
100
AcDbLayerTableRecord
  2
7A
 70
     0
 62
     4
  6
GEN7A
370
    -3
390
F
  0
LAYER
  5
12AE
330
2
100
AcDbSymbolTableRecord
100
AcDbLayerTableRecord
  2
BEMASS
 70
     0
 62
     3
  6
Continuous
370
    -3
390
F
  0
LAYER
  5
1B02
330
2
100
AcDbSymbolTableRecord
100
AcDbLayerTableRecord
  2
AM_5
 70
     0
 62
     3
  6
Continuous
370
    15
390
F
1001
AcAecLayerStandard
1000

1000

  0
LAYER
  5
1CA9
330
2
100
AcDbSymbolTableRecord
100
AcDbLayerTableRecord
  2
AM_7
 70
     0
 62
     4
  6
CENTER
370
    15
390
F
1001
AcAecLayerStandard
1000

1000

  0
LAYER
  5
1CAD
330
2
100
AcDbSymbolTableRecord
100
AcDbLayerTableRecord
  2
8
 70
     0
 62
     1
  6
Continuous
370
    -3
390
F
  0
LAYER
  5
1DA1
330
2
100
AcDbSymbolTableRecord
100
AcDbLayerTableRecord
  2
AM_CL
 70
     0
 62
     1
  6
Amconstr
370
    15
390
F
1001
AcAecLayerStandard
1000

1000

  0
ENDTAB
  0
TABLE
  2
STYLE
  5
3
330
0
100
AcDbSymbolTable
 70
     6
  0
STYLE
  5
11
330
3
100
AcDbSymbolTableRecord
100
AcDbTextStyleTableRecord
  2
Standard
 70
     0
 40
0.0
 41
1.0
 50
0.0
 71
     0
 42
0.2
  3
txt
  4

  0
STYLE
  5
168
330
3
100
AcDbSymbolTableRecord
100
AcDbTextStyleTableRecord
  2
ISOCP
 70
     0
 40
0.0
 41
1.0
 50
0.0
 71
     0
 42
12.0
  3
isocp.shx
  4

  0
STYLE
  5
1ABB
330
3
100
AcDbSymbolTableRecord
100
AcDbTextStyleTableRecord
  2

 70
     1
 40
0.0
 41
1.0
 50
0.0
 71
     0
 42
12.0
  3
genltshp.shx
  4

  0
STYLE
  5
1AC0
330
3
100
AcDbSymbolTableRecord
100
AcDbTextStyleTableRecord
  2
ACANSTS
 70
     0
 40
1.0
 41
1.0
 50
0.0
 71
     0
 42
12.0
  3
romans.shx
  4

  0
STYLE
  5
1ACC
330
3
100
AcDbSymbolTableRecord
100
AcDbTextStyleTableRecord
  2
ACANSGDT
 70
     0
 40
0.0
 41
1.0
 50
0.0
 71
     0
 42
12.0
  3
amgdt.shx
  4

  0
STYLE
  5
1DC3
330
3
100
AcDbSymbolTableRecord
100
AcDbTextStyleTableRecord
  2
ISO
 70
     0
 40
0.0
 41
1.0
 50
0.0
 71
     0
 42
12.0
  3
isocp.shx
  4

  0
ENDTAB
  0
TABLE
  2
VIEW
  5
6
330
0
100
AcDbSymbolTable
 70
     1
  0
VIEW
  5
17C3
330
6
100
AcDbSymbolTableRecord
100
AcDbViewTableRecord
  2
ZA
 70
     0
 40
858.7368363793936
 10
262.5010567609459
 20
381.7729703908829
 41
1771.362016742109
 11
0.0
 21
0.0
 31
1.0
 12
0.0
 22
0.0
 32
0.0
 42
50.0
 43
0.0
 44
0.0
 50
0.0
 71
     0
281
     0
 72
     1
110
0.0
120
0.0
130
0.0
111
1.0
121
0.0
131
0.0
112
0.0
122
1.0
132
0.0
 79
     0
146
0.0
  0
ENDTAB
  0
TABLE
  2
UCS
  5
7
330
0
100
AcDbSymbolTable
 70
     0
  0
ENDTAB
  0
TABLE
  2
APPID
  5
9
330
0
100
AcDbSymbolTable
 70
    47
  0
APPID
  5
12
330
9
100
AcDbSymbolTableRecord
100
AcDbRegAppTableRecord
  2
ACAD
 70
     0
  0
APPID
  5
12BA
330
9
100
AcDbSymbolTableRecord
100
AcDbRegAppTableRecord
  2
GENIUS_GENCFG_13
 70
     0
1001
GENIUS_DUMCFG0_13
1000
DUM
1001
GENIUS_GENCFG0_13
1000
GEN@INFO_POS@XLATE
1001
GENIUS_GENCFG1_13
1000
GEN@INFO_POS
1001
GENIUS_GENCFG2_13
1000
GEN@LAYER@DEFS
1001
GENIUS_GENCFG3_13
1000
GEN@LAYER@ENTSORT
1001
GENIUS_GENCFG4_13
1000
GEN
1001
GENIUS_GEVCFG0_13
1000
GEV
1001
GENIUS_GENCFG5_13
1000
GEN@DIMENSION@GEN-ANSI-POS@I
1001
GENIUS_GENCFG6_13
1000
GEN@DIMENSION@GEN-ANSI-POS
  0
APPID
  5
12BB
330
9
100
AcDbSymbolTableRecord
100
AcDbRegAppTableRecord
  2
GENIUS_DUMCFG0_13
 70
     0
1001
GENIUS_GENCFG_13
1071
894627378
1000
68
1000
DUM
1070
     0
  0
APPID
  5
12BC
330
9
100
AcDbSymbolTableRecord
100
AcDbRegAppTableRecord
  2
GENIUS_GENCFG0_13
 70
     0
1001
GENIUS_GENCFG_13
1071
1068554281
1000
69
1000
GEN@INFO_POS@XLATE
1070
     9
1000
GenCfgObject
1000
GenCfgShort
1000
GenCfgReal
1000
GenCfgBool
1000
GenCfgString
1000
GenCfgDim
1000
GenCfgLayer
1000
GenCfgPoint
1000
GenCfgAttrInf
1000
INFOPOINTS
1070
     0
1002
{
1000
GENINF14
1070
     0
1002
{
1000
2GENINF
1070
     4
1000
2
1002
{
1002
}
1000
5GENINF
1070
     4
1000
5
1002
{
1002
}
1000
7GENINF
1070
     4
1000
7
1002
{
1002
}
1000
9GENINF
1070
     4
1000
9
1002
{
1002
}
1000
11GENINF
1070
     4
1000
11
1002
{
1002
}
1000
14GENINF
1070
     4
1000
14
1002
{
1002
}
1002
}
1000
GENINF13
1070
     0
1002
{
1000
2GENINF
1070
     4
1000
2
1002
{
1002
}
1000
3GENINF
1070
     4
1000
3
1002
{
1002
}
1000
4GENINF
1070
     4
1000
4
1002
{
1002
}
1000
5GENINF
1070
     4
1000
5
1002
{
1002
}
1000
6GENINF
1070
     4
1000
6
1002
{
1002
}
1000
7GENINF
1070
     4
1000
7
1002
{
1002
}
1000
8GENINF
1070
     4
1000
8
1002
{
1002
}
1000
9GENINF
1070
     4
1000
9
1002
{
1002
}
1000
10GENINF
1070
     4
1000
10
1002
{
1002
}
1000
11GENINF
1070
     4
1000
11
1002
{
1002
}
1000
12GENINF
1070
     4
1000
12
1002
{
1002
}
1000
13GENINF
1070
     4
1000
13
1002
{
1002
}
1000
14GENINF
1070
     4
1000
14
1002
{
1002
}
1000
15GENINF
1070
     4
1000
15
1002
{
1002
}
1000
16GENINF
1070
     4
1000
16
1002
{
1002
}
1000
17GENINF
1070
     4
1000
17
1002
{
1002
}
1000
18GENINF
1070
     4
1000
18
1002
{
1002
}
1000
19GENINF
1070
     4
1000
19
1002
{
1002
}
1000
20GENINF
1070
     4
1000
20
1002
{
1002
}
1000
21GENINF
1070
     4
1000
21
1002
{
1002
}
1000
22GENINF
1070
     4
1000
22
1002
{
1002
}
1000
23GENINF
1070
     4
1000
23
1002
{
1002
}
1000
24GENINF
1070
     4
1000
24
1002
{
1002
}
1000
0GENINF
1070
     4
1000
0
1002
{
1002
}
1002
}
1000
GENINFO
1070
     0
1002
{
1000
3GENINF
1070
     4
1000
3
1002
{
1002
}
1000
4GENINF
1070
     4
1000
4
1002
{
1002
}
1000
5GENINF
1070
     4
1000
5
1002
{
1002
}
1000
6GENINF
1070
     4
1000
6
1002
{
1002
}
1000
7GENINF
1070
     4
1000
7
1002
{
1002
}
1000
8GENINF
1070
     4
1000
8
1002
{
1002
}
1000
9GENINF
1070
     4
1000
9
1002
{
1002
}
1000
10GENINF
1070
     4
1000
10
1002
{
1002
}
1000
11GENINF
1070
     4
1000
11
1002
{
1002
}
1000
12GENINF
1070
     4
1000
12
1002
{
1002
}
1000
13GENINF
1070
     4
1000
13
1002
{
1002
}
1000
14GENINF
1070
     4
1000
14
1002
{
1002
}
1000
15GENINF
1070
     4
1000
15
1002
{
1002
}
1000
16GENINF
1070
     4
1000
16
1002
{
1002
}
1000
17GENINF
1070
     4
1000
17
1002
{
1002
}
1000
18GENINF
1070
     4
1000
18
1002
{
1002
}
1000
19GENINF
1070
     4
1000
19
1002
{
1002
}
1000
20GENINF
1070
     4
1000
20
1002
{
1002
}
1000
21GENINF
1070
     4
1000
21
1002
{
1002
}
1000
22GENINF
1070
     4
1000
22
1002
{
1002
}
1002
}
1000
DININFO
1070
     0
1002
{
1000
ST-NAME1
1070
     4
1000
5
1002
{
1002
}
1000
ST-NAME2
1070
     4
1000
6
1002
{
1002
}
1000
ST-NORM1
1070
     4
1000
7
1002
{
1002
}
1000
ST-NORM2
1070
     4
1000
8
1002
{
1002
}
1000
ST-MAT1
1070
     4
1000
9
1002
{
1002
}
1000
ST-MAT2
1070
     4
1000
10
1002
{
1002
}
1002
}
1002
}
1000
POS_NUMBERS
1070
     0
1002
{
1000
GENPOS14
1070
     0
1002
{
1000
1GENPOS
1070
     4
1000
1
1002
{
1002
}
1000
2GENPOS
1070
     4
1000
2
1002
{
1002
}
1000
5GENPOS
1070
     4
1000
5
1002
{
1002
}
1000
7GENPOS
1070
     4
1000
7
1002
{
1002
}
1000
9GENPOS
1070
     4
1000
9
1002
{
1002
}
1000
11GENPOS
1070
     4
1000
11
1002
{
1002
}
1000
14GENPOS
1070
     4
1000
14
1002
{
1002
}
1002
}
1000
GENPOS13
1070
     0
1002
{
1000
1GENPOS
1070
     4
1000
1
1002
{
1002
}
1000
2GENPOS
1070
     4
1000
2
1002
{
1002
}
1000
3GENPOS
1070
     4
1000
3
1002
{
1002
}
1000
4GENPOS
1070
     4
1000
4
1002
{
1002
}
1000
5GENPOS
1070
     4
1000
5
1002
{
1002
}
1000
6GENPOS
1070
     4
1000
6
1002
{
1002
}
1000
7GENPOS
1070
     4
1000
7
1002
{
1002
}
1000
8GENPOS
1070
     4
1000
8
1002
{
1002
}
1000
9GENPOS
1070
     4
1000
9
1002
{
1002
}
1000
10GENPOS
1070
     4
1000
10
1002
{
1002
}
1000
11GENPOS
1070
     4
1000
11
1002
{
1002
}
1000
12GENPOS
1070
     4
1000
12
1002
{
1002
}
1000
13GENPOS
1070
     4
1000
13
1002
{
1002
}
1000
14GENPOS
1070
     4
1000
14
1002
{
1002
}
1000
15GENPOS
1070
     4
1000
15
1002
{
1002
}
1000
16GENPOS
1070
     4
1000
16
1002
{
1002
}
1000
17GENPOS
1070
     4
1000
17
1002
{
1002
}
1000
18GENPOS
1070
     4
1000
18
1002
{
1002
}
1000
19GENPOS
1070
     4
1000
19
1002
{
1002
}
1000
20GENPOS
1070
     4
1000
20
1002
{
1002
}
1000
21GENPOS
1070
     4
1000
21
1002
{
1002
}
1000
22GENPOS
1070
     4
1000
22
1002
{
1002
}
1000
23GENPOS
1070
     4
1000
23
1002
{
1002
}
1000
24GENPOS
1070
     4
1000
24
1002
{
1002
}
1000
0GENPOS
1070
     4
1000
0
1002
{
1002
}
1002
}
1000
GENPOS
1070
     0
1002
{
1000
1GENPOS
1070
     4
1000
1
1002
{
1002
}
1000
2GENPOS
1070
     4
1000
2
1002
{
1002
}
1000
3GENPOS
1070
     4
1000
3
1002
{
1002
}
1000
4GENPOS
1070
     4
1000
4
1002
{
1002
}
1000
5GENPOS
1070
     4
1000
5
1002
{
1002
}
1000
6GENPOS
1070
     4
1000
6
1002
{
1002
}
1000
7GENPOS
1070
     4
1000
7
1002
{
1002
}
1000
8GENPOS
1070
     4
1000
8
1002
{
1002
}
1000
9GENPOS
1070
     4
1000
9
1002
{
1002
}
1000
10GENPOS
1070
     4
1000
10
1002
{
1002
}
1000
11GENPOS
1070
     4
1000
11
1002
{
1002
}
1000
12GENPOS
1070
     4
1000
12
1002
{
1002
}
1000
13GENPOS
1070
     4
1000
13
1002
{
1002
}
1000
14GENPOS
1070
     4
1000
14
1002
{
1002
}
1000
15GENPOS
1070
     4
1000
15
1002
{
1002
}
1000
16GENPOS
1070
     4
1000
16
1002
{
1002
}
1000
17GENPOS
1070
     4
1000
17
1002
{
1002
}
1000
18GENPOS
1070
     4
1000
18
1002
{
1002
}
1000
19GENPOS
1070
     4
1000
19
1002
{
1002
}
1000
20GENPOS
1070
     4
1000
20
1002
{
1002
}
1000
21GENPOS
1070
     4
1000
21
1002
{
1002
}
1000
22GENPOS
1070
     4
1000
22
1002
{
1002
}
1000
23GENPOS
1070
     4
1000
23
1002
{
1002
}
1002
}
1000
DIN985
1070
     0
1002
{
1000
POSITION
1070
     4
1000
1
1002
{
1002
}
1000
MENGE
1070
     4
1000
2
1002
{
1002
}
1000
BLATT
1070
     4
1000
3
1002
{
1002
}
1000
BENENN
1070
     4
1000
5
1002
{
1002
}
1000
BENENN2
1070
     4
1000
6
1002
{
1002
}
1000
NORM
1070
     4
1000
7
1002
{
1002
}
1000
NORM2
1070
     4
1000
8
1002
{
1002
}
1000
WERKSTOFF
1070
     4
1000
9
1002
{
1002
}
1000
WERKSTOFF2
1070
     4
1000
10
1002
{
1002
}
1002
}
1000
DIN986
1070
     0
1002
{
1000
POSITION
1070
     4
1000
1
1002
{
1002
}
1000
MENGE
1070
     4
1000
2
1002
{
1002
}
1000
BLATT
1070
     4
1000
3
1002
{
1002
}
1000
BENENN
1070
     4
1000
5
1002
{
1002
}
1000
BENENN2
1070
     4
1000
6
1002
{
1002
}
1000
NORM
1070
     4
1000
7
1002
{
1002
}
1000
NORM2
1070
     4
1000
8
1002
{
1002
}
1000
WERKSTOFF
1070
     4
1000
9
1002
{
1002
}
1000
WERKSTOFF2
1070
     4
1000
10
1002
{
1002
}
1002
}
1000
DIN987
1070
     0
1002
{
1000
POSITION
1070
     4
1000
1
1002
{
1002
}
1000
MENGE
1070
     4
1000
2
1002
{
1002
}
1000
BLATT
1070
     4
1000
3
1002
{
1002
}
1000
BENENN
1070
     4
1000
5
1002
{
1002
}
1000
BENENN2
1070
     4
1000
6
1002
{
1002
}
1000
NORM
1070
     4
1000
7
1002
{
1002
}
1000
NORM2
1070
     4
1000
8
1002
{
1002
}
1000
WERKSTOFF
1070
     4
1000
9
1002
{
1002
}
1000
WERKSTOFF2
1070
     4
1000
10
1002
{
1002
}
1002
}
1002
}
  0
APPID
  5
12BD
330
9
100
AcDbSymbolTableRecord
100
AcDbRegAppTableRecord
  2
GENIUS_GENCFG1_13
 70
     0
1001
GENIUS_GENCFG_13
1071
1068554281
1000
6A
1000
GEN@INFO_POS
1070
     9
1000
GenCfgObject
1000
GenCfgShort
1000
GenCfgReal
1000
GenCfgBool
1000
GenCfgString
1000
GenCfgDim
1000
GenCfgLayer
1000
GenCfgPoint
1000
GenCfgAttrInf
1000
DescrText
1070
     4
1000
5, ,6, ,7, ,8
1002
{
1002
}
1000
DescrText2
1070
     4
1000
26
1002
{
1002
}
1000
VisibleAttr1
1070
     4
1000
1
1002
{
1002
}
1000
VisibleAttr2
1070
     4
1000
26
1002
{
1002
}
1000
UpdateBlock
1070
     3
1070
     1
1002
{
1002
}
1000
Attrib
1070
     0
1002
{
1000
0
1070
     8
1002
{
1000
Prompt
1070
     4
1000
(genmsg gendwg 103)
1002
{
1002
}
1000
Value
1070
     4
1000

1002
{
1002
}
1000
EditFlag
1070
     1
1070
     0
1002
{
1002
}
1000
PosInDDATTE
1070
     1
1070
    27
1002
{
1002
}
1000
FieldLen
1070
     1
1070
    -1
1002
{
1002
}
1002
}
1000
1
1070
     8
1002
{
1000
Prompt
1070
     4
1000
(genmsg gendwg 31)
1002
{
1002
}
1000
Value
1070
     4
1000
1
1002
{
1002
}
1000
EditFlag
1070
     1
1070
     1
1002
{
1002
}
1000
PosInDDATTE
1070
     1
1070
     1
1002
{
1002
}
1000
FieldLen
1070
     1
1070
    -1
1002
{
1002
}
1002
}
1000
2
1070
     8
1002
{
1000
Prompt
1070
     4
1000
(genmsg gendwg 32)
1002
{
1002
}
1000
Value
1070
     4
1000
1
1002
{
1002
}
1000
EditFlag
1070
     1
1070
     1
1002
{
1002
}
1000
PosInDDATTE
1070
     1
1070
     2
1002
{
1002
}
1000
FieldLen
1070
     1
1070
    -1
1002
{
1002
}
1002
}
1000
3
1070
     8
1002
{
1000
Prompt
1070
     4
1000
(genmsg gendwg 33)
1002
{
1002
}
1000
Value
1070
     4
1000

1002
{
1002
}
1000
EditFlag
1070
     1
1070
     1
1002
{
1002
}
1000
PosInDDATTE
1070
     1
1070
     3
1002
{
1002
}
1000
FieldLen
1070
     1
1070
    -1
1002
{
1002
}
1002
}
1000
4
1070
     8
1002
{
1000
Prompt
1070
     4
1000
(genmsg gendwg 34)
1002
{
1002
}
1000
Value
1070
     4
1000

1002
{
1002
}
1000
EditFlag
1070
     1
1070
     1
1002
{
1002
}
1000
PosInDDATTE
1070
     1
1070
     4
1002
{
1002
}
1000
FieldLen
1070
     1
1070
    -1
1002
{
1002
}
1002
}
1000
5
1070
     8
1002
{
1000
Prompt
1070
     4
1000
(genmsg gendwg 35)
1002
{
1002
}
1000
Value
1070
     4
1000

1002
{
1002
}
1000
EditFlag
1070
     1
1070
     1
1002
{
1002
}
1000
PosInDDATTE
1070
     1
1070
     5
1002
{
1002
}
1000
FieldLen
1070
     1
1070
    -1
1002
{
1002
}
1002
}
1000
6
1070
     8
1002
{
1000
Prompt
1070
     4
1000
(genmsg gendwg 36)
1002
{
1002
}
1000
Value
1070
     4
1000

1002
{
1002
}
1000
EditFlag
1070
     1
1070
     1
1002
{
1002
}
1000
PosInDDATTE
1070
     1
1070
     6
1002
{
1002
}
1000
FieldLen
1070
     1
1070
    -1
1002
{
1002
}
1002
}
1000
7
1070
     8
1002
{
1000
Prompt
1070
     4
1000
(genmsg gendwg 37)
1002
{
1002
}
1000
Value
1070
     4
1000

1002
{
1002
}
1000
EditFlag
1070
     1
1070
     1
1002
{
1002
}
1000
PosInDDATTE
1070
     1
1070
     7
1002
{
1002
}
1000
FieldLen
1070
     1
1070
    -1
1002
{
1002
}
1002
}
1000
8
1070
     8
1002
{
1000
Prompt
1070
     4
1000
(genmsg gendwg 38)
1002
{
1002
}
1000
Value
1070
     4
1000

1002
{
1002
}
1000
EditFlag
1070
     1
1070
     1
1002
{
1002
}
1000
PosInDDATTE
1070
     1
1070
     8
1002
{
1002
}
1000
FieldLen
1070
     1
1070
    -1
1002
{
1002
}
1002
}
1000
9
1070
     8
1002
{
1000
Prompt
1070
     4
1000
(genmsg gendwg 39)
1002
{
1002
}
1000
Value
1070
     4
1000

1002
{
1002
}
1000
EditFlag
1070
     1
1070
     1
1002
{
1002
}
1000
PosInDDATTE
1070
     1
1070
     9
1002
{
1002
}
1000
FieldLen
1070
     1
1070
    -1
1002
{
1002
}
1002
}
1000
10
1070
     8
1002
{
1000
Prompt
1070
     4
1000
(genmsg gendwg 40)
1002
{
1002
}
1000
Value
1070
     4
1000

1002
{
1002
}
1000
EditFlag
1070
     1
1070
     1
1002
{
1002
}
1000
PosInDDATTE
1070
     1
1070
    10
1002
{
1002
}
1000
FieldLen
1070
     1
1070
    -1
1002
{
1002
}
1002
}
1000
11
1070
     8
1002
{
1000
Prompt
1070
     4
1000
(genmsg gendwg 41)
1002
{
1002
}
1000
Value
1070
     4
1000

1002
{
1002
}
1000
EditFlag
1070
     1
1070
     1
1002
{
1002
}
1000
PosInDDATTE
1070
     1
1070
    11
1002
{
1002
}
1000
FieldLen
1070
     1
1070
    -1
1002
{
1002
}
1002
}
1000
12
1070
     8
1002
{
1000
Prompt
1070
     4
1000
(genmsg gendwg 42)
1002
{
1002
}
1000
Value
1070
     4
1000

1002
{
1002
}
1000
EditFlag
1070
     1
1070
     1
1002
{
1002
}
1000
PosInDDATTE
1070
     1
1070
    12
1002
{
1002
}
1000
FieldLen
1070
     1
1070
    -1
1002
{
1002
}
1002
}
1000
13
1070
     8
1002
{
1000
Prompt
1070
     4
1000
(genmsg gendwg 43)
1002
{
1002
}
1000
Value
1070
     4
1000

1002
{
1002
}
1000
EditFlag
1070
     1
1070
     1
1002
{
1002
}
1000
PosInDDATTE
1070
     1
1070
    13
1002
{
1002
}
1000
FieldLen
1070
     1
1070
    -1
1002
{
1002
}
1002
}
1000
14
1070
     8
1002
{
1000
Prompt
1070
     4
1000
(genmsg gendwg 44)
1002
{
1002
}
1000
Value
1070
     4
1000

1002
{
1002
}
1000
EditFlag
1070
     1
1070
     1
1002
{
1002
}
1000
PosInDDATTE
1070
     1
1070
    14
1002
{
1002
}
1000
FieldLen
1070
     1
1070
    -1
1002
{
1002
}
1002
}
1000
15
1070
     8
1002
{
1000
Prompt
1070
     4
1000
(genmsg gendwg 45)
1002
{
1002
}
1000
Value
1070
     4
1000

1002
{
1002
}
1000
EditFlag
1070
     1
1070
     1
1002
{
1002
}
1000
PosInDDATTE
1070
     1
1070
    15
1002
{
1002
}
1000
FieldLen
1070
     1
1070
    -1
1002
{
1002
}
1002
}
1000
16
1070
     8
1002
{
1000
Prompt
1070
     4
1000
(genmsg gendwg 46)
1002
{
1002
}
1000
Value
1070
     4
1000

1002
{
1002
}
1000
EditFlag
1070
     1
1070
     1
1002
{
1002
}
1000
PosInDDATTE
1070
     1
1070
    16
1002
{
1002
}
1000
FieldLen
1070
     1
1070
    -1
1002
{
1002
}
1002
}
1000
17
1070
     8
1002
{
1000
Prompt
1070
     4
1000
(genmsg gendwg 47)
1002
{
1002
}
1000
Value
1070
     4
1000

1002
{
1002
}
1000
EditFlag
1070
     1
1070
     1
1002
{
1002
}
1000
PosInDDATTE
1070
     1
1070
    17
1002
{
1002
}
1000
FieldLen
1070
     1
1070
    -1
1002
{
1002
}
1002
}
1000
18
1070
     8
1002
{
1000
Prompt
1070
     4
1000
(genmsg gendwg 48)
1002
{
1002
}
1000
Value
1070
     4
1000

1002
{
1002
}
1000
EditFlag
1070
     1
1070
     1
1002
{
1002
}
1000
PosInDDATTE
1070
     1
1070
    18
1002
{
1002
}
1000
FieldLen
1070
     1
1070
    -1
1002
{
1002
}
1002
}
1000
19
1070
     8
1002
{
1000
Prompt
1070
     4
1000
(genmsg gendwg 99)
1002
{
1002
}
1000
Value
1070
     4
1000

1002
{
1002
}
1000
EditFlag
1070
     1
1070
     1
1002
{
1002
}
1000
PosInDDATTE
1070
     1
1070
    19
1002
{
1002
}
1000
FieldLen
1070
     1
1070
    -1
1002
{
1002
}
1002
}
1000
20
1070
     8
1002
{
1000
Prompt
1070
     4
1000
(genmsg gendwg 100)
1002
{
1002
}
1000
Value
1070
     4
1000

1002
{
1002
}
1000
EditFlag
1070
     1
1070
     1
1002
{
1002
}
1000
PosInDDATTE
1070
     1
1070
    20
1002
{
1002
}
1000
FieldLen
1070
     1
1070
    -1
1002
{
1002
}
1002
}
1000
21
1070
     8
1002
{
1000
Prompt
1070
     4
1000
(genmsg gendwg 101)
1002
{
1002
}
1000
Value
1070
     4
1000

1002
{
1002
}
1000
EditFlag
1070
     1
1070
     1
1002
{
1002
}
1000
PosInDDATTE
1070
     1
1070
    21
1002
{
1002
}
1000
FieldLen
1070
     1
1070
    -1
1002
{
1002
}
1002
}
1000
22
1070
     8
1002
{
1000
Prompt
1070
     4
1000
(genmsg gendwg 102)
1002
{
1002
}
1000
Value
1070
     4
1000

1002
{
1002
}
1000
EditFlag
1070
     1
1070
     1
1002
{
1002
}
1000
PosInDDATTE
1070
     1
1070
    22
1002
{
1002
}
1000
FieldLen
1070
     1
1070
    -1
1002
{
1002
}
1002
}
1000
23
1070
     8
1002
{
1000
Prompt
1070
     4
1000
(genmsg gendwg 30)
1002
{
1002
}
1000
Value
1070
     4
1000

1002
{
1002
}
1000
EditFlag
1070
     1
1070
     1
1002
{
1002
}
1000
PosInDDATTE
1070
     1
1070
    23
1002
{
1002
}
1000
FieldLen
1070
     1
1070
    -1
1002
{
1002
}
1002
}
1000
24
1070
     8
1002
{
1000
Prompt
1070
     4
1000
(genmsg gendwg 104)
1002
{
1002
}
1000
Value
1070
     4
1000

1002
{
1002
}
1000
EditFlag
1070
     1
1070
     1
1002
{
1002
}
1000
PosInDDATTE
1070
     1
1070
    24
1002
{
1002
}
1000
FieldLen
1070
     1
1070
    -1
1002
{
1002
}
1002
}
1000
25
1070
     8
1002
{
1000
Prompt
1070
     4
1000
(genmsg gendwg 105)
1002
{
1002
}
1000
Value
1070
     4
1000

1002
{
1002
}
1000
EditFlag
1070
     1
1070
     1
1002
{
1002
}
1000
PosInDDATTE
1070
     1
1070
    25
1002
{
1002
}
1000
FieldLen
1070
     1
1070
    -1
1002
{
1002
}
1002
}
1000
26
1070
     8
1002
{
1000
Prompt
1070
     4
1000
(genmsg gendwg 106)
1002
{
1002
}
1000
Value
1070
     4
1000

1002
{
1002
}
1000
EditFlag
1070
     1
1070
     1
1002
{
1002
}
1000
PosInDDATTE
1070
     1
1070
    26
1002
{
1002
}
1000
FieldLen
1070
     1
1070
    -1
1002
{
1002
}
1002
}
1000
27
1070
     8
1002
{
1000
Prompt
1070
     4
1000
(genmsg gendwg 109)
1002
{
1002
}
1000
Value
1070
     4
1000

1002
{
1002
}
1000
EditFlag
1070
     1
1070
     2
1002
{
1002
}
1000
PosInDDATTE
1070
     1
1070
    27
1002
{
1002
}
1000
FieldLen
1070
     1
1070
    -1
1002
{
1002
}
1002
}
1002
}
1000
Xlate
1070
     0
1002
{
1000
>
1002
}
  0
APPID
  5
12BE
330
9
100
AcDbSymbolTableRecord
100
AcDbRegAppTableRecord
  2
GENIUS_GENCFG2_13
 70
     0
1001
GENIUS_GENCFG_13
1071
1068554281
1000
6B
1000
GEN@LAYER@DEFS
1070
    10
1000
GenCfgObject
1000
GenCfgShort
1000
GenCfgReal
1000
GenCfgBool
1000
GenCfgString
1000
GenCfgDim
1000
GenCfgLayer
1000
GenCfgPoint
1000
GenCfgAttrInf
1000
GenCfgLaySection
1000
Basic
1070
     0
1002
{
1000
0
1070
     6
1000
0
1002
{
1000
Color
1070
     1
1070
     7
1002
{
1002
}
1000
LType
1070
     4
1000
CONTINUOUS
1002
{
1002
}
1000
Base
1070
     3
1070
     0
1002
{
1002
}
1002
}
1000
1
1070
     6
1000
1
1002
{
1000
Color
1070
     1
1070
    14
1002
{
1002
}
1000
LType
1070
     4
1000
CONTINUOUS
1002
{
1002
}
1000
Base
1070
     3
1070
     0
1002
{
1002
}
1002
}
1000
2
1070
     6
1000
2
1002
{
1000
Color
1070
     1
1070
     5
1002
{
1002
}
1000
LType
1070
     4
1000
CONTINUOUS
1002
{
1002
}
1000
Base
1070
     3
1070
     0
1002
{
1002
}
1002
}
1000
3
1070
     6
1000
3
1002
{
1000
Color
1070
     1
1070
     6
1002
{
1002
}
1000
LType
1070
     4
1000
GEN3
1002
{
1002
}
1000
Base
1070
     3
1070
     0
1002
{
1002
}
1002
}
1000
4
1070
     6
1000
4
1002
{
1000
Color
1070
     1
1070
     3
1002
{
1002
}
1000
LType
1070
     4
1000
CONTINUOUS
1002
{
1002
}
1000
Base
1070
     3
1070
     0
1002
{
1002
}
1002
}
1000
5
1070
     6
1000
5
1002
{
1000
Color
1070
     1
1070
     3
1002
{
1002
}
1000
LType
1070
     4
1000
CONTINUOUS
1002
{
1002
}
1000
Base
1070
     3
1070
     0
1002
{
1002
}
1002
}
1000
6
1070
     6
1000
6
1002
{
1000
Color
1070
     1
1070
     2
1002
{
1002
}
1000
LType
1070
     4
1000
CONTINUOUS
1002
{
1002
}
1000
Base
1070
     3
1070
     0
1002
{
1002
}
1002
}
1000
7
1070
     6
1000
7
1002
{
1000
Color
1070
     1
1070
     4
1002
{
1002
}
1000
LType
1070
     4
1000
GEN7
1002
{
1002
}
1000
Base
1070
     3
1070
     0
1002
{
1002
}
1002
}
1000
8
1070
     6
1000
8
1002
{
1000
Color
1070
     1
1070
     1
1002
{
1002
}
1000
LType
1070
     4
1000
CONTINUOUS
1002
{
1002
}
1000
Base
1070
     3
1070
     0
1002
{
1002
}
1002
}
1000
3A
1070
     6
1000
3A
1002
{
1000
Color
1070
     1
1070
     6
1002
{
1002
}
1000
LType
1070
     4
1000
GEN3A
1002
{
1002
}
1000
Base
1070
     3
1070
     0
1002
{
1002
}
1002
}
1000
7A
1070
     6
1000
7A
1002
{
1000
Color
1070
     1
1070
     4
1002
{
1002
}
1000
LType
1070
     4
1000
GEN7A
1002
{
1002
}
1000
Base
1070
     3
1070
     0
1002
{
1002
}
1002
}
1000
2A
1070
     6
1000
2A
1002
{
1000
Color
1070
     1
1070
     7
1002
{
1002
}
1000
LType
1070
     4
1000
GEN7
1002
{
1002
}
1000
Base
1070
     3
1070
     0
1002
{
1002
}
1002
}
1000
4A
1070
     6
1000
4A
1002
{
1000
Color
1070
     1
1070
     3
1002
{
1002
}
1000
LType
1070
     4
1000
GEN4A
1002
{
1002
}
1000
Base
1070
     3
1070
     0
1002
{
1002
}
1002
}
1000
9
1070
     6
1000
9
1002
{
1000
Color
1070
     1
1070
   253
1002
{
1002
}
1000
LType
1070
     4
1000
CONTINUOUS
1002
{
1002
}
1000
Base
1070
     3
1070
     0
1002
{
1002
}
1002
}
1000
IP
1070
     6
1000
IP
1002
{
1000
Color
1070
     1
1070
     7
1002
{
1002
}
1000
LType
1070
     4
1000
CONTINUOUS
1002
{
1002
}
1000
Base
1070
     3
1070
     0
1002
{
1002
}
1002
}
1002
}
1000
Standard
1070
     0
1002
{
1000
0N
1070
     6
1000
0N
1002
{
1000
Color
1070
     1
1070
     7
1002
{
1002
}
1000
LType
1070
     4
1000
CONTINUOUS
1002
{
1002
}
1000
Base
1070
     3
1070
     0
1002
{
1002
}
1002
}
1000
1N
1070
     6
1000
1N
1002
{
1000
Color
1070
     1
1070
    14
1002
{
1002
}
1000
LType
1070
     4
1000
CONTINUOUS
1002
{
1002
}
1000
Base
1070
     3
1070
     0
1002
{
1002
}
1002
}
1000
2N
1070
     6
1000
2N
1002
{
1000
Color
1070
     1
1070
     5
1002
{
1002
}
1000
LType
1070
     4
1000
CONTINUOUS
1002
{
1002
}
1000
Base
1070
     3
1070
     0
1002
{
1002
}
1002
}
1000
3N
1070
     6
1000
3N
1002
{
1000
Color
1070
     1
1070
     6
1002
{
1002
}
1000
LType
1070
     4
1000
GEN3
1002
{
1002
}
1000
Base
1070
     3
1070
     0
1002
{
1002
}
1002
}
1000
4N
1070
     6
1000
4N
1002
{
1000
Color
1070
     1
1070
     3
1002
{
1002
}
1000
LType
1070
     4
1000
CONTINUOUS
1002
{
1002
}
1000
Base
1070
     3
1070
     0
1002
{
1002
}
1002
}
1000
5N
1070
     6
1000
5N
1002
{
1000
Color
1070
     1
1070
     3
1002
{
1002
}
1000
LType
1070
     4
1000
CONTINUOUS
1002
{
1002
}
1000
Base
1070
     3
1070
     0
1002
{
1002
}
1002
}
1000
6N
1070
     6
1000
6N
1002
{
1000
Color
1070
     1
1070
     2
1002
{
1002
}
1000
LType
1070
     4
1000
CONTINUOUS
1002
{
1002
}
1000
Base
1070
     3
1070
     0
1002
{
1002
}
1002
}
1000
7N
1070
     6
1000
7N
1002
{
1000
Color
1070
     1
1070
     4
1002
{
1002
}
1000
LType
1070
     4
1000
GEN7
1002
{
1002
}
1000
Base
1070
     3
1070
     0
1002
{
1002
}
1002
}
1000
8N
1070
     6
1000
8N
1002
{
1000
Color
1070
     1
1070
     1
1002
{
1002
}
1000
LType
1070
     4
1000
CONTINUOUS
1002
{
1002
}
1000
Base
1070
     3
1070
     0
1002
{
1002
}
1002
}
1000
3AN
1070
     6
1000
3AN
1002
{
1000
Color
1070
     1
1070
     6
1002
{
1002
}
1000
LType
1070
     4
1000
GEN3A
1002
{
1002
}
1000
Base
1070
     3
1070
     0
1002
{
1002
}
1002
}
1000
7AN
1070
     6
1000
7AN
1002
{
1000
Color
1070
     1
1070
     4
1002
{
1002
}
1000
LType
1070
     4
1000
GEN7A
1002
{
1002
}
1000
Base
1070
     3
1070
     0
1002
{
1002
}
1002
}
1000
2AN
1070
     6
1000
2AN
1002
{
1000
Color
1070
     1
1070
     7
1002
{
1002
}
1000
LType
1070
     4
1000
GEN7
1002
{
1002
}
1000
Base
1070
     3
1070
     0
1002
{
1002
}
1002
}
1000
4AN
1070
     6
1000
4AN
1002
{
1000
Color
1070
     1
1070
     3
1002
{
1002
}
1000
LType
1070
     4
1000
GEN4A
1002
{
1002
}
1000
Base
1070
     3
1070
     0
1002
{
1002
}
1002
}
1000
9N
1070
     6
1000
9N
1002
{
1000
Color
1070
     1
1070
   253
1002
{
1002
}
1000
LType
1070
     4
1000
CONTINUOUS
1002
{
1002
}
1000
Base
1070
     3
1070
     0
1002
{
1002
}
1002
}
1000
IPN
1070
     6
1000
IPN
1002
{
1000
Color
1070
     1
1070
     7
1002
{
1002
}
1000
LType
1070
     4
1000
CONTINUOUS
1002
{
1002
}
1000
Base
1070
     3
1070
     0
1002
{
1002
}
1002
}
1002
}
1000
Extra
1070
     0
1002
{
1000
Klin
1070
     6
1000
KLIN
1002
{
1000
Color
1070
     1
1070
     1
1002
{
1002
}
1000
LType
1070
     4
1000
CONTINUOUS
1002
{
1002
}
1000
Base
1070
     3
1070
     1
1002
{
1002
}
1002
}
1000
Info
1070
     6
1000
INFO
1002
{
1000
Color
1070
     1
1070
     4
1002
{
1002
}
1000
LType
1070
     4
1000
CONTINUOUS
1002
{
1002
}
1000
Base
1070
     3
1070
     1
1002
{
1002
}
1002
}
1000
Rahm2
1070
     6
1000
RAHM2
1002
{
1000
Color
1070
     1
1070
     1
1002
{
1002
}
1000
LType
1070
     4
1000
CONTINUOUS
1002
{
1002
}
1000
Base
1070
     3
1070
     1
1002
{
1002
}
1002
}
1000
Rahm3
1070
     6
1000
RAHM3
1002
{
1000
Color
1070
     1
1070
     2
1002
{
1002
}
1000
LType
1070
     4
1000
CONTINUOUS
1002
{
1002
}
1000
Base
1070
     3
1070
     1
1002
{
1002
}
1002
}
1000
Rahm5
1070
     6
1000
RAHM5
1002
{
1000
Color
1070
     1
1070
     7
1002
{
1002
}
1000
LType
1070
     4
1000
CONTINUOUS
1002
{
1002
}
1000
Base
1070
     3
1070
     1
1002
{
1002
}
1002
}
1000
View
1070
     6
1000
VIEW
1002
{
1000
Color
1070
     1
1070
     1
1002
{
1002
}
1000
LType
1070
     4
1000
CONTINUOUS
1002
{
1002
}
1000
Base
1070
     3
1070
     1
1002
{
1002
}
1002
}
1000
Behind
1070
     6
1000
BEHIND
1002
{
1000
Color
1070
     1
1070
   253
1002
{
1002
}
1000
LType
1070
     4
1000
CONTINUOUS
1002
{
1002
}
1000
Base
1070
     3
1070
     1
1002
{
1002
}
1002
}
1002
}
  0
APPID
  5
12BF
330
9
100
AcDbSymbolTableRecord
100
AcDbRegAppTableRecord
  2
GENIUS_GENCFG3_13
 70
     0
1001
GENIUS_GENCFG_13
1071
1068554281
1000
6C
1000
GEN@LAYER@ENTSORT
1070
    11
1000
GenCfgObject
1000
GenCfgShort
1000
GenCfgReal
1000
GenCfgBool
1000
GenCfgString
1000
GenCfgDim
1000
GenCfgLayer
1000
GenCfgPoint
1000
GenCfgAttrInf
1000
GenCfgLaySection
1000
GenCfgEntSort
1000
ADDL
1070
    10
1000
5
1002
{
1000
Class
1070
     4
1000
SYM
1002
{
1002
}
1000
Color
1070
     1
1070
     1
1002
{
1002
}
1000
LType
1070
     4
1000
BYLAYER
1002
{
1002
}
1002
}
1000
ALTR
1070
    10
1000
4
1002
{
1000
Class
1070
     4
1000

1002
{
1002
}
1000
Color
1070
     1
1070
     7
1002
{
1002
}
1000
LType
1070
     4
1000
GEN3A
1002
{
1002
}
1002
}
1000
BELI
1070
    10
1000
4
1002
{
1000
Class
1070
     4
1000

1002
{
1002
}
1000
Color
1070
     1
1070
   256
1002
{
1002
}
1000
LType
1070
     4
1000
BYLAYER
1002
{
1002
}
1002
}
1000
BHNV
1070
    10
1000
9
1002
{
1000
Class
1070
     4
1000
INV
1002
{
1002
}
1000
Color
1070
     1
1070
   256
1002
{
1002
}
1000
LType
1070
     4
1000
BYLAYER
1002
{
1002
}
1002
}
1000
BHNVS
1070
    10
1000
BEHIND
1002
{
1000
Class
1070
     4
1000
INV
1002
{
1002
}
1000
Color
1070
     1
1070
   256
1002
{
1002
}
1000
LType
1070
     4
1000
BYLAYER
1002
{
1002
}
1002
}
1000
BLID
1070
    10
1000
4A
1002
{
1000
Class
1070
     4
1000

1002
{
1002
}
1000
Color
1070
     1
1070
   256
1002
{
1002
}
1000
LType
1070
     4
1000
BYLAYER
1002
{
1002
}
1002
}
1000
BOAP
1070
    10
1000
4A
1002
{
1000
Class
1070
     4
1000

1002
{
1002
}
1000
Color
1070
     1
1070
   256
1002
{
1002
}
1000
LType
1070
     4
1000
BYLAYER
1002
{
1002
}
1002
}
1000
BOR2
1070
    10
1000
RAHM2
1002
{
1000
Class
1070
     4
1000
SPZ,SYM
1002
{
1002
}
1000
Color
1070
     1
1070
   256
1002
{
1002
}
1000
LType
1070
     4
1000
BYLAYER
1002
{
1002
}
1002
}
1000
BOR3
1070
    10
1000
RAHM3
1002
{
1000
Class
1070
     4
1000
SPZ,SYM
1002
{
1002
}
1000
Color
1070
     1
1070
   256
1002
{
1002
}
1000
LType
1070
     4
1000
BYLAYER
1002
{
1002
}
1002
}
1000
BOR5
1070
    10
1000
RAHM5
1002
{
1000
Class
1070
     4
1000
SPZ,SYM
1002
{
1002
}
1000
Color
1070
     1
1070
   256
1002
{
1002
}
1000
LType
1070
     4
1000
BYLAYER
1002
{
1002
}
1002
}
1000
BOR7
1070
    10
1000
RAHM5
1002
{
1000
Class
1070
     4
1000
SPZ,SYM
1002
{
1002
}
1000
Color
1070
     1
1070
     7
1002
{
1002
}
1000
LType
1070
     4
1000
CONTINUOUS
1002
{
1002
}
1002
}
1000
BPAP
1070
    10
1000
4A
1002
{
1000
Class
1070
     4
1000

1002
{
1002
}
1000
Color
1070
     1
1070
   256
1002
{
1002
}
1000
LType
1070
     4
1000
BYLAYER
1002
{
1002
}
1002
}
1000
BPEX
1070
    10
1000
4A
1002
{
1000
Class
1070
     4
1000

1002
{
1002
}
1000
Color
1070
     1
1070
   256
1002
{
1002
}
1000
LType
1070
     4
1000
BYLAYER
1002
{
1002
}
1002
}
1000
BTDI
1070
    10
1000
5
1002
{
1000
Class
1070
     4
1000
DIM,SYM
1002
{
1002
}
1000
Color
1070
     1
1070
   256
1002
{
1002
}
1000
LType
1070
     4
1000
BYLAYER
1002
{
1002
}
1002
}
1000
CAL2
1070
    10
1000
4
1002
{
1000
Class
1070
     4
1000
SYM
1002
{
1002
}
1000
Color
1070
     1
1070
   256
1002
{
1002
}
1000
LType
1070
     4
1000
BYLAYER
1002
{
1002
}
1002
}
1000
CAL3
1070
    10
1000
4
1002
{
1000
Class
1070
     4
1000
SYM
1002
{
1002
}
1000
Color
1070
     1
1070
     2
1002
{
1002
}
1000
LType
1070
     4
1000
BYLAYER
1002
{
1002
}
1002
}
1000
CAL5
1070
    10
1000
4
1002
{
1000
Class
1070
     4
1000
SYM
1002
{
1002
}
1000
Color
1070
     1
1070
     7
1002
{
1002
}
1000
LType
1070
     4
1000
BYLAYER
1002
{
1002
}
1002
}
1000
CAL7
1070
    10
1000
4
1002
{
1000
Class
1070
     4
1000
SYM
1002
{
1002
}
1000
Color
1070
     1
1070
     5
1002
{
1002
}
1000
LType
1070
     4
1000
BYLAYER
1002
{
1002
}
1002
}
1000
CENN
1070
    10
1000
7A
1002
{
1000
Class
1070
     4
1000
CEN
1002
{
1002
}
1000
Color
1070
     1
1070
   256
1002
{
1002
}
1000
LType
1070
     4
1000
BYLAYER
1002
{
1002
}
1002
}
1000
CENW
1070
    10
1000
7
1002
{
1000
Class
1070
     4
1000
CEN
1002
{
1002
}
1000
Color
1070
     1
1070
   256
1002
{
1002
}
1000
LType
1070
     4
1000
BYLAYER
1002
{
1002
}
1002
}
1000
CLIN
1070
    10
1000
KLIN
1002
{
1000
Class
1070
     4
1000
SPZ
1002
{
1002
}
1000
Color
1070
     1
1070
   256
1002
{
1002
}
1000
LType
1070
     4
1000
BYLAYER
1002
{
1002
}
1002
}
1000
CON1
1070
    10
1000
0
1002
{
1000
Class
1070
     4
1000
CON,BGD
1002
{
1002
}
1000
Color
1070
     1
1070
   256
1002
{
1002
}
1000
LType
1070
     4
1000
BYLAYER
1002
{
1002
}
1002
}
1000
CON2
1070
    10
1000
1
1002
{
1000
Class
1070
     4
1000
CON,BGD
1002
{
1002
}
1000
Color
1070
     1
1070
   256
1002
{
1002
}
1000
LType
1070
     4
1000
BYLAYER
1002
{
1002
}
1002
}
1000
CON3
1070
    10
1000
2
1002
{
1000
Class
1070
     4
1000
CON,BGD
1002
{
1002
}
1000
Color
1070
     1
1070
   256
1002
{
1002
}
1000
LType
1070
     4
1000
BYLAYER
1002
{
1002
}
1002
}
1000
CON4
1070
    10
1000
2
1002
{
1000
Class
1070
     4
1000
CON,BGD
1002
{
1002
}
1000
Color
1070
     1
1070
   256
1002
{
1002
}
1000
LType
1070
     4
1000
BYLAYER
1002
{
1002
}
1002
}
1000
DERP
1070
    10
1000
4
1002
{
1000
Class
1070
     4
1000

1002
{
1002
}
1000
Color
1070
     1
1070
   256
1002
{
1002
}
1000
LType
1070
     4
1000
BYLAYER
1002
{
1002
}
1002
}
1000
DETA
1070
    10
1000
4
1002
{
1000
Class
1070
     4
1000

1002
{
1002
}
1000
Color
1070
     1
1070
   256
1002
{
1002
}
1000
LType
1070
     4
1000
BYLAYER
1002
{
1002
}
1002
}
1000
DIAG
1070
    10
1000
5
1002
{
1000
Class
1070
     4
1000
SYM
1002
{
1002
}
1000
Color
1070
     1
1070
   256
1002
{
1002
}
1000
LType
1070
     4
1000
BYLAYER
1002
{
1002
}
1002
}
1000
DILI
1070
    10
1000
5
1002
{
1000
Class
1070
     4
1000
DIM,SYM
1002
{
1002
}
1000
Color
1070
     1
1070
   256
1002
{
1002
}
1000
LType
1070
     4
1000
BYLAYER
1002
{
1002
}
1002
}
1000
DITO2
1070
    10
1000
5
1002
{
1000
Class
1070
     4
1000
DIM,SYM
1002
{
1002
}
1000
Color
1070
     1
1070
     3
1002
{
1002
}
1000
LType
1070
     4
1000
BYLAYER
1002
{
1002
}
1002
}
1000
DITO3
1070
    10
1000
5
1002
{
1000
Class
1070
     4
1000
DIM,SYM
1002
{
1002
}
1000
Color
1070
     1
1070
     2
1002
{
1002
}
1000
LType
1070
     4
1000
BYLAYER
1002
{
1002
}
1002
}
1000
DITX
1070
    10
1000
5
1002
{
1000
Class
1070
     4
1000
DIM,SYM
1002
{
1002
}
1000
Color
1070
     1
1070
     2
1002
{
1002
}
1000
LType
1070
     4
1000
CONTINUOUS
1002
{
1002
}
1002
}
1000
DIXL
1070
    10
1000
5
1002
{
1000
Class
1070
     4
1000
DIM,SYM
1002
{
1002
}
1000
Color
1070
     1
1070
   256
1002
{
1002
}
1000
LType
1070
     4
1000
BYLAYER
1002
{
1002
}
1002
}
1000
EXMP
1070
    10
1000
4A
1002
{
1000
Class
1070
     4
1000

1002
{
1002
}
1000
Color
1070
     1
1070
   256
1002
{
1002
}
1000
LType
1070
     4
1000
BYLAYER
1002
{
1002
}
1002
}
1000
FEMN
1070
    10
1000
8
1002
{
1000
Class
1070
     4
1000

1002
{
1002
}
1000
Color
1070
     1
1070
   256
1002
{
1002
}
1000
LType
1070
     4
1000
BYLAYER
1002
{
1002
}
1002
}
1000
FEMPN
1070
    10
1000
8
1002
{
1000
Class
1070
     4
1000
SYM
1002
{
1002
}
1000
Color
1070
     1
1070
     3
1002
{
1002
}
1000
LType
1070
     4
1000
BYLAYER
1002
{
1002
}
1002
}
1000
FEMSP
1070
    10
1000
4A
1002
{
1000
Class
1070
     4
1000

1002
{
1002
}
1000
Color
1070
     1
1070
   256
1002
{
1002
}
1000
LType
1070
     4
1000
CONTINUOUS
1002
{
1002
}
1002
}
1000
FEMST
1070
    10
1000
4A
1002
{
1000
Class
1070
     4
1000
SYM
1002
{
1002
}
1000
Color
1070
     1
1070
     3
1002
{
1002
}
1000
LType
1070
     4
1000
BYLAYER
1002
{
1002
}
1002
}
1000
FEMVN
1070
    10
1000
2
1002
{
1000
Class
1070
     4
1000
CON
1002
{
1002
}
1000
Color
1070
     1
1070
   256
1002
{
1002
}
1000
LType
1070
     4
1000
BYLAYER
1002
{
1002
}
1002
}
1000
FEMVT
1070
    10
1000
2
1002
{
1000
Class
1070
     4
1000
SYM
1002
{
1002
}
1000
Color
1070
     1
1070
     3
1002
{
1002
}
1000
LType
1070
     4
1000
BYLAYER
1002
{
1002
}
1002
}
1000
FLAT
1070
    10
1000
0
1002
{
1000
Class
1070
     4
1000

1002
{
1002
}
1000
Color
1070
     1
1070
   256
1002
{
1002
}
1000
LType
1070
     4
1000
BYLAYER
1002
{
1002
}
1002
}
1000
FRAR
1070
    10
1000
4A
1002
{
1000
Class
1070
     4
1000

1002
{
1002
}
1000
Color
1070
     1
1070
   256
1002
{
1002
}
1000
LType
1070
     4
1000
BYLAYER
1002
{
1002
}
1002
}
1000
GRLI
1070
    10
1000
5
1002
{
1000
Class
1070
     4
1000
SYM
1002
{
1002
}
1000
Color
1070
     1
1070
   256
1002
{
1002
}
1000
LType
1070
     4
1000
BYLAYER
1002
{
1002
}
1002
}
1000
GVLI
1070
    10
1000
4A
1002
{
1000
Class
1070
     4
1000

1002
{
1002
}
1000
Color
1070
     1
1070
   256
1002
{
1002
}
1000
LType
1070
     4
1000
BYLAYER
1002
{
1002
}
1002
}
1000
HATC
1070
    10
1000
8
1002
{
1000
Class
1070
     4
1000
HTC,BGD
1002
{
1002
}
1000
Color
1070
     1
1070
   256
1002
{
1002
}
1000
LType
1070
     4
1000
BYLAYER
1002
{
1002
}
1002
}
1000
HIDN
1070
    10
1000
3A
1002
{
1000
Class
1070
     4
1000
HID,BGD
1002
{
1002
}
1000
Color
1070
     1
1070
   256
1002
{
1002
}
1000
LType
1070
     4
1000
BYLAYER
1002
{
1002
}
1002
}
1000
HIDW
1070
    10
1000
3
1002
{
1000
Class
1070
     4
1000
HID,BGD
1002
{
1002
}
1000
Color
1070
     1
1070
   256
1002
{
1002
}
1000
LType
1070
     4
1000
BYLAYER
1002
{
1002
}
1002
}
1000
HLIN
1070
    10
1000
4
1002
{
1000
Class
1070
     4
1000
BGD
1002
{
1002
}
1000
Color
1070
     1
1070
   256
1002
{
1002
}
1000
LType
1070
     4
1000
BYLAYER
1002
{
1002
}
1002
}
1000
HOCN
1070
    10
1000
7A
1002
{
1000
Class
1070
     4
1000
CEN
1002
{
1002
}
1000
Color
1070
     1
1070
   256
1002
{
1002
}
1000
LType
1070
     4
1000
BYLAYER
1002
{
1002
}
1002
}
1000
HOCW
1070
    10
1000
7
1002
{
1000
Class
1070
     4
1000
CEN
1002
{
1002
}
1000
Color
1070
     1
1070
   256
1002
{
1002
}
1000
LType
1070
     4
1000
BYLAYER
1002
{
1002
}
1002
}
1000
INFO
1070
    10
1000
INFO
1002
{
1000
Class
1070
     4
1000
SPZ,SYM
1002
{
1002
}
1000
Color
1070
     1
1070
   256
1002
{
1002
}
1000
LType
1070
     4
1000
BYLAYER
1002
{
1002
}
1002
}
1000
LADI
1070
    10
1000
4
1002
{
1000
Class
1070
     4
1000
BGD
1002
{
1002
}
1000
Color
1070
     1
1070
   256
1002
{
1002
}
1000
LType
1070
     4
1000
BYLAYER
1002
{
1002
}
1002
}
1000
LEAD
1070
    10
1000
5
1002
{
1000
Class
1070
     4
1000
SYM
1002
{
1002
}
1000
Color
1070
     1
1070
   256
1002
{
1002
}
1000
LType
1070
     4
1000
BYLAYER
1002
{
1002
}
1002
}
1000
N_ADDL
1070
    10
1000
5N
1002
{
1000
Class
1070
     4
1000
SYM
1002
{
1002
}
1000
Color
1070
     1
1070
     1
1002
{
1002
}
1000
LType
1070
     4
1000
BYLAYER
1002
{
1002
}
1002
}
1000
N_BHNV
1070
    10
1000
9N
1002
{
1000
Class
1070
     4
1000
INV
1002
{
1002
}
1000
Color
1070
     1
1070
   256
1002
{
1002
}
1000
LType
1070
     4
1000
BYLAYER
1002
{
1002
}
1002
}
1000
N_CON1
1070
    10
1000
0N
1002
{
1000
Class
1070
     4
1000
CON,BGD
1002
{
1002
}
1000
Color
1070
     1
1070
   256
1002
{
1002
}
1000
LType
1070
     4
1000
BYLAYER
1002
{
1002
}
1002
}
1000
N_CON2
1070
    10
1000
1N
1002
{
1000
Class
1070
     4
1000
CON,BGD
1002
{
1002
}
1000
Color
1070
     1
1070
   256
1002
{
1002
}
1000
LType
1070
     4
1000
BYLAYER
1002
{
1002
}
1002
}
1000
N_CON3
1070
    10
1000
2N
1002
{
1000
Class
1070
     4
1000
CON,BGD
1002
{
1002
}
1000
Color
1070
     1
1070
   256
1002
{
1002
}
1000
LType
1070
     4
1000
BYLAYER
1002
{
1002
}
1002
}
1000
N_CON4
1070
    10
1000
2N
1002
{
1000
Class
1070
     4
1000
CON,BGD
1002
{
1002
}
1000
Color
1070
     1
1070
   256
1002
{
1002
}
1000
LType
1070
     4
1000
BYLAYER
1002
{
1002
}
1002
}
1000
N_CENN
1070
    10
1000
7AN
1002
{
1000
Class
1070
     4
1000
CEN
1002
{
1002
}
1000
Color
1070
     1
1070
   256
1002
{
1002
}
1000
LType
1070
     4
1000
BYLAYER
1002
{
1002
}
1002
}
1000
N_CENW
1070
    10
1000
7N
1002
{
1000
Class
1070
     4
1000
CEN
1002
{
1002
}
1000
Color
1070
     1
1070
   256
1002
{
1002
}
1000
LType
1070
     4
1000
BYLAYER
1002
{
1002
}
1002
}
1000
N_DILI
1070
    10
1000
5N
1002
{
1000
Class
1070
     4
1000
DIM,SYM
1002
{
1002
}
1000
Color
1070
     1
1070
   256
1002
{
1002
}
1000
LType
1070
     4
1000
BYLAYER
1002
{
1002
}
1002
}
1000
N_DITX
1070
    10
1000
5N
1002
{
1000
Class
1070
     4
1000
DIM,SYM
1002
{
1002
}
1000
Color
1070
     1
1070
     2
1002
{
1002
}
1000
LType
1070
     4
1000
CONTINUOUS
1002
{
1002
}
1002
}
1000
N_DIXL
1070
    10
1000
5N
1002
{
1000
Class
1070
     4
1000
DIM,SYM
1002
{
1002
}
1000
Color
1070
     1
1070
   256
1002
{
1002
}
1000
LType
1070
     4
1000
BYLAYER
1002
{
1002
}
1002
}
1000
N_HATC
1070
    10
1000
8N
1002
{
1000
Class
1070
     4
1000
HTC,BGD
1002
{
1002
}
1000
Color
1070
     1
1070
   256
1002
{
1002
}
1000
LType
1070
     4
1000
BYLAYER
1002
{
1002
}
1002
}
1000
N_HIDN
1070
    10
1000
3AN
1002
{
1000
Class
1070
     4
1000
HID,BGD
1002
{
1002
}
1000
Color
1070
     1
1070
   256
1002
{
1002
}
1000
LType
1070
     4
1000
BYLAYER
1002
{
1002
}
1002
}
1000
N_HIDW
1070
    10
1000
3N
1002
{
1000
Class
1070
     4
1000
HID,BGD
1002
{
1002
}
1000
Color
1070
     1
1070
   256
1002
{
1002
}
1000
LType
1070
     4
1000
BYLAYER
1002
{
1002
}
1002
}
1000
N_NGIP
1070
    10
1000
IPN
1002
{
1000
Class
1070
     4
1000

1002
{
1002
}
1000
Color
1070
     1
1070
   256
1002
{
1002
}
1000
LType
1070
     4
1000
BYLAYER
1002
{
1002
}
1002
}
1000
N_PHAN
1070
    10
1000
4AN
1002
{
1000
Class
1070
     4
1000

1002
{
1002
}
1000
Color
1070
     1
1070
   256
1002
{
1002
}
1000
LType
1070
     4
1000
BYLAYER
1002
{
1002
}
1002
}
1000
N_POSL
1070
    10
1000
5N
1002
{
1000
Class
1070
     4
1000
SYM
1002
{
1002
}
1000
Color
1070
     1
1070
   256
1002
{
1002
}
1000
LType
1070
     4
1000
BYLAYER
1002
{
1002
}
1002
}
1000
N_TCON
1070
    10
1000
0N
1002
{
1000
Class
1070
     4
1000
CON,BGD
1002
{
1002
}
1000
Color
1070
     1
1070
   256
1002
{
1002
}
1000
LType
1070
     4
1000
BYLAYER
1002
{
1002
}
1002
}
1000
N_THLI
1070
    10
1000
4N
1002
{
1000
Class
1070
     4
1000
BGD
1002
{
1002
}
1000
Color
1070
     1
1070
   256
1002
{
1002
}
1000
LType
1070
     4
1000
BYLAYER
1002
{
1002
}
1002
}
1000
N_TLEN
1070
    10
1000
0N
1002
{
1000
Class
1070
     4
1000
CON,BGD
1002
{
1002
}
1000
Color
1070
     1
1070
   256
1002
{
1002
}
1000
LType
1070
     4
1000
BYLAYER
1002
{
1002
}
1002
}
1000
N_TXT3
1070
    10
1000
6N
1002
{
1000
Class
1070
     4
1000
SYM
1002
{
1002
}
1000
Color
1070
     1
1070
   256
1002
{
1002
}
1000
LType
1070
     4
1000
BYLAYER
1002
{
1002
}
1002
}
1000
N_VPLI
1070
    10
1000
2AN
1002
{
1000
Class
1070
     4
1000

1002
{
1002
}
1000
Color
1070
     1
1070
   256
1002
{
1002
}
1000
LType
1070
     4
1000
BYLAYER
1002
{
1002
}
1002
}
1000
NGIP
1070
    10
1000
IP
1002
{
1000
Class
1070
     4
1000

1002
{
1002
}
1000
Color
1070
     1
1070
   256
1002
{
1002
}
1000
LType
1070
     4
1000
BYLAYER
1002
{
1002
}
1002
}
1000
PAL2
1070
    10
1000
RAHM2
1002
{
1000
Class
1070
     4
1000
SPZ,SYM
1002
{
1002
}
1000
Color
1070
     1
1070
   256
1002
{
1002
}
1000
LType
1070
     4
1000
BYLAYER
1002
{
1002
}
1002
}
1000
PAL3
1070
    10
1000
RAHM3
1002
{
1000
Class
1070
     4
1000
SPZ,SYM
1002
{
1002
}
1000
Color
1070
     1
1070
   256
1002
{
1002
}
1000
LType
1070
     4
1000
BYLAYER
1002
{
1002
}
1002
}
1000
PAL5
1070
    10
1000
RAHM5
1002
{
1000
Class
1070
     4
1000
SPZ,SYM
1002
{
1002
}
1000
Color
1070
     1
1070
   256
1002
{
1002
}
1000
LType
1070
     4
1000
BYLAYER
1002
{
1002
}
1002
}
1000
PAL7
1070
    10
1000
RAHM5
1002
{
1000
Class
1070
     4
1000
SPZ,SYM
1002
{
1002
}
1000
Color
1070
     1
1070
     7
1002
{
1002
}
1000
LType
1070
     4
1000
CONTINUOUS
1002
{
1002
}
1002
}
1000
PHAN
1070
    10
1000
4A
1002
{
1000
Class
1070
     4
1000

1002
{
1002
}
1000
Color
1070
     1
1070
   256
1002
{
1002
}
1000
LType
1070
     4
1000
BYLAYER
1002
{
1002
}
1002
}
1000
POSL
1070
    10
1000
5
1002
{
1000
Class
1070
     4
1000
SYM
1002
{
1002
}
1000
Color
1070
     1
1070
   256
1002
{
1002
}
1000
LType
1070
     4
1000
BYLAYER
1002
{
1002
}
1002
}
1000
POSN
1070
    10
1000
6
1002
{
1000
Class
1070
     4
1000
SYM
1002
{
1002
}
1000
Color
1070
     1
1070
     7
1002
{
1002
}
1000
LType
1070
     4
1000
BYLAYER
1002
{
1002
}
1002
}
1000
POSREF
1070
    10
1000
6
1002
{
1000
Class
1070
     4
1000
SYM
1002
{
1002
}
1000
Color
1070
     1
1070
     5
1002
{
1002
}
1000
LType
1070
     4
1000
BYLAYER
1002
{
1002
}
1002
}
1000
POSX
1070
    10
1000
5
1002
{
1000
Class
1070
     4
1000
SYM
1002
{
1002
}
1000
Color
1070
     1
1070
     2
1002
{
1002
}
1000
LType
1070
     4
1000
CONTINUOUS
1002
{
1002
}
1002
}
1000
PSEC
1070
    10
1000
4A
1002
{
1000
Class
1070
     4
1000

1002
{
1002
}
1000
Color
1070
     1
1070
   256
1002
{
1002
}
1000
LType
1070
     4
1000
BYLAYER
1002
{
1002
}
1002
}
1000
RCGN
1070
    10
1000
7A
1002
{
1000
Class
1070
     4
1000
CEN
1002
{
1002
}
1000
Color
1070
     1
1070
   256
1002
{
1002
}
1000
LType
1070
     4
1000
BYLAYER
1002
{
1002
}
1002
}
1000
RCGW
1070
    10
1000
7
1002
{
1000
Class
1070
     4
1000
CEN
1002
{
1002
}
1000
Color
1070
     1
1070
   256
1002
{
1002
}
1000
LType
1070
     4
1000
BYLAYER
1002
{
1002
}
1002
}
1000
RFDI
1070
    10
1000
4
1002
{
1000
Class
1070
     4
1000
BGD
1002
{
1002
}
1000
Color
1070
     1
1070
   256
1002
{
1002
}
1000
LType
1070
     4
1000
BYLAYER
1002
{
1002
}
1002
}
1000
RQTR
1070
    10
1000
4
1002
{
1000
Class
1070
     4
1000

1002
{
1002
}
1000
Color
1070
     1
1070
     7
1002
{
1002
}
1000
LType
1070
     4
1000
GEN7A
1002
{
1002
}
1002
}
1000
RSBO
1070
    10
1000
4
1002
{
1000
Class
1070
     4
1000
BGD
1002
{
1002
}
1000
Color
1070
     1
1070
   256
1002
{
1002
}
1000
LType
1070
     4
1000
BYLAYER
1002
{
1002
}
1002
}
1000
SBRK
1070
    10
1000
4
1002
{
1000
Class
1070
     4
1000
BGD
1002
{
1002
}
1000
Color
1070
     1
1070
   256
1002
{
1002
}
1000
LType
1070
     4
1000
BYLAYER
1002
{
1002
}
1002
}
1000
SCEN
1070
    10
1000
7
1002
{
1000
Class
1070
     4
1000

1002
{
1002
}
1000
Color
1070
     1
1070
   256
1002
{
1002
}
1000
LType
1070
     4
1000
CONTINUOUS
1002
{
1002
}
1002
}
1000
SECT
1070
    10
1000
4
1002
{
1000
Class
1070
     4
1000
BGD
1002
{
1002
}
1000
Color
1070
     1
1070
   256
1002
{
1002
}
1000
LType
1070
     4
1000
BYLAYER
1002
{
1002
}
1002
}
1000
SELN
1070
    10
1000
7A
1002
{
1000
Class
1070
     4
1000

1002
{
1002
}
1000
Color
1070
     1
1070
   256
1002
{
1002
}
1000
LType
1070
     4
1000
BYLAYER
1002
{
1002
}
1002
}
1000
SELW
1070
    10
1000
7
1002
{
1000
Class
1070
     4
1000

1002
{
1002
}
1000
Color
1070
     1
1070
   256
1002
{
1002
}
1000
LType
1070
     4
1000
BYLAYER
1002
{
1002
}
1002
}
1000
SSYS
1070
    10
1000
0
1002
{
1000
Class
1070
     4
1000

1002
{
1002
}
1000
Color
1070
     1
1070
   256
1002
{
1002
}
1000
LType
1070
     4
1000
BYLAYER
1002
{
1002
}
1002
}
1000
STLI
1070
    10
1000
4
1002
{
1000
Class
1070
     4
1000

1002
{
1002
}
1000
Color
1070
     1
1070
     7
1002
{
1002
}
1000
LType
1070
     4
1000
GEN3A
1002
{
1002
}
1002
}
1000
SYB1
1070
    10
1000
5
1002
{
1000
Class
1070
     4
1000
SYM
1002
{
1002
}
1000
Color
1070
     1
1070
   256
1002
{
1002
}
1000
LType
1070
     4
1000
BYLAYER
1002
{
1002
}
1002
}
1000
SYB2
1070
    10
1000
5
1002
{
1000
Class
1070
     4
1000
SYM
1002
{
1002
}
1000
Color
1070
     1
1070
   256
1002
{
1002
}
1000
LType
1070
     4
1000
BYLAYER
1002
{
1002
}
1002
}
1000
SYB3
1070
    10
1000
6
1002
{
1000
Class
1070
     4
1000
SYM
1002
{
1002
}
1000
Color
1070
     1
1070
   256
1002
{
1002
}
1000
LType
1070
     4
1000
CONTINUOUS
1002
{
1002
}
1002
}
1000
SYB5
1070
    10
1000
5
1002
{
1000
Class
1070
     4
1000
SYM
1002
{
1002
}
1000
Color
1070
     1
1070
     7
1002
{
1002
}
1000
LType
1070
     4
1000
BYLAYER
1002
{
1002
}
1002
}
1000
SYMN
1070
    10
1000
7A
1002
{
1000
Class
1070
     4
1000
CEN
1002
{
1002
}
1000
Color
1070
     1
1070
   256
1002
{
1002
}
1000
LType
1070
     4
1000
BYLAYER
1002
{
1002
}
1002
}
1000
SYMW
1070
    10
1000
7
1002
{
1000
Class
1070
     4
1000
CEN
1002
{
1002
}
1000
Color
1070
     1
1070
   256
1002
{
1002
}
1000
LType
1070
     4
1000
BYLAYER
1002
{
1002
}
1002
}
1000
TCON
1070
    10
1000
0
1002
{
1000
Class
1070
     4
1000
CON,BGD
1002
{
1002
}
1000
Color
1070
     1
1070
   256
1002
{
1002
}
1000
LType
1070
     4
1000
BYLAYER
1002
{
1002
}
1002
}
1000
THLI
1070
    10
1000
4
1002
{
1000
Class
1070
     4
1000
BGD
1002
{
1002
}
1000
Color
1070
     1
1070
   256
1002
{
1002
}
1000
LType
1070
     4
1000
BYLAYER
1002
{
1002
}
1002
}
1000
TIT2
1070
    10
1000
RAHM2
1002
{
1000
Class
1070
     4
1000
SPZ,SYM
1002
{
1002
}
1000
Color
1070
     1
1070
   256
1002
{
1002
}
1000
LType
1070
     4
1000
BYLAYER
1002
{
1002
}
1002
}
1000
TIT3
1070
    10
1000
RAHM3
1002
{
1000
Class
1070
     4
1000
SPZ,SYM
1002
{
1002
}
1000
Color
1070
     1
1070
   256
1002
{
1002
}
1000
LType
1070
     4
1000
BYLAYER
1002
{
1002
}
1002
}
1000
TIT5
1070
    10
1000
RAHM5
1002
{
1000
Class
1070
     4
1000
SPZ,SYM
1002
{
1002
}
1000
Color
1070
     1
1070
   256
1002
{
1002
}
1000
LType
1070
     4
1000
BYLAYER
1002
{
1002
}
1002
}
1000
TIT7
1070
    10
1000
RAHM5
1002
{
1000
Class
1070
     4
1000
SPZ,SYM
1002
{
1002
}
1000
Color
1070
     1
1070
     7
1002
{
1002
}
1000
LType
1070
     4
1000
CONTINUOUS
1002
{
1002
}
1002
}
1000
TLEN
1070
    10
1000
0
1002
{
1000
Class
1070
     4
1000
CON,BGD
1002
{
1002
}
1000
Color
1070
     1
1070
   256
1002
{
1002
}
1000
LType
1070
     4
1000
BYLAYER
1002
{
1002
}
1002
}
1000
TRKN
1070
    10
1000
7A
1002
{
1000
Class
1070
     4
1000

1002
{
1002
}
1000
Color
1070
     1
1070
   256
1002
{
1002
}
1000
LType
1070
     4
1000
BYLAYER
1002
{
1002
}
1002
}
1000
TRKW
1070
    10
1000
7
1002
{
1000
Class
1070
     4
1000

1002
{
1002
}
1000
Color
1070
     1
1070
   256
1002
{
1002
}
1000
LType
1070
     4
1000
BYLAYER
1002
{
1002
}
1002
}
1000
TRLI
1070
    10
1000
4
1002
{
1000
Class
1070
     4
1000
BGD
1002
{
1002
}
1000
Color
1070
     1
1070
   256
1002
{
1002
}
1000
LType
1070
     4
1000
BYLAYER
1002
{
1002
}
1002
}
1000
TXT1
1070
    10
1000
6
1002
{
1000
Class
1070
     4
1000
SYM
1002
{
1002
}
1000
Color
1070
     1
1070
     2
1002
{
1002
}
1000
LType
1070
     4
1000
BYLAYER
1002
{
1002
}
1002
}
1000
TXT2
1070
    10
1000
6
1002
{
1000
Class
1070
     4
1000
SYM
1002
{
1002
}
1000
Color
1070
     1
1070
     2
1002
{
1002
}
1000
LType
1070
     4
1000
BYLAYER
1002
{
1002
}
1002
}
1000
TXT3
1070
    10
1000
6
1002
{
1000
Class
1070
     4
1000
SYM
1002
{
1002
}
1000
Color
1070
     1
1070
   256
1002
{
1002
}
1000
LType
1070
     4
1000
BYLAYER
1002
{
1002
}
1002
}
1000
TXT5
1070
    10
1000
6
1002
{
1000
Class
1070
     4
1000
SYM
1002
{
1002
}
1000
Color
1070
     1
1070
     7
1002
{
1002
}
1000
LType
1070
     4
1000
BYLAYER
1002
{
1002
}
1002
}
1000
TXT7
1070
    10
1000
6
1002
{
1000
Class
1070
     4
1000
SYM
1002
{
1002
}
1000
Color
1070
     1
1070
     7
1002
{
1002
}
1000
LType
1070
     4
1000
BYLAYER
1002
{
1002
}
1002
}
1000
VIEW
1070
    10
1000
VIEW
1002
{
1000
Class
1070
     4
1000
SPZ
1002
{
1002
}
1000
Color
1070
     1
1070
   256
1002
{
1002
}
1000
LType
1070
     4
1000
BYLAYER
1002
{
1002
}
1002
}
1000
VPLI
1070
    10
1000
2A
1002
{
1000
Class
1070
     4
1000

1002
{
1002
}
1000
Color
1070
     1
1070
   256
1002
{
1002
}
1000
LType
1070
     4
1000
BYLAYER
1002
{
1002
}
1002
}
1000
ZIZA
1070
    10
1000
4
1002
{
1000
Class
1070
     4
1000
BGD
1002
{
1002
}
1000
Color
1070
     1
1070
   256
1002
{
1002
}
1000
LType
1070
     4
1000
GENZIGZAG
1002
{
1002
}
1002
}
  0
APPID
  5
12C0
330
9
100
AcDbSymbolTableRecord
100
AcDbRegAppTableRecord
  2
GENIUS_GENCFG4_13
 70
     0
1001
GENIUS_GENCFG_13
1071
1068554281
1000
6D
1000
GEN
1070
    13
1000
GenCfgObject
1000
GenCfgShort
1000
GenCfgReal
1000
GenCfgBool
1000
GenCfgString
1000
GenCfgDim
1000
GenCfgLayer
1000
GenCfgPoint
1000
GenCfgAttrInf
1000
GenCfgLaySection
1000
GenCfgEntSort
1000
GenCfgLType
1000
GenCfgFilter
1000
Balloon
1070
     0
1002
{
1000
GenIF
1070
     1
1070
     0
1002
{
1002
}
1000
GenPosInc
1070
     1
1070
     1
1002
{
1002
}
1000
GenPosBlk
1070
     1
1070
     8
1002
{
1002
}
1000
GenPosVar
1070
     1
1070
     0
1002
{
1002
}
1000
GenZiCir
1070
     2
1040
1.5
1002
{
1002
}
1000
MaxCharForCenteredText
1070
     1
1070
    30
1002
{
1002
}
1000
Snap
1070
     0
1002
{
1000
ActivationRadius
1070
     2
1040
1.0
1002
{
1002
}
1000
M
1070
     0
1002
{
1000
SnapStepX
1070
     2
1040
20.0
1002
{
1002
}
1000
SnapStepY
1070
     2
1040
10.0
1002
{
1002
}
1002
}
1000
I
1070
     0
1002
{
1000
SnapStepX
1070
     2
1040
1.0
1002
{
1002
}
1000
SnapStepY
1070
     2
1040
0.5
1002
{
1002
}
1002
}
1002
}
1002
}
1000
Centerline
1070
     0
1002
{
1000
ScaleNot
1070
     3
1070
     0
1002
{
1002
}
1000
M
1070
     0
1002
{
1000
GenCenAng
1070
     4
1000
45|90|135
1002
{
1002
}
1000
GenCenDia
1070
     2
1040
10.0
1002
{
1002
}
1000
GenCenDias
1070
     4
1000
10|20|30
1002
{
1002
}
1000
GenCenDist
1070
     2
1040
3.0
1002
{
1002
}
1000
GenCenLen
1070
     2
1040
10.0
1002
{
1002
}
1000
GenCenOff
1070
     2
1040
10.0
1002
{
1002
}
1000
GENCENOFF1
1070
     2
1040
10.0
1002
{
1002
}
1000
GENCENOFF2
1070
     2
1040
10.0
1002
{
1002
}
1002
}
1000
I
1070
     0
1002
{
1000
GenCenAng
1070
     4
1000
45|90|135
1002
{
1002
}
1000
GenCenDia
1070
     2
1040
0.5
1002
{
1002
}
1000
GenCenDias
1070
     4
1000
0.5|1.0|1.5
1002
{
1002
}
1000
GenCenDist
1070
     2
1040
0.125
1002
{
1002
}
1000
GenCenLen
1070
     2
1040
0.5
1002
{
1002
}
1000
GenCenOff
1070
     2
1040
0.5
1002
{
1002
}
1002
}
1002
}
1000
CLine
1070
     0
1002
{
1000
CAngArray
1070
     4
1000
30|45|60
1002
{
1002
}
1000
Typ
1070
     4
1000
XLINE
1002
{
1002
}
1000
M
1070
     0
1002
{
1000
CLinArray
1070
     4
1000
10|20|30
1002
{
1002
}
1002
}
1000
I
1070
     0
1002
{
1000
CLinArray
1070
     4
1000
0.125|0.25|0.5
1002
{
1002
}
1002
}
1002
}
1000
Detail
1070
     0
1002
{
1002
}
1000
Dimension
1070
     5
1002
{
1000
DIMALT
1070
     1
1070
     0
1002
{
1002
}
1000
DIMALTD
1070
     1
1070
     2
1002
{
1000
DIMDEC
1070
     4
1000
4
1002
{
1002
}
1002
}
1000
DIMALTTD
1070
     1
1070
     4
1002
{
1002
}
1000
DIMALTTZ
1070
     1
1070
     0
1002
{
1002
}
1000
DIMALTU
1070
     1
1070
     2
1002
{
1002
}
1000
DIMALTZ
1070
     1
1070
     0
1002
{
1002
}
1000
DIMAUNIT
1070
     1
1070
     0
1002
{
1000
DIMASO
1070
     4
1000
1
1002
{
1002
}
1002
}
1000
DIMBLK
1070
     4
1000

1002
{
1002
}
1000
DIMBLK1
1070
     4
1000

1002
{
1002
}
1000
DIMBLK2
1070
     4
1000

1002
{
1002
}
1000
DIMCLRD
1070
     1
1070
   256
1002
{
1002
}
1000
DIMCLRE
1070
     1
1070
   256
1002
{
1002
}
1000
DIMCLRT
1070
     1
1070
     2
1002
{
1002
}
1000
DIMDLE
1070
     2
1040
0.0
1002
{
1002
}
1000
DIMFIT
1070
     1
1070
     3
1002
{
1002
}
1000
DIMJUST
1070
     1
1070
     0
1002
{
1002
}
1000
DIMLFAC
1070
     2
1040
1.0
1002
{
1000
gen-iso-05
1070
     4
1000

1002
{
1002
}
1002
}
1000
DIMLIM
1070
     1
1070
     0
1002
{
1002
}
1000
DIMPOST
1070
     4
1000
<>
1002
{
1002
}
1000
DIMRND
1070
     2
1040
0.0
1002
{
1002
}
1000
DIMSAH
1070
     1
1070
     0
1002
{
1002
}
1000
DIMSCALE
1070
     2
1040
1.0
1002
{
1000
GEN-IS0-1
1070
     4
1000

1002
{
1002
}
1002
}
1000
DIMSD1
1070
     1
1070
     0
1002
{
1002
}
1000
DIMSD2
1070
     1
1070
     0
1002
{
1002
}
1000
DIMSE1
1070
     1
1070
     0
1002
{
1002
}
1000
DIMSE2
1070
     1
1070
     0
1002
{
1002
}
1000
DIMSOXD
1070
     1
1070
     0
1002
{
1002
}
1000
DIMTAD
1070
     1
1070
     0
1002
{
1002
}
1000
DIMTFAC
1070
     2
1040
0.71
1002
{
1002
}
1000
DIMTIH
1070
     1
1070
     0
1002
{
1002
}
1000
DIMTIX
1070
     1
1070
     0
1002
{
1002
}
1000
DIMTM
1070
     2
1040
0.1
1002
{
1002
}
1000
DIMTOFL
1070
     1
1070
     0
1002
{
1002
}
1000
DIMTOH
1070
     1
1070
     0
1002
{
1002
}
1000
DIMTOL
1070
     1
1070
     0
1002
{
1002
}
1000
DIMTOLJ
1070
     1
1070
     1
1002
{
1002
}
1000
DIMTP
1070
     2
1040
0.1
1002
{
1002
}
1000
DIMTSZ
1070
     2
1040
0.0
1002
{
1002
}
1000
DIMTVP
1070
     2
1040
0.0
1002
{
1000
DIMDEC
1070
     4
1000
4
1002
{
1002
}
1002
}
1000
DIMTXSTY
1070
     4
1000
STANDARD
1002
{
1000
Koordinate
1070
     4
1000
Koordinate
1002
{
1002
}
1002
}
1000
DIMTZIN
1070
     1
1070
     0
1002
{
1002
}
1000
DIMUNIT
1070
     1
1070
     2
1002
{
1002
}
1000
DIMUPT
1070
     1
1070
     0
1002
{
1000
DIMUPT
1070
     4
1000

1002
{
1002
}
1002
}
1000
M
1070
     0
1002
{
1000
DIMALTF
1070
     2
1040
0.0393701
1002
{
1002
}
1000
DIMAPOST
1070
     4
1000
"
1002
{
1002
}
1000
DIMASZ
1070
     2
1040
2.5
1002
{
1002
}
1000
DIMCEN
1070
     2
1040
0.0
1002
{
1002
}
1000
DIMDEC
1070
     1
1070
     2
1002
{
1002
}
1000
DIMDLI
1070
     2
1040
7.0
1002
{
1002
}
1000
DIMEXE
1070
     2
1040
1.0
1002
{
1002
}
1000
DIMEXO
1070
     2
1040
1.0
1002
{
1002
}
1000
DIMGAP
1070
     2
1040
0.6
1002
{
1000
DIMLFAC
1070
     4
1000
.5
1002
{
1002
}
1002
}
1000
DIMTDEC
1070
     1
1070
     3
1002
{
1002
}
1000
DIMTXT
1070
     2
1040
4.0
1002
{
1002
}
1000
DIMZIN
1070
     1
1070
     8
1002
{
1000
LUPREC
1070
     4
1000
3
1002
{
1002
}
1002
}
1002
}
1000
I
1070
     0
1002
{
1000
DIMALTF
1070
     2
1040
25.4
1002
{
1002
}
1000
DIMAPOST
1070
     4
1000
mm
1002
{
1002
}
1000
DIMASZ
1070
     2
1040
0.1
1002
{
1002
}
1000
DIMCEN
1070
     2
1040
0.0
1002
{
1002
}
1000
DIMDEC
1070
     1
1070
     4
1002
{
1002
}
1000
DIMDLI
1070
     2
1040
0.5
1002
{
1002
}
1000
DIMEXE
1070
     2
1040
0.1
1002
{
1002
}
1000
DIMEXO
1070
     2
1040
0.05
1002
{
1002
}
1000
DIMGAP
1070
     2
1040
0.06
1002
{
1002
}
1000
DIMTDEC
1070
     1
1070
     4
1002
{
1002
}
1000
DIMTXT
1070
     2
1040
0.12
1002
{
1000
DIMCLRT
1070
     4
1000
6
1002
{
1002
}
1002
}
1000
DIMZIN
1070
     1
1070
     7
1002
{
1002
}
1002
}
1000
GEN-ISO
1070
     5
1002
{
1000
NAME
1070
     4
1000
GEN-ISO
1002
{
1000
DIMTXSTY
1070
     4
1000
ROMANS
1002
{
1002
}
1000
DIMTOH
1070
     4
1000
0
1002
{
1002
}
1002
}
1000
DIMTAD
1070
     1
1070
     1
1002
{
1002
}
1000
DIMTOLJ
1070
     1
1070
     0
1002
{
1002
}
1000
DIMTOFL
1070
     1
1070
     1
1002
{
1002
}
1000
M
1070
     0
1002
{
1002
}
1000
I
1070
     0
1002
{
1002
}
1002
}
1000
GEN-ISO-POS
1070
     5
1002
{
1000
NAME
1070
     4
1000
GEN-ISO-POS
1002
{
1002
}
1000
DIMTOLJ
1070
     1
1070
     0
1002
{
1002
}
1000
DIMTXSTY
1070
     4
1000
STANDARD
1002
{
1002
}
1000
M
1070
     0
1002
{
1000
DIMASZ
1070
     2
1040
2.5
1002
{
1002
}
1000
DIMGAP
1070
     2
1040
1.5
1002
{
1002
}
1000
DIMTXT
1070
     2
1040
5.0
1002
{
1002
}
1002
}
1000
I
1070
     0
1002
{
1000
DIMASZ
1070
     2
1040
0.1
1002
{
1002
}
1000
DIMGAP
1070
     2
1040
0.06
1002
{
1002
}
1000
DIMTXT
1070
     2
1040
0.2
1002
{
1002
}
1002
}
1002
}
1000
GEN-ISO-CIR
1070
     5
1002
{
1000
NAME
1070
     4
1000
GEN-ISO$3
1002
{
1000
DIMDEC
1070
     4
1000
4
1002
{
1002
}
1002
}
1000
DIMFIT
1070
     1
1070
     0
1002
{
1002
}
1000
DIMTAD
1070
     1
1070
     1
1002
{
1002
}
1000
DIMTOH
1070
     1
1070
     1
1002
{
1002
}
1000
DIMTOLJ
1070
     1
1070
     0
1002
{
1002
}
1000
DIMUPT
1070
     1
1070
     1
1002
{
1002
}
1000
M
1070
     0
1002
{
1002
}
1000
I
1070
     0
1002
{
1002
}
1000
DIMTIH
1070
     1
1070
     0
1002
{
1002
}
1000
DIMTIX
1070
     1
1070
     0
1002
{
1002
}
1000
DIMTOFL
1070
     1
1070
     0
1002
{
1002
}
1002
}
1000
GEN-ISO-RAD
1070
     5
1002
{
1000
NAME
1070
     4
1000
GEN-ISO$4
1002
{
1000
DIMDEC
1070
     4
1000
4
1002
{
1002
}
1002
}
1000
DIMFIT
1070
     1
1070
     0
1002
{
1002
}
1000
DIMTAD
1070
     1
1070
     1
1002
{
1002
}
1000
DIMTIH
1070
     1
1070
     0
1002
{
1002
}
1000
DIMTIX
1070
     1
1070
     0
1002
{
1002
}
1000
DIMTOH
1070
     1
1070
     1
1002
{
1002
}
1000
DIMTOLJ
1070
     1
1070
     0
1002
{
1002
}
1000
DIMTOFL
1070
     1
1070
     0
1002
{
1002
}
1000
DIMUPT
1070
     1
1070
     1
1002
{
1002
}
1000
M
1070
     0
1002
{
1002
}
1000
I
1070
     0
1002
{
1002
}
1002
}
1000
GEN-ISO-ORD
1070
     5
1002
{
1000
NAME
1070
     4
1000
GEN-ISO$6
1002
{
1000
dimtxt
1070
     4
1000
2.5
1002
{
1002
}
1002
}
1000
DIMTOLJ
1070
     1
1070
     0
1002
{
1002
}
1000
M
1070
     0
1002
{
1002
}
1000
I
1070
     0
1002
{
1002
}
1002
}
1000
GEN-ISO-AXE-F
1070
     5
1002
{
1000
NAME
1070
     4
1000
GEN-ISO-AXE-F
1002
{
1002
}
1000
DIMSE1
1070
     1
1070
     1
1002
{
1002
}
1000
DIMSE2
1070
     1
1070
     1
1002
{
1002
}
1000
DIMTAD
1070
     1
1070
     1
1002
{
1002
}
1000
DIMTOLJ
1070
     1
1070
     0
1002
{
1002
}
1000
DIMTOFL
1070
     1
1070
     1
1002
{
1002
}
1000
M
1070
     0
1002
{
1002
}
1000
I
1070
     0
1002
{
1002
}
1002
}
1000
GEN-ISO-AXE-H
1070
     5
1002
{
1000
NAME
1070
     4
1000
GEN-ISO-AXE-H
1002
{
1002
}
1000
DIMBLK1
1070
     4
1000
GENAXEH
1002
{
1002
}
1000
DIMLFAC
1070
     2
1040
2.0
1002
{
1002
}
1000
DIMSAH
1070
     1
1070
     1
1002
{
1002
}
1000
DIMSE1
1070
     1
1070
     1
1002
{
1002
}
1000
DIMSE2
1070
     1
1070
     1
1002
{
1002
}
1000
DIMTAD
1070
     1
1070
     1
1002
{
1002
}
1000
DIMTOLJ
1070
     1
1070
     0
1002
{
1002
}
1000
DIMTOFL
1070
     1
1070
     1
1002
{
1002
}
1000
M
1070
     0
1002
{
1002
}
1000
I
1070
     0
1002
{
1002
}
1002
}
1000
GEN-ANSI
1070
     5
1002
{
1000
NAME
1070
     4
1000
GEN-ANSI
1002
{
1002
}
1000
DIMTIH
1070
     1
1070
     1
1002
{
1002
}
1000
DIMTOH
1070
     1
1070
     1
1002
{
1002
}
1000
DIMTAD
1070
     1
1070
     0
1002
{
1002
}
1000
DIMTOLJ
1070
     1
1070
     1
1002
{
1002
}
1000
M
1070
     0
1002
{
1002
}
1000
I
1070
     0
1002
{
1002
}
1002
}
1000
GEN-ANSI-POS
1070
     5
1002
{
1000
>
1002
}
1000
GEN-ANSI-CIR
1070
     5
1002
{
1000
NAME
1070
     4
1000
GEN-ANSI$3
1002
{
1002
}
1000
DIMFIT
1070
     1
1070
     0
1002
{
1002
}
1000
DIMTAD
1070
     1
1070
     0
1002
{
1002
}
1000
DIMTIH
1070
     1
1070
     1
1002
{
1002
}
1000
DIMTIX
1070
     1
1070
     0
1002
{
1002
}
1000
DIMTOFL
1070
     1
1070
     0
1002
{
1002
}
1000
DIMTOH
1070
     1
1070
     1
1002
{
1002
}
1000
DIMTOLJ
1070
     1
1070
     1
1002
{
1002
}
1000
DIMUPT
1070
     1
1070
     1
1002
{
1002
}
1000
M
1070
     0
1002
{
1002
}
1000
I
1070
     0
1002
{
1002
}
1002
}
1000
GEN-ANSI-RAD
1070
     5
1002
{
1000
NAME
1070
     4
1000
GEN-ANSI$4
1002
{
1002
}
1000
DIMFIT
1070
     1
1070
     0
1002
{
1002
}
1000
DIMTAD
1070
     1
1070
     0
1002
{
1002
}
1000
DIMTIH
1070
     1
1070
     1
1002
{
1002
}
1000
DIMTIX
1070
     1
1070
     0
1002
{
1002
}
1000
DIMTOFL
1070
     1
1070
     0
1002
{
1002
}
1000
DIMTOH
1070
     1
1070
     1
1002
{
1002
}
1000
DIMTOLJ
1070
     1
1070
     1
1002
{
1002
}
1000
DIMUPT
1070
     1
1070
     1
1002
{
1002
}
1000
M
1070
     0
1002
{
1002
}
1000
I
1070
     0
1002
{
1002
}
1002
}
1000
GEN-ANSI-ORD
1070
     5
1002
{
1000
NAME
1070
     4
1000
GEN-ANSI$6
1002
{
1002
}
1000
DIMTAD
1070
     1
1070
     0
1002
{
1002
}
1000
DIMTIH
1070
     1
1070
     1
1002
{
1002
}
1000
DIMTOH
1070
     1
1070
     1
1002
{
1002
}
1000
DIMTOLJ
1070
     1
1070
     1
1002
{
1002
}
1000
M
1070
     0
1002
{
1002
}
1000
I
1070
     0
1002
{
1002
}
1002
}
1000
GEN-ANSI-AXE-F
1070
     5
1002
{
1000
NAME
1070
     4
1000
GEN-ANSI-AXE-F
1002
{
1002
}
1000
DIMBLK1
1070
     4
1000
GENAXEH
1002
{
1002
}
1000
DIMSAH
1070
     1
1070
     1
1002
{
1002
}
1000
DIMSE1
1070
     1
1070
     1
1002
{
1002
}
1000
DIMSE2
1070
     1
1070
     1
1002
{
1002
}
1000
DIMTAD
1070
     1
1070
     0
1002
{
1002
}
1000
DIMTIH
1070
     1
1070
     1
1002
{
1002
}
1000
DIMTOH
1070
     1
1070
     1
1002
{
1002
}
1000
DIMTOLJ
1070
     1
1070
     1
1002
{
1002
}
1000
M
1070
     0
1002
{
1002
}
1000
I
1070
     0
1002
{
1002
}
1002
}
1000
GEN-ANSI-AXE-H
1070
     5
1002
{
1000
NAME
1070
     4
1000
GEN-ANSI-AXE-H
1002
{
1002
}
1000
DIMBLK1
1070
     4
1000
GENAXEH
1002
{
1002
}
1000
DIMLFAC
1070
     2
1040
2.0
1002
{
1002
}
1000
DIMSAH
1070
     1
1070
     1
1002
{
1002
}
1000
DIMSE1
1070
     1
1070
     1
1002
{
1002
}
1000
DIMSE2
1070
     1
1070
     1
1002
{
1002
}
1000
DIMTAD
1070
     1
1070
     0
1002
{
1002
}
1000
DIMTOFL
1070
     1
1070
     1
1002
{
1002
}
1000
DIMTOLJ
1070
     1
1070
     1
1002
{
1002
}
1000
M
1070
     0
1002
{
1002
}
1000
I
1070
     0
1002
{
1002
}
1002
}
1002
}
1000
DimSet
1070
     0
1002
{
1000
ChainSum
1070
     3
1070
     0
1002
{
1002
}
1000
DimDclTyp0
1070
     4
1000
dim23
1002
{
1002
}
1000
HorBra
1070
     3
1070
     0
1002
{
1002
}
1000
StrDia
1070
     4
1000
%%c<>
1002
{
1002
}
1000
StrRad
1070
     4
1000
R<>
1002
{
1002
}
1000
TextMinus
1070
     4
1000
<>
1002
{
1002
}
1000
TextPlus
1070
     4
1000
<>
1002
{
1002
}
1000
M
1070
     0
1002
{
1000
DimdliFirst
1070
     2
1040
10.0
1002
{
1002
}
1000
PointMakeDist
1070
     2
1040
10.0
1002
{
1002
}
1002
}
1000
I
1070
     0
1002
{
1000
DimdliFirst
1070
     2
1040
0.5
1002
{
1002
}
1000
PointMakeDist
1070
     2
1040
0.5
1002
{
1002
}
1002
}
1000
FitGrade
1070
     4
1000
h7
1002
{
1002
}
1002
}
1000
Drawing
1070
     0
1002
{
1000
ChamferDimMode
1070
     1
1070
     2
1002
{
1002
}
1000
Gen_Fiso
1070
    -3
1040
1.0
1002
{
1002
}
1000
GenDimStil
1070
     4
1000
ISO
1002
{
1002
}
1000
GenDwgUScale
1070
     2
1040
1.0
1002
{
1002
}
1000
GenInch
1070
     4
1000
M
1002
{
1002
}
1000
GenPlotScale
1070
     4
1000
1:1
1002
{
1002
}
1000
Revisi
1070
     4
1000
0
1002
{
1002
}
1000
Version
1070
    -5
1000
14.01/Apr  1 1998
1002
{
1002
}
1000
Platform
1070
    -5
1000
WINNT
1002
{
1002
}
1002
}
1000
DwgVar
1070
     0
1002
{
1000
M
1070
     0
1002
{
1000
CHAMFERA
1070
     2
1040
0.00001
1002
{
1002
}
1000
CHAMFERB
1070
     2
1040
0.000001
1002
{
1002
}
1000
FILLETRAD
1070
     2
1040
0.000001
1002
{
1002
}
1000
LIMMAX
1070
     7
1010
-1.000000000000000E+20
1020
0.0
1030
0.0
1002
{
1002
}
1000
LTSCALE
1070
     2
1040
0.000001
1002
{
1002
}
1002
}
1000
I
1070
     0
1002
{
1000
CHAMFERA
1070
     2
1040
0.00000000001
1002
{
1002
}
1000
CHAMFERB
1070
     2
1040
0.0000000001
1002
{
1002
}
1000
FILLETRAD
1070
     2
1040
0.00000000001
1002
{
1002
}
1000
LIMMAX
1070
     7
1010
-1.000000000000000E+20
1020
0.0
1030
0.0
1002
{
1002
}
1002
}
1002
}
1000
Hatch
1070
     0
1002
{
1000
GenHtcFlag
1070
     3
1070
     0
1002
{
1002
}
1002
}
1000
Info_Pos
1070
     0
1002
{
1000
>
1002
}
1000
Layer
1070
     9
1002
{
1000
Defs
1070
     0
1002
{
1000
>
1002
}
1000
EntSort
1070
     0
1002
{
1000
>
1002
}
1000
Match
1070
     0
1002
{
1002
}
1000
Settings
1070
     0
1002
{
1000
FocGrNC
1070
     3
1070
     0
1002
{
1002
}
1000
FocGrLo
1070
     3
1070
     0
1002
{
1002
}
1000
FocLoNC
1070
     3
1070
     0
1002
{
1002
}
1000
FocusCol
1070
     1
1070
   253
1002
{
1002
}
1000
GenStdLG
1070
     4
1000

1002
{
1002
}
1000
LayMatch
1070
     3
1070
     0
1002
{
1002
}
1000
LgOff
1070
     3
1070
     0
1002
{
1002
}
1000
CurLG
1070
    -5
1000

1002
{
1002
}
1002
}
1002
}
1000
LType
1070
     0
1002
{
1000
GEN3
1070
    11
1000
genius.lin
1002
{
1002
}
1000
GEN7
1070
    11
1000
genius.lin
1002
{
1002
}
1000
GEN4A
1070
    11
1000
genius.lin
1002
{
1002
}
1000
GEN3A
1070
    11
1000
genius.lin
1002
{
1002
}
1000
GEN7A
1070
    11
1000
genius.lin
1002
{
1002
}
1000
GENZIGZAG
1070
    11
1000
genius.lin
1002
{
1002
}
1002
}
1000
Objecter
1070
     0
1002
{
1000
CreateGroups
1070
     3
1070
     0
1002
{
1002
}
1000
LaySwitch
1070
     3
1070
     1
1002
{
1002
}
1000
LastObj
1070
    -5
1000
33D
1002
{
1002
}
1000
TimeStamp
1070
    -5
1000
20031111.13371342
1002
{
1002
}
1002
}
1000
OSWiz
1070
     0
1002
{
1000
Filter
1070
     0
1002
{
1000
HATCH
1070
    12
1002
{
1000
EntityType
1070
     4
1000
LINE
1002
{
1002
}
1000
Layer
1070
     4
1000
8,8N,*-8,*-8N
1002
{
1002
}
1000
Linetype
1070
     4
1000
*
1002
{
1002
}
1000
Color
1070
     4
1000
*
1002
{
1002
}
1000
ApplyInDims
1070
     3
1070
     1
1002
{
1002
}
1002
}
1000
SYMBOLS
1070
    12
1002
{
1000
EntityType
1070
     4
1000
*
1002
{
1002
}
1000
Layer
1070
     4
1000
[5-6],[5-6]N,*-[5-6],*-[5-6]N
1002
{
1002
}
1000
Linetype
1070
     4
1000
*
1002
{
1002
}
1000
Color
1070
     4
1000
*
1002
{
1002
}
1000
ApplyInDims
1070
     3
1070
     1
1002
{
1002
}
1002
}
1000
FEM
1070
    12
1002
{
1000
EntityType
1070
     4
1000
*
1002
{
1002
}
1000
Layer
1070
     4
1000
4A,4AN,*-4A,*-4AN
1002
{
1002
}
1000
Linetype
1070
     4
1000
*
1002
{
1002
}
1000
Color
1070
     4
1000
*
1002
{
1002
}
1000
ApplyInDims
1070
     3
1070
     1
1002
{
1002
}
1002
}
1002
}
1002
}
1000
PaList
1070
     0
1002
{
1000
AutoUpdatePartList
1070
     1
1070
     0
1002
{
1002
}
1000
ReadInfoPoint
1070
     3
1070
     0
1002
{
1002
}
1000
ReadPosNr
1070
     3
1070
     1
1002
{
1002
}
1000
RevStr
1070
     4
1000
0
1002
{
1002
}
1002
}
1000
Paper
1070
     0
1002
{
1000
Layer
1070
    -5
1000
7,5
1002
{
1002
}
1002
}
1000
PartDB
1070
     0
1002
{
1000
GenDbOwner
1070
     4
1000

1002
{
1002
}
1002
}
1000
System
1070
     0
1002
{
1002
}
1000
Title
1070
     0
1002
{
1000
MakeView
1070
     1
1070
     2
1002
{
1002
}
1002
}
1000
Tools
1070
     0
1002
{
1000
Trans
1070
     0
1002
{
1000
Drawingtranslation
1070
    -4
1070
     1
1002
{
1002
}
1000
upreserve
1070
     3
1070
     0
1002
{
1002
}
1000
originally_on
1070
    -4
1070
     1
1002
{
1002
}
1000
sourcelang
1070
    -5
1000
D
1002
{
1002
}
1002
}
1002
}
  0
APPID
  5
12C1
330
9
100
AcDbSymbolTableRecord
100
AcDbRegAppTableRecord
  2
GENIUS_GEVCFG0_13
 70
     0
1001
GENIUS_GENCFG_13
1071
1031035362
1000
6E
1000
GEV
1070
     2
1000
GenCfgObject
1000
GenCfgShort
1000
VED
1070
     0
1002
{
1002
}
1000
PartProto
1070
     1
1070
     1
1002
{
1002
}
  0
APPID
  5
12C2
330
9
100
AcDbSymbolTableRecord
100
AcDbRegAppTableRecord
  2
GEV_VCCNULL_SWITCH_OFF
 70
     0
  0
APPID
  5
12C3
330
9
100
AcDbSymbolTableRecord
100
AcDbRegAppTableRecord
  2
GENIUS_GENDTOL_13
 70
     0
  0
APPID
  5
12C4
330
9
100
AcDbSymbolTableRecord
100
AcDbRegAppTableRecord
  2
GENIUS_GENOENT_13
 70
     0
  0
APPID
  5
12C5
330
9
100
AcDbSymbolTableRecord
100
AcDbRegAppTableRecord
  2
GENIUS_GENCFG5_13
 70
     0
1001
GENIUS_GENCFG_13
1071
1068554280
1000
25D
1000
GEN@DIMENSION@GEN-ANSI-POS@I
1070
     7
1000
GenCfgObject
1000
GenCfgShort
1000
GenCfgReal
1000
GenCfgBool
1000
GenCfgString
1000
GenCfgDim
1000
GenCfgLayer
1000
DIMASZ
1070
     2
1040
0.1
1002
{
1002
}
1000
DIMGAP
1070
     2
1040
0.06
1002
{
1002
}
1000
DIMTXT
1070
     2
1040
0.2
1002
{
1000
dimclrt
1070
     6
1000
6
1002
{
1000
Color
1070
     1
1070
     0
1002
{
1002
}
1000
LType
1070
     4
1000
CONTINUOUS
1002
{
1002
}
1000
Base
1070
     3
1070
     0
1002
{
1002
}
1002
}
1002
}
  0
APPID
  5
12C6
330
9
100
AcDbSymbolTableRecord
100
AcDbRegAppTableRecord
  2
GENIUS_GENCFG6_13
 70
     0
1001
GENIUS_GENCFG_13
1071
1068554281
1000
25E
1000
GEN@DIMENSION@GEN-ANSI-POS
1070
     7
1000
GenCfgObject
1000
GenCfgShort
1000
GenCfgReal
1000
GenCfgBool
1000
GenCfgString
1000
GenCfgDim
1000
GenCfgLayer
1000
NAME
1070
     4
1000
GEN-ANSI-POS
1002
{
1002
}
1000
DIMTOLJ
1070
     1
1070
     1
1002
{
1002
}
1000
DIMTXSTY
1070
     4
1000
STANDARD
1002
{
1002
}
1000
M
1070
     0
1002
{
1000
DIMASZ
1070
     2
1040
2.5
1002
{
1002
}
1000
DIMGAP
1070
     2
1040
1.5
1002
{
1002
}
1000
DIMTXT
1070
     2
1040
5.0
1002
{
1000
DIMCLRT
1070
     4
1000
6
1002
{
1002
}
1002
}
1002
}
1000
I
1070
     0
1002
{
1000
>
1002
}
  0
APPID
  5
12C7
330
9
100
AcDbSymbolTableRecord
100
AcDbRegAppTableRecord
  2
GENIUS_GENBLLY_14
 70
     0
  0
APPID
  5
12C8
330
9
100
AcDbSymbolTableRecord
100
AcDbRegAppTableRecord
  2
GENIUS_VERSION2
 70
     0
  0
APPID
  5
12C9
330
9
100
AcDbSymbolTableRecord
100
AcDbRegAppTableRecord
  2
GENIUS_GENREC_14
 70
     0
  0
APPID
  5
12CA
330
9
100
AcDbSymbolTableRecord
100
AcDbRegAppTableRecord
  2
GENIUS_GENODEF_13
 70
     0
  0
APPID
  5
12CB
330
9
100
AcDbSymbolTableRecord
100
AcDbRegAppTableRecord
  2
GENIUS_GENOBJ-N-REC_13
 70
     0
  0
APPID
  5
12CC
330
9
100
AcDbSymbolTableRecord
100
AcDbRegAppTableRecord
  2
GENIUS_GEFCFG0_13
 70
     0
  0
APPID
  5
12CD
330
9
100
AcDbSymbolTableRecord
100
AcDbRegAppTableRecord
  2
GENIUS_GENTRA_14
 70
     0
  0
APPID
  5
12CE
330
9
100
AcDbSymbolTableRecord
100
AcDbRegAppTableRecord
  2
GENIUS_GENOBJ-N-TIT_13
 70
     0
  0
APPID
  5
12CF
330
9
100
AcDbSymbolTableRecord
100
AcDbRegAppTableRecord
  2
GENIUS_GENTITLE_13
 70
     0
  0
APPID
  5
12D0
330
9
100
AcDbSymbolTableRecord
100
AcDbRegAppTableRecord
  2
GENIUS_GENOREF_13
 70
     0
  0
APPID
  5
12D1
330
9
100
AcDbSymbolTableRecord
100
AcDbRegAppTableRecord
  2
GENIUS_GENOLIS_13
 70
     0
  0
APPID
  5
12D2
330
9
100
AcDbSymbolTableRecord
100
AcDbRegAppTableRecord
  2
GENIUS_GENZVEED_13
 70
     0
  0
APPID
  5
12D3
330
9
100
AcDbSymbolTableRecord
100
AcDbRegAppTableRecord
  2
GENIUS_GENOBJ-N-SDF_13
 70
     0
  0
APPID
  5
12D4
330
9
100
AcDbSymbolTableRecord
100
AcDbRegAppTableRecord
  2
GENIUS_GENSCREG_13
 70
     0
  0
APPID
  5
12D5
330
9
100
AcDbSymbolTableRecord
100
AcDbRegAppTableRecord
  2
GENIUS_GENBLKED_14
 70
     0
  0
APPID
  5
12D6
330
9
100
AcDbSymbolTableRecord
100
AcDbRegAppTableRecord
  2
GENIUS_GENOBJ-N-HTC_13
 70
     0
  0
APPID
  5
12D7
330
9
100
AcDbSymbolTableRecord
100
AcDbRegAppTableRecord
  2
GENIUS_GENHATCH_13
 70
     0
  0
APPID
  5
12D8
330
9
100
AcDbSymbolTableRecord
100
AcDbRegAppTableRecord
  2
GENIUS_GENOBJ-N-FIL_13
 70
     0
  0
APPID
  5
12D9
330
9
100
AcDbSymbolTableRecord
100
AcDbRegAppTableRecord
  2
GENIUS_GENOBJ-N-CEN_13
 70
     0
  0
APPID
  5
12DA
330
9
100
AcDbSymbolTableRecord
100
AcDbRegAppTableRecord
  2
MCAD_NO_VIS
 70
     0
  0
APPID
  5
12DB
330
9
100
AcDbSymbolTableRecord
100
AcDbRegAppTableRecord
  2
ACAD_TEMP_GRAPHIC
 70
     0
  0
APPID
  5
12DC
330
9
100
AcDbSymbolTableRecord
100
AcDbRegAppTableRecord
  2
ACATTRIBSERVICES
 70
     0
  0
APPID
  5
1A3B
330
9
100
AcDbSymbolTableRecord
100
AcDbRegAppTableRecord
  2
DCO15
 70
     0
  0
APPID
  5
1A83
330
9
100
AcDbSymbolTableRecord
100
AcDbRegAppTableRecord
  2
AD_DRAW
 70
     0
  0
APPID
  5
1AA5
330
9
100
AcDbSymbolTableRecord
100
AcDbRegAppTableRecord
  2
DESIGNERASSEMBLIES
 70
     0
  0
APPID
  5
1AAB
330
9
100
AcDbSymbolTableRecord
100
AcDbRegAppTableRecord
  2
ACADM_DIM_EDIT
 70
     0
  0
APPID
  5
1AAC
330
9
100
AcDbSymbolTableRecord
100
AcDbRegAppTableRecord
  2
AMDT_DM_ADJ
 70
     0
  0
APPID
  5
1ADA
330
9
100
AcDbSymbolTableRecord
100
AcDbRegAppTableRecord
  2
ACAD_DSTYLE_DIMARC_LENGTH_SYMBOL
 70
     0
  0
APPID
  5
1ADB
330
9
100
AcDbSymbolTableRecord
100
AcDbRegAppTableRecord
  2
ACAD_DSTYLE_DIMJOGGED_JOGANGLE_SYMBOL
 70
     0
  0
APPID
  5
1B03
330
9
100
AcDbSymbolTableRecord
100
AcDbRegAppTableRecord
  2
AcAecLayerStandard
 70
     0
  0
APPID
  5
1CAB
330
9
100
AcDbSymbolTableRecord
100
AcDbRegAppTableRecord
  2
GENIUS_GENCEN_19
 70
     0
  0
APPID
  5
1DB8
330
9
100
AcDbSymbolTableRecord
100
AcDbRegAppTableRecord
  2
GENIUS_GENOBJ-N-CRS_13
 70
     0
  0
APPID
  5
1DBA
330
9
100
AcDbSymbolTableRecord
100
AcDbRegAppTableRecord
  2
ACAD_EXEMPT_FROM_CAD_STANDARDS
 70
     0
  0
ENDTAB
  0
TABLE
  2
DIMSTYLE
  5
A
330
0
100
AcDbSymbolTable
 70
     9
100
AcDbDimStyleTable
 71
     1
340
16B
  0
DIMSTYLE
105
16B
330
A
100
AcDbSymbolTableRecord
100
AcDbDimStyleTableRecord
  2
DIM
 70
     0
 40
2.5
 41
2.5
 42
1.0
 44
1.0
 73
     0
 74
     0
140
2.5
141
0.0
147
1.0
172
     1
174
     1
271
     0
272
     0
279
     2
340
168
  0
DIMSTYLE
105
1AD9
330
A
100
AcDbSymbolTableRecord
100
AcDbDimStyleTableRecord
  2
AM_ANSI
 70
     0
  4
mm
 41
0.1
 42
0.05
 43
0.5
 44
0.1
 47
0.1
 48
0.1
 78
     7
 79
     2
140
0.12
141
0.0
146
0.71
147
0.06
176
   256
177
   256
178
     2
274
     4
284
     7
340
11
371
    -1
372
    -1
1001
ACAD_DSTYLE_DIMARC_LENGTH_SYMBOL
1070
   379
1070
     1
1001
ACAD_DSTYLE_DIMJOGGED_JOGANGLE_SYMBOL
1070
   384
1040
0.7853981633974483
  0
DIMSTYLE
105
1AE2
330
A
100
AcDbSymbolTableRecord
100
AcDbDimStyleTableRecord
  2
AM_ANSI$3
 70
     0
  4
mm
 41
0.1
 42
0.05
 43
0.5
 44
0.1
 47
0.1
 48
0.1
 78
     7
 79
     2
140
0.12
141
0.0
146
0.71
147
0.06
176
   256
177
   256
178
     2
274
     4
284
     7
288
     1
289
     0
340
11
371
    -1
372
    -1
1001
ACAD_DSTYLE_DIMARC_LENGTH_SYMBOL
1070
   379
1070
     1
1001
ACAD_DSTYLE_DIMJOGGED_JOGANGLE_SYMBOL
1070
   384
1040
0.7853981633974483
  0
DIMSTYLE
105
1AE5
330
A
100
AcDbSymbolTableRecord
100
AcDbDimStyleTableRecord
  2
AM_ANSI$4
 70
     0
  4
mm
 41
0.1
 42
0.05
 43
0.5
 44
0.1
 47
0.1
 48
0.1
 78
     7
 79
     2
140
0.12
141
0.0
146
0.71
147
0.06
176
   256
177
   256
178
     2
274
     4
284
     7
288
     1
289
     0
340
11
371
    -1
372
    -1
1001
ACAD_DSTYLE_DIMARC_LENGTH_SYMBOL
1070
   379
1070
     1
1001
ACAD_DSTYLE_DIMJOGGED_JOGANGLE_SYMBOL
1070
   384
1040
0.7853981633974483
  0
DIMSTYLE
105
1AEA
330
A
100
AcDbSymbolTableRecord
100
AcDbDimStyleTableRecord
  2
AM_ANSI$7
 70
     0
  4
mm
 41
0.1
 42
0.05
 43
0.5
 44
0.1
 47
0.1
 48
0.1
 78
     7
 79
     2
140
0.24
141
0.0
146
0.71
147
0.06
176
   256
177
   256
178
     2
274
     4
284
     7
340
11
371
    -1
372
    -1
1001
ACAD_DSTYLE_DIMARC_LENGTH_SYMBOL
1070
   379
1070
     1
1001
ACAD_DSTYLE_DIMJOGGED_JOGANGLE_SYMBOL
1070
   384
1040
0.7853981633974483
  0
DIMSTYLE
105
1AED
330
A
100
AcDbSymbolTableRecord
100
AcDbDimStyleTableRecord
  2
AM_ANSI$SF
 70
     0
  4
mm
 41
0.1
 42
0.05
 43
0.5
 44
0.1
 47
0.1
 48
0.1
 75
     1
 76
     1
 78
     7
 79
     2
140
0.12
141
0.0
146
0.71
147
0.06
176
   256
177
   256
178
     2
274
     4
284
     7
340
11
371
    -1
372
    -1
1001
ACAD_DSTYLE_DIMARC_LENGTH_SYMBOL
1070
   379
1070
     1
1001
ACAD_DSTYLE_DIMJOGGED_JOGANGLE_SYMBOL
1070
   384
1040
0.7853981633974483
  0
DIMSTYLE
105
1AF4
330
A
100
AcDbSymbolTableRecord
100
AcDbDimStyleTableRecord
  2
AM_ANSI$SH
 70
     0
  4
mm
 41
0.1
 42
0.05
 43
0.5
 44
0.1
 47
0.1
 48
0.1
 75
     1
 76
     1
 78
     7
 79
     2
140
0.12
141
0.0
146
0.71
147
0.06
173
     1
176
   256
177
   256
178
     2
274
     4
284
     7
340
11
343
1AEE
371
    -1
372
    -1
1001
ACAD_DSTYLE_DIMARC_LENGTH_SYMBOL
1070
   379
1070
     1
1001
ACAD_DSTYLE_DIMJOGGED_JOGANGLE_SYMBOL
1070
   384
1040
0.7853981633974483
  0
DIMSTYLE
105
1B0F
102
{ACAD_REACTORS
330
652
330
1B4C
330
1FC6
330
1FF5
330
1B7A
330
1E82
330
1EB7
102
}
330
A
100
AcDbSymbolTableRecord
100
AcDbDimStyleTableRecord
  2
DIM$0
 70
     0
 40
2.5
 41
2.5
 42
1.0
 44
1.0
 73
     0
 74
     0
140
2.5
141
0.0
147
1.0
172
     1
174
     1
271
     0
272
     0
279
     2
340
168
  0
DIMSTYLE
105
1CAE
330
A
100
AcDbSymbolTableRecord
100
AcDbDimStyleTableRecord
  2
dim1
 70
     0
 40
2.0
 41
2.5
 42
0.5
 43
2.5
 44
0.5
 73
     0
 74
     0
140
2.5
141
2.5
143
0.0394
147
0.5
171
     4
172
     1
178
     2
271
     0
272
     0
273
     8
274
     4
279
     2
340
168
  0
ENDTAB
  0
TABLE
  2
BLOCK_RECORD
  5
1
330
0
100
AcDbSymbolTable
 70
    11
  0
BLOCK_RECORD
  5
1F
102
{ACAD_XDICTIONARY
360
2070
102
}
330
1
100
AcDbSymbolTableRecord
100
AcDbBlockTableRecord
  2
*Model_Space
340
22
  0
BLOCK_RECORD
  5
58
330
1
100
AcDbSymbolTableRecord
100
AcDbBlockTableRecord
  2
*Paper_Space
340
59
  0
BLOCK_RECORD
  5
5D
330
1
100
AcDbSymbolTableRecord
100
AcDbBlockTableRecord
  2
*Paper_Space0
340
5E
  0
BLOCK_RECORD
  5
653
330
1
100
AcDbSymbolTableRecord
100
AcDbBlockTableRecord
  2
*D1
340
0
  0
BLOCK_RECORD
  5
6F6
330
1
100
AcDbSymbolTableRecord
100
AcDbBlockTableRecord
  2
_None
340
0
  0
BLOCK_RECORD
  5
1AEE
330
1
100
AcDbSymbolTableRecord
100
AcDbBlockTableRecord
  2
GENAXEH
340
0
  0
BLOCK_RECORD
  5
1B4D
330
1
100
AcDbSymbolTableRecord
100
AcDbBlockTableRecord
  2
*D5
340
0
  0
BLOCK_RECORD
  5
1B7B
330
1
100
AcDbSymbolTableRecord
100
AcDbBlockTableRecord
  2
*D6
340
0
  0
BLOCK_RECORD
  5
1E83
330
1
100
AcDbSymbolTableRecord
100
AcDbBlockTableRecord
  2
*D7
340
0
  0
BLOCK_RECORD
  5
1EB8
330
1
100
AcDbSymbolTableRecord
100
AcDbBlockTableRecord
  2
*D8
340
0
  0
BLOCK_RECORD
  5
1FC7
330
1
100
AcDbSymbolTableRecord
100
AcDbBlockTableRecord
  2
*D9
340
0
  0
BLOCK_RECORD
  5
1FF6
330
1
100
AcDbSymbolTableRecord
100
AcDbBlockTableRecord
  2
*D10
340
0
  0
ENDTAB
  0
ENDSEC
  0
SECTION
  2
BLOCKS
  0
BLOCK
  5
20
330
1F
100
AcDbEntity
  8
0
100
AcDbBlockBegin
  2
*Model_Space
 70
     0
 10
0.0
 20
0.0
 30
0.0
  3
*Model_Space
  1

  0
ENDBLK
  5
21
330
1F
100
AcDbEntity
  8
0
100
AcDbBlockEnd
  0
BLOCK
  5
5A
330
58
100
AcDbEntity
 67
     1
  8
0
100
AcDbBlockBegin
  2
*Paper_Space
 70
     0
 10
0.0
 20
0.0
 30
0.0
  3
*Paper_Space
  1

  0
ENDBLK
  5
5B
330
58
100
AcDbEntity
 67
     1
  8
0
100
AcDbBlockEnd
  0
BLOCK
  5
5F
330
5D
100
AcDbEntity
 67
     1
  8
0
100
AcDbBlockBegin
  2
*Paper_Space0
 70
     0
 10
0.0
 20
0.0
 30
0.0
  3
*Paper_Space0
  1

  0
ENDBLK
  5
60
330
5D
100
AcDbEntity
 67
     1
  8
0
100
AcDbBlockEnd
  0
BLOCK
  5
65E
330
653
100
AcDbEntity
  8
0
100
AcDbBlockBegin
  2
*D1
 70
     1
 10
0.0
 20
0.0
 30
0.0
  3
*D1
  1

  0
LINE
  5
2121
330
653
100
AcDbEntity
  8
AM_5
 62
     0
370
    -2
100
AcDbLine
 10
940.0465597622124
 20
380.5749999999999
 30
0.0
 11
989.1465597622124
 21
380.5749999999999
 31
0.0
  0
LINE
  5
2122
330
653
100
AcDbEntity
  8
AM_5
 62
     0
370
    -2
100
AcDbLine
 10
943.0315213043257
 20
490.5749999999999
 30
0.0
 11
989.1465597622124
 21
490.5749999999999
 31
0.0
  0
LINE
  5
2123
330
653
100
AcDbEntity
  8
AM_5
 62
     0
370
    -2
100
AcDbLine
 10
986.6465597622124
 20
386.8249999999999
 30
0.0
 11
986.6465597622124
 21
428.6975393700786
 31
0.0
  0
LINE
  5
2124
330
653
100
AcDbEntity
  8
AM_5
 62
     0
370
    -2
100
AcDbLine
 10
986.6465597622124
 20
484.3249999999999
 30
0.0
 11
986.6465597622124
 21
442.4524606299211
 31
0.0
  0
SOLID
  5
2125
330
653
100
AcDbEntity
  8
AM_5
 62
     0
100
AcDbTrace
 10
985.6048930955457
 20
386.8249999999999
 30
0.0
 11
987.688226428879
 21
386.8249999999999
 31
0.0
 12
986.6465597622124
 22
380.5749999999999
 32
0.0
 13
986.6465597622124
 23
380.5749999999999
 33
0.0
  0
SOLID
  5
2126
330
653
100
AcDbEntity
  8
AM_5
 62
     0
100
AcDbTrace
 10
985.6048930955457
 20
484.3249999999999
 30
0.0
 11
987.688226428879
 21
484.3249999999999
 31
0.0
 12
986.6465597622124
 22
490.5749999999999
 32
0.0
 13
986.6465597622124
 23
490.5749999999999
 33
0.0
  0
MTEXT
  5
2127
330
653
100
AcDbEntity
  8
AM_5
 62
     0
100
AcDbMText
 10
986.6465597622122
 20
435.5750000000001
 30
0.0
 40
6.25
 41
0.0
 71
     5
 72
     1
  1
\A1;110
  7
ISOCP
 11
0.0000000000000001
 21
1.0
 31
0.0
 73
     1
 44
1.0
1001
ACAD
1000
MTEXTBEGIN
1070
    73
1070
     1
1070
    44
1040
1.0
1070
    74
1070
     0
1000
MTEXTEND
  0
POINT
  5
2128
330
653
100
AcDbEntity
  8
Defpoints
 62
     0
100
AcDbPoint
 10
937.5465597622124
 20
380.5749999999999
 30
0.0
  0
POINT
  5
2129
330
653
100
AcDbEntity
  8
Defpoints
 62
     0
100
AcDbPoint
 10
940.5315213043257
 20
490.5749999999999
 30
0.0
  0
POINT
  5
212A
330
653
100
AcDbEntity
  8
Defpoints
 62
     0
100
AcDbPoint
 10
986.6465597622124
 20
490.5749999999999
 30
0.0
  0
ENDBLK
  5
65F
330
653
100
AcDbEntity
  8
0
100
AcDbBlockEnd
  0
BLOCK
  5
6F7
330
6F6
100
AcDbEntity
  8
0
100
AcDbBlockBegin
  2
_None
 70
     0
 10
0.0
 20
0.0
 30
0.0
  3
_None
  1

  0
ENDBLK
  5
6F8
330
6F6
100
AcDbEntity
  8
0
100
AcDbBlockEnd
  0
BLOCK
  5
1AF0
330
1AEE
100
AcDbEntity
  8
0
100
AcDbBlockBegin
  2
GENAXEH
 70
     0
 10
0.0
 20
0.0
 30
0.0
  3
GENAXEH
  1

  0
LINE
  5
1AEF
330
1AEE
100
AcDbEntity
  8
0
100
AcDbLine
 10
-1.0
 20
0.0
 30
0.0
 11
1.0
 21
0.0
 31
0.0
  0
ENDBLK
  5
1AF1
330
1AEE
100
AcDbEntity
  8
0
100
AcDbBlockEnd
  0
BLOCK
  5
1B5A
330
1B4D
100
AcDbEntity
  8
0
100
AcDbBlockBegin
  2
*D5
 70
     1
 10
0.0
 20
0.0
 30
0.0
  3
*D5
  1

  0
LINE
  5
1BA5
330
1B4D
100
AcDbEntity
  8
AM_5
 62
     0
370
    -2
100
AcDbLine
 10
765.5465597622126
 20
555.5749999999997
 30
0.0
 11
729.1474294359808
 21
555.5749999999997
 31
0.0
  0
LINE
  5
1BA6
330
1B4D
100
AcDbEntity
  8
AM_5
 62
     0
370
    -2
100
AcDbLine
 10
757.0465597622124
 20
580.5749999999996
 30
0.0
 11
729.1474294359808
 21
580.5749999999996
 31
0.0
  0
LINE
  5
1BA7
330
1B4D
100
AcDbEntity
  8
AM_5
 62
     0
370
    -2
100
AcDbLine
 10
731.6474294359808
 20
549.3249999999997
 30
0.0
 11
731.6474294359808
 21
543.0749999999997
 31
0.0
  0
LINE
  5
1BA8
330
1B4D
100
AcDbEntity
  8
AM_5
 62
     0
370
    -2
100
AcDbLine
 10
731.6474294359808
 20
586.8249999999996
 30
0.0
 11
731.6474294359808
 21
593.0749999999996
 31
0.0
  0
LINE
  5
1BA9
330
1B4D
100
AcDbEntity
  8
AM_5
 62
     0
370
    -2
100
AcDbLine
 10
731.6474294359808
 20
555.5749999999997
 30
0.0
 11
731.6474294359808
 21
561.9287029467974
 31
0.0
  0
LINE
  5
1BAA
330
1B4D
100
AcDbEntity
  8
AM_5
 62
     0
370
    -2
100
AcDbLine
 10
731.6474294359808
 20
580.5749999999996
 30
0.0
 11
731.6474294359808
 21
574.2212970532019
 31
0.0
  0
SOLID
  5
1BAB
330
1B4D
100
AcDbEntity
  8
AM_5
 62
     0
100
AcDbTrace
 10
730.6057627693141
 20
549.3249999999997
 30
0.0
 11
732.6890961026474
 21
549.3249999999997
 31
0.0
 12
731.6474294359808
 22
555.5749999999997
 32
0.0
 13
731.6474294359808
 23
555.5749999999997
 33
0.0
  0
SOLID
  5
1BAC
330
1B4D
100
AcDbEntity
  8
AM_5
 62
     0
100
AcDbTrace
 10
730.6057627693141
 20
586.8249999999996
 30
0.0
 11
732.6890961026474
 21
586.8249999999996
 31
0.0
 12
731.6474294359808
 22
580.5749999999996
 32
0.0
 13
731.6474294359808
 23
580.5749999999996
 33
0.0
  0
MTEXT
  5
1BAD
330
1B4D
100
AcDbEntity
  8
AM_5
 62
     0
100
AcDbMText
 10
731.6474294359807
 20
568.0749999999997
 30
0.0
 40
6.25
 41
0.0
 71
     5
 72
     1
  1
\A1;25
  7
ISOCP
 11
0.0000000000000001
 21
1.0
 31
0.0
 73
     1
 44
1.0
1001
ACAD
1000
MTEXTBEGIN
1070
    73
1070
     1
1070
    44
1040
1.0
1070
    74
1070
     0
1000
MTEXTEND
  0
POINT
  5
1BAE
330
1B4D
100
AcDbEntity
  8
Defpoints
 62
     0
100
AcDbPoint
 10
768.0465597622125
 20
555.5749999999997
 30
0.0
  0
POINT
  5
1BAF
330
1B4D
100
AcDbEntity
  8
Defpoints
 62
     0
100
AcDbPoint
 10
759.5465597622125
 20
580.5749999999996
 30
0.0
  0
POINT
  5
1BB0
330
1B4D
100
AcDbEntity
  8
Defpoints
 62
     0
100
AcDbPoint
 10
731.6474294359808
 20
580.5749999999996
 30
0.0
  0
ENDBLK
  5
1B5B
330
1B4D
100
AcDbEntity
  8
0
100
AcDbBlockEnd
  0
BLOCK
  5
1B86
330
1B7B
100
AcDbEntity
  8
0
100
AcDbBlockBegin
  2
*D6
 70
     1
 10
0.0
 20
0.0
 30
0.0
  3
*D6
  1

  0
LINE
  5
2117
330
1B7B
100
AcDbEntity
  8
AM_5
 62
     0
370
    -2
100
AcDbLine
 10
757.0465597622124
 20
580.5749999999996
 30
0.0
 11
710.3781198633659
 21
580.5749999999996
 31
0.0
  0
LINE
  5
2118
330
1B7B
100
AcDbEntity
  8
AM_5
 62
     0
370
    -2
100
AcDbLine
 10
827.0465597622125
 20
380.5749999999999
 30
0.0
 11
710.3781198633659
 21
380.5749999999999
 31
0.0
  0
LINE
  5
2119
330
1B7B
100
AcDbEntity
  8
AM_5
 62
     0
370
    -2
100
AcDbLine
 10
712.8781198633658
 20
574.3249999999996
 30
0.0
 11
712.8781198633658
 21
488.7818159448817
 31
0.0
  0
LINE
  5
211A
330
1B7B
100
AcDbEntity
  8
AM_5
 62
     0
370
    -2
100
AcDbLine
 10
712.8781198633658
 20
386.8249999999999
 30
0.0
 11
712.8781198633658
 21
472.3681840551178
 31
0.0
  0
SOLID
  5
211B
330
1B7B
100
AcDbEntity
  8
AM_5
 62
     0
100
AcDbTrace
 10
711.8364531966992
 20
574.3249999999996
 30
0.0
 11
713.9197865300324
 21
574.3249999999996
 31
0.0
 12
712.8781198633658
 22
580.5749999999996
 32
0.0
 13
712.8781198633658
 23
580.5749999999996
 33
0.0
  0
SOLID
  5
211C
330
1B7B
100
AcDbEntity
  8
AM_5
 62
     0
100
AcDbTrace
 10
711.8364531966992
 20
386.8249999999999
 30
0.0
 11
713.9197865300324
 21
386.8249999999999
 31
0.0
 12
712.8781198633658
 22
380.5749999999999
 32
0.0
 13
712.8781198633658
 23
380.5749999999999
 33
0.0
  0
MTEXT
  5
211D
330
1B7B
100
AcDbEntity
  8
AM_5
 62
     0
100
AcDbMText
 10
712.8781198633658
 20
480.5749999999998
 30
0.0
 40
6.25
 41
0.0
 71
     5
 72
     1
  1
\A1;200
  7
ISOCP
 11
0.0000000000000001
 21
1.0
 31
0.0
 73
     1
 44
1.0
1001
ACAD
1000
MTEXTBEGIN
1070
    73
1070
     1
1070
    44
1040
1.0
1070
    74
1070
     0
1000
MTEXTEND
  0
POINT
  5
211E
330
1B7B
100
AcDbEntity
  8
Defpoints
 62
     0
100
AcDbPoint
 10
759.5465597622125
 20
580.5749999999996
 30
0.0
  0
POINT
  5
211F
330
1B7B
100
AcDbEntity
  8
Defpoints
 62
     0
100
AcDbPoint
 10
829.5465597622124
 20
380.5749999999999
 30
0.0
  0
POINT
  5
2120
330
1B7B
100
AcDbEntity
  8
Defpoints
 62
     0
100
AcDbPoint
 10
712.8781198633658
 20
380.5749999999999
 30
0.0
  0
ENDBLK
  5
1B87
330
1B7B
100
AcDbEntity
  8
0
100
AcDbBlockEnd
  0
BLOCK
  5
1E8E
330
1E83
100
AcDbEntity
  8
0
100
AcDbBlockBegin
  2
*D7
 70
     1
 10
0.0
 20
0.0
 30
0.0
  3
*D7
  1

  0
LINE
  5
212B
330
1E83
100
AcDbEntity
  8
AM_5
 62
     0
370
    -2
100
AcDbLine
 10
881.0465597622126
 20
249.8214998224248
 30
0.0
 11
716.805477723135
 21
249.8214998224248
 31
0.0
  0
LINE
  5
212C
330
1E83
100
AcDbEntity
  8
AM_5
 62
     0
370
    -2
100
AcDbLine
 10
881.0465597622126
 20
1.821499822424812
 30
0.0
 11
716.805477723135
 21
1.821499822424859
 31
0.0
  0
LINE
  5
212D
330
1E83
100
AcDbEntity
  8
AM_5
 62
     0
370
    -2
100
AcDbLine
 10
719.305477723135
 20
243.5714998224248
 30
0.0
 11
719.305477723135
 21
134.3383551373854
 31
0.0
  0
LINE
  5
212E
330
1E83
100
AcDbEntity
  8
AM_5
 62
     0
370
    -2
100
AcDbLine
 10
719.305477723135
 20
8.071499822424858
 30
0.0
 11
719.305477723135
 21
117.3046445074642
 31
0.0
  0
SOLID
  5
212F
330
1E83
100
AcDbEntity
  8
AM_5
 62
     0
100
AcDbTrace
 10
718.2638110564684
 20
243.5714998224248
 30
0.0
 11
720.3471443898016
 21
243.5714998224248
 31
0.0
 12
719.305477723135
 22
249.8214998224248
 32
0.0
 13
719.305477723135
 23
249.8214998224248
 33
0.0
  0
SOLID
  5
2130
330
1E83
100
AcDbEntity
  8
AM_5
 62
     0
100
AcDbTrace
 10
718.2638110564684
 20
8.071499822424858
 30
0.0
 11
720.3471443898016
 21
8.071499822424858
 31
0.0
 12
719.305477723135
 22
1.821499822424858
 32
0.0
 13
719.305477723135
 23
1.821499822424858
 33
0.0
  0
MTEXT
  5
2131
330
1E83
100
AcDbEntity
  8
AM_5
 62
     0
100
AcDbMText
 10
719.305477723135
 20
125.8214998224249
 30
0.0
 40
6.25
 41
0.0
 71
     5
 72
     1
  1
\A1;248
  7
ISOCP
 11
0.0000000000000001
 21
1.0
 31
0.0
 73
     1
 44
1.0
1001
ACAD
1000
MTEXTBEGIN
1070
    73
1070
     1
1070
    44
1040
1.0
1070
    74
1070
     0
1000
MTEXTEND
  0
POINT
  5
2132
330
1E83
100
AcDbEntity
  8
Defpoints
 62
     0
100
AcDbPoint
 10
883.5465597622127
 20
249.8214998224248
 30
0.0
  0
POINT
  5
2133
330
1E83
100
AcDbEntity
  8
Defpoints
 62
     0
100
AcDbPoint
 10
883.5465597622127
 20
1.821499822424812
 30
0.0
  0
POINT
  5
2134
330
1E83
100
AcDbEntity
  8
Defpoints
 62
     0
100
AcDbPoint
 10
719.305477723135
 20
1.821499822424858
 30
0.0
  0
ENDBLK
  5
1E8F
330
1E83
100
AcDbEntity
  8
0
100
AcDbBlockEnd
  0
BLOCK
  5
1EC5
330
1EB8
100
AcDbEntity
  8
0
100
AcDbBlockBegin
  2
*D8
 70
     1
 10
0.0
 20
0.0
 30
0.0
  3
*D8
  1

  0
LINE
  5
2135
330
1EB8
100
AcDbEntity
  8
AM_5
 62
     0
370
    -2
100
AcDbLine
 10
916.2965597622125
 20
34.63419802560605
 30
0.0
 11
916.2965597622125
 21
-18.39444848405469
 31
0.0
  0
LINE
  5
2136
330
1EB8
100
AcDbEntity
  8
AM_5
 62
     0
370
    -2
100
AcDbLine
 10
930.2965597622124
 20
38.61354565045821
 30
0.0
 11
930.2965597622124
 21
-18.39444848405469
 31
0.0
  0
LINE
  5
2137
330
1EB8
100
AcDbEntity
  8
AM_5
 62
     0
370
    -2
100
AcDbLine
 10
910.0465597622125
 20
-15.89444848405469
 30
0.0
 11
903.7965597622125
 21
-15.89444848405469
 31
0.0
  0
LINE
  5
2138
330
1EB8
100
AcDbEntity
  8
AM_5
 62
     0
370
    -2
100
AcDbLine
 10
936.5465597622124
 20
-15.89444848405469
 30
0.0
 11
942.7965597622124
 21
-15.89444848405469
 31
0.0
  0
LINE
  5
2139
330
1EB8
100
AcDbEntity
  8
AM_5
 62
     0
370
    -2
100
AcDbLine
 10
916.2965597622125
 20
-15.89444848405469
 30
0.0
 11
917.6715597622125
 21
-15.89444848405469
 31
0.0
  0
LINE
  5
213A
330
1EB8
100
AcDbEntity
  8
AM_5
 62
     0
370
    -2
100
AcDbLine
 10
930.2965597622124
 20
-15.89444848405469
 30
0.0
 11
928.9215597622124
 21
-15.89444848405469
 31
0.0
  0
SOLID
  5
213B
330
1EB8
100
AcDbEntity
  8
AM_5
 62
     0
100
AcDbTrace
 10
910.0465597622125
 20
-14.85278181738802
 30
0.0
 11
910.0465597622125
 21
-16.93611515072136
 31
0.0
 12
916.2965597622125
 22
-15.89444848405469
 32
0.0
 13
916.2965597622125
 23
-15.89444848405469
 33
0.0
  0
SOLID
  5
213C
330
1EB8
100
AcDbEntity
  8
AM_5
 62
     0
100
AcDbTrace
 10
936.5465597622124
 20
-14.85278181738802
 30
0.0
 11
936.5465597622124
 21
-16.93611515072136
 31
0.0
 12
930.2965597622124
 22
-15.89444848405469
 32
0.0
 13
930.2965597622124
 23
-15.89444848405469
 33
0.0
  0
MTEXT
  5
213D
330
1EB8
100
AcDbEntity
  8
AM_5
 62
     0
100
AcDbMText
 10
923.2965597622124
 20
-15.89444848405469
 30
0.0
 40
6.25
 41
0.0
 71
     5
 72
     1
  1
\A1;14
  7
ISOCP
 73
     1
 44
1.0
1001
ACAD
1000
MTEXTBEGIN
1070
    73
1070
     1
1070
    44
1040
1.0
1070
    74
1070
     0
1000
MTEXTEND
  0
POINT
  5
213E
330
1EB8
100
AcDbEntity
  8
Defpoints
 62
     0
100
AcDbPoint
 10
916.2965597622125
 20
37.13419802560605
 30
0.0
  0
POINT
  5
213F
330
1EB8
100
AcDbEntity
  8
Defpoints
 62
     0
100
AcDbPoint
 10
930.2965597622124
 20
41.11354565045821
 30
0.0
  0
POINT
  5
2140
330
1EB8
100
AcDbEntity
  8
Defpoints
 62
     0
100
AcDbPoint
 10
930.2965597622124
 20
-15.89444848405469
 30
0.0
  0
ENDBLK
  5
1EC6
330
1EB8
100
AcDbEntity
  8
0
100
AcDbBlockEnd
  0
BLOCK
  5
1FD4
330
1FC7
100
AcDbEntity
  8
0
100
AcDbBlockBegin
  2
*D9
 70
     1
 10
0.0
 20
0.0
 30
0.0
  3
*D9
  1

  0
LINE
  5
1FD6
330
1FC7
100
AcDbEntity
  8
AM_5
 62
     0
370
    -2
100
AcDbLine
 10
886.0465597622125
 20
580.5749999999997
 30
0.0
 11
1056.389095223177
 21
580.5749999999997
 31
0.0
  0
LINE
  5
1FD7
330
1FC7
100
AcDbEntity
  8
AM_5
 62
     0
370
    -2
100
AcDbLine
 10
886.0465597622077
 20
562.5749999999999
 30
0.0
 11
1056.389095223177
 21
562.5749999999999
 31
0.0
  0
LINE
  5
1FD8
330
1FC7
100
AcDbEntity
  8
AM_5
 62
     0
370
    -2
100
AcDbLine
 10
1053.889095223176
 20
586.8249999999997
 30
0.0
 11
1053.889095223176
 21
593.0749999999997
 31
0.0
  0
LINE
  5
1FD9
330
1FC7
100
AcDbEntity
  8
AM_5
 62
     0
370
    -2
100
AcDbLine
 10
1053.889095223176
 20
556.3249999999999
 30
0.0
 11
1053.889095223176
 21
550.0749999999999
 31
0.0
  0
LINE
  5
1FDA
330
1FC7
100
AcDbEntity
  8
AM_5
 62
     0
370
    -2
100
AcDbLine
 10
1053.889095223176
 20
580.5749999999997
 30
0.0
 11
1053.889095223176
 21
576.8874999999998
 31
0.0
  0
LINE
  5
1FDB
330
1FC7
100
AcDbEntity
  8
AM_5
 62
     0
370
    -2
100
AcDbLine
 10
1053.889095223176
 20
562.5749999999999
 30
0.0
 11
1053.889095223176
 21
566.2624999999998
 31
0.0
  0
SOLID
  5
1FDC
330
1FC7
100
AcDbEntity
  8
AM_5
 62
     0
100
AcDbTrace
 10
1052.84742855651
 20
586.8249999999997
 30
0.0
 11
1054.930761889843
 21
586.8249999999997
 31
0.0
 12
1053.889095223176
 22
580.5749999999997
 32
0.0
 13
1053.889095223176
 23
580.5749999999997
 33
0.0
  0
SOLID
  5
1FDD
330
1FC7
100
AcDbEntity
  8
AM_5
 62
     0
100
AcDbTrace
 10
1052.84742855651
 20
556.3249999999999
 30
0.0
 11
1054.930761889843
 21
556.3249999999999
 31
0.0
 12
1053.889095223176
 22
562.5749999999999
 32
0.0
 13
1053.889095223176
 23
562.5749999999999
 33
0.0
  0
MTEXT
  5
1FDE
330
1FC7
100
AcDbEntity
  8
AM_5
 62
     0
100
AcDbMText
 10
1053.889095223176
 20
571.5749999999998
 30
0.0
 40
6.25
 41
0.0
 71
     5
 72
     1
  1
\A1;18
  7
ISOCP
 11
0.0000000000000001
 21
1.0
 31
0.0
 73
     1
 44
1.0
1001
ACAD
1000
MTEXTBEGIN
1070
    73
1070
     1
1070
    44
1040
1.0
1070
    74
1070
     0
1000
MTEXTEND
  0
POINT
  5
1FDF
330
1FC7
100
AcDbEntity
  8
Defpoints
 62
     0
100
AcDbPoint
 10
883.5465597622127
 20
580.5749999999997
 30
0.0
  0
POINT
  5
1FE0
330
1FC7
100
AcDbEntity
  8
Defpoints
 62
     0
100
AcDbPoint
 10
883.5465597622077
 20
562.5749999999999
 30
0.0
  0
POINT
  5
1FE1
330
1FC7
100
AcDbEntity
  8
Defpoints
 62
     0
100
AcDbPoint
 10
1053.889095223176
 20
562.5749999999999
 30
0.0
  0
ENDBLK
  5
1FD5
330
1FC7
100
AcDbEntity
  8
0
100
AcDbBlockEnd
  0
BLOCK
  5
2001
330
1FF6
100
AcDbEntity
  8
0
100
AcDbBlockBegin
  2
*D10
 70
     1
 10
0.0
 20
0.0
 30
0.0
  3
*D10
  1

  0
LINE
  5
2003
330
1FF6
100
AcDbEntity
  8
AM_5
 62
     0
370
    -2
100
AcDbLine
 10
768.5465597622131
 20
583.0749999999981
 30
0.0
 11
768.5465597622131
 21
602.6434285946707
 31
0.0
  0
LINE
  5
2004
330
1FF6
100
AcDbEntity
  8
AM_5
 62
     0
370
    -2
100
AcDbLine
 10
998.5465597622079
 20
583.0749999999998
 30
0.0
 11
998.5465597622079
 21
602.6434285946707
 31
0.0
  0
LINE
  5
2005
330
1FF6
100
AcDbEntity
  8
AM_5
 62
     0
370
    -2
100
AcDbLine
 10
774.7965597622131
 20
600.1434285946706
 30
0.0
 11
875.3397438173287
 21
600.1434285946706
 31
0.0
  0
LINE
  5
2006
330
1FF6
100
AcDbEntity
  8
AM_5
 62
     0
370
    -2
100
AcDbLine
 10
992.2965597622079
 20
600.1434285946706
 30
0.0
 11
891.7533757070925
 21
600.1434285946706
 31
0.0
  0
SOLID
  5
2007
330
1FF6
100
AcDbEntity
  8
AM_5
 62
     0
100
AcDbTrace
 10
774.7965597622131
 20
601.1850952613372
 30
0.0
 11
774.7965597622131
 21
599.101761928004
 31
0.0
 12
768.5465597622131
 22
600.1434285946706
 32
0.0
 13
768.5465597622131
 23
600.1434285946706
 33
0.0
  0
SOLID
  5
2008
330
1FF6
100
AcDbEntity
  8
AM_5
 62
     0
100
AcDbTrace
 10
992.2965597622079
 20
601.1850952613372
 30
0.0
 11
992.2965597622079
 21
599.101761928004
 31
0.0
 12
998.5465597622079
 22
600.1434285946706
 32
0.0
 13
998.5465597622079
 23
600.1434285946706
 33
0.0
  0
MTEXT
  5
2009
330
1FF6
100
AcDbEntity
  8
AM_5
 62
     0
100
AcDbMText
 10
883.5465597622105
 20
600.1434285946706
 30
0.0
 40
6.25
 41
0.0
 71
     5
 72
     1
  1
\A1;230
  7
ISOCP
 73
     1
 44
1.0
1001
ACAD
1000
MTEXTBEGIN
1070
    73
1070
     1
1070
    44
1040
1.0
1070
    74
1070
     0
1000
MTEXTEND
  0
POINT
  5
200A
330
1FF6
100
AcDbEntity
  8
Defpoints
 62
     0
100
AcDbPoint
 10
768.5465597622131
 20
580.5749999999981
 30
0.0
  0
POINT
  5
200B
330
1FF6
100
AcDbEntity
  8
Defpoints
 62
     0
100
AcDbPoint
 10
998.5465597622079
 20
580.5749999999997
 30
0.0
  0
POINT
  5
200C
330
1FF6
100
AcDbEntity
  8
Defpoints
 62
     0
100
AcDbPoint
 10
998.5465597622079
 20
600.1434285946706
 30
0.0
  0
ENDBLK
  5
2002
330
1FF6
100
AcDbEntity
  8
0
100
AcDbBlockEnd
  0
ENDSEC
  0
SECTION
  2
ENTITIES
  0
LINE
  5
98
102
{ACAD_REACTORS
330
66B
102
}
330
1F
100
AcDbEntity
  8
0
  6
Continuous
100
AcDbLine
 10
937.5465597622124
 20
440.5749999999938
 30
0.0
 11
937.5465597622124
 21
380.5749999999999
 31
0.0
  0
LINE
  5
99
330
1F
100
AcDbEntity
  8
0
  6
Continuous
100
AcDbLine
 10
829.5465597622127
 20
440.5749999999927
 30
0.0
 11
829.5465597622124
 21
380.5749999999999
 31
0.0
  0
LINE
  5
9A
330
1F
100
AcDbEntity
  8
0
  6
Continuous
100
AcDbLine
 10
835.5465597622126
 20
440.732115529406
 30
0.0
 11
835.5465597622124
 21
380.5749999999998
 31
0.0
  0
LINE
  5
9B
330
1F
100
AcDbEntity
  8
0
  6
Continuous
100
AcDbLine
 10
931.5465597622125
 20
440.7321155294113
 30
0.0
 11
931.5465597622123
 21
380.5749999999998
 31
0.0
  0
LINE
  5
D2
102
{ACAD_REACTORS
330
66B
102
}
330
1F
100
AcDbEntity
  8
0
  6
Continuous
100
AcDbLine
 10
829.5465597622124
 20
380.5749999999999
 30
0.0
 11
937.5465597622124
 21
380.5749999999999
 31
0.0
  0
LINE
  5
DD
330
1F
100
AcDbEntity
  8
0
  6
Continuous
100
AcDbLine
 10
759.5465597622125
 20
580.5749999999996
 30
0.0
 11
1007.546559762213
 21
580.5749999999999
 31
0.0
  0
LINE
  5
DF
330
1F
100
AcDbEntity
  8
0
  6
Continuous
100
AcDbLine
 10
768.0465597622125
 20
555.5749999999997
 30
0.0
 11
999.0465597622124
 21
555.5749999999999
 31
0.0
  0
LINE
  5
E6
330
1F
100
AcDbEntity
  8
0
  6
Continuous
100
AcDbLine
 10
824.1498776553328
 20
494.4716821068793
 30
0.0
 11
785.6110298019989
 21
533.0105299602126
 31
0.0
  0
LINE
  5
E7
330
1F
100
AcDbEntity
  8
0
  6
Continuous
100
AcDbLine
 10
828.3925183424521
 20
498.7143227939988
 30
0.0
 11
785.4044241384814
 21
541.7024169979689
 31
0.0
  0
LINE
  5
EC
330
1F
100
AcDbEntity
  8
0
  6
Continuous
100
AcDbLine
 10
757.5465597622125
 20
545.3116255144034
 30
0.0
 11
778.382830927963
 21
537.6353194607852
 31
0.0
  0
LINE
  5
F6
330
1F
100
AcDbEntity
  8
0
  6
Continuous
100
AcDbLine
 10
768.0465597622125
 20
555.5749999999997
 30
0.0
 11
766.5465597622122
 21
580.5749999999997
 31
0.0
  0
LINE
  5
FD
330
1F
100
AcDbEntity
  8
0
  6
Continuous
100
AcDbLine
 10
938.7006011819728
 20
498.7143227939985
 30
0.0
 11
981.6886953859432
 21
541.702416997969
 31
0.0
  0
LINE
  5
FE
330
1F
100
AcDbEntity
  8
0
  6
Continuous
100
AcDbLine
 10
942.943241869092
 20
494.4716821068794
 30
0.0
 11
981.4820897224256
 21
533.0105299602129
 31
0.0
  0
LINE
  5
651
330
1F
100
AcDbEntity
  8
0
  6
Continuous
100
AcDbLine
 10
832.7607509030421
 20
490.5749999999999
 30
0.0
 11
934.3323686213828
 21
490.5749999999999
 31
0.0
  0
DIMENSION
  5
652
102
{ACAD_XDICTIONARY
360
660
102
}
102
{ACAD_REACTORS
330
66B
102
}
330
1F
100
AcDbEntity
  8
AM_5
100
AcDbDimension
  2
*D1
 10
986.6465597622124
 20
490.5749999999999
 30
0.0
 11
986.6465597622122
 21
435.5750000000001
 31
0.0
 70
    32
 71
     5
 42
110.0
  3
DIM$0
100
AcDbAlignedDimension
 13
937.5465597622124
 23
380.5749999999999
 33
0.0
 14
940.5315213043257
 24
490.5749999999999
 34
0.0
 50
90.0
100
AcDbRotatedDimension
  0
LINE
  5
9B0
330
1F
100
AcDbEntity
  8
0
  6
Continuous
100
AcDbLine
 10
940.0280143334118
 20
487.9239738574433
 30
0.0
 11
937.5465597622124
 21
440.5749999999938
 31
0.0
  0
LINE
  5
9B2
330
1F
100
AcDbEntity
  8
0
  6
Continuous
100
AcDbLine
 10
934.0362371248847
 20
488.237989594901
 30
0.0
 11
931.5465597622125
 21
440.7321155294113
 31
0.0
  0
ARC
  5
9C0
330
1F
100
AcDbEntity
  8
0
  6
Continuous
100
AcDbCircle
 10
950.0143096809575
 20
487.4006142950139
 30
0.0
 40
10.0
100
AcDbArc
 50
135.0000000000001
 51
177.0000000000006
  0
ARC
  5
9C1
330
1F
100
AcDbEntity
  8
0
  6
Continuous
100
AcDbCircle
 10
950.0143096809575
 20
487.4006142950139
 30
0.0
 40
15.99999999999975
100
AcDbArc
 50
135.0000000000001
 51
177.0000000000006
  0
ARC
  5
9C3
330
1F
100
AcDbEntity
  8
0
  6
Continuous
100
AcDbCircle
 10
817.0788098434673
 20
487.4006142950139
 30
0.0
 40
15.99999999999975
100
AcDbArc
 50
2.999999999999354
 51
44.99999999999988
  0
ARC
  5
9C4
330
1F
100
AcDbEntity
  8
0
  6
Continuous
100
AcDbCircle
 10
817.0788098434673
 20
487.4006142950139
 30
0.0
 40
10.0
100
AcDbArc
 50
2.999999999999354
 51
44.99999999999988
  0
LINE
  5
9C5
330
1F
100
AcDbEntity
  8
0
  6
Continuous
100
AcDbLine
 10
833.0568823995402
 20
488.237989594901
 30
0.0
 11
835.5465597622126
 21
440.732115529406
 31
0.0
  0
LINE
  5
9C6
330
1F
100
AcDbEntity
  8
0
  6
Continuous
100
AcDbLine
 10
827.0651051910132
 20
487.9239738574433
 30
0.0
 11
829.5465597622127
 21
440.5749999999927
 31
0.0
  0
ARC
  5
B7A
330
1F
100
AcDbEntity
  8
0
  6
Continuous
100
AcDbCircle
 10
799.5465597622123
 20
555.8445526216998
 30
0.0
 40
20.0
100
AcDbArc
 50
180.7722347591703
 51
224.9999999999999
  0
ARC
  5
BA6
330
1F
100
AcDbEntity
  8
0
  6
Continuous
100
AcDbCircle
 10
967.5465597622123
 20
555.8445526216998
 30
0.0
 40
20.0
100
AcDbArc
 50
315.0000000000001
 51
359.2277652408303
  0
ARC
  5
BC5
330
1F
100
AcDbEntity
  8
0
  6
Continuous
100
AcDbCircle
 10
771.468894178268
 20
518.8683943364816
 30
0.0
 40
20.0
100
AcDbArc
 50
44.99999999999995
 51
69.77566088612475
  0
LINE
  5
BDB
330
1F
100
AcDbEntity
  8
0
  6
Continuous
100
AcDbLine
 10
757.5465597622125
 20
545.3116255144034
 30
0.0
 11
759.5465597622125
 21
580.5749999999996
 31
0.0
  0
LINE
  5
C16
330
1F
100
AcDbEntity
  8
0
  6
Continuous
100
AcDbLine
 10
1009.546559762212
 20
545.3116255144034
 30
0.0
 11
988.7102885964619
 21
537.6353194607852
 31
0.0
  0
ARC
  5
C17
330
1F
100
AcDbEntity
  8
0
  6
Continuous
100
AcDbCircle
 10
995.6242253461569
 20
518.8683943364816
 30
0.0
 40
20.0
100
AcDbArc
 50
110.2243391138752
 51
135.0
  0
LINE
  5
C19
330
1F
100
AcDbEntity
  8
0
  6
Continuous
100
AcDbLine
 10
999.0465597622124
 20
555.5749999999997
 30
0.0
 11
1000.546559762212
 21
580.5749999999997
 31
0.0
  0
LINE
  5
CBC
330
1F
100
AcDbEntity
  8
0
  6
Continuous
100
AcDbLine
 10
1009.546559762212
 20
545.3116255144033
 30
0.0
 11
1007.546559762213
 21
580.5749999999999
 31
0.0
  0
HATCH
  5
D01
330
1F
100
AcDbEntity
  8
8
100
AcDbHatch
 10
0.0
 20
0.0
 30
0.0
210
0.0
220
0.0
230
1.0
  2
ANSI31
 70
     0
 71
     0
 91
        1
 92
        7
 72
     1
 73
     1
 93
       17
 10
766.5465597622121
 20
580.5749999999995
 42
0.0
 10
759.5465597622125
 20
580.5749999999995
 42
0.0
 10
757.5465597622123
 20
545.3116255144033
 42
0.0
 10
778.5465597622122
 20
537.5749999999994
 42
0.0
 10
778.5465597622122
 20
537.5741862171225
 42
-0.1063174757121727
 10
785.6110298019989
 20
533.0105299602126
 42
0.0
 10
824.1498776553328
 20
494.4716821068793
 42
-0.1853390449315346
 10
827.0651051910132
 20
487.9239738574433
 42
0.0
 10
829.5465597622127
 20
440.5749999999945
 42
0.0
 10
829.5465597622126
 20
380.5749999999999
 42
0.0
 10
835.5465597622124
 20
380.5749999999999
 42
0.0
 10
835.5465597622126
 20
440.7321155294091
 42
0.0
 10
833.0568823995402
 20
488.237989594901
 42
0.1853390449315395
 10
828.392518342452
 20
498.7143227939989
 42
0.0
 10
785.4044241384814
 20
541.7024169979689
 42
-0.1954118720456255
 10
779.5483763101051
 20
555.5749999999997
 42
0.0
 10
768.0465597622128
 20
555.5749999999997
 42
0.0
 97
        0
 75
     0
 76
     1
 52
0.0
 41
50.0
 77
     0
 78
     1
 53
45.0
 43
0.0
 44
0.0
 45
-4.419417382415921
 46
4.419417382415922
 79
     0
 47
0.5861639721057102
 98
        1
 10
763.2608256828659
 20
565.4989764686096
1001
ACAD
1010
0.0
1020
0.0
1030
0.0
  0
HATCH
  5
D26
330
1F
100
AcDbEntity
  8
8
100
AcDbHatch
 10
0.0
 20
0.0
 30
0.0
210
0.0
220
0.0
230
1.0
  2
ANSI31
 70
     0
 71
     0
 91
        1
 92
        7
 72
     1
 73
     1
 93
       16
 10
981.4820897224256
 20
533.0105299602129
 42
-0.1085273128636131
 10
988.7102885964619
 20
537.6353194607852
 42
0.0
 10
1009.546559762212
 20
545.3116255144033
 42
0.0
 10
1007.546559762213
 20
580.575
 42
0.0
 10
1000.546559762212
 20
580.5750000000001
 42
0.0
 10
999.0465597622124
 20
555.575
 42
0.0
 10
987.5447432143197
 20
555.575
 42
-0.1954118720456289
 10
981.6886953859432
 20
541.702416997969
 42
0.0
 10
938.7006011819728
 20
498.7143227939985
 42
0.1853390449315325
 10
934.0362371248847
 20
488.2379895949011
 42
0.0
 10
931.5465597622125
 20
440.7321155294142
 42
0.0
 10
931.5465597622125
 20
380.5749999999999
 42
0.0
 10
937.5465597622124
 20
380.5749999999998
 42
0.0
 10
937.5465597622122
 20
440.5749999999958
 42
0.0
 10
940.0280143334118
 20
487.9239738574433
 42
-0.1853390449315376
 10
942.943241869092
 20
494.4716821068794
 42
0.0
 97
        0
 75
     0
 76
     1
 52
0.0
 41
50.0
 77
     0
 78
     1
 53
45.0
 43
0.0
 44
0.0
 45
-4.419417382415921
 46
4.419417382415922
 79
     0
 47
0.5861639721057102
 98
        1
 10
945.726654084591
 20
501.0209382098199
1001
ACAD
1010
0.0
1020
0.0
1030
0.0
  0
DIMENSION
  5
1B4C
330
1F
100
AcDbEntity
  8
AM_5
100
AcDbDimension
  2
*D5
 10
731.6474294359808
 20
580.5749999999996
 30
0.0
 11
731.6474294359807
 21
568.0749999999997
 31
0.0
 70
    32
 71
     5
 42
24.99999999999977
  3
DIM$0
100
AcDbAlignedDimension
 13
768.0465597622125
 23
555.5749999999997
 33
0.0
 14
759.5465597622125
 24
580.5749999999996
 34
0.0
 50
90.0
100
AcDbRotatedDimension
  0
DIMENSION
  5
1B7A
330
1F
100
AcDbEntity
  8
AM_5
100
AcDbDimension
  2
*D6
 10
712.8781198633658
 20
380.5749999999999
 30
0.0
 11
712.8781198633658
 21
480.5749999999998
 31
0.0
 70
    32
 71
     5
 42
199.9999999999996
  3
DIM$0
100
AcDbAlignedDimension
 13
759.5465597622125
 23
580.5749999999996
 33
0.0
 14
829.5465597622124
 24
380.5749999999999
 34
0.0
 50
90.0
100
AcDbRotatedDimension
  0
LINE
  5
1D26
330
1F
100
AcDbEntity
  8
0
100
AcDbLine
 10
901.2965597622079
 20
576.5749999999997
 30
0.0
 11
892.2965597622079
 21
576.5749999999996
 31
0.0
  0
LINE
  5
1D27
330
1F
100
AcDbEntity
  8
0
100
AcDbLine
 10
969.2965597622078
 20
572.4654098636703
 30
0.0
 11
969.2965597622078
 21
574.0749999999998
 31
0.0
  0
LINE
  5
1D28
330
1F
100
AcDbEntity
  8
0
100
AcDbLine
 10
956.796559762208
 20
569.7609137719377
 30
0.0
 11
956.796559762208
 21
574.0749999999998
 31
0.0
  0
LINE
  5
1D29
330
1F
100
AcDbEntity
  8
0
100
AcDbLine
 10
942.7965597622076
 20
567.2544899040176
 30
0.0
 11
942.7965597622076
 21
574.0749999999997
 31
0.0
  0
LINE
  5
1D2A
330
1F
100
AcDbEntity
  8
0
100
AcDbLine
 10
930.2965597622078
 20
565.4744963066672
 30
0.0
 11
930.2965597622078
 21
574.0749999999998
 31
0.0
  0
LINE
  5
1D2B
330
1F
100
AcDbEntity
  8
0
100
AcDbLine
 10
916.2965597622077
 20
563.9858384977002
 30
0.0
 11
916.2965597622077
 21
574.0749999999997
 31
0.0
  0
LINE
  5
1D2C
330
1F
100
AcDbEntity
  8
0
100
AcDbLine
 10
903.7965597622079
 20
563.1025349761625
 30
0.0
 11
903.7965597622079
 21
574.0749999999997
 31
0.0
  0
LINE
  5
1D2D
330
1F
100
AcDbEntity
  8
0
100
AcDbLine
 10
889.7965597622079
 20
562.6087915174244
 30
0.0
 11
889.7965597622079
 21
574.0749999999995
 31
0.0
  0
ARC
  5
1D2E
330
1F
100
AcDbEntity
  8
0
100
AcDbCircle
 10
892.2965597622079
 20
574.0749999999995
 30
0.0
 40
2.5
100
AcDbArc
 50
90.0
 51
180.0
  0
ARC
  5
1D2F
330
1F
100
AcDbEntity
  8
0
100
AcDbCircle
 10
901.2965597622079
 20
574.0749999999997
 30
0.0
 40
2.5
100
AcDbArc
 50
0.0
 51
90.0
  0
LINE
  5
1D30
330
1F
100
AcDbEntity
  8
0
100
AcDbLine
 10
918.7965597622078
 20
576.5749999999997
 30
0.0
 11
927.7965597622078
 21
576.5749999999997
 31
0.0
  0
ARC
  5
1D31
330
1F
100
AcDbEntity
  8
0
100
AcDbCircle
 10
918.7965597622078
 20
574.0749999999997
 30
0.0
 40
2.5
100
AcDbArc
 50
90.0
 51
180.0
  0
ARC
  5
1D32
330
1F
100
AcDbEntity
  8
0
100
AcDbCircle
 10
927.7965597622078
 20
574.0749999999998
 30
0.0
 40
2.5
100
AcDbArc
 50
0.0
 51
90.0
  0
LINE
  5
1D33
330
1F
100
AcDbEntity
  8
0
100
AcDbLine
 10
945.2965597622076
 20
576.5749999999997
 30
0.0
 11
954.296559762208
 21
576.5749999999997
 31
0.0
  0
ARC
  5
1D34
330
1F
100
AcDbEntity
  8
0
100
AcDbCircle
 10
945.2965597622076
 20
574.0749999999997
 30
0.0
 40
2.5
100
AcDbArc
 50
90.0
 51
180.0
  0
ARC
  5
1D35
330
1F
100
AcDbEntity
  8
0
100
AcDbCircle
 10
954.296559762208
 20
574.0749999999998
 30
0.0
 40
2.5
100
AcDbArc
 50
0.0
 51
90.0
  0
LINE
  5
1D36
330
1F
100
AcDbEntity
  8
0
100
AcDbLine
 10
971.7965597622079
 20
576.5749999999997
 30
0.0
 11
980.7965597622079
 21
576.5749999999997
 31
0.0
  0
ARC
  5
1D37
330
1F
100
AcDbEntity
  8
0
100
AcDbCircle
 10
971.7965597622079
 20
574.0749999999998
 30
0.0
 40
2.5
100
AcDbArc
 50
90.0
 51
180.0
  0
ARC
  5
1D38
330
1F
100
AcDbEntity
  8
0
100
AcDbCircle
 10
980.7965597622079
 20
574.0749999999998
 30
0.0
 40
2.5
100
AcDbArc
 50
44.65031363512625
 51
90.0
  0
LINE
  5
1D39
330
1F
100
AcDbEntity
  8
0
100
AcDbLine
 10
836.7965597622081
 20
565.474496306667
 30
0.0
 11
834.8319076479137
 21
548.1205986063501
 31
0.0
  0
ARC
  5
1D3A
330
1F
100
AcDbEntity
  8
0
100
AcDbCircle
 10
839.296559762208
 20
574.0749999999998
 30
0.0
 40
2.5
100
AcDbArc
 50
90.0
 51
180.0
  0
ARC
  5
1D3B
330
1F
100
AcDbEntity
  8
0
100
AcDbCircle
 10
848.2965597622079
 20
574.0749999999997
 30
0.0
 40
2.5
100
AcDbArc
 50
0.0
 51
90.0
  0
LINE
  5
1D3C
330
1F
100
AcDbEntity
  8
0
100
AcDbLine
 10
848.2965597622079
 20
576.5749999999997
 30
0.0
 11
839.296559762208
 21
576.5749999999997
 31
0.0
  0
ARC
  5
1D3D
330
1F
100
AcDbEntity
  8
0
100
AcDbCircle
 10
865.7965597622078
 20
574.0749999999997
 30
0.0
 40
2.5
100
AcDbArc
 50
90.0
 51
180.0
  0
ARC
  5
1D3E
330
1F
100
AcDbEntity
  8
0
100
AcDbCircle
 10
874.796559762208
 20
574.0749999999995
 30
0.0
 40
2.5
100
AcDbArc
 50
0.0
 51
90.0
  0
LINE
  5
1D3F
330
1F
100
AcDbEntity
  8
0
100
AcDbLine
 10
850.796559762208
 20
563.9858384977002
 30
0.0
 11
852.8174103889039
 21
545.7957666262947
 31
0.0
  0
LINE
  5
1D40
330
1F
100
AcDbEntity
  8
0
100
AcDbLine
 10
863.296559762208
 20
563.1025349761623
 30
0.0
 11
861.3129277526434
 21
545.5531481083944
 31
0.0
  0
LINE
  5
1D41
330
1F
100
AcDbEntity
  8
0
100
AcDbLine
 10
877.296559762208
 20
562.6087915174244
 30
0.0
 11
877.296559762208
 21
574.0749999999995
 31
0.0
  0
LINE
  5
1D42
330
1F
100
AcDbEntity
  8
0
100
AcDbLine
 10
863.296559762208
 20
563.1025349761623
 30
0.0
 11
863.296559762208
 21
574.0749999999997
 31
0.0
  0
LINE
  5
1D43
330
1F
100
AcDbEntity
  8
0
100
AcDbLine
 10
850.796559762208
 20
563.9858384977002
 30
0.0
 11
850.796559762208
 21
574.0749999999997
 31
0.0
  0
LINE
  5
1D44
330
1F
100
AcDbEntity
  8
0
100
AcDbLine
 10
836.7965597622081
 20
565.474496306667
 30
0.0
 11
836.7965597622081
 21
574.0749999999998
 31
0.0
  0
LINE
  5
1D45
330
1F
100
AcDbEntity
  8
0
100
AcDbLine
 10
865.7965597622078
 20
576.5749999999997
 30
0.0
 11
874.796559762208
 21
576.5749999999996
 31
0.0
  0
ARC
  5
1D46
330
1F
100
AcDbEntity
  8
0
100
AcDbCircle
 10
795.2965597622079
 20
574.0749999999998
 30
0.0
 40
2.5
100
AcDbArc
 50
0.0
 51
90.0
  0
LINE
  5
1D47
330
1F
100
AcDbEntity
  8
0
100
AcDbLine
 10
797.796559762208
 20
572.46540986367
 30
0.0
 11
799.8536557477769
 21
553.2611563037329
 31
0.0
  0
LINE
  5
1D48
330
1F
100
AcDbEntity
  8
0
100
AcDbLine
 10
810.2965597622079
 20
569.7609137719377
 30
0.0
 11
808.3511334954234
 21
552.5199723764009
 31
0.0
  0
ARC
  5
1D49
330
1F
100
AcDbEntity
  8
0
100
AcDbCircle
 10
812.7965597622077
 20
574.0749999999998
 30
0.0
 40
2.5
100
AcDbArc
 50
90.0
 51
180.0
  0
ARC
  5
1D4A
330
1F
100
AcDbEntity
  8
0
100
AcDbCircle
 10
821.7965597622081
 20
574.0749999999997
 30
0.0
 40
2.5
100
AcDbArc
 50
0.0
 51
90.0
  0
LINE
  5
1D4B
330
1F
100
AcDbEntity
  8
0
100
AcDbLine
 10
821.7965597622081
 20
576.5749999999997
 30
0.0
 11
812.7965597622077
 21
576.5749999999997
 31
0.0
  0
LINE
  5
1D4C
330
1F
100
AcDbEntity
  8
0
100
AcDbLine
 10
824.2965597622081
 20
567.2544899040175
 30
0.0
 11
824.2965597622081
 21
574.0749999999997
 31
0.0
  0
LINE
  5
1D4D
330
1F
100
AcDbEntity
  8
0
100
AcDbLine
 10
810.2965597622079
 20
569.7609137719377
 30
0.0
 11
810.2965597622079
 21
574.0749999999998
 31
0.0
  0
LINE
  5
1D4E
330
1F
100
AcDbEntity
  8
0
100
AcDbLine
 10
797.796559762208
 20
572.46540986367
 30
0.0
 11
797.796559762208
 21
574.0749999999998
 31
0.0
  0
LINE
  5
1D4F
330
1F
100
AcDbEntity
  8
0
100
AcDbLine
 10
795.2965597622079
 20
576.5749999999997
 30
0.0
 11
786.2965597622079
 21
576.5749999999997
 31
0.0
  0
ARC
  5
1D50
330
1F
100
AcDbEntity
  8
0
100
AcDbCircle
 10
786.2965597622079
 20
574.0749999999998
 30
0.0
 40
2.5
100
AcDbArc
 50
90.0
 51
135.3496863638097
  0
LINE
  5
1D51
330
1F
100
AcDbEntity
  8
0
100
AcDbLine
 10
824.2965597622081
 20
567.2544899040175
 30
0.0
 11
826.3356529325973
 21
548.6091100719098
 31
0.0
  0
ARC
  5
1D52
330
1F
100
AcDbEntity
  8
0
100
AcDbCircle
 10
883.5465597622077
 20
938.5568431149824
 30
0.0
 40
376.0
100
AcDbArc
 50
252.1906267360633
 51
254.7296579849134
  0
LINE
  5
1D53
330
1F
100
AcDbEntity
  8
0
100
AcDbLine
 10
768.5465597622079
 20
580.5749999999997
 30
0.0
 11
998.5465597622079
 21
580.5749999999997
 31
0.0
  0
LINE
  5
1D54
330
1F
100
AcDbEntity
  8
0
100
AcDbLine
 10
879.2989242513069
 20
544.7998980120571
 30
0.0
 11
877.296559762208
 21
562.6087915174244
 31
0.0
  0
LINE
  5
1D55
330
1F
100
AcDbEntity
  8
0
100
AcDbLine
 10
887.7941952731088
 20
544.7998980120571
 30
0.0
 11
889.7965597622079
 21
562.6087915174244
 31
0.0
  0
ARC
  5
1D56
330
1F
100
AcDbEntity
  8
0
100
AcDbCircle
 10
883.5465597622077
 20
938.5749969778617
 30
0.0
 40
396.0
100
AcDbArc
 50
269.7432590021598
 51
270.2567409978402
  0
ARC
  5
1D57
330
1F
100
AcDbEntity
  8
0
100
AcDbCircle
 10
858.8287464625704
 20
545.8339386318287
 30
0.0
 40
2.5
100
AcDbArc
 50
266.398578433057
 51
353.5511478160868
  0
ARC
  5
1D58
330
1F
100
AcDbEntity
  8
0
100
AcDbCircle
 10
883.5465597622077
 20
938.5568431149824
 30
0.0
 40
396.0
100
AcDbArc
 50
265.8839141541331
 51
266.3985784330636
  0
ARC
  5
1D59
330
1F
100
AcDbEntity
  8
0
100
AcDbCircle
 10
855.3021237503296
 20
546.0718092164005
 30
0.0
 40
2.5
100
AcDbArc
 50
186.3393564197988
 51
265.8839141541331
  0
ARC
  5
1D5A
330
1F
100
AcDbEntity
  8
0
100
AcDbCircle
 10
832.3477761858949
 20
548.4018296135462
 30
0.0
 40
2.5
100
AcDbArc
 50
262.5239779426313
 51
353.5409882864041
  0
ARC
  5
1D5B
330
1F
100
AcDbEntity
  8
0
100
AcDbCircle
 10
883.5465597622077
 20
938.5568431149824
 30
0.0
 40
396.0
100
AcDbArc
 50
262.0057183795351
 51
262.5239779426248
  0
ARC
  5
1D5C
330
1F
100
AcDbEntity
  8
0
100
AcDbCircle
 10
828.8208356948038
 20
548.8808942481085
 30
0.0
 40
2.5
100
AcDbArc
 50
186.2411696253441
 51
262.0057183795287
  0
ARC
  5
1D5D
330
1F
100
AcDbEntity
  8
0
100
AcDbCircle
 10
805.8668985121869
 20
552.800287463517
 30
0.0
 40
2.5
100
AcDbArc
 50
258.6146307426171
 51
353.5621132798771
  0
ARC
  5
1D5E
330
1F
100
AcDbEntity
  8
0
100
AcDbCircle
 10
883.5465597622077
 20
938.5568431149824
 30
0.0
 40
396.0
100
AcDbArc
 50
258.0902119349956
 51
258.6146307426171
  0
ARC
  5
1D5F
330
1F
100
AcDbEntity
  8
0
100
AcDbCircle
 10
802.3394355230665
 20
553.5274247937212
 30
0.0
 40
2.5
100
AcDbArc
 50
186.1140210464076
 51
258.0902119349956
  0
ARC
  5
1D60
330
1F
100
AcDbEntity
  8
0
100
AcDbCircle
 10
881.7833017104348
 20
545.078947542746
 30
0.0
 40
2.5
100
AcDbArc
 50
186.4086990781818
 51
269.7432590021598
  0
ARC
  5
1D61
330
1F
100
AcDbEntity
  8
0
100
AcDbCircle
 10
885.3098178139809
 20
545.078947542746
 30
0.0
 40
2.5
100
AcDbArc
 50
270.2567409978337
 51
353.5913009218182
  0
ARC
  5
1D62
330
1F
100
AcDbEntity
  8
0
100
AcDbCircle
 10
964.7536840013493
 20
553.5274247937212
 30
0.0
 40
2.5
100
AcDbArc
 50
281.9097880650044
 51
353.8859789535924
  0
ARC
  5
1D63
330
1F
100
AcDbEntity
  8
0
100
AcDbCircle
 10
883.5465597622082
 20
938.5568431149824
 30
0.0
 40
396.0
100
AcDbArc
 50
281.3853692573829
 51
281.9097880650044
  0
ARC
  5
1D64
330
1F
100
AcDbEntity
  8
0
100
AcDbCircle
 10
961.226221012229
 20
552.800287463517
 30
0.0
 40
2.5
100
AcDbArc
 50
186.4378867201228
 51
281.3853692573829
  0
LINE
  5
1D65
330
1F
100
AcDbEntity
  8
0
100
AcDbLine
 10
969.2965597622078
 20
572.46540986367
 30
0.0
 11
967.2394637766389
 21
553.2611563037329
 31
0.0
  0
LINE
  5
1D66
330
1F
100
AcDbEntity
  8
0
100
AcDbLine
 10
956.796559762208
 20
569.7609137719377
 30
0.0
 11
958.7419860289925
 21
552.5199723764009
 31
0.0
  0
LINE
  5
1D67
330
1F
100
AcDbEntity
  8
0
100
AcDbLine
 10
942.7965597622076
 20
567.2544899040175
 30
0.0
 11
940.7574665918186
 21
548.6091100719098
 31
0.0
  0
LINE
  5
1D68
330
1F
100
AcDbEntity
  8
0
100
AcDbLine
 10
930.2965597622078
 20
565.474496306667
 30
0.0
 11
932.261211876502
 21
548.1205986063501
 31
0.0
  0
ARC
  5
1D69
330
1F
100
AcDbEntity
  8
0
100
AcDbCircle
 10
938.2722838296121
 20
548.8808942481085
 30
0.0
 40
2.5
100
AcDbArc
 50
277.9942816204713
 51
353.7588303746558
  0
ARC
  5
1D6A
330
1F
100
AcDbEntity
  8
0
100
AcDbCircle
 10
883.5465597622082
 20
938.5568431149824
 30
0.0
 40
396.0
100
AcDbArc
 50
277.4760220573752
 51
277.9942816204648
  0
ARC
  5
1D6B
330
1F
100
AcDbEntity
  8
0
100
AcDbCircle
 10
934.745343338521
 20
548.4018296135462
 30
0.0
 40
2.5
100
AcDbArc
 50
186.4590117135959
 51
277.4760220573688
  0
LINE
  5
1D6C
330
1F
100
AcDbEntity
  8
0
100
AcDbLine
 10
916.2965597622077
 20
563.9858384977002
 30
0.0
 11
914.275709135512
 21
545.7957666262947
 31
0.0
  0
LINE
  5
1D6D
330
1F
100
AcDbEntity
  8
0
100
AcDbLine
 10
903.7965597622079
 20
563.1025349761623
 30
0.0
 11
905.7801917717725
 21
545.5531481083944
 31
0.0
  0
ARC
  5
1D6E
330
1F
100
AcDbEntity
  8
0
100
AcDbCircle
 10
911.7909957740863
 20
546.0718092164005
 30
0.0
 40
2.5
100
AcDbArc
 50
274.1160858458668
 51
353.6606435802012
  0
ARC
  5
1D6F
330
1F
100
AcDbEntity
  8
0
100
AcDbCircle
 10
883.5465597622082
 20
938.5568431149824
 30
0.0
 40
396.0
100
AcDbArc
 50
273.6014215669364
 51
274.1160858458668
  0
ARC
  5
1D70
330
1F
100
AcDbEntity
  8
0
100
AcDbCircle
 10
908.2643730618455
 20
545.8339386318287
 30
0.0
 40
2.5
100
AcDbArc
 50
186.4488521839132
 51
273.601421566943
  0
ARC
  5
1D71
330
1F
100
AcDbEntity
  8
0
100
AcDbCircle
 10
883.5465597622082
 20
938.5568431149824
 30
0.0
 40
396.0
100
AcDbArc
 50
285.5953267676735
 51
286.4735895950896
  0
LINE
  5
1D72
330
1F
100
AcDbEntity
  8
0
100
AcDbLine
 10
998.5465597622079
 20
580.5749999999997
 30
0.0
 11
997.6299097242687
 21
561.092308238886
 31
0.0
  0
LINE
  5
1D73
330
1F
100
AcDbEntity
  8
0
100
AcDbLine
 10
982.5750827218223
 20
575.8319450993481
 30
0.0
 11
986.9140457924228
 21
558.9223780988342
 31
0.0
  0
ARC
  5
1D74
330
1F
100
AcDbEntity
  8
0
100
AcDbCircle
 10
989.3355959705244
 20
559.5437433174746
 30
0.0
 40
2.5
100
AcDbArc
 50
194.3914938027638
 51
285.5953267676735
  0
ARC
  5
1D75
330
1F
100
AcDbEntity
  8
0
100
AcDbCircle
 10
995.1326722028127
 20
561.2098019043843
 30
0.0
 40
2.5
100
AcDbArc
 50
286.4735895950896
 51
357.3062512761218
  0
LINE
  5
1D76
330
1F
100
AcDbEntity
  8
0
100
AcDbLine
 10
784.5180368025935
 20
575.8319450993481
 30
0.0
 11
780.1790737319931
 21
558.9223780988342
 31
0.0
  0
ARC
  5
1D77
330
1F
100
AcDbEntity
  8
0
100
AcDbCircle
 10
771.9604473216032
 20
561.2098019043843
 30
0.0
 40
2.5
100
AcDbArc
 50
182.6937487238782
 51
253.5264104049104
  0
ARC
  5
1D78
330
1F
100
AcDbEntity
  8
0
100
AcDbCircle
 10
777.7575235538913
 20
559.5437433174746
 30
0.0
 40
2.5
100
AcDbArc
 50
254.4046732323264
 51
345.6085061972361
  0
ARC
  5
1D79
330
1F
100
AcDbEntity
  8
0
100
AcDbCircle
 10
883.5465597622077
 20
938.5568431149824
 30
0.0
 40
396.0
100
AcDbArc
 50
253.5264104049104
 51
254.4046732323264
  0
LINE
  5
1D7A
330
1F
100
AcDbEntity
  8
0
100
AcDbLine
 10
768.5465597622079
 20
580.5749999999997
 30
0.0
 11
769.4632098001471
 21
561.092308238886
 31
0.0
  0
ARC
  5
1D7B
330
1F
100
AcDbEntity
  8
0
100
AcDbCircle
 10
883.5465597622077
 20
938.5568431149824
 30
0.0
 40
376.0
100
AcDbArc
 50
256.8172049478438
 51
258.7661517451059
  0
ARC
  5
1D7C
330
1F
100
AcDbEntity
  8
0
100
AcDbCircle
 10
883.5465597622077
 20
938.5568431149824
 30
0.0
 40
376.0
100
AcDbArc
 50
260.9335537667435
 51
262.8576393543538
  0
ARC
  5
1D7D
330
1F
100
AcDbEntity
  8
0
100
AcDbCircle
 10
883.5465597622077
 20
938.5568431149824
 30
0.0
 40
376.0
100
AcDbArc
 50
265.0031448307329
 51
266.9127629001437
  0
ARC
  5
1D7E
330
1F
100
AcDbEntity
  8
0
100
AcDbCircle
 10
883.5465597622079
 20
1140.584584113267
 30
0.0
 40
578.0095841132669
100
AcDbArc
 50
269.3804504106314
 51
270.6195495893687
  0
ARC
  5
1D7F
330
1F
100
AcDbEntity
  8
0
100
AcDbCircle
 10
883.5465597622077
 20
938.5568431149824
 30
0.0
 40
376.0
100
AcDbArc
 50
273.0872370998498
 51
274.9968551692671
  0
ARC
  5
1D80
330
1F
100
AcDbEntity
  8
0
100
AcDbCircle
 10
883.5465597622077
 20
938.5568431149824
 30
0.0
 40
376.0
100
AcDbArc
 50
277.1423606456461
 51
279.0664462332565
  0
ARC
  5
1D81
330
1F
100
AcDbEntity
  8
0
100
AcDbCircle
 10
883.5465597622077
 20
938.5568431149824
 30
0.0
 40
376.0
100
AcDbArc
 50
281.2338482548942
 51
283.1827950521561
  0
ARC
  5
1D82
330
1F
100
AcDbEntity
  8
0
100
AcDbCircle
 10
883.5465597622077
 20
938.5568431149824
 30
0.0
 40
376.0
100
AcDbArc
 50
285.2703420150866
 51
287.8093732639367
  0
LINE
  5
1D83
330
1F
100
AcDbEntity
  8
0
100
AcDbLine
 10
941.6286310247613
 20
556.5749999999998
 30
0.0
 11
958.2844264868246
 21
556.5749999999998
 31
0.0
  0
LINE
  5
1D84
330
1F
100
AcDbEntity
  8
0
100
AcDbLine
 10
915.4732426401922
 20
556.5749999999998
 30
0.0
 11
931.3040806394761
 21
556.5749999999998
 31
0.0
  0
LINE
  5
1D85
330
1F
100
AcDbEntity
  8
0
100
AcDbLine
 10
889.1188339661438
 20
556.5749999999998
 30
0.0
 11
904.5343762694074
 21
556.5749999999998
 31
0.0
  0
LINE
  5
1D86
330
1F
100
AcDbEntity
  8
0
100
AcDbLine
 10
862.5587432550085
 20
556.5749999999998
 30
0.0
 11
877.9742855582721
 21
556.5749999999998
 31
0.0
  0
LINE
  5
1D87
330
1F
100
AcDbEntity
  8
0
100
AcDbLine
 10
808.8086930375913
 20
556.5749999999998
 30
0.0
 11
825.4644884996546
 21
556.5749999999998
 31
0.0
  0
LINE
  5
1D88
330
1F
100
AcDbEntity
  8
0
100
AcDbLine
 10
836.7965597622081
 20
565.474496306667
 30
0.0
 11
850.796559762208
 21
563.9858384977002
 31
0.0
  0
LINE
  5
1D89
330
1F
100
AcDbEntity
  8
0
100
AcDbLine
 10
850.796559762208
 20
563.9858384977002
 30
0.0
 11
850.796565343751
 21
563.9858380096873
 31
0.0
  0
HATCH
  5
1D8A
330
1F
100
AcDbEntity
  8
8
100
AcDbHatch
 10
0.0
 20
0.0
 30
0.0
210
0.0
220
0.0
230
1.0
  2
ANSI31
 70
     0
 71
     0
 91
        1
 92
        7
 72
     1
 73
     1
 93
        6
 10
784.5180368025935
 20
575.8319450993481
 42
-0.0110790670452071
 10
768.5465597622079
 20
580.5749999999997
 42
0.0
 10
769.4632098001471
 20
561.092308238886
 42
0.3192977451004999
 10
771.2515139515866
 20
558.8124255307465
 42
0.0038321632679782
 10
777.0854204013605
 20
557.1357820735263
 42
0.4203809729643916
 10
780.1790737319931
 20
558.9223780988342
 42
0.0
 97
        0
 75
     0
 76
     1
 52
0.0
 41
50.0
 77
     0
 78
     1
 53
45.0
 43
52.45143973301253
 44
-237.6501213249446
 45
-4.419417382415921
 46
4.419417382415922
 79
     0
 47
0.3040580840437426
 98
        1
 10
777.7014397330125
 20
565.3498786750553
  0
HATCH
  5
1D8B
330
1F
100
AcDbEntity
  8
8
100
AcDbHatch
 10
0.0
 20
0.0
 30
0.0
210
0.0
220
0.0
230
1.0
  2
ANSI31
 70
     0
 71
     0
 91
        1
 92
        7
 72
     1
 73
     1
 93
        6
 10
810.2965597622079
 20
569.7609137719377
 42
-0.008504089634647
 10
797.796559762208
 20
572.4654098636701
 42
0.0
 10
799.8536557477769
 20
553.2611563037329
 42
0.3248048456365143
 10
801.8235071606831
 20
551.0812404333575
 42
0.0022882127067223
 10
805.3733809693023
 20
550.3494834250708
 42
0.4397370421113141
 10
808.3511334954234
 20
552.5199723764009
 42
0.0
 97
        0
 75
     0
 76
     1
 52
0.0
 41
50.0
 77
     0
 78
     1
 53
45.0
 43
52.45143973301253
 44
-237.6501213249446
 45
-4.419417382415921
 46
4.419417382415922
 79
     0
 47
0.3041123776600417
 98
        1
 10
805.7014397330124
 20
563.0998786750553
  0
HATCH
  5
1D8C
330
1F
100
AcDbEntity
  8
8
100
AcDbHatch
 10
0.0
 20
0.0
 30
0.0
210
0.0
220
0.0
230
1.0
  2
ANSI31
 70
     0
 71
     0
 91
        2
 92
        7
 72
     1
 73
     1
 93
        4
 10
836.7965597622081
 20
565.474496306667
 42
-0.0083956043981768
 10
824.2965597622081
 20
567.2544899040177
 42
0.0
 10
825.4644884996546
 20
556.5749999999998
 42
0.0
 10
835.7890388849396
 20
556.5749999999999
 42
0.0
 97
        0
 92
        7
 72
     1
 73
     1
 93
        6
 10
835.7890388849396
 20
556.5749999999998
 42
0.0
 10
825.4644884996546
 20
556.5749999999996
 42
0.0
 10
826.3356529325973
 20
548.6091100719098
 42
0.3431788652358352
 10
828.4731500272851
 20
546.4051893633127
 42
0.002261337793543
 10
832.0224980183198
 20
545.9230811160785
 42
0.4194220773565349
 10
834.8319076479137
 20
548.1205986063501
 42
0.0
 97
        0
 75
     0
 76
     1
 52
0.0
 41
50.0
 77
     0
 78
     1
 53
45.0
 43
52.45143973301253
 44
-237.6501213249446
 45
-4.419417382415921
 46
4.419417382415922
 79
     0
 47
0.3041123776600417
 98
        2
 10
831.4514397330125
 20
561.5998786750553
 10
831.4514397330125
 20
554.0998786750553
  0
HATCH
  5
1D8D
330
1F
100
AcDbEntity
  8
8
100
AcDbHatch
 10
0.0
 20
0.0
 30
0.0
210
0.0
220
0.0
230
1.0
  2
ANSI31
 70
     0
 71
     0
 91
        1
 92
        7
 72
     1
 73
     1
 93
        7
 10
863.296559762208
 20
563.1025349761623
 42
-0.0083324679045701
 10
850.796568182945
 20
563.9858377614471
 42
0.0
 10
850.7965597622082
 20
563.9858384977001
 42
0.0
 10
852.8174103889039
 20
545.7957666262947
 42
0.3617213576139339
 10
855.1226800653749
 20
543.5782575397894
 42
0.0022456503273151
 10
858.6717082586334
 20
543.3388757062687
 42
0.3997314207401477
 10
861.3129277526434
 20
545.5531481083944
 42
0.0
 97
        0
 75
     0
 76
     1
 52
0.0
 41
50.0
 77
     0
 78
     1
 53
45.0
 43
52.45143973301253
 44
-237.6501213249446
 45
-4.419417382415921
 46
4.419417382415922
 79
     0
 47
0.3041123776600417
 98
        1
 10
856.2014397330125
 20
560.0998786750554
  0
HATCH
  5
1D8E
330
1F
100
AcDbEntity
  8
8
100
AcDbHatch
 10
0.0
 20
0.0
 30
0.0
210
0.0
220
0.0
230
1.0
  2
ANSI31
 70
     0
 71
     0
 91
        2
 92
        7
 72
     1
 73
     1
 93
        5
 10
883.5465597622079
 20
562.5568431149824
 42
-0.0041558004206471
 10
877.296559762208
 20
562.6087915174244
 42
0.0
 10
879.2989242513069
 20
544.7817441491779
 42
0.3805363647049185
 10
881.7720993085812
 20
542.5608187787543
 42
0.0011202444029055
 10
883.5465597622079
 20
542.5568431149823
 42
0.0
 97
        0
 92
        7
 72
     1
 73
     1
 93
        5
 10
889.7965597622079
 20
562.6087915174244
 42
-0.0041558004206471
 10
883.5465597622079
 20
562.5568431149822
 42
0.0
 10
883.5465597622079
 20
542.5568431149825
 42
0.0011202444029053
 10
885.3210202158345
 20
542.5608187787544
 42
0.3805363647049429
 10
887.7941952731088
 20
544.7817441491781
 42
0.0
 97
        0
 75
     0
 76
     1
 52
0.0
 41
50.0
 77
     0
 78
     1
 53
45.0
 43
52.45143973301253
 44
-237.6501213249446
 45
-4.419417382415921
 46
4.419417382415922
 79
     0
 47
0.3041123776600417
 98
        2
 10
880.4514397330125
 20
557.3498786750554
 10
886.9514397330124
 20
557.3498786750554
  0
HATCH
  5
1D8F
330
1F
100
AcDbEntity
  8
8
100
AcDbHatch
 10
0.0
 20
0.0
 30
0.0
210
0.0
220
0.0
230
1.0
  2
ANSI31
 70
     0
 71
     0
 91
        1
 92
        7
 72
     1
 73
     1
 93
        6
 10
916.2965597622077
 20
563.9858384977002
 42
-0.0083324735252144
 10
903.7965597622079
 20
563.1025349761626
 42
0.0
 10
905.7801917717725
 20
545.5531481083944
 42
0.3997314207401594
 10
908.4214112657825
 20
543.3388757062686
 42
0.002245650327315
 10
911.9704394590408
 20
543.5782575397895
 42
0.3617213576139465
 10
914.275709135512
 20
545.7957666262947
 42
0.0
 97
        0
 75
     0
 76
     1
 52
0.0
 41
50.0
 77
     0
 78
     1
 53
45.0
 43
52.45143973301253
 44
-237.6501213249446
 45
-4.419417382415921
 46
4.419417382415922
 79
     0
 47
0.3041123776600417
 98
        1
 10
911.7014397330125
 20
558.3498786750554
  0
HATCH
  5
1D90
330
1F
100
AcDbEntity
  8
8
100
AcDbHatch
 10
0.0
 20
0.0
 30
0.0
210
0.0
220
0.0
230
1.0
  2
ANSI31
 70
     0
 71
     0
 91
        1
 92
        7
 72
     1
 73
     1
 93
        6
 10
942.7965597622076
 20
567.2544899040175
 42
-0.0083956043981767
 10
930.2965597622078
 20
565.4744963066675
 42
0.0
 10
932.261211876502
 20
548.1205986063501
 42
0.4194220773565348
 10
935.0706215060959
 20
545.9230811160785
 42
0.0022613377935429
 10
938.6199694971306
 20
546.4051893633129
 42
0.3431788652358235
 10
940.7574665918186
 20
548.6091100719098
 42
0.0
 97
        0
 75
     0
 76
     1
 52
0.0
 41
50.0
 77
     0
 78
     1
 53
45.0
 43
52.45143973301253
 44
-237.6501213249446
 45
-4.419417382415921
 46
4.419417382415922
 79
     0
 47
0.3041123776600417
 98
        1
 10
936.9514397330124
 20
558.3498786750554
  0
HATCH
  5
1D91
330
1F
100
AcDbEntity
  8
8
100
AcDbHatch
 10
0.0
 20
0.0
 30
0.0
210
0.0
220
0.0
230
1.0
  2
ANSI31
 70
     0
 71
     0
 91
        1
 92
        7
 72
     1
 73
     1
 93
        6
 10
969.2965597622078
 20
572.46540986367
 42
-0.008504089634647
 10
956.796559762208
 20
569.7609137719378
 42
0.0
 10
958.7419860289925
 20
552.5199723764009
 42
0.439737042111326
 10
961.7197385551136
 20
550.3494834250707
 42
0.0022882127067225
 10
965.269612363733
 20
551.0812404333575
 42
0.324804845636482
 10
967.2394637766389
 20
553.2611563037329
 42
0.0
 97
        0
 75
     0
 76
     1
 52
0.0
 41
50.0
 77
     0
 78
     1
 53
45.0
 43
52.45143973301253
 44
-237.6501213249446
 45
-4.419417382415921
 46
4.419417382415922
 79
     0
 47
0.3041123776600417
 98
        1
 10
964.4514397330125
 20
564.3498786750553
  0
HATCH
  5
1D92
330
1F
100
AcDbEntity
  8
8
100
AcDbHatch
 10
0.0
 20
0.0
 30
0.0
210
0.0
220
0.0
230
1.0
  2
ANSI31
 70
     0
 71
     0
 91
        1
 92
        7
 72
     1
 73
     1
 93
        6
 10
998.5465597622079
 20
580.5749999999997
 42
-0.0110790670452066
 10
982.5750827218174
 20
575.8319450993679
 42
0.0
 10
986.9140457924228
 20
558.9223780988342
 42
0.4203809729643775
 10
990.0076991230552
 20
557.135782073526
 42
0.0038321632679783
 10
995.8416055728292
 20
558.8124255307466
 42
0.3192977451004876
 10
997.6299097242687
 20
561.092308238886
 42
0.0
 97
        0
 75
     0
 76
     1
 52
0.0
 41
50.0
 77
     0
 78
     1
 53
45.0
 43
52.45143973301253
 44
-237.6501213249446
 45
-4.419417382415921
 46
4.419417382415922
 79
     0
 47
0.3041123762076228
 98
        1
 10
993.7014397330125
 20
573.8498786750553
  0
LINE
  5
1D93
330
1F
100
AcDbEntity
  8
0
100
AcDbLine
 10
777.7575235538913
 20
557.0437433174746
 30
0.0
 11
799.4986877953325
 21
556.5749999999998
 31
0.0
  0
LINE
  5
1D94
330
1F
100
AcDbEntity
  8
0
100
AcDbLine
 10
835.7890388849396
 20
556.5749999999998
 30
0.0
 11
851.6198768842235
 21
556.5749999999998
 31
0.0
  0
LINE
  5
1D96
330
1F
100
AcDbEntity
  8
0
100
AcDbLine
 10
967.5944317290834
 20
556.5749999999998
 30
0.0
 11
990.0076991230552
 21
557.1357820735262
 31
0.0
  0
CIRCLE
  5
1DC0
330
1F
100
AcDbEntity
  8
0
100
AcDbCircle
 10
883.5465597622127
 20
125.8214998224248
 30
0.0
 40
124.0
  0
CIRCLE
  5
1DC1
330
1F
100
AcDbEntity
  8
0
100
AcDbCircle
 10
883.5465597622127
 20
125.8214998224248
 30
0.0
 40
117.0
  0
CIRCLE
  5
1E19
330
1F
100
AcDbEntity
  8
0
100
AcDbCircle
 10
883.5465597622127
 20
125.8214998224248
 30
0.0
 40
115.0
  0
ARC
  5
1E1A
330
1F
100
AcDbEntity
  8
0
100
AcDbCircle
 10
883.5465597622127
 20
125.8214998224248
 30
0.0
 40
100.0
100
AcDbArc
 50
154.840555671764
 51
205.1594443282359
  0
LINE
  5
1E1B
330
1F
100
AcDbEntity
  8
0
100
AcDbLine
 10
797.7965597622126
 20
167.2725251414686
 30
0.0
 11
797.7965597622126
 21
84.37047450338116
 31
0.0
  0
LINE
  5
1E1C
330
1F
100
AcDbEntity
  8
0
100
AcDbLine
 10
810.2965597622125
 20
189.8483496590363
 30
0.0
 11
810.2965597622125
 21
61.79464998581341
 31
0.0
  0
LINE
  5
1E1D
330
1F
100
AcDbEntity
  8
0
100
AcDbLine
 10
824.2965597622129
 20
198.0394858092968
 30
0.0
 11
824.2965597622129
 21
53.6035138355528
 31
0.0
  0
LINE
  5
1E1E
330
1F
100
AcDbEntity
  8
0
100
AcDbLine
 10
836.7965597622127
 20
210.5294539943915
 30
0.0
 11
836.7965597622127
 21
41.11354565045821
 31
0.0
  0
LINE
  5
1E1F
330
1F
100
AcDbEntity
  8
0
100
AcDbLine
 10
850.7965597622128
 20
214.5088016192436
 30
0.0
 11
850.7965597622128
 21
37.13419802560605
 31
0.0
  0
LINE
  5
1E20
330
1F
100
AcDbEntity
  8
0
100
AcDbLine
 10
863.2965597622126
 20
220.4361789161045
 30
0.0
 11
863.2965597622126
 21
31.20682072874507
 31
0.0
  0
LINE
  5
1E21
330
1F
100
AcDbEntity
  8
0
100
AcDbLine
 10
877.2965597622127
 20
221.2727308254873
 30
0.0
 11
877.2965597622127
 21
30.37026881936231
 31
0.0
  0
ARC
  5
1E22
330
1F
100
AcDbEntity
  8
0
100
AcDbCircle
 10
883.5465597622127
 20
125.8214998224248
 30
0.0
 40
100.0
100
AcDbArc
 50
112.5080045552367
 51
115.6905612854723
  0
ARC
  5
1E23
330
1F
100
AcDbEntity
  8
0
100
AcDbCircle
 10
883.5465597622127
 20
125.8214998224248
 30
0.0
 40
100.0
100
AcDbArc
 50
131.2125434709317
 51
134.6502925371595
  0
ARC
  5
1E24
330
1F
100
AcDbEntity
  8
0
100
AcDbCircle
 10
846.7965597622129
 20
214.5088016192436
 30
0.0
 40
4.0
100
AcDbArc
 50
0.0
 51
112.5080045552367
  0
ARC
  5
1E25
330
1F
100
AcDbEntity
  8
0
100
AcDbCircle
 10
820.2965597622128
 20
198.0394858092968
 30
0.0
 40
4.0
100
AcDbArc
 50
0.0
 51
131.2125434709317
  0
ARC
  5
1E26
330
1F
100
AcDbEntity
  8
0
100
AcDbCircle
 10
795.2965597622125
 20
167.2725251414686
 30
0.0
 40
2.5
100
AcDbArc
 50
0.0
 51
154.840555671764
  0
ARC
  5
1E27
330
1F
100
AcDbEntity
  8
0
100
AcDbCircle
 10
883.5465597622127
 20
125.8214998224248
 30
0.0
 40
100.0
100
AcDbArc
 50
260.2545735172307
 51
263.8707985440578
  0
ARC
  5
1E28
330
1F
100
AcDbEntity
  8
0
100
AcDbCircle
 10
883.5465597622127
 20
125.8214998224248
 30
0.0
 40
100.0
100
AcDbArc
 50
244.3094387145276
 51
247.4919954447632
  0
ARC
  5
1E29
330
1F
100
AcDbEntity
  8
0
100
AcDbCircle
 10
883.5465597622127
 20
125.8214998224248
 30
0.0
 40
100.0
100
AcDbArc
 50
225.3497074628405
 51
228.7874565290683
  0
ARC
  5
1E2A
330
1F
100
AcDbEntity
  8
0
100
AcDbCircle
 10
795.2965597622125
 20
84.37047450338116
 30
0.0
 40
2.5
100
AcDbArc
 50
205.1594443282359
 51
0.0
  0
ARC
  5
1E2B
330
1F
100
AcDbEntity
  8
0
100
AcDbCircle
 10
820.2965597622124
 20
61.79464998581341
 30
0.0
 40
10.0
100
AcDbArc
 50
180.0
 51
225.3497074628405
  0
ARC
  5
1E2C
330
1F
100
AcDbEntity
  8
0
100
AcDbCircle
 10
842.7965597622128
 20
41.11354565045814
 30
0.0
 40
6.0
100
AcDbArc
 50
180.0
 51
244.3094387145276
  0
ARC
  5
1E2D
330
1F
100
AcDbEntity
  8
0
100
AcDbCircle
 10
867.2965597622125
 20
31.20682072874507
 30
0.0
 40
4.0
100
AcDbArc
 50
180.0
 51
260.2545735172307
  0
ARC
  5
1E2E
330
1F
100
AcDbEntity
  8
0
100
AcDbCircle
 10
873.2965597622127
 20
30.37026881936231
 30
0.0
 40
4.0
100
AcDbArc
 50
263.8707985440578
 51
0.0
  0
ARC
  5
1E2F
330
1F
100
AcDbEntity
  8
0
100
AcDbCircle
 10
820.296559762213
 20
53.6035138355528
 30
0.0
 40
4.0
100
AcDbArc
 50
228.7874565290683
 51
0.0
  0
ARC
  5
1E30
330
1F
100
AcDbEntity
  8
0
100
AcDbCircle
 10
846.7965597622129
 20
37.13419802560605
 30
0.0
 40
4.0
100
AcDbArc
 50
247.4919954447632
 51
0.0
  0
ARC
  5
1E31
330
1F
100
AcDbEntity
  8
0
100
AcDbCircle
 10
873.2965597622127
 20
221.2727308254873
 30
0.0
 40
4.0
100
AcDbArc
 50
0.0
 51
96.12920145594213
  0
ARC
  5
1E32
330
1F
100
AcDbEntity
  8
0
100
AcDbCircle
 10
867.2965597622125
 20
220.4361789161045
 30
0.0
 40
4.0
100
AcDbArc
 50
99.74542648276937
 51
180.0
  0
ARC
  5
1E33
330
1F
100
AcDbEntity
  8
0
100
AcDbCircle
 10
883.5465597622127
 20
125.8214998224248
 30
0.0
 40
100.0
100
AcDbArc
 50
96.12920145594213
 51
99.74542648276937
  0
ARC
  5
1E34
330
1F
100
AcDbEntity
  8
0
100
AcDbCircle
 10
820.2965597622124
 20
189.8483496590362
 30
0.0
 40
10.0
100
AcDbArc
 50
134.6502925371595
 51
180.0
  0
ARC
  5
1E35
330
1F
100
AcDbEntity
  8
0
100
AcDbCircle
 10
842.7965597622126
 20
210.5294539943915
 30
0.0
 40
6.0
100
AcDbArc
 50
115.6905612854723
 51
180.0
  0
ARC
  5
1E36
330
1F
100
AcDbEntity
  8
0
100
AcDbCircle
 10
946.7965597622127
 20
189.8483496590362
 30
0.0
 40
10.0
100
AcDbArc
 50
0.0
 51
45.3497074628405
  0
ARC
  5
1E37
330
1F
100
AcDbEntity
  8
0
100
AcDbCircle
 10
946.7965597622123
 20
53.6035138355528
 30
0.0
 40
4.0
100
AcDbArc
 50
180.0
 51
311.2125434709317
  0
ARC
  5
1E38
330
1F
100
AcDbEntity
  8
0
100
AcDbCircle
 10
946.7965597622127
 20
61.79464998581341
 30
0.0
 40
10.0
100
AcDbArc
 50
314.6502925371594
 51
0.0
  0
ARC
  5
1E39
330
1F
100
AcDbEntity
  8
0
100
AcDbCircle
 10
971.7965597622125
 20
84.37047450338116
 30
0.0
 40
2.5
100
AcDbArc
 50
180.0
 51
334.840555671764
  0
ARC
  5
1E3A
330
1F
100
AcDbEntity
  8
0
100
AcDbCircle
 10
883.5465597622127
 20
125.8214998224248
 30
0.0
 40
100.0
100
AcDbArc
 50
311.2125434709317
 51
314.6502925371594
  0
ARC
  5
1E3B
330
1F
100
AcDbEntity
  8
0
100
AcDbCircle
 10
971.7965597622125
 20
167.2725251414686
 30
0.0
 40
2.5
100
AcDbArc
 50
25.15944432823595
 51
180.0
  0
LINE
  5
1E3C
330
1F
100
AcDbEntity
  8
0
100
AcDbLine
 10
956.7965597622126
 20
189.8483496590363
 30
0.0
 11
956.7965597622126
 21
61.79464998581341
 31
0.0
  0
LINE
  5
1E3D
330
1F
100
AcDbEntity
  8
0
100
AcDbLine
 10
969.2965597622126
 20
167.2725251414686
 30
0.0
 11
969.2965597622126
 21
84.37047450338116
 31
0.0
  0
ARC
  5
1E3E
330
1F
100
AcDbEntity
  8
0
100
AcDbCircle
 10
883.5465597622127
 20
125.8214998224248
 30
0.0
 40
100.0
100
AcDbArc
 50
334.840555671764
 51
25.15944432823595
  0
ARC
  5
1E3F
330
1F
100
AcDbEntity
  8
0
100
AcDbCircle
 10
924.2965597622125
 20
210.5294539943915
 30
0.0
 40
6.0
100
AcDbArc
 50
0.0
 51
64.3094387145276
  0
ARC
  5
1E40
330
1F
100
AcDbEntity
  8
0
100
AcDbCircle
 10
883.5465597622127
 20
125.8214998224248
 30
0.0
 40
100.0
100
AcDbArc
 50
80.25457351723064
 51
83.87079854405781
  0
ARC
  5
1E41
330
1F
100
AcDbEntity
  8
0
100
AcDbCircle
 10
899.7965597622126
 20
220.4361789161045
 30
0.0
 40
4.0
100
AcDbArc
 50
0.0
 51
80.25457351723064
  0
ARC
  5
1E42
330
1F
100
AcDbEntity
  8
0
100
AcDbCircle
 10
893.7965597622124
 20
221.2727308254873
 30
0.0
 40
4.0
100
AcDbArc
 50
83.87079854405781
 51
180.0
  0
ARC
  5
1E43
330
1F
100
AcDbEntity
  8
0
100
AcDbCircle
 10
946.7965597622123
 20
198.0394858092968
 30
0.0
 40
4.0
100
AcDbArc
 50
48.78745652906828
 51
180.0
  0
ARC
  5
1E44
330
1F
100
AcDbEntity
  8
0
100
AcDbCircle
 10
920.2965597622123
 20
214.5088016192436
 30
0.0
 40
4.0
100
AcDbArc
 50
67.49199544476325
 51
180.0
  0
ARC
  5
1E45
330
1F
100
AcDbEntity
  8
0
100
AcDbCircle
 10
883.5465597622127
 20
125.8214998224248
 30
0.0
 40
100.0
100
AcDbArc
 50
45.3497074628405
 51
48.78745652906828
  0
ARC
  5
1E46
330
1F
100
AcDbEntity
  8
0
100
AcDbCircle
 10
883.5465597622127
 20
125.8214998224248
 30
0.0
 40
100.0
100
AcDbArc
 50
64.3094387145276
 51
67.49199544476325
  0
LINE
  5
1E47
330
1F
100
AcDbEntity
  8
0
100
AcDbLine
 10
942.7965597622122
 20
198.0394858092968
 30
0.0
 11
942.7965597622122
 21
53.6035138355528
 31
0.0
  0
LINE
  5
1E48
330
1F
100
AcDbEntity
  8
0
100
AcDbLine
 10
889.7965597622125
 20
221.2727308254873
 30
0.0
 11
889.7965597622125
 21
30.37026881936231
 31
0.0
  0
LINE
  5
1E49
330
1F
100
AcDbEntity
  8
0
100
AcDbLine
 10
903.7965597622125
 20
220.4361789161045
 30
0.0
 11
903.7965597622125
 21
31.20682072874507
 31
0.0
  0
LINE
  5
1E4A
330
1F
100
AcDbEntity
  8
0
100
AcDbLine
 10
916.2965597622125
 20
214.5088016192436
 30
0.0
 11
916.2965597622125
 21
37.13419802560605
 31
0.0
  0
LINE
  5
1E4B
330
1F
100
AcDbEntity
  8
0
100
AcDbLine
 10
930.2965597622124
 20
210.5294539943915
 30
0.0
 11
930.2965597622124
 21
41.11354565045821
 31
0.0
  0
ARC
  5
1E4C
330
1F
100
AcDbEntity
  8
0
100
AcDbCircle
 10
920.2965597622123
 20
37.13419802560605
 30
0.0
 40
4.0
100
AcDbArc
 50
180.0
 51
292.5080045552367
  0
ARC
  5
1E4D
330
1F
100
AcDbEntity
  8
0
100
AcDbCircle
 10
893.7965597622124
 20
30.37026881936231
 30
0.0
 40
4.0
100
AcDbArc
 50
180.0
 51
276.1292014559421
  0
ARC
  5
1E4E
330
1F
100
AcDbEntity
  8
0
100
AcDbCircle
 10
899.7965597622126
 20
31.20682072874507
 30
0.0
 40
4.0
100
AcDbArc
 50
279.7454264827694
 51
0.0
  0
ARC
  5
1E4F
330
1F
100
AcDbEntity
  8
0
100
AcDbCircle
 10
924.2965597622125
 20
41.11354565045814
 30
0.0
 40
6.0
100
AcDbArc
 50
295.6905612854724
 51
0.0
  0
ARC
  5
1E50
330
1F
100
AcDbEntity
  8
0
100
AcDbCircle
 10
883.5465597622127
 20
125.8214998224248
 30
0.0
 40
100.0
100
AcDbArc
 50
292.5080045552367
 51
295.6905612854724
  0
ARC
  5
1E51
330
1F
100
AcDbEntity
  8
0
100
AcDbCircle
 10
883.5465597622127
 20
125.8214998224248
 30
0.0
 40
100.0
100
AcDbArc
 50
276.1292014559421
 51
279.7454264827694
  0
DIMENSION
  5
1E82
330
1F
100
AcDbEntity
  8
AM_5
100
AcDbDimension
  2
*D7
 10
719.305477723135
 20
1.821499822424858
 30
0.0
 11
719.305477723135
 21
125.8214998224249
 31
0.0
 70
    32
 71
     5
 42
247.9999999999999
  3
DIM$0
100
AcDbAlignedDimension
 13
883.5465597622127
 23
249.8214998224248
 33
0.0
 14
883.5465597622127
 24
1.821499822424812
 34
0.0
 50
90.0
100
AcDbRotatedDimension
  0
DIMENSION
  5
1EB7
330
1F
100
AcDbEntity
  8
AM_5
100
AcDbDimension
  2
*D8
 10
930.2965597622124
 20
-15.89444848405469
 30
0.0
 11
923.2965597622124
 21
-15.89444848405469
 31
0.0
 70
    32
 71
     5
 42
14.0
  3
DIM$0
100
AcDbAlignedDimension
 13
916.2965597622125
 23
37.13419802560605
 33
0.0
 14
930.2965597622124
 24
41.11354565045821
 34
0.0
100
AcDbRotatedDimension
  0
DIMENSION
  5
1FC6
330
1F
100
AcDbEntity
  8
AM_5
100
AcDbDimension
  2
*D9
 10
1053.889095223176
 20
562.5749999999999
 30
0.0
 11
1053.889095223176
 21
571.5749999999998
 31
0.0
 70
    32
 71
     5
 42
17.99999999999988
  3
DIM$0
100
AcDbAlignedDimension
 13
883.5465597622127
 23
580.5749999999997
 33
0.0
 14
883.5465597622077
 24
562.5749999999999
 34
0.0
 50
90.00000000000003
100
AcDbRotatedDimension
  0
DIMENSION
  5
1FF5
330
1F
100
AcDbEntity
  8
AM_5
100
AcDbDimension
  2
*D10
 10
998.5465597622079
 20
600.1434285946706
 30
0.0
 11
883.5465597622105
 21
600.1434285946706
 31
0.0
 70
    32
 71
     5
 42
229.9999999999948
  3
DIM$0
100
AcDbAlignedDimension
 13
768.5465597622131
 23
580.5749999999981
 33
0.0
 14
998.5465597622079
 24
580.5749999999997
 34
0.0
 50
0.0000000000000114
100
AcDbRotatedDimension
  0
ARC
  5
206E
330
1F
100
AcDbEntity
  8
0
100
AcDbCircle
 10
883.5465597622127
 20
125.8214998224248
 30
0.0
 40
48.0
100
AcDbArc
 50
277.4816312642468
 51
294.9530207877275
  0
ARC
  5
206F
330
1F
100
AcDbEntity
  8
0
100
AcDbCircle
 10
883.5465597622127
 20
125.8214998224248
 30
0.0
 40
48.0
100
AcDbArc
 50
313.0229825521289
 51
46.97701744787113
  0
ARC
  5
2072
330
1F
100
AcDbEntity
  8
0
100
AcDbCircle
 10
883.5465597622127
 20
125.8214998224248
 30
0.0
 40
48.0
100
AcDbArc
 50
65.04697921227251
 51
82.51836873575317
  0
ARC
  5
2073
330
1F
100
AcDbEntity
  8
0
100
AcDbCircle
 10
883.5465597622127
 20
125.8214998224248
 30
0.0
 40
48.0
100
AcDbArc
 50
97.48163126424683
 51
114.9530207877275
  0
ARC
  5
2074
330
1F
100
AcDbEntity
  8
0
100
AcDbCircle
 10
883.5465597622127
 20
125.8214998224248
 30
0.0
 40
48.0
100
AcDbArc
 50
133.0229825521288
 51
226.9770174478711
  0
ARC
  5
2225
330
1F
100
AcDbEntity
  8
0
100
AcDbCircle
 10
883.5465597622127
 20
125.8214998224248
 30
0.0
 40
48.0
100
AcDbArc
 50
245.0469792122725
 51
262.5183687357532
  0
ENDSEC
  0
SECTION
  2
OBJECTS
  0
DICTIONARY
  5
C
330
0
100
AcDbDictionary
281
     1
  3
ACAD_COLOR
350
73
  3
ACAD_GROUP
350
D
  3
ACAD_IMAGE_DICT
350
89
  3
ACAD_IMAGE_VARS
350
8A
  3
ACAD_LAYOUT
350
1A
  3
ACAD_MATERIAL
350
72
  3
ACAD_MLINESTYLE
350
17
  3
ACAD_PLOTSETTINGS
350
19
  3
ACAD_PLOTSTYLENAME
350
E
  3
ACAD_TABLESTYLE
350
1A48
  3
ACDBHEADERROUNDTRIPXREC
350
2397
  3
AcDbVariableDictionary
350
66
  3
AcmDictionary
350
1AA6
  3
AMG
350
1A4E
  3
AMGSNAPSETTINGS
350
1AFA
  3
ASE_INDEX_DICTIONARY
350
1A3A
  0
DICTIONARY
  5
2070
330
1F
100
AcDbDictionary
280
     1
281
     1
  3
ACAD_SORTENTS
360
2071
  0
DICTIONARY
  5
660
330
652
100
AcDbDictionary
280
     1
281
     1
  3
ACAD_DIMASSOC
360
66B
  0
DICTIONARY
  5
73
102
{ACAD_REACTORS
330
C
102
}
330
C
100
AcDbDictionary
281
     1
  0
DICTIONARY
  5
D
102
{ACAD_REACTORS
330
C
102
}
330
C
100
AcDbDictionary
281
     1
  0
DICTIONARY
  5
89
102
{ACAD_REACTORS
330
C
102
}
330
C
100
AcDbDictionary
281
     1
  0
RASTERVARIABLES
  5
8A
102
{ACAD_REACTORS
330
C
102
}
330
C
100
AcDbRasterVariables
 90
        0
 70
     1
 71
     1
 72
     1
  0
DICTIONARY
  5
1A
102
{ACAD_REACTORS
330
C
102
}
330
C
100
AcDbDictionary
281
     1
  3
Layout1
350
59
  3
Layout2
350
5E
  3
Model
350
22
  0
DICTIONARY
  5
72
102
{ACAD_REACTORS
330
C
102
}
330
C
100
AcDbDictionary
281
     1
  0
DICTIONARY
  5
17
102
{ACAD_REACTORS
330
C
102
}
330
C
100
AcDbDictionary
281
     1
  3
Standard
350
18
  0
DICTIONARY
  5
19
102
{ACAD_REACTORS
330
C
102
}
330
C
100
AcDbDictionary
281
     1
  0
ACDBDICTIONARYWDFLT
  5
E
102
{ACAD_REACTORS
330
C
102
}
330
C
100
AcDbDictionary
281
     1
  3
Normal
350
F
100
AcDbDictionaryWithDefault
340
F
  0
DICTIONARY
  5
1A48
102
{ACAD_REACTORS
330
C
102
}
330
C
100
AcDbDictionary
281
     1
  3
Standard
350
1A49
  0
DICTIONARY
  5
2397
102
{ACAD_REACTORS
330
C
102
}
330
C
100
AcDbDictionary
281
     1
  0
DICTIONARY
  5
66
102
{ACAD_REACTORS
330
C
102
}
330
C
100
AcDbDictionary
281
     1
  3
CTABLESTYLE
350
1BBC
  3
DIMASSOC
350
67
  3
HIDETEXT
350
6B
  3
PROJECTNAME
350
E05
  0
DICTIONARY
  5
1AA6
102
{ACAD_REACTORS
330
C
102
}
330
C
100
AcDbDictionary
281
     1
  3
AcmStdDictionary
350
1AB1
  3
AMDTSECTSYM_ARROWCOLOR
350
1AD0
  0
DICTIONARY
  5
1A4E
102
{ACAD_REACTORS
330
C
102
}
330
C
100
AcDbDictionary
281
     1
  0
DICTIONARY
  5
1AFA
102
{ACAD_REACTORS
330
C
102
}
330
C
100
AcDbDictionary
281
     1
  0
DICTIONARY
  5
1A3A
102
{ACAD_REACTORS
330
C
102
}
330
C
100
AcDbDictionary
281
     1
  3
ASEBlockHierarchyIndexRecord
350
1A3C
1001
DCO15
1040
1575368901.957
  0
SORTENTSTABLE
  5
2071
102
{ACAD_REACTORS
330
2070
102
}
330
2070
100
AcDbSortentsTable
330
1F
331
1E2B
  5
1E2B
331
1D4D
  5
1D4D
331
1D84
  5
1D84
331
1E33
  5
1E33
331
1D55
  5
1D55
331
1D8C
  5
1D8C
331
1D94
  5
1D94
331
1E3B
  5
1E3C
331
1D5D
  5
1D5D
331
1D26
  5
1D26
331
98
  5
98
331
BC5
  5
BC5
331
1D65
  5
1D65
331
1E43
  5
1E44
331
1D2E
  5
1D2E
331
1E4B
  5
1E4C
331
1D36
  5
1D36
331
1D6D
  5
1D6D
331
1E1C
  5
1E1C
331
1D3E
  5
1D3E
331
1D75
  5
1D75
331
1E24
  5
1E24
331
1D46
  5
1D46
331
1D7D
  5
1D7D
331
9C6
  5
9C6
331
1D85
  5
1D85
331
1E2C
  5
1E2C
331
1D4E
  5
1D4E
331
1D56
  5
1D56
331
1D8D
  5
1D8D
331
BA6
  5
BA6
331
1E34
  5
1E34
331
1E3C
  5
1E3D
331
1D5E
  5
1D5E
331
1D27
  5
1D27
331
99
  5
99
331
1E44
  5
1E45
331
1D2F
  5
1D2F
331
1D66
  5
1D66
331
1D6E
  5
1D6E
331
C16
  5
C16
331
1D37
  5
1D37
331
1E4C
  5
1E4D
331
2072
  5
2073
331
1D76
  5
1D76
331
1E1D
  5
1E1D
331
1D3F
  5
1D3F
331
1D47
  5
1D47
331
1D7E
  5
1D7E
331
1E25
  5
1E25
331
1E2D
  5
1E2D
331
1D4F
  5
1D4F
331
1D86
  5
1D86
331
1E35
  5
1E35
331
D26
  5
D26
331
1D57
  5
1D57
331
1D8E
  5
1D8E
331
1D96
  5
1D96
331
1E3D
  5
1E3E
331
1D5F
  5
1D5F
331
9A
  5
9A
331
1D28
  5
1D28
331
1D67
  5
1D67
331
1E45
  5
1E46
331
1D30
  5
1D30
331
1E4D
  5
1E4E
331
2073
  5
2074
331
1D38
  5
1D38
331
1D6F
  5
1D6F
331
9B0
  5
9B0
331
C17
  5
C17
331
1E1E
  5
1E1E
331
1D40
  5
1D40
331
1D77
  5
1D77
331
1D7F
  5
1D7F
331
1E26
  5
1E26
331
D2
  5
D2
331
9C0
  5
9C0
331
651
  5
651
331
1D48
  5
1D48
331
1D87
  5
1D87
331
1E2E
  5
1E2E
331
1D50
  5
1D50
331
1D58
  5
1D58
331
1D8F
  5
1D8F
331
1E36
  5
1E36
331
1E3E
  5
1E3F
331
9B
  5
9B
331
1D29
  5
1D29
331
1D60
  5
1D60
331
1B7A
  5
1B7A
331
1E46
  5
1E47
331
1D31
  5
1D31
331
1D68
  5
1D68
331
1D70
  5
1D70
331
1D39
  5
1D39
331
1E4E
  5
1E4F
331
2074
  5
2225
331
1D78
  5
1D78
331
1E1F
  5
1E1F
331
1D41
  5
1D41
331
1E27
  5
1E27
331
9C1
  5
9C1
331
1D49
  5
1D49
331
1D80
  5
1D80
331
652
  5
652
331
1E2F
  5
1E2F
331
1FF5
  5
206E
331
1D51
  5
1D51
331
1D88
  5
1D88
331
1D90
  5
1D90
331
1E37
  5
1E37
331
1D59
  5
1D59
331
1E3F
  5
1E40
331
1D2A
  5
1D2A
331
1D61
  5
1D61
331
1FC6
  5
1FF5
331
1D32
  5
1D32
331
1D69
  5
1D69
331
1DC0
  5
1DC0
331
1E47
  5
1E48
331
1E4F
  5
1E50
331
1D3A
  5
1D3A
331
1D71
  5
1D71
331
9B2
  5
9B2
331
C19
  5
C19
331
1E20
  5
1E20
331
1D42
  5
1D42
331
1D79
  5
1D79
331
1D81
  5
1D81
331
1E28
  5
1E28
331
1D4A
  5
1D4A
331
D01
  5
D01
331
B7A
  5
B7A
331
1D89
  5
1D89
331
1E30
  5
1E30
331
1B4C
  5
1B4C
331
1D52
  5
1D52
331
1EB7
  5
1FC6
331
1D5A
  5
1D5A
331
1D91
  5
1D91
331
1E38
  5
1E38
331
EC
  5
EC
331
1E40
  5
1E41
331
1D2B
  5
1D2B
331
1D62
  5
1D62
331
206E
  5
206F
331
1DC1
  5
1DC1
331
1E48
  5
1E49
331
1D33
  5
1D33
331
1D6A
  5
1D6A
331
1D72
  5
1D72
331
1E19
  5
1E19
331
1D3B
  5
1D3B
331
1E50
  5
1E51
331
2225
  5
2226
331
1D43
  5
1D43
331
1D7A
  5
1D7A
331
1E21
  5
1E21
331
DD
  5
DD
331
9C3
  5
9C3
331
1D4B
  5
1D4B
331
1D82
  5
1D82
331
1E29
  5
1E29
331
1E31
  5
1E31
331
1D53
  5
1D53
331
1D8A
  5
1D8A
331
1D92
  5
1D92
331
1E39
  5
1E3A
331
1D5B
  5
1D5B
331
1E41
  5
1E42
331
BDB
  5
BDB
331
1D2C
  5
1D2C
331
1D63
  5
1D63
331
1E49
  5
1E4A
331
1D34
  5
1D34
331
1D6B
  5
1D6B
331
FD
  5
FD
331
206F
  5
2072
331
1E1A
  5
1E1A
331
1E51
  5
1E82
331
1D3C
  5
1D3C
331
1D73
  5
1D73
331
1E22
  5
1E22
331
1D44
  5
1D44
331
1D7B
  5
1D7B
331
E6
  5
E6
331
9C4
  5
9C4
331
1D83
  5
1D83
331
1E2A
  5
1E2A
331
1D4C
  5
1D4C
331
1D54
  5
1D54
331
1D8B
  5
1D8B
331
1E32
  5
1E32
331
1D5C
  5
1D5C
331
1D93
  5
1D93
331
1E3A
  5
1E3B
331
1E42
  5
1E43
331
F6
  5
F6
331
1D2D
  5
1D2D
331
1D64
  5
1D64
331
1E4A
  5
1E4B
331
FE
  5
FE
331
1D35
  5
1D35
331
1D6C
  5
1D6C
331
1D74
  5
1D74
331
1E1B
  5
1E1B
331
1D3D
  5
1D3D
331
1E82
  5
1EB7
331
1D45
  5
1D45
331
1D7C
  5
1D7C
331
1E23
  5
1E23
331
DF
  5
DF
331
E7
  5
E7
331
CBC
  5
CBC
331
9C5
  5
9C5
  0
DIMASSOC
  5
66B
102
{ACAD_REACTORS
330
660
102
}
330
660
100
AcDbDimAssoc
330
652
 90
        1
 70
     0
 71
     0
  1
AcDbOsnapPointRef
 72
     6
331
D2
 73
     2
 91
        0
 40
1.0
 10
0.0
 20
0.0
 30
0.0
332
98
 74
     2
 92
        0
 75
     0
  0
LAYOUT
  5
59
102
{ACAD_XDICTIONARY
360
239A
102
}
102
{ACAD_REACTORS
330
1A
102
}
330
1A
100
AcDbPlotSettings
  1

  2
None
  4

  6

 40
0.0
 41
0.0
 42
0.0
 43
0.0
 44
0.0
 45
0.0
 46
0.0
 47
0.0
 48
0.0
 49
0.0
140
0.0
141
0.0
142
1.0
143
1.0
 70
   688
 72
     0
 73
     0
 74
     5
  7

 75
    16
147
1.0
148
0.0
149
0.0
100
AcDbLayout
  1
Layout1
 70
     1
 71
     1
 10
0.0
 20
0.0
 11
12.0
 21
9.0
 12
0.0
 22
0.0
 32
0.0
 14
0.0
 24
0.0
 34
0.0
 15
0.0
 25
0.0
 35
0.0
146
0.0
 13
0.0
 23
0.0
 33
0.0
 16
1.0
 26
0.0
 36
0.0
 17
0.0
 27
1.0
 37
0.0
 76
     0
330
58
  0
LAYOUT
  5
5E
102
{ACAD_XDICTIONARY
360
239C
102
}
102
{ACAD_REACTORS
330
1A
102
}
330
1A
100
AcDbPlotSettings
  1

  2
None
  4

  6

 40
0.0
 41
0.0
 42
0.0
 43
0.0
 44
0.0
 45
0.0
 46
0.0
 47
0.0
 48
0.0
 49
0.0
140
0.0
141
0.0
142
1.0
143
1.0
 70
   688
 72
     0
 73
     0
 74
     5
  7

 75
    16
147
1.0
148
0.0
149
0.0
100
AcDbLayout
  1
Layout2
 70
     1
 71
     2
 10
0.0
 20
0.0
 11
12.0
 21
9.0
 12
0.0
 22
0.0
 32
0.0
 14
0.0
 24
0.0
 34
0.0
 15
0.0
 25
0.0
 35
0.0
146
0.0
 13
0.0
 23
0.0
 33
0.0
 16
1.0
 26
0.0
 36
0.0
 17
0.0
 27
1.0
 37
0.0
 76
     0
330
5D
  0
LAYOUT
  5
22
102
{ACAD_XDICTIONARY
360
2398
102
}
102
{ACAD_REACTORS
330
1A
102
}
330
1A
100
AcDbPlotSettings
  1

  2
none_device
  4
ANSI_A_(8.50_x_11.00_Inches)
  6

 40
6.349999904632568
 41
19.04999923706055
 42
6.350006103515625
 43
19.04998779296875
 44
215.8999938964844
 45
279.3999938964844
 46
0.0
 47
0.0
 48
0.0
 49
0.0
140
0.0
141
0.0
142
1.0
143
2.584895464708373
 70
 11952
 72
     0
 73
     1
 74
     0
  7

 75
     0
147
0.3868628397755418
148
0.0
149
0.0
100
AcDbLayout
  1
Model
 70
     1
 71
     0
 10
0.0
 20
0.0
 11
12.0
 21
9.0
 12
0.0
 22
0.0
 32
0.0
 14
0.0
 24
0.0
 34
0.0
 15
0.0
 25
0.0
 35
0.0
146
0.0
 13
0.0
 23
0.0
 33
0.0
 16
1.0
 26
0.0
 36
0.0
 17
0.0
 27
1.0
 37
0.0
 76
     0
330
1F
  0
MLINESTYLE
  5
18
102
{ACAD_REACTORS
330
17
102
}
330
17
100
AcDbMlineStyle
  2
STANDARD
 70
     0
  3

 62
   256
 51
90.0
 52
90.0
 71
     2
 49
0.5
 62
   256
  6
BYLAYER
 49
-0.5
 62
   256
  6
BYLAYER
  0
ACDBPLACEHOLDER
  5
F
102
{ACAD_REACTORS
330
E
102
}
330
E
  0
TABLESTYLE
  5
1A49
102
{ACAD_REACTORS
330
1A48
102
}
330
1A48
100
AcDbTableStyle
  3
Standard
 70
     0
 71
     0
 40
0.06
 41
0.06
280
     0
281
     0
  7
Standard
140
0.18
170
     2
 62
     0
 63
     7
283
     0
274
    -2
284
     1
 64
     0
275
    -2
285
     1
 65
     0
276
    -2
286
     1
 66
     0
277
    -2
287
     1
 67
     0
278
    -2
288
     1
 68
     0
279
    -2
289
     1
 69
     0
  7
Standard
140
0.25
170
     5
 62
     0
 63
     7
283
     0
274
    -2
284
     1
 64
     0
275
    -2
285
     1
 65
     0
276
    -2
286
     1
 66
     0
277
    -2
287
     1
 67
     0
278
    -2
288
     1
 68
     0
279
    -2
289
     1
 69
     0
  7
Standard
140
0.18
170
     5
 62
     0
 63
     7
283
     0
274
    -2
284
     1
 64
     0
275
    -2
285
     1
 65
     0
276
    -2
286
     1
 66
     0
277
    -2
287
     1
 67
     0
278
    -2
288
     1
 68
     0
279
    -2
289
     1
 69
     0
  0
DICTIONARYVAR
  5
1BBC
102
{ACAD_REACTORS
330
66
102
}
330
66
100
DictionaryVariables
280
     0
  1
STANDARD
  0
DICTIONARYVAR
  5
67
102
{ACAD_REACTORS
330
66
102
}
330
66
100
DictionaryVariables
280
     0
  1
1
  0
DICTIONARYVAR
  5
6B
102
{ACAD_REACTORS
330
66
102
}
330
66
100
DictionaryVariables
280
     0
  1
1
  0
DICTIONARYVAR
  5
E05
102
{ACAD_REACTORS
330
66
102
}
330
66
100
DictionaryVariables
280
     0
  1

  0
DICTIONARY
  5
1AB1
102
{ACAD_REACTORS
330
1AA6
102
}
330
1AA6
100
AcDbDictionary
281
     1
  0
XRECORD
  5
1AD0
102
{ACAD_REACTORS
330
1AA6
102
}
330
1AA6
100
AcDbXrecord
280
     1
 90
-1023410169
  0
XRECORD
  5
1A3C
102
{ACAD_REACTORS
330
1A3A
102
}
330
1A3A
100
AcDbXrecord
280
     1
  0
DICTIONARY
  5
239A
330
59
100
AcDbDictionary
280
     1
281
     1
  3
ACAD_XREC_ROUNDTRIP
360
239B
  0
DICTIONARY
  5
239C
330
5E
100
AcDbDictionary
280
     1
281
     1
  3
ACAD_XREC_ROUNDTRIP
360
239D
  0
DICTIONARY
  5
2398
330
22
100
AcDbDictionary
280
     1
281
     1
  3
ACAD_XREC_ROUNDTRIP
360
2399
  0
XRECORD
  5
239B
102
{ACAD_REACTORS
330
239A
102
}
330
239A
100
AcDbXrecord
280
     1
102
SHADEPLOT
 70
     0
102
SHADEPLOTRESLEVEL
 70
     2
102
SHADEPLOTCUSTOMDPI
 70
   300
  0
XRECORD
  5
239D
102
{ACAD_REACTORS
330
239C
102
}
330
239C
100
AcDbXrecord
280
     1
102
SHADEPLOT
 70
     0
102
SHADEPLOTRESLEVEL
 70
     2
102
SHADEPLOTCUSTOMDPI
 70
   300
  0
XRECORD
  5
2399
102
{ACAD_REACTORS
330
2398
102
}
330
2398
100
AcDbXrecord
280
     1
102
SHADEPLOT
 70
     0
102
SHADEPLOTRESLEVEL
 70
     2
102
SHADEPLOTCUSTOMDPI
 70
   300
  0
ENDSEC
  0
EOF
