  0
SECTION
  2
HEADER
  9
$ACADVER
  1
AC1015
  9
$ACADMAINTVER
 70
    20
  9
$DWGCODEPAGE
  3
ANSI_1252
  9
$INSBASE
 10
0.0
 20
0.0
 30
0.0
  9
$EXTMIN
 10
1145.595547833242
 20
460.4227809884014
 30
-0.0000000349181948
  9
$EXTMAX
 10
1643.228335067299
 20
1470.565676753246
 30
0.0000000814935746
  9
$LIMMIN
 10
0.0
 20
0.0
  9
$LIMMAX
 10
420.0
 20
297.0
  9
$ORTHOMODE
 70
     0
  9
$REGENMODE
 70
     1
  9
$FILLMODE
 70
     1
  9
$QTEXTMODE
 70
     0
  9
$MIRRTEXT
 70
     1
  9
$LTSCALE
 40
1.0
  9
$ATTMODE
 70
     1
  9
$TEXTSIZE
 40
2.5
  9
$TRACEWID
 40
1.0
  9
$TEXTSTYLE
  7
STANDARD
  9
$CLAYER
  8
0
  9
$CELTYPE
  6
ByLayer
  9
$CECOLOR
 62
   256
  9
$CELTSCALE
 40
1.0
  9
$DISPSILH
 70
     0
  9
$DIMSCALE
 40
1.0
  9
$DIMASZ
 40
2.5
  9
$DIMEXO
 40
1.0
  9
$DIMDLI
 40
10.0
  9
$DIMRND
 40
0.0
  9
$DIMDLE
 40
0.0
  9
$DIMEXE
 40
1.0
  9
$DIMTP
 40
0.1
  9
$DIMTM
 40
0.1
  9
$DIMTXT
 40
3.5
  9
$DIMCEN
 40
0.0
  9
$DIMTSZ
 40
0.0
  9
$DIMTOL
 70
     0
  9
$DIMLIM
 70
     0
  9
$DIMTIH
 70
     0
  9
$DIMTOH
 70
     0
  9
$DIMSE1
 70
     0
  9
$DIMSE2
 70
     0
  9
$DIMTAD
 70
     1
  9
$DIMZIN
 70
     8
  9
$DIMBLK
  1

  9
$DIMASO
 70
     1
  9
$DIMSHO
 70
     1
  9
$DIMPOST
  1

  9
$DIMAPOST
  1
"
  9
$DIMALT
 70
     0
  9
$DIMALTD
 70
     2
  9
$DIMALTF
 40
0.0393701
  9
$DIMLFAC
 40
1.0
  9
$DIMTOFL
 70
     1
  9
$DIMTVP
 40
0.0
  9
$DIMTIX
 70
     0
  9
$DIMSOXD
 70
     0
  9
$DIMSAH
 70
     0
  9
$DIMBLK1
  1

  9
$DIMBLK2
  1

  9
$DIMSTYLE
  2
AM_ISO
  9
$DIMCLRD
 70
   256
  9
$DIMCLRE
 70
   256
  9
$DIMCLRT
 70
     2
  9
$DIMTFAC
 40
0.71
  9
$DIMGAP
 40
1.5
  9
$DIMJUST
 70
     0
  9
$DIMSD1
 70
     0
  9
$DIMSD2
 70
     0
  9
$DIMTOLJ
 70
     0
  9
$DIMTZIN
 70
     8
  9
$DIMALTZ
 70
     0
  9
$DIMALTTZ
 70
     0
  9
$DIMUPT
 70
     0
  9
$DIMDEC
 70
     0
  9
$DIMTDEC
 70
     3
  9
$DIMALTU
 70
     2
  9
$DIMALTTD
 70
     4
  9
$DIMTXSTY
  7
STANDARD
  9
$DIMAUNIT
 70
     0
  9
$DIMADEC
 70
     0
  9
$DIMALTRND
 40
0.0
  9
$DIMAZIN
 70
     2
  9
$DIMDSEP
 70
    46
  9
$DIMATFIT
 70
     3
  9
$DIMFRAC
 70
     0
  9
$DIMLDRBLK
  1

  9
$DIMLUNIT
 70
     2
  9
$DIMLWD
 70
    -1
  9
$DIMLWE
 70
    -1
  9
$DIMTMOVE
 70
     0
  9
$LUNITS
 70
     2
  9
$LUPREC
 70
     2
  9
$SKETCHINC
 40
1.0
  9
$FILLETRAD
 40
2.5
  9
$AUNITS
 70
     0
  9
$AUPREC
 70
     0
  9
$MENU
  1
.
  9
$ELEVATION
 40
0.0
  9
$PELEVATION
 40
0.0
  9
$THICKNESS
 40
0.0
  9
$LIMCHECK
 70
     0
  9
$CHAMFERA
 40
2.5
  9
$CHAMFERB
 40
2.5
  9
$CHAMFERC
 40
20.0
  9
$CHAMFERD
 40
0.0
  9
$SKPOLY
 70
     0
  9
$TDCREATE
 40
2454060.611237431
  9
$TDUCREATE
 40
2454060.569570764
  9
$TDUPDATE
 40
2454081.813014491
  9
$TDUUPDATE
 40
2454081.771347824
  9
$TDINDWG
 40
0.0180362847
  9
$TDUSRTIMER
 40
0.0180360995
  9
$USRTIMER
 70
     1
  9
$ANGBASE
 50
0.0
  9
$ANGDIR
 70
     0
  9
$PDMODE
 70
     0
  9
$PDSIZE
 40
0.0
  9
$PLINEWID
 40
0.0
  9
$SPLFRAME
 70
     0
  9
$SPLINETYPE
 70
     6
  9
$SPLINESEGS
 70
     8
  9
$HANDSEED
  5
14D1
  9
$SURFTAB1
 70
     6
  9
$SURFTAB2
 70
     6
  9
$SURFTYPE
 70
     6
  9
$SURFU
 70
     6
  9
$SURFV
 70
     6
  9
$UCSBASE
  2

  9
$UCSNAME
  2

  9
$UCSORG
 10
0.0
 20
0.0
 30
0.0
  9
$UCSXDIR
 10
1.0
 20
0.0
 30
0.0
  9
$UCSYDIR
 10
0.0
 20
1.0
 30
0.0
  9
$UCSORTHOREF
  2

  9
$UCSORTHOVIEW
 70
     0
  9
$UCSORGTOP
 10
0.0
 20
0.0
 30
0.0
  9
$UCSORGBOTTOM
 10
0.0
 20
0.0
 30
0.0
  9
$UCSORGLEFT
 10
0.0
 20
0.0
 30
0.0
  9
$UCSORGRIGHT
 10
0.0
 20
0.0
 30
0.0
  9
$UCSORGFRONT
 10
0.0
 20
0.0
 30
0.0
  9
$UCSORGBACK
 10
0.0
 20
0.0
 30
0.0
  9
$PUCSBASE
  2

  9
$PUCSNAME
  2

  9
$PUCSORG
 10
0.0
 20
0.0
 30
0.0
  9
$PUCSXDIR
 10
1.0
 20
0.0
 30
0.0
  9
$PUCSYDIR
 10
0.0
 20
1.0
 30
0.0
  9
$PUCSORTHOREF
  2

  9
$PUCSORTHOVIEW
 70
     0
  9
$PUCSORGTOP
 10
0.0
 20
0.0
 30
0.0
  9
$PUCSORGBOTTOM
 10
0.0
 20
0.0
 30
0.0
  9
$PUCSORGLEFT
 10
0.0
 20
0.0
 30
0.0
  9
$PUCSORGRIGHT
 10
0.0
 20
0.0
 30
0.0
  9
$PUCSORGFRONT
 10
0.0
 20
0.0
 30
0.0
  9
$PUCSORGBACK
 10
0.0
 20
0.0
 30
0.0
  9
$USERI1
 70
     0
  9
$USERI2
 70
     0
  9
$USERI3
 70
     0
  9
$USERI4
 70
     0
  9
$USERI5
 70
     0
  9
$USERR1
 40
0.0
  9
$USERR2
 40
0.0
  9
$USERR3
 40
0.0
  9
$USERR4
 40
0.0
  9
$USERR5
 40
0.0
  9
$WORLDVIEW
 70
     1
  9
$SHADEDGE
 70
     3
  9
$SHADEDIF
 70
    70
  9
$TILEMODE
 70
     1
  9
$MAXACTVP
 70
    64
  9
$PINSBASE
 10
0.0
 20
0.0
 30
0.0
  9
$PLIMCHECK
 70
     0
  9
$PEXTMIN
 10
1.000000000000000E+20
 20
1.000000000000000E+20
 30
1.000000000000000E+20
  9
$PEXTMAX
 10
-1.000000000000000E+20
 20
-1.000000000000000E+20
 30
-1.000000000000000E+20
  9
$PLIMMIN
 10
0.0
 20
0.0
  9
$PLIMMAX
 10
420.0
 20
297.0
  9
$UNITMODE
 70
     0
  9
$VISRETAIN
 70
     1
  9
$PLINEGEN
 70
     0
  9
$PSLTSCALE
 70
     1
  9
$TREEDEPTH
 70
  3020
  9
$CMLSTYLE
  2
Standard
  9
$CMLJUST
 70
     0
  9
$CMLSCALE
 40
20.0
  9
$PROXYGRAPHICS
 70
     1
  9
$MEASUREMENT
 70
     1
  9
$CELWEIGHT
370
    -1
  9
$ENDCAPS
280
     0
  9
$JOINSTYLE
280
     0
  9
$LWDISPLAY
290
     0
  9
$INSUNITS
 70
     4
  9
$HYPERLINKBASE
  1

  9
$STYLESHEET
  1

  9
$XEDIT
290
     1
  9
$CEPSNTYPE
380
     0
  9
$PSTYLEMODE
290
     1
  9
$FINGERPRINTGUID
  2
{EDCED48A-02CE-4473-834B-D7CB8F59AE94}
  9
$VERSIONGUID
  2
{4E706317-FF3D-431A-A796-69B8FE79C307}
  9
$EXTNAMES
290
     1
  9
$PSVPSCALE
 40
0.0
  9
$OLESTARTUP
290
     0
  0
ENDSEC
  0
SECTION
  2
CLASSES
  0
CLASS
  1
ACDBDICTIONARYWDFLT
  2
AcDbDictionaryWithDefault
  3
ObjectDBX Classes
 90
        0
280
     0
281
     0
  0
CLASS
  1
ACDBPLACEHOLDER
  2
AcDbPlaceHolder
  3
ObjectDBX Classes
 90
        0
280
     0
281
     0
  0
CLASS
  1
LAYOUT
  2
AcDbLayout
  3
ObjectDBX Classes
 90
        0
280
     0
281
     0
  0
CLASS
  1
ACME_DOCUMENT
  2
AcMeDbDoc
  3
AcMeServices
 90
        0
280
     0
281
     0
  0
CLASS
  1
AMGSETTINGSOBJ
  2
AmgSettingsObj
  3
"AcadM|Product Description: AutoCAD Mechanical 2000|Company: Autodesk"
 90
        0
280
     0
281
     0
  0
CLASS
  1
ACMESCOPE
  2
AcMeScope
  3
AcMeServices
 90
        0
280
     0
281
     0
  0
CLASS
  1
ACMECOMMANDHISTORY
  2
AcMeCommandHistory
  3
AcMeServices
 90
        0
280
     0
281
     0
  0
CLASS
  1
ACIMSYSVARMAN
  2
AcImSysVarManager
  3
AcMeServices
 90
        0
280
     0
281
     0
  0
CLASS
  1
ACIMREALSYSVAR
  2
AcImRealSysVar
  3
AcMeServices
 90
        0
280
     0
281
     0
  0
CLASS
  1
ACIMINTSYSVAR
  2
AcImIntSysVar
  3
AcMeServices
 90
        0
280
     0
281
     0
  0
CLASS
  1
ACMEDRAWINGMAN
  2
AcMeDrawingMan
  3
AcMeServices
 90
        0
280
     0
281
     0
  0
CLASS
  1
ACMEVIEW
  2
AcMeView
  3
AcMeServices
 90
        0
280
     0
281
     0
  0
CLASS
  1
ACDBENTITYCACHE
  2
AcMeEntityCache
  3
AcMeServices
 90
        0
280
     0
281
     0
  0
CLASS
  1
GSMANAGER
  2
AcMeGSManager
  3
AcMeServices
 90
        0
280
     0
281
     0
  0
CLASS
  1
AMDTINTERNALREACTOR
  2
AmdtInternalReactor
  3
AcMeServices
 90
        0
280
     0
281
     0
  0
CLASS
  1
ACMESTATEMGR
  2
AcMeStateMgr
  3
AcMeServices
 90
        0
280
     0
281
     0
  0
CLASS
  1
ACGREFMASTER
  2
AcGrefMaster
  3
AcAttribServices
 90
        0
280
     0
281
     0
  0
CLASS
  1
ACME_DATABASE
  2
AcMeDbDatabase
  3
AcMeServices
 90
        0
280
     0
281
     0
  0
CLASS
  1
ACRFINSADJUSTERMGR
  2
AcRfInsAdjusterMgr
  3
AcMeServices
 90
        0
280
     0
281
     0
  0
CLASS
  1
ACGREFACADMASTER
  2
AcGrefacadMaster
  3
AcGrefServices
 90
        0
280
     0
281
     0
  0
CLASS
  1
AMIMASTER
  2
AmiMaster
  3
AmiServices
 90
        0
280
     0
281
     0
  0
CLASS
  1
ACMDATADICTIONARY
  2
AcmDataDictionary
  3
"AcmSymBB|Product Description: AutoCAD Mechanical 2004 DX|Company: Autodesk"
 90
        0
280
     0
281
     0
  0
CLASS
  1
ACMDATAENTRYBLOCK
  2
AcmDataEntryBlock
  3
"AcmSymBB|Product Description: AutoCAD Mechanical 2004 DX|Company: Autodesk"
 90
        0
280
     0
281
     0
  0
CLASS
  1
ACIMSTRSYSVAR
  2
AcImStrSysVar
  3
AcMeServices
 90
        0
280
     0
281
     0
  0
CLASS
  1
ACMSTANDARDISO
  2
AcmStandardISO
  3
"Amdt_StdImp|Product Description: AutoCAD Mechanical 2004 DX|Company: Autodesk"
 90
        0
280
     0
281
     0
  0
CLASS
  1
AMGOBJPROPCFG
  2
AmgObjPropCfg
  3
"AmgLay|Product Description: AutoCAD Mechanical 2000|Company: Autodesk"
 90
        1
280
     0
281
     0
  0
CLASS
  1
AMDTEDGESTANDARDISO
  2
AmdtEdgeStdISO
  3
"Amdt_StdImp|Product Description: AutoCAD Mechanical 2004 DX|Company: Autodesk"
 90
        0
280
     0
281
     0
  0
CLASS
  1
ACMSURFSTANDARDISO
  2
AcmSurfTextStdISO
  3
"Amdt_StdImp|Product Description: AutoCAD Mechanical 2004 DX|Company: Autodesk"
 90
        0
280
     0
281
     0
  0
CLASS
  1
ACMFCFSTANDARDISO
  2
AcmFCFStdISO
  3
"Amdt_StdImp|Product Description: AutoCAD Mechanical 2004 DX|Company: Autodesk"
 90
        0
280
     0
281
     0
  0
CLASS
  1
ACMWELDSTANDARDISO
  2
AcmWeldingStdISO
  3
"Amdt_StdImp|Product Description: AutoCAD Mechanical 2004 DX|Company: Autodesk"
 90
        0
280
     0
281
     0
  0
CLASS
  1
ACMIDSTANDARDISO
  2
AcmIdStdISO
  3
"Amdt_StdImp|Product Description: AutoCAD Mechanical 2004 DX|Company: Autodesk"
 90
        0
280
     0
281
     0
  0
CLASS
  1
ACMDATUMSTANDARDISO
  2
AcmDatumStdISO
  3
"Amdt_StdImp|Product Description: AutoCAD Mechanical 2004 DX|Company: Autodesk"
 90
        0
280
     0
281
     0
  0
CLASS
  1
ACMBOMSTANDARDISO
  2
AcmBOMStdISO
  3
"Amdt_StdImp|Product Description: AutoCAD Mechanical 2004 DX|Company: Autodesk"
 90
        0
280
     0
281
     0
  0
CLASS
  1
ACMDETAILSTANDARDISO
  2
AmdtDetailSymStdISO
  3
"Amdt_StdImp|Product Description: AutoCAD Mechanical 2004 DX|Company: Autodesk"
 90
        0
280
     0
281
     0
  0
CLASS
  1
ACMSECTIONSTANDARDISO
  2
AmdtSectionSymStdISO
  3
"Amdt_StdImp|Product Description: AutoCAD Mechanical 2004 DX|Company: Autodesk"
 90
        0
280
     0
281
     0
  0
CLASS
  1
ACMCENTERLINESTANDARDISO
  2
AmdtCenterLineStdISO
  3
"Amdt_StdImp|Product Description: AutoCAD Mechanical 2004 DX|Company: Autodesk"
 90
        0
280
     0
281
     0
  0
CLASS
  1
ACMNOTESTANDARDISO
  2
AmdtNoteStdISO
  3
"Amdt_StdImp|Product Description: AutoCAD Mechanical 2004 DX|Company: Autodesk"
 90
        0
280
     0
281
     0
  0
CLASS
  1
ACAMGLAYSTD
  2
AcAmgLayStd
  3
"AcAmgLayStd|Product Description: AutoCAD Mechanical 2000|Company: Autodesk"
 90
        0
280
     0
281
     0
  0
CLASS
  1
ACAMGDIMSTD
  2
AcAmgDimStd
  3
"AcAmgDimStd|Product Description: AutoCAD Mechanical 2000|Company: Autodesk"
 90
        0
280
     0
281
     0
  0
CLASS
  1
ACAMGHOLECHARTSTDISO
  2
AcAmgHoleChartStdISO
  3
ACMSYMBB_MODULE_NAME
 90
        0
280
     0
281
     0
  0
CLASS
  1
ACAMGTITLESTD
  2
AcAmgTitleStd
  3
"TITLEAPP"
 90
        0
280
     0
281
     0
  0
CLASS
  1
LAYER_INDEX
  2
AcDbLayerIndex
  3
ObjectDBX Classes
 90
    32768
280
     0
281
     0
  0
CLASS
  1
IDBUFFER
  2
AcDbIdBuffer
  3
ObjectDBX Classes
 90
    32768
280
     0
281
     0
  0
CLASS
  1
DICTIONARYVAR
  2
AcDbDictionaryVar
  3
ObjectDBX Classes
 90
        0
280
     0
281
     0
  0
CLASS
  1
AM_DRAWING_MGR
  2
AcDmDwgMgr
  3
AcMechDwgViewMgmt
 90
        0
280
     0
281
     0
  0
CLASS
  1
AM_DWG_DOCUMENT
  2
AcDmDwgDocument
  3
AcMechDwgViewMgmt
 90
        0
280
     0
281
     0
  0
CLASS
  1
AM_DWG_SHEET
  2
AcDmSheet
  3
AcMechDwgViewMgmt
 90
        0
280
     0
281
     0
  0
CLASS
  1
AM_VIEWDIMPARMAP
  2
AcDmViewDimParMap
  3
AcMechDwgViewMgmt
 90
        0
280
     0
281
     0
  0
CLASS
  1
AM_DWGMGR_NAME
  2
AcDmDwgMgrName
  3
AcMechDwgViewMgmt
 90
        0
280
     0
281
     0
  0
CLASS
  1
AMDTMENUSTATEMGR
  2
AmdtMenuStateMgr
  3
McadcomServices
 90
        0
280
     0
281
     0
  0
CLASS
  1
AMDTMCOMMENUSTATE
  2
AmdtMcomMenuState
  3
McadcomServices
 90
        0
280
     0
281
     0
  0
CLASS
  1
MAPIAMMOUDLE
  2
MApiAmModule
  3
MApiAmServices
 90
        0
280
     0
281
     0
  0
CLASS
  1
AMDTADMENUSTATE
  2
AmdtAdMenuState
  3
DesignerServices
 90
        0
280
     0
281
     0
  0
CLASS
  1
ADAPPL
  2
AcAdAppl
  3
DesignerServices
 90
        0
280
     0
281
     0
  0
CLASS
  1
DEPMGR
  2
AcAdDepMgr
  3
DesignerServices
 90
        0
280
     0
281
     0
  0
CLASS
  1
PARAMMGR
  2
AcAdParamMgr
  3
DesignerServices
 90
        0
280
     0
281
     0
  0
CLASS
  1
PARAMSCOPE
  2
AcAdParamScope
  3
DesignerServices
 90
        0
280
     0
281
     0
  0
CLASS
  1
NAMEDAPPL
  2
AcAdNamedAppl
  3
DesignerServices
 90
        0
280
     0
281
     0
  0
CLASS
  1
AMDTDMMENUSTATE
  2
AmdtDmMenuState
  3
AcMechDwgViewMgmt
 90
        0
280
     0
281
     0
  0
CLASS
  1
AMDTAMMENUSTATE
  2
AmdtAmMenuState
  3
DesignerAssemblies
 90
        0
280
     0
281
     0
  0
CLASS
  1
ACAMPROJECT
  2
AcAmProject
  3
DesignerAssemblies
 90
        0
280
     0
281
     0
  0
CLASS
  1
ACAMGRCOMPDEF
  2
AcAmGrCompDef
  3
DesignerAssemblies
 90
        0
280
     0
281
     0
  0
CLASS
  1
ACCMCONTEXT
  2
AcCmContext
  3
DesignerAssemblies
 90
        0
280
     0
281
     0
  0
CLASS
  1
ACAMCOMPDEF
  2
AcAmCompDef
  3
DesignerAssemblies
 90
        0
280
     0
281
     0
  0
CLASS
  1
ACAMCOMPDEFMGR
  2
AcAmCompDefMgr
  3
DesignerAssemblies
 90
        0
280
     0
281
     0
  0
CLASS
  1
AMCONTEXTMGR
  2
AcAmContextMgr
  3
DesignerAssemblies
 90
        0
280
     0
281
     0
  0
CLASS
  1
ACAMCONTEXTMODELER
  2
AcAmContextModeler
  3
DesignerAssemblies
 90
        0
280
     0
281
     0
  0
CLASS
  1
ACMTHREADLINESTANDARDISO
  2
AmdtThreadLineStdISO
  3
"Amdt_StdImp|Product Description: AutoCAD Mechanical 2004 DX|Company: Autodesk"
 90
        0
280
     0
281
     0
  0
CLASS
  1
CATALOGSTATE
  2
AcAmCatalogState
  3
DesignerAssemblies
 90
        0
280
     0
281
     0
  0
CLASS
  1
ACAMGRCOMPDEFSET
  2
AcAmGrCompDefSet
  3
DesignerAssemblies
 90
        0
280
     0
281
     0
  0
CLASS
  1
AMDTBROWSERDBTAB
  2
AmdtBrowserDbTab
  3
McadcomServices
 90
        0
280
     0
281
     0
  0
CLASS
  1
CBROWSERAPPOBJECT
  2
CBrowserAppObject
  3
McadcomServices
 90
        0
280
     0
281
     0
  0
CLASS
  1
DM_PLACEHOLDER
  2
AcDmSelsetPlaceholder
  3
AcMechDwgViewMgmt
 90
        0
280
     0
281
     0
  0
CLASS
  1
TABLESTYLE
  2
AcDbTableStyle
  3
ObjectDBX Classes
 90
     2047
280
     0
281
     0
  0
CLASS
  1
VAACXREFPANELOBJECT
  2
VaAcXREFPanelObject
  3
VAAC_ADDIN
 90
    32768
280
     0
281
     0
  0
CLASS
  1
VAACIMAGEINVENTORY
  2
VaAcImageInventory
  3
VAAC_ADDIN
 90
    32768
280
     0
281
     0
  0
CLASS
  1
AMDTNOTETEMPLATEDB
  2
AmdtNoteTemplateDB
  3
AMDT_STDIMP_MODULE_NAME
 90
        0
280
     0
281
     0
  0
CLASS
  1
ACAMGFILTERDAT
  2
AcAmgFilterDat
  3
"AcadM|Product Description: AutoCAD Mechanical 2000|Company: Autodesk"
 90
        0
280
     0
281
     0
  0
CLASS
  1
ACMBOM
  2
AcmBom
  3
"AcmSymBB|Product Description: AutoCAD Mechanical 2004 DX|Company: Autodesk"
 90
    32768
280
     0
281
     0
  0
CLASS
  1
AMDTFORMULAUPDATEDISPATCHER
  2
AmdtFormulaUpdateDispatcher
  3
AcMeServices
 90
    32768
280
     0
281
     0
  0
CLASS
  1
DIMASSOC
  2
AcDbDimAssoc
  3
"AcDbDimAssoc|Product Desc:     AcDim ARX App For Dimension|Company:          Autodesk, Inc.|WEB Address:      www.autodesk.com"
 90
        0
280
     0
281
     0
  0
CLASS
  1
ACMSTANDARDANSI
  2
AcmStandardANSI
  3
"Amdt_StdImp|Product Description: AutoCAD Mechanical 2004 DX|Company: Autodesk"
 90
        0
280
     0
281
     0
  0
CLASS
  1
ACMSURFSTANDARDANSI
  2
AcmSurfTextStdANSI
  3
"Amdt_StdImp|Product Description: AutoCAD Mechanical 2004 DX|Company: Autodesk"
 90
        0
280
     0
281
     0
  0
CLASS
  1
ACMFCFSTANDARDANSI
  2
AcmFCFStdANSI
  3
"Amdt_StdImp|Product Description: AutoCAD Mechanical 2004 DX|Company: Autodesk"
 90
        0
280
     0
281
     0
  0
CLASS
  1
ACMWELDSTANDARDANSI
  2
AcmWeldingStdANSI
  3
"Amdt_StdImp|Product Description: AutoCAD Mechanical 2004 DX|Company: Autodesk"
 90
        0
280
     0
281
     0
  0
CLASS
  1
ACMIDSTANDARDANSI
  2
AcmIdStdANSI
  3
"Amdt_StdImp|Product Description: AutoCAD Mechanical 2004 DX|Company: Autodesk"
 90
        0
280
     0
281
     0
  0
CLASS
  1
ACMDATUMSTANDARDANSI
  2
AcmDatumStdANSI
  3
"Amdt_StdImp|Product Description: AutoCAD Mechanical 2004 DX|Company: Autodesk"
 90
        0
280
     0
281
     0
  0
CLASS
  1
ACMBOMSTANDARDANSI
  2
AcmBOMStdANSI
  3
"Amdt_StdImp|Product Description: AutoCAD Mechanical 2004 DX|Company: Autodesk"
 90
        0
280
     0
281
     0
  0
CLASS
  1
ACMDETAILSTANDARDANSI
  2
AmdtDetailSymStdANSI
  3
"Amdt_StdImp|Product Description: AutoCAD Mechanical 2004 DX|Company: Autodesk"
 90
        0
280
     0
281
     0
  0
CLASS
  1
ACMSECTIONSTANDARDANSI
  2
AmdtSectionSymStdANSI
  3
"Amdt_StdImp|Product Description: AutoCAD Mechanical 2004 DX|Company: Autodesk"
 90
        0
280
     0
281
     0
  0
CLASS
  1
ACMCENTERLINESTANDARDANSI
  2
AmdtCenterLineStdANSI
  3
"Amdt_StdImp|Product Description: AutoCAD Mechanical 2004 DX|Company: Autodesk"
 90
        0
280
     0
281
     0
  0
CLASS
  1
ACMTHREADLINESTANDARDANSI
  2
AmdtThreadLineStdANSI
  3
"Amdt_StdImp|Product Description: AutoCAD Mechanical 2004 DX|Company: Autodesk"
 90
        0
280
     0
281
     0
  0
CLASS
  1
ACMNOTESTANDARDANSI
  2
AmdtNoteStdANSI
  3
"Amdt_StdImp|Product Description: AutoCAD Mechanical 2004 DX|Company: Autodesk"
 90
        0
280
     0
281
     0
  0
CLASS
  1
ACAMGHOLECHARTSTDANSI
  2
AcAmgHoleChartStdANSI
  3
ACMSYMBB_MODULE_NAME
 90
        0
280
     0
281
     0
  0
CLASS
  1
SORTENTSTABLE
  2
AcDbSortentsTable
  3
ObjectDBX Classes
 90
        0
280
     0
281
     0
  0
ENDSEC
  0
SECTION
  2
TABLES
  0
TABLE
  2
VPORT
  5
8
330
0
100
AcDbSymbolTable
 70
     5
  0
VPORT
  5
14C8
330
8
100
AcDbSymbolTableRecord
100
AcDbViewportTableRecord
  2
*Active
 70
     0
 10
0.0
 20
0.0
 11
1.0
 21
1.0
 12
1394.41194145027
 22
965.4942288708239
 13
0.0
 23
0.0
 14
2.5
 24
2.5
 15
10.0
 25
10.0
 16
0.0
 26
0.0
 36
1.0
 17
0.0
 27
0.0
 37
0.0
 40
1017.48049549195
 41
1.494545454545454
 42
50.0
 43
0.0
 44
0.0
 50
0.0
 51
0.0
 71
     0
 72
   100
 73
     1
 74
     3
 75
     0
 76
     0
 77
     0
 78
     0
281
     0
 65
     1
110
0.0
120
0.0
130
0.0
111
1.0
121
0.0
131
0.0
112
0.0
122
1.0
132
0.0
 79
     0
146
0.0
  0
ENDTAB
  0
TABLE
  2
LTYPE
  5
5
330
0
100
AcDbSymbolTable
 70
    18
  0
LTYPE
  5
14
330
5
100
AcDbSymbolTableRecord
100
AcDbLinetypeTableRecord
  2
ByBlock
 70
     0
  3

 72
    65
 73
     0
 40
0.0
  0
LTYPE
  5
15
330
5
100
AcDbSymbolTableRecord
100
AcDbLinetypeTableRecord
  2
ByLayer
 70
     0
  3

 72
    65
 73
     0
 40
0.0
  0
LTYPE
  5
16
330
5
100
AcDbSymbolTableRecord
100
AcDbLinetypeTableRecord
  2
Continuous
 70
     0
  3
Solid line
 72
    65
 73
     0
 40
0.0
  0
LTYPE
  5
64
330
5
100
AcDbSymbolTableRecord
100
AcDbLinetypeTableRecord
  2
AM_ISO02W050
 70
     0
  3
__ __ __ __ __ __ __ __ __ __ __ __ __ __ __
 72
    65
 73
     2
 40
7.5
 49
6.0
 74
     0
 49
-1.5
 74
     0
  0
LTYPE
  5
65
330
5
100
AcDbSymbolTableRecord
100
AcDbLinetypeTableRecord
  2
AM_ISO08W050
 70
     0
  3
____ . ____ . ____ . ____ . ____ . ____ . ____
 72
    65
 73
     4
 40
18.0
 49
12.0
 74
     0
 49
-1.5
 74
     0
 49
3.0
 74
     0
 49
-1.5
 74
     0
  0
LTYPE
  5
66
330
5
100
AcDbSymbolTableRecord
100
AcDbLinetypeTableRecord
  2
AM_ISO09W050
 70
     0
  3
_____ . . _____ . . _____ . . ____ .. ____
 72
    65
 73
     6
 40
22.5
 49
12.0
 74
     0
 49
-1.5
 74
     0
 49
3.0
 74
     0
 49
-1.5
 74
     0
 49
3.0
 74
     0
 49
-1.5
 74
     0
  0
LTYPE
  5
67
330
5
100
AcDbSymbolTableRecord
100
AcDbLinetypeTableRecord
  2
Amconstr
 70
     0
  3
_______________________
 72
    65
 73
     2
 40
9999.0
 49
9999.0
 74
     0
 49
0.0
 74
     0
  0
LTYPE
  5
68
330
5
100
AcDbSymbolTableRecord
100
AcDbLinetypeTableRecord
  2
AM_ISO08W050x2
 70
     0
  3
__ . __ . __ . __ . __ . __
 72
    65
 73
     4
 40
9.0
 49
6.0
 74
     0
 49
-0.75
 74
     0
 49
1.5
 74
     0
 49
-0.75
 74
     0
  0
LTYPE
  5
69
330
5
100
AcDbSymbolTableRecord
100
AcDbLinetypeTableRecord
  2
AM_ISO02W050x2
 70
     0
  3
 _ _ _ _ _ _ _ _ _ _ _ _
 72
    65
 73
     2
 40
3.75
 49
3.0
 74
     0
 49
-0.75
 74
     0
  0
LTYPE
  5
6C
330
5
100
AcDbSymbolTableRecord
100
AcDbLinetypeTableRecord
  2
Amzigzag
 70
     0
  3
/\/-/\/-/\/-/\/-/\/-/\/
 72
    65
 73
     2
 40
11.0001
 49
0.0001
 74
     4
 75
   136
340
22C
 46
0.04
 50
0.0
 44
0.0
 45
0.0
 49
-11.0
 74
     0
  0
LTYPE
  5
7A
330
5
100
AcDbSymbolTableRecord
100
AcDbLinetypeTableRecord
  2
ACISOWELD
 70
     0
  3
_ _ _ _ _
 72
    65
 73
     2
 40
2.0
 49
2.0
 74
     0
 49
-1.0
 74
     0
  0
LTYPE
  5
7B
330
5
100
AcDbSymbolTableRecord
100
AcDbLinetypeTableRecord
  2
ACISOTGB
 70
     0
  3
__ . . __ . .
 72
    65
 73
     6
 40
9.0
 49
4.0
 74
     0
 49
-1.0
 74
     0
 49
1.0
 74
     0
 49
-1.0
 74
     0
 49
1.0
 74
     0
 49
-1.0
 74
     0
  0
LTYPE
  5
7C
330
5
100
AcDbSymbolTableRecord
100
AcDbLinetypeTableRecord
  2
ACISOTGL
 70
     0
  3
_ _ _ _ _
 72
    65
 73
     2
 40
3.0
 49
2.0
 74
     0
 49
-1.0
 74
     0
  0
LTYPE
  5
7E
330
5
100
AcDbSymbolTableRecord
100
AcDbLinetypeTableRecord
  2
CENTER
 70
     0
  3
__ . __
 72
    65
 73
     4
 40
7.0
 49
4.0
 74
     0
 49
-1.0
 74
     0
 49
1.0
 74
     0
 49
-1.0
 74
     0
  0
LTYPE
  5
D8
330
5
100
AcDbSymbolTableRecord
100
AcDbLinetypeTableRecord
  2
HIDDEN
 70
     0
  3
Hidden __ __ __ __ __ __ __ __ __ __ __ __ __ _
 72
    65
 73
     2
 40
9.524999999999998
 49
6.349999999999999
 74
     0
 49
-3.174999999999999
 74
     0
  0
LTYPE
  5
D9
330
5
100
AcDbSymbolTableRecord
100
AcDbLinetypeTableRecord
  2
PHANTOM2
 70
     0
  3
Phantom (.5x) ___ _ _ ___ _ _ ___ _ _ ___ _ _
 72
    65
 73
     6
 40
31.75
 49
15.875
 74
     0
 49
-3.174999999999999
 74
     0
 49
3.174999999999999
 74
     0
 49
-3.174999999999999
 74
     0
 49
3.174999999999999
 74
     0
 49
-3.174999999999999
 74
     0
  0
LTYPE
  5
48A
330
5
100
AcDbSymbolTableRecord
100
AcDbLinetypeTableRecord
  2
DASHED
 70
     0
  3
Dashed __ __ __ __ __ __ __ __ __ __ __ __ __ _
 72
    65
 73
     2
 40
0.75
 49
0.5
 74
     0
 49
-0.25
 74
     0
  0
LTYPE
  5
48B
330
5
100
AcDbSymbolTableRecord
100
AcDbLinetypeTableRecord
  2
GEN3A
 70
     0
  3
 - - - - -
 72
    65
 73
     2
 40
3.125
 49
2.25
 74
     0
 49
-0.875
 74
     0
  0
LTYPE
  5
490
330
5
100
AcDbSymbolTableRecord
100
AcDbLinetypeTableRecord
  2
ACANSTGB
 70
     0
  3
__ . . __ . .
 72
    65
 73
     6
 40
0.35433070866
 49
0.15748031496
 74
     0
 49
-0.03937007874
 74
     0
 49
0.03937007874
 74
     0
 49
-0.03937007874
 74
     0
 49
0.03937007874
 74
     0
 49
-0.03937007874
 74
     0
  0
LTYPE
  5
491
330
5
100
AcDbSymbolTableRecord
100
AcDbLinetypeTableRecord
  2
ACANSTGL
 70
     0
  3
_ _ _ _ _
 72
    65
 73
     2
 40
0.11811023622
 49
0.07874015748
 74
     0
 49
-0.03937007874
 74
     0
  0
ENDTAB
  0
TABLE
  2
LAYER
  5
2
330
0
100
AcDbSymbolTable
 70
     5
  0
LAYER
  5
10
330
2
100
AcDbSymbolTableRecord
100
AcDbLayerTableRecord
  2
0
 70
     0
 62
     7
  6
Continuous
370
    -3
390
F
  0
LAYER
  5
492
330
2
100
AcDbSymbolTableRecord
100
AcDbLayerTableRecord
  2
Defpoints
 70
     0
 62
     7
  6
Continuous
290
     0
370
    -3
390
F
  0
LAYER
  5
493
330
2
100
AcDbSymbolTableRecord
100
AcDbLayerTableRecord
  2
3A
 70
     0
 62
     6
  6
GEN3A
370
    -3
390
F
  0
LAYER
  5
496
330
2
100
AcDbSymbolTableRecord
100
AcDbLayerTableRecord
  2
8
 70
     0
 62
     1
  6
Continuous
370
    -3
390
F
  0
LAYER
  5
F59
330
2
100
AcDbSymbolTableRecord
100
AcDbLayerTableRecord
  2
AM_5
 70
     0
 62
     3
  6
Continuous
370
    25
390
F
1001
AcAecLayerStandard
1000

1000

  0
ENDTAB
  0
TABLE
  2
STYLE
  5
3
330
0
100
AcDbSymbolTable
 70
     6
  0
STYLE
  5
11
330
3
100
AcDbSymbolTableRecord
100
AcDbTextStyleTableRecord
  2
STANDARD
 70
     0
 40
0.0
 41
1.0
 50
0.0
 71
     0
 42
2.5
  3
ISOCP.SHX
  4

  0
STYLE
  5
6D
330
3
100
AcDbSymbolTableRecord
100
AcDbTextStyleTableRecord
  2
ACISOTS
 70
     0
 40
1.0
 41
1.0
 50
0.0
 71
     0
 42
2.5
  3
isocp.shx
  4
bigfont.shx
  0
STYLE
  5
79
330
3
100
AcDbSymbolTableRecord
100
AcDbTextStyleTableRecord
  2
ACISOGDT
 70
     0
 40
0.0
 41
1.0
 50
0.0
 71
     0
 42
2.5
  3
AMGDT
  4
bigfont.shx
  0
STYLE
  5
22C
330
3
100
AcDbSymbolTableRecord
100
AcDbTextStyleTableRecord
  2

 70
     1
 40
0.0
 41
1.0
 50
0.0
 71
     0
 42
2.5
  3
genltshp.shx
  4

  0
STYLE
  5
49A
330
3
100
AcDbSymbolTableRecord
100
AcDbTextStyleTableRecord
  2
ACANSTS
 70
     0
 40
1.0
 41
1.0
 50
0.0
 71
     0
 42
0.2
  3
romans.shx
  4

  0
STYLE
  5
49B
330
3
100
AcDbSymbolTableRecord
100
AcDbTextStyleTableRecord
  2
ACANSGDT
 70
     0
 40
0.0
 41
1.0
 50
0.0
 71
     0
 42
0.2
  3
amgdt.shx
  4

  0
ENDTAB
  0
TABLE
  2
VIEW
  5
6
330
0
100
AcDbSymbolTable
 70
     0
  0
ENDTAB
  0
TABLE
  2
UCS
  5
7
330
0
100
AcDbSymbolTable
 70
     0
  0
ENDTAB
  0
TABLE
  2
APPID
  5
9
330
0
100
AcDbSymbolTable
 70
    25
  0
APPID
  5
12
330
9
100
AcDbSymbolTableRecord
100
AcDbRegAppTableRecord
  2
ACAD
 70
     0
  0
APPID
  5
46
330
9
100
AcDbSymbolTableRecord
100
AcDbRegAppTableRecord
  2
MCAD_NO_VIS
 70
     0
  0
APPID
  5
47
330
9
100
AcDbSymbolTableRecord
100
AcDbRegAppTableRecord
  2
ACAD_TEMP_GRAPHIC
 70
     0
  0
APPID
  5
58
330
9
100
AcDbSymbolTableRecord
100
AcDbRegAppTableRecord
  2
ACATTRIBSERVICES
 70
     0
  0
APPID
  5
EE
330
9
100
AcDbSymbolTableRecord
100
AcDbRegAppTableRecord
  2
AD_DRAW
 70
     0
  0
APPID
  5
10C
330
9
100
AcDbSymbolTableRecord
100
AcDbRegAppTableRecord
  2
DESIGNERASSEMBLIES
 70
     0
  0
APPID
  5
111
330
9
100
AcDbSymbolTableRecord
100
AcDbRegAppTableRecord
  2
ACADM_DIM_EDIT
 70
     0
  0
APPID
  5
112
330
9
100
AcDbSymbolTableRecord
100
AcDbRegAppTableRecord
  2
AMDT_DM_ADJ
 70
     0
  0
APPID
  5
1A3
330
9
100
AcDbSymbolTableRecord
100
AcDbRegAppTableRecord
  2
ACAD_DSTYLE_DIMARC_LENGTH_SYMBOL
 70
     0
  0
APPID
  5
1A4
330
9
100
AcDbSymbolTableRecord
100
AcDbRegAppTableRecord
  2
ACAD_DSTYLE_DIMJOGGED_JOGANGLE_SYMBOL
 70
     0
  0
APPID
  5
EA5
330
9
100
AcDbSymbolTableRecord
100
AcDbRegAppTableRecord
  2
AcAecLayerStandard
 70
     0
  0
APPID
  5
EA7
330
9
100
AcDbSymbolTableRecord
100
AcDbRegAppTableRecord
  2
GENIUS_GENOBJ-N-CEN_13
 70
     0
  0
APPID
  5
EA8
330
9
100
AcDbSymbolTableRecord
100
AcDbRegAppTableRecord
  2
GENIUS_GENODEF_13
 70
     0
  0
APPID
  5
EA9
330
9
100
AcDbSymbolTableRecord
100
AcDbRegAppTableRecord
  2
GENIUS_GENCEN_19
 70
     0
  0
APPID
  5
EC8
330
9
100
AcDbSymbolTableRecord
100
AcDbRegAppTableRecord
  2
GENIUS_GENOENT_13
 70
     0
  0
APPID
  5
EC9
330
9
100
AcDbSymbolTableRecord
100
AcDbRegAppTableRecord
  2
GENIUS_GENOLIS_13
 70
     0
  0
APPID
  5
ECA
330
9
100
AcDbSymbolTableRecord
100
AcDbRegAppTableRecord
  2
GENIUS_GENOBJ-N-CRS_13
 70
     0
  0
APPID
  5
ECB
330
9
100
AcDbSymbolTableRecord
100
AcDbRegAppTableRecord
  2
GENIUS_GENOREF_13
 70
     0
  0
APPID
  5
1352
330
9
100
AcDbSymbolTableRecord
100
AcDbRegAppTableRecord
  2
ACAD_EXEMPT_FROM_CAD_STANDARDS
 70
     0
  0
APPID
  5
13BC
330
9
100
AcDbSymbolTableRecord
100
AcDbRegAppTableRecord
  2
ACAD_DSTYLE_DIMTEXT_FILL
 70
     0
  0
APPID
  5
13BD
330
9
100
AcDbSymbolTableRecord
100
AcDbRegAppTableRecord
  2
ACAD_DSTYLE_DIMEXT_LENGTH
 70
     0
  0
APPID
  5
13BE
330
9
100
AcDbSymbolTableRecord
100
AcDbRegAppTableRecord
  2
ACAD_DSTYLE_DIMEXT_ENABLED
 70
     0
  0
APPID
  5
13BF
330
9
100
AcDbSymbolTableRecord
100
AcDbRegAppTableRecord
  2
ACAD_DSTYLE_DIM_LINETYPE
 70
     0
  0
APPID
  5
13C0
330
9
100
AcDbSymbolTableRecord
100
AcDbRegAppTableRecord
  2
ACAD_DSTYLE_DIM_EXT1_LINETYPE
 70
     0
  0
APPID
  5
13C1
330
9
100
AcDbSymbolTableRecord
100
AcDbRegAppTableRecord
  2
ACAD_DSTYLE_DIM_EXT2_LINETYPE
 70
     0
  0
ENDTAB
  0
TABLE
  2
DIMSTYLE
  5
A
330
0
100
AcDbSymbolTable
 70
    14
100
AcDbDimStyleTable
 71
     1
340
81
  0
DIMSTYLE
105
81
330
A
100
AcDbSymbolTableRecord
100
AcDbDimStyleTableRecord
  2
AM_ISO
 70
     0
  4
"
 41
2.5
 42
1.0
 43
10.0
 44
1.0
 47
0.1
 48
0.1
 73
     0
 74
     0
 77
     1
 78
     8
 79
     2
140
3.5
141
0.0
143
0.0393701
146
0.71
147
1.5
172
     1
176
   256
177
   256
178
     2
271
     2
272
     3
274
     4
283
     0
284
     8
340
11
371
    -1
372
    -1
1001
ACAD_DSTYLE_DIMARC_LENGTH_SYMBOL
1070
   379
1070
     1
1001
ACAD_DSTYLE_DIMJOGGED_JOGANGLE_SYMBOL
1070
   384
1040
0.7853981633974483
  0
DIMSTYLE
105
82
330
A
100
AcDbSymbolTableRecord
100
AcDbDimStyleTableRecord
  2
AM_ISO$3
 70
     0
  4
"
 41
2.5
 42
1.0
 43
10.0
 44
1.0
 47
0.1
 48
0.1
 73
     0
 77
     1
 78
     8
 79
     2
140
3.5
141
0.0
143
0.0393701
146
0.71
147
1.5
176
   256
177
   256
178
     2
271
     2
272
     3
274
     4
283
     0
284
     8
288
     1
289
     0
340
11
371
    -1
372
    -1
1001
ACAD_DSTYLE_DIMARC_LENGTH_SYMBOL
1070
   379
1070
     1
1001
ACAD_DSTYLE_DIMJOGGED_JOGANGLE_SYMBOL
1070
   384
1040
0.7853981633974483
  0
DIMSTYLE
105
83
330
A
100
AcDbSymbolTableRecord
100
AcDbDimStyleTableRecord
  2
AM_ISO$4
 70
     0
  4
"
 41
2.5
 42
1.0
 43
10.0
 44
1.0
 47
0.1
 48
0.1
 73
     0
 77
     1
 78
     8
 79
     2
140
3.5
141
0.0
143
0.0393701
146
0.71
147
1.5
176
   256
177
   256
178
     2
271
     2
272
     3
274
     4
283
     0
284
     8
288
     1
289
     0
340
11
371
    -1
372
    -1
1001
ACAD_DSTYLE_DIMARC_LENGTH_SYMBOL
1070
   379
1070
     1
1001
ACAD_DSTYLE_DIMJOGGED_JOGANGLE_SYMBOL
1070
   384
1040
0.7853981633974483
  0
DIMSTYLE
105
84
330
A
100
AcDbSymbolTableRecord
100
AcDbDimStyleTableRecord
  2
AM_ISO$6
 70
     0
  4
"
 41
2.5
 42
1.0
 43
10.0
 44
1.0
 47
0.1
 48
0.1
 73
     0
 74
     0
 78
     8
 79
     2
140
3.5
141
0.0
143
0.0393701
146
0.71
147
1.5
172
     1
176
   256
177
   256
178
     2
271
     2
272
     3
274
     4
283
     0
284
     8
340
11
371
    -1
372
    -1
1001
ACAD_DSTYLE_DIMARC_LENGTH_SYMBOL
1070
   379
1070
     1
1001
ACAD_DSTYLE_DIMJOGGED_JOGANGLE_SYMBOL
1070
   384
1040
0.7853981633974483
  0
DIMSTYLE
105
85
330
A
100
AcDbSymbolTableRecord
100
AcDbDimStyleTableRecord
  2
AM_ISO$7
 70
     0
  4
"
 41
2.5
 42
1.0
 43
10.0
 44
1.0
 47
0.1
 48
0.1
 73
     0
 74
     0
 77
     1
 78
     8
 79
     2
140
5.0
141
0.0
143
0.0393701
146
0.71
147
1.5
172
     1
176
   256
177
   256
178
     2
271
     2
272
     3
274
     4
283
     0
284
     8
340
11
371
    -1
372
    -1
1001
ACAD_DSTYLE_DIMARC_LENGTH_SYMBOL
1070
   379
1070
     1
1001
ACAD_DSTYLE_DIMJOGGED_JOGANGLE_SYMBOL
1070
   384
1040
0.7853981633974483
  0
DIMSTYLE
105
86
330
A
100
AcDbSymbolTableRecord
100
AcDbDimStyleTableRecord
  2
AM_ISO$SF
 70
     0
  4
"
 41
2.5
 42
1.0
 43
10.0
 44
1.0
 47
0.1
 48
0.1
 73
     0
 74
     0
 75
     1
 76
     1
 77
     1
 78
     8
 79
     2
140
3.5
141
0.0
143
0.0393701
146
0.71
147
1.5
172
     1
176
   256
177
   256
178
     2
271
     2
272
     3
274
     4
283
     0
284
     8
340
11
371
    -1
372
    -1
1001
ACAD_DSTYLE_DIMARC_LENGTH_SYMBOL
1070
   379
1070
     1
1001
ACAD_DSTYLE_DIMJOGGED_JOGANGLE_SYMBOL
1070
   384
1040
0.7853981633974483
  0
DIMSTYLE
105
8B
330
A
100
AcDbSymbolTableRecord
100
AcDbDimStyleTableRecord
  2
AM_ISO$SH
 70
     0
  4
"
 41
2.5
 42
1.0
 43
10.0
 44
1.0
 47
0.1
 48
0.1
 73
     0
 74
     0
 75
     1
 76
     1
 77
     1
 78
     8
 79
     2
140
3.5
141
0.0
143
0.0393701
144
2.0
146
0.71
147
1.5
172
     1
173
     1
176
   256
177
   256
178
     2
271
     2
272
     3
274
     4
283
     0
284
     8
340
11
343
87
371
    -1
372
    -1
1001
ACAD_DSTYLE_DIMARC_LENGTH_SYMBOL
1070
   379
1070
     1
1001
ACAD_DSTYLE_DIMJOGGED_JOGANGLE_SYMBOL
1070
   384
1040
0.7853981633974483
  0
DIMSTYLE
105
49D
330
A
100
AcDbSymbolTableRecord
100
AcDbDimStyleTableRecord
  2
AM_ANSI
 70
     0
  4
mm
 41
0.1
 42
0.05
 43
0.5
 44
0.1
 47
0.1
 48
0.1
 78
     7
 79
     2
140
0.12
141
0.0
146
0.71
147
0.06
176
   256
177
   256
178
     2
274
     4
284
     7
340
11
371
    -1
372
    -1
1001
ACAD_DSTYLE_DIMARC_LENGTH_SYMBOL
1070
   379
1070
     1
1001
ACAD_DSTYLE_DIMJOGGED_JOGANGLE_SYMBOL
1070
   384
1040
0.7853981633974483
  0
DIMSTYLE
105
49E
330
A
100
AcDbSymbolTableRecord
100
AcDbDimStyleTableRecord
  2
AM_ANSI$3
 70
     0
  4
mm
 41
0.1
 42
0.05
 43
0.5
 44
0.1
 47
0.1
 48
0.1
 78
     7
 79
     2
140
0.12
141
0.0
146
0.71
147
0.06
176
   256
177
   256
178
     2
274
     4
284
     7
288
     1
289
     0
340
11
371
    -1
372
    -1
1001
ACAD_DSTYLE_DIMARC_LENGTH_SYMBOL
1070
   379
1070
     1
1001
ACAD_DSTYLE_DIMJOGGED_JOGANGLE_SYMBOL
1070
   384
1040
0.7853981633974483
  0
DIMSTYLE
105
49F
330
A
100
AcDbSymbolTableRecord
100
AcDbDimStyleTableRecord
  2
AM_ANSI$4
 70
     0
  4
mm
 41
0.1
 42
0.05
 43
0.5
 44
0.1
 47
0.1
 48
0.1
 78
     7
 79
     2
140
0.12
141
0.0
146
0.71
147
0.06
176
   256
177
   256
178
     2
274
     4
284
     7
288
     1
289
     0
340
11
371
    -1
372
    -1
1001
ACAD_DSTYLE_DIMARC_LENGTH_SYMBOL
1070
   379
1070
     1
1001
ACAD_DSTYLE_DIMJOGGED_JOGANGLE_SYMBOL
1070
   384
1040
0.7853981633974483
  0
DIMSTYLE
105
4A0
330
A
100
AcDbSymbolTableRecord
100
AcDbDimStyleTableRecord
  2
AM_ANSI$7
 70
     0
  4
mm
 41
0.1
 42
0.05
 43
0.5
 44
0.1
 47
0.1
 48
0.1
 78
     7
 79
     2
140
0.24
141
0.0
146
0.71
147
0.06
176
   256
177
   256
178
     2
274
     4
284
     7
340
11
371
    -1
372
    -1
1001
ACAD_DSTYLE_DIMARC_LENGTH_SYMBOL
1070
   379
1070
     1
1001
ACAD_DSTYLE_DIMJOGGED_JOGANGLE_SYMBOL
1070
   384
1040
0.7853981633974483
  0
DIMSTYLE
105
4A1
330
A
100
AcDbSymbolTableRecord
100
AcDbDimStyleTableRecord
  2
AM_ANSI$SF
 70
     0
  4
mm
 41
0.1
 42
0.05
 43
0.5
 44
0.1
 47
0.1
 48
0.1
 75
     1
 76
     1
 78
     7
 79
     2
140
0.12
141
0.0
146
0.71
147
0.06
176
   256
177
   256
178
     2
274
     4
284
     7
340
11
371
    -1
372
    -1
1001
ACAD_DSTYLE_DIMARC_LENGTH_SYMBOL
1070
   379
1070
     1
1001
ACAD_DSTYLE_DIMJOGGED_JOGANGLE_SYMBOL
1070
   384
1040
0.7853981633974483
  0
DIMSTYLE
105
4A2
330
A
100
AcDbSymbolTableRecord
100
AcDbDimStyleTableRecord
  2
AM_ANSI$SH
 70
     0
  4
mm
 41
0.1
 42
0.05
 43
0.5
 44
0.1
 47
0.1
 48
0.1
 75
     1
 76
     1
 78
     7
 79
     2
140
0.12
141
0.0
146
0.71
147
0.06
173
     1
176
   256
177
   256
178
     2
274
     4
284
     7
340
11
343
87
371
    -1
372
    -1
1001
ACAD_DSTYLE_DIMARC_LENGTH_SYMBOL
1070
   379
1070
     1
1001
ACAD_DSTYLE_DIMJOGGED_JOGANGLE_SYMBOL
1070
   384
1040
0.7853981633974483
  0
DIMSTYLE
105
107C
102
{ACAD_REACTORS
330
1124
330
132C
330
1182
330
1158
330
11AC
330
1214
330
10F4
330
1080
102
}
330
A
100
AcDbSymbolTableRecord
100
AcDbDimStyleTableRecord
  2
AM_ISO$0
 70
     0
  4
"
 41
2.5
 42
1.0
 43
10.0
 44
1.0
 47
0.1
 48
0.1
 73
     0
 74
     0
 77
     1
 78
     8
 79
     2
140
3.5
141
0.0
143
0.0393701
146
0.71
147
1.5
172
     1
176
   256
177
   256
178
     2
271
     2
272
     3
274
     4
283
     0
284
     8
340
11
371
    -1
372
    -1
1001
ACAD_DSTYLE_DIMARC_LENGTH_SYMBOL
1070
   379
1070
     1
1001
ACAD_DSTYLE_DIMJOGGED_JOGANGLE_SYMBOL
1070
   384
1040
0.7853981633974483
  0
ENDTAB
  0
TABLE
  2
BLOCK_RECORD
  5
1
330
0
100
AcDbSymbolTable
 70
    21
  0
BLOCK_RECORD
  5
1F
102
{ACAD_XDICTIONARY
360
8F
102
}
330
1
100
AcDbSymbolTableRecord
100
AcDbBlockTableRecord
  2
*Model_Space
340
22
  0
BLOCK_RECORD
  5
1B
330
1
100
AcDbSymbolTableRecord
100
AcDbBlockTableRecord
  2
*Paper_Space
340
1E
  0
BLOCK_RECORD
  5
23
330
1
100
AcDbSymbolTableRecord
100
AcDbBlockTableRecord
  2
*Paper_Space0
340
26
  0
BLOCK_RECORD
  5
87
330
1
100
AcDbSymbolTableRecord
100
AcDbBlockTableRecord
  2
GENAXEH
340
0
  0
BLOCK_RECORD
  5
1081
330
1
100
AcDbSymbolTableRecord
100
AcDbBlockTableRecord
  2
*D3
340
0
  0
BLOCK_RECORD
  5
10F5
330
1
100
AcDbSymbolTableRecord
100
AcDbBlockTableRecord
  2
*D4
340
0
  0
BLOCK_RECORD
  5
1125
330
1
100
AcDbSymbolTableRecord
100
AcDbBlockTableRecord
  2
*D5
340
0
  0
BLOCK_RECORD
  5
1159
330
1
100
AcDbSymbolTableRecord
100
AcDbBlockTableRecord
  2
*D6
340
0
  0
BLOCK_RECORD
  5
1183
330
1
100
AcDbSymbolTableRecord
100
AcDbBlockTableRecord
  2
*D7
340
0
  0
BLOCK_RECORD
  5
11AD
330
1
100
AcDbSymbolTableRecord
100
AcDbBlockTableRecord
  2
*D8
340
0
  0
BLOCK_RECORD
  5
1215
330
1
100
AcDbSymbolTableRecord
100
AcDbBlockTableRecord
  2
*D9
340
0
  0
BLOCK_RECORD
  5
132D
330
1
100
AcDbSymbolTableRecord
100
AcDbBlockTableRecord
  2
*D11
340
0
  0
ENDTAB
  0
ENDSEC
  0
SECTION
  2
BLOCKS
  0
BLOCK
  5
20
330
1F
100
AcDbEntity
  8
0
100
AcDbBlockBegin
  2
*Model_Space
 70
     0
 10
0.0
 20
0.0
 30
0.0
  3
*Model_Space
  1

  0
ENDBLK
  5
21
330
1F
100
AcDbEntity
  8
0
100
AcDbBlockEnd
  0
BLOCK
  5
1C
330
1B
100
AcDbEntity
 67
     1
  8
0
100
AcDbBlockBegin
  2
*Paper_Space
 70
     0
 10
0.0
 20
0.0
 30
0.0
  3
*Paper_Space
  1

  0
ENDBLK
  5
1D
330
1B
100
AcDbEntity
 67
     1
  8
0
100
AcDbBlockEnd
  0
BLOCK
  5
24
330
23
100
AcDbEntity
 67
     1
  8
0
100
AcDbBlockBegin
  2
*Paper_Space0
 70
     0
 10
0.0
 20
0.0
 30
0.0
  3
*Paper_Space0
  1

  0
ENDBLK
  5
25
330
23
100
AcDbEntity
 67
     1
  8
0
100
AcDbBlockEnd
  0
BLOCK
  5
89
330
87
100
AcDbEntity
  8
0
100
AcDbBlockBegin
  2
GENAXEH
 70
     0
 10
0.0
 20
0.0
 30
0.0
  3
GENAXEH
  1

  0
LINE
  5
88
330
87
100
AcDbEntity
  8
0
100
AcDbLine
 10
-1.0
 20
0.0
 30
0.0
 11
1.0
 21
0.0
 31
0.0
  0
ENDBLK
  5
8A
330
87
100
AcDbEntity
  8
0
100
AcDbBlockEnd
  0
BLOCK
  5
108B
330
1081
100
AcDbEntity
  8
0
100
AcDbBlockBegin
  2
*D3
 70
     1
 10
0.0
 20
0.0
 30
0.0
  3
*D3
  1

  0
LINE
  5
1493
330
1081
100
AcDbEntity
  8
AM_5
100
AcDbLine
 10
1488.01677210387
 20
653.0461762642082
 30
0.0
 11
1488.01677210387
 21
461.1255771227007
 31
0.0
  0
LINE
  5
1494
330
1081
100
AcDbEntity
  8
AM_5
100
AcDbLine
 10
1502.016772103871
 20
661.2373124144688
 30
0.0
 11
1502.016772103871
 21
461.1255771227007
 31
0.0
  0
LINE
  5
1495
330
1081
100
AcDbEntity
  8
AM_5
100
AcDbLine
 10
1478.01677210387
 20
462.1255771227007
 30
0.0
 11
1468.01677210387
 21
462.1255771227007
 31
0.0
  0
LINE
  5
1496
330
1081
100
AcDbEntity
  8
AM_5
100
AcDbLine
 10
1512.01677210387
 20
462.1255771227007
 30
0.0
 11
1540.01677210387
 21
462.1255771227007
 31
0.0
  0
LINE
  5
1497
330
1081
100
AcDbEntity
  8
AM_5
100
AcDbLine
 10
1488.01677210387
 20
462.1255771227007
 30
0.0
 11
1502.016772103871
 21
462.1255771227007
 31
0.0
  0
SOLID
  5
1498
330
1081
100
AcDbEntity
  8
AM_5
100
AcDbTrace
 10
1478.01677210387
 20
463.7922437893674
 30
0.0
 11
1478.01677210387
 21
460.458910456034
 31
0.0
 12
1488.01677210387
 22
462.1255771227007
 32
0.0
 13
1488.01677210387
 23
462.1255771227007
 33
0.0
  0
SOLID
  5
1499
330
1081
100
AcDbEntity
  8
AM_5
100
AcDbTrace
 10
1512.01677210387
 20
463.7922437893674
 30
0.0
 11
1512.01677210387
 21
460.458910456034
 31
0.0
 12
1502.016772103871
 22
462.1255771227007
 32
0.0
 13
1502.016772103871
 23
462.1255771227007
 33
0.0
  0
MTEXT
  5
149A
330
1081
100
AcDbEntity
  8
AM_5
 62
     2
100
AcDbMText
 10
1531.01677210387
 20
471.1255771227008
 30
0.0
 40
15.0
 41
0.0
 71
     5
 72
     1
  1
14
 73
     1
 44
1.0
1001
ACAD
1000
MTEXTBEGIN
1070
    73
1070
     1
1070
    44
1040
1.0
1070
    74
1070
     0
1000
MTEXTEND
  0
POINT
  5
149B
330
1081
100
AcDbEntity
  8
Defpoints
 62
     0
100
AcDbPoint
 10
1488.01677210387
 20
654.0461762642082
 30
0.0
  0
POINT
  5
149C
330
1081
100
AcDbEntity
  8
Defpoints
 62
     0
100
AcDbPoint
 10
1502.016772103871
 20
662.2373124144687
 30
0.0
  0
POINT
  5
149D
330
1081
100
AcDbEntity
  8
Defpoints
 62
     0
100
AcDbPoint
 10
1502.016772103871
 20
462.1255771227007
 30
0.0
  0
ENDBLK
  5
108C
330
1081
100
AcDbEntity
  8
0
100
AcDbBlockEnd
  0
BLOCK
  5
10FF
330
10F5
100
AcDbEntity
  8
0
100
AcDbBlockBegin
  2
*D4
 70
     1
 10
0.0
 20
0.0
 30
0.0
  3
*D4
  1

  0
LINE
  5
147B
330
10F5
100
AcDbEntity
  8
AM_5
100
AcDbLine
 10
1427.76677210387
 20
526.2641622510803
 30
0.0
 11
1161.214572117944
 21
526.2641622510804
 31
0.0
  0
LINE
  5
147C
330
10F5
100
AcDbEntity
  8
AM_5
100
AcDbLine
 10
1427.766772103873
 20
926.2641622510802
 30
0.0
 11
1161.214572117944
 21
926.2641622510804
 31
0.0
  0
LINE
  5
147D
330
10F5
100
AcDbEntity
  8
AM_5
100
AcDbLine
 10
1162.214572117944
 20
536.2641622510803
 30
0.0
 11
1162.214572117944
 21
916.2641622510804
 31
0.0
  0
SOLID
  5
147E
330
10F5
100
AcDbEntity
  8
AM_5
100
AcDbTrace
 10
1160.547905451277
 20
536.2641622510803
 30
0.0
 11
1163.881238784611
 21
536.2641622510803
 31
0.0
 12
1162.214572117944
 22
526.2641622510804
 32
0.0
 13
1162.214572117944
 23
526.2641622510804
 33
0.0
  0
SOLID
  5
147F
330
10F5
100
AcDbEntity
  8
AM_5
100
AcDbTrace
 10
1160.547905451277
 20
916.2641622510804
 30
0.0
 11
1163.881238784611
 21
916.2641622510804
 31
0.0
 12
1162.214572117944
 22
926.2641622510804
 32
0.0
 13
1162.214572117944
 23
926.2641622510804
 33
0.0
  0
MTEXT
  5
1480
330
10F5
100
AcDbEntity
  8
AM_5
 62
     2
100
AcDbMText
 10
1153.214572117944
 20
726.2641622510805
 30
0.0
 40
15.0
 41
0.0
 71
     5
 72
     1
  1
400
 11
0.0000000000000001
 21
1.0
 31
0.0
 73
     1
 44
1.0
1001
ACAD
1000
MTEXTBEGIN
1070
    73
1070
     1
1070
    44
1040
1.0
1070
    74
1070
     0
1000
MTEXTEND
  0
POINT
  5
1481
330
10F5
100
AcDbEntity
  8
Defpoints
 62
     0
100
AcDbPoint
 10
1428.76677210387
 20
526.2641622510803
 30
0.0
  0
POINT
  5
1482
330
10F5
100
AcDbEntity
  8
Defpoints
 62
     0
100
AcDbPoint
 10
1428.766772103873
 20
926.2641622510802
 30
0.0
  0
POINT
  5
1483
330
10F5
100
AcDbEntity
  8
Defpoints
 62
     0
100
AcDbPoint
 10
1162.214572117944
 20
926.2641622510804
 30
0.0
  0
ENDBLK
  5
1100
330
10F5
100
AcDbEntity
  8
0
100
AcDbBlockEnd
  0
BLOCK
  5
112F
330
1125
100
AcDbEntity
  8
0
100
AcDbBlockBegin
  2
*D5
 70
     1
 10
0.0
 20
0.0
 30
0.0
  3
*D5
  1

  0
LINE
  5
13D1
330
1125
100
AcDbEntity
  8
AM_5
100
AcDbLine
 10
1491.266772103871
 20
1076.26416225108
 30
0.0
 11
1558.003309133719
 21
1076.26416225108
 31
0.0
  0
LINE
  5
13D2
330
1125
100
AcDbEntity
  8
AM_5
100
AcDbLine
 10
1487.749690982549
 20
1161.26416225108
 30
0.0
 11
1558.003309133719
 21
1161.26416225108
 31
0.0
  0
LINE
  5
13D3
330
1125
100
AcDbEntity
  8
AM_5
100
AcDbLine
 10
1557.003309133719
 20
1086.26416225108
 30
0.0
 11
1557.003309133719
 21
1151.26416225108
 31
0.0
  0
SOLID
  5
13D4
330
1125
100
AcDbEntity
  8
AM_5
100
AcDbTrace
 10
1555.336642467052
 20
1086.26416225108
 30
0.0
 11
1558.669975800386
 21
1086.26416225108
 31
0.0
 12
1557.003309133719
 22
1076.26416225108
 32
0.0
 13
1557.003309133719
 23
1076.26416225108
 33
0.0
  0
SOLID
  5
13D5
330
1125
100
AcDbEntity
  8
AM_5
100
AcDbTrace
 10
1555.336642467052
 20
1151.26416225108
 30
0.0
 11
1558.669975800386
 21
1151.26416225108
 31
0.0
 12
1557.003309133719
 22
1161.26416225108
 32
0.0
 13
1557.003309133719
 23
1161.26416225108
 33
0.0
  0
MTEXT
  5
13D6
330
1125
100
AcDbEntity
  8
AM_5
 62
     2
100
AcDbMText
 10
1548.003309133719
 20
1118.76416225108
 30
0.0
 40
15.0
 41
0.0
 71
     5
 72
     1
  1
85
 11
0.0000000000000001
 21
1.0
 31
0.0
 73
     1
 44
1.0
1001
ACAD
1000
MTEXTBEGIN
1070
    73
1070
     1
1070
    44
1040
1.0
1070
    74
1070
     0
1000
MTEXTEND
  0
POINT
  5
13D7
330
1125
100
AcDbEntity
  8
Defpoints
 62
     0
100
AcDbPoint
 10
1490.26677210387
 20
1076.26416225108
 30
0.0
  0
POINT
  5
13D8
330
1125
100
AcDbEntity
  8
Defpoints
 62
     0
100
AcDbPoint
 10
1486.749690982549
 20
1161.26416225108
 30
0.0
  0
POINT
  5
13D9
330
1125
100
AcDbEntity
  8
Defpoints
 62
     0
100
AcDbPoint
 10
1557.003309133719
 20
1161.26416225108
 30
0.0
  0
ENDBLK
  5
1130
330
1125
100
AcDbEntity
  8
0
100
AcDbBlockEnd
  0
BLOCK
  5
1163
330
1159
100
AcDbEntity
  8
0
100
AcDbBlockBegin
  2
*D6
 70
     1
 10
0.0
 20
0.0
 30
0.0
  3
*D6
  1

  0
LINE
  5
14A9
330
1159
100
AcDbEntity
  8
AM_5
100
AcDbLine
 10
1550.016772103864
 20
1407.264162251079
 30
0.0
 11
1550.016772103864
 21
1431.719479434581
 31
0.0
  0
LINE
  5
14AA
330
1159
100
AcDbEntity
  8
AM_5
100
AcDbLine
 10
1320.01677210387
 20
1407.26416225108
 30
0.0
 11
1320.01677210387
 21
1431.719479434581
 31
0.0
  0
LINE
  5
14AB
330
1159
100
AcDbEntity
  8
AM_5
100
AcDbLine
 10
1540.016772103864
 20
1430.719479434581
 30
0.0
 11
1330.01677210387
 21
1430.719479434581
 31
0.0
  0
SOLID
  5
14AC
330
1159
100
AcDbEntity
  8
AM_5
100
AcDbTrace
 10
1540.016772103864
 20
1432.386146101248
 30
0.0
 11
1540.016772103864
 21
1429.052812767914
 31
0.0
 12
1550.016772103864
 22
1430.719479434581
 32
0.0
 13
1550.016772103864
 23
1430.719479434581
 33
0.0
  0
SOLID
  5
14AD
330
1159
100
AcDbEntity
  8
AM_5
100
AcDbTrace
 10
1330.01677210387
 20
1432.386146101248
 30
0.0
 11
1330.01677210387
 21
1429.052812767914
 31
0.0
 12
1320.01677210387
 22
1430.719479434581
 32
0.0
 13
1320.01677210387
 23
1430.719479434581
 33
0.0
  0
MTEXT
  5
14AE
330
1159
100
AcDbEntity
  8
AM_5
 62
     2
100
AcDbMText
 10
1436.369485228997
 20
1439.720955812534
 30
0.0
 40
15.0
 41
0.0
 71
     5
 72
     1
  1
%%c230
 73
     1
 44
1.0
1001
ACAD
1000
MTEXTBEGIN
1070
    73
1070
     1
1070
    44
1040
1.0
1070
    74
1070
     0
1000
MTEXTEND
  0
POINT
  5
14AF
330
1159
100
AcDbEntity
  8
Defpoints
 62
     0
100
AcDbPoint
 10
1550.016772103864
 20
1406.264162251078
 30
0.0
  0
POINT
  5
14B0
330
1159
100
AcDbEntity
  8
Defpoints
 62
     0
100
AcDbPoint
 10
1320.01677210387
 20
1406.26416225108
 30
0.0
  0
POINT
  5
14B1
330
1159
100
AcDbEntity
  8
Defpoints
 62
     0
100
AcDbPoint
 10
1320.01677210387
 20
1430.719479434581
 30
0.0
  0
ENDBLK
  5
1164
330
1159
100
AcDbEntity
  8
0
100
AcDbBlockEnd
  0
BLOCK
  5
118D
330
1183
100
AcDbEntity
  8
0
100
AcDbBlockBegin
  2
*D7
 70
     1
 10
0.0
 20
0.0
 30
0.0
  3
*D7
  1

  0
LINE
  5
14B2
330
1183
100
AcDbEntity
  8
AM_5
100
AcDbLine
 10
1312.016772103871
 20
1407.26416225108
 30
0.0
 11
1312.016772103871
 21
1455.417434232837
 31
0.0
  0
LINE
  5
14B3
330
1183
100
AcDbEntity
  8
AM_5
100
AcDbLine
 10
1558.01677210387
 20
1407.26416225108
 30
0.0
 11
1558.01677210387
 21
1455.417434232837
 31
0.0
  0
LINE
  5
14B4
330
1183
100
AcDbEntity
  8
AM_5
100
AcDbLine
 10
1322.016772103871
 20
1454.417434232837
 30
0.0
 11
1548.01677210387
 21
1454.417434232837
 31
0.0
  0
SOLID
  5
14B5
330
1183
100
AcDbEntity
  8
AM_5
100
AcDbTrace
 10
1322.016772103871
 20
1456.084100899504
 30
0.0
 11
1322.016772103871
 21
1452.75076756617
 31
0.0
 12
1312.016772103871
 22
1454.417434232837
 32
0.0
 13
1312.016772103871
 23
1454.417434232837
 33
0.0
  0
SOLID
  5
14B6
330
1183
100
AcDbEntity
  8
AM_5
100
AcDbTrace
 10
1548.01677210387
 20
1456.084100899504
 30
0.0
 11
1548.01677210387
 21
1452.75076756617
 31
0.0
 12
1558.01677210387
 22
1454.417434232837
 32
0.0
 13
1558.01677210387
 23
1454.417434232837
 33
0.0
  0
MTEXT
  5
14B7
330
1183
100
AcDbEntity
  8
AM_5
 62
     2
100
AcDbMText
 10
1435.01677210387
 20
1463.41891061079
 30
0.0
 40
15.0
 41
0.0
 71
     5
 72
     1
  1
%%c246
 73
     1
 44
1.0
1001
ACAD
1000
MTEXTBEGIN
1070
    73
1070
     1
1070
    44
1040
1.0
1070
    74
1070
     0
1000
MTEXTEND
  0
POINT
  5
14B8
330
1183
100
AcDbEntity
  8
Defpoints
 62
     0
100
AcDbPoint
 10
1312.016772103871
 20
1406.26416225108
 30
0.0
  0
POINT
  5
14B9
330
1183
100
AcDbEntity
  8
Defpoints
 62
     0
100
AcDbPoint
 10
1558.01677210387
 20
1406.26416225108
 30
0.0
  0
POINT
  5
14BA
330
1183
100
AcDbEntity
  8
Defpoints
 62
     0
100
AcDbPoint
 10
1558.01677210387
 20
1454.417434232837
 30
0.0
  0
ENDBLK
  5
118E
330
1183
100
AcDbEntity
  8
0
100
AcDbBlockEnd
  0
BLOCK
  5
11B7
330
11AD
100
AcDbEntity
  8
0
100
AcDbBlockBegin
  2
*D8
 70
     1
 10
0.0
 20
0.0
 30
0.0
  3
*D8
  1

  0
LINE
  5
144B
330
11AD
100
AcDbEntity
  8
AM_5
100
AcDbLine
 10
1311.01677210387
 20
1406.26416225108
 30
0.0
 11
1211.284406615481
 21
1406.26416225108
 31
0.0
  0
LINE
  5
144C
330
11AD
100
AcDbEntity
  8
AM_5
100
AcDbLine
 10
1234.01677210387
 20
1356.26416225108
 30
0.0
 11
1211.284406615481
 21
1356.26416225108
 31
0.0
  0
LINE
  5
144D
330
11AD
100
AcDbEntity
  8
AM_5
100
AcDbLine
 10
1212.284406615481
 20
1396.26416225108
 30
0.0
 11
1212.284406615481
 21
1366.26416225108
 31
0.0
  0
SOLID
  5
144E
330
11AD
100
AcDbEntity
  8
AM_5
100
AcDbTrace
 10
1210.617739948814
 20
1396.26416225108
 30
0.0
 11
1213.951073282148
 21
1396.26416225108
 31
0.0
 12
1212.284406615481
 22
1406.26416225108
 32
0.0
 13
1212.284406615481
 23
1406.26416225108
 33
0.0
  0
SOLID
  5
144F
330
11AD
100
AcDbEntity
  8
AM_5
100
AcDbTrace
 10
1210.617739948814
 20
1366.26416225108
 30
0.0
 11
1213.951073282148
 21
1366.26416225108
 31
0.0
 12
1212.284406615481
 22
1356.26416225108
 32
0.0
 13
1212.284406615481
 23
1356.26416225108
 33
0.0
  0
MTEXT
  5
1450
330
11AD
100
AcDbEntity
  8
AM_5
 62
     2
100
AcDbMText
 10
1203.284406615481
 20
1381.26416225108
 30
0.0
 40
15.0
 41
0.0
 71
     5
 72
     1
  1
50
 11
0.0000000000000001
 21
1.0
 31
0.0
 73
     1
 44
1.0
1001
ACAD
1000
MTEXTBEGIN
1070
    73
1070
     1
1070
    44
1040
1.0
1070
    74
1070
     0
1000
MTEXTEND
  0
POINT
  5
1451
330
11AD
100
AcDbEntity
  8
Defpoints
 62
     0
100
AcDbPoint
 10
1312.01677210387
 20
1406.26416225108
 30
0.0
  0
POINT
  5
1452
330
11AD
100
AcDbEntity
  8
Defpoints
 62
     0
100
AcDbPoint
 10
1235.01677210387
 20
1356.26416225108
 30
0.0
  0
POINT
  5
1453
330
11AD
100
AcDbEntity
  8
Defpoints
 62
     0
100
AcDbPoint
 10
1212.284406615481
 20
1356.26416225108
 30
0.0
  0
ENDBLK
  5
11B8
330
11AD
100
AcDbEntity
  8
0
100
AcDbBlockEnd
  0
BLOCK
  5
121F
330
1215
100
AcDbEntity
  8
0
100
AcDbBlockBegin
  2
*D9
 70
     1
 10
0.0
 20
0.0
 30
0.0
  3
*D9
  1

  0
LINE
  5
1463
330
1215
100
AcDbEntity
  8
AM_5
100
AcDbLine
 10
1311.01677210387
 20
1406.26416225108
 30
0.0
 11
1163.793575973346
 21
1406.26416225108
 31
0.0
  0
LINE
  5
1464
330
1215
100
AcDbEntity
  8
AM_5
100
AcDbLine
 10
1381.883120735428
 20
1076.26416225108
 30
0.0
 11
1163.793575973346
 21
1076.26416225108
 31
0.0
  0
LINE
  5
1465
330
1215
100
AcDbEntity
  8
AM_5
100
AcDbLine
 10
1164.793575973346
 20
1396.26416225108
 30
0.0
 11
1164.793575973346
 21
1086.26416225108
 31
0.0
  0
SOLID
  5
1466
330
1215
100
AcDbEntity
  8
AM_5
100
AcDbTrace
 10
1163.126909306679
 20
1396.26416225108
 30
0.0
 11
1166.460242640013
 21
1396.26416225108
 31
0.0
 12
1164.793575973346
 22
1406.26416225108
 32
0.0
 13
1164.793575973346
 23
1406.26416225108
 33
0.0
  0
SOLID
  5
1467
330
1215
100
AcDbEntity
  8
AM_5
100
AcDbTrace
 10
1163.126909306679
 20
1086.26416225108
 30
0.0
 11
1166.460242640013
 21
1086.26416225108
 31
0.0
 12
1164.793575973346
 22
1076.26416225108
 32
0.0
 13
1164.793575973346
 23
1076.26416225108
 33
0.0
  0
MTEXT
  5
1468
330
1215
100
AcDbEntity
  8
AM_5
 62
     2
100
AcDbMText
 10
1155.793575973346
 20
1241.26416225108
 30
0.0
 40
15.0
 41
0.0
 71
     5
 72
     1
  1
330
 11
0.0000000000000001
 21
1.0
 31
0.0
 73
     1
 44
1.0
1001
ACAD
1000
MTEXTBEGIN
1070
    73
1070
     1
1070
    44
1040
1.0
1070
    74
1070
     0
1000
MTEXTEND
  0
POINT
  5
1469
330
1215
100
AcDbEntity
  8
Defpoints
 62
     0
100
AcDbPoint
 10
1312.01677210387
 20
1406.26416225108
 30
0.0
  0
POINT
  5
146A
330
1215
100
AcDbEntity
  8
Defpoints
 62
     0
100
AcDbPoint
 10
1382.883120735428
 20
1076.26416225108
 30
0.0
  0
POINT
  5
146B
330
1215
100
AcDbEntity
  8
Defpoints
 62
     0
100
AcDbPoint
 10
1164.793575973346
 20
1076.26416225108
 30
0.0
  0
ENDBLK
  5
1220
330
1215
100
AcDbEntity
  8
0
100
AcDbBlockEnd
  0
BLOCK
  5
1337
330
132D
100
AcDbEntity
  8
0
100
AcDbBlockBegin
  2
*D11
 70
     1
 10
0.0
 20
0.0
 30
0.0
  3
*D11
  1

  0
LINE
  5
13E9
330
132D
100
AcDbEntity
  8
AM_5
100
AcDbLine
 10
1541.01677210387
 20
1381.26416225108
 30
0.0
 11
1642.501491835171
 21
1381.26416225108
 31
0.0
  0
LINE
  5
13EA
330
132D
100
AcDbEntity
  8
AM_5
100
AcDbLine
 10
1551.016772103864
 20
1406.264162251078
 30
0.0
 11
1642.501491835171
 21
1406.264162251078
 31
0.0
  0
LINE
  5
13EB
330
132D
100
AcDbEntity
  8
AM_5
100
AcDbLine
 10
1641.501491835171
 20
1391.26416225108
 30
0.0
 11
1641.501491835171
 21
1396.264162251078
 31
0.0
  0
SOLID
  5
13EC
330
132D
100
AcDbEntity
  8
AM_5
100
AcDbTrace
 10
1639.834825168504
 20
1391.26416225108
 30
0.0
 11
1643.168158501837
 21
1391.26416225108
 31
0.0
 12
1641.501491835171
 22
1381.26416225108
 32
0.0
 13
1641.501491835171
 23
1381.26416225108
 33
0.0
  0
SOLID
  5
13ED
330
132D
100
AcDbEntity
  8
AM_5
100
AcDbTrace
 10
1639.834825168504
 20
1396.264162251078
 30
0.0
 11
1643.168158501837
 21
1396.264162251078
 31
0.0
 12
1641.501491835171
 22
1406.264162251078
 32
0.0
 13
1641.501491835171
 23
1406.264162251078
 33
0.0
  0
MTEXT
  5
13EE
330
132D
100
AcDbEntity
  8
AM_5
 62
     2
100
AcDbMText
 10
1632.500015457218
 20
1393.76416225108
 30
0.0
 40
15.0
 41
0.0
 71
     5
 72
     1
  1
25
 11
0.0000000000000001
 21
1.0
 31
0.0
 73
     1
 44
1.0
1001
ACAD
1000
MTEXTBEGIN
1070
    73
1070
     1
1070
    44
1040
1.0
1070
    74
1070
     0
1000
MTEXTEND
  0
POINT
  5
13EF
330
132D
100
AcDbEntity
  8
Defpoints
 62
     0
100
AcDbPoint
 10
1540.01677210387
 20
1381.26416225108
 30
0.0
  0
POINT
  5
13F0
330
132D
100
AcDbEntity
  8
Defpoints
 62
     0
100
AcDbPoint
 10
1550.016772103864
 20
1406.264162251078
 30
0.0
  0
POINT
  5
13F1
330
132D
100
AcDbEntity
  8
Defpoints
 62
     0
100
AcDbPoint
 10
1641.501491835171
 20
1406.264162251078
 30
0.0
  0
ENDBLK
  5
1338
330
132D
100
AcDbEntity
  8
0
100
AcDbBlockEnd
  0
ENDSEC
  0
SECTION
  2
ENTITIES
  0
LINE
  5
5CC
102
{ACAD_REACTORS
330
11BA
330
1222
102
}
330
1F
100
AcDbEntity
  8
0
100
AcDbLine
 10
1312.01677210387
 20
1406.26416225108
 30
0.0
 11
1558.01677210387
 21
1406.26416225108
 31
0.0
  0
LINE
  5
5CD
330
1F
100
AcDbEntity
  8
0
100
AcDbLine
 10
1374.869382803392
 20
1186.26416225108
 30
0.0
 11
1383.902092270299
 21
1186.26416225108
 31
0.0
  0
LINE
  5
5CE
330
1F
100
AcDbEntity
  8
0
100
AcDbLine
 10
1380.749469366986
 20
1076.26416225108
 30
0.0
 11
1385.016772103871
 21
1076.26416225108
 31
0.0
  0
LINE
  5
5CF
330
1F
100
AcDbEntity
  8
0
100
AcDbLine
 10
1384.243881796243
 20
1106.26416225108
 30
0.0
 11
1485.789662411497
 21
1106.26416225108
 31
0.0
  0
LINE
  5
5D0
330
1F
100
AcDbEntity
  8
0
100
AcDbLine
 10
1486.749690982549
 20
1161.26416225108
 30
0.0
 11
1383.283853225192
 21
1161.26416225108
 31
0.0
  0
LINE
  5
5D1
330
1F
100
AcDbEntity
  8
0
100
AcDbLine
 10
1635.016772103871
 20
1356.26416225108
 30
0.0
 11
1635.016772103871
 21
1348.26416225108
 31
0.0
  0
LINE
  5
5D2
330
1F
100
AcDbEntity
  8
0
100
AcDbLine
 10
1560.421479438102
 20
1356.26416225108
 30
0.0
 11
1635.016772103871
 21
1356.26416225108
 31
0.0
  0
LINE
  5
5D3
102
{ACAD_REACTORS
330
1190
102
}
330
1F
100
AcDbEntity
  8
0
100
AcDbLine
 10
1558.01677210387
 20
1406.26416225108
 30
0.0
 11
1559.930870667232
 21
1358.41169816704
 31
0.0
  0
LINE
  5
5D4
330
1F
100
AcDbEntity
  8
0
100
AcDbLine
 10
1321.016772103871
 20
1381.26416225108
 30
0.0
 11
1321.01677210387
 21
1351.757093232739
 31
0.0
  0
LINE
  5
5D5
330
1F
100
AcDbEntity
  8
0
100
AcDbLine
 10
1635.016772103871
 20
1356.26416225108
 30
0.0
 11
1566.24009215702
 21
1352.659729188605
 31
0.0
  0
ARC
  5
5D6
330
1F
100
AcDbEntity
  8
0
100
AcDbCircle
 10
1565.926076419563
 20
1358.651506397133
 30
0.0
 40
6.0
100
AcDbArc
 50
182.2906100426395
 51
273.0000000000054
  0
LINE
  5
5D7
330
1F
100
AcDbEntity
  8
0
100
AcDbLine
 10
1484.016772103871
 20
1085.38462993652
 30
0.0
 11
1484.016772103871
 21
1076.26416225108
 31
0.0
  0
LINE
  5
5D8
330
1F
100
AcDbEntity
  8
0
100
AcDbLine
 10
1386.01677210387
 20
1086.264162251077
 30
0.0
 11
1386.01677210387
 21
1077.26416225108
 31
0.0
  0
LINE
  5
5D9
330
1F
100
AcDbEntity
  8
0
100
AcDbLine
 10
1378.298125296596
 20
1160.402881488955
 30
0.0
 11
1379.749621671829
 21
1077.246709844643
 31
0.0
  0
LINE
  5
5DA
330
1F
100
AcDbEntity
  8
0
100
AcDbLine
 10
1383.282330060754
 20
1161.351424283266
 30
0.0
 11
1384.243881796243
 21
1106.26416225108
 31
0.0
  0
LINE
  5
5DC
330
1F
100
AcDbEntity
  8
0
100
AcDbLine
 10
1485.789662411497
 20
1106.26416225108
 30
0.0
 11
1484.01677210387
 21
1086.26416225108
 31
0.0
  0
LINE
  5
5DD
330
1F
100
AcDbEntity
  8
0
100
AcDbLine
 10
1486.749690982549
 20
1161.26416225108
 30
0.0
 11
1485.789662411497
 21
1106.26416225108
 31
0.0
  0
LINE
  5
5DE
102
{ACAD_REACTORS
330
1132
102
}
330
1F
100
AcDbEntity
  8
0
100
AcDbLine
 10
1491.735418911145
 20
1160.402881488953
 30
0.0
 11
1490.26677210387
 21
1076.264162251081
 31
0.0
  0
LINE
  5
5DF
330
1F
100
AcDbEntity
  8
0
100
AcDbLine
 10
1484.01677210387
 20
1086.26416225108
 30
0.0
 11
1484.01677210387
 21
1076.26416225108
 31
0.0
  0
LINE
  5
5E0
102
{ACAD_REACTORS
330
1132
102
}
330
1F
100
AcDbEntity
  8
0
100
AcDbLine
 10
1486.749690982549
 20
1161.26416225108
 30
0.0
 11
1549.01677210387
 21
1346.26416225108
 31
0.0
  0
LINE
  5
5E1
330
1F
100
AcDbEntity
  8
0
100
AcDbLine
 10
1552.01677210387
 20
1406.26416225108
 30
0.0
 11
1549.01677210387
 21
1346.26416225108
 31
0.0
  0
LINE
  5
5E2
330
1F
100
AcDbEntity
  8
0
100
AcDbLine
 10
1427.063273489704
 20
1336.26416225108
 30
0.0
 11
1515.955516619675
 21
1336.26416225108
 31
0.0
  0
LINE
  5
5E3
330
1F
100
AcDbEntity
  8
0
100
AcDbLine
 10
1337.078027588065
 20
1339.26416225108
 30
0.0
 11
1363.048172981632
 21
1339.26416225108
 31
0.0
  0
LINE
  5
5E4
330
1F
100
AcDbEntity
  8
0
100
AcDbLine
 10
1491.735418911145
 20
1160.402881488954
 30
0.0
 11
1553.120763746592
 21
1342.783179232977
 31
0.0
  0
LINE
  5
5E5
330
1F
100
AcDbEntity
  8
0
100
AcDbLine
 10
1574.489706119516
 20
1348.26416225108
 30
0.0
 11
1635.016772103871
 21
1348.26416225108
 31
0.0
  0
LINE
  5
5E6
330
1F
100
AcDbEntity
  8
0
100
AcDbLine
 10
1620.493837647385
 20
1352.289002235124
 30
0.0
 11
1558.284368173173
 21
1346.846378892169
 31
0.0
  0
ARC
  5
5E7
330
1F
100
AcDbEntity
  8
0
100
AcDbCircle
 10
1558.807302629658
 20
1340.869210703618
 30
0.0
 40
6.0
100
AcDbArc
 50
94.99999999999946
 51
161.397857181388
  0
ARC
  5
5E8
330
1F
100
AcDbEntity
  8
0
100
AcDbCircle
 10
1621.016772103871
 20
1346.311834046574
 30
0.0
 40
6.0
100
AcDbArc
 50
18.98908556738744
 51
94.99999999999946
  0
LINE
  5
5E9
330
1F
100
AcDbEntity
  8
0
100
AcDbLine
 10
1621.771615760422
 20
1352.26416225108
 30
0.0
 11
1635.016772103871
 21
1352.26416225108
 31
0.0
  0
LINE
  5
5EB
330
1F
100
AcDbEntity
  8
0
100
AcDbLine
 10
1378.298125296596
 20
1160.402881488955
 30
0.0
 11
1367.637029536395
 21
1192.077767803193
 31
0.0
  0
LINE
  5
5EC
330
1F
100
AcDbEntity
  8
0
100
AcDbLine
 10
1383.283853225192
 20
1161.26416225108
 30
0.0
 11
1372.502769706643
 21
1193.295540870634
 31
0.0
  0
LINE
  5
5ED
330
1F
100
AcDbEntity
  8
0
100
AcDbLine
 10
1318.016772103871
 20
1406.26416225108
 30
0.0
 11
1320.741403983203
 21
1351.771524664428
 31
0.0
  0
LINE
  5
5EE
102
{ACAD_REACTORS
330
1190
102
}
330
1F
100
AcDbEntity
  8
0
100
AcDbLine
 10
1312.016772103871
 20
1406.26416225108
 30
0.0
 11
1310.45907895544
 21
1367.321833540313
 31
0.0
  0
LINE
  5
5EF
330
1F
100
AcDbEntity
  8
0
100
AcDbLine
 10
1249.539706560356
 20
1352.289002235124
 30
0.0
 11
1306.309361085817
 21
1346.022920792562
 31
0.0
  0
LINE
  5
5F0
330
1F
100
AcDbEntity
  8
0
100
AcDbLine
 10
1286.00408665322
 20
1348.26416225108
 30
0.0
 11
1235.01677210387
 21
1348.26416225108
 31
0.0
  0
LINE
  5
5F1
330
1F
100
AcDbEntity
  8
0
100
AcDbLine
 10
1235.01677210387
 20
1356.26416225108
 30
0.0
 11
1331.01677210387
 21
1351.233015439909
 31
0.0
  0
LINE
  5
5F2
330
1F
100
AcDbEntity
  8
0
100
AcDbLine
 10
1312.309361085817
 20
1356.26416225108
 30
0.0
 11
1235.01677210387
 21
1356.26416225108
 31
0.0
  0
ARC
  5
5F3
330
1F
100
AcDbEntity
  8
0
100
AcDbCircle
 10
1249.01677210387
 20
1346.311834046574
 30
0.0
 40
6.0
100
AcDbArc
 50
85.00000000000055
 51
161.0109144326125
  0
LINE
  5
5F4
102
{ACAD_REACTORS
330
11BA
102
}
330
1F
100
AcDbEntity
  8
0
100
AcDbLine
 10
1235.01677210387
 20
1356.26416225108
 30
0.0
 11
1235.01677210387
 21
1348.26416225108
 31
0.0
  0
LINE
  5
5F5
330
1F
100
AcDbEntity
  8
0
100
AcDbLine
 10
1331.01677210387
 20
1381.26416225108
 30
0.0
 11
1331.01677210387
 21
1344.26416225108
 31
0.0
  0
LINE
  5
5F6
330
1F
100
AcDbEntity
  8
0
100
AcDbLine
 10
1312.309361085817
 20
1364.852452946026
 30
0.0
 11
1312.309361085817
 21
1354.984871036989
 31
0.0
  0
ARC
  5
5F7
330
1F
100
AcDbEntity
  8
0
100
AcDbCircle
 10
1309.675998252982
 20
1364.807189793018
 30
0.0
 40
2.629999999999999
100
AcDbArc
 50
0.9847227474937934
 51
72.70298275367058
  0
LINE
  5
5F8
330
1F
100
AcDbEntity
  8
0
100
AcDbLine
 10
1310.45907895544
 20
1367.321833540313
 30
0.0
 11
1319.988860273205
 21
1366.822398864396
 31
0.0
  0
LINE
  5
5F9
330
1F
100
AcDbEntity
  8
0
100
AcDbLine
 10
1331.01677210387
 20
1344.26416225108
 30
0.0
 11
1350.69885644472
 21
1344.26416225108
 31
0.0
  0
LINE
  5
5FA
330
1F
100
AcDbEntity
  8
0
100
AcDbLine
 10
1346.06573369189
 20
1381.26416225108
 30
0.0
 11
1350.69885644472
 21
1344.26416225108
 31
0.0
  0
LINE
  5
5FD
330
1F
100
AcDbEntity
  8
0
100
AcDbLine
 10
1350.448417376999
 20
1346.26416225108
 30
0.0
 11
1421.571419042869
 21
1346.26416225108
 31
0.0
  0
LINE
  5
5FE
330
1F
100
AcDbEntity
  8
0
100
AcDbLine
 10
1337.078027588065
 20
1339.26416225108
 30
0.0
 11
1348.578027588065
 21
1336.26416225108
 31
0.0
  0
LINE
  5
5FF
330
1F
100
AcDbEntity
  8
0
100
AcDbLine
 10
1348.578027588066
 20
1336.26416225108
 30
0.0
 11
1372.502769706643
 21
1193.295540870633
 31
0.0
  0
LINE
  5
600
330
1F
100
AcDbEntity
  8
0
100
AcDbLine
 10
1344.512557749931
 20
1330.26416225108
 30
0.0
 11
1367.637029536394
 21
1192.077767803191
 31
0.0
  0
LINE
  5
601
330
1F
100
AcDbEntity
  8
0
100
AcDbLine
 10
1306.309361085817
 20
1346.022920792562
 30
0.0
 11
1344.512557749931
 21
1330.26416225108
 31
0.0
  0
LINE
  5
602
330
1F
100
AcDbEntity
  8
0
100
AcDbLine
 10
1336.575999760821
 20
1342.26416225108
 30
0.0
 11
1337.078027588066
 21
1339.26416225108
 31
0.0
  0
LINE
  5
603
330
1F
100
AcDbEntity
  8
0
100
AcDbLine
 10
1336.575999760822
 20
1342.26416225108
 30
0.0
 11
1361.836094304127
 21
1342.26416225108
 31
0.0
  0
LINE
  5
605
330
1F
100
AcDbEntity
  8
0
100
AcDbLine
 10
1331.01677210387
 20
1344.26416225108
 30
0.0
 11
1336.575999760822
 21
1342.26416225108
 31
0.0
  0
LINE
  5
606
330
1F
100
AcDbEntity
  8
0
100
AcDbLine
 10
1531.078027588065
 20
1344.26416225108
 30
0.0
 11
1519.33468776302
 21
1344.26416225108
 31
0.0
  0
LINE
  5
607
330
1F
100
AcDbEntity
  8
0
100
AcDbLine
 10
1426.802204090089
 20
1381.26416225108
 30
0.0
 11
1458.114174434815
 21
1381.26416225108
 31
0.0
  0
LINE
  5
608
330
1F
100
AcDbEntity
  8
0
100
AcDbLine
 10
1531.078027588065
 20
1344.26416225108
 30
0.0
 11
1423.294729295899
 21
1344.26416225108
 31
0.0
  0
LINE
  5
609
330
1F
100
AcDbEntity
  8
0
100
AcDbLine
 10
1527.455516619675
 20
1339.26416225108
 30
0.0
 11
1515.955516619675
 21
1336.26416225108
 31
0.0
  0
LINE
  5
60A
330
1F
100
AcDbEntity
  8
0
100
AcDbLine
 10
1527.957544446919
 20
1342.26416225108
 30
0.0
 11
1527.455516619675
 21
1339.26416225108
 31
0.0
  0
LINE
  5
60B
330
1F
100
AcDbEntity
  8
0
100
AcDbLine
 10
1549.01677210387
 20
1346.26416225108
 30
0.0
 11
1527.957544446919
 21
1342.26416225108
 31
0.0
  0
LINE
  5
60C
330
1F
100
AcDbEntity
  8
0
100
AcDbLine
 10
1491.322708439129
 20
1186.26416225108
 30
0.0
 11
1515.790793545512
 21
1336.26416225108
 31
0.0
  0
LINE
  5
60D
330
1F
100
AcDbEntity
  8
0
100
AcDbLine
 10
1531.078027588065
 20
1344.26416225108
 30
0.0
 11
1532.37009605926
 21
1381.26416225108
 31
0.0
  0
LINE
  5
60E
102
{ACAD_REACTORS
330
133A
102
}
330
1F
100
AcDbEntity
  8
0
100
AcDbLine
 10
1540.01677210387
 20
1381.26416225108
 30
0.0
 11
1541.851044378777
 21
1346.26416225108
 31
0.0
  0
LINE
  5
60F
330
1F
100
AcDbEntity
  8
0
100
AcDbLine
 10
1426.802204090089
 20
1381.26416225108
 30
0.0
 11
1421.57141904287
 21
1346.26416225108
 31
0.0
  0
LINE
  5
610
330
1F
100
AcDbEntity
  8
0
100
AcDbLine
 10
1428.824416345817
 20
1381.26416225108
 30
0.0
 11
1423.294729295899
 21
1344.26416225108
 31
0.0
  0
LINE
  5
611
330
1F
100
AcDbEntity
  8
0
100
AcDbLine
 10
1421.57141904287
 20
1346.26416225108
 30
0.0
 11
1423.294729295899
 21
1344.26416225108
 31
0.0
  0
LINE
  5
612
330
1F
100
AcDbEntity
  8
0
100
AcDbLine
 10
1400.326366412416
 20
1346.26416225108
 30
0.0
 11
1416.575999760822
 21
1342.26416225108
 31
0.0
  0
LINE
  5
613
330
1F
100
AcDbEntity
  8
0
100
AcDbLine
 10
1416.575999760821
 20
1342.26416225108
 30
0.0
 11
1417.078027588066
 21
1339.26416225108
 31
0.0
  0
LINE
  5
614
330
1F
100
AcDbEntity
  8
0
100
AcDbLine
 10
1417.078027588065
 20
1339.26416225108
 30
0.0
 11
1427.063273489704
 21
1336.26416225108
 31
0.0
  0
LINE
  5
615
330
1F
100
AcDbEntity
  8
0
100
AcDbLine
 10
1423.294729295899
 20
1344.26416225108
 30
0.0
 11
1430.69885644472
 21
1344.26416225108
 31
0.0
  0
LINE
  5
616
330
1F
100
AcDbEntity
  8
0
100
AcDbLine
 10
1427.063273489704
 20
1336.26416225108
 30
0.0
 11
1428.53868332577
 21
1186.26416225108
 31
0.0
  0
LINE
  5
617
330
1F
100
AcDbEntity
  8
0
100
AcDbLine
 10
1428.53868332577
 20
1186.26416225108
 30
0.0
 11
1400.326366412416
 21
1346.26416225108
 31
0.0
  0
LINE
  5
618
330
1F
100
AcDbEntity
  8
0
100
AcDbLine
 10
1491.322708439129
 20
1186.26416225108
 30
0.0
 11
1546.922343427582
 21
1345.866345444043
 31
0.0
  0
LINE
  5
619
330
1F
100
AcDbEntity
  8
0
100
AcDbLine
 10
1541.851044378777
 20
1346.26416225108
 30
0.0
 11
1549.01677210387
 21
1346.26416225108
 31
0.0
  0
LINE
  5
61A
330
1F
100
AcDbEntity
  8
0
100
AcDbLine
 10
1428.53868332577
 20
1186.26416225108
 30
0.0
 11
1491.322708439129
 21
1186.26416225108
 31
0.0
  0
LINE
  5
625
330
1F
100
AcDbEntity
  8
0
100
AcDbLine
 10
1346.06573369189
 20
1381.26416225108
 30
0.0
 11
1321.016772103871
 21
1381.26416225108
 31
0.0
  0
ARC
  5
639
330
1F
100
AcDbEntity
  8
0
100
AcDbCircle
 10
1309.679361085817
 20
1354.984871036989
 30
0.0
 40
2.629999999999999
100
AcDbArc
 50
266.9999999999946
 51
0.0
  0
LINE
  5
63F
330
1F
100
AcDbEntity
  8
0
100
AcDbLine
 10
1366.048172981632
 20
1336.26416225108
 30
0.0
 11
1348.578027588066
 21
1336.26416225108
 31
0.0
  0
LINE
  5
643
330
1F
100
AcDbEntity
  8
0
100
AcDbLine
 10
1383.902092270299
 20
1186.26416225108
 30
0.0
 11
1366.048172981633
 21
1336.26416225108
 31
0.0
  0
LINE
  5
644
330
1F
100
AcDbEntity
  8
0
100
AcDbLine
 10
1366.048172981633
 20
1336.26416225108
 30
0.0
 11
1363.048172981632
 21
1339.26416225108
 31
0.0
  0
LINE
  5
645
330
1F
100
AcDbEntity
  8
0
100
AcDbLine
 10
1363.048172981632
 20
1339.26416225108
 30
0.0
 11
1361.836094304127
 21
1342.26416225108
 31
0.0
  0
LINE
  5
646
330
1F
100
AcDbEntity
  8
0
100
AcDbLine
 10
1361.836094304127
 20
1342.26416225108
 30
0.0
 11
1357.129310280131
 21
1346.26416225108
 31
0.0
  0
LINE
  5
64A
330
1F
100
AcDbEntity
  8
0
100
AcDbLine
 10
1417.078027588065
 20
1339.26416225108
 30
0.0
 11
1527.455516619675
 21
1339.26416225108
 31
0.0
  0
LINE
  5
64B
330
1F
100
AcDbEntity
  8
0
100
AcDbLine
 10
1416.575999760821
 20
1342.26416225108
 30
0.0
 11
1527.957544446919
 21
1342.26416225108
 31
0.0
  0
LINE
  5
650
330
1F
100
AcDbEntity
  8
0
100
AcDbLine
 10
1386.01677210387
 20
1086.26416225108
 30
0.0
 11
1484.016772103871
 21
1086.26416225108
 31
0.0
  0
LINE
  5
651
330
1F
100
AcDbEntity
  8
0
100
AcDbLine
 10
1384.243881796243
 20
1106.26416225108
 30
0.0
 11
1386.01677210387
 21
1086.26416225108
 31
0.0
  0
LINE
  5
657
102
{ACAD_REACTORS
330
1132
102
}
330
1F
100
AcDbEntity
  8
0
100
AcDbLine
 10
1385.016772103871
 20
1076.26416225108
 30
0.0
 11
1490.26677210387
 21
1076.26416225108
 31
0.0
  0
ARC
  5
658
330
1F
100
AcDbEntity
  8
0
100
AcDbCircle
 10
1385.016772103871
 20
1077.26416225108
 30
0.0
 40
1.0
100
AcDbArc
 50
270.0
 51
0.0
  0
ARC
  5
659
330
1F
100
AcDbEntity
  8
0
100
AcDbCircle
 10
1380.749469366986
 20
1077.26416225108
 30
0.0
 40
1.0
100
AcDbArc
 50
181.0000000000017
 51
270.0
  0
LINE
  5
666
330
1F
100
AcDbEntity
  8
0
100
AcDbLine
 10
1511.523727695748
 20
1349.76416225108
 30
0.0
 11
1459.98263676436
 21
1349.76416225108
 31
0.0
  0
LINE
  5
668
330
1F
100
AcDbEntity
  8
0
100
AcDbLine
 10
1517.078027588065
 20
1381.26416225108
 30
0.0
 11
1511.523727695749
 21
1349.76416225108
 31
0.0
  0
LINE
  5
66A
330
1F
100
AcDbEntity
  8
0
100
AcDbLine
 10
1455.078027588065
 20
1381.26416225108
 30
0.0
 11
1459.98263676436
 21
1349.76416225108
 31
0.0
  0
LINE
  5
66B
330
1F
100
AcDbEntity
  8
0
100
AcDbLine
 10
1458.114174434815
 20
1381.26416225108
 30
0.0
 11
1462.785230793191
 21
1351.26416225108
 31
0.0
  0
LINE
  5
66C
330
1F
100
AcDbEntity
  8
0
100
AcDbLine
 10
1459.98263676436
 20
1349.76416225108
 30
0.0
 11
1462.785230793191
 21
1351.26416225108
 31
0.0
  0
LINE
  5
66E
330
1F
100
AcDbEntity
  8
0
100
AcDbLine
 10
1510.01677210387
 20
1354.76416225108
 30
0.0
 11
1479.01677210387
 21
1354.76416225108
 31
0.0
  0
LINE
  5
66F
330
1F
100
AcDbEntity
  8
3A
  6
DASHED
100
AcDbLine
 10
1507.516772103871
 20
1364.26416225108
 30
0.0
 11
1504.01677210387
 21
1364.26416225108
 31
0.0
  0
LINE
  5
670
330
1F
100
AcDbEntity
  8
0
100
AcDbLine
 10
1475.51677210387
 20
1358.26416225108
 30
0.0
 11
1475.51677210387
 21
1351.26416225108
 31
0.0
  0
LINE
  5
671
330
1F
100
AcDbEntity
  8
0
100
AcDbLine
 10
1479.01677210387
 20
1358.26416225108
 30
0.0
 11
1479.01677210387
 21
1351.26416225108
 31
0.0
  0
LINE
  5
673
330
1F
100
AcDbEntity
  8
0
100
AcDbLine
 10
1510.01677210387
 20
1358.26416225108
 30
0.0
 11
1510.016772103871
 21
1351.26416225108
 31
0.0
  0
ARC
  5
674
330
1F
100
AcDbEntity
  8
0
100
AcDbCircle
 10
1485.01677210387
 20
1358.26416225108
 30
0.0
 40
6.0
100
AcDbArc
 50
90.0
 51
180.0
  0
ARC
  5
675
330
1F
100
AcDbEntity
  8
0
100
AcDbCircle
 10
1504.01677210387
 20
1358.26416225108
 30
0.0
 40
6.0
100
AcDbArc
 50
0.0
 51
90.0
  0
ARC
  5
677
330
1F
100
AcDbEntity
  8
0
100
AcDbCircle
 10
1481.51677210387
 20
1358.26416225108
 30
0.0
 40
6.0
100
AcDbArc
 50
90.0
 51
180.0
  0
LINE
  5
678
330
1F
100
AcDbEntity
  8
0
100
AcDbLine
 10
1479.01677210387
 20
1351.26416225108
 30
0.0
 11
1462.785230793191
 21
1351.26416225108
 31
0.0
  0
LINE
  5
679
330
1F
100
AcDbEntity
  8
0
100
AcDbLine
 10
1531.078027588065
 20
1344.26416225108
 30
0.0
 11
1541.851044378777
 21
1346.26416225108
 31
0.0
  0
HATCH
  5
6A8
330
1F
100
AcDbEntity
  8
8
100
AcDbHatch
 10
0.0
 20
0.0
 30
0.0
210
0.0
220
0.0
230
1.0
  2
ANSI31
 70
     0
 71
     0
 91
        1
 92
        7
 72
     1
 73
     1
 93
       21
 10
1367.637029536393
 20
1192.077767803199
 42
0.0
 10
1378.298125296597
 20
1160.402881488955
 42
0.0
 10
1379.749621671829
 20
1077.246709844643
 42
0.4091108014277121
 10
1380.749469366986
 20
1076.26416225108
 42
0.0
 10
1385.016772103871
 20
1076.26416225108
 42
0.4142135623730938
 10
1386.01677210387
 20
1077.26416225108
 42
0.0
 10
1386.01677210387
 20
1086.264162251078
 42
0.0
 10
1384.243881796243
 20
1106.264162251079
 42
0.0
 10
1383.283853225192
 20
1161.26416225108
 42
0.0
 10
1372.502769706643
 20
1193.295540870636
 42
0.0
 10
1348.578027588066
 20
1336.26416225108
 42
0.0
 10
1337.078027588066
 20
1339.26416225108
 42
0.0
 10
1336.575999760821
 20
1342.26416225108
 42
0.0
 10
1331.01677210387
 20
1344.26416225108
 42
0.0
 10
1331.01677210387
 20
1351.233015439909
 42
0.0
 10
1235.01677210387
 20
1356.26416225108
 42
0.0
 10
1235.01677210387
 20
1348.26416225108
 42
0.0
 10
1243.343288642901
 20
1348.26416225108
 42
-0.344380883637287
 10
1249.539706560355
 20
1352.289002235124
 42
0.0
 10
1306.309361085817
 20
1346.022920792562
 42
0.0
 10
1344.512557749931
 20
1330.26416225108
 42
0.0
 97
        0
 75
     0
 76
     1
 52
-0.0000000000000127
 41
30.0
 77
     0
 78
     1
 53
44.99999999999999
 43
131.0780275880652
 44
855.2641622510806
 45
-2.651650429449552
 46
2.651650429449553
 79
     0
 47
0.4050614623764278
 98
        1
 10
1359.078027588065
 20
1250.26416225108
  0
HATCH
  5
6A9
330
1F
100
AcDbEntity
  8
8
100
AcDbHatch
 10
0.0
 20
0.0
 30
0.0
210
0.0
220
0.0
230
1.0
  2
ANSI31
 70
     0
 71
     0
 91
        1
 92
        7
 72
     0
 73
     1
 93
        4
 10
1319.988860273205
 20
1366.822398864396
 10
1318.016772103871
 20
1406.26416225108
 10
1312.016772103871
 20
1406.26416225108
 10
1310.45907895544
 20
1367.321833540313
 97
        0
 75
     0
 76
     1
 52
-0.0000000000000127
 41
30.0
 77
     0
 78
     1
 53
44.99999999999999
 43
131.0780275880652
 44
855.2641622510806
 45
-2.651650429449552
 46
2.651650429449553
 79
     0
 47
0.1795332136445242
 98
        1
 10
1317.078027588065
 20
1377.76416225108
  0
HATCH
  5
6AA
330
1F
100
AcDbEntity
  8
8
100
AcDbHatch
 10
0.0
 20
0.0
 30
0.0
210
0.0
220
0.0
230
1.0
  2
ANSI31
 70
     0
 71
     0
 91
        1
 92
        7
 72
     1
 73
     1
 93
       17
 10
1553.120763746592
 20
1342.783179232977
 42
-0.2981027668670084
 10
1558.284368173173
 20
1346.846378892169
 42
0.0
 10
1620.493837647385
 20
1352.289002235124
 42
-0.0534026770603332
 10
1621.771615760421
 20
1352.26416225108
 42
0.0
 10
1635.016772103871
 20
1352.26416225108
 42
0.0
 10
1635.016772103871
 20
1356.26416225108
 42
0.0
 10
1566.24009215702
 20
1352.659729188605
 42
-0.4178445960890186
 10
1559.930870667232
 20
1358.41169816704
 42
0.0
 10
1558.01677210387
 20
1406.26416225108
 42
0.0
 10
1552.01677210387
 20
1406.26416225108
 42
0.0
 10
1549.01677210387
 20
1346.26416225108
 42
0.0
 10
1486.749690982549
 20
1161.264162251081
 42
0.0
 10
1485.789662411497
 20
1106.264162251082
 42
0.0
 10
1484.01677210387
 20
1086.264162251079
 42
0.0
 10
1484.01677210387
 20
1076.26416225108
 42
0.0
 10
1490.26677210387
 20
1076.26416225108
 42
0.0
 10
1491.735418911145
 20
1160.402881488953
 42
0.0
 97
        0
 75
     0
 76
     1
 52
-0.0000000000000127
 41
30.0
 77
     0
 78
     1
 53
44.99999999999999
 43
131.0780275880652
 44
855.2641622510806
 45
-2.651650429449552
 46
2.651650429449553
 79
     0
 47
0.4308797127468582
 98
        1
 10
1514.078027588065
 20
1235.76416225108
  0
LINE
  5
6C0
330
1F
100
AcDbEntity
  8
0
100
AcDbLine
 10
1517.078027588065
 20
1381.26416225108
 30
0.0
 11
1540.01677210387
 21
1381.26416225108
 31
0.0
  0
LINE
  5
6D5
330
1F
100
AcDbEntity
  8
0
100
AcDbLine
 10
1504.01677210387
 20
1364.26416225108
 30
0.0
 11
1481.51677210387
 21
1364.26416225108
 31
0.0
  0
LINE
  5
6D6
330
1F
100
AcDbEntity
  8
0
100
AcDbLine
 10
1511.788218166811
 20
1351.26416225108
 30
0.0
 11
1510.01677210387
 21
1351.26416225108
 31
0.0
  0
LINE
  5
E27
330
1F
100
AcDbEntity
  8
0
100
AcDbLine
 10
1452.76677210387
 20
1402.26416225108
 30
0.0
 11
1443.76677210387
 21
1402.26416225108
 31
0.0
  0
LINE
  5
E28
330
1F
100
AcDbEntity
  8
0
100
AcDbLine
 10
1520.76677210387
 20
1398.154572114751
 30
0.0
 11
1520.76677210387
 21
1399.76416225108
 31
0.0
  0
LINE
  5
E29
330
1F
100
AcDbEntity
  8
0
100
AcDbLine
 10
1508.26677210387
 20
1395.450076023018
 30
0.0
 11
1508.26677210387
 21
1399.76416225108
 31
0.0
  0
LINE
  5
E2A
330
1F
100
AcDbEntity
  8
0
100
AcDbLine
 10
1494.26677210387
 20
1392.943652155098
 30
0.0
 11
1494.26677210387
 21
1399.76416225108
 31
0.0
  0
LINE
  5
E2B
330
1F
100
AcDbEntity
  8
0
100
AcDbLine
 10
1481.76677210387
 20
1391.163658557748
 30
0.0
 11
1481.76677210387
 21
1399.76416225108
 31
0.0
  0
LINE
  5
E2C
330
1F
100
AcDbEntity
  8
0
100
AcDbLine
 10
1467.76677210387
 20
1389.675000748781
 30
0.0
 11
1467.76677210387
 21
1399.76416225108
 31
0.0
  0
LINE
  5
E2D
330
1F
100
AcDbEntity
  8
0
100
AcDbLine
 10
1455.26677210387
 20
1388.791697227243
 30
0.0
 11
1455.26677210387
 21
1399.76416225108
 31
0.0
  0
LINE
  5
E2E
330
1F
100
AcDbEntity
  8
0
100
AcDbLine
 10
1441.26677210387
 20
1388.297953768505
 30
0.0
 11
1441.26677210387
 21
1399.76416225108
 31
0.0
  0
ARC
  5
E2F
330
1F
100
AcDbEntity
  8
0
100
AcDbCircle
 10
1443.76677210387
 20
1399.76416225108
 30
0.0
 40
2.5
100
AcDbArc
 50
90.0
 51
180.0
  0
ARC
  5
E30
330
1F
100
AcDbEntity
  8
0
100
AcDbCircle
 10
1452.76677210387
 20
1399.76416225108
 30
0.0
 40
2.5
100
AcDbArc
 50
0.0
 51
90.0
  0
LINE
  5
E31
330
1F
100
AcDbEntity
  8
0
100
AcDbLine
 10
1470.26677210387
 20
1402.26416225108
 30
0.0
 11
1479.26677210387
 21
1402.26416225108
 31
0.0
  0
ARC
  5
E32
330
1F
100
AcDbEntity
  8
0
100
AcDbCircle
 10
1470.26677210387
 20
1399.76416225108
 30
0.0
 40
2.5
100
AcDbArc
 50
90.0
 51
180.0
  0
ARC
  5
E33
330
1F
100
AcDbEntity
  8
0
100
AcDbCircle
 10
1479.26677210387
 20
1399.76416225108
 30
0.0
 40
2.5
100
AcDbArc
 50
0.0
 51
90.0
  0
LINE
  5
E34
330
1F
100
AcDbEntity
  8
0
100
AcDbLine
 10
1496.76677210387
 20
1402.26416225108
 30
0.0
 11
1505.76677210387
 21
1402.26416225108
 31
0.0
  0
ARC
  5
E35
330
1F
100
AcDbEntity
  8
0
100
AcDbCircle
 10
1496.76677210387
 20
1399.76416225108
 30
0.0
 40
2.5
100
AcDbArc
 50
90.0
 51
180.0
  0
ARC
  5
E36
330
1F
100
AcDbEntity
  8
0
100
AcDbCircle
 10
1505.76677210387
 20
1399.76416225108
 30
0.0
 40
2.5
100
AcDbArc
 50
0.0
 51
90.0
  0
LINE
  5
E37
330
1F
100
AcDbEntity
  8
0
100
AcDbLine
 10
1523.26677210387
 20
1402.26416225108
 30
0.0
 11
1532.26677210387
 21
1402.26416225108
 31
0.0
  0
ARC
  5
E38
330
1F
100
AcDbEntity
  8
0
100
AcDbCircle
 10
1523.26677210387
 20
1399.76416225108
 30
0.0
 40
2.5
100
AcDbArc
 50
90.0
 51
180.0
  0
ARC
  5
E39
330
1F
100
AcDbEntity
  8
0
100
AcDbCircle
 10
1532.26677210387
 20
1399.76416225108
 30
0.0
 40
2.5
100
AcDbArc
 50
44.65031363513082
 51
90.0
  0
LINE
  5
E3A
330
1F
100
AcDbEntity
  8
0
100
AcDbLine
 10
1388.26677210387
 20
1391.163658557748
 30
0.0
 11
1386.302119989576
 21
1373.80976085743
 31
0.0
  0
ARC
  5
E3B
330
1F
100
AcDbEntity
  8
0
100
AcDbCircle
 10
1390.76677210387
 20
1399.76416225108
 30
0.0
 40
2.5
100
AcDbArc
 50
90.0
 51
180.0
  0
ARC
  5
E3C
330
1F
100
AcDbEntity
  8
0
100
AcDbCircle
 10
1399.76677210387
 20
1399.76416225108
 30
0.0
 40
2.5
100
AcDbArc
 50
0.0
 51
90.0
  0
LINE
  5
E3D
330
1F
100
AcDbEntity
  8
0
100
AcDbLine
 10
1399.76677210387
 20
1402.26416225108
 30
0.0
 11
1390.76677210387
 21
1402.26416225108
 31
0.0
  0
ARC
  5
E3E
330
1F
100
AcDbEntity
  8
0
100
AcDbCircle
 10
1417.26677210387
 20
1399.76416225108
 30
0.0
 40
2.5
100
AcDbArc
 50
90.0
 51
180.0
  0
ARC
  5
E3F
330
1F
100
AcDbEntity
  8
0
100
AcDbCircle
 10
1426.26677210387
 20
1399.76416225108
 30
0.0
 40
2.5
100
AcDbArc
 50
0.0
 51
90.0
  0
LINE
  5
E40
330
1F
100
AcDbEntity
  8
0
100
AcDbLine
 10
1402.26677210387
 20
1389.675000748781
 30
0.0
 11
1404.287622730566
 21
1371.484928877375
 31
0.0
  0
LINE
  5
E41
330
1F
100
AcDbEntity
  8
0
100
AcDbLine
 10
1414.76677210387
 20
1388.791697227243
 30
0.0
 11
1412.783140094306
 21
1371.242310359475
 31
0.0
  0
LINE
  5
E42
330
1F
100
AcDbEntity
  8
0
100
AcDbLine
 10
1428.766772103871
 20
1388.297953768505
 30
0.0
 11
1428.766772103871
 21
1399.76416225108
 31
0.0
  0
LINE
  5
E43
330
1F
100
AcDbEntity
  8
0
100
AcDbLine
 10
1414.76677210387
 20
1388.791697227243
 30
0.0
 11
1414.76677210387
 21
1399.76416225108
 31
0.0
  0
LINE
  5
E44
330
1F
100
AcDbEntity
  8
0
100
AcDbLine
 10
1402.26677210387
 20
1389.675000748781
 30
0.0
 11
1402.26677210387
 21
1399.76416225108
 31
0.0
  0
LINE
  5
E45
330
1F
100
AcDbEntity
  8
0
100
AcDbLine
 10
1388.26677210387
 20
1391.163658557748
 30
0.0
 11
1388.26677210387
 21
1399.76416225108
 31
0.0
  0
LINE
  5
E46
330
1F
100
AcDbEntity
  8
0
100
AcDbLine
 10
1417.26677210387
 20
1402.26416225108
 30
0.0
 11
1426.26677210387
 21
1402.26416225108
 31
0.0
  0
ARC
  5
E47
330
1F
100
AcDbEntity
  8
0
100
AcDbCircle
 10
1346.76677210387
 20
1399.76416225108
 30
0.0
 40
2.5
100
AcDbArc
 50
0.0
 51
90.0
  0
LINE
  5
E48
330
1F
100
AcDbEntity
  8
0
100
AcDbLine
 10
1349.26677210387
 20
1398.154572114751
 30
0.0
 11
1351.323868089439
 21
1378.950318554813
 31
0.0
  0
LINE
  5
E49
330
1F
100
AcDbEntity
  8
0
100
AcDbLine
 10
1361.76677210387
 20
1395.450076023018
 30
0.0
 11
1359.821345837086
 21
1378.209134627481
 31
0.0
  0
ARC
  5
E4A
330
1F
100
AcDbEntity
  8
0
100
AcDbCircle
 10
1364.26677210387
 20
1399.76416225108
 30
0.0
 40
2.5
100
AcDbArc
 50
90.0
 51
180.0
  0
ARC
  5
E4B
330
1F
100
AcDbEntity
  8
0
100
AcDbCircle
 10
1373.26677210387
 20
1399.76416225108
 30
0.0
 40
2.5
100
AcDbArc
 50
0.0
 51
90.0
  0
LINE
  5
E4C
330
1F
100
AcDbEntity
  8
0
100
AcDbLine
 10
1373.26677210387
 20
1402.26416225108
 30
0.0
 11
1364.26677210387
 21
1402.26416225108
 31
0.0
  0
LINE
  5
E4D
330
1F
100
AcDbEntity
  8
0
100
AcDbLine
 10
1375.76677210387
 20
1392.943652155098
 30
0.0
 11
1375.76677210387
 21
1399.76416225108
 31
0.0
  0
LINE
  5
E4E
330
1F
100
AcDbEntity
  8
0
100
AcDbLine
 10
1361.76677210387
 20
1395.450076023018
 30
0.0
 11
1361.76677210387
 21
1399.76416225108
 31
0.0
  0
LINE
  5
E4F
330
1F
100
AcDbEntity
  8
0
100
AcDbLine
 10
1349.26677210387
 20
1398.154572114751
 30
0.0
 11
1349.26677210387
 21
1399.76416225108
 31
0.0
  0
LINE
  5
E50
330
1F
100
AcDbEntity
  8
0
100
AcDbLine
 10
1346.76677210387
 20
1402.26416225108
 30
0.0
 11
1337.76677210387
 21
1402.26416225108
 31
0.0
  0
ARC
  5
E51
330
1F
100
AcDbEntity
  8
0
100
AcDbCircle
 10
1337.76677210387
 20
1399.76416225108
 30
0.0
 40
2.5
100
AcDbArc
 50
90.0
 51
135.3496863638097
  0
LINE
  5
E52
330
1F
100
AcDbEntity
  8
0
100
AcDbLine
 10
1375.76677210387
 20
1392.943652155098
 30
0.0
 11
1377.805865274259
 21
1374.29827232299
 31
0.0
  0
ARC
  5
E53
102
{ACAD_REACTORS
330
1166
102
}
330
1F
100
AcDbEntity
  8
0
100
AcDbCircle
 10
1435.01677210387
 20
1764.246005366063
 30
0.0
 40
376.0
100
AcDbArc
 50
252.1906267360633
 51
254.7296579849151
  0
LINE
  5
E54
330
1F
100
AcDbEntity
  8
0
100
AcDbLine
 10
1320.01677210387
 20
1406.26416225108
 30
0.0
 11
1550.016772103871
 21
1406.26416225108
 31
0.0
  0
LINE
  5
E55
330
1F
100
AcDbEntity
  8
0
100
AcDbLine
 10
1430.769136592969
 20
1370.489060263138
 30
0.0
 11
1428.766772103871
 21
1388.297953768505
 31
0.0
  0
LINE
  5
E56
330
1F
100
AcDbEntity
  8
0
100
AcDbLine
 10
1439.264407614771
 20
1370.489060263138
 30
0.0
 11
1441.26677210387
 21
1388.297953768505
 31
0.0
  0
ARC
  5
E57
330
1F
100
AcDbEntity
  8
0
100
AcDbCircle
 10
1435.01677210387
 20
1764.264159228942
 30
0.0
 40
396.0
100
AcDbArc
 50
269.7432590021663
 51
270.2567409978337
  0
ARC
  5
E58
330
1F
100
AcDbEntity
  8
0
100
AcDbCircle
 10
1410.298958804233
 20
1371.523100882909
 30
0.0
 40
2.5
100
AcDbArc
 50
266.3985784330574
 51
353.5511478160926
  0
ARC
  5
E59
330
1F
100
AcDbEntity
  8
0
100
AcDbCircle
 10
1435.01677210387
 20
1764.246005366063
 30
0.0
 40
396.0
100
AcDbArc
 50
265.8839141541337
 51
266.3985784330574
  0
ARC
  5
E5A
330
1F
100
AcDbEntity
  8
0
100
AcDbCircle
 10
1406.772336091992
 20
1371.760971467481
 30
0.0
 40
2.5
100
AcDbArc
 50
186.3393564197923
 51
265.8839141541337
  0
ARC
  5
E5B
330
1F
100
AcDbEntity
  8
0
100
AcDbCircle
 10
1383.817988527557
 20
1374.090991864627
 30
0.0
 40
2.5
100
AcDbArc
 50
262.5239779426248
 51
353.5409882864105
  0
ARC
  5
E5C
330
1F
100
AcDbEntity
  8
0
100
AcDbCircle
 10
1435.01677210387
 20
1764.246005366063
 30
0.0
 40
396.0
100
AcDbArc
 50
262.0057183795351
 51
262.5239779426248
  0
ARC
  5
E5D
330
1F
100
AcDbEntity
  8
0
100
AcDbCircle
 10
1380.291048036466
 20
1374.570056499189
 30
0.0
 40
2.5
100
AcDbArc
 50
186.2411696253441
 51
262.0057183795351
  0
ARC
  5
E5E
330
1F
100
AcDbEntity
  8
0
100
AcDbCircle
 10
1357.337110853849
 20
1378.489449714598
 30
0.0
 40
2.5
100
AcDbArc
 50
258.6146307426158
 51
353.5621132798836
  0
ARC
  5
E5F
330
1F
100
AcDbEntity
  8
0
100
AcDbCircle
 10
1435.01677210387
 20
1764.246005366063
 30
0.0
 40
396.0
100
AcDbArc
 50
258.0902119349956
 51
258.6146307426158
  0
ARC
  5
E60
330
1F
100
AcDbEntity
  8
0
100
AcDbCircle
 10
1353.809647864729
 20
1379.216587044802
 30
0.0
 40
2.5
100
AcDbArc
 50
186.1140210464083
 51
258.0902119349956
  0
ARC
  5
E61
330
1F
100
AcDbEntity
  8
0
100
AcDbCircle
 10
1433.253514052097
 20
1370.768109793826
 30
0.0
 40
2.5
100
AcDbArc
 50
186.4086990781883
 51
269.7432590021663
  0
ARC
  5
E62
330
1F
100
AcDbEntity
  8
0
100
AcDbCircle
 10
1436.780030155643
 20
1370.768109793826
 30
0.0
 40
2.5
100
AcDbArc
 50
270.2567409978337
 51
353.5913009218117
  0
ARC
  5
E63
330
1F
100
AcDbEntity
  8
0
100
AcDbCircle
 10
1516.223896343012
 20
1379.216587044802
 30
0.0
 40
2.5
100
AcDbArc
 50
281.9097880650044
 51
353.8859789535917
  0
ARC
  5
E64
330
1F
100
AcDbEntity
  8
0
100
AcDbCircle
 10
1435.01677210387
 20
1764.246005366063
 30
0.0
 40
396.0
100
AcDbArc
 50
281.3853692573842
 51
281.9097880650044
  0
ARC
  5
E65
330
1F
100
AcDbEntity
  8
0
100
AcDbCircle
 10
1512.696433353891
 20
1378.489449714598
 30
0.0
 40
2.5
100
AcDbArc
 50
186.4378867201164
 51
281.3853692573842
  0
LINE
  5
E66
330
1F
100
AcDbEntity
  8
0
100
AcDbLine
 10
1520.76677210387
 20
1398.154572114751
 30
0.0
 11
1518.709676118301
 21
1378.950318554813
 31
0.0
  0
LINE
  5
E67
330
1F
100
AcDbEntity
  8
0
100
AcDbLine
 10
1508.26677210387
 20
1395.450076023018
 30
0.0
 11
1510.212198370655
 21
1378.209134627481
 31
0.0
  0
LINE
  5
E68
330
1F
100
AcDbEntity
  8
0
100
AcDbLine
 10
1494.26677210387
 20
1392.943652155098
 30
0.0
 11
1492.227678933481
 21
1374.29827232299
 31
0.0
  0
LINE
  5
E69
330
1F
100
AcDbEntity
  8
0
100
AcDbLine
 10
1481.76677210387
 20
1391.163658557748
 30
0.0
 11
1483.731424218164
 21
1373.80976085743
 31
0.0
  0
ARC
  5
E6A
330
1F
100
AcDbEntity
  8
0
100
AcDbCircle
 10
1489.742496171274
 20
1374.570056499189
 30
0.0
 40
2.5
100
AcDbArc
 50
277.9942816204648
 51
353.7588303746558
  0
ARC
  5
E6B
330
1F
100
AcDbEntity
  8
0
100
AcDbCircle
 10
1435.01677210387
 20
1764.246005366063
 30
0.0
 40
396.0
100
AcDbArc
 50
277.4760220573752
 51
277.9942816204648
  0
ARC
  5
E6C
330
1F
100
AcDbEntity
  8
0
100
AcDbCircle
 10
1486.215555680183
 20
1374.090991864627
 30
0.0
 40
2.5
100
AcDbArc
 50
186.4590117135895
 51
277.4760220573752
  0
LINE
  5
E6D
330
1F
100
AcDbEntity
  8
0
100
AcDbLine
 10
1467.76677210387
 20
1389.675000748781
 30
0.0
 11
1465.745921477174
 21
1371.484928877375
 31
0.0
  0
LINE
  5
E6E
330
1F
100
AcDbEntity
  8
0
100
AcDbLine
 10
1455.26677210387
 20
1388.791697227243
 30
0.0
 11
1457.250404113435
 21
1371.242310359475
 31
0.0
  0
ARC
  5
E6F
330
1F
100
AcDbEntity
  8
0
100
AcDbCircle
 10
1463.261208115748
 20
1371.760971467481
 30
0.0
 40
2.5
100
AcDbArc
 50
274.1160858458663
 51
353.6606435802077
  0
ARC
  5
E70
330
1F
100
AcDbEntity
  8
0
100
AcDbCircle
 10
1435.01677210387
 20
1764.246005366063
 30
0.0
 40
396.0
100
AcDbArc
 50
273.6014215669425
 51
274.1160858458663
  0
ARC
  5
E71
330
1F
100
AcDbEntity
  8
0
100
AcDbCircle
 10
1459.734585403508
 20
1371.523100882909
 30
0.0
 40
2.5
100
AcDbArc
 50
186.4488521839075
 51
273.6014215669425
  0
ARC
  5
E72
330
1F
100
AcDbEntity
  8
0
100
AcDbCircle
 10
1435.01677210387
 20
1764.246005366063
 30
0.0
 40
396.0
100
AcDbArc
 50
285.5953267676718
 51
286.4735895950976
  0
LINE
  5
E73
330
1F
100
AcDbEntity
  8
0
100
AcDbLine
 10
1550.016772103871
 20
1406.26416225108
 30
0.0
 11
1549.100122065931
 21
1386.781470489967
 31
0.0
  0
LINE
  5
E74
330
1F
100
AcDbEntity
  8
0
100
AcDbLine
 10
1534.045295063485
 20
1401.521107350428
 30
0.0
 11
1538.384258134085
 21
1384.611540349915
 31
0.0
  0
ARC
  5
E75
330
1F
100
AcDbEntity
  8
0
100
AcDbCircle
 10
1540.805808312187
 20
1385.232905568555
 30
0.0
 40
2.5
100
AcDbArc
 50
194.3914938027655
 51
285.5953267676718
  0
ARC
  5
E76
330
1F
100
AcDbEntity
  8
0
100
AcDbCircle
 10
1546.602884544475
 20
1386.898964155465
 30
0.0
 40
2.5
100
AcDbArc
 50
286.4735895950976
 51
357.3062512761283
  0
LINE
  5
E77
330
1F
100
AcDbEntity
  8
0
100
AcDbLine
 10
1335.988249144256
 20
1401.521107350428
 30
0.0
 11
1331.649286073656
 21
1384.611540349915
 31
0.0
  0
ARC
  5
E78
330
1F
100
AcDbEntity
  8
0
100
AcDbCircle
 10
1323.430659663265
 20
1386.898964155465
 30
0.0
 40
2.5
100
AcDbArc
 50
182.6937487238717
 51
253.5264104049024
  0
ARC
  5
E79
330
1F
100
AcDbEntity
  8
0
100
AcDbCircle
 10
1329.227735895554
 20
1385.232905568555
 30
0.0
 40
2.5
100
AcDbArc
 50
254.4046732323282
 51
345.6085061972345
  0
ARC
  5
E7A
330
1F
100
AcDbEntity
  8
0
100
AcDbCircle
 10
1435.01677210387
 20
1764.246005366063
 30
0.0
 40
396.0
100
AcDbArc
 50
253.5264104049024
 51
254.4046732323282
  0
LINE
  5
E7B
102
{ACAD_REACTORS
330
1166
102
}
330
1F
100
AcDbEntity
  8
0
100
AcDbLine
 10
1320.01677210387
 20
1406.26416225108
 30
0.0
 11
1320.933422141809
 21
1386.781470489967
 31
0.0
  0
ARC
  5
E7C
330
1F
100
AcDbEntity
  8
0
100
AcDbCircle
 10
1435.01677210387
 20
1764.246005366063
 30
0.0
 40
376.0
100
AcDbArc
 50
256.8172049478516
 51
258.7661517450995
  0
ARC
  5
E7D
330
1F
100
AcDbEntity
  8
0
100
AcDbCircle
 10
1435.01677210387
 20
1764.246005366063
 30
0.0
 40
376.0
100
AcDbArc
 50
260.9335537667424
 51
262.8576393543595
  0
ARC
  5
E7E
330
1F
100
AcDbEntity
  8
0
100
AcDbCircle
 10
1435.01677210387
 20
1764.246005366063
 30
0.0
 40
376.0
100
AcDbArc
 50
265.0031448307323
 51
266.9127629001502
  0
ARC
  5
E7F
330
1F
100
AcDbEntity
  8
0
100
AcDbCircle
 10
1435.01677210387
 20
1966.273746364347
 30
0.0
 40
578.0095841132669
100
AcDbArc
 50
269.3804504106248
 51
270.6195495893752
  0
ARC
  5
E80
330
1F
100
AcDbEntity
  8
0
100
AcDbCircle
 10
1435.01677210387
 20
1764.246005366063
 30
0.0
 40
376.0
100
AcDbArc
 50
273.0872370998498
 51
274.9968551692677
  0
ARC
  5
E81
330
1F
100
AcDbEntity
  8
0
100
AcDbCircle
 10
1435.01677210387
 20
1764.246005366063
 30
0.0
 40
376.0
100
AcDbArc
 50
277.1423606456405
 51
279.0664462332576
  0
ARC
  5
E82
330
1F
100
AcDbEntity
  8
0
100
AcDbCircle
 10
1435.01677210387
 20
1764.246005366063
 30
0.0
 40
376.0
100
AcDbArc
 50
281.2338482549005
 51
283.1827950521484
  0
ARC
  5
E83
102
{ACAD_REACTORS
330
1166
330
133A
102
}
330
1F
100
AcDbEntity
  8
0
100
AcDbCircle
 10
1435.01677210387
 20
1764.246005366063
 30
0.0
 40
376.0
100
AcDbArc
 50
285.2703420150849
 51
287.8093732639367
  0
LINE
  5
E85
330
1F
100
AcDbEntity
  8
0
100
AcDbLine
 10
1493.098843366424
 20
1382.26416225108
 30
0.0
 11
1509.754638828487
 21
1382.26416225108
 31
0.0
  0
LINE
  5
E86
330
1F
100
AcDbEntity
  8
0
100
AcDbLine
 10
1466.943454981854
 20
1382.26416225108
 30
0.0
 11
1482.774292981138
 21
1382.26416225108
 31
0.0
  0
LINE
  5
E87
330
1F
100
AcDbEntity
  8
0
100
AcDbLine
 10
1440.589046307806
 20
1382.26416225108
 30
0.0
 11
1456.00458861107
 21
1382.26416225108
 31
0.0
  0
LINE
  5
E88
330
1F
100
AcDbEntity
  8
0
100
AcDbLine
 10
1414.028955596671
 20
1382.26416225108
 30
0.0
 11
1429.444497899934
 21
1382.26416225108
 31
0.0
  0
LINE
  5
E89
330
1F
100
AcDbEntity
  8
0
100
AcDbLine
 10
1360.278905379254
 20
1382.26416225108
 30
0.0
 11
1376.934700841317
 21
1382.26416225108
 31
0.0
  0
LINE
  5
E8A
330
1F
100
AcDbEntity
  8
0
100
AcDbLine
 10
1388.26677210387
 20
1391.163658557748
 30
0.0
 11
1402.26677210387
 21
1389.675000748781
 31
0.0
  0
LINE
  5
E8B
330
1F
100
AcDbEntity
  8
0
100
AcDbLine
 10
1402.26677210387
 20
1389.675000748781
 30
0.0
 11
1402.266777685414
 21
1389.675000260768
 31
0.0
  0
HATCH
  5
E8C
330
1F
100
AcDbEntity
  8
8
100
AcDbHatch
 10
0.0
 20
0.0
 30
0.0
210
0.0
220
0.0
230
1.0
  2
ANSI31
 70
     0
 71
     0
 91
        1
 92
        7
 72
     1
 73
     1
 93
        6
 10
1335.988249144256
 20
1401.521107350428
 42
-0.0110790670452071
 10
1320.01677210387
 20
1406.26416225108
 42
0.0
 10
1320.933422141809
 20
1386.781470489967
 42
0.3192977451004999
 10
1322.721726293249
 20
1384.501587781827
 42
0.0038321632679782
 10
1328.555632743023
 20
1382.824944324607
 42
0.4203809729643916
 10
1331.649286073656
 20
1384.611540349915
 42
0.0
 97
        0
 75
     0
 76
     1
 52
0.0
 41
50.0
 77
     0
 78
     1
 53
45.0
 43
603.9216520746749
 44
588.0390409261359
 45
-4.419417382415921
 46
4.419417382415922
 79
     0
 47
0.3040580840437426
 98
        1
 10
1329.171652074675
 20
1391.039040926136
  0
HATCH
  5
E8D
330
1F
100
AcDbEntity
  8
8
100
AcDbHatch
 10
0.0
 20
0.0
 30
0.0
210
0.0
220
0.0
230
1.0
  2
ANSI31
 70
     0
 71
     0
 91
        1
 92
        7
 72
     1
 73
     1
 93
        6
 10
1361.76677210387
 20
1395.450076023018
 42
-0.008504089634647
 10
1349.26677210387
 20
1398.154572114751
 42
0.0
 10
1351.323868089439
 20
1378.950318554813
 42
0.3248048456365143
 10
1353.293719502345
 20
1376.770402684438
 42
0.0022882127067223
 10
1356.843593310965
 20
1376.038645676151
 42
0.4397370421113141
 10
1359.821345837086
 20
1378.209134627481
 42
0.0
 97
        0
 75
     0
 76
     1
 52
0.0
 41
50.0
 77
     0
 78
     1
 53
45.0
 43
603.9216520746749
 44
588.0390409261359
 45
-4.419417382415921
 46
4.419417382415922
 79
     0
 47
0.3041123776600417
 98
        1
 10
1357.171652074675
 20
1388.789040926136
  0
HATCH
  5
E8E
330
1F
100
AcDbEntity
  8
8
100
AcDbHatch
 10
0.0
 20
0.0
 30
0.0
210
0.0
220
0.0
230
1.0
  2
ANSI31
 70
     0
 71
     0
 91
        2
 92
        7
 72
     1
 73
     1
 93
        4
 10
1388.26677210387
 20
1391.163658557748
 42
-0.0083956043981768
 10
1375.76677210387
 20
1392.943652155098
 42
0.0
 10
1376.934700841317
 20
1382.26416225108
 42
0.0
 10
1387.259251226602
 20
1382.26416225108
 42
0.0
 97
        0
 92
        7
 72
     1
 73
     1
 93
        6
 10
1387.259251226602
 20
1382.26416225108
 42
0.0
 10
1376.934700841317
 20
1382.26416225108
 42
0.0
 10
1377.805865274259
 20
1374.29827232299
 42
0.3431788652358352
 10
1379.943362368948
 20
1372.094351614393
 42
0.002261337793543
 10
1383.492710359982
 20
1371.612243367159
 42
0.4194220773565349
 10
1386.302119989576
 20
1373.80976085743
 42
0.0
 97
        0
 75
     0
 76
     1
 52
0.0
 41
50.0
 77
     0
 78
     1
 53
45.0
 43
603.9216520746749
 44
588.0390409261359
 45
-4.419417382415921
 46
4.419417382415922
 79
     0
 47
0.3041123776600417
 98
        2
 10
1382.921652074675
 20
1387.289040926136
 10
1382.921652074675
 20
1379.789040926136
  0
HATCH
  5
E8F
330
1F
100
AcDbEntity
  8
8
100
AcDbHatch
 10
0.0
 20
0.0
 30
0.0
210
0.0
220
0.0
230
1.0
  2
ANSI31
 70
     0
 71
     0
 91
        1
 92
        7
 72
     1
 73
     1
 93
        7
 10
1414.76677210387
 20
1388.791697227243
 42
-0.0083324679045701
 10
1402.266780524607
 20
1389.675000012528
 42
0.0
 10
1402.26677210387
 20
1389.675000748781
 42
0.0
 10
1404.287622730566
 20
1371.484928877375
 42
0.3617213576139339
 10
1406.592892407037
 20
1369.26741979087
 42
0.0022456503273151
 10
1410.141920600296
 20
1369.028037957349
 42
0.3997314207401477
 10
1412.783140094306
 20
1371.242310359475
 42
0.0
 97
        0
 75
     0
 76
     1
 52
0.0
 41
50.0
 77
     0
 78
     1
 53
45.0
 43
603.9216520746749
 44
588.0390409261359
 45
-4.419417382415921
 46
4.419417382415922
 79
     0
 47
0.3041123776600417
 98
        1
 10
1407.671652074675
 20
1385.789040926136
  0
HATCH
  5
E90
330
1F
100
AcDbEntity
  8
8
100
AcDbHatch
 10
0.0
 20
0.0
 30
0.0
210
0.0
220
0.0
230
1.0
  2
ANSI31
 70
     0
 71
     0
 91
        2
 92
        7
 72
     1
 73
     1
 93
        5
 10
1435.01677210387
 20
1388.246005366063
 42
-0.0041558004206471
 10
1428.766772103871
 20
1388.297953768505
 42
0.0
 10
1430.769136592969
 20
1370.470906400258
 42
0.3805363647049185
 10
1433.242311650244
 20
1368.249981029834
 42
0.0011202444029055
 10
1435.01677210387
 20
1368.246005366063
 42
0.0
 97
        0
 92
        7
 72
     1
 73
     1
 93
        5
 10
1441.26677210387
 20
1388.297953768505
 42
-0.0041558004206471
 10
1435.01677210387
 20
1388.246005366063
 42
0.0
 10
1435.01677210387
 20
1368.246005366063
 42
0.0011202444029053
 10
1436.791232557497
 20
1368.249981029835
 42
0.3805363647049429
 10
1439.264407614771
 20
1370.470906400259
 42
0.0
 97
        0
 75
     0
 76
     1
 52
0.0
 41
50.0
 77
     0
 78
     1
 53
45.0
 43
603.9216520746749
 44
588.0390409261359
 45
-4.419417382415921
 46
4.419417382415922
 79
     0
 47
0.3041123776600417
 98
        2
 10
1431.921652074675
 20
1383.039040926136
 10
1438.421652074675
 20
1383.039040926136
  0
HATCH
  5
E91
330
1F
100
AcDbEntity
  8
8
100
AcDbHatch
 10
0.0
 20
0.0
 30
0.0
210
0.0
220
0.0
230
1.0
  2
ANSI31
 70
     0
 71
     0
 91
        1
 92
        7
 72
     1
 73
     1
 93
        6
 10
1467.76677210387
 20
1389.675000748781
 42
-0.0083324735252144
 10
1455.26677210387
 20
1388.791697227243
 42
0.0
 10
1457.250404113435
 20
1371.242310359475
 42
0.3997314207401594
 10
1459.891623607445
 20
1369.028037957349
 42
0.002245650327315
 10
1463.440651800703
 20
1369.26741979087
 42
0.3617213576139465
 10
1465.745921477174
 20
1371.484928877375
 42
0.0
 97
        0
 75
     0
 76
     1
 52
0.0
 41
50.0
 77
     0
 78
     1
 53
45.0
 43
603.9216520746749
 44
588.0390409261359
 45
-4.419417382415921
 46
4.419417382415922
 79
     0
 47
0.3041123776600417
 98
        1
 10
1463.171652074675
 20
1384.039040926136
  0
HATCH
  5
E92
330
1F
100
AcDbEntity
  8
8
100
AcDbHatch
 10
0.0
 20
0.0
 30
0.0
210
0.0
220
0.0
230
1.0
  2
ANSI31
 70
     0
 71
     0
 91
        1
 92
        7
 72
     1
 73
     1
 93
        6
 10
1494.26677210387
 20
1392.943652155098
 42
-0.0083956043981767
 10
1481.76677210387
 20
1391.163658557748
 42
0.0
 10
1483.731424218164
 20
1373.80976085743
 42
0.4194220773565348
 10
1486.540833847758
 20
1371.612243367159
 42
0.0022613377935429
 10
1490.090181838793
 20
1372.094351614393
 42
0.3431788652358235
 10
1492.227678933481
 20
1374.29827232299
 42
0.0
 97
        0
 75
     0
 76
     1
 52
0.0
 41
50.0
 77
     0
 78
     1
 53
45.0
 43
603.9216520746749
 44
588.0390409261359
 45
-4.419417382415921
 46
4.419417382415922
 79
     0
 47
0.3041123776600417
 98
        1
 10
1488.421652074675
 20
1384.039040926136
  0
HATCH
  5
E93
330
1F
100
AcDbEntity
  8
8
100
AcDbHatch
 10
0.0
 20
0.0
 30
0.0
210
0.0
220
0.0
230
1.0
  2
ANSI31
 70
     0
 71
     0
 91
        1
 92
        7
 72
     1
 73
     1
 93
        6
 10
1520.76677210387
 20
1398.154572114751
 42
-0.008504089634647
 10
1508.26677210387
 20
1395.450076023018
 42
0.0
 10
1510.212198370655
 20
1378.209134627481
 42
0.439737042111326
 10
1513.189950896776
 20
1376.038645676151
 42
0.0022882127067225
 10
1516.739824705395
 20
1376.770402684438
 42
0.324804845636482
 10
1518.709676118301
 20
1378.950318554813
 42
0.0
 97
        0
 75
     0
 76
     1
 52
0.0
 41
50.0
 77
     0
 78
     1
 53
45.0
 43
603.9216520746749
 44
588.0390409261359
 45
-4.419417382415921
 46
4.419417382415922
 79
     0
 47
0.3041123776600417
 98
        1
 10
1515.921652074675
 20
1390.039040926136
  0
HATCH
  5
E94
330
1F
100
AcDbEntity
  8
8
100
AcDbHatch
 10
0.0
 20
0.0
 30
0.0
210
0.0
220
0.0
230
1.0
  2
ANSI31
 70
     0
 71
     0
 91
        1
 92
        7
 72
     1
 73
     1
 93
        6
 10
1550.016772103871
 20
1406.26416225108
 42
-0.0110790670452066
 10
1534.04529506348
 20
1401.521107350449
 42
0.0
 10
1538.384258134085
 20
1384.611540349915
 42
0.4203809729643775
 10
1541.477911464717
 20
1382.824944324606
 42
0.0038321632679783
 10
1547.311817914492
 20
1384.501587781827
 42
0.3192977451004876
 10
1549.100122065931
 20
1386.781470489967
 42
0.0
 97
        0
 75
     0
 76
     1
 52
0.0
 41
50.0
 77
     0
 78
     1
 53
45.0
 43
603.9216520746749
 44
588.0390409261359
 45
-4.419417382415921
 46
4.419417382415922
 79
     0
 47
0.3041123762076228
 98
        1
 10
1545.171652074675
 20
1399.539040926136
  0
LINE
  5
E96
330
1F
100
AcDbEntity
  8
0
100
AcDbLine
 10
1329.227735895554
 20
1382.732905568555
 30
0.0
 11
1350.968900136995
 21
1382.26416225108
 31
0.0
  0
LINE
  5
E97
330
1F
100
AcDbEntity
  8
0
100
AcDbLine
 10
1387.259251226602
 20
1382.26416225108
 30
0.0
 11
1403.090089225886
 21
1382.26416225108
 31
0.0
  0
CIRCLE
  5
F18
330
1F
100
AcDbEntity
  8
0
100
AcDbCircle
 10
1428.76677210387
 20
726.2641622510803
 30
0.0
 40
115.0
  0
ARC
  5
F19
330
1F
100
AcDbEntity
  8
0
100
AcDbCircle
 10
1428.76677210387
 20
726.2641622510803
 30
0.0
 40
100.0
100
AcDbArc
 50
154.8405556717641
 51
205.1594443282359
  0
LINE
  5
F1A
330
1F
100
AcDbEntity
  8
0
100
AcDbLine
 10
1343.01677210387
 20
767.715187570124
 30
0.0
 11
1343.01677210387
 21
684.8131369320367
 31
0.0
  0
LINE
  5
F1B
330
1F
100
AcDbEntity
  8
0
100
AcDbLine
 10
1355.51677210387
 20
790.2910120876918
 30
0.0
 11
1355.51677210387
 21
662.2373124144687
 31
0.0
  0
LINE
  5
F1C
330
1F
100
AcDbEntity
  8
0
100
AcDbLine
 10
1369.51677210387
 20
798.4821482379523
 30
0.0
 11
1369.51677210387
 21
654.0461762642082
 31
0.0
  0
LINE
  5
F1D
330
1F
100
AcDbEntity
  8
0
100
AcDbLine
 10
1382.01677210387
 20
810.9721164230467
 30
0.0
 11
1382.01677210387
 21
641.5562080791137
 31
0.0
  0
LINE
  5
F1E
330
1F
100
AcDbEntity
  8
0
100
AcDbLine
 10
1396.01677210387
 20
814.9514640478992
 30
0.0
 11
1396.01677210387
 21
637.5768604542615
 31
0.0
  0
LINE
  5
F1F
330
1F
100
AcDbEntity
  8
0
100
AcDbLine
 10
1408.51677210387
 20
820.8788413447601
 30
0.0
 11
1408.51677210387
 21
631.6494831574004
 31
0.0
  0
LINE
  5
F20
330
1F
100
AcDbEntity
  8
0
100
AcDbLine
 10
1422.51677210387
 20
821.7153932541428
 30
0.0
 11
1422.51677210387
 21
630.8129312480177
 31
0.0
  0
ARC
  5
F21
330
1F
100
AcDbEntity
  8
0
100
AcDbCircle
 10
1428.76677210387
 20
726.2641622510803
 30
0.0
 40
100.0
100
AcDbArc
 50
112.5080045552368
 51
115.6905612854664
  0
ARC
  5
F22
330
1F
100
AcDbEntity
  8
0
100
AcDbCircle
 10
1428.76677210387
 20
726.2641622510803
 30
0.0
 40
100.0
100
AcDbArc
 50
131.2125434709369
 51
134.6502925371595
  0
ARC
  5
F23
330
1F
100
AcDbEntity
  8
0
100
AcDbCircle
 10
1392.01677210387
 20
814.9514640478992
 30
0.0
 40
4.0
100
AcDbArc
 50
0.0
 51
112.5080045552368
  0
ARC
  5
F24
330
1F
100
AcDbEntity
  8
0
100
AcDbCircle
 10
1365.516772103871
 20
798.4821482379523
 30
0.0
 40
4.0
100
AcDbArc
 50
0.0
 51
131.2125434709369
  0
ARC
  5
F25
330
1F
100
AcDbEntity
  8
0
100
AcDbCircle
 10
1340.51677210387
 20
767.715187570124
 30
0.0
 40
2.5
100
AcDbArc
 50
0.0
 51
154.8405556717641
  0
ARC
  5
F26
330
1F
100
AcDbEntity
  8
0
100
AcDbCircle
 10
1428.76677210387
 20
726.2641622510803
 30
0.0
 40
100.0
100
AcDbArc
 50
260.2545735172309
 51
263.8707985440648
  0
ARC
  5
F27
330
1F
100
AcDbEntity
  8
0
100
AcDbCircle
 10
1428.76677210387
 20
726.2641622510803
 30
0.0
 40
100.0
100
AcDbArc
 50
244.3094387145336
 51
247.4919954447632
  0
ARC
  5
F28
330
1F
100
AcDbEntity
  8
0
100
AcDbCircle
 10
1428.76677210387
 20
726.2641622510803
 30
0.0
 40
100.0
100
AcDbArc
 50
225.3497074628404
 51
228.7874565290631
  0
ARC
  5
F29
330
1F
100
AcDbEntity
  8
0
100
AcDbCircle
 10
1340.51677210387
 20
684.8131369320367
 30
0.0
 40
2.5
100
AcDbArc
 50
205.1594443282359
 51
0.0
  0
ARC
  5
F2A
330
1F
100
AcDbEntity
  8
0
100
AcDbCircle
 10
1365.51677210387
 20
662.2373124144687
 30
0.0
 40
10.0
100
AcDbArc
 50
180.0
 51
225.3497074628404
  0
ARC
  5
F2B
330
1F
100
AcDbEntity
  8
0
100
AcDbCircle
 10
1388.01677210387
 20
641.5562080791137
 30
0.0
 40
6.0
100
AcDbArc
 50
180.0
 51
244.3094387145336
  0
ARC
  5
F2C
330
1F
100
AcDbEntity
  8
0
100
AcDbCircle
 10
1412.51677210387
 20
631.6494831574004
 30
0.0
 40
4.0
100
AcDbArc
 50
180.0
 51
260.2545735172309
  0
ARC
  5
F2D
330
1F
100
AcDbEntity
  8
0
100
AcDbCircle
 10
1418.51677210387
 20
630.8129312480177
 30
0.0
 40
4.0
100
AcDbArc
 50
263.8707985440648
 51
0.0
  0
ARC
  5
F2E
330
1F
100
AcDbEntity
  8
0
100
AcDbCircle
 10
1365.516772103871
 20
654.0461762642082
 30
0.0
 40
4.0
100
AcDbArc
 50
228.7874565290631
 51
0.0
  0
ARC
  5
F2F
330
1F
100
AcDbEntity
  8
0
100
AcDbCircle
 10
1392.01677210387
 20
637.5768604542615
 30
0.0
 40
4.0
100
AcDbArc
 50
247.4919954447632
 51
0.0
  0
ARC
  5
F30
330
1F
100
AcDbEntity
  8
0
100
AcDbCircle
 10
1418.51677210387
 20
821.7153932541428
 30
0.0
 40
4.0
100
AcDbArc
 50
0.0
 51
96.12920145593529
  0
ARC
  5
F31
330
1F
100
AcDbEntity
  8
0
100
AcDbCircle
 10
1412.51677210387
 20
820.8788413447601
 30
0.0
 40
4.0
100
AcDbArc
 50
99.74542648276903
 51
180.0
  0
ARC
  5
F32
330
1F
100
AcDbEntity
  8
0
100
AcDbCircle
 10
1428.76677210387
 20
726.2641622510803
 30
0.0
 40
100.0
100
AcDbArc
 50
96.12920145593529
 51
99.74542648276903
  0
ARC
  5
F33
330
1F
100
AcDbEntity
  8
0
100
AcDbCircle
 10
1365.51677210387
 20
790.2910120876918
 30
0.0
 40
10.0
100
AcDbArc
 50
134.6502925371595
 51
180.0
  0
ARC
  5
F34
330
1F
100
AcDbEntity
  8
0
100
AcDbCircle
 10
1388.01677210387
 20
810.9721164230467
 30
0.0
 40
6.0
100
AcDbArc
 50
115.6905612854664
 51
180.0
  0
ARC
  5
F35
330
1F
100
AcDbEntity
  8
0
100
AcDbCircle
 10
1492.016772103871
 20
790.2910120876918
 30
0.0
 40
10.0
100
AcDbArc
 50
0.0
 51
45.34970746284042
  0
ARC
  5
F36
330
1F
100
AcDbEntity
  8
0
100
AcDbCircle
 10
1492.01677210387
 20
654.0461762642082
 30
0.0
 40
4.0
100
AcDbArc
 50
180.0
 51
311.2125434709369
  0
ARC
  5
F37
330
1F
100
AcDbEntity
  8
0
100
AcDbCircle
 10
1492.016772103871
 20
662.2373124144687
 30
0.0
 40
10.0
100
AcDbArc
 50
314.6502925371596
 51
0.0
  0
ARC
  5
F38
330
1F
100
AcDbEntity
  8
0
100
AcDbCircle
 10
1517.01677210387
 20
684.8131369320367
 30
0.0
 40
2.5
100
AcDbArc
 50
180.0
 51
334.840555671764
  0
ARC
  5
F39
330
1F
100
AcDbEntity
  8
0
100
AcDbCircle
 10
1428.76677210387
 20
726.2641622510803
 30
0.0
 40
100.0
100
AcDbArc
 50
311.2125434709369
 51
314.6502925371596
  0
ARC
  5
F3A
330
1F
100
AcDbEntity
  8
0
100
AcDbCircle
 10
1517.01677210387
 20
767.715187570124
 30
0.0
 40
2.5
100
AcDbArc
 50
25.15944432823593
 51
180.0
  0
LINE
  5
F3B
102
{ACAD_REACTORS
330
108E
102
}
330
1F
100
AcDbEntity
  8
0
100
AcDbLine
 10
1502.016772103871
 20
790.2910120876918
 30
0.0
 11
1502.016772103871
 21
662.2373124144687
 31
0.0
  0
LINE
  5
F3C
330
1F
100
AcDbEntity
  8
0
100
AcDbLine
 10
1514.51677210387
 20
767.715187570124
 30
0.0
 11
1514.51677210387
 21
684.8131369320367
 31
0.0
  0
ARC
  5
F3D
330
1F
100
AcDbEntity
  8
0
100
AcDbCircle
 10
1428.76677210387
 20
726.2641622510803
 30
0.0
 40
100.0
100
AcDbArc
 50
334.840555671764
 51
25.15944432823593
  0
ARC
  5
F3E
330
1F
100
AcDbEntity
  8
0
100
AcDbCircle
 10
1469.51677210387
 20
810.9721164230467
 30
0.0
 40
6.0
100
AcDbArc
 50
0.0
 51
64.30943871453358
  0
ARC
  5
F3F
330
1F
100
AcDbEntity
  8
0
100
AcDbCircle
 10
1428.76677210387
 20
726.2641622510803
 30
0.0
 40
100.0
100
AcDbArc
 50
80.25457351723098
 51
83.87079854406467
  0
ARC
  5
F40
330
1F
100
AcDbEntity
  8
0
100
AcDbCircle
 10
1445.01677210387
 20
820.8788413447601
 30
0.0
 40
4.0
100
AcDbArc
 50
0.0
 51
80.25457351723098
  0
ARC
  5
F41
330
1F
100
AcDbEntity
  8
0
100
AcDbCircle
 10
1439.01677210387
 20
821.7153932541428
 30
0.0
 40
4.0
100
AcDbArc
 50
83.87079854406467
 51
180.0
  0
ARC
  5
F42
330
1F
100
AcDbEntity
  8
0
100
AcDbCircle
 10
1492.01677210387
 20
798.4821482379523
 30
0.0
 40
4.0
100
AcDbArc
 50
48.78745652906307
 51
180.0
  0
ARC
  5
F43
330
1F
100
AcDbEntity
  8
0
100
AcDbCircle
 10
1465.51677210387
 20
814.9514640478992
 30
0.0
 40
4.0
100
AcDbArc
 50
67.49199544476316
 51
180.0
  0
ARC
  5
F44
330
1F
100
AcDbEntity
  8
0
100
AcDbCircle
 10
1428.76677210387
 20
726.2641622510803
 30
0.0
 40
100.0
100
AcDbArc
 50
45.34970746284042
 51
48.78745652906307
  0
ARC
  5
F45
330
1F
100
AcDbEntity
  8
0
100
AcDbCircle
 10
1428.76677210387
 20
726.2641622510803
 30
0.0
 40
100.0
100
AcDbArc
 50
64.30943871453358
 51
67.49199544476316
  0
LINE
  5
F46
102
{ACAD_REACTORS
330
108E
102
}
330
1F
100
AcDbEntity
  8
0
100
AcDbLine
 10
1488.01677210387
 20
798.4821482379523
 30
0.0
 11
1488.01677210387
 21
654.0461762642082
 31
0.0
  0
LINE
  5
F47
330
1F
100
AcDbEntity
  8
0
100
AcDbLine
 10
1435.01677210387
 20
821.7153932541428
 30
0.0
 11
1435.01677210387
 21
630.8129312480177
 31
0.0
  0
LINE
  5
F48
330
1F
100
AcDbEntity
  8
0
100
AcDbLine
 10
1449.01677210387
 20
820.8788413447601
 30
0.0
 11
1449.01677210387
 21
631.6494831574004
 31
0.0
  0
LINE
  5
F49
330
1F
100
AcDbEntity
  8
0
100
AcDbLine
 10
1461.51677210387
 20
814.9514640478992
 30
0.0
 11
1461.51677210387
 21
637.5768604542615
 31
0.0
  0
LINE
  5
F4A
330
1F
100
AcDbEntity
  8
0
100
AcDbLine
 10
1475.51677210387
 20
810.9721164230467
 30
0.0
 11
1475.51677210387
 21
641.5562080791137
 31
0.0
  0
ARC
  5
F4B
330
1F
100
AcDbEntity
  8
0
100
AcDbCircle
 10
1465.51677210387
 20
637.5768604542615
 30
0.0
 40
4.0
100
AcDbArc
 50
180.0
 51
292.5080045552368
  0
ARC
  5
F4C
330
1F
100
AcDbEntity
  8
0
100
AcDbCircle
 10
1439.01677210387
 20
630.8129312480177
 30
0.0
 40
4.0
100
AcDbArc
 50
180.0
 51
276.1292014559352
  0
ARC
  5
F4D
330
1F
100
AcDbEntity
  8
0
100
AcDbCircle
 10
1445.01677210387
 20
631.6494831574004
 30
0.0
 40
4.0
100
AcDbArc
 50
279.745426482769
 51
0.0
  0
ARC
  5
F4E
330
1F
100
AcDbEntity
  8
0
100
AcDbCircle
 10
1469.51677210387
 20
641.5562080791137
 30
0.0
 40
6.0
100
AcDbArc
 50
295.6905612854664
 51
0.0
  0
ARC
  5
F4F
330
1F
100
AcDbEntity
  8
0
100
AcDbCircle
 10
1428.76677210387
 20
726.2641622510803
 30
0.0
 40
100.0
100
AcDbArc
 50
292.5080045552368
 51
295.6905612854664
  0
ARC
  5
F50
330
1F
100
AcDbEntity
  8
0
100
AcDbCircle
 10
1428.76677210387
 20
726.2641622510803
 30
0.0
 40
100.0
100
AcDbArc
 50
276.1292014559352
 51
279.745426482769
  0
CIRCLE
  5
F56
330
1F
100
AcDbEntity
  8
0
100
AcDbCircle
 10
1428.76677210387
 20
726.2641622510803
 30
0.0
 40
200.0
  0
CIRCLE
  5
F57
330
1F
100
AcDbEntity
  8
0
100
AcDbCircle
 10
1428.76677210387
 20
726.2641622510803
 30
0.0
 40
123.0
  0
CIRCLE
  5
F81
330
1F
100
AcDbEntity
  8
0
100
AcDbCircle
 10
1428.76677210387
 20
726.2641622510803
 30
0.0
 40
117.0
  0
ARC
  5
101E
330
1F
100
AcDbEntity
  8
0
100
AcDbCircle
 10
1428.76677210387
 20
726.2641622510803
 30
0.0
 40
49.5
100
AcDbArc
 50
131.4232472407511
 51
160.8118635462771
  0
ARC
  5
101F
330
1F
100
AcDbEntity
  8
0
100
AcDbCircle
 10
1428.76677210387
 20
726.2641622510803
 30
0.0
 40
49.5
100
AcDbArc
 50
97.25367669495229
 51
114.1477399170224
  0
ARC
  5
1020
330
1F
100
AcDbEntity
  8
0
100
AcDbCircle
 10
1428.76677210387
 20
726.2641622510803
 30
0.0
 40
49.5
100
AcDbArc
 50
65.85226008297734
 51
82.7463233050477
  0
ARC
  5
1021
330
1F
100
AcDbEntity
  8
0
100
AcDbCircle
 10
1428.76677210387
 20
726.2641622510803
 30
0.0
 40
49.5
100
AcDbArc
 50
19.18813645372298
 51
48.57675275925117
  0
ARC
  5
1022
330
1F
100
AcDbEntity
  8
0
100
AcDbCircle
 10
1428.76677210387
 20
726.2641622510803
 30
0.0
 40
49.5
100
AcDbArc
 50
311.4232472407488
 51
340.811863546277
  0
ARC
  5
1023
330
1F
100
AcDbEntity
  8
0
100
AcDbCircle
 10
1428.76677210387
 20
726.2641622510803
 30
0.0
 40
49.5
100
AcDbArc
 50
277.2536766949523
 51
294.1477399170227
  0
ARC
  5
1024
330
1F
100
AcDbEntity
  8
0
100
AcDbCircle
 10
1428.76677210387
 20
726.2641622510803
 30
0.0
 40
49.5
100
AcDbArc
 50
245.8522600829776
 51
262.7463233050477
  0
ARC
  5
1025
330
1F
100
AcDbEntity
  8
0
100
AcDbCircle
 10
1428.76677210387
 20
726.2641622510803
 30
0.0
 40
49.5
100
AcDbArc
 50
199.1881364537229
 51
228.5767527592488
  0
DIMENSION
  5
1080
102
{ACAD_XDICTIONARY
360
108D
102
}
102
{ACAD_REACTORS
330
108E
102
}
330
1F
100
AcDbEntity
  8
AM_5
100
AcDbDimension
  2
*D3
 10
1502.016772103871
 20
462.1255771227007
 30
0.0
 11
1531.01677210387
 21
471.1255771227008
 31
0.0
 70
    32
 71
     5
 42
14.00000000000045
  3
AM_ISO$0
100
AcDbAlignedDimension
 13
1488.01677210387
 23
654.0461762642082
 33
0.0
 14
1502.016772103871
 24
662.2373124144687
 34
0.0
100
AcDbRotatedDimension
1001
ACAD
1000
DSTYLE
1002
{
1070
    41
1040
10.0
1070
   140
1040
15.0
1002
}
  0
DIMENSION
  5
10F4
330
1F
100
AcDbEntity
  8
AM_5
100
AcDbDimension
  2
*D4
 10
1162.214572117944
 20
926.2641622510804
 30
0.0
 11
1153.214572117944
 21
726.2641622510805
 31
0.0
 70
    32
 71
     5
 42
400.0
  3
AM_ISO$0
100
AcDbAlignedDimension
 13
1428.76677210387
 23
526.2641622510803
 33
0.0
 14
1428.766772103873
 24
926.2641622510802
 34
0.0
 50
90.0
100
AcDbRotatedDimension
1001
ACAD
1000
DSTYLE
1002
{
1070
    41
1040
10.0
1070
   140
1040
15.0
1002
}
  0
DIMENSION
  5
1124
102
{ACAD_XDICTIONARY
360
1131
102
}
102
{ACAD_REACTORS
330
1132
102
}
330
1F
100
AcDbEntity
  8
AM_5
100
AcDbDimension
  2
*D5
 10
1557.003309133719
 20
1161.26416225108
 30
0.0
 11
1548.003309133719
 21
1118.76416225108
 31
0.0
 70
    32
 71
     5
 42
85.0
  3
AM_ISO$0
100
AcDbAlignedDimension
 13
1490.26677210387
 23
1076.26416225108
 33
0.0
 14
1486.749690982549
 24
1161.26416225108
 34
0.0
 50
90.00000000000003
100
AcDbRotatedDimension
1001
ACAD
1000
DSTYLE
1002
{
1070
    41
1040
10.0
1070
   140
1040
15.0
1002
}
  0
DIMENSION
  5
1158
102
{ACAD_XDICTIONARY
360
1165
102
}
102
{ACAD_REACTORS
330
1166
102
}
330
1F
100
AcDbEntity
  8
AM_5
100
AcDbDimension
  2
*D6
 10
1320.01677210387
 20
1430.719479434581
 30
0.0
 11
1436.369485228997
 21
1430.719479434581
 31
0.0
 70
   160
  1
%%c<>
 71
     5
 42
229.9999999999941
  3
AM_ISO$0
100
AcDbAlignedDimension
 13
1550.016772103864
 23
1406.264162251078
 33
0.0
 14
1320.01677210387
 24
1406.26416225108
 34
0.0
 50
0.0000000000000114
100
AcDbRotatedDimension
1001
ACAD
1000
DSTYLE
1002
{
1070
    41
1040
10.0
1070
   140
1040
15.0
1002
}
  0
DIMENSION
  5
1182
102
{ACAD_XDICTIONARY
360
118F
102
}
102
{ACAD_REACTORS
330
1190
102
}
330
1F
100
AcDbEntity
  8
AM_5
100
AcDbDimension
  2
*D7
 10
1558.01677210387
 20
1454.417434232837
 30
0.0
 11
1435.01677210387
 21
1463.41891061079
 31
0.0
 70
    32
  1
%%c<>
 71
     5
 42
245.9999999999989
  3
AM_ISO$0
100
AcDbAlignedDimension
 13
1312.016772103871
 23
1406.26416225108
 33
0.0
 14
1558.01677210387
 24
1406.26416225108
 34
0.0
 50
359.9999999999999
100
AcDbRotatedDimension
1001
ACAD
1000
DSTYLE
1002
{
1070
    41
1040
10.0
1070
   140
1040
15.0
1002
}
  0
DIMENSION
  5
11AC
102
{ACAD_XDICTIONARY
360
11B9
102
}
102
{ACAD_REACTORS
330
11BA
102
}
330
1F
100
AcDbEntity
  8
AM_5
100
AcDbDimension
  2
*D8
 10
1212.284406615481
 20
1356.26416225108
 30
0.0
 11
1203.284406615481
 21
1381.26416225108
 31
0.0
 70
    32
 71
     5
 42
49.99999999999977
  3
AM_ISO$0
100
AcDbAlignedDimension
 13
1312.01677210387
 23
1406.26416225108
 33
0.0
 14
1235.01677210387
 24
1356.26416225108
 34
0.0
 50
89.99999999999992
100
AcDbRotatedDimension
1001
ACAD
1000
DSTYLE
1002
{
1070
    41
1040
10.0
1070
   140
1040
15.0
1002
}
  0
DIMENSION
  5
1214
102
{ACAD_XDICTIONARY
360
1221
102
}
102
{ACAD_REACTORS
330
1222
102
}
330
1F
100
AcDbEntity
  8
AM_5
100
AcDbDimension
  2
*D9
 10
1164.793575973346
 20
1076.26416225108
 30
0.0
 11
1155.793575973346
 21
1241.26416225108
 31
0.0
 70
    32
 71
     5
 42
329.9999999999998
  3
AM_ISO$0
100
AcDbAlignedDimension
 13
1312.01677210387
 23
1406.26416225108
 33
0.0
 14
1382.883120735428
 24
1076.26416225108
 34
0.0
 50
89.99999999999992
100
AcDbRotatedDimension
1001
ACAD
1000
DSTYLE
1002
{
1070
    41
1040
10.0
1070
   140
1040
15.0
1002
}
  0
DIMENSION
  5
132C
102
{ACAD_XDICTIONARY
360
1339
102
}
102
{ACAD_REACTORS
330
133A
102
}
330
1F
100
AcDbEntity
  8
AM_5
100
AcDbDimension
  2
*D11
 10
1641.501491835171
 20
1406.264162251078
 30
0.0
 11
1632.500015457218
 21
1393.76416225108
 31
0.0
 70
    32
 71
     5
 42
24.99999999999864
  3
AM_ISO$0
100
AcDbAlignedDimension
 13
1540.01677210387
 23
1381.26416225108
 33
0.0
 14
1550.016772103864
 24
1406.264162251078
 34
0.0
 50
90.00000000000003
100
AcDbRotatedDimension
1001
ACAD
1000
DSTYLE
1002
{
1070
    41
1040
10.0
1070
   140
1040
15.0
1002
}
  0
LINE
  5
1358
330
1F
100
AcDbEntity
  8
0
100
AcDbLine
 10
1519.064644070746
 20
1382.26416225108
 30
0.0
 11
1539.555559311695
 21
1383.067985838688
 31
0.0
  0
ENDSEC
  0
SECTION
  2
OBJECTS
  0
DICTIONARY
  5
C
330
0
100
AcDbDictionary
281
     1
  3
ACAD_COLOR
350
BE
  3
ACAD_GROUP
350
D
  3
ACAD_LAYOUT
350
1A
  3
ACAD_MATERIAL
350
BD
  3
ACAD_MLINESTYLE
350
17
  3
ACAD_PLOTSETTINGS
350
19
  3
ACAD_PLOTSTYLENAME
350
E
  3
ACAD_TABLESTYLE
350
11A
  3
ACDBHEADERROUNDTRIPXREC
350
14CA
  3
AcDbVariableDictionary
350
94
  3
AcmDictionary
350
5B
  3
AMG
350
41
  3
AMGSNAPSETTINGS
350
26B
  3
DWGPROPS
350
14C9
  0
DICTIONARY
  5
8F
330
1F
100
AcDbDictionary
280
     1
281
     1
  3
ACAD_SORTENTS
360
FAC
  0
DICTIONARY
  5
108D
330
1080
100
AcDbDictionary
280
     1
281
     1
  3
ACAD_DIMASSOC
360
108E
  0
DICTIONARY
  5
1131
330
1124
100
AcDbDictionary
280
     1
281
     1
  3
ACAD_DIMASSOC
360
1132
  0
DICTIONARY
  5
1165
330
1158
100
AcDbDictionary
280
     1
281
     1
  3
ACAD_DIMASSOC
360
1166
  0
DICTIONARY
  5
118F
330
1182
100
AcDbDictionary
280
     1
281
     1
  3
ACAD_DIMASSOC
360
1190
  0
DICTIONARY
  5
11B9
330
11AC
100
AcDbDictionary
280
     1
281
     1
  3
ACAD_DIMASSOC
360
11BA
  0
DICTIONARY
  5
1221
330
1214
100
AcDbDictionary
280
     1
281
     1
  3
ACAD_DIMASSOC
360
1222
  0
DICTIONARY
  5
1339
330
132C
100
AcDbDictionary
280
     1
281
     1
  3
ACAD_DIMASSOC
360
133A
  0
DICTIONARY
  5
BE
102
{ACAD_REACTORS
330
C
102
}
330
C
100
AcDbDictionary
281
     1
  0
DICTIONARY
  5
D
102
{ACAD_REACTORS
330
C
102
}
330
C
100
AcDbDictionary
281
     1
  0
DICTIONARY
  5
1A
102
{ACAD_REACTORS
330
C
102
}
330
C
100
AcDbDictionary
281
     1
  3
Layout1
350
1E
  3
Layout2
350
26
  3
Model
350
22
  0
DICTIONARY
  5
BD
102
{ACAD_REACTORS
330
C
102
}
330
C
100
AcDbDictionary
281
     1
  0
DICTIONARY
  5
17
102
{ACAD_REACTORS
330
C
102
}
330
C
100
AcDbDictionary
281
     1
  3
Standard
350
18
  0
DICTIONARY
  5
19
102
{ACAD_REACTORS
330
C
102
}
330
C
100
AcDbDictionary
281
     1
  0
ACDBDICTIONARYWDFLT
  5
E
102
{ACAD_REACTORS
330
C
102
}
330
C
100
AcDbDictionary
281
     1
  3
Normal
350
F
100
AcDbDictionaryWithDefault
340
F
  0
DICTIONARY
  5
11A
102
{ACAD_REACTORS
330
C
102
}
330
C
100
AcDbDictionary
281
     1
  3
Standard
350
11B
  0
DICTIONARY
  5
14CA
102
{ACAD_REACTORS
330
C
102
}
330
C
100
AcDbDictionary
281
     1
  0
DICTIONARY
  5
94
102
{ACAD_REACTORS
330
C
102
}
330
C
100
AcDbDictionary
281
     1
  3
CTABLESTYLE
350
138
  3
DIMASSOC
350
96
  3
INDEXCTL
350
95
  3
PROJECTNAME
350
14C7
  0
DICTIONARY
  5
5B
102
{ACAD_REACTORS
330
C
102
}
330
C
100
AcDbDictionary
281
     1
  3
AcmBOM
350
272
  3
AcmStdDictionary
350
61
  3
AMDTSECTSYM_ARROWCOLOR
350
123
  0
DICTIONARY
  5
41
102
{ACAD_REACTORS
330
C
102
}
330
C
100
AcDbDictionary
281
     1
  0
DICTIONARY
  5
26B
102
{ACAD_REACTORS
330
C
102
}
330
C
100
AcDbDictionary
281
     1
  0
XRECORD
  5
14C9
102
{ACAD_REACTORS
330
C
102
}
330
C
100
AcDbXrecord
280
     1
  1
DWGPROPS COOKIE
  2

  3

  4

  6

  7

  8

  9

300
AmdtFileType=84
301
=
302
=
303
=
304
=
305
=
306
=
307
=
308
=
309
=
 40
0.0180360416666667
 41
2454060.611237431
 42
2454081.813014491
  1

 90
        1
  0
SORTENTSTABLE
  5
FAC
102
{ACAD_REACTORS
330
8F
102
}
330
8F
100
AcDbSortentsTable
330
1F
331
651
  5
651
331
60A
  5
60A
331
659
  5
659
331
5D3
  5
5D3
331
612
  5
612
331
E28
  5
E28
331
61A
  5
61A
331
E30
  5
E30
331
5E3
  5
5E3
331
F35
  5
F3A
331
E96
  5
E96
331
E57
  5
E57
331
1024
  5
1022
331
F3D
  5
F42
331
E5F
  5
E5F
331
F45
  5
F4A
331
E67
  5
E67
331
F4D
  5
F81
331
E6F
  5
E6F
331
E38
  5
E38
331
5EB
  5
5EB
331
671
  5
671
331
E40
  5
E40
331
5F3
  5
5F3
331
679
  5
679
331
E48
  5
E48
331
64A
  5
64A
331
6A9
  5
6A9
331
603
  5
603
331
F1E
  5
F23
331
E77
  5
E77
331
F26
  5
F2B
331
E7F
  5
E7F
331
F2E
  5
F33
331
E87
  5
E87
331
E8F
  5
E8F
331
5CC
  5
5CC
331
60B
  5
60B
331
5D4
  5
5D4
331
613
  5
613
331
E29
  5
E29
331
5DC
  5
5DC
331
E31
  5
E31
331
E50
  5
E50
331
5E4
  5
5E4
331
66A
  5
66A
331
F36
  5
F3B
331
E58
  5
E58
331
E97
  5
E97
331
1025
  5
1021
331
F3E
  5
F43
331
E60
  5
E60
331
F46
  5
F4B
331
E68
  5
E68
331
F4E
  5
FAA
331
E39
  5
E39
331
5EC
  5
5EC
331
E41
  5
E41
331
643
  5
643
331
5F4
  5
5F4
331
E49
  5
E49
331
64B
  5
64B
331
6AA
  5
6AA
331
E70
  5
E70
331
F1F
  5
F24
331
F56
  5
FAE
331
E78
  5
E78
331
F27
  5
F2C
331
E80
  5
E80
331
F2F
  5
F34
331
E88
  5
E88
331
5CD
  5
5CD
331
60C
  5
60C
331
5D5
  5
5D5
331
614
  5
614
331
E2A
  5
E2A
331
5DD
  5
5DD
331
E90
  5
E90
331
E32
  5
E32
331
E51
  5
E51
331
5E5
  5
5E5
331
66B
  5
66B
331
101E
  5
1020
331
F37
  5
F3C
331
E59
  5
E59
331
F3F
  5
F44
331
E61
  5
E61
331
F47
  5
F4C
331
E69
  5
E69
331
F4F
  5
FAB
331
E3A
  5
E3A
331
5ED
  5
5ED
331
673
  5
673
331
E42
  5
E42
331
644
  5
644
331
5F5
  5
5F5
331
E4A
  5
E4A
331
5FD
  5
5FD
331
F18
  5
F18
331
E71
  5
E71
331
605
  5
605
331
F20
  5
F25
331
F57
  5
1019
331
E79
  5
E79
331
F28
  5
F2D
331
E81
  5
E81
331
E89
  5
E89
331
5CE
  5
5CE
331
60D
  5
60D
331
5D6
  5
5D6
331
615
  5
615
331
5DE
  5
5DE
331
E2B
  5
E2B
331
F30
  5
F35
331
E91
  5
E91
331
E52
  5
E52
331
66C
  5
66C
331
5E6
  5
5E6
331
625
  5
625
331
E33
  5
E33
331
101F
  5
1027
331
E5A
  5
E5A
331
F38
  5
F3D
331
F40
  5
F45
331
E62
  5
E62
331
F48
  5
F4E
331
E6A
  5
E6A
331
674
  5
674
331
5EE
  5
5EE
331
E3B
  5
E3B
331
E43
  5
E43
331
5F6
  5
5F6
331
645
  5
645
331
E4B
  5
E4B
331
5FE
  5
5FE
331
F19
  5
F1E
331
F50
  5
FAD
331
E72
  5
E72
331
606
  5
606
331
F21
  5
F26
331
E7A
  5
E7A
331
F29
  5
F2E
331
E82
  5
E82
331
E8A
  5
E8A
331
5CF
  5
5CF
331
60E
  5
60E
331
5D7
  5
5D7
331
616
  5
616
331
E2C
  5
E2C
331
5DF
  5
5DF
331
F31
  5
F36
331
E92
  5
E92
331
E34
  5
E34
331
E53
  5
E53
331
5E7
  5
5E7
331
1020
  5
1026
331
F39
  5
F3E
331
E5B
  5
E5B
331
F41
  5
F46
331
E63
  5
E63
331
F49
  5
F4F
331
E6B
  5
E6B
331
E3C
  5
E3C
331
5EF
  5
5EF
331
675
  5
675
331
E44
  5
E44
331
646
  5
646
331
5F7
  5
5F7
331
E4C
  5
E4C
331
5FF
  5
5FF
331
F1A
  5
F1F
331
E73
  5
E73
331
607
  5
607
331
F22
  5
F27
331
E7B
  5
E7B
331
F2A
  5
F2F
331
F81
  5
101A
331
E83
  5
E83
331
E8B
  5
E8B
331
5D0
  5
5D0
331
60F
  5
60F
331
6D5
  5
6D5
331
5D8
  5
5D8
331
617
  5
617
331
E2D
  5
E2D
331
5E0
  5
5E0
331
666
  5
666
331
F32
  5
F37
331
E35
  5
E35
331
E54
  5
E54
331
E93
  5
E93
331
66E
  5
66E
331
1021
  5
1025
331
F3A
  5
F3F
331
E5C
  5
E5C
331
F42
  5
F47
331
E64
  5
E64
331
F4A
  5
F50
331
E6C
  5
E6C
331
5E8
  5
5E8
331
E3D
  5
E3D
331
63F
  5
63F
331
5F0
  5
5F0
331
E45
  5
E45
331
5F8
  5
5F8
331
E4D
  5
E4D
331
600
  5
600
331
F1B
  5
F20
331
E74
  5
E74
331
F23
  5
F28
331
E7C
  5
E7C
331
F2B
  5
F30
331
E8C
  5
E8C
331
608
  5
608
331
657
  5
657
331
5D1
  5
5D1
331
610
  5
610
331
6D6
  5
6D6
331
5D9
  5
5D9
331
618
  5
618
331
E2E
  5
E2E
331
5E1
  5
5E1
331
F33
  5
F38
331
E94
  5
E94
331
E36
  5
E36
331
E55
  5
E55
331
66F
  5
66F
331
1022
  5
1024
331
F3B
  5
F40
331
E5D
  5
E5D
331
F43
  5
F48
331
E65
  5
E65
331
F4B
  5
F56
331
E6D
  5
E6D
331
5E9
  5
5E9
331
E3E
  5
E3E
331
5F1
  5
5F1
331
677
  5
677
331
E46
  5
E46
331
5F9
  5
5F9
331
E4E
  5
E4E
331
601
  5
601
331
F1C
  5
F21
331
E75
  5
E75
331
F24
  5
F29
331
E7D
  5
E7D
331
F2C
  5
F31
331
E85
  5
E85
331
E8D
  5
E8D
331
650
  5
650
331
609
  5
609
331
658
  5
658
331
5D2
  5
5D2
331
611
  5
611
331
E27
  5
E27
331
5DA
  5
5DA
331
619
  5
619
331
E2F
  5
E2F
331
5E2
  5
5E2
331
668
  5
668
331
F34
  5
F39
331
E37
  5
E37
331
E56
  5
E56
331
F3C
  5
F41
331
E5E
  5
E5E
331
F44
  5
F49
331
E66
  5
E66
331
F4C
  5
F57
331
E6E
  5
E6E
331
639
  5
639
331
670
  5
670
331
E3F
  5
E3F
331
5F2
  5
5F2
331
678
  5
678
331
E47
  5
E47
331
5FA
  5
5FA
331
6A8
  5
6A8
331
E4F
  5
E4F
331
602
  5
602
331
6C0
  5
6C0
331
F1D
  5
F22
331
E76
  5
E76
331
F25
  5
F2A
331
E7E
  5
E7E
331
F2D
  5
F32
331
E86
  5
E86
331
E8E
  5
E8E
  0
DIMASSOC
  5
108E
102
{ACAD_REACTORS
330
108D
102
}
330
108D
100
AcDbDimAssoc
330
1080
 90
        3
 70
     0
 71
     0
  1
AcDbOsnapPointRef
 72
     1
331
F46
 73
     0
 91
        0
 40
0.0
 10
0.0
 20
0.0
 30
2.000000000000000E+50
 75
     0
  1
AcDbOsnapPointRef
 72
     1
331
F3B
 73
     0
 91
        0
 40
0.0
 10
0.0
 20
0.0
 30
2.000000000000000E+50
 75
     0
  0
DIMASSOC
  5
1132
102
{ACAD_REACTORS
330
1131
102
}
330
1131
100
AcDbDimAssoc
330
1124
 90
        3
 70
     0
 71
     0
  1
AcDbOsnapPointRef
 72
     6
331
5DE
 73
     0
 91
        0
 40
1.0
 10
0.0
 20
0.0
 30
0.0
332
657
 74
     0
 92
        0
 75
     0
  1
AcDbOsnapPointRef
 72
    13
331
5E0
 73
     0
 91
        0
 40
0.0
 10
0.0
 20
0.0
 30
2.000000000000000E+50
 75
     0
  0
DIMASSOC
  5
1166
102
{ACAD_REACTORS
330
1165
102
}
330
1165
100
AcDbDimAssoc
330
1158
 90
        3
 70
     0
 71
     0
  1
AcDbOsnapPointRef
 72
     1
331
E83
 73
     0
 91
        0
 40
0.0
 10
0.0
 20
0.0
 30
2.000000000000000E+50
 75
     0
  1
AcDbOsnapPointRef
 72
     6
331
E53
 73
     0
 91
        0
 40
4.401556779212329
 10
0.0
 20
0.0
 30
0.0
332
E7B
 74
     0
 92
        0
 75
     0
  0
DIMASSOC
  5
1190
102
{ACAD_REACTORS
330
118F
102
}
330
118F
100
AcDbDimAssoc
330
1182
 90
        3
 70
     0
 71
     0
  1
AcDbOsnapPointRef
 72
    13
331
5EE
 73
     0
 91
        0
 40
0.0
 10
0.0
 20
0.0
 30
2.000000000000000E+50
 75
     0
  1
AcDbOsnapPointRef
 72
    13
331
5D3
 73
     0
 91
        0
 40
0.0
 10
0.0
 20
0.0
 30
2.000000000000000E+50
 75
     0
  0
DIMASSOC
  5
11BA
102
{ACAD_REACTORS
330
11B9
102
}
330
11B9
100
AcDbDimAssoc
330
11AC
 90
        3
 70
     0
 71
     0
  1
AcDbOsnapPointRef
 72
    13
331
5CC
 73
     0
 91
        0
 40
0.0
 10
0.0
 20
0.0
 30
2.000000000000000E+50
 75
     0
  1
AcDbOsnapPointRef
 72
    13
331
5F4
 73
     0
 91
        0
 40
0.0
 10
0.0
 20
0.0
 30
2.000000000000000E+50
 75
     0
  0
DIMASSOC
  5
1222
102
{ACAD_REACTORS
330
1221
102
}
330
1221
100
AcDbDimAssoc
330
1214
 90
        1
 70
     0
 71
     0
  1
AcDbOsnapPointRef
 72
    13
331
5CC
 73
     0
 91
        0
 40
0.0
 10
0.0
 20
0.0
 30
2.000000000000000E+50
 75
     0
  0
DIMASSOC
  5
133A
102
{ACAD_REACTORS
330
1339
102
}
330
1339
100
AcDbDimAssoc
330
132C
 90
        3
 70
     0
 71
     0
  1
AcDbOsnapPointRef
 72
    13
331
60E
 73
     0
 91
        0
 40
0.0
 10
0.0
 20
0.0
 30
2.000000000000000E+50
 75
     0
  1
AcDbOsnapPointRef
 72
     1
331
E83
 73
     0
 91
        0
 40
0.0
 10
0.0
 20
0.0
 30
2.000000000000000E+50
 75
     0
  0
LAYOUT
  5
1E
102
{ACAD_XDICTIONARY
360
14CB
102
}
102
{ACAD_REACTORS
330
1A
102
}
330
1A
100
AcDbPlotSettings
  1

  2

  4

  6

 40
0.0
 41
0.0
 42
0.0
 43
0.0
 44
0.0
 45
0.0
 46
0.0
 47
0.0
 48
0.0
 49
0.0
140
0.0
141
0.0
142
1.0
143
1.0
 70
   688
 72
     0
 73
     0
 74
     5
  7

 75
    16
147
1.0
148
0.0
149
0.0
100
AcDbLayout
  1
Layout1
 70
     1
 71
     1
 10
0.0
 20
0.0
 11
420.0
 21
297.0
 12
0.0
 22
0.0
 32
0.0
 14
1.000000000000000E+20
 24
1.000000000000000E+20
 34
1.000000000000000E+20
 15
-1.000000000000000E+20
 25
-1.000000000000000E+20
 35
-1.000000000000000E+20
146
0.0
 13
0.0
 23
0.0
 33
0.0
 16
1.0
 26
0.0
 36
0.0
 17
0.0
 27
1.0
 37
0.0
 76
     0
330
1B
  0
LAYOUT
  5
26
102
{ACAD_XDICTIONARY
360
14CF
102
}
102
{ACAD_REACTORS
330
1A
102
}
330
1A
100
AcDbPlotSettings
  1

  2

  4

  6

 40
0.0
 41
0.0
 42
0.0
 43
0.0
 44
0.0
 45
0.0
 46
0.0
 47
0.0
 48
0.0
 49
0.0
140
0.0
141
0.0
142
1.0
143
1.0
 70
   688
 72
     0
 73
     0
 74
     5
  7

 75
    16
147
1.0
148
0.0
149
0.0
100
AcDbLayout
  1
Layout2
 70
     1
 71
     2
 10
0.0
 20
0.0
 11
12.0
 21
9.0
 12
0.0
 22
0.0
 32
0.0
 14
0.0
 24
0.0
 34
0.0
 15
0.0
 25
0.0
 35
0.0
146
0.0
 13
0.0
 23
0.0
 33
0.0
 16
1.0
 26
0.0
 36
0.0
 17
0.0
 27
1.0
 37
0.0
 76
     0
330
23
  0
LAYOUT
  5
22
102
{ACAD_XDICTIONARY
360
14CD
102
}
102
{ACAD_REACTORS
330
1A
102
}
330
1A
100
AcDbPlotSettings
  1

  2

  4

  6

 40
0.0
 41
0.0
 42
0.0
 43
0.0
 44
0.0
 45
0.0
 46
0.0
 47
0.0
 48
0.0
 49
0.0
140
0.0
141
0.0
142
1.0
143
1.0
 70
  1712
 72
     0
 73
     0
 74
     0
  7

 75
     0
147
1.0
148
0.0
149
0.0
100
AcDbLayout
  1
Model
 70
     1
 71
     0
 10
0.0
 20
0.0
 11
12.0
 21
9.0
 12
0.0
 22
0.0
 32
0.0
 14
0.0
 24
0.0
 34
0.0
 15
0.0
 25
0.0
 35
0.0
146
0.0
 13
0.0
 23
0.0
 33
0.0
 16
1.0
 26
0.0
 36
0.0
 17
0.0
 27
1.0
 37
0.0
 76
     0
330
1F
  0
MLINESTYLE
  5
18
102
{ACAD_REACTORS
330
17
102
}
330
17
100
AcDbMlineStyle
  2
STANDARD
 70
     0
  3

 62
   256
 51
90.0
 52
90.0
 71
     2
 49
0.5
 62
   256
  6
BYLAYER
 49
-0.5
 62
   256
  6
BYLAYER
  0
ACDBPLACEHOLDER
  5
F
102
{ACAD_REACTORS
330
E
102
}
330
E
  0
TABLESTYLE
  5
11B
102
{ACAD_REACTORS
330
11A
102
}
330
11A
100
AcDbTableStyle
  3
Standard
 70
     0
 71
     0
 40
1.5
 41
1.5
280
     0
281
     0
  7
STANDARD
140
4.5
170
     2
 62
     0
 63
     7
283
     0
274
    -2
284
     1
 64
     0
275
    -2
285
     1
 65
     0
276
    -2
286
     1
 66
     0
277
    -2
287
     1
 67
     0
278
    -2
288
     1
 68
     0
279
    -2
289
     1
 69
     0
  7
STANDARD
140
6.0
170
     5
 62
     0
 63
     7
283
     0
274
    -2
284
     1
 64
     0
275
    -2
285
     1
 65
     0
276
    -2
286
     1
 66
     0
277
    -2
287
     1
 67
     0
278
    -2
288
     1
 68
     0
279
    -2
289
     1
 69
     0
  7
STANDARD
140
4.5
170
     5
 62
     0
 63
     7
283
     0
274
    -2
284
     1
 64
     0
275
    -2
285
     1
 65
     0
276
    -2
286
     1
 66
     0
277
    -2
287
     1
 67
     0
278
    -2
288
     1
 68
     0
279
    -2
289
     1
 69
     0
  0
DICTIONARYVAR
  5
138
102
{ACAD_REACTORS
330
94
102
}
330
94
100
DictionaryVariables
280
     0
  1
STANDARD
  0
DICTIONARYVAR
  5
96
102
{ACAD_REACTORS
330
94
102
}
330
94
100
DictionaryVariables
280
     0
  1
2
  0
DICTIONARYVAR
  5
95
102
{ACAD_REACTORS
330
94
102
}
330
94
100
DictionaryVariables
280
     0
  1
0
  0
DICTIONARYVAR
  5
14C7
102
{ACAD_REACTORS
330
94
102
}
330
94
100
DictionaryVariables
280
     0
  1

  0
DICTIONARY
  5
272
102
{ACAD_REACTORS
330
5B
102
}
330
5B
100
AcDbDictionary
281
     1
  0
DICTIONARY
  5
61
102
{ACAD_REACTORS
330
5B
102
}
330
5B
100
AcDbDictionary
281
     1
  0
XRECORD
  5
123
102
{ACAD_REACTORS
330
5B
102
}
330
5B
100
AcDbXrecord
280
     1
 90
-1023410169
  0
DICTIONARY
  5
14CB
330
1E
100
AcDbDictionary
280
     1
281
     1
  3
ACAD_XREC_ROUNDTRIP
360
14CC
  0
DICTIONARY
  5
14CF
330
26
100
AcDbDictionary
280
     1
281
     1
  3
ACAD_XREC_ROUNDTRIP
360
14D0
  0
DICTIONARY
  5
14CD
330
22
100
AcDbDictionary
280
     1
281
     1
  3
ACAD_XREC_ROUNDTRIP
360
14CE
  0
XRECORD
  5
14CC
102
{ACAD_REACTORS
330
14CB
102
}
330
14CB
100
AcDbXrecord
280
     1
102
SHADEPLOT
 70
     0
102
SHADEPLOTRESLEVEL
 70
     2
102
SHADEPLOTCUSTOMDPI
 70
   300
  0
XRECORD
  5
14D0
102
{ACAD_REACTORS
330
14CF
102
}
330
14CF
100
AcDbXrecord
280
     1
102
SHADEPLOT
 70
     0
102
SHADEPLOTRESLEVEL
 70
     2
102
SHADEPLOTCUSTOMDPI
 70
   300
  0
XRECORD
  5
14CE
102
{ACAD_REACTORS
330
14CD
102
}
330
14CD
100
AcDbXrecord
280
     1
102
SHADEPLOT
 70
     0
102
SHADEPLOTRESLEVEL
 70
     2
102
SHADEPLOTCUSTOMDPI
 70
   300
  0
ENDSEC
  0
EOF
