  0
SECTION
  2
HEADER
  9
$ACADVER
  1
AC1015
  9
$ACADMAINTVER
 70
    20
  9
$DWGCODEPAGE
  3
ANSI_1252
  9
$INSBASE
 10
0.0
 20
0.0
 30
0.0
  9
$EXTMIN
 10
1729.735443675739
 20
1698.80504038171
 30
-0.0000000349181948
  9
$EXTMAX
 10
2166.896257082288
 20
2453.515671545432
 30
0.0000000814935746
  9
$LIMMIN
 10
0.0
 20
0.0
  9
$LIMMAX
 10
420.0
 20
297.0
  9
$ORTHOMODE
 70
     1
  9
$REGENMODE
 70
     1
  9
$FILLMODE
 70
     1
  9
$QTEXTMODE
 70
     0
  9
$MIRRTEXT
 70
     1
  9
$LTSCALE
 40
1.0
  9
$ATTMODE
 70
     1
  9
$TEXTSIZE
 40
2.5
  9
$TRACEWID
 40
1.0
  9
$TEXTSTYLE
  7
STANDARD
  9
$CLAYER
  8
0
  9
$CELTYPE
  6
ByLayer
  9
$CECOLOR
 62
   256
  9
$CELTSCALE
 40
1.0
  9
$DISPSILH
 70
     0
  9
$DIMSCALE
 40
2.0
  9
$DIMASZ
 40
2.5
  9
$DIMEXO
 40
1.0
  9
$DIMDLI
 40
10.0
  9
$DIMRND
 40
0.0
  9
$DIMDLE
 40
0.0
  9
$DIMEXE
 40
1.0
  9
$DIMTP
 40
0.1
  9
$DIMTM
 40
0.1
  9
$DIMTXT
 40
3.5
  9
$DIMCEN
 40
0.0
  9
$DIMTSZ
 40
0.0
  9
$DIMTOL
 70
     0
  9
$DIMLIM
 70
     0
  9
$DIMTIH
 70
     0
  9
$DIMTOH
 70
     0
  9
$DIMSE1
 70
     0
  9
$DIMSE2
 70
     0
  9
$DIMTAD
 70
     1
  9
$DIMZIN
 70
     8
  9
$DIMBLK
  1

  9
$DIMASO
 70
     1
  9
$DIMSHO
 70
     1
  9
$DIMPOST
  1

  9
$DIMAPOST
  1
"
  9
$DIMALT
 70
     0
  9
$DIMALTD
 70
     2
  9
$DIMALTF
 40
0.0393701
  9
$DIMLFAC
 40
1.0
  9
$DIMTOFL
 70
     1
  9
$DIMTVP
 40
0.0
  9
$DIMTIX
 70
     0
  9
$DIMSOXD
 70
     0
  9
$DIMSAH
 70
     0
  9
$DIMBLK1
  1

  9
$DIMBLK2
  1

  9
$DIMSTYLE
  2
AM_ISO
  9
$DIMCLRD
 70
   256
  9
$DIMCLRE
 70
   256
  9
$DIMCLRT
 70
     2
  9
$DIMTFAC
 40
0.71
  9
$DIMGAP
 40
1.5
  9
$DIMJUST
 70
     0
  9
$DIMSD1
 70
     0
  9
$DIMSD2
 70
     0
  9
$DIMTOLJ
 70
     0
  9
$DIMTZIN
 70
     8
  9
$DIMALTZ
 70
     0
  9
$DIMALTTZ
 70
     0
  9
$DIMUPT
 70
     0
  9
$DIMDEC
 70
     0
  9
$DIMTDEC
 70
     0
  9
$DIMALTU
 70
     2
  9
$DIMALTTD
 70
     2
  9
$DIMTXSTY
  7
STANDARD
  9
$DIMAUNIT
 70
     0
  9
$DIMADEC
 70
     0
  9
$DIMALTRND
 40
0.0
  9
$DIMAZIN
 70
     2
  9
$DIMDSEP
 70
    46
  9
$DIMATFIT
 70
     3
  9
$DIMFRAC
 70
     0
  9
$DIMLDRBLK
  1

  9
$DIMLUNIT
 70
     2
  9
$DIMLWD
 70
    -1
  9
$DIMLWE
 70
    -1
  9
$DIMTMOVE
 70
     0
  9
$LUNITS
 70
     2
  9
$LUPREC
 70
     2
  9
$SKETCHINC
 40
1.0
  9
$FILLETRAD
 40
2.5
  9
$AUNITS
 70
     0
  9
$AUPREC
 70
     0
  9
$MENU
  1
.
  9
$ELEVATION
 40
0.0
  9
$PELEVATION
 40
0.0
  9
$THICKNESS
 40
0.0
  9
$LIMCHECK
 70
     0
  9
$CHAMFERA
 40
2.5
  9
$CHAMFERB
 40
2.5
  9
$CHAMFERC
 40
20.0
  9
$CHAMFERD
 40
0.0
  9
$SKPOLY
 70
     0
  9
$TDCREATE
 40
2454060.547360440
  9
$TDUCREATE
 40
2454060.505693773
  9
$TDUPDATE
 40
2454081.811104248
  9
$TDUUPDATE
 40
2454081.769437581
  9
$TDINDWG
 40
0.0308378009
  9
$TDUSRTIMER
 40
0.0308378009
  9
$USRTIMER
 70
     1
  9
$ANGBASE
 50
0.0
  9
$ANGDIR
 70
     0
  9
$PDMODE
 70
     0
  9
$PDSIZE
 40
0.0
  9
$PLINEWID
 40
0.0
  9
$SPLFRAME
 70
     0
  9
$SPLINETYPE
 70
     6
  9
$SPLINESEGS
 70
     8
  9
$HANDSEED
  5
9B7
  9
$SURFTAB1
 70
     6
  9
$SURFTAB2
 70
     6
  9
$SURFTYPE
 70
     6
  9
$SURFU
 70
     6
  9
$SURFV
 70
     6
  9
$UCSBASE
  2

  9
$UCSNAME
  2

  9
$UCSORG
 10
0.0
 20
0.0
 30
0.0
  9
$UCSXDIR
 10
1.0
 20
0.0
 30
0.0
  9
$UCSYDIR
 10
0.0
 20
1.0
 30
0.0
  9
$UCSORTHOREF
  2

  9
$UCSORTHOVIEW
 70
     0
  9
$UCSORGTOP
 10
0.0
 20
0.0
 30
0.0
  9
$UCSORGBOTTOM
 10
0.0
 20
0.0
 30
0.0
  9
$UCSORGLEFT
 10
0.0
 20
0.0
 30
0.0
  9
$UCSORGRIGHT
 10
0.0
 20
0.0
 30
0.0
  9
$UCSORGFRONT
 10
0.0
 20
0.0
 30
0.0
  9
$UCSORGBACK
 10
0.0
 20
0.0
 30
0.0
  9
$PUCSBASE
  2

  9
$PUCSNAME
  2

  9
$PUCSORG
 10
0.0
 20
0.0
 30
0.0
  9
$PUCSXDIR
 10
1.0
 20
0.0
 30
0.0
  9
$PUCSYDIR
 10
0.0
 20
1.0
 30
0.0
  9
$PUCSORTHOREF
  2

  9
$PUCSORTHOVIEW
 70
     0
  9
$PUCSORGTOP
 10
0.0
 20
0.0
 30
0.0
  9
$PUCSORGBOTTOM
 10
0.0
 20
0.0
 30
0.0
  9
$PUCSORGLEFT
 10
0.0
 20
0.0
 30
0.0
  9
$PUCSORGRIGHT
 10
0.0
 20
0.0
 30
0.0
  9
$PUCSORGFRONT
 10
0.0
 20
0.0
 30
0.0
  9
$PUCSORGBACK
 10
0.0
 20
0.0
 30
0.0
  9
$USERI1
 70
     0
  9
$USERI2
 70
     0
  9
$USERI3
 70
     0
  9
$USERI4
 70
     0
  9
$USERI5
 70
     0
  9
$USERR1
 40
0.0
  9
$USERR2
 40
0.0
  9
$USERR3
 40
0.0
  9
$USERR4
 40
0.0
  9
$USERR5
 40
0.0
  9
$WORLDVIEW
 70
     1
  9
$SHADEDGE
 70
     3
  9
$SHADEDIF
 70
    70
  9
$TILEMODE
 70
     1
  9
$MAXACTVP
 70
    64
  9
$PINSBASE
 10
0.0
 20
0.0
 30
0.0
  9
$PLIMCHECK
 70
     0
  9
$PEXTMIN
 10
1.000000000000000E+20
 20
1.000000000000000E+20
 30
1.000000000000000E+20
  9
$PEXTMAX
 10
-1.000000000000000E+20
 20
-1.000000000000000E+20
 30
-1.000000000000000E+20
  9
$PLIMMIN
 10
0.0
 20
0.0
  9
$PLIMMAX
 10
420.0
 20
297.0
  9
$UNITMODE
 70
     0
  9
$VISRETAIN
 70
     1
  9
$PLINEGEN
 70
     0
  9
$PSLTSCALE
 70
     1
  9
$TREEDEPTH
 70
  3020
  9
$CMLSTYLE
  2
Standard
  9
$CMLJUST
 70
     0
  9
$CMLSCALE
 40
20.0
  9
$PROXYGRAPHICS
 70
     1
  9
$MEASUREMENT
 70
     1
  9
$CELWEIGHT
370
    -1
  9
$ENDCAPS
280
     0
  9
$JOINSTYLE
280
     0
  9
$LWDISPLAY
290
     0
  9
$INSUNITS
 70
     4
  9
$HYPERLINKBASE
  1

  9
$STYLESHEET
  1

  9
$XEDIT
290
     1
  9
$CEPSNTYPE
380
     0
  9
$PSTYLEMODE
290
     1
  9
$FINGERPRINTGUID
  2
{BF29613C-E2C3-43F2-BBA9-453DC2135904}
  9
$VERSIONGUID
  2
{C2F28D86-CE8C-43CE-B6AC-B01F1A00516C}
  9
$EXTNAMES
290
     1
  9
$PSVPSCALE
 40
0.0
  9
$OLESTARTUP
290
     0
  0
ENDSEC
  0
SECTION
  2
CLASSES
  0
CLASS
  1
ACDBDICTIONARYWDFLT
  2
AcDbDictionaryWithDefault
  3
ObjectDBX Classes
 90
        0
280
     0
281
     0
  0
CLASS
  1
ACDBPLACEHOLDER
  2
AcDbPlaceHolder
  3
ObjectDBX Classes
 90
        0
280
     0
281
     0
  0
CLASS
  1
LAYOUT
  2
AcDbLayout
  3
ObjectDBX Classes
 90
        0
280
     0
281
     0
  0
CLASS
  1
ACME_DOCUMENT
  2
AcMeDbDoc
  3
AcMeServices
 90
        0
280
     0
281
     0
  0
CLASS
  1
AMGSETTINGSOBJ
  2
AmgSettingsObj
  3
"AcadM|Product Description: AutoCAD Mechanical 2000|Company: Autodesk"
 90
        0
280
     0
281
     0
  0
CLASS
  1
ACMESCOPE
  2
AcMeScope
  3
AcMeServices
 90
        0
280
     0
281
     0
  0
CLASS
  1
ACMECOMMANDHISTORY
  2
AcMeCommandHistory
  3
AcMeServices
 90
        0
280
     0
281
     0
  0
CLASS
  1
ACIMSYSVARMAN
  2
AcImSysVarManager
  3
AcMeServices
 90
        0
280
     0
281
     0
  0
CLASS
  1
ACIMREALSYSVAR
  2
AcImRealSysVar
  3
AcMeServices
 90
        0
280
     0
281
     0
  0
CLASS
  1
ACIMINTSYSVAR
  2
AcImIntSysVar
  3
AcMeServices
 90
        0
280
     0
281
     0
  0
CLASS
  1
ACMEDRAWINGMAN
  2
AcMeDrawingMan
  3
AcMeServices
 90
        0
280
     0
281
     0
  0
CLASS
  1
ACMEVIEW
  2
AcMeView
  3
AcMeServices
 90
        0
280
     0
281
     0
  0
CLASS
  1
ACDBENTITYCACHE
  2
AcMeEntityCache
  3
AcMeServices
 90
        0
280
     0
281
     0
  0
CLASS
  1
GSMANAGER
  2
AcMeGSManager
  3
AcMeServices
 90
        0
280
     0
281
     0
  0
CLASS
  1
AMDTINTERNALREACTOR
  2
AmdtInternalReactor
  3
AcMeServices
 90
        0
280
     0
281
     0
  0
CLASS
  1
ACMESTATEMGR
  2
AcMeStateMgr
  3
AcMeServices
 90
        0
280
     0
281
     0
  0
CLASS
  1
ACGREFMASTER
  2
AcGrefMaster
  3
AcAttribServices
 90
        0
280
     0
281
     0
  0
CLASS
  1
ACME_DATABASE
  2
AcMeDbDatabase
  3
AcMeServices
 90
        0
280
     0
281
     0
  0
CLASS
  1
ACRFINSADJUSTERMGR
  2
AcRfInsAdjusterMgr
  3
AcMeServices
 90
        0
280
     0
281
     0
  0
CLASS
  1
ACGREFACADMASTER
  2
AcGrefacadMaster
  3
AcGrefServices
 90
        0
280
     0
281
     0
  0
CLASS
  1
AMIMASTER
  2
AmiMaster
  3
AmiServices
 90
        0
280
     0
281
     0
  0
CLASS
  1
ACMDATADICTIONARY
  2
AcmDataDictionary
  3
"AcmSymBB|Product Description: AutoCAD Mechanical 2004 DX|Company: Autodesk"
 90
        0
280
     0
281
     0
  0
CLASS
  1
ACMDATAENTRYBLOCK
  2
AcmDataEntryBlock
  3
"AcmSymBB|Product Description: AutoCAD Mechanical 2004 DX|Company: Autodesk"
 90
        0
280
     0
281
     0
  0
CLASS
  1
ACIMSTRSYSVAR
  2
AcImStrSysVar
  3
AcMeServices
 90
        0
280
     0
281
     0
  0
CLASS
  1
ACMSTANDARDISO
  2
AcmStandardISO
  3
"Amdt_StdImp|Product Description: AutoCAD Mechanical 2004 DX|Company: Autodesk"
 90
        0
280
     0
281
     0
  0
CLASS
  1
AMGOBJPROPCFG
  2
AmgObjPropCfg
  3
"AmgLay|Product Description: AutoCAD Mechanical 2000|Company: Autodesk"
 90
        1
280
     0
281
     0
  0
CLASS
  1
AMDTEDGESTANDARDISO
  2
AmdtEdgeStdISO
  3
"Amdt_StdImp|Product Description: AutoCAD Mechanical 2004 DX|Company: Autodesk"
 90
        0
280
     0
281
     0
  0
CLASS
  1
ACMSURFSTANDARDISO
  2
AcmSurfTextStdISO
  3
"Amdt_StdImp|Product Description: AutoCAD Mechanical 2004 DX|Company: Autodesk"
 90
        0
280
     0
281
     0
  0
CLASS
  1
ACMFCFSTANDARDISO
  2
AcmFCFStdISO
  3
"Amdt_StdImp|Product Description: AutoCAD Mechanical 2004 DX|Company: Autodesk"
 90
        0
280
     0
281
     0
  0
CLASS
  1
ACMWELDSTANDARDISO
  2
AcmWeldingStdISO
  3
"Amdt_StdImp|Product Description: AutoCAD Mechanical 2004 DX|Company: Autodesk"
 90
        0
280
     0
281
     0
  0
CLASS
  1
ACMIDSTANDARDISO
  2
AcmIdStdISO
  3
"Amdt_StdImp|Product Description: AutoCAD Mechanical 2004 DX|Company: Autodesk"
 90
        0
280
     0
281
     0
  0
CLASS
  1
ACMDATUMSTANDARDISO
  2
AcmDatumStdISO
  3
"Amdt_StdImp|Product Description: AutoCAD Mechanical 2004 DX|Company: Autodesk"
 90
        0
280
     0
281
     0
  0
CLASS
  1
ACMBOMSTANDARDISO
  2
AcmBOMStdISO
  3
"Amdt_StdImp|Product Description: AutoCAD Mechanical 2004 DX|Company: Autodesk"
 90
        0
280
     0
281
     0
  0
CLASS
  1
ACMDETAILSTANDARDISO
  2
AmdtDetailSymStdISO
  3
"Amdt_StdImp|Product Description: AutoCAD Mechanical 2004 DX|Company: Autodesk"
 90
        0
280
     0
281
     0
  0
CLASS
  1
ACMSECTIONSTANDARDISO
  2
AmdtSectionSymStdISO
  3
"Amdt_StdImp|Product Description: AutoCAD Mechanical 2004 DX|Company: Autodesk"
 90
        0
280
     0
281
     0
  0
CLASS
  1
ACMCENTERLINESTANDARDISO
  2
AmdtCenterLineStdISO
  3
"Amdt_StdImp|Product Description: AutoCAD Mechanical 2004 DX|Company: Autodesk"
 90
        0
280
     0
281
     0
  0
CLASS
  1
ACMNOTESTANDARDISO
  2
AmdtNoteStdISO
  3
"Amdt_StdImp|Product Description: AutoCAD Mechanical 2004 DX|Company: Autodesk"
 90
        0
280
     0
281
     0
  0
CLASS
  1
ACAMGLAYSTD
  2
AcAmgLayStd
  3
"AcAmgLayStd|Product Description: AutoCAD Mechanical 2000|Company: Autodesk"
 90
        0
280
     0
281
     0
  0
CLASS
  1
ACAMGDIMSTD
  2
AcAmgDimStd
  3
"AcAmgDimStd|Product Description: AutoCAD Mechanical 2000|Company: Autodesk"
 90
        0
280
     0
281
     0
  0
CLASS
  1
ACAMGHOLECHARTSTDISO
  2
AcAmgHoleChartStdISO
  3
ACMSYMBB_MODULE_NAME
 90
        0
280
     0
281
     0
  0
CLASS
  1
ACAMGTITLESTD
  2
AcAmgTitleStd
  3
"TITLEAPP"
 90
        0
280
     0
281
     0
  0
CLASS
  1
LAYER_INDEX
  2
AcDbLayerIndex
  3
ObjectDBX Classes
 90
    32768
280
     0
281
     0
  0
CLASS
  1
IDBUFFER
  2
AcDbIdBuffer
  3
ObjectDBX Classes
 90
    32768
280
     0
281
     0
  0
CLASS
  1
DICTIONARYVAR
  2
AcDbDictionaryVar
  3
ObjectDBX Classes
 90
        0
280
     0
281
     0
  0
CLASS
  1
AM_DRAWING_MGR
  2
AcDmDwgMgr
  3
AcMechDwgViewMgmt
 90
        0
280
     0
281
     0
  0
CLASS
  1
AM_DWG_DOCUMENT
  2
AcDmDwgDocument
  3
AcMechDwgViewMgmt
 90
        0
280
     0
281
     0
  0
CLASS
  1
AM_DWG_SHEET
  2
AcDmSheet
  3
AcMechDwgViewMgmt
 90
        0
280
     0
281
     0
  0
CLASS
  1
AM_VIEWDIMPARMAP
  2
AcDmViewDimParMap
  3
AcMechDwgViewMgmt
 90
        0
280
     0
281
     0
  0
CLASS
  1
AM_DWGMGR_NAME
  2
AcDmDwgMgrName
  3
AcMechDwgViewMgmt
 90
        0
280
     0
281
     0
  0
CLASS
  1
AMDTMENUSTATEMGR
  2
AmdtMenuStateMgr
  3
McadcomServices
 90
        0
280
     0
281
     0
  0
CLASS
  1
AMDTMCOMMENUSTATE
  2
AmdtMcomMenuState
  3
McadcomServices
 90
        0
280
     0
281
     0
  0
CLASS
  1
MAPIAMMOUDLE
  2
MApiAmModule
  3
MApiAmServices
 90
        0
280
     0
281
     0
  0
CLASS
  1
AMDTADMENUSTATE
  2
AmdtAdMenuState
  3
DesignerServices
 90
        0
280
     0
281
     0
  0
CLASS
  1
ADAPPL
  2
AcAdAppl
  3
DesignerServices
 90
        0
280
     0
281
     0
  0
CLASS
  1
DEPMGR
  2
AcAdDepMgr
  3
DesignerServices
 90
        0
280
     0
281
     0
  0
CLASS
  1
PARAMMGR
  2
AcAdParamMgr
  3
DesignerServices
 90
        0
280
     0
281
     0
  0
CLASS
  1
PARAMSCOPE
  2
AcAdParamScope
  3
DesignerServices
 90
        0
280
     0
281
     0
  0
CLASS
  1
NAMEDAPPL
  2
AcAdNamedAppl
  3
DesignerServices
 90
        0
280
     0
281
     0
  0
CLASS
  1
AMDTDMMENUSTATE
  2
AmdtDmMenuState
  3
AcMechDwgViewMgmt
 90
        0
280
     0
281
     0
  0
CLASS
  1
AMDTAMMENUSTATE
  2
AmdtAmMenuState
  3
DesignerAssemblies
 90
        0
280
     0
281
     0
  0
CLASS
  1
ACAMPROJECT
  2
AcAmProject
  3
DesignerAssemblies
 90
        0
280
     0
281
     0
  0
CLASS
  1
ACAMGRCOMPDEF
  2
AcAmGrCompDef
  3
DesignerAssemblies
 90
        0
280
     0
281
     0
  0
CLASS
  1
ACCMCONTEXT
  2
AcCmContext
  3
DesignerAssemblies
 90
        0
280
     0
281
     0
  0
CLASS
  1
ACAMCOMPDEF
  2
AcAmCompDef
  3
DesignerAssemblies
 90
        0
280
     0
281
     0
  0
CLASS
  1
ACAMCOMPDEFMGR
  2
AcAmCompDefMgr
  3
DesignerAssemblies
 90
        0
280
     0
281
     0
  0
CLASS
  1
AMCONTEXTMGR
  2
AcAmContextMgr
  3
DesignerAssemblies
 90
        0
280
     0
281
     0
  0
CLASS
  1
ACAMCONTEXTMODELER
  2
AcAmContextModeler
  3
DesignerAssemblies
 90
        0
280
     0
281
     0
  0
CLASS
  1
ACMTHREADLINESTANDARDISO
  2
AmdtThreadLineStdISO
  3
"Amdt_StdImp|Product Description: AutoCAD Mechanical 2004 DX|Company: Autodesk"
 90
        0
280
     0
281
     0
  0
CLASS
  1
CATALOGSTATE
  2
AcAmCatalogState
  3
DesignerAssemblies
 90
        0
280
     0
281
     0
  0
CLASS
  1
ACAMGRCOMPDEFSET
  2
AcAmGrCompDefSet
  3
DesignerAssemblies
 90
        0
280
     0
281
     0
  0
CLASS
  1
AMDTBROWSERDBTAB
  2
AmdtBrowserDbTab
  3
McadcomServices
 90
        0
280
     0
281
     0
  0
CLASS
  1
CBROWSERAPPOBJECT
  2
CBrowserAppObject
  3
McadcomServices
 90
        0
280
     0
281
     0
  0
CLASS
  1
DM_PLACEHOLDER
  2
AcDmSelsetPlaceholder
  3
AcMechDwgViewMgmt
 90
        0
280
     0
281
     0
  0
CLASS
  1
TABLESTYLE
  2
AcDbTableStyle
  3
ObjectDBX Classes
 90
     2047
280
     0
281
     0
  0
CLASS
  1
VAACXREFPANELOBJECT
  2
VaAcXREFPanelObject
  3
VAAC_ADDIN
 90
    32768
280
     0
281
     0
  0
CLASS
  1
VAACIMAGEINVENTORY
  2
VaAcImageInventory
  3
VAAC_ADDIN
 90
    32768
280
     0
281
     0
  0
CLASS
  1
AMDTNOTETEMPLATEDB
  2
AmdtNoteTemplateDB
  3
AMDT_STDIMP_MODULE_NAME
 90
        0
280
     0
281
     0
  0
CLASS
  1
ACAMGFILTERDAT
  2
AcAmgFilterDat
  3
"AcadM|Product Description: AutoCAD Mechanical 2000|Company: Autodesk"
 90
        0
280
     0
281
     0
  0
CLASS
  1
ACMBOM
  2
AcmBom
  3
"AcmSymBB|Product Description: AutoCAD Mechanical 2004 DX|Company: Autodesk"
 90
    32768
280
     0
281
     0
  0
CLASS
  1
AMDTFORMULAUPDATEDISPATCHER
  2
AmdtFormulaUpdateDispatcher
  3
AcMeServices
 90
    32768
280
     0
281
     0
  0
CLASS
  1
ACMSTANDARDDIN
  2
AcmStandardDIN
  3
"Amdt_StdImp|Product Description: AutoCAD Mechanical 2004 DX|Company: Autodesk"
 90
        0
280
     0
281
     0
  0
CLASS
  1
AMDTEDGESTANDARDDIN13715
  2
AmdtEdgeStdDIN13715
  3
"Amdt_StdImp|Product Description: AutoCAD Mechanical 2004 DX|Company: Autodesk"
 90
        0
280
     0
281
     0
  0
CLASS
  1
ACMSURFSTANDARDDIN
  2
AcmSurfTextStdDIN
  3
"Amdt_StdImp|Product Description: AutoCAD Mechanical 2004 DX|Company: Autodesk"
 90
        0
280
     0
281
     0
  0
CLASS
  1
ACMFCFSTANDARDDIN
  2
AcmFCFStdDIN
  3
"Amdt_StdImp|Product Description: AutoCAD Mechanical 2004 DX|Company: Autodesk"
 90
        0
280
     0
281
     0
  0
CLASS
  1
ACMWELDSTANDARDDIN
  2
AcmWeldingStdDIN
  3
"Amdt_StdImp|Product Description: AutoCAD Mechanical 2004 DX|Company: Autodesk"
 90
        0
280
     0
281
     0
  0
CLASS
  1
ACMIDSTANDARDDIN
  2
AcmIdStdDIN
  3
"Amdt_StdImp|Product Description: AutoCAD Mechanical 2004 DX|Company: Autodesk"
 90
        0
280
     0
281
     0
  0
CLASS
  1
ACMDATUMSTANDARDDIN
  2
AcmDatumStdDIN
  3
"Amdt_StdImp|Product Description: AutoCAD Mechanical 2004 DX|Company: Autodesk"
 90
        0
280
     0
281
     0
  0
CLASS
  1
ACMBOMSTANDARDDIN
  2
AcmBOMStdDIN
  3
"Amdt_StdImp|Product Description: AutoCAD Mechanical 2004 DX|Company: Autodesk"
 90
        0
280
     0
281
     0
  0
CLASS
  1
ACMDETAILSTANDARDDIN
  2
AmdtDetailSymStdDIN
  3
"Amdt_StdImp|Product Description: AutoCAD Mechanical 2004 DX|Company: Autodesk"
 90
        0
280
     0
281
     0
  0
CLASS
  1
ACMSECTIONSTANDARDDIN
  2
AmdtSectionSymStdDIN
  3
"Amdt_StdImp|Product Description: AutoCAD Mechanical 2004 DX|Company: Autodesk"
 90
        0
280
     0
281
     0
  0
CLASS
  1
ACMCENTERLINESTANDARDDIN
  2
AmdtCenterLineStdDIN
  3
"Amdt_StdImp|Product Description: AutoCAD Mechanical 2004 DX|Company: Autodesk"
 90
        0
280
     0
281
     0
  0
CLASS
  1
ACMTHREADLINESTANDARDDIN
  2
AmdtThreadLineStdDIN
  3
"Amdt_StdImp|Product Description: AutoCAD Mechanical 2004 DX|Company: Autodesk"
 90
        0
280
     0
281
     0
  0
CLASS
  1
ACMNOTESTANDARDDIN
  2
AmdtNoteStdDIN
  3
"Amdt_StdImp|Product Description: AutoCAD Mechanical 2004 DX|Company: Autodesk"
 90
        0
280
     0
281
     0
  0
CLASS
  1
ACAMGHOLECHARTSTDDIN
  2
AcAmgHoleChartStdDIN
  3
ACMSYMBB_MODULE_NAME
 90
        0
280
     0
281
     0
  0
CLASS
  1
DIMASSOC
  2
AcDbDimAssoc
  3
"AcDbDimAssoc|Product Desc:     AcDim ARX App For Dimension|Company:          Autodesk, Inc.|WEB Address:      www.autodesk.com"
 90
        0
280
     0
281
     0
  0
CLASS
  1
ACMSTANDARDANSI
  2
AcmStandardANSI
  3
"Amdt_StdImp|Product Description: AutoCAD Mechanical 2004 DX|Company: Autodesk"
 90
        0
280
     0
281
     0
  0
CLASS
  1
ACMSURFSTANDARDANSI
  2
AcmSurfTextStdANSI
  3
"Amdt_StdImp|Product Description: AutoCAD Mechanical 2004 DX|Company: Autodesk"
 90
        0
280
     0
281
     0
  0
CLASS
  1
ACMFCFSTANDARDANSI
  2
AcmFCFStdANSI
  3
"Amdt_StdImp|Product Description: AutoCAD Mechanical 2004 DX|Company: Autodesk"
 90
        0
280
     0
281
     0
  0
CLASS
  1
ACMWELDSTANDARDANSI
  2
AcmWeldingStdANSI
  3
"Amdt_StdImp|Product Description: AutoCAD Mechanical 2004 DX|Company: Autodesk"
 90
        0
280
     0
281
     0
  0
CLASS
  1
ACMIDSTANDARDANSI
  2
AcmIdStdANSI
  3
"Amdt_StdImp|Product Description: AutoCAD Mechanical 2004 DX|Company: Autodesk"
 90
        0
280
     0
281
     0
  0
CLASS
  1
ACMDATUMSTANDARDANSI
  2
AcmDatumStdANSI
  3
"Amdt_StdImp|Product Description: AutoCAD Mechanical 2004 DX|Company: Autodesk"
 90
        0
280
     0
281
     0
  0
CLASS
  1
ACMBOMSTANDARDANSI
  2
AcmBOMStdANSI
  3
"Amdt_StdImp|Product Description: AutoCAD Mechanical 2004 DX|Company: Autodesk"
 90
        0
280
     0
281
     0
  0
CLASS
  1
ACMDETAILSTANDARDANSI
  2
AmdtDetailSymStdANSI
  3
"Amdt_StdImp|Product Description: AutoCAD Mechanical 2004 DX|Company: Autodesk"
 90
        0
280
     0
281
     0
  0
CLASS
  1
ACMSECTIONSTANDARDANSI
  2
AmdtSectionSymStdANSI
  3
"Amdt_StdImp|Product Description: AutoCAD Mechanical 2004 DX|Company: Autodesk"
 90
        0
280
     0
281
     0
  0
CLASS
  1
ACMCENTERLINESTANDARDANSI
  2
AmdtCenterLineStdANSI
  3
"Amdt_StdImp|Product Description: AutoCAD Mechanical 2004 DX|Company: Autodesk"
 90
        0
280
     0
281
     0
  0
CLASS
  1
ACMTHREADLINESTANDARDANSI
  2
AmdtThreadLineStdANSI
  3
"Amdt_StdImp|Product Description: AutoCAD Mechanical 2004 DX|Company: Autodesk"
 90
        0
280
     0
281
     0
  0
CLASS
  1
ACMNOTESTANDARDANSI
  2
AmdtNoteStdANSI
  3
"Amdt_StdImp|Product Description: AutoCAD Mechanical 2004 DX|Company: Autodesk"
 90
        0
280
     0
281
     0
  0
CLASS
  1
ACAMGHOLECHARTSTDANSI
  2
AcAmgHoleChartStdANSI
  3
ACMSYMBB_MODULE_NAME
 90
        0
280
     0
281
     0
  0
ENDSEC
  0
SECTION
  2
TABLES
  0
TABLE
  2
VPORT
  5
8
330
0
100
AcDbSymbolTable
 70
     4
  0
VPORT
  5
9AE
330
8
100
AcDbSymbolTableRecord
100
AcDbViewportTableRecord
  2
*Active
 70
     0
 10
0.0
 20
0.0
 11
1.0
 21
1.0
 12
1948.315850379013
 22
2076.160355963571
 13
0.0
 23
0.0
 14
2.5
 24
2.5
 15
10.0
 25
10.0
 16
0.0
 26
0.0
 36
1.0
 17
0.0
 27
0.0
 37
0.0
 40
760.1927907121265
 41
1.494545454545454
 42
50.0
 43
0.0
 44
0.0
 50
0.0
 51
0.0
 71
     0
 72
   100
 73
     1
 74
     3
 75
     0
 76
     0
 77
     0
 78
     0
281
     0
 65
     1
110
0.0
120
0.0
130
0.0
111
1.0
121
0.0
131
0.0
112
0.0
122
1.0
132
0.0
 79
     0
146
0.0
  0
ENDTAB
  0
TABLE
  2
LTYPE
  5
5
330
0
100
AcDbSymbolTable
 70
    28
  0
LTYPE
  5
14
330
5
100
AcDbSymbolTableRecord
100
AcDbLinetypeTableRecord
  2
ByBlock
 70
     0
  3

 72
    65
 73
     0
 40
0.0
  0
LTYPE
  5
15
330
5
100
AcDbSymbolTableRecord
100
AcDbLinetypeTableRecord
  2
ByLayer
 70
     0
  3

 72
    65
 73
     0
 40
0.0
  0
LTYPE
  5
16
330
5
100
AcDbSymbolTableRecord
100
AcDbLinetypeTableRecord
  2
Continuous
 70
     0
  3
Solid line
 72
    65
 73
     0
 40
0.0
  0
LTYPE
  5
64
330
5
100
AcDbSymbolTableRecord
100
AcDbLinetypeTableRecord
  2
AM_ISO02W050
 70
     0
  3
__ __ __ __ __ __ __ __ __ __ __ __ __ __ __
 72
    65
 73
     2
 40
7.5
 49
6.0
 74
     0
 49
-1.5
 74
     0
  0
LTYPE
  5
65
330
5
100
AcDbSymbolTableRecord
100
AcDbLinetypeTableRecord
  2
AM_ISO08W050
 70
     0
  3
____ . ____ . ____ . ____ . ____ . ____ . ____
 72
    65
 73
     4
 40
18.0
 49
12.0
 74
     0
 49
-1.5
 74
     0
 49
3.0
 74
     0
 49
-1.5
 74
     0
  0
LTYPE
  5
66
330
5
100
AcDbSymbolTableRecord
100
AcDbLinetypeTableRecord
  2
AM_ISO09W050
 70
     0
  3
_____ . . _____ . . _____ . . ____ .. ____
 72
    65
 73
     6
 40
22.5
 49
12.0
 74
     0
 49
-1.5
 74
     0
 49
3.0
 74
     0
 49
-1.5
 74
     0
 49
3.0
 74
     0
 49
-1.5
 74
     0
  0
LTYPE
  5
67
330
5
100
AcDbSymbolTableRecord
100
AcDbLinetypeTableRecord
  2
Amconstr
 70
     0
  3
_______________________
 72
    65
 73
     2
 40
9999.0
 49
9999.0
 74
     0
 49
0.0
 74
     0
  0
LTYPE
  5
68
330
5
100
AcDbSymbolTableRecord
100
AcDbLinetypeTableRecord
  2
AM_ISO08W050x2
 70
     0
  3
__ . __ . __ . __ . __ . __
 72
    65
 73
     4
 40
9.0
 49
6.0
 74
     0
 49
-0.75
 74
     0
 49
1.5
 74
     0
 49
-0.75
 74
     0
  0
LTYPE
  5
69
330
5
100
AcDbSymbolTableRecord
100
AcDbLinetypeTableRecord
  2
AM_ISO02W050x2
 70
     0
  3
 _ _ _ _ _ _ _ _ _ _ _ _
 72
    65
 73
     2
 40
3.75
 49
3.0
 74
     0
 49
-0.75
 74
     0
  0
LTYPE
  5
6C
330
5
100
AcDbSymbolTableRecord
100
AcDbLinetypeTableRecord
  2
Amzigzag
 70
     0
  3
/\/-/\/-/\/-/\/-/\/-/\/
 72
    65
 73
     2
 40
11.0001
 49
0.0001
 74
     4
 75
   136
340
22C
 46
0.04
 50
0.0
 44
0.0
 45
0.0
 49
-11.0
 74
     0
  0
LTYPE
  5
7A
330
5
100
AcDbSymbolTableRecord
100
AcDbLinetypeTableRecord
  2
ACISOWELD
 70
     0
  3
_ _ _ _ _
 72
    65
 73
     2
 40
2.0
 49
2.0
 74
     0
 49
-1.0
 74
     0
  0
LTYPE
  5
7B
330
5
100
AcDbSymbolTableRecord
100
AcDbLinetypeTableRecord
  2
ACISOTGB
 70
     0
  3
__ . . __ . .
 72
    65
 73
     6
 40
9.0
 49
4.0
 74
     0
 49
-1.0
 74
     0
 49
1.0
 74
     0
 49
-1.0
 74
     0
 49
1.0
 74
     0
 49
-1.0
 74
     0
  0
LTYPE
  5
7C
330
5
100
AcDbSymbolTableRecord
100
AcDbLinetypeTableRecord
  2
ACISOTGL
 70
     0
  3
_ _ _ _ _
 72
    65
 73
     2
 40
3.0
 49
2.0
 74
     0
 49
-1.0
 74
     0
  0
LTYPE
  5
7E
330
5
100
AcDbSymbolTableRecord
100
AcDbLinetypeTableRecord
  2
CENTER
 70
     0
  3
__ . __
 72
    65
 73
     4
 40
7.0
 49
4.0
 74
     0
 49
-1.0
 74
     0
 49
1.0
 74
     0
 49
-1.0
 74
     0
  0
LTYPE
  5
D8
330
5
100
AcDbSymbolTableRecord
100
AcDbLinetypeTableRecord
  2
HIDDEN
 70
     0
  3
Hidden __ __ __ __ __ __ __ __ __ __ __ __ __ _
 72
    65
 73
     2
 40
9.524999999999998
 49
6.349999999999999
 74
     0
 49
-3.174999999999999
 74
     0
  0
LTYPE
  5
D9
330
5
100
AcDbSymbolTableRecord
100
AcDbLinetypeTableRecord
  2
PHANTOM2
 70
     0
  3
Phantom (.5x) ___ _ _ ___ _ _ ___ _ _ ___ _ _
 72
    65
 73
     6
 40
31.75
 49
15.875
 74
     0
 49
-3.174999999999999
 74
     0
 49
3.174999999999999
 74
     0
 49
-3.174999999999999
 74
     0
 49
3.174999999999999
 74
     0
 49
-3.174999999999999
 74
     0
  0
LTYPE
  5
2DA
330
5
100
AcDbSymbolTableRecord
100
AcDbLinetypeTableRecord
  2
AM_DIN_G_W050
 70
     0
  3
____ . ____ . ____ . ____ . ____ . ____ . ____
 72
    65
 73
     4
 40
13.75
 49
9.75
 74
     0
 49
-1.5
 74
     0
 49
1.0
 74
     0
 49
-1.5
 74
     0
  0
LTYPE
  5
2DE
330
5
100
AcDbSymbolTableRecord
100
AcDbLinetypeTableRecord
  2
ACDINWELD
 70
     0
  3
_ _ _ _ _
 72
    65
 73
     2
 40
2.0
 49
2.0
 74
     0
 49
-1.0
 74
     0
  0
LTYPE
  5
2DF
330
5
100
AcDbSymbolTableRecord
100
AcDbLinetypeTableRecord
  2
ACDINTGB
 70
     0
  3
__ . . __ . .
 72
    65
 73
     6
 40
9.0
 49
4.0
 74
     0
 49
-1.0
 74
     0
 49
1.0
 74
     0
 49
-1.0
 74
     0
 49
1.0
 74
     0
 49
-1.0
 74
     0
  0
LTYPE
  5
2E0
330
5
100
AcDbSymbolTableRecord
100
AcDbLinetypeTableRecord
  2
ACDINTGL
 70
     0
  3
_ _ _ _ _
 72
    65
 73
     2
 40
3.0
 49
2.0
 74
     0
 49
-1.0
 74
     0
  0
LTYPE
  5
4F0
330
5
100
AcDbSymbolTableRecord
100
AcDbLinetypeTableRecord
  2
ACANSTGB
 70
     0
  3
__ . . __ . .
 72
    65
 73
     6
 40
0.35433070866
 49
0.15748031496
 74
     0
 49
-0.03937007874
 74
     0
 49
0.03937007874
 74
     0
 49
-0.03937007874
 74
     0
 49
0.03937007874
 74
     0
 49
-0.03937007874
 74
     0
  0
LTYPE
  5
4F1
330
5
100
AcDbSymbolTableRecord
100
AcDbLinetypeTableRecord
  2
ACANSTGL
 70
     0
  3
_ _ _ _ _
 72
    65
 73
     2
 40
0.11811023622
 49
0.07874015748
 74
     0
 49
-0.03937007874
 74
     0
  0
ENDTAB
  0
TABLE
  2
LAYER
  5
2
330
0
100
AcDbSymbolTable
 70
     8
  0
LAYER
  5
10
330
2
100
AcDbSymbolTableRecord
100
AcDbLayerTableRecord
  2
0
 70
     0
 62
     7
  6
Continuous
370
    -3
390
F
  0
LAYER
  5
2E2
330
2
100
AcDbSymbolTableRecord
100
AcDbLayerTableRecord
  2
8
 70
     0
 62
     1
  6
Continuous
370
    -3
390
F
  0
LAYER
  5
4BB
330
2
100
AcDbSymbolTableRecord
100
AcDbLayerTableRecord
  2
AM_5
 70
     0
 62
     3
  6
Continuous
370
    25
390
F
1001
AcAecLayerStandard
1000

1000

  0
LAYER
  5
5C5
330
2
100
AcDbSymbolTableRecord
100
AcDbLayerTableRecord
  2
Defpoints
 70
     0
 62
     7
  6
Continuous
290
     0
370
    -3
390
F
  0
ENDTAB
  0
TABLE
  2
STYLE
  5
3
330
0
100
AcDbSymbolTable
 70
    14
  0
STYLE
  5
11
330
3
100
AcDbSymbolTableRecord
100
AcDbTextStyleTableRecord
  2
STANDARD
 70
     0
 40
0.0
 41
1.0
 50
0.0
 71
     0
 42
2.5
  3
ISOCP.SHX
  4

  0
STYLE
  5
6D
330
3
100
AcDbSymbolTableRecord
100
AcDbTextStyleTableRecord
  2
ACISOTS
 70
     0
 40
1.0
 41
1.0
 50
0.0
 71
     0
 42
2.5
  3
isocp.shx
  4
bigfont.shx
  0
STYLE
  5
79
330
3
100
AcDbSymbolTableRecord
100
AcDbTextStyleTableRecord
  2
ACISOGDT
 70
     0
 40
0.0
 41
1.0
 50
0.0
 71
     0
 42
2.5
  3
AMGDT
  4
bigfont.shx
  0
STYLE
  5
22C
330
3
100
AcDbSymbolTableRecord
100
AcDbTextStyleTableRecord
  2

 70
     1
 40
0.0
 41
1.0
 50
0.0
 71
     0
 42
2.5
  3
genltshp.shx
  4

  0
STYLE
  5
2E4
330
3
100
AcDbSymbolTableRecord
100
AcDbTextStyleTableRecord
  2
ACDINTS
 70
     0
 40
1.0
 41
1.0
 50
0.0
 71
     0
 42
5.0
  3
isocp.shx
  4

  0
STYLE
  5
2E5
330
3
100
AcDbSymbolTableRecord
100
AcDbTextStyleTableRecord
  2
ACDINGDT
 70
     0
 40
0.0
 41
1.0
 50
0.0
 71
     0
 42
5.0
  3
amgdt.shx
  4

  0
STYLE
  5
4F4
330
3
100
AcDbSymbolTableRecord
100
AcDbTextStyleTableRecord
  2
ACANSTS
 70
     0
 40
1.0
 41
1.0
 50
0.0
 71
     0
 42
0.2
  3
romans.shx
  4

  0
STYLE
  5
4F5
330
3
100
AcDbSymbolTableRecord
100
AcDbTextStyleTableRecord
  2
ACANSGDT
 70
     0
 40
0.0
 41
1.0
 50
0.0
 71
     0
 42
0.2
  3
amgdt.shx
  4

  0
ENDTAB
  0
TABLE
  2
VIEW
  5
6
330
0
100
AcDbSymbolTable
 70
     0
  0
ENDTAB
  0
TABLE
  2
UCS
  5
7
330
0
100
AcDbSymbolTable
 70
     0
  0
ENDTAB
  0
TABLE
  2
APPID
  5
9
330
0
100
AcDbSymbolTable
 70
    25
  0
APPID
  5
12
330
9
100
AcDbSymbolTableRecord
100
AcDbRegAppTableRecord
  2
ACAD
 70
     0
  0
APPID
  5
46
330
9
100
AcDbSymbolTableRecord
100
AcDbRegAppTableRecord
  2
MCAD_NO_VIS
 70
     0
  0
APPID
  5
47
330
9
100
AcDbSymbolTableRecord
100
AcDbRegAppTableRecord
  2
ACAD_TEMP_GRAPHIC
 70
     0
  0
APPID
  5
58
330
9
100
AcDbSymbolTableRecord
100
AcDbRegAppTableRecord
  2
ACATTRIBSERVICES
 70
     0
  0
APPID
  5
EE
330
9
100
AcDbSymbolTableRecord
100
AcDbRegAppTableRecord
  2
AD_DRAW
 70
     0
  0
APPID
  5
10C
330
9
100
AcDbSymbolTableRecord
100
AcDbRegAppTableRecord
  2
DESIGNERASSEMBLIES
 70
     0
  0
APPID
  5
111
330
9
100
AcDbSymbolTableRecord
100
AcDbRegAppTableRecord
  2
ACADM_DIM_EDIT
 70
     0
  0
APPID
  5
112
330
9
100
AcDbSymbolTableRecord
100
AcDbRegAppTableRecord
  2
AMDT_DM_ADJ
 70
     0
  0
APPID
  5
1A3
330
9
100
AcDbSymbolTableRecord
100
AcDbRegAppTableRecord
  2
ACAD_DSTYLE_DIMARC_LENGTH_SYMBOL
 70
     0
  0
APPID
  5
1A4
330
9
100
AcDbSymbolTableRecord
100
AcDbRegAppTableRecord
  2
ACAD_DSTYLE_DIMJOGGED_JOGANGLE_SYMBOL
 70
     0
  0
APPID
  5
363
330
9
100
AcDbSymbolTableRecord
100
AcDbRegAppTableRecord
  2
GENIUS_GENODEF_13
 70
     0
  0
APPID
  5
364
330
9
100
AcDbSymbolTableRecord
100
AcDbRegAppTableRecord
  2
GENIUS_GENOREF_13
 70
     0
  0
APPID
  5
365
330
9
100
AcDbSymbolTableRecord
100
AcDbRegAppTableRecord
  2
AcAecLayerStandard
 70
     0
  0
APPID
  5
366
330
9
100
AcDbSymbolTableRecord
100
AcDbRegAppTableRecord
  2
GENIUS_GENOBJ-N-CEN_13
 70
     0
  0
APPID
  5
367
330
9
100
AcDbSymbolTableRecord
100
AcDbRegAppTableRecord
  2
GENIUS_GENCEN_19
 70
     0
  0
APPID
  5
368
330
9
100
AcDbSymbolTableRecord
100
AcDbRegAppTableRecord
  2
GENIUS_GENOENT_13
 70
     0
  0
APPID
  5
369
330
9
100
AcDbSymbolTableRecord
100
AcDbRegAppTableRecord
  2
GENIUS_GENOBJ-N-CRS_13
 70
     0
  0
APPID
  5
36A
330
9
100
AcDbSymbolTableRecord
100
AcDbRegAppTableRecord
  2
GENIUS_GENOLIS_13
 70
     0
  0
APPID
  5
4E5
330
9
100
AcDbSymbolTableRecord
100
AcDbRegAppTableRecord
  2
ACAD_EXEMPT_FROM_CAD_STANDARDS
 70
     0
  0
APPID
  5
78E
330
9
100
AcDbSymbolTableRecord
100
AcDbRegAppTableRecord
  2
ACAD_DSTYLE_DIMTEXT_FILL
 70
     0
  0
APPID
  5
78F
330
9
100
AcDbSymbolTableRecord
100
AcDbRegAppTableRecord
  2
ACAD_DSTYLE_DIMEXT_LENGTH
 70
     0
  0
APPID
  5
790
330
9
100
AcDbSymbolTableRecord
100
AcDbRegAppTableRecord
  2
ACAD_DSTYLE_DIMEXT_ENABLED
 70
     0
  0
APPID
  5
791
330
9
100
AcDbSymbolTableRecord
100
AcDbRegAppTableRecord
  2
ACAD_DSTYLE_DIM_LINETYPE
 70
     0
  0
APPID
  5
792
330
9
100
AcDbSymbolTableRecord
100
AcDbRegAppTableRecord
  2
ACAD_DSTYLE_DIM_EXT1_LINETYPE
 70
     0
  0
APPID
  5
793
330
9
100
AcDbSymbolTableRecord
100
AcDbRegAppTableRecord
  2
ACAD_DSTYLE_DIM_EXT2_LINETYPE
 70
     0
  0
ENDTAB
  0
TABLE
  2
DIMSTYLE
  5
A
330
0
100
AcDbSymbolTable
 70
    25
100
AcDbDimStyleTable
 71
     1
340
81
  0
DIMSTYLE
105
81
330
A
100
AcDbSymbolTableRecord
100
AcDbDimStyleTableRecord
  2
AM_ISO
 70
     0
  4
"
 41
2.5
 42
1.0
 43
10.0
 44
1.0
 47
0.1
 48
0.1
 73
     0
 74
     0
 77
     1
 78
     8
 79
     2
140
3.5
141
0.0
143
0.0393701
146
0.71
147
1.5
172
     1
176
   256
177
   256
178
     2
271
     2
272
     3
274
     4
283
     0
284
     8
340
11
371
    -1
372
    -1
1001
ACAD_DSTYLE_DIMARC_LENGTH_SYMBOL
1070
   379
1070
     1
1001
ACAD_DSTYLE_DIMJOGGED_JOGANGLE_SYMBOL
1070
   384
1040
0.7853981633974483
  0
DIMSTYLE
105
82
330
A
100
AcDbSymbolTableRecord
100
AcDbDimStyleTableRecord
  2
AM_ISO$3
 70
     0
  4
"
 41
2.5
 42
1.0
 43
10.0
 44
1.0
 47
0.1
 48
0.1
 73
     0
 77
     1
 78
     8
 79
     2
140
3.5
141
0.0
143
0.0393701
146
0.71
147
1.5
176
   256
177
   256
178
     2
271
     2
272
     3
274
     4
283
     0
284
     8
288
     1
289
     0
340
11
371
    -1
372
    -1
1001
ACAD_DSTYLE_DIMARC_LENGTH_SYMBOL
1070
   379
1070
     1
1001
ACAD_DSTYLE_DIMJOGGED_JOGANGLE_SYMBOL
1070
   384
1040
0.7853981633974483
  0
DIMSTYLE
105
83
330
A
100
AcDbSymbolTableRecord
100
AcDbDimStyleTableRecord
  2
AM_ISO$4
 70
     0
  4
"
 41
2.5
 42
1.0
 43
10.0
 44
1.0
 47
0.1
 48
0.1
 73
     0
 77
     1
 78
     8
 79
     2
140
3.5
141
0.0
143
0.0393701
146
0.71
147
1.5
176
   256
177
   256
178
     2
271
     2
272
     3
274
     4
283
     0
284
     8
288
     1
289
     0
340
11
371
    -1
372
    -1
1001
ACAD_DSTYLE_DIMARC_LENGTH_SYMBOL
1070
   379
1070
     1
1001
ACAD_DSTYLE_DIMJOGGED_JOGANGLE_SYMBOL
1070
   384
1040
0.7853981633974483
  0
DIMSTYLE
105
84
330
A
100
AcDbSymbolTableRecord
100
AcDbDimStyleTableRecord
  2
AM_ISO$6
 70
     0
  4
"
 41
2.5
 42
1.0
 43
10.0
 44
1.0
 47
0.1
 48
0.1
 73
     0
 74
     0
 78
     8
 79
     2
140
3.5
141
0.0
143
0.0393701
146
0.71
147
1.5
172
     1
176
   256
177
   256
178
     2
271
     2
272
     3
274
     4
283
     0
284
     8
340
11
371
    -1
372
    -1
1001
ACAD_DSTYLE_DIMARC_LENGTH_SYMBOL
1070
   379
1070
     1
1001
ACAD_DSTYLE_DIMJOGGED_JOGANGLE_SYMBOL
1070
   384
1040
0.7853981633974483
  0
DIMSTYLE
105
85
330
A
100
AcDbSymbolTableRecord
100
AcDbDimStyleTableRecord
  2
AM_ISO$7
 70
     0
  4
"
 41
2.5
 42
1.0
 43
10.0
 44
1.0
 47
0.1
 48
0.1
 73
     0
 74
     0
 77
     1
 78
     8
 79
     2
140
5.0
141
0.0
143
0.0393701
146
0.71
147
1.5
172
     1
176
   256
177
   256
178
     2
271
     2
272
     3
274
     4
283
     0
284
     8
340
11
371
    -1
372
    -1
1001
ACAD_DSTYLE_DIMARC_LENGTH_SYMBOL
1070
   379
1070
     1
1001
ACAD_DSTYLE_DIMJOGGED_JOGANGLE_SYMBOL
1070
   384
1040
0.7853981633974483
  0
DIMSTYLE
105
86
330
A
100
AcDbSymbolTableRecord
100
AcDbDimStyleTableRecord
  2
AM_ISO$SF
 70
     0
  4
"
 41
2.5
 42
1.0
 43
10.0
 44
1.0
 47
0.1
 48
0.1
 73
     0
 74
     0
 75
     1
 76
     1
 77
     1
 78
     8
 79
     2
140
3.5
141
0.0
143
0.0393701
146
0.71
147
1.5
172
     1
176
   256
177
   256
178
     2
271
     2
272
     3
274
     4
283
     0
284
     8
340
11
371
    -1
372
    -1
1001
ACAD_DSTYLE_DIMARC_LENGTH_SYMBOL
1070
   379
1070
     1
1001
ACAD_DSTYLE_DIMJOGGED_JOGANGLE_SYMBOL
1070
   384
1040
0.7853981633974483
  0
DIMSTYLE
105
8B
330
A
100
AcDbSymbolTableRecord
100
AcDbDimStyleTableRecord
  2
AM_ISO$SH
 70
     0
  4
"
 41
2.5
 42
1.0
 43
10.0
 44
1.0
 47
0.1
 48
0.1
 73
     0
 74
     0
 75
     1
 76
     1
 77
     1
 78
     8
 79
     2
140
3.5
141
0.0
143
0.0393701
144
2.0
146
0.71
147
1.5
172
     1
173
     1
176
   256
177
   256
178
     2
271
     2
272
     3
274
     4
283
     0
284
     8
340
11
343
87
371
    -1
372
    -1
1001
ACAD_DSTYLE_DIMARC_LENGTH_SYMBOL
1070
   379
1070
     1
1001
ACAD_DSTYLE_DIMJOGGED_JOGANGLE_SYMBOL
1070
   384
1040
0.7853981633974483
  0
DIMSTYLE
105
2E9
330
A
100
AcDbSymbolTableRecord
100
AcDbDimStyleTableRecord
  2
AM_DIN
 70
     0
  4
"
 41
2.5
 42
1.0
 43
10.0
 44
1.0
 47
0.1
 48
0.1
 73
     0
 74
     0
 77
     1
 78
     8
 79
     2
140
3.5
141
0.0
143
0.0393701
146
0.71
147
1.5
172
     1
176
   256
177
   256
178
     2
271
     2
272
     3
274
     4
283
     0
284
     8
340
11
371
    -1
372
    -1
1001
ACAD_DSTYLE_DIMARC_LENGTH_SYMBOL
1070
   379
1070
     0
1001
ACAD_DSTYLE_DIMJOGGED_JOGANGLE_SYMBOL
1070
   384
1040
1.570796326794896
  0
DIMSTYLE
105
2EA
330
A
100
AcDbSymbolTableRecord
100
AcDbDimStyleTableRecord
  2
AM_DIN$3
 70
     0
  4
"
 41
2.5
 42
1.0
 43
10.0
 44
1.0
 47
0.1
 48
0.1
 73
     0
 77
     1
 78
     8
 79
     2
140
3.5
141
0.0
143
0.0393701
146
0.71
147
1.5
176
   256
177
   256
178
     2
271
     2
272
     3
274
     4
283
     0
284
     8
288
     1
289
     0
340
11
371
    -1
372
    -1
1001
ACAD_DSTYLE_DIMARC_LENGTH_SYMBOL
1070
   379
1070
     0
1001
ACAD_DSTYLE_DIMJOGGED_JOGANGLE_SYMBOL
1070
   384
1040
1.570796326794896
  0
DIMSTYLE
105
2EB
330
A
100
AcDbSymbolTableRecord
100
AcDbDimStyleTableRecord
  2
AM_DIN$4
 70
     0
  4
"
 41
2.5
 42
1.0
 43
10.0
 44
1.0
 47
0.1
 48
0.1
 73
     0
 77
     1
 78
     8
 79
     2
140
3.5
141
0.0
143
0.0393701
146
0.71
147
1.5
176
   256
177
   256
178
     2
271
     2
272
     3
274
     4
283
     0
284
     8
288
     1
289
     0
340
11
371
    -1
372
    -1
1001
ACAD_DSTYLE_DIMARC_LENGTH_SYMBOL
1070
   379
1070
     0
1001
ACAD_DSTYLE_DIMJOGGED_JOGANGLE_SYMBOL
1070
   384
1040
1.570796326794896
  0
DIMSTYLE
105
2EC
330
A
100
AcDbSymbolTableRecord
100
AcDbDimStyleTableRecord
  2
AM_DIN$6
 70
     0
  4
"
 41
2.5
 42
1.0
 43
10.0
 44
1.0
 47
0.1
 48
0.1
 73
     0
 74
     0
 78
     8
 79
     2
140
3.5
141
0.0
143
0.0393701
146
0.71
147
1.5
172
     1
176
   256
177
   256
178
     2
271
     2
272
     3
274
     4
283
     0
284
     8
340
11
371
    -1
372
    -1
1001
ACAD_DSTYLE_DIMARC_LENGTH_SYMBOL
1070
   379
1070
     0
1001
ACAD_DSTYLE_DIMJOGGED_JOGANGLE_SYMBOL
1070
   384
1040
1.570796326794896
  0
DIMSTYLE
105
2ED
330
A
100
AcDbSymbolTableRecord
100
AcDbDimStyleTableRecord
  2
AM_DIN$7
 70
     0
  4
"
 41
2.5
 42
1.0
 43
10.0
 44
1.0
 47
0.1
 48
0.1
 73
     0
 74
     0
 77
     1
 78
     8
 79
     2
140
5.0
141
0.0
143
0.0393701
146
0.71
147
1.5
172
     1
176
   256
177
   256
178
     2
271
     2
272
     3
274
     4
283
     0
284
     8
340
11
371
    -1
372
    -1
1001
ACAD_DSTYLE_DIMARC_LENGTH_SYMBOL
1070
   379
1070
     0
1001
ACAD_DSTYLE_DIMJOGGED_JOGANGLE_SYMBOL
1070
   384
1040
1.570796326794896
  0
DIMSTYLE
105
2EE
330
A
100
AcDbSymbolTableRecord
100
AcDbDimStyleTableRecord
  2
AM_DIN$SF
 70
     0
  4
"
 41
2.5
 42
1.0
 43
10.0
 44
1.0
 47
0.1
 48
0.1
 73
     0
 74
     0
 75
     1
 76
     1
 77
     1
 78
     8
 79
     2
140
3.5
141
0.0
143
0.0393701
146
0.71
147
1.5
172
     1
176
   256
177
   256
178
     2
271
     2
272
     3
274
     4
283
     0
284
     8
340
11
371
    -1
372
    -1
1001
ACAD_DSTYLE_DIMARC_LENGTH_SYMBOL
1070
   379
1070
     0
1001
ACAD_DSTYLE_DIMJOGGED_JOGANGLE_SYMBOL
1070
   384
1040
1.570796326794896
  0
DIMSTYLE
105
2EF
330
A
100
AcDbSymbolTableRecord
100
AcDbDimStyleTableRecord
  2
AM_DIN$SH
 70
     0
  4
"
 41
2.5
 42
1.0
 43
10.0
 44
1.0
 47
0.1
 48
0.1
 73
     0
 74
     0
 75
     1
 76
     1
 77
     1
 78
     8
 79
     2
140
3.5
141
0.0
143
0.0393701
144
2.0
146
0.71
147
1.5
172
     1
173
     1
176
   256
177
   256
178
     2
271
     2
272
     3
274
     4
283
     0
284
     8
340
11
343
87
371
    -1
372
    -1
1001
ACAD_DSTYLE_DIMARC_LENGTH_SYMBOL
1070
   379
1070
     0
1001
ACAD_DSTYLE_DIMJOGGED_JOGANGLE_SYMBOL
1070
   384
1040
1.570796326794896
  0
DIMSTYLE
105
4F6
330
A
100
AcDbSymbolTableRecord
100
AcDbDimStyleTableRecord
  2
AM_ANSI
 70
     0
  4
mm
 41
0.1
 42
0.05
 43
0.5
 44
0.1
 47
0.1
 48
0.1
 78
     7
 79
     2
140
0.12
141
0.0
146
0.71
147
0.06
176
   256
177
   256
178
     2
274
     4
284
     7
340
11
371
    -1
372
    -1
1001
ACAD_DSTYLE_DIMARC_LENGTH_SYMBOL
1070
   379
1070
     1
1001
ACAD_DSTYLE_DIMJOGGED_JOGANGLE_SYMBOL
1070
   384
1040
0.7853981633974483
  0
DIMSTYLE
105
4F7
330
A
100
AcDbSymbolTableRecord
100
AcDbDimStyleTableRecord
  2
AM_ANSI$3
 70
     0
  4
mm
 41
0.1
 42
0.05
 43
0.5
 44
0.1
 47
0.1
 48
0.1
 78
     7
 79
     2
140
0.12
141
0.0
146
0.71
147
0.06
176
   256
177
   256
178
     2
274
     4
284
     7
288
     1
289
     0
340
11
371
    -1
372
    -1
1001
ACAD_DSTYLE_DIMARC_LENGTH_SYMBOL
1070
   379
1070
     1
1001
ACAD_DSTYLE_DIMJOGGED_JOGANGLE_SYMBOL
1070
   384
1040
0.7853981633974483
  0
DIMSTYLE
105
4F8
330
A
100
AcDbSymbolTableRecord
100
AcDbDimStyleTableRecord
  2
AM_ANSI$4
 70
     0
  4
mm
 41
0.1
 42
0.05
 43
0.5
 44
0.1
 47
0.1
 48
0.1
 78
     7
 79
     2
140
0.12
141
0.0
146
0.71
147
0.06
176
   256
177
   256
178
     2
274
     4
284
     7
288
     1
289
     0
340
11
371
    -1
372
    -1
1001
ACAD_DSTYLE_DIMARC_LENGTH_SYMBOL
1070
   379
1070
     1
1001
ACAD_DSTYLE_DIMJOGGED_JOGANGLE_SYMBOL
1070
   384
1040
0.7853981633974483
  0
DIMSTYLE
105
4F9
330
A
100
AcDbSymbolTableRecord
100
AcDbDimStyleTableRecord
  2
AM_ANSI$7
 70
     0
  4
mm
 41
0.1
 42
0.05
 43
0.5
 44
0.1
 47
0.1
 48
0.1
 78
     7
 79
     2
140
0.24
141
0.0
146
0.71
147
0.06
176
   256
177
   256
178
     2
274
     4
284
     7
340
11
371
    -1
372
    -1
1001
ACAD_DSTYLE_DIMARC_LENGTH_SYMBOL
1070
   379
1070
     1
1001
ACAD_DSTYLE_DIMJOGGED_JOGANGLE_SYMBOL
1070
   384
1040
0.7853981633974483
  0
DIMSTYLE
105
4FA
330
A
100
AcDbSymbolTableRecord
100
AcDbDimStyleTableRecord
  2
AM_ANSI$SF
 70
     0
  4
mm
 41
0.1
 42
0.05
 43
0.5
 44
0.1
 47
0.1
 48
0.1
 75
     1
 76
     1
 78
     7
 79
     2
140
0.12
141
0.0
146
0.71
147
0.06
176
   256
177
   256
178
     2
274
     4
284
     7
340
11
371
    -1
372
    -1
1001
ACAD_DSTYLE_DIMARC_LENGTH_SYMBOL
1070
   379
1070
     1
1001
ACAD_DSTYLE_DIMJOGGED_JOGANGLE_SYMBOL
1070
   384
1040
0.7853981633974483
  0
DIMSTYLE
105
4FB
330
A
100
AcDbSymbolTableRecord
100
AcDbDimStyleTableRecord
  2
AM_ANSI$SH
 70
     0
  4
mm
 41
0.1
 42
0.05
 43
0.5
 44
0.1
 47
0.1
 48
0.1
 75
     1
 76
     1
 78
     7
 79
     2
140
0.12
141
0.0
146
0.71
147
0.06
173
     1
176
   256
177
   256
178
     2
274
     4
284
     7
340
11
343
87
371
    -1
372
    -1
1001
ACAD_DSTYLE_DIMARC_LENGTH_SYMBOL
1070
   379
1070
     1
1001
ACAD_DSTYLE_DIMJOGGED_JOGANGLE_SYMBOL
1070
   384
1040
0.7853981633974483
  0
DIMSTYLE
105
5C0
102
{ACAD_REACTORS
330
5EF
330
5C4
330
6DB
330
719
330
625
330
8F7
330
8A4
330
6B1
102
}
330
A
100
AcDbSymbolTableRecord
100
AcDbDimStyleTableRecord
  2
AM_ISO$0
 70
     0
  4
"
 41
2.5
 42
1.0
 43
10.0
 44
1.0
 47
0.1
 48
0.1
 73
     0
 74
     0
 77
     1
 78
     8
 79
     2
140
3.5
141
0.0
143
0.0393701
146
0.71
147
1.5
172
     1
176
   256
177
   256
178
     2
271
     2
272
     3
274
     4
283
     0
284
     8
340
11
371
    -1
372
    -1
1001
ACAD_DSTYLE_DIMARC_LENGTH_SYMBOL
1070
   379
1070
     1
1001
ACAD_DSTYLE_DIMJOGGED_JOGANGLE_SYMBOL
1070
   384
1040
0.7853981633974483
  0
ENDTAB
  0
TABLE
  2
BLOCK_RECORD
  5
1
330
0
100
AcDbSymbolTable
 70
    13
  0
BLOCK_RECORD
  5
1F
102
{ACAD_XDICTIONARY
360
8F
102
}
330
1
100
AcDbSymbolTableRecord
100
AcDbBlockTableRecord
  2
*Model_Space
340
22
  0
BLOCK_RECORD
  5
1B
330
1
100
AcDbSymbolTableRecord
100
AcDbBlockTableRecord
  2
*Paper_Space
340
1E
  0
BLOCK_RECORD
  5
23
330
1
100
AcDbSymbolTableRecord
100
AcDbBlockTableRecord
  2
*Paper_Space0
340
26
  0
BLOCK_RECORD
  5
87
330
1
100
AcDbSymbolTableRecord
100
AcDbBlockTableRecord
  2
GENAXEH
340
0
  0
BLOCK_RECORD
  5
5C6
330
1
100
AcDbSymbolTableRecord
100
AcDbBlockTableRecord
  2
*D4
340
0
  0
BLOCK_RECORD
  5
5F0
330
1
100
AcDbSymbolTableRecord
100
AcDbBlockTableRecord
  2
*D5
340
0
  0
BLOCK_RECORD
  5
626
330
1
100
AcDbSymbolTableRecord
100
AcDbBlockTableRecord
  2
*D6
340
0
  0
BLOCK_RECORD
  5
6B2
330
1
100
AcDbSymbolTableRecord
100
AcDbBlockTableRecord
  2
*D8
340
0
  0
BLOCK_RECORD
  5
6DC
330
1
100
AcDbSymbolTableRecord
100
AcDbBlockTableRecord
  2
*D9
340
0
  0
BLOCK_RECORD
  5
71A
330
1
100
AcDbSymbolTableRecord
100
AcDbBlockTableRecord
  2
*D10
340
0
  0
BLOCK_RECORD
  5
8A5
330
1
100
AcDbSymbolTableRecord
100
AcDbBlockTableRecord
  2
*D11
340
0
  0
BLOCK_RECORD
  5
8F8
330
1
100
AcDbSymbolTableRecord
100
AcDbBlockTableRecord
  2
*D12
340
0
  0
ENDTAB
  0
ENDSEC
  0
SECTION
  2
BLOCKS
  0
BLOCK
  5
20
330
1F
100
AcDbEntity
  8
0
100
AcDbBlockBegin
  2
*Model_Space
 70
     0
 10
0.0
 20
0.0
 30
0.0
  3
*Model_Space
  1

  0
ENDBLK
  5
21
330
1F
100
AcDbEntity
  8
0
100
AcDbBlockEnd
  0
BLOCK
  5
1C
330
1B
100
AcDbEntity
 67
     1
  8
0
100
AcDbBlockBegin
  2
*Paper_Space
 70
     0
 10
0.0
 20
0.0
 30
0.0
  3
*Paper_Space
  1

  0
ENDBLK
  5
1D
330
1B
100
AcDbEntity
 67
     1
  8
0
100
AcDbBlockEnd
  0
BLOCK
  5
24
330
23
100
AcDbEntity
 67
     1
  8
0
100
AcDbBlockBegin
  2
*Paper_Space0
 70
     0
 10
0.0
 20
0.0
 30
0.0
  3
*Paper_Space0
  1

  0
ENDBLK
  5
25
330
23
100
AcDbEntity
 67
     1
  8
0
100
AcDbBlockEnd
  0
BLOCK
  5
89
330
87
100
AcDbEntity
  8
0
100
AcDbBlockBegin
  2
GENAXEH
 70
     0
 10
0.0
 20
0.0
 30
0.0
  3
GENAXEH
  1

  0
LINE
  5
88
330
87
100
AcDbEntity
  8
0
100
AcDbLine
 10
-1.0
 20
0.0
 30
0.0
 11
1.0
 21
0.0
 31
0.0
  0
ENDBLK
  5
8A
330
87
100
AcDbEntity
  8
0
100
AcDbBlockEnd
  0
BLOCK
  5
5D0
330
5C6
100
AcDbEntity
  8
0
100
AcDbBlockBegin
  2
*D4
 70
     1
 10
0.0
 20
0.0
 30
0.0
  3
*D4
  1

  0
LINE
  5
945
330
5C6
100
AcDbEntity
  8
AM_5
100
AcDbLine
 10
2097.84928370214
 20
2376.91706450294
 30
0.0
 11
2143.349283702141
 21
2376.91706450294
 31
0.0
  0
LINE
  5
946
330
5C6
100
AcDbEntity
  8
AM_5
100
AcDbLine
 10
2131.349283702141
 20
2341.91706450294
 30
0.0
 11
2143.349283702141
 21
2341.91706450294
 31
0.0
  0
LINE
  5
947
330
5C6
100
AcDbEntity
  8
AM_5
100
AcDbLine
 10
2142.34928370214
 20
2366.91706450294
 30
0.0
 11
2142.34928370214
 21
2351.91706450294
 31
0.0
  0
SOLID
  5
948
330
5C6
100
AcDbEntity
  8
AM_5
100
AcDbTrace
 10
2140.682617035474
 20
2366.91706450294
 30
0.0
 11
2144.015950368807
 21
2366.91706450294
 31
0.0
 12
2142.34928370214
 22
2376.91706450294
 32
0.0
 13
2142.34928370214
 23
2376.91706450294
 33
0.0
  0
SOLID
  5
949
330
5C6
100
AcDbEntity
  8
AM_5
100
AcDbTrace
 10
2140.682617035474
 20
2351.91706450294
 30
0.0
 11
2144.015950368807
 21
2351.91706450294
 31
0.0
 12
2142.34928370214
 22
2341.91706450294
 32
0.0
 13
2142.34928370214
 23
2341.91706450294
 33
0.0
  0
MTEXT
  5
94A
330
5C6
100
AcDbEntity
  8
AM_5
 62
     2
100
AcDbMText
 10
2133.34928370214
 20
2359.41706450294
 30
0.0
 40
15.0
 41
0.0
 71
     5
 72
     1
  1
35
 11
0.0000000000000001
 21
1.0
 31
0.0
 73
     1
 44
1.0
1001
ACAD
1000
MTEXTBEGIN
1070
    73
1070
     1
1070
    44
1040
1.0
1070
    74
1070
     0
1000
MTEXTEND
  0
POINT
  5
94B
330
5C6
100
AcDbEntity
  8
Defpoints
 62
     0
100
AcDbPoint
 10
2096.849283702141
 20
2376.91706450294
 30
0.0
  0
POINT
  5
94C
330
5C6
100
AcDbEntity
  8
Defpoints
 62
     0
100
AcDbPoint
 10
2130.349283702141
 20
2341.91706450294
 30
0.0
  0
POINT
  5
94D
330
5C6
100
AcDbEntity
  8
Defpoints
 62
     0
100
AcDbPoint
 10
2142.34928370214
 20
2341.91706450294
 30
0.0
  0
ENDBLK
  5
5D1
330
5C6
100
AcDbEntity
  8
0
100
AcDbBlockEnd
  0
BLOCK
  5
5FA
330
5F0
100
AcDbEntity
  8
0
100
AcDbBlockBegin
  2
*D5
 70
     1
 10
0.0
 20
0.0
 30
0.0
  3
*D5
  1

  0
LINE
  5
93C
330
5F0
100
AcDbEntity
  8
AM_5
100
AcDbLine
 10
2097.84928370214
 20
2376.91706450294
 30
0.0
 11
2166.177293830231
 21
2376.91706450294
 31
0.0
  0
LINE
  5
93D
330
5F0
100
AcDbEntity
  8
AM_5
100
AcDbLine
 10
2027.84928370214
 20
2176.91706450294
 30
0.0
 11
2166.177293830231
 21
2176.91706450294
 31
0.0
  0
LINE
  5
93E
330
5F0
100
AcDbEntity
  8
AM_5
100
AcDbLine
 10
2165.177293830231
 20
2366.91706450294
 30
0.0
 11
2165.177293830231
 21
2186.91706450294
 31
0.0
  0
SOLID
  5
93F
330
5F0
100
AcDbEntity
  8
AM_5
100
AcDbTrace
 10
2163.510627163565
 20
2366.91706450294
 30
0.0
 11
2166.843960496898
 21
2366.91706450294
 31
0.0
 12
2165.177293830231
 22
2376.91706450294
 32
0.0
 13
2165.177293830231
 23
2376.91706450294
 33
0.0
  0
SOLID
  5
940
330
5F0
100
AcDbEntity
  8
AM_5
100
AcDbTrace
 10
2163.510627163565
 20
2186.91706450294
 30
0.0
 11
2166.843960496898
 21
2186.91706450294
 31
0.0
 12
2165.177293830231
 22
2176.91706450294
 32
0.0
 13
2165.177293830231
 23
2176.91706450294
 33
0.0
  0
MTEXT
  5
941
330
5F0
100
AcDbEntity
  8
AM_5
 62
     2
100
AcDbMText
 10
2156.175817452278
 20
2276.91706450294
 30
0.0
 40
15.0
 41
0.0
 71
     5
 72
     1
  1
200
 11
0.0000000000000001
 21
1.0
 31
0.0
 73
     1
 44
1.0
1001
ACAD
1000
MTEXTBEGIN
1070
    73
1070
     1
1070
    44
1040
1.0
1070
    74
1070
     0
1000
MTEXTEND
  0
POINT
  5
942
330
5F0
100
AcDbEntity
  8
Defpoints
 62
     0
100
AcDbPoint
 10
2096.849283702141
 20
2376.91706450294
 30
0.0
  0
POINT
  5
943
330
5F0
100
AcDbEntity
  8
Defpoints
 62
     0
100
AcDbPoint
 10
2026.849283702141
 20
2176.91706450294
 30
0.0
  0
POINT
  5
944
330
5F0
100
AcDbEntity
  8
Defpoints
 62
     0
100
AcDbPoint
 10
2165.177293830231
 20
2176.91706450294
 30
0.0
  0
ENDBLK
  5
5FB
330
5F0
100
AcDbEntity
  8
0
100
AcDbBlockEnd
  0
BLOCK
  5
630
330
626
100
AcDbEntity
  8
0
100
AcDbBlockBegin
  2
*D6
 70
     1
 10
0.0
 20
0.0
 30
0.0
  3
*D6
  1

  0
LINE
  5
962
330
626
100
AcDbEntity
  8
AM_5
100
AcDbLine
 10
1915.163837734306
 20
2286.91706450294
 30
0.0
 11
1903.163837734306
 21
2286.91706450294
 31
0.0
  0
LINE
  5
963
330
626
100
AcDbEntity
  8
AM_5
100
AcDbLine
 10
1917.84928370214
 20
2176.91706450294
 30
0.0
 11
1903.163837734306
 21
2176.91706450294
 31
0.0
  0
LINE
  5
964
330
626
100
AcDbEntity
  8
AM_5
100
AcDbLine
 10
1904.163837734306
 20
2276.91706450294
 30
0.0
 11
1904.163837734306
 21
2186.91706450294
 31
0.0
  0
SOLID
  5
965
330
626
100
AcDbEntity
  8
AM_5
100
AcDbTrace
 10
1902.49717106764
 20
2276.91706450294
 30
0.0
 11
1905.830504400973
 21
2276.91706450294
 31
0.0
 12
1904.163837734306
 22
2286.91706450294
 32
0.0
 13
1904.163837734306
 23
2286.91706450294
 33
0.0
  0
SOLID
  5
966
330
626
100
AcDbEntity
  8
AM_5
100
AcDbTrace
 10
1902.49717106764
 20
2186.91706450294
 30
0.0
 11
1905.830504400973
 21
2186.91706450294
 31
0.0
 12
1904.163837734306
 22
2176.91706450294
 32
0.0
 13
1904.163837734306
 23
2176.91706450294
 33
0.0
  0
MTEXT
  5
967
330
626
100
AcDbEntity
  8
AM_5
 62
     2
100
AcDbMText
 10
1895.163837734306
 20
2231.91706450294
 30
0.0
 40
15.0
 41
0.0
 71
     5
 72
     1
  1
110
 11
0.0000000000000001
 21
1.0
 31
0.0
 73
     1
 44
1.0
1001
ACAD
1000
MTEXTBEGIN
1070
    73
1070
     1
1070
    44
1040
1.0
1070
    74
1070
     0
1000
MTEXTEND
  0
POINT
  5
968
330
626
100
AcDbEntity
  8
Defpoints
 62
     0
100
AcDbPoint
 10
1916.163837734306
 20
2286.91706450294
 30
0.0
  0
POINT
  5
969
330
626
100
AcDbEntity
  8
Defpoints
 62
     0
100
AcDbPoint
 10
1918.84928370214
 20
2176.91706450294
 30
0.0
  0
POINT
  5
96A
330
626
100
AcDbEntity
  8
Defpoints
 62
     0
100
AcDbPoint
 10
1904.163837734306
 20
2176.91706450294
 30
0.0
  0
ENDBLK
  5
631
330
626
100
AcDbEntity
  8
0
100
AcDbBlockEnd
  0
BLOCK
  5
6BC
330
6B2
100
AcDbEntity
  8
0
100
AcDbBlockBegin
  2
*D8
 70
     1
 10
0.0
 20
0.0
 30
0.0
  3
*D8
  1

  0
LINE
  5
99A
330
6B2
100
AcDbEntity
  8
AM_5
100
AcDbLine
 10
1857.849283702145
 20
2377.917064502938
 30
0.0
 11
1857.849283702145
 21
2412.896118827614
 31
0.0
  0
LINE
  5
99B
330
6B2
100
AcDbEntity
  8
AM_5
100
AcDbLine
 10
2087.849283702134
 20
2377.917064502938
 30
0.0
 11
2087.849283702134
 21
2412.896118827614
 31
0.0
  0
LINE
  5
99C
330
6B2
100
AcDbEntity
  8
AM_5
100
AcDbLine
 10
1867.849283702145
 20
2411.896118827614
 30
0.0
 11
2077.849283702135
 21
2411.896118827614
 31
0.0
  0
SOLID
  5
99D
330
6B2
100
AcDbEntity
  8
AM_5
100
AcDbTrace
 10
1867.849283702145
 20
2413.56278549428
 30
0.0
 11
1867.849283702145
 21
2410.229452160947
 31
0.0
 12
1857.849283702145
 22
2411.896118827614
 32
0.0
 13
1857.849283702145
 23
2411.896118827614
 33
0.0
  0
SOLID
  5
99E
330
6B2
100
AcDbEntity
  8
AM_5
100
AcDbTrace
 10
2077.849283702135
 20
2413.56278549428
 30
0.0
 11
2077.849283702135
 21
2410.229452160947
 31
0.0
 12
2087.849283702134
 22
2411.896118827614
 32
0.0
 13
2087.849283702134
 23
2411.896118827614
 33
0.0
  0
MTEXT
  5
99F
330
6B2
100
AcDbEntity
  8
AM_5
 62
     2
100
AcDbMText
 10
1972.84928370214
 20
2420.897595205567
 30
0.0
 40
15.0
 41
0.0
 71
     5
 72
     1
  1
%%c230
 73
     1
 44
1.0
1001
ACAD
1000
MTEXTBEGIN
1070
    73
1070
     1
1070
    44
1040
1.0
1070
    74
1070
     0
1000
MTEXTEND
  0
POINT
  5
9A0
330
6B2
100
AcDbEntity
  8
Defpoints
 62
     0
100
AcDbPoint
 10
1857.849283702145
 20
2376.917064502938
 30
0.0
  0
POINT
  5
9A1
330
6B2
100
AcDbEntity
  8
Defpoints
 62
     0
100
AcDbPoint
 10
2087.849283702134
 20
2376.917064502938
 30
0.0
  0
POINT
  5
9A2
330
6B2
100
AcDbEntity
  8
Defpoints
 62
     0
100
AcDbPoint
 10
2087.849283702134
 20
2411.896118827614
 30
0.0
  0
ENDBLK
  5
6BD
330
6B2
100
AcDbEntity
  8
0
100
AcDbBlockEnd
  0
BLOCK
  5
6E6
330
6DC
100
AcDbEntity
  8
0
100
AcDbBlockBegin
  2
*D9
 70
     1
 10
0.0
 20
0.0
 30
0.0
  3
*D9
  1

  0
LINE
  5
94E
330
6DC
100
AcDbEntity
  8
AM_5
100
AcDbLine
 10
1971.84928370214
 20
2051.079272485733
 30
0.0
 11
1786.179303331193
 21
2051.079272485733
 31
0.0
  0
LINE
  5
94F
330
6DC
100
AcDbEntity
  8
AM_5
100
AcDbLine
 10
1971.84928370214
 20
1736.079272485733
 30
0.0
 11
1786.179303331193
 21
1736.079272485733
 31
0.0
  0
LINE
  5
950
330
6DC
100
AcDbEntity
  8
AM_5
100
AcDbLine
 10
1787.179303331193
 20
2041.079272485733
 30
0.0
 11
1787.179303331193
 21
1746.079272485733
 31
0.0
  0
SOLID
  5
951
330
6DC
100
AcDbEntity
  8
AM_5
100
AcDbTrace
 10
1785.512636664526
 20
2041.079272485733
 30
0.0
 11
1788.84596999786
 21
2041.079272485733
 31
0.0
 12
1787.179303331193
 22
2051.079272485733
 32
0.0
 13
1787.179303331193
 23
2051.079272485733
 33
0.0
  0
SOLID
  5
952
330
6DC
100
AcDbEntity
  8
AM_5
100
AcDbTrace
 10
1785.512636664526
 20
1746.079272485733
 30
0.0
 11
1788.84596999786
 21
1746.079272485733
 31
0.0
 12
1787.179303331193
 22
1736.079272485733
 32
0.0
 13
1787.179303331193
 23
1736.079272485733
 33
0.0
  0
MTEXT
  5
953
330
6DC
100
AcDbEntity
  8
AM_5
 62
     2
100
AcDbMText
 10
1778.179303331193
 20
1893.579272485733
 30
0.0
 40
15.0
 41
0.0
 71
     5
 72
     1
  1
315
 11
0.0000000000000001
 21
1.0
 31
0.0
 73
     1
 44
1.0
1001
ACAD
1000
MTEXTBEGIN
1070
    73
1070
     1
1070
    44
1040
1.0
1070
    74
1070
     0
1000
MTEXTEND
  0
POINT
  5
954
330
6DC
100
AcDbEntity
  8
Defpoints
 62
     0
100
AcDbPoint
 10
1972.84928370214
 20
2051.079272485733
 30
0.0
  0
POINT
  5
955
330
6DC
100
AcDbEntity
  8
Defpoints
 62
     0
100
AcDbPoint
 10
1972.84928370214
 20
1736.079272485733
 30
0.0
  0
POINT
  5
956
330
6DC
100
AcDbEntity
  8
Defpoints
 62
     0
100
AcDbPoint
 10
1787.179303331193
 20
1736.079272485733
 30
0.0
  0
ENDBLK
  5
6E7
330
6DC
100
AcDbEntity
  8
0
100
AcDbBlockEnd
  0
BLOCK
  5
724
330
71A
100
AcDbEntity
  8
0
100
AcDbBlockBegin
  2
*D10
 70
     1
 10
0.0
 20
0.0
 30
0.0
  3
*D10
  1

  0
LINE
  5
957
330
71A
100
AcDbEntity
  8
AM_5
100
AcDbLine
 10
2032.09928370214
 20
1820.361286498861
 30
0.0
 11
2032.09928370214
 21
1699.534209888366
 31
0.0
  0
LINE
  5
958
330
71A
100
AcDbEntity
  8
AM_5
100
AcDbLine
 10
2046.09928370214
 20
1828.552422649122
 30
0.0
 11
2046.09928370214
 21
1699.534209888366
 31
0.0
  0
LINE
  5
959
330
71A
100
AcDbEntity
  8
AM_5
100
AcDbLine
 10
2022.09928370214
 20
1700.534209888365
 30
0.0
 11
2012.09928370214
 21
1700.534209888365
 31
0.0
  0
LINE
  5
95A
330
71A
100
AcDbEntity
  8
AM_5
100
AcDbLine
 10
2056.099283702141
 20
1700.534209888365
 30
0.0
 11
2084.099283702141
 21
1700.534209888365
 31
0.0
  0
LINE
  5
95B
330
71A
100
AcDbEntity
  8
AM_5
100
AcDbLine
 10
2032.09928370214
 20
1700.534209888365
 30
0.0
 11
2046.09928370214
 21
1700.534209888365
 31
0.0
  0
SOLID
  5
95C
330
71A
100
AcDbEntity
  8
AM_5
100
AcDbTrace
 10
2022.09928370214
 20
1702.200876555032
 30
0.0
 11
2022.09928370214
 21
1698.867543221699
 31
0.0
 12
2032.09928370214
 22
1700.534209888365
 32
0.0
 13
2032.09928370214
 23
1700.534209888365
 33
0.0
  0
SOLID
  5
95D
330
71A
100
AcDbEntity
  8
AM_5
100
AcDbTrace
 10
2056.099283702141
 20
1702.200876555032
 30
0.0
 11
2056.099283702141
 21
1698.867543221699
 31
0.0
 12
2046.09928370214
 22
1700.534209888365
 32
0.0
 13
2046.09928370214
 23
1700.534209888365
 33
0.0
  0
MTEXT
  5
95E
330
71A
100
AcDbEntity
  8
AM_5
 62
     2
100
AcDbMText
 10
2075.09928370214
 20
1709.534209888366
 30
0.0
 40
15.0
 41
0.0
 71
     5
 72
     1
  1
14
 73
     1
 44
1.0
1001
ACAD
1000
MTEXTBEGIN
1070
    73
1070
     1
1070
    44
1040
1.0
1070
    74
1070
     0
1000
MTEXTEND
  0
POINT
  5
95F
330
71A
100
AcDbEntity
  8
Defpoints
 62
     0
100
AcDbPoint
 10
2032.09928370214
 20
1821.361286498861
 30
0.0
  0
POINT
  5
960
330
71A
100
AcDbEntity
  8
Defpoints
 62
     0
100
AcDbPoint
 10
2046.09928370214
 20
1829.552422649122
 30
0.0
  0
POINT
  5
961
330
71A
100
AcDbEntity
  8
Defpoints
 62
     0
100
AcDbPoint
 10
2046.09928370214
 20
1700.534209888365
 30
0.0
  0
ENDBLK
  5
725
330
71A
100
AcDbEntity
  8
0
100
AcDbBlockEnd
  0
BLOCK
  5
8AF
330
8A5
100
AcDbEntity
  8
0
100
AcDbBlockBegin
  2
*D11
 70
     1
 10
0.0
 20
0.0
 30
0.0
  3
*D11
  1

  0
LINE
  5
991
330
8A5
100
AcDbEntity
  8
AM_5
100
AcDbLine
 10
1848.84928370214
 20
2377.91706450294
 30
0.0
 11
1848.84928370214
 21
2438.298024269283
 31
0.0
  0
LINE
  5
992
330
8A5
100
AcDbEntity
  8
AM_5
100
AcDbLine
 10
2096.849283702141
 20
2377.91706450294
 30
0.0
 11
2096.849283702141
 21
2438.298024269283
 31
0.0
  0
LINE
  5
993
330
8A5
100
AcDbEntity
  8
AM_5
100
AcDbLine
 10
1858.84928370214
 20
2437.298024269283
 30
0.0
 11
2086.84928370214
 21
2437.298024269283
 31
0.0
  0
SOLID
  5
994
330
8A5
100
AcDbEntity
  8
AM_5
100
AcDbTrace
 10
1858.84928370214
 20
2438.96469093595
 30
0.0
 11
1858.84928370214
 21
2435.631357602617
 31
0.0
 12
1848.84928370214
 22
2437.298024269283
 32
0.0
 13
1848.84928370214
 23
2437.298024269283
 33
0.0
  0
SOLID
  5
995
330
8A5
100
AcDbEntity
  8
AM_5
100
AcDbTrace
 10
2086.84928370214
 20
2438.96469093595
 30
0.0
 11
2086.84928370214
 21
2435.631357602617
 31
0.0
 12
2096.849283702141
 22
2437.298024269283
 32
0.0
 13
2096.849283702141
 23
2437.298024269283
 33
0.0
  0
MTEXT
  5
996
330
8A5
100
AcDbEntity
  8
AM_5
 62
     2
100
AcDbMText
 10
1972.84928370214
 20
2446.299500647236
 30
0.0
 40
15.0
 41
0.0
 71
     5
 72
     1
  1
%%c248
 73
     1
 44
1.0
1001
ACAD
1000
MTEXTBEGIN
1070
    73
1070
     1
1070
    44
1040
1.0
1070
    74
1070
     0
1000
MTEXTEND
  0
POINT
  5
997
330
8A5
100
AcDbEntity
  8
Defpoints
 62
     0
100
AcDbPoint
 10
1848.84928370214
 20
2376.91706450294
 30
0.0
  0
POINT
  5
998
330
8A5
100
AcDbEntity
  8
Defpoints
 62
     0
100
AcDbPoint
 10
2096.849283702141
 20
2376.91706450294
 30
0.0
  0
POINT
  5
999
330
8A5
100
AcDbEntity
  8
Defpoints
 62
     0
100
AcDbPoint
 10
2096.849283702141
 20
2437.298024269283
 30
0.0
  0
ENDBLK
  5
8B0
330
8A5
100
AcDbEntity
  8
0
100
AcDbBlockEnd
  0
BLOCK
  5
902
330
8F8
100
AcDbEntity
  8
0
100
AcDbBlockBegin
  2
*D12
 70
     1
 10
0.0
 20
0.0
 30
0.0
  3
*D12
  1

  0
LINE
  5
9A3
330
8F8
100
AcDbEntity
  8
AM_5
100
AcDbLine
 10
1847.84928370214
 20
2376.91706450294
 30
0.0
 11
1744.898397181337
 21
2376.91706450294
 31
0.0
  0
LINE
  5
9A4
330
8F8
100
AcDbEntity
  8
AM_5
100
AcDbLine
 10
1856.34928370214
 20
2351.91706450294
 30
0.0
 11
1744.898397181337
 21
2351.91706450294
 31
0.0
  0
LINE
  5
9A5
330
8F8
100
AcDbEntity
  8
AM_5
100
AcDbLine
 10
1745.898397181337
 20
2366.91706450294
 30
0.0
 11
1745.898397181337
 21
2361.91706450294
 31
0.0
  0
SOLID
  5
9A6
330
8F8
100
AcDbEntity
  8
AM_5
100
AcDbTrace
 10
1744.231730514671
 20
2366.91706450294
 30
0.0
 11
1747.565063848004
 21
2366.91706450294
 31
0.0
 12
1745.898397181337
 22
2376.91706450294
 32
0.0
 13
1745.898397181337
 23
2376.91706450294
 33
0.0
  0
SOLID
  5
9A7
330
8F8
100
AcDbEntity
  8
AM_5
100
AcDbTrace
 10
1744.231730514671
 20
2361.91706450294
 30
0.0
 11
1747.565063848004
 21
2361.91706450294
 31
0.0
 12
1745.898397181337
 22
2351.91706450294
 32
0.0
 13
1745.898397181337
 23
2351.91706450294
 33
0.0
  0
MTEXT
  5
9A8
330
8F8
100
AcDbEntity
  8
AM_5
 62
     2
100
AcDbMText
 10
1736.896920803384
 20
2364.417064502941
 30
0.0
 40
15.0
 41
0.0
 71
     5
 72
     1
  1
25
 11
0.0000000000000001
 21
1.0
 31
0.0
 73
     1
 44
1.0
1001
ACAD
1000
MTEXTBEGIN
1070
    73
1070
     1
1070
    44
1040
1.0
1070
    74
1070
     0
1000
MTEXTEND
  0
POINT
  5
9A9
330
8F8
100
AcDbEntity
  8
Defpoints
 62
     0
100
AcDbPoint
 10
1848.84928370214
 20
2376.91706450294
 30
0.0
  0
POINT
  5
9AA
330
8F8
100
AcDbEntity
  8
Defpoints
 62
     0
100
AcDbPoint
 10
1857.34928370214
 20
2351.91706450294
 30
0.0
  0
POINT
  5
9AB
330
8F8
100
AcDbEntity
  8
Defpoints
 62
     0
100
AcDbPoint
 10
1745.898397181337
 20
2351.91706450294
 30
0.0
  0
ENDBLK
  5
903
330
8F8
100
AcDbEntity
  8
0
100
AcDbBlockEnd
  0
ENDSEC
  0
SECTION
  2
ENTITIES
  0
LINE
  5
415
330
1F
100
AcDbEntity
  8
0
100
AcDbLine
 10
1918.857506493613
 20
2236.603048765482
 30
0.0
 11
1916.276180272905
 21
2285.857687218419
 31
0.0
  0
LINE
  5
416
330
1F
100
AcDbEntity
  8
0
100
AcDbLine
 10
1924.84928370214
 20
2236.91706450294
 30
0.0
 11
1922.267957481433
 21
2286.171702955877
 31
0.0
  0
LINE
  5
417
330
1F
100
AcDbEntity
  8
0
100
AcDbLine
 10
1918.84928370214
 20
2176.91706450294
 30
0.0
 11
2026.849283702141
 21
2176.91706450294
 31
0.0
  0
LINE
  5
418
330
1F
100
AcDbEntity
  8
0
100
AcDbLine
 10
1848.84928370214
 20
2376.91706450294
 30
0.0
 11
2096.849283702141
 21
2376.91706450294
 31
0.0
  0
LINE
  5
419
330
1F
100
AcDbEntity
  8
0
100
AcDbLine
 10
1878.192702836172
 20
2327.573645368908
 30
0.0
 11
1913.360952737225
 21
2292.405395467855
 31
0.0
  0
LINE
  5
41A
330
1F
100
AcDbEntity
  8
0
100
AcDbLine
 10
1874.707148078409
 20
2339.54448150091
 30
0.0
 11
1918.162992201125
 21
2296.088637378193
 31
0.0
  0
ARC
  5
41B
330
1F
100
AcDbEntity
  8
0
100
AcDbCircle
 10
1888.84928370214
 20
2353.68661712464
 30
0.0
 40
20.0
100
AcDbArc
 50
185.0760323678972
 51
225.0
  0
LINE
  5
41C
330
1F
100
AcDbEntity
  8
0
100
AcDbLine
 10
1857.34928370214
 20
2351.91706450294
 30
0.0
 11
1855.84928370214
 21
2376.91706450294
 31
0.0
  0
LINE
  5
41D
330
1F
100
AcDbEntity
  8
0
100
AcDbLine
 10
1816.049193010347
 20
2333.91706450294
 30
0.0
 11
1828.049193010348
 21
2333.91706450294
 31
0.0
  0
LINE
  5
41E
330
1F
100
AcDbEntity
  8
0
100
AcDbLine
 10
1829.203893548727
 20
2335.91706450294
 30
0.0
 11
1865.445696687324
 21
2333.382790750373
 31
0.0
  0
LINE
  5
41F
330
1F
100
AcDbEntity
  8
0
100
AcDbLine
 10
1815.34928370214
 20
2341.91706450294
 30
0.0
 11
1846.84928370214
 21
2341.91706450294
 31
0.0
  0
LINE
  5
420
102
{ACAD_REACTORS
330
8B2
330
905
102
}
330
1F
100
AcDbEntity
  8
0
100
AcDbLine
 10
1846.84928370214
 20
2341.91706450294
 30
0.0
 11
1848.84928370214
 21
2376.91706450294
 31
0.0
  0
LINE
  5
421
330
1F
100
AcDbEntity
  8
0
100
AcDbLine
 10
1816.049193010347
 20
2333.91706450294
 30
0.0
 11
1815.34928370214
 21
2341.91706450294
 31
0.0
  0
LINE
  5
422
330
1F
100
AcDbEntity
  8
0
100
AcDbLine
 10
1829.203893548727
 20
2335.91706450294
 30
0.0
 11
1828.049193010348
 21
2333.91706450294
 31
0.0
  0
ARC
  5
423
330
1F
100
AcDbEntity
  8
0
100
AcDbCircle
 10
1864.050567212441
 20
2313.431509745177
 30
0.0
 40
20.0
100
AcDbArc
 50
45.0
 51
86.00000000000349
  0
ARC
  5
424
330
1F
100
AcDbEntity
  8
0
100
AcDbCircle
 10
2081.648000191839
 20
2313.431509745177
 30
0.0
 40
20.0
100
AcDbArc
 50
93.9999999999965
 51
135.0
  0
LINE
  5
425
330
1F
100
AcDbEntity
  8
0
100
AcDbLine
 10
2129.649374393933
 20
2333.91706450294
 30
0.0
 11
2130.349283702141
 21
2341.91706450294
 31
0.0
  0
LINE
  5
426
102
{ACAD_REACTORS
330
5D3
330
5FD
330
8B2
102
}
330
1F
100
AcDbEntity
  8
0
100
AcDbLine
 10
2098.84928370214
 20
2341.91706450294
 30
0.0
 11
2096.849283702141
 21
2376.91706450294
 31
0.0
  0
LINE
  5
427
102
{ACAD_REACTORS
330
5D3
102
}
330
1F
100
AcDbEntity
  8
0
100
AcDbLine
 10
2130.349283702141
 20
2341.91706450294
 30
0.0
 11
2098.84928370214
 21
2341.91706450294
 31
0.0
  0
LINE
  5
428
330
1F
100
AcDbEntity
  8
0
100
AcDbLine
 10
2113.981629044672
 20
2335.741335291043
 30
0.0
 11
2080.252870716957
 21
2333.382790750373
 31
0.0
  0
LINE
  5
429
330
1F
100
AcDbEntity
  8
0
100
AcDbLine
 10
2129.649374393933
 20
2333.91706450294
 30
0.0
 11
2117.649374393933
 21
2333.91706450294
 31
0.0
  0
LINE
  5
42A
330
1F
100
AcDbEntity
  8
0
100
AcDbLine
 10
2088.34928370214
 20
2351.91706450294
 30
0.0
 11
2089.84928370214
 21
2376.91706450294
 31
0.0
  0
ARC
  5
42B
330
1F
100
AcDbEntity
  8
0
100
AcDbCircle
 10
2056.849283702141
 20
2353.68661712464
 30
0.0
 40
20.0
100
AcDbArc
 50
315.0
 51
354.9239676321028
  0
LINE
  5
42C
330
1F
100
AcDbEntity
  8
0
100
AcDbLine
 10
2070.991419325871
 20
2339.54448150091
 30
0.0
 11
2028.094973979936
 21
2296.648036154974
 31
0.0
  0
LINE
  5
42D
330
1F
100
AcDbEntity
  8
0
100
AcDbLine
 10
2067.505864568108
 20
2327.573645368908
 30
0.0
 11
2031.778215890275
 21
2291.845996691074
 31
0.0
  0
LINE
  5
42E
102
{ACAD_REACTORS
330
905
102
}
330
1F
100
AcDbEntity
  8
0
100
AcDbLine
 10
1857.34928370214
 20
2351.91706450294
 30
0.0
 11
2088.34928370214
 21
2351.91706450294
 31
0.0
  0
HATCH
  5
42F
330
1F
100
AcDbEntity
  8
8
100
AcDbHatch
 10
0.0
 20
0.0
 30
0.0
210
0.0
220
0.0
230
1.0
  2
ANSI31
 70
     0
 71
     0
 91
        1
 92
        7
 72
     1
 73
     1
 93
       13
 10
1865.445696687324
 20
2333.382790750373
 42
-0.1808294574599015
 10
1878.192702836172
 20
2327.573645368908
 42
0.0
 10
1882.435343523292
 20
2331.816286056027
 42
0.0
 10
1874.707148078409
 20
2339.54448150091
 42
-0.175984932290492
 10
1868.927720422141
 20
2351.91706450294
 42
0.0
 10
1857.34928370214
 20
2351.91706450294
 42
0.0
 10
1855.84928370214
 20
2376.91706450294
 42
0.0
 10
1848.84928370214
 20
2376.91706450294
 42
0.0
 10
1846.84928370214
 20
2341.91706450294
 42
0.0
 10
1815.34928370214
 20
2341.917064502939
 42
0.0
 10
1816.049193010347
 20
2333.91706450294
 42
0.0
 10
1828.049193010348
 20
2333.91706450294
 42
0.0
 10
1829.203893548727
 20
2335.91706450294
 42
0.0
 97
        0
 75
     0
 76
     1
 52
0.0
 41
2.0
 77
     0
 78
     1
 53
45.0
 43
1176.84928370214
 44
1647.91706450294
 45
-4.490128060534575
 46
4.490128060534576
 79
     0
 47
0.2681609010035454
 98
        1
 10
1852.34928370214
 20
2339.91706450294
  0
LINE
  5
430
102
{ACAD_REACTORS
330
633
102
}
330
1F
100
AcDbEntity
  8
0
100
AcDbLine
 10
1918.84928370214
 20
2176.91706450294
 30
0.0
 11
1918.84928370214
 21
2236.91706450294
 31
0.0
  0
LINE
  5
431
330
1F
100
AcDbEntity
  8
0
100
AcDbLine
 10
1924.84928370214
 20
2176.91706450294
 30
0.0
 11
1924.84928370214
 21
2236.91706450294
 31
0.0
  0
ARC
  5
432
102
{ACAD_REACTORS
330
633
102
}
330
1F
100
AcDbEntity
  8
0
100
AcDbCircle
 10
1906.289884925359
 20
2285.33432765599
 30
0.0
 40
10.0
100
AcDbArc
 50
3.000000000005424
 51
45.0
  0
ARC
  5
433
330
1F
100
AcDbEntity
  8
0
100
AcDbCircle
 10
1906.289884925359
 20
2285.33432765599
 30
0.0
 40
16.0
100
AcDbArc
 50
3.000000000005424
 51
45.0
  0
HATCH
  5
434
330
1F
100
AcDbEntity
  8
8
100
AcDbHatch
 10
0.0
 20
0.0
 30
0.0
210
0.0
220
0.0
230
1.0
  2
ANSI31
 70
     0
 71
     0
 91
        1
 92
        7
 72
     1
 73
     1
 93
        8
 10
1913.360952737225
 20
2292.405395467855
 42
-0.1853390449315345
 10
1916.276180272905
 20
2285.857687218419
 42
0.0
 10
1916.332925232963
 20
2284.774928879209
 42
0.0
 10
1922.341159308951
 20
2284.77492887921
 42
0.0
 10
1922.267957481433
 20
2286.171702955877
 42
0.1853390449315355
 10
1917.603593424345
 20
2296.648036154974
 42
0.0
 10
1882.324246067012
 20
2331.927383512306
 42
0.0
 10
1878.192702836172
 20
2327.573645368908
 42
0.0
 97
        0
 75
     0
 76
     1
 52
0.0
 41
2.0
 77
     0
 78
     1
 53
45.0
 43
1176.84928370214
 44
1647.91706450294
 45
-4.490128060534575
 46
4.490128060534576
 79
     0
 47
0.3841385094318986
 98
        1
 10
1911.84928370214
 20
2297.91706450294
  0
HATCH
  5
435
330
1F
100
AcDbEntity
  8
8
100
AcDbHatch
 10
0.0
 20
0.0
 30
0.0
210
0.0
220
0.0
230
1.0
  2
ANSI31
 70
     0
 71
     0
 91
        1
 92
        7
 72
     0
 73
     1
 93
        4
 10
1918.841049626153
 20
2236.91706450294
 10
1924.84928370214
 20
2236.91706450294
 10
1922.341159308951
 20
2284.774928879209
 10
1916.332925232964
 20
2284.774928879209
 97
        0
 75
     0
 76
     1
 52
0.0
 41
2.0
 77
     0
 78
     1
 53
45.0
 43
1176.84928370214
 44
1647.91706450294
 45
-4.490128060534575
 46
4.490128060534576
 79
     0
 47
0.3841385094318986
 98
        1
 10
1919.84928370214
 20
2263.91706450294
  0
HATCH
  5
436
330
1F
100
AcDbEntity
  8
8
100
AcDbHatch
 10
0.0
 20
0.0
 30
0.0
210
0.0
220
0.0
230
1.0
  2
ANSI31
 70
     0
 71
     0
 91
        1
 92
        7
 72
     0
 73
     1
 93
        5
 10
1918.84928370214
 20
2176.91706450294
 10
1924.84928370214
 20
2176.91706450294
 10
1924.84928370214
 20
2236.91706450294
 10
1919.993750459122
 20
2236.91706450294
 10
1918.84928370214
 20
2236.91706450294
 97
        0
 75
     0
 76
     1
 52
0.0
 41
2.0
 77
     0
 78
     1
 53
45.0
 43
1176.84928370214
 44
1647.91706450294
 45
-4.490128060534575
 46
4.490128060534576
 79
     0
 47
0.3841385094318986
 98
        1
 10
1921.84928370214
 20
2216.91706450294
  0
HATCH
  5
437
330
1F
100
AcDbEntity
  8
8
100
AcDbHatch
 10
0.0
 20
0.0
 30
0.0
210
0.0
220
0.0
230
1.0
  2
ANSI31
 70
     0
 71
     0
 91
        1
 92
        7
 72
     0
 73
     1
 93
        5
 10
2026.849283702141
 20
2176.91706450294
 10
2020.849283702141
 20
2176.91706450294
 10
2020.849283702141
 20
2236.91706450294
 10
2025.704816945158
 20
2236.91706450294
 10
2026.84928370214
 20
2236.91706450294
 97
        0
 75
     0
 76
     1
 52
0.0
 41
2.0
 77
     0
 78
     1
 53
45.0
 43
1176.84928370214
 44
1647.91706450294
 45
-4.490128060534575
 46
4.490128060534576
 79
     0
 47
0.3841385094318986
 98
        1
 10
2023.849283702141
 20
2216.91706450294
  0
HATCH
  5
438
330
1F
100
AcDbEntity
  8
8
100
AcDbHatch
 10
0.0
 20
0.0
 30
0.0
210
0.0
220
0.0
230
1.0
  2
ANSI31
 70
     0
 71
     0
 91
        1
 92
        7
 72
     0
 73
     1
 93
        4
 10
2026.857517778128
 20
2236.91706450294
 10
2020.849283702141
 20
2236.91706450294
 10
2023.35740809533
 20
2284.774928879209
 10
2029.365642171317
 20
2284.774928879209
 97
        0
 75
     0
 76
     1
 52
0.0
 41
2.0
 77
     0
 78
     1
 53
45.0
 43
1176.84928370214
 44
1647.91706450294
 45
-4.490128060534575
 46
4.490128060534576
 79
     0
 47
0.3841385094318986
 98
        1
 10
2025.84928370214
 20
2263.91706450294
  0
ARC
  5
439
330
1F
100
AcDbEntity
  8
0
100
AcDbCircle
 10
2039.408682478921
 20
2285.33432765599
 30
0.0
 40
10.0
100
AcDbArc
 50
135.0
 51
176.9999999999946
  0
LINE
  5
43A
330
1F
100
AcDbEntity
  8
0
100
AcDbLine
 10
2020.849283702141
 20
2176.91706450294
 30
0.0
 11
2020.849283702141
 21
2236.91706450294
 31
0.0
  0
LINE
  5
43B
102
{ACAD_REACTORS
330
5FD
102
}
330
1F
100
AcDbEntity
  8
0
100
AcDbLine
 10
2026.849283702141
 20
2176.91706450294
 30
0.0
 11
2026.84928370214
 21
2236.91706450294
 31
0.0
  0
LINE
  5
43C
330
1F
100
AcDbEntity
  8
0
100
AcDbLine
 10
2020.849283702141
 20
2236.91706450294
 30
0.0
 11
2023.430609922848
 21
2286.171702955877
 31
0.0
  0
LINE
  5
43D
330
1F
100
AcDbEntity
  8
0
100
AcDbLine
 10
2026.841060910667
 20
2236.603048765482
 30
0.0
 11
2029.422387131375
 21
2285.857687218419
 31
0.0
  0
ARC
  5
43E
330
1F
100
AcDbEntity
  8
0
100
AcDbCircle
 10
2039.408682478921
 20
2285.33432765599
 30
0.0
 40
16.0
100
AcDbArc
 50
135.0
 51
176.9999999999946
  0
HATCH
  5
43F
330
1F
100
AcDbEntity
  8
8
100
AcDbHatch
 10
0.0
 20
0.0
 30
0.0
210
0.0
220
0.0
230
1.0
  2
ANSI31
 70
     0
 71
     0
 91
        1
 92
        7
 72
     1
 73
     1
 93
       18
 10
2116.494673855553
 20
2335.91706450294
 42
0.0
 10
2117.649374393933
 20
2333.91706450294
 42
0.0
 10
2129.649374393933
 20
2333.91706450294
 42
0.0
 10
2130.34928370214
 20
2341.91706450294
 42
0.0
 10
2098.84928370214
 20
2341.91706450294
 42
0.0
 10
2096.849283702141
 20
2376.91706450294
 42
0.0
 10
2089.84928370214
 20
2376.91706450294
 42
0.0
 10
2088.34928370214
 20
2351.91706450294
 42
0.0
 10
2076.77084698214
 20
2351.91706450294
 42
-0.1759849322904943
 10
2070.991419325871
 20
2339.54448150091
 42
0.0
 10
2028.094973979936
 20
2296.648036154974
 42
0.1853390449315329
 10
2023.430609922848
 20
2286.171702955877
 42
0.0
 10
2023.35740809533
 20
2284.774928879209
 42
0.0
 10
2029.365642171317
 20
2284.774928879209
 42
0.0
 10
2029.422387131375
 20
2285.857687218419
 42
-0.1853390449315345
 10
2032.337614667055
 20
2292.405395467855
 42
0.0
 10
2067.505864568108
 20
2327.573645368908
 42
-0.1808294574599015
 10
2080.252870716957
 20
2333.382790750373
 42
0.0
 97
        0
 75
     0
 76
     1
 52
0.0
 41
2.0
 77
     0
 78
     1
 53
45.0
 43
1176.84928370214
 44
1647.91706450294
 45
-4.490128060534575
 46
4.490128060534576
 79
     0
 47
0.6143813403339927
 98
        1
 10
2086.84928370214
 20
2340.91706450294
  0
ARC
  5
440
330
1F
100
AcDbEntity
  8
0
100
AcDbCircle
 10
2114.260654939648
 20
2331.751079090004
 30
0.0
 40
4.0
100
AcDbArc
 50
32.78556030043155
 51
93.9999999999965
  0
LINE
  5
441
330
1F
100
AcDbEntity
  8
0
100
AcDbLine
 10
1990.59928370214
 20
2372.91706450294
 30
0.0
 11
1981.59928370214
 21
2372.91706450294
 31
0.0
  0
LINE
  5
442
330
1F
100
AcDbEntity
  8
0
100
AcDbLine
 10
2058.59928370214
 20
2368.80747436661
 30
0.0
 11
2058.59928370214
 21
2370.41706450294
 31
0.0
  0
LINE
  5
443
330
1F
100
AcDbEntity
  8
0
100
AcDbLine
 10
2046.09928370214
 20
2366.102978274877
 30
0.0
 11
2046.09928370214
 21
2370.41706450294
 31
0.0
  0
LINE
  5
444
330
1F
100
AcDbEntity
  8
0
100
AcDbLine
 10
2032.09928370214
 20
2363.596554406958
 30
0.0
 11
2032.09928370214
 21
2370.41706450294
 31
0.0
  0
LINE
  5
445
330
1F
100
AcDbEntity
  8
0
100
AcDbLine
 10
2019.59928370214
 20
2361.816560809607
 30
0.0
 11
2019.59928370214
 21
2370.41706450294
 31
0.0
  0
LINE
  5
446
330
1F
100
AcDbEntity
  8
0
100
AcDbLine
 10
2005.599283702141
 20
2360.32790300064
 30
0.0
 11
2005.599283702141
 21
2370.41706450294
 31
0.0
  0
LINE
  5
447
330
1F
100
AcDbEntity
  8
0
100
AcDbLine
 10
1993.09928370214
 20
2359.444599479102
 30
0.0
 11
1993.09928370214
 21
2370.41706450294
 31
0.0
  0
LINE
  5
448
330
1F
100
AcDbEntity
  8
0
100
AcDbLine
 10
1979.09928370214
 20
2358.950856020364
 30
0.0
 11
1979.09928370214
 21
2370.417064502939
 31
0.0
  0
ARC
  5
449
330
1F
100
AcDbEntity
  8
0
100
AcDbCircle
 10
1981.59928370214
 20
2370.417064502939
 30
0.0
 40
2.5
100
AcDbArc
 50
90.0
 51
180.0
  0
ARC
  5
44A
330
1F
100
AcDbEntity
  8
0
100
AcDbCircle
 10
1990.59928370214
 20
2370.41706450294
 30
0.0
 40
2.5
100
AcDbArc
 50
0.0
 51
90.0
  0
LINE
  5
44B
330
1F
100
AcDbEntity
  8
0
100
AcDbLine
 10
2008.09928370214
 20
2372.91706450294
 30
0.0
 11
2017.09928370214
 21
2372.91706450294
 31
0.0
  0
ARC
  5
44C
330
1F
100
AcDbEntity
  8
0
100
AcDbCircle
 10
2008.09928370214
 20
2370.41706450294
 30
0.0
 40
2.5
100
AcDbArc
 50
90.0
 51
180.0
  0
ARC
  5
44D
330
1F
100
AcDbEntity
  8
0
100
AcDbCircle
 10
2017.09928370214
 20
2370.41706450294
 30
0.0
 40
2.5
100
AcDbArc
 50
0.0
 51
90.0
  0
LINE
  5
44E
330
1F
100
AcDbEntity
  8
0
100
AcDbLine
 10
2034.59928370214
 20
2372.91706450294
 30
0.0
 11
2043.599283702141
 21
2372.91706450294
 31
0.0
  0
ARC
  5
44F
330
1F
100
AcDbEntity
  8
0
100
AcDbCircle
 10
2034.59928370214
 20
2370.41706450294
 30
0.0
 40
2.5
100
AcDbArc
 50
90.0
 51
180.0
  0
ARC
  5
450
330
1F
100
AcDbEntity
  8
0
100
AcDbCircle
 10
2043.599283702141
 20
2370.41706450294
 30
0.0
 40
2.5
100
AcDbArc
 50
0.0
 51
90.0
  0
LINE
  5
451
330
1F
100
AcDbEntity
  8
0
100
AcDbLine
 10
2061.09928370214
 20
2372.91706450294
 30
0.0
 11
2070.09928370214
 21
2372.91706450294
 31
0.0
  0
ARC
  5
452
330
1F
100
AcDbEntity
  8
0
100
AcDbCircle
 10
2061.09928370214
 20
2370.41706450294
 30
0.0
 40
2.5
100
AcDbArc
 50
90.0
 51
180.0
  0
ARC
  5
453
330
1F
100
AcDbEntity
  8
0
100
AcDbCircle
 10
2070.09928370214
 20
2370.41706450294
 30
0.0
 40
2.5
100
AcDbArc
 50
44.65031363513082
 51
90.0
  0
LINE
  5
454
330
1F
100
AcDbEntity
  8
0
100
AcDbLine
 10
1926.09928370214
 20
2361.816560809607
 30
0.0
 11
1924.134631587846
 21
2344.46266310929
 31
0.0
  0
ARC
  5
455
330
1F
100
AcDbEntity
  8
0
100
AcDbCircle
 10
1928.59928370214
 20
2370.41706450294
 30
0.0
 40
2.5
100
AcDbArc
 50
90.0
 51
180.0
  0
ARC
  5
456
330
1F
100
AcDbEntity
  8
0
100
AcDbCircle
 10
1937.59928370214
 20
2370.41706450294
 30
0.0
 40
2.5
100
AcDbArc
 50
0.0
 51
90.0
  0
LINE
  5
457
330
1F
100
AcDbEntity
  8
0
100
AcDbLine
 10
1937.59928370214
 20
2372.91706450294
 30
0.0
 11
1928.59928370214
 21
2372.91706450294
 31
0.0
  0
ARC
  5
458
330
1F
100
AcDbEntity
  8
0
100
AcDbCircle
 10
1955.09928370214
 20
2370.41706450294
 30
0.0
 40
2.5
100
AcDbArc
 50
90.0
 51
180.0
  0
ARC
  5
459
330
1F
100
AcDbEntity
  8
0
100
AcDbCircle
 10
1964.09928370214
 20
2370.417064502939
 30
0.0
 40
2.5
100
AcDbArc
 50
0.0
 51
90.0
  0
LINE
  5
45A
330
1F
100
AcDbEntity
  8
0
100
AcDbLine
 10
1940.09928370214
 20
2360.32790300064
 30
0.0
 11
1942.120134328836
 21
2342.137831129235
 31
0.0
  0
LINE
  5
45B
330
1F
100
AcDbEntity
  8
0
100
AcDbLine
 10
1952.59928370214
 20
2359.444599479102
 30
0.0
 11
1950.615651692575
 21
2341.895212611335
 31
0.0
  0
LINE
  5
45C
330
1F
100
AcDbEntity
  8
0
100
AcDbLine
 10
1966.59928370214
 20
2358.950856020364
 30
0.0
 11
1966.59928370214
 21
2370.417064502939
 31
0.0
  0
LINE
  5
45D
330
1F
100
AcDbEntity
  8
0
100
AcDbLine
 10
1952.59928370214
 20
2359.444599479102
 30
0.0
 11
1952.59928370214
 21
2370.41706450294
 31
0.0
  0
LINE
  5
45E
330
1F
100
AcDbEntity
  8
0
100
AcDbLine
 10
1940.09928370214
 20
2360.32790300064
 30
0.0
 11
1940.09928370214
 21
2370.41706450294
 31
0.0
  0
LINE
  5
45F
330
1F
100
AcDbEntity
  8
0
100
AcDbLine
 10
1926.09928370214
 20
2361.816560809607
 30
0.0
 11
1926.09928370214
 21
2370.41706450294
 31
0.0
  0
LINE
  5
460
330
1F
100
AcDbEntity
  8
0
100
AcDbLine
 10
1955.09928370214
 20
2372.91706450294
 30
0.0
 11
1964.09928370214
 21
2372.91706450294
 31
0.0
  0
ARC
  5
461
330
1F
100
AcDbEntity
  8
0
100
AcDbCircle
 10
1884.59928370214
 20
2370.41706450294
 30
0.0
 40
2.5
100
AcDbArc
 50
0.0
 51
90.0
  0
LINE
  5
462
330
1F
100
AcDbEntity
  8
0
100
AcDbLine
 10
1887.09928370214
 20
2368.80747436661
 30
0.0
 11
1889.156379687709
 21
2349.603220806673
 31
0.0
  0
LINE
  5
463
330
1F
100
AcDbEntity
  8
0
100
AcDbLine
 10
1899.59928370214
 20
2366.102978274877
 30
0.0
 11
1897.653857435356
 21
2348.862036879341
 31
0.0
  0
ARC
  5
464
330
1F
100
AcDbEntity
  8
0
100
AcDbCircle
 10
1902.09928370214
 20
2370.41706450294
 30
0.0
 40
2.5
100
AcDbArc
 50
90.0
 51
180.0
  0
ARC
  5
465
330
1F
100
AcDbEntity
  8
0
100
AcDbCircle
 10
1911.09928370214
 20
2370.41706450294
 30
0.0
 40
2.5
100
AcDbArc
 50
0.0
 51
90.0
  0
LINE
  5
466
330
1F
100
AcDbEntity
  8
0
100
AcDbLine
 10
1911.09928370214
 20
2372.91706450294
 30
0.0
 11
1902.09928370214
 21
2372.91706450294
 31
0.0
  0
LINE
  5
467
330
1F
100
AcDbEntity
  8
0
100
AcDbLine
 10
1913.59928370214
 20
2363.596554406958
 30
0.0
 11
1913.59928370214
 21
2370.41706450294
 31
0.0
  0
LINE
  5
468
330
1F
100
AcDbEntity
  8
0
100
AcDbLine
 10
1899.59928370214
 20
2366.102978274877
 30
0.0
 11
1899.59928370214
 21
2370.41706450294
 31
0.0
  0
LINE
  5
469
330
1F
100
AcDbEntity
  8
0
100
AcDbLine
 10
1887.09928370214
 20
2368.80747436661
 30
0.0
 11
1887.09928370214
 21
2370.41706450294
 31
0.0
  0
LINE
  5
46A
330
1F
100
AcDbEntity
  8
0
100
AcDbLine
 10
1884.59928370214
 20
2372.91706450294
 30
0.0
 11
1875.59928370214
 21
2372.91706450294
 31
0.0
  0
ARC
  5
46B
330
1F
100
AcDbEntity
  8
0
100
AcDbCircle
 10
1875.59928370214
 20
2370.41706450294
 30
0.0
 40
2.5
100
AcDbArc
 50
90.0
 51
135.3496863638097
  0
LINE
  5
46C
330
1F
100
AcDbEntity
  8
0
100
AcDbLine
 10
1913.59928370214
 20
2363.596554406958
 30
0.0
 11
1915.638376872529
 21
2344.95117457485
 31
0.0
  0
ARC
  5
46D
102
{ACAD_REACTORS
330
6BF
102
}
330
1F
100
AcDbEntity
  8
0
100
AcDbCircle
 10
1972.84928370214
 20
2734.898907617922
 30
0.0
 40
376.0
100
AcDbArc
 50
252.1906267360633
 51
254.7296579849151
  0
LINE
  5
46E
330
1F
100
AcDbEntity
  8
0
100
AcDbLine
 10
1857.84928370214
 20
2376.91706450294
 30
0.0
 11
2087.849283702141
 21
2376.91706450294
 31
0.0
  0
LINE
  5
46F
330
1F
100
AcDbEntity
  8
0
100
AcDbLine
 10
1968.601648191239
 20
2341.141962514997
 30
0.0
 11
1966.59928370214
 21
2358.950856020364
 31
0.0
  0
LINE
  5
470
330
1F
100
AcDbEntity
  8
0
100
AcDbLine
 10
1977.096919213041
 20
2341.141962514997
 30
0.0
 11
1979.09928370214
 21
2358.950856020364
 31
0.0
  0
ARC
  5
471
330
1F
100
AcDbEntity
  8
0
100
AcDbCircle
 10
1972.84928370214
 20
2734.917061480802
 30
0.0
 40
396.0
100
AcDbArc
 50
269.7432590021533
 51
270.2567409978337
  0
ARC
  5
472
330
1F
100
AcDbEntity
  8
0
100
AcDbCircle
 10
1948.131470402502
 20
2342.176003134769
 30
0.0
 40
2.5
100
AcDbArc
 50
266.3985784330574
 51
353.5511478160926
  0
ARC
  5
473
330
1F
100
AcDbEntity
  8
0
100
AcDbCircle
 10
1972.84928370214
 20
2734.898907617922
 30
0.0
 40
396.0
100
AcDbArc
 50
265.8839141541337
 51
266.3985784330574
  0
ARC
  5
474
330
1F
100
AcDbEntity
  8
0
100
AcDbCircle
 10
1944.604847690262
 20
2342.41387371934
 30
0.0
 40
2.5
100
AcDbArc
 50
186.3393564197923
 51
265.8839141541337
  0
ARC
  5
475
330
1F
100
AcDbEntity
  8
0
100
AcDbCircle
 10
1921.650500125827
 20
2344.743894116486
 30
0.0
 40
2.5
100
AcDbArc
 50
262.5239779426377
 51
353.5409882863976
  0
ARC
  5
476
330
1F
100
AcDbEntity
  8
0
100
AcDbCircle
 10
1972.84928370214
 20
2734.898907617922
 30
0.0
 40
396.0
100
AcDbArc
 50
262.0057183795351
 51
262.5239779426248
  0
ARC
  5
477
330
1F
100
AcDbEntity
  8
0
100
AcDbCircle
 10
1918.123559634736
 20
2345.222958751048
 30
0.0
 40
2.5
100
AcDbArc
 50
186.2411696253441
 51
262.0057183795351
  0
ARC
  5
478
330
1F
100
AcDbEntity
  8
0
100
AcDbCircle
 10
1895.169622452119
 20
2349.142351966457
 30
0.0
 40
2.5
100
AcDbArc
 50
258.6146307426158
 51
353.5621132798836
  0
ARC
  5
479
330
1F
100
AcDbEntity
  8
0
100
AcDbCircle
 10
1972.84928370214
 20
2734.898907617922
 30
0.0
 40
396.0
100
AcDbArc
 50
258.0902119349956
 51
258.6146307426158
  0
ARC
  5
47A
330
1F
100
AcDbEntity
  8
0
100
AcDbCircle
 10
1891.642159462999
 20
2349.869489296661
 30
0.0
 40
2.5
100
AcDbArc
 50
186.1140210464083
 51
258.0902119349956
  0
ARC
  5
47B
330
1F
100
AcDbEntity
  8
0
100
AcDbCircle
 10
1971.086025650367
 20
2341.421012045686
 30
0.0
 40
2.5
100
AcDbArc
 50
186.4086990781754
 51
269.7432590021533
  0
ARC
  5
47C
330
1F
100
AcDbEntity
  8
0
100
AcDbCircle
 10
1974.612541753913
 20
2341.421012045686
 30
0.0
 40
2.5
100
AcDbArc
 50
270.2567409978337
 51
353.5913009218246
  0
ARC
  5
47D
330
1F
100
AcDbEntity
  8
0
100
AcDbCircle
 10
2054.056407941282
 20
2349.869489296661
 30
0.0
 40
2.5
100
AcDbArc
 50
281.9097880650044
 51
353.8859789535917
  0
ARC
  5
47E
330
1F
100
AcDbEntity
  8
0
100
AcDbCircle
 10
1972.84928370214
 20
2734.898907617922
 30
0.0
 40
396.0
100
AcDbArc
 50
281.3853692573842
 51
281.9097880650044
  0
ARC
  5
47F
330
1F
100
AcDbEntity
  8
0
100
AcDbCircle
 10
2050.528944952162
 20
2349.142351966457
 30
0.0
 40
2.5
100
AcDbArc
 50
186.4378867201164
 51
281.3853692573842
  0
LINE
  5
480
330
1F
100
AcDbEntity
  8
0
100
AcDbLine
 10
2058.59928370214
 20
2368.80747436661
 30
0.0
 11
2056.542187716571
 21
2349.603220806673
 31
0.0
  0
LINE
  5
481
330
1F
100
AcDbEntity
  8
0
100
AcDbLine
 10
2046.09928370214
 20
2366.102978274877
 30
0.0
 11
2048.044709968925
 21
2348.862036879341
 31
0.0
  0
LINE
  5
482
330
1F
100
AcDbEntity
  8
0
100
AcDbLine
 10
2032.09928370214
 20
2363.596554406958
 30
0.0
 11
2030.060190531751
 21
2344.95117457485
 31
0.0
  0
LINE
  5
483
330
1F
100
AcDbEntity
  8
0
100
AcDbLine
 10
2019.59928370214
 20
2361.816560809607
 30
0.0
 11
2021.563935816435
 21
2344.46266310929
 31
0.0
  0
ARC
  5
484
330
1F
100
AcDbEntity
  8
0
100
AcDbCircle
 10
2027.575007769545
 20
2345.222958751048
 30
0.0
 40
2.5
100
AcDbArc
 50
277.9942816204648
 51
353.7588303746558
  0
ARC
  5
485
330
1F
100
AcDbEntity
  8
0
100
AcDbCircle
 10
1972.84928370214
 20
2734.898907617922
 30
0.0
 40
396.0
100
AcDbArc
 50
277.4760220573752
 51
277.9942816204648
  0
ARC
  5
486
330
1F
100
AcDbEntity
  8
0
100
AcDbCircle
 10
2024.048067278453
 20
2344.743894116486
 30
0.0
 40
2.5
100
AcDbArc
 50
186.4590117136024
 51
277.4760220573623
  0
LINE
  5
487
330
1F
100
AcDbEntity
  8
0
100
AcDbLine
 10
2005.599283702141
 20
2360.32790300064
 30
0.0
 11
2003.578433075444
 21
2342.137831129235
 31
0.0
  0
LINE
  5
488
330
1F
100
AcDbEntity
  8
0
100
AcDbLine
 10
1993.09928370214
 20
2359.444599479102
 30
0.0
 11
1995.082915711705
 21
2341.895212611335
 31
0.0
  0
ARC
  5
489
330
1F
100
AcDbEntity
  8
0
100
AcDbCircle
 10
2001.093719714019
 20
2342.41387371934
 30
0.0
 40
2.5
100
AcDbArc
 50
274.1160858458663
 51
353.6606435802077
  0
ARC
  5
48A
330
1F
100
AcDbEntity
  8
0
100
AcDbCircle
 10
1972.84928370214
 20
2734.898907617922
 30
0.0
 40
396.0
100
AcDbArc
 50
273.6014215669295
 51
274.1160858458663
  0
ARC
  5
48B
330
1F
100
AcDbEntity
  8
0
100
AcDbCircle
 10
1997.567097001778
 20
2342.176003134769
 30
0.0
 40
2.5
100
AcDbArc
 50
186.4488521839075
 51
273.6014215669425
  0
ARC
  5
48C
330
1F
100
AcDbEntity
  8
0
100
AcDbCircle
 10
1972.84928370214
 20
2734.898907617922
 30
0.0
 40
396.0
100
AcDbArc
 50
285.5953267676718
 51
286.4735895950852
  0
LINE
  5
48D
330
1F
100
AcDbEntity
  8
0
100
AcDbLine
 10
2087.849283702141
 20
2376.91706450294
 30
0.0
 11
2086.932633664201
 21
2357.434372741826
 31
0.0
  0
LINE
  5
48E
330
1F
100
AcDbEntity
  8
0
100
AcDbLine
 10
2071.877806661754
 20
2372.174009602288
 30
0.0
 11
2076.216769732355
 21
2355.264442601774
 31
0.0
  0
ARC
  5
48F
330
1F
100
AcDbEntity
  8
0
100
AcDbCircle
 10
2078.638319910456
 20
2355.885807820415
 30
0.0
 40
2.5
100
AcDbArc
 50
194.3914938027655
 51
285.5953267676718
  0
ARC
  5
490
330
1F
100
AcDbEntity
  8
0
100
AcDbCircle
 10
2084.435396142745
 20
2357.551866407324
 30
0.0
 40
2.5
100
AcDbArc
 50
286.4735895950852
 51
357.3062512761153
  0
LINE
  5
491
330
1F
100
AcDbEntity
  8
0
100
AcDbLine
 10
1873.820760742526
 20
2372.174009602288
 30
0.0
 11
1869.481797671926
 21
2355.264442601774
 31
0.0
  0
ARC
  5
492
330
1F
100
AcDbEntity
  8
0
100
AcDbCircle
 10
1861.263171261535
 20
2357.551866407324
 30
0.0
 40
2.5
100
AcDbArc
 50
182.6937487238847
 51
253.5264104049149
  0
ARC
  5
493
330
1F
100
AcDbEntity
  8
0
100
AcDbCircle
 10
1867.060247493824
 20
2355.885807820415
 30
0.0
 40
2.5
100
AcDbArc
 50
254.4046732323282
 51
345.6085061972345
  0
ARC
  5
494
330
1F
100
AcDbEntity
  8
0
100
AcDbCircle
 10
1972.84928370214
 20
2734.898907617922
 30
0.0
 40
396.0
100
AcDbArc
 50
253.5264104049149
 51
254.4046732323282
  0
LINE
  5
495
330
1F
100
AcDbEntity
  8
0
100
AcDbLine
 10
1857.84928370214
 20
2376.91706450294
 30
0.0
 11
1858.765933740079
 21
2357.434372741826
 31
0.0
  0
ARC
  5
496
330
1F
100
AcDbEntity
  8
0
100
AcDbCircle
 10
1972.84928370214
 20
2734.898907617922
 30
0.0
 40
376.0
100
AcDbArc
 50
256.817204947839
 51
258.7661517450995
  0
ARC
  5
497
330
1F
100
AcDbEntity
  8
0
100
AcDbCircle
 10
1972.84928370214
 20
2734.898907617922
 30
0.0
 40
376.0
100
AcDbArc
 50
260.9335537667424
 51
262.8576393543595
  0
ARC
  5
498
330
1F
100
AcDbEntity
  8
0
100
AcDbCircle
 10
1972.84928370214
 20
2734.898907617922
 30
0.0
 40
376.0
100
AcDbArc
 50
265.0031448307323
 51
266.9127629001371
  0
ARC
  5
499
330
1F
100
AcDbEntity
  8
0
100
AcDbCircle
 10
1972.84928370214
 20
2936.926648616207
 30
0.0
 40
578.0095841132669
100
AcDbArc
 50
269.3804504106378
 51
270.6195495893622
  0
ARC
  5
49A
330
1F
100
AcDbEntity
  8
0
100
AcDbCircle
 10
1972.84928370214
 20
2734.898907617922
 30
0.0
 40
376.0
100
AcDbArc
 50
273.0872370998498
 51
274.9968551692677
  0
ARC
  5
49B
330
1F
100
AcDbEntity
  8
0
100
AcDbCircle
 10
1972.84928370214
 20
2734.898907617922
 30
0.0
 40
376.0
100
AcDbArc
 50
277.1423606456405
 51
279.0664462332576
  0
ARC
  5
49C
330
1F
100
AcDbEntity
  8
0
100
AcDbCircle
 10
1972.84928370214
 20
2734.898907617922
 30
0.0
 40
376.0
100
AcDbArc
 50
281.2338482549005
 51
283.1827950521484
  0
ARC
  5
49D
102
{ACAD_REACTORS
330
6BF
102
}
330
1F
100
AcDbEntity
  8
0
100
AcDbCircle
 10
1972.84928370214
 20
2734.898907617922
 30
0.0
 40
376.0
100
AcDbArc
 50
285.2703420150849
 51
287.8093732639367
  0
LINE
  5
49E
330
1F
100
AcDbEntity
  8
0
100
AcDbLine
 10
2030.931354964694
 20
2352.91706450294
 30
0.0
 11
2047.587150426757
 21
2352.91706450294
 31
0.0
  0
LINE
  5
49F
330
1F
100
AcDbEntity
  8
0
100
AcDbLine
 10
2004.775966580124
 20
2352.91706450294
 30
0.0
 11
2020.606804579409
 21
2352.91706450294
 31
0.0
  0
LINE
  5
4A0
330
1F
100
AcDbEntity
  8
0
100
AcDbLine
 10
1978.421557906076
 20
2352.91706450294
 30
0.0
 11
1993.83710020934
 21
2352.91706450294
 31
0.0
  0
LINE
  5
4A1
330
1F
100
AcDbEntity
  8
0
100
AcDbLine
 10
1951.861467194941
 20
2352.91706450294
 30
0.0
 11
1967.277009498204
 21
2352.91706450294
 31
0.0
  0
LINE
  5
4A2
330
1F
100
AcDbEntity
  8
0
100
AcDbLine
 10
1898.111416977524
 20
2352.91706450294
 30
0.0
 11
1914.767212439587
 21
2352.91706450294
 31
0.0
  0
LINE
  5
4A3
330
1F
100
AcDbEntity
  8
0
100
AcDbLine
 10
1926.09928370214
 20
2361.816560809607
 30
0.0
 11
1940.09928370214
 21
2360.32790300064
 31
0.0
  0
LINE
  5
4A4
330
1F
100
AcDbEntity
  8
0
100
AcDbLine
 10
1940.09928370214
 20
2360.32790300064
 30
0.0
 11
1940.099289283683
 21
2360.327902512628
 31
0.0
  0
HATCH
  5
4A5
330
1F
100
AcDbEntity
  8
8
100
AcDbHatch
 10
0.0
 20
0.0
 30
0.0
210
0.0
220
0.0
230
1.0
  2
ANSI31
 70
     0
 71
     0
 91
        1
 92
        7
 72
     1
 73
     1
 93
        6
 10
1873.820760742526
 20
2372.174009602288
 42
-0.0110790670452071
 10
1857.84928370214
 20
2376.91706450294
 42
0.0
 10
1858.765933740079
 20
2357.434372741826
 42
0.3192977451004999
 10
1860.554237891519
 20
2355.154490033687
 42
0.0038321632679782
 10
1866.388144341293
 20
2353.477846576466
 42
0.4203809729643916
 10
1869.481797671926
 20
2355.264442601774
 42
0.0
 97
        0
 75
     0
 76
     1
 52
0.0
 41
50.0
 77
     0
 78
     1
 53
45.0
 43
1141.754163672945
 44
1558.691943177995
 45
-4.419417382415921
 46
4.419417382415922
 79
     0
 47
0.3040580840437426
 98
        1
 10
1867.004163672945
 20
2361.691943177995
  0
HATCH
  5
4A6
330
1F
100
AcDbEntity
  8
8
100
AcDbHatch
 10
0.0
 20
0.0
 30
0.0
210
0.0
220
0.0
230
1.0
  2
ANSI31
 70
     0
 71
     0
 91
        1
 92
        7
 72
     1
 73
     1
 93
        6
 10
1899.59928370214
 20
2366.102978274877
 42
-0.008504089634647
 10
1887.09928370214
 20
2368.80747436661
 42
0.0
 10
1889.156379687709
 20
2349.603220806673
 42
0.3248048456365143
 10
1891.126231100615
 20
2347.423304936298
 42
0.0022882127067223
 10
1894.676104909235
 20
2346.691547928011
 42
0.4397370421113141
 10
1897.653857435356
 20
2348.862036879341
 42
0.0
 97
        0
 75
     0
 76
     1
 52
0.0
 41
50.0
 77
     0
 78
     1
 53
45.0
 43
1141.754163672945
 44
1558.691943177995
 45
-4.419417382415921
 46
4.419417382415922
 79
     0
 47
0.3041123776600417
 98
        1
 10
1895.004163672945
 20
2359.441943177995
  0
HATCH
  5
4A7
330
1F
100
AcDbEntity
  8
8
100
AcDbHatch
 10
0.0
 20
0.0
 30
0.0
210
0.0
220
0.0
230
1.0
  2
ANSI31
 70
     0
 71
     0
 91
        2
 92
        7
 72
     1
 73
     1
 93
        4
 10
1926.09928370214
 20
2361.816560809607
 42
-0.0083956043981768
 10
1913.59928370214
 20
2363.596554406958
 42
0.0
 10
1914.767212439587
 20
2352.91706450294
 42
0.0
 10
1925.091762824872
 20
2352.91706450294
 42
0.0
 97
        0
 92
        7
 72
     1
 73
     1
 93
        6
 10
1925.091762824872
 20
2352.91706450294
 42
0.0
 10
1914.767212439587
 20
2352.91706450294
 42
0.0
 10
1915.638376872529
 20
2344.95117457485
 42
0.3431788652358352
 10
1917.775873967218
 20
2342.747253866253
 42
0.002261337793543
 10
1921.325221958252
 20
2342.265145619018
 42
0.4194220773565349
 10
1924.134631587846
 20
2344.46266310929
 42
0.0
 97
        0
 75
     0
 76
     1
 52
0.0
 41
50.0
 77
     0
 78
     1
 53
45.0
 43
1141.754163672945
 44
1558.691943177995
 45
-4.419417382415921
 46
4.419417382415922
 79
     0
 47
0.3041123776600417
 98
        2
 10
1920.754163672945
 20
2357.941943177995
 10
1920.754163672945
 20
2350.441943177995
  0
HATCH
  5
4A8
330
1F
100
AcDbEntity
  8
8
100
AcDbHatch
 10
0.0
 20
0.0
 30
0.0
210
0.0
220
0.0
230
1.0
  2
ANSI31
 70
     0
 71
     0
 91
        1
 92
        7
 72
     1
 73
     1
 93
        7
 10
1952.59928370214
 20
2359.444599479102
 42
-0.0083324679045701
 10
1940.099292122877
 20
2360.327902264387
 42
0.0
 10
1940.09928370214
 20
2360.32790300064
 42
0.0
 10
1942.120134328836
 20
2342.137831129235
 42
0.3617213576139339
 10
1944.425404005307
 20
2339.920322042729
 42
0.0022456503273151
 10
1947.974432198566
 20
2339.680940209209
 42
0.3997314207401477
 10
1950.615651692575
 20
2341.895212611335
 42
0.0
 97
        0
 75
     0
 76
     1
 52
0.0
 41
50.0
 77
     0
 78
     1
 53
45.0
 43
1141.754163672945
 44
1558.691943177995
 45
-4.419417382415921
 46
4.419417382415922
 79
     0
 47
0.3041123776600417
 98
        1
 10
1945.504163672945
 20
2356.441943177995
  0
HATCH
  5
4A9
330
1F
100
AcDbEntity
  8
8
100
AcDbHatch
 10
0.0
 20
0.0
 30
0.0
210
0.0
220
0.0
230
1.0
  2
ANSI31
 70
     0
 71
     0
 91
        2
 92
        7
 72
     1
 73
     1
 93
        5
 10
1972.84928370214
 20
2358.898907617922
 42
-0.0041558004206471
 10
1966.59928370214
 20
2358.950856020364
 42
0.0
 10
1968.601648191239
 20
2341.123808652118
 42
0.3805363647049185
 10
1971.074823248513
 20
2338.902883281694
 42
0.0011202444029055
 10
1972.84928370214
 20
2338.898907617922
 42
0.0
 97
        0
 92
        7
 72
     1
 73
     1
 93
        5
 10
1979.09928370214
 20
2358.950856020364
 42
-0.0041558004206471
 10
1972.84928370214
 20
2358.898907617922
 42
0.0
 10
1972.84928370214
 20
2338.898907617922
 42
0.0011202444029053
 10
1974.623744155767
 20
2338.902883281694
 42
0.3805363647049429
 10
1977.096919213041
 20
2341.123808652118
 42
0.0
 97
        0
 75
     0
 76
     1
 52
0.0
 41
50.0
 77
     0
 78
     1
 53
45.0
 43
1141.754163672945
 44
1558.691943177995
 45
-4.419417382415921
 46
4.419417382415922
 79
     0
 47
0.3041123776600417
 98
        2
 10
1969.754163672945
 20
2353.691943177995
 10
1976.254163672945
 20
2353.691943177995
  0
HATCH
  5
4AA
330
1F
100
AcDbEntity
  8
8
100
AcDbHatch
 10
0.0
 20
0.0
 30
0.0
210
0.0
220
0.0
230
1.0
  2
ANSI31
 70
     0
 71
     0
 91
        1
 92
        7
 72
     1
 73
     1
 93
        6
 10
2005.599283702141
 20
2360.32790300064
 42
-0.0083324735252144
 10
1993.09928370214
 20
2359.444599479103
 42
0.0
 10
1995.082915711705
 20
2341.895212611335
 42
0.3997314207401594
 10
1997.724135205715
 20
2339.680940209209
 42
0.002245650327315
 10
2001.273163398973
 20
2339.920322042729
 42
0.3617213576139465
 10
2003.578433075444
 20
2342.137831129235
 42
0.0
 97
        0
 75
     0
 76
     1
 52
0.0
 41
50.0
 77
     0
 78
     1
 53
45.0
 43
1141.754163672945
 44
1558.691943177995
 45
-4.419417382415921
 46
4.419417382415922
 79
     0
 47
0.3041123776600417
 98
        1
 10
2001.004163672945
 20
2354.691943177995
  0
HATCH
  5
4AB
330
1F
100
AcDbEntity
  8
8
100
AcDbHatch
 10
0.0
 20
0.0
 30
0.0
210
0.0
220
0.0
230
1.0
  2
ANSI31
 70
     0
 71
     0
 91
        1
 92
        7
 72
     1
 73
     1
 93
        6
 10
2032.09928370214
 20
2363.596554406958
 42
-0.0083956043981767
 10
2019.59928370214
 20
2361.816560809607
 42
0.0
 10
2021.563935816435
 20
2344.46266310929
 42
0.4194220773565348
 10
2024.373345446028
 20
2342.265145619018
 42
0.0022613377935429
 10
2027.922693437063
 20
2342.747253866253
 42
0.3431788652358235
 10
2030.060190531751
 20
2344.95117457485
 42
0.0
 97
        0
 75
     0
 76
     1
 52
0.0
 41
50.0
 77
     0
 78
     1
 53
45.0
 43
1141.754163672945
 44
1558.691943177995
 45
-4.419417382415921
 46
4.419417382415922
 79
     0
 47
0.3041123776600417
 98
        1
 10
2026.254163672945
 20
2354.691943177995
  0
HATCH
  5
4AC
330
1F
100
AcDbEntity
  8
8
100
AcDbHatch
 10
0.0
 20
0.0
 30
0.0
210
0.0
220
0.0
230
1.0
  2
ANSI31
 70
     0
 71
     0
 91
        1
 92
        7
 72
     1
 73
     1
 93
        6
 10
2058.59928370214
 20
2368.80747436661
 42
-0.008504089634647
 10
2046.09928370214
 20
2366.102978274878
 42
0.0
 10
2048.044709968925
 20
2348.862036879341
 42
0.439737042111326
 10
2051.022462495046
 20
2346.691547928011
 42
0.0022882127067225
 10
2054.572336303666
 20
2347.423304936298
 42
0.324804845636482
 10
2056.542187716571
 20
2349.603220806673
 42
0.0
 97
        0
 75
     0
 76
     1
 52
0.0
 41
50.0
 77
     0
 78
     1
 53
45.0
 43
1141.754163672945
 44
1558.691943177995
 45
-4.419417382415921
 46
4.419417382415922
 79
     0
 47
0.3041123776600417
 98
        1
 10
2053.754163672945
 20
2360.691943177995
  0
HATCH
  5
4AD
330
1F
100
AcDbEntity
  8
8
100
AcDbHatch
 10
0.0
 20
0.0
 30
0.0
210
0.0
220
0.0
230
1.0
  2
ANSI31
 70
     0
 71
     0
 91
        1
 92
        7
 72
     1
 73
     1
 93
        6
 10
2087.849283702141
 20
2376.91706450294
 42
-0.0110790670452066
 10
2071.87780666175
 20
2372.174009602308
 42
0.0
 10
2076.216769732355
 20
2355.264442601774
 42
0.4203809729643775
 10
2079.310423062988
 20
2353.477846576466
 42
0.0038321632679783
 10
2085.144329512762
 20
2355.154490033687
 42
0.3192977451004876
 10
2086.932633664201
 20
2357.434372741826
 42
0.0
 97
        0
 75
     0
 76
     1
 52
0.0
 41
50.0
 77
     0
 78
     1
 53
45.0
 43
1141.754163672945
 44
1558.691943177995
 45
-4.419417382415921
 46
4.419417382415922
 79
     0
 47
0.3041123762076228
 98
        1
 10
2083.004163672945
 20
2370.191943177995
  0
LINE
  5
4AE
330
1F
100
AcDbEntity
  8
0
100
AcDbLine
 10
1867.060247493824
 20
2353.385807820415
 30
0.0
 11
1888.801411735265
 21
2352.91706450294
 31
0.0
  0
LINE
  5
4AF
330
1F
100
AcDbEntity
  8
0
100
AcDbLine
 10
1925.091762824872
 20
2352.91706450294
 30
0.0
 11
1940.922600824156
 21
2352.91706450294
 31
0.0
  0
LINE
  5
4B1
330
1F
100
AcDbEntity
  8
0
100
AcDbLine
 10
2056.897155669016
 20
2352.91706450294
 30
0.0
 11
2079.310423062988
 21
2353.477846576466
 31
0.0
  0
CIRCLE
  5
4B7
330
1F
100
AcDbEntity
  8
0
100
AcDbCircle
 10
1972.84928370214
 20
1893.579272485733
 30
0.0
 40
157.5
  0
CIRCLE
  5
4B8
330
1F
100
AcDbEntity
  8
0
100
AcDbCircle
 10
1972.84928370214
 20
1893.579272485733
 30
0.0
 40
124.0
  0
CIRCLE
  5
4EB
330
1F
100
AcDbEntity
  8
0
100
AcDbCircle
 10
1972.84928370214
 20
1893.579272485733
 30
0.0
 40
117.0
  0
CIRCLE
  5
568
330
1F
100
AcDbEntity
  8
0
100
AcDbCircle
 10
1972.84928370214
 20
1893.579272485733
 30
0.0
 40
115.0
  0
ARC
  5
569
330
1F
100
AcDbEntity
  8
0
100
AcDbCircle
 10
1972.84928370214
 20
1893.579272485733
 30
0.0
 40
100.0
100
AcDbArc
 50
154.8405556717641
 51
205.1594443282359
  0
LINE
  5
56A
330
1F
100
AcDbEntity
  8
0
100
AcDbLine
 10
1887.09928370214
 20
1935.030297804777
 30
0.0
 11
1887.09928370214
 21
1852.128247166689
 31
0.0
  0
LINE
  5
56B
330
1F
100
AcDbEntity
  8
0
100
AcDbLine
 10
1899.59928370214
 20
1957.606122322345
 30
0.0
 11
1899.59928370214
 21
1829.552422649122
 31
0.0
  0
LINE
  5
56C
330
1F
100
AcDbEntity
  8
0
100
AcDbLine
 10
1913.59928370214
 20
1965.797258472605
 30
0.0
 11
1913.59928370214
 21
1821.361286498861
 31
0.0
  0
LINE
  5
56D
330
1F
100
AcDbEntity
  8
0
100
AcDbLine
 10
1926.09928370214
 20
1978.2872266577
 30
0.0
 11
1926.09928370214
 21
1808.871318313767
 31
0.0
  0
LINE
  5
56E
330
1F
100
AcDbEntity
  8
0
100
AcDbLine
 10
1940.09928370214
 20
1982.266574282552
 30
0.0
 11
1940.09928370214
 21
1804.891970688914
 31
0.0
  0
LINE
  5
56F
330
1F
100
AcDbEntity
  8
0
100
AcDbLine
 10
1952.59928370214
 20
1988.193951579413
 30
0.0
 11
1952.59928370214
 21
1798.964593392053
 31
0.0
  0
LINE
  5
570
330
1F
100
AcDbEntity
  8
0
100
AcDbLine
 10
1966.59928370214
 20
1989.030503488795
 30
0.0
 11
1966.59928370214
 21
1798.12804148267
 31
0.0
  0
ARC
  5
571
330
1F
100
AcDbEntity
  8
0
100
AcDbCircle
 10
1972.84928370214
 20
1893.579272485733
 30
0.0
 40
100.0
100
AcDbArc
 50
112.5080045552357
 51
115.690561285466
  0
ARC
  5
572
330
1F
100
AcDbEntity
  8
0
100
AcDbCircle
 10
1972.84928370214
 20
1893.579272485733
 30
0.0
 40
100.0
100
AcDbArc
 50
131.2125434709341
 51
134.6502925371595
  0
ARC
  5
573
330
1F
100
AcDbEntity
  8
0
100
AcDbCircle
 10
1936.09928370214
 20
1982.266574282552
 30
0.0
 40
4.0
100
AcDbArc
 50
0.0
 51
112.5080045552357
  0
ARC
  5
574
330
1F
100
AcDbEntity
  8
0
100
AcDbCircle
 10
1909.59928370214
 20
1965.797258472605
 30
0.0
 40
4.0
100
AcDbArc
 50
0.0
 51
131.2125434709341
  0
ARC
  5
575
330
1F
100
AcDbEntity
  8
0
100
AcDbCircle
 10
1884.59928370214
 20
1935.030297804777
 30
0.0
 40
2.5
100
AcDbArc
 50
0.0
 51
154.8405556717641
  0
ARC
  5
576
330
1F
100
AcDbEntity
  8
0
100
AcDbCircle
 10
1972.84928370214
 20
1893.579272485733
 30
0.0
 40
100.0
100
AcDbArc
 50
260.2545735172303
 51
263.8707985440638
  0
ARC
  5
577
330
1F
100
AcDbEntity
  8
0
100
AcDbCircle
 10
1972.84928370214
 20
1893.579272485733
 30
0.0
 40
100.0
100
AcDbArc
 50
244.309438714534
 51
247.4919954447642
  0
ARC
  5
578
330
1F
100
AcDbEntity
  8
0
100
AcDbCircle
 10
1972.84928370214
 20
1893.579272485733
 30
0.0
 40
100.0
100
AcDbArc
 50
225.3497074628404
 51
228.7874565290659
  0
ARC
  5
579
330
1F
100
AcDbEntity
  8
0
100
AcDbCircle
 10
1884.59928370214
 20
1852.128247166689
 30
0.0
 40
2.5
100
AcDbArc
 50
205.1594443282359
 51
0.0
  0
ARC
  5
57A
330
1F
100
AcDbEntity
  8
0
100
AcDbCircle
 10
1909.59928370214
 20
1829.552422649122
 30
0.0
 40
10.0
100
AcDbArc
 50
180.0
 51
225.3497074628404
  0
ARC
  5
57B
330
1F
100
AcDbEntity
  8
0
100
AcDbCircle
 10
1932.09928370214
 20
1808.871318313766
 30
0.0
 40
6.0
100
AcDbArc
 50
180.0
 51
244.309438714534
  0
ARC
  5
57C
330
1F
100
AcDbEntity
  8
0
100
AcDbCircle
 10
1956.59928370214
 20
1798.964593392053
 30
0.0
 40
4.0
100
AcDbArc
 50
180.0
 51
260.2545735172303
  0
ARC
  5
57D
330
1F
100
AcDbEntity
  8
0
100
AcDbCircle
 10
1962.59928370214
 20
1798.12804148267
 30
0.0
 40
4.0
100
AcDbArc
 50
263.8707985440638
 51
0.0
  0
ARC
  5
57E
330
1F
100
AcDbEntity
  8
0
100
AcDbCircle
 10
1909.59928370214
 20
1821.361286498861
 30
0.0
 40
4.0
100
AcDbArc
 50
228.7874565290659
 51
0.0
  0
ARC
  5
57F
330
1F
100
AcDbEntity
  8
0
100
AcDbCircle
 10
1936.09928370214
 20
1804.891970688914
 30
0.0
 40
4.0
100
AcDbArc
 50
247.4919954447642
 51
0.0
  0
ARC
  5
580
330
1F
100
AcDbEntity
  8
0
100
AcDbCircle
 10
1962.59928370214
 20
1989.030503488795
 30
0.0
 40
4.0
100
AcDbArc
 50
0.0
 51
96.12920145593616
  0
ARC
  5
581
330
1F
100
AcDbEntity
  8
0
100
AcDbCircle
 10
1956.59928370214
 20
1988.193951579413
 30
0.0
 40
4.0
100
AcDbArc
 50
99.74542648276965
 51
180.0
  0
ARC
  5
582
330
1F
100
AcDbEntity
  8
0
100
AcDbCircle
 10
1972.84928370214
 20
1893.579272485733
 30
0.0
 40
100.0
100
AcDbArc
 50
96.12920145593616
 51
99.74542648276965
  0
ARC
  5
583
330
1F
100
AcDbEntity
  8
0
100
AcDbCircle
 10
1909.59928370214
 20
1957.606122322344
 30
0.0
 40
10.0
100
AcDbArc
 50
134.6502925371595
 51
180.0
  0
ARC
  5
584
330
1F
100
AcDbEntity
  8
0
100
AcDbCircle
 10
1932.09928370214
 20
1978.2872266577
 30
0.0
 40
6.0
100
AcDbArc
 50
115.690561285466
 51
180.0
  0
ARC
  5
585
330
1F
100
AcDbEntity
  8
0
100
AcDbCircle
 10
2036.09928370214
 20
1957.606122322344
 30
0.0
 40
10.0
100
AcDbArc
 50
0.0
 51
45.34970746284042
  0
ARC
  5
586
330
1F
100
AcDbEntity
  8
0
100
AcDbCircle
 10
2036.09928370214
 20
1821.361286498861
 30
0.0
 40
4.0
100
AcDbArc
 50
180.0
 51
311.2125434709341
  0
ARC
  5
587
102
{ACAD_REACTORS
330
727
102
}
330
1F
100
AcDbEntity
  8
0
100
AcDbCircle
 10
2036.09928370214
 20
1829.552422649122
 30
0.0
 40
10.0
100
AcDbArc
 50
314.6502925371596
 51
0.0
  0
ARC
  5
588
330
1F
100
AcDbEntity
  8
0
100
AcDbCircle
 10
2061.09928370214
 20
1852.128247166689
 30
0.0
 40
2.5
100
AcDbArc
 50
180.0
 51
334.840555671764
  0
ARC
  5
589
330
1F
100
AcDbEntity
  8
0
100
AcDbCircle
 10
1972.84928370214
 20
1893.579272485733
 30
0.0
 40
100.0
100
AcDbArc
 50
311.2125434709341
 51
314.6502925371596
  0
ARC
  5
58A
330
1F
100
AcDbEntity
  8
0
100
AcDbCircle
 10
2061.09928370214
 20
1935.030297804777
 30
0.0
 40
2.5
100
AcDbArc
 50
25.15944432823593
 51
180.0
  0
LINE
  5
58B
102
{ACAD_REACTORS
330
727
102
}
330
1F
100
AcDbEntity
  8
0
100
AcDbLine
 10
2046.09928370214
 20
1957.606122322345
 30
0.0
 11
2046.09928370214
 21
1829.552422649122
 31
0.0
  0
LINE
  5
58C
330
1F
100
AcDbEntity
  8
0
100
AcDbLine
 10
2058.59928370214
 20
1935.030297804777
 30
0.0
 11
2058.59928370214
 21
1852.128247166689
 31
0.0
  0
ARC
  5
58D
330
1F
100
AcDbEntity
  8
0
100
AcDbCircle
 10
1972.84928370214
 20
1893.579272485733
 30
0.0
 40
100.0
100
AcDbArc
 50
334.840555671764
 51
25.15944432823593
  0
ARC
  5
58E
330
1F
100
AcDbEntity
  8
0
100
AcDbCircle
 10
2013.59928370214
 20
1978.2872266577
 30
0.0
 40
6.0
100
AcDbArc
 50
0.0
 51
64.30943871453393
  0
ARC
  5
58F
330
1F
100
AcDbEntity
  8
0
100
AcDbCircle
 10
1972.84928370214
 20
1893.579272485733
 30
0.0
 40
100.0
100
AcDbArc
 50
80.25457351723028
 51
83.87079854406385
  0
ARC
  5
590
330
1F
100
AcDbEntity
  8
0
100
AcDbCircle
 10
1989.09928370214
 20
1988.193951579413
 30
0.0
 40
4.0
100
AcDbArc
 50
0.0
 51
80.25457351723028
  0
ARC
  5
591
330
1F
100
AcDbEntity
  8
0
100
AcDbCircle
 10
1983.09928370214
 20
1989.030503488795
 30
0.0
 40
4.0
100
AcDbArc
 50
83.87079854406385
 51
180.0
  0
ARC
  5
592
330
1F
100
AcDbEntity
  8
0
100
AcDbCircle
 10
2036.09928370214
 20
1965.797258472605
 30
0.0
 40
4.0
100
AcDbArc
 50
48.78745652906586
 51
180.0
  0
ARC
  5
593
330
1F
100
AcDbEntity
  8
0
100
AcDbCircle
 10
2009.59928370214
 20
1982.266574282552
 30
0.0
 40
4.0
100
AcDbArc
 50
67.49199544476424
 51
180.0
  0
ARC
  5
594
330
1F
100
AcDbEntity
  8
0
100
AcDbCircle
 10
1972.84928370214
 20
1893.579272485733
 30
0.0
 40
100.0
100
AcDbArc
 50
45.34970746284042
 51
48.78745652906586
  0
ARC
  5
595
330
1F
100
AcDbEntity
  8
0
100
AcDbCircle
 10
1972.84928370214
 20
1893.579272485733
 30
0.0
 40
100.0
100
AcDbArc
 50
64.30943871453393
 51
67.49199544476424
  0
LINE
  5
596
102
{ACAD_REACTORS
330
727
102
}
330
1F
100
AcDbEntity
  8
0
100
AcDbLine
 10
2032.09928370214
 20
1965.797258472605
 30
0.0
 11
2032.09928370214
 21
1821.361286498861
 31
0.0
  0
LINE
  5
597
330
1F
100
AcDbEntity
  8
0
100
AcDbLine
 10
1979.09928370214
 20
1989.030503488795
 30
0.0
 11
1979.09928370214
 21
1798.12804148267
 31
0.0
  0
LINE
  5
598
330
1F
100
AcDbEntity
  8
0
100
AcDbLine
 10
1993.09928370214
 20
1988.193951579413
 30
0.0
 11
1993.09928370214
 21
1798.964593392053
 31
0.0
  0
LINE
  5
599
330
1F
100
AcDbEntity
  8
0
100
AcDbLine
 10
2005.59928370214
 20
1982.266574282552
 30
0.0
 11
2005.59928370214
 21
1804.891970688914
 31
0.0
  0
LINE
  5
59A
330
1F
100
AcDbEntity
  8
0
100
AcDbLine
 10
2019.59928370214
 20
1978.2872266577
 30
0.0
 11
2019.59928370214
 21
1808.871318313767
 31
0.0
  0
ARC
  5
59B
330
1F
100
AcDbEntity
  8
0
100
AcDbCircle
 10
2009.59928370214
 20
1804.891970688914
 30
0.0
 40
4.0
100
AcDbArc
 50
180.0
 51
292.5080045552358
  0
ARC
  5
59C
330
1F
100
AcDbEntity
  8
0
100
AcDbCircle
 10
1983.09928370214
 20
1798.12804148267
 30
0.0
 40
4.0
100
AcDbArc
 50
180.0
 51
276.1292014559362
  0
ARC
  5
59D
330
1F
100
AcDbEntity
  8
0
100
AcDbCircle
 10
1989.09928370214
 20
1798.964593392053
 30
0.0
 40
4.0
100
AcDbArc
 50
279.7454264827697
 51
0.0
  0
ARC
  5
59E
330
1F
100
AcDbEntity
  8
0
100
AcDbCircle
 10
2013.59928370214
 20
1808.871318313766
 30
0.0
 40
6.0
100
AcDbArc
 50
295.690561285466
 51
0.0
  0
ARC
  5
59F
330
1F
100
AcDbEntity
  8
0
100
AcDbCircle
 10
1972.84928370214
 20
1893.579272485733
 30
0.0
 40
100.0
100
AcDbArc
 50
292.5080045552358
 51
295.690561285466
  0
ARC
  5
5A0
330
1F
100
AcDbEntity
  8
0
100
AcDbCircle
 10
1972.84928370214
 20
1893.579272485733
 30
0.0
 40
100.0
100
AcDbArc
 50
276.1292014559362
 51
279.7454264827697
  0
DIMENSION
  5
5C4
102
{ACAD_XDICTIONARY
360
5D2
102
}
102
{ACAD_REACTORS
330
5D3
102
}
330
1F
100
AcDbEntity
  8
AM_5
100
AcDbDimension
  2
*D4
 10
2142.34928370214
 20
2341.91706450294
 30
0.0
 11
2133.34928370214
 21
2359.41706450294
 31
0.0
 70
    32
 71
     5
 42
35.0
  3
AM_ISO$0
100
AcDbAlignedDimension
 13
2096.849283702141
 23
2376.91706450294
 33
0.0
 14
2130.349283702141
 24
2341.91706450294
 34
0.0
 50
90.00000000000003
100
AcDbRotatedDimension
1001
ACAD
1000
DSTYLE
1002
{
1070
    41
1040
10.0
1070
   140
1040
15.0
1002
}
  0
DIMENSION
  5
5EF
102
{ACAD_XDICTIONARY
360
5FC
102
}
102
{ACAD_REACTORS
330
5FD
102
}
330
1F
100
AcDbEntity
  8
AM_5
100
AcDbDimension
  2
*D5
 10
2165.177293830231
 20
2176.91706450294
 30
0.0
 11
2156.175817452278
 21
2276.91706450294
 31
0.0
 70
    32
 71
     5
 42
200.0
  3
AM_ISO$0
100
AcDbAlignedDimension
 13
2096.849283702141
 23
2376.91706450294
 33
0.0
 14
2026.849283702141
 24
2176.91706450294
 34
0.0
 50
90.00000000000003
100
AcDbRotatedDimension
1001
ACAD
1000
DSTYLE
1002
{
1070
   140
1040
15.0
1070
    41
1040
10.0
1002
}
  0
DIMENSION
  5
625
102
{ACAD_XDICTIONARY
360
632
102
}
102
{ACAD_REACTORS
330
633
102
}
330
1F
100
AcDbEntity
  8
AM_5
100
AcDbDimension
  2
*D6
 10
1904.163837734306
 20
2176.91706450294
 30
0.0
 11
1895.163837734306
 21
2231.91706450294
 31
0.0
 70
    32
 71
     5
 42
110.0
  3
AM_ISO$0
100
AcDbAlignedDimension
 13
1916.163837734306
 23
2286.91706450294
 33
0.0
 14
1918.84928370214
 24
2176.91706450294
 34
0.0
 50
90.0
100
AcDbRotatedDimension
1001
ACAD
1000
DSTYLE
1002
{
1070
    41
1040
10.0
1070
   140
1040
15.0
1002
}
  0
DIMENSION
  5
6B1
102
{ACAD_XDICTIONARY
360
6BE
102
}
102
{ACAD_REACTORS
330
6BF
102
}
330
1F
100
AcDbEntity
  8
AM_5
100
AcDbDimension
  2
*D8
 10
2087.849283702134
 20
2411.896118827614
 30
0.0
 11
1972.84928370214
 21
2411.896118827614
 31
0.0
 70
   160
  1
%%c<>
 71
     5
 42
229.9999999999891
  3
AM_ISO$0
100
AcDbAlignedDimension
 13
1857.849283702145
 23
2376.917064502938
 33
0.0
 14
2087.849283702134
 24
2376.917064502938
 34
0.0
 50
0.0000000000000114
100
AcDbRotatedDimension
1001
ACAD
1000
DSTYLE
1002
{
1070
    41
1040
10.0
1070
   140
1040
15.0
1002
}
  0
DIMENSION
  5
6DB
330
1F
100
AcDbEntity
  8
AM_5
100
AcDbDimension
  2
*D9
 10
1787.179303331193
 20
1736.079272485733
 30
0.0
 11
1778.179303331193
 21
1893.579272485733
 31
0.0
 70
    32
 71
     5
 42
314.9999999999998
  3
AM_ISO$0
100
AcDbAlignedDimension
 13
1972.84928370214
 23
2051.079272485733
 33
0.0
 14
1972.84928370214
 24
1736.079272485733
 34
0.0
 50
90.0
100
AcDbRotatedDimension
1001
ACAD
1000
DSTYLE
1002
{
1070
    41
1040
10.0
1070
   140
1040
15.0
1002
}
  0
DIMENSION
  5
719
102
{ACAD_XDICTIONARY
360
726
102
}
102
{ACAD_REACTORS
330
727
102
}
330
1F
100
AcDbEntity
  8
AM_5
100
AcDbDimension
  2
*D10
 10
2046.09928370214
 20
1700.534209888365
 30
0.0
 11
2075.09928370214
 21
1709.534209888366
 31
0.0
 70
    32
 71
     5
 42
14.00000000000023
  3
AM_ISO$0
100
AcDbAlignedDimension
 13
2032.09928370214
 23
1821.361286498861
 33
0.0
 14
2046.09928370214
 24
1829.552422649122
 34
0.0
100
AcDbRotatedDimension
1001
ACAD
1000
DSTYLE
1002
{
1070
    41
1040
10.0
1070
   140
1040
15.0
1002
}
  0
DIMENSION
  5
8A4
102
{ACAD_XDICTIONARY
360
8B1
102
}
102
{ACAD_REACTORS
330
8B2
102
}
330
1F
100
AcDbEntity
  8
AM_5
100
AcDbDimension
  2
*D11
 10
2096.849283702141
 20
2437.298024269283
 30
0.0
 11
1972.84928370214
 21
2437.298024269283
 31
0.0
 70
   160
  1
%%c<>
 71
     5
 42
248.0
  3
AM_ISO$0
100
AcDbAlignedDimension
 13
1848.84928370214
 23
2376.91706450294
 33
0.0
 14
2096.849283702141
 24
2376.91706450294
 34
0.0
 50
0.0000000000000114
100
AcDbRotatedDimension
1001
ACAD
1000
DSTYLE
1002
{
1070
    41
1040
10.0
1070
   140
1040
15.0
1002
}
  0
DIMENSION
  5
8F7
102
{ACAD_XDICTIONARY
360
904
102
}
102
{ACAD_REACTORS
330
905
102
}
330
1F
100
AcDbEntity
  8
AM_5
100
AcDbDimension
  2
*D12
 10
1745.898397181337
 20
2351.91706450294
 30
0.0
 11
1745.898397181337
 21
2364.417064502941
 31
0.0
 70
   160
 71
     5
 42
25.0
  3
AM_ISO$0
100
AcDbAlignedDimension
 13
1848.84928370214
 23
2376.91706450294
 33
0.0
 14
1857.34928370214
 24
2351.91706450294
 34
0.0
 50
90.00000000000003
100
AcDbRotatedDimension
1001
ACAD
1000
DSTYLE
1002
{
1070
    41
1040
10.0
1070
   140
1040
15.0
1002
}
  0
ENDSEC
  0
SECTION
  2
OBJECTS
  0
DICTIONARY
  5
C
330
0
100
AcDbDictionary
281
     1
  3
ACAD_COLOR
350
BE
  3
ACAD_GROUP
350
D
  3
ACAD_LAYOUT
350
1A
  3
ACAD_MATERIAL
350
BD
  3
ACAD_MLINESTYLE
350
17
  3
ACAD_PLOTSETTINGS
350
19
  3
ACAD_PLOTSTYLENAME
350
E
  3
ACAD_TABLESTYLE
350
11A
  3
ACDBHEADERROUNDTRIPXREC
350
9B0
  3
AcDbVariableDictionary
350
94
  3
AcmDictionary
350
5B
  3
AMG
350
41
  3
AMGSNAPSETTINGS
350
26B
  3
DWGPROPS
350
9AF
  0
DICTIONARY
  5
8F
330
1F
100
AcDbDictionary
280
     1
281
     1
  0
DICTIONARY
  5
5D2
330
5C4
100
AcDbDictionary
280
     1
281
     1
  3
ACAD_DIMASSOC
360
5D3
  0
DICTIONARY
  5
5FC
330
5EF
100
AcDbDictionary
280
     1
281
     1
  3
ACAD_DIMASSOC
360
5FD
  0
DICTIONARY
  5
632
330
625
100
AcDbDictionary
280
     1
281
     1
  3
ACAD_DIMASSOC
360
633
  0
DICTIONARY
  5
6BE
330
6B1
100
AcDbDictionary
280
     1
281
     1
  3
ACAD_DIMASSOC
360
6BF
  0
DICTIONARY
  5
726
330
719
100
AcDbDictionary
280
     1
281
     1
  3
ACAD_DIMASSOC
360
727
  0
DICTIONARY
  5
8B1
330
8A4
100
AcDbDictionary
280
     1
281
     1
  3
ACAD_DIMASSOC
360
8B2
  0
DICTIONARY
  5
904
330
8F7
100
AcDbDictionary
280
     1
281
     1
  3
ACAD_DIMASSOC
360
905
  0
DICTIONARY
  5
BE
102
{ACAD_REACTORS
330
C
102
}
330
C
100
AcDbDictionary
281
     1
  0
DICTIONARY
  5
D
102
{ACAD_REACTORS
330
C
102
}
330
C
100
AcDbDictionary
281
     1
  0
DICTIONARY
  5
1A
102
{ACAD_REACTORS
330
C
102
}
330
C
100
AcDbDictionary
281
     1
  3
Layout1
350
1E
  3
Layout2
350
26
  3
Model
350
22
  0
DICTIONARY
  5
BD
102
{ACAD_REACTORS
330
C
102
}
330
C
100
AcDbDictionary
281
     1
  0
DICTIONARY
  5
17
102
{ACAD_REACTORS
330
C
102
}
330
C
100
AcDbDictionary
281
     1
  3
Standard
350
18
  0
DICTIONARY
  5
19
102
{ACAD_REACTORS
330
C
102
}
330
C
100
AcDbDictionary
281
     1
  0
ACDBDICTIONARYWDFLT
  5
E
102
{ACAD_REACTORS
330
C
102
}
330
C
100
AcDbDictionary
281
     1
  3
Normal
350
F
100
AcDbDictionaryWithDefault
340
F
  0
DICTIONARY
  5
11A
102
{ACAD_REACTORS
330
C
102
}
330
C
100
AcDbDictionary
281
     1
  3
Standard
350
11B
  0
DICTIONARY
  5
9B0
102
{ACAD_REACTORS
330
C
102
}
330
C
100
AcDbDictionary
281
     1
  0
DICTIONARY
  5
94
102
{ACAD_REACTORS
330
C
102
}
330
C
100
AcDbDictionary
281
     1
  3
CTABLESTYLE
350
138
  3
DIMASSOC
350
96
  3
INDEXCTL
350
95
  3
PROJECTNAME
350
9AD
  0
DICTIONARY
  5
5B
102
{ACAD_REACTORS
330
C
102
}
330
C
100
AcDbDictionary
281
     1
  3
AcmBOM
350
272
  3
AcmStdDictionary
350
61
  3
AMDTSECTSYM_ARROWCOLOR
350
123
  0
DICTIONARY
  5
41
102
{ACAD_REACTORS
330
C
102
}
330
C
100
AcDbDictionary
281
     1
  0
DICTIONARY
  5
26B
102
{ACAD_REACTORS
330
C
102
}
330
C
100
AcDbDictionary
281
     1
  0
XRECORD
  5
9AF
102
{ACAD_REACTORS
330
C
102
}
330
C
100
AcDbXrecord
280
     1
  1
DWGPROPS COOKIE
  2

  3

  4

  6

  7

  8

  9

300
AmdtFileType=84
301
=
302
=
303
=
304
=
305
=
306
=
307
=
308
=
309
=
 40
0.0308375694444445
 41
2454060.54736044
 42
2454081.811104248
  1

 90
        1
  0
DIMASSOC
  5
5D3
102
{ACAD_REACTORS
330
5D2
102
}
330
5D2
100
AcDbDimAssoc
330
5C4
 90
        3
 70
     0
 71
     0
  1
AcDbOsnapPointRef
 72
     1
331
426
 73
     0
 91
        0
 40
0.0
 10
0.0
 20
0.0
 30
2.000000000000000E+50
 75
     0
  1
AcDbOsnapPointRef
 72
    13
331
427
 73
     0
 91
        0
 40
0.0
 10
0.0
 20
0.0
 30
2.000000000000000E+50
 75
     0
  0
DIMASSOC
  5
5FD
102
{ACAD_REACTORS
330
5FC
102
}
330
5FC
100
AcDbDimAssoc
330
5EF
 90
        3
 70
     0
 71
     0
  1
AcDbOsnapPointRef
 72
     1
331
426
 73
     0
 91
        0
 40
0.0
 10
0.0
 20
0.0
 30
2.000000000000000E+50
 75
     0
  1
AcDbOsnapPointRef
 72
    13
331
43B
 73
     0
 91
        0
 40
0.0
 10
0.0
 20
0.0
 30
2.000000000000000E+50
 75
     0
  0
DIMASSOC
  5
633
102
{ACAD_REACTORS
330
632
102
}
330
632
100
AcDbDimAssoc
330
625
 90
        3
 70
     0
 71
     0
  1
AcDbOsnapPointRef
 72
     6
331
432
 73
     0
 91
        0
 40
0.1589420542024787
 10
0.0
 20
0.0
 30
0.0
 75
     0
  1
AcDbOsnapPointRef
 72
    13
331
430
 73
     0
 91
        0
 40
0.0
 10
0.0
 20
0.0
 30
2.000000000000000E+50
 75
     0
  0
DIMASSOC
  5
6BF
102
{ACAD_REACTORS
330
6BE
102
}
330
6BE
100
AcDbDimAssoc
330
6B1
 90
        3
 70
     0
 71
     0
  1
AcDbOsnapPointRef
 72
    13
331
46D
 73
     0
 91
        0
 40
0.0
 10
0.0
 20
0.0
 30
2.000000000000000E+50
 75
     0
  1
AcDbOsnapPointRef
 72
     1
331
49D
 73
     0
 91
        0
 40
0.0
 10
0.0
 20
0.0
 30
2.000000000000000E+50
 75
     0
  0
DIMASSOC
  5
727
102
{ACAD_REACTORS
330
726
102
}
330
726
100
AcDbDimAssoc
330
719
 90
        3
 70
     0
 71
     0
  1
AcDbOsnapPointRef
 72
     1
331
596
 73
     0
 91
        0
 40
0.0
 10
0.0
 20
0.0
 30
2.000000000000000E+50
 75
     0
  1
AcDbOsnapPointRef
 72
     6
331
587
 73
     0
 91
        0
 40
6.283185307179586
 10
0.0
 20
0.0
 30
0.0
332
58B
 74
     0
 92
        0
 75
     0
  0
DIMASSOC
  5
8B2
102
{ACAD_REACTORS
330
8B1
102
}
330
8B1
100
AcDbDimAssoc
330
8A4
 90
        3
 70
     0
 71
     0
  1
AcDbOsnapPointRef
 72
     1
331
420
 73
     0
 91
        0
 40
0.0
 10
0.0
 20
0.0
 30
2.000000000000000E+50
 75
     0
  1
AcDbOsnapPointRef
 72
     1
331
426
 73
     0
 91
        0
 40
0.0
 10
0.0
 20
0.0
 30
2.000000000000000E+50
 75
     0
  0
DIMASSOC
  5
905
102
{ACAD_REACTORS
330
904
102
}
330
904
100
AcDbDimAssoc
330
8F7
 90
        3
 70
     0
 71
     0
  1
AcDbOsnapPointRef
 72
     1
331
420
 73
     0
 91
        0
 40
0.0
 10
0.0
 20
0.0
 30
2.000000000000000E+50
 75
     0
  1
AcDbOsnapPointRef
 72
    13
331
42E
 73
     0
 91
        0
 40
0.0
 10
0.0
 20
0.0
 30
2.000000000000000E+50
 75
     0
  0
LAYOUT
  5
1E
102
{ACAD_XDICTIONARY
360
9B1
102
}
102
{ACAD_REACTORS
330
1A
102
}
330
1A
100
AcDbPlotSettings
  1

  2

  4

  6

 40
0.0
 41
0.0
 42
0.0
 43
0.0
 44
0.0
 45
0.0
 46
0.0
 47
0.0
 48
0.0
 49
0.0
140
0.0
141
0.0
142
1.0
143
1.0
 70
   688
 72
     0
 73
     0
 74
     5
  7

 75
    16
147
1.0
148
0.0
149
0.0
100
AcDbLayout
  1
Layout1
 70
     1
 71
     1
 10
0.0
 20
0.0
 11
420.0
 21
297.0
 12
0.0
 22
0.0
 32
0.0
 14
1.000000000000000E+20
 24
1.000000000000000E+20
 34
1.000000000000000E+20
 15
-1.000000000000000E+20
 25
-1.000000000000000E+20
 35
-1.000000000000000E+20
146
0.0
 13
0.0
 23
0.0
 33
0.0
 16
1.0
 26
0.0
 36
0.0
 17
0.0
 27
1.0
 37
0.0
 76
     0
330
1B
  0
LAYOUT
  5
26
102
{ACAD_XDICTIONARY
360
9B5
102
}
102
{ACAD_REACTORS
330
1A
102
}
330
1A
100
AcDbPlotSettings
  1

  2

  4

  6

 40
0.0
 41
0.0
 42
0.0
 43
0.0
 44
0.0
 45
0.0
 46
0.0
 47
0.0
 48
0.0
 49
0.0
140
0.0
141
0.0
142
1.0
143
1.0
 70
   688
 72
     0
 73
     0
 74
     5
  7

 75
    16
147
1.0
148
0.0
149
0.0
100
AcDbLayout
  1
Layout2
 70
     1
 71
     2
 10
0.0
 20
0.0
 11
12.0
 21
9.0
 12
0.0
 22
0.0
 32
0.0
 14
0.0
 24
0.0
 34
0.0
 15
0.0
 25
0.0
 35
0.0
146
0.0
 13
0.0
 23
0.0
 33
0.0
 16
1.0
 26
0.0
 36
0.0
 17
0.0
 27
1.0
 37
0.0
 76
     0
330
23
  0
LAYOUT
  5
22
102
{ACAD_XDICTIONARY
360
9B3
102
}
102
{ACAD_REACTORS
330
1A
102
}
330
1A
100
AcDbPlotSettings
  1

  2

  4

  6

 40
0.0
 41
0.0
 42
0.0
 43
0.0
 44
0.0
 45
0.0
 46
0.0
 47
0.0
 48
0.0
 49
0.0
140
0.0
141
0.0
142
1.0
143
1.0
 70
  1712
 72
     0
 73
     0
 74
     0
  7

 75
     0
147
1.0
148
0.0
149
0.0
100
AcDbLayout
  1
Model
 70
     1
 71
     0
 10
0.0
 20
0.0
 11
12.0
 21
9.0
 12
0.0
 22
0.0
 32
0.0
 14
0.0
 24
0.0
 34
0.0
 15
0.0
 25
0.0
 35
0.0
146
0.0
 13
0.0
 23
0.0
 33
0.0
 16
1.0
 26
0.0
 36
0.0
 17
0.0
 27
1.0
 37
0.0
 76
     0
330
1F
  0
MLINESTYLE
  5
18
102
{ACAD_REACTORS
330
17
102
}
330
17
100
AcDbMlineStyle
  2
STANDARD
 70
     0
  3

 62
   256
 51
90.0
 52
90.0
 71
     2
 49
0.5
 62
   256
  6
BYLAYER
 49
-0.5
 62
   256
  6
BYLAYER
  0
ACDBPLACEHOLDER
  5
F
102
{ACAD_REACTORS
330
E
102
}
330
E
  0
TABLESTYLE
  5
11B
102
{ACAD_REACTORS
330
11A
102
}
330
11A
100
AcDbTableStyle
  3
Standard
 70
     0
 71
     0
 40
1.5
 41
1.5
280
     0
281
     0
  7
STANDARD
140
4.5
170
     2
 62
     0
 63
     7
283
     0
274
    -2
284
     1
 64
     0
275
    -2
285
     1
 65
     0
276
    -2
286
     1
 66
     0
277
    -2
287
     1
 67
     0
278
    -2
288
     1
 68
     0
279
    -2
289
     1
 69
     0
  7
STANDARD
140
6.0
170
     5
 62
     0
 63
     7
283
     0
274
    -2
284
     1
 64
     0
275
    -2
285
     1
 65
     0
276
    -2
286
     1
 66
     0
277
    -2
287
     1
 67
     0
278
    -2
288
     1
 68
     0
279
    -2
289
     1
 69
     0
  7
STANDARD
140
4.5
170
     5
 62
     0
 63
     7
283
     0
274
    -2
284
     1
 64
     0
275
    -2
285
     1
 65
     0
276
    -2
286
     1
 66
     0
277
    -2
287
     1
 67
     0
278
    -2
288
     1
 68
     0
279
    -2
289
     1
 69
     0
  0
DICTIONARYVAR
  5
138
102
{ACAD_REACTORS
330
94
102
}
330
94
100
DictionaryVariables
280
     0
  1
STANDARD
  0
DICTIONARYVAR
  5
96
102
{ACAD_REACTORS
330
94
102
}
330
94
100
DictionaryVariables
280
     0
  1
2
  0
DICTIONARYVAR
  5
95
102
{ACAD_REACTORS
330
94
102
}
330
94
100
DictionaryVariables
280
     0
  1
0
  0
DICTIONARYVAR
  5
9AD
102
{ACAD_REACTORS
330
94
102
}
330
94
100
DictionaryVariables
280
     0
  1

  0
DICTIONARY
  5
272
102
{ACAD_REACTORS
330
5B
102
}
330
5B
100
AcDbDictionary
281
     1
  0
DICTIONARY
  5
61
102
{ACAD_REACTORS
330
5B
102
}
330
5B
100
AcDbDictionary
281
     1
  0
XRECORD
  5
123
102
{ACAD_REACTORS
330
5B
102
}
330
5B
100
AcDbXrecord
280
     1
 90
-1023410169
  0
DICTIONARY
  5
9B1
330
1E
100
AcDbDictionary
280
     1
281
     1
  3
ACAD_XREC_ROUNDTRIP
360
9B2
  0
DICTIONARY
  5
9B5
330
26
100
AcDbDictionary
280
     1
281
     1
  3
ACAD_XREC_ROUNDTRIP
360
9B6
  0
DICTIONARY
  5
9B3
330
22
100
AcDbDictionary
280
     1
281
     1
  3
ACAD_XREC_ROUNDTRIP
360
9B4
  0
XRECORD
  5
9B2
102
{ACAD_REACTORS
330
9B1
102
}
330
9B1
100
AcDbXrecord
280
     1
102
SHADEPLOT
 70
     0
102
SHADEPLOTRESLEVEL
 70
     2
102
SHADEPLOTCUSTOMDPI
 70
   300
  0
XRECORD
  5
9B6
102
{ACAD_REACTORS
330
9B5
102
}
330
9B5
100
AcDbXrecord
280
     1
102
SHADEPLOT
 70
     0
102
SHADEPLOTRESLEVEL
 70
     2
102
SHADEPLOTCUSTOMDPI
 70
   300
  0
XRECORD
  5
9B4
102
{ACAD_REACTORS
330
9B3
102
}
330
9B3
100
AcDbXrecord
280
     1
102
SHADEPLOT
 70
     0
102
SHADEPLOTRESLEVEL
 70
     2
102
SHADEPLOTCUSTOMDPI
 70
   300
  0
ENDSEC
  0
EOF
