  0
SECTION
  2
HEADER
  9
$ACADVER
  1
AC1015
  9
$ACADMAINTVER
 70
    20
  9
$DWGCODEPAGE
  3
ANSI_1252
  9
$INSBASE
 10
0.0
 20
0.0
 30
0.0
  9
$EXTMIN
 10
107.9100608569351
 20
436.4049090943356
 30
-0.0015258207003583
  9
$EXTMAX
 10
289.0525857558682
 20
560.3587659806464
 30
0.0000000349246037
  9
$LIMMIN
 10
0.0
 20
0.0
  9
$LIMMAX
 10
12.0
 20
9.0
  9
$ORTHOMODE
 70
     0
  9
$REGENMODE
 70
     1
  9
$FILLMODE
 70
     1
  9
$QTEXTMODE
 70
     0
  9
$MIRRTEXT
 70
     0
  9
$LTSCALE
 40
2.0
  9
$ATTMODE
 70
     1
  9
$TEXTSIZE
 40
10.0
  9
$TRACEWID
 40
0.05
  9
$TEXTSTYLE
  7
STANDARD
  9
$CLAYER
  8
0
  9
$CELTYPE
  6
BYLAYER
  9
$CECOLOR
 62
   256
  9
$CELTSCALE
 40
1.0
  9
$DISPSILH
 70
     0
  9
$DIMSCALE
 40
2.0
  9
$DIMASZ
 40
3.5
  9
$DIMEXO
 40
0.0
  9
$DIMDLI
 40
0.38
  9
$DIMRND
 40
0.0
  9
$DIMDLE
 40
0.0
  9
$DIMEXE
 40
3.5
  9
$DIMTP
 40
0.0
  9
$DIMTM
 40
0.0
  9
$DIMTXT
 40
3.5
  9
$DIMCEN
 40
1.75
  9
$DIMTSZ
 40
0.0
  9
$DIMTOL
 70
     0
  9
$DIMLIM
 70
     0
  9
$DIMTIH
 70
     0
  9
$DIMTOH
 70
     0
  9
$DIMSE1
 70
     0
  9
$DIMSE2
 70
     0
  9
$DIMTAD
 70
     1
  9
$DIMZIN
 70
    12
  9
$DIMBLK
  1

  9
$DIMASO
 70
     1
  9
$DIMSHO
 70
     1
  9
$DIMPOST
  1

  9
$DIMAPOST
  1

  9
$DIMALT
 70
     0
  9
$DIMALTD
 70
     2
  9
$DIMALTF
 40
25.4
  9
$DIMLFAC
 40
1.0
  9
$DIMTOFL
 70
     0
  9
$DIMTVP
 40
0.0
  9
$DIMTIX
 70
     0
  9
$DIMSOXD
 70
     0
  9
$DIMSAH
 70
     0
  9
$DIMBLK1
  1

  9
$DIMBLK2
  1

  9
$DIMSTYLE
  2
GEN-ISO
  9
$DIMCLRD
 70
   256
  9
$DIMCLRE
 70
   256
  9
$DIMCLRT
 70
   256
  9
$DIMTFAC
 40
1.0
  9
$DIMGAP
 40
0.0
  9
$DIMJUST
 70
     0
  9
$DIMSD1
 70
     0
  9
$DIMSD2
 70
     0
  9
$DIMTOLJ
 70
     1
  9
$DIMTZIN
 70
     0
  9
$DIMALTZ
 70
     0
  9
$DIMALTTZ
 70
     0
  9
$DIMUPT
 70
     0
  9
$DIMDEC
 70
     2
  9
$DIMTDEC
 70
     2
  9
$DIMALTU
 70
     2
  9
$DIMALTTD
 70
     2
  9
$DIMTXSTY
  7
STANDARD
  9
$DIMAUNIT
 70
     0
  9
$DIMADEC
 70
     0
  9
$DIMALTRND
 40
0.0
  9
$DIMAZIN
 70
     0
  9
$DIMDSEP
 70
    46
  9
$DIMATFIT
 70
     3
  9
$DIMFRAC
 70
     0
  9
$DIMLDRBLK
  1

  9
$DIMLUNIT
 70
     2
  9
$DIMLWD
 70
    -2
  9
$DIMLWE
 70
    -2
  9
$DIMTMOVE
 70
     0
  9
$LUNITS
 70
     2
  9
$LUPREC
 70
     2
  9
$SKETCHINC
 40
0.1
  9
$FILLETRAD
 40
0.0
  9
$AUNITS
 70
     0
  9
$AUPREC
 70
     2
  9
$MENU
  1
.
  9
$ELEVATION
 40
0.0
  9
$PELEVATION
 40
0.0
  9
$THICKNESS
 40
0.0
  9
$LIMCHECK
 70
     0
  9
$CHAMFERA
 40
0.0
  9
$CHAMFERB
 40
0.0
  9
$CHAMFERC
 40
0.0
  9
$CHAMFERD
 40
0.0
  9
$SKPOLY
 70
     0
  9
$TDCREATE
 40
2444972.041666667
  9
$TDUCREATE
 40
2444972.000000000
  9
$TDUPDATE
 40
2454041.784562905
  9
$TDUUPDATE
 40
2454041.742896238
  9
$TDINDWG
 40
0.0012515856
  9
$TDUSRTIMER
 40
0.0012515856
  9
$USRTIMER
 70
     1
  9
$ANGBASE
 50
0.0
  9
$ANGDIR
 70
     0
  9
$PDMODE
 70
     0
  9
$PDSIZE
 40
0.0
  9
$PLINEWID
 40
0.0
  9
$SPLFRAME
 70
     0
  9
$SPLINETYPE
 70
     6
  9
$SPLINESEGS
 70
     8
  9
$HANDSEED
  5
13AC
  9
$SURFTAB1
 70
     6
  9
$SURFTAB2
 70
     6
  9
$SURFTYPE
 70
     6
  9
$SURFU
 70
     6
  9
$SURFV
 70
     6
  9
$UCSBASE
  2

  9
$UCSNAME
  2

  9
$UCSORG
 10
0.0
 20
0.0
 30
0.0
  9
$UCSXDIR
 10
1.0
 20
0.0
 30
0.0
  9
$UCSYDIR
 10
0.0
 20
1.0
 30
0.0
  9
$UCSORTHOREF
  2

  9
$UCSORTHOVIEW
 70
     0
  9
$UCSORGTOP
 10
0.0
 20
0.0
 30
0.0
  9
$UCSORGBOTTOM
 10
0.0
 20
0.0
 30
0.0
  9
$UCSORGLEFT
 10
0.0
 20
0.0
 30
0.0
  9
$UCSORGRIGHT
 10
0.0
 20
0.0
 30
0.0
  9
$UCSORGFRONT
 10
0.0
 20
0.0
 30
0.0
  9
$UCSORGBACK
 10
0.0
 20
0.0
 30
0.0
  9
$PUCSBASE
  2

  9
$PUCSNAME
  2

  9
$PUCSORG
 10
0.0
 20
0.0
 30
0.0
  9
$PUCSXDIR
 10
1.0
 20
0.0
 30
0.0
  9
$PUCSYDIR
 10
0.0
 20
1.0
 30
0.0
  9
$PUCSORTHOREF
  2

  9
$PUCSORTHOVIEW
 70
     0
  9
$PUCSORGTOP
 10
0.0
 20
0.0
 30
0.0
  9
$PUCSORGBOTTOM
 10
0.0
 20
0.0
 30
0.0
  9
$PUCSORGLEFT
 10
0.0
 20
0.0
 30
0.0
  9
$PUCSORGRIGHT
 10
0.0
 20
0.0
 30
0.0
  9
$PUCSORGFRONT
 10
0.0
 20
0.0
 30
0.0
  9
$PUCSORGBACK
 10
0.0
 20
0.0
 30
0.0
  9
$USERI1
 70
     0
  9
$USERI2
 70
     0
  9
$USERI3
 70
     0
  9
$USERI4
 70
     0
  9
$USERI5
 70
     0
  9
$USERR1
 40
0.0
  9
$USERR2
 40
0.0
  9
$USERR3
 40
0.0
  9
$USERR4
 40
0.0
  9
$USERR5
 40
0.0
  9
$WORLDVIEW
 70
     1
  9
$SHADEDGE
 70
     3
  9
$SHADEDIF
 70
    70
  9
$TILEMODE
 70
     1
  9
$MAXACTVP
 70
    48
  9
$PINSBASE
 10
0.0
 20
0.0
 30
0.0
  9
$PLIMCHECK
 70
     0
  9
$PEXTMIN
 10
0.0
 20
0.0
 30
0.0
  9
$PEXTMAX
 10
210.001
 20
297.001
 30
0.0
  9
$PLIMMIN
 10
0.0
 20
0.0
  9
$PLIMMAX
 10
210.001
 20
297.001
  9
$UNITMODE
 70
     0
  9
$VISRETAIN
 70
     1
  9
$PLINEGEN
 70
     1
  9
$PSLTSCALE
 70
     1
  9
$TREEDEPTH
 70
 -3020
  9
$CMLSTYLE
  2
STANDARD
  9
$CMLJUST
 70
     0
  9
$CMLSCALE
 40
1.0
  9
$PROXYGRAPHICS
 70
     1
  9
$MEASUREMENT
 70
     0
  9
$CELWEIGHT
370
    -1
  9
$ENDCAPS
280
     0
  9
$JOINSTYLE
280
     0
  9
$LWDISPLAY
290
     0
  9
$INSUNITS
 70
     0
  9
$HYPERLINKBASE
  1

  9
$STYLESHEET
  1

  9
$XEDIT
290
     1
  9
$CEPSNTYPE
380
     0
  9
$PSTYLEMODE
290
     1
  9
$FINGERPRINTGUID
  2
{237847AD-15C8-4D01-9C50-96906A84BD7F}
  9
$VERSIONGUID
  2
{E19432EB-30CD-4A34-9389-53F590E92BF1}
  9
$EXTNAMES
290
     1
  9
$PSVPSCALE
 40
0.0
  9
$OLESTARTUP
290
     0
  0
ENDSEC
  0
SECTION
  2
CLASSES
  0
CLASS
  1
ACDBDICTIONARYWDFLT
  2
AcDbDictionaryWithDefault
  3
ObjectDBX Classes
 90
        0
280
     0
281
     0
  0
CLASS
  1
TABLESTYLE
  2
AcDbTableStyle
  3
ObjectDBX Classes
 90
     2047
280
     0
281
     0
  0
CLASS
  1
ACME_DOCUMENT
  2
AcMeDbDoc
  3
AcMeServices
 90
        0
280
     0
281
     0
  0
CLASS
  1
AMGSETTINGSOBJ
  2
AmgSettingsObj
  3
"AcadM|Product Description: AutoCAD Mechanical 2000|Company: Autodesk"
 90
        0
280
     0
281
     0
  0
CLASS
  1
ACMESCOPE
  2
AcMeScope
  3
AcMeServices
 90
        0
280
     0
281
     0
  0
CLASS
  1
ACMECOMMANDHISTORY
  2
AcMeCommandHistory
  3
AcMeServices
 90
        0
280
     0
281
     0
  0
CLASS
  1
ACIMSYSVARMAN
  2
AcImSysVarManager
  3
AcMeServices
 90
        0
280
     0
281
     0
  0
CLASS
  1
ACIMINTSYSVAR
  2
AcImIntSysVar
  3
AcMeServices
 90
        0
280
     0
281
     0
  0
CLASS
  1
ACMEDRAWINGMAN
  2
AcMeDrawingMan
  3
AcMeServices
 90
        0
280
     0
281
     0
  0
CLASS
  1
ACMEVIEW
  2
AcMeView
  3
AcMeServices
 90
        0
280
     0
281
     0
  0
CLASS
  1
ACDBENTITYCACHE
  2
AcMeEntityCache
  3
AcMeServices
 90
        0
280
     0
281
     0
  0
CLASS
  1
GSMANAGER
  2
AcMeGSManager
  3
AcMeServices
 90
        0
280
     0
281
     0
  0
CLASS
  1
AMDTINTERNALREACTOR
  2
AmdtInternalReactor
  3
AcMeServices
 90
        0
280
     0
281
     0
  0
CLASS
  1
ACMESTATEMGR
  2
AcMeStateMgr
  3
AcMeServices
 90
        0
280
     0
281
     0
  0
CLASS
  1
ACGREFMASTER
  2
AcGrefMaster
  3
AcAttribServices
 90
        0
280
     0
281
     0
  0
CLASS
  1
AM_DRAWING_MGR
  2
AcDmDwgMgr
  3
AcMechDwgViewMgmt
 90
        0
280
     0
281
     0
  0
CLASS
  1
AM_DWG_DOCUMENT
  2
AcDmDwgDocument
  3
AcMechDwgViewMgmt
 90
        0
280
     0
281
     0
  0
CLASS
  1
AM_DWG_SHEET
  2
AcDmSheet
  3
AcMechDwgViewMgmt
 90
        0
280
     0
281
     0
  0
CLASS
  1
AM_VIEWDIMPARMAP
  2
AcDmViewDimParMap
  3
AcMechDwgViewMgmt
 90
        0
280
     0
281
     0
  0
CLASS
  1
ACIMREALSYSVAR
  2
AcImRealSysVar
  3
AcMeServices
 90
        0
280
     0
281
     0
  0
CLASS
  1
AM_DWGMGR_NAME
  2
AcDmDwgMgrName
  3
AcMechDwgViewMgmt
 90
        0
280
     0
281
     0
  0
CLASS
  1
ACME_DATABASE
  2
AcMeDbDatabase
  3
AcMeServices
 90
        0
280
     0
281
     0
  0
CLASS
  1
ACRFINSADJUSTERMGR
  2
AcRfInsAdjusterMgr
  3
AcMeServices
 90
        0
280
     0
281
     0
  0
CLASS
  1
ACGREFACADMASTER
  2
AcGrefacadMaster
  3
AcGrefServices
 90
        0
280
     0
281
     0
  0
CLASS
  1
AMDTMENUSTATEMGR
  2
AmdtMenuStateMgr
  3
McadcomServices
 90
        0
280
     0
281
     0
  0
CLASS
  1
AMDTMCOMMENUSTATE
  2
AmdtMcomMenuState
  3
McadcomServices
 90
        0
280
     0
281
     0
  0
CLASS
  1
AMIMASTER
  2
AmiMaster
  3
AmiServices
 90
        0
280
     0
281
     0
  0
CLASS
  1
MAPIAMMOUDLE
  2
MApiAmModule
  3
MApiAmServices
 90
        0
280
     0
281
     0
  0
CLASS
  1
ACIMSTRSYSVAR
  2
AcImStrSysVar
  3
AcMeServices
 90
        0
280
     0
281
     0
  0
CLASS
  1
AMDTADMENUSTATE
  2
AmdtAdMenuState
  3
DesignerServices
 90
        0
280
     0
281
     0
  0
CLASS
  1
ADAPPL
  2
AcAdAppl
  3
DesignerServices
 90
        0
280
     0
281
     0
  0
CLASS
  1
DEPMGR
  2
AcAdDepMgr
  3
DesignerServices
 90
        0
280
     0
281
     0
  0
CLASS
  1
PARAMMGR
  2
AcAdParamMgr
  3
DesignerServices
 90
        0
280
     0
281
     0
  0
CLASS
  1
PARAMSCOPE
  2
AcAdParamScope
  3
DesignerServices
 90
        0
280
     0
281
     0
  0
CLASS
  1
NAMEDAPPL
  2
AcAdNamedAppl
  3
DesignerServices
 90
        0
280
     0
281
     0
  0
CLASS
  1
AMDTDMMENUSTATE
  2
AmdtDmMenuState
  3
AcMechDwgViewMgmt
 90
        0
280
     0
281
     0
  0
CLASS
  1
AMDTAMMENUSTATE
  2
AmdtAmMenuState
  3
DesignerAssemblies
 90
        0
280
     0
281
     0
  0
CLASS
  1
ACAMPROJECT
  2
AcAmProject
  3
DesignerAssemblies
 90
        0
280
     0
281
     0
  0
CLASS
  1
ACAMGRCOMPDEF
  2
AcAmGrCompDef
  3
DesignerAssemblies
 90
        0
280
     0
281
     0
  0
CLASS
  1
ACCMCONTEXT
  2
AcCmContext
  3
DesignerAssemblies
 90
        0
280
     0
281
     0
  0
CLASS
  1
ACAMCOMPDEF
  2
AcAmCompDef
  3
DesignerAssemblies
 90
        0
280
     0
281
     0
  0
CLASS
  1
ACAMCOMPDEFMGR
  2
AcAmCompDefMgr
  3
DesignerAssemblies
 90
        0
280
     0
281
     0
  0
CLASS
  1
AMCONTEXTMGR
  2
AcAmContextMgr
  3
DesignerAssemblies
 90
        0
280
     0
281
     0
  0
CLASS
  1
ACAMCONTEXTMODELER
  2
AcAmContextModeler
  3
DesignerAssemblies
 90
        0
280
     0
281
     0
  0
CLASS
  1
ACMDATADICTIONARY
  2
AcmDataDictionary
  3
"AcmSymBB|Product Description: AutoCAD Mechanical 2004 DX|Company: Autodesk"
 90
        0
280
     0
281
     0
  0
CLASS
  1
CATALOGSTATE
  2
AcAmCatalogState
  3
DesignerAssemblies
 90
        0
280
     0
281
     0
  0
CLASS
  1
ACAMGRCOMPDEFSET
  2
AcAmGrCompDefSet
  3
DesignerAssemblies
 90
        0
280
     0
281
     0
  0
CLASS
  1
AMDTBROWSERDBTAB
  2
AmdtBrowserDbTab
  3
McadcomServices
 90
        0
280
     0
281
     0
  0
CLASS
  1
CBROWSERAPPOBJECT
  2
CBrowserAppObject
  3
McadcomServices
 90
        0
280
     0
281
     0
  0
CLASS
  1
DM_PLACEHOLDER
  2
AcDmSelsetPlaceholder
  3
AcMechDwgViewMgmt
 90
        0
280
     0
281
     0
  0
CLASS
  1
ACMSTANDARDANSI
  2
AcmStandardANSI
  3
"Amdt_StdImp|Product Description: AutoCAD Mechanical 2004 DX|Company: Autodesk"
 90
        0
280
     0
281
     0
  0
CLASS
  1
AMGOBJPROPCFG
  2
AmgObjPropCfg
  3
"AmgLay|Product Description: AutoCAD Mechanical 2000|Company: Autodesk"
 90
        1
280
     0
281
     0
  0
CLASS
  1
ACMSURFSTANDARDANSI
  2
AcmSurfTextStdANSI
  3
"Amdt_StdImp|Product Description: AutoCAD Mechanical 2004 DX|Company: Autodesk"
 90
        0
280
     0
281
     0
  0
CLASS
  1
ACMFCFSTANDARDANSI
  2
AcmFCFStdANSI
  3
"Amdt_StdImp|Product Description: AutoCAD Mechanical 2004 DX|Company: Autodesk"
 90
        0
280
     0
281
     0
  0
CLASS
  1
ACMWELDSTANDARDANSI
  2
AcmWeldingStdANSI
  3
"Amdt_StdImp|Product Description: AutoCAD Mechanical 2004 DX|Company: Autodesk"
 90
        0
280
     0
281
     0
  0
CLASS
  1
ACMIDSTANDARDANSI
  2
AcmIdStdANSI
  3
"Amdt_StdImp|Product Description: AutoCAD Mechanical 2004 DX|Company: Autodesk"
 90
        0
280
     0
281
     0
  0
CLASS
  1
ACMDATUMSTANDARDANSI
  2
AcmDatumStdANSI
  3
"Amdt_StdImp|Product Description: AutoCAD Mechanical 2004 DX|Company: Autodesk"
 90
        0
280
     0
281
     0
  0
CLASS
  1
ACMBOMSTANDARDANSI
  2
AcmBOMStdANSI
  3
"Amdt_StdImp|Product Description: AutoCAD Mechanical 2004 DX|Company: Autodesk"
 90
        0
280
     0
281
     0
  0
CLASS
  1
ACMDETAILSTANDARDANSI
  2
AmdtDetailSymStdANSI
  3
"Amdt_StdImp|Product Description: AutoCAD Mechanical 2004 DX|Company: Autodesk"
 90
        0
280
     0
281
     0
  0
CLASS
  1
ACMSECTIONSTANDARDANSI
  2
AmdtSectionSymStdANSI
  3
"Amdt_StdImp|Product Description: AutoCAD Mechanical 2004 DX|Company: Autodesk"
 90
        0
280
     0
281
     0
  0
CLASS
  1
ACMCENTERLINESTANDARDANSI
  2
AmdtCenterLineStdANSI
  3
"Amdt_StdImp|Product Description: AutoCAD Mechanical 2004 DX|Company: Autodesk"
 90
        0
280
     0
281
     0
  0
CLASS
  1
ACMTHREADLINESTANDARDANSI
  2
AmdtThreadLineStdANSI
  3
"Amdt_StdImp|Product Description: AutoCAD Mechanical 2004 DX|Company: Autodesk"
 90
        0
280
     0
281
     0
  0
CLASS
  1
ACMNOTESTANDARDANSI
  2
AmdtNoteStdANSI
  3
"Amdt_StdImp|Product Description: AutoCAD Mechanical 2004 DX|Company: Autodesk"
 90
        0
280
     0
281
     0
  0
CLASS
  1
AMDTNOTETEMPLATEDB
  2
AmdtNoteTemplateDB
  3
AMDT_STDIMP_MODULE_NAME
 90
        0
280
     0
281
     0
  0
CLASS
  1
ACAMGLAYSTD
  2
AcAmgLayStd
  3
"AcAmgLayStd|Product Description: AutoCAD Mechanical 2000|Company: Autodesk"
 90
        0
280
     0
281
     0
  0
CLASS
  1
ACAMGDIMSTD
  2
AcAmgDimStd
  3
"AcAmgDimStd|Product Description: AutoCAD Mechanical 2000|Company: Autodesk"
 90
        0
280
     0
281
     0
  0
CLASS
  1
ACAMGHOLECHARTSTDANSI
  2
AcAmgHoleChartStdANSI
  3
ACMSYMBB_MODULE_NAME
 90
        0
280
     0
281
     0
  0
CLASS
  1
ACAMGTITLESTD
  2
AcAmgTitleStd
  3
"TITLEAPP"
 90
        0
280
     0
281
     0
  0
CLASS
  1
ACAMGFILTERDAT
  2
AcAmgFilterDat
  3
"AcadM|Product Description: AutoCAD Mechanical 2000|Company: Autodesk"
 90
        0
280
     0
281
     0
  0
CLASS
  1
DICTIONARYVAR
  2
AcDbDictionaryVar
  3
ObjectDBX Classes
 90
        0
280
     0
281
     0
  0
CLASS
  1
ACDBPLACEHOLDER
  2
AcDbPlaceHolder
  3
ObjectDBX Classes
 90
        0
280
     0
281
     0
  0
CLASS
  1
LAYOUT
  2
AcDbLayout
  3
ObjectDBX Classes
 90
        0
280
     0
281
     0
  0
ENDSEC
  0
SECTION
  2
TABLES
  0
TABLE
  2
VPORT
  5
12A3
330
0
100
AcDbSymbolTable
 70
     8
  0
VPORT
  5
13A6
330
12A3
100
AcDbSymbolTableRecord
100
AcDbViewportTableRecord
  2
*Active
 70
     0
 10
0.0
 20
0.0
 11
1.0
 21
1.0
 12
203.0412738645416
 22
507.0595759135995
 13
0.0
 23
0.0
 14
1.0
 24
1.0
 15
0.0
 25
0.0
 16
0.0
 26
0.0
 36
1.0
 17
0.0
 27
0.0
 37
0.0
 40
196.2167911250424
 41
1.494545454545454
 42
50.0
 43
0.0
 44
0.0
 50
0.0
 51
0.0
 71
     0
 72
  1000
 73
     1
 74
     1
 75
     0
 76
     0
 77
     0
 78
     0
281
     0
 65
     1
110
0.0
120
0.0
130
0.0
111
1.0
121
0.0
131
0.0
112
0.0
122
1.0
132
0.0
 79
     0
146
0.0
  0
ENDTAB
  0
TABLE
  2
LTYPE
  5
12A0
330
0
100
AcDbSymbolTable
 70
    21
  0
LTYPE
  5
12AD
330
12A0
100
AcDbSymbolTableRecord
100
AcDbLinetypeTableRecord
  2
BYBLOCK
 70
     0
  3

 72
    65
 73
     0
 40
0.0
  0
LTYPE
  5
12AE
330
12A0
100
AcDbSymbolTableRecord
100
AcDbLinetypeTableRecord
  2
BYLAYER
 70
     0
  3

 72
    65
 73
     0
 40
0.0
  0
LTYPE
  5
12AF
330
12A0
100
AcDbSymbolTableRecord
100
AcDbLinetypeTableRecord
  2
CONTINUOUS
 70
     0
  3
Solid line
 72
    65
 73
     0
 40
0.0
  0
LTYPE
  5
12BB
330
12A0
100
AcDbSymbolTableRecord
100
AcDbLinetypeTableRecord
  2
GEN3
 70
     0
  3
_ _ _ _ _ _ _ _ _ _ _ _ _ _ _ _ _ _ _ _ _ _ _ _ _ _ _ _ _ _ _
 72
    65
 73
     3
 40
3.0
 49
0.0
 74
     0
 49
2.0
 74
     0
 49
-1.0
 74
     0
  0
LTYPE
  5
12BE
330
12A0
100
AcDbSymbolTableRecord
100
AcDbLinetypeTableRecord
  2
GEN7
 70
     0
  3
____ _ ____ _ ____ _ ____ _ ____ _ ____ _ ____ _ ____ _ ____ _
 72
    65
 73
     4
 40
22.0
 49
10.75
 74
     0
 49
-3.75
 74
     0
 49
3.75
 74
     0
 49
-3.75
 74
     0
  0
LTYPE
  5
131A
330
12A0
100
AcDbSymbolTableRecord
100
AcDbLinetypeTableRecord
  2
HIDDEN
 70
     0
  3
Verdeckt
 72
    65
 73
     2
 40
0.375
 49
0.25
 74
     0
 49
-0.125
 74
     0
  0
LTYPE
  5
131B
330
12A0
100
AcDbSymbolTableRecord
100
AcDbLinetypeTableRecord
  2
PHANTOM2
 70
     0
  3
Phantom (.5x) ___ _ _ ___ _ _ ___ _ _ ___ _ _
 72
    65
 73
     6
 40
1.25
 49
0.625
 74
     0
 49
-0.125
 74
     0
 49
0.125
 74
     0
 49
-0.125
 74
     0
 49
0.125
 74
     0
 49
-0.125
 74
     0
  0
LTYPE
  5
131C
330
12A0
100
AcDbSymbolTableRecord
100
AcDbLinetypeTableRecord
  2
CENTER
 70
     0
  3
Mitte ____ _ ____ _ ____ _ ____ _ ____ _ ____
 72
    65
 73
     4
 40
2.0
 49
1.25
 74
     0
 49
-0.25
 74
     0
 49
0.25
 74
     0
 49
-0.25
 74
     0
  0
LTYPE
  5
1353
330
12A0
100
AcDbSymbolTableRecord
100
AcDbLinetypeTableRecord
  2
Amconstr
 70
     0
  3
_______________________
 72
    65
 73
     2
 40
9999.0
 49
9999.0
 74
     0
 49
0.0
 74
     0
  0
LTYPE
  5
1359
330
12A0
100
AcDbSymbolTableRecord
100
AcDbLinetypeTableRecord
  2
CENTER2
 70
     0
  3
Center (.5x) ___ _ ___ _ ___ _ ___ _ ___ _ ___
 72
    65
 73
     4
 40
1.125
 49
0.75
 74
     0
 49
-0.125
 74
     0
 49
0.125
 74
     0
 49
-0.125
 74
     0
  0
LTYPE
  5
135A
330
12A0
100
AcDbSymbolTableRecord
100
AcDbLinetypeTableRecord
  2
HIDDEN2
 70
     0
  3
Hidden (.5x) _ _ _ _ _ _ _ _ _ _ _ _ _ _ _ _ _
 72
    65
 73
     2
 40
0.1875
 49
0.125
 74
     0
 49
-0.0625
 74
     0
  0
LTYPE
  5
135B
330
12A0
100
AcDbSymbolTableRecord
100
AcDbLinetypeTableRecord
  2
Amzigzag2
 70
     0
  3
/\/-/\/-/\/-/\/-/\/-/\/
 72
    65
 73
     2
 40
0.4401
 49
0.0001
 74
     4
 75
   136
340
1357
 46
0.0016
 50
0.0
 44
0.0
 45
0.0
 49
-0.4400000000000001
 74
     0
  0
LTYPE
  5
1369
330
12A0
100
AcDbSymbolTableRecord
100
AcDbLinetypeTableRecord
  2
ACANSTGB
 70
     0
  3
__ . . __ . .
 72
    65
 73
     6
 40
0.35433070866
 49
0.15748031496
 74
     0
 49
-0.03937007874
 74
     0
 49
0.03937007874
 74
     0
 49
-0.03937007874
 74
     0
 49
0.03937007874
 74
     0
 49
-0.03937007874
 74
     0
  0
LTYPE
  5
136A
330
12A0
100
AcDbSymbolTableRecord
100
AcDbLinetypeTableRecord
  2
ACANSTGL
 70
     0
  3
_ _ _ _ _
 72
    65
 73
     2
 40
0.11811023622
 49
0.07874015748
 74
     0
 49
-0.03937007874
 74
     0
  0
ENDTAB
  0
TABLE
  2
LAYER
  5
129D
330
0
100
AcDbSymbolTable
 70
    15
  0
LAYER
  5
12A9
330
129D
100
AcDbSymbolTableRecord
100
AcDbLayerTableRecord
  2
0
 70
     0
 62
     7
  6
CONTINUOUS
370
    -3
390
12DB
  0
LAYER
  5
12C3
330
129D
100
AcDbSymbolTableRecord
100
AcDbLayerTableRecord
  2
3A
 70
     0
 62
     6
  6
GEN3
370
    -3
390
12DB
  0
LAYER
  5
12C4
330
129D
100
AcDbSymbolTableRecord
100
AcDbLayerTableRecord
  2
4
 70
     0
 62
     3
  6
CONTINUOUS
370
    -3
390
12DB
  0
LAYER
  5
12C6
330
129D
100
AcDbSymbolTableRecord
100
AcDbLayerTableRecord
  2
5
 70
     0
 62
     3
  6
CONTINUOUS
370
    -3
390
12DB
  0
LAYER
  5
12C7
330
129D
100
AcDbSymbolTableRecord
100
AcDbLayerTableRecord
  2
6
 70
     0
 62
     2
  6
CONTINUOUS
370
    -3
390
12DB
  0
LAYER
  5
12C8
330
129D
100
AcDbSymbolTableRecord
100
AcDbLayerTableRecord
  2
7
 70
     0
 62
     4
  6
GEN7
370
    -3
390
12DB
  0
LAYER
  5
12C9
330
129D
100
AcDbSymbolTableRecord
100
AcDbLayerTableRecord
  2
8
 70
     0
 62
     1
  6
CONTINUOUS
370
    -3
390
12DB
  0
LAYER
  5
12CC
330
129D
100
AcDbSymbolTableRecord
100
AcDbLayerTableRecord
  2
SCHRAFFUR_RAND
 70
     0
 62
     1
  6
CONTINUOUS
370
    -3
390
12DB
  0
ENDTAB
  0
TABLE
  2
STYLE
  5
129E
330
0
100
AcDbSymbolTable
 70
     5
  0
STYLE
  5
12AA
330
129E
100
AcDbSymbolTableRecord
100
AcDbTextStyleTableRecord
  2
STANDARD
 70
     0
 40
0.0
 41
1.0
 50
0.0
 71
     0
 42
10.0
  3
isocp
  4

  0
STYLE
  5
1357
330
129E
100
AcDbSymbolTableRecord
100
AcDbTextStyleTableRecord
  2

 70
     1
 40
0.0
 41
1.0
 50
0.0
 71
     0
 42
0.2
  3
genltshp.shx
  4

  0
STYLE
  5
135C
330
129E
100
AcDbSymbolTableRecord
100
AcDbTextStyleTableRecord
  2
ACANSTS
 70
     0
 40
1.0
 41
1.0
 50
0.0
 71
     0
 42
0.2
  3
romans.shx
  4

  0
STYLE
  5
1368
330
129E
100
AcDbSymbolTableRecord
100
AcDbTextStyleTableRecord
  2
ACANSGDT
 70
     0
 40
0.0
 41
1.0
 50
0.0
 71
     0
 42
0.2
  3
AMGDT
  4

  0
ENDTAB
  0
TABLE
  2
VIEW
  5
12A1
330
0
100
AcDbSymbolTable
 70
     0
  0
ENDTAB
  0
TABLE
  2
UCS
  5
12A2
330
0
100
AcDbSymbolTable
 70
     0
  0
ENDTAB
  0
TABLE
  2
APPID
  5
12A4
330
0
100
AcDbSymbolTable
 70
    10
  0
APPID
  5
12AB
330
12A4
100
AcDbSymbolTableRecord
100
AcDbRegAppTableRecord
  2
ACAD
 70
     0
  0
APPID
  5
12ED
330
12A4
100
AcDbSymbolTableRecord
100
AcDbRegAppTableRecord
  2
MCAD_NO_VIS
 70
     0
  0
APPID
  5
12EE
330
12A4
100
AcDbSymbolTableRecord
100
AcDbRegAppTableRecord
  2
ACAD_TEMP_GRAPHIC
 70
     0
  0
APPID
  5
131E
330
12A4
100
AcDbSymbolTableRecord
100
AcDbRegAppTableRecord
  2
AD_DRAW
 70
     0
  0
APPID
  5
1321
330
12A4
100
AcDbSymbolTableRecord
100
AcDbRegAppTableRecord
  2
ACATTRIBSERVICES
 70
     0
  0
APPID
  5
1341
330
12A4
100
AcDbSymbolTableRecord
100
AcDbRegAppTableRecord
  2
DESIGNERASSEMBLIES
 70
     0
  0
APPID
  5
1347
330
12A4
100
AcDbSymbolTableRecord
100
AcDbRegAppTableRecord
  2
ACADM_DIM_EDIT
 70
     0
  0
APPID
  5
1348
330
12A4
100
AcDbSymbolTableRecord
100
AcDbRegAppTableRecord
  2
AMDT_DM_ADJ
 70
     0
  0
APPID
  5
1376
330
12A4
100
AcDbSymbolTableRecord
100
AcDbRegAppTableRecord
  2
ACAD_DSTYLE_DIMARC_LENGTH_SYMBOL
 70
     0
  0
APPID
  5
1377
330
12A4
100
AcDbSymbolTableRecord
100
AcDbRegAppTableRecord
  2
ACAD_DSTYLE_DIMJOGGED_JOGANGLE_SYMBOL
 70
     0
  0
ENDTAB
  0
TABLE
  2
DIMSTYLE
  5
12A5
330
0
100
AcDbSymbolTable
 70
     7
100
AcDbDimStyleTable
 71
     0
  0
DIMSTYLE
105
12CE
102
{ACAD_REACTORS
330
111D
330
1133
330
113D
102
}
330
12A5
100
AcDbSymbolTableRecord
100
AcDbDimStyleTableRecord
  2
GEN-ISO
 70
     0
 40
2.0
 41
3.5
 42
1.0
 43
8.0
 44
2.0
 47
0.1
 48
0.1
 73
     0
 74
     0
 77
     1
 78
     8
140
3.5
141
2.0
146
0.71
147
1.5
172
     1
176
   256
177
   256
178
     2
271
     2
272
     2
340
12AA
  0
DIMSTYLE
105
1375
330
12A5
100
AcDbSymbolTableRecord
100
AcDbDimStyleTableRecord
  2
AM_ANSI
 70
     0
  4
mm
 41
0.1
 42
0.05
 43
0.5
 44
0.1
 47
0.1
 48
0.1
 78
     7
 79
     2
140
0.12
141
0.0
146
0.71
147
0.06
176
   256
177
   256
178
     2
274
     4
284
     7
340
12AA
371
    -1
372
    -1
1001
ACAD_DSTYLE_DIMARC_LENGTH_SYMBOL
1070
   379
1070
     1
1001
ACAD_DSTYLE_DIMJOGGED_JOGANGLE_SYMBOL
1070
   384
1040
0.7853981633974483
  0
DIMSTYLE
105
137E
330
12A5
100
AcDbSymbolTableRecord
100
AcDbDimStyleTableRecord
  2
AM_ANSI$3
 70
     0
  4
mm
 41
0.1
 42
0.05
 43
0.5
 44
0.1
 47
0.1
 48
0.1
 78
     7
 79
     2
140
0.12
141
0.0
146
0.71
147
0.06
176
   256
177
   256
178
     2
274
     4
284
     7
288
     1
289
     0
340
12AA
371
    -1
372
    -1
1001
ACAD_DSTYLE_DIMARC_LENGTH_SYMBOL
1070
   379
1070
     1
1001
ACAD_DSTYLE_DIMJOGGED_JOGANGLE_SYMBOL
1070
   384
1040
0.7853981633974483
  0
DIMSTYLE
105
1381
330
12A5
100
AcDbSymbolTableRecord
100
AcDbDimStyleTableRecord
  2
AM_ANSI$4
 70
     0
  4
mm
 41
0.1
 42
0.05
 43
0.5
 44
0.1
 47
0.1
 48
0.1
 78
     7
 79
     2
140
0.12
141
0.0
146
0.71
147
0.06
176
   256
177
   256
178
     2
274
     4
284
     7
288
     1
289
     0
340
12AA
371
    -1
372
    -1
1001
ACAD_DSTYLE_DIMARC_LENGTH_SYMBOL
1070
   379
1070
     1
1001
ACAD_DSTYLE_DIMJOGGED_JOGANGLE_SYMBOL
1070
   384
1040
0.7853981633974483
  0
DIMSTYLE
105
1386
330
12A5
100
AcDbSymbolTableRecord
100
AcDbDimStyleTableRecord
  2
AM_ANSI$7
 70
     0
  4
mm
 41
0.1
 42
0.05
 43
0.5
 44
0.1
 47
0.1
 48
0.1
 78
     7
 79
     2
140
0.24
141
0.0
146
0.71
147
0.06
176
   256
177
   256
178
     2
274
     4
284
     7
340
12AA
371
    -1
372
    -1
1001
ACAD_DSTYLE_DIMARC_LENGTH_SYMBOL
1070
   379
1070
     1
1001
ACAD_DSTYLE_DIMJOGGED_JOGANGLE_SYMBOL
1070
   384
1040
0.7853981633974483
  0
DIMSTYLE
105
1389
330
12A5
100
AcDbSymbolTableRecord
100
AcDbDimStyleTableRecord
  2
AM_ANSI$SF
 70
     0
  4
mm
 41
0.1
 42
0.05
 43
0.5
 44
0.1
 47
0.1
 48
0.1
 75
     1
 76
     1
 78
     7
 79
     2
140
0.12
141
0.0
146
0.71
147
0.06
176
   256
177
   256
178
     2
274
     4
284
     7
340
12AA
371
    -1
372
    -1
1001
ACAD_DSTYLE_DIMARC_LENGTH_SYMBOL
1070
   379
1070
     1
1001
ACAD_DSTYLE_DIMJOGGED_JOGANGLE_SYMBOL
1070
   384
1040
0.7853981633974483
  0
DIMSTYLE
105
1390
330
12A5
100
AcDbSymbolTableRecord
100
AcDbDimStyleTableRecord
  2
AM_ANSI$SH
 70
     0
  4
mm
 41
0.1
 42
0.05
 43
0.5
 44
0.1
 47
0.1
 48
0.1
 75
     1
 76
     1
 78
     7
 79
     2
140
0.12
141
0.0
146
0.71
147
0.06
173
     1
176
   256
177
   256
178
     2
274
     4
284
     7
340
12AA
343
138A
371
    -1
372
    -1
1001
ACAD_DSTYLE_DIMARC_LENGTH_SYMBOL
1070
   379
1070
     1
1001
ACAD_DSTYLE_DIMJOGGED_JOGANGLE_SYMBOL
1070
   384
1040
0.7853981633974483
  0
ENDTAB
  0
TABLE
  2
BLOCK_RECORD
  5
129C
330
0
100
AcDbSymbolTable
 70
     9
  0
BLOCK_RECORD
  5
12B3
330
129C
100
AcDbSymbolTableRecord
100
AcDbBlockTableRecord
  2
*MODEL_SPACE
340
12E2
  0
BLOCK_RECORD
  5
12B0
330
129C
100
AcDbSymbolTableRecord
100
AcDbBlockTableRecord
  2
*PAPER_SPACE
340
12E3
  0
BLOCK_RECORD
  5
12D1
330
129C
100
AcDbSymbolTableRecord
100
AcDbBlockTableRecord
  2
*X0
340
0
102
{BLKREFS
331
1112
102
}
  0
BLOCK_RECORD
  5
12D2
330
129C
100
AcDbSymbolTableRecord
100
AcDbBlockTableRecord
  2
*D1
340
0
  0
BLOCK_RECORD
  5
12D4
330
129C
100
AcDbSymbolTableRecord
100
AcDbBlockTableRecord
  2
*D3
340
0
  0
BLOCK_RECORD
  5
12D5
330
129C
100
AcDbSymbolTableRecord
100
AcDbBlockTableRecord
  2
*D4
340
0
  0
BLOCK_RECORD
  5
12D6
330
129C
100
AcDbSymbolTableRecord
100
AcDbBlockTableRecord
  2
*X5
340
0
102
{BLKREFS
331
115E
102
}
  0
BLOCK_RECORD
  5
138A
330
129C
100
AcDbSymbolTableRecord
100
AcDbBlockTableRecord
  2
GENAXEH
340
0
  0
ENDTAB
  0
ENDSEC
  0
SECTION
  2
BLOCKS
  0
BLOCK
  5
12B4
330
12B3
100
AcDbEntity
  8
0
100
AcDbBlockBegin
  2
*MODEL_SPACE
 70
     0
 10
0.0
 20
0.0
 30
0.0
  3
*MODEL_SPACE
  1

  0
ENDBLK
  5
12B5
330
12B3
100
AcDbEntity
  8
0
100
AcDbBlockEnd
  0
BLOCK
  5
12B1
330
12B0
100
AcDbEntity
 67
     1
  8
0
100
AcDbBlockBegin
  2
*PAPER_SPACE
 70
     0
 10
0.0
 20
0.0
 30
0.0
  3
*PAPER_SPACE
  1

  0
ENDBLK
  5
12B2
330
12B0
100
AcDbEntity
 67
     1
  8
0
100
AcDbBlockEnd
  0
BLOCK
  5
10D4
330
12D1
100
AcDbEntity
  8
0
100
AcDbBlockBegin
  2
*X0
 70
     1
 10
0.0
 20
0.0
 30
0.0
  3
*X0
  1

  0
LINE
  5
10D5
330
12D1
100
AcDbEntity
  8
8
100
AcDbLine
 10
270.136
 20
446.4229999999999
 30
0.0
 11
271.1359999999999
 21
447.423
 31
0.0
  0
LINE
  5
10D6
330
12D1
100
AcDbEntity
  8
8
100
AcDbLine
 10
275.606
 20
451.893
 30
0.0
 11
276.663
 21
452.9499999999999
 31
0.0
  0
LINE
  5
10D7
330
12D1
100
AcDbEntity
  8
8
100
AcDbLine
 10
266.544
 20
446.4229999999999
 30
0.0
 11
267.544
 21
447.423
 31
0.0
  0
LINE
  5
10D8
330
12D1
100
AcDbEntity
  8
8
100
AcDbLine
 10
275.805
 20
455.684
 30
0.0
 11
276.862
 21
456.7409999999999
 31
0.0
  0
LINE
  5
10D9
330
12D1
100
AcDbEntity
  8
8
100
AcDbLine
 10
262.952
 20
446.4229999999999
 30
0.0
 11
263.952
 21
447.423
 31
0.0
  0
LINE
  5
10DA
330
12D1
100
AcDbEntity
  8
8
100
AcDbLine
 10
276.003
 20
459.475
 30
0.0
 11
277.06
 21
460.531
 31
0.0
  0
LINE
  5
10DB
330
12D1
100
AcDbEntity
  8
8
100
AcDbLine
 10
259.36
 20
446.4229999999999
 30
0.0
 11
260.36
 21
447.423
 31
0.0
  0
LINE
  5
10DC
330
12D1
100
AcDbEntity
  8
8
100
AcDbLine
 10
276.202
 20
463.2649999999999
 30
0.0
 11
277.259
 21
464.3219999999999
 31
0.0
  0
LINE
  5
10DD
330
12D1
100
AcDbEntity
  8
8
100
AcDbLine
 10
255.768
 20
446.4229999999999
 30
0.0
 11
256.768
 21
447.423
 31
0.0
  0
LINE
  5
10DE
330
12D1
100
AcDbEntity
  8
8
100
AcDbLine
 10
276.401
 20
467.056
 30
0.0
 11
277.458
 21
468.113
 31
0.0
  0
LINE
  5
10DF
330
12D1
100
AcDbEntity
  8
8
100
AcDbLine
 10
252.176
 20
446.4229999999999
 30
0.0
 11
253.176
 21
447.423
 31
0.0
  0
LINE
  5
10E0
330
12D1
100
AcDbEntity
  8
8
100
AcDbLine
 10
276.599
 20
470.847
 30
0.0
 11
277.656
 21
471.9039999999999
 31
0.0
  0
LINE
  5
10E1
330
12D1
100
AcDbEntity
  8
8
100
AcDbLine
 10
248.584
 20
446.4229999999999
 30
0.0
 11
249.584
 21
447.423
 31
0.0
  0
LINE
  5
10E2
330
12D1
100
AcDbEntity
  8
8
100
AcDbLine
 10
276.798
 20
474.638
 30
0.0
 11
277.855
 21
475.6949999999999
 31
0.0
  0
LINE
  5
10E3
330
12D1
100
AcDbEntity
  8
8
100
AcDbLine
 10
245.552
 20
446.984
 30
0.0
 11
246.284
 21
447.716
 31
0.0
  0
LINE
  5
10E4
330
12D1
100
AcDbEntity
  8
8
100
AcDbLine
 10
276.997
 20
478.429
 30
0.0
 11
278.054
 21
479.485
 31
0.0
  0
LINE
  5
10E5
330
12D1
100
AcDbEntity
  8
8
100
AcDbLine
 10
285.991
 20
487.4229999999999
 30
0.0
 11
286.991
 21
488.423
 31
0.0
  0
LINE
  5
10E6
330
12D1
100
AcDbEntity
  8
8
100
AcDbLine
 10
243.277
 20
448.301
 30
0.0
 11
244.009
 21
449.033
 31
0.0
  0
LINE
  5
10E7
330
12D1
100
AcDbEntity
  8
8
100
AcDbLine
 10
277.195
 20
482.2189999999999
 30
0.0
 11
278.252
 21
483.276
 31
0.0
  0
LINE
  5
10E8
330
12D1
100
AcDbEntity
  8
8
100
AcDbLine
 10
282.399
 20
487.4229999999999
 30
0.0
 11
283.399
 21
488.423
 31
0.0
  0
LINE
  5
10E9
330
12D1
100
AcDbEntity
  8
8
100
AcDbLine
 10
241.002
 20
449.618
 30
0.0
 11
241.734
 21
450.35
 31
0.0
  0
LINE
  5
10EA
330
12D1
100
AcDbEntity
  8
8
100
AcDbLine
 10
277.933
 20
486.549
 30
0.0
 11
279.186
 21
487.8019999999999
 31
0.0
  0
LINE
  5
10EB
330
12D1
100
AcDbEntity
  8
8
100
AcDbLine
 10
238.727
 20
450.935
 30
0.0
 11
239.459
 21
451.6669999999999
 31
0.0
  0
LINE
  5
10EC
330
12D1
100
AcDbEntity
  8
8
100
AcDbLine
 10
236.452
 20
452.2519999999999
 30
0.0
 11
236.918
 21
452.718
 31
0.0
  0
LINE
  5
10ED
330
12D1
100
AcDbEntity
  8
8
100
AcDbLine
 10
234.177
 20
453.569
 30
0.0
 11
234.909
 21
454.3009999999999
 31
0.0
  0
LINE
  5
10EE
330
12D1
100
AcDbEntity
  8
8
100
AcDbLine
 10
231.902
 20
454.8869999999999
 30
0.0
 11
232.634
 21
455.618
 31
0.0
  0
LINE
  5
10EF
330
12D1
100
AcDbEntity
  8
8
100
AcDbLine
 10
229.627
 20
456.204
 30
0.0
 11
230.359
 21
456.935
 31
0.0
  0
LINE
  5
10F0
330
12D1
100
AcDbEntity
  8
8
100
AcDbLine
 10
227.255
 20
457.423
 30
0.0
 11
228.084
 21
458.253
 31
0.0
  0
LINE
  5
10F1
330
12D1
100
AcDbEntity
  8
8
100
AcDbLine
 10
223.663
 20
457.423
 30
0.0
 11
224.663
 21
458.4229999999999
 31
0.0
  0
LINE
  5
10F2
330
12D1
100
AcDbEntity
  8
8
100
AcDbLine
 10
220.07
 20
457.423
 30
0.0
 11
221.07
 21
458.4229999999999
 31
0.0
  0
LINE
  5
10F3
330
12D1
100
AcDbEntity
  8
8
100
AcDbLine
 10
216.478
 20
457.423
 30
0.0
 11
217.478
 21
458.4229999999999
 31
0.0
  0
LINE
  5
10F4
330
12D1
100
AcDbEntity
  8
8
100
AcDbLine
 10
212.886
 20
457.423
 30
0.0
 11
213.886
 21
458.4229999999999
 31
0.0
  0
LINE
  5
10F5
330
12D1
100
AcDbEntity
  8
8
100
AcDbLine
 10
209.294
 20
457.423
 30
0.0
 11
210.294
 21
458.4229999999999
 31
0.0
  0
LINE
  5
10F6
330
12D1
100
AcDbEntity
  8
8
100
AcDbLine
 10
205.702
 20
457.423
 30
0.0
 11
206.702
 21
458.4229999999999
 31
0.0
  0
LINE
  5
10F7
330
12D1
100
AcDbEntity
  8
8
100
AcDbLine
 10
202.11
 20
457.423
 30
0.0
 11
203.11
 21
458.4229999999999
 31
0.0
  0
LINE
  5
10F8
330
12D1
100
AcDbEntity
  8
8
100
AcDbLine
 10
194.389
 20
453.294
 30
0.0
 11
197.133
 21
456.0389999999999
 31
0.0
  0
LINE
  5
10F9
330
12D1
100
AcDbEntity
  8
8
100
AcDbLine
 10
185.858
 20
448.355
 30
0.0
 11
188.602
 21
451.1
 31
0.0
  0
LINE
  5
10FA
330
12D1
100
AcDbEntity
  8
8
100
AcDbLine
 10
180.334
 20
446.4229999999999
 30
0.0
 11
181.334
 21
447.423
 31
0.0
  0
LINE
  5
10FB
330
12D1
100
AcDbEntity
  8
8
100
AcDbLine
 10
176.741
 20
446.4229999999999
 30
0.0
 11
177.742
 21
447.423
 31
0.0
  0
LINE
  5
10FC
330
12D1
100
AcDbEntity
  8
8
100
AcDbLine
 10
173.149
 20
446.4229999999999
 30
0.0
 11
174.149
 21
447.423
 31
0.0
  0
LINE
  5
10FD
330
12D1
100
AcDbEntity
  8
8
100
AcDbLine
 10
169.557
 20
446.4229999999999
 30
0.0
 11
170.557
 21
447.423
 31
0.0
  0
LINE
  5
10FE
330
12D1
100
AcDbEntity
  8
8
100
AcDbLine
 10
165.965
 20
446.4229999999999
 30
0.0
 11
166.965
 21
447.423
 31
0.0
  0
LINE
  5
10FF
330
12D1
100
AcDbEntity
  8
8
100
AcDbLine
 10
162.373
 20
446.4229999999999
 30
0.0
 11
163.373
 21
447.423
 31
0.0
  0
LINE
  5
1100
330
12D1
100
AcDbEntity
  8
8
100
AcDbLine
 10
158.781
 20
446.4229999999999
 30
0.0
 11
159.781
 21
447.423
 31
0.0
  0
LINE
  5
1101
330
12D1
100
AcDbEntity
  8
8
100
AcDbLine
 10
155.566
 20
446.7999999999999
 30
0.0
 11
156.35
 21
447.585
 31
0.0
  0
LINE
  5
1102
330
12D1
100
AcDbEntity
  8
8
100
AcDbLine
 10
153.523
 20
448.3489999999999
 30
0.0
 11
154.239
 21
449.065
 31
0.0
  0
LINE
  5
1103
330
12D1
100
AcDbEntity
  8
8
100
AcDbLine
 10
152.507
 20
450.925
 30
0.0
 11
153.437
 21
451.8559999999999
 31
0.0
  0
LINE
  5
1104
330
12D1
100
AcDbEntity
  8
8
100
AcDbLine
 10
152.307
 20
454.3169999999999
 30
0.0
 11
153.258
 21
455.269
 31
0.0
  0
LINE
  5
1105
330
12D1
100
AcDbEntity
  8
8
100
AcDbLine
 10
152.128
 20
457.73
 30
0.0
 11
153.079
 21
458.6819999999999
 31
0.0
  0
LINE
  5
1106
330
12D1
100
AcDbEntity
  8
8
100
AcDbLine
 10
151.949
 20
461.1439999999999
 30
0.0
 11
152.9
 21
462.095
 31
0.0
  0
LINE
  5
1107
330
12D1
100
AcDbEntity
  8
8
100
AcDbLine
 10
151.77
 20
464.5569999999999
 30
0.0
 11
152.722
 21
465.508
 31
0.0
  0
LINE
  5
1108
330
12D1
100
AcDbEntity
  8
8
100
AcDbLine
 10
151.591
 20
467.97
 30
0.0
 11
152.543
 21
468.9219999999999
 31
0.0
  0
LINE
  5
1109
330
12D1
100
AcDbEntity
  8
8
100
AcDbLine
 10
151.412
 20
471.383
 30
0.0
 11
152.364
 21
472.3349999999999
 31
0.0
  0
LINE
  5
110A
330
12D1
100
AcDbEntity
  8
8
100
AcDbLine
 10
151.233
 20
474.7969999999999
 30
0.0
 11
152.185
 21
475.748
 31
0.0
  0
LINE
  5
110B
330
12D1
100
AcDbEntity
  8
8
100
AcDbLine
 10
151.055
 20
478.2099999999999
 30
0.0
 11
152.006
 21
479.161
 31
0.0
  0
LINE
  5
110C
330
12D1
100
AcDbEntity
  8
8
100
AcDbLine
 10
150.876
 20
481.623
 30
0.0
 11
151.827
 21
482.575
 31
0.0
  0
LINE
  5
110D
330
12D1
100
AcDbEntity
  8
8
100
AcDbLine
 10
150.655
 20
484.9949999999999
 30
0.0
 11
151.471
 21
485.81
 31
0.0
  0
LINE
  5
110E
330
12D1
100
AcDbEntity
  8
8
100
AcDbLine
 10
149.147
 20
487.078
 30
0.0
 11
149.865
 21
487.7959999999999
 31
0.0
  0
LINE
  5
110F
330
12D1
100
AcDbEntity
  8
8
100
AcDbLine
 10
145.899
 20
487.4229999999999
 30
0.0
 11
146.899
 21
488.423
 31
0.0
  0
LINE
  5
1110
330
12D1
100
AcDbEntity
  8
8
100
AcDbLine
 10
142.307
 20
487.4229999999999
 30
0.0
 11
143.307
 21
488.423
 31
0.0
  0
ENDBLK
  5
1111
330
12D1
100
AcDbEntity
  8
0
100
AcDbBlockEnd
  0
BLOCK
  5
1113
330
12D2
100
AcDbEntity
  8
0
100
AcDbBlockBegin
  2
*D1
 70
     1
 10
0.0
 20
0.0
 30
0.0
  3
*D1
  1

  0
LINE
  5
1114
330
12D2
100
AcDbEntity
  8
5
100
AcDbLine
 10
140.021
 20
488.423
 30
0.0
 11
140.021
 21
552.995
 31
0.0
  0
LINE
  5
1115
330
12D2
100
AcDbEntity
  8
5
100
AcDbLine
 10
289.021
 20
488.423
 30
0.0
 11
289.021
 21
552.995
 31
0.0
  0
TEXT
  5
1116
330
12D2
100
AcDbEntity
  8
6
100
AcDbText
 10
185.852
 20
553.673
 30
0.0
 40
7.0
  1
%%c
100
AcDbText
  0
TEXT
  5
1117
330
12D2
100
AcDbEntity
  8
6
100
AcDbText
 10
192.852
 20
553.673
 30
0.0
 40
7.0
  1
 149
 41
1.59988634869994
 72
     5
 11
218.852
 21
553.673
 31
0.0
100
AcDbText
  0
LINE
  5
1118
330
12D2
100
AcDbEntity
  8
5
100
AcDbLine
 10
146.879
 20
548.423
 30
0.0
 11
214.521
 21
548.423
 31
0.0
  0
SOLID
  5
1119
330
12D2
100
AcDbEntity
  8
5
100
AcDbTrace
 10
140.021
 20
548.423
 30
0.0
 11
146.879
 21
547.153
 31
0.0
 12
146.879
 22
549.6929999999999
 32
0.0
 13
146.879
 23
549.6929999999999
 33
0.0
  0
LINE
  5
111A
330
12D2
100
AcDbEntity
  8
5
100
AcDbLine
 10
282.163
 20
548.423
 30
0.0
 11
214.521
 21
548.423
 31
0.0
  0
SOLID
  5
111B
330
12D2
100
AcDbEntity
  8
5
100
AcDbTrace
 10
289.021
 20
548.423
 30
0.0
 11
282.163
 21
549.6929999999999
 31
0.0
 12
282.163
 22
547.153
 32
0.0
 13
282.163
 23
547.153
 33
0.0
  0
ENDBLK
  5
111C
330
12D2
100
AcDbEntity
  8
0
100
AcDbBlockEnd
  0
BLOCK
  5
1129
330
12D4
100
AcDbEntity
  8
0
100
AcDbBlockBegin
  2
*D3
 70
     1
 10
0.0
 20
0.0
 30
0.0
  3
*D3
  1

  0
LINE
  5
112A
330
12D4
100
AcDbEntity
  8
5
100
AcDbLine
 10
202.403
 20
480.458
 30
0.0
 11
202.403
 21
512.995
 31
0.0
  0
LINE
  5
112B
330
12D4
100
AcDbEntity
  8
5
100
AcDbLine
 10
210.334
 20
480.485
 30
0.0
 11
210.334
 21
512.995
 31
0.0
  0
TEXT
  5
112C
330
12D4
100
AcDbEntity
  8
6
100
AcDbText
 10
203.869
 20
513.673
 30
0.0
 40
7.0
  1
8
100
AcDbText
  0
LINE
  5
112D
330
12D4
100
AcDbEntity
  8
5
100
AcDbLine
 10
202.403
 20
508.4229999999999
 30
0.0
 11
201.619
 21
508.4229999999999
 31
0.0
  0
SOLID
  5
112E
330
12D4
100
AcDbEntity
  8
5
100
AcDbTrace
 10
202.403
 20
508.4229999999999
 30
0.0
 11
195.545
 21
509.693
 31
0.0
 12
195.545
 22
507.153
 32
0.0
 13
195.545
 23
507.153
 33
0.0
  0
LINE
  5
112F
330
12D4
100
AcDbEntity
  8
5
100
AcDbLine
 10
217.192
 20
508.4229999999999
 30
0.0
 11
223.034
 21
508.4229999999999
 31
0.0
  0
LINE
  5
1130
330
12D4
100
AcDbEntity
  8
5
100
AcDbLine
 10
223.034
 20
508.4229999999999
 30
0.0
 11
202.403
 21
508.4229999999999
 31
0.0
  0
SOLID
  5
1131
330
12D4
100
AcDbEntity
  8
5
100
AcDbTrace
 10
210.334
 20
508.4229999999999
 30
0.0
 11
217.192
 21
507.153
 31
0.0
 12
217.192
 22
509.693
 32
0.0
 13
217.192
 23
509.693
 33
0.0
  0
ENDBLK
  5
1132
330
12D4
100
AcDbEntity
  8
0
100
AcDbBlockEnd
  0
BLOCK
  5
1134
330
12D5
100
AcDbEntity
  8
0
100
AcDbBlockBegin
  2
*D4
 70
     1
 10
0.0
 20
0.0
 30
0.0
  3
*D4
  1

  0
LINE
  5
1135
330
12D5
100
AcDbEntity
  8
5
100
AcDbLine
 10
140.021
 20
488.423
 30
0.0
 11
115.449
 21
488.423
 31
0.0
  0
LINE
  5
1136
330
12D5
100
AcDbEntity
  8
5
100
AcDbLine
 10
157.465
 20
446.4229999999999
 30
0.0
 11
115.449
 21
446.4229999999999
 31
0.0
  0
TEXT
  5
1137
330
12D5
100
AcDbEntity
  8
6
100
AcDbText
 10
114.771
 20
461.423
 30
0.0
 40
7.0
  1
42
 50
90.0
 41
1.215754551600763
 72
     5
 11
114.771
 21
473.423
 31
0.0
100
AcDbText
  0
LINE
  5
1138
330
12D5
100
AcDbEntity
  8
5
100
AcDbLine
 10
120.021
 20
481.5649999999999
 30
0.0
 11
120.021
 21
467.423
 31
0.0
  0
SOLID
  5
1139
330
12D5
100
AcDbEntity
  8
5
100
AcDbTrace
 10
120.021
 20
488.423
 30
0.0
 11
118.751
 21
481.5649999999999
 31
0.0
 12
121.291
 22
481.5649999999999
 32
0.0
 13
121.291
 23
481.5649999999999
 33
0.0
  0
LINE
  5
113A
330
12D5
100
AcDbEntity
  8
5
100
AcDbLine
 10
120.021
 20
453.281
 30
0.0
 11
120.021
 21
467.423
 31
0.0
  0
SOLID
  5
113B
330
12D5
100
AcDbEntity
  8
5
100
AcDbTrace
 10
120.021
 20
446.4229999999999
 30
0.0
 11
121.291
 21
453.281
 31
0.0
 12
118.751
 22
453.281
 32
0.0
 13
118.751
 23
453.281
 33
0.0
  0
ENDBLK
  5
113C
330
12D5
100
AcDbEntity
  8
0
100
AcDbBlockEnd
  0
BLOCK
  5
115A
330
12D6
100
AcDbEntity
  8
0
100
AcDbBlockBegin
  2
*X5
 70
     1
 10
0.0
 20
0.0
 30
0.0
  3
*X5
  1

  0
LINE
  5
115B
330
12D6
100
AcDbEntity
  8
8
100
AcDbLine
 10
271.874
 20
483.3899999999999
 30
0.0
 11
273.99
 21
481.275
 31
0.0
  0
LINE
  5
115C
330
12D6
100
AcDbEntity
  8
8
100
AcDbLine
 10
272.853
 20
483.9089999999999
 30
0.0
 11
274.499
 21
482.2619999999999
 31
0.0
  0
ENDBLK
  5
115D
330
12D6
100
AcDbEntity
  8
0
100
AcDbBlockEnd
  0
BLOCK
  5
138C
330
138A
100
AcDbEntity
  8
0
100
AcDbBlockBegin
  2
GENAXEH
 70
     0
 10
0.0
 20
0.0
 30
0.0
  3
GENAXEH
  1

  0
LINE
  5
138B
330
138A
100
AcDbEntity
  8
0
100
AcDbLine
 10
-1.0
 20
0.0
 30
0.0
 11
1.0
 21
0.0
 31
0.0
  0
ENDBLK
  5
138D
330
138A
100
AcDbEntity
  8
0
100
AcDbBlockEnd
  0
ENDSEC
  0
SECTION
  2
ENTITIES
  0
LINE
  5
1001
330
12B3
100
AcDbEntity
  8
7
 48
0.705
100
AcDbLine
 10
214.521
 20
498.423
 30
0.0
 11
214.521
 21
436.423
 31
0.0
  0
LINE
  5
1002
330
12B3
100
AcDbEntity
  8
0
100
AcDbLine
 10
214.521
 20
488.423
 30
0.0
 11
289.021
 21
488.423
 31
0.0
  0
LINE
  5
1003
330
12B3
100
AcDbEntity
  8
0
100
AcDbLine
 10
214.521
 20
446.4229999999999
 30
0.0
 11
271.5759999999999
 21
446.4229999999999
 31
0.0
  0
LINE
  5
1004
330
12B3
100
AcDbEntity
  8
0
100
AcDbLine
 10
277.322
 20
484.633
 30
0.0
 11
275.571
 21
451.214
 31
0.0
  0
LINE
  5
1005
330
12B3
100
AcDbEntity
  8
0
100
AcDbLine
 10
278.321
 20
484.5799999999999
 30
0.0
 11
276.569
 21
451.1619999999999
 31
0.0
  0
LINE
  5
1006
330
12B3
100
AcDbEntity
  8
0
100
AcDbLine
 10
289.021
 20
487.4229999999999
 30
0.0
 11
281.316
 21
487.4229999999999
 31
0.0
  0
LINE
  5
1007
330
12B3
100
AcDbEntity
  8
0
100
AcDbLine
 10
289.021
 20
487.4229999999999
 30
0.0
 11
289.021
 21
488.423
 31
0.0
  0
ARC
  5
1008
330
12B3
100
AcDbEntity
  8
0
100
AcDbCircle
 10
271.5759999999999
 20
451.423
 30
0.0
 40
5.0
100
AcDbArc
 50
270.0
 51
357.0
  0
LINE
  5
1009
330
12B3
100
AcDbEntity
  8
0
100
AcDbLine
 10
271.5759999999999
 20
447.423
 30
0.0
 11
246.789
 21
447.423
 31
0.0
  0
ARC
  5
100A
330
12B3
100
AcDbEntity
  8
0
100
AcDbCircle
 10
271.5759999999999
 20
451.423
 30
0.0
 40
4.0
100
AcDbArc
 50
270.0
 51
357.0
  0
ARC
  5
100B
330
12B3
100
AcDbEntity
  8
0
100
AcDbCircle
 10
281.316
 20
484.423
 30
0.0
 40
3.0
100
AcDbArc
 50
90.0
 51
177.0
  0
ARC
  5
100C
330
12B3
100
AcDbEntity
  8
0
100
AcDbCircle
 10
281.316
 20
484.423
 30
0.0
 40
4.0
100
AcDbArc
 50
90.0
 51
177.0
  0
LINE
  5
100D
330
12B3
100
AcDbEntity
  8
0
100
AcDbLine
 10
214.521
 20
457.423
 30
0.0
 11
227.521
 21
457.423
 31
0.0
  0
LINE
  5
100E
330
12B3
100
AcDbEntity
  8
0
100
AcDbLine
 10
227.521
 20
457.423
 30
0.0
 11
246.521
 21
446.4229999999999
 31
0.0
  0
LINE
  5
100F
330
12B3
100
AcDbEntity
  8
0
100
AcDbLine
 10
214.521
 20
458.4229999999999
 30
0.0
 11
227.789
 21
458.4229999999999
 31
0.0
  0
LINE
  5
1010
330
12B3
100
AcDbEntity
  8
0
100
AcDbLine
 10
227.789
 20
458.4229999999999
 30
0.0
 11
246.789
 21
447.423
 31
0.0
  0
ARC
  5
1011
330
12B3
100
AcDbEntity
  8
0
100
AcDbCircle
 10
222.673
 20
480.458
 30
0.0
 40
3.966
100
AcDbArc
 50
0.0
 51
6.742
  0
LINE
  5
1012
330
12B3
100
AcDbEntity
  8
0
100
AcDbLine
 10
218.597
 20
464.416
 30
0.0
 11
218.707
 21
480.485
 31
0.0
  0
LINE
  5
1013
330
12B3
100
AcDbEntity
  8
0
100
AcDbLine
 10
226.528
 20
464.3619999999999
 30
0.0
 11
226.638
 21
480.43
 31
0.0
  0
LINE
  5
1014
330
12B3
100
AcDbEntity
  8
0
100
AcDbLine
 10
234.823
 20
464.182
 30
0.0
 11
235.163
 21
480.815
 31
0.0
  0
LINE
  5
1015
330
12B3
100
AcDbEntity
  8
0
100
AcDbLine
 10
242.188
 20
464.031
 30
0.0
 11
242.528
 21
480.6639999999999
 31
0.0
  0
ARC
  5
1016
330
12B3
100
AcDbEntity
  8
0
100
AcDbCircle
 10
238.846
 20
480.74
 30
0.0
 40
3.683999999999999
100
AcDbArc
 50
358.8280000000001
 51
2.856999999999999
  0
LINE
  5
1017
330
12B3
100
AcDbEntity
  8
0
100
AcDbLine
 10
249.203
 20
463.679
 30
0.0
 11
249.759
 21
480.923
 31
0.0
  0
LINE
  5
1018
330
12B3
100
AcDbEntity
  8
3A
 48
0.02
100
AcDbLine
 10
256.078
 20
481.1669999999999
 30
0.0
 11
256.07
 21
480.923
 31
0.0
  0
ARC
  5
1019
330
12B3
100
AcDbEntity
  8
3A
100
AcDbCircle
 10
252.926
 20
481.2689999999999
 30
0.0
 40
3.153999999999999
100
AcDbArc
 50
358.152
 51
57.298
  0
LINE
  5
101A
330
12B3
100
AcDbEntity
  8
0
100
AcDbLine
 10
261.198
 20
462.934
 30
0.0
 11
261.952
 21
480.923
 31
0.0
  0
LINE
  5
101B
330
12B3
100
AcDbEntity
  8
3A
 48
0.171
100
AcDbLine
 10
270.812
 20
482.968
 30
0.0
 11
270.713
 21
480.923
 31
0.0
  0
LINE
  5
101C
330
12B3
100
AcDbEntity
  8
0
100
AcDbLine
 10
272.85
 20
461.878
 30
0.0
 11
273.785
 21
481.1319999999999
 31
0.0
  0
ARC
  5
101D
330
12B3
100
AcDbEntity
  8
3A
 48
0.7170000000000001
100
AcDbCircle
 10
272.339
 20
482.894
 30
0.0
 40
1.529
100
AcDbArc
 50
0.0
 51
37.559
  0
LINE
  5
101E
330
12B3
100
AcDbEntity
  8
0
100
AcDbLine
 10
276.099
 20
483.929
 30
0.0
 11
274.904
 21
460.972
 31
0.0
  0
LINE
  5
101F
330
12B3
100
AcDbEntity
  8
0
100
AcDbLine
 10
275.946
 20
460.9169999999999
 30
0.0
 11
277.1409999999999
 21
483.875
 31
0.0
  0
ARC
  5
1020
330
12B3
100
AcDbEntity
  8
0
100
AcDbCircle
 10
276.62
 20
483.9019999999999
 30
0.0
 40
0.521
100
AcDbArc
 50
0.0
 51
177.019
  0
LINE
  5
1021
330
12B3
100
AcDbEntity
  8
0
100
AcDbLine
 10
214.521
 20
488.423
 30
0.0
 11
140.021
 21
488.423
 31
0.0
  0
LINE
  5
1022
330
12B3
100
AcDbEntity
  8
0
100
AcDbLine
 10
214.521
 20
446.4229999999999
 30
0.0
 11
157.465
 21
446.4229999999999
 31
0.0
  0
LINE
  5
1023
330
12B3
100
AcDbEntity
  8
0
100
AcDbLine
 10
151.719
 20
484.633
 30
0.0
 11
153.471
 21
451.214
 31
0.0
  0
LINE
  5
1024
330
12B3
100
AcDbEntity
  8
0
100
AcDbLine
 10
150.721
 20
484.5799999999999
 30
0.0
 11
152.472
 21
451.1619999999999
 31
0.0
  0
LINE
  5
1025
330
12B3
100
AcDbEntity
  8
0
100
AcDbLine
 10
140.021
 20
487.4229999999999
 30
0.0
 11
147.725
 21
487.4229999999999
 31
0.0
  0
LINE
  5
1026
330
12B3
100
AcDbEntity
  8
0
100
AcDbLine
 10
140.021
 20
487.4229999999999
 30
0.0
 11
140.021
 21
488.423
 31
0.0
  0
ARC
  5
1027
330
12B3
100
AcDbEntity
  8
0
100
AcDbCircle
 10
157.465
 20
451.423
 30
0.0
 40
5.0
100
AcDbArc
 50
183.0
 51
270.0
  0
LINE
  5
1028
330
12B3
100
AcDbEntity
  8
0
100
AcDbLine
 10
157.465
 20
447.423
 30
0.0
 11
182.252
 21
447.423
 31
0.0
  0
ARC
  5
1029
330
12B3
100
AcDbEntity
  8
0
100
AcDbCircle
 10
157.465
 20
451.423
 30
0.0
 40
4.0
100
AcDbArc
 50
183.0
 51
270.0
  0
ARC
  5
102A
330
12B3
100
AcDbEntity
  8
0
100
AcDbCircle
 10
147.725
 20
484.423
 30
0.0
 40
3.0
100
AcDbArc
 50
3.0
 51
90.0
  0
ARC
  5
102B
330
12B3
100
AcDbEntity
  8
0
100
AcDbCircle
 10
147.725
 20
484.423
 30
0.0
 40
4.0
100
AcDbArc
 50
3.0
 51
90.0
  0
LINE
  5
102C
330
12B3
100
AcDbEntity
  8
0
100
AcDbLine
 10
214.521
 20
457.423
 30
0.0
 11
201.521
 21
457.423
 31
0.0
  0
LINE
  5
102D
330
12B3
100
AcDbEntity
  8
0
100
AcDbLine
 10
201.521
 20
457.423
 30
0.0
 11
182.521
 21
446.4229999999999
 31
0.0
  0
LINE
  5
102E
330
12B3
100
AcDbEntity
  8
0
100
AcDbLine
 10
214.521
 20
458.4229999999999
 30
0.0
 11
201.252
 21
458.4229999999999
 31
0.0
  0
LINE
  5
102F
330
12B3
100
AcDbEntity
  8
0
100
AcDbLine
 10
201.252
 20
458.4229999999999
 30
0.0
 11
182.252
 21
447.423
 31
0.0
  0
ARC
  5
1030
330
12B3
100
AcDbEntity
  8
0
100
AcDbCircle
 10
206.369
 20
480.458
 30
0.0
 40
3.966
100
AcDbArc
 50
0.393
 51
180.0
  0
LINE
  5
1031
330
12B3
100
AcDbEntity
  8
0
100
AcDbLine
 10
210.444
 20
464.416
 30
0.0
 11
210.334
 21
480.485
 31
0.0
  0
LINE
  5
1032
330
12B3
100
AcDbEntity
  8
0
100
AcDbLine
 10
202.513
 20
464.3619999999999
 30
0.0
 11
202.403
 21
480.43
 31
0.0
  0
LINE
  5
1033
330
12B3
100
AcDbEntity
  8
0
100
AcDbLine
 10
194.218
 20
464.182
 30
0.0
 11
193.878
 21
480.815
 31
0.0
  0
LINE
  5
1034
330
12B3
100
AcDbEntity
  8
0
100
AcDbLine
 10
186.8529999999999
 20
464.031
 30
0.0
 11
186.513
 21
480.6639999999999
 31
0.0
  0
ARC
  5
1035
330
12B3
100
AcDbEntity
  8
0
100
AcDbCircle
 10
190.195
 20
480.74
 30
0.0
 40
3.683999999999999
100
AcDbArc
 50
1.171999999999999
 51
180.0
  0
LINE
  5
1036
330
12B3
100
AcDbEntity
  8
0
100
AcDbLine
 10
179.838
 20
463.679
 30
0.0
 11
179.267
 21
481.3709999999999
 31
0.0
  0
LINE
  5
1037
330
12B3
100
AcDbEntity
  8
0
100
AcDbLine
 10
172.963
 20
481.1669999999999
 30
0.0
 11
173.534
 21
463.475
 31
0.0
  0
ARC
  5
1038
330
12B3
100
AcDbEntity
  8
0
100
AcDbCircle
 10
176.115
 20
481.2689999999999
 30
0.0
 40
3.153999999999999
100
AcDbArc
 50
1.848
 51
180.0
  0
LINE
  5
1039
330
12B3
100
AcDbEntity
  8
0
100
AcDbLine
 10
167.843
 20
462.934
 30
0.0
 11
167.039
 21
482.114
 31
0.0
  0
LINE
  5
103A
330
12B3
100
AcDbEntity
  8
0
100
AcDbLine
 10
162.224
 20
481.913
 30
0.0
 11
163.028
 21
462.732
 31
0.0
  0
ARC
  5
103B
330
12B3
100
AcDbEntity
  8
0
100
AcDbCircle
 10
164.632
 20
482.014
 30
0.0
 40
2.41
100
AcDbArc
 50
2.399
 51
180.0
  0
LINE
  5
103C
330
12B3
100
AcDbEntity
  8
0
100
AcDbLine
 10
158.229
 20
482.968
 30
0.0
 11
159.245
 21
462.026
 31
0.0
  0
LINE
  5
103D
330
12B3
100
AcDbEntity
  8
0
100
AcDbLine
 10
156.191
 20
461.878
 30
0.0
 11
155.175
 21
482.8199999999999
 31
0.0
  0
ARC
  5
103E
330
12B3
100
AcDbEntity
  8
0
100
AcDbCircle
 10
156.702
 20
482.894
 30
0.0
 40
1.529
100
AcDbArc
 50
2.778
 51
180.0
  0
LINE
  5
103F
330
12B3
100
AcDbEntity
  8
0
100
AcDbLine
 10
152.942
 20
483.929
 30
0.0
 11
154.137
 21
460.972
 31
0.0
  0
LINE
  5
1040
330
12B3
100
AcDbEntity
  8
0
100
AcDbLine
 10
153.096
 20
460.9169999999999
 30
0.0
 11
151.9
 21
483.875
 31
0.0
  0
ARC
  5
1041
330
12B3
100
AcDbEntity
  8
0
100
AcDbCircle
 10
152.421
 20
483.9019999999999
 30
0.0
 40
0.521
100
AcDbArc
 50
2.981
 51
180.0
  0
ARC
  5
1042
330
12B3
100
AcDbEntity
  8
0
100
AcDbCircle
 10
214.521
 20
482.423
 30
0.0
 40
2.0
100
AcDbArc
 50
48.59
 51
311.41
  0
LINE
  5
1043
330
12B3
100
AcDbEntity
  8
7
 48
0.066
100
AcDbLine
 10
211.639
 20
482.423
 30
0.0
 11
217.468
 21
482.423
 31
0.0
  0
LINE
  5
1044
330
12B3
100
AcDbEntity
  8
4
100
AcDbLine
 10
277.5209999999999
 20
488.423
 30
0.0
 11
277.322
 21
484.633
 31
0.0
  0
LINE
  5
1045
330
12B3
100
AcDbEntity
  8
4
100
AcDbLine
 10
151.719
 20
484.633
 30
0.0
 11
151.521
 21
488.423
 31
0.0
  0
LINE
  5
1046
330
12B3
100
AcDbEntity
  8
0
100
AcDbLine
 10
273.021
 20
483.9229999999999
 30
0.0
 11
214.521
 21
483.9229999999999
 31
0.0
  0
LINE
  5
1047
330
12B3
100
AcDbEntity
  8
0
100
AcDbLine
 10
273.021
 20
480.923
 30
0.0
 11
214.521
 21
480.923
 31
0.0
  0
ARC
  5
1048
330
12B3
100
AcDbEntity
  8
0
100
AcDbCircle
 10
214.521
 20
482.423
 30
0.0
 40
1.5
100
AcDbArc
 50
90.0
 51
270.0
  0
ARC
  5
1049
330
12B3
100
AcDbEntity
  8
0
100
AcDbCircle
 10
222.673
 20
480.458
 30
0.0
 40
3.966
100
AcDbArc
 50
60.914
 51
119.086
  0
ARC
  5
104A
330
12B3
100
AcDbEntity
  8
3A
 48
0.312
100
AcDbCircle
 10
222.673
 20
480.458
 30
0.0
 40
3.966
100
AcDbArc
 50
119.086
 51
173.258
  0
ARC
  5
104B
330
12B3
100
AcDbEntity
  8
3A
 48
0.305
100
AcDbCircle
 10
238.846
 20
480.74
 30
0.0
 40
3.683999999999999
100
AcDbArc
 50
120.199
 51
177.143
  0
ARC
  5
104C
330
12B3
100
AcDbEntity
  8
0
100
AcDbCircle
 10
238.846
 20
480.74
 30
0.0
 40
3.683999999999999
100
AcDbArc
 50
59.801
 51
120.199
  0
ARC
  5
104D
330
12B3
100
AcDbEntity
  8
3A
 48
0.254
100
AcDbCircle
 10
252.926
 20
481.2689999999999
 30
0.0
 40
3.153999999999999
100
AcDbArc
 50
122.702
 51
178.152
  0
ARC
  5
104E
330
12B3
100
AcDbEntity
  8
3A
 48
0.175
100
AcDbCircle
 10
264.409
 20
482.013
 30
0.0
 40
2.41
100
AcDbArc
 50
127.574
 51
177.601
  0
ARC
  5
104F
330
12B3
100
AcDbEntity
  8
0
100
AcDbCircle
 10
252.926
 20
481.2689999999999
 30
0.0
 40
3.153999999999999
100
AcDbArc
 50
57.298
 51
122.702
  0
ARC
  5
1050
330
12B3
100
AcDbEntity
  8
0
100
AcDbCircle
 10
222.673
 20
480.458
 30
0.0
 40
3.966
100
AcDbArc
 50
173.258
 51
179.607
  0
ARC
  5
1051
330
12B3
100
AcDbEntity
  8
3A
 48
0.312
100
AcDbCircle
 10
222.673
 20
480.458
 30
0.0
 40
3.966
100
AcDbArc
 50
6.742
 51
60.914
  0
ARC
  5
1052
330
12B3
100
AcDbEntity
  8
3A
 48
0.305
100
AcDbCircle
 10
238.846
 20
480.74
 30
0.0
 40
3.683999999999999
100
AcDbArc
 50
2.856999999999999
 51
59.801
  0
ARC
  5
1053
330
12B3
100
AcDbEntity
  8
0
100
AcDbCircle
 10
238.846
 20
480.74
 30
0.0
 40
3.683999999999999
100
AcDbArc
 50
177.143
 51
178.828
  0
LINE
  5
1054
330
12B3
100
AcDbEntity
  8
3A
 48
0.037
100
AcDbLine
 10
249.759
 20
480.923
 30
0.0
 11
249.774
 21
481.3709999999999
 31
0.0
  0
LINE
  5
1055
330
12B3
100
AcDbEntity
  8
0
100
AcDbLine
 10
256.07
 20
480.923
 30
0.0
 11
255.507
 21
463.475
 31
0.0
  0
LINE
  5
1056
330
12B3
100
AcDbEntity
  8
3A
 48
0.099
100
AcDbLine
 10
261.952
 20
480.923
 30
0.0
 11
262.002
 21
482.114
 31
0.0
  0
LINE
  5
1057
330
12B3
100
AcDbEntity
  8
0
100
AcDbLine
 10
266.776
 20
480.923
 30
0.0
 11
266.014
 21
462.732
 31
0.0
  0
LINE
  5
1058
330
12B3
100
AcDbEntity
  8
3A
 48
0.083
100
AcDbLine
 10
266.817
 20
481.9119999999999
 30
0.0
 11
266.776
 21
480.923
 31
0.0
  0
ARC
  5
1059
330
12B3
100
AcDbEntity
  8
3A
100
AcDbCircle
 10
264.409
 20
482.013
 30
0.0
 40
2.41
100
AcDbArc
 50
357.6010000000001
 51
52.426
  0
ARC
  5
105A
330
12B3
100
AcDbEntity
  8
0
100
AcDbCircle
 10
264.409
 20
482.013
 30
0.0
 40
2.41
100
AcDbArc
 50
52.426
 51
127.574
  0
ARC
  5
105B
330
12B3
100
AcDbEntity
  8
3A
 48
0.7650000000000001
100
AcDbCircle
 10
214.521
 20
482.423
 30
0.0
 40
2.0
100
AcDbArc
 50
311.41
 51
48.59
  0
CIRCLE
  5
105D
330
12B3
100
AcDbEntity
  8
0
100
AcDbCircle
 10
273.021
 20
482.423
 30
0.0
 40
1.5
  0
LINE
  5
105F
330
12B3
100
AcDbEntity
  8
0
100
AcDbLine
 10
270.713
 20
480.923
 30
0.0
 11
269.796
 21
462.026
 31
0.0
  0
ARC
  5
1060
330
12B3
100
AcDbEntity
  8
3A
 48
0.088
100
AcDbCircle
 10
272.339
 20
482.894
 30
0.0
 40
1.529
100
AcDbArc
 50
137.697
 51
177.222
  0
ARC
  5
1061
330
12B3
100
AcDbEntity
  8
0
100
AcDbCircle
 10
272.339
 20
482.894
 30
0.0
 40
1.529
100
AcDbArc
 50
37.559
 51
137.697
  0
LINE
  5
1062
330
12B3
100
AcDbEntity
  8
3A
 48
0.141
100
AcDbLine
 10
273.785
 20
481.1319999999999
 30
0.0
 11
273.866
 21
482.8199999999999
 31
0.0
  0
ARC
  5
1063
330
12B3
100
AcDbEntity
  8
0
100
AcDbCircle
 10
157.718
 20
461.952
 30
0.0
 40
1.529
100
AcDbArc
 50
0.0
 51
2.778
  0
ARC
  5
1064
330
12B3
100
AcDbEntity
  8
0
100
AcDbCircle
 10
165.435
 20
462.833
 30
0.0
 40
2.41
100
AcDbArc
 50
0.0
 51
2.399
  0
ARC
  5
1065
330
12B3
100
AcDbEntity
  8
0
100
AcDbCircle
 10
176.686
 20
463.5769999999999
 30
0.0
 40
3.153999999999999
100
AcDbArc
 50
0.0
 51
1.848
  0
ARC
  5
1066
330
12B3
100
AcDbEntity
  8
0
100
AcDbCircle
 10
190.5359999999999
 20
464.107
 30
0.0
 40
3.683999999999999
100
AcDbArc
 50
0.0
 51
1.171999999999999
  0
ARC
  5
1067
330
12B3
100
AcDbEntity
  8
0
100
AcDbCircle
 10
206.479
 20
464.3889999999999
 30
0.0
 40
3.966
100
AcDbArc
 50
0.0
 51
0.393
  0
ARC
  5
1068
330
12B3
100
AcDbEntity
  8
0
100
AcDbCircle
 10
153.616
 20
460.9449999999999
 30
0.0
 40
0.521
100
AcDbArc
 50
0.0
 51
2.981
  0
ARC
  5
1069
330
12B3
100
AcDbEntity
  8
0
100
AcDbCircle
 10
153.616
 20
460.9449999999999
 30
0.0
 40
0.521
100
AcDbArc
 50
182.9809999999999
 51
0.0
  0
ARC
  5
106A
330
12B3
100
AcDbEntity
  8
0
100
AcDbCircle
 10
157.718
 20
461.952
 30
0.0
 40
1.529
100
AcDbArc
 50
182.778
 51
0.0
  0
ARC
  5
106B
330
12B3
100
AcDbEntity
  8
0
100
AcDbCircle
 10
165.435
 20
462.833
 30
0.0
 40
2.41
100
AcDbArc
 50
182.399
 51
0.0
  0
ARC
  5
106C
330
12B3
100
AcDbEntity
  8
0
100
AcDbCircle
 10
176.686
 20
463.5769999999999
 30
0.0
 40
3.153999999999999
100
AcDbArc
 50
181.848
 51
0.0
  0
ARC
  5
106D
330
12B3
100
AcDbEntity
  8
0
100
AcDbCircle
 10
190.5359999999999
 20
464.107
 30
0.0
 40
3.683999999999999
100
AcDbArc
 50
181.172
 51
0.0
  0
ARC
  5
106E
330
12B3
100
AcDbEntity
  8
0
100
AcDbCircle
 10
206.479
 20
464.3889999999999
 30
0.0
 40
3.966
100
AcDbArc
 50
180.393
 51
0.0
  0
ARC
  5
106F
330
12B3
100
AcDbEntity
  8
0
100
AcDbCircle
 10
271.323
 20
461.952
 30
0.0
 40
1.529
100
AcDbArc
 50
177.222
 51
0.0
  0
ARC
  5
1070
330
12B3
100
AcDbEntity
  8
0
100
AcDbCircle
 10
275.425
 20
460.9449999999999
 30
0.0
 40
0.521
100
AcDbArc
 50
177.019
 51
0.0
  0
ARC
  5
1071
330
12B3
100
AcDbEntity
  8
0
100
AcDbCircle
 10
263.606
 20
462.833
 30
0.0
 40
2.41
100
AcDbArc
 50
177.601
 51
0.0
  0
ARC
  5
1072
330
12B3
100
AcDbEntity
  8
0
100
AcDbCircle
 10
252.355
 20
463.5769999999999
 30
0.0
 40
3.153999999999999
100
AcDbArc
 50
178.152
 51
0.0
  0
ARC
  5
1073
330
12B3
100
AcDbEntity
  8
0
100
AcDbCircle
 10
238.505
 20
464.107
 30
0.0
 40
3.683999999999999
100
AcDbArc
 50
178.828
 51
0.0
  0
ARC
  5
1074
330
12B3
100
AcDbEntity
  8
0
100
AcDbCircle
 10
222.562
 20
464.3889999999999
 30
0.0
 40
3.966
100
AcDbArc
 50
179.607
 51
359.607
  0
POLYLINE
  5
1077
330
12B3
100
AcDbEntity
  8
SCHRAFFUR_RAND
100
AcDb2dPolyline
 66
     1
 10
0.0
 20
0.0
 30
0.0
 70
     1
  0
VERTEX
  5
1078
330
1077
100
AcDbEntity
  8
SCHRAFFUR_RAND
100
AcDbVertex
100
AcDb2dVertex
 10
147.725
 20
488.423
 30
0.0
  0
VERTEX
  5
1079
330
1077
100
AcDbEntity
  8
SCHRAFFUR_RAND
100
AcDbVertex
100
AcDb2dVertex
 10
140.021
 20
488.423
 30
0.0
  0
VERTEX
  5
107A
330
1077
100
AcDbEntity
  8
SCHRAFFUR_RAND
100
AcDbVertex
100
AcDb2dVertex
 10
140.021
 20
487.4229999999999
 30
0.0
  0
VERTEX
  5
107B
330
1077
100
AcDbEntity
  8
SCHRAFFUR_RAND
100
AcDbVertex
100
AcDb2dVertex
 10
147.725
 20
487.4229999999999
 30
0.0
  0
VERTEX
  5
107C
330
1077
100
AcDbEntity
  8
SCHRAFFUR_RAND
100
AcDbVertex
100
AcDb2dVertex
 10
148.48
 20
487.344
 30
0.0
  0
VERTEX
  5
107D
330
1077
100
AcDbEntity
  8
SCHRAFFUR_RAND
100
AcDbVertex
100
AcDb2dVertex
 10
149.188
 20
487.0619999999999
 30
0.0
  0
VERTEX
  5
107E
330
1077
100
AcDbEntity
  8
SCHRAFFUR_RAND
100
AcDbVertex
100
AcDb2dVertex
 10
149.802
 20
486.6119999999999
 30
0.0
  0
VERTEX
  5
107F
330
1077
100
AcDbEntity
  8
SCHRAFFUR_RAND
100
AcDbVertex
100
AcDb2dVertex
 10
150.283
 20
486.0219999999999
 30
0.0
  0
VERTEX
  5
1080
330
1077
100
AcDbEntity
  8
SCHRAFFUR_RAND
100
AcDbVertex
100
AcDb2dVertex
 10
150.602
 20
485.3299999999999
 30
0.0
  0
VERTEX
  5
1081
330
1077
100
AcDbEntity
  8
SCHRAFFUR_RAND
100
AcDbVertex
100
AcDb2dVertex
 10
150.721
 20
484.5799999999999
 30
0.0
  0
VERTEX
  5
1082
330
1077
100
AcDbEntity
  8
SCHRAFFUR_RAND
100
AcDbVertex
100
AcDb2dVertex
 10
152.472
 20
451.1619999999999
 30
0.0
  0
VERTEX
  5
1083
330
1077
100
AcDbEntity
  8
SCHRAFFUR_RAND
100
AcDbVertex
100
AcDb2dVertex
 10
152.629
 20
450.088
 30
0.0
  0
VERTEX
  5
1084
330
1077
100
AcDbEntity
  8
SCHRAFFUR_RAND
100
AcDbVertex
100
AcDb2dVertex
 10
153.029
 20
449.079
 30
0.0
  0
VERTEX
  5
1085
330
1077
100
AcDbEntity
  8
SCHRAFFUR_RAND
100
AcDbVertex
100
AcDb2dVertex
 10
153.638
 20
448.179
 30
0.0
  0
VERTEX
  5
1086
330
1077
100
AcDbEntity
  8
SCHRAFFUR_RAND
100
AcDbVertex
100
AcDb2dVertex
 10
154.426
 20
447.431
 30
0.0
  0
VERTEX
  5
1087
330
1077
100
AcDbEntity
  8
SCHRAFFUR_RAND
100
AcDbVertex
100
AcDb2dVertex
 10
155.356
 20
446.8709999999999
 30
0.0
  0
VERTEX
  5
1088
330
1077
100
AcDbEntity
  8
SCHRAFFUR_RAND
100
AcDbVertex
100
AcDb2dVertex
 10
156.385
 20
446.524
 30
0.0
  0
VERTEX
  5
1089
330
1077
100
AcDbEntity
  8
SCHRAFFUR_RAND
100
AcDbVertex
100
AcDb2dVertex
 10
157.465
 20
446.4229999999999
 30
0.0
  0
VERTEX
  5
108A
330
1077
100
AcDbEntity
  8
SCHRAFFUR_RAND
100
AcDbVertex
100
AcDb2dVertex
 10
182.521
 20
446.4229999999999
 30
0.0
  0
VERTEX
  5
108B
330
1077
100
AcDbEntity
  8
SCHRAFFUR_RAND
100
AcDbVertex
100
AcDb2dVertex
 10
201.521
 20
457.423
 30
0.0
  0
VERTEX
  5
108C
330
1077
100
AcDbEntity
  8
SCHRAFFUR_RAND
100
AcDbVertex
100
AcDb2dVertex
 10
214.521
 20
457.423
 30
0.0
  0
VERTEX
  5
108D
330
1077
100
AcDbEntity
  8
SCHRAFFUR_RAND
100
AcDbVertex
100
AcDb2dVertex
 10
227.521
 20
457.423
 30
0.0
  0
VERTEX
  5
108E
330
1077
100
AcDbEntity
  8
SCHRAFFUR_RAND
100
AcDbVertex
100
AcDb2dVertex
 10
246.521
 20
446.4229999999999
 30
0.0
  0
VERTEX
  5
108F
330
1077
100
AcDbEntity
  8
SCHRAFFUR_RAND
100
AcDbVertex
100
AcDb2dVertex
 10
271.5759999999999
 20
446.4229999999999
 30
0.0
  0
VERTEX
  5
1090
330
1077
100
AcDbEntity
  8
SCHRAFFUR_RAND
100
AcDbVertex
100
AcDb2dVertex
 10
272.656
 20
446.524
 30
0.0
  0
VERTEX
  5
1091
330
1077
100
AcDbEntity
  8
SCHRAFFUR_RAND
100
AcDbVertex
100
AcDb2dVertex
 10
273.685
 20
446.8709999999999
 30
0.0
  0
VERTEX
  5
1092
330
1077
100
AcDbEntity
  8
SCHRAFFUR_RAND
100
AcDbVertex
100
AcDb2dVertex
 10
274.615
 20
447.431
 30
0.0
  0
VERTEX
  5
1093
330
1077
100
AcDbEntity
  8
SCHRAFFUR_RAND
100
AcDbVertex
100
AcDb2dVertex
 10
275.403
 20
448.179
 30
0.0
  0
VERTEX
  5
1094
330
1077
100
AcDbEntity
  8
SCHRAFFUR_RAND
100
AcDbVertex
100
AcDb2dVertex
 10
276.012
 20
449.079
 30
0.0
  0
VERTEX
  5
1095
330
1077
100
AcDbEntity
  8
SCHRAFFUR_RAND
100
AcDbVertex
100
AcDb2dVertex
 10
276.4120000000001
 20
450.088
 30
0.0
  0
VERTEX
  5
1096
330
1077
100
AcDbEntity
  8
SCHRAFFUR_RAND
100
AcDbVertex
100
AcDb2dVertex
 10
276.569
 20
451.1619999999999
 30
0.0
  0
VERTEX
  5
1097
330
1077
100
AcDbEntity
  8
SCHRAFFUR_RAND
100
AcDbVertex
100
AcDb2dVertex
 10
278.321
 20
484.5799999999999
 30
0.0
  0
VERTEX
  5
1098
330
1077
100
AcDbEntity
  8
SCHRAFFUR_RAND
100
AcDbVertex
100
AcDb2dVertex
 10
278.439
 20
485.3299999999999
 30
0.0
  0
VERTEX
  5
1099
330
1077
100
AcDbEntity
  8
SCHRAFFUR_RAND
100
AcDbVertex
100
AcDb2dVertex
 10
278.758
 20
486.0219999999999
 30
0.0
  0
VERTEX
  5
109A
330
1077
100
AcDbEntity
  8
SCHRAFFUR_RAND
100
AcDbVertex
100
AcDb2dVertex
 10
279.24
 20
486.6119999999999
 30
0.0
  0
VERTEX
  5
109B
330
1077
100
AcDbEntity
  8
SCHRAFFUR_RAND
100
AcDbVertex
100
AcDb2dVertex
 10
279.854
 20
487.0619999999999
 30
0.0
  0
VERTEX
  5
109C
330
1077
100
AcDbEntity
  8
SCHRAFFUR_RAND
100
AcDbVertex
100
AcDb2dVertex
 10
280.561
 20
487.344
 30
0.0
  0
VERTEX
  5
109D
330
1077
100
AcDbEntity
  8
SCHRAFFUR_RAND
100
AcDbVertex
100
AcDb2dVertex
 10
281.316
 20
487.4229999999999
 30
0.0
  0
VERTEX
  5
109E
330
1077
100
AcDbEntity
  8
SCHRAFFUR_RAND
100
AcDbVertex
100
AcDb2dVertex
 10
289.021
 20
487.4229999999999
 30
0.0
  0
VERTEX
  5
109F
330
1077
100
AcDbEntity
  8
SCHRAFFUR_RAND
100
AcDbVertex
100
AcDb2dVertex
 10
289.021
 20
488.423
 30
0.0
  0
VERTEX
  5
10A0
330
1077
100
AcDbEntity
  8
SCHRAFFUR_RAND
100
AcDbVertex
100
AcDb2dVertex
 10
281.316
 20
488.423
 30
0.0
  0
VERTEX
  5
10A1
330
1077
100
AcDbEntity
  8
SCHRAFFUR_RAND
100
AcDbVertex
100
AcDb2dVertex
 10
280.452
 20
488.346
 30
0.0
  0
VERTEX
  5
10A2
330
1077
100
AcDbEntity
  8
SCHRAFFUR_RAND
100
AcDbVertex
100
AcDb2dVertex
 10
279.628
 20
488.068
 30
0.0
  0
VERTEX
  5
10A3
330
1077
100
AcDbEntity
  8
SCHRAFFUR_RAND
100
AcDbVertex
100
AcDb2dVertex
 10
278.883
 20
487.619
 30
0.0
  0
VERTEX
  5
10A4
330
1077
100
AcDbEntity
  8
SCHRAFFUR_RAND
100
AcDbVertex
100
AcDb2dVertex
 10
278.252
 20
487.0209999999999
 30
0.0
  0
VERTEX
  5
10A5
330
1077
100
AcDbEntity
  8
SCHRAFFUR_RAND
100
AcDbVertex
100
AcDb2dVertex
 10
277.765
 20
486.3
 30
0.0
  0
VERTEX
  5
10A6
330
1077
100
AcDbEntity
  8
SCHRAFFUR_RAND
100
AcDbVertex
100
AcDb2dVertex
 10
277.444
 20
485.4919999999999
 30
0.0
  0
VERTEX
  5
10A7
330
1077
100
AcDbEntity
  8
SCHRAFFUR_RAND
100
AcDbVertex
100
AcDb2dVertex
 10
277.322
 20
484.633
 30
0.0
  0
VERTEX
  5
10A8
330
1077
100
AcDbEntity
  8
SCHRAFFUR_RAND
100
AcDbVertex
100
AcDb2dVertex
 10
275.571
 20
451.214
 30
0.0
  0
VERTEX
  5
10A9
330
1077
100
AcDbEntity
  8
SCHRAFFUR_RAND
100
AcDbVertex
100
AcDb2dVertex
 10
275.448
 20
450.354
 30
0.0
  0
VERTEX
  5
10AA
330
1077
100
AcDbEntity
  8
SCHRAFFUR_RAND
100
AcDbVertex
100
AcDb2dVertex
 10
275.128
 20
449.546
 30
0.0
  0
VERTEX
  5
10AB
330
1077
100
AcDbEntity
  8
SCHRAFFUR_RAND
100
AcDbVertex
100
AcDb2dVertex
 10
274.64
 20
448.8259999999999
 30
0.0
  0
VERTEX
  5
10AC
330
1077
100
AcDbEntity
  8
SCHRAFFUR_RAND
100
AcDbVertex
100
AcDb2dVertex
 10
274.01
 20
448.2269999999999
 30
0.0
  0
VERTEX
  5
10AD
330
1077
100
AcDbEntity
  8
SCHRAFFUR_RAND
100
AcDbVertex
100
AcDb2dVertex
 10
273.265
 20
447.778
 30
0.0
  0
VERTEX
  5
10AE
330
1077
100
AcDbEntity
  8
SCHRAFFUR_RAND
100
AcDbVertex
100
AcDb2dVertex
 10
272.441
 20
447.5
 30
0.0
  0
VERTEX
  5
10AF
330
1077
100
AcDbEntity
  8
SCHRAFFUR_RAND
100
AcDbVertex
100
AcDb2dVertex
 10
271.5759999999999
 20
447.423
 30
0.0
  0
VERTEX
  5
10B0
330
1077
100
AcDbEntity
  8
SCHRAFFUR_RAND
100
AcDbVertex
100
AcDb2dVertex
 10
246.789
 20
447.423
 30
0.0
  0
VERTEX
  5
10B1
330
1077
100
AcDbEntity
  8
SCHRAFFUR_RAND
100
AcDbVertex
100
AcDb2dVertex
 10
238.144
 20
452.429
 30
0.0
  0
VERTEX
  5
10B2
330
1077
100
AcDbEntity
  8
SCHRAFFUR_RAND
100
AcDbVertex
100
AcDb2dVertex
 10
237.286
 20
452.5599999999999
 30
0.0
  0
VERTEX
  5
10B3
330
1077
100
AcDbEntity
  8
SCHRAFFUR_RAND
100
AcDbVertex
100
AcDb2dVertex
 10
236.488
 20
452.904
 30
0.0
  0
VERTEX
  5
10B4
330
1077
100
AcDbEntity
  8
SCHRAFFUR_RAND
100
AcDbVertex
100
AcDb2dVertex
 10
235.792
 20
453.425
 30
0.0
  0
VERTEX
  5
10B5
330
1077
100
AcDbEntity
  8
SCHRAFFUR_RAND
100
AcDbVertex
100
AcDb2dVertex
 10
235.251
 20
454.103
 30
0.0
  0
VERTEX
  5
10B6
330
1077
100
AcDbEntity
  8
SCHRAFFUR_RAND
100
AcDbVertex
100
AcDb2dVertex
 10
227.789
 20
458.4229999999999
 30
0.0
  0
VERTEX
  5
10B7
330
1077
100
AcDbEntity
  8
SCHRAFFUR_RAND
100
AcDbVertex
100
AcDb2dVertex
 10
226.487
 20
458.4229999999999
 30
0.0
  0
VERTEX
  5
10B8
330
1077
100
AcDbEntity
  8
SCHRAFFUR_RAND
100
AcDbVertex
100
AcDb2dVertex
 10
218.556
 20
458.4229999999999
 30
0.0
  0
VERTEX
  5
10B9
330
1077
100
AcDbEntity
  8
SCHRAFFUR_RAND
100
AcDbVertex
100
AcDb2dVertex
 10
214.521
 20
458.4229999999999
 30
0.0
  0
VERTEX
  5
10BA
330
1077
100
AcDbEntity
  8
SCHRAFFUR_RAND
100
AcDbVertex
100
AcDb2dVertex
 10
210.485
 20
458.4229999999999
 30
0.0
  0
VERTEX
  5
10BB
330
1077
100
AcDbEntity
  8
SCHRAFFUR_RAND
100
AcDbVertex
100
AcDb2dVertex
 10
202.554
 20
458.4229999999999
 30
0.0
  0
VERTEX
  5
10BC
330
1077
100
AcDbEntity
  8
SCHRAFFUR_RAND
100
AcDbVertex
100
AcDb2dVertex
 10
201.252
 20
458.4229999999999
 30
0.0
  0
VERTEX
  5
10BD
330
1077
100
AcDbEntity
  8
SCHRAFFUR_RAND
100
AcDbVertex
100
AcDb2dVertex
 10
193.79
 20
454.103
 30
0.0
  0
VERTEX
  5
10BE
330
1077
100
AcDbEntity
  8
SCHRAFFUR_RAND
100
AcDbVertex
100
AcDb2dVertex
 10
193.249
 20
453.425
 30
0.0
  0
VERTEX
  5
10BF
330
1077
100
AcDbEntity
  8
SCHRAFFUR_RAND
100
AcDbVertex
100
AcDb2dVertex
 10
192.553
 20
452.904
 30
0.0
  0
VERTEX
  5
10C0
330
1077
100
AcDbEntity
  8
SCHRAFFUR_RAND
100
AcDbVertex
100
AcDb2dVertex
 10
191.755
 20
452.5599999999999
 30
0.0
  0
VERTEX
  5
10C1
330
1077
100
AcDbEntity
  8
SCHRAFFUR_RAND
100
AcDbVertex
100
AcDb2dVertex
 10
190.898
 20
452.429
 30
0.0
  0
VERTEX
  5
10C2
330
1077
100
AcDbEntity
  8
SCHRAFFUR_RAND
100
AcDbVertex
100
AcDb2dVertex
 10
182.252
 20
447.423
 30
0.0
  0
VERTEX
  5
10C3
330
1077
100
AcDbEntity
  8
SCHRAFFUR_RAND
100
AcDbVertex
100
AcDb2dVertex
 10
157.465
 20
447.423
 30
0.0
  0
VERTEX
  5
10C4
330
1077
100
AcDbEntity
  8
SCHRAFFUR_RAND
100
AcDbVertex
100
AcDb2dVertex
 10
156.601
 20
447.5
 30
0.0
  0
VERTEX
  5
10C5
330
1077
100
AcDbEntity
  8
SCHRAFFUR_RAND
100
AcDbVertex
100
AcDb2dVertex
 10
155.777
 20
447.778
 30
0.0
  0
VERTEX
  5
10C6
330
1077
100
AcDbEntity
  8
SCHRAFFUR_RAND
100
AcDbVertex
100
AcDb2dVertex
 10
155.032
 20
448.2269999999999
 30
0.0
  0
VERTEX
  5
10C7
330
1077
100
AcDbEntity
  8
SCHRAFFUR_RAND
100
AcDbVertex
100
AcDb2dVertex
 10
154.401
 20
448.8259999999999
 30
0.0
  0
VERTEX
  5
10C8
330
1077
100
AcDbEntity
  8
SCHRAFFUR_RAND
100
AcDbVertex
100
AcDb2dVertex
 10
153.914
 20
449.546
 30
0.0
  0
VERTEX
  5
10C9
330
1077
100
AcDbEntity
  8
SCHRAFFUR_RAND
100
AcDbVertex
100
AcDb2dVertex
 10
153.593
 20
450.354
 30
0.0
  0
VERTEX
  5
10CA
330
1077
100
AcDbEntity
  8
SCHRAFFUR_RAND
100
AcDbVertex
100
AcDb2dVertex
 10
153.471
 20
451.214
 30
0.0
  0
VERTEX
  5
10CB
330
1077
100
AcDbEntity
  8
SCHRAFFUR_RAND
100
AcDbVertex
100
AcDb2dVertex
 10
151.719
 20
484.633
 30
0.0
  0
VERTEX
  5
10CC
330
1077
100
AcDbEntity
  8
SCHRAFFUR_RAND
100
AcDbVertex
100
AcDb2dVertex
 10
151.597
 20
485.4919999999999
 30
0.0
  0
VERTEX
  5
10CD
330
1077
100
AcDbEntity
  8
SCHRAFFUR_RAND
100
AcDbVertex
100
AcDb2dVertex
 10
151.276
 20
486.3
 30
0.0
  0
VERTEX
  5
10CE
330
1077
100
AcDbEntity
  8
SCHRAFFUR_RAND
100
AcDbVertex
100
AcDb2dVertex
 10
150.789
 20
487.0209999999999
 30
0.0
  0
VERTEX
  5
10CF
330
1077
100
AcDbEntity
  8
SCHRAFFUR_RAND
100
AcDbVertex
100
AcDb2dVertex
 10
150.158
 20
487.619
 30
0.0
  0
VERTEX
  5
10D0
330
1077
100
AcDbEntity
  8
SCHRAFFUR_RAND
100
AcDbVertex
100
AcDb2dVertex
 10
149.413
 20
488.068
 30
0.0
  0
VERTEX
  5
10D1
330
1077
100
AcDbEntity
  8
SCHRAFFUR_RAND
100
AcDbVertex
100
AcDb2dVertex
 10
148.589
 20
488.346
 30
0.0
  0
VERTEX
  5
10D2
330
1077
100
AcDbEntity
  8
SCHRAFFUR_RAND
100
AcDbVertex
100
AcDb2dVertex
 10
147.725
 20
488.423
 30
0.0
  0
SEQEND
  5
10D3
330
1077
100
AcDbEntity
  8
SCHRAFFUR_RAND
  0
INSERT
  5
1112
330
12B3
100
AcDbEntity
  8
8
100
AcDbBlockReference
  2
*X0
 10
0.0
 20
0.0
 30
0.0
1001
ACAD
1000
HATCH
1002
{
1070
    19
1000
ANSI31,_I
1040
2.54
1040
0.7850000000000001
1002
}
  0
DIMENSION
  5
111D
330
12B3
100
AcDbEntity
  8
5
100
AcDbDimension
  2
*D1
 10
289.021
 20
548.423
 30
0.0
 11
202.352
 21
548.423
 31
0.0
 70
   128
  1
%%c 149
 71
     5
 42
-1.0
  3
GEN-ISO
100
AcDbAlignedDimension
 13
140.021
 23
488.423
 33
0.0
 14
289.021
 24
488.423
 34
0.0
100
AcDbRotatedDimension
  0
DIMENSION
  5
1133
330
12B3
100
AcDbEntity
  8
5
100
AcDbDimension
  2
*D3
 10
210.334
 20
508.4229999999999
 30
0.0
 11
206.369
 21
508.4229999999999
 31
0.0
 70
   128
  1
8
 71
     5
 42
-1.0
  3
GEN-ISO
100
AcDbAlignedDimension
 13
202.403
 23
480.458
 33
0.0
 14
210.334
 24
480.485
 34
0.0
100
AcDbRotatedDimension
  0
DIMENSION
  5
113D
330
12B3
100
AcDbEntity
  8
5
100
AcDbDimension
  2
*D4
 10
120.021
 20
446.4229999999999
 30
0.0
 11
120.021
 21
467.423
 31
0.0
 70
   128
  1
42
 71
     5
 42
-1.0
  3
GEN-ISO
100
AcDbAlignedDimension
 13
140.021
 23
488.423
 33
0.0
 14
157.465
 24
446.4229999999999
 34
0.0
 50
270.0
100
AcDbRotatedDimension
  0
POLYLINE
  5
113E
330
12B3
100
AcDbEntity
  8
SCHRAFFUR_RAND
100
AcDb2dPolyline
 66
     1
 10
0.0
 20
0.0
 30
0.0
 70
     1
  0
VERTEX
  5
113F
330
113E
100
AcDbEntity
  8
SCHRAFFUR_RAND
100
AcDbVertex
100
AcDb2dVertex
 10
273.785
 20
481.1319999999999
 30
0.0
  0
VERTEX
  5
1140
330
113E
100
AcDbEntity
  8
SCHRAFFUR_RAND
100
AcDbVertex
100
AcDb2dVertex
 10
273.961
 20
481.243
 30
0.0
  0
VERTEX
  5
1141
330
113E
100
AcDbEntity
  8
SCHRAFFUR_RAND
100
AcDbVertex
100
AcDb2dVertex
 10
274.267
 20
481.573
 30
0.0
  0
VERTEX
  5
1142
330
113E
100
AcDbEntity
  8
SCHRAFFUR_RAND
100
AcDbVertex
100
AcDb2dVertex
 10
274.462
 20
481.978
 30
0.0
  0
VERTEX
  5
1143
330
113E
100
AcDbEntity
  8
SCHRAFFUR_RAND
100
AcDbVertex
100
AcDb2dVertex
 10
274.521
 20
482.423
 30
0.0
  0
VERTEX
  5
1144
330
113E
100
AcDbEntity
  8
SCHRAFFUR_RAND
100
AcDbVertex
100
AcDb2dVertex
 10
274.462
 20
482.868
 30
0.0
  0
VERTEX
  5
1145
330
113E
100
AcDbEntity
  8
SCHRAFFUR_RAND
100
AcDbVertex
100
AcDb2dVertex
 10
274.267
 20
483.273
 30
0.0
  0
VERTEX
  5
1146
330
113E
100
AcDbEntity
  8
SCHRAFFUR_RAND
100
AcDbVertex
100
AcDb2dVertex
 10
273.961
 20
483.603
 30
0.0
  0
VERTEX
  5
1147
330
113E
100
AcDbEntity
  8
SCHRAFFUR_RAND
100
AcDbVertex
100
AcDb2dVertex
 10
273.572
 20
483.828
 30
0.0
  0
VERTEX
  5
1148
330
113E
100
AcDbEntity
  8
SCHRAFFUR_RAND
100
AcDbVertex
100
AcDb2dVertex
 10
273.551
 20
483.826
 30
0.0
  0
VERTEX
  5
1149
330
113E
100
AcDbEntity
  8
SCHRAFFUR_RAND
100
AcDbVertex
100
AcDb2dVertex
 10
273.133
 20
483.928
 30
0.0
  0
VERTEX
  5
114A
330
113E
100
AcDbEntity
  8
SCHRAFFUR_RAND
100
AcDbVertex
100
AcDb2dVertex
 10
273.021
 20
483.9229999999999
 30
0.0
  0
VERTEX
  5
114B
330
113E
100
AcDbEntity
  8
SCHRAFFUR_RAND
100
AcDbVertex
100
AcDb2dVertex
 10
272.685
 20
483.894
 30
0.0
  0
VERTEX
  5
114C
330
113E
100
AcDbEntity
  8
SCHRAFFUR_RAND
100
AcDbVertex
100
AcDb2dVertex
 10
272.266
 20
483.7299999999999
 30
0.0
  0
VERTEX
  5
114D
330
113E
100
AcDbEntity
  8
SCHRAFFUR_RAND
100
AcDbVertex
100
AcDb2dVertex
 10
271.914
 20
483.449
 30
0.0
  0
VERTEX
  5
114E
330
113E
100
AcDbEntity
  8
SCHRAFFUR_RAND
100
AcDbVertex
100
AcDb2dVertex
 10
271.661
 20
483.078
 30
0.0
  0
VERTEX
  5
114F
330
113E
100
AcDbEntity
  8
SCHRAFFUR_RAND
100
AcDbVertex
100
AcDb2dVertex
 10
271.529
 20
482.648
 30
0.0
  0
VERTEX
  5
1150
330
113E
100
AcDbEntity
  8
SCHRAFFUR_RAND
100
AcDbVertex
100
AcDb2dVertex
 10
271.529
 20
482.198
 30
0.0
  0
VERTEX
  5
1151
330
113E
100
AcDbEntity
  8
SCHRAFFUR_RAND
100
AcDbVertex
100
AcDb2dVertex
 10
271.661
 20
481.768
 30
0.0
  0
VERTEX
  5
1152
330
113E
100
AcDbEntity
  8
SCHRAFFUR_RAND
100
AcDbVertex
100
AcDb2dVertex
 10
271.914
 20
481.397
 30
0.0
  0
VERTEX
  5
1153
330
113E
100
AcDbEntity
  8
SCHRAFFUR_RAND
100
AcDbVertex
100
AcDb2dVertex
 10
272.266
 20
481.116
 30
0.0
  0
VERTEX
  5
1154
330
113E
100
AcDbEntity
  8
SCHRAFFUR_RAND
100
AcDbVertex
100
AcDb2dVertex
 10
272.685
 20
480.952
 30
0.0
  0
VERTEX
  5
1155
330
113E
100
AcDbEntity
  8
SCHRAFFUR_RAND
100
AcDbVertex
100
AcDb2dVertex
 10
273.021
 20
480.923
 30
0.0
  0
VERTEX
  5
1156
330
113E
100
AcDbEntity
  8
SCHRAFFUR_RAND
100
AcDbVertex
100
AcDb2dVertex
 10
273.133
 20
480.919
 30
0.0
  0
VERTEX
  5
1157
330
113E
100
AcDbEntity
  8
SCHRAFFUR_RAND
100
AcDbVertex
100
AcDb2dVertex
 10
273.572
 20
481.019
 30
0.0
  0
VERTEX
  5
1158
330
113E
100
AcDbEntity
  8
SCHRAFFUR_RAND
100
AcDbVertex
100
AcDb2dVertex
 10
273.785
 20
481.1319999999999
 30
0.0
  0
SEQEND
  5
1159
330
113E
100
AcDbEntity
  8
SCHRAFFUR_RAND
  0
INSERT
  5
115E
330
12B3
100
AcDbEntity
  8
8
100
AcDbBlockReference
  2
*X5
 10
0.0
 20
0.0
 30
0.0
1001
ACAD
1000
HATCH
1002
{
1070
    19
1000
ANSI31,_I
1040
1.058
1040
-0.7850000000000001
1002
}
  0
ENDSEC
  0
SECTION
  2
OBJECTS
  0
DICTIONARY
  5
12A7
330
0
100
AcDbDictionary
281
     1
  3
ACAD_COLOR
350
12DD
  3
ACAD_GROUP
350
12A8
  3
ACAD_LAYOUT
350
12E0
  3
ACAD_MATERIAL
350
12DC
  3
ACAD_MLINESTYLE
350
12B6
  3
ACAD_PLOTSETTINGS
350
12E1
  3
ACAD_PLOTSTYLENAME
350
12DA
  3
ACAD_TABLESTYLE
350
12DE
  3
ACDBHEADERROUNDTRIPXREC
350
13A7
  3
AcDbVariableDictionary
350
13A2
  3
AcmDictionary
350
1342
  3
AMG
350
12E8
  3
AMGSNAPSETTINGS
350
1397
  0
DICTIONARY
  5
12DD
102
{ACAD_REACTORS
330
12A7
102
}
330
12A7
100
AcDbDictionary
281
     1
  0
DICTIONARY
  5
12A8
102
{ACAD_REACTORS
330
12A7
102
}
330
12A7
100
AcDbDictionary
281
     1
  0
DICTIONARY
  5
12E0
102
{ACAD_REACTORS
330
12A7
102
}
330
12A7
100
AcDbDictionary
281
     1
  3
Layout1
350
12E3
  3
Model
350
12E2
  0
DICTIONARY
  5
12DC
102
{ACAD_REACTORS
330
12A7
102
}
330
12A7
100
AcDbDictionary
281
     1
  0
DICTIONARY
  5
12B6
102
{ACAD_REACTORS
330
12A7
102
}
330
12A7
100
AcDbDictionary
281
     1
  3
STANDARD
350
12B7
  0
DICTIONARY
  5
12E1
102
{ACAD_REACTORS
330
12A7
102
}
330
12A7
100
AcDbDictionary
281
     1
  0
ACDBDICTIONARYWDFLT
  5
12DA
102
{ACAD_REACTORS
330
12A7
102
}
330
12A7
100
AcDbDictionary
281
     1
  3
Normal
350
12DB
100
AcDbDictionaryWithDefault
340
12DB
  0
DICTIONARY
  5
12DE
102
{ACAD_REACTORS
330
12A7
102
}
330
12A7
100
AcDbDictionary
281
     1
  3
Standard
350
12DF
  0
DICTIONARY
  5
13A7
102
{ACAD_REACTORS
330
12A7
102
}
330
12A7
100
AcDbDictionary
281
     1
  0
DICTIONARY
  5
13A2
102
{ACAD_REACTORS
330
12A7
102
}
330
12A7
100
AcDbDictionary
281
     1
  3
CTABLESTYLE
350
13A3
  3
DIMASSOC
350
13A4
  3
PROJECTNAME
350
13A5
  0
DICTIONARY
  5
1342
102
{ACAD_REACTORS
330
12A7
102
}
330
12A7
100
AcDbDictionary
281
     1
  3
AcmStdDictionary
350
134D
  3
AMDTSECTSYM_ARROWCOLOR
350
136C
  0
DICTIONARY
  5
12E8
102
{ACAD_REACTORS
330
12A7
102
}
330
12A7
100
AcDbDictionary
281
     1
  0
DICTIONARY
  5
1397
102
{ACAD_REACTORS
330
12A7
102
}
330
12A7
100
AcDbDictionary
281
     1
  0
LAYOUT
  5
12E3
102
{ACAD_XDICTIONARY
360
13AA
102
}
102
{ACAD_REACTORS
330
12E0
102
}
330
12E0
100
AcDbPlotSettings
  1

  2
Xerox Document Centre CS50 PS
  4

  6

 40
0.0
 41
0.0
 42
0.0
 43
0.0
 44
0.0
 45
0.0
 46
0.0
 47
0.0
 48
0.0
 49
0.0
140
0.0
141
0.0
142
1.0
143
1.0
 70
   688
 72
     0
 73
     0
 74
     5
  7

 75
    16
147
1.0
148
0.0
149
0.0
100
AcDbLayout
  1
Layout1
 70
     1
 71
     1
 10
0.0
 20
0.0
 11
210.001
 21
297.001
 12
0.0
 22
0.0
 32
0.0
 14
0.0
 24
0.0
 34
0.0
 15
210.001
 25
297.001
 35
0.0
146
0.0
 13
0.0
 23
0.0
 33
0.0
 16
1.0
 26
0.0
 36
0.0
 17
0.0
 27
1.0
 37
0.0
 76
     0
330
12B0
  0
LAYOUT
  5
12E2
102
{ACAD_XDICTIONARY
360
13A8
102
}
102
{ACAD_REACTORS
330
12E0
102
}
330
12E0
100
AcDbPlotSettings
  1

  2
Xerox Document Centre CS50 PS
  4

  6

 40
0.0
 41
0.0
 42
0.0
 43
0.0
 44
0.0
 45
0.0
 46
0.0
 47
0.0
 48
0.0
 49
0.0
140
0.0
141
0.0
142
1.0
143
1.0
 70
  1712
 72
     0
 73
     0
 74
     0
  7

 75
     0
147
1.0
148
0.0
149
0.0
100
AcDbLayout
  1
Model
 70
     1
 71
     0
 10
0.0
 20
0.0
 11
12.0
 21
9.0
 12
0.0
 22
0.0
 32
0.0
 14
0.0
 24
0.0
 34
0.0
 15
0.0
 25
0.0
 35
0.0
146
0.0
 13
0.0
 23
0.0
 33
0.0
 16
1.0
 26
0.0
 36
0.0
 17
0.0
 27
1.0
 37
0.0
 76
     0
330
12B3
  0
MLINESTYLE
  5
12B7
102
{ACAD_REACTORS
330
12B6
102
}
330
12B6
100
AcDbMlineStyle
  2
STANDARD
 70
     0
  3

 62
   256
 51
90.0
 52
90.0
 71
     2
 49
0.5
 62
   256
  6
BYLAYER
 49
-0.5
 62
   256
  6
BYLAYER
  0
ACDBPLACEHOLDER
  5
12DB
102
{ACAD_REACTORS
330
12DA
102
}
330
12DA
  0
TABLESTYLE
  5
12DF
102
{ACAD_REACTORS
330
12DE
102
}
330
12DE
100
AcDbTableStyle
  3
Standard
 70
     0
 71
     0
 40
0.06
 41
0.06
280
     0
281
     0
  7
STANDARD
140
0.18
170
     2
 62
     0
 63
     7
283
     0
274
    -2
284
     1
 64
     0
275
    -2
285
     1
 65
     0
276
    -2
286
     1
 66
     0
277
    -2
287
     1
 67
     0
278
    -2
288
     1
 68
     0
279
    -2
289
     1
 69
     0
  7
STANDARD
140
0.25
170
     5
 62
     0
 63
     7
283
     0
274
    -2
284
     1
 64
     0
275
    -2
285
     1
 65
     0
276
    -2
286
     1
 66
     0
277
    -2
287
     1
 67
     0
278
    -2
288
     1
 68
     0
279
    -2
289
     1
 69
     0
  7
STANDARD
140
0.18
170
     5
 62
     0
 63
     7
283
     0
274
    -2
284
     1
 64
     0
275
    -2
285
     1
 65
     0
276
    -2
286
     1
 66
     0
277
    -2
287
     1
 67
     0
278
    -2
288
     1
 68
     0
279
    -2
289
     1
 69
     0
  0
DICTIONARYVAR
  5
13A3
102
{ACAD_REACTORS
330
13A2
102
}
330
13A2
100
DictionaryVariables
280
     0
  1
STANDARD
  0
DICTIONARYVAR
  5
13A4
102
{ACAD_REACTORS
330
13A2
102
}
330
13A2
100
DictionaryVariables
280
     0
  1
1
  0
DICTIONARYVAR
  5
13A5
102
{ACAD_REACTORS
330
13A2
102
}
330
13A2
100
DictionaryVariables
280
     0
  1

  0
DICTIONARY
  5
134D
102
{ACAD_REACTORS
330
1342
102
}
330
1342
100
AcDbDictionary
281
     1
  0
XRECORD
  5
136C
102
{ACAD_REACTORS
330
1342
102
}
330
1342
100
AcDbXrecord
280
     1
 90
-1023410169
  0
DICTIONARY
  5
13AA
330
12E3
100
AcDbDictionary
280
     1
281
     1
  3
ACAD_XREC_ROUNDTRIP
360
13AB
  0
DICTIONARY
  5
13A8
330
12E2
100
AcDbDictionary
280
     1
281
     1
  3
ACAD_XREC_ROUNDTRIP
360
13A9
  0
XRECORD
  5
13AB
102
{ACAD_REACTORS
330
13AA
102
}
330
13AA
100
AcDbXrecord
280
     1
102
SHADEPLOT
 70
     0
102
SHADEPLOTRESLEVEL
 70
     2
102
SHADEPLOTCUSTOMDPI
 70
   300
  0
XRECORD
  5
13A9
102
{ACAD_REACTORS
330
13A8
102
}
330
13A8
100
AcDbXrecord
280
     1
102
SHADEPLOT
 70
     0
102
SHADEPLOTRESLEVEL
 70
     2
102
SHADEPLOTCUSTOMDPI
 70
   300
  0
ENDSEC
  0
EOF
