  0
SECTION
  2
HEADER
  9
$ACADVER
  1
AC1015
  9
$ACADMAINTVER
 70
    20
  9
$DWGCODEPAGE
  3
ANSI_1252
  9
$INSBASE
 10
0.0
 20
0.0
 30
0.0
  9
$EXTMIN
 10
186.9415309826627
 20
210.8940151414063
 30
-0.0015258207003583
  9
$EXTMAX
 10
791.1209127878778
 20
601.1032123713557
 30
0.0000000349246037
  9
$LIMMIN
 10
0.0
 20
0.0
  9
$LIMMAX
 10
1050.0
 20
1050.0
  9
$ORTHOMODE
 70
     0
  9
$REGENMODE
 70
     1
  9
$FILLMODE
 70
     1
  9
$QTEXTMODE
 70
     0
  9
$MIRRTEXT
 70
     0
  9
$LTSCALE
 40
5.0
  9
$ATTMODE
 70
     1
  9
$TEXTSIZE
 40
25.0
  9
$TRACEWID
 40
0.05
  9
$TEXTSTYLE
  7
STANDARD
  9
$CLAYER
  8
0
  9
$CELTYPE
  6
BYLAYER
  9
$CECOLOR
 62
   256
  9
$CELTSCALE
 40
1.0
  9
$DISPSILH
 70
     0
  9
$DIMSCALE
 40
5.0
  9
$DIMASZ
 40
2.5
  9
$DIMEXO
 40
1.0
  9
$DIMDLI
 40
7.0
  9
$DIMRND
 40
0.0
  9
$DIMDLE
 40
0.0
  9
$DIMEXE
 40
1.0
  9
$DIMTP
 40
0.1
  9
$DIMTM
 40
0.1
  9
$DIMTXT
 40
3.5
  9
$DIMCEN
 40
0.0
  9
$DIMTSZ
 40
0.0
  9
$DIMTOL
 70
     0
  9
$DIMLIM
 70
     0
  9
$DIMTIH
 70
     0
  9
$DIMTOH
 70
     0
  9
$DIMSE1
 70
     0
  9
$DIMSE2
 70
     0
  9
$DIMTAD
 70
     1
  9
$DIMZIN
 70
    12
  9
$DIMBLK
  1

  9
$DIMASO
 70
     1
  9
$DIMSHO
 70
     1
  9
$DIMPOST
  1

  9
$DIMAPOST
  1
"
  9
$DIMALT
 70
     0
  9
$DIMALTD
 70
     2
  9
$DIMALTF
 40
0.03937
  9
$DIMLFAC
 40
1.0
  9
$DIMTOFL
 70
     1
  9
$DIMTVP
 40
0.0
  9
$DIMTIX
 70
     0
  9
$DIMSOXD
 70
     0
  9
$DIMSAH
 70
     0
  9
$DIMBLK1
  1

  9
$DIMBLK2
  1

  9
$DIMSTYLE
  2
GEN-ISO
  9
$DIMCLRD
 70
   256
  9
$DIMCLRE
 70
   256
  9
$DIMCLRT
 70
     2
  9
$DIMTFAC
 40
0.71
  9
$DIMGAP
 40
0.6
  9
$DIMJUST
 70
     0
  9
$DIMSD1
 70
     0
  9
$DIMSD2
 70
     0
  9
$DIMTOLJ
 70
     0
  9
$DIMTZIN
 70
     0
  9
$DIMALTZ
 70
     0
  9
$DIMALTTZ
 70
     0
  9
$DIMUPT
 70
     0
  9
$DIMDEC
 70
     2
  9
$DIMTDEC
 70
     3
  9
$DIMALTU
 70
     2
  9
$DIMALTTD
 70
     4
  9
$DIMTXSTY
  7
STANDARD
  9
$DIMAUNIT
 70
     0
  9
$DIMADEC
 70
     0
  9
$DIMALTRND
 40
0.0
  9
$DIMAZIN
 70
     0
  9
$DIMDSEP
 70
    46
  9
$DIMATFIT
 70
     3
  9
$DIMFRAC
 70
     0
  9
$DIMLDRBLK
  1

  9
$DIMLUNIT
 70
     2
  9
$DIMLWD
 70
    -2
  9
$DIMLWE
 70
    -2
  9
$DIMTMOVE
 70
     0
  9
$LUNITS
 70
     2
  9
$LUPREC
 70
     2
  9
$SKETCHINC
 40
0.1
  9
$FILLETRAD
 40
12.5
  9
$AUNITS
 70
     0
  9
$AUPREC
 70
     2
  9
$MENU
  1
.
  9
$ELEVATION
 40
0.0
  9
$PELEVATION
 40
0.0
  9
$THICKNESS
 40
0.0
  9
$LIMCHECK
 70
     0
  9
$CHAMFERA
 40
12.5
  9
$CHAMFERB
 40
12.5
  9
$CHAMFERC
 40
0.0
  9
$CHAMFERD
 40
0.0
  9
$SKPOLY
 70
     0
  9
$TDCREATE
 40
2451260.631138542
  9
$TDUCREATE
 40
2451260.589471875
  9
$TDUPDATE
 40
2454038.546084803
  9
$TDUUPDATE
 40
2454038.504418137
  9
$TDINDWG
 40
0.0507919907
  9
$TDUSRTIMER
 40
0.0507919907
  9
$USRTIMER
 70
     1
  9
$ANGBASE
 50
0.0
  9
$ANGDIR
 70
     0
  9
$PDMODE
 70
     0
  9
$PDSIZE
 40
0.0
  9
$PLINEWID
 40
0.0
  9
$SPLFRAME
 70
     0
  9
$SPLINETYPE
 70
     6
  9
$SPLINESEGS
 70
     8
  9
$HANDSEED
  5
1CFC
  9
$SURFTAB1
 70
     6
  9
$SURFTAB2
 70
     6
  9
$SURFTYPE
 70
     6
  9
$SURFU
 70
     6
  9
$SURFV
 70
     6
  9
$UCSBASE
  2

  9
$UCSNAME
  2

  9
$UCSORG
 10
0.0
 20
0.0
 30
0.0
  9
$UCSXDIR
 10
1.0
 20
0.0
 30
0.0
  9
$UCSYDIR
 10
0.0
 20
1.0
 30
0.0
  9
$UCSORTHOREF
  2

  9
$UCSORTHOVIEW
 70
     0
  9
$UCSORGTOP
 10
0.0
 20
0.0
 30
0.0
  9
$UCSORGBOTTOM
 10
0.0
 20
0.0
 30
0.0
  9
$UCSORGLEFT
 10
0.0
 20
0.0
 30
0.0
  9
$UCSORGRIGHT
 10
0.0
 20
0.0
 30
0.0
  9
$UCSORGFRONT
 10
0.0
 20
0.0
 30
0.0
  9
$UCSORGBACK
 10
0.0
 20
0.0
 30
0.0
  9
$PUCSBASE
  2

  9
$PUCSNAME
  2

  9
$PUCSORG
 10
0.0
 20
0.0
 30
0.0
  9
$PUCSXDIR
 10
1.0
 20
0.0
 30
0.0
  9
$PUCSYDIR
 10
0.0
 20
1.0
 30
0.0
  9
$PUCSORTHOREF
  2

  9
$PUCSORTHOVIEW
 70
     0
  9
$PUCSORGTOP
 10
0.0
 20
0.0
 30
0.0
  9
$PUCSORGBOTTOM
 10
0.0
 20
0.0
 30
0.0
  9
$PUCSORGLEFT
 10
0.0
 20
0.0
 30
0.0
  9
$PUCSORGRIGHT
 10
0.0
 20
0.0
 30
0.0
  9
$PUCSORGFRONT
 10
0.0
 20
0.0
 30
0.0
  9
$PUCSORGBACK
 10
0.0
 20
0.0
 30
0.0
  9
$USERI1
 70
     0
  9
$USERI2
 70
     0
  9
$USERI3
 70
     0
  9
$USERI4
 70
     0
  9
$USERI5
 70
     0
  9
$USERR1
 40
0.0
  9
$USERR2
 40
0.0
  9
$USERR3
 40
0.0
  9
$USERR4
 40
0.0
  9
$USERR5
 40
0.0
  9
$WORLDVIEW
 70
     1
  9
$SHADEDGE
 70
     3
  9
$SHADEDIF
 70
    70
  9
$TILEMODE
 70
     1
  9
$MAXACTVP
 70
    48
  9
$PINSBASE
 10
0.0
 20
0.0
 30
0.0
  9
$PLIMCHECK
 70
     0
  9
$PEXTMIN
 10
0.0
 20
0.0
 30
0.0
  9
$PEXTMAX
 10
209.9
 20
296.9
 30
0.0
  9
$PLIMMIN
 10
0.0
 20
0.0
  9
$PLIMMAX
 10
209.9
 20
296.9
  9
$UNITMODE
 70
     0
  9
$VISRETAIN
 70
     1
  9
$PLINEGEN
 70
     1
  9
$PSLTSCALE
 70
     1
  9
$TREEDEPTH
 70
 -3020
  9
$CMLSTYLE
  2
STANDARD
  9
$CMLJUST
 70
     0
  9
$CMLSCALE
 40
1.0
  9
$PROXYGRAPHICS
 70
     1
  9
$MEASUREMENT
 70
     1
  9
$CELWEIGHT
370
    -1
  9
$ENDCAPS
280
     0
  9
$JOINSTYLE
280
     0
  9
$LWDISPLAY
290
     0
  9
$INSUNITS
 70
     0
  9
$HYPERLINKBASE
  1

  9
$STYLESHEET
  1

  9
$XEDIT
290
     1
  9
$CEPSNTYPE
380
     0
  9
$PSTYLEMODE
290
     1
  9
$FINGERPRINTGUID
  2
{F9D23FC9-802D-4909-9294-AE5EB261B4FB}
  9
$VERSIONGUID
  2
{9774B8A5-9664-4ED1-85AF-A0699257F995}
  9
$EXTNAMES
290
     1
  9
$PSVPSCALE
 40
0.0
  9
$OLESTARTUP
290
     0
  0
ENDSEC
  0
SECTION
  2
CLASSES
  0
CLASS
  1
ACDBDICTIONARYWDFLT
  2
AcDbDictionaryWithDefault
  3
ObjectDBX Classes
 90
        0
280
     0
281
     0
  0
CLASS
  1
TABLESTYLE
  2
AcDbTableStyle
  3
ObjectDBX Classes
 90
     2047
280
     0
281
     0
  0
CLASS
  1
AMGSETTINGSOBJ
  2
AmgSettingsObj
  3
"AcadM|Product Description: AutoCAD Mechanical 2000|Company: Autodesk"
 90
        0
280
     0
281
     0
  0
CLASS
  1
ACME_DOCUMENT
  2
AcMeDbDoc
  3
AcMeServices
 90
        0
280
     0
281
     0
  0
CLASS
  1
ACMESCOPE
  2
AcMeScope
  3
AcMeServices
 90
        0
280
     0
281
     0
  0
CLASS
  1
ACMECOMMANDHISTORY
  2
AcMeCommandHistory
  3
AcMeServices
 90
        0
280
     0
281
     0
  0
CLASS
  1
ACIMSYSVARMAN
  2
AcImSysVarManager
  3
AcMeServices
 90
        0
280
     0
281
     0
  0
CLASS
  1
ACIMINTSYSVAR
  2
AcImIntSysVar
  3
AcMeServices
 90
        0
280
     0
281
     0
  0
CLASS
  1
ACMEDRAWINGMAN
  2
AcMeDrawingMan
  3
AcMeServices
 90
        0
280
     0
281
     0
  0
CLASS
  1
ACMEVIEW
  2
AcMeView
  3
AcMeServices
 90
        0
280
     0
281
     0
  0
CLASS
  1
ACDBENTITYCACHE
  2
AcMeEntityCache
  3
AcMeServices
 90
        0
280
     0
281
     0
  0
CLASS
  1
GSMANAGER
  2
AcMeGSManager
  3
AcMeServices
 90
        0
280
     0
281
     0
  0
CLASS
  1
AMDTINTERNALREACTOR
  2
AmdtInternalReactor
  3
AcMeServices
 90
        0
280
     0
281
     0
  0
CLASS
  1
ACMESTATEMGR
  2
AcMeStateMgr
  3
AcMeServices
 90
        0
280
     0
281
     0
  0
CLASS
  1
ACGREFMASTER
  2
AcGrefMaster
  3
AcAttribServices
 90
        0
280
     0
281
     0
  0
CLASS
  1
AM_DRAWING_MGR
  2
AcDmDwgMgr
  3
AcMechDwgViewMgmt
 90
        0
280
     0
281
     0
  0
CLASS
  1
AM_DWG_DOCUMENT
  2
AcDmDwgDocument
  3
AcMechDwgViewMgmt
 90
        0
280
     0
281
     0
  0
CLASS
  1
AM_DWG_SHEET
  2
AcDmSheet
  3
AcMechDwgViewMgmt
 90
        0
280
     0
281
     0
  0
CLASS
  1
AM_VIEWDIMPARMAP
  2
AcDmViewDimParMap
  3
AcMechDwgViewMgmt
 90
        0
280
     0
281
     0
  0
CLASS
  1
ACIMREALSYSVAR
  2
AcImRealSysVar
  3
AcMeServices
 90
        0
280
     0
281
     0
  0
CLASS
  1
AM_DWGMGR_NAME
  2
AcDmDwgMgrName
  3
AcMechDwgViewMgmt
 90
        0
280
     0
281
     0
  0
CLASS
  1
ACME_DATABASE
  2
AcMeDbDatabase
  3
AcMeServices
 90
        0
280
     0
281
     0
  0
CLASS
  1
ACRFINSADJUSTERMGR
  2
AcRfInsAdjusterMgr
  3
AcMeServices
 90
        0
280
     0
281
     0
  0
CLASS
  1
ACGREFACADMASTER
  2
AcGrefacadMaster
  3
AcGrefServices
 90
        0
280
     0
281
     0
  0
CLASS
  1
AMDTMENUSTATEMGR
  2
AmdtMenuStateMgr
  3
McadcomServices
 90
        0
280
     0
281
     0
  0
CLASS
  1
AMDTMCOMMENUSTATE
  2
AmdtMcomMenuState
  3
McadcomServices
 90
        0
280
     0
281
     0
  0
CLASS
  1
AMIMASTER
  2
AmiMaster
  3
AmiServices
 90
        0
280
     0
281
     0
  0
CLASS
  1
MAPIAMMOUDLE
  2
MApiAmModule
  3
MApiAmServices
 90
        0
280
     0
281
     0
  0
CLASS
  1
ACIMSTRSYSVAR
  2
AcImStrSysVar
  3
AcMeServices
 90
        0
280
     0
281
     0
  0
CLASS
  1
AMDTADMENUSTATE
  2
AmdtAdMenuState
  3
DesignerServices
 90
        0
280
     0
281
     0
  0
CLASS
  1
ADAPPL
  2
AcAdAppl
  3
DesignerServices
 90
        0
280
     0
281
     0
  0
CLASS
  1
DEPMGR
  2
AcAdDepMgr
  3
DesignerServices
 90
        0
280
     0
281
     0
  0
CLASS
  1
PARAMMGR
  2
AcAdParamMgr
  3
DesignerServices
 90
        0
280
     0
281
     0
  0
CLASS
  1
PARAMSCOPE
  2
AcAdParamScope
  3
DesignerServices
 90
        0
280
     0
281
     0
  0
CLASS
  1
NAMEDAPPL
  2
AcAdNamedAppl
  3
DesignerServices
 90
        0
280
     0
281
     0
  0
CLASS
  1
AMDTDMMENUSTATE
  2
AmdtDmMenuState
  3
AcMechDwgViewMgmt
 90
        0
280
     0
281
     0
  0
CLASS
  1
AMDTAMMENUSTATE
  2
AmdtAmMenuState
  3
DesignerAssemblies
 90
        0
280
     0
281
     0
  0
CLASS
  1
ACAMPROJECT
  2
AcAmProject
  3
DesignerAssemblies
 90
        0
280
     0
281
     0
  0
CLASS
  1
ACAMGRCOMPDEF
  2
AcAmGrCompDef
  3
DesignerAssemblies
 90
        0
280
     0
281
     0
  0
CLASS
  1
ACCMCONTEXT
  2
AcCmContext
  3
DesignerAssemblies
 90
        0
280
     0
281
     0
  0
CLASS
  1
ACAMCOMPDEF
  2
AcAmCompDef
  3
DesignerAssemblies
 90
        0
280
     0
281
     0
  0
CLASS
  1
ACAMCOMPDEFMGR
  2
AcAmCompDefMgr
  3
DesignerAssemblies
 90
        0
280
     0
281
     0
  0
CLASS
  1
AMCONTEXTMGR
  2
AcAmContextMgr
  3
DesignerAssemblies
 90
        0
280
     0
281
     0
  0
CLASS
  1
ACAMCONTEXTMODELER
  2
AcAmContextModeler
  3
DesignerAssemblies
 90
        0
280
     0
281
     0
  0
CLASS
  1
ACMDATADICTIONARY
  2
AcmDataDictionary
  3
"AcmSymBB|Product Description: AutoCAD Mechanical 2004 DX|Company: Autodesk"
 90
        0
280
     0
281
     0
  0
CLASS
  1
CATALOGSTATE
  2
AcAmCatalogState
  3
DesignerAssemblies
 90
        0
280
     0
281
     0
  0
CLASS
  1
ACAMGRCOMPDEFSET
  2
AcAmGrCompDefSet
  3
DesignerAssemblies
 90
        0
280
     0
281
     0
  0
CLASS
  1
AMDTBROWSERDBTAB
  2
AmdtBrowserDbTab
  3
McadcomServices
 90
        0
280
     0
281
     0
  0
CLASS
  1
CBROWSERAPPOBJECT
  2
CBrowserAppObject
  3
McadcomServices
 90
        0
280
     0
281
     0
  0
CLASS
  1
DM_PLACEHOLDER
  2
AcDmSelsetPlaceholder
  3
AcMechDwgViewMgmt
 90
        0
280
     0
281
     0
  0
CLASS
  1
ACMSTANDARDDIN
  2
AcmStandardDIN
  3
"Amdt_StdImp|Product Description: AutoCAD Mechanical 2004 DX|Company: Autodesk"
 90
        0
280
     0
281
     0
  0
CLASS
  1
AMGOBJPROPCFG
  2
AmgObjPropCfg
  3
"AmgLay|Product Description: AutoCAD Mechanical 2000|Company: Autodesk"
 90
        1
280
     0
281
     0
  0
CLASS
  1
AMDTEDGESTANDARDDIN13715
  2
AmdtEdgeStdDIN13715
  3
"Amdt_StdImp|Product Description: AutoCAD Mechanical 2004 DX|Company: Autodesk"
 90
        0
280
     0
281
     0
  0
CLASS
  1
ACMSURFSTANDARDDIN
  2
AcmSurfTextStdDIN
  3
"Amdt_StdImp|Product Description: AutoCAD Mechanical 2004 DX|Company: Autodesk"
 90
        0
280
     0
281
     0
  0
CLASS
  1
ACMFCFSTANDARDDIN
  2
AcmFCFStdDIN
  3
"Amdt_StdImp|Product Description: AutoCAD Mechanical 2004 DX|Company: Autodesk"
 90
        0
280
     0
281
     0
  0
CLASS
  1
ACMWELDSTANDARDDIN
  2
AcmWeldingStdDIN
  3
"Amdt_StdImp|Product Description: AutoCAD Mechanical 2004 DX|Company: Autodesk"
 90
        0
280
     0
281
     0
  0
CLASS
  1
ACMIDSTANDARDDIN
  2
AcmIdStdDIN
  3
"Amdt_StdImp|Product Description: AutoCAD Mechanical 2004 DX|Company: Autodesk"
 90
        0
280
     0
281
     0
  0
CLASS
  1
ACMDATUMSTANDARDDIN
  2
AcmDatumStdDIN
  3
"Amdt_StdImp|Product Description: AutoCAD Mechanical 2004 DX|Company: Autodesk"
 90
        0
280
     0
281
     0
  0
CLASS
  1
ACMBOMSTANDARDDIN
  2
AcmBOMStdDIN
  3
"Amdt_StdImp|Product Description: AutoCAD Mechanical 2004 DX|Company: Autodesk"
 90
        0
280
     0
281
     0
  0
CLASS
  1
ACMDETAILSTANDARDDIN
  2
AmdtDetailSymStdDIN
  3
"Amdt_StdImp|Product Description: AutoCAD Mechanical 2004 DX|Company: Autodesk"
 90
        0
280
     0
281
     0
  0
CLASS
  1
ACMSECTIONSTANDARDDIN
  2
AmdtSectionSymStdDIN
  3
"Amdt_StdImp|Product Description: AutoCAD Mechanical 2004 DX|Company: Autodesk"
 90
        0
280
     0
281
     0
  0
CLASS
  1
ACMCENTERLINESTANDARDDIN
  2
AmdtCenterLineStdDIN
  3
"Amdt_StdImp|Product Description: AutoCAD Mechanical 2004 DX|Company: Autodesk"
 90
        0
280
     0
281
     0
  0
CLASS
  1
ACMTHREADLINESTANDARDDIN
  2
AmdtThreadLineStdDIN
  3
"Amdt_StdImp|Product Description: AutoCAD Mechanical 2004 DX|Company: Autodesk"
 90
        0
280
     0
281
     0
  0
CLASS
  1
ACMNOTESTANDARDDIN
  2
AmdtNoteStdDIN
  3
"Amdt_StdImp|Product Description: AutoCAD Mechanical 2004 DX|Company: Autodesk"
 90
        0
280
     0
281
     0
  0
CLASS
  1
AMDTNOTETEMPLATEDB
  2
AmdtNoteTemplateDB
  3
AMDT_STDIMP_MODULE_NAME
 90
        0
280
     0
281
     0
  0
CLASS
  1
ACAMGLAYSTD
  2
AcAmgLayStd
  3
"AcAmgLayStd|Product Description: AutoCAD Mechanical 2000|Company: Autodesk"
 90
        0
280
     0
281
     0
  0
CLASS
  1
ACAMGDIMSTD
  2
AcAmgDimStd
  3
"AcAmgDimStd|Product Description: AutoCAD Mechanical 2000|Company: Autodesk"
 90
        0
280
     0
281
     0
  0
CLASS
  1
ACAMGHOLECHARTSTDDIN
  2
AcAmgHoleChartStdDIN
  3
ACMSYMBB_MODULE_NAME
 90
        0
280
     0
281
     0
  0
CLASS
  1
ACAMGTITLESTD
  2
AcAmgTitleStd
  3
"TITLEAPP"
 90
        0
280
     0
281
     0
  0
CLASS
  1
ACAMGFILTERDAT
  2
AcAmgFilterDat
  3
"AcadM|Product Description: AutoCAD Mechanical 2000|Company: Autodesk"
 90
        0
280
     0
281
     0
  0
CLASS
  1
DICTIONARYVAR
  2
AcDbDictionaryVar
  3
ObjectDBX Classes
 90
        0
280
     0
281
     0
  0
CLASS
  1
ACDBPLACEHOLDER
  2
AcDbPlaceHolder
  3
ObjectDBX Classes
 90
        0
280
     0
281
     0
  0
CLASS
  1
LAYOUT
  2
AcDbLayout
  3
ObjectDBX Classes
 90
        0
280
     0
281
     0
  0
ENDSEC
  0
SECTION
  2
TABLES
  0
TABLE
  2
VPORT
  5
1181
330
0
100
AcDbSymbolTable
 70
     4
  0
VPORT
  5
1CF6
330
1181
100
AcDbSymbolTableRecord
100
AcDbViewportTableRecord
  2
*Active
 70
     0
 10
0.0
 20
0.0
 11
1.0
 21
1.0
 12
489.0312218852702
 22
405.998613756381
 13
0.0
 23
0.0
 14
5.0
 24
5.0
 15
50.0
 25
50.0
 16
0.0
 26
0.0
 36
1.0
 17
0.0
 27
0.0
 37
0.0
 40
406.2210796165513
 41
1.494545454545454
 42
50.0
 43
0.0
 44
0.0
 50
0.0
 51
0.0
 71
     0
 72
  1000
 73
     1
 74
     1
 75
     0
 76
     0
 77
     0
 78
     0
281
     0
 65
     0
110
0.0
120
0.0
130
0.0
111
1.0
121
0.0
131
0.0
112
0.0
122
1.0
132
0.0
 79
     0
146
0.0
  0
ENDTAB
  0
TABLE
  2
LTYPE
  5
117E
330
0
100
AcDbSymbolTable
 70
    20
  0
LTYPE
  5
118B
330
117E
100
AcDbSymbolTableRecord
100
AcDbLinetypeTableRecord
  2
BYBLOCK
 70
     0
  3

 72
    65
 73
     0
 40
0.0
  0
LTYPE
  5
118C
330
117E
100
AcDbSymbolTableRecord
100
AcDbLinetypeTableRecord
  2
BYLAYER
 70
     0
  3

 72
    65
 73
     0
 40
0.0
  0
LTYPE
  5
118D
330
117E
100
AcDbSymbolTableRecord
100
AcDbLinetypeTableRecord
  2
CONTINUOUS
 70
     0
  3
Solid line
 72
    65
 73
     0
 40
0.0
  0
LTYPE
  5
119C
330
117E
100
AcDbSymbolTableRecord
100
AcDbLinetypeTableRecord
  2
GEN7
 70
     0
  3
____ _ ____ _ ____ _ ____ _ ____ _ ____ _ ____ _ ____ _ ____ _
 72
    65
 73
     4
 40
22.0
 49
10.75
 74
     0
 49
-3.75
 74
     0
 49
3.75
 74
     0
 49
-3.75
 74
     0
  0
LTYPE
  5
1C4D
330
117E
100
AcDbSymbolTableRecord
100
AcDbLinetypeTableRecord
  2
HIDDEN
 70
     0
  3
Verdeckt
 72
    65
 73
     2
 40
9.525
 49
6.349999999999999
 74
     0
 49
-3.174999999999999
 74
     0
  0
LTYPE
  5
1C4E
330
117E
100
AcDbSymbolTableRecord
100
AcDbLinetypeTableRecord
  2
PHANTOM2
 70
     0
  3
Phantom (.5x) ___ _ _ ___ _ _ ___ _ _ ___ _ _
 72
    65
 73
     6
 40
31.75
 49
15.875
 74
     0
 49
-3.174999999999999
 74
     0
 49
3.174999999999999
 74
     0
 49
-3.174999999999999
 74
     0
 49
3.174999999999999
 74
     0
 49
-3.174999999999999
 74
     0
  0
LTYPE
  5
1C4F
330
117E
100
AcDbSymbolTableRecord
100
AcDbLinetypeTableRecord
  2
CENTER
 70
     0
  3
Mitte ____ _ ____ _ ____ _ ____ _ ____ _ ____
 72
    65
 73
     4
 40
50.8
 49
31.75
 74
     0
 49
-6.349999999999999
 74
     0
 49
6.349999999999999
 74
     0
 49
-6.349999999999999
 74
     0
  0
LTYPE
  5
1C86
330
117E
100
AcDbSymbolTableRecord
100
AcDbLinetypeTableRecord
  2
Amconstr
 70
     0
  3
_______________________
 72
    65
 73
     2
 40
9999.0
 49
9999.0
 74
     0
 49
0.0
 74
     0
  0
LTYPE
  5
1C8B
330
117E
100
AcDbSymbolTableRecord
100
AcDbLinetypeTableRecord
  2
Amzigzag
 70
     0
  3
/\/-/\/-/\/-/\/-/\/-/\/
 72
    65
 73
     2
 40
11.0001
 49
0.0001
 74
     4
 75
   136
340
1C8A
 46
0.04
 50
0.0
 44
0.0
 45
0.0
 49
-11.0
 74
     0
  0
LTYPE
  5
1C8C
330
117E
100
AcDbSymbolTableRecord
100
AcDbLinetypeTableRecord
  2
AM_DIN_F_W050
 70
     0
  3
__ __ __ __ __ __ __ __ __ __ __ __ __ __ __
 72
    65
 73
     2
 40
6.25
 49
4.75
 74
     0
 49
-1.5
 74
     0
  0
LTYPE
  5
1C8D
330
117E
100
AcDbSymbolTableRecord
100
AcDbLinetypeTableRecord
  2
AM_DIN_G_W050
 70
     0
  3
____ . ____ . ____ . ____ . ____ . ____ . ____
 72
    65
 73
     4
 40
13.75
 49
9.75
 74
     0
 49
-1.5
 74
     0
 49
1.0
 74
     0
 49
-1.5
 74
     0
  0
LTYPE
  5
1C8E
330
117E
100
AcDbSymbolTableRecord
100
AcDbLinetypeTableRecord
  2
AM_DIN_K_W050
 70
     0
  3
_____ . . _____ . . _____ . . ____ .. ____
 72
    65
 73
     6
 40
16.25
 49
9.75
 74
     0
 49
-1.5
 74
     0
 49
1.0
 74
     0
 49
-1.5
 74
     0
 49
1.0
 74
     0
 49
-1.5
 74
     0
  0
LTYPE
  5
1C8F
330
117E
100
AcDbSymbolTableRecord
100
AcDbLinetypeTableRecord
  2
AM_DIN_G_W050x2
 70
     0
  3
__ . __ . __ . __ . __ . __
 72
    65
 73
     4
 40
6.875
 49
4.75
 74
     0
 49
-0.875
 74
     0
 49
0.375
 74
     0
 49
-0.875
 74
     0
  0
LTYPE
  5
1C90
330
117E
100
AcDbSymbolTableRecord
100
AcDbLinetypeTableRecord
  2
AM_DIN_F_W050x2
 70
     0
  3
 _ _ _ _ _ _ _ _ _ _ _ _
 72
    65
 73
     2
 40
3.125
 49
2.25
 74
     0
 49
-0.875
 74
     0
  0
LTYPE
  5
1C9F
330
117E
100
AcDbSymbolTableRecord
100
AcDbLinetypeTableRecord
  2
ACDINWELD
 70
     0
  3
_ _ _ _ _
 72
    65
 73
     2
 40
2.0
 49
2.0
 74
     0
 49
-1.0
 74
     0
  0
LTYPE
  5
1CA0
330
117E
100
AcDbSymbolTableRecord
100
AcDbLinetypeTableRecord
  2
ACDINTGB
 70
     0
  3
__ . . __ . .
 72
    65
 73
     6
 40
9.0
 49
4.0
 74
     0
 49
-1.0
 74
     0
 49
1.0
 74
     0
 49
-1.0
 74
     0
 49
1.0
 74
     0
 49
-1.0
 74
     0
  0
LTYPE
  5
1CA1
330
117E
100
AcDbSymbolTableRecord
100
AcDbLinetypeTableRecord
  2
ACDINTGL
 70
     0
  3
_ _ _ _ _
 72
    65
 73
     2
 40
3.0
 49
2.0
 74
     0
 49
-1.0
 74
     0
  0
ENDTAB
  0
TABLE
  2
LAYER
  5
117B
330
0
100
AcDbSymbolTable
 70
    13
  0
LAYER
  5
1187
330
117B
100
AcDbSymbolTableRecord
100
AcDbLayerTableRecord
  2
0
 70
     0
 62
     7
  6
CONTINUOUS
370
    -3
390
1C11
  0
LAYER
  5
11A4
330
117B
100
AcDbSymbolTableRecord
100
AcDbLayerTableRecord
  2
5
 70
     0
 62
     3
  6
CONTINUOUS
370
    -3
390
1C11
  0
LAYER
  5
11A6
330
117B
100
AcDbSymbolTableRecord
100
AcDbLayerTableRecord
  2
7
 70
     0
 62
     4
  6
GEN7
370
    -3
390
1C11
  0
LAYER
  5
11A7
330
117B
100
AcDbSymbolTableRecord
100
AcDbLayerTableRecord
  2
8
 70
     0
 62
     1
  6
CONTINUOUS
370
    -3
390
1C11
  0
LAYER
  5
11A9
330
117B
100
AcDbSymbolTableRecord
100
AcDbLayerTableRecord
  2
PUNKTE
 70
     0
 62
     1
  6
CONTINUOUS
370
    -3
390
1C11
  0
LAYER
  5
11AA
330
117B
100
AcDbSymbolTableRecord
100
AcDbLayerTableRecord
  2
SCHRAFFUR_RAND
 70
     1
 62
   -36
  6
CONTINUOUS
370
    -3
390
1C11
  0
LAYER
  5
11CC
330
117B
100
AcDbSymbolTableRecord
100
AcDbLayerTableRecord
  2
DEFPOINTS
 70
     0
 62
     7
  6
CONTINUOUS
290
     0
370
    -3
390
1C11
  0
LAYER
  5
1346
330
117B
100
AcDbSymbolTableRecord
100
AcDbLayerTableRecord
  2
4
 70
     0
 62
     3
  6
CONTINUOUS
370
    -3
390
1C11
  0
ENDTAB
  0
TABLE
  2
STYLE
  5
117C
330
0
100
AcDbSymbolTable
 70
     4
  0
STYLE
  5
1188
330
117C
100
AcDbSymbolTableRecord
100
AcDbTextStyleTableRecord
  2
STANDARD
 70
     0
 40
0.0
 41
1.0
 50
0.0
 71
     0
 42
25.0
  3
ISOCP.SHX
  4

  0
STYLE
  5
1C8A
330
117C
100
AcDbSymbolTableRecord
100
AcDbTextStyleTableRecord
  2

 70
     1
 40
0.0
 41
1.0
 50
0.0
 71
     0
 42
0.2
  3
genltshp.shx
  4

  0
STYLE
  5
1C91
330
117C
100
AcDbSymbolTableRecord
100
AcDbTextStyleTableRecord
  2
ACDINTS
 70
     0
 40
1.0
 41
1.0
 50
0.0
 71
     0
 42
0.2
  3
isocp.shx
  4

  0
STYLE
  5
1C9E
330
117C
100
AcDbSymbolTableRecord
100
AcDbTextStyleTableRecord
  2
ACDINGDT
 70
     0
 40
0.0
 41
1.0
 50
0.0
 71
     0
 42
0.2
  3
AMGDT
  4

  0
ENDTAB
  0
TABLE
  2
VIEW
  5
117F
330
0
100
AcDbSymbolTable
 70
     6
  0
VIEW
  5
122F
330
117F
100
AcDbSymbolTableRecord
100
AcDbViewTableRecord
  2
GEN1
 70
     0
 40
525.0
 10
403.491903
 20
787.5
 41
806.983806
 11
0.0
 21
0.0
 31
1.0
 12
0.0
 22
0.0
 32
0.0
 42
50.0
 43
0.0
 44
0.0
 50
0.0
 71
     0
281
     0
 72
     0
  0
VIEW
  5
1230
330
117F
100
AcDbSymbolTableRecord
100
AcDbViewTableRecord
  2
GEN2
 70
     0
 40
525.0
 10
646.508097
 20
787.5
 41
806.983806
 11
0.0
 21
0.0
 31
1.0
 12
0.0
 22
0.0
 32
0.0
 42
50.0
 43
0.0
 44
0.0
 50
0.0
 71
     0
281
     0
 72
     0
  0
VIEW
  5
1231
330
117F
100
AcDbSymbolTableRecord
100
AcDbViewTableRecord
  2
GEN3
 70
     0
 40
525.0
 10
403.491903
 20
262.5
 41
806.983806
 11
0.0
 21
0.0
 31
1.0
 12
0.0
 22
0.0
 32
0.0
 42
50.0
 43
0.0
 44
0.0
 50
0.0
 71
     0
281
     0
 72
     0
  0
VIEW
  5
1232
330
117F
100
AcDbSymbolTableRecord
100
AcDbViewTableRecord
  2
GEN4
 70
     0
 40
525.0
 10
646.508097
 20
262.5
 41
806.983806
 11
0.0
 21
0.0
 31
1.0
 12
0.0
 22
0.0
 32
0.0
 42
50.0
 43
0.0
 44
0.0
 50
0.0
 71
     0
281
     0
 72
     0
  0
VIEW
  5
1233
330
117F
100
AcDbSymbolTableRecord
100
AcDbViewTableRecord
  2
GEN5
 70
     0
 40
525.0
 10
525.0
 20
525.0
 41
806.983806
 11
0.0
 21
0.0
 31
1.0
 12
0.0
 22
0.0
 32
0.0
 42
50.0
 43
0.0
 44
0.0
 50
0.0
 71
     0
281
     0
 72
     0
  0
VIEW
  5
1234
330
117F
100
AcDbSymbolTableRecord
100
AcDbViewTableRecord
  2
GEN6
 70
     0
 40
1049.9895
 10
525.0
 20
525.0
 41
1613.951472
 11
0.0
 21
0.0
 31
1.0
 12
0.0
 22
0.0
 32
0.0
 42
50.0
 43
0.0
 44
0.0
 50
0.0
 71
     0
281
     0
 72
     0
  0
ENDTAB
  0
TABLE
  2
UCS
  5
1180
330
0
100
AcDbSymbolTable
 70
     0
  0
ENDTAB
  0
TABLE
  2
APPID
  5
1182
330
0
100
AcDbSymbolTable
 70
    36
  0
APPID
  5
1189
330
1182
100
AcDbSymbolTableRecord
100
AcDbRegAppTableRecord
  2
ACAD
 70
     0
  0
APPID
  5
11BB
330
1182
100
AcDbSymbolTableRecord
100
AcDbRegAppTableRecord
  2
GENIUS_GENCFG_13
 70
     0
1001
GENIUS_GENCFG0_13
1000
GEN@INFO_POS@XLATE
1001
GENIUS_GENCFG1_13
1000
GEN@INFO_POS
1001
GENIUS_GENCFG2_13
1000
GEN@LAYER@DEFS
1001
GENIUS_GENCFG3_13
1000
GEN@LAYER@ENTSORT
1001
GENIUS_GENCFG4_13
1000
GEN
1001
GENIUS_GEVCFG0_13
1000
GEV
1001
GENIUS_DUMCFG0_13
1000
DUM
  0
APPID
  5
11BC
330
1182
100
AcDbSymbolTableRecord
100
AcDbRegAppTableRecord
  2
GENIUS_DUMCFG0_13
 70
     0
1001
GENIUS_GENCFG_13
1071
929948085
1000
11BC
1000
DUM
1070
     0
  0
APPID
  5
11BD
330
1182
100
AcDbSymbolTableRecord
100
AcDbRegAppTableRecord
  2
GENIUS_GENCFG0_13
 70
     0
1001
GENIUS_GENCFG_13
1071
1020870360
1000
11BD
1000
GEN@INFO_POS@XLATE
1070
     7
1000
GenCfgObject
1000
GenCfgShort
1000
GenCfgReal
1000
GenCfgBool
1000
GenCfgString
1000
GenCfgDim
1000
GenCfgAttrInf
1000
INFOPOINTS
1070
     0
1002
{
1000
GENINF14
1070
     0
1002
{
1000
2GENINF
1070
     4
1000
2
1002
{
1002
}
1000
5GENINF
1070
     4
1000
5
1002
{
1002
}
1000
7GENINF
1070
     4
1000
7
1002
{
1002
}
1000
9GENINF
1070
     4
1000
9
1002
{
1002
}
1000
11GENINF
1070
     4
1000
11
1002
{
1002
}
1000
14GENINF
1070
     4
1000
14
1002
{
1002
}
1002
}
1000
GENINF13
1070
     0
1002
{
1000
2GENINF
1070
     4
1000
2
1002
{
1002
}
1000
3GENINF
1070
     4
1000
3
1002
{
1002
}
1000
4GENINF
1070
     4
1000
4
1002
{
1002
}
1000
5GENINF
1070
     4
1000
5
1002
{
1002
}
1000
6GENINF
1070
     4
1000
6
1002
{
1002
}
1000
7GENINF
1070
     4
1000
7
1002
{
1002
}
1000
8GENINF
1070
     4
1000
8
1002
{
1002
}
1000
9GENINF
1070
     4
1000
9
1002
{
1002
}
1000
10GENINF
1070
     4
1000
10
1002
{
1002
}
1000
11GENINF
1070
     4
1000
11
1002
{
1002
}
1000
12GENINF
1070
     4
1000
12
1002
{
1002
}
1000
13GENINF
1070
     4
1000
13
1002
{
1002
}
1000
14GENINF
1070
     4
1000
14
1002
{
1002
}
1000
15GENINF
1070
     4
1000
15
1002
{
1002
}
1000
16GENINF
1070
     4
1000
16
1002
{
1002
}
1000
17GENINF
1070
     4
1000
17
1002
{
1002
}
1000
18GENINF
1070
     4
1000
18
1002
{
1002
}
1000
19GENINF
1070
     4
1000
19
1002
{
1002
}
1000
20GENINF
1070
     4
1000
20
1002
{
1002
}
1000
21GENINF
1070
     4
1000
21
1002
{
1002
}
1000
22GENINF
1070
     4
1000
22
1002
{
1002
}
1000
23GENINF
1070
     4
1000
23
1002
{
1002
}
1000
24GENINF
1070
     4
1000
24
1002
{
1002
}
1000
0GENINF
1070
     4
1000
0
1002
{
1002
}
1002
}
1000
GENINFO
1070
     0
1002
{
1000
3GENINF
1070
     4
1000
3
1002
{
1002
}
1000
4GENINF
1070
     4
1000
4
1002
{
1002
}
1000
5GENINF
1070
     4
1000
5
1002
{
1002
}
1000
6GENINF
1070
     4
1000
6
1002
{
1002
}
1000
7GENINF
1070
     4
1000
7
1002
{
1002
}
1000
8GENINF
1070
     4
1000
8
1002
{
1002
}
1000
9GENINF
1070
     4
1000
9
1002
{
1002
}
1000
10GENINF
1070
     4
1000
10
1002
{
1002
}
1000
11GENINF
1070
     4
1000
11
1002
{
1002
}
1000
12GENINF
1070
     4
1000
12
1002
{
1002
}
1000
13GENINF
1070
     4
1000
13
1002
{
1002
}
1000
14GENINF
1070
     4
1000
14
1002
{
1002
}
1000
15GENINF
1070
     4
1000
15
1002
{
1002
}
1000
16GENINF
1070
     4
1000
16
1002
{
1002
}
1000
17GENINF
1070
     4
1000
17
1002
{
1002
}
1000
18GENINF
1070
     4
1000
18
1002
{
1002
}
1000
19GENINF
1070
     4
1000
19
1002
{
1002
}
1000
20GENINF
1070
     4
1000
20
1002
{
1002
}
1000
21GENINF
1070
     4
1000
21
1002
{
1002
}
1000
22GENINF
1070
     4
1000
22
1002
{
1002
}
1002
}
1000
DININFO
1070
     0
1002
{
1000
ST-NAME1
1070
     4
1000
5
1002
{
1002
}
1000
ST-NAME2
1070
     4
1000
6
1002
{
1002
}
1000
ST-NORM1
1070
     4
1000
7
1002
{
1002
}
1000
ST-NORM2
1070
     4
1000
8
1002
{
1002
}
1000
ST-MAT1
1070
     4
1000
9
1002
{
1002
}
1000
ST-MAT2
1070
     4
1000
10
1002
{
1002
}
1002
}
1002
}
1000
POS_NUMBERS
1070
     0
1002
{
1000
GENPOS14
1070
     0
1002
{
1000
1GENPOS
1070
     4
1000
1
1002
{
1002
}
1000
2GENPOS
1070
     4
1000
2
1002
{
1002
}
1000
5GENPOS
1070
     4
1000
5
1002
{
1002
}
1000
7GENPOS
1070
     4
1000
7
1002
{
1002
}
1000
9GENPOS
1070
     4
1000
9
1002
{
1002
}
1000
11GENPOS
1070
     4
1000
11
1002
{
1002
}
1000
14GENPOS
1070
     4
1000
14
1002
{
1002
}
1002
}
1000
GENPOS13
1070
     0
1002
{
1000
1GENPOS
1070
     4
1000
1
1002
{
1002
}
1000
2GENPOS
1070
     4
1000
2
1002
{
1002
}
1000
3GENPOS
1070
     4
1000
3
1002
{
1002
}
1000
4GENPOS
1070
     4
1000
4
1002
{
1002
}
1000
5GENPOS
1070
     4
1000
5
1002
{
1002
}
1000
6GENPOS
1070
     4
1000
6
1002
{
1002
}
1000
7GENPOS
1070
     4
1000
7
1002
{
1002
}
1000
8GENPOS
1070
     4
1000
8
1002
{
1002
}
1000
9GENPOS
1070
     4
1000
9
1002
{
1002
}
1000
10GENPOS
1070
     4
1000
10
1002
{
1002
}
1000
11GENPOS
1070
     4
1000
11
1002
{
1002
}
1000
12GENPOS
1070
     4
1000
12
1002
{
1002
}
1000
13GENPOS
1070
     4
1000
13
1002
{
1002
}
1000
14GENPOS
1070
     4
1000
14
1002
{
1002
}
1000
15GENPOS
1070
     4
1000
15
1002
{
1002
}
1000
16GENPOS
1070
     4
1000
16
1002
{
1002
}
1000
17GENPOS
1070
     4
1000
17
1002
{
1002
}
1000
18GENPOS
1070
     4
1000
18
1002
{
1002
}
1000
19GENPOS
1070
     4
1000
19
1002
{
1002
}
1000
20GENPOS
1070
     4
1000
20
1002
{
1002
}
1000
21GENPOS
1070
     4
1000
21
1002
{
1002
}
1000
22GENPOS
1070
     4
1000
22
1002
{
1002
}
1000
23GENPOS
1070
     4
1000
23
1002
{
1002
}
1000
24GENPOS
1070
     4
1000
24
1002
{
1002
}
1000
0GENPOS
1070
     4
1000
0
1002
{
1002
}
1002
}
1000
GENPOS
1070
     0
1002
{
1000
1GENPOS
1070
     4
1000
1
1002
{
1002
}
1000
2GENPOS
1070
     4
1000
2
1002
{
1002
}
1000
3GENPOS
1070
     4
1000
3
1002
{
1002
}
1000
4GENPOS
1070
     4
1000
4
1002
{
1002
}
1000
5GENPOS
1070
     4
1000
5
1002
{
1002
}
1000
6GENPOS
1070
     4
1000
6
1002
{
1002
}
1000
7GENPOS
1070
     4
1000
7
1002
{
1002
}
1000
8GENPOS
1070
     4
1000
8
1002
{
1002
}
1000
9GENPOS
1070
     4
1000
9
1002
{
1002
}
1000
10GENPOS
1070
     4
1000
10
1002
{
1002
}
1000
11GENPOS
1070
     4
1000
11
1002
{
1002
}
1000
12GENPOS
1070
     4
1000
12
1002
{
1002
}
1000
13GENPOS
1070
     4
1000
13
1002
{
1002
}
1000
14GENPOS
1070
     4
1000
14
1002
{
1002
}
1000
15GENPOS
1070
     4
1000
15
1002
{
1002
}
1000
16GENPOS
1070
     4
1000
16
1002
{
1002
}
1000
17GENPOS
1070
     4
1000
17
1002
{
1002
}
1000
18GENPOS
1070
     4
1000
18
1002
{
1002
}
1000
19GENPOS
1070
     4
1000
19
1002
{
1002
}
1000
20GENPOS
1070
     4
1000
20
1002
{
1002
}
1000
21GENPOS
1070
     4
1000
21
1002
{
1002
}
1000
22GENPOS
1070
     4
1000
22
1002
{
1002
}
1000
23GENPOS
1070
     4
1000
23
1002
{
1002
}
1002
}
1000
DIN985
1070
     0
1002
{
1000
POSITION
1070
     4
1000
1
1002
{
1002
}
1000
MENGE
1070
     4
1000
2
1002
{
1002
}
1000
BLATT
1070
     4
1000
3
1002
{
1002
}
1000
BENENN
1070
     4
1000
5
1002
{
1002
}
1000
BENENN2
1070
     4
1000
6
1002
{
1002
}
1000
NORM
1070
     4
1000
7
1002
{
1002
}
1000
NORM2
1070
     4
1000
8
1002
{
1002
}
1000
WERKSTOFF
1070
     4
1000
9
1002
{
1002
}
1000
WERKSTOFF2
1070
     4
1000
10
1002
{
1002
}
1002
}
1000
DIN986
1070
     0
1002
{
1000
POSITION
1070
     4
1000
1
1002
{
1002
}
1000
MENGE
1070
     4
1000
2
1002
{
1002
}
1000
BLATT
1070
     4
1000
3
1002
{
1002
}
1000
BENENN
1070
     4
1000
5
1002
{
1002
}
1000
BENENN2
1070
     4
1000
6
1002
{
1002
}
1000
NORM
1070
     4
1000
7
1002
{
1002
}
1000
NORM2
1070
     4
1000
8
1002
{
1002
}
1000
WERKSTOFF
1070
     4
1000
9
1002
{
1002
}
1000
WERKSTOFF2
1070
     4
1000
10
1002
{
1002
}
1002
}
1000
DIN987
1070
     0
1002
{
1000
POSITION
1070
     4
1000
1
1002
{
1002
}
1000
MENGE
1070
     4
1000
2
1002
{
1002
}
1000
BLATT
1070
     4
1000
3
1002
{
1002
}
1000
BENENN
1070
     4
1000
5
1002
{
1002
}
1000
BENENN2
1070
     4
1000
6
1002
{
1002
}
1000
NORM
1070
     4
1000
7
1002
{
1002
}
1000
NORM2
1070
     4
1000
8
1002
{
1002
}
1000
WERKSTOFF
1070
     4
1000
9
1002
{
1002
}
1000
WERKSTOFF2
1070
     4
1000
10
1002
{
1002
}
1002
}
1002
}
  0
APPID
  5
11BE
330
1182
100
AcDbSymbolTableRecord
100
AcDbRegAppTableRecord
  2
GENIUS_GENCFG1_13
 70
     0
1001
GENIUS_GENCFG_13
1071
1020870360
1000
11BE
1000
GEN@INFO_POS
1070
     7
1000
GenCfgObject
1000
GenCfgShort
1000
GenCfgReal
1000
GenCfgBool
1000
GenCfgString
1000
GenCfgDim
1000
GenCfgAttrInf
1000
DescrText
1070
     4
1000
5, ,6, ,7, ,8
1002
{
1002
}
1000
DescrText2
1070
     4
1000
26
1002
{
1002
}
1000
VisibleAttr1
1070
     4
1000
1
1002
{
1002
}
1000
VisibleAttr2
1070
     4
1000
26
1002
{
1002
}
1000
UpdateBlock
1070
     3
1070
     1
1002
{
1002
}
1000
Attrib
1070
     0
1002
{
1000
0
1070
     6
1002
{
1000
Prompt
1070
     4
1000
(genmsg gendwg 103)
1002
{
1002
}
1000
Value
1070
     4
1000

1002
{
1002
}
1000
EditFlag
1070
     1
1070
     0
1002
{
1002
}
1000
PosInDDATTE
1070
     1
1070
    27
1002
{
1002
}
1000
FieldLen
1070
     1
1070
    -1
1002
{
1002
}
1002
}
1000
1
1070
     6
1002
{
1000
Prompt
1070
     4
1000
(genmsg gendwg 31)
1002
{
1002
}
1000
Value
1070
     4
1000
1
1002
{
1002
}
1000
EditFlag
1070
     1
1070
     1
1002
{
1002
}
1000
PosInDDATTE
1070
     1
1070
     1
1002
{
1002
}
1000
FieldLen
1070
     1
1070
    -1
1002
{
1002
}
1002
}
1000
2
1070
     6
1002
{
1000
Prompt
1070
     4
1000
(genmsg gendwg 32)
1002
{
1002
}
1000
Value
1070
     4
1000
1
1002
{
1002
}
1000
EditFlag
1070
     1
1070
     1
1002
{
1002
}
1000
PosInDDATTE
1070
     1
1070
     2
1002
{
1002
}
1000
FieldLen
1070
     1
1070
    -1
1002
{
1002
}
1002
}
1000
3
1070
     6
1002
{
1000
Prompt
1070
     4
1000
(genmsg gendwg 33)
1002
{
1002
}
1000
Value
1070
     4
1000

1002
{
1002
}
1000
EditFlag
1070
     1
1070
     1
1002
{
1002
}
1000
PosInDDATTE
1070
     1
1070
     3
1002
{
1002
}
1000
FieldLen
1070
     1
1070
    -1
1002
{
1002
}
1002
}
1000
4
1070
     6
1002
{
1000
Prompt
1070
     4
1000
(genmsg gendwg 34)
1002
{
1002
}
1000
Value
1070
     4
1000

1002
{
1002
}
1000
EditFlag
1070
     1
1070
     1
1002
{
1002
}
1000
PosInDDATTE
1070
     1
1070
     4
1002
{
1002
}
1000
FieldLen
1070
     1
1070
    -1
1002
{
1002
}
1002
}
1000
5
1070
     6
1002
{
1000
Prompt
1070
     4
1000
(genmsg gendwg 35)
1002
{
1002
}
1000
Value
1070
     4
1000

1002
{
1002
}
1000
EditFlag
1070
     1
1070
     1
1002
{
1002
}
1000
PosInDDATTE
1070
     1
1070
     5
1002
{
1002
}
1000
FieldLen
1070
     1
1070
    -1
1002
{
1002
}
1002
}
1000
6
1070
     6
1002
{
1000
Prompt
1070
     4
1000
(genmsg gendwg 36)
1002
{
1002
}
1000
Value
1070
     4
1000

1002
{
1002
}
1000
EditFlag
1070
     1
1070
     1
1002
{
1002
}
1000
PosInDDATTE
1070
     1
1070
     6
1002
{
1002
}
1000
FieldLen
1070
     1
1070
    -1
1002
{
1002
}
1002
}
1000
7
1070
     6
1002
{
1000
Prompt
1070
     4
1000
(genmsg gendwg 37)
1002
{
1002
}
1000
Value
1070
     4
1000

1002
{
1002
}
1000
EditFlag
1070
     1
1070
     1
1002
{
1002
}
1000
PosInDDATTE
1070
     1
1070
     7
1002
{
1002
}
1000
FieldLen
1070
     1
1070
    -1
1002
{
1002
}
1002
}
1000
8
1070
     6
1002
{
1000
Prompt
1070
     4
1000
(genmsg gendwg 38)
1002
{
1002
}
1000
Value
1070
     4
1000

1002
{
1002
}
1000
EditFlag
1070
     1
1070
     1
1002
{
1002
}
1000
PosInDDATTE
1070
     1
1070
     8
1002
{
1002
}
1000
FieldLen
1070
     1
1070
    -1
1002
{
1002
}
1002
}
1000
9
1070
     6
1002
{
1000
Prompt
1070
     4
1000
(genmsg gendwg 39)
1002
{
1002
}
1000
Value
1070
     4
1000

1002
{
1002
}
1000
EditFlag
1070
     1
1070
     1
1002
{
1002
}
1000
PosInDDATTE
1070
     1
1070
     9
1002
{
1002
}
1000
FieldLen
1070
     1
1070
    -1
1002
{
1002
}
1002
}
1000
10
1070
     6
1002
{
1000
Prompt
1070
     4
1000
(genmsg gendwg 40)
1002
{
1002
}
1000
Value
1070
     4
1000

1002
{
1002
}
1000
EditFlag
1070
     1
1070
     1
1002
{
1002
}
1000
PosInDDATTE
1070
     1
1070
    10
1002
{
1002
}
1000
FieldLen
1070
     1
1070
    -1
1002
{
1002
}
1002
}
1000
11
1070
     6
1002
{
1000
Prompt
1070
     4
1000
(genmsg gendwg 41)
1002
{
1002
}
1000
Value
1070
     4
1000

1002
{
1002
}
1000
EditFlag
1070
     1
1070
     1
1002
{
1002
}
1000
PosInDDATTE
1070
     1
1070
    11
1002
{
1002
}
1000
FieldLen
1070
     1
1070
    -1
1002
{
1002
}
1002
}
1000
12
1070
     6
1002
{
1000
Prompt
1070
     4
1000
(genmsg gendwg 42)
1002
{
1002
}
1000
Value
1070
     4
1000

1002
{
1002
}
1000
EditFlag
1070
     1
1070
     1
1002
{
1002
}
1000
PosInDDATTE
1070
     1
1070
    12
1002
{
1002
}
1000
FieldLen
1070
     1
1070
    -1
1002
{
1002
}
1002
}
1000
13
1070
     6
1002
{
1000
Prompt
1070
     4
1000
(genmsg gendwg 43)
1002
{
1002
}
1000
Value
1070
     4
1000

1002
{
1002
}
1000
EditFlag
1070
     1
1070
     1
1002
{
1002
}
1000
PosInDDATTE
1070
     1
1070
    13
1002
{
1002
}
1000
FieldLen
1070
     1
1070
    -1
1002
{
1002
}
1002
}
1000
14
1070
     6
1002
{
1000
Prompt
1070
     4
1000
(genmsg gendwg 44)
1002
{
1002
}
1000
Value
1070
     4
1000

1002
{
1002
}
1000
EditFlag
1070
     1
1070
     1
1002
{
1002
}
1000
PosInDDATTE
1070
     1
1070
    14
1002
{
1002
}
1000
FieldLen
1070
     1
1070
    -1
1002
{
1002
}
1002
}
1000
15
1070
     6
1002
{
1000
Prompt
1070
     4
1000
(genmsg gendwg 45)
1002
{
1002
}
1000
Value
1070
     4
1000

1002
{
1002
}
1000
EditFlag
1070
     1
1070
     1
1002
{
1002
}
1000
PosInDDATTE
1070
     1
1070
    15
1002
{
1002
}
1000
FieldLen
1070
     1
1070
    -1
1002
{
1002
}
1002
}
1000
16
1070
     6
1002
{
1000
Prompt
1070
     4
1000
(genmsg gendwg 46)
1002
{
1002
}
1000
Value
1070
     4
1000

1002
{
1002
}
1000
EditFlag
1070
     1
1070
     1
1002
{
1002
}
1000
PosInDDATTE
1070
     1
1070
    16
1002
{
1002
}
1000
FieldLen
1070
     1
1070
    -1
1002
{
1002
}
1002
}
1000
17
1070
     6
1002
{
1000
Prompt
1070
     4
1000
(genmsg gendwg 47)
1002
{
1002
}
1000
Value
1070
     4
1000

1002
{
1002
}
1000
EditFlag
1070
     1
1070
     1
1002
{
1002
}
1000
PosInDDATTE
1070
     1
1070
    17
1002
{
1002
}
1000
FieldLen
1070
     1
1070
    -1
1002
{
1002
}
1002
}
1000
18
1070
     6
1002
{
1000
Prompt
1070
     4
1000
(genmsg gendwg 48)
1002
{
1002
}
1000
Value
1070
     4
1000

1002
{
1002
}
1000
EditFlag
1070
     1
1070
     1
1002
{
1002
}
1000
PosInDDATTE
1070
     1
1070
    18
1002
{
1002
}
1000
FieldLen
1070
     1
1070
    -1
1002
{
1002
}
1002
}
1000
19
1070
     6
1002
{
1000
Prompt
1070
     4
1000
(genmsg gendwg 99)
1002
{
1002
}
1000
Value
1070
     4
1000

1002
{
1002
}
1000
EditFlag
1070
     1
1070
     1
1002
{
1002
}
1000
PosInDDATTE
1070
     1
1070
    19
1002
{
1002
}
1000
FieldLen
1070
     1
1070
    -1
1002
{
1002
}
1002
}
1000
20
1070
     6
1002
{
1000
Prompt
1070
     4
1000
(genmsg gendwg 100)
1002
{
1002
}
1000
Value
1070
     4
1000

1002
{
1002
}
1000
EditFlag
1070
     1
1070
     1
1002
{
1002
}
1000
PosInDDATTE
1070
     1
1070
    20
1002
{
1002
}
1000
FieldLen
1070
     1
1070
    -1
1002
{
1002
}
1002
}
1000
21
1070
     6
1002
{
1000
Prompt
1070
     4
1000
(genmsg gendwg 101)
1002
{
1002
}
1000
Value
1070
     4
1000

1002
{
1002
}
1000
EditFlag
1070
     1
1070
     1
1002
{
1002
}
1000
PosInDDATTE
1070
     1
1070
    21
1002
{
1002
}
1000
FieldLen
1070
     1
1070
    -1
1002
{
1002
}
1002
}
1000
22
1070
     6
1002
{
1000
Prompt
1070
     4
1000
(genmsg gendwg 102)
1002
{
1002
}
1000
Value
1070
     4
1000

1002
{
1002
}
1000
EditFlag
1070
     1
1070
     1
1002
{
1002
}
1000
PosInDDATTE
1070
     1
1070
    22
1002
{
1002
}
1000
FieldLen
1070
     1
1070
    -1
1002
{
1002
}
1002
}
1000
23
1070
     6
1002
{
1000
Prompt
1070
     4
1000
(genmsg gendwg 30)
1002
{
1002
}
1000
Value
1070
     4
1000

1002
{
1002
}
1000
EditFlag
1070
     1
1070
     1
1002
{
1002
}
1000
PosInDDATTE
1070
     1
1070
    23
1002
{
1002
}
1000
FieldLen
1070
     1
1070
    -1
1002
{
1002
}
1002
}
1000
24
1070
     6
1002
{
1000
Prompt
1070
     4
1000
(genmsg gendwg 104)
1002
{
1002
}
1000
Value
1070
     4
1000

1002
{
1002
}
1000
EditFlag
1070
     1
1070
     1
1002
{
1002
}
1000
PosInDDATTE
1070
     1
1070
    24
1002
{
1002
}
1000
FieldLen
1070
     1
1070
    -1
1002
{
1002
}
1002
}
1000
25
1070
     6
1002
{
1000
Prompt
1070
     4
1000
(genmsg gendwg 105)
1002
{
1002
}
1000
Value
1070
     4
1000

1002
{
1002
}
1000
EditFlag
1070
     1
1070
     1
1002
{
1002
}
1000
PosInDDATTE
1070
     1
1070
    25
1002
{
1002
}
1000
FieldLen
1070
     1
1070
    -1
1002
{
1002
}
1002
}
1000
26
1070
     6
1002
{
1000
Prompt
1070
     4
1000
(genmsg gendwg 106)
1002
{
1002
}
1000
Value
1070
     4
1000

1002
{
1002
}
1000
EditFlag
1070
     1
1070
     1
1002
{
1002
}
1000
PosInDDATTE
1070
     1
1070
    26
1002
{
1002
}
1000
FieldLen
1070
     1
1070
    -1
1002
{
1002
}
1002
}
1000
27
1070
     6
1002
{
1000
Prompt
1070
     4
1000
(genmsg gendwg 109)
1002
{
1002
}
1000
Value
1070
     4
1000

1002
{
1002
}
1000
EditFlag
1070
     1
1070
     2
1002
{
1002
}
1000
PosInDDATTE
1070
     1
1070
    27
1002
{
1002
}
1000
FieldLen
1070
     1
1070
    -1
1002
{
1002
}
1002
}
1002
}
1000
Xlate
1070
     0
1002
{
1000
>
1002
}
  0
APPID
  5
11BF
330
1182
100
AcDbSymbolTableRecord
100
AcDbRegAppTableRecord
  2
GENIUS_GENCFG2_13
 70
     0
1001
GENIUS_GENCFG_13
1071
1020870360
1000
11BF
1000
GEN@LAYER@DEFS
1070
     9
1000
GenCfgObject
1000
GenCfgShort
1000
GenCfgReal
1000
GenCfgBool
1000
GenCfgString
1000
GenCfgDim
1000
GenCfgAttrInf
1000
GenCfgLaySection
1000
GenCfgLayer
1000
Basic
1070
     0
1002
{
1000
0
1070
     8
1000
0
1002
{
1000
Color
1070
     1
1070
     7
1002
{
1002
}
1000
LType
1070
     4
1000
CONTINUOUS
1002
{
1002
}
1000
Base
1070
     3
1070
     0
1002
{
1002
}
1002
}
1000
1
1070
     8
1000
1
1002
{
1000
Color
1070
     1
1070
    14
1002
{
1002
}
1000
LType
1070
     4
1000
CONTINUOUS
1002
{
1002
}
1000
Base
1070
     3
1070
     0
1002
{
1002
}
1002
}
1000
2
1070
     8
1000
2
1002
{
1000
Color
1070
     1
1070
     5
1002
{
1002
}
1000
LType
1070
     4
1000
CONTINUOUS
1002
{
1002
}
1000
Base
1070
     3
1070
     0
1002
{
1002
}
1002
}
1000
3
1070
     8
1000
3
1002
{
1000
Color
1070
     1
1070
     6
1002
{
1002
}
1000
LType
1070
     4
1000
GEN3
1002
{
1002
}
1000
Base
1070
     3
1070
     0
1002
{
1002
}
1002
}
1000
4
1070
     8
1000
4
1002
{
1000
Color
1070
     1
1070
     3
1002
{
1002
}
1000
LType
1070
     4
1000
CONTINUOUS
1002
{
1002
}
1000
Base
1070
     3
1070
     0
1002
{
1002
}
1002
}
1000
5
1070
     8
1000
5
1002
{
1000
Color
1070
     1
1070
     3
1002
{
1002
}
1000
LType
1070
     4
1000
CONTINUOUS
1002
{
1002
}
1000
Base
1070
     3
1070
     0
1002
{
1002
}
1002
}
1000
6
1070
     8
1000
6
1002
{
1000
Color
1070
     1
1070
     2
1002
{
1002
}
1000
LType
1070
     4
1000
CONTINUOUS
1002
{
1002
}
1000
Base
1070
     3
1070
     0
1002
{
1002
}
1002
}
1000
7
1070
     8
1000
7
1002
{
1000
Color
1070
     1
1070
     4
1002
{
1002
}
1000
LType
1070
     4
1000
GEN7
1002
{
1002
}
1000
Base
1070
     3
1070
     0
1002
{
1002
}
1002
}
1000
8
1070
     8
1000
8
1002
{
1000
Color
1070
     1
1070
     1
1002
{
1002
}
1000
LType
1070
     4
1000
CONTINUOUS
1002
{
1002
}
1000
Base
1070
     3
1070
     0
1002
{
1002
}
1002
}
1000
3A
1070
     8
1000
3A
1002
{
1000
Color
1070
     1
1070
     6
1002
{
1002
}
1000
LType
1070
     4
1000
GEN3A
1002
{
1002
}
1000
Base
1070
     3
1070
     0
1002
{
1002
}
1002
}
1000
7A
1070
     8
1000
7A
1002
{
1000
Color
1070
     1
1070
     4
1002
{
1002
}
1000
LType
1070
     4
1000
GEN7A
1002
{
1002
}
1000
Base
1070
     3
1070
     0
1002
{
1002
}
1002
}
1000
2A
1070
     8
1000
2A
1002
{
1000
Color
1070
     1
1070
     7
1002
{
1002
}
1000
LType
1070
     4
1000
GEN7
1002
{
1002
}
1000
Base
1070
     3
1070
     0
1002
{
1002
}
1002
}
1000
4A
1070
     8
1000
4A
1002
{
1000
Color
1070
     1
1070
     3
1002
{
1002
}
1000
LType
1070
     4
1000
GEN4A
1002
{
1002
}
1000
Base
1070
     3
1070
     0
1002
{
1002
}
1002
}
1000
9
1070
     8
1000
9
1002
{
1000
Color
1070
     1
1070
   253
1002
{
1002
}
1000
LType
1070
     4
1000
CONTINUOUS
1002
{
1002
}
1000
Base
1070
     3
1070
     0
1002
{
1002
}
1002
}
1000
IP
1070
     8
1000
IP
1002
{
1000
Color
1070
     1
1070
     7
1002
{
1002
}
1000
LType
1070
     4
1000
CONTINUOUS
1002
{
1002
}
1000
Base
1070
     3
1070
     0
1002
{
1002
}
1002
}
1002
}
1000
Standard
1070
     0
1002
{
1000
0N
1070
     8
1000
0N
1002
{
1000
Color
1070
     1
1070
     7
1002
{
1002
}
1000
LType
1070
     4
1000
CONTINUOUS
1002
{
1002
}
1000
Base
1070
     3
1070
     0
1002
{
1002
}
1002
}
1000
1N
1070
     8
1000
1N
1002
{
1000
Color
1070
     1
1070
    14
1002
{
1002
}
1000
LType
1070
     4
1000
CONTINUOUS
1002
{
1002
}
1000
Base
1070
     3
1070
     0
1002
{
1002
}
1002
}
1000
2N
1070
     8
1000
2N
1002
{
1000
Color
1070
     1
1070
     5
1002
{
1002
}
1000
LType
1070
     4
1000
CONTINUOUS
1002
{
1002
}
1000
Base
1070
     3
1070
     0
1002
{
1002
}
1002
}
1000
3N
1070
     8
1000
3N
1002
{
1000
Color
1070
     1
1070
     6
1002
{
1002
}
1000
LType
1070
     4
1000
GEN3
1002
{
1002
}
1000
Base
1070
     3
1070
     0
1002
{
1002
}
1002
}
1000
4N
1070
     8
1000
4N
1002
{
1000
Color
1070
     1
1070
     3
1002
{
1002
}
1000
LType
1070
     4
1000
CONTINUOUS
1002
{
1002
}
1000
Base
1070
     3
1070
     0
1002
{
1002
}
1002
}
1000
5N
1070
     8
1000
5N
1002
{
1000
Color
1070
     1
1070
     3
1002
{
1002
}
1000
LType
1070
     4
1000
CONTINUOUS
1002
{
1002
}
1000
Base
1070
     3
1070
     0
1002
{
1002
}
1002
}
1000
6N
1070
     8
1000
6N
1002
{
1000
Color
1070
     1
1070
     2
1002
{
1002
}
1000
LType
1070
     4
1000
CONTINUOUS
1002
{
1002
}
1000
Base
1070
     3
1070
     0
1002
{
1002
}
1002
}
1000
7N
1070
     8
1000
7N
1002
{
1000
Color
1070
     1
1070
     4
1002
{
1002
}
1000
LType
1070
     4
1000
GEN7
1002
{
1002
}
1000
Base
1070
     3
1070
     0
1002
{
1002
}
1002
}
1000
8N
1070
     8
1000
8N
1002
{
1000
Color
1070
     1
1070
     1
1002
{
1002
}
1000
LType
1070
     4
1000
CONTINUOUS
1002
{
1002
}
1000
Base
1070
     3
1070
     0
1002
{
1002
}
1002
}
1000
3AN
1070
     8
1000
3AN
1002
{
1000
Color
1070
     1
1070
     6
1002
{
1002
}
1000
LType
1070
     4
1000
GEN3A
1002
{
1002
}
1000
Base
1070
     3
1070
     0
1002
{
1002
}
1002
}
1000
7AN
1070
     8
1000
7AN
1002
{
1000
Color
1070
     1
1070
     4
1002
{
1002
}
1000
LType
1070
     4
1000
GEN7A
1002
{
1002
}
1000
Base
1070
     3
1070
     0
1002
{
1002
}
1002
}
1000
2AN
1070
     8
1000
2AN
1002
{
1000
Color
1070
     1
1070
     7
1002
{
1002
}
1000
LType
1070
     4
1000
GEN7
1002
{
1002
}
1000
Base
1070
     3
1070
     0
1002
{
1002
}
1002
}
1000
4AN
1070
     8
1000
4AN
1002
{
1000
Color
1070
     1
1070
     3
1002
{
1002
}
1000
LType
1070
     4
1000
GEN4A
1002
{
1002
}
1000
Base
1070
     3
1070
     0
1002
{
1002
}
1002
}
1000
9N
1070
     8
1000
9N
1002
{
1000
Color
1070
     1
1070
   253
1002
{
1002
}
1000
LType
1070
     4
1000
CONTINUOUS
1002
{
1002
}
1000
Base
1070
     3
1070
     0
1002
{
1002
}
1002
}
1000
IPN
1070
     8
1000
IPN
1002
{
1000
Color
1070
     1
1070
     7
1002
{
1002
}
1000
LType
1070
     4
1000
CONTINUOUS
1002
{
1002
}
1000
Base
1070
     3
1070
     0
1002
{
1002
}
1002
}
1002
}
1000
Extra
1070
     0
1002
{
1000
Klin
1070
     8
1000
KLIN
1002
{
1000
Color
1070
     1
1070
     1
1002
{
1002
}
1000
LType
1070
     4
1000
CONTINUOUS
1002
{
1002
}
1000
Base
1070
     3
1070
     1
1002
{
1002
}
1002
}
1000
Info
1070
     8
1000
INFO
1002
{
1000
Color
1070
     1
1070
     4
1002
{
1002
}
1000
LType
1070
     4
1000
CONTINUOUS
1002
{
1002
}
1000
Base
1070
     3
1070
     1
1002
{
1002
}
1002
}
1000
Rahm2
1070
     8
1000
RAHM2
1002
{
1000
Color
1070
     1
1070
     1
1002
{
1002
}
1000
LType
1070
     4
1000
CONTINUOUS
1002
{
1002
}
1000
Base
1070
     3
1070
     1
1002
{
1002
}
1002
}
1000
Rahm3
1070
     8
1000
RAHM3
1002
{
1000
Color
1070
     1
1070
     2
1002
{
1002
}
1000
LType
1070
     4
1000
CONTINUOUS
1002
{
1002
}
1000
Base
1070
     3
1070
     1
1002
{
1002
}
1002
}
1000
Rahm5
1070
     8
1000
RAHM5
1002
{
1000
Color
1070
     1
1070
     7
1002
{
1002
}
1000
LType
1070
     4
1000
CONTINUOUS
1002
{
1002
}
1000
Base
1070
     3
1070
     1
1002
{
1002
}
1002
}
1000
View
1070
     8
1000
VIEW
1002
{
1000
Color
1070
     1
1070
     1
1002
{
1002
}
1000
LType
1070
     4
1000
CONTINUOUS
1002
{
1002
}
1000
Base
1070
     3
1070
     1
1002
{
1002
}
1002
}
1000
Behind
1070
     8
1000
BEHIND
1002
{
1000
Color
1070
     1
1070
   253
1002
{
1002
}
1000
LType
1070
     4
1000
CONTINUOUS
1002
{
1002
}
1000
Base
1070
     3
1070
     1
1002
{
1002
}
1002
}
1002
}
  0
APPID
  5
11C0
330
1182
100
AcDbSymbolTableRecord
100
AcDbRegAppTableRecord
  2
GENIUS_GENCFG3_13
 70
     0
1001
GENIUS_GENCFG_13
1071
1020870360
1000
11C0
1000
GEN@LAYER@ENTSORT
1070
    10
1000
GenCfgObject
1000
GenCfgShort
1000
GenCfgReal
1000
GenCfgBool
1000
GenCfgString
1000
GenCfgDim
1000
GenCfgAttrInf
1000
GenCfgLaySection
1000
GenCfgLayer
1000
GenCfgEntSort
1000
ADDL
1070
     9
1000
5
1002
{
1000
Class
1070
     4
1000
SYM
1002
{
1002
}
1000
Color
1070
     1
1070
     1
1002
{
1002
}
1000
LType
1070
     4
1000
BYLAYER
1002
{
1002
}
1002
}
1000
ALTR
1070
     9
1000
4
1002
{
1000
Class
1070
     4
1000

1002
{
1002
}
1000
Color
1070
     1
1070
     7
1002
{
1002
}
1000
LType
1070
     4
1000
GEN3A
1002
{
1002
}
1002
}
1000
BELI
1070
     9
1000
4
1002
{
1000
Class
1070
     4
1000

1002
{
1002
}
1000
Color
1070
     1
1070
   256
1002
{
1002
}
1000
LType
1070
     4
1000
BYLAYER
1002
{
1002
}
1002
}
1000
BHNV
1070
     9
1000
9
1002
{
1000
Class
1070
     4
1000
INV
1002
{
1002
}
1000
Color
1070
     1
1070
   256
1002
{
1002
}
1000
LType
1070
     4
1000
BYLAYER
1002
{
1002
}
1002
}
1000
BHNVS
1070
     9
1000
BEHIND
1002
{
1000
Class
1070
     4
1000
INV
1002
{
1002
}
1000
Color
1070
     1
1070
   256
1002
{
1002
}
1000
LType
1070
     4
1000
BYLAYER
1002
{
1002
}
1002
}
1000
BLID
1070
     9
1000
4A
1002
{
1000
Class
1070
     4
1000

1002
{
1002
}
1000
Color
1070
     1
1070
   256
1002
{
1002
}
1000
LType
1070
     4
1000
BYLAYER
1002
{
1002
}
1002
}
1000
BOAP
1070
     9
1000
4A
1002
{
1000
Class
1070
     4
1000

1002
{
1002
}
1000
Color
1070
     1
1070
   256
1002
{
1002
}
1000
LType
1070
     4
1000
BYLAYER
1002
{
1002
}
1002
}
1000
BOR2
1070
     9
1000
RAHM2
1002
{
1000
Class
1070
     4
1000
SPZ,SYM
1002
{
1002
}
1000
Color
1070
     1
1070
   256
1002
{
1002
}
1000
LType
1070
     4
1000
BYLAYER
1002
{
1002
}
1002
}
1000
BOR3
1070
     9
1000
RAHM3
1002
{
1000
Class
1070
     4
1000
SPZ,SYM
1002
{
1002
}
1000
Color
1070
     1
1070
   256
1002
{
1002
}
1000
LType
1070
     4
1000
BYLAYER
1002
{
1002
}
1002
}
1000
BOR5
1070
     9
1000
RAHM5
1002
{
1000
Class
1070
     4
1000
SPZ,SYM
1002
{
1002
}
1000
Color
1070
     1
1070
   256
1002
{
1002
}
1000
LType
1070
     4
1000
BYLAYER
1002
{
1002
}
1002
}
1000
BOR7
1070
     9
1000
RAHM5
1002
{
1000
Class
1070
     4
1000
SPZ,SYM
1002
{
1002
}
1000
Color
1070
     1
1070
     7
1002
{
1002
}
1000
LType
1070
     4
1000
CONTINUOUS
1002
{
1002
}
1002
}
1000
BPAP
1070
     9
1000
4A
1002
{
1000
Class
1070
     4
1000

1002
{
1002
}
1000
Color
1070
     1
1070
   256
1002
{
1002
}
1000
LType
1070
     4
1000
BYLAYER
1002
{
1002
}
1002
}
1000
BPEX
1070
     9
1000
4A
1002
{
1000
Class
1070
     4
1000

1002
{
1002
}
1000
Color
1070
     1
1070
   256
1002
{
1002
}
1000
LType
1070
     4
1000
BYLAYER
1002
{
1002
}
1002
}
1000
BTDI
1070
     9
1000
5
1002
{
1000
Class
1070
     4
1000
DIM,SYM
1002
{
1002
}
1000
Color
1070
     1
1070
   256
1002
{
1002
}
1000
LType
1070
     4
1000
BYLAYER
1002
{
1002
}
1002
}
1000
CAL2
1070
     9
1000
4
1002
{
1000
Class
1070
     4
1000
SYM
1002
{
1002
}
1000
Color
1070
     1
1070
   256
1002
{
1002
}
1000
LType
1070
     4
1000
BYLAYER
1002
{
1002
}
1002
}
1000
CAL3
1070
     9
1000
4
1002
{
1000
Class
1070
     4
1000
SYM
1002
{
1002
}
1000
Color
1070
     1
1070
     2
1002
{
1002
}
1000
LType
1070
     4
1000
BYLAYER
1002
{
1002
}
1002
}
1000
CAL5
1070
     9
1000
4
1002
{
1000
Class
1070
     4
1000
SYM
1002
{
1002
}
1000
Color
1070
     1
1070
     7
1002
{
1002
}
1000
LType
1070
     4
1000
BYLAYER
1002
{
1002
}
1002
}
1000
CAL7
1070
     9
1000
4
1002
{
1000
Class
1070
     4
1000
SYM
1002
{
1002
}
1000
Color
1070
     1
1070
     5
1002
{
1002
}
1000
LType
1070
     4
1000
BYLAYER
1002
{
1002
}
1002
}
1000
CENN
1070
     9
1000
7A
1002
{
1000
Class
1070
     4
1000
CEN
1002
{
1002
}
1000
Color
1070
     1
1070
   256
1002
{
1002
}
1000
LType
1070
     4
1000
BYLAYER
1002
{
1002
}
1002
}
1000
CENW
1070
     9
1000
7
1002
{
1000
Class
1070
     4
1000
CEN
1002
{
1002
}
1000
Color
1070
     1
1070
   256
1002
{
1002
}
1000
LType
1070
     4
1000
BYLAYER
1002
{
1002
}
1002
}
1000
CLIN
1070
     9
1000
KLIN
1002
{
1000
Class
1070
     4
1000
SPZ
1002
{
1002
}
1000
Color
1070
     1
1070
   256
1002
{
1002
}
1000
LType
1070
     4
1000
BYLAYER
1002
{
1002
}
1002
}
1000
CON1
1070
     9
1000
0
1002
{
1000
Class
1070
     4
1000
CON,BGD
1002
{
1002
}
1000
Color
1070
     1
1070
   256
1002
{
1002
}
1000
LType
1070
     4
1000
BYLAYER
1002
{
1002
}
1002
}
1000
CON2
1070
     9
1000
1
1002
{
1000
Class
1070
     4
1000
CON,BGD
1002
{
1002
}
1000
Color
1070
     1
1070
   256
1002
{
1002
}
1000
LType
1070
     4
1000
BYLAYER
1002
{
1002
}
1002
}
1000
CON3
1070
     9
1000
2
1002
{
1000
Class
1070
     4
1000
CON,BGD
1002
{
1002
}
1000
Color
1070
     1
1070
   256
1002
{
1002
}
1000
LType
1070
     4
1000
BYLAYER
1002
{
1002
}
1002
}
1000
CON4
1070
     9
1000
2
1002
{
1000
Class
1070
     4
1000
CON,BGD
1002
{
1002
}
1000
Color
1070
     1
1070
   256
1002
{
1002
}
1000
LType
1070
     4
1000
BYLAYER
1002
{
1002
}
1002
}
1000
DERP
1070
     9
1000
4
1002
{
1000
Class
1070
     4
1000

1002
{
1002
}
1000
Color
1070
     1
1070
   256
1002
{
1002
}
1000
LType
1070
     4
1000
BYLAYER
1002
{
1002
}
1002
}
1000
DETA
1070
     9
1000
4
1002
{
1000
Class
1070
     4
1000

1002
{
1002
}
1000
Color
1070
     1
1070
   256
1002
{
1002
}
1000
LType
1070
     4
1000
BYLAYER
1002
{
1002
}
1002
}
1000
DIAG
1070
     9
1000
5
1002
{
1000
Class
1070
     4
1000
SYM
1002
{
1002
}
1000
Color
1070
     1
1070
   256
1002
{
1002
}
1000
LType
1070
     4
1000
BYLAYER
1002
{
1002
}
1002
}
1000
DILI
1070
     9
1000
5
1002
{
1000
Class
1070
     4
1000
DIM,SYM
1002
{
1002
}
1000
Color
1070
     1
1070
   256
1002
{
1002
}
1000
LType
1070
     4
1000
BYLAYER
1002
{
1002
}
1002
}
1000
DITO2
1070
     9
1000
5
1002
{
1000
Class
1070
     4
1000
DIM,SYM
1002
{
1002
}
1000
Color
1070
     1
1070
     3
1002
{
1002
}
1000
LType
1070
     4
1000
BYLAYER
1002
{
1002
}
1002
}
1000
DITO3
1070
     9
1000
5
1002
{
1000
Class
1070
     4
1000
DIM,SYM
1002
{
1002
}
1000
Color
1070
     1
1070
     2
1002
{
1002
}
1000
LType
1070
     4
1000
BYLAYER
1002
{
1002
}
1002
}
1000
DITX
1070
     9
1000
5
1002
{
1000
Class
1070
     4
1000
DIM,SYM
1002
{
1002
}
1000
Color
1070
     1
1070
     2
1002
{
1002
}
1000
LType
1070
     4
1000
CONTINUOUS
1002
{
1002
}
1002
}
1000
DIXL
1070
     9
1000
5
1002
{
1000
Class
1070
     4
1000
DIM,SYM
1002
{
1002
}
1000
Color
1070
     1
1070
   256
1002
{
1002
}
1000
LType
1070
     4
1000
BYLAYER
1002
{
1002
}
1002
}
1000
EXMP
1070
     9
1000
4A
1002
{
1000
Class
1070
     4
1000

1002
{
1002
}
1000
Color
1070
     1
1070
   256
1002
{
1002
}
1000
LType
1070
     4
1000
BYLAYER
1002
{
1002
}
1002
}
1000
FEMN
1070
     9
1000
8
1002
{
1000
Class
1070
     4
1000

1002
{
1002
}
1000
Color
1070
     1
1070
   256
1002
{
1002
}
1000
LType
1070
     4
1000
BYLAYER
1002
{
1002
}
1002
}
1000
FEMPN
1070
     9
1000
8
1002
{
1000
Class
1070
     4
1000
SYM
1002
{
1002
}
1000
Color
1070
     1
1070
     3
1002
{
1002
}
1000
LType
1070
     4
1000
BYLAYER
1002
{
1002
}
1002
}
1000
FEMSP
1070
     9
1000
4A
1002
{
1000
Class
1070
     4
1000

1002
{
1002
}
1000
Color
1070
     1
1070
   256
1002
{
1002
}
1000
LType
1070
     4
1000
CONTINUOUS
1002
{
1002
}
1002
}
1000
FEMST
1070
     9
1000
4A
1002
{
1000
Class
1070
     4
1000
SYM
1002
{
1002
}
1000
Color
1070
     1
1070
     3
1002
{
1002
}
1000
LType
1070
     4
1000
BYLAYER
1002
{
1002
}
1002
}
1000
FEMVN
1070
     9
1000
2
1002
{
1000
Class
1070
     4
1000
CON
1002
{
1002
}
1000
Color
1070
     1
1070
   256
1002
{
1002
}
1000
LType
1070
     4
1000
BYLAYER
1002
{
1002
}
1002
}
1000
FEMVT
1070
     9
1000
2
1002
{
1000
Class
1070
     4
1000
SYM
1002
{
1002
}
1000
Color
1070
     1
1070
     3
1002
{
1002
}
1000
LType
1070
     4
1000
BYLAYER
1002
{
1002
}
1002
}
1000
FLAT
1070
     9
1000
0
1002
{
1000
Class
1070
     4
1000

1002
{
1002
}
1000
Color
1070
     1
1070
   256
1002
{
1002
}
1000
LType
1070
     4
1000
BYLAYER
1002
{
1002
}
1002
}
1000
FRAR
1070
     9
1000
4A
1002
{
1000
Class
1070
     4
1000

1002
{
1002
}
1000
Color
1070
     1
1070
   256
1002
{
1002
}
1000
LType
1070
     4
1000
BYLAYER
1002
{
1002
}
1002
}
1000
GRLI
1070
     9
1000
5
1002
{
1000
Class
1070
     4
1000
SYM
1002
{
1002
}
1000
Color
1070
     1
1070
   256
1002
{
1002
}
1000
LType
1070
     4
1000
BYLAYER
1002
{
1002
}
1002
}
1000
GVLI
1070
     9
1000
4A
1002
{
1000
Class
1070
     4
1000

1002
{
1002
}
1000
Color
1070
     1
1070
   256
1002
{
1002
}
1000
LType
1070
     4
1000
BYLAYER
1002
{
1002
}
1002
}
1000
HATC
1070
     9
1000
8
1002
{
1000
Class
1070
     4
1000
HTC,BGD
1002
{
1002
}
1000
Color
1070
     1
1070
   256
1002
{
1002
}
1000
LType
1070
     4
1000
BYLAYER
1002
{
1002
}
1002
}
1000
HIDN
1070
     9
1000
3A
1002
{
1000
Class
1070
     4
1000
HID,BGD
1002
{
1002
}
1000
Color
1070
     1
1070
   256
1002
{
1002
}
1000
LType
1070
     4
1000
BYLAYER
1002
{
1002
}
1002
}
1000
HIDW
1070
     9
1000
3
1002
{
1000
Class
1070
     4
1000
HID,BGD
1002
{
1002
}
1000
Color
1070
     1
1070
   256
1002
{
1002
}
1000
LType
1070
     4
1000
BYLAYER
1002
{
1002
}
1002
}
1000
HLIN
1070
     9
1000
4
1002
{
1000
Class
1070
     4
1000
BGD
1002
{
1002
}
1000
Color
1070
     1
1070
   256
1002
{
1002
}
1000
LType
1070
     4
1000
BYLAYER
1002
{
1002
}
1002
}
1000
HOCN
1070
     9
1000
7A
1002
{
1000
Class
1070
     4
1000
CEN
1002
{
1002
}
1000
Color
1070
     1
1070
   256
1002
{
1002
}
1000
LType
1070
     4
1000
BYLAYER
1002
{
1002
}
1002
}
1000
HOCW
1070
     9
1000
7
1002
{
1000
Class
1070
     4
1000
CEN
1002
{
1002
}
1000
Color
1070
     1
1070
   256
1002
{
1002
}
1000
LType
1070
     4
1000
BYLAYER
1002
{
1002
}
1002
}
1000
INFO
1070
     9
1000
INFO
1002
{
1000
Class
1070
     4
1000
SPZ,SYM
1002
{
1002
}
1000
Color
1070
     1
1070
   256
1002
{
1002
}
1000
LType
1070
     4
1000
BYLAYER
1002
{
1002
}
1002
}
1000
LADI
1070
     9
1000
4
1002
{
1000
Class
1070
     4
1000
BGD
1002
{
1002
}
1000
Color
1070
     1
1070
   256
1002
{
1002
}
1000
LType
1070
     4
1000
BYLAYER
1002
{
1002
}
1002
}
1000
LEAD
1070
     9
1000
5
1002
{
1000
Class
1070
     4
1000
SYM
1002
{
1002
}
1000
Color
1070
     1
1070
   256
1002
{
1002
}
1000
LType
1070
     4
1000
BYLAYER
1002
{
1002
}
1002
}
1000
N_ADDL
1070
     9
1000
5N
1002
{
1000
Class
1070
     4
1000
SYM
1002
{
1002
}
1000
Color
1070
     1
1070
     1
1002
{
1002
}
1000
LType
1070
     4
1000
BYLAYER
1002
{
1002
}
1002
}
1000
N_BHNV
1070
     9
1000
9N
1002
{
1000
Class
1070
     4
1000
INV
1002
{
1002
}
1000
Color
1070
     1
1070
   256
1002
{
1002
}
1000
LType
1070
     4
1000
BYLAYER
1002
{
1002
}
1002
}
1000
N_CON1
1070
     9
1000
0N
1002
{
1000
Class
1070
     4
1000
CON,BGD
1002
{
1002
}
1000
Color
1070
     1
1070
   256
1002
{
1002
}
1000
LType
1070
     4
1000
BYLAYER
1002
{
1002
}
1002
}
1000
N_CON2
1070
     9
1000
1N
1002
{
1000
Class
1070
     4
1000
CON,BGD
1002
{
1002
}
1000
Color
1070
     1
1070
   256
1002
{
1002
}
1000
LType
1070
     4
1000
BYLAYER
1002
{
1002
}
1002
}
1000
N_CON3
1070
     9
1000
2N
1002
{
1000
Class
1070
     4
1000
CON,BGD
1002
{
1002
}
1000
Color
1070
     1
1070
   256
1002
{
1002
}
1000
LType
1070
     4
1000
BYLAYER
1002
{
1002
}
1002
}
1000
N_CON4
1070
     9
1000
2N
1002
{
1000
Class
1070
     4
1000
CON,BGD
1002
{
1002
}
1000
Color
1070
     1
1070
   256
1002
{
1002
}
1000
LType
1070
     4
1000
BYLAYER
1002
{
1002
}
1002
}
1000
N_CENN
1070
     9
1000
7AN
1002
{
1000
Class
1070
     4
1000
CEN
1002
{
1002
}
1000
Color
1070
     1
1070
   256
1002
{
1002
}
1000
LType
1070
     4
1000
BYLAYER
1002
{
1002
}
1002
}
1000
N_CENW
1070
     9
1000
7N
1002
{
1000
Class
1070
     4
1000
CEN
1002
{
1002
}
1000
Color
1070
     1
1070
   256
1002
{
1002
}
1000
LType
1070
     4
1000
BYLAYER
1002
{
1002
}
1002
}
1000
N_DILI
1070
     9
1000
5N
1002
{
1000
Class
1070
     4
1000
DIM,SYM
1002
{
1002
}
1000
Color
1070
     1
1070
   256
1002
{
1002
}
1000
LType
1070
     4
1000
BYLAYER
1002
{
1002
}
1002
}
1000
N_DITX
1070
     9
1000
5N
1002
{
1000
Class
1070
     4
1000
DIM,SYM
1002
{
1002
}
1000
Color
1070
     1
1070
     2
1002
{
1002
}
1000
LType
1070
     4
1000
CONTINUOUS
1002
{
1002
}
1002
}
1000
N_DIXL
1070
     9
1000
5N
1002
{
1000
Class
1070
     4
1000
DIM,SYM
1002
{
1002
}
1000
Color
1070
     1
1070
   256
1002
{
1002
}
1000
LType
1070
     4
1000
BYLAYER
1002
{
1002
}
1002
}
1000
N_HATC
1070
     9
1000
8N
1002
{
1000
Class
1070
     4
1000
HTC,BGD
1002
{
1002
}
1000
Color
1070
     1
1070
   256
1002
{
1002
}
1000
LType
1070
     4
1000
BYLAYER
1002
{
1002
}
1002
}
1000
N_HIDN
1070
     9
1000
3AN
1002
{
1000
Class
1070
     4
1000
HID,BGD
1002
{
1002
}
1000
Color
1070
     1
1070
   256
1002
{
1002
}
1000
LType
1070
     4
1000
BYLAYER
1002
{
1002
}
1002
}
1000
N_HIDW
1070
     9
1000
3N
1002
{
1000
Class
1070
     4
1000
HID,BGD
1002
{
1002
}
1000
Color
1070
     1
1070
   256
1002
{
1002
}
1000
LType
1070
     4
1000
BYLAYER
1002
{
1002
}
1002
}
1000
N_NGIP
1070
     9
1000
IPN
1002
{
1000
Class
1070
     4
1000

1002
{
1002
}
1000
Color
1070
     1
1070
   256
1002
{
1002
}
1000
LType
1070
     4
1000
BYLAYER
1002
{
1002
}
1002
}
1000
N_PHAN
1070
     9
1000
4AN
1002
{
1000
Class
1070
     4
1000

1002
{
1002
}
1000
Color
1070
     1
1070
   256
1002
{
1002
}
1000
LType
1070
     4
1000
BYLAYER
1002
{
1002
}
1002
}
1000
N_POSL
1070
     9
1000
5N
1002
{
1000
Class
1070
     4
1000
SYM
1002
{
1002
}
1000
Color
1070
     1
1070
   256
1002
{
1002
}
1000
LType
1070
     4
1000
BYLAYER
1002
{
1002
}
1002
}
1000
N_TCON
1070
     9
1000
0N
1002
{
1000
Class
1070
     4
1000
CON,BGD
1002
{
1002
}
1000
Color
1070
     1
1070
   256
1002
{
1002
}
1000
LType
1070
     4
1000
BYLAYER
1002
{
1002
}
1002
}
1000
N_THLI
1070
     9
1000
4N
1002
{
1000
Class
1070
     4
1000
BGD
1002
{
1002
}
1000
Color
1070
     1
1070
   256
1002
{
1002
}
1000
LType
1070
     4
1000
BYLAYER
1002
{
1002
}
1002
}
1000
N_TLEN
1070
     9
1000
0N
1002
{
1000
Class
1070
     4
1000
CON,BGD
1002
{
1002
}
1000
Color
1070
     1
1070
   256
1002
{
1002
}
1000
LType
1070
     4
1000
BYLAYER
1002
{
1002
}
1002
}
1000
N_TXT3
1070
     9
1000
6N
1002
{
1000
Class
1070
     4
1000
SYM
1002
{
1002
}
1000
Color
1070
     1
1070
   256
1002
{
1002
}
1000
LType
1070
     4
1000
BYLAYER
1002
{
1002
}
1002
}
1000
N_VPLI
1070
     9
1000
2AN
1002
{
1000
Class
1070
     4
1000

1002
{
1002
}
1000
Color
1070
     1
1070
   256
1002
{
1002
}
1000
LType
1070
     4
1000
BYLAYER
1002
{
1002
}
1002
}
1000
NGIP
1070
     9
1000
IP
1002
{
1000
Class
1070
     4
1000

1002
{
1002
}
1000
Color
1070
     1
1070
   256
1002
{
1002
}
1000
LType
1070
     4
1000
BYLAYER
1002
{
1002
}
1002
}
1000
PAL2
1070
     9
1000
RAHM2
1002
{
1000
Class
1070
     4
1000
SPZ,SYM
1002
{
1002
}
1000
Color
1070
     1
1070
   256
1002
{
1002
}
1000
LType
1070
     4
1000
BYLAYER
1002
{
1002
}
1002
}
1000
PAL3
1070
     9
1000
RAHM3
1002
{
1000
Class
1070
     4
1000
SPZ,SYM
1002
{
1002
}
1000
Color
1070
     1
1070
   256
1002
{
1002
}
1000
LType
1070
     4
1000
BYLAYER
1002
{
1002
}
1002
}
1000
PAL5
1070
     9
1000
RAHM5
1002
{
1000
Class
1070
     4
1000
SPZ,SYM
1002
{
1002
}
1000
Color
1070
     1
1070
   256
1002
{
1002
}
1000
LType
1070
     4
1000
BYLAYER
1002
{
1002
}
1002
}
1000
PAL7
1070
     9
1000
RAHM5
1002
{
1000
Class
1070
     4
1000
SPZ,SYM
1002
{
1002
}
1000
Color
1070
     1
1070
     7
1002
{
1002
}
1000
LType
1070
     4
1000
CONTINUOUS
1002
{
1002
}
1002
}
1000
PHAN
1070
     9
1000
4A
1002
{
1000
Class
1070
     4
1000

1002
{
1002
}
1000
Color
1070
     1
1070
   256
1002
{
1002
}
1000
LType
1070
     4
1000
BYLAYER
1002
{
1002
}
1002
}
1000
POSL
1070
     9
1000
5
1002
{
1000
Class
1070
     4
1000
SYM
1002
{
1002
}
1000
Color
1070
     1
1070
   256
1002
{
1002
}
1000
LType
1070
     4
1000
BYLAYER
1002
{
1002
}
1002
}
1000
POSN
1070
     9
1000
6
1002
{
1000
Class
1070
     4
1000
SYM
1002
{
1002
}
1000
Color
1070
     1
1070
     7
1002
{
1002
}
1000
LType
1070
     4
1000
BYLAYER
1002
{
1002
}
1002
}
1000
POSREF
1070
     9
1000
6
1002
{
1000
Class
1070
     4
1000
SYM
1002
{
1002
}
1000
Color
1070
     1
1070
     5
1002
{
1002
}
1000
LType
1070
     4
1000
BYLAYER
1002
{
1002
}
1002
}
1000
POSX
1070
     9
1000
5
1002
{
1000
Class
1070
     4
1000
SYM
1002
{
1002
}
1000
Color
1070
     1
1070
     2
1002
{
1002
}
1000
LType
1070
     4
1000
CONTINUOUS
1002
{
1002
}
1002
}
1000
PSEC
1070
     9
1000
4A
1002
{
1000
Class
1070
     4
1000

1002
{
1002
}
1000
Color
1070
     1
1070
   256
1002
{
1002
}
1000
LType
1070
     4
1000
BYLAYER
1002
{
1002
}
1002
}
1000
RCGN
1070
     9
1000
7A
1002
{
1000
Class
1070
     4
1000
CEN
1002
{
1002
}
1000
Color
1070
     1
1070
   256
1002
{
1002
}
1000
LType
1070
     4
1000
BYLAYER
1002
{
1002
}
1002
}
1000
RCGW
1070
     9
1000
7
1002
{
1000
Class
1070
     4
1000
CEN
1002
{
1002
}
1000
Color
1070
     1
1070
   256
1002
{
1002
}
1000
LType
1070
     4
1000
BYLAYER
1002
{
1002
}
1002
}
1000
RFDI
1070
     9
1000
4
1002
{
1000
Class
1070
     4
1000
BGD
1002
{
1002
}
1000
Color
1070
     1
1070
   256
1002
{
1002
}
1000
LType
1070
     4
1000
BYLAYER
1002
{
1002
}
1002
}
1000
RQTR
1070
     9
1000
4
1002
{
1000
Class
1070
     4
1000

1002
{
1002
}
1000
Color
1070
     1
1070
     7
1002
{
1002
}
1000
LType
1070
     4
1000
GEN7A
1002
{
1002
}
1002
}
1000
RSBO
1070
     9
1000
4
1002
{
1000
Class
1070
     4
1000
BGD
1002
{
1002
}
1000
Color
1070
     1
1070
   256
1002
{
1002
}
1000
LType
1070
     4
1000
BYLAYER
1002
{
1002
}
1002
}
1000
SBRK
1070
     9
1000
4
1002
{
1000
Class
1070
     4
1000
BGD
1002
{
1002
}
1000
Color
1070
     1
1070
   256
1002
{
1002
}
1000
LType
1070
     4
1000
BYLAYER
1002
{
1002
}
1002
}
1000
SCEN
1070
     9
1000
7
1002
{
1000
Class
1070
     4
1000

1002
{
1002
}
1000
Color
1070
     1
1070
   256
1002
{
1002
}
1000
LType
1070
     4
1000
CONTINUOUS
1002
{
1002
}
1002
}
1000
SECT
1070
     9
1000
4
1002
{
1000
Class
1070
     4
1000
BGD
1002
{
1002
}
1000
Color
1070
     1
1070
   256
1002
{
1002
}
1000
LType
1070
     4
1000
BYLAYER
1002
{
1002
}
1002
}
1000
SELN
1070
     9
1000
7A
1002
{
1000
Class
1070
     4
1000

1002
{
1002
}
1000
Color
1070
     1
1070
   256
1002
{
1002
}
1000
LType
1070
     4
1000
BYLAYER
1002
{
1002
}
1002
}
1000
SELW
1070
     9
1000
7
1002
{
1000
Class
1070
     4
1000

1002
{
1002
}
1000
Color
1070
     1
1070
   256
1002
{
1002
}
1000
LType
1070
     4
1000
BYLAYER
1002
{
1002
}
1002
}
1000
SSYS
1070
     9
1000
0
1002
{
1000
Class
1070
     4
1000

1002
{
1002
}
1000
Color
1070
     1
1070
   256
1002
{
1002
}
1000
LType
1070
     4
1000
BYLAYER
1002
{
1002
}
1002
}
1000
STLI
1070
     9
1000
4
1002
{
1000
Class
1070
     4
1000

1002
{
1002
}
1000
Color
1070
     1
1070
     7
1002
{
1002
}
1000
LType
1070
     4
1000
GEN3A
1002
{
1002
}
1002
}
1000
SYB1
1070
     9
1000
5
1002
{
1000
Class
1070
     4
1000
SYM
1002
{
1002
}
1000
Color
1070
     1
1070
   256
1002
{
1002
}
1000
LType
1070
     4
1000
BYLAYER
1002
{
1002
}
1002
}
1000
SYB2
1070
     9
1000
5
1002
{
1000
Class
1070
     4
1000
SYM
1002
{
1002
}
1000
Color
1070
     1
1070
   256
1002
{
1002
}
1000
LType
1070
     4
1000
BYLAYER
1002
{
1002
}
1002
}
1000
SYB3
1070
     9
1000
6
1002
{
1000
Class
1070
     4
1000
SYM
1002
{
1002
}
1000
Color
1070
     1
1070
   256
1002
{
1002
}
1000
LType
1070
     4
1000
CONTINUOUS
1002
{
1002
}
1002
}
1000
SYB5
1070
     9
1000
5
1002
{
1000
Class
1070
     4
1000
SYM
1002
{
1002
}
1000
Color
1070
     1
1070
     7
1002
{
1002
}
1000
LType
1070
     4
1000
BYLAYER
1002
{
1002
}
1002
}
1000
SYMN
1070
     9
1000
7A
1002
{
1000
Class
1070
     4
1000
CEN
1002
{
1002
}
1000
Color
1070
     1
1070
   256
1002
{
1002
}
1000
LType
1070
     4
1000
BYLAYER
1002
{
1002
}
1002
}
1000
SYMW
1070
     9
1000
7
1002
{
1000
Class
1070
     4
1000
CEN
1002
{
1002
}
1000
Color
1070
     1
1070
   256
1002
{
1002
}
1000
LType
1070
     4
1000
BYLAYER
1002
{
1002
}
1002
}
1000
TCON
1070
     9
1000
0
1002
{
1000
Class
1070
     4
1000
CON,BGD
1002
{
1002
}
1000
Color
1070
     1
1070
   256
1002
{
1002
}
1000
LType
1070
     4
1000
BYLAYER
1002
{
1002
}
1002
}
1000
THLI
1070
     9
1000
4
1002
{
1000
Class
1070
     4
1000
BGD
1002
{
1002
}
1000
Color
1070
     1
1070
   256
1002
{
1002
}
1000
LType
1070
     4
1000
BYLAYER
1002
{
1002
}
1002
}
1000
TIT2
1070
     9
1000
RAHM2
1002
{
1000
Class
1070
     4
1000
SPZ,SYM
1002
{
1002
}
1000
Color
1070
     1
1070
   256
1002
{
1002
}
1000
LType
1070
     4
1000
BYLAYER
1002
{
1002
}
1002
}
1000
TIT3
1070
     9
1000
RAHM3
1002
{
1000
Class
1070
     4
1000
SPZ,SYM
1002
{
1002
}
1000
Color
1070
     1
1070
   256
1002
{
1002
}
1000
LType
1070
     4
1000
BYLAYER
1002
{
1002
}
1002
}
1000
TIT5
1070
     9
1000
RAHM5
1002
{
1000
Class
1070
     4
1000
SPZ,SYM
1002
{
1002
}
1000
Color
1070
     1
1070
   256
1002
{
1002
}
1000
LType
1070
     4
1000
BYLAYER
1002
{
1002
}
1002
}
1000
TIT7
1070
     9
1000
RAHM5
1002
{
1000
Class
1070
     4
1000
SPZ,SYM
1002
{
1002
}
1000
Color
1070
     1
1070
     7
1002
{
1002
}
1000
LType
1070
     4
1000
CONTINUOUS
1002
{
1002
}
1002
}
1000
TLEN
1070
     9
1000
0
1002
{
1000
Class
1070
     4
1000
CON,BGD
1002
{
1002
}
1000
Color
1070
     1
1070
   256
1002
{
1002
}
1000
LType
1070
     4
1000
BYLAYER
1002
{
1002
}
1002
}
1000
TRKN
1070
     9
1000
7A
1002
{
1000
Class
1070
     4
1000

1002
{
1002
}
1000
Color
1070
     1
1070
   256
1002
{
1002
}
1000
LType
1070
     4
1000
BYLAYER
1002
{
1002
}
1002
}
1000
TRKW
1070
     9
1000
7
1002
{
1000
Class
1070
     4
1000

1002
{
1002
}
1000
Color
1070
     1
1070
   256
1002
{
1002
}
1000
LType
1070
     4
1000
BYLAYER
1002
{
1002
}
1002
}
1000
TRLI
1070
     9
1000
4
1002
{
1000
Class
1070
     4
1000
BGD
1002
{
1002
}
1000
Color
1070
     1
1070
   256
1002
{
1002
}
1000
LType
1070
     4
1000
BYLAYER
1002
{
1002
}
1002
}
1000
TXT1
1070
     9
1000
6
1002
{
1000
Class
1070
     4
1000
SYM
1002
{
1002
}
1000
Color
1070
     1
1070
     2
1002
{
1002
}
1000
LType
1070
     4
1000
BYLAYER
1002
{
1002
}
1002
}
1000
TXT2
1070
     9
1000
6
1002
{
1000
Class
1070
     4
1000
SYM
1002
{
1002
}
1000
Color
1070
     1
1070
     2
1002
{
1002
}
1000
LType
1070
     4
1000
BYLAYER
1002
{
1002
}
1002
}
1000
TXT3
1070
     9
1000
6
1002
{
1000
Class
1070
     4
1000
SYM
1002
{
1002
}
1000
Color
1070
     1
1070
   256
1002
{
1002
}
1000
LType
1070
     4
1000
BYLAYER
1002
{
1002
}
1002
}
1000
TXT5
1070
     9
1000
6
1002
{
1000
Class
1070
     4
1000
SYM
1002
{
1002
}
1000
Color
1070
     1
1070
     7
1002
{
1002
}
1000
LType
1070
     4
1000
BYLAYER
1002
{
1002
}
1002
}
1000
TXT7
1070
     9
1000
6
1002
{
1000
Class
1070
     4
1000
SYM
1002
{
1002
}
1000
Color
1070
     1
1070
     7
1002
{
1002
}
1000
LType
1070
     4
1000
BYLAYER
1002
{
1002
}
1002
}
1000
VIEW
1070
     9
1000
VIEW
1002
{
1000
Class
1070
     4
1000
SPZ
1002
{
1002
}
1000
Color
1070
     1
1070
   256
1002
{
1002
}
1000
LType
1070
     4
1000
BYLAYER
1002
{
1002
}
1002
}
1000
VPLI
1070
     9
1000
2A
1002
{
1000
Class
1070
     4
1000

1002
{
1002
}
1000
Color
1070
     1
1070
   256
1002
{
1002
}
1000
LType
1070
     4
1000
BYLAYER
1002
{
1002
}
1002
}
1000
ZIZA
1070
     9
1000
4
1002
{
1000
Class
1070
     4
1000
BGD
1002
{
1002
}
1000
Color
1070
     1
1070
   256
1002
{
1002
}
1000
LType
1070
     4
1000
GENZIGZAG
1002
{
1002
}
1002
}
  0
APPID
  5
11C1
330
1182
100
AcDbSymbolTableRecord
100
AcDbRegAppTableRecord
  2
GENIUS_GENCFG4_13
 70
     0
1001
GENIUS_GENCFG_13
1071
1020870448
1000
11C1
1000
GEN
1070
     9
1000
GenCfgObject
1000
GenCfgShort
1000
GenCfgReal
1000
GenCfgBool
1000
GenCfgString
1000
GenCfgDim
1000
GenCfgLaySection
1000
GenCfgLType
1000
GenCfgFilter
1000
Balloon
1070
     0
1002
{
1000
GenIF
1070
     1
1070
     0
1002
{
1002
}
1000
GenPosInc
1070
     1
1070
     1
1002
{
1002
}
1000
GenPosBlk
1070
     1
1070
     8
1002
{
1002
}
1000
GenPosVar
1070
     1
1070
     0
1002
{
1002
}
1000
GenZiCir
1070
     2
1040
1.5
1002
{
1002
}
1000
MaxCharForCenteredText
1070
     1
1070
    30
1002
{
1002
}
1000
Snap
1070
     0
1002
{
1000
ActivationRadius
1070
     2
1040
1.0
1002
{
1002
}
1000
M
1070
     0
1002
{
1000
SnapStepX
1070
     2
1040
20.0
1002
{
1002
}
1000
SnapStepY
1070
     2
1040
10.0
1002
{
1002
}
1002
}
1000
I
1070
     0
1002
{
1000
SnapStepX
1070
     2
1040
1.0
1002
{
1002
}
1000
SnapStepY
1070
     2
1040
0.5
1002
{
1002
}
1002
}
1002
}
1002
}
1000
Centerline
1070
     0
1002
{
1000
ScaleNot
1070
     3
1070
     0
1002
{
1002
}
1000
M
1070
     0
1002
{
1000
GenCenAng
1070
     4
1000
45|90|135
1002
{
1002
}
1000
GenCenDia
1070
     2
1040
10.0
1002
{
1002
}
1000
GenCenDias
1070
     4
1000
10|20|30
1002
{
1002
}
1000
GenCenDist
1070
     2
1040
3.0
1002
{
1002
}
1000
GenCenLen
1070
     2
1040
10.0
1002
{
1002
}
1000
GenCenOff
1070
     2
1040
10.0
1002
{
1002
}
1002
}
1000
I
1070
     0
1002
{
1000
GenCenAng
1070
     4
1000
45|90|135
1002
{
1002
}
1000
GenCenDia
1070
     2
1040
0.5
1002
{
1002
}
1000
GenCenDias
1070
     4
1000
0.5|1.0|1.5
1002
{
1002
}
1000
GenCenDist
1070
     2
1040
0.125
1002
{
1002
}
1000
GenCenLen
1070
     2
1040
0.5
1002
{
1002
}
1000
GenCenOff
1070
     2
1040
0.5
1002
{
1002
}
1002
}
1002
}
1000
CLine
1070
     0
1002
{
1000
CAngArray
1070
     4
1000
30|45|60
1002
{
1002
}
1000
Typ
1070
     4
1000
XLINE
1002
{
1002
}
1000
M
1070
     0
1002
{
1000
CLinArray
1070
     4
1000
10|20|30
1002
{
1002
}
1002
}
1000
I
1070
     0
1002
{
1000
CLinArray
1070
     4
1000
0.125|0.25|0.5
1002
{
1002
}
1002
}
1002
}
1000
Detail
1070
     0
1002
{
1002
}
1000
Dimension
1070
     5
1002
{
1000
DIMALT
1070
     1
1070
     0
1002
{
1002
}
1000
DIMALTD
1070
     1
1070
     2
1002
{
1002
}
1000
DIMALTTD
1070
     1
1070
     4
1002
{
1002
}
1000
DIMALTTZ
1070
     1
1070
     0
1002
{
1002
}
1000
DIMALTU
1070
     1
1070
     2
1002
{
1002
}
1000
DIMALTZ
1070
     1
1070
     0
1002
{
1002
}
1000
DIMAUNIT
1070
     1
1070
     0
1002
{
1002
}
1000
DIMBLK
1070
     4
1000

1002
{
1002
}
1000
DIMBLK1
1070
     4
1000

1002
{
1002
}
1000
DIMBLK2
1070
     4
1000

1002
{
1002
}
1000
DIMCLRD
1070
     1
1070
   256
1002
{
1002
}
1000
DIMCLRE
1070
     1
1070
   256
1002
{
1002
}
1000
DIMCLRT
1070
     1
1070
     2
1002
{
1002
}
1000
DIMDLE
1070
     2
1040
0.0
1002
{
1002
}
1000
DIMFIT
1070
     1
1070
     3
1002
{
1002
}
1000
DIMJUST
1070
     1
1070
     0
1002
{
1002
}
1000
DIMLFAC
1070
     2
1040
1.0
1002
{
1002
}
1000
DIMLIM
1070
     1
1070
     0
1002
{
1002
}
1000
DIMPOST
1070
     4
1000

1002
{
1002
}
1000
DIMRND
1070
     2
1040
0.0
1002
{
1002
}
1000
DIMSAH
1070
     1
1070
     0
1002
{
1002
}
1000
DIMSCALE
1070
     2
1040
1.0
1002
{
1002
}
1000
DIMSD1
1070
     1
1070
     0
1002
{
1002
}
1000
DIMSD2
1070
     1
1070
     0
1002
{
1002
}
1000
DIMSE1
1070
     1
1070
     0
1002
{
1002
}
1000
DIMSE2
1070
     1
1070
     0
1002
{
1002
}
1000
DIMSOXD
1070
     1
1070
     0
1002
{
1002
}
1000
DIMTAD
1070
     1
1070
     0
1002
{
1002
}
1000
DIMTFAC
1070
     2
1040
0.71
1002
{
1002
}
1000
DIMTIH
1070
     1
1070
     0
1002
{
1002
}
1000
DIMTIX
1070
     1
1070
     0
1002
{
1002
}
1000
DIMTM
1070
     2
1040
0.1
1002
{
1002
}
1000
DIMTOFL
1070
     1
1070
     0
1002
{
1002
}
1000
DIMTOH
1070
     1
1070
     0
1002
{
1002
}
1000
DIMTOL
1070
     1
1070
     0
1002
{
1002
}
1000
DIMTOLJ
1070
     1
1070
     1
1002
{
1002
}
1000
DIMTP
1070
     2
1040
0.1
1002
{
1002
}
1000
DIMTSZ
1070
     2
1040
0.0
1002
{
1002
}
1000
DIMTVP
1070
     2
1040
0.0
1002
{
1002
}
1000
DIMTXSTY
1070
     4
1000
STANDARD
1002
{
1002
}
1000
DIMTZIN
1070
     1
1070
     0
1002
{
1002
}
1000
DIMUNIT
1070
     1
1070
     2
1002
{
1002
}
1000
DIMUPT
1070
     1
1070
     0
1002
{
1002
}
1000
M
1070
     0
1002
{
1000
DIMALTF
1070
     2
1040
0.03937
1002
{
1002
}
1000
DIMAPOST
1070
     4
1000
"
1002
{
1002
}
1000
DIMASZ
1070
     2
1040
2.5
1002
{
1002
}
1000
DIMCEN
1070
     2
1040
0.0
1002
{
1002
}
1000
DIMDEC
1070
     1
1070
     2
1002
{
1002
}
1000
DIMDLI
1070
     2
1040
7.0
1002
{
1002
}
1000
DIMEXE
1070
     2
1040
1.0
1002
{
1002
}
1000
DIMEXO
1070
     2
1040
1.0
1002
{
1002
}
1000
DIMGAP
1070
     2
1040
0.6
1002
{
1002
}
1000
DIMTDEC
1070
     1
1070
     3
1002
{
1002
}
1000
DIMTXT
1070
     2
1040
3.5
1002
{
1002
}
1000
DIMZIN
1070
     1
1070
     8
1002
{
1002
}
1002
}
1000
I
1070
     0
1002
{
1000
DIMALTF
1070
     2
1040
25.4
1002
{
1002
}
1000
DIMAPOST
1070
     4
1000
mm
1002
{
1002
}
1000
DIMASZ
1070
     2
1040
0.1
1002
{
1002
}
1000
DIMCEN
1070
     2
1040
0.0
1002
{
1002
}
1000
DIMDEC
1070
     1
1070
     4
1002
{
1002
}
1000
DIMDLI
1070
     2
1040
0.5
1002
{
1002
}
1000
DIMEXE
1070
     2
1040
0.1
1002
{
1002
}
1000
DIMEXO
1070
     2
1040
0.05
1002
{
1002
}
1000
DIMGAP
1070
     2
1040
0.06
1002
{
1002
}
1000
DIMTDEC
1070
     1
1070
     4
1002
{
1002
}
1000
DIMTXT
1070
     2
1040
0.12
1002
{
1002
}
1000
DIMZIN
1070
     1
1070
     7
1002
{
1002
}
1002
}
1000
GEN-ISO
1070
     5
1002
{
1000
NAME
1070
     4
1000
GEN-ISO
1002
{
1002
}
1000
DIMTAD
1070
     1
1070
     1
1002
{
1002
}
1000
DIMTOLJ
1070
     1
1070
     0
1002
{
1002
}
1000
DIMTOFL
1070
     1
1070
     1
1002
{
1002
}
1000
M
1070
     0
1002
{
1002
}
1000
I
1070
     0
1002
{
1002
}
1002
}
1000
GEN-ISO-POS
1070
     5
1002
{
1000
NAME
1070
     4
1000
GEN-ISO-POS
1002
{
1002
}
1000
DIMTOLJ
1070
     1
1070
     0
1002
{
1002
}
1000
DIMTXSTY
1070
     4
1000
STANDARD
1002
{
1002
}
1000
M
1070
     0
1002
{
1000
DIMASZ
1070
     2
1040
2.5
1002
{
1002
}
1000
DIMGAP
1070
     2
1040
1.5
1002
{
1002
}
1000
DIMTXT
1070
     2
1040
5.0
1002
{
1002
}
1002
}
1000
I
1070
     0
1002
{
1000
DIMASZ
1070
     2
1040
0.1
1002
{
1002
}
1000
DIMGAP
1070
     2
1040
0.06
1002
{
1002
}
1000
DIMTXT
1070
     2
1040
0.2
1002
{
1002
}
1002
}
1002
}
1000
GEN-ISO-CIR
1070
     5
1002
{
1000
NAME
1070
     4
1000
GEN-ISO$3
1002
{
1002
}
1000
DIMFIT
1070
     1
1070
     0
1002
{
1002
}
1000
DIMTAD
1070
     1
1070
     1
1002
{
1002
}
1000
DIMTOH
1070
     1
1070
     1
1002
{
1002
}
1000
DIMTOLJ
1070
     1
1070
     0
1002
{
1002
}
1000
DIMUPT
1070
     1
1070
     1
1002
{
1002
}
1000
M
1070
     0
1002
{
1002
}
1000
I
1070
     0
1002
{
1002
}
1002
}
1000
GEN-ISO-RAD
1070
     5
1002
{
1000
NAME
1070
     4
1000
GEN-ISO$4
1002
{
1002
}
1000
DIMFIT
1070
     1
1070
     0
1002
{
1002
}
1000
DIMTAD
1070
     1
1070
     1
1002
{
1002
}
1000
DIMTIH
1070
     1
1070
     0
1002
{
1002
}
1000
DIMTIX
1070
     1
1070
     0
1002
{
1002
}
1000
DIMTOH
1070
     1
1070
     1
1002
{
1002
}
1000
DIMTOLJ
1070
     1
1070
     0
1002
{
1002
}
1000
DIMTOFL
1070
     1
1070
     0
1002
{
1002
}
1000
DIMUPT
1070
     1
1070
     1
1002
{
1002
}
1000
M
1070
     0
1002
{
1002
}
1000
I
1070
     0
1002
{
1002
}
1002
}
1000
GEN-ISO-ORD
1070
     5
1002
{
1000
NAME
1070
     4
1000
GEN-ISO$6
1002
{
1002
}
1000
DIMTOLJ
1070
     1
1070
     0
1002
{
1002
}
1000
M
1070
     0
1002
{
1002
}
1000
I
1070
     0
1002
{
1002
}
1002
}
1000
GEN-ISO-AXE-F
1070
     5
1002
{
1000
NAME
1070
     4
1000
GEN-ISO-AXE-F
1002
{
1002
}
1000
DIMSE1
1070
     1
1070
     1
1002
{
1002
}
1000
DIMSE2
1070
     1
1070
     1
1002
{
1002
}
1000
DIMTAD
1070
     1
1070
     1
1002
{
1002
}
1000
DIMTOLJ
1070
     1
1070
     0
1002
{
1002
}
1000
DIMTOFL
1070
     1
1070
     1
1002
{
1002
}
1000
M
1070
     0
1002
{
1002
}
1000
I
1070
     0
1002
{
1002
}
1002
}
1000
GEN-ISO-AXE-H
1070
     5
1002
{
1000
NAME
1070
     4
1000
GEN-ISO-AXE-H
1002
{
1002
}
1000
DIMBLK1
1070
     4
1000
GENAXEH
1002
{
1002
}
1000
DIMLFAC
1070
     2
1040
2.0
1002
{
1002
}
1000
DIMSAH
1070
     1
1070
     1
1002
{
1002
}
1000
DIMSE1
1070
     1
1070
     1
1002
{
1002
}
1000
DIMSE2
1070
     1
1070
     1
1002
{
1002
}
1000
DIMTAD
1070
     1
1070
     1
1002
{
1002
}
1000
DIMTOLJ
1070
     1
1070
     0
1002
{
1002
}
1000
DIMTOFL
1070
     1
1070
     1
1002
{
1002
}
1000
M
1070
     0
1002
{
1002
}
1000
I
1070
     0
1002
{
1002
}
1002
}
1000
GEN-ANSI
1070
     5
1002
{
1000
NAME
1070
     4
1000
GEN-ANSI
1002
{
1002
}
1000
DIMTIH
1070
     1
1070
     1
1002
{
1002
}
1000
DIMTOH
1070
     1
1070
     1
1002
{
1002
}
1000
DIMTAD
1070
     1
1070
     0
1002
{
1002
}
1000
DIMTOLJ
1070
     1
1070
     1
1002
{
1002
}
1000
M
1070
     0
1002
{
1002
}
1000
I
1070
     0
1002
{
1002
}
1002
}
1000
GEN-ANSI-POS
1070
     5
1002
{
1000
NAME
1070
     4
1000
GEN-ANSI-POS
1002
{
1002
}
1000
DIMTOLJ
1070
     1
1070
     1
1002
{
1002
}
1000
DIMTXSTY
1070
     4
1000
STANDARD
1002
{
1002
}
1000
M
1070
     0
1002
{
1000
DIMASZ
1070
     2
1040
2.5
1002
{
1002
}
1000
DIMGAP
1070
     2
1040
1.5
1002
{
1002
}
1000
DIMTXT
1070
     2
1040
5.0
1002
{
1002
}
1002
}
1000
I
1070
     0
1002
{
1000
DIMASZ
1070
     2
1040
0.1
1002
{
1002
}
1000
DIMGAP
1070
     2
1040
0.06
1002
{
1002
}
1000
DIMTXT
1070
     2
1040
0.2
1002
{
1002
}
1002
}
1002
}
1000
GEN-ANSI-CIR
1070
     5
1002
{
1000
NAME
1070
     4
1000
GEN-ANSI$3
1002
{
1002
}
1000
DIMFIT
1070
     1
1070
     0
1002
{
1002
}
1000
DIMTAD
1070
     1
1070
     0
1002
{
1002
}
1000
DIMTIH
1070
     1
1070
     1
1002
{
1002
}
1000
DIMTIX
1070
     1
1070
     0
1002
{
1002
}
1000
DIMTOFL
1070
     1
1070
     0
1002
{
1002
}
1000
DIMTOH
1070
     1
1070
     1
1002
{
1002
}
1000
DIMTOLJ
1070
     1
1070
     1
1002
{
1002
}
1000
DIMUPT
1070
     1
1070
     1
1002
{
1002
}
1000
M
1070
     0
1002
{
1002
}
1000
I
1070
     0
1002
{
1002
}
1002
}
1000
GEN-ANSI-RAD
1070
     5
1002
{
1000
NAME
1070
     4
1000
GEN-ANSI$4
1002
{
1002
}
1000
DIMFIT
1070
     1
1070
     0
1002
{
1002
}
1000
DIMTAD
1070
     1
1070
     0
1002
{
1002
}
1000
DIMTIH
1070
     1
1070
     1
1002
{
1002
}
1000
DIMTIX
1070
     1
1070
     0
1002
{
1002
}
1000
DIMTOFL
1070
     1
1070
     0
1002
{
1002
}
1000
DIMTOH
1070
     1
1070
     1
1002
{
1002
}
1000
DIMTOLJ
1070
     1
1070
     1
1002
{
1002
}
1000
DIMUPT
1070
     1
1070
     1
1002
{
1002
}
1000
M
1070
     0
1002
{
1002
}
1000
I
1070
     0
1002
{
1002
}
1002
}
1000
GEN-ANSI-ORD
1070
     5
1002
{
1000
NAME
1070
     4
1000
GEN-ANSI$6
1002
{
1002
}
1000
DIMTAD
1070
     1
1070
     0
1002
{
1002
}
1000
DIMTIH
1070
     1
1070
     1
1002
{
1002
}
1000
DIMTOH
1070
     1
1070
     1
1002
{
1002
}
1000
DIMTOLJ
1070
     1
1070
     1
1002
{
1002
}
1000
M
1070
     0
1002
{
1002
}
1000
I
1070
     0
1002
{
1002
}
1002
}
1000
GEN-ANSI-AXE-F
1070
     5
1002
{
1000
NAME
1070
     4
1000
GEN-ANSI-AXE-F
1002
{
1002
}
1000
DIMBLK1
1070
     4
1000
GENAXEH
1002
{
1002
}
1000
DIMSAH
1070
     1
1070
     1
1002
{
1002
}
1000
DIMSE1
1070
     1
1070
     1
1002
{
1002
}
1000
DIMSE2
1070
     1
1070
     1
1002
{
1002
}
1000
DIMTAD
1070
     1
1070
     0
1002
{
1002
}
1000
DIMTIH
1070
     1
1070
     1
1002
{
1002
}
1000
DIMTOH
1070
     1
1070
     1
1002
{
1002
}
1000
DIMTOLJ
1070
     1
1070
     1
1002
{
1002
}
1000
M
1070
     0
1002
{
1002
}
1000
I
1070
     0
1002
{
1002
}
1002
}
1000
GEN-ANSI-AXE-H
1070
     5
1002
{
1000
NAME
1070
     4
1000
GEN-ANSI-AXE-H
1002
{
1002
}
1000
DIMBLK1
1070
     4
1000
GENAXEH
1002
{
1002
}
1000
DIMLFAC
1070
     2
1040
2.0
1002
{
1002
}
1000
DIMSAH
1070
     1
1070
     1
1002
{
1002
}
1000
DIMSE1
1070
     1
1070
     1
1002
{
1002
}
1000
DIMSE2
1070
     1
1070
     1
1002
{
1002
}
1000
DIMTAD
1070
     1
1070
     0
1002
{
1002
}
1000
DIMTOFL
1070
     1
1070
     1
1002
{
1002
}
1000
DIMTOLJ
1070
     1
1070
     1
1002
{
1002
}
1000
M
1070
     0
1002
{
1002
}
1000
I
1070
     0
1002
{
1002
}
1002
}
1002
}
1000
DimSet
1070
     0
1002
{
1000
ChainSum
1070
     3
1070
     0
1002
{
1002
}
1000
DimDclTyp0
1070
     4
1000
dim23
1002
{
1002
}
1000
HorBra
1070
     3
1070
     0
1002
{
1002
}
1000
StrDia
1070
     4
1000
%%c<>
1002
{
1002
}
1000
StrRad
1070
     4
1000
R<>
1002
{
1002
}
1000
TextMinus
1070
     4
1000
<>
1002
{
1002
}
1000
TextPlus
1070
     4
1000
<>
1002
{
1002
}
1000
M
1070
     0
1002
{
1000
DimdliFirst
1070
     2
1040
10.0
1002
{
1002
}
1000
PointMakeDist
1070
     2
1040
10.0
1002
{
1002
}
1002
}
1000
I
1070
     0
1002
{
1000
DimdliFirst
1070
     2
1040
0.5
1002
{
1002
}
1000
PointMakeDist
1070
     2
1040
0.5
1002
{
1002
}
1002
}
1000
FitGrade
1070
     4
1000
h7
1002
{
1002
}
1002
}
1000
Drawing
1070
     0
1002
{
1000
ChamferDimMode
1070
     1
1070
     2
1002
{
1002
}
1000
Gen_Fiso
1070
    -3
1040
1.0
1002
{
1002
}
1000
GenDimStil
1070
     4
1000
ISO
1002
{
1002
}
1000
GenDwgUScale
1070
     2
1040
1.0
1002
{
1002
}
1000
GenInch
1070
     4
1000
M
1002
{
1002
}
1000
GenPlotScale
1070
     4
1000
1:5
1002
{
1002
}
1000
Revisi
1070
     4
1000
0
1002
{
1002
}
1000
Version
1070
    -5
1000
14.01/Apr  1 1998
1002
{
1002
}
1000
Platform
1070
    -5
1000
WINNT
1002
{
1002
}
1002
}
1000
DwgVar
1070
     0
1002
{
1000
M
1070
     0
1002
{
1002
}
1000
I
1070
     0
1002
{
1002
}
1002
}
1000
Hatch
1070
     0
1002
{
1000
GenHtcFlag
1070
     3
1070
     0
1002
{
1002
}
1002
}
1000
Info_Pos
1070
     0
1002
{
1000
>
1002
}
1000
Layer
1070
     6
1002
{
1000
Defs
1070
     0
1002
{
1000
>
1002
}
1000
EntSort
1070
     0
1002
{
1000
>
1002
}
1000
Match
1070
     0
1002
{
1002
}
1000
Settings
1070
     0
1002
{
1000
FocGrNC
1070
     3
1070
     0
1002
{
1002
}
1000
FocGrLo
1070
     3
1070
     0
1002
{
1002
}
1000
FocLoNC
1070
     3
1070
     0
1002
{
1002
}
1000
FocusCol
1070
     1
1070
   253
1002
{
1002
}
1000
GenStdLG
1070
     4
1000

1002
{
1002
}
1000
LayMatch
1070
     3
1070
     0
1002
{
1002
}
1000
LgOff
1070
     3
1070
     0
1002
{
1002
}
1000
CurLG
1070
    -5
1000

1002
{
1002
}
1002
}
1002
}
1000
LType
1070
     0
1002
{
1000
GEN3
1070
     7
1000
genius.lin
1002
{
1002
}
1000
GEN7
1070
     7
1000
genius.lin
1002
{
1002
}
1000
GEN4A
1070
     7
1000
genius.lin
1002
{
1002
}
1000
GEN3A
1070
     7
1000
genius.lin
1002
{
1002
}
1000
GEN7A
1070
     7
1000
genius.lin
1002
{
1002
}
1000
GENZIGZAG
1070
     7
1000
genius.lin
1002
{
1002
}
1002
}
1000
Objecter
1070
     0
1002
{
1000
CreateGroups
1070
     3
1070
     0
1002
{
1002
}
1000
LaySwitch
1070
     3
1070
     1
1002
{
1002
}
1000
LastObj
1070
    -5
1000
1236
1002
{
1002
}
1000
TimeStamp
1070
    -5
1000
20020508.17054918
1002
{
1002
}
1002
}
1000
OSWiz
1070
     0
1002
{
1000
Filter
1070
     0
1002
{
1000
HATCH
1070
     8
1002
{
1000
EntityType
1070
     4
1000
LINE
1002
{
1002
}
1000
Layer
1070
     4
1000
8,8N,*-8,*-8N
1002
{
1002
}
1000
Linetype
1070
     4
1000
*
1002
{
1002
}
1000
Color
1070
     4
1000
*
1002
{
1002
}
1000
ApplyInDims
1070
     3
1070
     1
1002
{
1002
}
1002
}
1000
SYMBOLS
1070
     8
1002
{
1000
EntityType
1070
     4
1000
*
1002
{
1002
}
1000
Layer
1070
     4
1000
[5-6],[5-6]N,*-[5-6],*-[5-6]N
1002
{
1002
}
1000
Linetype
1070
     4
1000
*
1002
{
1002
}
1000
Color
1070
     4
1000
*
1002
{
1002
}
1000
ApplyInDims
1070
     3
1070
     1
1002
{
1002
}
1002
}
1000
FEM
1070
     8
1002
{
1000
EntityType
1070
     4
1000
*
1002
{
1002
}
1000
Layer
1070
     4
1000
4A,4AN,*-4A,*-4AN
1002
{
1002
}
1000
Linetype
1070
     4
1000
*
1002
{
1002
}
1000
Color
1070
     4
1000
*
1002
{
1002
}
1000
ApplyInDims
1070
     3
1070
     1
1002
{
1002
}
1002
}
1002
}
1002
}
1000
PaList
1070
     0
1002
{
1000
AutoUpdatePartList
1070
     1
1070
     0
1002
{
1002
}
1000
ReadInfoPoint
1070
     3
1070
     0
1002
{
1002
}
1000
ReadPosNr
1070
     3
1070
     1
1002
{
1002
}
1000
RevStr
1070
     4
1000
0
1002
{
1002
}
1002
}
1000
Paper
1070
     0
1002
{
1000
Layer
1070
    -5
1000
KLIN
1002
{
1002
}
1002
}
1000
PartDB
1070
     0
1002
{
1000
GenDbOwner
1070
     4
1000

1002
{
1002
}
1002
}
1000
System
1070
     0
1002
{
1000
Menu
1070
     4
1000
GEV
1002
{
1002
}
1002
}
1000
Title
1070
     0
1002
{
1000
MakeView
1070
     1
1070
     2
1002
{
1002
}
1002
}
1000
Tools
1070
     0
1002
{
1000
Trans
1070
     0
1002
{
1000
Drawingtranslation
1070
    -4
1070
     1
1002
{
1002
}
1000
upreserve
1070
     3
1070
     0
1002
{
1002
}
1000
originally_on
1070
    -4
1070
     0
1002
{
1002
}
1000
sourcelang
1070
    -5
1000
D
1002
{
1002
}
1002
}
1002
}
  0
APPID
  5
11C2
330
1182
100
AcDbSymbolTableRecord
100
AcDbRegAppTableRecord
  2
GENIUS_GEVCFG0_13
 70
     0
1001
GENIUS_GENCFG_13
1071
1020870361
1000
11C2
1000
GEV
1070
     1
1000
GenCfgObject
1000
VED
1070
     0
1002
{
1002
}
  0
APPID
  5
1205
330
1182
100
AcDbSymbolTableRecord
100
AcDbRegAppTableRecord
  2
GEV_VCCNULL_SWITCH_OFF
 70
     0
  0
APPID
  5
1206
330
1182
100
AcDbSymbolTableRecord
100
AcDbRegAppTableRecord
  2
GENIUS_GENDTOL_13
 70
     0
  0
APPID
  5
1207
330
1182
100
AcDbSymbolTableRecord
100
AcDbRegAppTableRecord
  2
GENIUS_GENOENT_13
 70
     0
  0
APPID
  5
1208
330
1182
100
AcDbSymbolTableRecord
100
AcDbRegAppTableRecord
  2
GENIUS_GENBLLY_14
 70
     0
  0
APPID
  5
1209
330
1182
100
AcDbSymbolTableRecord
100
AcDbRegAppTableRecord
  2
GENIUS_GENODEF_13
 70
     0
  0
APPID
  5
120A
330
1182
100
AcDbSymbolTableRecord
100
AcDbRegAppTableRecord
  2
GENIUS_GENOBJ-N-CRS_13
 70
     0
  0
APPID
  5
120B
330
1182
100
AcDbSymbolTableRecord
100
AcDbRegAppTableRecord
  2
GENIUS_GENOREF_13
 70
     0
  0
APPID
  5
120C
330
1182
100
AcDbSymbolTableRecord
100
AcDbRegAppTableRecord
  2
GENIUS_GENOLIS_13
 70
     0
  0
APPID
  5
120D
330
1182
100
AcDbSymbolTableRecord
100
AcDbRegAppTableRecord
  2
GENIUS_GEFCFG0_13
 70
     0
  0
APPID
  5
120E
330
1182
100
AcDbSymbolTableRecord
100
AcDbRegAppTableRecord
  2
GENIUS_VERSION2
 70
     0
  0
APPID
  5
120F
330
1182
100
AcDbSymbolTableRecord
100
AcDbRegAppTableRecord
  2
GENIUS_GENREC_14
 70
     0
  0
APPID
  5
1210
330
1182
100
AcDbSymbolTableRecord
100
AcDbRegAppTableRecord
  2
GENIUS_GENOBJ-N-REC_13
 70
     0
  0
APPID
  5
1211
330
1182
100
AcDbSymbolTableRecord
100
AcDbRegAppTableRecord
  2
GENIUS_GENOBJ-N-TIT_13
 70
     0
  0
APPID
  5
1212
330
1182
100
AcDbSymbolTableRecord
100
AcDbRegAppTableRecord
  2
GENIUS_GENTITLE_13
 70
     0
  0
APPID
  5
1213
330
1182
100
AcDbSymbolTableRecord
100
AcDbRegAppTableRecord
  2
GENIUS_GENZVEED_13
 70
     0
  0
APPID
  5
1214
330
1182
100
AcDbSymbolTableRecord
100
AcDbRegAppTableRecord
  2
GENIUS_GENOBJ-N-SDF_13
 70
     0
  0
APPID
  5
1215
330
1182
100
AcDbSymbolTableRecord
100
AcDbRegAppTableRecord
  2
GENIUS_GENSCREG_13
 70
     0
  0
APPID
  5
1216
330
1182
100
AcDbSymbolTableRecord
100
AcDbRegAppTableRecord
  2
GENIUS_GENBLKED_14
 70
     0
  0
APPID
  5
1C20
330
1182
100
AcDbSymbolTableRecord
100
AcDbRegAppTableRecord
  2
MCAD_NO_VIS
 70
     0
  0
APPID
  5
1C21
330
1182
100
AcDbSymbolTableRecord
100
AcDbRegAppTableRecord
  2
ACAD_TEMP_GRAPHIC
 70
     0
  0
APPID
  5
1C51
330
1182
100
AcDbSymbolTableRecord
100
AcDbRegAppTableRecord
  2
AD_DRAW
 70
     0
  0
APPID
  5
1C54
330
1182
100
AcDbSymbolTableRecord
100
AcDbRegAppTableRecord
  2
ACATTRIBSERVICES
 70
     0
  0
APPID
  5
1C74
330
1182
100
AcDbSymbolTableRecord
100
AcDbRegAppTableRecord
  2
DESIGNERASSEMBLIES
 70
     0
  0
APPID
  5
1C7A
330
1182
100
AcDbSymbolTableRecord
100
AcDbRegAppTableRecord
  2
ACADM_DIM_EDIT
 70
     0
  0
APPID
  5
1C7B
330
1182
100
AcDbSymbolTableRecord
100
AcDbRegAppTableRecord
  2
AMDT_DM_ADJ
 70
     0
  0
APPID
  5
1CAD
330
1182
100
AcDbSymbolTableRecord
100
AcDbRegAppTableRecord
  2
ACAD_DSTYLE_DIMARC_LENGTH_SYMBOL
 70
     0
  0
APPID
  5
1CAE
330
1182
100
AcDbSymbolTableRecord
100
AcDbRegAppTableRecord
  2
ACAD_DSTYLE_DIMJOGGED_JOGANGLE_SYMBOL
 70
     0
  0
ENDTAB
  0
TABLE
  2
DIMSTYLE
  5
1183
330
0
100
AcDbSymbolTable
 70
     9
100
AcDbDimStyleTable
 71
     0
  0
DIMSTYLE
105
11AB
102
{ACAD_REACTORS
330
1053
330
112B
330
114A
330
1153
102
}
330
1183
100
AcDbSymbolTableRecord
100
AcDbDimStyleTableRecord
  2
GEN-ISO
 70
     0
  4
"
 40
5.0
 41
2.5
 42
1.0
 43
7.0
 44
1.0
 47
0.1
 48
0.1
 73
     0
 74
     0
 77
     1
 78
     8
140
3.5
141
0.0
143
0.03937
146
0.71
147
0.6
172
     1
176
   256
177
   256
178
     2
271
     2
272
     3
274
     4
283
     0
340
1188
  0
DIMSTYLE
105
1CAC
330
1183
100
AcDbSymbolTableRecord
100
AcDbDimStyleTableRecord
  2
AM_DIN
 70
     0
  4
"
 41
2.5
 42
1.0
 43
10.0
 44
1.0
 47
0.1
 48
0.1
 73
     0
 74
     0
 77
     1
 78
     8
 79
     2
140
3.5
141
0.0
143
0.0393701
146
0.71
147
1.5
172
     1
176
   256
177
   256
178
     2
271
     2
272
     3
274
     4
283
     0
284
     8
340
1188
371
    -1
372
    -1
1001
ACAD_DSTYLE_DIMARC_LENGTH_SYMBOL
1070
   379
1070
     0
1001
ACAD_DSTYLE_DIMJOGGED_JOGANGLE_SYMBOL
1070
   384
1040
1.570796326794896
  0
DIMSTYLE
105
1CBD
330
1183
100
AcDbSymbolTableRecord
100
AcDbDimStyleTableRecord
  2
AM_DIN$3
 70
     0
  4
"
 41
2.5
 42
1.0
 43
10.0
 44
1.0
 47
0.1
 48
0.1
 73
     0
 77
     1
 78
     8
 79
     2
140
3.5
141
0.0
143
0.0393701
146
0.71
147
1.5
176
   256
177
   256
178
     2
271
     2
272
     3
274
     4
283
     0
284
     8
288
     1
289
     0
340
1188
371
    -1
372
    -1
1001
ACAD_DSTYLE_DIMARC_LENGTH_SYMBOL
1070
   379
1070
     0
1001
ACAD_DSTYLE_DIMJOGGED_JOGANGLE_SYMBOL
1070
   384
1040
1.570796326794896
  0
DIMSTYLE
105
1CC2
330
1183
100
AcDbSymbolTableRecord
100
AcDbDimStyleTableRecord
  2
AM_DIN$4
 70
     0
  4
"
 41
2.5
 42
1.0
 43
10.0
 44
1.0
 47
0.1
 48
0.1
 73
     0
 77
     1
 78
     8
 79
     2
140
3.5
141
0.0
143
0.0393701
146
0.71
147
1.5
176
   256
177
   256
178
     2
271
     2
272
     3
274
     4
283
     0
284
     8
288
     1
289
     0
340
1188
371
    -1
372
    -1
1001
ACAD_DSTYLE_DIMARC_LENGTH_SYMBOL
1070
   379
1070
     0
1001
ACAD_DSTYLE_DIMJOGGED_JOGANGLE_SYMBOL
1070
   384
1040
1.570796326794896
  0
DIMSTYLE
105
1CC7
330
1183
100
AcDbSymbolTableRecord
100
AcDbDimStyleTableRecord
  2
AM_DIN$6
 70
     0
  4
"
 41
2.5
 42
1.0
 43
10.0
 44
1.0
 47
0.1
 48
0.1
 73
     0
 74
     0
 78
     8
 79
     2
140
3.5
141
0.0
143
0.0393701
146
0.71
147
1.5
172
     1
176
   256
177
   256
178
     2
271
     2
272
     3
274
     4
283
     0
284
     8
340
1188
371
    -1
372
    -1
1001
ACAD_DSTYLE_DIMARC_LENGTH_SYMBOL
1070
   379
1070
     0
1001
ACAD_DSTYLE_DIMJOGGED_JOGANGLE_SYMBOL
1070
   384
1040
1.570796326794896
  0
DIMSTYLE
105
1CCC
330
1183
100
AcDbSymbolTableRecord
100
AcDbDimStyleTableRecord
  2
AM_DIN$7
 70
     0
  4
"
 41
2.5
 42
1.0
 43
10.0
 44
1.0
 47
0.1
 48
0.1
 73
     0
 74
     0
 77
     1
 78
     8
 79
     2
140
5.0
141
0.0
143
0.0393701
146
0.71
147
1.5
172
     1
176
   256
177
   256
178
     2
271
     2
272
     3
274
     4
283
     0
284
     8
340
1188
371
    -1
372
    -1
1001
ACAD_DSTYLE_DIMARC_LENGTH_SYMBOL
1070
   379
1070
     0
1001
ACAD_DSTYLE_DIMJOGGED_JOGANGLE_SYMBOL
1070
   384
1040
1.570796326794896
  0
DIMSTYLE
105
1CD1
330
1183
100
AcDbSymbolTableRecord
100
AcDbDimStyleTableRecord
  2
AM_DIN$SF
 70
     0
  4
"
 41
2.5
 42
1.0
 43
10.0
 44
1.0
 47
0.1
 48
0.1
 73
     0
 74
     0
 75
     1
 76
     1
 77
     1
 78
     8
 79
     2
140
3.5
141
0.0
143
0.0393701
146
0.71
147
1.5
172
     1
176
   256
177
   256
178
     2
271
     2
272
     3
274
     4
283
     0
284
     8
340
1188
371
    -1
372
    -1
1001
ACAD_DSTYLE_DIMARC_LENGTH_SYMBOL
1070
   379
1070
     0
1001
ACAD_DSTYLE_DIMJOGGED_JOGANGLE_SYMBOL
1070
   384
1040
1.570796326794896
  0
DIMSTYLE
105
1CDA
330
1183
100
AcDbSymbolTableRecord
100
AcDbDimStyleTableRecord
  2
AM_DIN$SH
 70
     0
  4
"
 41
2.5
 42
1.0
 43
10.0
 44
1.0
 47
0.1
 48
0.1
 73
     0
 74
     0
 75
     1
 76
     1
 77
     1
 78
     8
 79
     2
140
3.5
141
0.0
143
0.0393701
144
2.0
146
0.71
147
1.5
172
     1
173
     1
176
   256
177
   256
178
     2
271
     2
272
     3
274
     4
283
     0
284
     8
340
1188
343
1CD2
371
    -1
372
    -1
1001
ACAD_DSTYLE_DIMARC_LENGTH_SYMBOL
1070
   379
1070
     0
1001
ACAD_DSTYLE_DIMJOGGED_JOGANGLE_SYMBOL
1070
   384
1040
1.570796326794896
  0
ENDTAB
  0
TABLE
  2
BLOCK_RECORD
  5
117A
330
0
100
AcDbSymbolTable
 70
    17
  0
BLOCK_RECORD
  5
1191
330
117A
100
AcDbSymbolTableRecord
100
AcDbBlockTableRecord
  2
*MODEL_SPACE
340
1C18
  0
BLOCK_RECORD
  5
118E
330
117A
100
AcDbSymbolTableRecord
100
AcDbBlockTableRecord
  2
*PAPER_SPACE
340
1C19
  0
BLOCK_RECORD
  5
11AE
330
117A
100
AcDbSymbolTableRecord
100
AcDbBlockTableRecord
  2
*X0
340
0
102
{BLKREFS
331
10BD
102
}
  0
BLOCK_RECORD
  5
11AF
330
117A
100
AcDbSymbolTableRecord
100
AcDbBlockTableRecord
  2
*X1
340
0
102
{BLKREFS
331
1121
102
}
  0
BLOCK_RECORD
  5
11C4
330
117A
100
AcDbSymbolTableRecord
100
AcDbBlockTableRecord
  2
*D2
340
0
  0
BLOCK_RECORD
  5
11D4
330
117A
100
AcDbSymbolTableRecord
100
AcDbBlockTableRecord
  2
KATALOG_LEER
340
0
102
{BLKREFS
331
1218
331
1235
102
}
  0
BLOCK_RECORD
  5
1244
330
117A
100
AcDbSymbolTableRecord
100
AcDbBlockTableRecord
  2
*D5
340
0
  0
BLOCK_RECORD
  5
12AD
330
117A
100
AcDbSymbolTableRecord
100
AcDbBlockTableRecord
  2
*D7
340
0
  0
BLOCK_RECORD
  5
12C6
330
117A
100
AcDbSymbolTableRecord
100
AcDbBlockTableRecord
  2
*D8
340
0
  0
BLOCK_RECORD
  5
13C2
330
117A
100
AcDbSymbolTableRecord
100
AcDbBlockTableRecord
  2
*X9
340
0
102
{BLKREFS
331
1A56
331
1B3D
102
}
  0
BLOCK_RECORD
  5
13D3
330
117A
100
AcDbSymbolTableRecord
100
AcDbBlockTableRecord
  2
*X10
340
0
102
{BLKREFS
331
1A73
331
1B5A
102
}
  0
BLOCK_RECORD
  5
1CD2
330
117A
100
AcDbSymbolTableRecord
100
AcDbBlockTableRecord
  2
GENAXEH
340
0
  0
ENDTAB
  0
ENDSEC
  0
SECTION
  2
BLOCKS
  0
BLOCK
  5
1192
330
1191
100
AcDbEntity
  8
0
100
AcDbBlockBegin
  2
*MODEL_SPACE
 70
     0
 10
0.0
 20
0.0
 30
0.0
  3
*MODEL_SPACE
  1

  0
ENDBLK
  5
1193
330
1191
100
AcDbEntity
  8
0
100
AcDbBlockEnd
  0
BLOCK
  5
118F
330
118E
100
AcDbEntity
 67
     1
  8
0
100
AcDbBlockBegin
  2
*PAPER_SPACE
 70
     0
 10
0.0
 20
0.0
 30
0.0
  3
*PAPER_SPACE
  1

  0
ENDBLK
  5
1190
330
118E
100
AcDbEntity
 67
     1
  8
0
100
AcDbBlockEnd
  0
BLOCK
  5
1090
330
11AE
100
AcDbEntity
  8
0
100
AcDbBlockBegin
  2
*X0
 70
     1
 10
0.0
 20
0.0
 30
0.0
  3
*X0
  1

  0
LINE
  5
1091
330
11AE
100
AcDbEntity
  8
8
100
AcDbLine
 10
472.9659999999999
 20
800.233
 30
0.0
 11
478.628
 21
805.8949999999999
 31
0.0
  0
LINE
  5
1092
330
11AE
100
AcDbEntity
  8
8
100
AcDbLine
 10
472.823
 20
809.07
 30
0.0
 11
478.505
 21
814.752
 31
0.0
  0
LINE
  5
1093
330
11AE
100
AcDbEntity
  8
8
100
AcDbLine
 10
472.6799999999999
 20
817.9069999999999
 30
0.0
 11
477.703
 21
822.93
 31
0.0
  0
LINE
  5
1094
330
11AE
100
AcDbEntity
  8
8
100
AcDbLine
 10
472.536
 20
826.7439999999998
 30
0.0
 11
477.495
 21
831.7029999999999
 31
0.0
  0
LINE
  5
1095
330
11AE
100
AcDbEntity
  8
8
100
AcDbLine
 10
472.393
 20
835.5809999999999
 30
0.0
 11
477.3419999999999
 21
840.529
 31
0.0
  0
LINE
  5
1096
330
11AE
100
AcDbEntity
  8
8
100
AcDbLine
 10
472.25
 20
844.4179999999999
 30
0.0
 11
477.188
 21
849.356
 31
0.0
  0
LINE
  5
1097
330
11AE
100
AcDbEntity
  8
8
100
AcDbLine
 10
472.106
 20
853.255
 30
0.0
 11
477.034
 21
858.183
 31
0.0
  0
LINE
  5
1098
330
11AE
100
AcDbEntity
  8
8
100
AcDbLine
 10
471.963
 20
862.0919999999999
 30
0.0
 11
476.8799999999999
 21
867.009
 31
0.0
  0
LINE
  5
1099
330
11AE
100
AcDbEntity
  8
8
100
AcDbLine
 10
470.342
 20
869.4510000000001
 30
0.0
 11
476.5929999999999
 21
875.702
 31
0.0
  0
LINE
  5
109A
330
11AE
100
AcDbEntity
  8
8
100
AcDbLine
 10
466.392
 20
874.4810000000001
 30
0.0
 11
470.22
 21
878.3089999999999
 31
0.0
  0
LINE
  5
109B
330
11AE
100
AcDbEntity
  8
8
100
AcDbLine
 10
460.5019999999999
 20
877.571
 30
0.0
 11
465.5019999999999
 21
882.572
 31
0.0
  0
LINE
  5
109C
330
11AE
100
AcDbEntity
  8
8
100
AcDbLine
 10
452.598
 20
878.648
 30
0.0
 11
457.2589999999999
 21
883.309
 31
0.0
  0
LINE
  5
109D
330
11AE
100
AcDbEntity
  8
8
100
AcDbLine
 10
445.008
 20
880.038
 30
0.0
 11
448.967
 21
883.9969999999999
 31
0.0
  0
LINE
  5
109E
330
11AE
100
AcDbEntity
  8
8
100
AcDbLine
 10
438.628
 20
882.638
 30
0.0
 11
442.403
 21
886.4130000000001
 31
0.0
  0
LINE
  5
109F
330
11AE
100
AcDbEntity
  8
8
100
AcDbLine
 10
433.441
 20
886.4310000000001
 30
0.0
 11
436.9909999999999
 21
889.981
 31
0.0
  0
LINE
  5
10A0
330
11AE
100
AcDbEntity
  8
8
100
AcDbLine
 10
429.0019999999999
 20
890.9730000000001
 30
0.0
 11
432.5269999999999
 21
894.4969999999999
 31
0.0
  0
LINE
  5
10A1
330
11AE
100
AcDbEntity
  8
8
100
AcDbLine
 10
425.273
 20
896.2239999999999
 30
0.0
 11
429.009
 21
899.96
 31
0.0
  0
LINE
  5
10A2
330
11AE
100
AcDbEntity
  8
8
100
AcDbLine
 10
422.4359999999999
 20
902.368
 30
0.0
 11
426.678
 21
906.6089999999999
 31
0.0
  0
LINE
  5
10A3
330
11AE
100
AcDbEntity
  8
8
100
AcDbLine
 10
421.1249999999999
 20
910.0369999999999
 30
0.0
 11
425.739
 21
914.6499999999999
 31
0.0
  0
LINE
  5
10A4
330
11AE
100
AcDbEntity
  8
8
100
AcDbLine
 10
420.5339999999999
 20
918.426
 30
0.0
 11
425.2919999999999
 21
923.183
 31
0.0
  0
LINE
  5
10A5
330
11AE
100
AcDbEntity
  8
8
100
AcDbLine
 10
420.087
 20
926.9589999999999
 30
0.0
 11
424.844
 21
931.7159999999999
 31
0.0
  0
LINE
  5
10A6
330
11AE
100
AcDbEntity
  8
8
100
AcDbLine
 10
419.6399999999999
 20
935.4919999999999
 30
0.0
 11
424.397
 21
940.2489999999998
 31
0.0
  0
LINE
  5
10A7
330
11AE
100
AcDbEntity
  8
8
100
AcDbLine
 10
419.193
 20
944.025
 30
0.0
 11
423.9499999999999
 21
948.7819999999999
 31
0.0
  0
LINE
  5
10A8
330
11AE
100
AcDbEntity
  8
8
100
AcDbLine
 10
418.745
 20
952.5579999999999
 30
0.0
 11
423.503
 21
957.315
 31
0.0
  0
LINE
  5
10A9
330
11AE
100
AcDbEntity
  8
8
100
AcDbLine
 10
418.2979999999999
 20
961.091
 30
0.0
 11
423.055
 21
965.848
 31
0.0
  0
LINE
  5
10AA
330
11AE
100
AcDbEntity
  8
8
100
AcDbLine
 10
417.851
 20
969.6239999999999
 30
0.0
 11
422.608
 21
974.3810000000001
 31
0.0
  0
LINE
  5
10AB
330
11AE
100
AcDbEntity
  8
8
100
AcDbLine
 10
417.4039999999999
 20
978.157
 30
0.0
 11
422.161
 21
982.914
 31
0.0
  0
LINE
  5
10AC
330
11AE
100
AcDbEntity
  8
8
100
AcDbLine
 10
416.957
 20
986.6900000000001
 30
0.0
 11
421.7139999999999
 21
991.4469999999999
 31
0.0
  0
LINE
  5
10AD
330
11AE
100
AcDbEntity
  8
8
100
AcDbLine
 10
416.509
 20
995.223
 30
0.0
 11
421.2659999999999
 21
999.98
 31
0.0
  0
LINE
  5
10AE
330
11AE
100
AcDbEntity
  8
8
100
AcDbLine
 10
414.143
 20
1001.837
 30
0.0
 11
420.819
 21
1008.513
 31
0.0
  0
LINE
  5
10AF
330
11AE
100
AcDbEntity
  8
8
100
AcDbLine
 10
408.375
 20
1005.05
 30
0.0
 11
416.6349999999999
 21
1013.309
 31
0.0
  0
LINE
  5
10B0
330
11AE
100
AcDbEntity
  8
8
100
AcDbLine
 10
379.751
 20
985.406
 30
0.0
 11
390.445
 21
996.1
 31
0.0
  0
LINE
  5
10B1
330
11AE
100
AcDbEntity
  8
8
100
AcDbLine
 10
399.885
 20
1005.54
 30
0.0
 11
407.6539999999999
 21
1013.309
 31
0.0
  0
LINE
  5
10B2
330
11AE
100
AcDbEntity
  8
8
100
AcDbLine
 10
373.329
 20
987.9649999999999
 30
0.0
 11
398.6740000000001
 21
1013.309
 31
0.0
  0
LINE
  5
10B3
330
11AE
100
AcDbEntity
  8
8
100
AcDbLine
 10
370.514
 20
994.13
 30
0.0
 11
389.694
 21
1013.309
 31
0.0
  0
LINE
  5
10B4
330
11AE
100
AcDbEntity
  8
8
100
AcDbLine
 10
369.168
 20
1001.764
 30
0.0
 11
380.714
 21
1013.309
 31
0.0
  0
LINE
  5
10B5
330
11AE
100
AcDbEntity
  8
8
100
AcDbLine
 10
365.149
 20
1006.724
 30
0.0
 11
371.733
 21
1013.309
 31
0.0
  0
LINE
  5
10B6
330
11AE
100
AcDbEntity
  8
8
100
AcDbLine
 10
356.499
 20
1007.055
 30
0.0
 11
362.7530000000001
 21
1013.309
 31
0.0
  0
LINE
  5
10B7
330
11AE
100
AcDbEntity
  8
8
100
AcDbLine
 10
345.773
 20
1005.309
 30
0.0
 11
353.773
 21
1013.309
 31
0.0
  0
LINE
  5
10B8
330
11AE
100
AcDbEntity
  8
8
100
AcDbLine
 10
336.793
 20
1005.309
 30
0.0
 11
344.792
 21
1013.309
 31
0.0
  0
LINE
  5
10B9
330
11AE
100
AcDbEntity
  8
8
100
AcDbLine
 10
327.8119999999999
 20
1005.309
 30
0.0
 11
335.8119999999999
 21
1013.309
 31
0.0
  0
LINE
  5
10BA
330
11AE
100
AcDbEntity
  8
8
100
AcDbLine
 10
318.832
 20
1005.309
 30
0.0
 11
326.832
 21
1013.309
 31
0.0
  0
LINE
  5
10BB
330
11AE
100
AcDbEntity
  8
8
100
AcDbLine
 10
312.968
 20
1008.425
 30
0.0
 11
317.852
 21
1013.309
 31
0.0
  0
ENDBLK
  5
10BC
330
11AE
100
AcDbEntity
  8
0
100
AcDbBlockEnd
  0
BLOCK
  5
10FA
330
11AF
100
AcDbEntity
  8
0
100
AcDbBlockBegin
  2
*X1
 70
     1
 10
0.0
 20
0.0
 30
0.0
  3
*X1
  1

  0
LINE
  5
10FB
330
11AF
100
AcDbEntity
  8
8
100
AcDbLine
 10
576.8480000000001
 20
796.3519999999999
 30
0.0
 11
582.677
 21
802.1799999999998
 31
0.0
  0
LINE
  5
10FC
330
11AF
100
AcDbEntity
  8
8
100
AcDbLine
 10
576.975
 20
805.46
 30
0.0
 11
582.824
 21
811.3089999999999
 31
0.0
  0
LINE
  5
10FD
330
11AF
100
AcDbEntity
  8
8
100
AcDbLine
 10
577.103
 20
814.567
 30
0.0
 11
582.972
 21
820.437
 31
0.0
  0
LINE
  5
10FE
330
11AF
100
AcDbEntity
  8
8
100
AcDbLine
 10
577.988
 20
824.4329999999999
 30
0.0
 11
583.1199999999999
 21
829.565
 31
0.0
  0
LINE
  5
10FF
330
11AF
100
AcDbEntity
  8
8
100
AcDbLine
 10
578.148
 20
833.5729999999999
 30
0.0
 11
583.268
 21
838.6929999999999
 31
0.0
  0
LINE
  5
1100
330
11AF
100
AcDbEntity
  8
8
100
AcDbLine
 10
578.307
 20
842.712
 30
0.0
 11
583.4159999999999
 21
847.821
 31
0.0
  0
LINE
  5
1101
330
11AF
100
AcDbEntity
  8
8
100
AcDbLine
 10
621.634
 20
886.039
 30
0.0
 11
626.7959999999999
 21
891.202
 31
0.0
  0
LINE
  5
1102
330
11AF
100
AcDbEntity
  8
8
100
AcDbLine
 10
740.904
 20
1005.309
 30
0.0
 11
742.71
 21
1007.115
 31
0.0
  0
LINE
  5
1103
330
11AF
100
AcDbEntity
  8
8
100
AcDbLine
 10
578.467
 20
851.852
 30
0.0
 11
583.5639999999999
 21
856.949
 31
0.0
  0
LINE
  5
1104
330
11AF
100
AcDbEntity
  8
8
100
AcDbLine
 10
605.518
 20
878.903
 30
0.0
 11
612.9069999999999
 21
886.293
 31
0.0
  0
LINE
  5
1105
330
11AF
100
AcDbEntity
  8
8
100
AcDbLine
 10
626.6259999999999
 20
900.0110000000001
 30
0.0
 11
634.0819999999999
 21
907.4669999999999
 31
0.0
  0
LINE
  5
1106
330
11AF
100
AcDbEntity
  8
8
100
AcDbLine
 10
731.9239999999999
 20
1005.309
 30
0.0
 11
739.7419999999999
 21
1013.127
 31
0.0
  0
LINE
  5
1107
330
11AF
100
AcDbEntity
  8
8
100
AcDbLine
 10
578.6259999999999
 20
860.992
 30
0.0
 11
584.414
 21
866.7799999999999
 31
0.0
  0
LINE
  5
1108
330
11AF
100
AcDbEntity
  8
8
100
AcDbLine
 10
595.225
 20
877.59
 30
0.0
 11
601.075
 21
883.44
 31
0.0
  0
LINE
  5
1109
330
11AF
100
AcDbEntity
  8
8
100
AcDbLine
 10
629.739
 20
912.105
 30
0.0
 11
635.023
 21
917.388
 31
0.0
  0
LINE
  5
110A
330
11AF
100
AcDbEntity
  8
8
100
AcDbLine
 10
722.9439999999999
 20
1005.309
 30
0.0
 11
730.9429999999999
 21
1013.309
 31
0.0
  0
LINE
  5
110B
330
11AF
100
AcDbEntity
  8
8
100
AcDbLine
 10
578.7859999999999
 20
870.1319999999999
 30
0.0
 11
586.963
 21
878.3089999999999
 31
0.0
  0
LINE
  5
110C
330
11AF
100
AcDbEntity
  8
8
100
AcDbLine
 10
589.699
 20
881.0439999999999
 30
0.0
 11
591.963
 21
883.309
 31
0.0
  0
LINE
  5
110D
330
11AF
100
AcDbEntity
  8
8
100
AcDbLine
 10
630.236
 20
921.5810000000001
 30
0.0
 11
635.519
 21
926.865
 31
0.0
  0
LINE
  5
110E
330
11AF
100
AcDbEntity
  8
8
100
AcDbLine
 10
713.9630000000001
 20
1005.309
 30
0.0
 11
721.9630000000001
 21
1013.309
 31
0.0
  0
LINE
  5
110F
330
11AF
100
AcDbEntity
  8
8
100
AcDbLine
 10
630.7319999999999
 20
931.0579999999999
 30
0.0
 11
636.0159999999999
 21
936.3419999999999
 31
0.0
  0
LINE
  5
1110
330
11AF
100
AcDbEntity
  8
8
100
AcDbLine
 10
706.212
 20
1006.538
 30
0.0
 11
712.9830000000001
 21
1013.309
 31
0.0
  0
LINE
  5
1111
330
11AF
100
AcDbEntity
  8
8
100
AcDbLine
 10
631.229
 20
940.535
 30
0.0
 11
636.513
 21
945.819
 31
0.0
  0
LINE
  5
1112
330
11AF
100
AcDbEntity
  8
8
100
AcDbLine
 10
676.1
 20
985.406
 30
0.0
 11
685.1539999999999
 21
994.461
 31
0.0
  0
LINE
  5
1113
330
11AF
100
AcDbEntity
  8
8
100
AcDbLine
 10
697.6989999999999
 20
1007.005
 30
0.0
 11
704.003
 21
1013.309
 31
0.0
  0
LINE
  5
1114
330
11AF
100
AcDbEntity
  8
8
100
AcDbLine
 10
631.726
 20
950.0119999999999
 30
0.0
 11
637.009
 21
955.296
 31
0.0
  0
LINE
  5
1115
330
11AF
100
AcDbEntity
  8
8
100
AcDbLine
 10
669.1039999999999
 20
987.39
 30
0.0
 11
695.0219999999999
 21
1013.309
 31
0.0
  0
LINE
  5
1116
330
11AF
100
AcDbEntity
  8
8
100
AcDbLine
 10
632.2219999999999
 20
959.4889999999999
 30
0.0
 11
637.5059999999999
 21
964.7730000000001
 31
0.0
  0
LINE
  5
1117
330
11AF
100
AcDbEntity
  8
8
100
AcDbLine
 10
665.715
 20
992.9819999999999
 30
0.0
 11
686.0419999999999
 21
1013.309
 31
0.0
  0
LINE
  5
1118
330
11AF
100
AcDbEntity
  8
8
100
AcDbLine
 10
632.719
 20
968.9659999999999
 30
0.0
 11
638.003
 21
974.2499999999999
 31
0.0
  0
LINE
  5
1119
330
11AF
100
AcDbEntity
  8
8
100
AcDbLine
 10
664.3689999999999
 20
1000.616
 30
0.0
 11
677.062
 21
1013.309
 31
0.0
  0
LINE
  5
111A
330
11AF
100
AcDbEntity
  8
8
100
AcDbLine
 10
633.216
 20
978.443
 30
0.0
 11
638.499
 21
983.727
 31
0.0
  0
LINE
  5
111B
330
11AF
100
AcDbEntity
  8
8
100
AcDbLine
 10
660.4169999999998
 20
1005.644
 30
0.0
 11
668.0819999999999
 21
1013.309
 31
0.0
  0
LINE
  5
111C
330
11AF
100
AcDbEntity
  8
8
100
AcDbLine
 10
633.7119999999999
 20
987.9199999999999
 30
0.0
 11
638.996
 21
993.2039999999998
 31
0.0
  0
LINE
  5
111D
330
11AF
100
AcDbEntity
  8
8
100
AcDbLine
 10
651.173
 20
1005.381
 30
0.0
 11
659.1010000000001
 21
1013.309
 31
0.0
  0
LINE
  5
111E
330
11AF
100
AcDbEntity
  8
8
100
AcDbLine
 10
634.209
 20
997.3969999999999
 30
0.0
 11
650.121
 21
1013.309
 31
0.0
  0
LINE
  5
111F
330
11AF
100
AcDbEntity
  8
8
100
AcDbLine
 10
634.7059999999999
 20
1006.874
 30
0.0
 11
641.141
 21
1013.309
 31
0.0
  0
ENDBLK
  5
1120
330
11AF
100
AcDbEntity
  8
0
100
AcDbBlockEnd
  0
BLOCK
  5
1B16
330
11C4
100
AcDbEntity
  8
0
100
AcDbBlockBegin
  2
*D2
 70
     1
 10
0.0
 20
0.0
 30
0.0
  3
*D2
  1

  0
LINE
  5
1B17
330
11C4
100
AcDbEntity
  8
0
  6
ByBlock
100
AcDbLine
 10
270.25185
 20
438.1142419999999
 30
0.0
 11
270.25185
 21
548.114242
 31
0.0
  0
LINE
  5
1B18
330
11C4
100
AcDbEntity
  8
0
  6
ByBlock
100
AcDbLine
 10
700.24985
 20
438.1142419999999
 30
0.0
 11
700.24985
 21
548.114242
 31
0.0
  0
LINE
  5
1B19
330
11C4
100
AcDbEntity
  8
0
  6
ByBlock
100
AcDbLine
 10
282.75185
 20
543.1142419999999
 30
0.0
 11
687.74985
 21
543.1142419999999
 31
0.0
  0
SOLID
  5
1B1A
330
11C4
100
AcDbEntity
  8
0
  6
ByBlock
100
AcDbTrace
 10
282.75185
 20
545.197575
 30
0.0
 11
282.75185
 21
541.0309089999999
 31
0.0
 12
270.25185
 22
543.1142419999999
 32
0.0
 13
270.25185
 23
543.1142419999999
 33
0.0
  0
SOLID
  5
1B1B
330
11C4
100
AcDbEntity
  8
0
  6
ByBlock
100
AcDbTrace
 10
687.74985
 20
545.197575
 30
0.0
 11
687.74985
 21
541.0309089999999
 31
0.0
 12
700.24985
 22
543.1142419999999
 32
0.0
 13
700.24985
 23
543.1142419999999
 33
0.0
  0
MTEXT
  5
1B1C
330
11C4
100
AcDbEntity
  8
0
  6
ByBlock
 62
     2
100
AcDbMText
 10
485.2508499999999
 20
554.864242
 30
0.0
 40
17.5
 41
0.0
 71
     5
 72
     1
  1
\U+2205430
 73
     1
 44
1.0
1001
ACAD
1000
MTEXTBEGIN
1070
    73
1070
     1
1070
    44
1040
1.0
1070
    74
1070
     0
1000
MTEXTEND
  0
POINT
  5
1B1D
330
11C4
100
AcDbEntity
  8
DEFPOINTS
  6
ByBlock
 62
     0
100
AcDbPoint
 10
270.25185
 20
433.1142419999999
 30
0.0
  0
POINT
  5
1B1E
330
11C4
100
AcDbEntity
  8
DEFPOINTS
  6
ByBlock
 62
     0
100
AcDbPoint
 10
700.24985
 20
433.1142419999999
 30
0.0
  0
POINT
  5
1B1F
330
11C4
100
AcDbEntity
  8
DEFPOINTS
  6
ByBlock
 62
     0
100
AcDbPoint
 10
700.24985
 20
543.1142419999999
 30
0.0
  0
ENDBLK
  5
1B20
330
11C4
100
AcDbEntity
  8
0
100
AcDbBlockEnd
  0
BLOCK
  5
11D5
330
11D4
100
AcDbEntity
  8
0
100
AcDbBlockBegin
  2
KATALOG_LEER
 70
     0
 10
0.0
 20
0.0
 30
0.0
  3
KATALOG_LEER
  1

  0
ENDBLK
  5
11D6
330
11D4
100
AcDbEntity
  8
0
100
AcDbBlockEnd
  0
BLOCK
  5
1801
330
1244
100
AcDbEntity
  8
0
100
AcDbBlockBegin
  2
*D5
 70
     1
 10
0.0
 20
0.0
 30
0.0
  3
*D5
  1

  0
LINE
  5
1802
330
1244
100
AcDbEntity
  8
0
  6
ByBlock
100
AcDbLine
 10
371.24985
 20
451.1142419999999
 30
0.0
 11
371.24985
 21
513.1142419999999
 31
0.0
  0
LINE
  5
1803
330
1244
100
AcDbEntity
  8
0
  6
ByBlock
100
AcDbLine
 10
599.25085
 20
451.1142419999999
 30
0.0
 11
599.25085
 21
513.1142419999999
 31
0.0
  0
LINE
  5
1804
330
1244
100
AcDbEntity
  8
0
  6
ByBlock
100
AcDbLine
 10
383.74985
 20
508.1142419999999
 30
0.0
 11
586.75085
 21
508.1142419999999
 31
0.0
  0
SOLID
  5
1805
330
1244
100
AcDbEntity
  8
0
  6
ByBlock
100
AcDbTrace
 10
383.74985
 20
510.197575
 30
0.0
 11
383.74985
 21
506.030909
 31
0.0
 12
371.24985
 22
508.1142419999999
 32
0.0
 13
371.24985
 23
508.1142419999999
 33
0.0
  0
SOLID
  5
1806
330
1244
100
AcDbEntity
  8
0
  6
ByBlock
100
AcDbTrace
 10
586.75085
 20
510.197575
 30
0.0
 11
586.75085
 21
506.030909
 31
0.0
 12
599.25085
 22
508.1142419999999
 32
0.0
 13
599.25085
 23
508.1142419999999
 33
0.0
  0
MTEXT
  5
1807
330
1244
100
AcDbEntity
  8
0
  6
ByBlock
 62
     2
100
AcDbMText
 10
485.25035
 20
519.8659639999999
 30
0.0
 40
17.5
 41
0.0
 71
     5
 72
     1
  1
\U+2205228
 73
     1
 44
1.0
1001
ACAD
1000
MTEXTBEGIN
1070
    73
1070
     1
1070
    44
1040
1.0
1070
    74
1070
     0
1000
MTEXTEND
  0
POINT
  5
1808
330
1244
100
AcDbEntity
  8
DEFPOINTS
  6
ByBlock
 62
     0
100
AcDbPoint
 10
371.24985
 20
446.1142419999999
 30
0.0
  0
POINT
  5
1809
330
1244
100
AcDbEntity
  8
DEFPOINTS
  6
ByBlock
 62
     0
100
AcDbPoint
 10
599.25085
 20
446.1142419999999
 30
0.0
  0
POINT
  5
180A
330
1244
100
AcDbEntity
  8
DEFPOINTS
  6
ByBlock
 62
     0
100
AcDbPoint
 10
599.25085
 20
508.1142419999999
 30
0.0
  0
ENDBLK
  5
180B
330
1244
100
AcDbEntity
  8
0
100
AcDbBlockEnd
  0
BLOCK
  5
1329
330
12AD
100
AcDbEntity
  8
0
100
AcDbBlockBegin
  2
*D7
 70
     1
 10
0.0
 20
0.0
 30
0.0
  3
*D7
  1

  0
LINE
  5
132A
330
12AD
100
AcDbEntity
  8
0
  6
ByBlock
100
AcDbLine
 10
425.52285
 20
221.114242
 30
0.0
 11
202.444387
 21
221.114242
 31
0.0
  0
LINE
  5
132B
330
12AD
100
AcDbEntity
  8
0
  6
ByBlock
100
AcDbLine
 10
269.46785
 20
441.114242
 30
0.0
 11
202.444387
 21
441.114242
 31
0.0
  0
LINE
  5
132C
330
12AD
100
AcDbEntity
  8
0
  6
ByBlock
100
AcDbLine
 10
207.444387
 20
233.614242
 30
0.0
 11
207.444387
 21
428.614242
 31
0.0
  0
SOLID
  5
132D
330
12AD
100
AcDbEntity
  8
0
  6
ByBlock
100
AcDbTrace
 10
205.361054
 20
233.614242
 30
0.0
 11
209.52772
 21
233.614242
 31
0.0
 12
207.444387
 22
221.114242
 32
0.0
 13
207.444387
 23
221.114242
 33
0.0
  0
SOLID
  5
132E
330
12AD
100
AcDbEntity
  8
0
  6
ByBlock
100
AcDbTrace
 10
205.361054
 20
428.614242
 30
0.0
 11
209.52772
 21
428.614242
 31
0.0
 12
207.444387
 22
441.114242
 32
0.0
 13
207.444387
 23
441.114242
 33
0.0
  0
MTEXT
  5
132F
330
12AD
100
AcDbEntity
  8
0
  6
ByBlock
 62
     2
100
AcDbMText
 10
195.692664
 20
331.114242
 30
0.0
 40
17.5
 41
0.0
 71
     5
 72
     1
  1
220
 11
0.0
 21
1.0
 31
0.0
 73
     1
 44
1.0
1001
ACAD
1000
MTEXTBEGIN
1070
    73
1070
     1
1070
    44
1040
1.0
1070
    74
1070
     0
1000
MTEXTEND
  0
POINT
  5
1330
330
12AD
100
AcDbEntity
  8
DEFPOINTS
  6
ByBlock
 62
     0
100
AcDbPoint
 10
430.52285
 20
221.114242
 30
0.0
  0
POINT
  5
1331
330
12AD
100
AcDbEntity
  8
DEFPOINTS
  6
ByBlock
 62
     0
100
AcDbPoint
 10
274.46785
 20
441.114242
 30
0.0
  0
POINT
  5
1332
330
12AD
100
AcDbEntity
  8
DEFPOINTS
  6
ByBlock
 62
     0
100
AcDbPoint
 10
207.444387
 20
441.114242
 30
0.0
  0
ENDBLK
  5
1333
330
12AD
100
AcDbEntity
  8
0
100
AcDbBlockEnd
  0
BLOCK
  5
12D2
330
12C6
100
AcDbEntity
  8
0
100
AcDbBlockBegin
  2
*D8
 70
     1
 10
0.0
 20
0.0
 30
0.0
  3
*D8
  1

  0
LINE
  5
12D3
330
12C6
100
AcDbEntity
  8
0
  6
ByBlock
100
AcDbLine
 10
366.12785
 20
221.114242
 30
0.0
 11
384.892873
 21
221.114242
 31
0.0
  0
LINE
  5
12D4
330
12C6
100
AcDbEntity
  8
0
  6
ByBlock
100
AcDbLine
 10
408.31785
 20
306.114242
 30
0.0
 11
374.892873
 21
306.114242
 31
0.0
  0
LINE
  5
12D5
330
12C6
100
AcDbEntity
  8
0
  6
ByBlock
100
AcDbLine
 10
379.892873
 20
233.614242
 30
0.0
 11
379.892873
 21
293.614242
 31
0.0
  0
SOLID
  5
12D6
330
12C6
100
AcDbEntity
  8
0
  6
ByBlock
100
AcDbTrace
 10
377.809539
 20
233.614242
 30
0.0
 11
381.976206
 21
233.614242
 31
0.0
 12
379.892873
 22
221.114242
 32
0.0
 13
379.892873
 23
221.114242
 33
0.0
  0
SOLID
  5
12D7
330
12C6
100
AcDbEntity
  8
0
  6
ByBlock
100
AcDbTrace
 10
377.809539
 20
293.614242
 30
0.0
 11
381.976206
 21
293.614242
 31
0.0
 12
379.892873
 22
306.114242
 32
0.0
 13
379.892873
 23
306.114242
 33
0.0
  0
MTEXT
  5
12D8
330
12C6
100
AcDbEntity
  8
0
  6
ByBlock
 62
     2
100
AcDbMText
 10
368.142873
 20
263.614242
 30
0.0
 40
17.5
 41
0.0
 71
     5
 72
     1
  1
85
 11
0.0
 21
1.0
 31
0.0
 73
     1
 44
1.0
1001
ACAD
1000
MTEXTBEGIN
1070
    73
1070
     1
1070
    44
1040
1.0
1070
    74
1070
     0
1000
MTEXTEND
  0
POINT
  5
12D9
330
12C6
100
AcDbEntity
  8
DEFPOINTS
  6
ByBlock
 62
     0
100
AcDbPoint
 10
361.12785
 20
221.114242
 30
0.0
  0
POINT
  5
12DA
330
12C6
100
AcDbEntity
  8
DEFPOINTS
  6
ByBlock
 62
     0
100
AcDbPoint
 10
413.31785
 20
306.114242
 30
0.0
  0
POINT
  5
12DB
330
12C6
100
AcDbEntity
  8
DEFPOINTS
  6
ByBlock
 62
     0
100
AcDbPoint
 10
379.892873
 20
306.114242
 30
0.0
  0
ENDBLK
  5
12DC
330
12C6
100
AcDbEntity
  8
0
100
AcDbBlockEnd
  0
BLOCK
  5
13D1
330
13C2
100
AcDbEntity
  8
0
100
AcDbBlockBegin
  2
*X9
 70
     1
 10
0.0
 20
0.0
 30
0.0
  3
*X9
  1

  0
LINE
  5
13C3
330
13C2
100
AcDbEntity
  8
8
100
AcDbLine
 10
602.243
 20
1059.665
 30
0.0
 11
608.76
 21
1066.181
 31
0.0
  0
LINE
  5
13C4
330
13C2
100
AcDbEntity
  8
8
100
AcDbLine
 10
597.753
 20
1059.665
 30
0.0
 11
605.753
 21
1067.665
 31
0.0
  0
LINE
  5
13C5
330
13C2
100
AcDbEntity
  8
8
100
AcDbLine
 10
593.263
 20
1059.665
 30
0.0
 11
601.263
 21
1067.665
 31
0.0
  0
LINE
  5
13C6
330
13C2
100
AcDbEntity
  8
8
100
AcDbLine
 10
588.773
 20
1059.665
 30
0.0
 11
596.773
 21
1067.665
 31
0.0
  0
LINE
  5
13C7
330
13C2
100
AcDbEntity
  8
8
100
AcDbLine
 10
584.283
 20
1059.665
 30
0.0
 11
592.283
 21
1067.665
 31
0.0
  0
LINE
  5
13C8
330
13C2
100
AcDbEntity
  8
8
100
AcDbLine
 10
579.793
 20
1059.665
 30
0.0
 11
587.793
 21
1067.665
 31
0.0
  0
LINE
  5
13C9
330
13C2
100
AcDbEntity
  8
8
100
AcDbLine
 10
575.302
 20
1059.665
 30
0.0
 11
583.3029999999999
 21
1067.665
 31
0.0
  0
LINE
  5
13CA
330
13C2
100
AcDbEntity
  8
8
100
AcDbLine
 10
570.812
 20
1059.665
 30
0.0
 11
578.812
 21
1067.665
 31
0.0
  0
LINE
  5
13CB
330
13C2
100
AcDbEntity
  8
8
100
AcDbLine
 10
566.3219999999999
 20
1059.665
 30
0.0
 11
574.3219999999999
 21
1067.665
 31
0.0
  0
LINE
  5
13CC
330
13C2
100
AcDbEntity
  8
8
100
AcDbLine
 10
561.8319999999999
 20
1059.665
 30
0.0
 11
569.8319999999999
 21
1067.665
 31
0.0
  0
LINE
  5
13CD
330
13C2
100
AcDbEntity
  8
8
100
AcDbLine
 10
557.3419999999999
 20
1059.665
 30
0.0
 11
565.3419999999999
 21
1067.665
 31
0.0
  0
LINE
  5
13CE
330
13C2
100
AcDbEntity
  8
8
100
AcDbLine
 10
552.98
 20
1059.793
 30
0.0
 11
560.8519999999999
 21
1067.665
 31
0.0
  0
LINE
  5
13CF
330
13C2
100
AcDbEntity
  8
8
100
AcDbLine
 10
551.2599999999999
 20
1062.563
 30
0.0
 11
556.3619999999999
 21
1067.665
 31
0.0
  0
LINE
  5
13D0
330
13C2
100
AcDbEntity
  8
8
100
AcDbLine
 10
551.2599999999999
 20
1067.053
 30
0.0
 11
551.872
 21
1067.665
 31
0.0
  0
ENDBLK
  5
13D2
330
13C2
100
AcDbEntity
  8
0
100
AcDbBlockEnd
  0
BLOCK
  5
13E2
330
13D3
100
AcDbEntity
  8
0
100
AcDbBlockBegin
  2
*X10
 70
     1
 10
0.0
 20
0.0
 30
0.0
  3
*X10
  1

  0
LINE
  5
13D4
330
13D3
100
AcDbEntity
  8
8
100
AcDbLine
 10
310.385
 20
1059.665
 30
0.0
 11
316.26
 21
1065.539
 31
0.0
  0
LINE
  5
13D5
330
13D3
100
AcDbEntity
  8
8
100
AcDbLine
 10
305.895
 20
1059.665
 30
0.0
 11
313.895
 21
1067.665
 31
0.0
  0
LINE
  5
13D6
330
13D3
100
AcDbEntity
  8
8
100
AcDbLine
 10
301.405
 20
1059.665
 30
0.0
 11
309.405
 21
1067.665
 31
0.0
  0
LINE
  5
13D7
330
13D3
100
AcDbEntity
  8
8
100
AcDbLine
 10
296.915
 20
1059.665
 30
0.0
 11
304.915
 21
1067.665
 31
0.0
  0
LINE
  5
13D8
330
13D3
100
AcDbEntity
  8
8
100
AcDbLine
 10
292.4240000000001
 20
1059.665
 30
0.0
 11
300.424
 21
1067.665
 31
0.0
  0
LINE
  5
13D9
330
13D3
100
AcDbEntity
  8
8
100
AcDbLine
 10
287.934
 20
1059.665
 30
0.0
 11
295.934
 21
1067.665
 31
0.0
  0
LINE
  5
13DA
330
13D3
100
AcDbEntity
  8
8
100
AcDbLine
 10
283.444
 20
1059.665
 30
0.0
 11
291.444
 21
1067.665
 31
0.0
  0
LINE
  5
13DB
330
13D3
100
AcDbEntity
  8
8
100
AcDbLine
 10
278.954
 20
1059.665
 30
0.0
 11
286.954
 21
1067.665
 31
0.0
  0
LINE
  5
13DC
330
13D3
100
AcDbEntity
  8
8
100
AcDbLine
 10
274.464
 20
1059.665
 30
0.0
 11
282.464
 21
1067.665
 31
0.0
  0
LINE
  5
13DD
330
13D3
100
AcDbEntity
  8
8
100
AcDbLine
 10
269.974
 20
1059.665
 30
0.0
 11
277.974
 21
1067.665
 31
0.0
  0
LINE
  5
13DE
330
13D3
100
AcDbEntity
  8
8
100
AcDbLine
 10
265.484
 20
1059.665
 30
0.0
 11
273.4840000000001
 21
1067.665
 31
0.0
  0
LINE
  5
13DF
330
13D3
100
AcDbEntity
  8
8
100
AcDbLine
 10
261.03
 20
1059.702
 30
0.0
 11
268.994
 21
1067.665
 31
0.0
  0
LINE
  5
13E0
330
13D3
100
AcDbEntity
  8
8
100
AcDbLine
 10
258.793
 20
1061.955
 30
0.0
 11
264.503
 21
1067.665
 31
0.0
  0
LINE
  5
13E1
330
13D3
100
AcDbEntity
  8
8
100
AcDbLine
 10
258.759
 20
1066.411
 30
0.0
 11
260.013
 21
1067.665
 31
0.0
  0
ENDBLK
  5
13E3
330
13D3
100
AcDbEntity
  8
0
100
AcDbBlockEnd
  0
BLOCK
  5
1CD4
330
1CD2
100
AcDbEntity
  8
0
100
AcDbBlockBegin
  2
GENAXEH
 70
     0
 10
0.0
 20
0.0
 30
0.0
  3
GENAXEH
  1

  0
LINE
  5
1CD3
330
1CD2
100
AcDbEntity
  8
0
100
AcDbLine
 10
-1.0
 20
0.0
 30
0.0
 11
1.0
 21
0.0
 31
0.0
  0
ENDBLK
  5
1CD5
330
1CD2
100
AcDbEntity
  8
0
100
AcDbBlockEnd
  0
ENDSEC
  0
SECTION
  2
ENTITIES
  0
POINT
  5
1001
330
1191
100
AcDbEntity
  8
PUNKTE
100
AcDbPoint
 10
413.31785
 20
306.114242
 30
0.0
  0
POINT
  5
1002
330
1191
100
AcDbEntity
  8
PUNKTE
100
AcDbPoint
 10
485.2508499999999
 20
441.114242
 30
0.0
  0
LINE
  5
1003
330
1191
100
AcDbEntity
  8
0
100
AcDbLine
 10
592.75085
 20
446.1142419999999
 30
0.0
 11
587.1658499999999
 21
339.544242
 31
0.0
  0
LINE
  5
1004
330
1191
100
AcDbEntity
  8
0
100
AcDbLine
 10
596.57985
 20
423.6382419999999
 30
0.0
 11
592.15885
 21
339.282242
 31
0.0
  0
LINE
  5
1005
330
1191
100
AcDbEntity
  8
0
100
AcDbLine
 10
592.4888499999999
 20
441.114242
 30
0.0
 11
696.03485
 21
441.114242
 31
0.0
  0
ARC
  5
1006
330
1191
100
AcDbEntity
  8
0
100
AcDbCircle
 10
606.5658499999999
 20
423.114242
 30
0.0
 40
10.0
100
AcDbArc
 50
90.0
 51
177.0
  0
LINE
  5
1007
330
1191
100
AcDbEntity
  8
0
100
AcDbLine
 10
700.25085
 20
433.1142419999999
 30
0.0
 11
700.02985
 21
437.3232419999999
 31
0.0
  0
ARC
  5
1008
330
1191
100
AcDbEntity
  8
0
100
AcDbCircle
 10
696.03485
 20
437.1142419999999
 30
0.0
 40
4.0
100
AcDbArc
 50
3.0
 51
90.0
  0
LINE
  5
1009
330
1191
100
AcDbEntity
  8
0
100
AcDbLine
 10
606.5668500000001
 20
433.1142419999999
 30
0.0
 11
617.42485
 21
433.493242
 31
0.0
  0
LINE
  5
100A
330
1191
100
AcDbEntity
  8
0
100
AcDbLine
 10
645.04485
 20
433.1142419999999
 30
0.0
 11
700.24985
 21
433.1142419999999
 31
0.0
  0
ARC
  5
100B
330
1191
100
AcDbEntity
  8
0
100
AcDbCircle
 10
661.79385
 20
432.703242
 30
0.0
 40
2.5
100
AcDbArc
 50
9.463
 51
44.567
  0
ARC
  5
100C
330
1191
100
AcDbEntity
  8
0
100
AcDbCircle
 10
662.15085
 20
433.0542419999999
 30
0.0
 40
2.0
100
AcDbArc
 50
44.567
 51
92.0
  0
ARC
  5
100D
330
1191
100
AcDbEntity
  8
0
100
AcDbCircle
 10
557.20685
 20
341.114242
 30
0.0
 40
30.0
100
AcDbArc
 50
270.0
 51
357.0
  0
ARC
  5
100E
330
1191
100
AcDbEntity
  8
0
100
AcDbCircle
 10
557.20685
 20
341.114242
 30
0.0
 40
35.0
100
AcDbArc
 50
269.877
 51
357.0
  0
LINE
  5
100F
330
1191
100
AcDbEntity
  8
0
100
AcDbLine
 10
546.4118499999999
 20
306.114242
 30
0.0
 11
547.7508499999999
 21
311.114242
 31
0.0
  0
LINE
  5
1010
330
1191
100
AcDbEntity
  8
0
100
AcDbLine
 10
535.4148499999999
 20
251.114242
 30
0.0
 11
536.32185
 21
303.114242
 31
0.0
  0
LINE
  5
1011
330
1191
100
AcDbEntity
  8
0
100
AcDbLine
 10
539.9788499999999
 20
221.114242
 30
0.0
 11
541.10085
 21
290.393242
 31
0.0
  0
ARC
  5
1012
330
1191
100
AcDbEntity
  8
0
100
AcDbCircle
 10
557.09685
 20
290.114242
 30
0.0
 40
16.0
100
AcDbArc
 50
89.87700000000002
 51
179.0
  0
LINE
  5
1013
330
1191
100
AcDbEntity
  8
0
100
AcDbLine
 10
536.3208499999999
 20
303.115242
 30
0.0
 11
537.41285
 21
306.114242
 31
0.0
  0
LINE
  5
1014
330
1191
100
AcDbEntity
  8
0
100
AcDbLine
 10
534.2518499999999
 20
221.127242
 30
0.0
 11
534.60085
 21
246.114242
 31
0.0
  0
LINE
  5
1015
330
1191
100
AcDbEntity
  8
0
100
AcDbLine
 10
534.60085
 20
246.114242
 30
0.0
 11
535.41385
 21
251.114242
 31
0.0
  0
LINE
  5
1016
330
1191
100
AcDbEntity
  8
0
100
AcDbLine
 10
370.98785
 20
441.114242
 30
0.0
 11
371.24985
 21
446.1142419999999
 31
0.0
  0
LINE
  5
1017
330
1191
100
AcDbEntity
  8
0
100
AcDbLine
 10
377.75185
 20
446.1142419999999
 30
0.0
 11
383.33685
 21
339.544242
 31
0.0
  0
LINE
  5
1018
330
1191
100
AcDbEntity
  8
0
100
AcDbLine
 10
536.32185
 20
303.114242
 30
0.0
 11
434.18185
 21
303.114242
 31
0.0
  0
LINE
  5
1019
330
1191
100
AcDbEntity
  8
0
100
AcDbLine
 10
373.92285
 20
423.637242
 30
0.0
 11
378.34385
 21
339.282242
 31
0.0
  0
LINE
  5
101A
330
1191
100
AcDbEntity
  8
0
100
AcDbLine
 10
378.01385
 20
441.114242
 30
0.0
 11
274.46785
 21
441.114242
 31
0.0
  0
LINE
  5
101B
330
1191
100
AcDbEntity
  8
0
100
AcDbLine
 10
270.24985
 20
433.1142419999999
 30
0.0
 11
270.47085
 21
437.3232419999999
 31
0.0
  0
ARC
  5
101C
330
1191
100
AcDbEntity
  8
0
100
AcDbCircle
 10
274.46785
 20
437.1142419999999
 30
0.0
 40
4.0
100
AcDbArc
 50
90.0
 51
177.0
  0
ARC
  5
101D
330
1191
100
AcDbEntity
  8
0
100
AcDbCircle
 10
413.29685
 20
341.114242
 30
0.0
 40
30.0
100
AcDbArc
 50
183.0
 51
270.0
  0
ARC
  5
101E
330
1191
100
AcDbEntity
  8
0
100
AcDbCircle
 10
413.29685
 20
341.114242
 30
0.0
 40
35.0
100
AcDbArc
 50
183.0
 51
270.123
  0
LINE
  5
101F
330
1191
100
AcDbEntity
  8
0
100
AcDbLine
 10
424.0908499999999
 20
306.114242
 30
0.0
 11
422.7508499999999
 21
311.114242
 31
0.0
  0
LINE
  5
1020
330
1191
100
AcDbEntity
  8
0
100
AcDbLine
 10
539.9788499999999
 20
221.114242
 30
0.0
 11
430.52485
 21
221.114242
 31
0.0
  0
LINE
  5
1021
330
1191
100
AcDbEntity
  8
0
100
AcDbLine
 10
435.08685
 20
251.114242
 30
0.0
 11
434.17985
 21
303.114242
 31
0.0
  0
LINE
  5
1022
330
1191
100
AcDbEntity
  8
0
100
AcDbLine
 10
430.52285
 20
221.114242
 30
0.0
 11
429.40085
 21
290.393242
 31
0.0
  0
ARC
  5
1023
330
1191
100
AcDbEntity
  8
0
100
AcDbCircle
 10
413.40585
 20
290.114242
 30
0.0
 40
16.0
100
AcDbArc
 50
1.0
 51
90.12299999999999
  0
LINE
  5
1024
330
1191
100
AcDbEntity
  8
0
100
AcDbLine
 10
434.1808499999999
 20
303.114242
 30
0.0
 11
433.0888499999999
 21
306.114242
 31
0.0
  0
LINE
  5
1025
330
1191
100
AcDbEntity
  8
0
100
AcDbLine
 10
436.24985
 20
221.127242
 30
0.0
 11
435.9008499999999
 21
246.114242
 31
0.0
  0
LINE
  5
1026
330
1191
100
AcDbEntity
  8
0
100
AcDbLine
 10
435.90185
 20
246.114242
 30
0.0
 11
435.08785
 21
251.114242
 31
0.0
  0
ARC
  5
1027
330
1191
100
AcDbEntity
  8
0
100
AcDbCircle
 10
632.74985
 20
423.114242
 30
0.0
 40
10.0
100
AcDbArc
 50
200.0
 51
339.994
  0
LINE
  5
1028
330
1191
100
AcDbEntity
  8
0
100
AcDbLine
 10
623.3538499999999
 20
419.694242
 30
0.0
 11
621.5028499999999
 21
430.190242
 31
0.0
  0
LINE
  5
1029
330
1191
100
AcDbEntity
  8
0
100
AcDbLine
 10
642.1468499999999
 20
419.693242
 30
0.0
 11
644.1858499999999
 21
431.258242
 31
0.0
  0
ARC
  5
102A
330
1191
100
AcDbEntity
  8
0
100
AcDbCircle
 10
648.12585
 20
430.563242
 30
0.0
 40
4.0
100
AcDbArc
 50
92.0
 51
170.0
  0
LINE
  5
102B
330
1191
100
AcDbEntity
  8
0
100
AcDbLine
 10
647.98685
 20
434.560242
 30
0.0
 11
662.08085
 21
435.053242
 31
0.0
  0
ARC
  5
102C
330
1191
100
AcDbEntity
  8
0
100
AcDbCircle
 10
617.56285
 20
429.496242
 30
0.0
 40
4.0
100
AcDbArc
 50
10.0
 51
92.0
  0
LINE
  5
102D
330
1191
100
AcDbEntity
  8
0
100
AcDbLine
 10
546.9118499999999
 20
441.114242
 30
0.0
 11
529.59085
 21
441.114242
 31
0.0
  0
LINE
  5
102E
330
1191
100
AcDbEntity
  8
0
100
AcDbLine
 10
424.0908499999999
 20
306.114242
 30
0.0
 11
546.4118499999999
 21
306.114242
 31
0.0
  0
LINE
  5
102F
330
1191
100
AcDbEntity
  8
0
100
AcDbLine
 10
557.20685
 20
311.114242
 30
0.0
 11
413.29685
 21
311.114242
 31
0.0
  0
LINE
  5
1030
330
1191
100
AcDbEntity
  8
0
100
AcDbLine
 10
599.5128499999999
 20
441.114242
 30
0.0
 11
599.25085
 21
446.1142419999999
 31
0.0
  0
LINE
  5
1031
330
1191
100
AcDbEntity
  8
0
100
AcDbLine
 10
599.25085
 20
446.1142419999999
 30
0.0
 11
548.25085
 21
446.1142419999999
 31
0.0
  0
LINE
  5
1032
330
1191
100
AcDbEntity
  8
0
100
AcDbLine
 10
440.9118499999999
 20
441.114242
 30
0.0
 11
442.25085
 21
446.1142419999999
 31
0.0
  0
LINE
  5
1033
330
1191
100
AcDbEntity
  8
0
100
AcDbLine
 10
546.9118499999999
 20
441.114242
 30
0.0
 11
548.25085
 21
446.1142419999999
 31
0.0
  0
LINE
  5
1034
330
1191
100
AcDbEntity
  8
0
100
AcDbLine
 10
423.5908499999999
 20
441.114242
 30
0.0
 11
422.2508499999999
 21
446.1142419999999
 31
0.0
  0
LINE
  5
1035
330
1191
100
AcDbEntity
  8
0
100
AcDbLine
 10
529.59085
 20
441.114242
 30
0.0
 11
528.25085
 21
446.1142419999999
 31
0.0
  0
LINE
  5
1036
330
1191
100
AcDbEntity
  8
0
100
AcDbLine
 10
437.80585
 20
441.114242
 30
0.0
 11
439.14485
 21
446.1142419999999
 31
0.0
  0
LINE
  5
1037
330
1191
100
AcDbEntity
  8
0
100
AcDbLine
 10
422.2508499999999
 20
446.1142419999999
 30
0.0
 11
371.24985
 21
446.1142419999999
 31
0.0
  0
LINE
  5
1038
330
1191
100
AcDbEntity
  8
0
100
AcDbLine
 10
532.69685
 20
441.114242
 30
0.0
 11
531.35685
 21
446.1142419999999
 31
0.0
  0
LINE
  5
1039
330
1191
100
AcDbEntity
  8
0
100
AcDbLine
 10
531.35685
 20
446.1142419999999
 30
0.0
 11
439.14485
 21
446.1142419999999
 31
0.0
  0
LINE
  5
103A
330
1191
100
AcDbEntity
  8
0
100
AcDbLine
 10
440.91085
 20
441.114242
 30
0.0
 11
423.5908499999999
 21
441.114242
 31
0.0
  0
ARC
  5
103B
330
1191
100
AcDbEntity
  8
0
100
AcDbCircle
 10
363.93685
 20
423.114242
 30
0.0
 40
10.0
100
AcDbArc
 50
3.0
 51
90.0
  0
LINE
  5
103C
330
1191
100
AcDbEntity
  8
0
100
AcDbLine
 10
363.93585
 20
433.1142419999999
 30
0.0
 11
353.07785
 21
433.493242
 31
0.0
  0
LINE
  5
103D
330
1191
100
AcDbEntity
  8
0
100
AcDbLine
 10
325.45785
 20
433.1142419999999
 30
0.0
 11
270.25185
 21
433.1142419999999
 31
0.0
  0
ARC
  5
103E
330
1191
100
AcDbEntity
  8
0
100
AcDbCircle
 10
308.70785
 20
432.703242
 30
0.0
 40
2.5
100
AcDbArc
 50
135.433
 51
170.537
  0
ARC
  5
103F
330
1191
100
AcDbEntity
  8
0
100
AcDbCircle
 10
308.35185
 20
433.0542419999999
 30
0.0
 40
2.0
100
AcDbArc
 50
88.0
 51
135.433
  0
ARC
  5
1040
330
1191
100
AcDbEntity
  8
0
100
AcDbCircle
 10
337.75185
 20
423.114242
 30
0.0
 40
10.0
100
AcDbArc
 50
200.006
 51
340.0
  0
LINE
  5
1041
330
1191
100
AcDbEntity
  8
0
100
AcDbLine
 10
347.14885
 20
419.694242
 30
0.0
 11
348.99885
 21
430.190242
 31
0.0
  0
LINE
  5
1042
330
1191
100
AcDbEntity
  8
0
100
AcDbLine
 10
328.35585
 20
419.693242
 30
0.0
 11
326.31685
 21
431.258242
 31
0.0
  0
ARC
  5
1043
330
1191
100
AcDbEntity
  8
0
100
AcDbCircle
 10
322.37585
 20
430.563242
 30
0.0
 40
4.0
100
AcDbArc
 50
10.0
 51
88.0
  0
LINE
  5
1044
330
1191
100
AcDbEntity
  8
0
100
AcDbLine
 10
322.51585
 20
434.560242
 30
0.0
 11
308.42085
 21
435.053242
 31
0.0
  0
ARC
  5
1045
330
1191
100
AcDbEntity
  8
0
100
AcDbCircle
 10
352.93885
 20
429.496242
 30
0.0
 40
4.0
100
AcDbArc
 50
88.0
 51
170.0
  0
LINE
  5
1046
330
1191
100
AcDbEntity
  8
7
100
AcDbLine
 10
485.2508499999999
 20
454.0862419999999
 30
0.0
 11
485.2508499999999
 21
210.894242
 31
0.0
  0
DIMENSION
  5
1053
330
1191
100
AcDbEntity
  8
5
100
AcDbDimension
  2
*D2
 10
700.24985
 20
543.1142419999999
 30
0.0
 11
485.2508499999999
 21
554.864242
 31
0.0
 70
    32
  1
%%c430
 71
     5
 42
-1.0
  3
GEN-ISO
100
AcDbAlignedDimension
 13
270.25185
 23
433.1142419999999
 33
0.0
 14
700.24985
 24
433.1142419999999
 34
0.0
100
AcDbRotatedDimension
  0
POLYLINE
  5
1054
330
1191
100
AcDbEntity
  8
SCHRAFFUR_RAND
100
AcDb2dPolyline
 66
     1
 10
0.0
 20
0.0
 30
0.0
 70
     1
  0
VERTEX
  5
1055
330
1054
100
AcDbEntity
  8
SCHRAFFUR_RAND
100
AcDbVertex
100
AcDb2dVertex
 10
370.98785
 20
441.114242
 30
0.0
  0
VERTEX
  5
1056
330
1054
100
AcDbEntity
  8
SCHRAFFUR_RAND
100
AcDbVertex
100
AcDb2dVertex
 10
274.46785
 20
441.114242
 30
0.0
  0
VERTEX
  5
1057
330
1054
100
AcDbEntity
  8
SCHRAFFUR_RAND
100
AcDbVertex
100
AcDb2dVertex
 10
272.42785
 20
440.793242
 30
0.0
  0
VERTEX
  5
1058
330
1054
100
AcDbEntity
  8
SCHRAFFUR_RAND
100
AcDbVertex
100
AcDb2dVertex
 10
270.90085
 20
439.3432419999999
 30
0.0
  0
VERTEX
  5
1059
330
1054
100
AcDbEntity
  8
SCHRAFFUR_RAND
100
AcDbVertex
100
AcDb2dVertex
 10
270.47085
 20
437.3232419999999
 30
0.0
  0
VERTEX
  5
105A
330
1054
100
AcDbEntity
  8
SCHRAFFUR_RAND
100
AcDbVertex
100
AcDb2dVertex
 10
270.24985
 20
433.1142419999999
 30
0.0
  0
VERTEX
  5
105B
330
1054
100
AcDbEntity
  8
SCHRAFFUR_RAND
100
AcDbVertex
100
AcDb2dVertex
 10
306.24185
 20
433.1142419999999
 30
0.0
  0
VERTEX
  5
105C
330
1054
100
AcDbEntity
  8
SCHRAFFUR_RAND
100
AcDbVertex
100
AcDb2dVertex
 10
306.48085
 20
433.8392419999999
 30
0.0
  0
VERTEX
  5
105D
330
1054
100
AcDbEntity
  8
SCHRAFFUR_RAND
100
AcDbVertex
100
AcDb2dVertex
 10
306.92685
 20
434.458242
 30
0.0
  0
VERTEX
  5
105E
330
1054
100
AcDbEntity
  8
SCHRAFFUR_RAND
100
AcDbVertex
100
AcDb2dVertex
 10
307.61185
 20
434.9122419999999
 30
0.0
  0
VERTEX
  5
105F
330
1054
100
AcDbEntity
  8
SCHRAFFUR_RAND
100
AcDbVertex
100
AcDb2dVertex
 10
308.42085
 20
435.053242
 30
0.0
  0
VERTEX
  5
1060
330
1054
100
AcDbEntity
  8
SCHRAFFUR_RAND
100
AcDbVertex
100
AcDb2dVertex
 10
322.51585
 20
434.560242
 30
0.0
  0
VERTEX
  5
1061
330
1054
100
AcDbEntity
  8
SCHRAFFUR_RAND
100
AcDbVertex
100
AcDb2dVertex
 10
325.00085
 20
433.582242
 30
0.0
  0
VERTEX
  5
1062
330
1054
100
AcDbEntity
  8
SCHRAFFUR_RAND
100
AcDbVertex
100
AcDb2dVertex
 10
325.45785
 20
433.1142419999999
 30
0.0
  0
VERTEX
  5
1063
330
1054
100
AcDbEntity
  8
SCHRAFFUR_RAND
100
AcDbVertex
100
AcDb2dVertex
 10
326.31685
 20
431.258242
 30
0.0
  0
VERTEX
  5
1064
330
1054
100
AcDbEntity
  8
SCHRAFFUR_RAND
100
AcDbVertex
100
AcDb2dVertex
 10
328.35585
 20
419.693242
 30
0.0
  0
VERTEX
  5
1065
330
1054
100
AcDbEntity
  8
SCHRAFFUR_RAND
100
AcDbVertex
100
AcDb2dVertex
 10
330.92385
 20
415.529242
 30
0.0
  0
VERTEX
  5
1066
330
1054
100
AcDbEntity
  8
SCHRAFFUR_RAND
100
AcDbVertex
100
AcDb2dVertex
 10
335.28385
 20
413.2112419999999
 30
0.0
  0
VERTEX
  5
1067
330
1054
100
AcDbEntity
  8
SCHRAFFUR_RAND
100
AcDbVertex
100
AcDb2dVertex
 10
340.22185
 20
413.2112419999999
 30
0.0
  0
VERTEX
  5
1068
330
1054
100
AcDbEntity
  8
SCHRAFFUR_RAND
100
AcDbVertex
100
AcDb2dVertex
 10
344.58185
 20
415.5302419999999
 30
0.0
  0
VERTEX
  5
1069
330
1054
100
AcDbEntity
  8
SCHRAFFUR_RAND
100
AcDbVertex
100
AcDb2dVertex
 10
347.14885
 20
419.694242
 30
0.0
  0
VERTEX
  5
106A
330
1054
100
AcDbEntity
  8
SCHRAFFUR_RAND
100
AcDbVertex
100
AcDb2dVertex
 10
348.99985
 20
430.190242
 30
0.0
  0
VERTEX
  5
106B
330
1054
100
AcDbEntity
  8
SCHRAFFUR_RAND
100
AcDbVertex
100
AcDb2dVertex
 10
349.59485
 20
432.046242
 30
0.0
  0
VERTEX
  5
106C
330
1054
100
AcDbEntity
  8
SCHRAFFUR_RAND
100
AcDbVertex
100
AcDb2dVertex
 10
351.13985
 20
433.2972419999999
 30
0.0
  0
VERTEX
  5
106D
330
1054
100
AcDbEntity
  8
SCHRAFFUR_RAND
100
AcDbVertex
100
AcDb2dVertex
 10
353.07785
 20
433.493242
 30
0.0
  0
VERTEX
  5
106E
330
1054
100
AcDbEntity
  8
SCHRAFFUR_RAND
100
AcDbVertex
100
AcDb2dVertex
 10
363.93585
 20
433.1142419999999
 30
0.0
  0
VERTEX
  5
106F
330
1054
100
AcDbEntity
  8
SCHRAFFUR_RAND
100
AcDbVertex
100
AcDb2dVertex
 10
367.71885
 20
432.594242
 30
0.0
  0
VERTEX
  5
1070
330
1054
100
AcDbEntity
  8
SCHRAFFUR_RAND
100
AcDbVertex
100
AcDb2dVertex
 10
370.96185
 20
430.5172419999999
 30
0.0
  0
VERTEX
  5
1071
330
1054
100
AcDbEntity
  8
SCHRAFFUR_RAND
100
AcDbVertex
100
AcDb2dVertex
 10
373.20485
 20
427.387242
 30
0.0
  0
VERTEX
  5
1072
330
1054
100
AcDbEntity
  8
SCHRAFFUR_RAND
100
AcDbVertex
100
AcDb2dVertex
 10
373.92385
 20
423.6382419999999
 30
0.0
  0
VERTEX
  5
1073
330
1054
100
AcDbEntity
  8
SCHRAFFUR_RAND
100
AcDbVertex
100
AcDb2dVertex
 10
378.34385
 20
339.282242
 30
0.0
  0
VERTEX
  5
1074
330
1054
100
AcDbEntity
  8
SCHRAFFUR_RAND
100
AcDbVertex
100
AcDb2dVertex
 10
379.72385
 20
330.515242
 30
0.0
  0
VERTEX
  5
1075
330
1054
100
AcDbEntity
  8
SCHRAFFUR_RAND
100
AcDbVertex
100
AcDb2dVertex
 10
383.45385
 20
322.436242
 30
0.0
  0
VERTEX
  5
1076
330
1054
100
AcDbEntity
  8
SCHRAFFUR_RAND
100
AcDbVertex
100
AcDb2dVertex
 10
389.08985
 20
315.551242
 30
0.0
  0
VERTEX
  5
1077
330
1054
100
AcDbEntity
  8
SCHRAFFUR_RAND
100
AcDbVertex
100
AcDb2dVertex
 10
396.27285
 20
310.298242
 30
0.0
  0
VERTEX
  5
1078
330
1054
100
AcDbEntity
  8
SCHRAFFUR_RAND
100
AcDbVertex
100
AcDb2dVertex
 10
404.5428499999999
 20
307.014242
 30
0.0
  0
VERTEX
  5
1079
330
1054
100
AcDbEntity
  8
SCHRAFFUR_RAND
100
AcDbVertex
100
AcDb2dVertex
 10
413.3718499999999
 20
306.114242
 30
0.0
  0
VERTEX
  5
107A
330
1054
100
AcDbEntity
  8
SCHRAFFUR_RAND
100
AcDbVertex
100
AcDb2dVertex
 10
419.5178499999999
 20
305.123242
 30
0.0
  0
VERTEX
  5
107B
330
1054
100
AcDbEntity
  8
SCHRAFFUR_RAND
100
AcDbVertex
100
AcDb2dVertex
 10
424.7518499999999
 20
301.685242
 30
0.0
  0
VERTEX
  5
107C
330
1054
100
AcDbEntity
  8
SCHRAFFUR_RAND
100
AcDbVertex
100
AcDb2dVertex
 10
428.29185
 20
296.519242
 30
0.0
  0
VERTEX
  5
107D
330
1054
100
AcDbEntity
  8
SCHRAFFUR_RAND
100
AcDbVertex
100
AcDb2dVertex
 10
429.40085
 20
290.393242
 30
0.0
  0
VERTEX
  5
107E
330
1054
100
AcDbEntity
  8
SCHRAFFUR_RAND
100
AcDbVertex
100
AcDb2dVertex
 10
430.52485
 20
221.114242
 30
0.0
  0
VERTEX
  5
107F
330
1054
100
AcDbEntity
  8
SCHRAFFUR_RAND
100
AcDbVertex
100
AcDb2dVertex
 10
436.24985
 20
221.127242
 30
0.0
  0
VERTEX
  5
1080
330
1054
100
AcDbEntity
  8
SCHRAFFUR_RAND
100
AcDbVertex
100
AcDb2dVertex
 10
435.9008499999999
 20
246.114242
 30
0.0
  0
VERTEX
  5
1081
330
1054
100
AcDbEntity
  8
SCHRAFFUR_RAND
100
AcDbVertex
100
AcDb2dVertex
 10
435.08685
 20
251.114242
 30
0.0
  0
VERTEX
  5
1082
330
1054
100
AcDbEntity
  8
SCHRAFFUR_RAND
100
AcDbVertex
100
AcDb2dVertex
 10
434.18185
 20
303.114242
 30
0.0
  0
VERTEX
  5
1083
330
1054
100
AcDbEntity
  8
SCHRAFFUR_RAND
100
AcDbVertex
100
AcDb2dVertex
 10
433.0888499999999
 20
306.114242
 30
0.0
  0
VERTEX
  5
1084
330
1054
100
AcDbEntity
  8
SCHRAFFUR_RAND
100
AcDbVertex
100
AcDb2dVertex
 10
424.0908499999999
 20
306.114242
 30
0.0
  0
VERTEX
  5
1085
330
1054
100
AcDbEntity
  8
SCHRAFFUR_RAND
100
AcDbVertex
100
AcDb2dVertex
 10
422.7508499999999
 20
311.114242
 30
0.0
  0
VERTEX
  5
1086
330
1054
100
AcDbEntity
  8
SCHRAFFUR_RAND
100
AcDbVertex
100
AcDb2dVertex
 10
413.29685
 20
311.114242
 30
0.0
  0
VERTEX
  5
1087
330
1054
100
AcDbEntity
  8
SCHRAFFUR_RAND
100
AcDbVertex
100
AcDb2dVertex
 10
405.73385
 20
311.870242
 30
0.0
  0
VERTEX
  5
1088
330
1054
100
AcDbEntity
  8
SCHRAFFUR_RAND
100
AcDbVertex
100
AcDb2dVertex
 10
398.65285
 20
314.695242
 30
0.0
  0
VERTEX
  5
1089
330
1054
100
AcDbEntity
  8
SCHRAFFUR_RAND
100
AcDbVertex
100
AcDb2dVertex
 10
392.50385
 20
319.203242
 30
0.0
  0
VERTEX
  5
108A
330
1054
100
AcDbEntity
  8
SCHRAFFUR_RAND
100
AcDbVertex
100
AcDb2dVertex
 10
387.68085
 20
325.107242
 30
0.0
  0
VERTEX
  5
108B
330
1054
100
AcDbEntity
  8
SCHRAFFUR_RAND
100
AcDbVertex
100
AcDb2dVertex
 10
384.48885
 20
332.031242
 30
0.0
  0
VERTEX
  5
108C
330
1054
100
AcDbEntity
  8
SCHRAFFUR_RAND
100
AcDbVertex
100
AcDb2dVertex
 10
383.33785
 20
339.544242
 30
0.0
  0
VERTEX
  5
108D
330
1054
100
AcDbEntity
  8
SCHRAFFUR_RAND
100
AcDbVertex
100
AcDb2dVertex
 10
378.01385
 20
441.114242
 30
0.0
  0
VERTEX
  5
108E
330
1054
100
AcDbEntity
  8
SCHRAFFUR_RAND
100
AcDbVertex
100
AcDb2dVertex
 10
370.98785
 20
441.114242
 30
0.0
  0
SEQEND
  5
108F
330
1054
100
AcDbEntity
  8
SCHRAFFUR_RAND
  0
INSERT
  5
10BD
330
1191
100
AcDbEntity
  8
8
100
AcDbBlockReference
  2
*X0
 10
-42.55415
 20
-572.194758
 30
0.0
1001
ACAD
1000
HATCH
1002
{
1070
    19
1000
ANSI31,_I
1040
6.349999999999999
1040
0.7850000000000001
1002
}
  0
POLYLINE
  5
10BE
330
1191
100
AcDbEntity
  8
SCHRAFFUR_RAND
100
AcDb2dPolyline
 66
     1
 10
0.0
 20
0.0
 30
0.0
 70
     1
  0
VERTEX
  5
10BF
330
10BE
100
AcDbEntity
  8
SCHRAFFUR_RAND
100
AcDbVertex
100
AcDb2dVertex
 10
592.4888499999999
 20
441.114242
 30
0.0
  0
VERTEX
  5
10C0
330
10BE
100
AcDbEntity
  8
SCHRAFFUR_RAND
100
AcDbVertex
100
AcDb2dVertex
 10
587.1658499999999
 20
339.544242
 30
0.0
  0
VERTEX
  5
10C1
330
10BE
100
AcDbEntity
  8
SCHRAFFUR_RAND
100
AcDbVertex
100
AcDb2dVertex
 10
586.01485
 20
332.031242
 30
0.0
  0
VERTEX
  5
10C2
330
10BE
100
AcDbEntity
  8
SCHRAFFUR_RAND
100
AcDbVertex
100
AcDb2dVertex
 10
582.82285
 20
325.107242
 30
0.0
  0
VERTEX
  5
10C3
330
10BE
100
AcDbEntity
  8
SCHRAFFUR_RAND
100
AcDbVertex
100
AcDb2dVertex
 10
577.9988499999999
 20
319.203242
 30
0.0
  0
VERTEX
  5
10C4
330
10BE
100
AcDbEntity
  8
SCHRAFFUR_RAND
100
AcDbVertex
100
AcDb2dVertex
 10
571.85085
 20
314.695242
 30
0.0
  0
VERTEX
  5
10C5
330
10BE
100
AcDbEntity
  8
SCHRAFFUR_RAND
100
AcDbVertex
100
AcDb2dVertex
 10
564.76985
 20
311.870242
 30
0.0
  0
VERTEX
  5
10C6
330
10BE
100
AcDbEntity
  8
SCHRAFFUR_RAND
100
AcDbVertex
100
AcDb2dVertex
 10
557.20685
 20
311.114242
 30
0.0
  0
VERTEX
  5
10C7
330
10BE
100
AcDbEntity
  8
SCHRAFFUR_RAND
100
AcDbVertex
100
AcDb2dVertex
 10
547.7508499999999
 20
311.114242
 30
0.0
  0
VERTEX
  5
10C8
330
10BE
100
AcDbEntity
  8
SCHRAFFUR_RAND
100
AcDbVertex
100
AcDb2dVertex
 10
546.4118499999999
 20
306.114242
 30
0.0
  0
VERTEX
  5
10C9
330
10BE
100
AcDbEntity
  8
SCHRAFFUR_RAND
100
AcDbVertex
100
AcDb2dVertex
 10
537.41285
 20
306.114242
 30
0.0
  0
VERTEX
  5
10CA
330
10BE
100
AcDbEntity
  8
SCHRAFFUR_RAND
100
AcDbVertex
100
AcDb2dVertex
 10
536.32185
 20
303.114242
 30
0.0
  0
VERTEX
  5
10CB
330
10BE
100
AcDbEntity
  8
SCHRAFFUR_RAND
100
AcDbVertex
100
AcDb2dVertex
 10
535.4148499999999
 20
251.114242
 30
0.0
  0
VERTEX
  5
10CC
330
10BE
100
AcDbEntity
  8
SCHRAFFUR_RAND
100
AcDbVertex
100
AcDb2dVertex
 10
534.60085
 20
246.114242
 30
0.0
  0
VERTEX
  5
10CD
330
10BE
100
AcDbEntity
  8
SCHRAFFUR_RAND
100
AcDbVertex
100
AcDb2dVertex
 10
534.2518499999999
 20
221.127242
 30
0.0
  0
VERTEX
  5
10CE
330
10BE
100
AcDbEntity
  8
SCHRAFFUR_RAND
100
AcDbVertex
100
AcDb2dVertex
 10
539.9788499999999
 20
221.114242
 30
0.0
  0
VERTEX
  5
10CF
330
10BE
100
AcDbEntity
  8
SCHRAFFUR_RAND
100
AcDbVertex
100
AcDb2dVertex
 10
541.10085
 20
290.393242
 30
0.0
  0
VERTEX
  5
10D0
330
10BE
100
AcDbEntity
  8
SCHRAFFUR_RAND
100
AcDbVertex
100
AcDb2dVertex
 10
542.2098499999999
 20
296.519242
 30
0.0
  0
VERTEX
  5
10D1
330
10BE
100
AcDbEntity
  8
SCHRAFFUR_RAND
100
AcDbVertex
100
AcDb2dVertex
 10
545.74985
 20
301.685242
 30
0.0
  0
VERTEX
  5
10D2
330
10BE
100
AcDbEntity
  8
SCHRAFFUR_RAND
100
AcDbVertex
100
AcDb2dVertex
 10
550.98485
 20
305.123242
 30
0.0
  0
VERTEX
  5
10D3
330
10BE
100
AcDbEntity
  8
SCHRAFFUR_RAND
100
AcDbVertex
100
AcDb2dVertex
 10
557.13185
 20
306.114242
 30
0.0
  0
VERTEX
  5
10D4
330
10BE
100
AcDbEntity
  8
SCHRAFFUR_RAND
100
AcDbVertex
100
AcDb2dVertex
 10
565.96085
 20
307.014242
 30
0.0
  0
VERTEX
  5
10D5
330
10BE
100
AcDbEntity
  8
SCHRAFFUR_RAND
100
AcDbVertex
100
AcDb2dVertex
 10
574.23085
 20
310.298242
 30
0.0
  0
VERTEX
  5
10D6
330
10BE
100
AcDbEntity
  8
SCHRAFFUR_RAND
100
AcDbVertex
100
AcDb2dVertex
 10
581.41385
 20
315.551242
 30
0.0
  0
VERTEX
  5
10D7
330
10BE
100
AcDbEntity
  8
SCHRAFFUR_RAND
100
AcDbVertex
100
AcDb2dVertex
 10
587.04985
 20
322.436242
 30
0.0
  0
VERTEX
  5
10D8
330
10BE
100
AcDbEntity
  8
SCHRAFFUR_RAND
100
AcDbVertex
100
AcDb2dVertex
 10
590.77985
 20
330.515242
 30
0.0
  0
VERTEX
  5
10D9
330
10BE
100
AcDbEntity
  8
SCHRAFFUR_RAND
100
AcDbVertex
100
AcDb2dVertex
 10
592.15885
 20
339.282242
 30
0.0
  0
VERTEX
  5
10DA
330
10BE
100
AcDbEntity
  8
SCHRAFFUR_RAND
100
AcDbVertex
100
AcDb2dVertex
 10
596.57985
 20
423.6382419999999
 30
0.0
  0
VERTEX
  5
10DB
330
10BE
100
AcDbEntity
  8
SCHRAFFUR_RAND
100
AcDbVertex
100
AcDb2dVertex
 10
597.2968499999999
 20
427.387242
 30
0.0
  0
VERTEX
  5
10DC
330
10BE
100
AcDbEntity
  8
SCHRAFFUR_RAND
100
AcDbVertex
100
AcDb2dVertex
 10
599.5408499999999
 20
430.5172419999999
 30
0.0
  0
VERTEX
  5
10DD
330
10BE
100
AcDbEntity
  8
SCHRAFFUR_RAND
100
AcDbVertex
100
AcDb2dVertex
 10
602.78385
 20
432.594242
 30
0.0
  0
VERTEX
  5
10DE
330
10BE
100
AcDbEntity
  8
SCHRAFFUR_RAND
100
AcDbVertex
100
AcDb2dVertex
 10
606.5668500000001
 20
433.1142419999999
 30
0.0
  0
VERTEX
  5
10DF
330
10BE
100
AcDbEntity
  8
SCHRAFFUR_RAND
100
AcDbVertex
100
AcDb2dVertex
 10
617.42385
 20
433.493242
 30
0.0
  0
VERTEX
  5
10E0
330
10BE
100
AcDbEntity
  8
SCHRAFFUR_RAND
100
AcDbVertex
100
AcDb2dVertex
 10
619.3628499999999
 20
433.2972419999999
 30
0.0
  0
VERTEX
  5
10E1
330
10BE
100
AcDbEntity
  8
SCHRAFFUR_RAND
100
AcDbVertex
100
AcDb2dVertex
 10
620.90785
 20
432.046242
 30
0.0
  0
VERTEX
  5
10E2
330
10BE
100
AcDbEntity
  8
SCHRAFFUR_RAND
100
AcDbVertex
100
AcDb2dVertex
 10
621.5028499999999
 20
430.190242
 30
0.0
  0
VERTEX
  5
10E3
330
10BE
100
AcDbEntity
  8
SCHRAFFUR_RAND
100
AcDbVertex
100
AcDb2dVertex
 10
623.3538499999999
 20
419.694242
 30
0.0
  0
VERTEX
  5
10E4
330
10BE
100
AcDbEntity
  8
SCHRAFFUR_RAND
100
AcDbVertex
100
AcDb2dVertex
 10
625.9208499999999
 20
415.5302419999999
 30
0.0
  0
VERTEX
  5
10E5
330
10BE
100
AcDbEntity
  8
SCHRAFFUR_RAND
100
AcDbVertex
100
AcDb2dVertex
 10
630.28085
 20
413.2112419999999
 30
0.0
  0
VERTEX
  5
10E6
330
10BE
100
AcDbEntity
  8
SCHRAFFUR_RAND
100
AcDbVertex
100
AcDb2dVertex
 10
635.2178499999999
 20
413.2112419999999
 30
0.0
  0
VERTEX
  5
10E7
330
10BE
100
AcDbEntity
  8
SCHRAFFUR_RAND
100
AcDbVertex
100
AcDb2dVertex
 10
639.57785
 20
415.529242
 30
0.0
  0
VERTEX
  5
10E8
330
10BE
100
AcDbEntity
  8
SCHRAFFUR_RAND
100
AcDbVertex
100
AcDb2dVertex
 10
642.1468499999999
 20
419.693242
 30
0.0
  0
VERTEX
  5
10E9
330
10BE
100
AcDbEntity
  8
SCHRAFFUR_RAND
100
AcDbVertex
100
AcDb2dVertex
 10
644.1858499999999
 20
431.258242
 30
0.0
  0
VERTEX
  5
10EA
330
10BE
100
AcDbEntity
  8
SCHRAFFUR_RAND
100
AcDbVertex
100
AcDb2dVertex
 10
645.04485
 20
433.1142419999999
 30
0.0
  0
VERTEX
  5
10EB
330
10BE
100
AcDbEntity
  8
SCHRAFFUR_RAND
100
AcDbVertex
100
AcDb2dVertex
 10
645.50185
 20
433.582242
 30
0.0
  0
VERTEX
  5
10EC
330
10BE
100
AcDbEntity
  8
SCHRAFFUR_RAND
100
AcDbVertex
100
AcDb2dVertex
 10
647.98685
 20
434.560242
 30
0.0
  0
VERTEX
  5
10ED
330
10BE
100
AcDbEntity
  8
SCHRAFFUR_RAND
100
AcDbVertex
100
AcDb2dVertex
 10
662.08085
 20
435.053242
 30
0.0
  0
VERTEX
  5
10EE
330
10BE
100
AcDbEntity
  8
SCHRAFFUR_RAND
100
AcDbVertex
100
AcDb2dVertex
 10
662.89085
 20
434.9122419999999
 30
0.0
  0
VERTEX
  5
10EF
330
10BE
100
AcDbEntity
  8
SCHRAFFUR_RAND
100
AcDbVertex
100
AcDb2dVertex
 10
663.57485
 20
434.458242
 30
0.0
  0
VERTEX
  5
10F0
330
10BE
100
AcDbEntity
  8
SCHRAFFUR_RAND
100
AcDbVertex
100
AcDb2dVertex
 10
664.0208499999999
 20
433.8392419999999
 30
0.0
  0
VERTEX
  5
10F1
330
10BE
100
AcDbEntity
  8
SCHRAFFUR_RAND
100
AcDbVertex
100
AcDb2dVertex
 10
664.25985
 20
433.1142419999999
 30
0.0
  0
VERTEX
  5
10F2
330
10BE
100
AcDbEntity
  8
SCHRAFFUR_RAND
100
AcDbVertex
100
AcDb2dVertex
 10
700.24985
 20
433.1142419999999
 30
0.0
  0
VERTEX
  5
10F3
330
10BE
100
AcDbEntity
  8
SCHRAFFUR_RAND
100
AcDbVertex
100
AcDb2dVertex
 10
700.02985
 20
437.3232419999999
 30
0.0
  0
VERTEX
  5
10F4
330
10BE
100
AcDbEntity
  8
SCHRAFFUR_RAND
100
AcDbVertex
100
AcDb2dVertex
 10
699.6018499999999
 20
439.3432419999999
 30
0.0
  0
VERTEX
  5
10F5
330
10BE
100
AcDbEntity
  8
SCHRAFFUR_RAND
100
AcDbVertex
100
AcDb2dVertex
 10
698.07385
 20
440.793242
 30
0.0
  0
VERTEX
  5
10F6
330
10BE
100
AcDbEntity
  8
SCHRAFFUR_RAND
100
AcDbVertex
100
AcDb2dVertex
 10
696.03485
 20
441.114242
 30
0.0
  0
VERTEX
  5
10F7
330
10BE
100
AcDbEntity
  8
SCHRAFFUR_RAND
100
AcDbVertex
100
AcDb2dVertex
 10
599.5128499999999
 20
441.114242
 30
0.0
  0
VERTEX
  5
10F8
330
10BE
100
AcDbEntity
  8
SCHRAFFUR_RAND
100
AcDbVertex
100
AcDb2dVertex
 10
592.4888499999999
 20
441.114242
 30
0.0
  0
SEQEND
  5
10F9
330
10BE
100
AcDbEntity
  8
SCHRAFFUR_RAND
  0
INSERT
  5
1121
330
1191
100
AcDbEntity
  8
8
100
AcDbBlockReference
  2
*X1
 10
-42.55415
 20
-572.194758
 30
0.0
1001
ACAD
1000
HATCH
1002
{
1070
    19
1000
ANSI31,_I
1040
6.349999999999999
1040
0.7850000000000001
1002
}
  0
DIMENSION
  5
112B
330
1191
100
AcDbEntity
  8
5
100
AcDbDimension
  2
*D7
 10
207.444387
 20
441.114242
 30
0.0
 11
195.692664
 21
331.114242
 31
0.0
 70
    32
  1
220
 71
     5
 42
-1.0
  3
GEN-ISO
100
AcDbAlignedDimension
 13
430.52285
 23
221.114242
 33
0.0
 14
274.46785
 24
441.114242
 34
0.0
 50
90.0
100
AcDbRotatedDimension
  0
DIMENSION
  5
114A
330
1191
100
AcDbEntity
  8
5
100
AcDbDimension
  2
*D5
 10
599.25085
 20
508.1142419999999
 30
0.0
 11
485.25035
 21
519.8659639999999
 31
0.0
 70
    32
  1
%%c228
 71
     5
 42
-1.0
  3
GEN-ISO
100
AcDbAlignedDimension
 13
371.24985
 23
446.1142419999999
 33
0.0
 14
599.25085
 24
446.1142419999999
 34
0.0
100
AcDbRotatedDimension
  0
DIMENSION
  5
1153
330
1191
100
AcDbEntity
  8
5
100
AcDbDimension
  2
*D8
 10
379.892873
 20
306.114242
 30
0.0
 11
368.142873
 21
263.614242
 31
0.0
 70
    32
  1
85
 71
     5
 42
-1.0
  3
GEN-ISO
100
AcDbAlignedDimension
 13
361.12785
 23
221.114242
 33
0.0
 14
413.31785
 24
306.114242
 34
0.0
 50
90.0
100
AcDbRotatedDimension
  0
INSERT
  5
1235
330
1191
100
AcDbEntity
  8
0
100
AcDbBlockReference
  2
KATALOG_LEER
 10
251.839706
 20
11.304483
 30
0.0
 41
5.0
 42
5.0
 43
5.0
1001
GENIUS_GENOREF_13
1005
1236
  0
POINT
  5
1236
330
1191
100
AcDbEntity
  8
0
 60
     1
100
AcDbPoint
 10
0.0
 20
0.0
 30
0.0
1001
GENIUS_GENOBJ-N-TIT_13
1002
{
1000
OWNER
1000
GEN
1002
}
1001
GENIUS_GENOENT_13
1002
{
1000
MYREF
1005
1236
1002
}
1002
{
1000
GRP
1005
0
1002
}
1001
GENIUS_GENOLIS_13
1002
{
1000
ENT
1005
1235
1002
}
1001
GENIUS_GENTITLE_13
1002
{
1000
SCALE
1000
1:5
1002
}
1002
{
1000
BORDER
1000
KATALOG
1002
}
1002
{
1000
TITLE
1000
KATALOG_LEER
1002
}
1002
{
1000
UNCHG
1002
{
1000
GEN-TITLE-SCA
1000
GEN-TITLE-SIZ
1002
}
1002
}
1002
{
1000
HRA
1005
122E
1002
}
1002
{
1000
HTIT
1005
1235
1002
}
1002
{
1000
GENIUSID
1005
1236
1002
}
1001
GENIUS_GENODEF_13
1002
{
1000
HIER
1070
     1
1002
}
1002
{
1000
MANEDIT
1070
     1
1002
}
1002
{
1000
NOSEL
1070
     0
1002
}
1002
{
1000
BEHIND
1070
     0
1002
}
1002
{
1000
REACTOR
1002
}
  0
LINE
  5
1377
330
1191
100
AcDbEntity
  8
5
100
AcDbLine
 10
755.464247
 20
583.978031
 30
0.0
 11
791.051017
 21
583.978031
 31
0.0
  0
LINE
  5
1378
330
1191
100
AcDbEntity
  8
5
100
AcDbLine
 10
761.167253
 20
574.870263
 30
0.0
 11
785.348011
 21
574.870263
 31
0.0
  0
LINE
  5
1379
330
1191
100
AcDbEntity
  8
5
100
AcDbLine
 10
773.257632
 20
583.978031
 30
0.0
 11
773.257632
 21
601.100641
 31
0.0
  0
LINE
  5
137A
330
1191
100
AcDbEntity
  8
5
100
AcDbLine
 10
766.64214
 20
566.126804
 30
0.0
 11
779.8731240000001
 21
566.126804
 31
0.0
  0
LINE
  5
137B
330
1191
100
AcDbEntity
  8
5
100
AcDbLine
 10
641.4032900000001
 20
461.816183
 30
0.0
 11
690.2806419999999
 21
496.787441
 31
0.0
  0
LINE
  5
138D
330
1191
100
AcDbEntity
  8
0
100
AcDbLine
 10
636.7528499999999
 20
466.113242
 30
0.0
 11
628.7578499999999
 21
466.113242
 31
0.0
  0
LINE
  5
1393
330
1191
100
AcDbEntity
  8
0
100
AcDbLine
 10
627.75385
 20
465.120242
 30
0.0
 11
628.74685
 21
466.113242
 31
0.0
  0
LINE
  5
1397
330
1191
100
AcDbEntity
  8
0
100
AcDbLine
 10
637.75085
 20
465.120242
 30
0.0
 11
636.7568499999999
 21
466.113242
 31
0.0
  0
LINE
  5
1B27
330
1191
100
AcDbEntity
  8
5
100
AcDbLine
 10
714.754173
 20
514.298009
 30
0.0
 11
770.329972
 21
554.0619389999999
 31
0.0
  0
INSERT
  5
1B3D
330
1191
100
AcDbEntity
  8
8
100
AcDbBlockReference
  2
*X9
 10
51.49085
 20
-613.5507579999999
 30
0.0
1001
ACAD
1000
HATCH
1002
{
1070
    19
1000
ANSI31,_I
1040
3.174999999999999
1040
0.7850000000000001
1002
}
  0
LINE
  5
1B3E
330
1191
100
AcDbEntity
  8
0
100
AcDbLine
 10
485.2508499999999
 20
458.1142419999999
 30
0.0
 11
627.75085
 21
458.1142419999999
 31
0.0
  0
LINE
  5
1B3F
330
1191
100
AcDbEntity
  8
0
100
AcDbLine
 10
485.2508499999999
 20
446.1142419999999
 30
0.0
 11
657.75085
 21
446.1142419999999
 31
0.0
  0
ARC
  5
1B40
330
1191
100
AcDbEntity
  8
0
100
AcDbCircle
 10
602.75085
 20
458.1142419999999
 30
0.0
 40
4.0
100
AcDbArc
 50
270.0
 51
0.0
  0
LINE
  5
1B41
330
1191
100
AcDbEntity
  8
0
100
AcDbLine
 10
485.2508499999999
 20
454.1142419999999
 30
0.0
 11
660.2508499999999
 21
454.1142419999999
 31
0.0
  0
LINE
  5
1B42
330
1191
100
AcDbEntity
  8
0
100
AcDbLine
 10
619.87985
 20
458.113242
 30
0.0
 11
606.09785
 21
458.1142419999999
 31
0.0
  0
LINE
  5
1B43
330
1191
100
AcDbEntity
  8
0
100
AcDbLine
 10
639.83885
 20
466.113242
 30
0.0
 11
625.86085
 21
466.114242
 31
0.0
  0
ARC
  5
1B44
330
1191
100
AcDbEntity
  8
0
100
AcDbCircle
 10
625.66285
 20
461.9622419999999
 30
0.0
 40
3.848
100
AcDbArc
 50
247.969
 51
307.857
  0
ARC
  5
1B45
330
1191
100
AcDbEntity
  8
0
100
AcDbCircle
 10
625.66285
 20
462.266242
 30
0.0
 40
3.848
100
AcDbArc
 50
52.138
 51
112.063
  0
POLYLINE
  5
1B46
330
1191
100
AcDbEntity
  8
SCHRAFFUR_RAND
100
AcDb2dPolyline
 66
     1
 10
0.0
 20
0.0
 30
0.0
 70
     1
  0
VERTEX
  5
1B47
330
1B46
100
AcDbEntity
  8
SCHRAFFUR_RAND
100
AcDbVertex
100
AcDb2dVertex
 10
660.2508499999999
 20
454.1142419999999
 30
0.0
  0
VERTEX
  5
1B48
330
1B46
100
AcDbEntity
  8
SCHRAFFUR_RAND
100
AcDbVertex
100
AcDb2dVertex
 10
602.75085
 20
454.1142419999999
 30
0.0
  0
VERTEX
  5
1B49
330
1B46
100
AcDbEntity
  8
SCHRAFFUR_RAND
100
AcDbVertex
100
AcDb2dVertex
 10
602.75085
 20
448.614242
 30
0.0
  0
VERTEX
  5
1B4A
330
1B46
100
AcDbEntity
  8
SCHRAFFUR_RAND
100
AcDbVertex
100
AcDb2dVertex
 10
602.9098499999999
 20
447.644242
 30
0.0
  0
VERTEX
  5
1B4B
330
1B46
100
AcDbEntity
  8
SCHRAFFUR_RAND
100
AcDbVertex
100
AcDb2dVertex
 10
603.4588499999999
 20
446.8232419999999
 30
0.0
  0
VERTEX
  5
1B4C
330
1B46
100
AcDbEntity
  8
SCHRAFFUR_RAND
100
AcDbVertex
100
AcDb2dVertex
 10
604.2808499999999
 20
446.273242
 30
0.0
  0
VERTEX
  5
1B4D
330
1B46
100
AcDbEntity
  8
SCHRAFFUR_RAND
100
AcDbVertex
100
AcDb2dVertex
 10
605.25085
 20
446.1142419999999
 30
0.0
  0
VERTEX
  5
1B4E
330
1B46
100
AcDbEntity
  8
SCHRAFFUR_RAND
100
AcDbVertex
100
AcDb2dVertex
 10
657.75085
 20
446.1142419999999
 30
0.0
  0
VERTEX
  5
1B4F
330
1B46
100
AcDbEntity
  8
SCHRAFFUR_RAND
100
AcDbVertex
100
AcDb2dVertex
 10
658.7198499999999
 20
446.273242
 30
0.0
  0
VERTEX
  5
1B50
330
1B46
100
AcDbEntity
  8
SCHRAFFUR_RAND
100
AcDbVertex
100
AcDb2dVertex
 10
659.54185
 20
446.8232419999999
 30
0.0
  0
VERTEX
  5
1B51
330
1B46
100
AcDbEntity
  8
SCHRAFFUR_RAND
100
AcDbVertex
100
AcDb2dVertex
 10
660.09085
 20
447.644242
 30
0.0
  0
VERTEX
  5
1B52
330
1B46
100
AcDbEntity
  8
SCHRAFFUR_RAND
100
AcDbVertex
100
AcDb2dVertex
 10
660.2508499999999
 20
448.614242
 30
0.0
  0
VERTEX
  5
1B53
330
1B46
100
AcDbEntity
  8
SCHRAFFUR_RAND
100
AcDbVertex
100
AcDb2dVertex
 10
660.2508499999999
 20
454.1142419999999
 30
0.0
  0
SEQEND
  5
1B54
330
1B46
100
AcDbEntity
  8
SCHRAFFUR_RAND
  0
LINE
  5
1B55
330
1191
100
AcDbEntity
  8
0
100
AcDbLine
 10
437.1298499999999
 20
446.1142419999999
 30
0.0
 11
533.37085
 21
446.1142419999999
 31
0.0
  0
LINE
  5
1B57
330
1191
100
AcDbEntity
  8
0
100
AcDbLine
 10
485.2508499999999
 20
458.1142419999999
 30
0.0
 11
312.74985
 21
458.1142419999999
 31
0.0
  0
LINE
  5
1B58
330
1191
100
AcDbEntity
  8
0
100
AcDbLine
 10
485.2508499999999
 20
446.1142419999999
 30
0.0
 11
312.74985
 21
446.1142419999999
 31
0.0
  0
LINE
  5
1B59
330
1191
100
AcDbEntity
  8
0
100
AcDbLine
 10
485.2508499999999
 20
454.1142419999999
 30
0.0
 11
310.24985
 21
454.1142419999999
 31
0.0
  0
INSERT
  5
1B5A
330
1191
100
AcDbEntity
  8
8
100
AcDbBlockReference
  2
*X10
 10
51.49085
 20
-613.5507579999999
 30
0.0
1001
ACAD
1000
HATCH
1002
{
1070
    19
1000
ANSI31,_I
1040
3.174999999999999
1040
0.7850000000000001
1002
}
  0
LINE
  5
1B5B
330
1191
100
AcDbEntity
  8
0
100
AcDbLine
 10
332.75185
 20
469.612242
 30
0.0
 11
342.74885
 21
469.613242
 31
0.0
  0
LINE
  5
1B5C
330
1191
100
AcDbEntity
  8
0
100
AcDbLine
 10
333.75185
 20
470.613242
 30
0.0
 11
341.74885
 21
470.6142419999999
 31
0.0
  0
ARC
  5
1B5D
330
1191
100
AcDbEntity
  8
0
100
AcDbCircle
 10
337.75185
 20
451.9392419999999
 30
0.0
 40
14.175
100
AcDbArc
 50
70.539
 51
109.467
  0
ARC
  5
1B5E
330
1191
100
AcDbEntity
  8
0
100
AcDbCircle
 10
337.75085
 20
472.2892419999999
 30
0.0
 40
14.175
100
AcDbArc
 50
250.54
 51
289.475
  0
LINE
  5
1B5F
330
1191
100
AcDbEntity
  8
0
100
AcDbLine
 10
330.86085
 20
458.113242
 30
0.0
 11
344.64185
 21
458.1142419999999
 31
0.0
  0
LINE
  5
1B60
330
1191
100
AcDbEntity
  8
0
100
AcDbLine
 10
330.66385
 20
466.113242
 30
0.0
 11
344.64085
 21
466.114242
 31
0.0
  0
LINE
  5
1B61
330
1191
100
AcDbEntity
  8
0
100
AcDbLine
 10
343.72785
 20
471.2642419999999
 30
0.0
 11
337.75085
 21
471.2642419999999
 31
0.0
  0
POLYLINE
  5
1B62
330
1191
100
AcDbEntity
  8
SCHRAFFUR_RAND
100
AcDb2dPolyline
 66
     1
 10
0.0
 20
0.0
 30
0.0
 70
     1
  0
VERTEX
  5
1B63
330
1B62
100
AcDbEntity
  8
SCHRAFFUR_RAND
100
AcDbVertex
100
AcDb2dVertex
 10
365.25085
 20
446.1142419999999
 30
0.0
  0
VERTEX
  5
1B64
330
1B62
100
AcDbEntity
  8
SCHRAFFUR_RAND
100
AcDbVertex
100
AcDb2dVertex
 10
366.22085
 20
446.270242
 30
0.0
  0
VERTEX
  5
1B65
330
1B62
100
AcDbEntity
  8
SCHRAFFUR_RAND
100
AcDbVertex
100
AcDb2dVertex
 10
367.04385
 20
446.8202419999999
 30
0.0
  0
VERTEX
  5
1B66
330
1B62
100
AcDbEntity
  8
SCHRAFFUR_RAND
100
AcDbVertex
100
AcDb2dVertex
 10
367.59385
 20
447.643242
 30
0.0
  0
VERTEX
  5
1B67
330
1B62
100
AcDbEntity
  8
SCHRAFFUR_RAND
100
AcDbVertex
100
AcDb2dVertex
 10
367.75085
 20
448.614242
 30
0.0
  0
VERTEX
  5
1B68
330
1B62
100
AcDbEntity
  8
SCHRAFFUR_RAND
100
AcDbVertex
100
AcDb2dVertex
 10
367.75085
 20
454.1142419999999
 30
0.0
  0
VERTEX
  5
1B69
330
1B62
100
AcDbEntity
  8
SCHRAFFUR_RAND
100
AcDbVertex
100
AcDb2dVertex
 10
310.24985
 20
454.1142419999999
 30
0.0
  0
VERTEX
  5
1B6A
330
1B62
100
AcDbEntity
  8
SCHRAFFUR_RAND
100
AcDbVertex
100
AcDb2dVertex
 10
310.24985
 20
448.614242
 30
0.0
  0
VERTEX
  5
1B6B
330
1B62
100
AcDbEntity
  8
SCHRAFFUR_RAND
100
AcDbVertex
100
AcDb2dVertex
 10
310.40685
 20
447.643242
 30
0.0
  0
VERTEX
  5
1B6C
330
1B62
100
AcDbEntity
  8
SCHRAFFUR_RAND
100
AcDbVertex
100
AcDb2dVertex
 10
310.95685
 20
446.8202419999999
 30
0.0
  0
VERTEX
  5
1B6D
330
1B62
100
AcDbEntity
  8
SCHRAFFUR_RAND
100
AcDbVertex
100
AcDb2dVertex
 10
311.77985
 20
446.270242
 30
0.0
  0
VERTEX
  5
1B6E
330
1B62
100
AcDbEntity
  8
SCHRAFFUR_RAND
100
AcDbVertex
100
AcDb2dVertex
 10
312.74985
 20
446.1142419999999
 30
0.0
  0
VERTEX
  5
1B6F
330
1B62
100
AcDbEntity
  8
SCHRAFFUR_RAND
100
AcDbVertex
100
AcDb2dVertex
 10
365.25085
 20
446.1142419999999
 30
0.0
  0
SEQEND
  5
1B70
330
1B62
100
AcDbEntity
  8
SCHRAFFUR_RAND
  0
ARC
  5
1B71
330
1191
100
AcDbEntity
  8
0
100
AcDbCircle
 10
312.74985
 20
448.614242
 30
0.0
 40
2.5
100
AcDbArc
 50
180.0
 51
270.0
  0
LINE
  5
1B72
330
1191
100
AcDbEntity
  8
0
100
AcDbLine
 10
310.24985
 20
455.6142419999999
 30
0.0
 11
310.24985
 21
448.614242
 31
0.0
  0
ARC
  5
1B73
330
1191
100
AcDbEntity
  8
0
100
AcDbCircle
 10
312.74985
 20
455.6142419999999
 30
0.0
 40
2.5
100
AcDbArc
 50
90.0
 51
180.0
  0
ARC
  5
1B74
330
1191
100
AcDbEntity
  8
0
100
AcDbCircle
 10
330.66385
 20
461.961242
 30
0.0
 40
3.846999999999999
100
AcDbArc
 50
247.89
 51
307.869
  0
ARC
  5
1B75
330
1191
100
AcDbEntity
  8
0
100
AcDbCircle
 10
330.66385
 20
462.265242
 30
0.0
 40
3.848
100
AcDbArc
 50
52.14100000000001
 51
120.0
  0
LINE
  5
1B76
330
1191
100
AcDbEntity
  8
0
100
AcDbLine
 10
327.49485
 20
466.9292419999999
 30
0.0
 11
331.77385
 21
466.9292419999999
 31
0.0
  0
LINE
  5
1B77
330
1191
100
AcDbEntity
  8
0
100
AcDbLine
 10
328.30185
 20
458.925242
 30
0.0
 11
328.30085
 21
465.301242
 31
0.0
  0
LINE
  5
1B78
330
1191
100
AcDbEntity
  8
0
100
AcDbLine
 10
327.49585
 20
458.883242
 30
0.0
 11
327.49485
 21
466.9292419999999
 31
0.0
  0
LINE
  5
1B79
330
1191
100
AcDbEntity
  8
0
100
AcDbLine
 10
328.30285
 20
458.9242419999999
 30
0.0
 11
329.21585
 21
458.397242
 31
0.0
  0
LINE
  5
1B7A
330
1191
100
AcDbEntity
  8
0
100
AcDbLine
 10
328.30285
 20
465.303242
 30
0.0
 11
329.21385
 21
465.8292419999999
 31
0.0
  0
LINE
  5
1B7B
330
1191
100
AcDbEntity
  8
0
100
AcDbLine
 10
333.02685
 20
458.9262419999999
 30
0.0
 11
333.02585
 21
465.301242
 31
0.0
  0
LINE
  5
1B7C
330
1191
100
AcDbEntity
  8
0
100
AcDbLine
 10
331.77385
 20
471.263242
 30
0.0
 11
337.75085
 21
471.2642419999999
 31
0.0
  0
LINE
  5
1B7D
330
1191
100
AcDbEntity
  8
0
100
AcDbLine
 10
331.77385
 20
466.9292419999999
 30
0.0
 11
331.77385
 21
471.263242
 31
0.0
  0
LINE
  5
1B7E
330
1191
100
AcDbEntity
  8
4
100
AcDbLine
 10
333.75185
 20
466.113242
 30
0.0
 11
333.75185
 21
470.611242
 31
0.0
  0
LINE
  5
1B7F
330
1191
100
AcDbEntity
  8
0
100
AcDbLine
 10
332.75185
 20
466.113242
 30
0.0
 11
332.75185
 21
469.611242
 31
0.0
  0
LINE
  5
1B80
330
1191
100
AcDbEntity
  8
0
100
AcDbLine
 10
332.75185
 20
469.613242
 30
0.0
 11
333.75185
 21
470.6142419999999
 31
0.0
  0
LINE
  5
1B81
330
1191
100
AcDbEntity
  8
0
100
AcDbLine
 10
372.59285
 20
446.1142419999999
 30
0.0
 11
423.07285
 21
446.1142419999999
 31
0.0
  0
ARC
  5
1B82
330
1191
100
AcDbEntity
  8
0
100
AcDbCircle
 10
365.25085
 20
448.614242
 30
0.0
 40
2.5
100
AcDbArc
 50
270.0
 51
0.0
  0
LINE
  5
1B83
330
1191
100
AcDbEntity
  8
0
100
AcDbLine
 10
370.73285
 20
443.1802419999999
 30
0.0
 11
371.01685
 21
444.792242
 31
0.0
  0
ARC
  5
1B84
330
1191
100
AcDbEntity
  8
0
100
AcDbCircle
 10
372.59285
 20
444.5142419999999
 30
0.0
 40
1.6
100
AcDbArc
 50
90.0
 51
170.0
  0
LINE
  5
1B86
330
1191
100
AcDbEntity
  8
0
100
AcDbLine
 10
342.47685
 20
458.9262419999999
 30
0.0
 11
342.47585
 21
465.302242
 31
0.0
  0
LINE
  5
1B87
330
1191
100
AcDbEntity
  8
0
100
AcDbLine
 10
347.20185
 20
458.9272419999999
 30
0.0
 11
347.20185
 21
465.301242
 31
0.0
  0
LINE
  5
1B88
330
1191
100
AcDbEntity
  8
0
100
AcDbLine
 10
348.00685
 20
458.8842419999999
 30
0.0
 11
348.00685
 21
466.930242
 31
0.0
  0
ARC
  5
1B89
330
1191
100
AcDbEntity
  8
0
100
AcDbCircle
 10
367.75085
 20
458.1142419999999
 30
0.0
 40
4.0
100
AcDbArc
 50
180.0
 51
270.0
  0
ARC
  5
1B8A
330
1191
100
AcDbEntity
  8
0
100
AcDbCircle
 10
344.83885
 20
461.9622419999999
 30
0.0
 40
3.848
100
AcDbArc
 50
232.143
 51
292.031
  0
LINE
  5
1B8B
330
1191
100
AcDbEntity
  8
0
100
AcDbLine
 10
367.75085
 20
454.1142419999999
 30
0.0
 11
367.75085
 21
448.614242
 31
0.0
  0
LINE
  5
1B8C
330
1191
100
AcDbEntity
  8
0
100
AcDbLine
 10
346.28285
 20
458.395242
 30
0.0
 11
347.20085
 21
458.925242
 31
0.0
  0
ARC
  5
1B8D
330
1191
100
AcDbEntity
  8
0
100
AcDbCircle
 10
344.83885
 20
462.266242
 30
0.0
 40
3.848
100
AcDbArc
 50
67.937
 51
127.862
  0
LINE
  5
1B8E
330
1191
100
AcDbEntity
  8
0
100
AcDbLine
 10
348.00685
 20
466.930242
 30
0.0
 11
343.72785
 21
466.930242
 31
0.0
  0
LINE
  5
1B8F
330
1191
100
AcDbEntity
  8
4
100
AcDbLine
 10
341.75085
 20
465.5382419999999
 30
0.0
 11
341.75085
 21
470.611242
 31
0.0
  0
LINE
  5
1B90
330
1191
100
AcDbEntity
  8
0
100
AcDbLine
 10
342.75085
 20
466.114242
 30
0.0
 11
342.75085
 21
469.612242
 31
0.0
  0
LINE
  5
1B91
330
1191
100
AcDbEntity
  8
0
100
AcDbLine
 10
342.75085
 20
469.613242
 30
0.0
 11
341.74985
 21
470.6142419999999
 31
0.0
  0
LINE
  5
1B92
330
1191
100
AcDbEntity
  8
0
100
AcDbLine
 10
343.72785
 20
466.930242
 30
0.0
 11
343.72785
 21
471.2642419999999
 31
0.0
  0
LINE
  5
1B93
330
1191
100
AcDbEntity
  8
0
100
AcDbLine
 10
346.28385
 20
465.832242
 30
0.0
 11
347.19985
 21
465.303242
 31
0.0
  0
ARC
  5
1B94
330
1191
100
AcDbEntity
  8
0
100
AcDbCircle
 10
429.66885
 20
458.1142419999999
 30
0.0
 40
4.0
100
AcDbArc
 50
196.602
 51
270.0
  0
ARC
  5
1B95
330
1191
100
AcDbEntity
  8
0
100
AcDbCircle
 10
424.3018499999999
 20
456.5142419999999
 30
0.0
 40
1.6
100
AcDbArc
 50
16.602
 51
89.999
  0
ARC
  5
1B96
330
1191
100
AcDbEntity
  8
0
100
AcDbCircle
 10
433.66885
 20
458.1142419999999
 30
0.0
 40
4.0
100
AcDbArc
 50
270.0
 51
343.398
  0
ARC
  5
1B97
330
1191
100
AcDbEntity
  8
0
100
AcDbCircle
 10
439.0348499999999
 20
456.5142419999999
 30
0.0
 40
1.6
100
AcDbArc
 50
90.00100000000001
 51
163.398
  0
LINE
  5
1B98
330
1191
100
AcDbEntity
  8
0
100
AcDbLine
 10
490.24985
 20
469.613242
 30
0.0
 11
480.25285
 21
469.613242
 31
0.0
  0
LINE
  5
1B99
330
1191
100
AcDbEntity
  8
0
100
AcDbLine
 10
489.24985
 20
470.613242
 30
0.0
 11
481.2528499999999
 21
470.6142419999999
 31
0.0
  0
ARC
  5
1B9A
330
1191
100
AcDbEntity
  8
0
100
AcDbCircle
 10
485.2488499999999
 20
451.9392419999999
 30
0.0
 40
14.175
100
AcDbArc
 50
70.533
 51
109.461
  0
ARC
  5
1B9B
330
1191
100
AcDbEntity
  8
0
100
AcDbCircle
 10
485.2508499999999
 20
472.2892419999999
 30
0.0
 40
14.175
100
AcDbArc
 50
250.525
 51
289.46
  0
LINE
  5
1B9C
330
1191
100
AcDbEntity
  8
0
100
AcDbLine
 10
492.14085
 20
458.113242
 30
0.0
 11
478.35985
 21
458.1142419999999
 31
0.0
  0
LINE
  5
1B9D
330
1191
100
AcDbEntity
  8
0
100
AcDbLine
 10
492.33785
 20
466.113242
 30
0.0
 11
478.35985
 21
466.114242
 31
0.0
  0
LINE
  5
1B9E
330
1191
100
AcDbEntity
  8
0
100
AcDbLine
 10
479.2738499999999
 20
471.2642419999999
 30
0.0
 11
485.2508499999999
 21
471.2642419999999
 31
0.0
  0
LINE
  5
1B9F
330
1191
100
AcDbEntity
  8
0
100
AcDbLine
 10
480.52485
 20
458.9262419999999
 30
0.0
 11
480.52485
 21
465.302242
 31
0.0
  0
LINE
  5
1BA0
330
1191
100
AcDbEntity
  8
0
100
AcDbLine
 10
475.79885
 20
458.9272419999999
 30
0.0
 11
475.79985
 21
465.301242
 31
0.0
  0
LINE
  5
1BA1
330
1191
100
AcDbEntity
  8
0
100
AcDbLine
 10
474.99485
 20
458.8842419999999
 30
0.0
 11
474.99485
 21
466.930242
 31
0.0
  0
ARC
  5
1BA2
330
1191
100
AcDbEntity
  8
0
100
AcDbCircle
 10
478.16185
 20
461.9622419999999
 30
0.0
 40
3.848
100
AcDbArc
 50
247.969
 51
307.857
  0
LINE
  5
1BA3
330
1191
100
AcDbEntity
  8
0
100
AcDbLine
 10
476.7188499999999
 20
458.395242
 30
0.0
 11
475.80085
 21
458.925242
 31
0.0
  0
LINE
  5
1BA4
330
1191
100
AcDbEntity
  8
0
100
AcDbLine
 10
479.01185
 20
458.382242
 30
0.0
 11
479.01185
 21
458.1142419999999
 31
0.0
  0
ARC
  5
1BA5
330
1191
100
AcDbEntity
  8
0
100
AcDbCircle
 10
478.16185
 20
462.266242
 30
0.0
 40
3.848
100
AcDbArc
 50
52.138
 51
112.063
  0
LINE
  5
1BA6
330
1191
100
AcDbEntity
  8
0
100
AcDbLine
 10
474.99485
 20
466.930242
 30
0.0
 11
479.2738499999999
 21
466.930242
 31
0.0
  0
LINE
  5
1BA7
330
1191
100
AcDbEntity
  8
0
100
AcDbLine
 10
476.71685
 20
465.832242
 30
0.0
 11
475.80085
 21
465.303242
 31
0.0
  0
LINE
  5
1BA8
330
1191
100
AcDbEntity
  8
4
100
AcDbLine
 10
481.24985
 20
465.5382419999999
 30
0.0
 11
481.24985
 21
470.611242
 31
0.0
  0
LINE
  5
1BA9
330
1191
100
AcDbEntity
  8
0
100
AcDbLine
 10
480.25085
 20
469.614242
 30
0.0
 11
481.2508499999999
 21
470.6142419999999
 31
0.0
  0
LINE
  5
1BAA
330
1191
100
AcDbEntity
  8
0
100
AcDbLine
 10
480.2498499999999
 20
466.114242
 30
0.0
 11
480.2498499999999
 21
469.612242
 31
0.0
  0
LINE
  5
1BAB
330
1191
100
AcDbEntity
  8
0
100
AcDbLine
 10
479.2738499999999
 20
466.930242
 30
0.0
 11
479.2738499999999
 21
471.2642419999999
 31
0.0
  0
LINE
  5
1BAC
330
1191
100
AcDbEntity
  8
0
100
AcDbLine
 10
511.9028499999999
 20
458.113242
 30
0.0
 11
498.1218499999999
 21
458.1142419999999
 31
0.0
  0
LINE
  5
1BAD
330
1191
100
AcDbEntity
  8
7
 48
0.131
100
AcDbLine
 10
485.2508499999999
 20
477.5542419999999
 30
0.0
 11
485.2508499999999
 21
448.8292419999999
 31
0.0
  0
ARC
  5
1BAE
330
1191
100
AcDbEntity
  8
0
100
AcDbCircle
 10
492.33685
 20
461.961242
 30
0.0
 40
3.846999999999999
100
AcDbArc
 50
232.13
 51
292.11
  0
ARC
  5
1BAF
330
1191
100
AcDbEntity
  8
0
100
AcDbCircle
 10
492.33685
 20
462.265242
 30
0.0
 40
3.848
100
AcDbArc
 50
60.0
 51
127.859
  0
LINE
  5
1BB0
330
1191
100
AcDbEntity
  8
0
100
AcDbLine
 10
495.5058499999999
 20
466.9292419999999
 30
0.0
 11
491.22685
 21
466.9292419999999
 31
0.0
  0
LINE
  5
1BB1
330
1191
100
AcDbEntity
  8
0
100
AcDbLine
 10
489.97485
 20
458.925242
 30
0.0
 11
489.97485
 21
465.301242
 31
0.0
  0
LINE
  5
1BB2
330
1191
100
AcDbEntity
  8
0
100
AcDbLine
 10
485.2508499999999
 20
454.1142419999999
 30
0.0
 11
487.25085
 21
454.1142419999999
 31
0.0
  0
LINE
  5
1BB3
330
1191
100
AcDbEntity
  8
0
100
AcDbLine
 10
491.22685
 20
471.263242
 30
0.0
 11
485.2508499999999
 21
471.2642419999999
 31
0.0
  0
LINE
  5
1BB4
330
1191
100
AcDbEntity
  8
4
100
AcDbLine
 10
489.24985
 20
466.113242
 30
0.0
 11
489.24985
 21
470.611242
 31
0.0
  0
LINE
  5
1BB5
330
1191
100
AcDbEntity
  8
0
100
AcDbLine
 10
490.24985
 20
466.113242
 30
0.0
 11
490.24985
 21
469.611242
 31
0.0
  0
LINE
  5
1BB6
330
1191
100
AcDbEntity
  8
0
100
AcDbLine
 10
490.24885
 20
469.613242
 30
0.0
 11
489.2488499999999
 21
470.6142419999999
 31
0.0
  0
LINE
  5
1BB7
330
1191
100
AcDbEntity
  8
0
100
AcDbLine
 10
491.22685
 20
466.9292419999999
 30
0.0
 11
491.22685
 21
471.263242
 31
0.0
  0
LINE
  5
1BB8
330
1191
100
AcDbEntity
  8
0
100
AcDbLine
 10
494.69985
 20
458.925242
 30
0.0
 11
494.69985
 21
465.301242
 31
0.0
  0
LINE
  5
1BB9
330
1191
100
AcDbEntity
  8
0
100
AcDbLine
 10
495.50485
 20
458.883242
 30
0.0
 11
495.5058499999999
 21
466.9292419999999
 31
0.0
  0
LINE
  5
1BBA
330
1191
100
AcDbEntity
  8
0
100
AcDbLine
 10
494.69785
 20
458.9242419999999
 30
0.0
 11
493.7858499999999
 21
458.397242
 31
0.0
  0
LINE
  5
1BBB
330
1191
100
AcDbEntity
  8
0
100
AcDbLine
 10
494.6988499999999
 20
465.303242
 30
0.0
 11
493.78785
 21
465.8292419999999
 31
0.0
  0
LINE
  5
1BBC
330
1191
100
AcDbEntity
  8
0
100
AcDbLine
 10
547.42785
 20
446.1142419999999
 30
0.0
 11
597.90785
 21
446.1142419999999
 31
0.0
  0
ARC
  5
1BBD
330
1191
100
AcDbEntity
  8
0
100
AcDbCircle
 10
540.83185
 20
458.1142419999999
 30
0.0
 40
4.0
100
AcDbArc
 50
270.0
 51
343.398
  0
ARC
  5
1BBE
330
1191
100
AcDbEntity
  8
0
100
AcDbCircle
 10
546.19885
 20
456.5142419999999
 30
0.0
 40
1.6
100
AcDbArc
 50
90.00100000000001
 51
163.398
  0
ARC
  5
1BBF
330
1191
100
AcDbEntity
  8
0
100
AcDbCircle
 10
536.8318499999999
 20
458.1142419999999
 30
0.0
 40
4.0
100
AcDbArc
 50
196.602
 51
270.0
  0
ARC
  5
1BC0
330
1191
100
AcDbEntity
  8
0
100
AcDbCircle
 10
531.46585
 20
456.5142419999999
 30
0.0
 40
1.6
100
AcDbArc
 50
16.602
 51
89.999
  0
ARC
  5
1BC1
330
1191
100
AcDbEntity
  8
0
100
AcDbCircle
 10
605.25085
 20
448.614242
 30
0.0
 40
2.5
100
AcDbArc
 50
180.0
 51
270.0
  0
LINE
  5
1BC2
330
1191
100
AcDbEntity
  8
0
100
AcDbLine
 10
623.2998499999999
 20
458.9272419999999
 30
0.0
 11
623.3008499999999
 21
465.301242
 31
0.0
  0
LINE
  5
1BC3
330
1191
100
AcDbEntity
  8
0
100
AcDbLine
 10
602.75085
 20
454.1142419999999
 30
0.0
 11
602.75085
 21
448.614242
 31
0.0
  0
LINE
  5
1BC4
330
1191
100
AcDbEntity
  8
0
100
AcDbLine
 10
624.2198499999999
 20
458.395242
 30
0.0
 11
623.30185
 21
458.925242
 31
0.0
  0
LINE
  5
1BC5
330
1191
100
AcDbEntity
  8
0
100
AcDbLine
 10
624.21785
 20
465.832242
 30
0.0
 11
623.30185
 21
465.303242
 31
0.0
  0
LINE
  5
1BC6
330
1191
100
AcDbEntity
  8
0
100
AcDbLine
 10
637.74985
 20
458.1142419999999
 30
0.0
 11
657.75085
 21
458.1142419999999
 31
0.0
  0
LINE
  5
1BC7
330
1191
100
AcDbEntity
  8
0
100
AcDbLine
 10
639.64185
 20
458.113242
 30
0.0
 11
625.86085
 21
458.1142419999999
 31
0.0
  0
LINE
  5
1BC9
330
1191
100
AcDbEntity
  8
0
100
AcDbLine
 10
637.75085
 20
469.613242
 30
0.0
 11
627.75385
 21
469.613242
 31
0.0
  0
LINE
  5
1BCA
330
1191
100
AcDbEntity
  8
0
100
AcDbLine
 10
636.75085
 20
470.613242
 30
0.0
 11
628.7538500000001
 21
470.6142419999999
 31
0.0
  0
ARC
  5
1BCB
330
1191
100
AcDbEntity
  8
0
100
AcDbCircle
 10
632.75085
 20
472.2892419999999
 30
0.0
 40
14.175
100
AcDbArc
 50
250.525
 51
289.46
  0
LINE
  5
1BCC
330
1191
100
AcDbEntity
  8
0
100
AcDbLine
 10
638.7278499999999
 20
471.263242
 30
0.0
 11
632.75085
 21
471.2642419999999
 31
0.0
  0
LINE
  5
1BCD
330
1191
100
AcDbEntity
  8
0
100
AcDbLine
 10
628.0248499999999
 20
458.9262419999999
 30
0.0
 11
628.02585
 21
465.302242
 31
0.0
  0
LINE
  5
1BCE
330
1191
100
AcDbEntity
  8
0
100
AcDbLine
 10
626.5128499999999
 20
458.382242
 30
0.0
 11
626.5128499999999
 21
458.1142419999999
 31
0.0
  0
LINE
  5
1BCF
330
1191
100
AcDbEntity
  8
0
100
AcDbLine
 10
626.77485
 20
471.2642419999999
 30
0.0
 11
632.75085
 21
471.2642419999999
 31
0.0
  0
LINE
  5
1BD0
330
1191
100
AcDbEntity
  8
4
100
AcDbLine
 10
628.75085
 20
465.5382419999999
 30
0.0
 11
628.75085
 21
470.611242
 31
0.0
  0
LINE
  5
1BD1
330
1191
100
AcDbEntity
  8
0
100
AcDbLine
 10
627.75185
 20
469.614242
 30
0.0
 11
628.75185
 21
470.6142419999999
 31
0.0
  0
LINE
  5
1BD2
330
1191
100
AcDbEntity
  8
0
100
AcDbLine
 10
627.75085
 20
466.114242
 30
0.0
 11
627.75085
 21
469.612242
 31
0.0
  0
LINE
  5
1BD3
330
1191
100
AcDbEntity
  8
0
100
AcDbLine
 10
626.77485
 20
466.930242
 30
0.0
 11
626.77485
 21
471.2642419999999
 31
0.0
  0
LINE
  5
1BD4
330
1191
100
AcDbEntity
  8
0
100
AcDbLine
 10
637.4748499999999
 20
458.925242
 30
0.0
 11
637.47585
 21
465.301242
 31
0.0
  0
LINE
  5
1BD5
330
1191
100
AcDbEntity
  8
0
100
AcDbLine
 10
642.1998499999999
 20
458.925242
 30
0.0
 11
642.2008499999999
 21
465.301242
 31
0.0
  0
LINE
  5
1BD6
330
1191
100
AcDbEntity
  8
0
100
AcDbLine
 10
643.00585
 20
458.883242
 30
0.0
 11
643.0068499999999
 21
466.9292419999999
 31
0.0
  0
LINE
  5
1BD7
330
1191
100
AcDbEntity
  8
0
100
AcDbLine
 10
642.19885
 20
458.9242419999999
 30
0.0
 11
641.2858499999999
 21
458.397242
 31
0.0
  0
ARC
  5
1BD8
330
1191
100
AcDbEntity
  8
0
100
AcDbCircle
 10
639.8378499999999
 20
461.961242
 30
0.0
 40
3.846999999999999
100
AcDbArc
 50
232.13
 51
292.11
  0
ARC
  5
1BD9
330
1191
100
AcDbEntity
  8
0
100
AcDbCircle
 10
639.8378499999999
 20
462.265242
 30
0.0
 40
3.848
100
AcDbArc
 50
60.0
 51
127.859
  0
LINE
  5
1BDA
330
1191
100
AcDbEntity
  8
0
100
AcDbLine
 10
642.19885
 20
465.303242
 30
0.0
 11
641.28885
 21
465.8292419999999
 31
0.0
  0
LINE
  5
1BDB
330
1191
100
AcDbEntity
  8
0
100
AcDbLine
 10
643.0068499999999
 20
466.9292419999999
 30
0.0
 11
638.7278499999999
 21
466.9292419999999
 31
0.0
  0
LINE
  5
1BDC
330
1191
100
AcDbEntity
  8
4
100
AcDbLine
 10
636.74985
 20
466.113242
 30
0.0
 11
636.75085
 21
470.611242
 31
0.0
  0
LINE
  5
1BDD
330
1191
100
AcDbEntity
  8
0
100
AcDbLine
 10
637.74985
 20
466.113242
 30
0.0
 11
637.75085
 21
469.611242
 31
0.0
  0
LINE
  5
1BDE
330
1191
100
AcDbEntity
  8
0
100
AcDbLine
 10
638.7278499999999
 20
466.9292419999999
 30
0.0
 11
638.7278499999999
 21
471.263242
 31
0.0
  0
LINE
  5
1BDF
330
1191
100
AcDbEntity
  8
0
100
AcDbLine
 10
637.74985
 20
469.613242
 30
0.0
 11
636.74985
 21
470.613242
 31
0.0
  0
ARC
  5
1BE0
330
1191
100
AcDbEntity
  8
0
100
AcDbCircle
 10
657.75085
 20
448.614242
 30
0.0
 40
2.5
100
AcDbArc
 50
270.0
 51
0.0
  0
LINE
  5
1BE1
330
1191
100
AcDbEntity
  8
0
100
AcDbLine
 10
660.2508499999999
 20
455.6142419999999
 30
0.0
 11
660.2508499999999
 21
448.614242
 31
0.0
  0
ARC
  5
1BE2
330
1191
100
AcDbEntity
  8
0
100
AcDbCircle
 10
657.75085
 20
455.6142419999999
 30
0.0
 40
2.5
100
AcDbArc
 50
0.0
 51
90.0
  0
LINE
  5
1BE3
330
1191
100
AcDbEntity
  8
0
100
AcDbLine
 10
627.75085
 20
441.114242
 30
0.0
 11
627.75085
 21
446.1142419999999
 31
0.0
  0
LINE
  5
1BE4
330
1191
100
AcDbEntity
  8
4
100
AcDbLine
 10
628.75085
 20
441.114242
 30
0.0
 11
628.75085
 21
446.1142419999999
 31
0.0
  0
LINE
  5
1BE5
330
1191
100
AcDbEntity
  8
4
100
AcDbLine
 10
636.75085
 20
441.114242
 30
0.0
 11
636.75085
 21
446.1142419999999
 31
0.0
  0
LINE
  5
1BE6
330
1191
100
AcDbEntity
  8
0
100
AcDbLine
 10
637.75085
 20
441.114242
 30
0.0
 11
637.75085
 21
446.1142419999999
 31
0.0
  0
LINE
  5
1BE7
330
1191
100
AcDbEntity
  8
0
100
AcDbLine
 10
332.75085
 20
441.114242
 30
0.0
 11
332.75085
 21
446.1142419999999
 31
0.0
  0
LINE
  5
1BE8
330
1191
100
AcDbEntity
  8
4
100
AcDbLine
 10
333.75085
 20
441.114242
 30
0.0
 11
333.75085
 21
446.1142419999999
 31
0.0
  0
LINE
  5
1BE9
330
1191
100
AcDbEntity
  8
4
100
AcDbLine
 10
341.75085
 20
441.114242
 30
0.0
 11
341.75085
 21
446.1142419999999
 31
0.0
  0
LINE
  5
1BEA
330
1191
100
AcDbEntity
  8
0
100
AcDbLine
 10
342.75085
 20
441.114242
 30
0.0
 11
342.75085
 21
446.1142419999999
 31
0.0
  0
ENDSEC
  0
SECTION
  2
OBJECTS
  0
DICTIONARY
  5
1185
330
0
100
AcDbDictionary
281
     1
  3
ACAD_COLOR
350
1C13
  3
ACAD_GROUP
350
1186
  3
ACAD_LAYOUT
350
1C16
  3
ACAD_MATERIAL
350
1C12
  3
ACAD_MLINESTYLE
350
1194
  3
ACAD_PLOTSETTINGS
350
1C17
  3
ACAD_PLOTSTYLENAME
350
1C10
  3
ACAD_TABLESTYLE
350
1C14
  3
ACDBHEADERROUNDTRIPXREC
350
1CF7
  3
AcDbVariableDictionary
350
1CEA
  3
AcmDictionary
350
1C75
  3
AMG
350
1C1B
  3
AMGSNAPSETTINGS
350
1CE2
  3
GENBLK
350
1581
  0
DICTIONARY
  5
1C13
102
{ACAD_REACTORS
330
1185
102
}
330
1185
100
AcDbDictionary
281
     1
  0
DICTIONARY
  5
1186
102
{ACAD_REACTORS
330
1185
102
}
330
1185
100
AcDbDictionary
281
     1
  0
DICTIONARY
  5
1C16
102
{ACAD_REACTORS
330
1185
102
}
330
1185
100
AcDbDictionary
281
     1
  3
Layout1
350
1C19
  3
Model
350
1C18
  0
DICTIONARY
  5
1C12
102
{ACAD_REACTORS
330
1185
102
}
330
1185
100
AcDbDictionary
281
     1
  0
DICTIONARY
  5
1194
102
{ACAD_REACTORS
330
1185
102
}
330
1185
100
AcDbDictionary
281
     1
  3
STANDARD
350
1195
  0
DICTIONARY
  5
1C17
102
{ACAD_REACTORS
330
1185
102
}
330
1185
100
AcDbDictionary
281
     1
  0
ACDBDICTIONARYWDFLT
  5
1C10
102
{ACAD_REACTORS
330
1185
102
}
330
1185
100
AcDbDictionary
281
     1
  3
Normal
350
1C11
100
AcDbDictionaryWithDefault
340
1C11
  0
DICTIONARY
  5
1C14
102
{ACAD_REACTORS
330
1185
102
}
330
1185
100
AcDbDictionary
281
     1
  3
Standard
350
1C15
  0
DICTIONARY
  5
1CF7
102
{ACAD_REACTORS
330
1185
102
}
330
1185
100
AcDbDictionary
281
     1
  0
DICTIONARY
  5
1CEA
102
{ACAD_REACTORS
330
1185
102
}
330
1185
100
AcDbDictionary
281
     1
  3
CTABLESTYLE
350
1CEB
  3
DIMASSOC
350
1CF4
  3
PROJECTNAME
350
1CF5
  0
DICTIONARY
  5
1C75
102
{ACAD_REACTORS
330
1185
102
}
330
1185
100
AcDbDictionary
281
     1
  3
AcmStdDictionary
350
1C80
  3
AMDTSECTSYM_ARROWCOLOR
350
1CA3
  0
DICTIONARY
  5
1C1B
102
{ACAD_REACTORS
330
1185
102
}
330
1185
100
AcDbDictionary
281
     1
  0
DICTIONARY
  5
1CE2
102
{ACAD_REACTORS
330
1185
102
}
330
1185
100
AcDbDictionary
281
     1
  0
DICTIONARY
  5
1581
102
{ACAD_REACTORS
330
1185
102
}
330
1185
100
AcDbDictionary
281
     1
  3
0
350
1582
  0
LAYOUT
  5
1C19
102
{ACAD_XDICTIONARY
360
1CFA
102
}
102
{ACAD_REACTORS
330
1C16
102
}
330
1C16
100
AcDbPlotSettings
  1

  2
Xerox Document Centre CS50 PS
  4

  6

 40
0.0
 41
0.0
 42
0.0
 43
0.0
 44
0.0
 45
0.0
 46
0.0
 47
0.0
 48
0.0
 49
0.0
140
0.0
141
0.0
142
1.0
143
1.0
 70
   688
 72
     0
 73
     0
 74
     5
  7

 75
    16
147
1.0
148
0.0
149
0.0
100
AcDbLayout
  1
Layout1
 70
     1
 71
     1
 10
0.0
 20
0.0
 11
209.9
 21
296.9
 12
0.0
 22
0.0
 32
0.0
 14
0.0
 24
0.0
 34
0.0
 15
209.9
 25
296.9
 35
0.0
146
0.0
 13
0.0
 23
0.0
 33
0.0
 16
1.0
 26
0.0
 36
0.0
 17
0.0
 27
1.0
 37
0.0
 76
     0
330
118E
  0
LAYOUT
  5
1C18
102
{ACAD_XDICTIONARY
360
1CF8
102
}
102
{ACAD_REACTORS
330
1C16
102
}
330
1C16
100
AcDbPlotSettings
  1

  2
Xerox Document Centre CS50 PS
  4

  6

 40
0.0
 41
0.0
 42
0.0
 43
0.0
 44
0.0
 45
0.0
 46
0.0
 47
0.0
 48
0.0
 49
0.0
140
0.0
141
0.0
142
1.0
143
1.0
 70
  1712
 72
     0
 73
     0
 74
     0
  7

 75
     0
147
1.0
148
0.0
149
0.0
100
AcDbLayout
  1
Model
 70
     1
 71
     0
 10
0.0
 20
0.0
 11
12.0
 21
9.0
 12
0.0
 22
0.0
 32
0.0
 14
0.0
 24
0.0
 34
0.0
 15
0.0
 25
0.0
 35
0.0
146
0.0
 13
0.0
 23
0.0
 33
0.0
 16
1.0
 26
0.0
 36
0.0
 17
0.0
 27
1.0
 37
0.0
 76
     0
330
1191
  0
MLINESTYLE
  5
1195
102
{ACAD_REACTORS
330
1194
102
}
330
1194
100
AcDbMlineStyle
  2
STANDARD
 70
     0
  3

 62
   256
 51
90.0
 52
90.0
 71
     2
 49
0.5
 62
   256
  6
BYLAYER
 49
-0.5
 62
   256
  6
BYLAYER
  0
ACDBPLACEHOLDER
  5
1C11
102
{ACAD_REACTORS
330
1C10
102
}
330
1C10
  0
TABLESTYLE
  5
1C15
102
{ACAD_REACTORS
330
1C14
102
}
330
1C14
100
AcDbTableStyle
  3
Standard
 70
     0
 71
     0
 40
1.5
 41
1.5
280
     0
281
     0
  7
STANDARD
140
4.5
170
     2
 62
     0
 63
     7
283
     0
274
    -2
284
     1
 64
     0
275
    -2
285
     1
 65
     0
276
    -2
286
     1
 66
     0
277
    -2
287
     1
 67
     0
278
    -2
288
     1
 68
     0
279
    -2
289
     1
 69
     0
  7
STANDARD
140
6.0
170
     5
 62
     0
 63
     7
283
     0
274
    -2
284
     1
 64
     0
275
    -2
285
     1
 65
     0
276
    -2
286
     1
 66
     0
277
    -2
287
     1
 67
     0
278
    -2
288
     1
 68
     0
279
    -2
289
     1
 69
     0
  7
STANDARD
140
4.5
170
     5
 62
     0
 63
     7
283
     0
274
    -2
284
     1
 64
     0
275
    -2
285
     1
 65
     0
276
    -2
286
     1
 66
     0
277
    -2
287
     1
 67
     0
278
    -2
288
     1
 68
     0
279
    -2
289
     1
 69
     0
  0
DICTIONARYVAR
  5
1CEB
102
{ACAD_REACTORS
330
1CEA
102
}
330
1CEA
100
DictionaryVariables
280
     0
  1
STANDARD
  0
DICTIONARYVAR
  5
1CF4
102
{ACAD_REACTORS
330
1CEA
102
}
330
1CEA
100
DictionaryVariables
280
     0
  1
1
  0
DICTIONARYVAR
  5
1CF5
102
{ACAD_REACTORS
330
1CEA
102
}
330
1CEA
100
DictionaryVariables
280
     0
  1

  0
DICTIONARY
  5
1C80
102
{ACAD_REACTORS
330
1C75
102
}
330
1C75
100
AcDbDictionary
281
     1
  0
XRECORD
  5
1CA3
102
{ACAD_REACTORS
330
1C75
102
}
330
1C75
100
AcDbXrecord
280
     1
 90
-1023410169
  0
XRECORD
  5
1582
102
{ACAD_REACTORS
330
1581
102
}
330
1581
100
AcDbXrecord
280
     1
  1
Time
 90
964085963
  1
Levels
 70
     0
  0
DICTIONARY
  5
1CFA
330
1C19
100
AcDbDictionary
280
     1
281
     1
  3
ACAD_XREC_ROUNDTRIP
360
1CFB
  0
DICTIONARY
  5
1CF8
330
1C18
100
AcDbDictionary
280
     1
281
     1
  3
ACAD_XREC_ROUNDTRIP
360
1CF9
  0
XRECORD
  5
1CFB
102
{ACAD_REACTORS
330
1CFA
102
}
330
1CFA
100
AcDbXrecord
280
     1
102
SHADEPLOT
 70
     0
102
SHADEPLOTRESLEVEL
 70
     2
102
SHADEPLOTCUSTOMDPI
 70
   300
  0
XRECORD
  5
1CF9
102
{ACAD_REACTORS
330
1CF8
102
}
330
1CF8
100
AcDbXrecord
280
     1
102
SHADEPLOT
 70
     0
102
SHADEPLOTRESLEVEL
 70
     2
102
SHADEPLOTCUSTOMDPI
 70
   300
  0
ENDSEC
  0
EOF
