  0
SECTION
  2
HEADER
  9
$ACADVER
  1
AC1015
  9
$ACADMAINTVER
 70
    20
  9
$DWGCODEPAGE
  3
ANSI_1252
  9
$INSBASE
 10
0.0
 20
0.0
 30
0.0
  9
$EXTMIN
 10
91.69235484638738
 20
100.0236536842112
 30
-0.0000000698494069
  9
$EXTMAX
 10
826.4488242059583
 20
494.8791521891007
 30
0.0000000465733773
  9
$LIMMIN
 10
0.0
 20
0.0
  9
$LIMMAX
 10
1050.0
 20
1050.0
  9
$ORTHOMODE
 70
     0
  9
$REGENMODE
 70
     1
  9
$FILLMODE
 70
     1
  9
$QTEXTMODE
 70
     0
  9
$MIRRTEXT
 70
     0
  9
$LTSCALE
 40
5.0
  9
$ATTMODE
 70
     1
  9
$TEXTSIZE
 40
17.5
  9
$TRACEWID
 40
0.05
  9
$TEXTSTYLE
  7
STANDARD
  9
$CLAYER
  8
0
  9
$CELTYPE
  6
BYLAYER
  9
$CECOLOR
 62
   256
  9
$CELTSCALE
 40
1.0
  9
$DISPSILH
 70
     0
  9
$DIMSCALE
 40
5.0
  9
$DIMASZ
 40
2.5
  9
$DIMEXO
 40
1.0
  9
$DIMDLI
 40
7.0
  9
$DIMRND
 40
0.0
  9
$DIMDLE
 40
0.0
  9
$DIMEXE
 40
1.0
  9
$DIMTP
 40
0.1
  9
$DIMTM
 40
0.1
  9
$DIMTXT
 40
3.5
  9
$DIMCEN
 40
0.0
  9
$DIMTSZ
 40
0.0
  9
$DIMTOL
 70
     0
  9
$DIMLIM
 70
     0
  9
$DIMTIH
 70
     0
  9
$DIMTOH
 70
     0
  9
$DIMSE1
 70
     0
  9
$DIMSE2
 70
     0
  9
$DIMTAD
 70
     1
  9
$DIMZIN
 70
    12
  9
$DIMBLK
  1

  9
$DIMASO
 70
     1
  9
$DIMSHO
 70
     1
  9
$DIMPOST
  1

  9
$DIMAPOST
  1
"
  9
$DIMALT
 70
     0
  9
$DIMALTD
 70
     2
  9
$DIMALTF
 40
0.03937
  9
$DIMLFAC
 40
1.0
  9
$DIMTOFL
 70
     1
  9
$DIMTVP
 40
0.0
  9
$DIMTIX
 70
     0
  9
$DIMSOXD
 70
     0
  9
$DIMSAH
 70
     0
  9
$DIMBLK1
  1

  9
$DIMBLK2
  1

  9
$DIMSTYLE
  2
GEN-ISO
  9
$DIMCLRD
 70
   256
  9
$DIMCLRE
 70
   256
  9
$DIMCLRT
 70
     2
  9
$DIMTFAC
 40
0.71
  9
$DIMGAP
 40
0.6
  9
$DIMJUST
 70
     0
  9
$DIMSD1
 70
     0
  9
$DIMSD2
 70
     0
  9
$DIMTOLJ
 70
     0
  9
$DIMTZIN
 70
     0
  9
$DIMALTZ
 70
     0
  9
$DIMALTTZ
 70
     0
  9
$DIMUPT
 70
     0
  9
$DIMDEC
 70
     2
  9
$DIMTDEC
 70
     3
  9
$DIMALTU
 70
     2
  9
$DIMALTTD
 70
     4
  9
$DIMTXSTY
  7
STANDARD
  9
$DIMAUNIT
 70
     0
  9
$DIMADEC
 70
     0
  9
$DIMALTRND
 40
0.0
  9
$DIMAZIN
 70
     0
  9
$DIMDSEP
 70
    46
  9
$DIMATFIT
 70
     3
  9
$DIMFRAC
 70
     0
  9
$DIMLDRBLK
  1

  9
$DIMLUNIT
 70
     2
  9
$DIMLWD
 70
    -2
  9
$DIMLWE
 70
    -2
  9
$DIMTMOVE
 70
     0
  9
$LUNITS
 70
     2
  9
$LUPREC
 70
     2
  9
$SKETCHINC
 40
0.1
  9
$FILLETRAD
 40
12.5
  9
$AUNITS
 70
     0
  9
$AUPREC
 70
     2
  9
$MENU
  1
.
  9
$ELEVATION
 40
0.0
  9
$PELEVATION
 40
0.0
  9
$THICKNESS
 40
0.0
  9
$LIMCHECK
 70
     0
  9
$CHAMFERA
 40
12.5
  9
$CHAMFERB
 40
12.5
  9
$CHAMFERC
 40
0.0
  9
$CHAMFERD
 40
0.0
  9
$SKPOLY
 70
     0
  9
$TDCREATE
 40
2451226.634298866
  9
$TDUCREATE
 40
2451226.592632199
  9
$TDUPDATE
 40
2454038.561463866
  9
$TDUUPDATE
 40
2454038.519797199
  9
$TDINDWG
 40
0.0073671875
  9
$TDUSRTIMER
 40
0.0073669560
  9
$USRTIMER
 70
     1
  9
$ANGBASE
 50
0.0
  9
$ANGDIR
 70
     0
  9
$PDMODE
 70
     0
  9
$PDSIZE
 40
0.0
  9
$PLINEWID
 40
0.0
  9
$SPLFRAME
 70
     0
  9
$SPLINETYPE
 70
     6
  9
$SPLINESEGS
 70
     8
  9
$HANDSEED
  5
17BB
  9
$SURFTAB1
 70
     6
  9
$SURFTAB2
 70
     6
  9
$SURFTYPE
 70
     6
  9
$SURFU
 70
     6
  9
$SURFV
 70
     6
  9
$UCSBASE
  2

  9
$UCSNAME
  2

  9
$UCSORG
 10
0.0
 20
0.0
 30
0.0
  9
$UCSXDIR
 10
1.0
 20
0.0
 30
0.0
  9
$UCSYDIR
 10
0.0
 20
1.0
 30
0.0
  9
$UCSORTHOREF
  2

  9
$UCSORTHOVIEW
 70
     0
  9
$UCSORGTOP
 10
0.0
 20
0.0
 30
0.0
  9
$UCSORGBOTTOM
 10
0.0
 20
0.0
 30
0.0
  9
$UCSORGLEFT
 10
0.0
 20
0.0
 30
0.0
  9
$UCSORGRIGHT
 10
0.0
 20
0.0
 30
0.0
  9
$UCSORGFRONT
 10
0.0
 20
0.0
 30
0.0
  9
$UCSORGBACK
 10
0.0
 20
0.0
 30
0.0
  9
$PUCSBASE
  2

  9
$PUCSNAME
  2

  9
$PUCSORG
 10
0.0
 20
0.0
 30
0.0
  9
$PUCSXDIR
 10
1.0
 20
0.0
 30
0.0
  9
$PUCSYDIR
 10
0.0
 20
1.0
 30
0.0
  9
$PUCSORTHOREF
  2

  9
$PUCSORTHOVIEW
 70
     0
  9
$PUCSORGTOP
 10
0.0
 20
0.0
 30
0.0
  9
$PUCSORGBOTTOM
 10
0.0
 20
0.0
 30
0.0
  9
$PUCSORGLEFT
 10
0.0
 20
0.0
 30
0.0
  9
$PUCSORGRIGHT
 10
0.0
 20
0.0
 30
0.0
  9
$PUCSORGFRONT
 10
0.0
 20
0.0
 30
0.0
  9
$PUCSORGBACK
 10
0.0
 20
0.0
 30
0.0
  9
$USERI1
 70
     0
  9
$USERI2
 70
     0
  9
$USERI3
 70
     0
  9
$USERI4
 70
     0
  9
$USERI5
 70
     0
  9
$USERR1
 40
0.0
  9
$USERR2
 40
0.0
  9
$USERR3
 40
0.0
  9
$USERR4
 40
0.0
  9
$USERR5
 40
0.0
  9
$WORLDVIEW
 70
     1
  9
$SHADEDGE
 70
     3
  9
$SHADEDIF
 70
    70
  9
$TILEMODE
 70
     1
  9
$MAXACTVP
 70
    48
  9
$PINSBASE
 10
0.0
 20
0.0
 30
0.0
  9
$PLIMCHECK
 70
     0
  9
$PEXTMIN
 10
0.0
 20
0.0
 30
0.0
  9
$PEXTMAX
 10
210.001
 20
297.001
 30
0.0
  9
$PLIMMIN
 10
0.0
 20
0.0
  9
$PLIMMAX
 10
210.001
 20
297.001
  9
$UNITMODE
 70
     0
  9
$VISRETAIN
 70
     1
  9
$PLINEGEN
 70
     1
  9
$PSLTSCALE
 70
     1
  9
$TREEDEPTH
 70
 -3020
  9
$CMLSTYLE
  2
STANDARD
  9
$CMLJUST
 70
     0
  9
$CMLSCALE
 40
1.0
  9
$PROXYGRAPHICS
 70
     1
  9
$MEASUREMENT
 70
     1
  9
$CELWEIGHT
370
    -1
  9
$ENDCAPS
280
     0
  9
$JOINSTYLE
280
     0
  9
$LWDISPLAY
290
     0
  9
$INSUNITS
 70
     0
  9
$HYPERLINKBASE
  1

  9
$STYLESHEET
  1

  9
$XEDIT
290
     1
  9
$CEPSNTYPE
380
     0
  9
$PSTYLEMODE
290
     1
  9
$FINGERPRINTGUID
  2
{9876A36F-8C43-49F4-AF6F-D7563D59CBD6}
  9
$VERSIONGUID
  2
{B3C637DF-5B01-4C3E-8FBE-BC2ABA6A7144}
  9
$EXTNAMES
290
     1
  9
$PSVPSCALE
 40
0.0
  9
$OLESTARTUP
290
     0
  0
ENDSEC
  0
SECTION
  2
CLASSES
  0
CLASS
  1
ACDBDICTIONARYWDFLT
  2
AcDbDictionaryWithDefault
  3
ObjectDBX Classes
 90
        0
280
     0
281
     0
  0
CLASS
  1
TABLESTYLE
  2
AcDbTableStyle
  3
ObjectDBX Classes
 90
     2047
280
     0
281
     0
  0
CLASS
  1
AMGSETTINGSOBJ
  2
AmgSettingsObj
  3
"AcadM|Product Description: AutoCAD Mechanical 2000|Company: Autodesk"
 90
        0
280
     0
281
     0
  0
CLASS
  1
ACME_DOCUMENT
  2
AcMeDbDoc
  3
AcMeServices
 90
        0
280
     0
281
     0
  0
CLASS
  1
ACMESCOPE
  2
AcMeScope
  3
AcMeServices
 90
        0
280
     0
281
     0
  0
CLASS
  1
ACMECOMMANDHISTORY
  2
AcMeCommandHistory
  3
AcMeServices
 90
        0
280
     0
281
     0
  0
CLASS
  1
ACIMSYSVARMAN
  2
AcImSysVarManager
  3
AcMeServices
 90
        0
280
     0
281
     0
  0
CLASS
  1
ACIMINTSYSVAR
  2
AcImIntSysVar
  3
AcMeServices
 90
        0
280
     0
281
     0
  0
CLASS
  1
ACMEDRAWINGMAN
  2
AcMeDrawingMan
  3
AcMeServices
 90
        0
280
     0
281
     0
  0
CLASS
  1
ACMEVIEW
  2
AcMeView
  3
AcMeServices
 90
        0
280
     0
281
     0
  0
CLASS
  1
ACDBENTITYCACHE
  2
AcMeEntityCache
  3
AcMeServices
 90
        0
280
     0
281
     0
  0
CLASS
  1
GSMANAGER
  2
AcMeGSManager
  3
AcMeServices
 90
        0
280
     0
281
     0
  0
CLASS
  1
AMDTINTERNALREACTOR
  2
AmdtInternalReactor
  3
AcMeServices
 90
        0
280
     0
281
     0
  0
CLASS
  1
ACMESTATEMGR
  2
AcMeStateMgr
  3
AcMeServices
 90
        0
280
     0
281
     0
  0
CLASS
  1
ACGREFMASTER
  2
AcGrefMaster
  3
AcAttribServices
 90
        0
280
     0
281
     0
  0
CLASS
  1
AM_DRAWING_MGR
  2
AcDmDwgMgr
  3
AcMechDwgViewMgmt
 90
        0
280
     0
281
     0
  0
CLASS
  1
AM_DWG_DOCUMENT
  2
AcDmDwgDocument
  3
AcMechDwgViewMgmt
 90
        0
280
     0
281
     0
  0
CLASS
  1
AM_DWG_SHEET
  2
AcDmSheet
  3
AcMechDwgViewMgmt
 90
        0
280
     0
281
     0
  0
CLASS
  1
AM_VIEWDIMPARMAP
  2
AcDmViewDimParMap
  3
AcMechDwgViewMgmt
 90
        0
280
     0
281
     0
  0
CLASS
  1
ACIMREALSYSVAR
  2
AcImRealSysVar
  3
AcMeServices
 90
        0
280
     0
281
     0
  0
CLASS
  1
AM_DWGMGR_NAME
  2
AcDmDwgMgrName
  3
AcMechDwgViewMgmt
 90
        0
280
     0
281
     0
  0
CLASS
  1
ACME_DATABASE
  2
AcMeDbDatabase
  3
AcMeServices
 90
        0
280
     0
281
     0
  0
CLASS
  1
ACRFINSADJUSTERMGR
  2
AcRfInsAdjusterMgr
  3
AcMeServices
 90
        0
280
     0
281
     0
  0
CLASS
  1
ACGREFACADMASTER
  2
AcGrefacadMaster
  3
AcGrefServices
 90
        0
280
     0
281
     0
  0
CLASS
  1
AMDTMENUSTATEMGR
  2
AmdtMenuStateMgr
  3
McadcomServices
 90
        0
280
     0
281
     0
  0
CLASS
  1
AMDTMCOMMENUSTATE
  2
AmdtMcomMenuState
  3
McadcomServices
 90
        0
280
     0
281
     0
  0
CLASS
  1
AMIMASTER
  2
AmiMaster
  3
AmiServices
 90
        0
280
     0
281
     0
  0
CLASS
  1
MAPIAMMOUDLE
  2
MApiAmModule
  3
MApiAmServices
 90
        0
280
     0
281
     0
  0
CLASS
  1
ACIMSTRSYSVAR
  2
AcImStrSysVar
  3
AcMeServices
 90
        0
280
     0
281
     0
  0
CLASS
  1
AMDTADMENUSTATE
  2
AmdtAdMenuState
  3
DesignerServices
 90
        0
280
     0
281
     0
  0
CLASS
  1
ADAPPL
  2
AcAdAppl
  3
DesignerServices
 90
        0
280
     0
281
     0
  0
CLASS
  1
DEPMGR
  2
AcAdDepMgr
  3
DesignerServices
 90
        0
280
     0
281
     0
  0
CLASS
  1
PARAMMGR
  2
AcAdParamMgr
  3
DesignerServices
 90
        0
280
     0
281
     0
  0
CLASS
  1
PARAMSCOPE
  2
AcAdParamScope
  3
DesignerServices
 90
        0
280
     0
281
     0
  0
CLASS
  1
NAMEDAPPL
  2
AcAdNamedAppl
  3
DesignerServices
 90
        0
280
     0
281
     0
  0
CLASS
  1
AMDTDMMENUSTATE
  2
AmdtDmMenuState
  3
AcMechDwgViewMgmt
 90
        0
280
     0
281
     0
  0
CLASS
  1
AMDTAMMENUSTATE
  2
AmdtAmMenuState
  3
DesignerAssemblies
 90
        0
280
     0
281
     0
  0
CLASS
  1
ACAMPROJECT
  2
AcAmProject
  3
DesignerAssemblies
 90
        0
280
     0
281
     0
  0
CLASS
  1
ACAMGRCOMPDEF
  2
AcAmGrCompDef
  3
DesignerAssemblies
 90
        0
280
     0
281
     0
  0
CLASS
  1
ACCMCONTEXT
  2
AcCmContext
  3
DesignerAssemblies
 90
        0
280
     0
281
     0
  0
CLASS
  1
ACAMCOMPDEF
  2
AcAmCompDef
  3
DesignerAssemblies
 90
        0
280
     0
281
     0
  0
CLASS
  1
ACAMCOMPDEFMGR
  2
AcAmCompDefMgr
  3
DesignerAssemblies
 90
        0
280
     0
281
     0
  0
CLASS
  1
AMCONTEXTMGR
  2
AcAmContextMgr
  3
DesignerAssemblies
 90
        0
280
     0
281
     0
  0
CLASS
  1
ACAMCONTEXTMODELER
  2
AcAmContextModeler
  3
DesignerAssemblies
 90
        0
280
     0
281
     0
  0
CLASS
  1
ACMDATADICTIONARY
  2
AcmDataDictionary
  3
"AcmSymBB|Product Description: AutoCAD Mechanical 2004 DX|Company: Autodesk"
 90
        0
280
     0
281
     0
  0
CLASS
  1
CATALOGSTATE
  2
AcAmCatalogState
  3
DesignerAssemblies
 90
        0
280
     0
281
     0
  0
CLASS
  1
ACAMGRCOMPDEFSET
  2
AcAmGrCompDefSet
  3
DesignerAssemblies
 90
        0
280
     0
281
     0
  0
CLASS
  1
AMDTBROWSERDBTAB
  2
AmdtBrowserDbTab
  3
McadcomServices
 90
        0
280
     0
281
     0
  0
CLASS
  1
CBROWSERAPPOBJECT
  2
CBrowserAppObject
  3
McadcomServices
 90
        0
280
     0
281
     0
  0
CLASS
  1
DM_PLACEHOLDER
  2
AcDmSelsetPlaceholder
  3
AcMechDwgViewMgmt
 90
        0
280
     0
281
     0
  0
CLASS
  1
ACMSTANDARDDIN
  2
AcmStandardDIN
  3
"Amdt_StdImp|Product Description: AutoCAD Mechanical 2004 DX|Company: Autodesk"
 90
        0
280
     0
281
     0
  0
CLASS
  1
AMGOBJPROPCFG
  2
AmgObjPropCfg
  3
"AmgLay|Product Description: AutoCAD Mechanical 2000|Company: Autodesk"
 90
        1
280
     0
281
     0
  0
CLASS
  1
AMDTEDGESTANDARDDIN13715
  2
AmdtEdgeStdDIN13715
  3
"Amdt_StdImp|Product Description: AutoCAD Mechanical 2004 DX|Company: Autodesk"
 90
        0
280
     0
281
     0
  0
CLASS
  1
ACMSURFSTANDARDDIN
  2
AcmSurfTextStdDIN
  3
"Amdt_StdImp|Product Description: AutoCAD Mechanical 2004 DX|Company: Autodesk"
 90
        0
280
     0
281
     0
  0
CLASS
  1
ACMFCFSTANDARDDIN
  2
AcmFCFStdDIN
  3
"Amdt_StdImp|Product Description: AutoCAD Mechanical 2004 DX|Company: Autodesk"
 90
        0
280
     0
281
     0
  0
CLASS
  1
ACMWELDSTANDARDDIN
  2
AcmWeldingStdDIN
  3
"Amdt_StdImp|Product Description: AutoCAD Mechanical 2004 DX|Company: Autodesk"
 90
        0
280
     0
281
     0
  0
CLASS
  1
ACMIDSTANDARDDIN
  2
AcmIdStdDIN
  3
"Amdt_StdImp|Product Description: AutoCAD Mechanical 2004 DX|Company: Autodesk"
 90
        0
280
     0
281
     0
  0
CLASS
  1
ACMDATUMSTANDARDDIN
  2
AcmDatumStdDIN
  3
"Amdt_StdImp|Product Description: AutoCAD Mechanical 2004 DX|Company: Autodesk"
 90
        0
280
     0
281
     0
  0
CLASS
  1
ACMBOMSTANDARDDIN
  2
AcmBOMStdDIN
  3
"Amdt_StdImp|Product Description: AutoCAD Mechanical 2004 DX|Company: Autodesk"
 90
        0
280
     0
281
     0
  0
CLASS
  1
ACMDETAILSTANDARDDIN
  2
AmdtDetailSymStdDIN
  3
"Amdt_StdImp|Product Description: AutoCAD Mechanical 2004 DX|Company: Autodesk"
 90
        0
280
     0
281
     0
  0
CLASS
  1
ACMSECTIONSTANDARDDIN
  2
AmdtSectionSymStdDIN
  3
"Amdt_StdImp|Product Description: AutoCAD Mechanical 2004 DX|Company: Autodesk"
 90
        0
280
     0
281
     0
  0
CLASS
  1
ACMCENTERLINESTANDARDDIN
  2
AmdtCenterLineStdDIN
  3
"Amdt_StdImp|Product Description: AutoCAD Mechanical 2004 DX|Company: Autodesk"
 90
        0
280
     0
281
     0
  0
CLASS
  1
ACMTHREADLINESTANDARDDIN
  2
AmdtThreadLineStdDIN
  3
"Amdt_StdImp|Product Description: AutoCAD Mechanical 2004 DX|Company: Autodesk"
 90
        0
280
     0
281
     0
  0
CLASS
  1
ACMNOTESTANDARDDIN
  2
AmdtNoteStdDIN
  3
"Amdt_StdImp|Product Description: AutoCAD Mechanical 2004 DX|Company: Autodesk"
 90
        0
280
     0
281
     0
  0
CLASS
  1
AMDTNOTETEMPLATEDB
  2
AmdtNoteTemplateDB
  3
AMDT_STDIMP_MODULE_NAME
 90
        0
280
     0
281
     0
  0
CLASS
  1
ACAMGLAYSTD
  2
AcAmgLayStd
  3
"AcAmgLayStd|Product Description: AutoCAD Mechanical 2000|Company: Autodesk"
 90
        0
280
     0
281
     0
  0
CLASS
  1
ACAMGDIMSTD
  2
AcAmgDimStd
  3
"AcAmgDimStd|Product Description: AutoCAD Mechanical 2000|Company: Autodesk"
 90
        0
280
     0
281
     0
  0
CLASS
  1
ACAMGHOLECHARTSTDDIN
  2
AcAmgHoleChartStdDIN
  3
ACMSYMBB_MODULE_NAME
 90
        0
280
     0
281
     0
  0
CLASS
  1
ACAMGTITLESTD
  2
AcAmgTitleStd
  3
"TITLEAPP"
 90
        0
280
     0
281
     0
  0
CLASS
  1
ACAMGFILTERDAT
  2
AcAmgFilterDat
  3
"AcadM|Product Description: AutoCAD Mechanical 2000|Company: Autodesk"
 90
        0
280
     0
281
     0
  0
CLASS
  1
DICTIONARYVAR
  2
AcDbDictionaryVar
  3
ObjectDBX Classes
 90
        0
280
     0
281
     0
  0
CLASS
  1
ACDBPLACEHOLDER
  2
AcDbPlaceHolder
  3
ObjectDBX Classes
 90
        0
280
     0
281
     0
  0
CLASS
  1
LAYOUT
  2
AcDbLayout
  3
ObjectDBX Classes
 90
        0
280
     0
281
     0
  0
ENDSEC
  0
SECTION
  2
TABLES
  0
TABLE
  2
VPORT
  5
143F
330
0
100
AcDbSymbolTable
 70
     4
  0
VPORT
  5
17B5
330
143F
100
AcDbSymbolTableRecord
100
AcDbViewportTableRecord
  2
*Active
 70
     0
 10
0.0
 20
0.0
 11
1.0
 21
1.0
 12
459.0705895261727
 22
297.451402936656
 13
0.0
 23
0.0
 14
5.0
 24
5.0
 15
50.0
 25
50.0
 16
0.0
 26
0.0
 36
1.0
 17
0.0
 27
0.0
 37
0.0
 40
494.0148161737782
 41
1.494545454545454
 42
50.0
 43
0.0
 44
0.0
 50
0.0
 51
0.0
 71
     0
 72
  1000
 73
     1
 74
     1
 75
     0
 76
     0
 77
     0
 78
     0
281
     0
 65
     0
110
0.0
120
0.0
130
0.0
111
1.0
121
0.0
131
0.0
112
0.0
122
1.0
132
0.0
 79
     0
146
0.0
  0
ENDTAB
  0
TABLE
  2
LTYPE
  5
143C
330
0
100
AcDbSymbolTable
 70
    21
  0
LTYPE
  5
1449
330
143C
100
AcDbSymbolTableRecord
100
AcDbLinetypeTableRecord
  2
BYBLOCK
 70
     0
  3

 72
    65
 73
     0
 40
0.0
  0
LTYPE
  5
144A
330
143C
100
AcDbSymbolTableRecord
100
AcDbLinetypeTableRecord
  2
BYLAYER
 70
     0
  3

 72
    65
 73
     0
 40
0.0
  0
LTYPE
  5
144B
330
143C
100
AcDbSymbolTableRecord
100
AcDbLinetypeTableRecord
  2
CONTINUOUS
 70
     0
  3
Solid line
 72
    65
 73
     0
 40
0.0
  0
LTYPE
  5
145A
330
143C
100
AcDbSymbolTableRecord
100
AcDbLinetypeTableRecord
  2
GEN7
 70
     0
  3
____ _ ____ _ ____ _ ____ _ ____ _ ____ _ ____ _ ____ _ ____ _
 72
    65
 73
     4
 40
22.0
 49
10.75
 74
     0
 49
-3.75
 74
     0
 49
3.75
 74
     0
 49
-3.75
 74
     0
  0
LTYPE
  5
1501
330
143C
100
AcDbSymbolTableRecord
100
AcDbLinetypeTableRecord
  2
GEN3A
 70
     0
  3
 - - - - -
 72
    65
 73
     2
 40
3.125
 49
2.25
 74
     0
 49
-0.875
 74
     0
  0
LTYPE
  5
1714
330
143C
100
AcDbSymbolTableRecord
100
AcDbLinetypeTableRecord
  2
HIDDEN
 70
     0
  3
Verdeckt
 72
    65
 73
     2
 40
9.525
 49
6.349999999999999
 74
     0
 49
-3.174999999999999
 74
     0
  0
LTYPE
  5
1715
330
143C
100
AcDbSymbolTableRecord
100
AcDbLinetypeTableRecord
  2
PHANTOM2
 70
     0
  3
Phantom (.5x) ___ _ _ ___ _ _ ___ _ _ ___ _ _
 72
    65
 73
     6
 40
31.75
 49
15.875
 74
     0
 49
-3.174999999999999
 74
     0
 49
3.174999999999999
 74
     0
 49
-3.174999999999999
 74
     0
 49
3.174999999999999
 74
     0
 49
-3.174999999999999
 74
     0
  0
LTYPE
  5
1716
330
143C
100
AcDbSymbolTableRecord
100
AcDbLinetypeTableRecord
  2
CENTER
 70
     0
  3
Mitte ____ _ ____ _ ____ _ ____ _ ____ _ ____
 72
    65
 73
     4
 40
50.8
 49
31.75
 74
     0
 49
-6.349999999999999
 74
     0
 49
6.349999999999999
 74
     0
 49
-6.349999999999999
 74
     0
  0
LTYPE
  5
174D
330
143C
100
AcDbSymbolTableRecord
100
AcDbLinetypeTableRecord
  2
Amconstr
 70
     0
  3
_______________________
 72
    65
 73
     2
 40
9999.0
 49
9999.0
 74
     0
 49
0.0
 74
     0
  0
LTYPE
  5
1752
330
143C
100
AcDbSymbolTableRecord
100
AcDbLinetypeTableRecord
  2
Amzigzag
 70
     0
  3
/\/-/\/-/\/-/\/-/\/-/\/
 72
    65
 73
     2
 40
11.0001
 49
0.0001
 74
     4
 75
   136
340
1751
 46
0.04
 50
0.0
 44
0.0
 45
0.0
 49
-11.0
 74
     0
  0
LTYPE
  5
1753
330
143C
100
AcDbSymbolTableRecord
100
AcDbLinetypeTableRecord
  2
AM_DIN_F_W050
 70
     0
  3
__ __ __ __ __ __ __ __ __ __ __ __ __ __ __
 72
    65
 73
     2
 40
6.25
 49
4.75
 74
     0
 49
-1.5
 74
     0
  0
LTYPE
  5
1754
330
143C
100
AcDbSymbolTableRecord
100
AcDbLinetypeTableRecord
  2
AM_DIN_G_W050
 70
     0
  3
____ . ____ . ____ . ____ . ____ . ____ . ____
 72
    65
 73
     4
 40
13.75
 49
9.75
 74
     0
 49
-1.5
 74
     0
 49
1.0
 74
     0
 49
-1.5
 74
     0
  0
LTYPE
  5
1755
330
143C
100
AcDbSymbolTableRecord
100
AcDbLinetypeTableRecord
  2
AM_DIN_K_W050
 70
     0
  3
_____ . . _____ . . _____ . . ____ .. ____
 72
    65
 73
     6
 40
16.25
 49
9.75
 74
     0
 49
-1.5
 74
     0
 49
1.0
 74
     0
 49
-1.5
 74
     0
 49
1.0
 74
     0
 49
-1.5
 74
     0
  0
LTYPE
  5
1756
330
143C
100
AcDbSymbolTableRecord
100
AcDbLinetypeTableRecord
  2
AM_DIN_G_W050x2
 70
     0
  3
__ . __ . __ . __ . __ . __
 72
    65
 73
     4
 40
6.875
 49
4.75
 74
     0
 49
-0.875
 74
     0
 49
0.375
 74
     0
 49
-0.875
 74
     0
  0
LTYPE
  5
1757
330
143C
100
AcDbSymbolTableRecord
100
AcDbLinetypeTableRecord
  2
AM_DIN_F_W050x2
 70
     0
  3
 _ _ _ _ _ _ _ _ _ _ _ _
 72
    65
 73
     2
 40
3.125
 49
2.25
 74
     0
 49
-0.875
 74
     0
  0
LTYPE
  5
1766
330
143C
100
AcDbSymbolTableRecord
100
AcDbLinetypeTableRecord
  2
ACDINWELD
 70
     0
  3
_ _ _ _ _
 72
    65
 73
     2
 40
2.0
 49
2.0
 74
     0
 49
-1.0
 74
     0
  0
LTYPE
  5
1767
330
143C
100
AcDbSymbolTableRecord
100
AcDbLinetypeTableRecord
  2
ACDINTGB
 70
     0
  3
__ . . __ . .
 72
    65
 73
     6
 40
9.0
 49
4.0
 74
     0
 49
-1.0
 74
     0
 49
1.0
 74
     0
 49
-1.0
 74
     0
 49
1.0
 74
     0
 49
-1.0
 74
     0
  0
LTYPE
  5
1768
330
143C
100
AcDbSymbolTableRecord
100
AcDbLinetypeTableRecord
  2
ACDINTGL
 70
     0
  3
_ _ _ _ _
 72
    65
 73
     2
 40
3.0
 49
2.0
 74
     0
 49
-1.0
 74
     0
  0
ENDTAB
  0
TABLE
  2
LAYER
  5
1439
330
0
100
AcDbSymbolTable
 70
    16
  0
LAYER
  5
1445
330
1439
100
AcDbSymbolTableRecord
100
AcDbLayerTableRecord
  2
0
 70
     0
 62
     7
  6
CONTINUOUS
370
    -3
390
16D8
  0
LAYER
  5
145F
330
1439
100
AcDbSymbolTableRecord
100
AcDbLayerTableRecord
  2
3A
 70
     0
 62
     6
  6
GEN3A
370
    -3
390
16D8
  0
LAYER
  5
1460
330
1439
100
AcDbSymbolTableRecord
100
AcDbLayerTableRecord
  2
4
 70
     0
 62
     3
  6
CONTINUOUS
370
    -3
390
16D8
  0
LAYER
  5
1462
330
1439
100
AcDbSymbolTableRecord
100
AcDbLayerTableRecord
  2
5
 70
     0
 62
     3
  6
CONTINUOUS
370
    -3
390
16D8
  0
LAYER
  5
1464
330
1439
100
AcDbSymbolTableRecord
100
AcDbLayerTableRecord
  2
7
 70
     0
 62
     4
  6
GEN7
370
    -3
390
16D8
  0
LAYER
  5
1465
330
1439
100
AcDbSymbolTableRecord
100
AcDbLayerTableRecord
  2
8
 70
     0
 62
     1
  6
CONTINUOUS
370
    -3
390
16D8
  0
LAYER
  5
1466
330
1439
100
AcDbSymbolTableRecord
100
AcDbLayerTableRecord
  2
PUNKTE
 70
     0
 62
     1
  6
CONTINUOUS
370
    -3
390
16D8
  0
LAYER
  5
1467
330
1439
100
AcDbSymbolTableRecord
100
AcDbLayerTableRecord
  2
SCHRAFFUR_RAND
 70
     1
 62
   -36
  6
CONTINUOUS
370
    -3
390
16D8
  0
LAYER
  5
1498
330
1439
100
AcDbSymbolTableRecord
100
AcDbLayerTableRecord
  2
DEFPOINTS
 70
     0
 62
     7
  6
CONTINUOUS
290
     0
370
    -3
390
16D8
  0
ENDTAB
  0
TABLE
  2
STYLE
  5
143A
330
0
100
AcDbSymbolTable
 70
     4
  0
STYLE
  5
1446
330
143A
100
AcDbSymbolTableRecord
100
AcDbTextStyleTableRecord
  2
STANDARD
 70
     0
 40
0.0
 41
1.0
 50
0.0
 71
     0
 42
17.5
  3
ISOCP.SHX
  4

  0
STYLE
  5
1751
330
143A
100
AcDbSymbolTableRecord
100
AcDbTextStyleTableRecord
  2

 70
     1
 40
0.0
 41
1.0
 50
0.0
 71
     0
 42
0.2
  3
genltshp.shx
  4

  0
STYLE
  5
1758
330
143A
100
AcDbSymbolTableRecord
100
AcDbTextStyleTableRecord
  2
ACDINTS
 70
     0
 40
1.0
 41
1.0
 50
0.0
 71
     0
 42
0.2
  3
isocp.shx
  4

  0
STYLE
  5
1765
330
143A
100
AcDbSymbolTableRecord
100
AcDbTextStyleTableRecord
  2
ACDINGDT
 70
     0
 40
0.0
 41
1.0
 50
0.0
 71
     0
 42
0.2
  3
AMGDT
  4

  0
ENDTAB
  0
TABLE
  2
VIEW
  5
143D
330
0
100
AcDbSymbolTable
 70
     6
  0
VIEW
  5
15F4
330
143D
100
AcDbSymbolTableRecord
100
AcDbViewTableRecord
  2
GEN1
 70
     0
 40
525.0
 10
394.960474
 20
787.5
 41
789.920949
 11
0.0
 21
0.0
 31
1.0
 12
0.0
 22
0.0
 32
0.0
 42
50.0
 43
0.0
 44
0.0
 50
0.0
 71
     0
281
     0
 72
     0
  0
VIEW
  5
15F5
330
143D
100
AcDbSymbolTableRecord
100
AcDbViewTableRecord
  2
GEN2
 70
     0
 40
525.0
 10
655.039526
 20
787.5
 41
789.920949
 11
0.0
 21
0.0
 31
1.0
 12
0.0
 22
0.0
 32
0.0
 42
50.0
 43
0.0
 44
0.0
 50
0.0
 71
     0
281
     0
 72
     0
  0
VIEW
  5
15F6
330
143D
100
AcDbSymbolTableRecord
100
AcDbViewTableRecord
  2
GEN3
 70
     0
 40
525.0
 10
394.960474
 20
262.5
 41
789.920949
 11
0.0
 21
0.0
 31
1.0
 12
0.0
 22
0.0
 32
0.0
 42
50.0
 43
0.0
 44
0.0
 50
0.0
 71
     0
281
     0
 72
     0
  0
VIEW
  5
15F7
330
143D
100
AcDbSymbolTableRecord
100
AcDbViewTableRecord
  2
GEN4
 70
     0
 40
525.0
 10
655.039526
 20
262.5
 41
789.920949
 11
0.0
 21
0.0
 31
1.0
 12
0.0
 22
0.0
 32
0.0
 42
50.0
 43
0.0
 44
0.0
 50
0.0
 71
     0
281
     0
 72
     0
  0
VIEW
  5
15F8
330
143D
100
AcDbSymbolTableRecord
100
AcDbViewTableRecord
  2
GEN5
 70
     0
 40
525.0
 10
525.0
 20
525.0
 41
789.920949
 11
0.0
 21
0.0
 31
1.0
 12
0.0
 22
0.0
 32
0.0
 42
50.0
 43
0.0
 44
0.0
 50
0.0
 71
     0
281
     0
 72
     0
  0
VIEW
  5
15F9
330
143D
100
AcDbSymbolTableRecord
100
AcDbViewTableRecord
  2
GEN6
 70
     0
 40
1049.9895
 10
525.0
 20
525.0
 41
1579.826099
 11
0.0
 21
0.0
 31
1.0
 12
0.0
 22
0.0
 32
0.0
 42
50.0
 43
0.0
 44
0.0
 50
0.0
 71
     0
281
     0
 72
     0
  0
ENDTAB
  0
TABLE
  2
UCS
  5
143E
330
0
100
AcDbSymbolTable
 70
     0
  0
ENDTAB
  0
TABLE
  2
APPID
  5
1440
330
0
100
AcDbSymbolTable
 70
    36
  0
APPID
  5
1447
330
1440
100
AcDbSymbolTableRecord
100
AcDbRegAppTableRecord
  2
ACAD
 70
     0
  0
APPID
  5
1484
330
1440
100
AcDbSymbolTableRecord
100
AcDbRegAppTableRecord
  2
GENIUS_GENOENT_13
 70
     0
  0
APPID
  5
1485
330
1440
100
AcDbSymbolTableRecord
100
AcDbRegAppTableRecord
  2
GENIUS_GENCFG_13
 70
     0
1001
GENIUS_GENCFG0_13
1000
GEN@INFO_POS@XLATE
1001
GENIUS_GENCFG1_13
1000
GEN@INFO_POS
1001
GENIUS_GENCFG2_13
1000
GEN@LAYER@DEFS
1001
GENIUS_GENCFG3_13
1000
GEN@LAYER@ENTSORT
1001
GENIUS_GENCFG4_13
1000
GEN
1001
GENIUS_GEVCFG0_13
1000
GEV
1001
GENIUS_GEFCFG0_13
1000
GEF
1001
GENIUS_DUMCFG0_13
1000
DUM
  0
APPID
  5
1486
330
1440
100
AcDbSymbolTableRecord
100
AcDbRegAppTableRecord
  2
GENIUS_DUMCFG0_13
 70
     0
1001
GENIUS_GENCFG_13
1071
921245746
1000
1486
1000
DUM
1070
     0
  0
APPID
  5
1487
330
1440
100
AcDbSymbolTableRecord
100
AcDbRegAppTableRecord
  2
GENIUS_GENCFG0_13
 70
     0
1001
GENIUS_GENCFG_13
1071
1043404493
1000
1487
1000
GEN@INFO_POS@XLATE
1070
     8
1000
GenCfgObject
1000
GenCfgShort
1000
GenCfgReal
1000
GenCfgBool
1000
GenCfgString
1000
GenCfgDim
1000
GenCfgPoint
1000
GenCfgAttrInf
1000
INFOPOINTS
1070
     0
1002
{
1000
GENINF14
1070
     0
1002
{
1000
2GENINF
1070
     4
1000
2
1002
{
1002
}
1000
5GENINF
1070
     4
1000
5
1002
{
1002
}
1000
7GENINF
1070
     4
1000
7
1002
{
1002
}
1000
9GENINF
1070
     4
1000
9
1002
{
1002
}
1000
11GENINF
1070
     4
1000
11
1002
{
1002
}
1000
14GENINF
1070
     4
1000
14
1002
{
1002
}
1002
}
1000
GENINF13
1070
     0
1002
{
1000
2GENINF
1070
     4
1000
2
1002
{
1002
}
1000
3GENINF
1070
     4
1000
3
1002
{
1002
}
1000
4GENINF
1070
     4
1000
4
1002
{
1002
}
1000
5GENINF
1070
     4
1000
5
1002
{
1002
}
1000
6GENINF
1070
     4
1000
6
1002
{
1002
}
1000
7GENINF
1070
     4
1000
7
1002
{
1002
}
1000
8GENINF
1070
     4
1000
8
1002
{
1002
}
1000
9GENINF
1070
     4
1000
9
1002
{
1002
}
1000
10GENINF
1070
     4
1000
10
1002
{
1002
}
1000
11GENINF
1070
     4
1000
11
1002
{
1002
}
1000
12GENINF
1070
     4
1000
12
1002
{
1002
}
1000
13GENINF
1070
     4
1000
13
1002
{
1002
}
1000
14GENINF
1070
     4
1000
14
1002
{
1002
}
1000
15GENINF
1070
     4
1000
15
1002
{
1002
}
1000
16GENINF
1070
     4
1000
16
1002
{
1002
}
1000
17GENINF
1070
     4
1000
17
1002
{
1002
}
1000
18GENINF
1070
     4
1000
18
1002
{
1002
}
1000
19GENINF
1070
     4
1000
19
1002
{
1002
}
1000
20GENINF
1070
     4
1000
20
1002
{
1002
}
1000
21GENINF
1070
     4
1000
21
1002
{
1002
}
1000
22GENINF
1070
     4
1000
22
1002
{
1002
}
1000
23GENINF
1070
     4
1000
23
1002
{
1002
}
1000
24GENINF
1070
     4
1000
24
1002
{
1002
}
1000
0GENINF
1070
     4
1000
0
1002
{
1002
}
1002
}
1000
GENINFO
1070
     0
1002
{
1000
3GENINF
1070
     4
1000
3
1002
{
1002
}
1000
4GENINF
1070
     4
1000
4
1002
{
1002
}
1000
5GENINF
1070
     4
1000
5
1002
{
1002
}
1000
6GENINF
1070
     4
1000
6
1002
{
1002
}
1000
7GENINF
1070
     4
1000
7
1002
{
1002
}
1000
8GENINF
1070
     4
1000
8
1002
{
1002
}
1000
9GENINF
1070
     4
1000
9
1002
{
1002
}
1000
10GENINF
1070
     4
1000
10
1002
{
1002
}
1000
11GENINF
1070
     4
1000
11
1002
{
1002
}
1000
12GENINF
1070
     4
1000
12
1002
{
1002
}
1000
13GENINF
1070
     4
1000
13
1002
{
1002
}
1000
14GENINF
1070
     4
1000
14
1002
{
1002
}
1000
15GENINF
1070
     4
1000
15
1002
{
1002
}
1000
16GENINF
1070
     4
1000
16
1002
{
1002
}
1000
17GENINF
1070
     4
1000
17
1002
{
1002
}
1000
18GENINF
1070
     4
1000
18
1002
{
1002
}
1000
19GENINF
1070
     4
1000
19
1002
{
1002
}
1000
20GENINF
1070
     4
1000
20
1002
{
1002
}
1000
21GENINF
1070
     4
1000
21
1002
{
1002
}
1000
22GENINF
1070
     4
1000
22
1002
{
1002
}
1002
}
1000
DININFO
1070
     0
1002
{
1000
ST-NAME1
1070
     4
1000
5
1002
{
1002
}
1000
ST-NAME2
1070
     4
1000
6
1002
{
1002
}
1000
ST-NORM1
1070
     4
1000
7
1002
{
1002
}
1000
ST-NORM2
1070
     4
1000
8
1002
{
1002
}
1000
ST-MAT1
1070
     4
1000
9
1002
{
1002
}
1000
ST-MAT2
1070
     4
1000
10
1002
{
1002
}
1002
}
1002
}
1000
POS_NUMBERS
1070
     0
1002
{
1000
GENPOS14
1070
     0
1002
{
1000
1GENPOS
1070
     4
1000
1
1002
{
1002
}
1000
2GENPOS
1070
     4
1000
2
1002
{
1002
}
1000
5GENPOS
1070
     4
1000
5
1002
{
1002
}
1000
7GENPOS
1070
     4
1000
7
1002
{
1002
}
1000
9GENPOS
1070
     4
1000
9
1002
{
1002
}
1000
11GENPOS
1070
     4
1000
11
1002
{
1002
}
1000
14GENPOS
1070
     4
1000
14
1002
{
1002
}
1002
}
1000
GENPOS13
1070
     0
1002
{
1000
1GENPOS
1070
     4
1000
1
1002
{
1002
}
1000
2GENPOS
1070
     4
1000
2
1002
{
1002
}
1000
3GENPOS
1070
     4
1000
3
1002
{
1002
}
1000
4GENPOS
1070
     4
1000
4
1002
{
1002
}
1000
5GENPOS
1070
     4
1000
5
1002
{
1002
}
1000
6GENPOS
1070
     4
1000
6
1002
{
1002
}
1000
7GENPOS
1070
     4
1000
7
1002
{
1002
}
1000
8GENPOS
1070
     4
1000
8
1002
{
1002
}
1000
9GENPOS
1070
     4
1000
9
1002
{
1002
}
1000
10GENPOS
1070
     4
1000
10
1002
{
1002
}
1000
11GENPOS
1070
     4
1000
11
1002
{
1002
}
1000
12GENPOS
1070
     4
1000
12
1002
{
1002
}
1000
13GENPOS
1070
     4
1000
13
1002
{
1002
}
1000
14GENPOS
1070
     4
1000
14
1002
{
1002
}
1000
15GENPOS
1070
     4
1000
15
1002
{
1002
}
1000
16GENPOS
1070
     4
1000
16
1002
{
1002
}
1000
17GENPOS
1070
     4
1000
17
1002
{
1002
}
1000
18GENPOS
1070
     4
1000
18
1002
{
1002
}
1000
19GENPOS
1070
     4
1000
19
1002
{
1002
}
1000
20GENPOS
1070
     4
1000
20
1002
{
1002
}
1000
21GENPOS
1070
     4
1000
21
1002
{
1002
}
1000
22GENPOS
1070
     4
1000
22
1002
{
1002
}
1000
23GENPOS
1070
     4
1000
23
1002
{
1002
}
1000
24GENPOS
1070
     4
1000
24
1002
{
1002
}
1000
0GENPOS
1070
     4
1000
0
1002
{
1002
}
1002
}
1000
GENPOS
1070
     0
1002
{
1000
1GENPOS
1070
     4
1000
1
1002
{
1002
}
1000
2GENPOS
1070
     4
1000
2
1002
{
1002
}
1000
3GENPOS
1070
     4
1000
3
1002
{
1002
}
1000
4GENPOS
1070
     4
1000
4
1002
{
1002
}
1000
5GENPOS
1070
     4
1000
5
1002
{
1002
}
1000
6GENPOS
1070
     4
1000
6
1002
{
1002
}
1000
7GENPOS
1070
     4
1000
7
1002
{
1002
}
1000
8GENPOS
1070
     4
1000
8
1002
{
1002
}
1000
9GENPOS
1070
     4
1000
9
1002
{
1002
}
1000
10GENPOS
1070
     4
1000
10
1002
{
1002
}
1000
11GENPOS
1070
     4
1000
11
1002
{
1002
}
1000
12GENPOS
1070
     4
1000
12
1002
{
1002
}
1000
13GENPOS
1070
     4
1000
13
1002
{
1002
}
1000
14GENPOS
1070
     4
1000
14
1002
{
1002
}
1000
15GENPOS
1070
     4
1000
15
1002
{
1002
}
1000
16GENPOS
1070
     4
1000
16
1002
{
1002
}
1000
17GENPOS
1070
     4
1000
17
1002
{
1002
}
1000
18GENPOS
1070
     4
1000
18
1002
{
1002
}
1000
19GENPOS
1070
     4
1000
19
1002
{
1002
}
1000
20GENPOS
1070
     4
1000
20
1002
{
1002
}
1000
21GENPOS
1070
     4
1000
21
1002
{
1002
}
1000
22GENPOS
1070
     4
1000
22
1002
{
1002
}
1000
23GENPOS
1070
     4
1000
23
1002
{
1002
}
1002
}
1000
DIN985
1070
     0
1002
{
1000
POSITION
1070
     4
1000
1
1002
{
1002
}
1000
MENGE
1070
     4
1000
2
1002
{
1002
}
1000
BLATT
1070
     4
1000
3
1002
{
1002
}
1000
BENENN
1070
     4
1000
5
1002
{
1002
}
1000
BENENN2
1070
     4
1000
6
1002
{
1002
}
1000
NORM
1070
     4
1000
7
1002
{
1002
}
1000
NORM2
1070
     4
1000
8
1002
{
1002
}
1000
WERKSTOFF
1070
     4
1000
9
1002
{
1002
}
1000
WERKSTOFF2
1070
     4
1000
10
1002
{
1002
}
1002
}
1000
DIN986
1070
     0
1002
{
1000
POSITION
1070
     4
1000
1
1002
{
1002
}
1000
MENGE
1070
     4
1000
2
1002
{
1002
}
1000
BLATT
1070
     4
1000
3
1002
{
1002
}
1000
BENENN
1070
     4
1000
5
1002
{
1002
}
1000
BENENN2
1070
     4
1000
6
1002
{
1002
}
1000
NORM
1070
     4
1000
7
1002
{
1002
}
1000
NORM2
1070
     4
1000
8
1002
{
1002
}
1000
WERKSTOFF
1070
     4
1000
9
1002
{
1002
}
1000
WERKSTOFF2
1070
     4
1000
10
1002
{
1002
}
1002
}
1000
DIN987
1070
     0
1002
{
1000
POSITION
1070
     4
1000
1
1002
{
1002
}
1000
MENGE
1070
     4
1000
2
1002
{
1002
}
1000
BLATT
1070
     4
1000
3
1002
{
1002
}
1000
BENENN
1070
     4
1000
5
1002
{
1002
}
1000
BENENN2
1070
     4
1000
6
1002
{
1002
}
1000
NORM
1070
     4
1000
7
1002
{
1002
}
1000
NORM2
1070
     4
1000
8
1002
{
1002
}
1000
WERKSTOFF
1070
     4
1000
9
1002
{
1002
}
1000
WERKSTOFF2
1070
     4
1000
10
1002
{
1002
}
1002
}
1002
}
  0
APPID
  5
1488
330
1440
100
AcDbSymbolTableRecord
100
AcDbRegAppTableRecord
  2
GENIUS_GENCFG1_13
 70
     0
1001
GENIUS_GENCFG_13
1071
1043404493
1000
1488
1000
GEN@INFO_POS
1070
     8
1000
GenCfgObject
1000
GenCfgShort
1000
GenCfgReal
1000
GenCfgBool
1000
GenCfgString
1000
GenCfgDim
1000
GenCfgPoint
1000
GenCfgAttrInf
1000
DescrText
1070
     4
1000
5, ,6, ,7, ,8
1002
{
1002
}
1000
DescrText2
1070
     4
1000
26
1002
{
1002
}
1000
VisibleAttr1
1070
     4
1000
1
1002
{
1002
}
1000
VisibleAttr2
1070
     4
1000
26
1002
{
1002
}
1000
UpdateBlock
1070
     3
1070
     1
1002
{
1002
}
1000
Attrib
1070
     0
1002
{
1000
0
1070
     7
1002
{
1000
Prompt
1070
     4
1000
(genmsg gendwg 103)
1002
{
1002
}
1000
Value
1070
     4
1000

1002
{
1002
}
1000
EditFlag
1070
     1
1070
     0
1002
{
1002
}
1000
PosInDDATTE
1070
     1
1070
    27
1002
{
1002
}
1000
FieldLen
1070
     1
1070
    -1
1002
{
1002
}
1002
}
1000
1
1070
     7
1002
{
1000
Prompt
1070
     4
1000
(genmsg gendwg 31)
1002
{
1002
}
1000
Value
1070
     4
1000
1
1002
{
1002
}
1000
EditFlag
1070
     1
1070
     1
1002
{
1002
}
1000
PosInDDATTE
1070
     1
1070
     1
1002
{
1002
}
1000
FieldLen
1070
     1
1070
    -1
1002
{
1002
}
1002
}
1000
2
1070
     7
1002
{
1000
Prompt
1070
     4
1000
(genmsg gendwg 32)
1002
{
1002
}
1000
Value
1070
     4
1000
1
1002
{
1002
}
1000
EditFlag
1070
     1
1070
     1
1002
{
1002
}
1000
PosInDDATTE
1070
     1
1070
     2
1002
{
1002
}
1000
FieldLen
1070
     1
1070
    -1
1002
{
1002
}
1002
}
1000
3
1070
     7
1002
{
1000
Prompt
1070
     4
1000
(genmsg gendwg 33)
1002
{
1002
}
1000
Value
1070
     4
1000

1002
{
1002
}
1000
EditFlag
1070
     1
1070
     1
1002
{
1002
}
1000
PosInDDATTE
1070
     1
1070
     3
1002
{
1002
}
1000
FieldLen
1070
     1
1070
    -1
1002
{
1002
}
1002
}
1000
4
1070
     7
1002
{
1000
Prompt
1070
     4
1000
(genmsg gendwg 34)
1002
{
1002
}
1000
Value
1070
     4
1000

1002
{
1002
}
1000
EditFlag
1070
     1
1070
     1
1002
{
1002
}
1000
PosInDDATTE
1070
     1
1070
     4
1002
{
1002
}
1000
FieldLen
1070
     1
1070
    -1
1002
{
1002
}
1002
}
1000
5
1070
     7
1002
{
1000
Prompt
1070
     4
1000
(genmsg gendwg 35)
1002
{
1002
}
1000
Value
1070
     4
1000

1002
{
1002
}
1000
EditFlag
1070
     1
1070
     1
1002
{
1002
}
1000
PosInDDATTE
1070
     1
1070
     5
1002
{
1002
}
1000
FieldLen
1070
     1
1070
    -1
1002
{
1002
}
1002
}
1000
6
1070
     7
1002
{
1000
Prompt
1070
     4
1000
(genmsg gendwg 36)
1002
{
1002
}
1000
Value
1070
     4
1000

1002
{
1002
}
1000
EditFlag
1070
     1
1070
     1
1002
{
1002
}
1000
PosInDDATTE
1070
     1
1070
     6
1002
{
1002
}
1000
FieldLen
1070
     1
1070
    -1
1002
{
1002
}
1002
}
1000
7
1070
     7
1002
{
1000
Prompt
1070
     4
1000
(genmsg gendwg 37)
1002
{
1002
}
1000
Value
1070
     4
1000

1002
{
1002
}
1000
EditFlag
1070
     1
1070
     1
1002
{
1002
}
1000
PosInDDATTE
1070
     1
1070
     7
1002
{
1002
}
1000
FieldLen
1070
     1
1070
    -1
1002
{
1002
}
1002
}
1000
8
1070
     7
1002
{
1000
Prompt
1070
     4
1000
(genmsg gendwg 38)
1002
{
1002
}
1000
Value
1070
     4
1000

1002
{
1002
}
1000
EditFlag
1070
     1
1070
     1
1002
{
1002
}
1000
PosInDDATTE
1070
     1
1070
     8
1002
{
1002
}
1000
FieldLen
1070
     1
1070
    -1
1002
{
1002
}
1002
}
1000
9
1070
     7
1002
{
1000
Prompt
1070
     4
1000
(genmsg gendwg 39)
1002
{
1002
}
1000
Value
1070
     4
1000

1002
{
1002
}
1000
EditFlag
1070
     1
1070
     1
1002
{
1002
}
1000
PosInDDATTE
1070
     1
1070
     9
1002
{
1002
}
1000
FieldLen
1070
     1
1070
    -1
1002
{
1002
}
1002
}
1000
10
1070
     7
1002
{
1000
Prompt
1070
     4
1000
(genmsg gendwg 40)
1002
{
1002
}
1000
Value
1070
     4
1000

1002
{
1002
}
1000
EditFlag
1070
     1
1070
     1
1002
{
1002
}
1000
PosInDDATTE
1070
     1
1070
    10
1002
{
1002
}
1000
FieldLen
1070
     1
1070
    -1
1002
{
1002
}
1002
}
1000
11
1070
     7
1002
{
1000
Prompt
1070
     4
1000
(genmsg gendwg 41)
1002
{
1002
}
1000
Value
1070
     4
1000

1002
{
1002
}
1000
EditFlag
1070
     1
1070
     1
1002
{
1002
}
1000
PosInDDATTE
1070
     1
1070
    11
1002
{
1002
}
1000
FieldLen
1070
     1
1070
    -1
1002
{
1002
}
1002
}
1000
12
1070
     7
1002
{
1000
Prompt
1070
     4
1000
(genmsg gendwg 42)
1002
{
1002
}
1000
Value
1070
     4
1000

1002
{
1002
}
1000
EditFlag
1070
     1
1070
     1
1002
{
1002
}
1000
PosInDDATTE
1070
     1
1070
    12
1002
{
1002
}
1000
FieldLen
1070
     1
1070
    -1
1002
{
1002
}
1002
}
1000
13
1070
     7
1002
{
1000
Prompt
1070
     4
1000
(genmsg gendwg 43)
1002
{
1002
}
1000
Value
1070
     4
1000

1002
{
1002
}
1000
EditFlag
1070
     1
1070
     1
1002
{
1002
}
1000
PosInDDATTE
1070
     1
1070
    13
1002
{
1002
}
1000
FieldLen
1070
     1
1070
    -1
1002
{
1002
}
1002
}
1000
14
1070
     7
1002
{
1000
Prompt
1070
     4
1000
(genmsg gendwg 44)
1002
{
1002
}
1000
Value
1070
     4
1000

1002
{
1002
}
1000
EditFlag
1070
     1
1070
     1
1002
{
1002
}
1000
PosInDDATTE
1070
     1
1070
    14
1002
{
1002
}
1000
FieldLen
1070
     1
1070
    -1
1002
{
1002
}
1002
}
1000
15
1070
     7
1002
{
1000
Prompt
1070
     4
1000
(genmsg gendwg 45)
1002
{
1002
}
1000
Value
1070
     4
1000

1002
{
1002
}
1000
EditFlag
1070
     1
1070
     1
1002
{
1002
}
1000
PosInDDATTE
1070
     1
1070
    15
1002
{
1002
}
1000
FieldLen
1070
     1
1070
    -1
1002
{
1002
}
1002
}
1000
16
1070
     7
1002
{
1000
Prompt
1070
     4
1000
(genmsg gendwg 46)
1002
{
1002
}
1000
Value
1070
     4
1000

1002
{
1002
}
1000
EditFlag
1070
     1
1070
     1
1002
{
1002
}
1000
PosInDDATTE
1070
     1
1070
    16
1002
{
1002
}
1000
FieldLen
1070
     1
1070
    -1
1002
{
1002
}
1002
}
1000
17
1070
     7
1002
{
1000
Prompt
1070
     4
1000
(genmsg gendwg 47)
1002
{
1002
}
1000
Value
1070
     4
1000

1002
{
1002
}
1000
EditFlag
1070
     1
1070
     1
1002
{
1002
}
1000
PosInDDATTE
1070
     1
1070
    17
1002
{
1002
}
1000
FieldLen
1070
     1
1070
    -1
1002
{
1002
}
1002
}
1000
18
1070
     7
1002
{
1000
Prompt
1070
     4
1000
(genmsg gendwg 48)
1002
{
1002
}
1000
Value
1070
     4
1000

1002
{
1002
}
1000
EditFlag
1070
     1
1070
     1
1002
{
1002
}
1000
PosInDDATTE
1070
     1
1070
    18
1002
{
1002
}
1000
FieldLen
1070
     1
1070
    -1
1002
{
1002
}
1002
}
1000
19
1070
     7
1002
{
1000
Prompt
1070
     4
1000
(genmsg gendwg 99)
1002
{
1002
}
1000
Value
1070
     4
1000

1002
{
1002
}
1000
EditFlag
1070
     1
1070
     1
1002
{
1002
}
1000
PosInDDATTE
1070
     1
1070
    19
1002
{
1002
}
1000
FieldLen
1070
     1
1070
    -1
1002
{
1002
}
1002
}
1000
20
1070
     7
1002
{
1000
Prompt
1070
     4
1000
(genmsg gendwg 100)
1002
{
1002
}
1000
Value
1070
     4
1000

1002
{
1002
}
1000
EditFlag
1070
     1
1070
     1
1002
{
1002
}
1000
PosInDDATTE
1070
     1
1070
    20
1002
{
1002
}
1000
FieldLen
1070
     1
1070
    -1
1002
{
1002
}
1002
}
1000
21
1070
     7
1002
{
1000
Prompt
1070
     4
1000
(genmsg gendwg 101)
1002
{
1002
}
1000
Value
1070
     4
1000

1002
{
1002
}
1000
EditFlag
1070
     1
1070
     1
1002
{
1002
}
1000
PosInDDATTE
1070
     1
1070
    21
1002
{
1002
}
1000
FieldLen
1070
     1
1070
    -1
1002
{
1002
}
1002
}
1000
22
1070
     7
1002
{
1000
Prompt
1070
     4
1000
(genmsg gendwg 102)
1002
{
1002
}
1000
Value
1070
     4
1000

1002
{
1002
}
1000
EditFlag
1070
     1
1070
     1
1002
{
1002
}
1000
PosInDDATTE
1070
     1
1070
    22
1002
{
1002
}
1000
FieldLen
1070
     1
1070
    -1
1002
{
1002
}
1002
}
1000
23
1070
     7
1002
{
1000
Prompt
1070
     4
1000
(genmsg gendwg 30)
1002
{
1002
}
1000
Value
1070
     4
1000

1002
{
1002
}
1000
EditFlag
1070
     1
1070
     1
1002
{
1002
}
1000
PosInDDATTE
1070
     1
1070
    23
1002
{
1002
}
1000
FieldLen
1070
     1
1070
    -1
1002
{
1002
}
1002
}
1000
24
1070
     7
1002
{
1000
Prompt
1070
     4
1000
(genmsg gendwg 104)
1002
{
1002
}
1000
Value
1070
     4
1000

1002
{
1002
}
1000
EditFlag
1070
     1
1070
     1
1002
{
1002
}
1000
PosInDDATTE
1070
     1
1070
    24
1002
{
1002
}
1000
FieldLen
1070
     1
1070
    -1
1002
{
1002
}
1002
}
1000
25
1070
     7
1002
{
1000
Prompt
1070
     4
1000
(genmsg gendwg 105)
1002
{
1002
}
1000
Value
1070
     4
1000

1002
{
1002
}
1000
EditFlag
1070
     1
1070
     1
1002
{
1002
}
1000
PosInDDATTE
1070
     1
1070
    25
1002
{
1002
}
1000
FieldLen
1070
     1
1070
    -1
1002
{
1002
}
1002
}
1000
26
1070
     7
1002
{
1000
Prompt
1070
     4
1000
(genmsg gendwg 106)
1002
{
1002
}
1000
Value
1070
     4
1000

1002
{
1002
}
1000
EditFlag
1070
     1
1070
     1
1002
{
1002
}
1000
PosInDDATTE
1070
     1
1070
    26
1002
{
1002
}
1000
FieldLen
1070
     1
1070
    -1
1002
{
1002
}
1002
}
1000
27
1070
     7
1002
{
1000
Prompt
1070
     4
1000
(genmsg gendwg 109)
1002
{
1002
}
1000
Value
1070
     4
1000

1002
{
1002
}
1000
EditFlag
1070
     1
1070
     2
1002
{
1002
}
1000
PosInDDATTE
1070
     1
1070
    27
1002
{
1002
}
1000
FieldLen
1070
     1
1070
    -1
1002
{
1002
}
1002
}
1002
}
1000
Xlate
1070
     0
1002
{
1000
>
1002
}
  0
APPID
  5
1489
330
1440
100
AcDbSymbolTableRecord
100
AcDbRegAppTableRecord
  2
GENIUS_GENCFG2_13
 70
     0
1001
GENIUS_GENCFG_13
1071
1043404493
1000
1489
1000
GEN@LAYER@DEFS
1070
    10
1000
GenCfgObject
1000
GenCfgShort
1000
GenCfgReal
1000
GenCfgBool
1000
GenCfgString
1000
GenCfgDim
1000
GenCfgPoint
1000
GenCfgAttrInf
1000
GenCfgLaySection
1000
GenCfgLayer
1000
Basic
1070
     0
1002
{
1000
0
1070
     9
1000
0
1002
{
1000
Color
1070
     1
1070
     7
1002
{
1002
}
1000
LType
1070
     4
1000
CONTINUOUS
1002
{
1002
}
1000
Base
1070
     3
1070
     0
1002
{
1002
}
1002
}
1000
1
1070
     9
1000
1
1002
{
1000
Color
1070
     1
1070
    14
1002
{
1002
}
1000
LType
1070
     4
1000
CONTINUOUS
1002
{
1002
}
1000
Base
1070
     3
1070
     0
1002
{
1002
}
1002
}
1000
2
1070
     9
1000
2
1002
{
1000
Color
1070
     1
1070
     5
1002
{
1002
}
1000
LType
1070
     4
1000
CONTINUOUS
1002
{
1002
}
1000
Base
1070
     3
1070
     0
1002
{
1002
}
1002
}
1000
3
1070
     9
1000
3
1002
{
1000
Color
1070
     1
1070
     6
1002
{
1002
}
1000
LType
1070
     4
1000
GEN3
1002
{
1002
}
1000
Base
1070
     3
1070
     0
1002
{
1002
}
1002
}
1000
4
1070
     9
1000
4
1002
{
1000
Color
1070
     1
1070
     3
1002
{
1002
}
1000
LType
1070
     4
1000
CONTINUOUS
1002
{
1002
}
1000
Base
1070
     3
1070
     0
1002
{
1002
}
1002
}
1000
5
1070
     9
1000
5
1002
{
1000
Color
1070
     1
1070
     3
1002
{
1002
}
1000
LType
1070
     4
1000
CONTINUOUS
1002
{
1002
}
1000
Base
1070
     3
1070
     0
1002
{
1002
}
1002
}
1000
6
1070
     9
1000
6
1002
{
1000
Color
1070
     1
1070
     2
1002
{
1002
}
1000
LType
1070
     4
1000
CONTINUOUS
1002
{
1002
}
1000
Base
1070
     3
1070
     0
1002
{
1002
}
1002
}
1000
7
1070
     9
1000
7
1002
{
1000
Color
1070
     1
1070
     4
1002
{
1002
}
1000
LType
1070
     4
1000
GEN7
1002
{
1002
}
1000
Base
1070
     3
1070
     0
1002
{
1002
}
1002
}
1000
8
1070
     9
1000
8
1002
{
1000
Color
1070
     1
1070
     1
1002
{
1002
}
1000
LType
1070
     4
1000
CONTINUOUS
1002
{
1002
}
1000
Base
1070
     3
1070
     0
1002
{
1002
}
1002
}
1000
3A
1070
     9
1000
3A
1002
{
1000
Color
1070
     1
1070
     6
1002
{
1002
}
1000
LType
1070
     4
1000
GEN3A
1002
{
1002
}
1000
Base
1070
     3
1070
     0
1002
{
1002
}
1002
}
1000
7A
1070
     9
1000
7A
1002
{
1000
Color
1070
     1
1070
     4
1002
{
1002
}
1000
LType
1070
     4
1000
GEN7A
1002
{
1002
}
1000
Base
1070
     3
1070
     0
1002
{
1002
}
1002
}
1000
2A
1070
     9
1000
2A
1002
{
1000
Color
1070
     1
1070
     7
1002
{
1002
}
1000
LType
1070
     4
1000
GEN7
1002
{
1002
}
1000
Base
1070
     3
1070
     0
1002
{
1002
}
1002
}
1000
4A
1070
     9
1000
4A
1002
{
1000
Color
1070
     1
1070
     3
1002
{
1002
}
1000
LType
1070
     4
1000
GEN4A
1002
{
1002
}
1000
Base
1070
     3
1070
     0
1002
{
1002
}
1002
}
1000
9
1070
     9
1000
9
1002
{
1000
Color
1070
     1
1070
   253
1002
{
1002
}
1000
LType
1070
     4
1000
CONTINUOUS
1002
{
1002
}
1000
Base
1070
     3
1070
     0
1002
{
1002
}
1002
}
1000
IP
1070
     9
1000
IP
1002
{
1000
Color
1070
     1
1070
     7
1002
{
1002
}
1000
LType
1070
     4
1000
CONTINUOUS
1002
{
1002
}
1000
Base
1070
     3
1070
     0
1002
{
1002
}
1002
}
1002
}
1000
Standard
1070
     0
1002
{
1000
0N
1070
     9
1000
0N
1002
{
1000
Color
1070
     1
1070
     7
1002
{
1002
}
1000
LType
1070
     4
1000
CONTINUOUS
1002
{
1002
}
1000
Base
1070
     3
1070
     0
1002
{
1002
}
1002
}
1000
1N
1070
     9
1000
1N
1002
{
1000
Color
1070
     1
1070
    14
1002
{
1002
}
1000
LType
1070
     4
1000
CONTINUOUS
1002
{
1002
}
1000
Base
1070
     3
1070
     0
1002
{
1002
}
1002
}
1000
2N
1070
     9
1000
2N
1002
{
1000
Color
1070
     1
1070
     5
1002
{
1002
}
1000
LType
1070
     4
1000
CONTINUOUS
1002
{
1002
}
1000
Base
1070
     3
1070
     0
1002
{
1002
}
1002
}
1000
3N
1070
     9
1000
3N
1002
{
1000
Color
1070
     1
1070
     6
1002
{
1002
}
1000
LType
1070
     4
1000
GEN3
1002
{
1002
}
1000
Base
1070
     3
1070
     0
1002
{
1002
}
1002
}
1000
4N
1070
     9
1000
4N
1002
{
1000
Color
1070
     1
1070
     3
1002
{
1002
}
1000
LType
1070
     4
1000
CONTINUOUS
1002
{
1002
}
1000
Base
1070
     3
1070
     0
1002
{
1002
}
1002
}
1000
5N
1070
     9
1000
5N
1002
{
1000
Color
1070
     1
1070
     3
1002
{
1002
}
1000
LType
1070
     4
1000
CONTINUOUS
1002
{
1002
}
1000
Base
1070
     3
1070
     0
1002
{
1002
}
1002
}
1000
6N
1070
     9
1000
6N
1002
{
1000
Color
1070
     1
1070
     2
1002
{
1002
}
1000
LType
1070
     4
1000
CONTINUOUS
1002
{
1002
}
1000
Base
1070
     3
1070
     0
1002
{
1002
}
1002
}
1000
7N
1070
     9
1000
7N
1002
{
1000
Color
1070
     1
1070
     4
1002
{
1002
}
1000
LType
1070
     4
1000
GEN7
1002
{
1002
}
1000
Base
1070
     3
1070
     0
1002
{
1002
}
1002
}
1000
8N
1070
     9
1000
8N
1002
{
1000
Color
1070
     1
1070
     1
1002
{
1002
}
1000
LType
1070
     4
1000
CONTINUOUS
1002
{
1002
}
1000
Base
1070
     3
1070
     0
1002
{
1002
}
1002
}
1000
3AN
1070
     9
1000
3AN
1002
{
1000
Color
1070
     1
1070
     6
1002
{
1002
}
1000
LType
1070
     4
1000
GEN3A
1002
{
1002
}
1000
Base
1070
     3
1070
     0
1002
{
1002
}
1002
}
1000
7AN
1070
     9
1000
7AN
1002
{
1000
Color
1070
     1
1070
     4
1002
{
1002
}
1000
LType
1070
     4
1000
GEN7A
1002
{
1002
}
1000
Base
1070
     3
1070
     0
1002
{
1002
}
1002
}
1000
2AN
1070
     9
1000
2AN
1002
{
1000
Color
1070
     1
1070
     7
1002
{
1002
}
1000
LType
1070
     4
1000
GEN7
1002
{
1002
}
1000
Base
1070
     3
1070
     0
1002
{
1002
}
1002
}
1000
4AN
1070
     9
1000
4AN
1002
{
1000
Color
1070
     1
1070
     3
1002
{
1002
}
1000
LType
1070
     4
1000
GEN4A
1002
{
1002
}
1000
Base
1070
     3
1070
     0
1002
{
1002
}
1002
}
1000
9N
1070
     9
1000
9N
1002
{
1000
Color
1070
     1
1070
   253
1002
{
1002
}
1000
LType
1070
     4
1000
CONTINUOUS
1002
{
1002
}
1000
Base
1070
     3
1070
     0
1002
{
1002
}
1002
}
1000
IPN
1070
     9
1000
IPN
1002
{
1000
Color
1070
     1
1070
     7
1002
{
1002
}
1000
LType
1070
     4
1000
CONTINUOUS
1002
{
1002
}
1000
Base
1070
     3
1070
     0
1002
{
1002
}
1002
}
1002
}
1000
Extra
1070
     0
1002
{
1000
Klin
1070
     9
1000
KLIN
1002
{
1000
Color
1070
     1
1070
     1
1002
{
1002
}
1000
LType
1070
     4
1000
CONTINUOUS
1002
{
1002
}
1000
Base
1070
     3
1070
     1
1002
{
1002
}
1002
}
1000
Info
1070
     9
1000
INFO
1002
{
1000
Color
1070
     1
1070
     4
1002
{
1002
}
1000
LType
1070
     4
1000
CONTINUOUS
1002
{
1002
}
1000
Base
1070
     3
1070
     1
1002
{
1002
}
1002
}
1000
Rahm2
1070
     9
1000
RAHM2
1002
{
1000
Color
1070
     1
1070
     1
1002
{
1002
}
1000
LType
1070
     4
1000
CONTINUOUS
1002
{
1002
}
1000
Base
1070
     3
1070
     1
1002
{
1002
}
1002
}
1000
Rahm3
1070
     9
1000
RAHM3
1002
{
1000
Color
1070
     1
1070
     2
1002
{
1002
}
1000
LType
1070
     4
1000
CONTINUOUS
1002
{
1002
}
1000
Base
1070
     3
1070
     1
1002
{
1002
}
1002
}
1000
Rahm5
1070
     9
1000
RAHM5
1002
{
1000
Color
1070
     1
1070
     7
1002
{
1002
}
1000
LType
1070
     4
1000
CONTINUOUS
1002
{
1002
}
1000
Base
1070
     3
1070
     1
1002
{
1002
}
1002
}
1000
View
1070
     9
1000
VIEW
1002
{
1000
Color
1070
     1
1070
     1
1002
{
1002
}
1000
LType
1070
     4
1000
CONTINUOUS
1002
{
1002
}
1000
Base
1070
     3
1070
     1
1002
{
1002
}
1002
}
1000
Behind
1070
     9
1000
BEHIND
1002
{
1000
Color
1070
     1
1070
   253
1002
{
1002
}
1000
LType
1070
     4
1000
CONTINUOUS
1002
{
1002
}
1000
Base
1070
     3
1070
     1
1002
{
1002
}
1002
}
1002
}
  0
APPID
  5
148A
330
1440
100
AcDbSymbolTableRecord
100
AcDbRegAppTableRecord
  2
GENIUS_GENCFG3_13
 70
     0
1001
GENIUS_GENCFG_13
1071
1043404493
1000
148A
1000
GEN@LAYER@ENTSORT
1070
    11
1000
GenCfgObject
1000
GenCfgShort
1000
GenCfgReal
1000
GenCfgBool
1000
GenCfgString
1000
GenCfgDim
1000
GenCfgPoint
1000
GenCfgAttrInf
1000
GenCfgLaySection
1000
GenCfgLayer
1000
GenCfgEntSort
1000
ADDL
1070
    10
1000
5
1002
{
1000
Class
1070
     4
1000
SYM
1002
{
1002
}
1000
Color
1070
     1
1070
     1
1002
{
1002
}
1000
LType
1070
     4
1000
BYLAYER
1002
{
1002
}
1002
}
1000
ALTR
1070
    10
1000
4
1002
{
1000
Class
1070
     4
1000

1002
{
1002
}
1000
Color
1070
     1
1070
     7
1002
{
1002
}
1000
LType
1070
     4
1000
GEN3A
1002
{
1002
}
1002
}
1000
BELI
1070
    10
1000
4
1002
{
1000
Class
1070
     4
1000

1002
{
1002
}
1000
Color
1070
     1
1070
   256
1002
{
1002
}
1000
LType
1070
     4
1000
BYLAYER
1002
{
1002
}
1002
}
1000
BHNV
1070
    10
1000
9
1002
{
1000
Class
1070
     4
1000
INV
1002
{
1002
}
1000
Color
1070
     1
1070
   256
1002
{
1002
}
1000
LType
1070
     4
1000
BYLAYER
1002
{
1002
}
1002
}
1000
BHNVS
1070
    10
1000
BEHIND
1002
{
1000
Class
1070
     4
1000
INV
1002
{
1002
}
1000
Color
1070
     1
1070
   256
1002
{
1002
}
1000
LType
1070
     4
1000
BYLAYER
1002
{
1002
}
1002
}
1000
BLID
1070
    10
1000
4A
1002
{
1000
Class
1070
     4
1000

1002
{
1002
}
1000
Color
1070
     1
1070
   256
1002
{
1002
}
1000
LType
1070
     4
1000
BYLAYER
1002
{
1002
}
1002
}
1000
BOAP
1070
    10
1000
4A
1002
{
1000
Class
1070
     4
1000

1002
{
1002
}
1000
Color
1070
     1
1070
   256
1002
{
1002
}
1000
LType
1070
     4
1000
BYLAYER
1002
{
1002
}
1002
}
1000
BOR2
1070
    10
1000
RAHM2
1002
{
1000
Class
1070
     4
1000
SPZ,SYM
1002
{
1002
}
1000
Color
1070
     1
1070
   256
1002
{
1002
}
1000
LType
1070
     4
1000
BYLAYER
1002
{
1002
}
1002
}
1000
BOR3
1070
    10
1000
RAHM3
1002
{
1000
Class
1070
     4
1000
SPZ,SYM
1002
{
1002
}
1000
Color
1070
     1
1070
   256
1002
{
1002
}
1000
LType
1070
     4
1000
BYLAYER
1002
{
1002
}
1002
}
1000
BOR5
1070
    10
1000
RAHM5
1002
{
1000
Class
1070
     4
1000
SPZ,SYM
1002
{
1002
}
1000
Color
1070
     1
1070
   256
1002
{
1002
}
1000
LType
1070
     4
1000
BYLAYER
1002
{
1002
}
1002
}
1000
BOR7
1070
    10
1000
RAHM5
1002
{
1000
Class
1070
     4
1000
SPZ,SYM
1002
{
1002
}
1000
Color
1070
     1
1070
     7
1002
{
1002
}
1000
LType
1070
     4
1000
CONTINUOUS
1002
{
1002
}
1002
}
1000
BPAP
1070
    10
1000
4A
1002
{
1000
Class
1070
     4
1000

1002
{
1002
}
1000
Color
1070
     1
1070
   256
1002
{
1002
}
1000
LType
1070
     4
1000
BYLAYER
1002
{
1002
}
1002
}
1000
BPEX
1070
    10
1000
4A
1002
{
1000
Class
1070
     4
1000

1002
{
1002
}
1000
Color
1070
     1
1070
   256
1002
{
1002
}
1000
LType
1070
     4
1000
BYLAYER
1002
{
1002
}
1002
}
1000
BTDI
1070
    10
1000
5
1002
{
1000
Class
1070
     4
1000
DIM,SYM
1002
{
1002
}
1000
Color
1070
     1
1070
   256
1002
{
1002
}
1000
LType
1070
     4
1000
BYLAYER
1002
{
1002
}
1002
}
1000
CAL2
1070
    10
1000
4
1002
{
1000
Class
1070
     4
1000
SYM
1002
{
1002
}
1000
Color
1070
     1
1070
   256
1002
{
1002
}
1000
LType
1070
     4
1000
BYLAYER
1002
{
1002
}
1002
}
1000
CAL3
1070
    10
1000
4
1002
{
1000
Class
1070
     4
1000
SYM
1002
{
1002
}
1000
Color
1070
     1
1070
     2
1002
{
1002
}
1000
LType
1070
     4
1000
BYLAYER
1002
{
1002
}
1002
}
1000
CAL5
1070
    10
1000
4
1002
{
1000
Class
1070
     4
1000
SYM
1002
{
1002
}
1000
Color
1070
     1
1070
     7
1002
{
1002
}
1000
LType
1070
     4
1000
BYLAYER
1002
{
1002
}
1002
}
1000
CAL7
1070
    10
1000
4
1002
{
1000
Class
1070
     4
1000
SYM
1002
{
1002
}
1000
Color
1070
     1
1070
     5
1002
{
1002
}
1000
LType
1070
     4
1000
BYLAYER
1002
{
1002
}
1002
}
1000
CENN
1070
    10
1000
7A
1002
{
1000
Class
1070
     4
1000
CEN
1002
{
1002
}
1000
Color
1070
     1
1070
   256
1002
{
1002
}
1000
LType
1070
     4
1000
BYLAYER
1002
{
1002
}
1002
}
1000
CENW
1070
    10
1000
7
1002
{
1000
Class
1070
     4
1000
CEN
1002
{
1002
}
1000
Color
1070
     1
1070
   256
1002
{
1002
}
1000
LType
1070
     4
1000
BYLAYER
1002
{
1002
}
1002
}
1000
CLIN
1070
    10
1000
KLIN
1002
{
1000
Class
1070
     4
1000
SPZ
1002
{
1002
}
1000
Color
1070
     1
1070
   256
1002
{
1002
}
1000
LType
1070
     4
1000
BYLAYER
1002
{
1002
}
1002
}
1000
CON1
1070
    10
1000
0
1002
{
1000
Class
1070
     4
1000
CON,BGD
1002
{
1002
}
1000
Color
1070
     1
1070
   256
1002
{
1002
}
1000
LType
1070
     4
1000
BYLAYER
1002
{
1002
}
1002
}
1000
CON2
1070
    10
1000
1
1002
{
1000
Class
1070
     4
1000
CON,BGD
1002
{
1002
}
1000
Color
1070
     1
1070
   256
1002
{
1002
}
1000
LType
1070
     4
1000
BYLAYER
1002
{
1002
}
1002
}
1000
CON3
1070
    10
1000
2
1002
{
1000
Class
1070
     4
1000
CON,BGD
1002
{
1002
}
1000
Color
1070
     1
1070
   256
1002
{
1002
}
1000
LType
1070
     4
1000
BYLAYER
1002
{
1002
}
1002
}
1000
CON4
1070
    10
1000
2
1002
{
1000
Class
1070
     4
1000
CON,BGD
1002
{
1002
}
1000
Color
1070
     1
1070
   256
1002
{
1002
}
1000
LType
1070
     4
1000
BYLAYER
1002
{
1002
}
1002
}
1000
DERP
1070
    10
1000
4
1002
{
1000
Class
1070
     4
1000

1002
{
1002
}
1000
Color
1070
     1
1070
   256
1002
{
1002
}
1000
LType
1070
     4
1000
BYLAYER
1002
{
1002
}
1002
}
1000
DETA
1070
    10
1000
4
1002
{
1000
Class
1070
     4
1000

1002
{
1002
}
1000
Color
1070
     1
1070
   256
1002
{
1002
}
1000
LType
1070
     4
1000
BYLAYER
1002
{
1002
}
1002
}
1000
DIAG
1070
    10
1000
5
1002
{
1000
Class
1070
     4
1000
SYM
1002
{
1002
}
1000
Color
1070
     1
1070
   256
1002
{
1002
}
1000
LType
1070
     4
1000
BYLAYER
1002
{
1002
}
1002
}
1000
DILI
1070
    10
1000
5
1002
{
1000
Class
1070
     4
1000
DIM,SYM
1002
{
1002
}
1000
Color
1070
     1
1070
   256
1002
{
1002
}
1000
LType
1070
     4
1000
BYLAYER
1002
{
1002
}
1002
}
1000
DITO2
1070
    10
1000
5
1002
{
1000
Class
1070
     4
1000
DIM,SYM
1002
{
1002
}
1000
Color
1070
     1
1070
     3
1002
{
1002
}
1000
LType
1070
     4
1000
BYLAYER
1002
{
1002
}
1002
}
1000
DITO3
1070
    10
1000
5
1002
{
1000
Class
1070
     4
1000
DIM,SYM
1002
{
1002
}
1000
Color
1070
     1
1070
     2
1002
{
1002
}
1000
LType
1070
     4
1000
BYLAYER
1002
{
1002
}
1002
}
1000
DITX
1070
    10
1000
5
1002
{
1000
Class
1070
     4
1000
DIM,SYM
1002
{
1002
}
1000
Color
1070
     1
1070
     2
1002
{
1002
}
1000
LType
1070
     4
1000
CONTINUOUS
1002
{
1002
}
1002
}
1000
DIXL
1070
    10
1000
5
1002
{
1000
Class
1070
     4
1000
DIM,SYM
1002
{
1002
}
1000
Color
1070
     1
1070
   256
1002
{
1002
}
1000
LType
1070
     4
1000
BYLAYER
1002
{
1002
}
1002
}
1000
EXMP
1070
    10
1000
4A
1002
{
1000
Class
1070
     4
1000

1002
{
1002
}
1000
Color
1070
     1
1070
   256
1002
{
1002
}
1000
LType
1070
     4
1000
BYLAYER
1002
{
1002
}
1002
}
1000
FEMN
1070
    10
1000
8
1002
{
1000
Class
1070
     4
1000

1002
{
1002
}
1000
Color
1070
     1
1070
   256
1002
{
1002
}
1000
LType
1070
     4
1000
BYLAYER
1002
{
1002
}
1002
}
1000
FEMPN
1070
    10
1000
8
1002
{
1000
Class
1070
     4
1000
SYM
1002
{
1002
}
1000
Color
1070
     1
1070
     3
1002
{
1002
}
1000
LType
1070
     4
1000
BYLAYER
1002
{
1002
}
1002
}
1000
FEMSP
1070
    10
1000
4A
1002
{
1000
Class
1070
     4
1000

1002
{
1002
}
1000
Color
1070
     1
1070
   256
1002
{
1002
}
1000
LType
1070
     4
1000
CONTINUOUS
1002
{
1002
}
1002
}
1000
FEMST
1070
    10
1000
4A
1002
{
1000
Class
1070
     4
1000
SYM
1002
{
1002
}
1000
Color
1070
     1
1070
     3
1002
{
1002
}
1000
LType
1070
     4
1000
BYLAYER
1002
{
1002
}
1002
}
1000
FEMVN
1070
    10
1000
2
1002
{
1000
Class
1070
     4
1000
CON
1002
{
1002
}
1000
Color
1070
     1
1070
   256
1002
{
1002
}
1000
LType
1070
     4
1000
BYLAYER
1002
{
1002
}
1002
}
1000
FEMVT
1070
    10
1000
2
1002
{
1000
Class
1070
     4
1000
SYM
1002
{
1002
}
1000
Color
1070
     1
1070
     3
1002
{
1002
}
1000
LType
1070
     4
1000
BYLAYER
1002
{
1002
}
1002
}
1000
FLAT
1070
    10
1000
0
1002
{
1000
Class
1070
     4
1000

1002
{
1002
}
1000
Color
1070
     1
1070
   256
1002
{
1002
}
1000
LType
1070
     4
1000
BYLAYER
1002
{
1002
}
1002
}
1000
FRAR
1070
    10
1000
4A
1002
{
1000
Class
1070
     4
1000

1002
{
1002
}
1000
Color
1070
     1
1070
   256
1002
{
1002
}
1000
LType
1070
     4
1000
BYLAYER
1002
{
1002
}
1002
}
1000
GRLI
1070
    10
1000
5
1002
{
1000
Class
1070
     4
1000
SYM
1002
{
1002
}
1000
Color
1070
     1
1070
   256
1002
{
1002
}
1000
LType
1070
     4
1000
BYLAYER
1002
{
1002
}
1002
}
1000
GVLI
1070
    10
1000
4A
1002
{
1000
Class
1070
     4
1000

1002
{
1002
}
1000
Color
1070
     1
1070
   256
1002
{
1002
}
1000
LType
1070
     4
1000
BYLAYER
1002
{
1002
}
1002
}
1000
HATC
1070
    10
1000
8
1002
{
1000
Class
1070
     4
1000
HTC,BGD
1002
{
1002
}
1000
Color
1070
     1
1070
   256
1002
{
1002
}
1000
LType
1070
     4
1000
BYLAYER
1002
{
1002
}
1002
}
1000
HIDN
1070
    10
1000
3A
1002
{
1000
Class
1070
     4
1000
HID,BGD
1002
{
1002
}
1000
Color
1070
     1
1070
   256
1002
{
1002
}
1000
LType
1070
     4
1000
BYLAYER
1002
{
1002
}
1002
}
1000
HIDW
1070
    10
1000
3
1002
{
1000
Class
1070
     4
1000
HID,BGD
1002
{
1002
}
1000
Color
1070
     1
1070
   256
1002
{
1002
}
1000
LType
1070
     4
1000
BYLAYER
1002
{
1002
}
1002
}
1000
HLIN
1070
    10
1000
4
1002
{
1000
Class
1070
     4
1000
BGD
1002
{
1002
}
1000
Color
1070
     1
1070
   256
1002
{
1002
}
1000
LType
1070
     4
1000
BYLAYER
1002
{
1002
}
1002
}
1000
HOCN
1070
    10
1000
7A
1002
{
1000
Class
1070
     4
1000
CEN
1002
{
1002
}
1000
Color
1070
     1
1070
   256
1002
{
1002
}
1000
LType
1070
     4
1000
BYLAYER
1002
{
1002
}
1002
}
1000
HOCW
1070
    10
1000
7
1002
{
1000
Class
1070
     4
1000
CEN
1002
{
1002
}
1000
Color
1070
     1
1070
   256
1002
{
1002
}
1000
LType
1070
     4
1000
BYLAYER
1002
{
1002
}
1002
}
1000
INFO
1070
    10
1000
INFO
1002
{
1000
Class
1070
     4
1000
SPZ,SYM
1002
{
1002
}
1000
Color
1070
     1
1070
   256
1002
{
1002
}
1000
LType
1070
     4
1000
BYLAYER
1002
{
1002
}
1002
}
1000
LADI
1070
    10
1000
4
1002
{
1000
Class
1070
     4
1000
BGD
1002
{
1002
}
1000
Color
1070
     1
1070
   256
1002
{
1002
}
1000
LType
1070
     4
1000
BYLAYER
1002
{
1002
}
1002
}
1000
LEAD
1070
    10
1000
5
1002
{
1000
Class
1070
     4
1000
SYM
1002
{
1002
}
1000
Color
1070
     1
1070
   256
1002
{
1002
}
1000
LType
1070
     4
1000
BYLAYER
1002
{
1002
}
1002
}
1000
N_ADDL
1070
    10
1000
5N
1002
{
1000
Class
1070
     4
1000
SYM
1002
{
1002
}
1000
Color
1070
     1
1070
     1
1002
{
1002
}
1000
LType
1070
     4
1000
BYLAYER
1002
{
1002
}
1002
}
1000
N_BHNV
1070
    10
1000
9N
1002
{
1000
Class
1070
     4
1000
INV
1002
{
1002
}
1000
Color
1070
     1
1070
   256
1002
{
1002
}
1000
LType
1070
     4
1000
BYLAYER
1002
{
1002
}
1002
}
1000
N_CON1
1070
    10
1000
0N
1002
{
1000
Class
1070
     4
1000
CON,BGD
1002
{
1002
}
1000
Color
1070
     1
1070
   256
1002
{
1002
}
1000
LType
1070
     4
1000
BYLAYER
1002
{
1002
}
1002
}
1000
N_CON2
1070
    10
1000
1N
1002
{
1000
Class
1070
     4
1000
CON,BGD
1002
{
1002
}
1000
Color
1070
     1
1070
   256
1002
{
1002
}
1000
LType
1070
     4
1000
BYLAYER
1002
{
1002
}
1002
}
1000
N_CON3
1070
    10
1000
2N
1002
{
1000
Class
1070
     4
1000
CON,BGD
1002
{
1002
}
1000
Color
1070
     1
1070
   256
1002
{
1002
}
1000
LType
1070
     4
1000
BYLAYER
1002
{
1002
}
1002
}
1000
N_CON4
1070
    10
1000
2N
1002
{
1000
Class
1070
     4
1000
CON,BGD
1002
{
1002
}
1000
Color
1070
     1
1070
   256
1002
{
1002
}
1000
LType
1070
     4
1000
BYLAYER
1002
{
1002
}
1002
}
1000
N_CENN
1070
    10
1000
7AN
1002
{
1000
Class
1070
     4
1000
CEN
1002
{
1002
}
1000
Color
1070
     1
1070
   256
1002
{
1002
}
1000
LType
1070
     4
1000
BYLAYER
1002
{
1002
}
1002
}
1000
N_CENW
1070
    10
1000
7N
1002
{
1000
Class
1070
     4
1000
CEN
1002
{
1002
}
1000
Color
1070
     1
1070
   256
1002
{
1002
}
1000
LType
1070
     4
1000
BYLAYER
1002
{
1002
}
1002
}
1000
N_DILI
1070
    10
1000
5N
1002
{
1000
Class
1070
     4
1000
DIM,SYM
1002
{
1002
}
1000
Color
1070
     1
1070
   256
1002
{
1002
}
1000
LType
1070
     4
1000
BYLAYER
1002
{
1002
}
1002
}
1000
N_DITX
1070
    10
1000
5N
1002
{
1000
Class
1070
     4
1000
DIM,SYM
1002
{
1002
}
1000
Color
1070
     1
1070
     2
1002
{
1002
}
1000
LType
1070
     4
1000
CONTINUOUS
1002
{
1002
}
1002
}
1000
N_DIXL
1070
    10
1000
5N
1002
{
1000
Class
1070
     4
1000
DIM,SYM
1002
{
1002
}
1000
Color
1070
     1
1070
   256
1002
{
1002
}
1000
LType
1070
     4
1000
BYLAYER
1002
{
1002
}
1002
}
1000
N_HATC
1070
    10
1000
8N
1002
{
1000
Class
1070
     4
1000
HTC,BGD
1002
{
1002
}
1000
Color
1070
     1
1070
   256
1002
{
1002
}
1000
LType
1070
     4
1000
BYLAYER
1002
{
1002
}
1002
}
1000
N_HIDN
1070
    10
1000
3AN
1002
{
1000
Class
1070
     4
1000
HID,BGD
1002
{
1002
}
1000
Color
1070
     1
1070
   256
1002
{
1002
}
1000
LType
1070
     4
1000
BYLAYER
1002
{
1002
}
1002
}
1000
N_HIDW
1070
    10
1000
3N
1002
{
1000
Class
1070
     4
1000
HID,BGD
1002
{
1002
}
1000
Color
1070
     1
1070
   256
1002
{
1002
}
1000
LType
1070
     4
1000
BYLAYER
1002
{
1002
}
1002
}
1000
N_NGIP
1070
    10
1000
IPN
1002
{
1000
Class
1070
     4
1000

1002
{
1002
}
1000
Color
1070
     1
1070
   256
1002
{
1002
}
1000
LType
1070
     4
1000
BYLAYER
1002
{
1002
}
1002
}
1000
N_PHAN
1070
    10
1000
4AN
1002
{
1000
Class
1070
     4
1000

1002
{
1002
}
1000
Color
1070
     1
1070
   256
1002
{
1002
}
1000
LType
1070
     4
1000
BYLAYER
1002
{
1002
}
1002
}
1000
N_POSL
1070
    10
1000
5N
1002
{
1000
Class
1070
     4
1000
SYM
1002
{
1002
}
1000
Color
1070
     1
1070
   256
1002
{
1002
}
1000
LType
1070
     4
1000
BYLAYER
1002
{
1002
}
1002
}
1000
N_TCON
1070
    10
1000
0N
1002
{
1000
Class
1070
     4
1000
CON,BGD
1002
{
1002
}
1000
Color
1070
     1
1070
   256
1002
{
1002
}
1000
LType
1070
     4
1000
BYLAYER
1002
{
1002
}
1002
}
1000
N_THLI
1070
    10
1000
4N
1002
{
1000
Class
1070
     4
1000
BGD
1002
{
1002
}
1000
Color
1070
     1
1070
   256
1002
{
1002
}
1000
LType
1070
     4
1000
BYLAYER
1002
{
1002
}
1002
}
1000
N_TLEN
1070
    10
1000
0N
1002
{
1000
Class
1070
     4
1000
CON,BGD
1002
{
1002
}
1000
Color
1070
     1
1070
   256
1002
{
1002
}
1000
LType
1070
     4
1000
BYLAYER
1002
{
1002
}
1002
}
1000
N_TXT3
1070
    10
1000
6N
1002
{
1000
Class
1070
     4
1000
SYM
1002
{
1002
}
1000
Color
1070
     1
1070
   256
1002
{
1002
}
1000
LType
1070
     4
1000
BYLAYER
1002
{
1002
}
1002
}
1000
N_VPLI
1070
    10
1000
2AN
1002
{
1000
Class
1070
     4
1000

1002
{
1002
}
1000
Color
1070
     1
1070
   256
1002
{
1002
}
1000
LType
1070
     4
1000
BYLAYER
1002
{
1002
}
1002
}
1000
NGIP
1070
    10
1000
IP
1002
{
1000
Class
1070
     4
1000

1002
{
1002
}
1000
Color
1070
     1
1070
   256
1002
{
1002
}
1000
LType
1070
     4
1000
BYLAYER
1002
{
1002
}
1002
}
1000
PAL2
1070
    10
1000
RAHM2
1002
{
1000
Class
1070
     4
1000
SPZ,SYM
1002
{
1002
}
1000
Color
1070
     1
1070
   256
1002
{
1002
}
1000
LType
1070
     4
1000
BYLAYER
1002
{
1002
}
1002
}
1000
PAL3
1070
    10
1000
RAHM3
1002
{
1000
Class
1070
     4
1000
SPZ,SYM
1002
{
1002
}
1000
Color
1070
     1
1070
   256
1002
{
1002
}
1000
LType
1070
     4
1000
BYLAYER
1002
{
1002
}
1002
}
1000
PAL5
1070
    10
1000
RAHM5
1002
{
1000
Class
1070
     4
1000
SPZ,SYM
1002
{
1002
}
1000
Color
1070
     1
1070
   256
1002
{
1002
}
1000
LType
1070
     4
1000
BYLAYER
1002
{
1002
}
1002
}
1000
PAL7
1070
    10
1000
RAHM5
1002
{
1000
Class
1070
     4
1000
SPZ,SYM
1002
{
1002
}
1000
Color
1070
     1
1070
     7
1002
{
1002
}
1000
LType
1070
     4
1000
CONTINUOUS
1002
{
1002
}
1002
}
1000
PHAN
1070
    10
1000
4A
1002
{
1000
Class
1070
     4
1000

1002
{
1002
}
1000
Color
1070
     1
1070
   256
1002
{
1002
}
1000
LType
1070
     4
1000
BYLAYER
1002
{
1002
}
1002
}
1000
POSL
1070
    10
1000
5
1002
{
1000
Class
1070
     4
1000
SYM
1002
{
1002
}
1000
Color
1070
     1
1070
   256
1002
{
1002
}
1000
LType
1070
     4
1000
BYLAYER
1002
{
1002
}
1002
}
1000
POSN
1070
    10
1000
6
1002
{
1000
Class
1070
     4
1000
SYM
1002
{
1002
}
1000
Color
1070
     1
1070
     7
1002
{
1002
}
1000
LType
1070
     4
1000
BYLAYER
1002
{
1002
}
1002
}
1000
POSREF
1070
    10
1000
6
1002
{
1000
Class
1070
     4
1000
SYM
1002
{
1002
}
1000
Color
1070
     1
1070
     5
1002
{
1002
}
1000
LType
1070
     4
1000
BYLAYER
1002
{
1002
}
1002
}
1000
POSX
1070
    10
1000
5
1002
{
1000
Class
1070
     4
1000
SYM
1002
{
1002
}
1000
Color
1070
     1
1070
     2
1002
{
1002
}
1000
LType
1070
     4
1000
CONTINUOUS
1002
{
1002
}
1002
}
1000
PSEC
1070
    10
1000
4A
1002
{
1000
Class
1070
     4
1000

1002
{
1002
}
1000
Color
1070
     1
1070
   256
1002
{
1002
}
1000
LType
1070
     4
1000
BYLAYER
1002
{
1002
}
1002
}
1000
RCGN
1070
    10
1000
7A
1002
{
1000
Class
1070
     4
1000
CEN
1002
{
1002
}
1000
Color
1070
     1
1070
   256
1002
{
1002
}
1000
LType
1070
     4
1000
BYLAYER
1002
{
1002
}
1002
}
1000
RCGW
1070
    10
1000
7
1002
{
1000
Class
1070
     4
1000
CEN
1002
{
1002
}
1000
Color
1070
     1
1070
   256
1002
{
1002
}
1000
LType
1070
     4
1000
BYLAYER
1002
{
1002
}
1002
}
1000
RFDI
1070
    10
1000
4
1002
{
1000
Class
1070
     4
1000
BGD
1002
{
1002
}
1000
Color
1070
     1
1070
   256
1002
{
1002
}
1000
LType
1070
     4
1000
BYLAYER
1002
{
1002
}
1002
}
1000
RQTR
1070
    10
1000
4
1002
{
1000
Class
1070
     4
1000

1002
{
1002
}
1000
Color
1070
     1
1070
     7
1002
{
1002
}
1000
LType
1070
     4
1000
GEN7A
1002
{
1002
}
1002
}
1000
RSBO
1070
    10
1000
4
1002
{
1000
Class
1070
     4
1000
BGD
1002
{
1002
}
1000
Color
1070
     1
1070
   256
1002
{
1002
}
1000
LType
1070
     4
1000
BYLAYER
1002
{
1002
}
1002
}
1000
SBRK
1070
    10
1000
4
1002
{
1000
Class
1070
     4
1000
BGD
1002
{
1002
}
1000
Color
1070
     1
1070
   256
1002
{
1002
}
1000
LType
1070
     4
1000
BYLAYER
1002
{
1002
}
1002
}
1000
SCEN
1070
    10
1000
7
1002
{
1000
Class
1070
     4
1000

1002
{
1002
}
1000
Color
1070
     1
1070
   256
1002
{
1002
}
1000
LType
1070
     4
1000
CONTINUOUS
1002
{
1002
}
1002
}
1000
SECT
1070
    10
1000
4
1002
{
1000
Class
1070
     4
1000
BGD
1002
{
1002
}
1000
Color
1070
     1
1070
   256
1002
{
1002
}
1000
LType
1070
     4
1000
BYLAYER
1002
{
1002
}
1002
}
1000
SELN
1070
    10
1000
7A
1002
{
1000
Class
1070
     4
1000

1002
{
1002
}
1000
Color
1070
     1
1070
   256
1002
{
1002
}
1000
LType
1070
     4
1000
BYLAYER
1002
{
1002
}
1002
}
1000
SELW
1070
    10
1000
7
1002
{
1000
Class
1070
     4
1000

1002
{
1002
}
1000
Color
1070
     1
1070
   256
1002
{
1002
}
1000
LType
1070
     4
1000
BYLAYER
1002
{
1002
}
1002
}
1000
SSYS
1070
    10
1000
0
1002
{
1000
Class
1070
     4
1000

1002
{
1002
}
1000
Color
1070
     1
1070
   256
1002
{
1002
}
1000
LType
1070
     4
1000
BYLAYER
1002
{
1002
}
1002
}
1000
STLI
1070
    10
1000
4
1002
{
1000
Class
1070
     4
1000

1002
{
1002
}
1000
Color
1070
     1
1070
     7
1002
{
1002
}
1000
LType
1070
     4
1000
GEN3A
1002
{
1002
}
1002
}
1000
SYB1
1070
    10
1000
5
1002
{
1000
Class
1070
     4
1000
SYM
1002
{
1002
}
1000
Color
1070
     1
1070
   256
1002
{
1002
}
1000
LType
1070
     4
1000
BYLAYER
1002
{
1002
}
1002
}
1000
SYB2
1070
    10
1000
5
1002
{
1000
Class
1070
     4
1000
SYM
1002
{
1002
}
1000
Color
1070
     1
1070
   256
1002
{
1002
}
1000
LType
1070
     4
1000
BYLAYER
1002
{
1002
}
1002
}
1000
SYB3
1070
    10
1000
6
1002
{
1000
Class
1070
     4
1000
SYM
1002
{
1002
}
1000
Color
1070
     1
1070
   256
1002
{
1002
}
1000
LType
1070
     4
1000
CONTINUOUS
1002
{
1002
}
1002
}
1000
SYB5
1070
    10
1000
5
1002
{
1000
Class
1070
     4
1000
SYM
1002
{
1002
}
1000
Color
1070
     1
1070
     7
1002
{
1002
}
1000
LType
1070
     4
1000
BYLAYER
1002
{
1002
}
1002
}
1000
SYMN
1070
    10
1000
7A
1002
{
1000
Class
1070
     4
1000
CEN
1002
{
1002
}
1000
Color
1070
     1
1070
   256
1002
{
1002
}
1000
LType
1070
     4
1000
BYLAYER
1002
{
1002
}
1002
}
1000
SYMW
1070
    10
1000
7
1002
{
1000
Class
1070
     4
1000
CEN
1002
{
1002
}
1000
Color
1070
     1
1070
   256
1002
{
1002
}
1000
LType
1070
     4
1000
BYLAYER
1002
{
1002
}
1002
}
1000
TCON
1070
    10
1000
0
1002
{
1000
Class
1070
     4
1000
CON,BGD
1002
{
1002
}
1000
Color
1070
     1
1070
   256
1002
{
1002
}
1000
LType
1070
     4
1000
BYLAYER
1002
{
1002
}
1002
}
1000
THLI
1070
    10
1000
4
1002
{
1000
Class
1070
     4
1000
BGD
1002
{
1002
}
1000
Color
1070
     1
1070
   256
1002
{
1002
}
1000
LType
1070
     4
1000
BYLAYER
1002
{
1002
}
1002
}
1000
TIT2
1070
    10
1000
RAHM2
1002
{
1000
Class
1070
     4
1000
SPZ,SYM
1002
{
1002
}
1000
Color
1070
     1
1070
   256
1002
{
1002
}
1000
LType
1070
     4
1000
BYLAYER
1002
{
1002
}
1002
}
1000
TIT3
1070
    10
1000
RAHM3
1002
{
1000
Class
1070
     4
1000
SPZ,SYM
1002
{
1002
}
1000
Color
1070
     1
1070
   256
1002
{
1002
}
1000
LType
1070
     4
1000
BYLAYER
1002
{
1002
}
1002
}
1000
TIT5
1070
    10
1000
RAHM5
1002
{
1000
Class
1070
     4
1000
SPZ,SYM
1002
{
1002
}
1000
Color
1070
     1
1070
   256
1002
{
1002
}
1000
LType
1070
     4
1000
BYLAYER
1002
{
1002
}
1002
}
1000
TIT7
1070
    10
1000
RAHM5
1002
{
1000
Class
1070
     4
1000
SPZ,SYM
1002
{
1002
}
1000
Color
1070
     1
1070
     7
1002
{
1002
}
1000
LType
1070
     4
1000
CONTINUOUS
1002
{
1002
}
1002
}
1000
TLEN
1070
    10
1000
0
1002
{
1000
Class
1070
     4
1000
CON,BGD
1002
{
1002
}
1000
Color
1070
     1
1070
   256
1002
{
1002
}
1000
LType
1070
     4
1000
BYLAYER
1002
{
1002
}
1002
}
1000
TRKN
1070
    10
1000
7A
1002
{
1000
Class
1070
     4
1000

1002
{
1002
}
1000
Color
1070
     1
1070
   256
1002
{
1002
}
1000
LType
1070
     4
1000
BYLAYER
1002
{
1002
}
1002
}
1000
TRKW
1070
    10
1000
7
1002
{
1000
Class
1070
     4
1000

1002
{
1002
}
1000
Color
1070
     1
1070
   256
1002
{
1002
}
1000
LType
1070
     4
1000
BYLAYER
1002
{
1002
}
1002
}
1000
TRLI
1070
    10
1000
4
1002
{
1000
Class
1070
     4
1000
BGD
1002
{
1002
}
1000
Color
1070
     1
1070
   256
1002
{
1002
}
1000
LType
1070
     4
1000
BYLAYER
1002
{
1002
}
1002
}
1000
TXT1
1070
    10
1000
6
1002
{
1000
Class
1070
     4
1000
SYM
1002
{
1002
}
1000
Color
1070
     1
1070
     2
1002
{
1002
}
1000
LType
1070
     4
1000
BYLAYER
1002
{
1002
}
1002
}
1000
TXT2
1070
    10
1000
6
1002
{
1000
Class
1070
     4
1000
SYM
1002
{
1002
}
1000
Color
1070
     1
1070
     2
1002
{
1002
}
1000
LType
1070
     4
1000
BYLAYER
1002
{
1002
}
1002
}
1000
TXT3
1070
    10
1000
6
1002
{
1000
Class
1070
     4
1000
SYM
1002
{
1002
}
1000
Color
1070
     1
1070
   256
1002
{
1002
}
1000
LType
1070
     4
1000
BYLAYER
1002
{
1002
}
1002
}
1000
TXT5
1070
    10
1000
6
1002
{
1000
Class
1070
     4
1000
SYM
1002
{
1002
}
1000
Color
1070
     1
1070
     7
1002
{
1002
}
1000
LType
1070
     4
1000
BYLAYER
1002
{
1002
}
1002
}
1000
TXT7
1070
    10
1000
6
1002
{
1000
Class
1070
     4
1000
SYM
1002
{
1002
}
1000
Color
1070
     1
1070
     7
1002
{
1002
}
1000
LType
1070
     4
1000
BYLAYER
1002
{
1002
}
1002
}
1000
VIEW
1070
    10
1000
VIEW
1002
{
1000
Class
1070
     4
1000
SPZ
1002
{
1002
}
1000
Color
1070
     1
1070
   256
1002
{
1002
}
1000
LType
1070
     4
1000
BYLAYER
1002
{
1002
}
1002
}
1000
VPLI
1070
    10
1000
2A
1002
{
1000
Class
1070
     4
1000

1002
{
1002
}
1000
Color
1070
     1
1070
   256
1002
{
1002
}
1000
LType
1070
     4
1000
BYLAYER
1002
{
1002
}
1002
}
1000
ZIZA
1070
    10
1000
4
1002
{
1000
Class
1070
     4
1000
BGD
1002
{
1002
}
1000
Color
1070
     1
1070
   256
1002
{
1002
}
1000
LType
1070
     4
1000
GENZIGZAG
1002
{
1002
}
1002
}
  0
APPID
  5
148B
330
1440
100
AcDbSymbolTableRecord
100
AcDbRegAppTableRecord
  2
GENIUS_GENCFG4_13
 70
     0
1001
GENIUS_GENCFG_13
1071
1043404601
1000
148B
1000
GEN
1070
    10
1000
GenCfgObject
1000
GenCfgShort
1000
GenCfgReal
1000
GenCfgBool
1000
GenCfgString
1000
GenCfgDim
1000
GenCfgPoint
1000
GenCfgLaySection
1000
GenCfgLType
1000
GenCfgFilter
1000
Balloon
1070
     0
1002
{
1000
GenIF
1070
     1
1070
     0
1002
{
1002
}
1000
GenPosInc
1070
     1
1070
     1
1002
{
1002
}
1000
GenPosBlk
1070
     1
1070
     8
1002
{
1002
}
1000
GenPosVar
1070
     1
1070
     0
1002
{
1002
}
1000
GenZiCir
1070
     2
1040
1.5
1002
{
1002
}
1000
MaxCharForCenteredText
1070
     1
1070
    30
1002
{
1002
}
1000
Snap
1070
     0
1002
{
1000
ActivationRadius
1070
     2
1040
1.0
1002
{
1002
}
1000
M
1070
     0
1002
{
1000
SnapStepX
1070
     2
1040
20.0
1002
{
1002
}
1000
SnapStepY
1070
     2
1040
10.0
1002
{
1002
}
1002
}
1000
I
1070
     0
1002
{
1000
SnapStepX
1070
     2
1040
1.0
1002
{
1002
}
1000
SnapStepY
1070
     2
1040
0.5
1002
{
1002
}
1002
}
1002
}
1002
}
1000
Centerline
1070
     0
1002
{
1000
ScaleNot
1070
     3
1070
     0
1002
{
1002
}
1000
M
1070
     0
1002
{
1000
GenCenAng
1070
     4
1000
45|90|135
1002
{
1002
}
1000
GenCenDia
1070
     2
1040
10.0
1002
{
1002
}
1000
GenCenDias
1070
     4
1000
10|20|30
1002
{
1002
}
1000
GenCenDist
1070
     2
1040
3.0
1002
{
1002
}
1000
GenCenLen
1070
     2
1040
10.0
1002
{
1002
}
1000
GenCenOff
1070
     2
1040
10.0
1002
{
1002
}
1002
}
1000
I
1070
     0
1002
{
1000
GenCenAng
1070
     4
1000
45|90|135
1002
{
1002
}
1000
GenCenDia
1070
     2
1040
0.5
1002
{
1002
}
1000
GenCenDias
1070
     4
1000
0.5|1.0|1.5
1002
{
1002
}
1000
GenCenDist
1070
     2
1040
0.125
1002
{
1002
}
1000
GenCenLen
1070
     2
1040
0.5
1002
{
1002
}
1000
GenCenOff
1070
     2
1040
0.5
1002
{
1002
}
1002
}
1002
}
1000
CLine
1070
     0
1002
{
1000
CAngArray
1070
     4
1000
30|45|60
1002
{
1002
}
1000
Typ
1070
     4
1000
XLINE
1002
{
1002
}
1000
M
1070
     0
1002
{
1000
CLinArray
1070
     4
1000
10|20|30
1002
{
1002
}
1002
}
1000
I
1070
     0
1002
{
1000
CLinArray
1070
     4
1000
0.125|0.25|0.5
1002
{
1002
}
1002
}
1002
}
1000
Detail
1070
     0
1002
{
1002
}
1000
Dimension
1070
     5
1002
{
1000
DIMALT
1070
     1
1070
     0
1002
{
1002
}
1000
DIMALTD
1070
     1
1070
     2
1002
{
1002
}
1000
DIMALTTD
1070
     1
1070
     4
1002
{
1002
}
1000
DIMALTTZ
1070
     1
1070
     0
1002
{
1002
}
1000
DIMALTU
1070
     1
1070
     2
1002
{
1002
}
1000
DIMALTZ
1070
     1
1070
     0
1002
{
1002
}
1000
DIMAUNIT
1070
     1
1070
     0
1002
{
1002
}
1000
DIMBLK
1070
     4
1000

1002
{
1002
}
1000
DIMBLK1
1070
     4
1000

1002
{
1002
}
1000
DIMBLK2
1070
     4
1000

1002
{
1002
}
1000
DIMCLRD
1070
     1
1070
   256
1002
{
1002
}
1000
DIMCLRE
1070
     1
1070
   256
1002
{
1002
}
1000
DIMCLRT
1070
     1
1070
     2
1002
{
1002
}
1000
DIMDLE
1070
     2
1040
0.0
1002
{
1002
}
1000
DIMFIT
1070
     1
1070
     3
1002
{
1002
}
1000
DIMJUST
1070
     1
1070
     0
1002
{
1002
}
1000
DIMLFAC
1070
     2
1040
1.0
1002
{
1002
}
1000
DIMLIM
1070
     1
1070
     0
1002
{
1002
}
1000
DIMPOST
1070
     4
1000

1002
{
1002
}
1000
DIMRND
1070
     2
1040
0.0
1002
{
1002
}
1000
DIMSAH
1070
     1
1070
     0
1002
{
1002
}
1000
DIMSCALE
1070
     2
1040
1.0
1002
{
1002
}
1000
DIMSD1
1070
     1
1070
     0
1002
{
1002
}
1000
DIMSD2
1070
     1
1070
     0
1002
{
1002
}
1000
DIMSE1
1070
     1
1070
     0
1002
{
1002
}
1000
DIMSE2
1070
     1
1070
     0
1002
{
1002
}
1000
DIMSOXD
1070
     1
1070
     0
1002
{
1002
}
1000
DIMTAD
1070
     1
1070
     0
1002
{
1002
}
1000
DIMTFAC
1070
     2
1040
0.71
1002
{
1002
}
1000
DIMTIH
1070
     1
1070
     0
1002
{
1002
}
1000
DIMTIX
1070
     1
1070
     0
1002
{
1002
}
1000
DIMTM
1070
     2
1040
0.1
1002
{
1002
}
1000
DIMTOFL
1070
     1
1070
     0
1002
{
1002
}
1000
DIMTOH
1070
     1
1070
     0
1002
{
1002
}
1000
DIMTOL
1070
     1
1070
     0
1002
{
1002
}
1000
DIMTOLJ
1070
     1
1070
     1
1002
{
1002
}
1000
DIMTP
1070
     2
1040
0.1
1002
{
1002
}
1000
DIMTSZ
1070
     2
1040
0.0
1002
{
1002
}
1000
DIMTVP
1070
     2
1040
0.0
1002
{
1002
}
1000
DIMTXSTY
1070
     4
1000
STANDARD
1002
{
1002
}
1000
DIMTZIN
1070
     1
1070
     0
1002
{
1002
}
1000
DIMUNIT
1070
     1
1070
     2
1002
{
1002
}
1000
DIMUPT
1070
     1
1070
     0
1002
{
1002
}
1000
M
1070
     0
1002
{
1000
DIMALTF
1070
     2
1040
0.03937
1002
{
1002
}
1000
DIMAPOST
1070
     4
1000
"
1002
{
1002
}
1000
DIMASZ
1070
     2
1040
2.5
1002
{
1002
}
1000
DIMCEN
1070
     2
1040
0.0
1002
{
1002
}
1000
DIMDEC
1070
     1
1070
     2
1002
{
1002
}
1000
DIMDLI
1070
     2
1040
7.0
1002
{
1002
}
1000
DIMEXE
1070
     2
1040
1.0
1002
{
1002
}
1000
DIMEXO
1070
     2
1040
1.0
1002
{
1002
}
1000
DIMGAP
1070
     2
1040
0.6
1002
{
1002
}
1000
DIMTDEC
1070
     1
1070
     3
1002
{
1002
}
1000
DIMTXT
1070
     2
1040
3.5
1002
{
1002
}
1000
DIMZIN
1070
     1
1070
     8
1002
{
1002
}
1002
}
1000
I
1070
     0
1002
{
1000
DIMALTF
1070
     2
1040
25.4
1002
{
1002
}
1000
DIMAPOST
1070
     4
1000
mm
1002
{
1002
}
1000
DIMASZ
1070
     2
1040
0.1
1002
{
1002
}
1000
DIMCEN
1070
     2
1040
0.0
1002
{
1002
}
1000
DIMDEC
1070
     1
1070
     4
1002
{
1002
}
1000
DIMDLI
1070
     2
1040
0.5
1002
{
1002
}
1000
DIMEXE
1070
     2
1040
0.1
1002
{
1002
}
1000
DIMEXO
1070
     2
1040
0.05
1002
{
1002
}
1000
DIMGAP
1070
     2
1040
0.06
1002
{
1002
}
1000
DIMTDEC
1070
     1
1070
     4
1002
{
1002
}
1000
DIMTXT
1070
     2
1040
0.12
1002
{
1002
}
1000
DIMZIN
1070
     1
1070
     7
1002
{
1002
}
1002
}
1000
GEN-ISO
1070
     5
1002
{
1000
NAME
1070
     4
1000
GEN-ISO
1002
{
1002
}
1000
DIMTAD
1070
     1
1070
     1
1002
{
1002
}
1000
DIMTOLJ
1070
     1
1070
     0
1002
{
1002
}
1000
DIMTOFL
1070
     1
1070
     1
1002
{
1002
}
1000
M
1070
     0
1002
{
1002
}
1000
I
1070
     0
1002
{
1002
}
1002
}
1000
GEN-ISO-POS
1070
     5
1002
{
1000
NAME
1070
     4
1000
GEN-ISO-POS
1002
{
1002
}
1000
DIMTOLJ
1070
     1
1070
     0
1002
{
1002
}
1000
DIMTXSTY
1070
     4
1000
STANDARD
1002
{
1002
}
1000
M
1070
     0
1002
{
1000
DIMASZ
1070
     2
1040
2.5
1002
{
1002
}
1000
DIMGAP
1070
     2
1040
1.5
1002
{
1002
}
1000
DIMTXT
1070
     2
1040
5.0
1002
{
1002
}
1002
}
1000
I
1070
     0
1002
{
1000
DIMASZ
1070
     2
1040
0.1
1002
{
1002
}
1000
DIMGAP
1070
     2
1040
0.06
1002
{
1002
}
1000
DIMTXT
1070
     2
1040
0.2
1002
{
1002
}
1002
}
1002
}
1000
GEN-ISO-CIR
1070
     5
1002
{
1000
NAME
1070
     4
1000
GEN-ISO$3
1002
{
1002
}
1000
DIMFIT
1070
     1
1070
     0
1002
{
1002
}
1000
DIMTAD
1070
     1
1070
     1
1002
{
1002
}
1000
DIMTOH
1070
     1
1070
     1
1002
{
1002
}
1000
DIMTOLJ
1070
     1
1070
     0
1002
{
1002
}
1000
DIMUPT
1070
     1
1070
     1
1002
{
1002
}
1000
M
1070
     0
1002
{
1002
}
1000
I
1070
     0
1002
{
1002
}
1002
}
1000
GEN-ISO-RAD
1070
     5
1002
{
1000
NAME
1070
     4
1000
GEN-ISO$4
1002
{
1002
}
1000
DIMFIT
1070
     1
1070
     0
1002
{
1002
}
1000
DIMTAD
1070
     1
1070
     1
1002
{
1002
}
1000
DIMTIH
1070
     1
1070
     0
1002
{
1002
}
1000
DIMTIX
1070
     1
1070
     0
1002
{
1002
}
1000
DIMTOH
1070
     1
1070
     1
1002
{
1002
}
1000
DIMTOLJ
1070
     1
1070
     0
1002
{
1002
}
1000
DIMTOFL
1070
     1
1070
     0
1002
{
1002
}
1000
DIMUPT
1070
     1
1070
     1
1002
{
1002
}
1000
M
1070
     0
1002
{
1002
}
1000
I
1070
     0
1002
{
1002
}
1002
}
1000
GEN-ISO-ORD
1070
     5
1002
{
1000
NAME
1070
     4
1000
GEN-ISO$6
1002
{
1002
}
1000
DIMTOLJ
1070
     1
1070
     0
1002
{
1002
}
1000
M
1070
     0
1002
{
1002
}
1000
I
1070
     0
1002
{
1002
}
1002
}
1000
GEN-ISO-AXE-F
1070
     5
1002
{
1000
NAME
1070
     4
1000
GEN-ISO-AXE-F
1002
{
1002
}
1000
DIMSE1
1070
     1
1070
     1
1002
{
1002
}
1000
DIMSE2
1070
     1
1070
     1
1002
{
1002
}
1000
DIMTAD
1070
     1
1070
     1
1002
{
1002
}
1000
DIMTOLJ
1070
     1
1070
     0
1002
{
1002
}
1000
DIMTOFL
1070
     1
1070
     1
1002
{
1002
}
1000
M
1070
     0
1002
{
1002
}
1000
I
1070
     0
1002
{
1002
}
1002
}
1000
GEN-ISO-AXE-H
1070
     5
1002
{
1000
NAME
1070
     4
1000
GEN-ISO-AXE-H
1002
{
1002
}
1000
DIMBLK1
1070
     4
1000
GENAXEH
1002
{
1002
}
1000
DIMLFAC
1070
     2
1040
2.0
1002
{
1002
}
1000
DIMSAH
1070
     1
1070
     1
1002
{
1002
}
1000
DIMSE1
1070
     1
1070
     1
1002
{
1002
}
1000
DIMSE2
1070
     1
1070
     1
1002
{
1002
}
1000
DIMTAD
1070
     1
1070
     1
1002
{
1002
}
1000
DIMTOLJ
1070
     1
1070
     0
1002
{
1002
}
1000
DIMTOFL
1070
     1
1070
     1
1002
{
1002
}
1000
M
1070
     0
1002
{
1002
}
1000
I
1070
     0
1002
{
1002
}
1002
}
1000
GEN-ANSI
1070
     5
1002
{
1000
NAME
1070
     4
1000
GEN-ANSI
1002
{
1002
}
1000
DIMTIH
1070
     1
1070
     1
1002
{
1002
}
1000
DIMTOH
1070
     1
1070
     1
1002
{
1002
}
1000
DIMTAD
1070
     1
1070
     0
1002
{
1002
}
1000
DIMTOLJ
1070
     1
1070
     1
1002
{
1002
}
1000
M
1070
     0
1002
{
1002
}
1000
I
1070
     0
1002
{
1002
}
1002
}
1000
GEN-ANSI-POS
1070
     5
1002
{
1000
NAME
1070
     4
1000
GEN-ANSI-POS
1002
{
1002
}
1000
DIMTOLJ
1070
     1
1070
     1
1002
{
1002
}
1000
DIMTXSTY
1070
     4
1000
STANDARD
1002
{
1002
}
1000
M
1070
     0
1002
{
1000
DIMASZ
1070
     2
1040
2.5
1002
{
1002
}
1000
DIMGAP
1070
     2
1040
1.5
1002
{
1002
}
1000
DIMTXT
1070
     2
1040
5.0
1002
{
1002
}
1002
}
1000
I
1070
     0
1002
{
1000
DIMASZ
1070
     2
1040
0.1
1002
{
1002
}
1000
DIMGAP
1070
     2
1040
0.06
1002
{
1002
}
1000
DIMTXT
1070
     2
1040
0.2
1002
{
1002
}
1002
}
1002
}
1000
GEN-ANSI-CIR
1070
     5
1002
{
1000
NAME
1070
     4
1000
GEN-ANSI$3
1002
{
1002
}
1000
DIMFIT
1070
     1
1070
     0
1002
{
1002
}
1000
DIMTAD
1070
     1
1070
     0
1002
{
1002
}
1000
DIMTIH
1070
     1
1070
     1
1002
{
1002
}
1000
DIMTIX
1070
     1
1070
     0
1002
{
1002
}
1000
DIMTOFL
1070
     1
1070
     0
1002
{
1002
}
1000
DIMTOH
1070
     1
1070
     1
1002
{
1002
}
1000
DIMTOLJ
1070
     1
1070
     1
1002
{
1002
}
1000
DIMUPT
1070
     1
1070
     1
1002
{
1002
}
1000
M
1070
     0
1002
{
1002
}
1000
I
1070
     0
1002
{
1002
}
1002
}
1000
GEN-ANSI-RAD
1070
     5
1002
{
1000
NAME
1070
     4
1000
GEN-ANSI$4
1002
{
1002
}
1000
DIMFIT
1070
     1
1070
     0
1002
{
1002
}
1000
DIMTAD
1070
     1
1070
     0
1002
{
1002
}
1000
DIMTIH
1070
     1
1070
     1
1002
{
1002
}
1000
DIMTIX
1070
     1
1070
     0
1002
{
1002
}
1000
DIMTOFL
1070
     1
1070
     0
1002
{
1002
}
1000
DIMTOH
1070
     1
1070
     1
1002
{
1002
}
1000
DIMTOLJ
1070
     1
1070
     1
1002
{
1002
}
1000
DIMUPT
1070
     1
1070
     1
1002
{
1002
}
1000
M
1070
     0
1002
{
1002
}
1000
I
1070
     0
1002
{
1002
}
1002
}
1000
GEN-ANSI-ORD
1070
     5
1002
{
1000
NAME
1070
     4
1000
GEN-ANSI$6
1002
{
1002
}
1000
DIMTAD
1070
     1
1070
     0
1002
{
1002
}
1000
DIMTIH
1070
     1
1070
     1
1002
{
1002
}
1000
DIMTOH
1070
     1
1070
     1
1002
{
1002
}
1000
DIMTOLJ
1070
     1
1070
     1
1002
{
1002
}
1000
M
1070
     0
1002
{
1002
}
1000
I
1070
     0
1002
{
1002
}
1002
}
1000
GEN-ANSI-AXE-F
1070
     5
1002
{
1000
NAME
1070
     4
1000
GEN-ANSI-AXE-F
1002
{
1002
}
1000
DIMBLK1
1070
     4
1000
GENAXEH
1002
{
1002
}
1000
DIMSAH
1070
     1
1070
     1
1002
{
1002
}
1000
DIMSE1
1070
     1
1070
     1
1002
{
1002
}
1000
DIMSE2
1070
     1
1070
     1
1002
{
1002
}
1000
DIMTAD
1070
     1
1070
     0
1002
{
1002
}
1000
DIMTIH
1070
     1
1070
     1
1002
{
1002
}
1000
DIMTOH
1070
     1
1070
     1
1002
{
1002
}
1000
DIMTOLJ
1070
     1
1070
     1
1002
{
1002
}
1000
M
1070
     0
1002
{
1002
}
1000
I
1070
     0
1002
{
1002
}
1002
}
1000
GEN-ANSI-AXE-H
1070
     5
1002
{
1000
NAME
1070
     4
1000
GEN-ANSI-AXE-H
1002
{
1002
}
1000
DIMBLK1
1070
     4
1000
GENAXEH
1002
{
1002
}
1000
DIMLFAC
1070
     2
1040
2.0
1002
{
1002
}
1000
DIMSAH
1070
     1
1070
     1
1002
{
1002
}
1000
DIMSE1
1070
     1
1070
     1
1002
{
1002
}
1000
DIMSE2
1070
     1
1070
     1
1002
{
1002
}
1000
DIMTAD
1070
     1
1070
     0
1002
{
1002
}
1000
DIMTOFL
1070
     1
1070
     1
1002
{
1002
}
1000
DIMTOLJ
1070
     1
1070
     1
1002
{
1002
}
1000
M
1070
     0
1002
{
1002
}
1000
I
1070
     0
1002
{
1002
}
1002
}
1002
}
1000
DimSet
1070
     0
1002
{
1000
ChainSum
1070
     3
1070
     0
1002
{
1002
}
1000
DimDclTyp0
1070
     4
1000
dim23
1002
{
1002
}
1000
HorBra
1070
     3
1070
     0
1002
{
1002
}
1000
StrDia
1070
     4
1000
%%c<>
1002
{
1002
}
1000
StrRad
1070
     4
1000
R<>
1002
{
1002
}
1000
TextMinus
1070
     4
1000
<>
1002
{
1002
}
1000
TextPlus
1070
     4
1000
<>
1002
{
1002
}
1000
M
1070
     0
1002
{
1000
DimdliFirst
1070
     2
1040
10.0
1002
{
1002
}
1000
PointMakeDist
1070
     2
1040
10.0
1002
{
1002
}
1002
}
1000
I
1070
     0
1002
{
1000
DimdliFirst
1070
     2
1040
0.5
1002
{
1002
}
1000
PointMakeDist
1070
     2
1040
0.5
1002
{
1002
}
1002
}
1000
FitGrade
1070
     4
1000
h7
1002
{
1002
}
1002
}
1000
Drawing
1070
     0
1002
{
1000
ChamferDimMode
1070
     1
1070
     2
1002
{
1002
}
1000
Gen_Fiso
1070
    -3
1040
1.0
1002
{
1002
}
1000
GenDimStil
1070
     4
1000
ISO
1002
{
1002
}
1000
GenDwgUScale
1070
     2
1040
1.0
1002
{
1002
}
1000
GenInch
1070
     4
1000
M
1002
{
1002
}
1000
GenPlotScale
1070
     4
1000
1:5
1002
{
1002
}
1000
Revisi
1070
     4
1000
0
1002
{
1002
}
1000
Version
1070
    -5
1000
14.01/Apr  1 1998
1002
{
1002
}
1000
Platform
1070
    -5
1000
WINNT
1002
{
1002
}
1002
}
1000
DwgVar
1070
     0
1002
{
1000
M
1070
     0
1002
{
1000
CHAMFERA
1070
     2
1040
0.00001
1002
{
1002
}
1000
CHAMFERB
1070
     2
1040
0.000001
1002
{
1002
}
1000
FILLETRAD
1070
     2
1040
0.000001
1002
{
1002
}
1000
LIMMAX
1070
     6
1010
-1.000000000000000E+20
1020
0.0
1030
0.0
1002
{
1002
}
1000
LTSCALE
1070
     2
1040
0.000001
1002
{
1002
}
1002
}
1000
I
1070
     0
1002
{
1000
CHAMFERA
1070
     2
1040
0.0
1002
{
1002
}
1000
CHAMFERB
1070
     2
1040
0.0
1002
{
1002
}
1000
FILLETRAD
1070
     2
1040
0.0
1002
{
1002
}
1000
LIMMAX
1070
     6
1010
-1.000000000000000E+20
1020
0.0
1030
0.0
1002
{
1002
}
1002
}
1002
}
1000
Hatch
1070
     0
1002
{
1000
GenHtcFlag
1070
     3
1070
     0
1002
{
1002
}
1002
}
1000
Info_Pos
1070
     0
1002
{
1000
>
1002
}
1000
Layer
1070
     7
1002
{
1000
Defs
1070
     0
1002
{
1000
>
1002
}
1000
EntSort
1070
     0
1002
{
1000
>
1002
}
1000
Match
1070
     0
1002
{
1002
}
1000
Settings
1070
     0
1002
{
1000
FocGrNC
1070
     3
1070
     0
1002
{
1002
}
1000
FocGrLo
1070
     3
1070
     0
1002
{
1002
}
1000
FocLoNC
1070
     3
1070
     0
1002
{
1002
}
1000
FocusCol
1070
     1
1070
   253
1002
{
1002
}
1000
GenStdLG
1070
     4
1000

1002
{
1002
}
1000
LayMatch
1070
     3
1070
     0
1002
{
1002
}
1000
LgOff
1070
     3
1070
     0
1002
{
1002
}
1000
CurLG
1070
    -5
1000

1002
{
1002
}
1002
}
1002
}
1000
LType
1070
     0
1002
{
1000
GEN3
1070
     8
1000
genius.lin
1002
{
1002
}
1000
GEN7
1070
     8
1000
genius.lin
1002
{
1002
}
1000
GEN4A
1070
     8
1000
genius.lin
1002
{
1002
}
1000
GEN3A
1070
     8
1000
genius.lin
1002
{
1002
}
1000
GEN7A
1070
     8
1000
genius.lin
1002
{
1002
}
1000
GENZIGZAG
1070
     8
1000
genius.lin
1002
{
1002
}
1002
}
1000
Objecter
1070
     0
1002
{
1000
CreateGroups
1070
     3
1070
     0
1002
{
1002
}
1000
LaySwitch
1070
     3
1070
     1
1002
{
1002
}
1000
LastObj
1070
    -5
1000
15FB
1002
{
1002
}
1000
TimeStamp
1070
    -5
1000
20030124.11345150
1002
{
1002
}
1002
}
1000
OSWiz
1070
     0
1002
{
1000
Filter
1070
     0
1002
{
1000
HATCH
1070
     9
1002
{
1000
EntityType
1070
     4
1000
LINE
1002
{
1002
}
1000
Layer
1070
     4
1000
8,8N,*-8,*-8N
1002
{
1002
}
1000
Linetype
1070
     4
1000
*
1002
{
1002
}
1000
Color
1070
     4
1000
*
1002
{
1002
}
1000
ApplyInDims
1070
     3
1070
     1
1002
{
1002
}
1002
}
1000
SYMBOLS
1070
     9
1002
{
1000
EntityType
1070
     4
1000
*
1002
{
1002
}
1000
Layer
1070
     4
1000
[5-6],[5-6]N,*-[5-6],*-[5-6]N
1002
{
1002
}
1000
Linetype
1070
     4
1000
*
1002
{
1002
}
1000
Color
1070
     4
1000
*
1002
{
1002
}
1000
ApplyInDims
1070
     3
1070
     1
1002
{
1002
}
1002
}
1000
FEM
1070
     9
1002
{
1000
EntityType
1070
     4
1000
*
1002
{
1002
}
1000
Layer
1070
     4
1000
4A,4AN,*-4A,*-4AN
1002
{
1002
}
1000
Linetype
1070
     4
1000
*
1002
{
1002
}
1000
Color
1070
     4
1000
*
1002
{
1002
}
1000
ApplyInDims
1070
     3
1070
     1
1002
{
1002
}
1002
}
1002
}
1002
}
1000
PaList
1070
     0
1002
{
1000
AutoUpdatePartList
1070
     1
1070
     0
1002
{
1002
}
1000
ReadInfoPoint
1070
     3
1070
     0
1002
{
1002
}
1000
ReadPosNr
1070
     3
1070
     1
1002
{
1002
}
1000
RevStr
1070
     4
1000
0
1002
{
1002
}
1002
}
1000
Paper
1070
     0
1002
{
1002
}
1000
PartDB
1070
     0
1002
{
1000
GenDbOwner
1070
     4
1000

1002
{
1002
}
1002
}
1000
System
1070
     0
1002
{
1000
Menu
1070
     4
1000
GEV
1002
{
1002
}
1002
}
1000
Title
1070
     0
1002
{
1000
MakeView
1070
     1
1070
     2
1002
{
1002
}
1002
}
1000
Tools
1070
     0
1002
{
1000
Trans
1070
     0
1002
{
1000
Drawingtranslation
1070
    -4
1070
     1
1002
{
1002
}
1000
upreserve
1070
     3
1070
     0
1002
{
1002
}
1000
originally_on
1070
    -4
1070
     0
1002
{
1002
}
1000
sourcelang
1070
    -5
1000
D
1002
{
1002
}
1002
}
1002
}
  0
APPID
  5
148C
330
1440
100
AcDbSymbolTableRecord
100
AcDbRegAppTableRecord
  2
GENIUS_GEVCFG0_13
 70
     0
1001
GENIUS_GENCFG_13
1071
1043404493
1000
148C
1000
GEV
1070
     1
1000
GenCfgObject
1000
VED
1070
     0
1002
{
1002
}
  0
APPID
  5
1538
330
1440
100
AcDbSymbolTableRecord
100
AcDbRegAppTableRecord
  2
GEV_VCCNULL_SWITCH_OFF
 70
     0
  0
APPID
  5
1544
330
1440
100
AcDbSymbolTableRecord
100
AcDbRegAppTableRecord
  2
GENIUS_GENDTOL_13
 70
     0
  0
APPID
  5
15CD
330
1440
100
AcDbSymbolTableRecord
100
AcDbRegAppTableRecord
  2
GENIUS_GENBLLY_14
 70
     0
  0
APPID
  5
15CE
330
1440
100
AcDbSymbolTableRecord
100
AcDbRegAppTableRecord
  2
GENIUS_GENODEF_13
 70
     0
  0
APPID
  5
15CF
330
1440
100
AcDbSymbolTableRecord
100
AcDbRegAppTableRecord
  2
GENIUS_GENOBJ-N-CRS_13
 70
     0
  0
APPID
  5
15D0
330
1440
100
AcDbSymbolTableRecord
100
AcDbRegAppTableRecord
  2
GENIUS_GENOREF_13
 70
     0
  0
APPID
  5
15D1
330
1440
100
AcDbSymbolTableRecord
100
AcDbRegAppTableRecord
  2
GENIUS_GENOLIS_13
 70
     0
  0
APPID
  5
15D2
330
1440
100
AcDbSymbolTableRecord
100
AcDbRegAppTableRecord
  2
GENIUS_GEFCFG0_13
 70
     0
1001
GENIUS_GENCFG_13
1071
920890619
1000
15D2
1000
GEF
1070
     5
1000
GenCfgObject
1000
GenCfgString
1000
GenCfgReal
1000
GenCfgShort
1000
GenCfgBool
1000
System
1070
     0
1002
{
1002
}
1000
Prese
1070
     0
1002
{
1000
Funk
1070
     1
1000

1002
{
1002
}
1000
FunkDef
1070
     1
1000

1002
{
1002
}
1000
GefIso
1070
     1
1000
DIN
1002
{
1002
}
1002
}
1000
FEM
1070
     0
1002
{
1000
LayGroup
1070
     1
1000
FEM
1002
{
1002
}
1000
IncrCoef
1070
     2
1040
0.0
1002
{
1002
}
1002
}
1000
Shaft
1070
     0
1002
{
1000
Interrupt
1070
     3
1070
     0
1002
{
1002
}
1002
}
1000
PartDb
1070
     0
1002
{
1000
PartCreate
1070
     0
1002
{
1002
}
1000
SCP
1070
     0
1002
{
1002
}
1000
Symbol
1070
     0
1002
{
1002
}
1002
}
1000
Symbol
1070
     0
1002
{
1000
WeldStyle
1070
     1
1000
ISO
1002
{
1002
}
1000
WeldSize
1070
     2
1040
1.0
1002
{
1002
}
1000
WeldFlag
1070
     4
1070
     1
1002
{
1002
}
1000
WeldOffset
1070
     4
1070
     1
1002
{
1002
}
1000
TolCType
1070
     1
1000
ISO
1002
{
1002
}
1000
TolCSize
1070
     2
1040
1.0
1002
{
1002
}
1000
STextureSize
1070
     2
1040
1.0
1002
{
1002
}
1000
SurfaceType
1070
     1
1000

1002
{
1002
}
1000
M
1070
     0
1002
{
1000
WeldWidth
1070
     2
1040
3.0
1002
{
1002
}
1002
}
1000
I
1070
     0
1002
{
1000
WeldWidth
1070
     2
1040
0.125
1002
{
1002
}
1002
}
1002
}
  0
APPID
  5
15D3
330
1440
100
AcDbSymbolTableRecord
100
AcDbRegAppTableRecord
  2
GENIUS_VERSION2
 70
     0
  0
APPID
  5
15D4
330
1440
100
AcDbSymbolTableRecord
100
AcDbRegAppTableRecord
  2
GENIUS_GENREC_14
 70
     0
  0
APPID
  5
15D5
330
1440
100
AcDbSymbolTableRecord
100
AcDbRegAppTableRecord
  2
GENIUS_GENOBJ-N-REC_13
 70
     0
  0
APPID
  5
15D6
330
1440
100
AcDbSymbolTableRecord
100
AcDbRegAppTableRecord
  2
GENIUS_GENOBJ-N-TIT_13
 70
     0
  0
APPID
  5
15D7
330
1440
100
AcDbSymbolTableRecord
100
AcDbRegAppTableRecord
  2
GENIUS_GENTITLE_13
 70
     0
  0
APPID
  5
15D8
330
1440
100
AcDbSymbolTableRecord
100
AcDbRegAppTableRecord
  2
GENIUS_GENZVEED_13
 70
     0
  0
APPID
  5
15D9
330
1440
100
AcDbSymbolTableRecord
100
AcDbRegAppTableRecord
  2
GENIUS_GENOBJ-N-SDF_13
 70
     0
  0
APPID
  5
15DA
330
1440
100
AcDbSymbolTableRecord
100
AcDbRegAppTableRecord
  2
GENIUS_GENSCREG_13
 70
     0
  0
APPID
  5
15DB
330
1440
100
AcDbSymbolTableRecord
100
AcDbRegAppTableRecord
  2
GENIUS_GENBLKED_14
 70
     0
  0
APPID
  5
16E7
330
1440
100
AcDbSymbolTableRecord
100
AcDbRegAppTableRecord
  2
MCAD_NO_VIS
 70
     0
  0
APPID
  5
16E8
330
1440
100
AcDbSymbolTableRecord
100
AcDbRegAppTableRecord
  2
ACAD_TEMP_GRAPHIC
 70
     0
  0
APPID
  5
1718
330
1440
100
AcDbSymbolTableRecord
100
AcDbRegAppTableRecord
  2
AD_DRAW
 70
     0
  0
APPID
  5
171B
330
1440
100
AcDbSymbolTableRecord
100
AcDbRegAppTableRecord
  2
ACATTRIBSERVICES
 70
     0
  0
APPID
  5
173B
330
1440
100
AcDbSymbolTableRecord
100
AcDbRegAppTableRecord
  2
DESIGNERASSEMBLIES
 70
     0
  0
APPID
  5
1741
330
1440
100
AcDbSymbolTableRecord
100
AcDbRegAppTableRecord
  2
ACADM_DIM_EDIT
 70
     0
  0
APPID
  5
1742
330
1440
100
AcDbSymbolTableRecord
100
AcDbRegAppTableRecord
  2
AMDT_DM_ADJ
 70
     0
  0
APPID
  5
1774
330
1440
100
AcDbSymbolTableRecord
100
AcDbRegAppTableRecord
  2
ACAD_DSTYLE_DIMARC_LENGTH_SYMBOL
 70
     0
  0
APPID
  5
1775
330
1440
100
AcDbSymbolTableRecord
100
AcDbRegAppTableRecord
  2
ACAD_DSTYLE_DIMJOGGED_JOGANGLE_SYMBOL
 70
     0
  0
ENDTAB
  0
TABLE
  2
DIMSTYLE
  5
1441
330
0
100
AcDbSymbolTable
 70
     9
100
AcDbDimStyleTable
 71
     0
  0
DIMSTYLE
105
1468
102
{ACAD_REACTORS
330
11AE
330
11B8
330
11C2
330
11CD
330
11D7
330
12A0
330
12AA
330
1343
330
134E
102
}
330
1441
100
AcDbSymbolTableRecord
100
AcDbDimStyleTableRecord
  2
GEN-ISO
 70
     0
  4
"
 40
5.0
 41
2.5
 42
1.0
 43
7.0
 44
1.0
 47
0.1
 48
0.1
 73
     0
 74
     0
 77
     1
 78
     8
140
3.5
141
0.0
143
0.03937
146
0.71
147
0.6
172
     1
176
   256
177
   256
178
     2
271
     2
272
     3
274
     4
283
     0
340
1446
  0
DIMSTYLE
105
1773
330
1441
100
AcDbSymbolTableRecord
100
AcDbDimStyleTableRecord
  2
AM_DIN
 70
     0
  4
"
 41
2.5
 42
1.0
 43
10.0
 44
1.0
 47
0.1
 48
0.1
 73
     0
 74
     0
 77
     1
 78
     8
 79
     2
140
3.5
141
0.0
143
0.0393701
146
0.71
147
1.5
172
     1
176
   256
177
   256
178
     2
271
     2
272
     3
274
     4
283
     0
284
     8
340
1446
371
    -1
372
    -1
1001
ACAD_DSTYLE_DIMARC_LENGTH_SYMBOL
1070
   379
1070
     0
1001
ACAD_DSTYLE_DIMJOGGED_JOGANGLE_SYMBOL
1070
   384
1040
1.570796326794896
  0
DIMSTYLE
105
1784
330
1441
100
AcDbSymbolTableRecord
100
AcDbDimStyleTableRecord
  2
AM_DIN$3
 70
     0
  4
"
 41
2.5
 42
1.0
 43
10.0
 44
1.0
 47
0.1
 48
0.1
 73
     0
 77
     1
 78
     8
 79
     2
140
3.5
141
0.0
143
0.0393701
146
0.71
147
1.5
176
   256
177
   256
178
     2
271
     2
272
     3
274
     4
283
     0
284
     8
288
     1
289
     0
340
1446
371
    -1
372
    -1
1001
ACAD_DSTYLE_DIMARC_LENGTH_SYMBOL
1070
   379
1070
     0
1001
ACAD_DSTYLE_DIMJOGGED_JOGANGLE_SYMBOL
1070
   384
1040
1.570796326794896
  0
DIMSTYLE
105
1789
330
1441
100
AcDbSymbolTableRecord
100
AcDbDimStyleTableRecord
  2
AM_DIN$4
 70
     0
  4
"
 41
2.5
 42
1.0
 43
10.0
 44
1.0
 47
0.1
 48
0.1
 73
     0
 77
     1
 78
     8
 79
     2
140
3.5
141
0.0
143
0.0393701
146
0.71
147
1.5
176
   256
177
   256
178
     2
271
     2
272
     3
274
     4
283
     0
284
     8
288
     1
289
     0
340
1446
371
    -1
372
    -1
1001
ACAD_DSTYLE_DIMARC_LENGTH_SYMBOL
1070
   379
1070
     0
1001
ACAD_DSTYLE_DIMJOGGED_JOGANGLE_SYMBOL
1070
   384
1040
1.570796326794896
  0
DIMSTYLE
105
178E
330
1441
100
AcDbSymbolTableRecord
100
AcDbDimStyleTableRecord
  2
AM_DIN$6
 70
     0
  4
"
 41
2.5
 42
1.0
 43
10.0
 44
1.0
 47
0.1
 48
0.1
 73
     0
 74
     0
 78
     8
 79
     2
140
3.5
141
0.0
143
0.0393701
146
0.71
147
1.5
172
     1
176
   256
177
   256
178
     2
271
     2
272
     3
274
     4
283
     0
284
     8
340
1446
371
    -1
372
    -1
1001
ACAD_DSTYLE_DIMARC_LENGTH_SYMBOL
1070
   379
1070
     0
1001
ACAD_DSTYLE_DIMJOGGED_JOGANGLE_SYMBOL
1070
   384
1040
1.570796326794896
  0
DIMSTYLE
105
1793
330
1441
100
AcDbSymbolTableRecord
100
AcDbDimStyleTableRecord
  2
AM_DIN$7
 70
     0
  4
"
 41
2.5
 42
1.0
 43
10.0
 44
1.0
 47
0.1
 48
0.1
 73
     0
 74
     0
 77
     1
 78
     8
 79
     2
140
5.0
141
0.0
143
0.0393701
146
0.71
147
1.5
172
     1
176
   256
177
   256
178
     2
271
     2
272
     3
274
     4
283
     0
284
     8
340
1446
371
    -1
372
    -1
1001
ACAD_DSTYLE_DIMARC_LENGTH_SYMBOL
1070
   379
1070
     0
1001
ACAD_DSTYLE_DIMJOGGED_JOGANGLE_SYMBOL
1070
   384
1040
1.570796326794896
  0
DIMSTYLE
105
1798
330
1441
100
AcDbSymbolTableRecord
100
AcDbDimStyleTableRecord
  2
AM_DIN$SF
 70
     0
  4
"
 41
2.5
 42
1.0
 43
10.0
 44
1.0
 47
0.1
 48
0.1
 73
     0
 74
     0
 75
     1
 76
     1
 77
     1
 78
     8
 79
     2
140
3.5
141
0.0
143
0.0393701
146
0.71
147
1.5
172
     1
176
   256
177
   256
178
     2
271
     2
272
     3
274
     4
283
     0
284
     8
340
1446
371
    -1
372
    -1
1001
ACAD_DSTYLE_DIMARC_LENGTH_SYMBOL
1070
   379
1070
     0
1001
ACAD_DSTYLE_DIMJOGGED_JOGANGLE_SYMBOL
1070
   384
1040
1.570796326794896
  0
DIMSTYLE
105
17A1
330
1441
100
AcDbSymbolTableRecord
100
AcDbDimStyleTableRecord
  2
AM_DIN$SH
 70
     0
  4
"
 41
2.5
 42
1.0
 43
10.0
 44
1.0
 47
0.1
 48
0.1
 73
     0
 74
     0
 75
     1
 76
     1
 77
     1
 78
     8
 79
     2
140
3.5
141
0.0
143
0.0393701
144
2.0
146
0.71
147
1.5
172
     1
173
     1
176
   256
177
   256
178
     2
271
     2
272
     3
274
     4
283
     0
284
     8
340
1446
343
1799
371
    -1
372
    -1
1001
ACAD_DSTYLE_DIMARC_LENGTH_SYMBOL
1070
   379
1070
     0
1001
ACAD_DSTYLE_DIMJOGGED_JOGANGLE_SYMBOL
1070
   384
1040
1.570796326794896
  0
ENDTAB
  0
TABLE
  2
BLOCK_RECORD
  5
1438
330
0
100
AcDbSymbolTable
 70
    26
  0
BLOCK_RECORD
  5
144F
330
1438
100
AcDbSymbolTableRecord
100
AcDbBlockTableRecord
  2
*MODEL_SPACE
340
16DF
  0
BLOCK_RECORD
  5
144C
330
1438
100
AcDbSymbolTableRecord
100
AcDbBlockTableRecord
  2
*PAPER_SPACE
340
16E0
  0
BLOCK_RECORD
  5
1472
330
1438
100
AcDbSymbolTableRecord
100
AcDbBlockTableRecord
  2
*X2
340
0
102
{BLKREFS
331
1253
102
}
  0
BLOCK_RECORD
  5
1473
330
1438
100
AcDbSymbolTableRecord
100
AcDbBlockTableRecord
  2
*X3
340
0
102
{BLKREFS
331
1275
102
}
  0
BLOCK_RECORD
  5
1474
330
1438
100
AcDbSymbolTableRecord
100
AcDbBlockTableRecord
  2
*X4
340
0
102
{BLKREFS
331
1295
102
}
  0
BLOCK_RECORD
  5
1477
330
1438
100
AcDbSymbolTableRecord
100
AcDbBlockTableRecord
  2
*X5
340
0
102
{BLKREFS
331
12D8
102
}
  0
BLOCK_RECORD
  5
1478
330
1438
100
AcDbSymbolTableRecord
100
AcDbBlockTableRecord
  2
*X6
340
0
102
{BLKREFS
331
1339
102
}
  0
BLOCK_RECORD
  5
147B
330
1438
100
AcDbSymbolTableRecord
100
AcDbBlockTableRecord
  2
*X7
340
0
102
{BLKREFS
331
136E
102
}
  0
BLOCK_RECORD
  5
147C
330
1438
100
AcDbSymbolTableRecord
100
AcDbBlockTableRecord
  2
*X8
340
0
102
{BLKREFS
331
138E
102
}
  0
BLOCK_RECORD
  5
1490
330
1438
100
AcDbSymbolTableRecord
100
AcDbBlockTableRecord
  2
*D9
340
0
  0
BLOCK_RECORD
  5
149D
330
1438
100
AcDbSymbolTableRecord
100
AcDbBlockTableRecord
  2
*D10
340
0
  0
BLOCK_RECORD
  5
14A9
330
1438
100
AcDbSymbolTableRecord
100
AcDbBlockTableRecord
  2
*D11
340
0
  0
BLOCK_RECORD
  5
14B6
330
1438
100
AcDbSymbolTableRecord
100
AcDbBlockTableRecord
  2
*D12
340
0
  0
BLOCK_RECORD
  5
14C3
330
1438
100
AcDbSymbolTableRecord
100
AcDbBlockTableRecord
  2
*D13
340
0
  0
BLOCK_RECORD
  5
14CF
330
1438
100
AcDbSymbolTableRecord
100
AcDbBlockTableRecord
  2
*D14
340
0
  0
BLOCK_RECORD
  5
14DB
330
1438
100
AcDbSymbolTableRecord
100
AcDbBlockTableRecord
  2
*D15
340
0
  0
BLOCK_RECORD
  5
14F3
330
1438
100
AcDbSymbolTableRecord
100
AcDbBlockTableRecord
  2
*D17
340
0
  0
BLOCK_RECORD
  5
15B8
330
1438
100
AcDbSymbolTableRecord
100
AcDbBlockTableRecord
  2
KATALOG_LEER
340
0
102
{BLKREFS
331
15DD
331
15FA
102
}
  0
BLOCK_RECORD
  5
165A
330
1438
100
AcDbSymbolTableRecord
100
AcDbBlockTableRecord
  2
*D20
340
0
  0
BLOCK_RECORD
  5
1799
330
1438
100
AcDbSymbolTableRecord
100
AcDbBlockTableRecord
  2
GENAXEH
340
0
  0
ENDTAB
  0
ENDSEC
  0
SECTION
  2
BLOCKS
  0
BLOCK
  5
1450
330
144F
100
AcDbEntity
  8
0
100
AcDbBlockBegin
  2
*MODEL_SPACE
 70
     0
 10
0.0
 20
0.0
 30
0.0
  3
*MODEL_SPACE
  1

  0
ENDBLK
  5
1451
330
144F
100
AcDbEntity
  8
0
100
AcDbBlockEnd
  0
BLOCK
  5
144D
330
144C
100
AcDbEntity
 67
     1
  8
0
100
AcDbBlockBegin
  2
*PAPER_SPACE
 70
     0
 10
0.0
 20
0.0
 30
0.0
  3
*PAPER_SPACE
  1

  0
ENDBLK
  5
144E
330
144C
100
AcDbEntity
 67
     1
  8
0
100
AcDbBlockEnd
  0
BLOCK
  5
121D
330
1472
100
AcDbEntity
  8
0
100
AcDbBlockBegin
  2
*X2
 70
     1
 10
0.0
 20
0.0
 30
0.0
  3
*X2
  1

  0
LINE
  5
121E
330
1472
100
AcDbEntity
  8
8
100
AcDbLine
 10
724.3969999999999
 20
920.4030000000001
 30
0.0
 11
730.0019999999999
 21
926.008
 31
0.0
  0
LINE
  5
121F
330
1472
100
AcDbEntity
  8
8
100
AcDbLine
 10
713.458
 20
920.6889999999999
 30
0.0
 11
718.24
 21
925.4710000000001
 31
0.0
  0
LINE
  5
1220
330
1472
100
AcDbEntity
  8
8
100
AcDbLine
 10
702.5199999999999
 20
920.9760000000001
 30
0.0
 11
707.15
 21
925.6060000000001
 31
0.0
  0
LINE
  5
1221
330
1472
100
AcDbEntity
  8
8
100
AcDbLine
 10
691.581
 20
921.2619999999999
 30
0.0
 11
696.211
 21
925.8930000000001
 31
0.0
  0
LINE
  5
1222
330
1472
100
AcDbEntity
  8
8
100
AcDbLine
 10
680.6419999999999
 20
921.549
 30
0.0
 11
685.2719999999999
 21
926.1789999999999
 31
0.0
  0
LINE
  5
1223
330
1472
100
AcDbEntity
  8
8
100
AcDbLine
 10
669.7029999999999
 20
921.835
 30
0.0
 11
674.3330000000001
 21
926.4660000000001
 31
0.0
  0
LINE
  5
1224
330
1472
100
AcDbEntity
  8
8
100
AcDbLine
 10
658.5589999999999
 20
921.916
 30
0.0
 11
663.307
 21
926.665
 31
0.0
  0
LINE
  5
1225
330
1472
100
AcDbEntity
  8
8
100
AcDbLine
 10
647.333
 20
921.916
 30
0.0
 11
652.082
 21
926.665
 31
0.0
  0
LINE
  5
1226
330
1472
100
AcDbEntity
  8
8
100
AcDbLine
 10
636.1080000000001
 20
921.916
 30
0.0
 11
640.857
 21
926.665
 31
0.0
  0
LINE
  5
1227
330
1472
100
AcDbEntity
  8
8
100
AcDbLine
 10
624.883
 20
921.916
 30
0.0
 11
629.631
 21
926.665
 31
0.0
  0
LINE
  5
1228
330
1472
100
AcDbEntity
  8
8
100
AcDbLine
 10
613.658
 20
921.916
 30
0.0
 11
618.4059999999999
 21
926.665
 31
0.0
  0
LINE
  5
1229
330
1472
100
AcDbEntity
  8
8
100
AcDbLine
 10
602.432
 20
921.916
 30
0.0
 11
607.181
 21
926.665
 31
0.0
  0
LINE
  5
122A
330
1472
100
AcDbEntity
  8
8
100
AcDbLine
 10
591.2069999999999
 20
921.916
 30
0.0
 11
595.955
 21
926.665
 31
0.0
  0
LINE
  5
122B
330
1472
100
AcDbEntity
  8
8
100
AcDbLine
 10
579.9819999999999
 20
921.916
 30
0.0
 11
584.73
 21
926.665
 31
0.0
  0
LINE
  5
122C
330
1472
100
AcDbEntity
  8
8
100
AcDbLine
 10
568.7559999999999
 20
921.916
 30
0.0
 11
573.505
 21
926.665
 31
0.0
  0
LINE
  5
122D
330
1472
100
AcDbEntity
  8
8
100
AcDbLine
 10
557.5309999999999
 20
921.916
 30
0.0
 11
562.279
 21
926.665
 31
0.0
  0
LINE
  5
122E
330
1472
100
AcDbEntity
  8
8
100
AcDbLine
 10
546.306
 20
921.916
 30
0.0
 11
551.0539999999999
 21
926.665
 31
0.0
  0
LINE
  5
122F
330
1472
100
AcDbEntity
  8
8
100
AcDbLine
 10
535.08
 20
921.916
 30
0.0
 11
539.8290000000001
 21
926.665
 31
0.0
  0
LINE
  5
1230
330
1472
100
AcDbEntity
  8
8
100
AcDbLine
 10
521.603
 20
919.6649999999999
 30
0.0
 11
528.6030000000001
 21
926.665
 31
0.0
  0
LINE
  5
1231
330
1472
100
AcDbEntity
  8
8
100
AcDbLine
 10
510.378
 20
919.6649999999999
 30
0.0
 11
515.378
 21
924.665
 31
0.0
  0
LINE
  5
1232
330
1472
100
AcDbEntity
  8
8
100
AcDbLine
 10
499.153
 20
919.6649999999999
 30
0.0
 11
504.153
 21
924.665
 31
0.0
  0
LINE
  5
1233
330
1472
100
AcDbEntity
  8
8
100
AcDbLine
 10
487.9269999999999
 20
919.6649999999999
 30
0.0
 11
492.9269999999999
 21
924.665
 31
0.0
  0
LINE
  5
1234
330
1472
100
AcDbEntity
  8
8
100
AcDbLine
 10
476.702
 20
919.6649999999999
 30
0.0
 11
481.702
 21
924.665
 31
0.0
  0
LINE
  5
1235
330
1472
100
AcDbEntity
  8
8
100
AcDbLine
 10
465.477
 20
919.6649999999999
 30
0.0
 11
470.4769999999999
 21
924.665
 31
0.0
  0
LINE
  5
1236
330
1472
100
AcDbEntity
  8
8
100
AcDbLine
 10
454.251
 20
919.6649999999999
 30
0.0
 11
459.2509999999999
 21
924.665
 31
0.0
  0
LINE
  5
1237
330
1472
100
AcDbEntity
  8
8
100
AcDbLine
 10
443.026
 20
919.6649999999999
 30
0.0
 11
448.026
 21
924.665
 31
0.0
  0
LINE
  5
1238
330
1472
100
AcDbEntity
  8
8
100
AcDbLine
 10
431.958
 20
919.822
 30
0.0
 11
436.8009999999999
 21
924.665
 31
0.0
  0
LINE
  5
1239
330
1472
100
AcDbEntity
  8
8
100
AcDbLine
 10
421.6359999999999
 20
920.725
 30
0.0
 11
426.234
 21
925.323
 31
0.0
  0
LINE
  5
123A
330
1472
100
AcDbEntity
  8
8
100
AcDbLine
 10
411.314
 20
921.6289999999998
 30
0.0
 11
415.9119999999999
 21
926.2260000000001
 31
0.0
  0
LINE
  5
123B
330
1472
100
AcDbEntity
  8
8
100
AcDbLine
 10
400.3769999999999
 20
921.916
 30
0.0
 11
405.125
 21
926.665
 31
0.0
  0
LINE
  5
123C
330
1472
100
AcDbEntity
  8
8
100
AcDbLine
 10
389.151
 20
921.916
 30
0.0
 11
393.9
 21
926.665
 31
0.0
  0
LINE
  5
123D
330
1472
100
AcDbEntity
  8
8
100
AcDbLine
 10
377.926
 20
921.916
 30
0.0
 11
382.674
 21
926.665
 31
0.0
  0
LINE
  5
123E
330
1472
100
AcDbEntity
  8
8
100
AcDbLine
 10
366.701
 20
921.916
 30
0.0
 11
371.449
 21
926.665
 31
0.0
  0
LINE
  5
123F
330
1472
100
AcDbEntity
  8
8
100
AcDbLine
 10
355.475
 20
921.916
 30
0.0
 11
360.224
 21
926.665
 31
0.0
  0
LINE
  5
1240
330
1472
100
AcDbEntity
  8
8
100
AcDbLine
 10
344.5119999999999
 20
922.178
 30
0.0
 11
348.998
 21
926.665
 31
0.0
  0
LINE
  5
1241
330
1472
100
AcDbEntity
  8
8
100
AcDbLine
 10
336.115
 20
925.0069999999999
 30
0.0
 11
339.706
 21
928.598
 31
0.0
  0
LINE
  5
1242
330
1472
100
AcDbEntity
  8
8
100
AcDbLine
 10
329.818
 20
929.936
 30
0.0
 11
333.257
 21
933.3739999999998
 31
0.0
  0
LINE
  5
1243
330
1472
100
AcDbEntity
  8
8
100
AcDbLine
 10
325.37
 20
936.7119999999999
 30
0.0
 11
329.205
 21
940.5470000000001
 31
0.0
  0
LINE
  5
1244
330
1472
100
AcDbEntity
  8
8
100
AcDbLine
 10
323.273
 20
945.8400000000001
 30
0.0
 11
328.161
 21
950.7289999999999
 31
0.0
  0
LINE
  5
1245
330
1472
100
AcDbEntity
  8
8
100
AcDbLine
 10
321.052
 20
954.845
 30
0.0
 11
325.059
 21
958.853
 31
0.0
  0
LINE
  5
1246
330
1472
100
AcDbEntity
  8
8
100
AcDbLine
 10
313.184
 20
958.2029999999999
 30
0.0
 11
317.033
 21
962.0510000000001
 31
0.0
  0
LINE
  5
1247
330
1472
100
AcDbEntity
  8
8
100
AcDbLine
 10
305.157
 20
961.401
 30
0.0
 11
309.006
 21
965.2499999999999
 31
0.0
  0
LINE
  5
1248
330
1472
100
AcDbEntity
  8
8
100
AcDbLine
 10
297.131
 20
964.6
 30
0.0
 11
300.98
 21
968.449
 31
0.0
  0
LINE
  5
1249
330
1472
100
AcDbEntity
  8
8
100
AcDbLine
 10
289.104
 20
967.7989999999999
 30
0.0
 11
292.953
 21
971.6469999999999
 31
0.0
  0
LINE
  5
124A
330
1472
100
AcDbEntity
  8
8
100
AcDbLine
 10
281.078
 20
970.997
 30
0.0
 11
284.926
 21
974.8459999999999
 31
0.0
  0
LINE
  5
124B
330
1472
100
AcDbEntity
  8
8
100
AcDbLine
 10
273.051
 20
974.196
 30
0.0
 11
276.9
 21
978.045
 31
0.0
  0
LINE
  5
124C
330
1472
100
AcDbEntity
  8
8
100
AcDbLine
 10
265.024
 20
977.3949999999999
 30
0.0
 11
268.873
 21
981.243
 31
0.0
  0
LINE
  5
124D
330
1472
100
AcDbEntity
  8
8
100
AcDbLine
 10
256.998
 20
980.5930000000001
 30
0.0
 11
260.846
 21
984.4419999999999
 31
0.0
  0
LINE
  5
124E
330
1472
100
AcDbEntity
  8
8
100
AcDbLine
 10
247.344
 20
982.1649999999999
 30
0.0
 11
253.366
 21
988.1860000000001
 31
0.0
  0
LINE
  5
124F
330
1472
100
AcDbEntity
  8
8
100
AcDbLine
 10
236.118
 20
982.1649999999999
 30
0.0
 11
241.618
 21
987.6649999999999
 31
0.0
  0
LINE
  5
1250
330
1472
100
AcDbEntity
  8
8
100
AcDbLine
 10
224.893
 20
982.1649999999999
 30
0.0
 11
230.393
 21
987.6649999999999
 31
0.0
  0
LINE
  5
1251
330
1472
100
AcDbEntity
  8
8
100
AcDbLine
 10
218.76
 20
987.2569999999999
 30
0.0
 11
219.168
 21
987.6649999999999
 31
0.0
  0
ENDBLK
  5
1252
330
1472
100
AcDbEntity
  8
0
100
AcDbBlockEnd
  0
BLOCK
  5
1263
330
1473
100
AcDbEntity
  8
0
100
AcDbBlockBegin
  2
*X3
 70
     1
 10
0.0
 20
0.0
 30
0.0
  3
*X3
  1

  0
LINE
  5
1264
330
1473
100
AcDbEntity
  8
8
100
AcDbLine
 10
232.638
 20
987.6649999999999
 30
0.0
 11
237.222
 21
992.248
 31
0.0
  0
LINE
  5
1265
330
1473
100
AcDbEntity
  8
8
100
AcDbLine
 10
228.148
 20
987.6649999999999
 30
0.0
 11
230.148
 21
989.6649999999999
 31
0.0
  0
LINE
  5
1266
330
1473
100
AcDbEntity
  8
8
100
AcDbLine
 10
236.49
 20
996.0069999999999
 30
0.0
 11
237.671
 21
997.187
 31
0.0
  0
LINE
  5
1267
330
1473
100
AcDbEntity
  8
8
100
AcDbLine
 10
223.658
 20
987.6649999999999
 30
0.0
 11
225.658
 21
989.6649999999999
 31
0.0
  0
LINE
  5
1268
330
1473
100
AcDbEntity
  8
8
100
AcDbLine
 10
215.668
 20
984.1649999999999
 30
0.0
 11
218.76
 21
987.2560000000001
 31
0.0
  0
LINE
  5
1269
330
1473
100
AcDbEntity
  8
8
100
AcDbLine
 10
219.168
 20
987.6649999999999
 30
0.0
 11
224.67
 21
993.166
 31
0.0
  0
LINE
  5
126A
330
1473
100
AcDbEntity
  8
8
100
AcDbLine
 10
214.76
 20
987.7460000000001
 30
0.0
 11
216.678
 21
989.6649999999999
 31
0.0
  0
LINE
  5
126B
330
1473
100
AcDbEntity
  8
8
100
AcDbLine
 10
237.233
 20
992.3769999999999
 30
0.0
 11
235.421
 21
994.1889999999999
 31
0.0
  0
LINE
  5
126C
330
1473
100
AcDbEntity
  8
8
100
AcDbLine
 10
236.859
 20
988.2610000000001
 30
0.0
 11
233.758
 21
991.3619999999999
 31
0.0
  0
LINE
  5
126D
330
1473
100
AcDbEntity
  8
8
100
AcDbLine
 10
232.965
 20
987.6649999999999
 30
0.0
 11
230.965
 21
989.6649999999999
 31
0.0
  0
LINE
  5
126E
330
1473
100
AcDbEntity
  8
8
100
AcDbLine
 10
225.656
 20
994.974
 30
0.0
 11
225.465
 21
995.1649999999998
 31
0.0
  0
LINE
  5
126F
330
1473
100
AcDbEntity
  8
8
100
AcDbLine
 10
228.475
 20
987.6649999999999
 30
0.0
 11
226.475
 21
989.6649999999999
 31
0.0
  0
LINE
  5
1270
330
1473
100
AcDbEntity
  8
8
100
AcDbLine
 10
224.071
 20
992.069
 30
0.0
 11
222.617
 21
993.5219999999999
 31
0.0
  0
LINE
  5
1271
330
1473
100
AcDbEntity
  8
8
100
AcDbLine
 10
223.985
 20
987.6649999999999
 30
0.0
 11
220.372
 21
991.277
 31
0.0
  0
LINE
  5
1272
330
1473
100
AcDbEntity
  8
8
100
AcDbLine
 10
219.495
 20
987.6649999999999
 30
0.0
 11
217.495
 21
989.6649999999999
 31
0.0
  0
LINE
  5
1273
330
1473
100
AcDbEntity
  8
8
100
AcDbLine
 10
218.504
 20
984.1649999999999
 30
0.0
 11
214.76
 21
987.9099999999999
 31
0.0
  0
ENDBLK
  5
1274
330
1473
100
AcDbEntity
  8
0
100
AcDbBlockEnd
  0
BLOCK
  5
1284
330
1474
100
AcDbEntity
  8
0
100
AcDbBlockBegin
  2
*X4
 70
     1
 10
0.0
 20
0.0
 30
0.0
  3
*X4
  1

  0
LINE
  5
1285
330
1474
100
AcDbEntity
  8
8
100
AcDbLine
 10
235.533
 20
1039.95
 30
0.0
 11
237.258
 21
1041.676
 31
0.0
  0
LINE
  5
1286
330
1474
100
AcDbEntity
  8
8
100
AcDbLine
 10
233.87
 20
1042.778
 30
0.0
 11
236.884
 21
1045.792
 31
0.0
  0
LINE
  5
1287
330
1474
100
AcDbEntity
  8
8
100
AcDbLine
 10
231.267
 20
1044.665
 30
0.0
 11
233.267
 21
1046.665
 31
0.0
  0
LINE
  5
1288
330
1474
100
AcDbEntity
  8
8
100
AcDbLine
 10
222.768
 20
1040.656
 30
0.0
 11
224.177
 21
1042.066
 31
0.0
  0
LINE
  5
1289
330
1474
100
AcDbEntity
  8
8
100
AcDbLine
 10
226.777
 20
1044.665
 30
0.0
 11
228.776
 21
1046.665
 31
0.0
  0
LINE
  5
128A
330
1474
100
AcDbEntity
  8
8
100
AcDbLine
 10
220.523
 20
1042.901
 30
0.0
 11
224.286
 21
1046.665
 31
0.0
  0
LINE
  5
128B
330
1474
100
AcDbEntity
  8
8
100
AcDbLine
 10
217.796
 20
1044.665
 30
0.0
 11
219.796
 21
1046.665
 31
0.0
  0
LINE
  5
128C
330
1474
100
AcDbEntity
  8
8
100
AcDbLine
 10
214.76
 20
1046.118
 30
0.0
 11
218.76
 21
1050.118
 31
0.0
  0
LINE
  5
128D
330
1474
100
AcDbEntity
  8
8
100
AcDbLine
 10
237.252
 20
1041.75
 30
0.0
 11
232.337
 21
1046.665
 31
0.0
  0
LINE
  5
128E
330
1474
100
AcDbEntity
  8
8
100
AcDbLine
 10
237.701
 20
1036.81
 30
0.0
 11
236.921
 21
1037.59
 31
0.0
  0
LINE
  5
128F
330
1474
100
AcDbEntity
  8
8
100
AcDbLine
 10
229.846
 20
1044.665
 30
0.0
 11
227.847
 21
1046.665
 31
0.0
  0
LINE
  5
1290
330
1474
100
AcDbEntity
  8
8
100
AcDbLine
 10
225.356
 20
1044.665
 30
0.0
 11
223.356
 21
1046.665
 31
0.0
  0
LINE
  5
1291
330
1474
100
AcDbEntity
  8
8
100
AcDbLine
 10
225.031
 20
1040.5
 30
0.0
 11
218.866
 21
1046.665
 31
0.0
  0
LINE
  5
1292
330
1474
100
AcDbEntity
  8
8
100
AcDbLine
 10
218.76
 20
1046.771
 30
0.0
 11
215.366
 21
1050.165
 31
0.0
  0
LINE
  5
1293
330
1474
100
AcDbEntity
  8
8
100
AcDbLine
 10
216.376
 20
1044.665
 30
0.0
 11
214.76
 21
1046.281
 31
0.0
  0
ENDBLK
  5
1294
330
1474
100
AcDbEntity
  8
0
100
AcDbBlockEnd
  0
BLOCK
  5
12C8
330
1477
100
AcDbEntity
  8
0
100
AcDbBlockBegin
  2
*X5
 70
     1
 10
0.0
 20
0.0
 30
0.0
  3
*X5
  1

  0
LINE
  5
12C9
330
1477
100
AcDbEntity
  8
8
100
AcDbLine
 10
322.091
 20
1012.01
 30
0.0
 11
327.006
 21
1016.925
 31
0.0
  0
LINE
  5
12CA
330
1477
100
AcDbEntity
  8
8
100
AcDbLine
 10
321.898
 20
1023.043
 30
0.0
 11
326.813
 21
1027.958
 31
0.0
  0
LINE
  5
12CB
330
1477
100
AcDbEntity
  8
8
100
AcDbLine
 10
321.705
 20
1034.076
 30
0.0
 11
326.62
 21
1038.991
 31
0.0
  0
LINE
  5
12CC
330
1477
100
AcDbEntity
  8
8
100
AcDbLine
 10
320.605
 20
1044.201
 30
0.0
 11
326.428
 21
1050.024
 31
0.0
  0
LINE
  5
12CD
330
1477
100
AcDbEntity
  8
8
100
AcDbLine
 10
312.03
 20
1046.851
 30
0.0
 11
319.844
 21
1054.665
 31
0.0
  0
LINE
  5
12CE
330
1477
100
AcDbEntity
  8
8
100
AcDbLine
 10
300.767
 20
1046.813
 30
0.0
 11
308.618
 21
1054.665
 31
0.0
  0
LINE
  5
12CF
330
1477
100
AcDbEntity
  8
8
100
AcDbLine
 10
289.503
 20
1046.775
 30
0.0
 11
297.393
 21
1054.665
 31
0.0
  0
LINE
  5
12D0
330
1477
100
AcDbEntity
  8
8
100
AcDbLine
 10
278.24
 20
1046.737
 30
0.0
 11
286.168
 21
1054.665
 31
0.0
  0
LINE
  5
12D1
330
1477
100
AcDbEntity
  8
8
100
AcDbLine
 10
266.977
 20
1046.699
 30
0.0
 11
274.942
 21
1054.665
 31
0.0
  0
LINE
  5
12D2
330
1477
100
AcDbEntity
  8
8
100
AcDbLine
 10
251.217
 20
1042.165
 30
0.0
 11
253.024
 21
1043.972
 31
0.0
  0
LINE
  5
12D3
330
1477
100
AcDbEntity
  8
8
100
AcDbLine
 10
255.453
 20
1046.4
 30
0.0
 11
263.717
 21
1054.665
 31
0.0
  0
LINE
  5
12D4
330
1477
100
AcDbEntity
  8
8
100
AcDbLine
 10
244.369
 20
1046.541
 30
0.0
 11
252.492
 21
1054.665
 31
0.0
  0
LINE
  5
12D5
330
1477
100
AcDbEntity
  8
8
100
AcDbLine
 10
233.266
 20
1046.665
 30
0.0
 11
241.267
 21
1054.665
 31
0.0
  0
LINE
  5
12D6
330
1477
100
AcDbEntity
  8
8
100
AcDbLine
 10
222.041
 20
1046.665
 30
0.0
 11
230.041
 21
1054.665
 31
0.0
  0
ENDBLK
  5
12D7
330
1477
100
AcDbEntity
  8
0
100
AcDbBlockEnd
  0
BLOCK
  5
131D
330
1478
100
AcDbEntity
  8
0
100
AcDbBlockBegin
  2
*X6
 70
     1
 10
0.0
 20
0.0
 30
0.0
  3
*X6
  1

  0
LINE
  5
131E
330
1478
100
AcDbEntity
  8
8
100
AcDbLine
 10
738.023
 20
1023.832
 30
0.0
 11
742.783
 21
1028.591
 31
0.0
  0
LINE
  5
131F
330
1478
100
AcDbEntity
  8
8
100
AcDbLine
 10
727.085
 20
1024.118
 30
0.0
 11
732.6900000000001
 21
1029.723
 31
0.0
  0
LINE
  5
1320
330
1478
100
AcDbEntity
  8
8
100
AcDbLine
 10
717.1210000000001
 20
1025.379
 30
0.0
 11
721.751
 21
1030.01
 31
0.0
  0
LINE
  5
1321
330
1478
100
AcDbEntity
  8
8
100
AcDbLine
 10
706.1819999999999
 20
1025.666
 30
0.0
 11
710.812
 21
1030.296
 31
0.0
  0
LINE
  5
1322
330
1478
100
AcDbEntity
  8
8
100
AcDbLine
 10
695.243
 20
1025.952
 30
0.0
 11
699.8730000000001
 21
1030.583
 31
0.0
  0
LINE
  5
1323
330
1478
100
AcDbEntity
  8
8
100
AcDbLine
 10
684.304
 20
1026.239
 30
0.0
 11
688.9339999999999
 21
1030.869
 31
0.0
  0
LINE
  5
1324
330
1478
100
AcDbEntity
  8
8
100
AcDbLine
 10
673.3649999999999
 20
1026.525
 30
0.0
 11
677.995
 21
1031.155
 31
0.0
  0
LINE
  5
1325
330
1478
100
AcDbEntity
  8
8
100
AcDbLine
 10
662.426
 20
1026.812
 30
0.0
 11
667.056
 21
1031.442
 31
0.0
  0
LINE
  5
1326
330
1478
100
AcDbEntity
  8
8
100
AcDbLine
 10
652.186
 20
1027.797
 30
0.0
 11
656.13
 21
1031.741
 31
0.0
  0
LINE
  5
1327
330
1478
100
AcDbEntity
  8
8
100
AcDbLine
 10
646.4500000000001
 20
1033.286
 30
0.0
 11
650.419
 21
1037.255
 31
0.0
  0
LINE
  5
1328
330
1478
100
AcDbEntity
  8
8
100
AcDbLine
 10
644.4199999999999
 20
1042.481
 30
0.0
 11
648.7359999999999
 21
1046.798
 31
0.0
  0
LINE
  5
1329
330
1478
100
AcDbEntity
  8
8
100
AcDbLine
 10
640.32
 20
1049.607
 30
0.0
 11
645.209
 21
1054.495
 31
0.0
  0
LINE
  5
132A
330
1478
100
AcDbEntity
  8
8
100
AcDbLine
 10
629.153
 20
1049.665
 30
0.0
 11
634.153
 21
1054.665
 31
0.0
  0
LINE
  5
132B
330
1478
100
AcDbEntity
  8
8
100
AcDbLine
 10
617.927
 20
1049.665
 30
0.0
 11
622.927
 21
1054.665
 31
0.0
  0
LINE
  5
132C
330
1478
100
AcDbEntity
  8
8
100
AcDbLine
 10
606.702
 20
1049.665
 30
0.0
 11
611.702
 21
1054.665
 31
0.0
  0
LINE
  5
132D
330
1478
100
AcDbEntity
  8
8
100
AcDbLine
 10
595.4769999999999
 20
1049.665
 30
0.0
 11
600.4769999999999
 21
1054.665
 31
0.0
  0
LINE
  5
132E
330
1478
100
AcDbEntity
  8
8
100
AcDbLine
 10
553.251
 20
1018.665
 30
0.0
 11
558.251
 21
1023.665
 31
0.0
  0
LINE
  5
132F
330
1478
100
AcDbEntity
  8
8
100
AcDbLine
 10
584.2509999999999
 20
1049.665
 30
0.0
 11
589.2509999999999
 21
1054.665
 31
0.0
  0
LINE
  5
1330
330
1478
100
AcDbEntity
  8
8
100
AcDbLine
 10
542.0259999999999
 20
1018.665
 30
0.0
 11
547.62
 21
1024.258
 31
0.0
  0
LINE
  5
1331
330
1478
100
AcDbEntity
  8
8
100
AcDbLine
 10
573.0259999999999
 20
1049.665
 30
0.0
 11
578.0259999999999
 21
1054.665
 31
0.0
  0
LINE
  5
1332
330
1478
100
AcDbEntity
  8
8
100
AcDbLine
 10
530.8009999999999
 20
1018.665
 30
0.0
 11
545.807
 21
1033.671
 31
0.0
  0
LINE
  5
1333
330
1478
100
AcDbEntity
  8
8
100
AcDbLine
 10
561.8009999999999
 20
1049.665
 30
0.0
 11
566.8009999999999
 21
1054.665
 31
0.0
  0
LINE
  5
1334
330
1478
100
AcDbEntity
  8
8
100
AcDbLine
 10
521.76
 20
1020.849
 30
0.0
 11
530.3949999999999
 21
1029.484
 31
0.0
  0
LINE
  5
1335
330
1478
100
AcDbEntity
  8
8
100
AcDbLine
 10
540.9159999999999
 20
1040.006
 30
0.0
 11
546.1709999999999
 21
1045.261
 31
0.0
  0
LINE
  5
1336
330
1478
100
AcDbEntity
  8
8
100
AcDbLine
 10
550.3869999999999
 20
1049.476
 30
0.0
 11
555.575
 21
1054.665
 31
0.0
  0
LINE
  5
1337
330
1478
100
AcDbEntity
  8
8
100
AcDbLine
 10
541.1159999999999
 20
1051.43
 30
0.0
 11
544.35
 21
1054.665
 31
0.0
  0
ENDBLK
  5
1338
330
1478
100
AcDbEntity
  8
0
100
AcDbBlockEnd
  0
BLOCK
  5
135E
330
147B
100
AcDbEntity
  8
0
100
AcDbBlockBegin
  2
*X7
 70
     1
 10
0.0
 20
0.0
 30
0.0
  3
*X7
  1

  0
LINE
  5
135F
330
147B
100
AcDbEntity
  8
8
100
AcDbLine
 10
602.243
 20
1059.665
 30
0.0
 11
608.76
 21
1066.181
 31
0.0
  0
LINE
  5
1360
330
147B
100
AcDbEntity
  8
8
100
AcDbLine
 10
597.753
 20
1059.665
 30
0.0
 11
605.753
 21
1067.665
 31
0.0
  0
LINE
  5
1361
330
147B
100
AcDbEntity
  8
8
100
AcDbLine
 10
593.263
 20
1059.665
 30
0.0
 11
601.263
 21
1067.665
 31
0.0
  0
LINE
  5
1362
330
147B
100
AcDbEntity
  8
8
100
AcDbLine
 10
588.773
 20
1059.665
 30
0.0
 11
596.773
 21
1067.665
 31
0.0
  0
LINE
  5
1363
330
147B
100
AcDbEntity
  8
8
100
AcDbLine
 10
584.283
 20
1059.665
 30
0.0
 11
592.283
 21
1067.665
 31
0.0
  0
LINE
  5
1364
330
147B
100
AcDbEntity
  8
8
100
AcDbLine
 10
579.793
 20
1059.665
 30
0.0
 11
587.793
 21
1067.665
 31
0.0
  0
LINE
  5
1365
330
147B
100
AcDbEntity
  8
8
100
AcDbLine
 10
575.302
 20
1059.665
 30
0.0
 11
583.3029999999999
 21
1067.665
 31
0.0
  0
LINE
  5
1366
330
147B
100
AcDbEntity
  8
8
100
AcDbLine
 10
570.812
 20
1059.665
 30
0.0
 11
578.812
 21
1067.665
 31
0.0
  0
LINE
  5
1367
330
147B
100
AcDbEntity
  8
8
100
AcDbLine
 10
566.3219999999999
 20
1059.665
 30
0.0
 11
574.3219999999999
 21
1067.665
 31
0.0
  0
LINE
  5
1368
330
147B
100
AcDbEntity
  8
8
100
AcDbLine
 10
561.8319999999999
 20
1059.665
 30
0.0
 11
569.8319999999999
 21
1067.665
 31
0.0
  0
LINE
  5
1369
330
147B
100
AcDbEntity
  8
8
100
AcDbLine
 10
557.3419999999999
 20
1059.665
 30
0.0
 11
565.3419999999999
 21
1067.665
 31
0.0
  0
LINE
  5
136A
330
147B
100
AcDbEntity
  8
8
100
AcDbLine
 10
552.98
 20
1059.793
 30
0.0
 11
560.8519999999999
 21
1067.665
 31
0.0
  0
LINE
  5
136B
330
147B
100
AcDbEntity
  8
8
100
AcDbLine
 10
551.2599999999999
 20
1062.563
 30
0.0
 11
556.3619999999999
 21
1067.665
 31
0.0
  0
LINE
  5
136C
330
147B
100
AcDbEntity
  8
8
100
AcDbLine
 10
551.2599999999999
 20
1067.053
 30
0.0
 11
551.872
 21
1067.665
 31
0.0
  0
ENDBLK
  5
136D
330
147B
100
AcDbEntity
  8
0
100
AcDbBlockEnd
  0
BLOCK
  5
137E
330
147C
100
AcDbEntity
  8
0
100
AcDbBlockBegin
  2
*X8
 70
     1
 10
0.0
 20
0.0
 30
0.0
  3
*X8
  1

  0
LINE
  5
137F
330
147C
100
AcDbEntity
  8
8
100
AcDbLine
 10
310.385
 20
1059.665
 30
0.0
 11
316.26
 21
1065.539
 31
0.0
  0
LINE
  5
1380
330
147C
100
AcDbEntity
  8
8
100
AcDbLine
 10
305.895
 20
1059.665
 30
0.0
 11
313.895
 21
1067.665
 31
0.0
  0
LINE
  5
1381
330
147C
100
AcDbEntity
  8
8
100
AcDbLine
 10
301.405
 20
1059.665
 30
0.0
 11
309.405
 21
1067.665
 31
0.0
  0
LINE
  5
1382
330
147C
100
AcDbEntity
  8
8
100
AcDbLine
 10
296.915
 20
1059.665
 30
0.0
 11
304.915
 21
1067.665
 31
0.0
  0
LINE
  5
1383
330
147C
100
AcDbEntity
  8
8
100
AcDbLine
 10
292.4240000000001
 20
1059.665
 30
0.0
 11
300.424
 21
1067.665
 31
0.0
  0
LINE
  5
1384
330
147C
100
AcDbEntity
  8
8
100
AcDbLine
 10
287.934
 20
1059.665
 30
0.0
 11
295.934
 21
1067.665
 31
0.0
  0
LINE
  5
1385
330
147C
100
AcDbEntity
  8
8
100
AcDbLine
 10
283.444
 20
1059.665
 30
0.0
 11
291.444
 21
1067.665
 31
0.0
  0
LINE
  5
1386
330
147C
100
AcDbEntity
  8
8
100
AcDbLine
 10
278.954
 20
1059.665
 30
0.0
 11
286.954
 21
1067.665
 31
0.0
  0
LINE
  5
1387
330
147C
100
AcDbEntity
  8
8
100
AcDbLine
 10
274.464
 20
1059.665
 30
0.0
 11
282.464
 21
1067.665
 31
0.0
  0
LINE
  5
1388
330
147C
100
AcDbEntity
  8
8
100
AcDbLine
 10
269.974
 20
1059.665
 30
0.0
 11
277.974
 21
1067.665
 31
0.0
  0
LINE
  5
1389
330
147C
100
AcDbEntity
  8
8
100
AcDbLine
 10
265.484
 20
1059.665
 30
0.0
 11
273.4840000000001
 21
1067.665
 31
0.0
  0
LINE
  5
138A
330
147C
100
AcDbEntity
  8
8
100
AcDbLine
 10
261.03
 20
1059.702
 30
0.0
 11
268.994
 21
1067.665
 31
0.0
  0
LINE
  5
138B
330
147C
100
AcDbEntity
  8
8
100
AcDbLine
 10
258.793
 20
1061.955
 30
0.0
 11
264.503
 21
1067.665
 31
0.0
  0
LINE
  5
138C
330
147C
100
AcDbEntity
  8
8
100
AcDbLine
 10
258.759
 20
1066.411
 30
0.0
 11
260.013
 21
1067.665
 31
0.0
  0
ENDBLK
  5
138D
330
147C
100
AcDbEntity
  8
0
100
AcDbBlockEnd
  0
BLOCK
  5
155C
330
1490
100
AcDbEntity
  8
0
100
AcDbBlockBegin
  2
*D9
 70
     1
 10
0.0
 20
0.0
 30
0.0
  3
*D9
  1
GEVFRAME
  0
LINE
  5
155D
330
1490
100
AcDbEntity
  8
0
  6
ByBlock
100
AcDbLine
 10
319.76
 20
1064.665
 30
0.0
 11
319.76
 21
1133.407
 31
0.0
  0
LINE
  5
155E
330
1490
100
AcDbEntity
  8
0
  6
ByBlock
100
AcDbLine
 10
547.7599999999999
 20
1064.665
 30
0.0
 11
547.7599999999999
 21
1133.407
 31
0.0
  0
LINE
  5
155F
330
1490
100
AcDbEntity
  8
0
  6
ByBlock
100
AcDbLine
 10
332.26
 20
1128.407
 30
0.0
 11
535.2599999999999
 21
1128.407
 31
0.0
  0
SOLID
  5
1560
330
1490
100
AcDbEntity
  8
0
  6
ByBlock
100
AcDbTrace
 10
332.26
 20
1130.490333
 30
0.0
 11
332.26
 21
1126.323667
 31
0.0
 12
319.76
 22
1128.407
 32
0.0
 13
319.76
 23
1128.407
 33
0.0
  0
SOLID
  5
1561
330
1490
100
AcDbEntity
  8
0
  6
ByBlock
100
AcDbTrace
 10
535.2599999999999
 20
1130.490333
 30
0.0
 11
535.2599999999999
 21
1126.323667
 31
0.0
 12
547.7599999999999
 22
1128.407
 32
0.0
 13
547.7599999999999
 23
1128.407
 33
0.0
  0
MTEXT
  5
1562
330
1490
100
AcDbEntity
  8
0
  6
ByBlock
 62
     2
100
AcDbMText
 10
440.318
 20
1140.158722
 30
0.0
 40
17.5
 41
0.0
 71
     5
 72
     1
  1
\U+2205 228
 73
     1
 44
1.0
1001
ACAD
1000
MTEXTBEGIN
1070
    73
1070
     1
1070
    44
1040
1.0
1070
    74
1070
     0
1000
MTEXTEND
  0
POINT
  5
1563
330
1490
100
AcDbEntity
  8
DEFPOINTS
  6
ByBlock
 62
     0
100
AcDbPoint
 10
319.76
 20
1059.665
 30
0.0
  0
POINT
  5
1564
330
1490
100
AcDbEntity
  8
DEFPOINTS
  6
ByBlock
 62
     0
100
AcDbPoint
 10
547.7599999999999
 20
1059.665
 30
0.0
  0
POINT
  5
1565
330
1490
100
AcDbEntity
  8
DEFPOINTS
  6
ByBlock
 62
     0
100
AcDbPoint
 10
547.7599999999999
 20
1128.407
 30
0.0
  0
ENDBLK
  5
1566
330
1490
100
AcDbEntity
  8
0
100
AcDbBlockEnd
  0
BLOCK
  5
1551
330
149D
100
AcDbEntity
  8
0
100
AcDbBlockBegin
  2
*D10
 70
     1
 10
0.0
 20
0.0
 30
0.0
  3
*D10
  1
GEVFRAME
  0
LINE
  5
1552
330
149D
100
AcDbEntity
  8
0
  6
ByBlock
100
AcDbLine
 10
218.76
 20
1051.665
 30
0.0
 11
218.76
 21
1200.069
 31
0.0
  0
LINE
  5
1553
330
149D
100
AcDbEntity
  8
0
  6
ByBlock
100
AcDbLine
 10
648.76
 20
1051.665
 30
0.0
 11
648.76
 21
1200.069
 31
0.0
  0
LINE
  5
1554
330
149D
100
AcDbEntity
  8
0
  6
ByBlock
100
AcDbLine
 10
231.26
 20
1195.069
 30
0.0
 11
636.26
 21
1195.069
 31
0.0
  0
SOLID
  5
1555
330
149D
100
AcDbEntity
  8
0
  6
ByBlock
100
AcDbTrace
 10
231.26
 20
1197.152333
 30
0.0
 11
231.26
 21
1192.985667
 31
0.0
 12
218.76
 22
1195.069
 32
0.0
 13
218.76
 23
1195.069
 33
0.0
  0
SOLID
  5
1556
330
149D
100
AcDbEntity
  8
0
  6
ByBlock
100
AcDbTrace
 10
636.26
 20
1197.152333
 30
0.0
 11
636.26
 21
1192.985667
 31
0.0
 12
648.76
 22
1195.069
 32
0.0
 13
648.76
 23
1195.069
 33
0.0
  0
MTEXT
  5
1557
330
149D
100
AcDbEntity
  8
0
  6
ByBlock
 62
     2
100
AcDbMText
 10
442.8009999999999
 20
1206.819
 30
0.0
 40
17.5
 41
0.0
 71
     5
 72
     1
  1
\U+2205 430
 73
     1
 44
1.0
1001
ACAD
1000
MTEXTBEGIN
1070
    73
1070
     1
1070
    44
1040
1.0
1070
    74
1070
     0
1000
MTEXTEND
  0
POINT
  5
1558
330
149D
100
AcDbEntity
  8
DEFPOINTS
  6
ByBlock
 62
     0
100
AcDbPoint
 10
218.76
 20
1046.665
 30
0.0
  0
POINT
  5
1559
330
149D
100
AcDbEntity
  8
DEFPOINTS
  6
ByBlock
 62
     0
100
AcDbPoint
 10
648.76
 20
1046.665
 30
0.0
  0
POINT
  5
155A
330
149D
100
AcDbEntity
  8
DEFPOINTS
  6
ByBlock
 62
     0
100
AcDbPoint
 10
648.76
 20
1195.069
 30
0.0
  0
ENDBLK
  5
155B
330
149D
100
AcDbEntity
  8
0
100
AcDbBlockEnd
  0
BLOCK
  5
1573
330
14A9
100
AcDbEntity
  8
0
100
AcDbBlockBegin
  2
*D11
 70
     1
 10
0.0
 20
0.0
 30
0.0
  3
*D11
  1
GEVFRAME
  0
LINE
  5
1574
330
14A9
100
AcDbEntity
  8
0
  6
ByBlock
100
AcDbLine
 10
262.449
 20
1017.165
 30
0.0
 11
298.442
 21
1017.165
 31
0.0
  0
LINE
  5
1575
330
14A9
100
AcDbEntity
  8
0
  6
ByBlock
100
AcDbLine
 10
293.442
 20
1029.665
 30
0.0
 11
293.442
 21
1042.165
 31
0.0
  0
LINE
  5
1576
330
14A9
100
AcDbEntity
  8
0
  6
ByBlock
100
AcDbLine
 10
293.442
 20
1054.665
 30
0.0
 11
293.442
 21
1100.279
 31
0.0
  0
SOLID
  5
1577
330
14A9
100
AcDbEntity
  8
0
  6
ByBlock
100
AcDbTrace
 10
291.358667
 20
1029.665
 30
0.0
 11
295.525333
 21
1029.665
 31
0.0
 12
293.442
 22
1017.165
 32
0.0
 13
293.442
 23
1017.165
 33
0.0
  0
SOLID
  5
1578
330
14A9
100
AcDbEntity
  8
0
  6
ByBlock
100
AcDbTrace
 10
291.358667
 20
1042.165
 30
0.0
 11
295.525333
 21
1042.165
 31
0.0
 12
293.442
 22
1054.665
 32
0.0
 13
293.442
 23
1054.665
 33
0.0
  0
MTEXT
  5
1579
330
14A9
100
AcDbEntity
  8
0
  6
ByBlock
 62
     2
100
AcDbMText
 10
281.692
 20
1087.654
 30
0.0
 40
17.5
 41
0.0
 71
     5
 72
     1
  1
38
 11
0.0
 21
1.0
 31
0.0
 73
     1
 44
1.0
1001
ACAD
1000
MTEXTBEGIN
1070
    73
1070
     1
1070
    44
1040
1.0
1070
    74
1070
     0
1000
MTEXTEND
  0
POINT
  5
157A
330
14A9
100
AcDbEntity
  8
DEFPOINTS
  6
ByBlock
 62
     0
100
AcDbPoint
 10
257.449
 20
1017.165
 30
0.0
  0
POINT
  5
157B
330
14A9
100
AcDbEntity
  8
DEFPOINTS
  6
ByBlock
 62
     0
100
AcDbPoint
 10
293.442
 20
1054.665
 30
0.0
  0
POINT
  5
157C
330
14A9
100
AcDbEntity
  8
DEFPOINTS
  6
ByBlock
 62
     0
100
AcDbPoint
 10
293.442
 20
1054.665
 30
0.0
  0
ENDBLK
  5
157D
330
14A9
100
AcDbEntity
  8
0
100
AcDbBlockEnd
  0
BLOCK
  5
1567
330
14B6
100
AcDbEntity
  8
0
100
AcDbBlockBegin
  2
*D12
 70
     1
 10
0.0
 20
0.0
 30
0.0
  3
*D12
  1
GEVFRAME
  0
LINE
  5
1568
330
14B6
100
AcDbEntity
  8
0
  6
ByBlock
100
AcDbLine
 10
331.347
 20
1054.665
 30
0.0
 11
364.039
 21
1054.665
 31
0.0
  0
LINE
  5
1569
330
14B6
100
AcDbEntity
  8
0
  6
ByBlock
100
AcDbLine
 10
359.039
 20
1042.165
 30
0.0
 11
359.039
 21
1029.665
 31
0.0
  0
LINE
  5
156A
330
14B6
100
AcDbEntity
  8
0
  6
ByBlock
100
AcDbLine
 10
359.039
 20
1072.165
 30
0.0
 11
359.039
 21
1105.389874
 31
0.0
  0
LINE
  5
156B
330
14B6
100
AcDbEntity
  8
0
  6
ByBlock
100
AcDbLine
 10
359.039
 20
1054.665
 30
0.0
 11
359.039
 21
1059.665
 31
0.0
  0
SOLID
  5
156C
330
14B6
100
AcDbEntity
  8
0
  6
ByBlock
100
AcDbTrace
 10
356.955667
 20
1042.165
 30
0.0
 11
361.122333
 21
1042.165
 31
0.0
 12
359.039
 22
1054.665
 32
0.0
 13
359.039
 23
1054.665
 33
0.0
  0
SOLID
  5
156D
330
14B6
100
AcDbEntity
  8
0
  6
ByBlock
100
AcDbTrace
 10
356.955667
 20
1072.165
 30
0.0
 11
361.122333
 21
1072.165
 31
0.0
 12
359.039
 22
1059.665
 32
0.0
 13
359.039
 23
1059.665
 33
0.0
  0
MTEXT
  5
156E
330
14B6
100
AcDbEntity
  8
0
  6
ByBlock
 62
     2
100
AcDbMText
 10
347.289
 20
1098.527437
 30
0.0
 40
17.5
 41
0.0
 71
     5
 72
     1
  1
5
 11
0.0
 21
1.0
 31
0.0
 73
     1
 44
1.0
1001
ACAD
1000
MTEXTBEGIN
1070
    73
1070
     1
1070
    44
1040
1.0
1070
    74
1070
     0
1000
MTEXTEND
  0
POINT
  5
156F
330
14B6
100
AcDbEntity
  8
DEFPOINTS
  6
ByBlock
 62
     0
100
AcDbPoint
 10
326.347
 20
1054.665
 30
0.0
  0
POINT
  5
1570
330
14B6
100
AcDbEntity
  8
DEFPOINTS
  6
ByBlock
 62
     0
100
AcDbPoint
 10
359.039
 20
1059.665
 30
0.0
  0
POINT
  5
1571
330
14B6
100
AcDbEntity
  8
DEFPOINTS
  6
ByBlock
 62
     0
100
AcDbPoint
 10
359.039
 20
1059.665
 30
0.0
  0
ENDBLK
  5
1572
330
14B6
100
AcDbEntity
  8
0
100
AcDbBlockEnd
  0
BLOCK
  5
157E
330
14C3
100
AcDbEntity
  8
0
100
AcDbBlockBegin
  2
*D13
 70
     1
 10
0.0
 20
0.0
 30
0.0
  3
*D13
  1
GEVFRAME
  0
LINE
  5
157F
330
14C3
100
AcDbEntity
  8
0
  6
ByBlock
100
AcDbLine
 10
213.76
 20
987.6649999999999
 30
0.0
 11
173.887
 21
987.6649999999999
 31
0.0
  0
LINE
  5
1580
330
14C3
100
AcDbEntity
  8
0
  6
ByBlock
100
AcDbLine
 10
213.759
 20
1046.665
 30
0.0
 11
173.887
 21
1046.665
 31
0.0
  0
LINE
  5
1581
330
14C3
100
AcDbEntity
  8
0
  6
ByBlock
100
AcDbLine
 10
178.887
 20
1000.165
 30
0.0
 11
178.887
 21
1034.165
 31
0.0
  0
SOLID
  5
1582
330
14C3
100
AcDbEntity
  8
0
  6
ByBlock
100
AcDbTrace
 10
176.803667
 20
1000.165
 30
0.0
 11
180.970333
 21
1000.165
 31
0.0
 12
178.887
 22
987.6649999999999
 32
0.0
 13
178.887
 23
987.6649999999999
 33
0.0
  0
SOLID
  5
1583
330
14C3
100
AcDbEntity
  8
0
  6
ByBlock
100
AcDbTrace
 10
176.803667
 20
1034.165
 30
0.0
 11
180.970333
 21
1034.165
 31
0.0
 12
178.887
 22
1046.665
 32
0.0
 13
178.887
 23
1046.665
 33
0.0
  0
MTEXT
  5
1584
330
14C3
100
AcDbEntity
  8
0
  6
ByBlock
 62
     2
100
AcDbMText
 10
167.137
 20
1017.164
 30
0.0
 40
17.5
 41
0.0
 71
     5
 72
     1
  1
\U+220559
 11
0.0
 21
1.0
 31
0.0
 73
     1
 44
1.0
1001
ACAD
1000
MTEXTBEGIN
1070
    73
1070
     1
1070
    44
1040
1.0
1070
    74
1070
     0
1000
MTEXTEND
  0
POINT
  5
1585
330
14C3
100
AcDbEntity
  8
DEFPOINTS
  6
ByBlock
 62
     0
100
AcDbPoint
 10
218.76
 20
987.6649999999999
 30
0.0
  0
POINT
  5
1586
330
14C3
100
AcDbEntity
  8
DEFPOINTS
  6
ByBlock
 62
     0
100
AcDbPoint
 10
218.759
 20
1046.665
 30
0.0
  0
POINT
  5
1587
330
14C3
100
AcDbEntity
  8
DEFPOINTS
  6
ByBlock
 62
     0
100
AcDbPoint
 10
178.887
 20
1046.665
 30
0.0
  0
ENDBLK
  5
1588
330
14C3
100
AcDbEntity
  8
0
100
AcDbBlockEnd
  0
BLOCK
  5
1589
330
14CF
100
AcDbEntity
  8
0
100
AcDbBlockBegin
  2
*D14
 70
     1
 10
0.0
 20
0.0
 30
0.0
  3
*D14
  1
GEVFRAME
  0
LINE
  5
158A
330
14CF
100
AcDbEntity
  8
0
  6
ByBlock
100
AcDbLine
 10
428.76
 20
919.6649999999999
 30
0.0
 11
131.703
 21
919.6649999999999
 31
0.0
  0
LINE
  5
158B
330
14CF
100
AcDbEntity
  8
0
  6
ByBlock
100
AcDbLine
 10
218.527
 20
1054.665
 30
0.0
 11
131.703
 21
1054.665
 31
0.0
  0
LINE
  5
158C
330
14CF
100
AcDbEntity
  8
0
  6
ByBlock
100
AcDbLine
 10
136.703
 20
932.1649999999999
 30
0.0
 11
136.703
 21
1042.165
 31
0.0
  0
SOLID
  5
158D
330
14CF
100
AcDbEntity
  8
0
  6
ByBlock
100
AcDbTrace
 10
134.619667
 20
932.1649999999999
 30
0.0
 11
138.786333
 21
932.1649999999999
 31
0.0
 12
136.703
 22
919.6649999999999
 32
0.0
 13
136.703
 23
919.6649999999999
 33
0.0
  0
SOLID
  5
158E
330
14CF
100
AcDbEntity
  8
0
  6
ByBlock
100
AcDbTrace
 10
134.619667
 20
1042.165
 30
0.0
 11
138.786333
 21
1042.165
 31
0.0
 12
136.703
 22
1054.665
 32
0.0
 13
136.703
 23
1054.665
 33
0.0
  0
MTEXT
  5
158F
330
14CF
100
AcDbEntity
  8
0
  6
ByBlock
 62
     2
100
AcDbMText
 10
124.953
 20
1001.739
 30
0.0
 40
17.5
 41
0.0
 71
     5
 72
     1
  1
135
 11
0.0
 21
1.0
 31
0.0
 73
     1
 44
1.0
1001
ACAD
1000
MTEXTBEGIN
1070
    73
1070
     1
1070
    44
1040
1.0
1070
    74
1070
     0
1000
MTEXTEND
  0
POINT
  5
1590
330
14CF
100
AcDbEntity
  8
DEFPOINTS
  6
ByBlock
 62
     0
100
AcDbPoint
 10
433.76
 20
919.6649999999999
 30
0.0
  0
POINT
  5
1591
330
14CF
100
AcDbEntity
  8
DEFPOINTS
  6
ByBlock
 62
     0
100
AcDbPoint
 10
223.527
 20
1054.665
 30
0.0
  0
POINT
  5
1592
330
14CF
100
AcDbEntity
  8
DEFPOINTS
  6
ByBlock
 62
     0
100
AcDbPoint
 10
136.703
 20
1054.665
 30
0.0
  0
ENDBLK
  5
1593
330
14CF
100
AcDbEntity
  8
0
100
AcDbBlockEnd
  0
BLOCK
  5
15AA
330
14DB
100
AcDbEntity
  8
0
100
AcDbBlockBegin
  2
*D15
 70
     1
 10
0.0
 20
0.0
 30
0.0
  3
*D15
  1
GEVFRAME
  0
LINE
  5
15AB
330
14DB
100
AcDbEntity
  8
0
  6
ByBlock
100
AcDbLine
 10
748.76
 20
974.665
 30
0.0
 11
851.7710000000001
 21
974.665
 31
0.0
  0
LINE
  5
15AC
330
14DB
100
AcDbEntity
  8
0
  6
ByBlock
100
AcDbLine
 10
652.349
 20
1054.665
 30
0.0
 11
851.7710000000001
 21
1054.665
 31
0.0
  0
LINE
  5
15AD
330
14DB
100
AcDbEntity
  8
0
  6
ByBlock
100
AcDbLine
 10
846.771
 20
987.165
 30
0.0
 11
846.771
 21
1042.165
 31
0.0
  0
SOLID
  5
15AE
330
14DB
100
AcDbEntity
  8
0
  6
ByBlock
100
AcDbTrace
 10
844.6876669999999
 20
987.165
 30
0.0
 11
848.854333
 21
987.165
 31
0.0
 12
846.771
 22
974.665
 32
0.0
 13
846.771
 23
974.665
 33
0.0
  0
SOLID
  5
15AF
330
14DB
100
AcDbEntity
  8
0
  6
ByBlock
100
AcDbTrace
 10
844.6876669999999
 20
1042.165
 30
0.0
 11
848.854333
 21
1042.165
 31
0.0
 12
846.771
 22
1054.665
 32
0.0
 13
846.771
 23
1054.665
 33
0.0
  0
MTEXT
  5
15B0
330
14DB
100
AcDbEntity
  8
0
  6
ByBlock
 62
     2
100
AcDbMText
 10
835.021
 20
1022.445
 30
0.0
 40
17.5
 41
0.0
 71
     5
 72
     1
  1
80
 11
0.0
 21
1.0
 31
0.0
 73
     1
 44
1.0
1001
ACAD
1000
MTEXTBEGIN
1070
    73
1070
     1
1070
    44
1040
1.0
1070
    74
1070
     0
1000
MTEXTEND
  0
POINT
  5
15B1
330
14DB
100
AcDbEntity
  8
DEFPOINTS
  6
ByBlock
 62
     0
100
AcDbPoint
 10
743.7599999999999
 20
974.665
 30
0.0
  0
POINT
  5
15B2
330
14DB
100
AcDbEntity
  8
DEFPOINTS
  6
ByBlock
 62
     0
100
AcDbPoint
 10
647.349
 20
1054.665
 30
0.0
  0
POINT
  5
15B3
330
14DB
100
AcDbEntity
  8
DEFPOINTS
  6
ByBlock
 62
     0
100
AcDbPoint
 10
846.771
 20
1054.665
 30
0.0
  0
ENDBLK
  5
15B4
330
14DB
100
AcDbEntity
  8
0
100
AcDbBlockEnd
  0
BLOCK
  5
1594
330
14F3
100
AcDbEntity
  8
0
100
AcDbBlockBegin
  2
*D17
 70
     1
 10
0.0
 20
0.0
 30
0.0
  3
*D17
  1
GEVFRAME
  0
LINE
  5
1595
330
14F3
100
AcDbEntity
  8
0
  6
ByBlock
100
AcDbLine
 10
433.76
 20
867.665
 30
0.0
 11
433.76
 21
820.7489999999999
 31
0.0
  0
LINE
  5
1596
330
14F3
100
AcDbEntity
  8
0
  6
ByBlock
100
AcDbLine
 10
743.7599999999999
 20
969.6649999999999
 30
0.0
 11
743.7599999999999
 21
820.7489999999999
 31
0.0
  0
LINE
  5
1597
330
14F3
100
AcDbEntity
  8
0
  6
ByBlock
100
AcDbLine
 10
446.26
 20
825.7489999999998
 30
0.0
 11
731.2599999999999
 21
825.7489999999998
 31
0.0
  0
SOLID
  5
1598
330
14F3
100
AcDbEntity
  8
0
  6
ByBlock
100
AcDbTrace
 10
446.26
 20
827.832333
 30
0.0
 11
446.26
 21
823.665667
 31
0.0
 12
433.76
 22
825.7489999999998
 32
0.0
 13
433.76
 23
825.7489999999998
 33
0.0
  0
SOLID
  5
1599
330
14F3
100
AcDbEntity
  8
0
  6
ByBlock
100
AcDbTrace
 10
731.2599999999999
 20
827.832333
 30
0.0
 11
731.2599999999999
 21
823.665667
 31
0.0
 12
743.7599999999999
 22
825.7489999999998
 32
0.0
 13
743.7599999999999
 23
825.7489999999998
 33
0.0
  0
MTEXT
  5
159A
330
14F3
100
AcDbEntity
  8
0
  6
ByBlock
 62
     2
100
AcDbMText
 10
596.457
 20
837.4989999999998
 30
0.0
 40
17.5
 41
0.0
 71
     5
 72
     1
  1
310
 73
     1
 44
1.0
1001
ACAD
1000
MTEXTBEGIN
1070
    73
1070
     1
1070
    44
1040
1.0
1070
    74
1070
     0
1000
MTEXTEND
  0
POINT
  5
159B
330
14F3
100
AcDbEntity
  8
DEFPOINTS
  6
ByBlock
 62
     0
100
AcDbPoint
 10
433.76
 20
872.6649999999999
 30
0.0
  0
POINT
  5
159C
330
14F3
100
AcDbEntity
  8
DEFPOINTS
  6
ByBlock
 62
     0
100
AcDbPoint
 10
743.7599999999999
 20
974.665
 30
0.0
  0
POINT
  5
159D
330
14F3
100
AcDbEntity
  8
DEFPOINTS
  6
ByBlock
 62
     0
100
AcDbPoint
 10
743.7599999999999
 20
825.7489999999998
 30
0.0
  0
ENDBLK
  5
159E
330
14F3
100
AcDbEntity
  8
0
100
AcDbBlockEnd
  0
BLOCK
  5
15B9
330
15B8
100
AcDbEntity
  8
0
100
AcDbBlockBegin
  2
KATALOG_LEER
 70
     0
 10
0.0
 20
0.0
 30
0.0
  3
KATALOG_LEER
  1

  0
ENDBLK
  5
15BA
330
15B8
100
AcDbEntity
  8
0
100
AcDbBlockEnd
  0
BLOCK
  5
167B
330
165A
100
AcDbEntity
  8
0
100
AcDbBlockBegin
  2
*D20
 70
     1
 10
0.0
 20
0.0
 30
0.0
  3
*D20
  1

  0
LINE
  5
167C
330
165A
100
AcDbEntity
  8
0
  6
ByBlock
100
AcDbLine
 10
773.3639829999999
 20
252.502177
 30
0.0
 11
791.9097849999999
 21
252.016433
 31
0.0
  0
LINE
  5
167D
330
165A
100
AcDbEntity
  8
0
  6
ByBlock
100
AcDbLine
 10
733.974697
 20
253.943091
 30
0.0
 11
791.935012
 21
253.943091
 31
0.0
  0
ARC
  5
167E
330
165A
100
AcDbEntity
  8
0
  6
ByBlock
100
AcDbCircle
 10
718.349697
 20
253.943091
 30
0.0
 40
68.58531500000001
100
AcDbArc
 50
337.585803
 51
348.042738
  0
ARC
  5
167F
330
165A
100
AcDbEntity
  8
0
  6
ByBlock
100
AcDbCircle
 10
718.349697
 20
253.943091
 30
0.0
 40
68.58531500000001
100
AcDbArc
 50
10.456935
 51
20.913871
  0
ARC
  5
1680
330
165A
100
AcDbEntity
  8
0
  6
ByBlock
100
AcDbCircle
 10
718.349697
 20
253.943091
 30
0.0
 40
68.58531500000001
100
AcDbArc
 50
358.499674
 51
0.0
  0
SOLID
  5
1681
330
165A
100
AcDbEntity
  8
0
  6
ByBlock
100
AcDbTrace
 10
783.377893
 20
239.977551
 30
0.0
 11
787.5158589999999
 21
239.489344
 31
0.0
 12
786.911499
 22
252.147346
 32
0.0
 13
786.911499
 23
252.147346
 33
0.0
  0
SOLID
  5
1682
330
165A
100
AcDbEntity
  8
0
  6
ByBlock
100
AcDbTrace
 10
787.870585
 20
266.58093
 30
0.0
 11
783.721254
 21
266.201233
 31
0.0
 12
786.935012
 22
253.943091
 32
0.0
 13
786.935012
 23
253.943091
 33
0.0
  0
MTEXT
  5
1683
330
165A
100
AcDbEntity
  8
0
  6
ByBlock
 62
     2
100
AcDbMText
 10
776.76052
 20
217.997004
 30
0.0
 40
17.5
 41
0.0
 71
     5
 72
     1
  1
1.5°
 11
0.2655561117777693
 21
0.9640954058066416
 31
0.0
 73
     1
 44
1.0
1001
ACAD
1000
MTEXTBEGIN
1070
    73
1070
     1
1070
    44
1040
1.0
1070
    74
1070
     0
1000
MTEXTEND
  0
POINT
  5
1684
330
165A
100
AcDbEntity
  8
DEFPOINTS
  6
ByBlock
 62
     0
100
AcDbPoint
 10
786.932399
 20
253.344448
 30
0.0
  0
POINT
  5
1685
330
165A
100
AcDbEntity
  8
DEFPOINTS
  6
ByBlock
 62
     0
100
AcDbPoint
 10
728.974697
 20
253.943091
 30
0.0
  0
POINT
  5
1686
330
165A
100
AcDbEntity
  8
DEFPOINTS
  6
ByBlock
 62
     0
100
AcDbPoint
 10
768.3656969999999
 20
252.633091
 30
0.0
  0
POINT
  5
1687
330
165A
100
AcDbEntity
  8
DEFPOINTS
  6
ByBlock
 62
     0
100
AcDbPoint
 10
718.349697
 20
253.943091
 30
0.0
  0
POINT
  5
1688
330
165A
100
AcDbEntity
  8
DEFPOINTS
  6
ByBlock
 62
     0
100
AcDbPoint
 10
718.349697
 20
253.943091
 30
0.0
  0
ENDBLK
  5
1689
330
165A
100
AcDbEntity
  8
0
100
AcDbBlockEnd
  0
BLOCK
  5
179B
330
1799
100
AcDbEntity
  8
0
100
AcDbBlockBegin
  2
GENAXEH
 70
     0
 10
0.0
 20
0.0
 30
0.0
  3
GENAXEH
  1

  0
LINE
  5
179A
330
1799
100
AcDbEntity
  8
0
100
AcDbLine
 10
-1.0
 20
0.0
 30
0.0
 11
1.0
 21
0.0
 31
0.0
  0
ENDBLK
  5
179C
330
1799
100
AcDbEntity
  8
0
100
AcDbBlockEnd
  0
ENDSEC
  0
SECTION
  2
ENTITIES
  0
POINT
  5
1001
330
144F
100
AcDbEntity
  8
PUNKTE
100
AcDbPoint
 10
408.382697
 20
338.9430910000001
 30
0.0
  0
POINT
  5
1002
330
144F
100
AcDbEntity
  8
PUNKTE
100
AcDbPoint
 10
408.382697
 20
338.9430910000001
 30
0.0
  0
POINT
  5
1003
330
144F
100
AcDbEntity
  8
PUNKTE
100
AcDbPoint
 10
408.382697
 20
350.943091
 30
0.0
  0
POINT
  5
1004
330
144F
100
AcDbEntity
  8
PUNKTE
100
AcDbPoint
 10
193.223697
 20
304.201091
 30
0.0
  0
POINT
  5
1006
330
144F
100
AcDbEntity
  8
PUNKTE
100
AcDbPoint
 10
248.858697
 20
341.942091
 30
0.0
  0
POINT
  5
1007
330
144F
100
AcDbEntity
  8
PUNKTE
100
AcDbPoint
 10
235.194697
 20
342.918091
 30
0.0
  0
LINE
  5
103E
330
144F
100
AcDbEntity
  8
0
100
AcDbLine
 10
295.724697
 20
338.9430910000001
 30
0.0
 11
346.204697
 21
338.9430910000001
 31
0.0
  0
LINE
  5
103F
330
144F
100
AcDbEntity
  8
7
 48
0.316
100
AcDbLine
 10
600.6726969999999
 20
257.025091
 30
0.0
 11
768.3646969999999
 21
252.634091
 31
0.0
  0
LINE
  5
1040
330
144F
100
AcDbEntity
  8
0
100
AcDbLine
 10
716.9956969999999
 20
200.988091
 30
0.0
 11
719.7776969999999
 21
307.234091
 31
0.0
  0
LINE
  5
1041
330
144F
100
AcDbEntity
  8
0
100
AcDbLine
 10
630.894697
 20
311.002091
 30
0.0
 11
713.8176969999999
 21
308.831091
 31
0.0
  0
LINE
  5
1042
330
144F
100
AcDbEntity
  8
0
100
AcDbLine
 10
641.223697
 20
201.194091
 30
0.0
 11
710.9506969999999
 21
199.369091
 31
0.0
  0
LINE
  5
1043
330
144F
100
AcDbEntity
  8
0
100
AcDbLine
 10
630.7196969999999
 20
306.255091
 30
0.0
 11
694.699697
 21
304.580091
 31
0.0
  0
LINE
  5
1044
330
144F
100
AcDbEntity
  8
0
100
AcDbLine
 10
641.3476969999999
 20
205.943091
 30
0.0
 11
692.0816969999999
 21
204.614091
 31
0.0
  0
LINE
  5
1045
330
144F
100
AcDbEntity
  8
0
100
AcDbLine
 10
322.857697
 20
205.943091
 30
0.0
 11
641.3476969999999
 21
205.943091
 31
0.0
  0
LINE
  5
1046
330
144F
100
AcDbEntity
  8
0
100
AcDbLine
 10
300.881697
 20
338.9430910000001
 30
0.0
 11
302.860697
 21
225.594091
 31
0.0
  0
LINE
  5
1047
330
144F
100
AcDbEntity
  8
0
100
AcDbLine
 10
697.1066969999999
 20
205.483091
 30
0.0
 11
699.671697
 21
303.449091
 31
0.0
  0
LINE
  5
1048
330
144F
100
AcDbEntity
  8
0
100
AcDbLine
 10
692.0816969999999
 20
204.614091
 30
0.0
 11
694.699697
 21
304.580091
 31
0.0
  0
LINE
  5
1049
330
144F
100
AcDbEntity
  8
0
100
AcDbLine
 10
710.9506969999999
 20
199.369091
 30
0.0
 11
716.9956969999999
 21
200.988091
 31
0.0
  0
LINE
  5
104A
330
144F
100
AcDbEntity
  8
0
100
AcDbLine
 10
713.8176969999999
 20
308.831091
 30
0.0
 11
719.7776969999999
 21
307.234091
 31
0.0
  0
LINE
  5
104B
330
144F
100
AcDbEntity
  8
0
100
AcDbLine
 10
699.671697
 20
303.449091
 30
0.0
 11
719.6646969999999
 21
302.926091
 31
0.0
  0
LINE
  5
104C
330
144F
100
AcDbEntity
  8
0
100
AcDbLine
 10
697.1066969999999
 20
205.483091
 30
0.0
 11
717.099697
 21
204.960091
 31
0.0
  0
LINE
  5
104D
330
144F
100
AcDbEntity
  8
0
100
AcDbLine
 10
692.0816969999999
 20
204.614091
 30
0.0
 11
697.1066969999999
 21
205.483091
 31
0.0
  0
LINE
  5
104E
330
144F
100
AcDbEntity
  8
0
100
AcDbLine
 10
694.699697
 20
304.580091
 30
0.0
 11
699.671697
 21
303.449091
 31
0.0
  0
LINE
  5
104F
330
144F
100
AcDbEntity
  8
0
100
AcDbLine
 10
515.7946969999999
 20
333.943091
 30
0.0
 11
618.614697
 21
333.943091
 31
0.0
  0
LINE
  5
1050
330
144F
100
AcDbEntity
  8
0
100
AcDbLine
 10
526.6046969999999
 20
328.943091
 30
0.0
 11
614.4196969999999
 21
328.943091
 31
0.0
  0
LINE
  5
1051
330
144F
100
AcDbEntity
  8
0
100
AcDbLine
 10
515.3856969999999
 20
310.488091
 30
0.0
 11
515.8826969999999
 21
338.9430910000001
 31
0.0
  0
LINE
  5
1052
330
144F
100
AcDbEntity
  8
0
100
AcDbLine
 10
496.3826969999999
 20
308.612091
 30
0.0
 11
513.8136969999999
 21
308.916091
 31
0.0
  0
LINE
  5
1053
330
144F
100
AcDbEntity
  8
0
100
AcDbLine
 10
496.3826969999999
 20
308.611091
 30
0.0
 11
496.3826969999999
 21
205.943091
 31
0.0
  0
ARC
  5
1054
330
144F
100
AcDbEntity
  8
0
100
AcDbCircle
 10
513.785697
 20
310.516091
 30
0.0
 40
1.6
100
AcDbArc
 50
270.9990000000001
 51
358.999
  0
LINE
  5
1055
330
144F
100
AcDbEntity
  8
0
100
AcDbLine
 10
496.3826969999999
 20
297.9430910000001
 30
0.0
 11
534.382697
 21
297.9430910000001
 31
0.0
  0
LINE
  5
1056
330
144F
100
AcDbEntity
  8
0
100
AcDbLine
 10
520.3256969999999
 20
307.013091
 30
0.0
 11
520.6056969999999
 21
323.048091
 31
0.0
  0
ARC
  5
1057
330
144F
100
AcDbEntity
  8
0
100
AcDbCircle
 10
526.6046969999999
 20
322.943091
 30
0.0
 40
6.0
100
AcDbArc
 50
90.0
 51
179.0
  0
LINE
  5
1058
330
144F
100
AcDbEntity
  8
0
100
AcDbLine
 10
524.324697
 20
302.943091
 30
0.0
 11
534.382697
 21
302.943091
 31
0.0
  0
ARC
  5
105A
330
144F
100
AcDbEntity
  8
0
100
AcDbCircle
 10
524.324697
 20
306.943091
 30
0.0
 40
4.0
100
AcDbArc
 50
179.0
 51
270.0
  0
LINE
  5
105B
330
144F
100
AcDbEntity
  8
0
100
AcDbLine
 10
198.149697
 20
333.943091
 30
0.0
 11
300.969697
 21
333.943091
 31
0.0
  0
LINE
  5
105C
330
144F
100
AcDbEntity
  8
0
100
AcDbLine
 10
231.381697
 20
325.943091
 30
0.0
 11
291.753697
 21
325.943091
 31
0.0
  0
LINE
  5
105D
330
144F
100
AcDbEntity
  8
0
100
AcDbLine
 10
193.381697
 20
325.943091
 30
0.0
 11
194.209697
 21
330.637091
 31
0.0
  0
ARC
  5
105E
330
144F
100
AcDbEntity
  8
0
100
AcDbCircle
 10
198.149697
 20
329.943091
 30
0.0
 40
4.0
100
AcDbArc
 50
90.0
 51
170.0
  0
LINE
  5
105F
330
144F
100
AcDbEntity
  8
0
100
AcDbLine
 10
296.207697
 20
320.250091
 30
0.0
 11
297.6266970000001
 21
238.950091
 31
0.0
  0
ARC
  5
1060
330
144F
100
AcDbEntity
  8
0
100
AcDbCircle
 10
290.208697
 20
320.1450910000001
 30
0.0
 40
6.0
100
AcDbArc
 50
1.0
 51
88.0
  0
LINE
  5
1061
330
144F
100
AcDbEntity
  8
0
100
AcDbLine
 10
322.853697
 20
201.194091
 30
0.0
 11
382.645697
 21
201.194091
 31
0.0
  0
LINE
  5
1062
330
144F
100
AcDbEntity
  8
0
100
AcDbLine
 10
496.3826969999999
 20
205.943091
 30
0.0
 11
496.3826969999999
 21
203.943091
 31
0.0
  0
LINE
  5
1063
330
144F
100
AcDbEntity
  8
0
100
AcDbLine
 10
496.3826969999999
 20
203.943091
 30
0.0
 11
408.382697
 21
203.943091
 31
0.0
  0
LINE
  5
1064
330
144F
100
AcDbEntity
  8
0
100
AcDbLine
 10
500.2816969999999
 20
201.194091
 30
0.0
 11
641.223697
 21
201.194091
 31
0.0
  0
LINE
  5
1065
330
144F
100
AcDbEntity
  8
0
100
AcDbLine
 10
496.3826969999999
 20
198.943091
 30
0.0
 11
408.382697
 21
198.943091
 31
0.0
  0
LINE
  5
1066
330
144F
100
AcDbEntity
  8
0
100
AcDbLine
 10
385.5206970000001
 20
205.943091
 30
0.0
 11
408.3816969999999
 21
203.943091
 31
0.0
  0
LINE
  5
1067
330
144F
100
AcDbEntity
  8
0
100
AcDbLine
 10
382.645697
 20
201.194091
 30
0.0
 11
408.3816969999999
 21
198.943091
 31
0.0
  0
LINE
  5
1068
330
144F
100
AcDbEntity
  8
3A
100
AcDbLine
 10
382.645697
 20
201.194091
 30
0.0
 11
496.3826969999999
 21
201.194091
 31
0.0
  0
LINE
  5
1069
330
144F
100
AcDbEntity
  8
0
100
AcDbLine
 10
496.3826969999999
 20
198.943091
 30
0.0
 11
500.282697
 21
201.194091
 31
0.0
  0
ARC
  5
106A
330
144F
100
AcDbEntity
  8
0
100
AcDbCircle
 10
322.853697
 20
226.194091
 30
0.0
 40
25.0
100
AcDbArc
 50
175.085
 51
270.0
  0
ARC
  5
106B
330
144F
100
AcDbEntity
  8
0
100
AcDbCircle
 10
322.857697
 20
225.943091
 30
0.0
 40
20.0
100
AcDbArc
 50
181.0
 51
270.0
  0
ARC
  5
106C
330
144F
100
AcDbEntity
  8
3A
 48
0.9309999999999998
100
AcDbCircle
 10
536.1206969999999
 20
315.9430910000001
 30
0.0
 40
10.0
100
AcDbArc
 50
190.0
 51
350.0
  0
LINE
  5
106D
330
144F
100
AcDbEntity
  8
3A
 48
0.387
100
AcDbLine
 10
547.9846969999999
 20
325.637091
 30
0.0
 11
545.9686969999999
 21
314.206091
 31
0.0
  0
LINE
  5
106E
330
144F
100
AcDbEntity
  8
3A
 48
0.387
100
AcDbLine
 10
526.272697
 20
314.206091
 30
0.0
 11
524.257697
 21
325.637091
 31
0.0
  0
ARC
  5
106F
330
144F
100
AcDbEntity
  8
3A
 48
0.084
100
AcDbCircle
 10
520.3176969999999
 20
324.943091
 30
0.0
 40
4.0
100
AcDbArc
 50
10.0
 51
45.88499999999999
  0
ARC
  5
1070
330
144F
100
AcDbEntity
  8
3A
 48
0.186
100
AcDbCircle
 10
551.9236969999999
 20
324.943091
 30
0.0
 40
4.0
100
AcDbArc
 50
90.0
 51
170.0
  0
LINE
  5
1071
330
144F
100
AcDbEntity
  8
7
 48
0.195
100
AcDbLine
 10
536.1206969999999
 20
318.942091
 30
0.0
 11
536.1216969999999
 21
361.942091
 31
0.0
  0
LINE
  5
1072
330
144F
100
AcDbEntity
  8
0
100
AcDbLine
 10
360.262697
 20
338.9430910000001
 30
0.0
 11
358.901697
 21
333.943091
 31
0.0
  0
LINE
  5
1073
330
144F
100
AcDbEntity
  8
0
100
AcDbLine
 10
363.525697
 20
338.9430910000001
 30
0.0
 11
362.161697
 21
333.943091
 31
0.0
  0
LINE
  5
1074
330
144F
100
AcDbEntity
  8
0
100
AcDbLine
 10
347.439697
 20
333.943091
 30
0.0
 11
362.161697
 21
333.943091
 31
0.0
  0
LINE
  5
1075
330
144F
100
AcDbEntity
  8
7
 48
0.316
100
AcDbLine
 10
408.382697
 20
351.943091
 30
0.0
 11
408.382697
 21
151.943091
 31
0.0
  0
LINE
  5
1076
330
144F
100
AcDbEntity
  8
0
100
AcDbLine
 10
470.559697
 20
338.9430910000001
 30
0.0
 11
469.3246969999999
 21
333.943091
 31
0.0
  0
LINE
  5
1077
330
144F
100
AcDbEntity
  8
0
100
AcDbLine
 10
456.501697
 20
338.9430910000001
 30
0.0
 11
457.862697
 21
333.943091
 31
0.0
  0
LINE
  5
1078
330
144F
100
AcDbEntity
  8
0
100
AcDbLine
 10
453.238697
 20
338.9430910000001
 30
0.0
 11
454.6026969999999
 21
333.943091
 31
0.0
  0
LINE
  5
1079
330
144F
100
AcDbEntity
  8
0
100
AcDbLine
 10
469.3246969999999
 20
333.943091
 30
0.0
 11
454.6026969999999
 21
333.943091
 31
0.0
  0
LINE
  5
107A
330
144F
100
AcDbEntity
  8
0
100
AcDbLine
 10
470.559697
 20
338.9430910000001
 30
0.0
 11
521.0396969999999
 21
338.9430910000001
 31
0.0
  0
LINE
  5
107B
330
144F
100
AcDbEntity
  8
0
100
AcDbLine
 10
346.204697
 20
338.9430910000001
 30
0.0
 11
347.439697
 21
333.943091
 31
0.0
  0
LINE
  5
107C
330
144F
100
AcDbEntity
  8
0
100
AcDbLine
 10
360.261697
 20
338.9430910000001
 30
0.0
 11
456.5026969999999
 21
338.9430910000001
 31
0.0
  0
LINE
  5
107D
330
144F
100
AcDbEntity
  8
0
100
AcDbLine
 10
337.502697
 20
308.943091
 30
0.0
 11
370.936697
 21
308.943091
 31
0.0
  0
LINE
  5
107E
330
144F
100
AcDbEntity
  8
0
100
AcDbLine
 10
337.502697
 20
298.943091
 30
0.0
 11
370.936697
 21
298.943091
 31
0.0
  0
LINE
  5
107F
330
144F
100
AcDbEntity
  8
0
100
AcDbLine
 10
337.502697
 20
308.943091
 30
0.0
 11
337.502697
 21
298.943091
 31
0.0
  0
LINE
  5
1080
330
144F
100
AcDbEntity
  8
0
100
AcDbLine
 10
370.936697
 20
308.943091
 30
0.0
 11
370.936697
 21
298.943091
 31
0.0
  0
ARC
  5
1081
330
144F
100
AcDbEntity
  8
0
100
AcDbCircle
 10
354.219697
 20
377.8060910000001
 30
0.0
 40
70.86399999999999
100
AcDbArc
 50
256.355
 51
283.645
  0
ARC
  5
1082
330
144F
100
AcDbEntity
  8
0
100
AcDbCircle
 10
354.219697
 20
230.079091
 30
0.0
 40
70.86399999999999
100
AcDbArc
 50
76.355
 51
103.645
  0
LINE
  5
1083
330
144F
100
AcDbEntity
  8
0
100
AcDbLine
 10
622.5546969999999
 20
330.637091
 30
0.0
 11
625.1426969999999
 21
315.958091
 31
0.0
  0
LINE
  5
1084
330
144F
100
AcDbEntity
  8
0
100
AcDbLine
 10
618.358697
 20
325.637091
 30
0.0
 11
630.6136969999999
 21
256.139091
 31
0.0
  0
ARC
  5
1085
330
144F
100
AcDbEntity
  8
0
100
AcDbCircle
 10
631.051697
 20
317.000091
 30
0.0
 40
6.0
100
AcDbArc
 50
190.0
 51
268.5
  0
ARC
  5
1086
330
144F
100
AcDbEntity
  8
0
100
AcDbCircle
 10
614.4196969999999
 20
324.943091
 30
0.0
 40
4.0
100
AcDbArc
 50
10.0
 51
90.0
  0
ARC
  5
1087
330
144F
100
AcDbEntity
  8
0
100
AcDbCircle
 10
618.614697
 20
329.943091
 30
0.0
 40
4.0
100
AcDbArc
 50
10.0
 51
90.00100000000001
  0
ARC
  5
1088
330
144F
100
AcDbEntity
  8
0
100
AcDbCircle
 10
631.0076969999999
 20
317.252091
 30
0.0
 40
11.0
100
AcDbArc
 50
190.0
 51
268.5
  0
LINE
  5
1089
330
144F
100
AcDbEntity
  8
0
100
AcDbLine
 10
718.382697
 20
253.943091
 30
0.0
 11
728.974697
 21
253.943091
 31
0.0
  0
LINE
  5
108D
330
144F
100
AcDbEntity
  8
0
100
AcDbLine
 10
222.382697
 20
270.943091
 30
0.0
 11
222.3816970000001
 21
321.943091
 31
0.0
  0
LINE
  5
108E
330
144F
100
AcDbEntity
  8
0
100
AcDbLine
 10
197.382697
 20
261.443091
 30
0.0
 11
226.909697
 21
261.443091
 31
0.0
  0
LINE
  5
108F
330
144F
100
AcDbEntity
  8
0
100
AcDbLine
 10
193.382697
 20
266.943091
 30
0.0
 11
218.382697
 21
266.943091
 31
0.0
  0
ARC
  5
1090
330
144F
100
AcDbEntity
  8
0
100
AcDbCircle
 10
197.382697
 20
265.443091
 30
0.0
 40
4.0
100
AcDbArc
 50
180.0
 51
270.0
  0
ARC
  5
1091
330
144F
100
AcDbEntity
  8
0
100
AcDbCircle
 10
218.382697
 20
270.943091
 30
0.0
 40
4.0
100
AcDbArc
 50
270.0
 51
0.0
  0
LINE
  5
1092
330
144F
100
AcDbEntity
  8
0
100
AcDbLine
 10
227.382697
 20
269.655091
 30
0.0
 11
227.381697
 21
321.943091
 31
0.0
  0
ARC
  5
1093
330
144F
100
AcDbEntity
  8
0
100
AcDbCircle
 10
218.381697
 20
321.943091
 30
0.0
 40
4.0
100
AcDbArc
 50
0.0
 51
90.0
  0
ARC
  5
1094
330
144F
100
AcDbEntity
  8
0
100
AcDbCircle
 10
231.381697
 20
321.943091
 30
0.0
 40
4.0
100
AcDbArc
 50
90.0
 51
180.0
  0
LINE
  5
1095
330
144F
100
AcDbEntity
  8
0
100
AcDbLine
 10
193.381697
 20
325.943091
 30
0.0
 11
218.381697
 21
325.943091
 31
0.0
  0
LINE
  5
1096
330
144F
100
AcDbEntity
  8
0
100
AcDbLine
 10
222.3816970000001
 20
321.443091
 30
0.0
 11
227.381697
 21
321.443091
 31
0.0
  0
LINE
  5
1097
330
144F
100
AcDbEntity
  8
0
100
AcDbLine
 10
222.382697
 20
271.443091
 30
0.0
 11
227.382697
 21
271.443091
 31
0.0
  0
LINE
  5
1098
330
144F
100
AcDbEntity
  8
7
 48
0.316
100
AcDbLine
 10
276.591697
 20
261.9430910000001
 30
0.0
 11
346.204697
 21
261.9430910000001
 31
0.0
  0
LINE
  5
1099
330
144F
100
AcDbEntity
  8
0
100
AcDbLine
 10
296.788697
 20
286.9430910000001
 30
0.0
 11
301.7896970000001
 21
286.9430910000001
 31
0.0
  0
LINE
  5
109A
330
144F
100
AcDbEntity
  8
0
100
AcDbLine
 10
229.901697
 20
265.939091
 30
0.0
 11
302.6626970000001
 21
236.943091
 31
0.0
  0
LINE
  5
109B
330
144F
100
AcDbEntity
  8
0
100
AcDbLine
 10
228.390697
 20
261.159091
 30
0.0
 11
294.132697
 21
234.960091
 31
0.0
  0
ARC
  5
109C
330
144F
100
AcDbEntity
  8
0
100
AcDbCircle
 10
231.382697
 20
269.655091
 30
0.0
 40
4.0
100
AcDbArc
 50
180.0
 51
248.272
  0
ARC
  5
109D
330
144F
100
AcDbEntity
  8
0
100
AcDbCircle
 10
226.909697
 20
257.443091
 30
0.0
 40
4.0
100
AcDbArc
 50
68.27199999999999
 51
90.0
  0
LINE
  5
109E
330
144F
100
AcDbEntity
  8
0
100
AcDbLine
 10
297.908697
 20
229.566091
 30
0.0
 11
297.945697
 21
228.337091
 31
0.0
  0
ARC
  5
109F
330
144F
100
AcDbEntity
  8
0
100
AcDbCircle
 10
291.9106970000001
 20
229.386091
 30
0.0
 40
6.0
100
AcDbArc
 50
1.718
 51
68.27199999999999
  0
LINE
  5
10A0
330
144F
100
AcDbEntity
  8
0
100
AcDbLine
 10
193.382697
 20
329.443091
 30
0.0
 11
193.382697
 21
325.943091
 31
0.0
  0
ARC
  5
10A1
330
144F
100
AcDbEntity
  8
0
100
AcDbCircle
 10
218.281697
 20
334.843091
 30
0.0
 40
0.4
100
AcDbArc
 50
224.9070000000001
 51
270.0
  0
LINE
  5
10A2
330
144F
100
AcDbEntity
  8
0
100
AcDbLine
 10
189.382697
 20
329.443091
 30
0.0
 11
189.382697
 21
263.443091
 31
0.0
  0
LINE
  5
10A3
330
144F
100
AcDbEntity
  8
7
 48
0.316
100
AcDbLine
 10
183.671697
 20
296.443091
 30
0.0
 11
232.071697
 21
296.443091
 31
0.0
  0
LINE
  5
10A4
330
144F
100
AcDbEntity
  8
0
100
AcDbLine
 10
189.382697
 20
329.443091
 30
0.0
 11
193.382697
 21
329.443091
 31
0.0
  0
LINE
  5
10A5
330
144F
100
AcDbEntity
  8
0
100
AcDbLine
 10
189.382697
 20
263.443091
 30
0.0
 11
193.382697
 21
263.443091
 31
0.0
  0
LINE
  5
10A6
330
144F
100
AcDbEntity
  8
0
100
AcDbLine
 10
189.382697
 20
323.943091
 30
0.0
 11
193.382697
 21
323.943091
 31
0.0
  0
LINE
  5
10A7
330
144F
100
AcDbEntity
  8
0
100
AcDbLine
 10
189.382697
 20
268.943091
 30
0.0
 11
193.382697
 21
268.943091
 31
0.0
  0
LINE
  5
10A8
330
144F
100
AcDbEntity
  8
0
100
AcDbLine
 10
212.381697
 20
315.443091
 30
0.0
 11
212.381697
 21
277.443091
 31
0.0
  0
LINE
  5
10A9
330
144F
100
AcDbEntity
  8
0
100
AcDbLine
 10
212.382697
 20
277.443091
 30
0.0
 11
211.427697
 21
266.943091
 31
0.0
  0
LINE
  5
10AA
330
144F
100
AcDbEntity
  8
0
100
AcDbLine
 10
212.382697
 20
315.443091
 30
0.0
 11
211.427697
 21
325.943091
 31
0.0
  0
LINE
  5
10AB
330
144F
100
AcDbEntity
  8
0
100
AcDbLine
 10
207.381697
 20
323.943091
 30
0.0
 11
207.381697
 21
268.943091
 31
0.0
  0
LINE
  5
10AC
330
144F
100
AcDbEntity
  8
0
100
AcDbLine
 10
207.381697
 20
268.943091
 30
0.0
 11
212.381697
 21
277.443091
 31
0.0
  0
LINE
  5
10AD
330
144F
100
AcDbEntity
  8
0
100
AcDbLine
 10
207.381697
 20
323.943091
 30
0.0
 11
212.382697
 21
315.442091
 31
0.0
  0
LINE
  5
10AE
330
144F
100
AcDbEntity
  8
0
100
AcDbLine
 10
200.382697
 20
318.4430910000001
 30
0.0
 11
200.382697
 21
274.4430910000001
 31
0.0
  0
LINE
  5
10AF
330
144F
100
AcDbEntity
  8
0
100
AcDbLine
 10
198.881697
 20
318.4430910000001
 30
0.0
 11
200.382697
 21
318.4430910000001
 31
0.0
  0
LINE
  5
10B0
330
144F
100
AcDbEntity
  8
0
100
AcDbLine
 10
198.881697
 20
274.4430910000001
 30
0.0
 11
200.382697
 21
274.4430910000001
 31
0.0
  0
LINE
  5
10B1
330
144F
100
AcDbEntity
  8
0
100
AcDbLine
 10
198.881697
 20
318.4430910000001
 30
0.0
 11
198.881697
 21
274.4430910000001
 31
0.0
  0
LINE
  5
10B2
330
144F
100
AcDbEntity
  8
0
100
AcDbLine
 10
197.382697
 20
268.943091
 30
0.0
 11
200.382697
 21
274.4430910000001
 31
0.0
  0
LINE
  5
10B3
330
144F
100
AcDbEntity
  8
0
100
AcDbLine
 10
200.381697
 20
318.4430910000001
 30
0.0
 11
197.381697
 21
323.943091
 31
0.0
  0
LINE
  5
10B4
330
144F
100
AcDbEntity
  8
0
100
AcDbLine
 10
198.881697
 20
318.4430910000001
 30
0.0
 11
193.381697
 21
323.943091
 31
0.0
  0
LINE
  5
10B5
330
144F
100
AcDbEntity
  8
0
100
AcDbLine
 10
198.882697
 20
274.442091
 30
0.0
 11
193.382697
 21
268.942091
 31
0.0
  0
LINE
  5
10B6
330
144F
100
AcDbEntity
  8
0
100
AcDbLine
 10
197.381697
 20
323.943091
 30
0.0
 11
207.381697
 21
323.943091
 31
0.0
  0
LINE
  5
10B7
330
144F
100
AcDbEntity
  8
0
100
AcDbLine
 10
197.381697
 20
268.943091
 30
0.0
 11
207.381697
 21
268.943091
 31
0.0
  0
LINE
  5
10B8
330
144F
100
AcDbEntity
  8
0
100
AcDbLine
 10
193.382697
 20
266.943091
 30
0.0
 11
193.382697
 21
263.443091
 31
0.0
  0
LINE
  5
10B9
330
144F
100
AcDbEntity
  8
0
100
AcDbLine
 10
193.382697
 20
323.943091
 30
0.0
 11
193.382697
 21
268.943091
 31
0.0
  0
LINE
  5
10BA
330
144F
100
AcDbEntity
  8
0
100
AcDbLine
 10
522.6156969999999
 20
337.6210910000001
 30
0.0
 11
522.8996969999999
 21
336.009091
 31
0.0
  0
ARC
  5
10BB
330
144F
100
AcDbEntity
  8
0
100
AcDbCircle
 10
521.0396969999999
 20
337.343091
 30
0.0
 40
1.6
100
AcDbArc
 50
10.0
 51
90.00100000000001
  0
ARC
  5
10BC
330
144F
100
AcDbEntity
  8
0
100
AcDbCircle
 10
525.3616969999999
 20
336.443091
 30
0.0
 40
2.5
100
AcDbArc
 50
190.0
 51
269.999
  0
LINE
  5
10C2
330
144F
100
AcDbEntity
  8
0
100
AcDbLine
 10
294.148697
 20
337.620091
 30
0.0
 11
293.864697
 21
336.009091
 31
0.0
  0
ARC
  5
10C3
330
144F
100
AcDbEntity
  8
0
100
AcDbCircle
 10
295.724697
 20
337.343091
 30
0.0
 40
1.6
100
AcDbArc
 50
89.999
 51
170.0
  0
ARC
  5
10C4
330
144F
100
AcDbEntity
  8
0
100
AcDbCircle
 10
291.402697
 20
336.443091
 30
0.0
 40
2.5
100
AcDbArc
 50
270.001
 51
350.0
  0
LINE
  5
10D3
330
144F
100
AcDbEntity
  8
0
100
AcDbLine
 10
531.1206969999999
 20
333.943091
 30
0.0
 11
531.1206969999999
 21
338.9430910000001
 31
0.0
  0
LINE
  5
10D4
330
144F
100
AcDbEntity
  8
4
100
AcDbLine
 10
532.1206969999999
 20
333.943091
 30
0.0
 11
532.1206969999999
 21
338.9430910000001
 31
0.0
  0
LINE
  5
10D5
330
144F
100
AcDbEntity
  8
4
100
AcDbLine
 10
540.1206969999999
 20
333.943091
 30
0.0
 11
540.1206969999999
 21
338.9430910000001
 31
0.0
  0
LINE
  5
10D6
330
144F
100
AcDbEntity
  8
0
100
AcDbLine
 10
541.1206969999999
 20
333.943091
 30
0.0
 11
541.1206969999999
 21
338.9430910000001
 31
0.0
  0
ARC
  5
10D7
330
144F
100
AcDbEntity
  8
0
100
AcDbCircle
 10
295.724697
 20
337.343091
 30
0.0
 40
1.6
100
AcDbArc
 50
90.0
 51
170.0
  0
LINE
  5
10D8
330
144F
100
AcDbEntity
  8
0
100
AcDbLine
 10
562.7736969999999
 20
350.942091
 30
0.0
 11
548.9926969999999
 21
350.943091
 31
0.0
  0
LINE
  5
10D9
330
144F
100
AcDbEntity
  8
0
100
AcDbLine
 10
560.8816969999999
 20
350.943091
 30
0.0
 11
580.882697
 21
350.943091
 31
0.0
  0
LINE
  5
10DA
330
144F
100
AcDbEntity
  8
0
100
AcDbLine
 10
408.382697
 20
350.943091
 30
0.0
 11
550.882697
 21
350.943091
 31
0.0
  0
LINE
  5
10DB
330
144F
100
AcDbEntity
  8
0
100
AcDbLine
 10
583.382697
 20
348.443091
 30
0.0
 11
583.382697
 21
341.443091
 31
0.0
  0
LINE
  5
10DC
330
144F
100
AcDbEntity
  8
0
100
AcDbLine
 10
408.382697
 20
338.9430910000001
 30
0.0
 11
580.882697
 21
338.9430910000001
 31
0.0
  0
ARC
  5
10DD
330
144F
100
AcDbEntity
  8
0
100
AcDbCircle
 10
580.882697
 20
348.443091
 30
0.0
 40
2.5
100
AcDbArc
 50
0.0
 51
90.0
  0
ARC
  5
10DE
330
144F
100
AcDbEntity
  8
0
100
AcDbCircle
 10
580.882697
 20
341.443091
 30
0.0
 40
2.5
100
AcDbArc
 50
270.0
 51
0.0
  0
LINE
  5
10DF
330
144F
100
AcDbEntity
  8
0
100
AcDbLine
 10
529.882697
 20
351.211091
 30
0.0
 11
529.882697
 21
350.943091
 31
0.0
  0
LINE
  5
10E0
330
144F
100
AcDbEntity
  8
0
100
AcDbLine
 10
408.382697
 20
346.943091
 30
0.0
 11
410.382697
 21
346.943091
 31
0.0
  0
ARC
  5
10E1
330
144F
100
AcDbEntity
  8
0
100
AcDbCircle
 10
525.882697
 20
350.943091
 30
0.0
 40
4.0
100
AcDbArc
 50
270.0
 51
0.0
  0
LINE
  5
10E2
330
144F
100
AcDbEntity
  8
0
100
AcDbLine
 10
408.382697
 20
346.943091
 30
0.0
 11
583.382697
 21
346.943091
 31
0.0
  0
ARC
  5
10E3
330
144F
100
AcDbEntity
  8
0
100
AcDbCircle
 10
352.800697
 20
350.943091
 30
0.0
 40
4.0
100
AcDbArc
 50
196.602
 51
270.0
  0
ARC
  5
10E4
330
144F
100
AcDbEntity
  8
0
100
AcDbCircle
 10
347.433697
 20
349.343091
 30
0.0
 40
1.6
100
AcDbArc
 50
16.602
 51
89.999
  0
LINE
  5
10E5
330
144F
100
AcDbEntity
  8
0
100
AcDbLine
 10
408.382697
 20
350.943091
 30
0.0
 11
235.881697
 21
350.943091
 31
0.0
  0
LINE
  5
10E6
330
144F
100
AcDbEntity
  8
0
100
AcDbLine
 10
233.381697
 20
348.443091
 30
0.0
 11
233.381697
 21
341.443091
 31
0.0
  0
LINE
  5
10E7
330
144F
100
AcDbEntity
  8
0
100
AcDbLine
 10
408.382697
 20
338.9430910000001
 30
0.0
 11
235.881697
 21
338.9430910000001
 31
0.0
  0
ARC
  5
10E8
330
144F
100
AcDbEntity
  8
0
100
AcDbCircle
 10
235.881697
 20
348.443091
 30
0.0
 40
2.5
100
AcDbArc
 50
90.0
 51
180.0
  0
ARC
  5
10E9
330
144F
100
AcDbEntity
  8
0
100
AcDbCircle
 10
235.881697
 20
341.443091
 30
0.0
 40
2.5
100
AcDbArc
 50
180.0
 51
270.0
  0
ARC
  5
10EA
330
144F
100
AcDbEntity
  8
0
100
AcDbCircle
 10
290.882697
 20
350.943091
 30
0.0
 40
4.0
100
AcDbArc
 50
180.0
 51
270.0
  0
LINE
  5
10EB
330
144F
100
AcDbEntity
  8
0
100
AcDbLine
 10
408.382697
 20
346.943091
 30
0.0
 11
233.381697
 21
346.943091
 31
0.0
  0
ARC
  5
10EC
330
144F
100
AcDbEntity
  8
0
100
AcDbCircle
 10
356.800697
 20
350.943091
 30
0.0
 40
4.0
100
AcDbArc
 50
270.0
 51
343.398
  0
ARC
  5
10ED
330
144F
100
AcDbEntity
  8
0
100
AcDbCircle
 10
362.166697
 20
349.343091
 30
0.0
 40
1.6
100
AcDbArc
 50
90.00100000000001
 51
163.398
  0
LINE
  5
10EE
330
144F
100
AcDbEntity
  8
0
100
AcDbLine
 10
290.882697
 20
346.943091
 30
0.0
 11
290.882697
 21
341.443091
 31
0.0
  0
ARC
  5
10EF
330
144F
100
AcDbEntity
  8
0
100
AcDbCircle
 10
288.382697
 20
341.443091
 30
0.0
 40
2.5
100
AcDbArc
 50
270.0
 51
0.0
  0
LINE
  5
10F0
330
144F
100
AcDbEntity
  8
0
100
AcDbLine
 10
525.882697
 20
346.943091
 30
0.0
 11
525.882697
 21
341.443091
 31
0.0
  0
ARC
  5
10F1
330
144F
100
AcDbEntity
  8
0
100
AcDbCircle
 10
528.3826969999999
 20
341.443091
 30
0.0
 40
2.5
100
AcDbArc
 50
180.0
 51
270.0
  0
LINE
  5
10F2
330
144F
100
AcDbEntity
  8
7
 48
0.131
100
AcDbLine
 10
536.1206969999999
 20
370.3830910000001
 30
0.0
 11
536.1206969999999
 21
341.658091
 31
0.0
  0
LINE
  5
10F3
330
144F
100
AcDbEntity
  8
0
100
AcDbLine
 10
531.1216969999999
 20
362.443091
 30
0.0
 11
531.691697
 21
363.013091
 31
0.0
  0
LINE
  5
10F4
330
144F
100
AcDbEntity
  8
0
100
AcDbLine
 10
541.1196969999999
 20
362.442091
 30
0.0
 11
540.1196969999999
 21
363.442091
 31
0.0
  0
LINE
  5
10F5
330
144F
100
AcDbEntity
  8
0
100
AcDbLine
 10
541.1206969999999
 20
362.442091
 30
0.0
 11
531.123697
 21
362.442091
 31
0.0
  0
LINE
  5
10F6
330
144F
100
AcDbEntity
  8
0
100
AcDbLine
 10
540.1206969999999
 20
363.442091
 30
0.0
 11
532.123697
 21
363.443091
 31
0.0
  0
ARC
  5
10F7
330
144F
100
AcDbEntity
  8
0
100
AcDbCircle
 10
536.1196969999999
 20
344.768091
 30
0.0
 40
14.175
100
AcDbArc
 50
70.533
 51
109.461
  0
ARC
  5
10F8
330
144F
100
AcDbEntity
  8
0
100
AcDbCircle
 10
536.1206969999999
 20
365.118091
 30
0.0
 40
14.175
100
AcDbArc
 50
250.525
 51
289.46
  0
LINE
  5
10F9
330
144F
100
AcDbEntity
  8
0
100
AcDbLine
 10
540.8446969999999
 20
351.754091
 30
0.0
 11
540.8456969999999
 21
358.130091
 31
0.0
  0
LINE
  5
10FA
330
144F
100
AcDbEntity
  8
0
100
AcDbLine
 10
531.3946969999999
 20
351.755091
 30
0.0
 11
531.3956969999999
 21
358.131091
 31
0.0
  0
LINE
  5
10FB
330
144F
100
AcDbEntity
  8
0
100
AcDbLine
 10
543.011697
 20
350.942091
 30
0.0
 11
529.2296969999999
 21
350.943091
 31
0.0
  0
LINE
  5
10FC
330
144F
100
AcDbEntity
  8
0
100
AcDbLine
 10
543.208697
 20
358.942091
 30
0.0
 11
529.2306969999999
 21
358.943091
 31
0.0
  0
LINE
  5
10FD
330
144F
100
AcDbEntity
  8
0
100
AcDbLine
 10
545.5686969999999
 20
351.753091
 30
0.0
 11
544.6556969999999
 21
351.226091
 31
0.0
  0
ARC
  5
10FE
330
144F
100
AcDbEntity
  8
0
100
AcDbCircle
 10
543.2076969999999
 20
354.790091
 30
0.0
 40
3.846999999999999
100
AcDbArc
 50
232.13
 51
292.11
  0
LINE
  5
10FF
330
144F
100
AcDbEntity
  8
0
100
AcDbLine
 10
545.5696969999999
 20
351.754091
 30
0.0
 11
545.570697
 21
358.130091
 31
0.0
  0
ARC
  5
1100
330
144F
100
AcDbEntity
  8
0
100
AcDbCircle
 10
543.2076969999999
 20
355.094091
 30
0.0
 40
3.848
100
AcDbArc
 50
60.0
 51
127.859
  0
LINE
  5
1101
330
144F
100
AcDbEntity
  8
0
100
AcDbLine
 10
545.5686969999999
 20
358.132091
 30
0.0
 11
544.6586969999999
 21
358.658091
 31
0.0
  0
ARC
  5
1102
330
144F
100
AcDbEntity
  8
0
100
AcDbCircle
 10
529.0326969999999
 20
354.791091
 30
0.0
 40
3.848
100
AcDbArc
 50
247.969
 51
307.857
  0
LINE
  5
1103
330
144F
100
AcDbEntity
  8
0
100
AcDbLine
 10
527.5896969999999
 20
351.224091
 30
0.0
 11
526.671697
 21
351.754091
 31
0.0
  0
LINE
  5
1104
330
144F
100
AcDbEntity
  8
0
100
AcDbLine
 10
526.6696969999999
 20
351.756091
 30
0.0
 11
526.670697
 21
358.130091
 31
0.0
  0
LINE
  5
1105
330
144F
100
AcDbEntity
  8
0
100
AcDbLine
 10
527.5876969999999
 20
358.661091
 30
0.0
 11
526.671697
 21
358.132091
 31
0.0
  0
ARC
  5
1106
330
144F
100
AcDbEntity
  8
0
100
AcDbCircle
 10
529.0326969999999
 20
355.095091
 30
0.0
 40
3.848
100
AcDbArc
 50
52.138
 51
112.063
  0
LINE
  5
1107
330
144F
100
AcDbEntity
  8
0
100
AcDbLine
 10
531.1206969999999
 20
358.943091
 30
0.0
 11
531.1206969999999
 21
362.441091
 31
0.0
  0
LINE
  5
1108
330
144F
100
AcDbEntity
  8
4
100
AcDbLine
 10
532.1206969999999
 20
358.367091
 30
0.0
 11
532.1206969999999
 21
363.440091
 31
0.0
  0
LINE
  5
1109
330
144F
100
AcDbEntity
  8
4
100
AcDbLine
 10
540.1196969999999
 20
358.942091
 30
0.0
 11
540.1206969999999
 21
363.440091
 31
0.0
  0
LINE
  5
110A
330
144F
100
AcDbEntity
  8
0
100
AcDbLine
 10
541.1196969999999
 20
358.942091
 30
0.0
 11
541.1206969999999
 21
362.440091
 31
0.0
  0
LINE
  5
110B
330
144F
100
AcDbEntity
  8
0
100
AcDbLine
 10
525.8656969999999
 20
351.713091
 30
0.0
 11
525.8656969999999
 21
359.759091
 31
0.0
  0
LINE
  5
110C
330
144F
100
AcDbEntity
  8
0
100
AcDbLine
 10
525.8656969999999
 20
359.759091
 30
0.0
 11
530.1446969999999
 21
359.759091
 31
0.0
  0
LINE
  5
110D
330
144F
100
AcDbEntity
  8
0
100
AcDbLine
 10
530.1446969999999
 20
359.759091
 30
0.0
 11
530.1446969999999
 21
364.093091
 31
0.0
  0
LINE
  5
110E
330
144F
100
AcDbEntity
  8
0
100
AcDbLine
 10
530.1446969999999
 20
364.093091
 30
0.0
 11
536.1206969999999
 21
364.093091
 31
0.0
  0
LINE
  5
110F
330
144F
100
AcDbEntity
  8
0
100
AcDbLine
 10
546.3756969999999
 20
351.712091
 30
0.0
 11
546.3766969999999
 21
359.758091
 31
0.0
  0
LINE
  5
1110
330
144F
100
AcDbEntity
  8
0
100
AcDbLine
 10
546.3766969999999
 20
359.758091
 30
0.0
 11
542.0976969999999
 21
359.758091
 31
0.0
  0
LINE
  5
1111
330
144F
100
AcDbEntity
  8
0
100
AcDbLine
 10
542.0976969999999
 20
359.758091
 30
0.0
 11
542.0976969999999
 21
364.0920910000001
 31
0.0
  0
LINE
  5
1112
330
144F
100
AcDbEntity
  8
0
100
AcDbLine
 10
542.0976969999999
 20
364.0920910000001
 30
0.0
 11
536.1206969999999
 21
364.093091
 31
0.0
  0
LINE
  5
1113
330
144F
100
AcDbEntity
  8
0
100
AcDbLine
 10
285.643697
 20
362.442091
 30
0.0
 11
284.642697
 21
363.443091
 31
0.0
  0
LINE
  5
1114
330
144F
100
AcDbEntity
  8
0
100
AcDbLine
 10
275.644697
 20
362.442091
 30
0.0
 11
276.644697
 21
363.443091
 31
0.0
  0
LINE
  5
1115
330
144F
100
AcDbEntity
  8
0
100
AcDbLine
 10
275.644697
 20
362.441091
 30
0.0
 11
285.641697
 21
362.442091
 31
0.0
  0
LINE
  5
1116
330
144F
100
AcDbEntity
  8
0
100
AcDbLine
 10
276.644697
 20
363.442091
 30
0.0
 11
284.641697
 21
363.443091
 31
0.0
  0
ARC
  5
1117
330
144F
100
AcDbEntity
  8
0
100
AcDbCircle
 10
280.644697
 20
344.768091
 30
0.0
 40
14.175
100
AcDbArc
 50
70.539
 51
109.467
  0
ARC
  5
1118
330
144F
100
AcDbEntity
  8
0
100
AcDbCircle
 10
280.643697
 20
365.118091
 30
0.0
 40
14.175
100
AcDbArc
 50
250.54
 51
289.475
  0
LINE
  5
1119
330
144F
100
AcDbEntity
  8
0
100
AcDbLine
 10
275.919697
 20
351.755091
 30
0.0
 11
275.918697
 21
358.130091
 31
0.0
  0
LINE
  5
111A
330
144F
100
AcDbEntity
  8
0
100
AcDbLine
 10
285.3696970000001
 20
351.755091
 30
0.0
 11
285.368697
 21
358.131091
 31
0.0
  0
LINE
  5
111B
330
144F
100
AcDbEntity
  8
0
100
AcDbLine
 10
273.753697
 20
350.942091
 30
0.0
 11
287.534697
 21
350.943091
 31
0.0
  0
LINE
  5
111C
330
144F
100
AcDbEntity
  8
0
100
AcDbLine
 10
273.556697
 20
358.942091
 30
0.0
 11
287.533697
 21
358.943091
 31
0.0
  0
LINE
  5
111D
330
144F
100
AcDbEntity
  8
0
100
AcDbLine
 10
271.195697
 20
351.753091
 30
0.0
 11
272.108697
 21
351.226091
 31
0.0
  0
ARC
  5
111E
330
144F
100
AcDbEntity
  8
0
100
AcDbCircle
 10
273.556697
 20
354.790091
 30
0.0
 40
3.846999999999999
100
AcDbArc
 50
247.89
 51
307.869
  0
LINE
  5
111F
330
144F
100
AcDbEntity
  8
0
100
AcDbLine
 10
271.194697
 20
351.754091
 30
0.0
 11
271.193697
 21
358.130091
 31
0.0
  0
ARC
  5
1120
330
144F
100
AcDbEntity
  8
0
100
AcDbCircle
 10
273.556697
 20
355.094091
 30
0.0
 40
3.848
100
AcDbArc
 50
52.14100000000001
 51
120.0
  0
LINE
  5
1121
330
144F
100
AcDbEntity
  8
0
100
AcDbLine
 10
271.195697
 20
358.132091
 30
0.0
 11
272.106697
 21
358.658091
 31
0.0
  0
ARC
  5
1122
330
144F
100
AcDbEntity
  8
0
100
AcDbCircle
 10
287.731697
 20
354.791091
 30
0.0
 40
3.848
100
AcDbArc
 50
232.143
 51
292.031
  0
LINE
  5
1123
330
144F
100
AcDbEntity
  8
0
100
AcDbLine
 10
289.175697
 20
351.224091
 30
0.0
 11
290.093697
 21
351.754091
 31
0.0
  0
LINE
  5
1124
330
144F
100
AcDbEntity
  8
0
100
AcDbLine
 10
290.094697
 20
351.756091
 30
0.0
 11
290.094697
 21
358.130091
 31
0.0
  0
LINE
  5
1125
330
144F
100
AcDbEntity
  8
0
100
AcDbLine
 10
289.176697
 20
358.661091
 30
0.0
 11
290.092697
 21
358.132091
 31
0.0
  0
ARC
  5
1126
330
144F
100
AcDbEntity
  8
0
100
AcDbCircle
 10
287.731697
 20
355.095091
 30
0.0
 40
3.848
100
AcDbArc
 50
67.937
 51
127.862
  0
LINE
  5
1127
330
144F
100
AcDbEntity
  8
0
100
AcDbLine
 10
285.643697
 20
358.943091
 30
0.0
 11
285.643697
 21
362.441091
 31
0.0
  0
LINE
  5
1128
330
144F
100
AcDbEntity
  8
4
100
AcDbLine
 10
284.643697
 20
358.367091
 30
0.0
 11
284.643697
 21
363.440091
 31
0.0
  0
LINE
  5
1129
330
144F
100
AcDbEntity
  8
4
100
AcDbLine
 10
276.644697
 20
358.942091
 30
0.0
 11
276.644697
 21
363.440091
 31
0.0
  0
LINE
  5
112A
330
144F
100
AcDbEntity
  8
0
100
AcDbLine
 10
275.644697
 20
358.942091
 30
0.0
 11
275.644697
 21
362.440091
 31
0.0
  0
LINE
  5
112B
330
144F
100
AcDbEntity
  8
0
100
AcDbLine
 10
290.899697
 20
351.713091
 30
0.0
 11
290.899697
 21
359.759091
 31
0.0
  0
LINE
  5
112C
330
144F
100
AcDbEntity
  8
0
100
AcDbLine
 10
290.899697
 20
359.759091
 30
0.0
 11
286.620697
 21
359.759091
 31
0.0
  0
LINE
  5
112D
330
144F
100
AcDbEntity
  8
0
100
AcDbLine
 10
286.620697
 20
359.759091
 30
0.0
 11
286.620697
 21
364.093091
 31
0.0
  0
LINE
  5
112E
330
144F
100
AcDbEntity
  8
0
100
AcDbLine
 10
286.620697
 20
364.093091
 30
0.0
 11
280.643697
 21
364.093091
 31
0.0
  0
LINE
  5
112F
330
144F
100
AcDbEntity
  8
0
100
AcDbLine
 10
270.388697
 20
351.712091
 30
0.0
 11
270.387697
 21
359.758091
 31
0.0
  0
LINE
  5
1130
330
144F
100
AcDbEntity
  8
0
100
AcDbLine
 10
270.387697
 20
359.758091
 30
0.0
 11
274.666697
 21
359.758091
 31
0.0
  0
LINE
  5
1131
330
144F
100
AcDbEntity
  8
0
100
AcDbLine
 10
274.666697
 20
359.758091
 30
0.0
 11
274.666697
 21
364.0920910000001
 31
0.0
  0
LINE
  5
1132
330
144F
100
AcDbEntity
  8
0
100
AcDbLine
 10
274.666697
 20
364.0920910000001
 30
0.0
 11
280.643697
 21
364.093091
 31
0.0
  0
LINE
  5
1133
330
144F
100
AcDbEntity
  8
0
100
AcDbLine
 10
435.034697
 20
350.942091
 30
0.0
 11
421.253697
 21
350.943091
 31
0.0
  0
LINE
  5
1134
330
144F
100
AcDbEntity
  8
0
100
AcDbLine
 10
402.143697
 20
351.211091
 30
0.0
 11
402.143697
 21
350.943091
 31
0.0
  0
LINE
  5
1135
330
144F
100
AcDbEntity
  8
7
 48
0.131
100
AcDbLine
 10
408.382697
 20
370.3830910000001
 30
0.0
 11
408.382697
 21
341.658091
 31
0.0
  0
LINE
  5
1136
330
144F
100
AcDbEntity
  8
0
100
AcDbLine
 10
403.3826969999999
 20
362.443091
 30
0.0
 11
404.382697
 21
363.443091
 31
0.0
  0
LINE
  5
1137
330
144F
100
AcDbEntity
  8
0
100
AcDbLine
 10
413.380697
 20
362.442091
 30
0.0
 11
412.380697
 21
363.443091
 31
0.0
  0
LINE
  5
1138
330
144F
100
AcDbEntity
  8
0
100
AcDbLine
 10
413.381697
 20
362.442091
 30
0.0
 11
403.3846969999999
 21
362.442091
 31
0.0
  0
LINE
  5
1139
330
144F
100
AcDbEntity
  8
0
100
AcDbLine
 10
412.381697
 20
363.442091
 30
0.0
 11
404.384697
 21
363.443091
 31
0.0
  0
ARC
  5
113A
330
144F
100
AcDbEntity
  8
0
100
AcDbCircle
 10
408.380697
 20
344.768091
 30
0.0
 40
14.175
100
AcDbArc
 50
70.533
 51
109.461
  0
ARC
  5
113B
330
144F
100
AcDbEntity
  8
0
100
AcDbCircle
 10
408.382697
 20
365.118091
 30
0.0
 40
14.175
100
AcDbArc
 50
250.525
 51
289.46
  0
LINE
  5
113C
330
144F
100
AcDbEntity
  8
0
100
AcDbLine
 10
413.106697
 20
351.754091
 30
0.0
 11
413.106697
 21
358.130091
 31
0.0
  0
LINE
  5
113D
330
144F
100
AcDbEntity
  8
0
100
AcDbLine
 10
403.6566969999999
 20
351.755091
 30
0.0
 11
403.6566969999999
 21
358.131091
 31
0.0
  0
LINE
  5
113E
330
144F
100
AcDbEntity
  8
0
100
AcDbLine
 10
415.2726969999999
 20
350.942091
 30
0.0
 11
401.491697
 21
350.943091
 31
0.0
  0
LINE
  5
113F
330
144F
100
AcDbEntity
  8
0
100
AcDbLine
 10
415.4696969999999
 20
358.942091
 30
0.0
 11
401.491697
 21
358.943091
 31
0.0
  0
LINE
  5
1140
330
144F
100
AcDbEntity
  8
0
100
AcDbLine
 10
417.8296969999999
 20
351.753091
 30
0.0
 11
416.916697
 21
351.226091
 31
0.0
  0
ARC
  5
1141
330
144F
100
AcDbEntity
  8
0
100
AcDbCircle
 10
415.468697
 20
354.790091
 30
0.0
 40
3.846999999999999
100
AcDbArc
 50
232.13
 51
292.11
  0
LINE
  5
1142
330
144F
100
AcDbEntity
  8
0
100
AcDbLine
 10
417.831697
 20
351.754091
 30
0.0
 11
417.831697
 21
358.130091
 31
0.0
  0
ARC
  5
1143
330
144F
100
AcDbEntity
  8
0
100
AcDbCircle
 10
415.468697
 20
355.094091
 30
0.0
 40
3.848
100
AcDbArc
 50
60.0
 51
127.859
  0
LINE
  5
1144
330
144F
100
AcDbEntity
  8
0
100
AcDbLine
 10
417.830697
 20
358.132091
 30
0.0
 11
416.919697
 21
358.658091
 31
0.0
  0
ARC
  5
1145
330
144F
100
AcDbEntity
  8
0
100
AcDbCircle
 10
401.293697
 20
354.791091
 30
0.0
 40
3.848
100
AcDbArc
 50
247.969
 51
307.857
  0
LINE
  5
1146
330
144F
100
AcDbEntity
  8
0
100
AcDbLine
 10
399.850697
 20
351.224091
 30
0.0
 11
398.932697
 21
351.754091
 31
0.0
  0
LINE
  5
1147
330
144F
100
AcDbEntity
  8
0
100
AcDbLine
 10
398.930697
 20
351.756091
 30
0.0
 11
398.931697
 21
358.130091
 31
0.0
  0
LINE
  5
1148
330
144F
100
AcDbEntity
  8
0
100
AcDbLine
 10
399.848697
 20
358.661091
 30
0.0
 11
398.932697
 21
358.132091
 31
0.0
  0
ARC
  5
1149
330
144F
100
AcDbEntity
  8
0
100
AcDbCircle
 10
401.293697
 20
355.095091
 30
0.0
 40
3.848
100
AcDbArc
 50
52.138
 51
112.063
  0
LINE
  5
114A
330
144F
100
AcDbEntity
  8
0
100
AcDbLine
 10
403.381697
 20
358.943091
 30
0.0
 11
403.381697
 21
362.441091
 31
0.0
  0
LINE
  5
114B
330
144F
100
AcDbEntity
  8
4
100
AcDbLine
 10
404.3816969999999
 20
358.367091
 30
0.0
 11
404.3816969999999
 21
363.440091
 31
0.0
  0
LINE
  5
114C
330
144F
100
AcDbEntity
  8
4
100
AcDbLine
 10
412.381697
 20
358.942091
 30
0.0
 11
412.381697
 21
363.440091
 31
0.0
  0
LINE
  5
114D
330
144F
100
AcDbEntity
  8
0
100
AcDbLine
 10
413.381697
 20
358.942091
 30
0.0
 11
413.381697
 21
362.440091
 31
0.0
  0
LINE
  5
114E
330
144F
100
AcDbEntity
  8
0
100
AcDbLine
 10
398.126697
 20
351.713091
 30
0.0
 11
398.126697
 21
359.759091
 31
0.0
  0
LINE
  5
114F
330
144F
100
AcDbEntity
  8
0
100
AcDbLine
 10
398.126697
 20
359.759091
 30
0.0
 11
402.405697
 21
359.759091
 31
0.0
  0
LINE
  5
1150
330
144F
100
AcDbEntity
  8
0
100
AcDbLine
 10
402.405697
 20
359.759091
 30
0.0
 11
402.405697
 21
364.093091
 31
0.0
  0
LINE
  5
1151
330
144F
100
AcDbEntity
  8
0
100
AcDbLine
 10
402.405697
 20
364.093091
 30
0.0
 11
408.382697
 21
364.093091
 31
0.0
  0
LINE
  5
1152
330
144F
100
AcDbEntity
  8
0
100
AcDbLine
 10
418.6366969999999
 20
351.712091
 30
0.0
 11
418.637697
 21
359.758091
 31
0.0
  0
LINE
  5
1153
330
144F
100
AcDbEntity
  8
0
100
AcDbLine
 10
418.637697
 20
359.758091
 30
0.0
 11
414.358697
 21
359.758091
 31
0.0
  0
LINE
  5
1154
330
144F
100
AcDbEntity
  8
0
100
AcDbLine
 10
414.358697
 20
359.758091
 30
0.0
 11
414.358697
 21
364.0920910000001
 31
0.0
  0
LINE
  5
1155
330
144F
100
AcDbEntity
  8
0
100
AcDbLine
 10
414.358697
 20
364.0920910000001
 30
0.0
 11
408.382697
 21
364.093091
 31
0.0
  0
ARC
  5
1156
330
144F
100
AcDbEntity
  8
0
100
AcDbCircle
 10
463.9636969999999
 20
350.943091
 30
0.0
 40
4.0
100
AcDbArc
 50
270.0
 51
343.398
  0
ARC
  5
1157
330
144F
100
AcDbEntity
  8
0
100
AcDbCircle
 10
469.330697
 20
349.343091
 30
0.0
 40
1.6
100
AcDbArc
 50
90.00100000000001
 51
163.398
  0
ARC
  5
1158
330
144F
100
AcDbEntity
  8
0
100
AcDbCircle
 10
459.9636969999999
 20
350.943091
 30
0.0
 40
4.0
100
AcDbArc
 50
196.602
 51
270.0
  0
ARC
  5
1159
330
144F
100
AcDbEntity
  8
0
100
AcDbCircle
 10
454.5976969999999
 20
349.343091
 30
0.0
 40
1.6
100
AcDbArc
 50
16.602
 51
89.999
  0
DIMENSION
  5
11AE
330
144F
100
AcDbEntity
  8
5
100
AcDbDimension
  2
*D10
 10
623.3826969999999
 20
474.347091
 30
0.0
 11
417.4236969999999
 21
474.347091
 31
0.0
 12
-25.377303
 22
-720.7219089999999
 32
0.0
 70
   160
  1
%%c 430
 71
     5
 42
-1.0
  3
GEN-ISO
100
AcDbAlignedDimension
 13
193.382697
 23
325.943091
 33
0.0
 14
623.3826969999999
 24
325.943091
 34
0.0
100
AcDbRotatedDimension
1001
ACAD
1000
DSTYLE
1002
{
1070
    40
1040
5.0
1002
}
  0
DIMENSION
  5
11B8
330
144F
100
AcDbEntity
  8
5
100
AcDbDimension
  2
*D14
 10
111.325697
 20
333.943091
 30
0.0
 11
111.325697
 21
281.017091
 31
0.0
 12
-25.377303
 22
-720.7219089999999
 32
0.0
 70
   160
  1
135
 71
     5
 42
-1.0
  3
GEN-ISO
100
AcDbAlignedDimension
 13
408.382697
 23
198.943091
 33
0.0
 14
198.149697
 24
333.943091
 34
0.0
 50
90.0
100
AcDbRotatedDimension
1001
ACAD
1000
DSTYLE
1002
{
1070
    40
1040
5.0
1002
}
  0
DIMENSION
  5
11C2
330
144F
100
AcDbEntity
  8
5
100
AcDbDimension
  2
*D15
 10
821.393697
 20
333.943091
 30
0.0
 11
821.393697
 21
301.723091
 31
0.0
 12
-25.377303
 22
-720.7219089999999
 32
0.0
 70
   160
  1
80
 71
     5
 42
-1.0
  3
GEN-ISO
100
AcDbAlignedDimension
 13
718.382697
 23
253.943091
 33
0.0
 14
621.9716969999999
 24
333.943091
 34
0.0
 50
90.0
100
AcDbRotatedDimension
1001
ACAD
1000
DSTYLE
1002
{
1070
    40
1040
5.0
1002
}
  0
DIMENSION
  5
11CD
330
144F
100
AcDbEntity
  8
5
100
AcDbDimension
  2
*D20
 10
718.349697
 20
253.943091
 30
0.0
 11
776.76052
 21
217.997004
 31
0.0
 70
   162
  1
1.5%%d
 71
     5
 42
-1.0
 53
74.59999999999999
  3
GEN-ISO
100
AcDb2LineAngularDimension
 13
768.3656969999999
 23
252.633091
 33
0.0
 14
718.349697
 24
253.943091
 34
0.0
 15
728.974697
 25
253.943091
 35
0.0
 16
786.932399
 26
253.344448
 36
0.0
  0
DIMENSION
  5
11D7
330
144F
100
AcDbEntity
  8
5
100
AcDbDimension
  2
*D17
 10
718.382697
 20
105.027091
 30
0.0
 11
571.079697
 21
105.027091
 31
0.0
 12
-25.377303
 22
-720.7219089999999
 32
0.0
 70
   160
  1
310
 71
     5
 42
-1.0
  3
GEN-ISO
100
AcDbAlignedDimension
 13
408.382697
 23
151.943091
 33
0.0
 14
718.382697
 24
253.943091
 34
0.0
100
AcDbRotatedDimension
1001
ACAD
1000
DSTYLE
1002
{
1070
    40
1040
5.0
1002
}
  0
POLYLINE
  5
11D8
330
144F
100
AcDbEntity
  8
SCHRAFFUR_RAND
100
AcDb2dPolyline
 66
     1
 10
0.0
 20
0.0
 30
0.0
 70
     1
  0
VERTEX
  5
11D9
330
11D8
100
AcDbEntity
  8
SCHRAFFUR_RAND
100
AcDbVertex
100
AcDb2dVertex
 10
385.5206970000001
 20
205.943091
 30
0.0
  0
VERTEX
  5
11DA
330
11D8
100
AcDbEntity
  8
SCHRAFFUR_RAND
100
AcDbVertex
100
AcDb2dVertex
 10
322.857697
 20
205.943091
 30
0.0
  0
VERTEX
  5
11DB
330
11D8
100
AcDbEntity
  8
SCHRAFFUR_RAND
100
AcDbVertex
100
AcDb2dVertex
 10
319.413697
 20
206.189091
 30
0.0
  0
VERTEX
  5
11DC
330
11D8
100
AcDbEntity
  8
SCHRAFFUR_RAND
100
AcDbVertex
100
AcDb2dVertex
 10
316.072697
 20
207.073091
 30
0.0
  0
VERTEX
  5
11DD
330
11D8
100
AcDbEntity
  8
SCHRAFFUR_RAND
100
AcDbVertex
100
AcDb2dVertex
 10
312.932697
 20
208.519091
 30
0.0
  0
VERTEX
  5
11DE
330
11D8
100
AcDbEntity
  8
SCHRAFFUR_RAND
100
AcDbVertex
100
AcDb2dVertex
 10
310.0876970000001
 20
210.482091
 30
0.0
  0
VERTEX
  5
11DF
330
11D8
100
AcDbEntity
  8
SCHRAFFUR_RAND
100
AcDbVertex
100
AcDb2dVertex
 10
307.622697
 20
212.905091
 30
0.0
  0
VERTEX
  5
11E0
330
11D8
100
AcDbEntity
  8
SCHRAFFUR_RAND
100
AcDbVertex
100
AcDb2dVertex
 10
305.609697
 20
215.715091
 30
0.0
  0
VERTEX
  5
11E1
330
11D8
100
AcDbEntity
  8
SCHRAFFUR_RAND
100
AcDbVertex
100
AcDb2dVertex
 10
304.109697
 20
218.829091
 30
0.0
  0
VERTEX
  5
11E2
330
11D8
100
AcDbEntity
  8
SCHRAFFUR_RAND
100
AcDbVertex
100
AcDb2dVertex
 10
303.166697
 20
222.155091
 30
0.0
  0
VERTEX
  5
11E3
330
11D8
100
AcDbEntity
  8
SCHRAFFUR_RAND
100
AcDbVertex
100
AcDb2dVertex
 10
302.860697
 20
225.594091
 30
0.0
  0
VERTEX
  5
11E4
330
11D8
100
AcDbEntity
  8
SCHRAFFUR_RAND
100
AcDbVertex
100
AcDb2dVertex
 10
302.6626970000001
 20
236.943091
 30
0.0
  0
VERTEX
  5
11E5
330
11D8
100
AcDbEntity
  8
SCHRAFFUR_RAND
100
AcDbVertex
100
AcDb2dVertex
 10
297.6266970000001
 20
238.950091
 30
0.0
  0
VERTEX
  5
11E6
330
11D8
100
AcDbEntity
  8
SCHRAFFUR_RAND
100
AcDbVertex
100
AcDb2dVertex
 10
229.901697
 20
265.939091
 30
0.0
  0
VERTEX
  5
11E7
330
11D8
100
AcDbEntity
  8
SCHRAFFUR_RAND
100
AcDbVertex
100
AcDb2dVertex
 10
228.843697
 20
266.497091
 30
0.0
  0
VERTEX
  5
11E8
330
11D8
100
AcDbEntity
  8
SCHRAFFUR_RAND
100
AcDbVertex
100
AcDb2dVertex
 10
228.028697
 20
267.381091
 30
0.0
  0
VERTEX
  5
11E9
330
11D8
100
AcDbEntity
  8
SCHRAFFUR_RAND
100
AcDbVertex
100
AcDb2dVertex
 10
227.508697
 20
268.465091
 30
0.0
  0
VERTEX
  5
11EA
330
11D8
100
AcDbEntity
  8
SCHRAFFUR_RAND
100
AcDbVertex
100
AcDb2dVertex
 10
227.382697
 20
269.655091
 30
0.0
  0
VERTEX
  5
11EB
330
11D8
100
AcDbEntity
  8
SCHRAFFUR_RAND
100
AcDbVertex
100
AcDb2dVertex
 10
227.382697
 20
271.443091
 30
0.0
  0
VERTEX
  5
11EC
330
11D8
100
AcDbEntity
  8
SCHRAFFUR_RAND
100
AcDbVertex
100
AcDb2dVertex
 10
222.382697
 20
271.443091
 30
0.0
  0
VERTEX
  5
11ED
330
11D8
100
AcDbEntity
  8
SCHRAFFUR_RAND
100
AcDbVertex
100
AcDb2dVertex
 10
222.382697
 20
270.943091
 30
0.0
  0
VERTEX
  5
11EE
330
11D8
100
AcDbEntity
  8
SCHRAFFUR_RAND
100
AcDbVertex
100
AcDb2dVertex
 10
222.125697
 20
269.392091
 30
0.0
  0
VERTEX
  5
11EF
330
11D8
100
AcDbEntity
  8
SCHRAFFUR_RAND
100
AcDbVertex
100
AcDb2dVertex
 10
221.247697
 20
268.077091
 30
0.0
  0
VERTEX
  5
11F0
330
11D8
100
AcDbEntity
  8
SCHRAFFUR_RAND
100
AcDbVertex
100
AcDb2dVertex
 10
219.932697
 20
267.199091
 30
0.0
  0
VERTEX
  5
11F1
330
11D8
100
AcDbEntity
  8
SCHRAFFUR_RAND
100
AcDbVertex
100
AcDb2dVertex
 10
218.382697
 20
266.943091
 30
0.0
  0
VERTEX
  5
11F2
330
11D8
100
AcDbEntity
  8
SCHRAFFUR_RAND
100
AcDbVertex
100
AcDb2dVertex
 10
193.382697
 20
266.943091
 30
0.0
  0
VERTEX
  5
11F3
330
11D8
100
AcDbEntity
  8
SCHRAFFUR_RAND
100
AcDbVertex
100
AcDb2dVertex
 10
193.382697
 20
265.443091
 30
0.0
  0
VERTEX
  5
11F4
330
11D8
100
AcDbEntity
  8
SCHRAFFUR_RAND
100
AcDbVertex
100
AcDb2dVertex
 10
193.638697
 20
263.892091
 30
0.0
  0
VERTEX
  5
11F5
330
11D8
100
AcDbEntity
  8
SCHRAFFUR_RAND
100
AcDbVertex
100
AcDb2dVertex
 10
194.516697
 20
262.577091
 30
0.0
  0
VERTEX
  5
11F6
330
11D8
100
AcDbEntity
  8
SCHRAFFUR_RAND
100
AcDbVertex
100
AcDb2dVertex
 10
195.831697
 20
261.699091
 30
0.0
  0
VERTEX
  5
11F7
330
11D8
100
AcDbEntity
  8
SCHRAFFUR_RAND
100
AcDbVertex
100
AcDb2dVertex
 10
197.382697
 20
261.443091
 30
0.0
  0
VERTEX
  5
11F8
330
11D8
100
AcDbEntity
  8
SCHRAFFUR_RAND
100
AcDbVertex
100
AcDb2dVertex
 10
226.909697
 20
261.443091
 30
0.0
  0
VERTEX
  5
11F9
330
11D8
100
AcDbEntity
  8
SCHRAFFUR_RAND
100
AcDbVertex
100
AcDb2dVertex
 10
227.663697
 20
261.371091
 30
0.0
  0
VERTEX
  5
11FA
330
11D8
100
AcDbEntity
  8
SCHRAFFUR_RAND
100
AcDbVertex
100
AcDb2dVertex
 10
228.390697
 20
261.158091
 30
0.0
  0
VERTEX
  5
11FB
330
11D8
100
AcDbEntity
  8
SCHRAFFUR_RAND
100
AcDbVertex
100
AcDb2dVertex
 10
294.132697
 20
234.960091
 30
0.0
  0
VERTEX
  5
11FC
330
11D8
100
AcDbEntity
  8
SCHRAFFUR_RAND
100
AcDbVertex
100
AcDb2dVertex
 10
295.667697
 20
234.131091
 30
0.0
  0
VERTEX
  5
11FD
330
11D8
100
AcDbEntity
  8
SCHRAFFUR_RAND
100
AcDbVertex
100
AcDb2dVertex
 10
296.868697
 20
232.857091
 30
0.0
  0
VERTEX
  5
11FE
330
11D8
100
AcDbEntity
  8
SCHRAFFUR_RAND
100
AcDbVertex
100
AcDb2dVertex
 10
297.655697
 20
231.292091
 30
0.0
  0
VERTEX
  5
11FF
330
11D8
100
AcDbEntity
  8
SCHRAFFUR_RAND
100
AcDbVertex
100
AcDb2dVertex
 10
297.908697
 20
229.566091
 30
0.0
  0
VERTEX
  5
1200
330
11D8
100
AcDbEntity
  8
SCHRAFFUR_RAND
100
AcDbVertex
100
AcDb2dVertex
 10
297.945697
 20
228.336091
 30
0.0
  0
VERTEX
  5
1201
330
11D8
100
AcDbEntity
  8
SCHRAFFUR_RAND
100
AcDbVertex
100
AcDb2dVertex
 10
297.880697
 20
224.196091
 30
0.0
  0
VERTEX
  5
1202
330
11D8
100
AcDbEntity
  8
SCHRAFFUR_RAND
100
AcDbVertex
100
AcDb2dVertex
 10
298.552697
 20
220.105091
 30
0.0
  0
VERTEX
  5
1203
330
11D8
100
AcDbEntity
  8
SCHRAFFUR_RAND
100
AcDbVertex
100
AcDb2dVertex
 10
299.889697
 20
216.181091
 30
0.0
  0
VERTEX
  5
1204
330
11D8
100
AcDbEntity
  8
SCHRAFFUR_RAND
100
AcDbVertex
100
AcDb2dVertex
 10
301.854697
 20
212.531091
 30
0.0
  0
VERTEX
  5
1205
330
11D8
100
AcDbEntity
  8
SCHRAFFUR_RAND
100
AcDbVertex
100
AcDb2dVertex
 10
304.395697
 20
209.256091
 30
0.0
  0
VERTEX
  5
1206
330
11D8
100
AcDbEntity
  8
SCHRAFFUR_RAND
100
AcDbVertex
100
AcDb2dVertex
 10
307.4416970000001
 20
206.444091
 30
0.0
  0
VERTEX
  5
1207
330
11D8
100
AcDbEntity
  8
SCHRAFFUR_RAND
100
AcDbVertex
100
AcDb2dVertex
 10
310.909697
 20
204.173091
 30
0.0
  0
VERTEX
  5
1208
330
11D8
100
AcDbEntity
  8
SCHRAFFUR_RAND
100
AcDbVertex
100
AcDb2dVertex
 10
314.703697
 20
202.505091
 30
0.0
  0
VERTEX
  5
1209
330
11D8
100
AcDbEntity
  8
SCHRAFFUR_RAND
100
AcDbVertex
100
AcDb2dVertex
 10
318.721697
 20
201.485091
 30
0.0
  0
VERTEX
  5
120A
330
11D8
100
AcDbEntity
  8
SCHRAFFUR_RAND
100
AcDbVertex
100
AcDb2dVertex
 10
322.853697
 20
201.194091
 30
0.0
  0
VERTEX
  5
120B
330
11D8
100
AcDbEntity
  8
SCHRAFFUR_RAND
100
AcDbVertex
100
AcDb2dVertex
 10
382.645697
 20
201.194091
 30
0.0
  0
VERTEX
  5
120C
330
11D8
100
AcDbEntity
  8
SCHRAFFUR_RAND
100
AcDbVertex
100
AcDb2dVertex
 10
408.382697
 20
198.943091
 30
0.0
  0
VERTEX
  5
120D
330
11D8
100
AcDbEntity
  8
SCHRAFFUR_RAND
100
AcDbVertex
100
AcDb2dVertex
 10
496.3826969999999
 20
198.943091
 30
0.0
  0
VERTEX
  5
120E
330
11D8
100
AcDbEntity
  8
SCHRAFFUR_RAND
100
AcDbVertex
100
AcDb2dVertex
 10
500.2816969999999
 20
201.194091
 30
0.0
  0
VERTEX
  5
120F
330
11D8
100
AcDbEntity
  8
SCHRAFFUR_RAND
100
AcDbVertex
100
AcDb2dVertex
 10
641.223697
 20
201.194091
 30
0.0
  0
VERTEX
  5
1210
330
11D8
100
AcDbEntity
  8
SCHRAFFUR_RAND
100
AcDbVertex
100
AcDb2dVertex
 10
710.9516969999999
 20
199.368091
 30
0.0
  0
VERTEX
  5
1211
330
11D8
100
AcDbEntity
  8
SCHRAFFUR_RAND
100
AcDbVertex
100
AcDb2dVertex
 10
716.9956969999999
 20
200.988091
 30
0.0
  0
VERTEX
  5
1212
330
11D8
100
AcDbEntity
  8
SCHRAFFUR_RAND
100
AcDbVertex
100
AcDb2dVertex
 10
717.099697
 20
204.959091
 30
0.0
  0
VERTEX
  5
1213
330
11D8
100
AcDbEntity
  8
SCHRAFFUR_RAND
100
AcDbVertex
100
AcDb2dVertex
 10
697.1066969999999
 20
205.483091
 30
0.0
  0
VERTEX
  5
1214
330
11D8
100
AcDbEntity
  8
SCHRAFFUR_RAND
100
AcDbVertex
100
AcDb2dVertex
 10
692.0816969999999
 20
204.614091
 30
0.0
  0
VERTEX
  5
1215
330
11D8
100
AcDbEntity
  8
SCHRAFFUR_RAND
100
AcDbVertex
100
AcDb2dVertex
 10
641.3476969999999
 20
205.943091
 30
0.0
  0
VERTEX
  5
1216
330
11D8
100
AcDbEntity
  8
SCHRAFFUR_RAND
100
AcDbVertex
100
AcDb2dVertex
 10
529.7456969999999
 20
205.943091
 30
0.0
  0
VERTEX
  5
1217
330
11D8
100
AcDbEntity
  8
SCHRAFFUR_RAND
100
AcDbVertex
100
AcDb2dVertex
 10
523.1316969999999
 20
205.943091
 30
0.0
  0
VERTEX
  5
1218
330
11D8
100
AcDbEntity
  8
SCHRAFFUR_RAND
100
AcDbVertex
100
AcDb2dVertex
 10
496.3826969999999
 20
205.943091
 30
0.0
  0
VERTEX
  5
1219
330
11D8
100
AcDbEntity
  8
SCHRAFFUR_RAND
100
AcDbVertex
100
AcDb2dVertex
 10
496.3826969999999
 20
203.943091
 30
0.0
  0
VERTEX
  5
121A
330
11D8
100
AcDbEntity
  8
SCHRAFFUR_RAND
100
AcDbVertex
100
AcDb2dVertex
 10
408.382697
 20
203.943091
 30
0.0
  0
VERTEX
  5
121B
330
11D8
100
AcDbEntity
  8
SCHRAFFUR_RAND
100
AcDbVertex
100
AcDb2dVertex
 10
385.5206970000001
 20
205.943091
 30
0.0
  0
SEQEND
  5
121C
330
11D8
100
AcDbEntity
  8
SCHRAFFUR_RAND
  0
INSERT
  5
1253
330
144F
100
AcDbEntity
  8
8
100
AcDbBlockReference
  2
*X2
 10
-25.377303
 20
-720.7219089999999
 30
0.0
1001
ACAD
1000
HATCH
1002
{
1070
    19
1000
ANSI31,_I
1040
7.937
1040
0.7850000000000001
1002
}
  0
POLYLINE
  5
1254
330
144F
100
AcDbEntity
  8
SCHRAFFUR_RAND
100
AcDb2dPolyline
 66
     1
 10
0.0
 20
0.0
 30
0.0
 70
     1
  0
VERTEX
  5
1255
330
1254
100
AcDbEntity
  8
SCHRAFFUR_RAND
100
AcDbVertex
100
AcDb2dVertex
 10
193.382697
 20
265.443091
 30
0.0
  0
VERTEX
  5
1256
330
1254
100
AcDbEntity
  8
SCHRAFFUR_RAND
100
AcDbVertex
100
AcDb2dVertex
 10
193.382697
 20
266.943091
 30
0.0
  0
VERTEX
  5
1257
330
1254
100
AcDbEntity
  8
SCHRAFFUR_RAND
100
AcDbVertex
100
AcDb2dVertex
 10
211.427697
 20
266.943091
 30
0.0
  0
VERTEX
  5
1258
330
1254
100
AcDbEntity
  8
SCHRAFFUR_RAND
100
AcDbVertex
100
AcDb2dVertex
 10
212.381697
 20
277.443091
 30
0.0
  0
VERTEX
  5
1259
330
1254
100
AcDbEntity
  8
SCHRAFFUR_RAND
100
AcDbVertex
100
AcDb2dVertex
 10
207.381697
 20
268.943091
 30
0.0
  0
VERTEX
  5
125A
330
1254
100
AcDbEntity
  8
SCHRAFFUR_RAND
100
AcDbVertex
100
AcDb2dVertex
 10
197.382697
 20
268.943091
 30
0.0
  0
VERTEX
  5
125B
330
1254
100
AcDbEntity
  8
SCHRAFFUR_RAND
100
AcDbVertex
100
AcDb2dVertex
 10
200.382697
 20
274.4430910000001
 30
0.0
  0
VERTEX
  5
125C
330
1254
100
AcDbEntity
  8
SCHRAFFUR_RAND
100
AcDbVertex
100
AcDb2dVertex
 10
198.881697
 20
274.4430910000001
 30
0.0
  0
VERTEX
  5
125D
330
1254
100
AcDbEntity
  8
SCHRAFFUR_RAND
100
AcDbVertex
100
AcDb2dVertex
 10
193.382697
 20
268.943091
 30
0.0
  0
VERTEX
  5
125E
330
1254
100
AcDbEntity
  8
SCHRAFFUR_RAND
100
AcDbVertex
100
AcDb2dVertex
 10
189.382697
 20
268.943091
 30
0.0
  0
VERTEX
  5
125F
330
1254
100
AcDbEntity
  8
SCHRAFFUR_RAND
100
AcDbVertex
100
AcDb2dVertex
 10
189.382697
 20
263.443091
 30
0.0
  0
VERTEX
  5
1260
330
1254
100
AcDbEntity
  8
SCHRAFFUR_RAND
100
AcDbVertex
100
AcDb2dVertex
 10
193.382697
 20
263.443091
 30
0.0
  0
VERTEX
  5
1261
330
1254
100
AcDbEntity
  8
SCHRAFFUR_RAND
100
AcDbVertex
100
AcDb2dVertex
 10
193.382697
 20
265.443091
 30
0.0
  0
SEQEND
  5
1262
330
1254
100
AcDbEntity
  8
SCHRAFFUR_RAND
  0
INSERT
  5
1275
330
144F
100
AcDbEntity
  8
8
100
AcDbBlockReference
  2
*X3
 10
-25.377303
 20
-720.7219089999999
 30
0.0
1001
ACAD
1000
HATCH
1002
{
1070
    19
1000
ANSI37,_I
1040
3.174999999999999
1040
3.926999999999999
1002
}
  0
POLYLINE
  5
1276
330
144F
100
AcDbEntity
  8
SCHRAFFUR_RAND
100
AcDb2dPolyline
 66
     1
 10
0.0
 20
0.0
 30
0.0
 70
     1
  0
VERTEX
  5
1277
330
1276
100
AcDbEntity
  8
SCHRAFFUR_RAND
100
AcDbVertex
100
AcDb2dVertex
 10
211.427697
 20
325.943091
 30
0.0
  0
VERTEX
  5
1278
330
1276
100
AcDbEntity
  8
SCHRAFFUR_RAND
100
AcDbVertex
100
AcDb2dVertex
 10
193.382697
 20
325.943091
 30
0.0
  0
VERTEX
  5
1279
330
1276
100
AcDbEntity
  8
SCHRAFFUR_RAND
100
AcDbVertex
100
AcDb2dVertex
 10
193.382697
 20
329.443091
 30
0.0
  0
VERTEX
  5
127A
330
1276
100
AcDbEntity
  8
SCHRAFFUR_RAND
100
AcDbVertex
100
AcDb2dVertex
 10
189.382697
 20
329.443091
 30
0.0
  0
VERTEX
  5
127B
330
1276
100
AcDbEntity
  8
SCHRAFFUR_RAND
100
AcDbVertex
100
AcDb2dVertex
 10
189.382697
 20
323.943091
 30
0.0
  0
VERTEX
  5
127C
330
1276
100
AcDbEntity
  8
SCHRAFFUR_RAND
100
AcDbVertex
100
AcDb2dVertex
 10
193.382697
 20
323.943091
 30
0.0
  0
VERTEX
  5
127D
330
1276
100
AcDbEntity
  8
SCHRAFFUR_RAND
100
AcDbVertex
100
AcDb2dVertex
 10
198.881697
 20
318.4430910000001
 30
0.0
  0
VERTEX
  5
127E
330
1276
100
AcDbEntity
  8
SCHRAFFUR_RAND
100
AcDbVertex
100
AcDb2dVertex
 10
200.382697
 20
318.4430910000001
 30
0.0
  0
VERTEX
  5
127F
330
1276
100
AcDbEntity
  8
SCHRAFFUR_RAND
100
AcDbVertex
100
AcDb2dVertex
 10
197.381697
 20
323.943091
 30
0.0
  0
VERTEX
  5
1280
330
1276
100
AcDbEntity
  8
SCHRAFFUR_RAND
100
AcDbVertex
100
AcDb2dVertex
 10
207.381697
 20
323.943091
 30
0.0
  0
VERTEX
  5
1281
330
1276
100
AcDbEntity
  8
SCHRAFFUR_RAND
100
AcDbVertex
100
AcDb2dVertex
 10
212.381697
 20
315.443091
 30
0.0
  0
VERTEX
  5
1282
330
1276
100
AcDbEntity
  8
SCHRAFFUR_RAND
100
AcDbVertex
100
AcDb2dVertex
 10
211.427697
 20
325.943091
 30
0.0
  0
SEQEND
  5
1283
330
1276
100
AcDbEntity
  8
SCHRAFFUR_RAND
  0
INSERT
  5
1295
330
144F
100
AcDbEntity
  8
8
100
AcDbBlockReference
  2
*X4
 10
-25.377303
 20
-720.7219089999999
 30
0.0
1001
ACAD
1000
HATCH
1002
{
1070
    19
1000
ANSI37,_I
1040
3.174999999999999
1040
3.926999999999999
1002
}
  0
DIMENSION
  5
12A0
330
144F
100
AcDbEntity
  8
5
100
AcDbDimension
  2
*D13
 10
153.509697
 20
325.943091
 30
0.0
 11
153.509697
 21
296.442091
 31
0.0
 12
-25.377303
 22
-720.7219089999999
 32
0.0
 70
   160
  1
%%c59
 71
     5
 42
-1.0
  3
GEN-ISO
100
AcDbAlignedDimension
 13
193.382697
 23
266.943091
 33
0.0
 14
193.381697
 24
325.943091
 34
0.0
 50
90.0
100
AcDbRotatedDimension
1001
ACAD
1000
DSTYLE
1002
{
1070
    40
1040
5.0
1002
}
  0
DIMENSION
  5
12AA
330
144F
100
AcDbEntity
  8
5
100
AcDbDimension
  2
*D11
 10
268.064697
 20
333.943091
 30
0.0
 11
268.064697
 21
366.932091
 31
0.0
 12
-25.377303
 22
-720.7219089999999
 32
0.0
 70
   160
  1
38
 71
     5
 42
-1.0
  3
GEN-ISO
100
AcDbAlignedDimension
 13
232.071697
 23
296.443091
 33
0.0
 14
268.064697
 24
333.943091
 34
0.0
 50
90.0
100
AcDbRotatedDimension
1001
ACAD
1000
DSTYLE
1002
{
1070
    40
1040
5.0
1002
}
  0
POLYLINE
  5
12AB
330
144F
100
AcDbEntity
  8
SCHRAFFUR_RAND
100
AcDb2dPolyline
 66
     1
 10
0.0
 20
0.0
 30
0.0
 70
     1
  0
VERTEX
  5
12AC
330
12AB
100
AcDbEntity
  8
SCHRAFFUR_RAND
100
AcDbVertex
100
AcDb2dVertex
 10
301.7896970000001
 20
286.9430910000001
 30
0.0
  0
VERTEX
  5
12AD
330
12AB
100
AcDbEntity
  8
SCHRAFFUR_RAND
100
AcDbVertex
100
AcDb2dVertex
 10
300.969697
 20
333.943091
 30
0.0
  0
VERTEX
  5
12AE
330
12AB
100
AcDbEntity
  8
SCHRAFFUR_RAND
100
AcDbVertex
100
AcDb2dVertex
 10
291.402697
 20
333.943091
 30
0.0
  0
VERTEX
  5
12AF
330
12AB
100
AcDbEntity
  8
SCHRAFFUR_RAND
100
AcDbVertex
100
AcDb2dVertex
 10
198.149697
 20
333.943091
 30
0.0
  0
VERTEX
  5
12B0
330
12AB
100
AcDbEntity
  8
SCHRAFFUR_RAND
100
AcDbVertex
100
AcDb2dVertex
 10
196.293697
 20
333.639091
 30
0.0
  0
VERTEX
  5
12B1
330
12AB
100
AcDbEntity
  8
SCHRAFFUR_RAND
100
AcDbVertex
100
AcDb2dVertex
 10
194.831697
 20
332.412091
 30
0.0
  0
VERTEX
  5
12B2
330
12AB
100
AcDbEntity
  8
SCHRAFFUR_RAND
100
AcDbVertex
100
AcDb2dVertex
 10
194.209697
 20
330.637091
 30
0.0
  0
VERTEX
  5
12B3
330
12AB
100
AcDbEntity
  8
SCHRAFFUR_RAND
100
AcDbVertex
100
AcDb2dVertex
 10
193.382697
 20
325.943091
 30
0.0
  0
VERTEX
  5
12B4
330
12AB
100
AcDbEntity
  8
SCHRAFFUR_RAND
100
AcDbVertex
100
AcDb2dVertex
 10
211.427697
 20
325.943091
 30
0.0
  0
VERTEX
  5
12B5
330
12AB
100
AcDbEntity
  8
SCHRAFFUR_RAND
100
AcDbVertex
100
AcDb2dVertex
 10
218.381697
 20
325.943091
 30
0.0
  0
VERTEX
  5
12B6
330
12AB
100
AcDbEntity
  8
SCHRAFFUR_RAND
100
AcDbVertex
100
AcDb2dVertex
 10
220.449697
 20
325.524091
 30
0.0
  0
VERTEX
  5
12B7
330
12AB
100
AcDbEntity
  8
SCHRAFFUR_RAND
100
AcDbVertex
100
AcDb2dVertex
 10
221.963697
 20
324.011091
 30
0.0
  0
VERTEX
  5
12B8
330
12AB
100
AcDbEntity
  8
SCHRAFFUR_RAND
100
AcDbVertex
100
AcDb2dVertex
 10
222.3816970000001
 20
321.943091
 30
0.0
  0
VERTEX
  5
12B9
330
12AB
100
AcDbEntity
  8
SCHRAFFUR_RAND
100
AcDbVertex
100
AcDb2dVertex
 10
222.3816970000001
 20
321.443091
 30
0.0
  0
VERTEX
  5
12BA
330
12AB
100
AcDbEntity
  8
SCHRAFFUR_RAND
100
AcDbVertex
100
AcDb2dVertex
 10
227.381697
 20
321.443091
 30
0.0
  0
VERTEX
  5
12BB
330
12AB
100
AcDbEntity
  8
SCHRAFFUR_RAND
100
AcDbVertex
100
AcDb2dVertex
 10
227.381697
 20
321.943091
 30
0.0
  0
VERTEX
  5
12BC
330
12AB
100
AcDbEntity
  8
SCHRAFFUR_RAND
100
AcDbVertex
100
AcDb2dVertex
 10
227.800697
 20
324.011091
 30
0.0
  0
VERTEX
  5
12BD
330
12AB
100
AcDbEntity
  8
SCHRAFFUR_RAND
100
AcDbVertex
100
AcDb2dVertex
 10
229.314697
 20
325.524091
 30
0.0
  0
VERTEX
  5
12BE
330
12AB
100
AcDbEntity
  8
SCHRAFFUR_RAND
100
AcDbVertex
100
AcDb2dVertex
 10
231.381697
 20
325.943091
 30
0.0
  0
VERTEX
  5
12BF
330
12AB
100
AcDbEntity
  8
SCHRAFFUR_RAND
100
AcDbVertex
100
AcDb2dVertex
 10
290.417697
 20
326.141091
 30
0.0
  0
VERTEX
  5
12C0
330
12AB
100
AcDbEntity
  8
SCHRAFFUR_RAND
100
AcDbVertex
100
AcDb2dVertex
 10
291.753697
 20
325.943091
 30
0.0
  0
VERTEX
  5
12C1
330
12AB
100
AcDbEntity
  8
SCHRAFFUR_RAND
100
AcDbVertex
100
AcDb2dVertex
 10
292.679697
 20
325.761091
 30
0.0
  0
VERTEX
  5
12C2
330
12AB
100
AcDbEntity
  8
SCHRAFFUR_RAND
100
AcDbVertex
100
AcDb2dVertex
 10
294.584697
 20
324.446091
 30
0.0
  0
VERTEX
  5
12C3
330
12AB
100
AcDbEntity
  8
SCHRAFFUR_RAND
100
AcDbVertex
100
AcDb2dVertex
 10
295.866697
 20
322.518091
 30
0.0
  0
VERTEX
  5
12C4
330
12AB
100
AcDbEntity
  8
SCHRAFFUR_RAND
100
AcDbVertex
100
AcDb2dVertex
 10
296.207697
 20
320.250091
 30
0.0
  0
VERTEX
  5
12C5
330
12AB
100
AcDbEntity
  8
SCHRAFFUR_RAND
100
AcDbVertex
100
AcDb2dVertex
 10
296.788697
 20
286.9430910000001
 30
0.0
  0
VERTEX
  5
12C6
330
12AB
100
AcDbEntity
  8
SCHRAFFUR_RAND
100
AcDbVertex
100
AcDb2dVertex
 10
301.7896970000001
 20
286.9430910000001
 30
0.0
  0
SEQEND
  5
12C7
330
12AB
100
AcDbEntity
  8
SCHRAFFUR_RAND
  0
INSERT
  5
12D8
330
144F
100
AcDbEntity
  8
8
100
AcDbBlockReference
  2
*X5
 10
-25.377303
 20
-720.7219089999999
 30
0.0
1001
ACAD
1000
HATCH
1002
{
1070
    19
1000
ANSI31,_I
1040
7.937
1040
0.7850000000000001
1002
}
  0
POLYLINE
  5
12D9
330
144F
100
AcDbEntity
  8
SCHRAFFUR_RAND
100
AcDb2dPolyline
 66
     1
 10
0.0
 20
0.0
 30
0.0
 70
     1
  0
VERTEX
  5
12DA
330
12D9
100
AcDbEntity
  8
SCHRAFFUR_RAND
100
AcDbVertex
100
AcDb2dVertex
 10
515.7946969999999
 20
333.943091
 30
0.0
  0
VERTEX
  5
12DB
330
12D9
100
AcDbEntity
  8
SCHRAFFUR_RAND
100
AcDbVertex
100
AcDb2dVertex
 10
515.3856969999999
 20
310.488091
 30
0.0
  0
VERTEX
  5
12DC
330
12D9
100
AcDbEntity
  8
SCHRAFFUR_RAND
100
AcDbVertex
100
AcDb2dVertex
 10
515.2896969999999
 20
309.877091
 30
0.0
  0
VERTEX
  5
12DD
330
12D9
100
AcDbEntity
  8
SCHRAFFUR_RAND
100
AcDbVertex
100
AcDb2dVertex
 10
514.940697
 20
309.361091
 30
0.0
  0
VERTEX
  5
12DE
330
12D9
100
AcDbEntity
  8
SCHRAFFUR_RAND
100
AcDbVertex
100
AcDb2dVertex
 10
514.4236969999999
 20
309.012091
 30
0.0
  0
VERTEX
  5
12DF
330
12D9
100
AcDbEntity
  8
SCHRAFFUR_RAND
100
AcDbVertex
100
AcDb2dVertex
 10
513.8136969999999
 20
308.916091
 30
0.0
  0
VERTEX
  5
12E0
330
12D9
100
AcDbEntity
  8
SCHRAFFUR_RAND
100
AcDbVertex
100
AcDb2dVertex
 10
496.3826969999999
 20
308.611091
 30
0.0
  0
VERTEX
  5
12E1
330
12D9
100
AcDbEntity
  8
SCHRAFFUR_RAND
100
AcDbVertex
100
AcDb2dVertex
 10
496.3826969999999
 20
304.943091
 30
0.0
  0
VERTEX
  5
12E2
330
12D9
100
AcDbEntity
  8
SCHRAFFUR_RAND
100
AcDbVertex
100
AcDb2dVertex
 10
496.3826969999999
 20
297.9430910000001
 30
0.0
  0
VERTEX
  5
12E3
330
12D9
100
AcDbEntity
  8
SCHRAFFUR_RAND
100
AcDbVertex
100
AcDb2dVertex
 10
523.1316969999999
 20
297.9430910000001
 30
0.0
  0
VERTEX
  5
12E4
330
12D9
100
AcDbEntity
  8
SCHRAFFUR_RAND
100
AcDbVertex
100
AcDb2dVertex
 10
529.7466969999999
 20
297.9430910000001
 30
0.0
  0
VERTEX
  5
12E5
330
12D9
100
AcDbEntity
  8
SCHRAFFUR_RAND
100
AcDbVertex
100
AcDb2dVertex
 10
534.382697
 20
297.9430910000001
 30
0.0
  0
VERTEX
  5
12E6
330
12D9
100
AcDbEntity
  8
SCHRAFFUR_RAND
100
AcDbVertex
100
AcDb2dVertex
 10
534.382697
 20
302.943091
 30
0.0
  0
VERTEX
  5
12E7
330
12D9
100
AcDbEntity
  8
SCHRAFFUR_RAND
100
AcDbVertex
100
AcDb2dVertex
 10
524.324697
 20
302.943091
 30
0.0
  0
VERTEX
  5
12E8
330
12D9
100
AcDbEntity
  8
SCHRAFFUR_RAND
100
AcDbVertex
100
AcDb2dVertex
 10
523.065697
 20
303.111091
 30
0.0
  0
VERTEX
  5
12E9
330
12D9
100
AcDbEntity
  8
SCHRAFFUR_RAND
100
AcDbVertex
100
AcDb2dVertex
 10
521.931697
 20
303.696091
 30
0.0
  0
VERTEX
  5
12EA
330
12D9
100
AcDbEntity
  8
SCHRAFFUR_RAND
100
AcDbVertex
100
AcDb2dVertex
 10
521.0376969999999
 20
304.606091
 30
0.0
  0
VERTEX
  5
12EB
330
12D9
100
AcDbEntity
  8
SCHRAFFUR_RAND
100
AcDbVertex
100
AcDb2dVertex
 10
520.4726969999999
 20
305.750091
 30
0.0
  0
VERTEX
  5
12EC
330
12D9
100
AcDbEntity
  8
SCHRAFFUR_RAND
100
AcDbVertex
100
AcDb2dVertex
 10
520.3256969999999
 20
307.013091
 30
0.0
  0
VERTEX
  5
12ED
330
12D9
100
AcDbEntity
  8
SCHRAFFUR_RAND
100
AcDbVertex
100
AcDb2dVertex
 10
520.6056969999999
 20
323.047091
 30
0.0
  0
VERTEX
  5
12EE
330
12D9
100
AcDbEntity
  8
SCHRAFFUR_RAND
100
AcDbVertex
100
AcDb2dVertex
 10
520.800697
 20
324.589091
 30
0.0
  0
VERTEX
  5
12EF
330
12D9
100
AcDbEntity
  8
SCHRAFFUR_RAND
100
AcDbVertex
100
AcDb2dVertex
 10
521.415697
 20
326.020091
 30
0.0
  0
VERTEX
  5
12F0
330
12D9
100
AcDbEntity
  8
SCHRAFFUR_RAND
100
AcDbVertex
100
AcDb2dVertex
 10
522.3756969999999
 20
327.246091
 30
0.0
  0
VERTEX
  5
12F1
330
12D9
100
AcDbEntity
  8
SCHRAFFUR_RAND
100
AcDbVertex
100
AcDb2dVertex
 10
523.1026969999999
 20
327.814091
 30
0.0
  0
VERTEX
  5
12F2
330
12D9
100
AcDbEntity
  8
SCHRAFFUR_RAND
100
AcDbVertex
100
AcDb2dVertex
 10
523.618697
 20
328.185091
 30
0.0
  0
VERTEX
  5
12F3
330
12D9
100
AcDbEntity
  8
SCHRAFFUR_RAND
100
AcDbVertex
100
AcDb2dVertex
 10
525.059697
 20
328.775091
 30
0.0
  0
VERTEX
  5
12F4
330
12D9
100
AcDbEntity
  8
SCHRAFFUR_RAND
100
AcDbVertex
100
AcDb2dVertex
 10
526.6046969999999
 20
328.943091
 30
0.0
  0
VERTEX
  5
12F5
330
12D9
100
AcDbEntity
  8
SCHRAFFUR_RAND
100
AcDbVertex
100
AcDb2dVertex
 10
551.9236969999999
 20
328.943091
 30
0.0
  0
VERTEX
  5
12F6
330
12D9
100
AcDbEntity
  8
SCHRAFFUR_RAND
100
AcDbVertex
100
AcDb2dVertex
 10
614.4196969999999
 20
328.943091
 30
0.0
  0
VERTEX
  5
12F7
330
12D9
100
AcDbEntity
  8
SCHRAFFUR_RAND
100
AcDbVertex
100
AcDb2dVertex
 10
615.531697
 20
328.820091
 30
0.0
  0
VERTEX
  5
12F8
330
12D9
100
AcDbEntity
  8
SCHRAFFUR_RAND
100
AcDbVertex
100
AcDb2dVertex
 10
616.556697
 20
328.363091
 30
0.0
  0
VERTEX
  5
12F9
330
12D9
100
AcDbEntity
  8
SCHRAFFUR_RAND
100
AcDbVertex
100
AcDb2dVertex
 10
617.4166969999999
 20
327.641091
 30
0.0
  0
VERTEX
  5
12FA
330
12D9
100
AcDbEntity
  8
SCHRAFFUR_RAND
100
AcDbVertex
100
AcDb2dVertex
 10
618.0446969999999
 20
326.711091
 30
0.0
  0
VERTEX
  5
12FB
330
12D9
100
AcDbEntity
  8
SCHRAFFUR_RAND
100
AcDbVertex
100
AcDb2dVertex
 10
618.358697
 20
325.637091
 30
0.0
  0
VERTEX
  5
12FC
330
12D9
100
AcDbEntity
  8
SCHRAFFUR_RAND
100
AcDbVertex
100
AcDb2dVertex
 10
620.1746969999999
 20
315.341091
 30
0.0
  0
VERTEX
  5
12FD
330
12D9
100
AcDbEntity
  8
SCHRAFFUR_RAND
100
AcDbVertex
100
AcDb2dVertex
 10
620.7216969999999
 20
313.259091
 30
0.0
  0
VERTEX
  5
12FE
330
12D9
100
AcDbEntity
  8
SCHRAFFUR_RAND
100
AcDbVertex
100
AcDb2dVertex
 10
621.694697
 20
311.335091
 30
0.0
  0
VERTEX
  5
12FF
330
12D9
100
AcDbEntity
  8
SCHRAFFUR_RAND
100
AcDbVertex
100
AcDb2dVertex
 10
623.022697
 20
309.637091
 30
0.0
  0
VERTEX
  5
1300
330
12D9
100
AcDbEntity
  8
SCHRAFFUR_RAND
100
AcDbVertex
100
AcDb2dVertex
 10
624.6566969999999
 20
308.2290910000001
 30
0.0
  0
VERTEX
  5
1301
330
12D9
100
AcDbEntity
  8
SCHRAFFUR_RAND
100
AcDbVertex
100
AcDb2dVertex
 10
626.532697
 20
307.167091
 30
0.0
  0
VERTEX
  5
1302
330
12D9
100
AcDbEntity
  8
SCHRAFFUR_RAND
100
AcDbVertex
100
AcDb2dVertex
 10
628.5786969999999
 20
306.489091
 30
0.0
  0
VERTEX
  5
1303
330
12D9
100
AcDbEntity
  8
SCHRAFFUR_RAND
100
AcDbVertex
100
AcDb2dVertex
 10
630.7196969999999
 20
306.255091
 30
0.0
  0
VERTEX
  5
1304
330
12D9
100
AcDbEntity
  8
SCHRAFFUR_RAND
100
AcDbVertex
100
AcDb2dVertex
 10
694.699697
 20
304.580091
 30
0.0
  0
VERTEX
  5
1305
330
12D9
100
AcDbEntity
  8
SCHRAFFUR_RAND
100
AcDbVertex
100
AcDb2dVertex
 10
699.671697
 20
303.449091
 30
0.0
  0
VERTEX
  5
1306
330
12D9
100
AcDbEntity
  8
SCHRAFFUR_RAND
100
AcDbVertex
100
AcDb2dVertex
 10
719.6646969999999
 20
302.926091
 30
0.0
  0
VERTEX
  5
1307
330
12D9
100
AcDbEntity
  8
SCHRAFFUR_RAND
100
AcDbVertex
100
AcDb2dVertex
 10
719.7776969999999
 20
307.234091
 30
0.0
  0
VERTEX
  5
1308
330
12D9
100
AcDbEntity
  8
SCHRAFFUR_RAND
100
AcDbVertex
100
AcDb2dVertex
 10
713.8176969999999
 20
308.831091
 30
0.0
  0
VERTEX
  5
1309
330
12D9
100
AcDbEntity
  8
SCHRAFFUR_RAND
100
AcDbVertex
100
AcDb2dVertex
 10
630.894697
 20
311.002091
 30
0.0
  0
VERTEX
  5
130A
330
12D9
100
AcDbEntity
  8
SCHRAFFUR_RAND
100
AcDbVertex
100
AcDb2dVertex
 10
629.5326969999999
 20
311.161091
 30
0.0
  0
VERTEX
  5
130B
330
12D9
100
AcDbEntity
  8
SCHRAFFUR_RAND
100
AcDbVertex
100
AcDb2dVertex
 10
628.2496969999999
 20
311.657091
 30
0.0
  0
VERTEX
  5
130C
330
12D9
100
AcDbEntity
  8
SCHRAFFUR_RAND
100
AcDbVertex
100
AcDb2dVertex
 10
627.113697
 20
312.430091
 30
0.0
  0
VERTEX
  5
130D
330
12D9
100
AcDbEntity
  8
SCHRAFFUR_RAND
100
AcDbVertex
100
AcDb2dVertex
 10
626.180697
 20
313.440091
 30
0.0
  0
VERTEX
  5
130E
330
12D9
100
AcDbEntity
  8
SCHRAFFUR_RAND
100
AcDbVertex
100
AcDb2dVertex
 10
625.5016969999999
 20
314.635091
 30
0.0
  0
VERTEX
  5
130F
330
12D9
100
AcDbEntity
  8
SCHRAFFUR_RAND
100
AcDbVertex
100
AcDb2dVertex
 10
625.1426969999999
 20
315.958091
 30
0.0
  0
VERTEX
  5
1310
330
12D9
100
AcDbEntity
  8
SCHRAFFUR_RAND
100
AcDbVertex
100
AcDb2dVertex
 10
622.5546969999999
 20
330.637091
 30
0.0
  0
VERTEX
  5
1311
330
12D9
100
AcDbEntity
  8
SCHRAFFUR_RAND
100
AcDbVertex
100
AcDb2dVertex
 10
622.2406969999999
 20
331.711091
 30
0.0
  0
VERTEX
  5
1312
330
12D9
100
AcDbEntity
  8
SCHRAFFUR_RAND
100
AcDbVertex
100
AcDb2dVertex
 10
621.612697
 20
332.641091
 30
0.0
  0
VERTEX
  5
1313
330
12D9
100
AcDbEntity
  8
SCHRAFFUR_RAND
100
AcDbVertex
100
AcDb2dVertex
 10
620.7526969999999
 20
333.363091
 30
0.0
  0
VERTEX
  5
1314
330
12D9
100
AcDbEntity
  8
SCHRAFFUR_RAND
100
AcDbVertex
100
AcDb2dVertex
 10
619.7266969999999
 20
333.820091
 30
0.0
  0
VERTEX
  5
1315
330
12D9
100
AcDbEntity
  8
SCHRAFFUR_RAND
100
AcDbVertex
100
AcDb2dVertex
 10
618.614697
 20
333.943091
 30
0.0
  0
VERTEX
  5
1316
330
12D9
100
AcDbEntity
  8
SCHRAFFUR_RAND
100
AcDbVertex
100
AcDb2dVertex
 10
541.1206969999999
 20
333.943091
 30
0.0
  0
VERTEX
  5
1317
330
12D9
100
AcDbEntity
  8
SCHRAFFUR_RAND
100
AcDbVertex
100
AcDb2dVertex
 10
540.1206969999999
 20
333.943091
 30
0.0
  0
VERTEX
  5
1318
330
12D9
100
AcDbEntity
  8
SCHRAFFUR_RAND
100
AcDbVertex
100
AcDb2dVertex
 10
532.1206969999999
 20
333.943091
 30
0.0
  0
VERTEX
  5
1319
330
12D9
100
AcDbEntity
  8
SCHRAFFUR_RAND
100
AcDbVertex
100
AcDb2dVertex
 10
531.1206969999999
 20
333.943091
 30
0.0
  0
VERTEX
  5
131A
330
12D9
100
AcDbEntity
  8
SCHRAFFUR_RAND
100
AcDbVertex
100
AcDb2dVertex
 10
525.3616969999999
 20
333.943091
 30
0.0
  0
VERTEX
  5
131B
330
12D9
100
AcDbEntity
  8
SCHRAFFUR_RAND
100
AcDbVertex
100
AcDb2dVertex
 10
515.7946969999999
 20
333.943091
 30
0.0
  0
SEQEND
  5
131C
330
12D9
100
AcDbEntity
  8
SCHRAFFUR_RAND
  0
INSERT
  5
1339
330
144F
100
AcDbEntity
  8
8
100
AcDbBlockReference
  2
*X6
 10
-25.377303
 20
-720.7219089999999
 30
0.0
1001
ACAD
1000
HATCH
1002
{
1070
    19
1000
ANSI31,_I
1040
7.937
1040
0.7850000000000001
1002
}
  0
DIMENSION
  5
1343
330
144F
100
AcDbEntity
  8
5
100
AcDbDimension
  2
*D12
 10
333.661697
 20
338.9430910000001
 30
0.0
 11
333.661697
 21
377.805528
 31
0.0
 12
-25.377303
 22
-720.7219089999999
 32
0.0
 70
   160
  1
5
 71
     5
 42
-1.0
  3
GEN-ISO
100
AcDbAlignedDimension
 13
300.969697
 23
333.943091
 33
0.0
 14
333.661697
 24
338.9430910000001
 34
0.0
 50
90.0
100
AcDbRotatedDimension
1001
ACAD
1000
DSTYLE
1002
{
1070
    40
1040
5.0
1002
}
  0
DIMENSION
  5
134E
330
144F
100
AcDbEntity
  8
5
100
AcDbDimension
  2
*D9
 10
522.382697
 20
407.685091
 30
0.0
 11
414.940697
 21
407.685091
 31
0.0
 12
-25.377303
 22
-720.7219089999999
 32
0.0
 70
   160
  1
%%c 228
 71
     5
 42
-1.0
  3
GEN-ISO
100
AcDbAlignedDimension
 13
294.382697
 23
338.9430910000001
 33
0.0
 14
522.382697
 24
338.9430910000001
 34
0.0
100
AcDbRotatedDimension
1001
ACAD
1000
DSTYLE
1002
{
1070
    40
1040
5.0
1002
}
  0
POLYLINE
  5
134F
330
144F
100
AcDbEntity
  8
SCHRAFFUR_RAND
100
AcDb2dPolyline
 66
     1
 10
0.0
 20
0.0
 30
0.0
 70
     1
  0
VERTEX
  5
1350
330
134F
100
AcDbEntity
  8
SCHRAFFUR_RAND
100
AcDbVertex
100
AcDb2dVertex
 10
583.382697
 20
346.943091
 30
0.0
  0
VERTEX
  5
1351
330
134F
100
AcDbEntity
  8
SCHRAFFUR_RAND
100
AcDbVertex
100
AcDb2dVertex
 10
525.882697
 20
346.943091
 30
0.0
  0
VERTEX
  5
1352
330
134F
100
AcDbEntity
  8
SCHRAFFUR_RAND
100
AcDbVertex
100
AcDb2dVertex
 10
525.882697
 20
341.443091
 30
0.0
  0
VERTEX
  5
1353
330
134F
100
AcDbEntity
  8
SCHRAFFUR_RAND
100
AcDbVertex
100
AcDb2dVertex
 10
526.041697
 20
340.473091
 30
0.0
  0
VERTEX
  5
1354
330
134F
100
AcDbEntity
  8
SCHRAFFUR_RAND
100
AcDbVertex
100
AcDb2dVertex
 10
526.5906969999999
 20
339.652091
 30
0.0
  0
VERTEX
  5
1355
330
134F
100
AcDbEntity
  8
SCHRAFFUR_RAND
100
AcDbVertex
100
AcDb2dVertex
 10
527.412697
 20
339.102091
 30
0.0
  0
VERTEX
  5
1356
330
134F
100
AcDbEntity
  8
SCHRAFFUR_RAND
100
AcDbVertex
100
AcDb2dVertex
 10
528.3826969999999
 20
338.9430910000001
 30
0.0
  0
VERTEX
  5
1357
330
134F
100
AcDbEntity
  8
SCHRAFFUR_RAND
100
AcDbVertex
100
AcDb2dVertex
 10
580.882697
 20
338.9430910000001
 30
0.0
  0
VERTEX
  5
1358
330
134F
100
AcDbEntity
  8
SCHRAFFUR_RAND
100
AcDbVertex
100
AcDb2dVertex
 10
581.8516969999999
 20
339.102091
 30
0.0
  0
VERTEX
  5
1359
330
134F
100
AcDbEntity
  8
SCHRAFFUR_RAND
100
AcDbVertex
100
AcDb2dVertex
 10
582.6736969999999
 20
339.652091
 30
0.0
  0
VERTEX
  5
135A
330
134F
100
AcDbEntity
  8
SCHRAFFUR_RAND
100
AcDbVertex
100
AcDb2dVertex
 10
583.2226969999999
 20
340.473091
 30
0.0
  0
VERTEX
  5
135B
330
134F
100
AcDbEntity
  8
SCHRAFFUR_RAND
100
AcDbVertex
100
AcDb2dVertex
 10
583.382697
 20
341.443091
 30
0.0
  0
VERTEX
  5
135C
330
134F
100
AcDbEntity
  8
SCHRAFFUR_RAND
100
AcDbVertex
100
AcDb2dVertex
 10
583.382697
 20
346.943091
 30
0.0
  0
SEQEND
  5
135D
330
134F
100
AcDbEntity
  8
SCHRAFFUR_RAND
  0
INSERT
  5
136E
330
144F
100
AcDbEntity
  8
8
100
AcDbBlockReference
  2
*X7
 10
-25.377303
 20
-720.7219089999999
 30
0.0
1001
ACAD
1000
HATCH
1002
{
1070
    19
1000
ANSI31,_I
1040
3.174999999999999
1040
0.7850000000000001
1002
}
  0
POLYLINE
  5
136F
330
144F
100
AcDbEntity
  8
SCHRAFFUR_RAND
100
AcDb2dPolyline
 66
     1
 10
0.0
 20
0.0
 30
0.0
 70
     1
  0
VERTEX
  5
1370
330
136F
100
AcDbEntity
  8
SCHRAFFUR_RAND
100
AcDbVertex
100
AcDb2dVertex
 10
288.382697
 20
338.9430910000001
 30
0.0
  0
VERTEX
  5
1371
330
136F
100
AcDbEntity
  8
SCHRAFFUR_RAND
100
AcDbVertex
100
AcDb2dVertex
 10
289.352697
 20
339.099091
 30
0.0
  0
VERTEX
  5
1372
330
136F
100
AcDbEntity
  8
SCHRAFFUR_RAND
100
AcDbVertex
100
AcDb2dVertex
 10
290.175697
 20
339.649091
 30
0.0
  0
VERTEX
  5
1373
330
136F
100
AcDbEntity
  8
SCHRAFFUR_RAND
100
AcDbVertex
100
AcDb2dVertex
 10
290.725697
 20
340.472091
 30
0.0
  0
VERTEX
  5
1374
330
136F
100
AcDbEntity
  8
SCHRAFFUR_RAND
100
AcDbVertex
100
AcDb2dVertex
 10
290.882697
 20
341.443091
 30
0.0
  0
VERTEX
  5
1375
330
136F
100
AcDbEntity
  8
SCHRAFFUR_RAND
100
AcDbVertex
100
AcDb2dVertex
 10
290.882697
 20
346.943091
 30
0.0
  0
VERTEX
  5
1376
330
136F
100
AcDbEntity
  8
SCHRAFFUR_RAND
100
AcDbVertex
100
AcDb2dVertex
 10
233.381697
 20
346.943091
 30
0.0
  0
VERTEX
  5
1377
330
136F
100
AcDbEntity
  8
SCHRAFFUR_RAND
100
AcDbVertex
100
AcDb2dVertex
 10
233.381697
 20
341.443091
 30
0.0
  0
VERTEX
  5
1378
330
136F
100
AcDbEntity
  8
SCHRAFFUR_RAND
100
AcDbVertex
100
AcDb2dVertex
 10
233.538697
 20
340.472091
 30
0.0
  0
VERTEX
  5
1379
330
136F
100
AcDbEntity
  8
SCHRAFFUR_RAND
100
AcDbVertex
100
AcDb2dVertex
 10
234.088697
 20
339.649091
 30
0.0
  0
VERTEX
  5
137A
330
136F
100
AcDbEntity
  8
SCHRAFFUR_RAND
100
AcDbVertex
100
AcDb2dVertex
 10
234.911697
 20
339.099091
 30
0.0
  0
VERTEX
  5
137B
330
136F
100
AcDbEntity
  8
SCHRAFFUR_RAND
100
AcDbVertex
100
AcDb2dVertex
 10
235.881697
 20
338.9430910000001
 30
0.0
  0
VERTEX
  5
137C
330
136F
100
AcDbEntity
  8
SCHRAFFUR_RAND
100
AcDbVertex
100
AcDb2dVertex
 10
288.382697
 20
338.9430910000001
 30
0.0
  0
SEQEND
  5
137D
330
136F
100
AcDbEntity
  8
SCHRAFFUR_RAND
  0
INSERT
  5
138E
330
144F
100
AcDbEntity
  8
8
100
AcDbBlockReference
  2
*X8
 10
-25.377303
 20
-720.7219089999999
 30
0.0
1001
ACAD
1000
HATCH
1002
{
1070
    19
1000
ANSI31,_I
1040
3.174999999999999
1040
0.7850000000000001
1002
}
  0
INSERT
  5
15FA
330
144F
100
AcDbEntity
  8
0
100
AcDbBlockReference
  2
KATALOG_LEER
 10
251.839706
 20
11.304483
 30
0.0
 41
5.0
 42
5.0
 43
5.0
1001
GENIUS_GENOREF_13
1005
15FB
  0
POINT
  5
15FB
330
144F
100
AcDbEntity
  8
0
 60
     1
100
AcDbPoint
 10
0.0
 20
0.0
 30
0.0
1001
GENIUS_GENOBJ-N-TIT_13
1002
{
1000
OWNER
1000
GEN
1002
}
1001
GENIUS_GENOENT_13
1002
{
1000
MYREF
1005
15FB
1002
}
1002
{
1000
GRP
1005
0
1002
}
1001
GENIUS_GENOLIS_13
1002
{
1000
ENT
1005
15FA
1002
}
1001
GENIUS_GENTITLE_13
1002
{
1000
SCALE
1000
1:5
1002
}
1002
{
1000
BORDER
1000
KATALOG
1002
}
1002
{
1000
TITLE
1000
KATALOG_LEER
1002
}
1002
{
1000
UNCHG
1002
{
1000
GEN-TITLE-SCA
1000
GEN-TITLE-SIZ
1002
}
1002
}
1002
{
1000
HRA
1005
15F3
1002
}
1002
{
1000
HTIT
1005
15FA
1002
}
1002
{
1000
GENIUSID
1005
15FB
1002
}
1001
GENIUS_GENODEF_13
1002
{
1000
HIER
1070
     1
1002
}
1002
{
1000
MANEDIT
1070
     1
1002
}
1002
{
1000
NOSEL
1070
     0
1002
}
1002
{
1000
BEHIND
1070
     0
1002
}
1002
{
1000
REACTOR
1002
}
  0
LINE
  5
1631
330
144F
100
AcDbEntity
  8
5
100
AcDbLine
 10
545.360084
 20
360.980283
 30
0.0
 11
611.061513
 21
406.1470879999999
 31
0.0
  0
LINE
  5
1632
330
144F
100
AcDbEntity
  8
5
100
AcDbLine
 10
688.036912
 20
462.91529
 30
0.0
 11
700.1272909999999
 21
462.91529
 31
0.0
  0
LINE
  5
1633
330
144F
100
AcDbEntity
  8
5
100
AcDbLine
 10
685.1854089999999
 20
467.469174
 30
0.0
 11
702.978794
 21
467.469174
 31
0.0
  0
LINE
  5
1634
330
144F
100
AcDbEntity
  8
5
100
AcDbLine
 10
690.774355
 20
458.5435599999999
 30
0.0
 11
697.389848
 21
458.5435599999999
 31
0.0
  0
LINE
  5
1635
330
144F
100
AcDbEntity
  8
5
100
AcDbLine
 10
694.0821019999999
 20
467.469174
 30
0.0
 11
694.0821019999999
 21
476.030479
 31
0.0
  0
LINE
  5
1636
330
144F
100
AcDbEntity
  8
5
100
AcDbLine
 10
633.4975759999999
 20
421.5708809999999
 30
0.0
 11
684.6612219999999
 21
456.743608
 31
0.0
  0
LINE
  5
16C9
330
144F
100
AcDbEntity
  8
0
100
AcDbLine
 10
534.382697
 20
302.943091
 30
0.0
 11
534.382697
 21
205.943091
 31
0.0
  0
ENDSEC
  0
SECTION
  2
OBJECTS
  0
DICTIONARY
  5
1443
330
0
100
AcDbDictionary
281
     1
  3
ACAD_COLOR
350
16DA
  3
ACAD_GROUP
350
1444
  3
ACAD_LAYOUT
350
16DD
  3
ACAD_MATERIAL
350
16D9
  3
ACAD_MLINESTYLE
350
1452
  3
ACAD_PLOTSETTINGS
350
16DE
  3
ACAD_PLOTSTYLENAME
350
16D7
  3
ACAD_TABLESTYLE
350
16DB
  3
ACDBHEADERROUNDTRIPXREC
350
17B6
  3
AcDbVariableDictionary
350
17B1
  3
AcmDictionary
350
173C
  3
AMG
350
16E2
  3
AMGSNAPSETTINGS
350
17A9
  0
DICTIONARY
  5
16DA
102
{ACAD_REACTORS
330
1443
102
}
330
1443
100
AcDbDictionary
281
     1
  0
DICTIONARY
  5
1444
102
{ACAD_REACTORS
330
1443
102
}
330
1443
100
AcDbDictionary
281
     1
  0
DICTIONARY
  5
16DD
102
{ACAD_REACTORS
330
1443
102
}
330
1443
100
AcDbDictionary
281
     1
  3
Layout1
350
16E0
  3
Model
350
16DF
  0
DICTIONARY
  5
16D9
102
{ACAD_REACTORS
330
1443
102
}
330
1443
100
AcDbDictionary
281
     1
  0
DICTIONARY
  5
1452
102
{ACAD_REACTORS
330
1443
102
}
330
1443
100
AcDbDictionary
281
     1
  3
STANDARD
350
1453
  0
DICTIONARY
  5
16DE
102
{ACAD_REACTORS
330
1443
102
}
330
1443
100
AcDbDictionary
281
     1
  0
ACDBDICTIONARYWDFLT
  5
16D7
102
{ACAD_REACTORS
330
1443
102
}
330
1443
100
AcDbDictionary
281
     1
  3
Normal
350
16D8
100
AcDbDictionaryWithDefault
340
16D8
  0
DICTIONARY
  5
16DB
102
{ACAD_REACTORS
330
1443
102
}
330
1443
100
AcDbDictionary
281
     1
  3
Standard
350
16DC
  0
DICTIONARY
  5
17B6
102
{ACAD_REACTORS
330
1443
102
}
330
1443
100
AcDbDictionary
281
     1
  0
DICTIONARY
  5
17B1
102
{ACAD_REACTORS
330
1443
102
}
330
1443
100
AcDbDictionary
281
     1
  3
CTABLESTYLE
350
17B2
  3
DIMASSOC
350
17B3
  3
PROJECTNAME
350
17B4
  0
DICTIONARY
  5
173C
102
{ACAD_REACTORS
330
1443
102
}
330
1443
100
AcDbDictionary
281
     1
  3
AcmStdDictionary
350
1747
  3
AMDTSECTSYM_ARROWCOLOR
350
176A
  0
DICTIONARY
  5
16E2
102
{ACAD_REACTORS
330
1443
102
}
330
1443
100
AcDbDictionary
281
     1
  0
DICTIONARY
  5
17A9
102
{ACAD_REACTORS
330
1443
102
}
330
1443
100
AcDbDictionary
281
     1
  0
LAYOUT
  5
16E0
102
{ACAD_XDICTIONARY
360
17B9
102
}
102
{ACAD_REACTORS
330
16DD
102
}
330
16DD
100
AcDbPlotSettings
  1

  2
Xerox Document Centre CS50 PS
  4

  6

 40
0.0
 41
0.0
 42
0.0
 43
0.0
 44
0.0
 45
0.0
 46
0.0
 47
0.0
 48
0.0
 49
0.0
140
0.0
141
0.0
142
1.0
143
1.0
 70
   688
 72
     0
 73
     0
 74
     5
  7

 75
    16
147
1.0
148
0.0
149
0.0
100
AcDbLayout
  1
Layout1
 70
     1
 71
     1
 10
0.0
 20
0.0
 11
210.001
 21
297.001
 12
0.0
 22
0.0
 32
0.0
 14
0.0
 24
0.0
 34
0.0
 15
210.001
 25
297.001
 35
0.0
146
0.0
 13
0.0
 23
0.0
 33
0.0
 16
1.0
 26
0.0
 36
0.0
 17
0.0
 27
1.0
 37
0.0
 76
     0
330
144C
  0
LAYOUT
  5
16DF
102
{ACAD_XDICTIONARY
360
17B7
102
}
102
{ACAD_REACTORS
330
16DD
102
}
330
16DD
100
AcDbPlotSettings
  1

  2
Xerox Document Centre CS50 PS
  4

  6

 40
0.0
 41
0.0
 42
0.0
 43
0.0
 44
0.0
 45
0.0
 46
0.0
 47
0.0
 48
0.0
 49
0.0
140
0.0
141
0.0
142
1.0
143
1.0
 70
  1712
 72
     0
 73
     0
 74
     0
  7

 75
     0
147
1.0
148
0.0
149
0.0
100
AcDbLayout
  1
Model
 70
     1
 71
     0
 10
0.0
 20
0.0
 11
12.0
 21
9.0
 12
0.0
 22
0.0
 32
0.0
 14
0.0
 24
0.0
 34
0.0
 15
0.0
 25
0.0
 35
0.0
146
0.0
 13
0.0
 23
0.0
 33
0.0
 16
1.0
 26
0.0
 36
0.0
 17
0.0
 27
1.0
 37
0.0
 76
     0
330
144F
  0
MLINESTYLE
  5
1453
102
{ACAD_REACTORS
330
1452
102
}
330
1452
100
AcDbMlineStyle
  2
STANDARD
 70
     0
  3

 62
   256
 51
90.0
 52
90.0
 71
     2
 49
0.5
 62
   256
  6
BYLAYER
 49
-0.5
 62
   256
  6
BYLAYER
  0
ACDBPLACEHOLDER
  5
16D8
102
{ACAD_REACTORS
330
16D7
102
}
330
16D7
  0
TABLESTYLE
  5
16DC
102
{ACAD_REACTORS
330
16DB
102
}
330
16DB
100
AcDbTableStyle
  3
Standard
 70
     0
 71
     0
 40
1.5
 41
1.5
280
     0
281
     0
  7
STANDARD
140
4.5
170
     2
 62
     0
 63
     7
283
     0
274
    -2
284
     1
 64
     0
275
    -2
285
     1
 65
     0
276
    -2
286
     1
 66
     0
277
    -2
287
     1
 67
     0
278
    -2
288
     1
 68
     0
279
    -2
289
     1
 69
     0
  7
STANDARD
140
6.0
170
     5
 62
     0
 63
     7
283
     0
274
    -2
284
     1
 64
     0
275
    -2
285
     1
 65
     0
276
    -2
286
     1
 66
     0
277
    -2
287
     1
 67
     0
278
    -2
288
     1
 68
     0
279
    -2
289
     1
 69
     0
  7
STANDARD
140
4.5
170
     5
 62
     0
 63
     7
283
     0
274
    -2
284
     1
 64
     0
275
    -2
285
     1
 65
     0
276
    -2
286
     1
 66
     0
277
    -2
287
     1
 67
     0
278
    -2
288
     1
 68
     0
279
    -2
289
     1
 69
     0
  0
DICTIONARYVAR
  5
17B2
102
{ACAD_REACTORS
330
17B1
102
}
330
17B1
100
DictionaryVariables
280
     0
  1
STANDARD
  0
DICTIONARYVAR
  5
17B3
102
{ACAD_REACTORS
330
17B1
102
}
330
17B1
100
DictionaryVariables
280
     0
  1
1
  0
DICTIONARYVAR
  5
17B4
102
{ACAD_REACTORS
330
17B1
102
}
330
17B1
100
DictionaryVariables
280
     0
  1

  0
DICTIONARY
  5
1747
102
{ACAD_REACTORS
330
173C
102
}
330
173C
100
AcDbDictionary
281
     1
  0
XRECORD
  5
176A
102
{ACAD_REACTORS
330
173C
102
}
330
173C
100
AcDbXrecord
280
     1
 90
-1023410169
  0
DICTIONARY
  5
17B9
330
16E0
100
AcDbDictionary
280
     1
281
     1
  3
ACAD_XREC_ROUNDTRIP
360
17BA
  0
DICTIONARY
  5
17B7
330
16DF
100
AcDbDictionary
280
     1
281
     1
  3
ACAD_XREC_ROUNDTRIP
360
17B8
  0
XRECORD
  5
17BA
102
{ACAD_REACTORS
330
17B9
102
}
330
17B9
100
AcDbXrecord
280
     1
102
SHADEPLOT
 70
     0
102
SHADEPLOTRESLEVEL
 70
     2
102
SHADEPLOTCUSTOMDPI
 70
   300
  0
XRECORD
  5
17B8
102
{ACAD_REACTORS
330
17B7
102
}
330
17B7
100
AcDbXrecord
280
     1
102
SHADEPLOT
 70
     0
102
SHADEPLOTRESLEVEL
 70
     2
102
SHADEPLOTCUSTOMDPI
 70
   300
  0
ENDSEC
  0
EOF
