  0
SECTION
  2
HEADER
  9
$ACADVER
  1
AC1015
  9
$ACADMAINTVER
 70
    20
  9
$DWGCODEPAGE
  3
ANSI_1252
  9
$INSBASE
 10
0.0
 20
0.0
 30
0.0
  9
$EXTMIN
 10
159.1438319756926
 20
160.4255702584346
 30
-0.0015258207003583
  9
$EXTMAX
 10
688.9022847391925
 20
557.2837848301087
 30
0.0000000349246037
  9
$LIMMIN
 10
0.0
 20
0.0
  9
$LIMMAX
 10
1050.0
 20
1050.0
  9
$ORTHOMODE
 70
     0
  9
$REGENMODE
 70
     1
  9
$FILLMODE
 70
     1
  9
$QTEXTMODE
 70
     0
  9
$MIRRTEXT
 70
     0
  9
$LTSCALE
 40
5.0
  9
$ATTMODE
 70
     1
  9
$TEXTSIZE
 40
20.836
  9
$TRACEWID
 40
0.05
  9
$TEXTSTYLE
  7
STANDARD
  9
$CLAYER
  8
0
  9
$CELTYPE
  6
BYLAYER
  9
$CECOLOR
 62
   256
  9
$CELTSCALE
 40
1.0
  9
$DISPSILH
 70
     0
  9
$DIMSCALE
 40
5.0
  9
$DIMASZ
 40
2.5
  9
$DIMEXO
 40
1.0
  9
$DIMDLI
 40
7.0
  9
$DIMRND
 40
0.0
  9
$DIMDLE
 40
0.0
  9
$DIMEXE
 40
1.0
  9
$DIMTP
 40
0.1
  9
$DIMTM
 40
0.1
  9
$DIMTXT
 40
3.5
  9
$DIMCEN
 40
0.0
  9
$DIMTSZ
 40
0.0
  9
$DIMTOL
 70
     0
  9
$DIMLIM
 70
     0
  9
$DIMTIH
 70
     0
  9
$DIMTOH
 70
     0
  9
$DIMSE1
 70
     0
  9
$DIMSE2
 70
     0
  9
$DIMTAD
 70
     1
  9
$DIMZIN
 70
    12
  9
$DIMBLK
  1

  9
$DIMASO
 70
     1
  9
$DIMSHO
 70
     1
  9
$DIMPOST
  1

  9
$DIMAPOST
  1
"
  9
$DIMALT
 70
     0
  9
$DIMALTD
 70
     2
  9
$DIMALTF
 40
0.03937
  9
$DIMLFAC
 40
1.0
  9
$DIMTOFL
 70
     1
  9
$DIMTVP
 40
0.0
  9
$DIMTIX
 70
     0
  9
$DIMSOXD
 70
     0
  9
$DIMSAH
 70
     0
  9
$DIMBLK1
  1

  9
$DIMBLK2
  1

  9
$DIMSTYLE
  2
GEN-ISO
  9
$DIMCLRD
 70
   256
  9
$DIMCLRE
 70
   256
  9
$DIMCLRT
 70
     2
  9
$DIMTFAC
 40
0.71
  9
$DIMGAP
 40
0.6
  9
$DIMJUST
 70
     0
  9
$DIMSD1
 70
     0
  9
$DIMSD2
 70
     0
  9
$DIMTOLJ
 70
     0
  9
$DIMTZIN
 70
     0
  9
$DIMALTZ
 70
     0
  9
$DIMALTTZ
 70
     0
  9
$DIMUPT
 70
     0
  9
$DIMDEC
 70
     2
  9
$DIMTDEC
 70
     3
  9
$DIMALTU
 70
     2
  9
$DIMALTTD
 70
     4
  9
$DIMTXSTY
  7
STANDARD
  9
$DIMAUNIT
 70
     0
  9
$DIMADEC
 70
     0
  9
$DIMALTRND
 40
0.0
  9
$DIMAZIN
 70
     0
  9
$DIMDSEP
 70
    46
  9
$DIMATFIT
 70
     3
  9
$DIMFRAC
 70
     0
  9
$DIMLDRBLK
  1

  9
$DIMLUNIT
 70
     2
  9
$DIMLWD
 70
    -2
  9
$DIMLWE
 70
    -2
  9
$DIMTMOVE
 70
     0
  9
$LUNITS
 70
     2
  9
$LUPREC
 70
     2
  9
$SKETCHINC
 40
0.1
  9
$FILLETRAD
 40
12.5
  9
$AUNITS
 70
     0
  9
$AUPREC
 70
     2
  9
$MENU
  1
.
  9
$ELEVATION
 40
0.0
  9
$PELEVATION
 40
0.0
  9
$THICKNESS
 40
0.0
  9
$LIMCHECK
 70
     0
  9
$CHAMFERA
 40
12.5
  9
$CHAMFERB
 40
12.5
  9
$CHAMFERC
 40
0.0
  9
$CHAMFERD
 40
0.0
  9
$SKPOLY
 70
     0
  9
$TDCREATE
 40
2451226.615339537
  9
$TDUCREATE
 40
2451226.573672870
  9
$TDUPDATE
 40
2454038.544969653
  9
$TDUUPDATE
 40
2454038.503302987
  9
$TDINDWG
 40
0.0191014236
  9
$TDUSRTIMER
 40
0.0191014236
  9
$USRTIMER
 70
     1
  9
$ANGBASE
 50
0.0
  9
$ANGDIR
 70
     0
  9
$PDMODE
 70
     0
  9
$PDSIZE
 40
0.0
  9
$PLINEWID
 40
0.0
  9
$SPLFRAME
 70
     0
  9
$SPLINETYPE
 70
     6
  9
$SPLINESEGS
 70
     8
  9
$HANDSEED
  5
18C3
  9
$SURFTAB1
 70
     6
  9
$SURFTAB2
 70
     6
  9
$SURFTYPE
 70
     6
  9
$SURFU
 70
     6
  9
$SURFV
 70
     6
  9
$UCSBASE
  2

  9
$UCSNAME
  2

  9
$UCSORG
 10
0.0
 20
0.0
 30
0.0
  9
$UCSXDIR
 10
1.0
 20
0.0
 30
0.0
  9
$UCSYDIR
 10
0.0
 20
1.0
 30
0.0
  9
$UCSORTHOREF
  2

  9
$UCSORTHOVIEW
 70
     0
  9
$UCSORGTOP
 10
0.0
 20
0.0
 30
0.0
  9
$UCSORGBOTTOM
 10
0.0
 20
0.0
 30
0.0
  9
$UCSORGLEFT
 10
0.0
 20
0.0
 30
0.0
  9
$UCSORGRIGHT
 10
0.0
 20
0.0
 30
0.0
  9
$UCSORGFRONT
 10
0.0
 20
0.0
 30
0.0
  9
$UCSORGBACK
 10
0.0
 20
0.0
 30
0.0
  9
$PUCSBASE
  2

  9
$PUCSNAME
  2

  9
$PUCSORG
 10
0.0
 20
0.0
 30
0.0
  9
$PUCSXDIR
 10
1.0
 20
0.0
 30
0.0
  9
$PUCSYDIR
 10
0.0
 20
1.0
 30
0.0
  9
$PUCSORTHOREF
  2

  9
$PUCSORTHOVIEW
 70
     0
  9
$PUCSORGTOP
 10
0.0
 20
0.0
 30
0.0
  9
$PUCSORGBOTTOM
 10
0.0
 20
0.0
 30
0.0
  9
$PUCSORGLEFT
 10
0.0
 20
0.0
 30
0.0
  9
$PUCSORGRIGHT
 10
0.0
 20
0.0
 30
0.0
  9
$PUCSORGFRONT
 10
0.0
 20
0.0
 30
0.0
  9
$PUCSORGBACK
 10
0.0
 20
0.0
 30
0.0
  9
$USERI1
 70
     0
  9
$USERI2
 70
     0
  9
$USERI3
 70
     0
  9
$USERI4
 70
     0
  9
$USERI5
 70
     0
  9
$USERR1
 40
0.0
  9
$USERR2
 40
0.0
  9
$USERR3
 40
0.0
  9
$USERR4
 40
0.0
  9
$USERR5
 40
0.0
  9
$WORLDVIEW
 70
     1
  9
$SHADEDGE
 70
     3
  9
$SHADEDIF
 70
    70
  9
$TILEMODE
 70
     1
  9
$MAXACTVP
 70
    48
  9
$PINSBASE
 10
0.0
 20
0.0
 30
0.0
  9
$PLIMCHECK
 70
     0
  9
$PEXTMIN
 10
0.0
 20
0.0
 30
0.0
  9
$PEXTMAX
 10
210.001
 20
297.001
 30
0.0
  9
$PLIMMIN
 10
0.0
 20
0.0
  9
$PLIMMAX
 10
210.001
 20
297.001
  9
$UNITMODE
 70
     0
  9
$VISRETAIN
 70
     1
  9
$PLINEGEN
 70
     1
  9
$PSLTSCALE
 70
     1
  9
$TREEDEPTH
 70
 -3020
  9
$CMLSTYLE
  2
STANDARD
  9
$CMLJUST
 70
     0
  9
$CMLSCALE
 40
1.0
  9
$PROXYGRAPHICS
 70
     1
  9
$MEASUREMENT
 70
     1
  9
$CELWEIGHT
370
    -1
  9
$ENDCAPS
280
     0
  9
$JOINSTYLE
280
     0
  9
$LWDISPLAY
290
     0
  9
$INSUNITS
 70
     0
  9
$HYPERLINKBASE
  1

  9
$STYLESHEET
  1

  9
$XEDIT
290
     1
  9
$CEPSNTYPE
380
     0
  9
$PSTYLEMODE
290
     1
  9
$FINGERPRINTGUID
  2
{E859FF06-4805-4004-8E6F-27F2230175D6}
  9
$VERSIONGUID
  2
{8DC7A1D4-1E10-4AAA-8852-F3C7F921D6CA}
  9
$EXTNAMES
290
     1
  9
$PSVPSCALE
 40
0.0
  9
$OLESTARTUP
290
     0
  0
ENDSEC
  0
SECTION
  2
CLASSES
  0
CLASS
  1
ACDBDICTIONARYWDFLT
  2
AcDbDictionaryWithDefault
  3
ObjectDBX Classes
 90
        0
280
     0
281
     0
  0
CLASS
  1
TABLESTYLE
  2
AcDbTableStyle
  3
ObjectDBX Classes
 90
     2047
280
     0
281
     0
  0
CLASS
  1
AMGSETTINGSOBJ
  2
AmgSettingsObj
  3
"AcadM|Product Description: AutoCAD Mechanical 2000|Company: Autodesk"
 90
        0
280
     0
281
     0
  0
CLASS
  1
ACME_DOCUMENT
  2
AcMeDbDoc
  3
AcMeServices
 90
        0
280
     0
281
     0
  0
CLASS
  1
ACMESCOPE
  2
AcMeScope
  3
AcMeServices
 90
        0
280
     0
281
     0
  0
CLASS
  1
ACMECOMMANDHISTORY
  2
AcMeCommandHistory
  3
AcMeServices
 90
        0
280
     0
281
     0
  0
CLASS
  1
ACIMSYSVARMAN
  2
AcImSysVarManager
  3
AcMeServices
 90
        0
280
     0
281
     0
  0
CLASS
  1
ACIMINTSYSVAR
  2
AcImIntSysVar
  3
AcMeServices
 90
        0
280
     0
281
     0
  0
CLASS
  1
ACMEDRAWINGMAN
  2
AcMeDrawingMan
  3
AcMeServices
 90
        0
280
     0
281
     0
  0
CLASS
  1
ACMEVIEW
  2
AcMeView
  3
AcMeServices
 90
        0
280
     0
281
     0
  0
CLASS
  1
ACDBENTITYCACHE
  2
AcMeEntityCache
  3
AcMeServices
 90
        0
280
     0
281
     0
  0
CLASS
  1
GSMANAGER
  2
AcMeGSManager
  3
AcMeServices
 90
        0
280
     0
281
     0
  0
CLASS
  1
AMDTINTERNALREACTOR
  2
AmdtInternalReactor
  3
AcMeServices
 90
        0
280
     0
281
     0
  0
CLASS
  1
ACMESTATEMGR
  2
AcMeStateMgr
  3
AcMeServices
 90
        0
280
     0
281
     0
  0
CLASS
  1
ACGREFMASTER
  2
AcGrefMaster
  3
AcAttribServices
 90
        0
280
     0
281
     0
  0
CLASS
  1
AM_DRAWING_MGR
  2
AcDmDwgMgr
  3
AcMechDwgViewMgmt
 90
        0
280
     0
281
     0
  0
CLASS
  1
AM_DWG_DOCUMENT
  2
AcDmDwgDocument
  3
AcMechDwgViewMgmt
 90
        0
280
     0
281
     0
  0
CLASS
  1
AM_DWG_SHEET
  2
AcDmSheet
  3
AcMechDwgViewMgmt
 90
        0
280
     0
281
     0
  0
CLASS
  1
AM_VIEWDIMPARMAP
  2
AcDmViewDimParMap
  3
AcMechDwgViewMgmt
 90
        0
280
     0
281
     0
  0
CLASS
  1
ACIMREALSYSVAR
  2
AcImRealSysVar
  3
AcMeServices
 90
        0
280
     0
281
     0
  0
CLASS
  1
AM_DWGMGR_NAME
  2
AcDmDwgMgrName
  3
AcMechDwgViewMgmt
 90
        0
280
     0
281
     0
  0
CLASS
  1
ACME_DATABASE
  2
AcMeDbDatabase
  3
AcMeServices
 90
        0
280
     0
281
     0
  0
CLASS
  1
ACRFINSADJUSTERMGR
  2
AcRfInsAdjusterMgr
  3
AcMeServices
 90
        0
280
     0
281
     0
  0
CLASS
  1
ACGREFACADMASTER
  2
AcGrefacadMaster
  3
AcGrefServices
 90
        0
280
     0
281
     0
  0
CLASS
  1
AMDTMENUSTATEMGR
  2
AmdtMenuStateMgr
  3
McadcomServices
 90
        0
280
     0
281
     0
  0
CLASS
  1
AMDTMCOMMENUSTATE
  2
AmdtMcomMenuState
  3
McadcomServices
 90
        0
280
     0
281
     0
  0
CLASS
  1
AMIMASTER
  2
AmiMaster
  3
AmiServices
 90
        0
280
     0
281
     0
  0
CLASS
  1
MAPIAMMOUDLE
  2
MApiAmModule
  3
MApiAmServices
 90
        0
280
     0
281
     0
  0
CLASS
  1
ACIMSTRSYSVAR
  2
AcImStrSysVar
  3
AcMeServices
 90
        0
280
     0
281
     0
  0
CLASS
  1
AMDTADMENUSTATE
  2
AmdtAdMenuState
  3
DesignerServices
 90
        0
280
     0
281
     0
  0
CLASS
  1
ADAPPL
  2
AcAdAppl
  3
DesignerServices
 90
        0
280
     0
281
     0
  0
CLASS
  1
DEPMGR
  2
AcAdDepMgr
  3
DesignerServices
 90
        0
280
     0
281
     0
  0
CLASS
  1
PARAMMGR
  2
AcAdParamMgr
  3
DesignerServices
 90
        0
280
     0
281
     0
  0
CLASS
  1
PARAMSCOPE
  2
AcAdParamScope
  3
DesignerServices
 90
        0
280
     0
281
     0
  0
CLASS
  1
NAMEDAPPL
  2
AcAdNamedAppl
  3
DesignerServices
 90
        0
280
     0
281
     0
  0
CLASS
  1
AMDTDMMENUSTATE
  2
AmdtDmMenuState
  3
AcMechDwgViewMgmt
 90
        0
280
     0
281
     0
  0
CLASS
  1
AMDTAMMENUSTATE
  2
AmdtAmMenuState
  3
DesignerAssemblies
 90
        0
280
     0
281
     0
  0
CLASS
  1
ACAMPROJECT
  2
AcAmProject
  3
DesignerAssemblies
 90
        0
280
     0
281
     0
  0
CLASS
  1
ACAMGRCOMPDEF
  2
AcAmGrCompDef
  3
DesignerAssemblies
 90
        0
280
     0
281
     0
  0
CLASS
  1
ACCMCONTEXT
  2
AcCmContext
  3
DesignerAssemblies
 90
        0
280
     0
281
     0
  0
CLASS
  1
ACAMCOMPDEF
  2
AcAmCompDef
  3
DesignerAssemblies
 90
        0
280
     0
281
     0
  0
CLASS
  1
ACAMCOMPDEFMGR
  2
AcAmCompDefMgr
  3
DesignerAssemblies
 90
        0
280
     0
281
     0
  0
CLASS
  1
AMCONTEXTMGR
  2
AcAmContextMgr
  3
DesignerAssemblies
 90
        0
280
     0
281
     0
  0
CLASS
  1
ACAMCONTEXTMODELER
  2
AcAmContextModeler
  3
DesignerAssemblies
 90
        0
280
     0
281
     0
  0
CLASS
  1
ACMDATADICTIONARY
  2
AcmDataDictionary
  3
"AcmSymBB|Product Description: AutoCAD Mechanical 2004 DX|Company: Autodesk"
 90
        0
280
     0
281
     0
  0
CLASS
  1
CATALOGSTATE
  2
AcAmCatalogState
  3
DesignerAssemblies
 90
        0
280
     0
281
     0
  0
CLASS
  1
ACAMGRCOMPDEFSET
  2
AcAmGrCompDefSet
  3
DesignerAssemblies
 90
        0
280
     0
281
     0
  0
CLASS
  1
AMDTBROWSERDBTAB
  2
AmdtBrowserDbTab
  3
McadcomServices
 90
        0
280
     0
281
     0
  0
CLASS
  1
CBROWSERAPPOBJECT
  2
CBrowserAppObject
  3
McadcomServices
 90
        0
280
     0
281
     0
  0
CLASS
  1
DM_PLACEHOLDER
  2
AcDmSelsetPlaceholder
  3
AcMechDwgViewMgmt
 90
        0
280
     0
281
     0
  0
CLASS
  1
ACMSTANDARDDIN
  2
AcmStandardDIN
  3
"Amdt_StdImp|Product Description: AutoCAD Mechanical 2004 DX|Company: Autodesk"
 90
        0
280
     0
281
     0
  0
CLASS
  1
AMGOBJPROPCFG
  2
AmgObjPropCfg
  3
"AmgLay|Product Description: AutoCAD Mechanical 2000|Company: Autodesk"
 90
        1
280
     0
281
     0
  0
CLASS
  1
AMDTEDGESTANDARDDIN13715
  2
AmdtEdgeStdDIN13715
  3
"Amdt_StdImp|Product Description: AutoCAD Mechanical 2004 DX|Company: Autodesk"
 90
        0
280
     0
281
     0
  0
CLASS
  1
ACMSURFSTANDARDDIN
  2
AcmSurfTextStdDIN
  3
"Amdt_StdImp|Product Description: AutoCAD Mechanical 2004 DX|Company: Autodesk"
 90
        0
280
     0
281
     0
  0
CLASS
  1
ACMFCFSTANDARDDIN
  2
AcmFCFStdDIN
  3
"Amdt_StdImp|Product Description: AutoCAD Mechanical 2004 DX|Company: Autodesk"
 90
        0
280
     0
281
     0
  0
CLASS
  1
ACMWELDSTANDARDDIN
  2
AcmWeldingStdDIN
  3
"Amdt_StdImp|Product Description: AutoCAD Mechanical 2004 DX|Company: Autodesk"
 90
        0
280
     0
281
     0
  0
CLASS
  1
ACMIDSTANDARDDIN
  2
AcmIdStdDIN
  3
"Amdt_StdImp|Product Description: AutoCAD Mechanical 2004 DX|Company: Autodesk"
 90
        0
280
     0
281
     0
  0
CLASS
  1
ACMDATUMSTANDARDDIN
  2
AcmDatumStdDIN
  3
"Amdt_StdImp|Product Description: AutoCAD Mechanical 2004 DX|Company: Autodesk"
 90
        0
280
     0
281
     0
  0
CLASS
  1
ACMBOMSTANDARDDIN
  2
AcmBOMStdDIN
  3
"Amdt_StdImp|Product Description: AutoCAD Mechanical 2004 DX|Company: Autodesk"
 90
        0
280
     0
281
     0
  0
CLASS
  1
ACMDETAILSTANDARDDIN
  2
AmdtDetailSymStdDIN
  3
"Amdt_StdImp|Product Description: AutoCAD Mechanical 2004 DX|Company: Autodesk"
 90
        0
280
     0
281
     0
  0
CLASS
  1
ACMSECTIONSTANDARDDIN
  2
AmdtSectionSymStdDIN
  3
"Amdt_StdImp|Product Description: AutoCAD Mechanical 2004 DX|Company: Autodesk"
 90
        0
280
     0
281
     0
  0
CLASS
  1
ACMCENTERLINESTANDARDDIN
  2
AmdtCenterLineStdDIN
  3
"Amdt_StdImp|Product Description: AutoCAD Mechanical 2004 DX|Company: Autodesk"
 90
        0
280
     0
281
     0
  0
CLASS
  1
ACMTHREADLINESTANDARDDIN
  2
AmdtThreadLineStdDIN
  3
"Amdt_StdImp|Product Description: AutoCAD Mechanical 2004 DX|Company: Autodesk"
 90
        0
280
     0
281
     0
  0
CLASS
  1
ACMNOTESTANDARDDIN
  2
AmdtNoteStdDIN
  3
"Amdt_StdImp|Product Description: AutoCAD Mechanical 2004 DX|Company: Autodesk"
 90
        0
280
     0
281
     0
  0
CLASS
  1
AMDTNOTETEMPLATEDB
  2
AmdtNoteTemplateDB
  3
AMDT_STDIMP_MODULE_NAME
 90
        0
280
     0
281
     0
  0
CLASS
  1
ACAMGLAYSTD
  2
AcAmgLayStd
  3
"AcAmgLayStd|Product Description: AutoCAD Mechanical 2000|Company: Autodesk"
 90
        0
280
     0
281
     0
  0
CLASS
  1
ACAMGDIMSTD
  2
AcAmgDimStd
  3
"AcAmgDimStd|Product Description: AutoCAD Mechanical 2000|Company: Autodesk"
 90
        0
280
     0
281
     0
  0
CLASS
  1
ACAMGHOLECHARTSTDDIN
  2
AcAmgHoleChartStdDIN
  3
ACMSYMBB_MODULE_NAME
 90
        0
280
     0
281
     0
  0
CLASS
  1
ACAMGTITLESTD
  2
AcAmgTitleStd
  3
"TITLEAPP"
 90
        0
280
     0
281
     0
  0
CLASS
  1
ACAMGFILTERDAT
  2
AcAmgFilterDat
  3
"AcadM|Product Description: AutoCAD Mechanical 2000|Company: Autodesk"
 90
        0
280
     0
281
     0
  0
CLASS
  1
DICTIONARYVAR
  2
AcDbDictionaryVar
  3
ObjectDBX Classes
 90
        0
280
     0
281
     0
  0
CLASS
  1
ACDBPLACEHOLDER
  2
AcDbPlaceHolder
  3
ObjectDBX Classes
 90
        0
280
     0
281
     0
  0
CLASS
  1
LAYOUT
  2
AcDbLayout
  3
ObjectDBX Classes
 90
        0
280
     0
281
     0
  0
ENDSEC
  0
SECTION
  2
TABLES
  0
TABLE
  2
VPORT
  5
15B4
330
0
100
AcDbSymbolTable
 70
     4
  0
VPORT
  5
18BD
330
15B4
100
AcDbSymbolTableRecord
100
AcDbViewportTableRecord
  2
*Active
 70
     0
 10
0.0
 20
0.0
 11
1.0
 21
1.0
 12
424.0230583574426
 22
358.8546775442717
 13
0.0
 23
0.0
 14
5.0
 24
5.0
 15
50.0
 25
50.0
 16
0.0
 26
0.0
 36
1.0
 17
0.0
 27
0.0
 37
0.0
 40
399.7409618930181
 41
1.494545454545454
 42
50.0
 43
0.0
 44
0.0
 50
0.0
 51
0.0
 71
     0
 72
  1000
 73
     1
 74
     1
 75
     0
 76
     0
 77
     0
 78
     0
281
     0
 65
     0
110
0.0
120
0.0
130
0.0
111
1.0
121
0.0
131
0.0
112
0.0
122
1.0
132
0.0
 79
     0
146
0.0
  0
ENDTAB
  0
TABLE
  2
LTYPE
  5
15B1
330
0
100
AcDbSymbolTable
 70
    20
  0
LTYPE
  5
15BE
330
15B1
100
AcDbSymbolTableRecord
100
AcDbLinetypeTableRecord
  2
BYBLOCK
 70
     0
  3

 72
    65
 73
     0
 40
0.0
  0
LTYPE
  5
15BF
330
15B1
100
AcDbSymbolTableRecord
100
AcDbLinetypeTableRecord
  2
BYLAYER
 70
     0
  3

 72
    65
 73
     0
 40
0.0
  0
LTYPE
  5
15C0
330
15B1
100
AcDbSymbolTableRecord
100
AcDbLinetypeTableRecord
  2
CONTINUOUS
 70
     0
  3
Solid line
 72
    65
 73
     0
 40
0.0
  0
LTYPE
  5
15CF
330
15B1
100
AcDbSymbolTableRecord
100
AcDbLinetypeTableRecord
  2
GEN7
 70
     0
  3
____ _ ____ _ ____ _ ____ _ ____ _ ____ _ ____ _ ____ _ ____ _
 72
    65
 73
     4
 40
22.0
 49
10.75
 74
     0
 49
-3.75
 74
     0
 49
3.75
 74
     0
 49
-3.75
 74
     0
  0
LTYPE
  5
1814
330
15B1
100
AcDbSymbolTableRecord
100
AcDbLinetypeTableRecord
  2
HIDDEN
 70
     0
  3
Verdeckt
 72
    65
 73
     2
 40
9.525
 49
6.349999999999999
 74
     0
 49
-3.174999999999999
 74
     0
  0
LTYPE
  5
1815
330
15B1
100
AcDbSymbolTableRecord
100
AcDbLinetypeTableRecord
  2
PHANTOM2
 70
     0
  3
Phantom (.5x) ___ _ _ ___ _ _ ___ _ _ ___ _ _
 72
    65
 73
     6
 40
31.75
 49
15.875
 74
     0
 49
-3.174999999999999
 74
     0
 49
3.174999999999999
 74
     0
 49
-3.174999999999999
 74
     0
 49
3.174999999999999
 74
     0
 49
-3.174999999999999
 74
     0
  0
LTYPE
  5
1816
330
15B1
100
AcDbSymbolTableRecord
100
AcDbLinetypeTableRecord
  2
CENTER
 70
     0
  3
Mitte ____ _ ____ _ ____ _ ____ _ ____ _ ____
 72
    65
 73
     4
 40
50.8
 49
31.75
 74
     0
 49
-6.349999999999999
 74
     0
 49
6.349999999999999
 74
     0
 49
-6.349999999999999
 74
     0
  0
LTYPE
  5
184D
330
15B1
100
AcDbSymbolTableRecord
100
AcDbLinetypeTableRecord
  2
Amconstr
 70
     0
  3
_______________________
 72
    65
 73
     2
 40
9999.0
 49
9999.0
 74
     0
 49
0.0
 74
     0
  0
LTYPE
  5
1852
330
15B1
100
AcDbSymbolTableRecord
100
AcDbLinetypeTableRecord
  2
Amzigzag
 70
     0
  3
/\/-/\/-/\/-/\/-/\/-/\/
 72
    65
 73
     2
 40
11.0001
 49
0.0001
 74
     4
 75
   136
340
1851
 46
0.04
 50
0.0
 44
0.0
 45
0.0
 49
-11.0
 74
     0
  0
LTYPE
  5
1853
330
15B1
100
AcDbSymbolTableRecord
100
AcDbLinetypeTableRecord
  2
AM_DIN_F_W050
 70
     0
  3
__ __ __ __ __ __ __ __ __ __ __ __ __ __ __
 72
    65
 73
     2
 40
6.25
 49
4.75
 74
     0
 49
-1.5
 74
     0
  0
LTYPE
  5
1854
330
15B1
100
AcDbSymbolTableRecord
100
AcDbLinetypeTableRecord
  2
AM_DIN_G_W050
 70
     0
  3
____ . ____ . ____ . ____ . ____ . ____ . ____
 72
    65
 73
     4
 40
13.75
 49
9.75
 74
     0
 49
-1.5
 74
     0
 49
1.0
 74
     0
 49
-1.5
 74
     0
  0
LTYPE
  5
1855
330
15B1
100
AcDbSymbolTableRecord
100
AcDbLinetypeTableRecord
  2
AM_DIN_K_W050
 70
     0
  3
_____ . . _____ . . _____ . . ____ .. ____
 72
    65
 73
     6
 40
16.25
 49
9.75
 74
     0
 49
-1.5
 74
     0
 49
1.0
 74
     0
 49
-1.5
 74
     0
 49
1.0
 74
     0
 49
-1.5
 74
     0
  0
LTYPE
  5
1856
330
15B1
100
AcDbSymbolTableRecord
100
AcDbLinetypeTableRecord
  2
AM_DIN_G_W050x2
 70
     0
  3
__ . __ . __ . __ . __ . __
 72
    65
 73
     4
 40
6.875
 49
4.75
 74
     0
 49
-0.875
 74
     0
 49
0.375
 74
     0
 49
-0.875
 74
     0
  0
LTYPE
  5
1857
330
15B1
100
AcDbSymbolTableRecord
100
AcDbLinetypeTableRecord
  2
AM_DIN_F_W050x2
 70
     0
  3
 _ _ _ _ _ _ _ _ _ _ _ _
 72
    65
 73
     2
 40
3.125
 49
2.25
 74
     0
 49
-0.875
 74
     0
  0
LTYPE
  5
1866
330
15B1
100
AcDbSymbolTableRecord
100
AcDbLinetypeTableRecord
  2
ACDINWELD
 70
     0
  3
_ _ _ _ _
 72
    65
 73
     2
 40
2.0
 49
2.0
 74
     0
 49
-1.0
 74
     0
  0
LTYPE
  5
1867
330
15B1
100
AcDbSymbolTableRecord
100
AcDbLinetypeTableRecord
  2
ACDINTGB
 70
     0
  3
__ . . __ . .
 72
    65
 73
     6
 40
9.0
 49
4.0
 74
     0
 49
-1.0
 74
     0
 49
1.0
 74
     0
 49
-1.0
 74
     0
 49
1.0
 74
     0
 49
-1.0
 74
     0
  0
LTYPE
  5
1868
330
15B1
100
AcDbSymbolTableRecord
100
AcDbLinetypeTableRecord
  2
ACDINTGL
 70
     0
  3
_ _ _ _ _
 72
    65
 73
     2
 40
3.0
 49
2.0
 74
     0
 49
-1.0
 74
     0
  0
ENDTAB
  0
TABLE
  2
LAYER
  5
15AE
330
0
100
AcDbSymbolTable
 70
    13
  0
LAYER
  5
15BA
330
15AE
100
AcDbSymbolTableRecord
100
AcDbLayerTableRecord
  2
0
 70
     0
 62
     7
  6
CONTINUOUS
370
    -3
390
17D8
  0
LAYER
  5
15D5
330
15AE
100
AcDbSymbolTableRecord
100
AcDbLayerTableRecord
  2
4
 70
     0
 62
     3
  6
CONTINUOUS
370
    -3
390
17D8
  0
LAYER
  5
15D7
330
15AE
100
AcDbSymbolTableRecord
100
AcDbLayerTableRecord
  2
5
 70
     0
 62
     3
  6
CONTINUOUS
370
    -3
390
17D8
  0
LAYER
  5
15D9
330
15AE
100
AcDbSymbolTableRecord
100
AcDbLayerTableRecord
  2
7
 70
     0
 62
     4
  6
GEN7
370
    -3
390
17D8
  0
LAYER
  5
15DA
330
15AE
100
AcDbSymbolTableRecord
100
AcDbLayerTableRecord
  2
8
 70
     0
 62
     1
  6
CONTINUOUS
370
    -3
390
17D8
  0
LAYER
  5
15DB
330
15AE
100
AcDbSymbolTableRecord
100
AcDbLayerTableRecord
  2
PUNKTE
 70
     0
 62
     1
  6
CONTINUOUS
370
    -3
390
17D8
  0
LAYER
  5
15DC
330
15AE
100
AcDbSymbolTableRecord
100
AcDbLayerTableRecord
  2
SCHRAFFUR_RAND
 70
     1
 62
    36
  6
CONTINUOUS
370
    -3
390
17D8
  0
LAYER
  5
161C
330
15AE
100
AcDbSymbolTableRecord
100
AcDbLayerTableRecord
  2
DEFPOINTS
 70
     0
 62
     7
  6
CONTINUOUS
290
     0
370
    -3
390
17D8
  0
ENDTAB
  0
TABLE
  2
STYLE
  5
15AF
330
0
100
AcDbSymbolTable
 70
     4
  0
STYLE
  5
15BB
330
15AF
100
AcDbSymbolTableRecord
100
AcDbTextStyleTableRecord
  2
STANDARD
 70
     0
 40
0.0
 41
1.0
 50
0.0
 71
     0
 42
20.836
  3
ISOCP.SHX
  4

  0
STYLE
  5
1851
330
15AF
100
AcDbSymbolTableRecord
100
AcDbTextStyleTableRecord
  2

 70
     1
 40
0.0
 41
1.0
 50
0.0
 71
     0
 42
0.2
  3
genltshp.shx
  4

  0
STYLE
  5
1858
330
15AF
100
AcDbSymbolTableRecord
100
AcDbTextStyleTableRecord
  2
ACDINTS
 70
     0
 40
1.0
 41
1.0
 50
0.0
 71
     0
 42
0.2
  3
isocp.shx
  4

  0
STYLE
  5
1865
330
15AF
100
AcDbSymbolTableRecord
100
AcDbTextStyleTableRecord
  2
ACDINGDT
 70
     0
 40
0.0
 41
1.0
 50
0.0
 71
     0
 42
0.2
  3
AMGDT
  4

  0
ENDTAB
  0
TABLE
  2
VIEW
  5
15B2
330
0
100
AcDbSymbolTable
 70
     6
  0
VIEW
  5
1656
330
15B2
100
AcDbSymbolTableRecord
100
AcDbViewTableRecord
  2
GEN1
 70
     0
 40
525.0
 10
394.960474
 20
787.5
 41
789.920949
 11
0.0
 21
0.0
 31
1.0
 12
0.0
 22
0.0
 32
0.0
 42
50.0
 43
0.0
 44
0.0
 50
0.0
 71
     0
281
     0
 72
     0
  0
VIEW
  5
1657
330
15B2
100
AcDbSymbolTableRecord
100
AcDbViewTableRecord
  2
GEN2
 70
     0
 40
525.0
 10
655.039526
 20
787.5
 41
789.920949
 11
0.0
 21
0.0
 31
1.0
 12
0.0
 22
0.0
 32
0.0
 42
50.0
 43
0.0
 44
0.0
 50
0.0
 71
     0
281
     0
 72
     0
  0
VIEW
  5
1658
330
15B2
100
AcDbSymbolTableRecord
100
AcDbViewTableRecord
  2
GEN3
 70
     0
 40
525.0
 10
394.960474
 20
262.5
 41
789.920949
 11
0.0
 21
0.0
 31
1.0
 12
0.0
 22
0.0
 32
0.0
 42
50.0
 43
0.0
 44
0.0
 50
0.0
 71
     0
281
     0
 72
     0
  0
VIEW
  5
1659
330
15B2
100
AcDbSymbolTableRecord
100
AcDbViewTableRecord
  2
GEN4
 70
     0
 40
525.0
 10
655.039526
 20
262.5
 41
789.920949
 11
0.0
 21
0.0
 31
1.0
 12
0.0
 22
0.0
 32
0.0
 42
50.0
 43
0.0
 44
0.0
 50
0.0
 71
     0
281
     0
 72
     0
  0
VIEW
  5
165A
330
15B2
100
AcDbSymbolTableRecord
100
AcDbViewTableRecord
  2
GEN5
 70
     0
 40
525.0
 10
525.0
 20
525.0
 41
789.920949
 11
0.0
 21
0.0
 31
1.0
 12
0.0
 22
0.0
 32
0.0
 42
50.0
 43
0.0
 44
0.0
 50
0.0
 71
     0
281
     0
 72
     0
  0
VIEW
  5
165B
330
15B2
100
AcDbSymbolTableRecord
100
AcDbViewTableRecord
  2
GEN6
 70
     0
 40
1049.9895
 10
525.0
 20
525.0
 41
1579.826099
 11
0.0
 21
0.0
 31
1.0
 12
0.0
 22
0.0
 32
0.0
 42
50.0
 43
0.0
 44
0.0
 50
0.0
 71
     0
281
     0
 72
     0
  0
ENDTAB
  0
TABLE
  2
UCS
  5
15B3
330
0
100
AcDbSymbolTable
 70
     0
  0
ENDTAB
  0
TABLE
  2
APPID
  5
15B5
330
0
100
AcDbSymbolTable
 70
    36
  0
APPID
  5
15BC
330
15B5
100
AcDbSymbolTableRecord
100
AcDbRegAppTableRecord
  2
ACAD
 70
     0
  0
APPID
  5
15F8
330
15B5
100
AcDbSymbolTableRecord
100
AcDbRegAppTableRecord
  2
GENIUS_GENOENT_13
 70
     0
  0
APPID
  5
15F9
330
15B5
100
AcDbSymbolTableRecord
100
AcDbRegAppTableRecord
  2
GENIUS_GENCFG_13
 70
     0
1001
GENIUS_GENCFG0_13
1000
GEN@INFO_POS@XLATE
1001
GENIUS_GENCFG1_13
1000
GEN@INFO_POS
1001
GENIUS_GENCFG2_13
1000
GEN@LAYER@DEFS
1001
GENIUS_GENCFG3_13
1000
GEN@LAYER@ENTSORT
1001
GENIUS_GENCFG4_13
1000
GEN
1001
GENIUS_GEVCFG0_13
1000
GEV
1001
GENIUS_GEFCFG0_13
1000
GEF
1001
GENIUS_DUMCFG0_13
1000
DUM
  0
APPID
  5
15FA
330
15B5
100
AcDbSymbolTableRecord
100
AcDbRegAppTableRecord
  2
GENIUS_DUMCFG0_13
 70
     0
1001
GENIUS_GENCFG_13
1071
937214943
1000
15FA
1000
DUM
1070
     0
  0
APPID
  5
15FB
330
15B5
100
AcDbSymbolTableRecord
100
AcDbRegAppTableRecord
  2
GENIUS_GENCFG0_13
 70
     0
1001
GENIUS_GENCFG_13
1071
1020870282
1000
15FB
1000
GEN@INFO_POS@XLATE
1070
     7
1000
GenCfgObject
1000
GenCfgShort
1000
GenCfgReal
1000
GenCfgBool
1000
GenCfgString
1000
GenCfgDim
1000
GenCfgAttrInf
1000
INFOPOINTS
1070
     0
1002
{
1000
GENINF14
1070
     0
1002
{
1000
2GENINF
1070
     4
1000
2
1002
{
1002
}
1000
5GENINF
1070
     4
1000
5
1002
{
1002
}
1000
7GENINF
1070
     4
1000
7
1002
{
1002
}
1000
9GENINF
1070
     4
1000
9
1002
{
1002
}
1000
11GENINF
1070
     4
1000
11
1002
{
1002
}
1000
14GENINF
1070
     4
1000
14
1002
{
1002
}
1002
}
1000
GENINF13
1070
     0
1002
{
1000
2GENINF
1070
     4
1000
2
1002
{
1002
}
1000
3GENINF
1070
     4
1000
3
1002
{
1002
}
1000
4GENINF
1070
     4
1000
4
1002
{
1002
}
1000
5GENINF
1070
     4
1000
5
1002
{
1002
}
1000
6GENINF
1070
     4
1000
6
1002
{
1002
}
1000
7GENINF
1070
     4
1000
7
1002
{
1002
}
1000
8GENINF
1070
     4
1000
8
1002
{
1002
}
1000
9GENINF
1070
     4
1000
9
1002
{
1002
}
1000
10GENINF
1070
     4
1000
10
1002
{
1002
}
1000
11GENINF
1070
     4
1000
11
1002
{
1002
}
1000
12GENINF
1070
     4
1000
12
1002
{
1002
}
1000
13GENINF
1070
     4
1000
13
1002
{
1002
}
1000
14GENINF
1070
     4
1000
14
1002
{
1002
}
1000
15GENINF
1070
     4
1000
15
1002
{
1002
}
1000
16GENINF
1070
     4
1000
16
1002
{
1002
}
1000
17GENINF
1070
     4
1000
17
1002
{
1002
}
1000
18GENINF
1070
     4
1000
18
1002
{
1002
}
1000
19GENINF
1070
     4
1000
19
1002
{
1002
}
1000
20GENINF
1070
     4
1000
20
1002
{
1002
}
1000
21GENINF
1070
     4
1000
21
1002
{
1002
}
1000
22GENINF
1070
     4
1000
22
1002
{
1002
}
1000
23GENINF
1070
     4
1000
23
1002
{
1002
}
1000
24GENINF
1070
     4
1000
24
1002
{
1002
}
1000
0GENINF
1070
     4
1000
0
1002
{
1002
}
1002
}
1000
GENINFO
1070
     0
1002
{
1000
3GENINF
1070
     4
1000
3
1002
{
1002
}
1000
4GENINF
1070
     4
1000
4
1002
{
1002
}
1000
5GENINF
1070
     4
1000
5
1002
{
1002
}
1000
6GENINF
1070
     4
1000
6
1002
{
1002
}
1000
7GENINF
1070
     4
1000
7
1002
{
1002
}
1000
8GENINF
1070
     4
1000
8
1002
{
1002
}
1000
9GENINF
1070
     4
1000
9
1002
{
1002
}
1000
10GENINF
1070
     4
1000
10
1002
{
1002
}
1000
11GENINF
1070
     4
1000
11
1002
{
1002
}
1000
12GENINF
1070
     4
1000
12
1002
{
1002
}
1000
13GENINF
1070
     4
1000
13
1002
{
1002
}
1000
14GENINF
1070
     4
1000
14
1002
{
1002
}
1000
15GENINF
1070
     4
1000
15
1002
{
1002
}
1000
16GENINF
1070
     4
1000
16
1002
{
1002
}
1000
17GENINF
1070
     4
1000
17
1002
{
1002
}
1000
18GENINF
1070
     4
1000
18
1002
{
1002
}
1000
19GENINF
1070
     4
1000
19
1002
{
1002
}
1000
20GENINF
1070
     4
1000
20
1002
{
1002
}
1000
21GENINF
1070
     4
1000
21
1002
{
1002
}
1000
22GENINF
1070
     4
1000
22
1002
{
1002
}
1002
}
1000
DININFO
1070
     0
1002
{
1000
ST-NAME1
1070
     4
1000
5
1002
{
1002
}
1000
ST-NAME2
1070
     4
1000
6
1002
{
1002
}
1000
ST-NORM1
1070
     4
1000
7
1002
{
1002
}
1000
ST-NORM2
1070
     4
1000
8
1002
{
1002
}
1000
ST-MAT1
1070
     4
1000
9
1002
{
1002
}
1000
ST-MAT2
1070
     4
1000
10
1002
{
1002
}
1002
}
1002
}
1000
POS_NUMBERS
1070
     0
1002
{
1000
GENPOS14
1070
     0
1002
{
1000
1GENPOS
1070
     4
1000
1
1002
{
1002
}
1000
2GENPOS
1070
     4
1000
2
1002
{
1002
}
1000
5GENPOS
1070
     4
1000
5
1002
{
1002
}
1000
7GENPOS
1070
     4
1000
7
1002
{
1002
}
1000
9GENPOS
1070
     4
1000
9
1002
{
1002
}
1000
11GENPOS
1070
     4
1000
11
1002
{
1002
}
1000
14GENPOS
1070
     4
1000
14
1002
{
1002
}
1002
}
1000
GENPOS13
1070
     0
1002
{
1000
1GENPOS
1070
     4
1000
1
1002
{
1002
}
1000
2GENPOS
1070
     4
1000
2
1002
{
1002
}
1000
3GENPOS
1070
     4
1000
3
1002
{
1002
}
1000
4GENPOS
1070
     4
1000
4
1002
{
1002
}
1000
5GENPOS
1070
     4
1000
5
1002
{
1002
}
1000
6GENPOS
1070
     4
1000
6
1002
{
1002
}
1000
7GENPOS
1070
     4
1000
7
1002
{
1002
}
1000
8GENPOS
1070
     4
1000
8
1002
{
1002
}
1000
9GENPOS
1070
     4
1000
9
1002
{
1002
}
1000
10GENPOS
1070
     4
1000
10
1002
{
1002
}
1000
11GENPOS
1070
     4
1000
11
1002
{
1002
}
1000
12GENPOS
1070
     4
1000
12
1002
{
1002
}
1000
13GENPOS
1070
     4
1000
13
1002
{
1002
}
1000
14GENPOS
1070
     4
1000
14
1002
{
1002
}
1000
15GENPOS
1070
     4
1000
15
1002
{
1002
}
1000
16GENPOS
1070
     4
1000
16
1002
{
1002
}
1000
17GENPOS
1070
     4
1000
17
1002
{
1002
}
1000
18GENPOS
1070
     4
1000
18
1002
{
1002
}
1000
19GENPOS
1070
     4
1000
19
1002
{
1002
}
1000
20GENPOS
1070
     4
1000
20
1002
{
1002
}
1000
21GENPOS
1070
     4
1000
21
1002
{
1002
}
1000
22GENPOS
1070
     4
1000
22
1002
{
1002
}
1000
23GENPOS
1070
     4
1000
23
1002
{
1002
}
1000
24GENPOS
1070
     4
1000
24
1002
{
1002
}
1000
0GENPOS
1070
     4
1000
0
1002
{
1002
}
1002
}
1000
GENPOS
1070
     0
1002
{
1000
1GENPOS
1070
     4
1000
1
1002
{
1002
}
1000
2GENPOS
1070
     4
1000
2
1002
{
1002
}
1000
3GENPOS
1070
     4
1000
3
1002
{
1002
}
1000
4GENPOS
1070
     4
1000
4
1002
{
1002
}
1000
5GENPOS
1070
     4
1000
5
1002
{
1002
}
1000
6GENPOS
1070
     4
1000
6
1002
{
1002
}
1000
7GENPOS
1070
     4
1000
7
1002
{
1002
}
1000
8GENPOS
1070
     4
1000
8
1002
{
1002
}
1000
9GENPOS
1070
     4
1000
9
1002
{
1002
}
1000
10GENPOS
1070
     4
1000
10
1002
{
1002
}
1000
11GENPOS
1070
     4
1000
11
1002
{
1002
}
1000
12GENPOS
1070
     4
1000
12
1002
{
1002
}
1000
13GENPOS
1070
     4
1000
13
1002
{
1002
}
1000
14GENPOS
1070
     4
1000
14
1002
{
1002
}
1000
15GENPOS
1070
     4
1000
15
1002
{
1002
}
1000
16GENPOS
1070
     4
1000
16
1002
{
1002
}
1000
17GENPOS
1070
     4
1000
17
1002
{
1002
}
1000
18GENPOS
1070
     4
1000
18
1002
{
1002
}
1000
19GENPOS
1070
     4
1000
19
1002
{
1002
}
1000
20GENPOS
1070
     4
1000
20
1002
{
1002
}
1000
21GENPOS
1070
     4
1000
21
1002
{
1002
}
1000
22GENPOS
1070
     4
1000
22
1002
{
1002
}
1000
23GENPOS
1070
     4
1000
23
1002
{
1002
}
1002
}
1000
DIN985
1070
     0
1002
{
1000
POSITION
1070
     4
1000
1
1002
{
1002
}
1000
MENGE
1070
     4
1000
2
1002
{
1002
}
1000
BLATT
1070
     4
1000
3
1002
{
1002
}
1000
BENENN
1070
     4
1000
5
1002
{
1002
}
1000
BENENN2
1070
     4
1000
6
1002
{
1002
}
1000
NORM
1070
     4
1000
7
1002
{
1002
}
1000
NORM2
1070
     4
1000
8
1002
{
1002
}
1000
WERKSTOFF
1070
     4
1000
9
1002
{
1002
}
1000
WERKSTOFF2
1070
     4
1000
10
1002
{
1002
}
1002
}
1000
DIN986
1070
     0
1002
{
1000
POSITION
1070
     4
1000
1
1002
{
1002
}
1000
MENGE
1070
     4
1000
2
1002
{
1002
}
1000
BLATT
1070
     4
1000
3
1002
{
1002
}
1000
BENENN
1070
     4
1000
5
1002
{
1002
}
1000
BENENN2
1070
     4
1000
6
1002
{
1002
}
1000
NORM
1070
     4
1000
7
1002
{
1002
}
1000
NORM2
1070
     4
1000
8
1002
{
1002
}
1000
WERKSTOFF
1070
     4
1000
9
1002
{
1002
}
1000
WERKSTOFF2
1070
     4
1000
10
1002
{
1002
}
1002
}
1000
DIN987
1070
     0
1002
{
1000
POSITION
1070
     4
1000
1
1002
{
1002
}
1000
MENGE
1070
     4
1000
2
1002
{
1002
}
1000
BLATT
1070
     4
1000
3
1002
{
1002
}
1000
BENENN
1070
     4
1000
5
1002
{
1002
}
1000
BENENN2
1070
     4
1000
6
1002
{
1002
}
1000
NORM
1070
     4
1000
7
1002
{
1002
}
1000
NORM2
1070
     4
1000
8
1002
{
1002
}
1000
WERKSTOFF
1070
     4
1000
9
1002
{
1002
}
1000
WERKSTOFF2
1070
     4
1000
10
1002
{
1002
}
1002
}
1002
}
  0
APPID
  5
15FC
330
15B5
100
AcDbSymbolTableRecord
100
AcDbRegAppTableRecord
  2
GENIUS_GENCFG1_13
 70
     0
1001
GENIUS_GENCFG_13
1071
1020870282
1000
15FC
1000
GEN@INFO_POS
1070
     7
1000
GenCfgObject
1000
GenCfgShort
1000
GenCfgReal
1000
GenCfgBool
1000
GenCfgString
1000
GenCfgDim
1000
GenCfgAttrInf
1000
DescrText
1070
     4
1000
5, ,6, ,7, ,8
1002
{
1002
}
1000
DescrText2
1070
     4
1000
26
1002
{
1002
}
1000
VisibleAttr1
1070
     4
1000
1
1002
{
1002
}
1000
VisibleAttr2
1070
     4
1000
26
1002
{
1002
}
1000
UpdateBlock
1070
     3
1070
     1
1002
{
1002
}
1000
Attrib
1070
     0
1002
{
1000
0
1070
     6
1002
{
1000
Prompt
1070
     4
1000
(genmsg gendwg 103)
1002
{
1002
}
1000
Value
1070
     4
1000

1002
{
1002
}
1000
EditFlag
1070
     1
1070
     0
1002
{
1002
}
1000
PosInDDATTE
1070
     1
1070
    27
1002
{
1002
}
1000
FieldLen
1070
     1
1070
    -1
1002
{
1002
}
1002
}
1000
1
1070
     6
1002
{
1000
Prompt
1070
     4
1000
(genmsg gendwg 31)
1002
{
1002
}
1000
Value
1070
     4
1000
1
1002
{
1002
}
1000
EditFlag
1070
     1
1070
     1
1002
{
1002
}
1000
PosInDDATTE
1070
     1
1070
     1
1002
{
1002
}
1000
FieldLen
1070
     1
1070
    -1
1002
{
1002
}
1002
}
1000
2
1070
     6
1002
{
1000
Prompt
1070
     4
1000
(genmsg gendwg 32)
1002
{
1002
}
1000
Value
1070
     4
1000
1
1002
{
1002
}
1000
EditFlag
1070
     1
1070
     1
1002
{
1002
}
1000
PosInDDATTE
1070
     1
1070
     2
1002
{
1002
}
1000
FieldLen
1070
     1
1070
    -1
1002
{
1002
}
1002
}
1000
3
1070
     6
1002
{
1000
Prompt
1070
     4
1000
(genmsg gendwg 33)
1002
{
1002
}
1000
Value
1070
     4
1000

1002
{
1002
}
1000
EditFlag
1070
     1
1070
     1
1002
{
1002
}
1000
PosInDDATTE
1070
     1
1070
     3
1002
{
1002
}
1000
FieldLen
1070
     1
1070
    -1
1002
{
1002
}
1002
}
1000
4
1070
     6
1002
{
1000
Prompt
1070
     4
1000
(genmsg gendwg 34)
1002
{
1002
}
1000
Value
1070
     4
1000

1002
{
1002
}
1000
EditFlag
1070
     1
1070
     1
1002
{
1002
}
1000
PosInDDATTE
1070
     1
1070
     4
1002
{
1002
}
1000
FieldLen
1070
     1
1070
    -1
1002
{
1002
}
1002
}
1000
5
1070
     6
1002
{
1000
Prompt
1070
     4
1000
(genmsg gendwg 35)
1002
{
1002
}
1000
Value
1070
     4
1000

1002
{
1002
}
1000
EditFlag
1070
     1
1070
     1
1002
{
1002
}
1000
PosInDDATTE
1070
     1
1070
     5
1002
{
1002
}
1000
FieldLen
1070
     1
1070
    -1
1002
{
1002
}
1002
}
1000
6
1070
     6
1002
{
1000
Prompt
1070
     4
1000
(genmsg gendwg 36)
1002
{
1002
}
1000
Value
1070
     4
1000

1002
{
1002
}
1000
EditFlag
1070
     1
1070
     1
1002
{
1002
}
1000
PosInDDATTE
1070
     1
1070
     6
1002
{
1002
}
1000
FieldLen
1070
     1
1070
    -1
1002
{
1002
}
1002
}
1000
7
1070
     6
1002
{
1000
Prompt
1070
     4
1000
(genmsg gendwg 37)
1002
{
1002
}
1000
Value
1070
     4
1000

1002
{
1002
}
1000
EditFlag
1070
     1
1070
     1
1002
{
1002
}
1000
PosInDDATTE
1070
     1
1070
     7
1002
{
1002
}
1000
FieldLen
1070
     1
1070
    -1
1002
{
1002
}
1002
}
1000
8
1070
     6
1002
{
1000
Prompt
1070
     4
1000
(genmsg gendwg 38)
1002
{
1002
}
1000
Value
1070
     4
1000

1002
{
1002
}
1000
EditFlag
1070
     1
1070
     1
1002
{
1002
}
1000
PosInDDATTE
1070
     1
1070
     8
1002
{
1002
}
1000
FieldLen
1070
     1
1070
    -1
1002
{
1002
}
1002
}
1000
9
1070
     6
1002
{
1000
Prompt
1070
     4
1000
(genmsg gendwg 39)
1002
{
1002
}
1000
Value
1070
     4
1000

1002
{
1002
}
1000
EditFlag
1070
     1
1070
     1
1002
{
1002
}
1000
PosInDDATTE
1070
     1
1070
     9
1002
{
1002
}
1000
FieldLen
1070
     1
1070
    -1
1002
{
1002
}
1002
}
1000
10
1070
     6
1002
{
1000
Prompt
1070
     4
1000
(genmsg gendwg 40)
1002
{
1002
}
1000
Value
1070
     4
1000

1002
{
1002
}
1000
EditFlag
1070
     1
1070
     1
1002
{
1002
}
1000
PosInDDATTE
1070
     1
1070
    10
1002
{
1002
}
1000
FieldLen
1070
     1
1070
    -1
1002
{
1002
}
1002
}
1000
11
1070
     6
1002
{
1000
Prompt
1070
     4
1000
(genmsg gendwg 41)
1002
{
1002
}
1000
Value
1070
     4
1000

1002
{
1002
}
1000
EditFlag
1070
     1
1070
     1
1002
{
1002
}
1000
PosInDDATTE
1070
     1
1070
    11
1002
{
1002
}
1000
FieldLen
1070
     1
1070
    -1
1002
{
1002
}
1002
}
1000
12
1070
     6
1002
{
1000
Prompt
1070
     4
1000
(genmsg gendwg 42)
1002
{
1002
}
1000
Value
1070
     4
1000

1002
{
1002
}
1000
EditFlag
1070
     1
1070
     1
1002
{
1002
}
1000
PosInDDATTE
1070
     1
1070
    12
1002
{
1002
}
1000
FieldLen
1070
     1
1070
    -1
1002
{
1002
}
1002
}
1000
13
1070
     6
1002
{
1000
Prompt
1070
     4
1000
(genmsg gendwg 43)
1002
{
1002
}
1000
Value
1070
     4
1000

1002
{
1002
}
1000
EditFlag
1070
     1
1070
     1
1002
{
1002
}
1000
PosInDDATTE
1070
     1
1070
    13
1002
{
1002
}
1000
FieldLen
1070
     1
1070
    -1
1002
{
1002
}
1002
}
1000
14
1070
     6
1002
{
1000
Prompt
1070
     4
1000
(genmsg gendwg 44)
1002
{
1002
}
1000
Value
1070
     4
1000

1002
{
1002
}
1000
EditFlag
1070
     1
1070
     1
1002
{
1002
}
1000
PosInDDATTE
1070
     1
1070
    14
1002
{
1002
}
1000
FieldLen
1070
     1
1070
    -1
1002
{
1002
}
1002
}
1000
15
1070
     6
1002
{
1000
Prompt
1070
     4
1000
(genmsg gendwg 45)
1002
{
1002
}
1000
Value
1070
     4
1000

1002
{
1002
}
1000
EditFlag
1070
     1
1070
     1
1002
{
1002
}
1000
PosInDDATTE
1070
     1
1070
    15
1002
{
1002
}
1000
FieldLen
1070
     1
1070
    -1
1002
{
1002
}
1002
}
1000
16
1070
     6
1002
{
1000
Prompt
1070
     4
1000
(genmsg gendwg 46)
1002
{
1002
}
1000
Value
1070
     4
1000

1002
{
1002
}
1000
EditFlag
1070
     1
1070
     1
1002
{
1002
}
1000
PosInDDATTE
1070
     1
1070
    16
1002
{
1002
}
1000
FieldLen
1070
     1
1070
    -1
1002
{
1002
}
1002
}
1000
17
1070
     6
1002
{
1000
Prompt
1070
     4
1000
(genmsg gendwg 47)
1002
{
1002
}
1000
Value
1070
     4
1000

1002
{
1002
}
1000
EditFlag
1070
     1
1070
     1
1002
{
1002
}
1000
PosInDDATTE
1070
     1
1070
    17
1002
{
1002
}
1000
FieldLen
1070
     1
1070
    -1
1002
{
1002
}
1002
}
1000
18
1070
     6
1002
{
1000
Prompt
1070
     4
1000
(genmsg gendwg 48)
1002
{
1002
}
1000
Value
1070
     4
1000

1002
{
1002
}
1000
EditFlag
1070
     1
1070
     1
1002
{
1002
}
1000
PosInDDATTE
1070
     1
1070
    18
1002
{
1002
}
1000
FieldLen
1070
     1
1070
    -1
1002
{
1002
}
1002
}
1000
19
1070
     6
1002
{
1000
Prompt
1070
     4
1000
(genmsg gendwg 99)
1002
{
1002
}
1000
Value
1070
     4
1000

1002
{
1002
}
1000
EditFlag
1070
     1
1070
     1
1002
{
1002
}
1000
PosInDDATTE
1070
     1
1070
    19
1002
{
1002
}
1000
FieldLen
1070
     1
1070
    -1
1002
{
1002
}
1002
}
1000
20
1070
     6
1002
{
1000
Prompt
1070
     4
1000
(genmsg gendwg 100)
1002
{
1002
}
1000
Value
1070
     4
1000

1002
{
1002
}
1000
EditFlag
1070
     1
1070
     1
1002
{
1002
}
1000
PosInDDATTE
1070
     1
1070
    20
1002
{
1002
}
1000
FieldLen
1070
     1
1070
    -1
1002
{
1002
}
1002
}
1000
21
1070
     6
1002
{
1000
Prompt
1070
     4
1000
(genmsg gendwg 101)
1002
{
1002
}
1000
Value
1070
     4
1000

1002
{
1002
}
1000
EditFlag
1070
     1
1070
     1
1002
{
1002
}
1000
PosInDDATTE
1070
     1
1070
    21
1002
{
1002
}
1000
FieldLen
1070
     1
1070
    -1
1002
{
1002
}
1002
}
1000
22
1070
     6
1002
{
1000
Prompt
1070
     4
1000
(genmsg gendwg 102)
1002
{
1002
}
1000
Value
1070
     4
1000

1002
{
1002
}
1000
EditFlag
1070
     1
1070
     1
1002
{
1002
}
1000
PosInDDATTE
1070
     1
1070
    22
1002
{
1002
}
1000
FieldLen
1070
     1
1070
    -1
1002
{
1002
}
1002
}
1000
23
1070
     6
1002
{
1000
Prompt
1070
     4
1000
(genmsg gendwg 30)
1002
{
1002
}
1000
Value
1070
     4
1000

1002
{
1002
}
1000
EditFlag
1070
     1
1070
     1
1002
{
1002
}
1000
PosInDDATTE
1070
     1
1070
    23
1002
{
1002
}
1000
FieldLen
1070
     1
1070
    -1
1002
{
1002
}
1002
}
1000
24
1070
     6
1002
{
1000
Prompt
1070
     4
1000
(genmsg gendwg 104)
1002
{
1002
}
1000
Value
1070
     4
1000

1002
{
1002
}
1000
EditFlag
1070
     1
1070
     1
1002
{
1002
}
1000
PosInDDATTE
1070
     1
1070
    24
1002
{
1002
}
1000
FieldLen
1070
     1
1070
    -1
1002
{
1002
}
1002
}
1000
25
1070
     6
1002
{
1000
Prompt
1070
     4
1000
(genmsg gendwg 105)
1002
{
1002
}
1000
Value
1070
     4
1000

1002
{
1002
}
1000
EditFlag
1070
     1
1070
     1
1002
{
1002
}
1000
PosInDDATTE
1070
     1
1070
    25
1002
{
1002
}
1000
FieldLen
1070
     1
1070
    -1
1002
{
1002
}
1002
}
1000
26
1070
     6
1002
{
1000
Prompt
1070
     4
1000
(genmsg gendwg 106)
1002
{
1002
}
1000
Value
1070
     4
1000

1002
{
1002
}
1000
EditFlag
1070
     1
1070
     1
1002
{
1002
}
1000
PosInDDATTE
1070
     1
1070
    26
1002
{
1002
}
1000
FieldLen
1070
     1
1070
    -1
1002
{
1002
}
1002
}
1000
27
1070
     6
1002
{
1000
Prompt
1070
     4
1000
(genmsg gendwg 109)
1002
{
1002
}
1000
Value
1070
     4
1000

1002
{
1002
}
1000
EditFlag
1070
     1
1070
     2
1002
{
1002
}
1000
PosInDDATTE
1070
     1
1070
    27
1002
{
1002
}
1000
FieldLen
1070
     1
1070
    -1
1002
{
1002
}
1002
}
1002
}
1000
Xlate
1070
     0
1002
{
1000
>
1002
}
  0
APPID
  5
15FD
330
15B5
100
AcDbSymbolTableRecord
100
AcDbRegAppTableRecord
  2
GENIUS_GENCFG2_13
 70
     0
1001
GENIUS_GENCFG_13
1071
1020870282
1000
15FD
1000
GEN@LAYER@DEFS
1070
     9
1000
GenCfgObject
1000
GenCfgShort
1000
GenCfgReal
1000
GenCfgBool
1000
GenCfgString
1000
GenCfgDim
1000
GenCfgAttrInf
1000
GenCfgLaySection
1000
GenCfgLayer
1000
Basic
1070
     0
1002
{
1000
0
1070
     8
1000
0
1002
{
1000
Color
1070
     1
1070
     7
1002
{
1002
}
1000
LType
1070
     4
1000
CONTINUOUS
1002
{
1002
}
1000
Base
1070
     3
1070
     0
1002
{
1002
}
1002
}
1000
1
1070
     8
1000
1
1002
{
1000
Color
1070
     1
1070
    14
1002
{
1002
}
1000
LType
1070
     4
1000
CONTINUOUS
1002
{
1002
}
1000
Base
1070
     3
1070
     0
1002
{
1002
}
1002
}
1000
2
1070
     8
1000
2
1002
{
1000
Color
1070
     1
1070
     5
1002
{
1002
}
1000
LType
1070
     4
1000
CONTINUOUS
1002
{
1002
}
1000
Base
1070
     3
1070
     0
1002
{
1002
}
1002
}
1000
3
1070
     8
1000
3
1002
{
1000
Color
1070
     1
1070
     6
1002
{
1002
}
1000
LType
1070
     4
1000
GEN3
1002
{
1002
}
1000
Base
1070
     3
1070
     0
1002
{
1002
}
1002
}
1000
4
1070
     8
1000
4
1002
{
1000
Color
1070
     1
1070
     3
1002
{
1002
}
1000
LType
1070
     4
1000
CONTINUOUS
1002
{
1002
}
1000
Base
1070
     3
1070
     0
1002
{
1002
}
1002
}
1000
5
1070
     8
1000
5
1002
{
1000
Color
1070
     1
1070
     3
1002
{
1002
}
1000
LType
1070
     4
1000
CONTINUOUS
1002
{
1002
}
1000
Base
1070
     3
1070
     0
1002
{
1002
}
1002
}
1000
6
1070
     8
1000
6
1002
{
1000
Color
1070
     1
1070
     2
1002
{
1002
}
1000
LType
1070
     4
1000
CONTINUOUS
1002
{
1002
}
1000
Base
1070
     3
1070
     0
1002
{
1002
}
1002
}
1000
7
1070
     8
1000
7
1002
{
1000
Color
1070
     1
1070
     4
1002
{
1002
}
1000
LType
1070
     4
1000
GEN7
1002
{
1002
}
1000
Base
1070
     3
1070
     0
1002
{
1002
}
1002
}
1000
8
1070
     8
1000
8
1002
{
1000
Color
1070
     1
1070
     1
1002
{
1002
}
1000
LType
1070
     4
1000
CONTINUOUS
1002
{
1002
}
1000
Base
1070
     3
1070
     0
1002
{
1002
}
1002
}
1000
3A
1070
     8
1000
3A
1002
{
1000
Color
1070
     1
1070
     6
1002
{
1002
}
1000
LType
1070
     4
1000
GEN3A
1002
{
1002
}
1000
Base
1070
     3
1070
     0
1002
{
1002
}
1002
}
1000
7A
1070
     8
1000
7A
1002
{
1000
Color
1070
     1
1070
     4
1002
{
1002
}
1000
LType
1070
     4
1000
GEN7A
1002
{
1002
}
1000
Base
1070
     3
1070
     0
1002
{
1002
}
1002
}
1000
2A
1070
     8
1000
2A
1002
{
1000
Color
1070
     1
1070
     7
1002
{
1002
}
1000
LType
1070
     4
1000
GEN7
1002
{
1002
}
1000
Base
1070
     3
1070
     0
1002
{
1002
}
1002
}
1000
4A
1070
     8
1000
4A
1002
{
1000
Color
1070
     1
1070
     3
1002
{
1002
}
1000
LType
1070
     4
1000
GEN4A
1002
{
1002
}
1000
Base
1070
     3
1070
     0
1002
{
1002
}
1002
}
1000
9
1070
     8
1000
9
1002
{
1000
Color
1070
     1
1070
   253
1002
{
1002
}
1000
LType
1070
     4
1000
CONTINUOUS
1002
{
1002
}
1000
Base
1070
     3
1070
     0
1002
{
1002
}
1002
}
1000
IP
1070
     8
1000
IP
1002
{
1000
Color
1070
     1
1070
     7
1002
{
1002
}
1000
LType
1070
     4
1000
CONTINUOUS
1002
{
1002
}
1000
Base
1070
     3
1070
     0
1002
{
1002
}
1002
}
1002
}
1000
Standard
1070
     0
1002
{
1000
0N
1070
     8
1000
0N
1002
{
1000
Color
1070
     1
1070
     7
1002
{
1002
}
1000
LType
1070
     4
1000
CONTINUOUS
1002
{
1002
}
1000
Base
1070
     3
1070
     0
1002
{
1002
}
1002
}
1000
1N
1070
     8
1000
1N
1002
{
1000
Color
1070
     1
1070
    14
1002
{
1002
}
1000
LType
1070
     4
1000
CONTINUOUS
1002
{
1002
}
1000
Base
1070
     3
1070
     0
1002
{
1002
}
1002
}
1000
2N
1070
     8
1000
2N
1002
{
1000
Color
1070
     1
1070
     5
1002
{
1002
}
1000
LType
1070
     4
1000
CONTINUOUS
1002
{
1002
}
1000
Base
1070
     3
1070
     0
1002
{
1002
}
1002
}
1000
3N
1070
     8
1000
3N
1002
{
1000
Color
1070
     1
1070
     6
1002
{
1002
}
1000
LType
1070
     4
1000
GEN3
1002
{
1002
}
1000
Base
1070
     3
1070
     0
1002
{
1002
}
1002
}
1000
4N
1070
     8
1000
4N
1002
{
1000
Color
1070
     1
1070
     3
1002
{
1002
}
1000
LType
1070
     4
1000
CONTINUOUS
1002
{
1002
}
1000
Base
1070
     3
1070
     0
1002
{
1002
}
1002
}
1000
5N
1070
     8
1000
5N
1002
{
1000
Color
1070
     1
1070
     3
1002
{
1002
}
1000
LType
1070
     4
1000
CONTINUOUS
1002
{
1002
}
1000
Base
1070
     3
1070
     0
1002
{
1002
}
1002
}
1000
6N
1070
     8
1000
6N
1002
{
1000
Color
1070
     1
1070
     2
1002
{
1002
}
1000
LType
1070
     4
1000
CONTINUOUS
1002
{
1002
}
1000
Base
1070
     3
1070
     0
1002
{
1002
}
1002
}
1000
7N
1070
     8
1000
7N
1002
{
1000
Color
1070
     1
1070
     4
1002
{
1002
}
1000
LType
1070
     4
1000
GEN7
1002
{
1002
}
1000
Base
1070
     3
1070
     0
1002
{
1002
}
1002
}
1000
8N
1070
     8
1000
8N
1002
{
1000
Color
1070
     1
1070
     1
1002
{
1002
}
1000
LType
1070
     4
1000
CONTINUOUS
1002
{
1002
}
1000
Base
1070
     3
1070
     0
1002
{
1002
}
1002
}
1000
3AN
1070
     8
1000
3AN
1002
{
1000
Color
1070
     1
1070
     6
1002
{
1002
}
1000
LType
1070
     4
1000
GEN3A
1002
{
1002
}
1000
Base
1070
     3
1070
     0
1002
{
1002
}
1002
}
1000
7AN
1070
     8
1000
7AN
1002
{
1000
Color
1070
     1
1070
     4
1002
{
1002
}
1000
LType
1070
     4
1000
GEN7A
1002
{
1002
}
1000
Base
1070
     3
1070
     0
1002
{
1002
}
1002
}
1000
2AN
1070
     8
1000
2AN
1002
{
1000
Color
1070
     1
1070
     7
1002
{
1002
}
1000
LType
1070
     4
1000
GEN7
1002
{
1002
}
1000
Base
1070
     3
1070
     0
1002
{
1002
}
1002
}
1000
4AN
1070
     8
1000
4AN
1002
{
1000
Color
1070
     1
1070
     3
1002
{
1002
}
1000
LType
1070
     4
1000
GEN4A
1002
{
1002
}
1000
Base
1070
     3
1070
     0
1002
{
1002
}
1002
}
1000
9N
1070
     8
1000
9N
1002
{
1000
Color
1070
     1
1070
   253
1002
{
1002
}
1000
LType
1070
     4
1000
CONTINUOUS
1002
{
1002
}
1000
Base
1070
     3
1070
     0
1002
{
1002
}
1002
}
1000
IPN
1070
     8
1000
IPN
1002
{
1000
Color
1070
     1
1070
     7
1002
{
1002
}
1000
LType
1070
     4
1000
CONTINUOUS
1002
{
1002
}
1000
Base
1070
     3
1070
     0
1002
{
1002
}
1002
}
1002
}
1000
Extra
1070
     0
1002
{
1000
Klin
1070
     8
1000
KLIN
1002
{
1000
Color
1070
     1
1070
     1
1002
{
1002
}
1000
LType
1070
     4
1000
CONTINUOUS
1002
{
1002
}
1000
Base
1070
     3
1070
     1
1002
{
1002
}
1002
}
1000
Info
1070
     8
1000
INFO
1002
{
1000
Color
1070
     1
1070
     4
1002
{
1002
}
1000
LType
1070
     4
1000
CONTINUOUS
1002
{
1002
}
1000
Base
1070
     3
1070
     1
1002
{
1002
}
1002
}
1000
Rahm2
1070
     8
1000
RAHM2
1002
{
1000
Color
1070
     1
1070
     1
1002
{
1002
}
1000
LType
1070
     4
1000
CONTINUOUS
1002
{
1002
}
1000
Base
1070
     3
1070
     1
1002
{
1002
}
1002
}
1000
Rahm3
1070
     8
1000
RAHM3
1002
{
1000
Color
1070
     1
1070
     2
1002
{
1002
}
1000
LType
1070
     4
1000
CONTINUOUS
1002
{
1002
}
1000
Base
1070
     3
1070
     1
1002
{
1002
}
1002
}
1000
Rahm5
1070
     8
1000
RAHM5
1002
{
1000
Color
1070
     1
1070
     7
1002
{
1002
}
1000
LType
1070
     4
1000
CONTINUOUS
1002
{
1002
}
1000
Base
1070
     3
1070
     1
1002
{
1002
}
1002
}
1000
View
1070
     8
1000
VIEW
1002
{
1000
Color
1070
     1
1070
     1
1002
{
1002
}
1000
LType
1070
     4
1000
CONTINUOUS
1002
{
1002
}
1000
Base
1070
     3
1070
     1
1002
{
1002
}
1002
}
1000
Behind
1070
     8
1000
BEHIND
1002
{
1000
Color
1070
     1
1070
   253
1002
{
1002
}
1000
LType
1070
     4
1000
CONTINUOUS
1002
{
1002
}
1000
Base
1070
     3
1070
     1
1002
{
1002
}
1002
}
1002
}
  0
APPID
  5
15FE
330
15B5
100
AcDbSymbolTableRecord
100
AcDbRegAppTableRecord
  2
GENIUS_GENCFG3_13
 70
     0
1001
GENIUS_GENCFG_13
1071
1020870282
1000
15FE
1000
GEN@LAYER@ENTSORT
1070
    10
1000
GenCfgObject
1000
GenCfgShort
1000
GenCfgReal
1000
GenCfgBool
1000
GenCfgString
1000
GenCfgDim
1000
GenCfgAttrInf
1000
GenCfgLaySection
1000
GenCfgLayer
1000
GenCfgEntSort
1000
ADDL
1070
     9
1000
5
1002
{
1000
Class
1070
     4
1000
SYM
1002
{
1002
}
1000
Color
1070
     1
1070
     1
1002
{
1002
}
1000
LType
1070
     4
1000
BYLAYER
1002
{
1002
}
1002
}
1000
ALTR
1070
     9
1000
4
1002
{
1000
Class
1070
     4
1000

1002
{
1002
}
1000
Color
1070
     1
1070
     7
1002
{
1002
}
1000
LType
1070
     4
1000
GEN3A
1002
{
1002
}
1002
}
1000
BELI
1070
     9
1000
4
1002
{
1000
Class
1070
     4
1000

1002
{
1002
}
1000
Color
1070
     1
1070
   256
1002
{
1002
}
1000
LType
1070
     4
1000
BYLAYER
1002
{
1002
}
1002
}
1000
BHNV
1070
     9
1000
9
1002
{
1000
Class
1070
     4
1000
INV
1002
{
1002
}
1000
Color
1070
     1
1070
   256
1002
{
1002
}
1000
LType
1070
     4
1000
BYLAYER
1002
{
1002
}
1002
}
1000
BHNVS
1070
     9
1000
BEHIND
1002
{
1000
Class
1070
     4
1000
INV
1002
{
1002
}
1000
Color
1070
     1
1070
   256
1002
{
1002
}
1000
LType
1070
     4
1000
BYLAYER
1002
{
1002
}
1002
}
1000
BLID
1070
     9
1000
4A
1002
{
1000
Class
1070
     4
1000

1002
{
1002
}
1000
Color
1070
     1
1070
   256
1002
{
1002
}
1000
LType
1070
     4
1000
BYLAYER
1002
{
1002
}
1002
}
1000
BOAP
1070
     9
1000
4A
1002
{
1000
Class
1070
     4
1000

1002
{
1002
}
1000
Color
1070
     1
1070
   256
1002
{
1002
}
1000
LType
1070
     4
1000
BYLAYER
1002
{
1002
}
1002
}
1000
BOR2
1070
     9
1000
RAHM2
1002
{
1000
Class
1070
     4
1000
SPZ,SYM
1002
{
1002
}
1000
Color
1070
     1
1070
   256
1002
{
1002
}
1000
LType
1070
     4
1000
BYLAYER
1002
{
1002
}
1002
}
1000
BOR3
1070
     9
1000
RAHM3
1002
{
1000
Class
1070
     4
1000
SPZ,SYM
1002
{
1002
}
1000
Color
1070
     1
1070
   256
1002
{
1002
}
1000
LType
1070
     4
1000
BYLAYER
1002
{
1002
}
1002
}
1000
BOR5
1070
     9
1000
RAHM5
1002
{
1000
Class
1070
     4
1000
SPZ,SYM
1002
{
1002
}
1000
Color
1070
     1
1070
   256
1002
{
1002
}
1000
LType
1070
     4
1000
BYLAYER
1002
{
1002
}
1002
}
1000
BOR7
1070
     9
1000
RAHM5
1002
{
1000
Class
1070
     4
1000
SPZ,SYM
1002
{
1002
}
1000
Color
1070
     1
1070
     7
1002
{
1002
}
1000
LType
1070
     4
1000
CONTINUOUS
1002
{
1002
}
1002
}
1000
BPAP
1070
     9
1000
4A
1002
{
1000
Class
1070
     4
1000

1002
{
1002
}
1000
Color
1070
     1
1070
   256
1002
{
1002
}
1000
LType
1070
     4
1000
BYLAYER
1002
{
1002
}
1002
}
1000
BPEX
1070
     9
1000
4A
1002
{
1000
Class
1070
     4
1000

1002
{
1002
}
1000
Color
1070
     1
1070
   256
1002
{
1002
}
1000
LType
1070
     4
1000
BYLAYER
1002
{
1002
}
1002
}
1000
BTDI
1070
     9
1000
5
1002
{
1000
Class
1070
     4
1000
DIM,SYM
1002
{
1002
}
1000
Color
1070
     1
1070
   256
1002
{
1002
}
1000
LType
1070
     4
1000
BYLAYER
1002
{
1002
}
1002
}
1000
CAL2
1070
     9
1000
4
1002
{
1000
Class
1070
     4
1000
SYM
1002
{
1002
}
1000
Color
1070
     1
1070
   256
1002
{
1002
}
1000
LType
1070
     4
1000
BYLAYER
1002
{
1002
}
1002
}
1000
CAL3
1070
     9
1000
4
1002
{
1000
Class
1070
     4
1000
SYM
1002
{
1002
}
1000
Color
1070
     1
1070
     2
1002
{
1002
}
1000
LType
1070
     4
1000
BYLAYER
1002
{
1002
}
1002
}
1000
CAL5
1070
     9
1000
4
1002
{
1000
Class
1070
     4
1000
SYM
1002
{
1002
}
1000
Color
1070
     1
1070
     7
1002
{
1002
}
1000
LType
1070
     4
1000
BYLAYER
1002
{
1002
}
1002
}
1000
CAL7
1070
     9
1000
4
1002
{
1000
Class
1070
     4
1000
SYM
1002
{
1002
}
1000
Color
1070
     1
1070
     5
1002
{
1002
}
1000
LType
1070
     4
1000
BYLAYER
1002
{
1002
}
1002
}
1000
CENN
1070
     9
1000
7A
1002
{
1000
Class
1070
     4
1000
CEN
1002
{
1002
}
1000
Color
1070
     1
1070
   256
1002
{
1002
}
1000
LType
1070
     4
1000
BYLAYER
1002
{
1002
}
1002
}
1000
CENW
1070
     9
1000
7
1002
{
1000
Class
1070
     4
1000
CEN
1002
{
1002
}
1000
Color
1070
     1
1070
   256
1002
{
1002
}
1000
LType
1070
     4
1000
BYLAYER
1002
{
1002
}
1002
}
1000
CLIN
1070
     9
1000
KLIN
1002
{
1000
Class
1070
     4
1000
SPZ
1002
{
1002
}
1000
Color
1070
     1
1070
   256
1002
{
1002
}
1000
LType
1070
     4
1000
BYLAYER
1002
{
1002
}
1002
}
1000
CON1
1070
     9
1000
0
1002
{
1000
Class
1070
     4
1000
CON,BGD
1002
{
1002
}
1000
Color
1070
     1
1070
   256
1002
{
1002
}
1000
LType
1070
     4
1000
BYLAYER
1002
{
1002
}
1002
}
1000
CON2
1070
     9
1000
1
1002
{
1000
Class
1070
     4
1000
CON,BGD
1002
{
1002
}
1000
Color
1070
     1
1070
   256
1002
{
1002
}
1000
LType
1070
     4
1000
BYLAYER
1002
{
1002
}
1002
}
1000
CON3
1070
     9
1000
2
1002
{
1000
Class
1070
     4
1000
CON,BGD
1002
{
1002
}
1000
Color
1070
     1
1070
   256
1002
{
1002
}
1000
LType
1070
     4
1000
BYLAYER
1002
{
1002
}
1002
}
1000
CON4
1070
     9
1000
2
1002
{
1000
Class
1070
     4
1000
CON,BGD
1002
{
1002
}
1000
Color
1070
     1
1070
   256
1002
{
1002
}
1000
LType
1070
     4
1000
BYLAYER
1002
{
1002
}
1002
}
1000
DERP
1070
     9
1000
4
1002
{
1000
Class
1070
     4
1000

1002
{
1002
}
1000
Color
1070
     1
1070
   256
1002
{
1002
}
1000
LType
1070
     4
1000
BYLAYER
1002
{
1002
}
1002
}
1000
DETA
1070
     9
1000
4
1002
{
1000
Class
1070
     4
1000

1002
{
1002
}
1000
Color
1070
     1
1070
   256
1002
{
1002
}
1000
LType
1070
     4
1000
BYLAYER
1002
{
1002
}
1002
}
1000
DIAG
1070
     9
1000
5
1002
{
1000
Class
1070
     4
1000
SYM
1002
{
1002
}
1000
Color
1070
     1
1070
   256
1002
{
1002
}
1000
LType
1070
     4
1000
BYLAYER
1002
{
1002
}
1002
}
1000
DILI
1070
     9
1000
5
1002
{
1000
Class
1070
     4
1000
DIM,SYM
1002
{
1002
}
1000
Color
1070
     1
1070
   256
1002
{
1002
}
1000
LType
1070
     4
1000
BYLAYER
1002
{
1002
}
1002
}
1000
DITO2
1070
     9
1000
5
1002
{
1000
Class
1070
     4
1000
DIM,SYM
1002
{
1002
}
1000
Color
1070
     1
1070
     3
1002
{
1002
}
1000
LType
1070
     4
1000
BYLAYER
1002
{
1002
}
1002
}
1000
DITO3
1070
     9
1000
5
1002
{
1000
Class
1070
     4
1000
DIM,SYM
1002
{
1002
}
1000
Color
1070
     1
1070
     2
1002
{
1002
}
1000
LType
1070
     4
1000
BYLAYER
1002
{
1002
}
1002
}
1000
DITX
1070
     9
1000
5
1002
{
1000
Class
1070
     4
1000
DIM,SYM
1002
{
1002
}
1000
Color
1070
     1
1070
     2
1002
{
1002
}
1000
LType
1070
     4
1000
CONTINUOUS
1002
{
1002
}
1002
}
1000
DIXL
1070
     9
1000
5
1002
{
1000
Class
1070
     4
1000
DIM,SYM
1002
{
1002
}
1000
Color
1070
     1
1070
   256
1002
{
1002
}
1000
LType
1070
     4
1000
BYLAYER
1002
{
1002
}
1002
}
1000
EXMP
1070
     9
1000
4A
1002
{
1000
Class
1070
     4
1000

1002
{
1002
}
1000
Color
1070
     1
1070
   256
1002
{
1002
}
1000
LType
1070
     4
1000
BYLAYER
1002
{
1002
}
1002
}
1000
FEMN
1070
     9
1000
8
1002
{
1000
Class
1070
     4
1000

1002
{
1002
}
1000
Color
1070
     1
1070
   256
1002
{
1002
}
1000
LType
1070
     4
1000
BYLAYER
1002
{
1002
}
1002
}
1000
FEMPN
1070
     9
1000
8
1002
{
1000
Class
1070
     4
1000
SYM
1002
{
1002
}
1000
Color
1070
     1
1070
     3
1002
{
1002
}
1000
LType
1070
     4
1000
BYLAYER
1002
{
1002
}
1002
}
1000
FEMSP
1070
     9
1000
4A
1002
{
1000
Class
1070
     4
1000

1002
{
1002
}
1000
Color
1070
     1
1070
   256
1002
{
1002
}
1000
LType
1070
     4
1000
CONTINUOUS
1002
{
1002
}
1002
}
1000
FEMST
1070
     9
1000
4A
1002
{
1000
Class
1070
     4
1000
SYM
1002
{
1002
}
1000
Color
1070
     1
1070
     3
1002
{
1002
}
1000
LType
1070
     4
1000
BYLAYER
1002
{
1002
}
1002
}
1000
FEMVN
1070
     9
1000
2
1002
{
1000
Class
1070
     4
1000
CON
1002
{
1002
}
1000
Color
1070
     1
1070
   256
1002
{
1002
}
1000
LType
1070
     4
1000
BYLAYER
1002
{
1002
}
1002
}
1000
FEMVT
1070
     9
1000
2
1002
{
1000
Class
1070
     4
1000
SYM
1002
{
1002
}
1000
Color
1070
     1
1070
     3
1002
{
1002
}
1000
LType
1070
     4
1000
BYLAYER
1002
{
1002
}
1002
}
1000
FLAT
1070
     9
1000
0
1002
{
1000
Class
1070
     4
1000

1002
{
1002
}
1000
Color
1070
     1
1070
   256
1002
{
1002
}
1000
LType
1070
     4
1000
BYLAYER
1002
{
1002
}
1002
}
1000
FRAR
1070
     9
1000
4A
1002
{
1000
Class
1070
     4
1000

1002
{
1002
}
1000
Color
1070
     1
1070
   256
1002
{
1002
}
1000
LType
1070
     4
1000
BYLAYER
1002
{
1002
}
1002
}
1000
GRLI
1070
     9
1000
5
1002
{
1000
Class
1070
     4
1000
SYM
1002
{
1002
}
1000
Color
1070
     1
1070
   256
1002
{
1002
}
1000
LType
1070
     4
1000
BYLAYER
1002
{
1002
}
1002
}
1000
GVLI
1070
     9
1000
4A
1002
{
1000
Class
1070
     4
1000

1002
{
1002
}
1000
Color
1070
     1
1070
   256
1002
{
1002
}
1000
LType
1070
     4
1000
BYLAYER
1002
{
1002
}
1002
}
1000
HATC
1070
     9
1000
8
1002
{
1000
Class
1070
     4
1000
HTC,BGD
1002
{
1002
}
1000
Color
1070
     1
1070
   256
1002
{
1002
}
1000
LType
1070
     4
1000
BYLAYER
1002
{
1002
}
1002
}
1000
HIDN
1070
     9
1000
3A
1002
{
1000
Class
1070
     4
1000
HID,BGD
1002
{
1002
}
1000
Color
1070
     1
1070
   256
1002
{
1002
}
1000
LType
1070
     4
1000
BYLAYER
1002
{
1002
}
1002
}
1000
HIDW
1070
     9
1000
3
1002
{
1000
Class
1070
     4
1000
HID,BGD
1002
{
1002
}
1000
Color
1070
     1
1070
   256
1002
{
1002
}
1000
LType
1070
     4
1000
BYLAYER
1002
{
1002
}
1002
}
1000
HLIN
1070
     9
1000
4
1002
{
1000
Class
1070
     4
1000
BGD
1002
{
1002
}
1000
Color
1070
     1
1070
   256
1002
{
1002
}
1000
LType
1070
     4
1000
BYLAYER
1002
{
1002
}
1002
}
1000
HOCN
1070
     9
1000
7A
1002
{
1000
Class
1070
     4
1000
CEN
1002
{
1002
}
1000
Color
1070
     1
1070
   256
1002
{
1002
}
1000
LType
1070
     4
1000
BYLAYER
1002
{
1002
}
1002
}
1000
HOCW
1070
     9
1000
7
1002
{
1000
Class
1070
     4
1000
CEN
1002
{
1002
}
1000
Color
1070
     1
1070
   256
1002
{
1002
}
1000
LType
1070
     4
1000
BYLAYER
1002
{
1002
}
1002
}
1000
INFO
1070
     9
1000
INFO
1002
{
1000
Class
1070
     4
1000
SPZ,SYM
1002
{
1002
}
1000
Color
1070
     1
1070
   256
1002
{
1002
}
1000
LType
1070
     4
1000
BYLAYER
1002
{
1002
}
1002
}
1000
LADI
1070
     9
1000
4
1002
{
1000
Class
1070
     4
1000
BGD
1002
{
1002
}
1000
Color
1070
     1
1070
   256
1002
{
1002
}
1000
LType
1070
     4
1000
BYLAYER
1002
{
1002
}
1002
}
1000
LEAD
1070
     9
1000
5
1002
{
1000
Class
1070
     4
1000
SYM
1002
{
1002
}
1000
Color
1070
     1
1070
   256
1002
{
1002
}
1000
LType
1070
     4
1000
BYLAYER
1002
{
1002
}
1002
}
1000
N_ADDL
1070
     9
1000
5N
1002
{
1000
Class
1070
     4
1000
SYM
1002
{
1002
}
1000
Color
1070
     1
1070
     1
1002
{
1002
}
1000
LType
1070
     4
1000
BYLAYER
1002
{
1002
}
1002
}
1000
N_BHNV
1070
     9
1000
9N
1002
{
1000
Class
1070
     4
1000
INV
1002
{
1002
}
1000
Color
1070
     1
1070
   256
1002
{
1002
}
1000
LType
1070
     4
1000
BYLAYER
1002
{
1002
}
1002
}
1000
N_CON1
1070
     9
1000
0N
1002
{
1000
Class
1070
     4
1000
CON,BGD
1002
{
1002
}
1000
Color
1070
     1
1070
   256
1002
{
1002
}
1000
LType
1070
     4
1000
BYLAYER
1002
{
1002
}
1002
}
1000
N_CON2
1070
     9
1000
1N
1002
{
1000
Class
1070
     4
1000
CON,BGD
1002
{
1002
}
1000
Color
1070
     1
1070
   256
1002
{
1002
}
1000
LType
1070
     4
1000
BYLAYER
1002
{
1002
}
1002
}
1000
N_CON3
1070
     9
1000
2N
1002
{
1000
Class
1070
     4
1000
CON,BGD
1002
{
1002
}
1000
Color
1070
     1
1070
   256
1002
{
1002
}
1000
LType
1070
     4
1000
BYLAYER
1002
{
1002
}
1002
}
1000
N_CON4
1070
     9
1000
2N
1002
{
1000
Class
1070
     4
1000
CON,BGD
1002
{
1002
}
1000
Color
1070
     1
1070
   256
1002
{
1002
}
1000
LType
1070
     4
1000
BYLAYER
1002
{
1002
}
1002
}
1000
N_CENN
1070
     9
1000
7AN
1002
{
1000
Class
1070
     4
1000
CEN
1002
{
1002
}
1000
Color
1070
     1
1070
   256
1002
{
1002
}
1000
LType
1070
     4
1000
BYLAYER
1002
{
1002
}
1002
}
1000
N_CENW
1070
     9
1000
7N
1002
{
1000
Class
1070
     4
1000
CEN
1002
{
1002
}
1000
Color
1070
     1
1070
   256
1002
{
1002
}
1000
LType
1070
     4
1000
BYLAYER
1002
{
1002
}
1002
}
1000
N_DILI
1070
     9
1000
5N
1002
{
1000
Class
1070
     4
1000
DIM,SYM
1002
{
1002
}
1000
Color
1070
     1
1070
   256
1002
{
1002
}
1000
LType
1070
     4
1000
BYLAYER
1002
{
1002
}
1002
}
1000
N_DITX
1070
     9
1000
5N
1002
{
1000
Class
1070
     4
1000
DIM,SYM
1002
{
1002
}
1000
Color
1070
     1
1070
     2
1002
{
1002
}
1000
LType
1070
     4
1000
CONTINUOUS
1002
{
1002
}
1002
}
1000
N_DIXL
1070
     9
1000
5N
1002
{
1000
Class
1070
     4
1000
DIM,SYM
1002
{
1002
}
1000
Color
1070
     1
1070
   256
1002
{
1002
}
1000
LType
1070
     4
1000
BYLAYER
1002
{
1002
}
1002
}
1000
N_HATC
1070
     9
1000
8N
1002
{
1000
Class
1070
     4
1000
HTC,BGD
1002
{
1002
}
1000
Color
1070
     1
1070
   256
1002
{
1002
}
1000
LType
1070
     4
1000
BYLAYER
1002
{
1002
}
1002
}
1000
N_HIDN
1070
     9
1000
3AN
1002
{
1000
Class
1070
     4
1000
HID,BGD
1002
{
1002
}
1000
Color
1070
     1
1070
   256
1002
{
1002
}
1000
LType
1070
     4
1000
BYLAYER
1002
{
1002
}
1002
}
1000
N_HIDW
1070
     9
1000
3N
1002
{
1000
Class
1070
     4
1000
HID,BGD
1002
{
1002
}
1000
Color
1070
     1
1070
   256
1002
{
1002
}
1000
LType
1070
     4
1000
BYLAYER
1002
{
1002
}
1002
}
1000
N_NGIP
1070
     9
1000
IPN
1002
{
1000
Class
1070
     4
1000

1002
{
1002
}
1000
Color
1070
     1
1070
   256
1002
{
1002
}
1000
LType
1070
     4
1000
BYLAYER
1002
{
1002
}
1002
}
1000
N_PHAN
1070
     9
1000
4AN
1002
{
1000
Class
1070
     4
1000

1002
{
1002
}
1000
Color
1070
     1
1070
   256
1002
{
1002
}
1000
LType
1070
     4
1000
BYLAYER
1002
{
1002
}
1002
}
1000
N_POSL
1070
     9
1000
5N
1002
{
1000
Class
1070
     4
1000
SYM
1002
{
1002
}
1000
Color
1070
     1
1070
   256
1002
{
1002
}
1000
LType
1070
     4
1000
BYLAYER
1002
{
1002
}
1002
}
1000
N_TCON
1070
     9
1000
0N
1002
{
1000
Class
1070
     4
1000
CON,BGD
1002
{
1002
}
1000
Color
1070
     1
1070
   256
1002
{
1002
}
1000
LType
1070
     4
1000
BYLAYER
1002
{
1002
}
1002
}
1000
N_THLI
1070
     9
1000
4N
1002
{
1000
Class
1070
     4
1000
BGD
1002
{
1002
}
1000
Color
1070
     1
1070
   256
1002
{
1002
}
1000
LType
1070
     4
1000
BYLAYER
1002
{
1002
}
1002
}
1000
N_TLEN
1070
     9
1000
0N
1002
{
1000
Class
1070
     4
1000
CON,BGD
1002
{
1002
}
1000
Color
1070
     1
1070
   256
1002
{
1002
}
1000
LType
1070
     4
1000
BYLAYER
1002
{
1002
}
1002
}
1000
N_TXT3
1070
     9
1000
6N
1002
{
1000
Class
1070
     4
1000
SYM
1002
{
1002
}
1000
Color
1070
     1
1070
   256
1002
{
1002
}
1000
LType
1070
     4
1000
BYLAYER
1002
{
1002
}
1002
}
1000
N_VPLI
1070
     9
1000
2AN
1002
{
1000
Class
1070
     4
1000

1002
{
1002
}
1000
Color
1070
     1
1070
   256
1002
{
1002
}
1000
LType
1070
     4
1000
BYLAYER
1002
{
1002
}
1002
}
1000
NGIP
1070
     9
1000
IP
1002
{
1000
Class
1070
     4
1000

1002
{
1002
}
1000
Color
1070
     1
1070
   256
1002
{
1002
}
1000
LType
1070
     4
1000
BYLAYER
1002
{
1002
}
1002
}
1000
PAL2
1070
     9
1000
RAHM2
1002
{
1000
Class
1070
     4
1000
SPZ,SYM
1002
{
1002
}
1000
Color
1070
     1
1070
   256
1002
{
1002
}
1000
LType
1070
     4
1000
BYLAYER
1002
{
1002
}
1002
}
1000
PAL3
1070
     9
1000
RAHM3
1002
{
1000
Class
1070
     4
1000
SPZ,SYM
1002
{
1002
}
1000
Color
1070
     1
1070
   256
1002
{
1002
}
1000
LType
1070
     4
1000
BYLAYER
1002
{
1002
}
1002
}
1000
PAL5
1070
     9
1000
RAHM5
1002
{
1000
Class
1070
     4
1000
SPZ,SYM
1002
{
1002
}
1000
Color
1070
     1
1070
   256
1002
{
1002
}
1000
LType
1070
     4
1000
BYLAYER
1002
{
1002
}
1002
}
1000
PAL7
1070
     9
1000
RAHM5
1002
{
1000
Class
1070
     4
1000
SPZ,SYM
1002
{
1002
}
1000
Color
1070
     1
1070
     7
1002
{
1002
}
1000
LType
1070
     4
1000
CONTINUOUS
1002
{
1002
}
1002
}
1000
PHAN
1070
     9
1000
4A
1002
{
1000
Class
1070
     4
1000

1002
{
1002
}
1000
Color
1070
     1
1070
   256
1002
{
1002
}
1000
LType
1070
     4
1000
BYLAYER
1002
{
1002
}
1002
}
1000
POSL
1070
     9
1000
5
1002
{
1000
Class
1070
     4
1000
SYM
1002
{
1002
}
1000
Color
1070
     1
1070
   256
1002
{
1002
}
1000
LType
1070
     4
1000
BYLAYER
1002
{
1002
}
1002
}
1000
POSN
1070
     9
1000
6
1002
{
1000
Class
1070
     4
1000
SYM
1002
{
1002
}
1000
Color
1070
     1
1070
     7
1002
{
1002
}
1000
LType
1070
     4
1000
BYLAYER
1002
{
1002
}
1002
}
1000
POSREF
1070
     9
1000
6
1002
{
1000
Class
1070
     4
1000
SYM
1002
{
1002
}
1000
Color
1070
     1
1070
     5
1002
{
1002
}
1000
LType
1070
     4
1000
BYLAYER
1002
{
1002
}
1002
}
1000
POSX
1070
     9
1000
5
1002
{
1000
Class
1070
     4
1000
SYM
1002
{
1002
}
1000
Color
1070
     1
1070
     2
1002
{
1002
}
1000
LType
1070
     4
1000
CONTINUOUS
1002
{
1002
}
1002
}
1000
PSEC
1070
     9
1000
4A
1002
{
1000
Class
1070
     4
1000

1002
{
1002
}
1000
Color
1070
     1
1070
   256
1002
{
1002
}
1000
LType
1070
     4
1000
BYLAYER
1002
{
1002
}
1002
}
1000
RCGN
1070
     9
1000
7A
1002
{
1000
Class
1070
     4
1000
CEN
1002
{
1002
}
1000
Color
1070
     1
1070
   256
1002
{
1002
}
1000
LType
1070
     4
1000
BYLAYER
1002
{
1002
}
1002
}
1000
RCGW
1070
     9
1000
7
1002
{
1000
Class
1070
     4
1000
CEN
1002
{
1002
}
1000
Color
1070
     1
1070
   256
1002
{
1002
}
1000
LType
1070
     4
1000
BYLAYER
1002
{
1002
}
1002
}
1000
RFDI
1070
     9
1000
4
1002
{
1000
Class
1070
     4
1000
BGD
1002
{
1002
}
1000
Color
1070
     1
1070
   256
1002
{
1002
}
1000
LType
1070
     4
1000
BYLAYER
1002
{
1002
}
1002
}
1000
RQTR
1070
     9
1000
4
1002
{
1000
Class
1070
     4
1000

1002
{
1002
}
1000
Color
1070
     1
1070
     7
1002
{
1002
}
1000
LType
1070
     4
1000
GEN7A
1002
{
1002
}
1002
}
1000
RSBO
1070
     9
1000
4
1002
{
1000
Class
1070
     4
1000
BGD
1002
{
1002
}
1000
Color
1070
     1
1070
   256
1002
{
1002
}
1000
LType
1070
     4
1000
BYLAYER
1002
{
1002
}
1002
}
1000
SBRK
1070
     9
1000
4
1002
{
1000
Class
1070
     4
1000
BGD
1002
{
1002
}
1000
Color
1070
     1
1070
   256
1002
{
1002
}
1000
LType
1070
     4
1000
BYLAYER
1002
{
1002
}
1002
}
1000
SCEN
1070
     9
1000
7
1002
{
1000
Class
1070
     4
1000

1002
{
1002
}
1000
Color
1070
     1
1070
   256
1002
{
1002
}
1000
LType
1070
     4
1000
CONTINUOUS
1002
{
1002
}
1002
}
1000
SECT
1070
     9
1000
4
1002
{
1000
Class
1070
     4
1000
BGD
1002
{
1002
}
1000
Color
1070
     1
1070
   256
1002
{
1002
}
1000
LType
1070
     4
1000
BYLAYER
1002
{
1002
}
1002
}
1000
SELN
1070
     9
1000
7A
1002
{
1000
Class
1070
     4
1000

1002
{
1002
}
1000
Color
1070
     1
1070
   256
1002
{
1002
}
1000
LType
1070
     4
1000
BYLAYER
1002
{
1002
}
1002
}
1000
SELW
1070
     9
1000
7
1002
{
1000
Class
1070
     4
1000

1002
{
1002
}
1000
Color
1070
     1
1070
   256
1002
{
1002
}
1000
LType
1070
     4
1000
BYLAYER
1002
{
1002
}
1002
}
1000
SSYS
1070
     9
1000
0
1002
{
1000
Class
1070
     4
1000

1002
{
1002
}
1000
Color
1070
     1
1070
   256
1002
{
1002
}
1000
LType
1070
     4
1000
BYLAYER
1002
{
1002
}
1002
}
1000
STLI
1070
     9
1000
4
1002
{
1000
Class
1070
     4
1000

1002
{
1002
}
1000
Color
1070
     1
1070
     7
1002
{
1002
}
1000
LType
1070
     4
1000
GEN3A
1002
{
1002
}
1002
}
1000
SYB1
1070
     9
1000
5
1002
{
1000
Class
1070
     4
1000
SYM
1002
{
1002
}
1000
Color
1070
     1
1070
   256
1002
{
1002
}
1000
LType
1070
     4
1000
BYLAYER
1002
{
1002
}
1002
}
1000
SYB2
1070
     9
1000
5
1002
{
1000
Class
1070
     4
1000
SYM
1002
{
1002
}
1000
Color
1070
     1
1070
   256
1002
{
1002
}
1000
LType
1070
     4
1000
BYLAYER
1002
{
1002
}
1002
}
1000
SYB3
1070
     9
1000
6
1002
{
1000
Class
1070
     4
1000
SYM
1002
{
1002
}
1000
Color
1070
     1
1070
   256
1002
{
1002
}
1000
LType
1070
     4
1000
CONTINUOUS
1002
{
1002
}
1002
}
1000
SYB5
1070
     9
1000
5
1002
{
1000
Class
1070
     4
1000
SYM
1002
{
1002
}
1000
Color
1070
     1
1070
     7
1002
{
1002
}
1000
LType
1070
     4
1000
BYLAYER
1002
{
1002
}
1002
}
1000
SYMN
1070
     9
1000
7A
1002
{
1000
Class
1070
     4
1000
CEN
1002
{
1002
}
1000
Color
1070
     1
1070
   256
1002
{
1002
}
1000
LType
1070
     4
1000
BYLAYER
1002
{
1002
}
1002
}
1000
SYMW
1070
     9
1000
7
1002
{
1000
Class
1070
     4
1000
CEN
1002
{
1002
}
1000
Color
1070
     1
1070
   256
1002
{
1002
}
1000
LType
1070
     4
1000
BYLAYER
1002
{
1002
}
1002
}
1000
TCON
1070
     9
1000
0
1002
{
1000
Class
1070
     4
1000
CON,BGD
1002
{
1002
}
1000
Color
1070
     1
1070
   256
1002
{
1002
}
1000
LType
1070
     4
1000
BYLAYER
1002
{
1002
}
1002
}
1000
THLI
1070
     9
1000
4
1002
{
1000
Class
1070
     4
1000
BGD
1002
{
1002
}
1000
Color
1070
     1
1070
   256
1002
{
1002
}
1000
LType
1070
     4
1000
BYLAYER
1002
{
1002
}
1002
}
1000
TIT2
1070
     9
1000
RAHM2
1002
{
1000
Class
1070
     4
1000
SPZ,SYM
1002
{
1002
}
1000
Color
1070
     1
1070
   256
1002
{
1002
}
1000
LType
1070
     4
1000
BYLAYER
1002
{
1002
}
1002
}
1000
TIT3
1070
     9
1000
RAHM3
1002
{
1000
Class
1070
     4
1000
SPZ,SYM
1002
{
1002
}
1000
Color
1070
     1
1070
   256
1002
{
1002
}
1000
LType
1070
     4
1000
BYLAYER
1002
{
1002
}
1002
}
1000
TIT5
1070
     9
1000
RAHM5
1002
{
1000
Class
1070
     4
1000
SPZ,SYM
1002
{
1002
}
1000
Color
1070
     1
1070
   256
1002
{
1002
}
1000
LType
1070
     4
1000
BYLAYER
1002
{
1002
}
1002
}
1000
TIT7
1070
     9
1000
RAHM5
1002
{
1000
Class
1070
     4
1000
SPZ,SYM
1002
{
1002
}
1000
Color
1070
     1
1070
     7
1002
{
1002
}
1000
LType
1070
     4
1000
CONTINUOUS
1002
{
1002
}
1002
}
1000
TLEN
1070
     9
1000
0
1002
{
1000
Class
1070
     4
1000
CON,BGD
1002
{
1002
}
1000
Color
1070
     1
1070
   256
1002
{
1002
}
1000
LType
1070
     4
1000
BYLAYER
1002
{
1002
}
1002
}
1000
TRKN
1070
     9
1000
7A
1002
{
1000
Class
1070
     4
1000

1002
{
1002
}
1000
Color
1070
     1
1070
   256
1002
{
1002
}
1000
LType
1070
     4
1000
BYLAYER
1002
{
1002
}
1002
}
1000
TRKW
1070
     9
1000
7
1002
{
1000
Class
1070
     4
1000

1002
{
1002
}
1000
Color
1070
     1
1070
   256
1002
{
1002
}
1000
LType
1070
     4
1000
BYLAYER
1002
{
1002
}
1002
}
1000
TRLI
1070
     9
1000
4
1002
{
1000
Class
1070
     4
1000
BGD
1002
{
1002
}
1000
Color
1070
     1
1070
   256
1002
{
1002
}
1000
LType
1070
     4
1000
BYLAYER
1002
{
1002
}
1002
}
1000
TXT1
1070
     9
1000
6
1002
{
1000
Class
1070
     4
1000
SYM
1002
{
1002
}
1000
Color
1070
     1
1070
     2
1002
{
1002
}
1000
LType
1070
     4
1000
BYLAYER
1002
{
1002
}
1002
}
1000
TXT2
1070
     9
1000
6
1002
{
1000
Class
1070
     4
1000
SYM
1002
{
1002
}
1000
Color
1070
     1
1070
     2
1002
{
1002
}
1000
LType
1070
     4
1000
BYLAYER
1002
{
1002
}
1002
}
1000
TXT3
1070
     9
1000
6
1002
{
1000
Class
1070
     4
1000
SYM
1002
{
1002
}
1000
Color
1070
     1
1070
   256
1002
{
1002
}
1000
LType
1070
     4
1000
BYLAYER
1002
{
1002
}
1002
}
1000
TXT5
1070
     9
1000
6
1002
{
1000
Class
1070
     4
1000
SYM
1002
{
1002
}
1000
Color
1070
     1
1070
     7
1002
{
1002
}
1000
LType
1070
     4
1000
BYLAYER
1002
{
1002
}
1002
}
1000
TXT7
1070
     9
1000
6
1002
{
1000
Class
1070
     4
1000
SYM
1002
{
1002
}
1000
Color
1070
     1
1070
     7
1002
{
1002
}
1000
LType
1070
     4
1000
BYLAYER
1002
{
1002
}
1002
}
1000
VIEW
1070
     9
1000
VIEW
1002
{
1000
Class
1070
     4
1000
SPZ
1002
{
1002
}
1000
Color
1070
     1
1070
   256
1002
{
1002
}
1000
LType
1070
     4
1000
BYLAYER
1002
{
1002
}
1002
}
1000
VPLI
1070
     9
1000
2A
1002
{
1000
Class
1070
     4
1000

1002
{
1002
}
1000
Color
1070
     1
1070
   256
1002
{
1002
}
1000
LType
1070
     4
1000
BYLAYER
1002
{
1002
}
1002
}
1000
ZIZA
1070
     9
1000
4
1002
{
1000
Class
1070
     4
1000
BGD
1002
{
1002
}
1000
Color
1070
     1
1070
   256
1002
{
1002
}
1000
LType
1070
     4
1000
GENZIGZAG
1002
{
1002
}
1002
}
  0
APPID
  5
15FF
330
15B5
100
AcDbSymbolTableRecord
100
AcDbRegAppTableRecord
  2
GENIUS_GENCFG4_13
 70
     0
1001
GENIUS_GENCFG_13
1071
1020870308
1000
15FF
1000
GEN
1070
     9
1000
GenCfgObject
1000
GenCfgShort
1000
GenCfgReal
1000
GenCfgBool
1000
GenCfgString
1000
GenCfgDim
1000
GenCfgLaySection
1000
GenCfgLType
1000
GenCfgFilter
1000
Balloon
1070
     0
1002
{
1000
GenIF
1070
     1
1070
     0
1002
{
1002
}
1000
GenPosInc
1070
     1
1070
     1
1002
{
1002
}
1000
GenPosBlk
1070
     1
1070
     8
1002
{
1002
}
1000
GenPosVar
1070
     1
1070
     0
1002
{
1002
}
1000
GenZiCir
1070
     2
1040
1.5
1002
{
1002
}
1000
MaxCharForCenteredText
1070
     1
1070
    30
1002
{
1002
}
1000
Snap
1070
     0
1002
{
1000
ActivationRadius
1070
     2
1040
1.0
1002
{
1002
}
1000
M
1070
     0
1002
{
1000
SnapStepX
1070
     2
1040
20.0
1002
{
1002
}
1000
SnapStepY
1070
     2
1040
10.0
1002
{
1002
}
1002
}
1000
I
1070
     0
1002
{
1000
SnapStepX
1070
     2
1040
1.0
1002
{
1002
}
1000
SnapStepY
1070
     2
1040
0.5
1002
{
1002
}
1002
}
1002
}
1002
}
1000
Centerline
1070
     0
1002
{
1000
ScaleNot
1070
     3
1070
     0
1002
{
1002
}
1000
M
1070
     0
1002
{
1000
GenCenAng
1070
     4
1000
45|90|135
1002
{
1002
}
1000
GenCenDia
1070
     2
1040
10.0
1002
{
1002
}
1000
GenCenDias
1070
     4
1000
10|20|30
1002
{
1002
}
1000
GenCenDist
1070
     2
1040
3.0
1002
{
1002
}
1000
GenCenLen
1070
     2
1040
10.0
1002
{
1002
}
1000
GenCenOff
1070
     2
1040
10.0
1002
{
1002
}
1002
}
1000
I
1070
     0
1002
{
1000
GenCenAng
1070
     4
1000
45|90|135
1002
{
1002
}
1000
GenCenDia
1070
     2
1040
0.5
1002
{
1002
}
1000
GenCenDias
1070
     4
1000
0.5|1.0|1.5
1002
{
1002
}
1000
GenCenDist
1070
     2
1040
0.125
1002
{
1002
}
1000
GenCenLen
1070
     2
1040
0.5
1002
{
1002
}
1000
GenCenOff
1070
     2
1040
0.5
1002
{
1002
}
1002
}
1002
}
1000
CLine
1070
     0
1002
{
1000
CAngArray
1070
     4
1000
30|45|60
1002
{
1002
}
1000
Typ
1070
     4
1000
XLINE
1002
{
1002
}
1000
M
1070
     0
1002
{
1000
CLinArray
1070
     4
1000
10|20|30
1002
{
1002
}
1002
}
1000
I
1070
     0
1002
{
1000
CLinArray
1070
     4
1000
0.125|0.25|0.5
1002
{
1002
}
1002
}
1002
}
1000
Detail
1070
     0
1002
{
1002
}
1000
Dimension
1070
     5
1002
{
1000
DIMALT
1070
     1
1070
     0
1002
{
1002
}
1000
DIMALTD
1070
     1
1070
     2
1002
{
1002
}
1000
DIMALTTD
1070
     1
1070
     4
1002
{
1002
}
1000
DIMALTTZ
1070
     1
1070
     0
1002
{
1002
}
1000
DIMALTU
1070
     1
1070
     2
1002
{
1002
}
1000
DIMALTZ
1070
     1
1070
     0
1002
{
1002
}
1000
DIMAUNIT
1070
     1
1070
     0
1002
{
1002
}
1000
DIMBLK
1070
     4
1000

1002
{
1002
}
1000
DIMBLK1
1070
     4
1000

1002
{
1002
}
1000
DIMBLK2
1070
     4
1000

1002
{
1002
}
1000
DIMCLRD
1070
     1
1070
   256
1002
{
1002
}
1000
DIMCLRE
1070
     1
1070
   256
1002
{
1002
}
1000
DIMCLRT
1070
     1
1070
     2
1002
{
1002
}
1000
DIMDLE
1070
     2
1040
0.0
1002
{
1002
}
1000
DIMFIT
1070
     1
1070
     3
1002
{
1002
}
1000
DIMJUST
1070
     1
1070
     0
1002
{
1002
}
1000
DIMLFAC
1070
     2
1040
1.0
1002
{
1002
}
1000
DIMLIM
1070
     1
1070
     0
1002
{
1002
}
1000
DIMPOST
1070
     4
1000

1002
{
1002
}
1000
DIMRND
1070
     2
1040
0.0
1002
{
1002
}
1000
DIMSAH
1070
     1
1070
     0
1002
{
1002
}
1000
DIMSCALE
1070
     2
1040
1.0
1002
{
1002
}
1000
DIMSD1
1070
     1
1070
     0
1002
{
1002
}
1000
DIMSD2
1070
     1
1070
     0
1002
{
1002
}
1000
DIMSE1
1070
     1
1070
     0
1002
{
1002
}
1000
DIMSE2
1070
     1
1070
     0
1002
{
1002
}
1000
DIMSOXD
1070
     1
1070
     0
1002
{
1002
}
1000
DIMTAD
1070
     1
1070
     0
1002
{
1002
}
1000
DIMTFAC
1070
     2
1040
0.71
1002
{
1002
}
1000
DIMTIH
1070
     1
1070
     0
1002
{
1002
}
1000
DIMTIX
1070
     1
1070
     0
1002
{
1002
}
1000
DIMTM
1070
     2
1040
0.1
1002
{
1002
}
1000
DIMTOFL
1070
     1
1070
     0
1002
{
1002
}
1000
DIMTOH
1070
     1
1070
     0
1002
{
1002
}
1000
DIMTOL
1070
     1
1070
     0
1002
{
1002
}
1000
DIMTOLJ
1070
     1
1070
     1
1002
{
1002
}
1000
DIMTP
1070
     2
1040
0.1
1002
{
1002
}
1000
DIMTSZ
1070
     2
1040
0.0
1002
{
1002
}
1000
DIMTVP
1070
     2
1040
0.0
1002
{
1002
}
1000
DIMTXSTY
1070
     4
1000
STANDARD
1002
{
1002
}
1000
DIMTZIN
1070
     1
1070
     0
1002
{
1002
}
1000
DIMUNIT
1070
     1
1070
     2
1002
{
1002
}
1000
DIMUPT
1070
     1
1070
     0
1002
{
1002
}
1000
M
1070
     0
1002
{
1000
DIMALTF
1070
     2
1040
0.03937
1002
{
1002
}
1000
DIMAPOST
1070
     4
1000
"
1002
{
1002
}
1000
DIMASZ
1070
     2
1040
2.5
1002
{
1002
}
1000
DIMCEN
1070
     2
1040
0.0
1002
{
1002
}
1000
DIMDEC
1070
     1
1070
     2
1002
{
1002
}
1000
DIMDLI
1070
     2
1040
7.0
1002
{
1002
}
1000
DIMEXE
1070
     2
1040
1.0
1002
{
1002
}
1000
DIMEXO
1070
     2
1040
1.0
1002
{
1002
}
1000
DIMGAP
1070
     2
1040
0.6
1002
{
1002
}
1000
DIMTDEC
1070
     1
1070
     3
1002
{
1002
}
1000
DIMTXT
1070
     2
1040
3.5
1002
{
1002
}
1000
DIMZIN
1070
     1
1070
     8
1002
{
1002
}
1002
}
1000
I
1070
     0
1002
{
1000
DIMALTF
1070
     2
1040
25.4
1002
{
1002
}
1000
DIMAPOST
1070
     4
1000
mm
1002
{
1002
}
1000
DIMASZ
1070
     2
1040
0.1
1002
{
1002
}
1000
DIMCEN
1070
     2
1040
0.0
1002
{
1002
}
1000
DIMDEC
1070
     1
1070
     4
1002
{
1002
}
1000
DIMDLI
1070
     2
1040
0.5
1002
{
1002
}
1000
DIMEXE
1070
     2
1040
0.1
1002
{
1002
}
1000
DIMEXO
1070
     2
1040
0.05
1002
{
1002
}
1000
DIMGAP
1070
     2
1040
0.06
1002
{
1002
}
1000
DIMTDEC
1070
     1
1070
     4
1002
{
1002
}
1000
DIMTXT
1070
     2
1040
0.12
1002
{
1002
}
1000
DIMZIN
1070
     1
1070
     7
1002
{
1002
}
1002
}
1000
GEN-ISO
1070
     5
1002
{
1000
NAME
1070
     4
1000
GEN-ISO
1002
{
1002
}
1000
DIMTAD
1070
     1
1070
     1
1002
{
1002
}
1000
DIMTOLJ
1070
     1
1070
     0
1002
{
1002
}
1000
DIMTOFL
1070
     1
1070
     1
1002
{
1002
}
1000
M
1070
     0
1002
{
1002
}
1000
I
1070
     0
1002
{
1002
}
1002
}
1000
GEN-ISO-POS
1070
     5
1002
{
1000
NAME
1070
     4
1000
GEN-ISO-POS
1002
{
1002
}
1000
DIMTOLJ
1070
     1
1070
     0
1002
{
1002
}
1000
DIMTXSTY
1070
     4
1000
STANDARD
1002
{
1002
}
1000
M
1070
     0
1002
{
1000
DIMASZ
1070
     2
1040
2.5
1002
{
1002
}
1000
DIMGAP
1070
     2
1040
1.5
1002
{
1002
}
1000
DIMTXT
1070
     2
1040
5.0
1002
{
1002
}
1002
}
1000
I
1070
     0
1002
{
1000
DIMASZ
1070
     2
1040
0.1
1002
{
1002
}
1000
DIMGAP
1070
     2
1040
0.06
1002
{
1002
}
1000
DIMTXT
1070
     2
1040
0.2
1002
{
1002
}
1002
}
1002
}
1000
GEN-ISO-CIR
1070
     5
1002
{
1000
NAME
1070
     4
1000
GEN-ISO$3
1002
{
1002
}
1000
DIMFIT
1070
     1
1070
     0
1002
{
1002
}
1000
DIMTAD
1070
     1
1070
     1
1002
{
1002
}
1000
DIMTOH
1070
     1
1070
     1
1002
{
1002
}
1000
DIMTOLJ
1070
     1
1070
     0
1002
{
1002
}
1000
DIMUPT
1070
     1
1070
     1
1002
{
1002
}
1000
M
1070
     0
1002
{
1002
}
1000
I
1070
     0
1002
{
1002
}
1002
}
1000
GEN-ISO-RAD
1070
     5
1002
{
1000
NAME
1070
     4
1000
GEN-ISO$4
1002
{
1002
}
1000
DIMFIT
1070
     1
1070
     0
1002
{
1002
}
1000
DIMTAD
1070
     1
1070
     1
1002
{
1002
}
1000
DIMTIH
1070
     1
1070
     0
1002
{
1002
}
1000
DIMTIX
1070
     1
1070
     0
1002
{
1002
}
1000
DIMTOH
1070
     1
1070
     1
1002
{
1002
}
1000
DIMTOLJ
1070
     1
1070
     0
1002
{
1002
}
1000
DIMTOFL
1070
     1
1070
     0
1002
{
1002
}
1000
DIMUPT
1070
     1
1070
     1
1002
{
1002
}
1000
M
1070
     0
1002
{
1002
}
1000
I
1070
     0
1002
{
1002
}
1002
}
1000
GEN-ISO-ORD
1070
     5
1002
{
1000
NAME
1070
     4
1000
GEN-ISO$6
1002
{
1002
}
1000
DIMTOLJ
1070
     1
1070
     0
1002
{
1002
}
1000
M
1070
     0
1002
{
1002
}
1000
I
1070
     0
1002
{
1002
}
1002
}
1000
GEN-ISO-AXE-F
1070
     5
1002
{
1000
NAME
1070
     4
1000
GEN-ISO-AXE-F
1002
{
1002
}
1000
DIMSE1
1070
     1
1070
     1
1002
{
1002
}
1000
DIMSE2
1070
     1
1070
     1
1002
{
1002
}
1000
DIMTAD
1070
     1
1070
     1
1002
{
1002
}
1000
DIMTOLJ
1070
     1
1070
     0
1002
{
1002
}
1000
DIMTOFL
1070
     1
1070
     1
1002
{
1002
}
1000
M
1070
     0
1002
{
1002
}
1000
I
1070
     0
1002
{
1002
}
1002
}
1000
GEN-ISO-AXE-H
1070
     5
1002
{
1000
NAME
1070
     4
1000
GEN-ISO-AXE-H
1002
{
1002
}
1000
DIMBLK1
1070
     4
1000
GENAXEH
1002
{
1002
}
1000
DIMLFAC
1070
     2
1040
2.0
1002
{
1002
}
1000
DIMSAH
1070
     1
1070
     1
1002
{
1002
}
1000
DIMSE1
1070
     1
1070
     1
1002
{
1002
}
1000
DIMSE2
1070
     1
1070
     1
1002
{
1002
}
1000
DIMTAD
1070
     1
1070
     1
1002
{
1002
}
1000
DIMTOLJ
1070
     1
1070
     0
1002
{
1002
}
1000
DIMTOFL
1070
     1
1070
     1
1002
{
1002
}
1000
M
1070
     0
1002
{
1002
}
1000
I
1070
     0
1002
{
1002
}
1002
}
1000
GEN-ANSI
1070
     5
1002
{
1000
NAME
1070
     4
1000
GEN-ANSI
1002
{
1002
}
1000
DIMTIH
1070
     1
1070
     1
1002
{
1002
}
1000
DIMTOH
1070
     1
1070
     1
1002
{
1002
}
1000
DIMTAD
1070
     1
1070
     0
1002
{
1002
}
1000
DIMTOLJ
1070
     1
1070
     1
1002
{
1002
}
1000
M
1070
     0
1002
{
1002
}
1000
I
1070
     0
1002
{
1002
}
1002
}
1000
GEN-ANSI-POS
1070
     5
1002
{
1000
NAME
1070
     4
1000
GEN-ANSI-POS
1002
{
1002
}
1000
DIMTOLJ
1070
     1
1070
     1
1002
{
1002
}
1000
DIMTXSTY
1070
     4
1000
STANDARD
1002
{
1002
}
1000
M
1070
     0
1002
{
1000
DIMASZ
1070
     2
1040
2.5
1002
{
1002
}
1000
DIMGAP
1070
     2
1040
1.5
1002
{
1002
}
1000
DIMTXT
1070
     2
1040
5.0
1002
{
1002
}
1002
}
1000
I
1070
     0
1002
{
1000
DIMASZ
1070
     2
1040
0.1
1002
{
1002
}
1000
DIMGAP
1070
     2
1040
0.06
1002
{
1002
}
1000
DIMTXT
1070
     2
1040
0.2
1002
{
1002
}
1002
}
1002
}
1000
GEN-ANSI-CIR
1070
     5
1002
{
1000
NAME
1070
     4
1000
GEN-ANSI$3
1002
{
1002
}
1000
DIMFIT
1070
     1
1070
     0
1002
{
1002
}
1000
DIMTAD
1070
     1
1070
     0
1002
{
1002
}
1000
DIMTIH
1070
     1
1070
     1
1002
{
1002
}
1000
DIMTIX
1070
     1
1070
     0
1002
{
1002
}
1000
DIMTOFL
1070
     1
1070
     0
1002
{
1002
}
1000
DIMTOH
1070
     1
1070
     1
1002
{
1002
}
1000
DIMTOLJ
1070
     1
1070
     1
1002
{
1002
}
1000
DIMUPT
1070
     1
1070
     1
1002
{
1002
}
1000
M
1070
     0
1002
{
1002
}
1000
I
1070
     0
1002
{
1002
}
1002
}
1000
GEN-ANSI-RAD
1070
     5
1002
{
1000
NAME
1070
     4
1000
GEN-ANSI$4
1002
{
1002
}
1000
DIMFIT
1070
     1
1070
     0
1002
{
1002
}
1000
DIMTAD
1070
     1
1070
     0
1002
{
1002
}
1000
DIMTIH
1070
     1
1070
     1
1002
{
1002
}
1000
DIMTIX
1070
     1
1070
     0
1002
{
1002
}
1000
DIMTOFL
1070
     1
1070
     0
1002
{
1002
}
1000
DIMTOH
1070
     1
1070
     1
1002
{
1002
}
1000
DIMTOLJ
1070
     1
1070
     1
1002
{
1002
}
1000
DIMUPT
1070
     1
1070
     1
1002
{
1002
}
1000
M
1070
     0
1002
{
1002
}
1000
I
1070
     0
1002
{
1002
}
1002
}
1000
GEN-ANSI-ORD
1070
     5
1002
{
1000
NAME
1070
     4
1000
GEN-ANSI$6
1002
{
1002
}
1000
DIMTAD
1070
     1
1070
     0
1002
{
1002
}
1000
DIMTIH
1070
     1
1070
     1
1002
{
1002
}
1000
DIMTOH
1070
     1
1070
     1
1002
{
1002
}
1000
DIMTOLJ
1070
     1
1070
     1
1002
{
1002
}
1000
M
1070
     0
1002
{
1002
}
1000
I
1070
     0
1002
{
1002
}
1002
}
1000
GEN-ANSI-AXE-F
1070
     5
1002
{
1000
NAME
1070
     4
1000
GEN-ANSI-AXE-F
1002
{
1002
}
1000
DIMBLK1
1070
     4
1000
GENAXEH
1002
{
1002
}
1000
DIMSAH
1070
     1
1070
     1
1002
{
1002
}
1000
DIMSE1
1070
     1
1070
     1
1002
{
1002
}
1000
DIMSE2
1070
     1
1070
     1
1002
{
1002
}
1000
DIMTAD
1070
     1
1070
     0
1002
{
1002
}
1000
DIMTIH
1070
     1
1070
     1
1002
{
1002
}
1000
DIMTOH
1070
     1
1070
     1
1002
{
1002
}
1000
DIMTOLJ
1070
     1
1070
     1
1002
{
1002
}
1000
M
1070
     0
1002
{
1002
}
1000
I
1070
     0
1002
{
1002
}
1002
}
1000
GEN-ANSI-AXE-H
1070
     5
1002
{
1000
NAME
1070
     4
1000
GEN-ANSI-AXE-H
1002
{
1002
}
1000
DIMBLK1
1070
     4
1000
GENAXEH
1002
{
1002
}
1000
DIMLFAC
1070
     2
1040
2.0
1002
{
1002
}
1000
DIMSAH
1070
     1
1070
     1
1002
{
1002
}
1000
DIMSE1
1070
     1
1070
     1
1002
{
1002
}
1000
DIMSE2
1070
     1
1070
     1
1002
{
1002
}
1000
DIMTAD
1070
     1
1070
     0
1002
{
1002
}
1000
DIMTOFL
1070
     1
1070
     1
1002
{
1002
}
1000
DIMTOLJ
1070
     1
1070
     1
1002
{
1002
}
1000
M
1070
     0
1002
{
1002
}
1000
I
1070
     0
1002
{
1002
}
1002
}
1002
}
1000
DimSet
1070
     0
1002
{
1000
ChainSum
1070
     3
1070
     0
1002
{
1002
}
1000
DimDclTyp0
1070
     4
1000
dim23
1002
{
1002
}
1000
HorBra
1070
     3
1070
     0
1002
{
1002
}
1000
StrDia
1070
     4
1000
%%c<>
1002
{
1002
}
1000
StrRad
1070
     4
1000
R<>
1002
{
1002
}
1000
TextMinus
1070
     4
1000
<>
1002
{
1002
}
1000
TextPlus
1070
     4
1000
<>
1002
{
1002
}
1000
M
1070
     0
1002
{
1000
DimdliFirst
1070
     2
1040
10.0
1002
{
1002
}
1000
PointMakeDist
1070
     2
1040
10.0
1002
{
1002
}
1002
}
1000
I
1070
     0
1002
{
1000
DimdliFirst
1070
     2
1040
0.5
1002
{
1002
}
1000
PointMakeDist
1070
     2
1040
0.5
1002
{
1002
}
1002
}
1000
FitGrade
1070
     4
1000
h7
1002
{
1002
}
1002
}
1000
Drawing
1070
     0
1002
{
1000
ChamferDimMode
1070
     1
1070
     2
1002
{
1002
}
1000
Gen_Fiso
1070
    -3
1040
1.0
1002
{
1002
}
1000
GenDimStil
1070
     4
1000
ISO
1002
{
1002
}
1000
GenDwgUScale
1070
     2
1040
1.0
1002
{
1002
}
1000
GenInch
1070
     4
1000
M
1002
{
1002
}
1000
GenPlotScale
1070
     4
1000
1:5
1002
{
1002
}
1000
Revisi
1070
     4
1000
0
1002
{
1002
}
1000
Version
1070
    -5
1000
14.01/Apr  1 1998
1002
{
1002
}
1000
Platform
1070
    -5
1000
WINNT
1002
{
1002
}
1002
}
1000
DwgVar
1070
     0
1002
{
1000
M
1070
     0
1002
{
1002
}
1000
I
1070
     0
1002
{
1002
}
1002
}
1000
Hatch
1070
     0
1002
{
1000
GenHtcFlag
1070
     3
1070
     0
1002
{
1002
}
1002
}
1000
Info_Pos
1070
     0
1002
{
1000
>
1002
}
1000
Layer
1070
     6
1002
{
1000
Defs
1070
     0
1002
{
1000
>
1002
}
1000
EntSort
1070
     0
1002
{
1000
>
1002
}
1000
Match
1070
     0
1002
{
1002
}
1000
Settings
1070
     0
1002
{
1000
FocGrNC
1070
     3
1070
     0
1002
{
1002
}
1000
FocGrLo
1070
     3
1070
     0
1002
{
1002
}
1000
FocLoNC
1070
     3
1070
     0
1002
{
1002
}
1000
FocusCol
1070
     1
1070
   253
1002
{
1002
}
1000
GenStdLG
1070
     4
1000

1002
{
1002
}
1000
LayMatch
1070
     3
1070
     0
1002
{
1002
}
1000
LgOff
1070
     3
1070
     0
1002
{
1002
}
1000
CurLG
1070
    -5
1000

1002
{
1002
}
1002
}
1002
}
1000
LType
1070
     0
1002
{
1000
GEN3
1070
     7
1000
genius.lin
1002
{
1002
}
1000
GEN7
1070
     7
1000
genius.lin
1002
{
1002
}
1000
GEN4A
1070
     7
1000
genius.lin
1002
{
1002
}
1000
GEN3A
1070
     7
1000
genius.lin
1002
{
1002
}
1000
GEN7A
1070
     7
1000
genius.lin
1002
{
1002
}
1000
GENZIGZAG
1070
     7
1000
genius.lin
1002
{
1002
}
1002
}
1000
Objecter
1070
     0
1002
{
1000
CreateGroups
1070
     3
1070
     0
1002
{
1002
}
1000
LaySwitch
1070
     3
1070
     1
1002
{
1002
}
1000
LastObj
1070
    -5
1000
165D
1002
{
1002
}
1000
TimeStamp
1070
    -5
1000
20020508.17043169
1002
{
1002
}
1002
}
1000
OSWiz
1070
     0
1002
{
1000
Filter
1070
     0
1002
{
1000
HATCH
1070
     8
1002
{
1000
EntityType
1070
     4
1000
LINE
1002
{
1002
}
1000
Layer
1070
     4
1000
8,8N,*-8,*-8N
1002
{
1002
}
1000
Linetype
1070
     4
1000
*
1002
{
1002
}
1000
Color
1070
     4
1000
*
1002
{
1002
}
1000
ApplyInDims
1070
     3
1070
     1
1002
{
1002
}
1002
}
1000
SYMBOLS
1070
     8
1002
{
1000
EntityType
1070
     4
1000
*
1002
{
1002
}
1000
Layer
1070
     4
1000
[5-6],[5-6]N,*-[5-6],*-[5-6]N
1002
{
1002
}
1000
Linetype
1070
     4
1000
*
1002
{
1002
}
1000
Color
1070
     4
1000
*
1002
{
1002
}
1000
ApplyInDims
1070
     3
1070
     1
1002
{
1002
}
1002
}
1000
FEM
1070
     8
1002
{
1000
EntityType
1070
     4
1000
*
1002
{
1002
}
1000
Layer
1070
     4
1000
4A,4AN,*-4A,*-4AN
1002
{
1002
}
1000
Linetype
1070
     4
1000
*
1002
{
1002
}
1000
Color
1070
     4
1000
*
1002
{
1002
}
1000
ApplyInDims
1070
     3
1070
     1
1002
{
1002
}
1002
}
1002
}
1002
}
1000
PaList
1070
     0
1002
{
1000
AutoUpdatePartList
1070
     1
1070
     0
1002
{
1002
}
1000
ReadInfoPoint
1070
     3
1070
     0
1002
{
1002
}
1000
ReadPosNr
1070
     3
1070
     1
1002
{
1002
}
1000
RevStr
1070
     4
1000
0
1002
{
1002
}
1002
}
1000
Paper
1070
     0
1002
{
1002
}
1000
PartDB
1070
     0
1002
{
1000
GenDbOwner
1070
     4
1000

1002
{
1002
}
1002
}
1000
System
1070
     0
1002
{
1000
Menu
1070
     4
1000
GEV
1002
{
1002
}
1002
}
1000
Title
1070
     0
1002
{
1000
MakeView
1070
     1
1070
     2
1002
{
1002
}
1002
}
1000
Tools
1070
     0
1002
{
1000
Trans
1070
     0
1002
{
1000
Drawingtranslation
1070
    -4
1070
     1
1002
{
1002
}
1000
upreserve
1070
     3
1070
     0
1002
{
1002
}
1000
originally_on
1070
    -4
1070
     0
1002
{
1002
}
1000
sourcelang
1070
    -5
1000
D
1002
{
1002
}
1002
}
1002
}
  0
APPID
  5
1600
330
15B5
100
AcDbSymbolTableRecord
100
AcDbRegAppTableRecord
  2
GENIUS_GEVCFG0_13
 70
     0
1001
GENIUS_GENCFG_13
1071
1020870282
1000
1600
1000
GEV
1070
     1
1000
GenCfgObject
1000
VED
1070
     0
1002
{
1002
}
  0
APPID
  5
162D
330
15B5
100
AcDbSymbolTableRecord
100
AcDbRegAppTableRecord
  2
GEV_VCCNULL_SWITCH_OFF
 70
     0
  0
APPID
  5
162E
330
15B5
100
AcDbSymbolTableRecord
100
AcDbRegAppTableRecord
  2
GENIUS_GENDTOL_13
 70
     0
  0
APPID
  5
162F
330
15B5
100
AcDbSymbolTableRecord
100
AcDbRegAppTableRecord
  2
GENIUS_GENBLLY_14
 70
     0
  0
APPID
  5
1630
330
15B5
100
AcDbSymbolTableRecord
100
AcDbRegAppTableRecord
  2
GENIUS_GENODEF_13
 70
     0
  0
APPID
  5
1631
330
15B5
100
AcDbSymbolTableRecord
100
AcDbRegAppTableRecord
  2
GENIUS_GENOBJ-N-CRS_13
 70
     0
  0
APPID
  5
1632
330
15B5
100
AcDbSymbolTableRecord
100
AcDbRegAppTableRecord
  2
GENIUS_GENOREF_13
 70
     0
  0
APPID
  5
1633
330
15B5
100
AcDbSymbolTableRecord
100
AcDbRegAppTableRecord
  2
GENIUS_GENOLIS_13
 70
     0
  0
APPID
  5
1634
330
15B5
100
AcDbSymbolTableRecord
100
AcDbRegAppTableRecord
  2
GENIUS_GEFCFG0_13
 70
     0
1001
GENIUS_GENCFG_13
1071
920890847
1000
1634
1000
GEF
1070
     5
1000
GenCfgObject
1000
GenCfgString
1000
GenCfgReal
1000
GenCfgShort
1000
GenCfgBool
1000
System
1070
     0
1002
{
1002
}
1000
Prese
1070
     0
1002
{
1000
Funk
1070
     1
1000

1002
{
1002
}
1000
FunkDef
1070
     1
1000

1002
{
1002
}
1000
GefIso
1070
     1
1000
DIN
1002
{
1002
}
1002
}
1000
FEM
1070
     0
1002
{
1000
LayGroup
1070
     1
1000
FEM
1002
{
1002
}
1000
IncrCoef
1070
     2
1040
0.0
1002
{
1002
}
1002
}
1000
Shaft
1070
     0
1002
{
1000
Interrupt
1070
     3
1070
     0
1002
{
1002
}
1002
}
1000
PartDb
1070
     0
1002
{
1000
PartCreate
1070
     0
1002
{
1002
}
1000
SCP
1070
     0
1002
{
1002
}
1000
Symbol
1070
     0
1002
{
1002
}
1002
}
1000
Symbol
1070
     0
1002
{
1000
WeldStyle
1070
     1
1000
ISO
1002
{
1002
}
1000
WeldSize
1070
     2
1040
1.0
1002
{
1002
}
1000
WeldFlag
1070
     4
1070
     1
1002
{
1002
}
1000
WeldOffset
1070
     4
1070
     1
1002
{
1002
}
1000
TolCType
1070
     1
1000
ISO
1002
{
1002
}
1000
TolCSize
1070
     2
1040
1.0
1002
{
1002
}
1000
STextureSize
1070
     2
1040
1.0
1002
{
1002
}
1000
SurfaceType
1070
     1
1000

1002
{
1002
}
1000
M
1070
     0
1002
{
1000
WeldWidth
1070
     2
1040
3.0
1002
{
1002
}
1002
}
1000
I
1070
     0
1002
{
1000
WeldWidth
1070
     2
1040
0.125
1002
{
1002
}
1002
}
1002
}
  0
APPID
  5
1635
330
15B5
100
AcDbSymbolTableRecord
100
AcDbRegAppTableRecord
  2
GENIUS_VERSION2
 70
     0
  0
APPID
  5
1636
330
15B5
100
AcDbSymbolTableRecord
100
AcDbRegAppTableRecord
  2
GENIUS_GENREC_14
 70
     0
  0
APPID
  5
1637
330
15B5
100
AcDbSymbolTableRecord
100
AcDbRegAppTableRecord
  2
GENIUS_GENOBJ-N-REC_13
 70
     0
  0
APPID
  5
1638
330
15B5
100
AcDbSymbolTableRecord
100
AcDbRegAppTableRecord
  2
GENIUS_GENOBJ-N-TIT_13
 70
     0
  0
APPID
  5
1639
330
15B5
100
AcDbSymbolTableRecord
100
AcDbRegAppTableRecord
  2
GENIUS_GENTITLE_13
 70
     0
  0
APPID
  5
163A
330
15B5
100
AcDbSymbolTableRecord
100
AcDbRegAppTableRecord
  2
GENIUS_GENZVEED_13
 70
     0
  0
APPID
  5
163B
330
15B5
100
AcDbSymbolTableRecord
100
AcDbRegAppTableRecord
  2
GENIUS_GENOBJ-N-SDF_13
 70
     0
  0
APPID
  5
163C
330
15B5
100
AcDbSymbolTableRecord
100
AcDbRegAppTableRecord
  2
GENIUS_GENSCREG_13
 70
     0
  0
APPID
  5
163D
330
15B5
100
AcDbSymbolTableRecord
100
AcDbRegAppTableRecord
  2
GENIUS_GENBLKED_14
 70
     0
  0
APPID
  5
17E7
330
15B5
100
AcDbSymbolTableRecord
100
AcDbRegAppTableRecord
  2
MCAD_NO_VIS
 70
     0
  0
APPID
  5
17E8
330
15B5
100
AcDbSymbolTableRecord
100
AcDbRegAppTableRecord
  2
ACAD_TEMP_GRAPHIC
 70
     0
  0
APPID
  5
1818
330
15B5
100
AcDbSymbolTableRecord
100
AcDbRegAppTableRecord
  2
AD_DRAW
 70
     0
  0
APPID
  5
181B
330
15B5
100
AcDbSymbolTableRecord
100
AcDbRegAppTableRecord
  2
ACATTRIBSERVICES
 70
     0
  0
APPID
  5
183B
330
15B5
100
AcDbSymbolTableRecord
100
AcDbRegAppTableRecord
  2
DESIGNERASSEMBLIES
 70
     0
  0
APPID
  5
1841
330
15B5
100
AcDbSymbolTableRecord
100
AcDbRegAppTableRecord
  2
ACADM_DIM_EDIT
 70
     0
  0
APPID
  5
1842
330
15B5
100
AcDbSymbolTableRecord
100
AcDbRegAppTableRecord
  2
AMDT_DM_ADJ
 70
     0
  0
APPID
  5
1874
330
15B5
100
AcDbSymbolTableRecord
100
AcDbRegAppTableRecord
  2
ACAD_DSTYLE_DIMARC_LENGTH_SYMBOL
 70
     0
  0
APPID
  5
1875
330
15B5
100
AcDbSymbolTableRecord
100
AcDbRegAppTableRecord
  2
ACAD_DSTYLE_DIMJOGGED_JOGANGLE_SYMBOL
 70
     0
  0
ENDTAB
  0
TABLE
  2
DIMSTYLE
  5
15B6
330
0
100
AcDbSymbolTable
 70
     9
100
AcDbDimStyleTable
 71
     0
  0
DIMSTYLE
105
15DD
102
{ACAD_REACTORS
330
11BC
330
11C6
330
13DF
330
13EA
330
14EB
102
}
330
15B6
100
AcDbSymbolTableRecord
100
AcDbDimStyleTableRecord
  2
GEN-ISO
 70
     0
  4
"
 40
5.0
 41
2.5
 42
1.0
 43
7.0
 44
1.0
 47
0.1
 48
0.1
 73
     0
 74
     0
 77
     1
 78
     8
140
3.5
141
0.0
143
0.03937
146
0.71
147
0.6
172
     1
176
   256
177
   256
178
     2
271
     2
272
     3
274
     4
283
     0
340
15BB
  0
DIMSTYLE
105
1873
330
15B6
100
AcDbSymbolTableRecord
100
AcDbDimStyleTableRecord
  2
AM_DIN
 70
     0
  4
"
 41
2.5
 42
1.0
 43
10.0
 44
1.0
 47
0.1
 48
0.1
 73
     0
 74
     0
 77
     1
 78
     8
 79
     2
140
3.5
141
0.0
143
0.0393701
146
0.71
147
1.5
172
     1
176
   256
177
   256
178
     2
271
     2
272
     3
274
     4
283
     0
284
     8
340
15BB
371
    -1
372
    -1
1001
ACAD_DSTYLE_DIMARC_LENGTH_SYMBOL
1070
   379
1070
     0
1001
ACAD_DSTYLE_DIMJOGGED_JOGANGLE_SYMBOL
1070
   384
1040
1.570796326794896
  0
DIMSTYLE
105
1884
330
15B6
100
AcDbSymbolTableRecord
100
AcDbDimStyleTableRecord
  2
AM_DIN$3
 70
     0
  4
"
 41
2.5
 42
1.0
 43
10.0
 44
1.0
 47
0.1
 48
0.1
 73
     0
 77
     1
 78
     8
 79
     2
140
3.5
141
0.0
143
0.0393701
146
0.71
147
1.5
176
   256
177
   256
178
     2
271
     2
272
     3
274
     4
283
     0
284
     8
288
     1
289
     0
340
15BB
371
    -1
372
    -1
1001
ACAD_DSTYLE_DIMARC_LENGTH_SYMBOL
1070
   379
1070
     0
1001
ACAD_DSTYLE_DIMJOGGED_JOGANGLE_SYMBOL
1070
   384
1040
1.570796326794896
  0
DIMSTYLE
105
1889
330
15B6
100
AcDbSymbolTableRecord
100
AcDbDimStyleTableRecord
  2
AM_DIN$4
 70
     0
  4
"
 41
2.5
 42
1.0
 43
10.0
 44
1.0
 47
0.1
 48
0.1
 73
     0
 77
     1
 78
     8
 79
     2
140
3.5
141
0.0
143
0.0393701
146
0.71
147
1.5
176
   256
177
   256
178
     2
271
     2
272
     3
274
     4
283
     0
284
     8
288
     1
289
     0
340
15BB
371
    -1
372
    -1
1001
ACAD_DSTYLE_DIMARC_LENGTH_SYMBOL
1070
   379
1070
     0
1001
ACAD_DSTYLE_DIMJOGGED_JOGANGLE_SYMBOL
1070
   384
1040
1.570796326794896
  0
DIMSTYLE
105
188E
330
15B6
100
AcDbSymbolTableRecord
100
AcDbDimStyleTableRecord
  2
AM_DIN$6
 70
     0
  4
"
 41
2.5
 42
1.0
 43
10.0
 44
1.0
 47
0.1
 48
0.1
 73
     0
 74
     0
 78
     8
 79
     2
140
3.5
141
0.0
143
0.0393701
146
0.71
147
1.5
172
     1
176
   256
177
   256
178
     2
271
     2
272
     3
274
     4
283
     0
284
     8
340
15BB
371
    -1
372
    -1
1001
ACAD_DSTYLE_DIMARC_LENGTH_SYMBOL
1070
   379
1070
     0
1001
ACAD_DSTYLE_DIMJOGGED_JOGANGLE_SYMBOL
1070
   384
1040
1.570796326794896
  0
DIMSTYLE
105
1893
330
15B6
100
AcDbSymbolTableRecord
100
AcDbDimStyleTableRecord
  2
AM_DIN$7
 70
     0
  4
"
 41
2.5
 42
1.0
 43
10.0
 44
1.0
 47
0.1
 48
0.1
 73
     0
 74
     0
 77
     1
 78
     8
 79
     2
140
5.0
141
0.0
143
0.0393701
146
0.71
147
1.5
172
     1
176
   256
177
   256
178
     2
271
     2
272
     3
274
     4
283
     0
284
     8
340
15BB
371
    -1
372
    -1
1001
ACAD_DSTYLE_DIMARC_LENGTH_SYMBOL
1070
   379
1070
     0
1001
ACAD_DSTYLE_DIMJOGGED_JOGANGLE_SYMBOL
1070
   384
1040
1.570796326794896
  0
DIMSTYLE
105
1898
330
15B6
100
AcDbSymbolTableRecord
100
AcDbDimStyleTableRecord
  2
AM_DIN$SF
 70
     0
  4
"
 41
2.5
 42
1.0
 43
10.0
 44
1.0
 47
0.1
 48
0.1
 73
     0
 74
     0
 75
     1
 76
     1
 77
     1
 78
     8
 79
     2
140
3.5
141
0.0
143
0.0393701
146
0.71
147
1.5
172
     1
176
   256
177
   256
178
     2
271
     2
272
     3
274
     4
283
     0
284
     8
340
15BB
371
    -1
372
    -1
1001
ACAD_DSTYLE_DIMARC_LENGTH_SYMBOL
1070
   379
1070
     0
1001
ACAD_DSTYLE_DIMJOGGED_JOGANGLE_SYMBOL
1070
   384
1040
1.570796326794896
  0
DIMSTYLE
105
18A1
330
15B6
100
AcDbSymbolTableRecord
100
AcDbDimStyleTableRecord
  2
AM_DIN$SH
 70
     0
  4
"
 41
2.5
 42
1.0
 43
10.0
 44
1.0
 47
0.1
 48
0.1
 73
     0
 74
     0
 75
     1
 76
     1
 77
     1
 78
     8
 79
     2
140
3.5
141
0.0
143
0.0393701
144
2.0
146
0.71
147
1.5
172
     1
173
     1
176
   256
177
   256
178
     2
271
     2
272
     3
274
     4
283
     0
284
     8
340
15BB
343
1899
371
    -1
372
    -1
1001
ACAD_DSTYLE_DIMARC_LENGTH_SYMBOL
1070
   379
1070
     0
1001
ACAD_DSTYLE_DIMJOGGED_JOGANGLE_SYMBOL
1070
   384
1040
1.570796326794896
  0
ENDTAB
  0
TABLE
  2
BLOCK_RECORD
  5
15AD
330
0
100
AcDbSymbolTable
 70
    25
  0
BLOCK_RECORD
  5
15C4
330
15AD
100
AcDbSymbolTableRecord
100
AcDbBlockTableRecord
  2
*MODEL_SPACE
340
17DF
  0
BLOCK_RECORD
  5
15C1
330
15AD
100
AcDbSymbolTableRecord
100
AcDbBlockTableRecord
  2
*PAPER_SPACE
340
17E0
  0
BLOCK_RECORD
  5
15E1
330
15AD
100
AcDbSymbolTableRecord
100
AcDbBlockTableRecord
  2
*X0
340
0
102
{BLKREFS
331
1246
102
}
  0
BLOCK_RECORD
  5
15E2
330
15AD
100
AcDbSymbolTableRecord
100
AcDbBlockTableRecord
  2
*X1
340
0
102
{BLKREFS
331
12AD
102
}
  0
BLOCK_RECORD
  5
15E3
330
15AD
100
AcDbSymbolTableRecord
100
AcDbBlockTableRecord
  2
*X2
340
0
102
{BLKREFS
331
1315
102
}
  0
BLOCK_RECORD
  5
15E4
330
15AD
100
AcDbSymbolTableRecord
100
AcDbBlockTableRecord
  2
*X3
340
0
102
{BLKREFS
331
1338
102
}
  0
BLOCK_RECORD
  5
15E5
330
15AD
100
AcDbSymbolTableRecord
100
AcDbBlockTableRecord
  2
*X4
340
0
102
{BLKREFS
331
135B
102
}
  0
BLOCK_RECORD
  5
15E6
330
15AD
100
AcDbSymbolTableRecord
100
AcDbBlockTableRecord
  2
*X5
340
0
102
{BLKREFS
331
13D5
102
}
  0
BLOCK_RECORD
  5
15E9
330
15AD
100
AcDbSymbolTableRecord
100
AcDbBlockTableRecord
  2
*X6
340
0
102
{BLKREFS
331
1407
102
}
  0
BLOCK_RECORD
  5
15EA
330
15AD
100
AcDbSymbolTableRecord
100
AcDbBlockTableRecord
  2
*X7
340
0
102
{BLKREFS
331
1424
102
}
  0
BLOCK_RECORD
  5
15EB
330
15AD
100
AcDbSymbolTableRecord
100
AcDbBlockTableRecord
  2
*X8
340
0
102
{BLKREFS
331
1440
102
}
  0
BLOCK_RECORD
  5
15EC
330
15AD
100
AcDbSymbolTableRecord
100
AcDbBlockTableRecord
  2
*X9
340
0
102
{BLKREFS
331
145D
102
}
  0
BLOCK_RECORD
  5
15ED
330
15AD
100
AcDbSymbolTableRecord
100
AcDbBlockTableRecord
  2
*X10
340
0
102
{BLKREFS
331
14B2
102
}
  0
BLOCK_RECORD
  5
15EE
330
15AD
100
AcDbSymbolTableRecord
100
AcDbBlockTableRecord
  2
*X11
340
0
102
{BLKREFS
331
14D8
102
}
  0
BLOCK_RECORD
  5
1604
330
15AD
100
AcDbSymbolTableRecord
100
AcDbBlockTableRecord
  2
KATALOG_LEER
340
0
102
{BLKREFS
331
163F
331
165C
102
}
  0
BLOCK_RECORD
  5
165E
330
15AD
100
AcDbSymbolTableRecord
100
AcDbBlockTableRecord
  2
*D14
340
0
  0
BLOCK_RECORD
  5
166A
330
15AD
100
AcDbSymbolTableRecord
100
AcDbBlockTableRecord
  2
*D15
340
0
  0
BLOCK_RECORD
  5
1694
330
15AD
100
AcDbSymbolTableRecord
100
AcDbBlockTableRecord
  2
*D17
340
0
  0
BLOCK_RECORD
  5
16AD
330
15AD
100
AcDbSymbolTableRecord
100
AcDbBlockTableRecord
  2
*D18
340
0
  0
BLOCK_RECORD
  5
16C6
330
15AD
100
AcDbSymbolTableRecord
100
AcDbBlockTableRecord
  2
*D19
340
0
  0
BLOCK_RECORD
  5
1899
330
15AD
100
AcDbSymbolTableRecord
100
AcDbBlockTableRecord
  2
GENAXEH
340
0
  0
ENDTAB
  0
ENDSEC
  0
SECTION
  2
BLOCKS
  0
BLOCK
  5
15C5
330
15C4
100
AcDbEntity
  8
0
100
AcDbBlockBegin
  2
*MODEL_SPACE
 70
     0
 10
0.0
 20
0.0
 30
0.0
  3
*MODEL_SPACE
  1

  0
ENDBLK
  5
15C6
330
15C4
100
AcDbEntity
  8
0
100
AcDbBlockEnd
  0
BLOCK
  5
15C2
330
15C1
100
AcDbEntity
 67
     1
  8
0
100
AcDbBlockBegin
  2
*PAPER_SPACE
 70
     0
 10
0.0
 20
0.0
 30
0.0
  3
*PAPER_SPACE
  1

  0
ENDBLK
  5
15C3
330
15C1
100
AcDbEntity
 67
     1
  8
0
100
AcDbBlockEnd
  0
BLOCK
  5
120B
330
15E1
100
AcDbEntity
  8
0
100
AcDbBlockBegin
  2
*X0
 70
     1
 10
0.0
 20
0.0
 30
0.0
  3
*X0
  1

  0
LINE
  5
120C
330
15E1
100
AcDbEntity
  8
8
100
AcDbLine
 10
460.411
 20
1095.04
 30
0.0
 11
462.9109999999999
 21
1095.04
 31
0.0
  0
LINE
  5
120D
330
15E1
100
AcDbEntity
  8
8
100
AcDbLine
 10
582.9109999999999
 20
1095.04
 30
0.0
 11
585.4109999999999
 21
1095.04
 31
0.0
  0
LINE
  5
120E
330
15E1
100
AcDbEntity
  8
8
100
AcDbLine
 10
460.411
 20
1098.215
 30
0.0
 11
462.9109999999999
 21
1098.215
 31
0.0
  0
LINE
  5
120F
330
15E1
100
AcDbEntity
  8
8
100
AcDbLine
 10
582.9109999999999
 20
1098.215
 30
0.0
 11
585.4109999999999
 21
1098.215
 31
0.0
  0
LINE
  5
1210
330
15E1
100
AcDbEntity
  8
8
100
AcDbLine
 10
460.411
 20
1101.39
 30
0.0
 11
462.9109999999999
 21
1101.39
 31
0.0
  0
LINE
  5
1211
330
15E1
100
AcDbEntity
  8
8
100
AcDbLine
 10
582.9109999999999
 20
1101.39
 30
0.0
 11
585.4109999999999
 21
1101.39
 31
0.0
  0
LINE
  5
1212
330
15E1
100
AcDbEntity
  8
8
100
AcDbLine
 10
460.411
 20
1104.565
 30
0.0
 11
462.9109999999999
 21
1104.565
 31
0.0
  0
LINE
  5
1213
330
15E1
100
AcDbEntity
  8
8
100
AcDbLine
 10
582.9109999999999
 20
1104.565
 30
0.0
 11
585.4109999999999
 21
1104.565
 31
0.0
  0
LINE
  5
1214
330
15E1
100
AcDbEntity
  8
8
100
AcDbLine
 10
460.411
 20
1107.74
 30
0.0
 11
462.9109999999999
 21
1107.74
 31
0.0
  0
LINE
  5
1215
330
15E1
100
AcDbEntity
  8
8
100
AcDbLine
 10
582.9109999999999
 20
1107.74
 30
0.0
 11
585.4109999999999
 21
1107.74
 31
0.0
  0
LINE
  5
1216
330
15E1
100
AcDbEntity
  8
8
100
AcDbLine
 10
460.411
 20
1110.915
 30
0.0
 11
462.9109999999999
 21
1110.915
 31
0.0
  0
LINE
  5
1217
330
15E1
100
AcDbEntity
  8
8
100
AcDbLine
 10
582.9109999999999
 20
1110.915
 30
0.0
 11
585.4109999999999
 21
1110.915
 31
0.0
  0
LINE
  5
1218
330
15E1
100
AcDbEntity
  8
8
100
AcDbLine
 10
460.411
 20
1114.09
 30
0.0
 11
462.9109999999999
 21
1114.09
 31
0.0
  0
LINE
  5
1219
330
15E1
100
AcDbEntity
  8
8
100
AcDbLine
 10
582.9109999999999
 20
1114.09
 30
0.0
 11
585.4109999999999
 21
1114.09
 31
0.0
  0
LINE
  5
121A
330
15E1
100
AcDbEntity
  8
8
100
AcDbLine
 10
460.411
 20
1117.265
 30
0.0
 11
462.9109999999999
 21
1117.265
 31
0.0
  0
LINE
  5
121B
330
15E1
100
AcDbEntity
  8
8
100
AcDbLine
 10
582.9109999999999
 20
1117.265
 30
0.0
 11
585.4109999999999
 21
1117.265
 31
0.0
  0
LINE
  5
121C
330
15E1
100
AcDbEntity
  8
8
100
AcDbLine
 10
460.411
 20
1120.44
 30
0.0
 11
462.9109999999999
 21
1120.44
 31
0.0
  0
LINE
  5
121D
330
15E1
100
AcDbEntity
  8
8
100
AcDbLine
 10
582.9109999999999
 20
1120.44
 30
0.0
 11
585.4109999999999
 21
1120.44
 31
0.0
  0
LINE
  5
121E
330
15E1
100
AcDbEntity
  8
8
100
AcDbLine
 10
460.411
 20
1123.615
 30
0.0
 11
462.9109999999999
 21
1123.615
 31
0.0
  0
LINE
  5
121F
330
15E1
100
AcDbEntity
  8
8
100
AcDbLine
 10
582.9109999999999
 20
1123.615
 30
0.0
 11
585.4109999999999
 21
1123.615
 31
0.0
  0
LINE
  5
1220
330
15E1
100
AcDbEntity
  8
8
100
AcDbLine
 10
460.411
 20
1126.79
 30
0.0
 11
462.9109999999999
 21
1126.79
 31
0.0
  0
LINE
  5
1221
330
15E1
100
AcDbEntity
  8
8
100
AcDbLine
 10
582.9109999999999
 20
1126.79
 30
0.0
 11
585.4109999999999
 21
1126.79
 31
0.0
  0
LINE
  5
1222
330
15E1
100
AcDbEntity
  8
8
100
AcDbLine
 10
460.411
 20
1129.965
 30
0.0
 11
462.9109999999999
 21
1129.965
 31
0.0
  0
LINE
  5
1223
330
15E1
100
AcDbEntity
  8
8
100
AcDbLine
 10
582.9109999999999
 20
1129.965
 30
0.0
 11
585.4109999999999
 21
1129.965
 31
0.0
  0
LINE
  5
1224
330
15E1
100
AcDbEntity
  8
8
100
AcDbLine
 10
460.411
 20
1133.14
 30
0.0
 11
462.9109999999999
 21
1133.14
 31
0.0
  0
LINE
  5
1225
330
15E1
100
AcDbEntity
  8
8
100
AcDbLine
 10
582.9109999999999
 20
1133.14
 30
0.0
 11
585.4109999999999
 21
1133.14
 31
0.0
  0
LINE
  5
1226
330
15E1
100
AcDbEntity
  8
8
100
AcDbLine
 10
460.411
 20
1136.315
 30
0.0
 11
462.9109999999999
 21
1136.315
 31
0.0
  0
LINE
  5
1227
330
15E1
100
AcDbEntity
  8
8
100
AcDbLine
 10
582.9109999999999
 20
1136.315
 30
0.0
 11
585.4109999999999
 21
1136.315
 31
0.0
  0
LINE
  5
1228
330
15E1
100
AcDbEntity
  8
8
100
AcDbLine
 10
460.411
 20
1139.49
 30
0.0
 11
462.9109999999999
 21
1139.49
 31
0.0
  0
LINE
  5
1229
330
15E1
100
AcDbEntity
  8
8
100
AcDbLine
 10
582.9109999999999
 20
1139.49
 30
0.0
 11
585.4109999999999
 21
1139.49
 31
0.0
  0
LINE
  5
122A
330
15E1
100
AcDbEntity
  8
8
100
AcDbLine
 10
460.411
 20
1142.665
 30
0.0
 11
462.9109999999999
 21
1142.665
 31
0.0
  0
LINE
  5
122B
330
15E1
100
AcDbEntity
  8
8
100
AcDbLine
 10
582.9109999999999
 20
1142.665
 30
0.0
 11
585.4109999999999
 21
1142.665
 31
0.0
  0
LINE
  5
122C
330
15E1
100
AcDbEntity
  8
8
100
AcDbLine
 10
460.411
 20
1145.84
 30
0.0
 11
462.9109999999999
 21
1145.84
 31
0.0
  0
LINE
  5
122D
330
15E1
100
AcDbEntity
  8
8
100
AcDbLine
 10
582.9109999999999
 20
1145.84
 30
0.0
 11
585.4109999999999
 21
1145.84
 31
0.0
  0
LINE
  5
122E
330
15E1
100
AcDbEntity
  8
8
100
AcDbLine
 10
460.411
 20
1149.015
 30
0.0
 11
462.9109999999999
 21
1149.015
 31
0.0
  0
LINE
  5
122F
330
15E1
100
AcDbEntity
  8
8
100
AcDbLine
 10
582.9109999999999
 20
1149.015
 30
0.0
 11
585.4109999999999
 21
1149.015
 31
0.0
  0
LINE
  5
1230
330
15E1
100
AcDbEntity
  8
8
100
AcDbLine
 10
460.411
 20
1152.19
 30
0.0
 11
462.9109999999999
 21
1152.19
 31
0.0
  0
LINE
  5
1231
330
15E1
100
AcDbEntity
  8
8
100
AcDbLine
 10
582.9109999999999
 20
1152.19
 30
0.0
 11
585.4109999999999
 21
1152.19
 31
0.0
  0
LINE
  5
1232
330
15E1
100
AcDbEntity
  8
8
100
AcDbLine
 10
460.411
 20
1155.365
 30
0.0
 11
462.9109999999999
 21
1155.365
 31
0.0
  0
LINE
  5
1233
330
15E1
100
AcDbEntity
  8
8
100
AcDbLine
 10
582.9109999999999
 20
1155.365
 30
0.0
 11
585.4109999999999
 21
1155.365
 31
0.0
  0
LINE
  5
1234
330
15E1
100
AcDbEntity
  8
8
100
AcDbLine
 10
460.724
 20
1158.54
 30
0.0
 11
463.3059999999999
 21
1158.54
 31
0.0
  0
LINE
  5
1235
330
15E1
100
AcDbEntity
  8
8
100
AcDbLine
 10
582.5149999999999
 20
1158.54
 30
0.0
 11
585.097
 21
1158.54
 31
0.0
  0
LINE
  5
1236
330
15E1
100
AcDbEntity
  8
8
100
AcDbLine
 10
461.628
 20
1161.715
 30
0.0
 11
464.3799999999999
 21
1161.715
 31
0.0
  0
LINE
  5
1237
330
15E1
100
AcDbEntity
  8
8
100
AcDbLine
 10
581.441
 20
1161.715
 30
0.0
 11
584.1929999999999
 21
1161.715
 31
0.0
  0
LINE
  5
1238
330
15E1
100
AcDbEntity
  8
8
100
AcDbLine
 10
463.2369999999999
 20
1164.89
 30
0.0
 11
466.364
 21
1164.89
 31
0.0
  0
LINE
  5
1239
330
15E1
100
AcDbEntity
  8
8
100
AcDbLine
 10
518.0549999999999
 20
1164.89
 30
0.0
 11
527.7669999999999
 21
1164.89
 31
0.0
  0
LINE
  5
123A
330
15E1
100
AcDbEntity
  8
8
100
AcDbLine
 10
579.457
 20
1164.89
 30
0.0
 11
582.584
 21
1164.89
 31
0.0
  0
LINE
  5
123B
330
15E1
100
AcDbEntity
  8
8
100
AcDbLine
 10
465.863
 20
1168.065
 30
0.0
 11
470.0169999999999
 21
1168.065
 31
0.0
  0
LINE
  5
123C
330
15E1
100
AcDbEntity
  8
8
100
AcDbLine
 10
515.2959999999999
 20
1168.065
 30
0.0
 11
518.3849999999999
 21
1168.065
 31
0.0
  0
LINE
  5
123D
330
15E1
100
AcDbEntity
  8
8
100
AcDbLine
 10
527.436
 20
1168.065
 30
0.0
 11
530.525
 21
1168.065
 31
0.0
  0
LINE
  5
123E
330
15E1
100
AcDbEntity
  8
8
100
AcDbLine
 10
575.804
 20
1168.065
 30
0.0
 11
579.958
 21
1168.065
 31
0.0
  0
LINE
  5
123F
330
15E1
100
AcDbEntity
  8
8
100
AcDbLine
 10
470.578
 20
1171.24
 30
0.0
 11
487.174
 21
1171.24
 31
0.0
  0
LINE
  5
1240
330
15E1
100
AcDbEntity
  8
8
100
AcDbLine
 10
513.46
 20
1171.24
 30
0.0
 11
516.349
 21
1171.24
 31
0.0
  0
LINE
  5
1241
330
15E1
100
AcDbEntity
  8
8
100
AcDbLine
 10
529.4719999999999
 20
1171.24
 30
0.0
 11
532.361
 21
1171.24
 31
0.0
  0
LINE
  5
1242
330
15E1
100
AcDbEntity
  8
8
100
AcDbLine
 10
558.644
 20
1171.24
 30
0.0
 11
575.243
 21
1171.24
 31
0.0
  0
LINE
  5
1243
330
15E1
100
AcDbEntity
  8
8
100
AcDbLine
 10
494.783
 20
1174.415
 30
0.0
 11
514.0909999999999
 21
1174.415
 31
0.0
  0
LINE
  5
1244
330
15E1
100
AcDbEntity
  8
8
100
AcDbLine
 10
531.73
 20
1174.415
 30
0.0
 11
551.0369999999999
 21
1174.415
 31
0.0
  0
ENDBLK
  5
1245
330
15E1
100
AcDbEntity
  8
0
100
AcDbBlockEnd
  0
BLOCK
  5
1286
330
15E2
100
AcDbEntity
  8
0
100
AcDbBlockBegin
  2
*X1
 70
     1
 10
0.0
 20
0.0
 30
0.0
  3
*X1
  1

  0
LINE
  5
1287
330
15E2
100
AcDbEntity
  8
8
100
AcDbLine
 10
477.815
 20
1034.715
 30
0.0
 11
482.911
 21
1034.715
 31
0.0
  0
LINE
  5
1288
330
15E2
100
AcDbEntity
  8
8
100
AcDbLine
 10
479.7009999999999
 20
1037.89
 30
0.0
 11
482.911
 21
1037.89
 31
0.0
  0
LINE
  5
1289
330
15E2
100
AcDbEntity
  8
8
100
AcDbLine
 10
479.4459999999999
 20
1041.065
 30
0.0
 11
482.911
 21
1041.065
 31
0.0
  0
LINE
  5
128A
330
15E2
100
AcDbEntity
  8
8
100
AcDbLine
 10
477.9609999999999
 20
1044.24
 30
0.0
 11
482.911
 21
1044.24
 31
0.0
  0
LINE
  5
128B
330
15E2
100
AcDbEntity
  8
8
100
AcDbLine
 10
477.911
 20
1047.415
 30
0.0
 11
482.911
 21
1047.415
 31
0.0
  0
LINE
  5
128C
330
15E2
100
AcDbEntity
  8
8
100
AcDbLine
 10
478.35
 20
1050.59
 30
0.0
 11
482.911
 21
1050.59
 31
0.0
  0
LINE
  5
128D
330
15E2
100
AcDbEntity
  8
8
100
AcDbLine
 10
479.837
 20
1053.765
 30
0.0
 11
482.911
 21
1053.765
 31
0.0
  0
LINE
  5
128E
330
15E2
100
AcDbEntity
  8
8
100
AcDbLine
 10
479.6809999999999
 20
1056.94
 30
0.0
 11
482.911
 21
1056.94
 31
0.0
  0
LINE
  5
128F
330
15E2
100
AcDbEntity
  8
8
100
AcDbLine
 10
474.4539999999999
 20
1060.115
 30
0.0
 11
482.911
 21
1060.115
 31
0.0
  0
LINE
  5
1290
330
15E2
100
AcDbEntity
  8
8
100
AcDbLine
 10
479.534
 20
1063.29
 30
0.0
 11
482.911
 21
1063.29
 31
0.0
  0
LINE
  5
1291
330
15E2
100
AcDbEntity
  8
8
100
AcDbLine
 10
479.663
 20
1066.465
 30
0.0
 11
482.911
 21
1066.465
 31
0.0
  0
LINE
  5
1292
330
15E2
100
AcDbEntity
  8
8
100
AcDbLine
 10
462.5099999999999
 20
1069.64
 30
0.0
 11
483.375
 21
1069.64
 31
0.0
  0
LINE
  5
1293
330
15E2
100
AcDbEntity
  8
8
100
AcDbLine
 10
473.911
 20
1072.815
 30
0.0
 11
485.12
 21
1072.815
 31
0.0
  0
LINE
  5
1294
330
15E2
100
AcDbEntity
  8
8
100
AcDbLine
 10
484.044
 20
1075.99
 30
0.0
 11
489.049
 21
1075.99
 31
0.0
  0
LINE
  5
1295
330
15E2
100
AcDbEntity
  8
8
100
AcDbLine
 10
489.2380000000001
 20
1079.165
 30
0.0
 11
493.0649999999999
 21
1079.165
 31
0.0
  0
LINE
  5
1296
330
15E2
100
AcDbEntity
  8
8
100
AcDbLine
 10
492.63
 20
1082.34
 30
0.0
 11
495.8769999999999
 21
1082.34
 31
0.0
  0
LINE
  5
1297
330
15E2
100
AcDbEntity
  8
8
100
AcDbLine
 10
495.0709999999999
 20
1085.515
 30
0.0
 11
497.975
 21
1085.515
 31
0.0
  0
LINE
  5
1298
330
15E2
100
AcDbEntity
  8
8
100
AcDbLine
 10
496.768
 20
1088.69
 30
0.0
 11
499.419
 21
1088.69
 31
0.0
  0
LINE
  5
1299
330
15E2
100
AcDbEntity
  8
8
100
AcDbLine
 10
497.907
 20
1091.865
 30
0.0
 11
501.3919999999999
 21
1091.865
 31
0.0
  0
LINE
  5
129A
330
15E2
100
AcDbEntity
  8
8
100
AcDbLine
 10
498.596
 20
1095.04
 30
0.0
 11
501.37
 21
1095.04
 31
0.0
  0
LINE
  5
129B
330
15E2
100
AcDbEntity
  8
8
100
AcDbLine
 10
498.8559999999999
 20
1098.215
 30
0.0
 11
501.348
 21
1098.215
 31
0.0
  0
LINE
  5
129C
330
15E2
100
AcDbEntity
  8
8
100
AcDbLine
 10
498.911
 20
1101.39
 30
0.0
 11
501.343
 21
1101.39
 31
0.0
  0
LINE
  5
129D
330
15E2
100
AcDbEntity
  8
8
100
AcDbLine
 10
498.911
 20
1104.565
 30
0.0
 11
501.3469999999999
 21
1104.565
 31
0.0
  0
LINE
  5
129E
330
15E2
100
AcDbEntity
  8
8
100
AcDbLine
 10
498.911
 20
1107.74
 30
0.0
 11
501.351
 21
1107.74
 31
0.0
  0
LINE
  5
129F
330
15E2
100
AcDbEntity
  8
8
100
AcDbLine
 10
498.911
 20
1110.915
 30
0.0
 11
501.356
 21
1110.915
 31
0.0
  0
LINE
  5
12A0
330
15E2
100
AcDbEntity
  8
8
100
AcDbLine
 10
498.911
 20
1114.09
 30
0.0
 11
501.36
 21
1114.09
 31
0.0
  0
LINE
  5
12A1
330
15E2
100
AcDbEntity
  8
8
100
AcDbLine
 10
498.911
 20
1117.265
 30
0.0
 11
501.364
 21
1117.265
 31
0.0
  0
LINE
  5
12A2
330
15E2
100
AcDbEntity
  8
8
100
AcDbLine
 10
498.911
 20
1120.44
 30
0.0
 11
501.368
 21
1120.44
 31
0.0
  0
LINE
  5
12A3
330
15E2
100
AcDbEntity
  8
8
100
AcDbLine
 10
498.911
 20
1123.615
 30
0.0
 11
501.373
 21
1123.615
 31
0.0
  0
LINE
  5
12A4
330
15E2
100
AcDbEntity
  8
8
100
AcDbLine
 10
498.911
 20
1126.79
 30
0.0
 11
501.377
 21
1126.79
 31
0.0
  0
LINE
  5
12A5
330
15E2
100
AcDbEntity
  8
8
100
AcDbLine
 10
498.911
 20
1129.965
 30
0.0
 11
501.3809999999999
 21
1129.965
 31
0.0
  0
LINE
  5
12A6
330
15E2
100
AcDbEntity
  8
8
100
AcDbLine
 10
498.911
 20
1133.14
 30
0.0
 11
501.3849999999999
 21
1133.14
 31
0.0
  0
LINE
  5
12A7
330
15E2
100
AcDbEntity
  8
8
100
AcDbLine
 10
498.911
 20
1136.315
 30
0.0
 11
501.3899999999999
 21
1136.315
 31
0.0
  0
LINE
  5
12A8
330
15E2
100
AcDbEntity
  8
8
100
AcDbLine
 10
498.911
 20
1139.49
 30
0.0
 11
501.3939999999999
 21
1139.49
 31
0.0
  0
LINE
  5
12A9
330
15E2
100
AcDbEntity
  8
8
100
AcDbLine
 10
498.911
 20
1142.665
 30
0.0
 11
501.398
 21
1142.665
 31
0.0
  0
LINE
  5
12AA
330
15E2
100
AcDbEntity
  8
8
100
AcDbLine
 10
498.911
 20
1145.84
 30
0.0
 11
501.402
 21
1145.84
 31
0.0
  0
LINE
  5
12AB
330
15E2
100
AcDbEntity
  8
8
100
AcDbLine
 10
498.911
 20
1149.015
 30
0.0
 11
501.407
 21
1149.015
 31
0.0
  0
ENDBLK
  5
12AC
330
15E2
100
AcDbEntity
  8
0
100
AcDbBlockEnd
  0
BLOCK
  5
12EE
330
15E3
100
AcDbEntity
  8
0
100
AcDbBlockBegin
  2
*X2
 70
     1
 10
0.0
 20
0.0
 30
0.0
  3
*X2
  1

  0
LINE
  5
12EF
330
15E3
100
AcDbEntity
  8
8
100
AcDbLine
 10
562.9109999999999
 20
1034.715
 30
0.0
 11
568.1459999999999
 21
1034.715
 31
0.0
  0
LINE
  5
12F0
330
15E3
100
AcDbEntity
  8
8
100
AcDbLine
 10
562.9109999999999
 20
1037.89
 30
0.0
 11
566.0599999999999
 21
1037.89
 31
0.0
  0
LINE
  5
12F1
330
15E3
100
AcDbEntity
  8
8
100
AcDbLine
 10
562.9109999999999
 20
1041.065
 30
0.0
 11
566.335
 21
1041.065
 31
0.0
  0
LINE
  5
12F2
330
15E3
100
AcDbEntity
  8
8
100
AcDbLine
 10
562.9109999999999
 20
1044.24
 30
0.0
 11
567.86
 21
1044.24
 31
0.0
  0
LINE
  5
12F3
330
15E3
100
AcDbEntity
  8
8
100
AcDbLine
 10
562.9109999999999
 20
1047.415
 30
0.0
 11
567.9109999999999
 21
1047.415
 31
0.0
  0
LINE
  5
12F4
330
15E3
100
AcDbEntity
  8
8
100
AcDbLine
 10
562.9109999999999
 20
1050.59
 30
0.0
 11
567.4719999999999
 21
1050.59
 31
0.0
  0
LINE
  5
12F5
330
15E3
100
AcDbEntity
  8
8
100
AcDbLine
 10
562.9109999999999
 20
1053.765
 30
0.0
 11
565.984
 21
1053.765
 31
0.0
  0
LINE
  5
12F6
330
15E3
100
AcDbEntity
  8
8
100
AcDbLine
 10
562.9109999999999
 20
1056.94
 30
0.0
 11
566.1439999999999
 21
1056.94
 31
0.0
  0
LINE
  5
12F7
330
15E3
100
AcDbEntity
  8
8
100
AcDbLine
 10
562.9109999999999
 20
1060.115
 30
0.0
 11
571.3659999999999
 21
1060.115
 31
0.0
  0
LINE
  5
12F8
330
15E3
100
AcDbEntity
  8
8
100
AcDbLine
 10
562.9109999999999
 20
1063.29
 30
0.0
 11
566.2949999999999
 21
1063.29
 31
0.0
  0
LINE
  5
12F9
330
15E3
100
AcDbEntity
  8
8
100
AcDbLine
 10
562.9109999999999
 20
1066.465
 30
0.0
 11
566.1649999999999
 21
1066.465
 31
0.0
  0
LINE
  5
12FA
330
15E3
100
AcDbEntity
  8
8
100
AcDbLine
 10
562.44
 20
1069.64
 30
0.0
 11
583.311
 21
1069.64
 31
0.0
  0
LINE
  5
12FB
330
15E3
100
AcDbEntity
  8
8
100
AcDbLine
 10
560.6939999999999
 20
1072.815
 30
0.0
 11
571.9109999999999
 21
1072.815
 31
0.0
  0
LINE
  5
12FC
330
15E3
100
AcDbEntity
  8
8
100
AcDbLine
 10
556.775
 20
1075.99
 30
0.0
 11
561.7899999999999
 21
1075.99
 31
0.0
  0
LINE
  5
12FD
330
15E3
100
AcDbEntity
  8
8
100
AcDbLine
 10
552.765
 20
1079.165
 30
0.0
 11
556.592
 21
1079.165
 31
0.0
  0
LINE
  5
12FE
330
15E3
100
AcDbEntity
  8
8
100
AcDbLine
 10
549.9509999999999
 20
1082.34
 30
0.0
 11
553.199
 21
1082.34
 31
0.0
  0
LINE
  5
12FF
330
15E3
100
AcDbEntity
  8
8
100
AcDbLine
 10
547.8509999999999
 20
1085.515
 30
0.0
 11
550.7559999999999
 21
1085.515
 31
0.0
  0
LINE
  5
1300
330
15E3
100
AcDbEntity
  8
8
100
AcDbLine
 10
546.403
 20
1088.69
 30
0.0
 11
549.059
 21
1088.69
 31
0.0
  0
LINE
  5
1301
330
15E3
100
AcDbEntity
  8
8
100
AcDbLine
 10
544.4109999999999
 20
1091.865
 30
0.0
 11
547.914
 21
1091.865
 31
0.0
  0
LINE
  5
1302
330
15E3
100
AcDbEntity
  8
8
100
AcDbLine
 10
544.4109999999999
 20
1095.04
 30
0.0
 11
547.229
 21
1095.04
 31
0.0
  0
LINE
  5
1303
330
15E3
100
AcDbEntity
  8
8
100
AcDbLine
 10
544.4109999999999
 20
1098.215
 30
0.0
 11
546.965
 21
1098.215
 31
0.0
  0
LINE
  5
1304
330
15E3
100
AcDbEntity
  8
8
100
AcDbLine
 10
544.4109999999999
 20
1101.39
 30
0.0
 11
546.9109999999999
 21
1101.39
 31
0.0
  0
LINE
  5
1305
330
15E3
100
AcDbEntity
  8
8
100
AcDbLine
 10
544.4109999999999
 20
1104.565
 30
0.0
 11
546.9109999999999
 21
1104.565
 31
0.0
  0
LINE
  5
1306
330
15E3
100
AcDbEntity
  8
8
100
AcDbLine
 10
544.4109999999999
 20
1107.74
 30
0.0
 11
546.9109999999999
 21
1107.74
 31
0.0
  0
LINE
  5
1307
330
15E3
100
AcDbEntity
  8
8
100
AcDbLine
 10
544.4109999999999
 20
1110.915
 30
0.0
 11
546.9109999999999
 21
1110.915
 31
0.0
  0
LINE
  5
1308
330
15E3
100
AcDbEntity
  8
8
100
AcDbLine
 10
544.4109999999999
 20
1114.09
 30
0.0
 11
546.9109999999999
 21
1114.09
 31
0.0
  0
LINE
  5
1309
330
15E3
100
AcDbEntity
  8
8
100
AcDbLine
 10
544.4109999999999
 20
1117.265
 30
0.0
 11
546.9109999999999
 21
1117.265
 31
0.0
  0
LINE
  5
130A
330
15E3
100
AcDbEntity
  8
8
100
AcDbLine
 10
544.4109999999999
 20
1120.44
 30
0.0
 11
546.9109999999999
 21
1120.44
 31
0.0
  0
LINE
  5
130B
330
15E3
100
AcDbEntity
  8
8
100
AcDbLine
 10
544.4109999999999
 20
1123.615
 30
0.0
 11
546.9109999999999
 21
1123.615
 31
0.0
  0
LINE
  5
130C
330
15E3
100
AcDbEntity
  8
8
100
AcDbLine
 10
544.4109999999999
 20
1126.79
 30
0.0
 11
546.9109999999999
 21
1126.79
 31
0.0
  0
LINE
  5
130D
330
15E3
100
AcDbEntity
  8
8
100
AcDbLine
 10
544.4109999999999
 20
1129.965
 30
0.0
 11
546.9109999999999
 21
1129.965
 31
0.0
  0
LINE
  5
130E
330
15E3
100
AcDbEntity
  8
8
100
AcDbLine
 10
544.4109999999999
 20
1133.14
 30
0.0
 11
546.9109999999999
 21
1133.14
 31
0.0
  0
LINE
  5
130F
330
15E3
100
AcDbEntity
  8
8
100
AcDbLine
 10
544.4109999999999
 20
1136.315
 30
0.0
 11
546.9109999999999
 21
1136.315
 31
0.0
  0
LINE
  5
1310
330
15E3
100
AcDbEntity
  8
8
100
AcDbLine
 10
544.4109999999999
 20
1139.49
 30
0.0
 11
546.9109999999999
 21
1139.49
 31
0.0
  0
LINE
  5
1311
330
15E3
100
AcDbEntity
  8
8
100
AcDbLine
 10
544.4109999999999
 20
1142.665
 30
0.0
 11
546.9109999999999
 21
1142.665
 31
0.0
  0
LINE
  5
1312
330
15E3
100
AcDbEntity
  8
8
100
AcDbLine
 10
544.4109999999999
 20
1145.84
 30
0.0
 11
546.9109999999999
 21
1145.84
 31
0.0
  0
LINE
  5
1313
330
15E3
100
AcDbEntity
  8
8
100
AcDbLine
 10
544.4109999999999
 20
1149.015
 30
0.0
 11
546.9109999999999
 21
1149.015
 31
0.0
  0
ENDBLK
  5
1314
330
15E3
100
AcDbEntity
  8
0
100
AcDbBlockEnd
  0
BLOCK
  5
1332
330
15E4
100
AcDbEntity
  8
0
100
AcDbBlockBegin
  2
*X3
 70
     1
 10
0.0
 20
0.0
 30
0.0
  3
*X3
  1

  0
LINE
  5
1333
330
15E4
100
AcDbEntity
  8
8
100
AcDbLine
 10
568.8049999999999
 20
1051.122
 30
0.0
 11
573.665
 21
1055.982
 31
0.0
  0
LINE
  5
1334
330
15E4
100
AcDbEntity
  8
8
100
AcDbLine
 10
566.343
 20
1053.15
 30
0.0
 11
571.6369999999999
 21
1058.444
 31
0.0
  0
LINE
  5
1335
330
15E4
100
AcDbEntity
  8
8
100
AcDbLine
 10
573.479
 20
1053.443
 30
0.0
 11
568.3559999999999
 21
1058.565
 31
0.0
  0
LINE
  5
1336
330
15E4
100
AcDbEntity
  8
8
100
AcDbLine
 10
571.1879999999999
 20
1051.243
 30
0.0
 11
566.1569999999999
 21
1056.274
 31
0.0
  0
ENDBLK
  5
1337
330
15E4
100
AcDbEntity
  8
0
100
AcDbBlockEnd
  0
BLOCK
  5
1355
330
15E5
100
AcDbEntity
  8
0
100
AcDbBlockBegin
  2
*X4
 70
     1
 10
0.0
 20
0.0
 30
0.0
  3
*X4
  1

  0
LINE
  5
1356
330
15E5
100
AcDbEntity
  8
8
100
AcDbLine
 10
474.633
 20
1051.243
 30
0.0
 11
479.664
 21
1056.274
 31
0.0
  0
LINE
  5
1357
330
15E5
100
AcDbEntity
  8
8
100
AcDbLine
 10
472.3419999999999
 20
1053.442
 30
0.0
 11
477.465
 21
1058.565
 31
0.0
  0
LINE
  5
1358
330
15E5
100
AcDbEntity
  8
8
100
AcDbLine
 10
479.478
 20
1053.151
 30
0.0
 11
474.185
 21
1058.444
 31
0.0
  0
LINE
  5
1359
330
15E5
100
AcDbEntity
  8
8
100
AcDbLine
 10
477.017
 20
1051.122
 30
0.0
 11
472.156
 21
1055.982
 31
0.0
  0
ENDBLK
  5
135A
330
15E5
100
AcDbEntity
  8
0
100
AcDbBlockEnd
  0
BLOCK
  5
13A6
330
15E6
100
AcDbEntity
  8
0
100
AcDbBlockBegin
  2
*X5
 70
     1
 10
0.0
 20
0.0
 30
0.0
  3
*X5
  1

  0
LINE
  5
13A7
330
15E6
100
AcDbEntity
  8
8
100
AcDbLine
 10
572.0869999999999
 20
996.4630000000001
 30
0.0
 11
577.7509999999999
 21
990.7989999999999
 31
0.0
  0
LINE
  5
13A8
330
15E6
100
AcDbEntity
  8
8
100
AcDbLine
 10
572.2109999999999
 20
1005.319
 30
0.0
 11
577.894
 21
999.6360000000001
 31
0.0
  0
LINE
  5
13A9
330
15E6
100
AcDbEntity
  8
8
100
AcDbLine
 10
573.013
 20
1013.498
 30
0.0
 11
578.0369999999999
 21
1008.474
 31
0.0
  0
LINE
  5
13AA
330
15E6
100
AcDbEntity
  8
8
100
AcDbLine
 10
573.221
 20
1022.27
 30
0.0
 11
578.1799999999999
 21
1017.311
 31
0.0
  0
LINE
  5
13AB
330
15E6
100
AcDbEntity
  8
8
100
AcDbLine
 10
573.374
 20
1031.097
 30
0.0
 11
578.3229999999999
 21
1026.148
 31
0.0
  0
LINE
  5
13AC
330
15E6
100
AcDbEntity
  8
8
100
AcDbLine
 10
573.528
 20
1039.923
 30
0.0
 11
578.466
 21
1034.985
 31
0.0
  0
LINE
  5
13AD
330
15E6
100
AcDbEntity
  8
8
100
AcDbLine
 10
573.682
 20
1048.749
 30
0.0
 11
578.609
 21
1043.822
 31
0.0
  0
LINE
  5
13AE
330
15E6
100
AcDbEntity
  8
8
100
AcDbLine
 10
573.836
 20
1057.575
 30
0.0
 11
578.7519999999999
 21
1052.659
 31
0.0
  0
LINE
  5
13AF
330
15E6
100
AcDbEntity
  8
8
100
AcDbLine
 10
574.124
 20
1066.268
 30
0.0
 11
580.365
 21
1060.027
 31
0.0
  0
LINE
  5
13B0
330
15E6
100
AcDbEntity
  8
8
100
AcDbLine
 10
580.496
 20
1068.876
 30
0.0
 11
584.315
 21
1065.057
 31
0.0
  0
LINE
  5
13B1
330
15E6
100
AcDbEntity
  8
8
100
AcDbLine
 10
585.213
 20
1073.139
 30
0.0
 11
590.206
 21
1068.147
 31
0.0
  0
LINE
  5
13B2
330
15E6
100
AcDbEntity
  8
8
100
AcDbLine
 10
593.4569999999999
 20
1073.876
 30
0.0
 11
598.1219999999999
 21
1069.211
 31
0.0
  0
LINE
  5
13B3
330
15E6
100
AcDbEntity
  8
8
100
AcDbLine
 10
601.5729999999999
 20
1074.74
 30
0.0
 11
605.718
 21
1070.595
 31
0.0
  0
LINE
  5
13B4
330
15E6
100
AcDbEntity
  8
8
100
AcDbLine
 10
608.1649999999999
 20
1077.128
 30
0.0
 11
612.0980000000001
 21
1073.196
 31
0.0
  0
LINE
  5
13B5
330
15E6
100
AcDbEntity
  8
8
100
AcDbLine
 10
613.703
 20
1080.571
 30
0.0
 11
617.2849999999999
 21
1076.989
 31
0.0
  0
LINE
  5
13B6
330
15E6
100
AcDbEntity
  8
8
100
AcDbLine
 10
618.3099999999999
 20
1084.943
 30
0.0
 11
621.723
 21
1081.53
 31
0.0
  0
LINE
  5
13B7
330
15E6
100
AcDbEntity
  8
8
100
AcDbLine
 10
621.653
 20
1090.581
 30
0.0
 11
625.454
 21
1086.78
 31
0.0
  0
LINE
  5
13B8
330
15E6
100
AcDbEntity
  8
8
100
AcDbLine
 10
623.9119999999999
 20
1097.302
 30
0.0
 11
628.2899999999999
 21
1092.924
 31
0.0
  0
LINE
  5
13B9
330
15E6
100
AcDbEntity
  8
8
100
AcDbLine
 10
624.9780000000001
 20
1105.217
 30
0.0
 11
629.594
 21
1100.601
 31
0.0
  0
LINE
  5
13BA
330
15E6
100
AcDbEntity
  8
8
100
AcDbLine
 10
625.4249999999999
 20
1113.75
 30
0.0
 11
630.1829999999999
 21
1108.992
 31
0.0
  0
LINE
  5
13BB
330
15E6
100
AcDbEntity
  8
8
100
AcDbLine
 10
625.8719999999999
 20
1122.283
 30
0.0
 11
630.63
 21
1117.525
 31
0.0
  0
LINE
  5
13BC
330
15E6
100
AcDbEntity
  8
8
100
AcDbLine
 10
626.3189999999999
 20
1130.816
 30
0.0
 11
631.0769999999999
 21
1126.058
 31
0.0
  0
LINE
  5
13BD
330
15E6
100
AcDbEntity
  8
8
100
AcDbLine
 10
626.7669999999999
 20
1139.349
 30
0.0
 11
631.524
 21
1134.591
 31
0.0
  0
LINE
  5
13BE
330
15E6
100
AcDbEntity
  8
8
100
AcDbLine
 10
627.214
 20
1147.882
 30
0.0
 11
631.971
 21
1143.124
 31
0.0
  0
LINE
  5
13BF
330
15E6
100
AcDbEntity
  8
8
100
AcDbLine
 10
627.6609999999999
 20
1156.415
 30
0.0
 11
632.4189999999999
 21
1151.657
 31
0.0
  0
LINE
  5
13C0
330
15E6
100
AcDbEntity
  8
8
100
AcDbLine
 10
628.1080000000001
 20
1164.948
 30
0.0
 11
632.866
 21
1160.191
 31
0.0
  0
LINE
  5
13C1
330
15E6
100
AcDbEntity
  8
8
100
AcDbLine
 10
628.5549999999999
 20
1173.481
 30
0.0
 11
633.3129999999999
 21
1168.724
 31
0.0
  0
LINE
  5
13C2
330
15E6
100
AcDbEntity
  8
8
100
AcDbLine
 10
629.003
 20
1182.014
 30
0.0
 11
633.76
 21
1177.257
 31
0.0
  0
LINE
  5
13C3
330
15E6
100
AcDbEntity
  8
8
100
AcDbLine
 10
629.45
 20
1190.547
 30
0.0
 11
634.2069999999999
 21
1185.79
 31
0.0
  0
LINE
  5
13C4
330
15E6
100
AcDbEntity
  8
8
100
AcDbLine
 10
629.8969999999999
 20
1199.08
 30
0.0
 11
636.5639999999999
 21
1192.413
 31
0.0
  0
LINE
  5
13C5
330
15E6
100
AcDbEntity
  8
8
100
AcDbLine
 10
634.0819999999999
 20
1203.876
 30
0.0
 11
642.335
 21
1195.622
 31
0.0
  0
LINE
  5
13C6
330
15E6
100
AcDbEntity
  8
8
100
AcDbLine
 10
643.062
 20
1203.876
 30
0.0
 11
650.831
 21
1196.107
 31
0.0
  0
LINE
  5
13C7
330
15E6
100
AcDbEntity
  8
8
100
AcDbLine
 10
660.271
 20
1186.667
 30
0.0
 11
670.9769999999999
 21
1175.961
 31
0.0
  0
LINE
  5
13C8
330
15E6
100
AcDbEntity
  8
8
100
AcDbLine
 10
652.0419999999999
 20
1203.876
 30
0.0
 11
665.4099999999999
 21
1190.508
 31
0.0
  0
LINE
  5
13C9
330
15E6
100
AcDbEntity
  8
8
100
AcDbLine
 10
672.908
 20
1183.01
 30
0.0
 11
677.395
 21
1178.523
 31
0.0
  0
LINE
  5
13CA
330
15E6
100
AcDbEntity
  8
8
100
AcDbLine
 10
661.0219999999999
 20
1203.876
 30
0.0
 11
665.4099999999999
 21
1199.488
 31
0.0
  0
LINE
  5
13CB
330
15E6
100
AcDbEntity
  8
8
100
AcDbLine
 10
675.4089999999999
 20
1189.489
 30
0.0
 11
680.201
 21
1184.697
 31
0.0
  0
LINE
  5
13CC
330
15E6
100
AcDbEntity
  8
8
100
AcDbLine
 10
675.41
 20
1198.469
 30
0.0
 11
681.5479999999999
 21
1192.331
 31
0.0
  0
LINE
  5
13CD
330
15E6
100
AcDbEntity
  8
8
100
AcDbLine
 10
678.986
 20
1203.873
 30
0.0
 11
685.5669999999999
 21
1197.291
 31
0.0
  0
LINE
  5
13CE
330
15E6
100
AcDbEntity
  8
8
100
AcDbLine
 10
687.966
 20
1203.873
 30
0.0
 11
694.2169999999999
 21
1197.622
 31
0.0
  0
LINE
  5
13CF
330
15E6
100
AcDbEntity
  8
8
100
AcDbLine
 10
696.946
 20
1203.874
 30
0.0
 11
704.943
 21
1195.876
 31
0.0
  0
LINE
  5
13D0
330
15E6
100
AcDbEntity
  8
8
100
AcDbLine
 10
705.9249999999999
 20
1203.874
 30
0.0
 11
713.923
 21
1195.876
 31
0.0
  0
LINE
  5
13D1
330
15E6
100
AcDbEntity
  8
8
100
AcDbLine
 10
714.9049999999999
 20
1203.875
 30
0.0
 11
722.904
 21
1195.876
 31
0.0
  0
LINE
  5
13D2
330
15E6
100
AcDbEntity
  8
8
100
AcDbLine
 10
723.885
 20
1203.875
 30
0.0
 11
731.8839999999998
 21
1195.876
 31
0.0
  0
LINE
  5
13D3
330
15E6
100
AcDbEntity
  8
8
100
AcDbLine
 10
732.8639999999999
 20
1203.876
 30
0.0
 11
737.7469999999999
 21
1198.994
 31
0.0
  0
ENDBLK
  5
13D4
330
15E6
100
AcDbEntity
  8
0
100
AcDbBlockEnd
  0
BLOCK
  5
1402
330
15E9
100
AcDbEntity
  8
0
100
AcDbBlockBegin
  2
*X6
 70
     1
 10
0.0
 20
0.0
 30
0.0
  3
*X6
  1

  0
LINE
  5
1403
330
15E9
100
AcDbEntity
  8
8
100
AcDbLine
 10
687.836
 20
1209.376
 30
0.0
 11
697.8419999999999
 21
1219.381
 31
0.0
  0
LINE
  5
1404
330
15E9
100
AcDbEntity
  8
8
100
AcDbLine
 10
678.9830000000001
 20
1209.503
 30
0.0
 11
690.8560000000001
 21
1221.376
 31
0.0
  0
LINE
  5
1405
330
15E9
100
AcDbEntity
  8
8
100
AcDbLine
 10
677.411
 20
1216.911
 30
0.0
 11
681.8760000000001
 21
1221.376
 31
0.0
  0
ENDBLK
  5
1406
330
15E9
100
AcDbEntity
  8
0
100
AcDbBlockEnd
  0
BLOCK
  5
141E
330
15EA
100
AcDbEntity
  8
0
100
AcDbBlockBegin
  2
*X7
 70
     1
 10
0.0
 20
0.0
 30
0.0
  3
*X7
  1

  0
LINE
  5
141F
330
15EA
100
AcDbEntity
  8
8
100
AcDbLine
 10
651.9149999999999
 20
1209.376
 30
0.0
 11
662.924
 21
1220.385
 31
0.0
  0
LINE
  5
1420
330
15EA
100
AcDbEntity
  8
8
100
AcDbLine
 10
642.9349999999999
 20
1209.376
 30
0.0
 11
654.855
 21
1221.296
 31
0.0
  0
LINE
  5
1421
330
15EA
100
AcDbEntity
  8
8
100
AcDbLine
 10
640.4109999999999
 20
1215.832
 30
0.0
 11
642.6829999999999
 21
1218.105
 31
0.0
  0
LINE
  5
1422
330
15EA
100
AcDbEntity
  8
8
100
AcDbLine
 10
643.6819999999999
 20
1219.104
 30
0.0
 11
645.943
 21
1221.364
 31
0.0
  0
ENDBLK
  5
1423
330
15EA
100
AcDbEntity
  8
0
100
AcDbBlockEnd
  0
BLOCK
  5
143B
330
15EB
100
AcDbEntity
  8
0
100
AcDbBlockBegin
  2
*X8
 70
     1
 10
0.0
 20
0.0
 30
0.0
  3
*X8
  1

  0
LINE
  5
143C
330
15EB
100
AcDbEntity
  8
8
100
AcDbLine
 10
355.567
 20
1209.376
 30
0.0
 11
367.215
 21
1221.025
 31
0.0
  0
LINE
  5
143D
330
15EB
100
AcDbEntity
  8
8
100
AcDbLine
 10
348.07
 20
1210.859
 30
0.0
 11
358.52
 21
1221.31
 31
0.0
  0
LINE
  5
143E
330
15EB
100
AcDbEntity
  8
8
100
AcDbLine
 10
348.039
 20
1219.808
 30
0.0
 11
349.479
 21
1221.248
 31
0.0
  0
ENDBLK
  5
143F
330
15EB
100
AcDbEntity
  8
0
100
AcDbBlockEnd
  0
BLOCK
  5
1458
330
15EC
100
AcDbEntity
  8
0
100
AcDbBlockBegin
  2
*X9
 70
     1
 10
0.0
 20
0.0
 30
0.0
  3
*X9
  1

  0
LINE
  5
1459
330
15EC
100
AcDbEntity
  8
8
100
AcDbLine
 10
391.4880000000001
 20
1209.376
 30
0.0
 11
401.7689999999999
 21
1219.658
 31
0.0
  0
LINE
  5
145A
330
15EC
100
AcDbEntity
  8
8
100
AcDbLine
 10
383.158
 20
1210.027
 30
0.0
 11
394.508
 21
1221.376
 31
0.0
  0
LINE
  5
145B
330
15EC
100
AcDbEntity
  8
8
100
AcDbLine
 10
382.4100000000001
 20
1218.259
 30
0.0
 11
385.527
 21
1221.376
 31
0.0
  0
ENDBLK
  5
145C
330
15EC
100
AcDbEntity
  8
0
100
AcDbBlockEnd
  0
BLOCK
  5
1497
330
15ED
100
AcDbEntity
  8
0
100
AcDbBlockBegin
  2
*X10
 70
     1
 10
0.0
 20
0.0
 30
0.0
  3
*X10
  1

  0
LINE
  5
1498
330
15ED
100
AcDbEntity
  8
8
100
AcDbLine
 10
416.1309999999999
 20
1195.14
 30
0.0
 11
407.3859999999999
 21
1203.885
 31
0.0
  0
LINE
  5
1499
330
15ED
100
AcDbEntity
  8
8
100
AcDbLine
 10
416.7519999999999
 20
1183.293
 30
0.0
 11
411.035
 21
1189.01
 31
0.0
  0
LINE
  5
149A
330
15ED
100
AcDbEntity
  8
8
100
AcDbLine
 10
404.6429999999999
 20
1195.402
 30
0.0
 11
396.081
 21
1203.965
 31
0.0
  0
LINE
  5
149B
330
15ED
100
AcDbEntity
  8
8
100
AcDbLine
 10
417.373
 20
1171.447
 30
0.0
 11
412.0899999999999
 21
1176.73
 31
0.0
  0
LINE
  5
149C
330
15ED
100
AcDbEntity
  8
8
100
AcDbLine
 10
392.631
 20
1196.189
 30
0.0
 11
384.775
 21
1204.045
 31
0.0
  0
LINE
  5
149D
330
15ED
100
AcDbEntity
  8
8
100
AcDbLine
 10
417.994
 20
1159.601
 30
0.0
 11
412.711
 21
1164.884
 31
0.0
  0
LINE
  5
149E
330
15ED
100
AcDbEntity
  8
8
100
AcDbLine
 10
386.357
 20
1191.238
 30
0.0
 11
380.412
 21
1197.183
 31
0.0
  0
LINE
  5
149F
330
15ED
100
AcDbEntity
  8
8
100
AcDbLine
 10
418.615
 20
1147.755
 30
0.0
 11
413.332
 21
1153.038
 31
0.0
  0
LINE
  5
14A0
330
15ED
100
AcDbEntity
  8
8
100
AcDbLine
 10
384.483
 20
1181.887
 30
0.0
 11
379.412
 21
1186.957
 31
0.0
  0
LINE
  5
14A1
330
15ED
100
AcDbEntity
  8
8
100
AcDbLine
 10
419.2359999999999
 20
1135.908
 30
0.0
 11
413.952
 21
1141.192
 31
0.0
  0
LINE
  5
14A2
330
15ED
100
AcDbEntity
  8
8
100
AcDbLine
 10
378.722
 20
1176.422
 30
0.0
 11
375.412
 21
1179.732
 31
0.0
  0
LINE
  5
14A3
330
15ED
100
AcDbEntity
  8
8
100
AcDbLine
 10
419.857
 20
1124.062
 30
0.0
 11
414.573
 21
1129.346
 31
0.0
  0
LINE
  5
14A4
330
15ED
100
AcDbEntity
  8
8
100
AcDbLine
 10
472.0019999999999
 20
1060.691
 30
0.0
 11
463.8169999999999
 21
1068.876
 31
0.0
  0
LINE
  5
14A5
330
15ED
100
AcDbEntity
  8
8
100
AcDbLine
 10
460.993
 20
1071.7
 30
0.0
 11
458.818
 21
1073.876
 31
0.0
  0
LINE
  5
14A6
330
15ED
100
AcDbEntity
  8
8
100
AcDbLine
 10
420.478
 20
1112.216
 30
0.0
 11
415.194
 21
1117.5
 31
0.0
  0
LINE
  5
14A7
330
15ED
100
AcDbEntity
  8
8
100
AcDbLine
 10
472.205
 20
1049.264
 30
0.0
 11
466.846
 21
1054.622
 31
0.0
  0
LINE
  5
14A8
330
15ED
100
AcDbEntity
  8
8
100
AcDbLine
 10
452.819
 20
1068.65
 30
0.0
 11
447.269
 21
1074.199
 31
0.0
  0
LINE
  5
14A9
330
15ED
100
AcDbEntity
  8
8
100
AcDbLine
 10
421.2979999999999
 20
1100.17
 30
0.0
 11
415.815
 21
1105.653
 31
0.0
  0
LINE
  5
14AA
330
15ED
100
AcDbEntity
  8
8
100
AcDbLine
 10
472.379
 20
1037.864
 30
0.0
 11
467.225
 21
1043.018
 31
0.0
  0
LINE
  5
14AB
330
15ED
100
AcDbEntity
  8
8
100
AcDbLine
 10
439.2999999999999
 20
1070.943
 30
0.0
 11
417.9859999999999
 21
1092.257
 31
0.0
  0
LINE
  5
14AC
330
15ED
100
AcDbEntity
  8
8
100
AcDbLine
 10
472.554
 20
1026.464
 30
0.0
 11
467.41
 21
1031.608
 31
0.0
  0
LINE
  5
14AD
330
15ED
100
AcDbEntity
  8
8
100
AcDbLine
 10
472.729
 20
1015.064
 30
0.0
 11
467.595
 21
1020.197
 31
0.0
  0
LINE
  5
14AE
330
15ED
100
AcDbEntity
  8
8
100
AcDbLine
 10
473.6439999999999
 20
1002.923
 30
0.0
 11
467.7799999999999
 21
1008.787
 31
0.0
  0
LINE
  5
14AF
330
15ED
100
AcDbEntity
  8
8
100
AcDbLine
 10
473.8030000000001
 20
991.539
 30
0.0
 11
467.9649999999999
 21
997.376
 31
0.0
  0
LINE
  5
14B0
330
15ED
100
AcDbEntity
  8
8
100
AcDbLine
 10
470.2359999999999
 20
983.881
 30
0.0
 11
468.1499999999999
 21
985.9659999999999
 31
0.0
  0
ENDBLK
  5
14B1
330
15ED
100
AcDbEntity
  8
0
100
AcDbBlockEnd
  0
BLOCK
  5
14CF
330
15EE
100
AcDbEntity
  8
0
100
AcDbBlockBegin
  2
*X11
 70
     1
 10
0.0
 20
0.0
 30
0.0
  3
*X11
  1

  0
LINE
  5
14D0
330
15EE
100
AcDbEntity
  8
8
100
AcDbLine
 10
370.412
 20
1195.958
 30
0.0
 11
362.497
 21
1203.872
 31
0.0
  0
LINE
  5
14D1
330
15EE
100
AcDbEntity
  8
8
100
AcDbLine
 10
375.412
 20
1179.732
 30
0.0
 11
364.587
 21
1190.558
 31
0.0
  0
LINE
  5
14D2
330
15EE
100
AcDbEntity
  8
8
100
AcDbLine
 10
357.737
 20
1197.408
 30
0.0
 11
351.271
 21
1203.873
 31
0.0
  0
LINE
  5
14D3
330
15EE
100
AcDbEntity
  8
8
100
AcDbLine
 10
346.105
 20
1197.814
 30
0.0
 11
340.045
 21
1203.874
 31
0.0
  0
LINE
  5
14D4
330
15EE
100
AcDbEntity
  8
8
100
AcDbLine
 10
336.817
 20
1195.876
 30
0.0
 11
328.819
 21
1203.875
 31
0.0
  0
LINE
  5
14D5
330
15EE
100
AcDbEntity
  8
8
100
AcDbLine
 10
325.592
 20
1195.876
 30
0.0
 11
317.593
 21
1203.876
 31
0.0
  0
LINE
  5
14D6
330
15EE
100
AcDbEntity
  8
8
100
AcDbLine
 10
314.367
 20
1195.876
 30
0.0
 11
308.531
 21
1201.712
 31
0.0
  0
ENDBLK
  5
14D7
330
15EE
100
AcDbEntity
  8
0
100
AcDbBlockEnd
  0
BLOCK
  5
1605
330
1604
100
AcDbEntity
  8
0
100
AcDbBlockBegin
  2
KATALOG_LEER
 70
     0
 10
0.0
 20
0.0
 30
0.0
  3
KATALOG_LEER
  1

  0
ENDBLK
  5
1606
330
1604
100
AcDbEntity
  8
0
100
AcDbBlockEnd
  0
BLOCK
  5
179E
330
165E
100
AcDbEntity
  8
0
100
AcDbBlockBegin
  2
*D14
 70
     1
 10
0.0
 20
0.0
 30
0.0
  3
*D14
  1
GEVFRAME
  0
LINE
  5
179F
330
165E
100
AcDbEntity
  8
0
  6
ByBlock
100
AcDbLine
 10
159.207753
 20
389.44149
 30
0.0
 11
159.207753
 21
541.72149
 31
0.0
  0
LINE
  5
17A0
330
165E
100
AcDbEntity
  8
0
  6
ByBlock
100
AcDbLine
 10
589.205753
 20
389.44149
 30
0.0
 11
589.205753
 21
541.72149
 31
0.0
  0
LINE
  5
17A1
330
165E
100
AcDbEntity
  8
0
  6
ByBlock
100
AcDbLine
 10
171.707753
 20
536.72149
 30
0.0
 11
576.705753
 21
536.72149
 31
0.0
  0
SOLID
  5
17A2
330
165E
100
AcDbEntity
  8
0
  6
ByBlock
100
AcDbTrace
 10
171.707753
 20
538.804823
 30
0.0
 11
171.707753
 21
534.638156
 31
0.0
 12
159.207753
 22
536.72149
 32
0.0
 13
159.207753
 23
536.72149
 33
0.0
  0
SOLID
  5
17A3
330
165E
100
AcDbEntity
  8
0
  6
ByBlock
100
AcDbTrace
 10
576.705753
 20
538.804823
 30
0.0
 11
576.705753
 21
534.638156
 31
0.0
 12
589.205753
 22
536.72149
 32
0.0
 13
589.205753
 23
536.72149
 33
0.0
  0
MTEXT
  5
17A4
330
165E
100
AcDbEntity
  8
0
  6
ByBlock
 62
     2
100
AcDbMText
 10
382.029753
 20
548.47149
 30
0.0
 40
17.5
 41
0.0
 71
     5
 72
     1
  1
\U+2205  430 
 73
     1
 44
1.0
1001
ACAD
1000
MTEXTBEGIN
1070
    73
1070
     1
1070
    44
1040
1.0
1070
    74
1070
     0
1000
MTEXTEND
  0
POINT
  5
17A5
330
165E
100
AcDbEntity
  8
DEFPOINTS
  6
ByBlock
 62
     0
100
AcDbPoint
 10
159.207753
 20
384.44149
 30
0.0
  0
POINT
  5
17A6
330
165E
100
AcDbEntity
  8
DEFPOINTS
  6
ByBlock
 62
     0
100
AcDbPoint
 10
589.205753
 20
384.44149
 30
0.0
  0
POINT
  5
17A7
330
165E
100
AcDbEntity
  8
DEFPOINTS
  6
ByBlock
 62
     0
100
AcDbPoint
 10
589.205753
 20
536.72149
 30
0.0
  0
ENDBLK
  5
17A8
330
165E
100
AcDbEntity
  8
0
100
AcDbBlockEnd
  0
BLOCK
  5
1714
330
166A
100
AcDbEntity
  8
0
100
AcDbBlockBegin
  2
*D15
 70
     1
 10
0.0
 20
0.0
 30
0.0
  3
*D15
  1
GEVFRAME
  0
LINE
  5
1715
330
166A
100
AcDbEntity
  8
0
  6
ByBlock
100
AcDbLine
 10
260.204753
 20
402.44149
 30
0.0
 11
260.204753
 21
460.50949
 31
0.0
  0
LINE
  5
1716
330
166A
100
AcDbEntity
  8
0
  6
ByBlock
100
AcDbLine
 10
488.206753
 20
402.44149
 30
0.0
 11
488.206753
 21
460.50949
 31
0.0
  0
LINE
  5
1717
330
166A
100
AcDbEntity
  8
0
  6
ByBlock
100
AcDbLine
 10
272.704753
 20
455.50949
 30
0.0
 11
475.706753
 21
455.50949
 31
0.0
  0
SOLID
  5
1718
330
166A
100
AcDbEntity
  8
0
  6
ByBlock
100
AcDbTrace
 10
272.704753
 20
457.592823
 30
0.0
 11
272.704753
 21
453.4261559999999
 31
0.0
 12
260.204753
 22
455.50949
 32
0.0
 13
260.204753
 23
455.50949
 33
0.0
  0
SOLID
  5
1719
330
166A
100
AcDbEntity
  8
0
  6
ByBlock
100
AcDbTrace
 10
475.706753
 20
457.592823
 30
0.0
 11
475.706753
 21
453.4261559999999
 31
0.0
 12
488.206753
 22
455.50949
 32
0.0
 13
488.206753
 23
455.50949
 33
0.0
  0
MTEXT
  5
171A
330
166A
100
AcDbEntity
  8
0
  6
ByBlock
 62
     2
100
AcDbMText
 10
373.049753
 20
467.261212
 30
0.0
 40
17.5
 41
0.0
 71
     5
 72
     1
  1
\U+2205  228 
 73
     1
 44
1.0
1001
ACAD
1000
MTEXTBEGIN
1070
    73
1070
     1
1070
    44
1040
1.0
1070
    74
1070
     0
1000
MTEXTEND
  0
POINT
  5
171B
330
166A
100
AcDbEntity
  8
DEFPOINTS
  6
ByBlock
 62
     0
100
AcDbPoint
 10
260.204753
 20
397.44149
 30
0.0
  0
POINT
  5
171C
330
166A
100
AcDbEntity
  8
DEFPOINTS
  6
ByBlock
 62
     0
100
AcDbPoint
 10
488.206753
 20
397.44149
 30
0.0
  0
POINT
  5
171D
330
166A
100
AcDbEntity
  8
DEFPOINTS
  6
ByBlock
 62
     0
100
AcDbPoint
 10
488.206753
 20
455.50949
 30
0.0
  0
ENDBLK
  5
171E
330
166A
100
AcDbEntity
  8
0
100
AcDbBlockEnd
  0
BLOCK
  5
16FF
330
1694
100
AcDbEntity
  8
0
100
AcDbBlockBegin
  2
*D17
 70
     1
 10
0.0
 20
0.0
 30
0.0
  3
*D17
  1
GEVFRAME
  0
LINE
  5
1700
330
1694
100
AcDbEntity
  8
0
  6
ByBlock
100
AcDbLine
 10
441.706753
 20
280.44149
 30
0.0
 11
542.305753
 21
280.44149
 31
0.0
  0
LINE
  5
1701
330
1694
100
AcDbEntity
  8
0
  6
ByBlock
100
AcDbLine
 10
403.2067529999999
 20
340.44149
 30
0.0
 11
542.305753
 21
340.44149
 31
0.0
  0
LINE
  5
1702
330
1694
100
AcDbEntity
  8
0
  6
ByBlock
100
AcDbLine
 10
537.3057529999999
 20
292.94149
 30
0.0
 11
537.3057529999999
 21
327.94149
 31
0.0
  0
SOLID
  5
1703
330
1694
100
AcDbEntity
  8
0
  6
ByBlock
100
AcDbTrace
 10
535.2224200000001
 20
292.94149
 30
0.0
 11
539.3890869999999
 21
292.94149
 31
0.0
 12
537.3057529999999
 22
280.44149
 32
0.0
 13
537.3057529999999
 23
280.44149
 33
0.0
  0
SOLID
  5
1704
330
1694
100
AcDbEntity
  8
0
  6
ByBlock
100
AcDbTrace
 10
535.2224200000001
 20
327.94149
 30
0.0
 11
539.3890869999999
 21
327.94149
 31
0.0
 12
537.3057529999999
 22
340.44149
 32
0.0
 13
537.3057529999999
 23
340.44149
 33
0.0
  0
MTEXT
  5
1705
330
1694
100
AcDbEntity
  8
0
  6
ByBlock
 62
     2
100
AcDbMText
 10
525.5557529999999
 20
309.52249
 30
0.0
 40
17.5
 41
0.0
 71
     5
 72
     1
  1
 60 
 11
0.0
 21
1.0
 31
0.0
 73
     1
 44
1.0
1001
ACAD
1000
MTEXTBEGIN
1070
    73
1070
     1
1070
    44
1040
1.0
1070
    74
1070
     0
1000
MTEXTEND
  0
POINT
  5
1706
330
1694
100
AcDbEntity
  8
DEFPOINTS
  6
ByBlock
 62
     0
100
AcDbPoint
 10
436.706753
 20
280.44149
 30
0.0
  0
POINT
  5
1707
330
1694
100
AcDbEntity
  8
DEFPOINTS
  6
ByBlock
 62
     0
100
AcDbPoint
 10
398.206753
 20
340.44149
 30
0.0
  0
POINT
  5
1708
330
1694
100
AcDbEntity
  8
DEFPOINTS
  6
ByBlock
 62
     0
100
AcDbPoint
 10
537.3057529999999
 20
340.44149
 30
0.0
  0
ENDBLK
  5
1709
330
1694
100
AcDbEntity
  8
0
100
AcDbBlockEnd
  0
BLOCK
  5
16E9
330
16AD
100
AcDbEntity
  8
0
100
AcDbBlockBegin
  2
*D18
 70
     1
 10
0.0
 20
0.0
 30
0.0
  3
*D18
  1
GEVFRAME
  0
LINE
  5
16EA
330
16AD
100
AcDbEntity
  8
0
  6
ByBlock
100
AcDbLine
 10
433.933753
 20
172.44149
 30
0.0
 11
653.540753
 21
172.44149
 31
0.0
  0
LINE
  5
16EB
330
16AD
100
AcDbEntity
  8
0
  6
ByBlock
100
AcDbLine
 10
589.989753
 20
392.44149
 30
0.0
 11
653.540753
 21
392.44149
 31
0.0
  0
LINE
  5
16EC
330
16AD
100
AcDbEntity
  8
0
  6
ByBlock
100
AcDbLine
 10
648.5407529999999
 20
184.94149
 30
0.0
 11
648.5407529999999
 21
379.94149
 31
0.0
  0
SOLID
  5
16ED
330
16AD
100
AcDbEntity
  8
0
  6
ByBlock
100
AcDbTrace
 10
646.4574200000001
 20
184.94149
 30
0.0
 11
650.624087
 21
184.94149
 31
0.0
 12
648.5407529999999
 22
172.44149
 32
0.0
 13
648.5407529999999
 23
172.44149
 33
0.0
  0
SOLID
  5
16EE
330
16AD
100
AcDbEntity
  8
0
  6
ByBlock
100
AcDbTrace
 10
646.4574200000001
 20
379.94149
 30
0.0
 11
650.624087
 21
379.94149
 31
0.0
 12
648.5407529999999
 22
392.44149
 32
0.0
 13
648.5407529999999
 23
392.44149
 33
0.0
  0
MTEXT
  5
16EF
330
16AD
100
AcDbEntity
  8
0
  6
ByBlock
 62
     2
100
AcDbMText
 10
636.7890309999999
 20
291.15649
 30
0.0
 40
17.5
 41
0.0
 71
     5
 72
     1
  1
 220 
 11
0.0
 21
1.0
 31
0.0
 73
     1
 44
1.0
1001
ACAD
1000
MTEXTBEGIN
1070
    73
1070
     1
1070
    44
1040
1.0
1070
    74
1070
     0
1000
MTEXTEND
  0
POINT
  5
16F0
330
16AD
100
AcDbEntity
  8
DEFPOINTS
  6
ByBlock
 62
     0
100
AcDbPoint
 10
428.933753
 20
172.44149
 30
0.0
  0
POINT
  5
16F1
330
16AD
100
AcDbEntity
  8
DEFPOINTS
  6
ByBlock
 62
     0
100
AcDbPoint
 10
584.989753
 20
392.44149
 30
0.0
  0
POINT
  5
16F2
330
16AD
100
AcDbEntity
  8
DEFPOINTS
  6
ByBlock
 62
     0
100
AcDbPoint
 10
648.5407529999999
 20
392.44149
 30
0.0
  0
ENDBLK
  5
16F3
330
16AD
100
AcDbEntity
  8
0
100
AcDbBlockEnd
  0
BLOCK
  5
170A
330
16C6
100
AcDbEntity
  8
0
100
AcDbBlockBegin
  2
*D19
 70
     1
 10
0.0
 20
0.0
 30
0.0
  3
*D19
  1
GEVFRAME
  0
LINE
  5
170B
330
16C6
100
AcDbEntity
  8
0
  6
ByBlock
100
AcDbLine
 10
451.086753
 20
257.44149
 30
0.0
 11
508.159753
 21
257.44149
 31
0.0
  0
LINE
  5
170C
330
16C6
100
AcDbEntity
  8
0
  6
ByBlock
100
AcDbLine
 10
503.1597529999999
 20
184.94149
 30
0.0
 11
503.1597529999999
 21
244.94149
 31
0.0
  0
SOLID
  5
170D
330
16C6
100
AcDbEntity
  8
0
  6
ByBlock
100
AcDbTrace
 10
501.07642
 20
184.94149
 30
0.0
 11
505.243087
 21
184.94149
 31
0.0
 12
503.1597529999999
 22
172.44149
 32
0.0
 13
503.1597529999999
 23
172.44149
 33
0.0
  0
SOLID
  5
170E
330
16C6
100
AcDbEntity
  8
0
  6
ByBlock
100
AcDbTrace
 10
501.07642
 20
244.94149
 30
0.0
 11
505.243087
 21
244.94149
 31
0.0
 12
503.1597529999999
 22
257.44149
 32
0.0
 13
503.1597529999999
 23
257.44149
 33
0.0
  0
MTEXT
  5
170F
330
16C6
100
AcDbEntity
  8
0
  6
ByBlock
 62
     2
100
AcDbMText
 10
491.409753
 20
213.15049
 30
0.0
 40
17.5
 41
0.0
 71
     5
 72
     1
  1
 85 
 11
0.0
 21
1.0
 31
0.0
 73
     1
 44
1.0
1001
ACAD
1000
MTEXTBEGIN
1070
    73
1070
     1
1070
    44
1040
1.0
1070
    74
1070
     0
1000
MTEXTEND
  0
POINT
  5
1710
330
16C6
100
AcDbEntity
  8
DEFPOINTS
  6
ByBlock
 62
     0
100
AcDbPoint
 10
503.1597529999999
 20
172.44149
 30
0.0
  0
POINT
  5
1711
330
16C6
100
AcDbEntity
  8
DEFPOINTS
  6
ByBlock
 62
     0
100
AcDbPoint
 10
446.086753
 20
257.44149
 30
0.0
  0
POINT
  5
1712
330
16C6
100
AcDbEntity
  8
DEFPOINTS
  6
ByBlock
 62
     0
100
AcDbPoint
 10
503.1597529999999
 20
257.44149
 30
0.0
  0
ENDBLK
  5
1713
330
16C6
100
AcDbEntity
  8
0
100
AcDbBlockEnd
  0
BLOCK
  5
189B
330
1899
100
AcDbEntity
  8
0
100
AcDbBlockBegin
  2
GENAXEH
 70
     0
 10
0.0
 20
0.0
 30
0.0
  3
GENAXEH
  1

  0
LINE
  5
189A
330
1899
100
AcDbEntity
  8
0
100
AcDbLine
 10
-1.0
 20
0.0
 30
0.0
 11
1.0
 21
0.0
 31
0.0
  0
ENDBLK
  5
189C
330
1899
100
AcDbEntity
  8
0
100
AcDbBlockEnd
  0
ENDSEC
  0
SECTION
  2
ENTITIES
  0
POINT
  5
1001
330
15C4
100
AcDbEntity
  8
PUNKTE
100
AcDbPoint
 10
481.113753
 20
290.60949
 30
0.0
  0
LINE
  5
1002
330
15C4
100
AcDbEntity
  8
0
100
AcDbLine
 10
481.705753
 20
397.44149
 30
0.0
 11
476.120753
 21
290.87149
 31
0.0
  0
LINE
  5
1003
330
15C4
100
AcDbEntity
  8
0
100
AcDbLine
 10
423.206753
 20
262.44149
 30
0.0
 11
446.161753
 21
262.44149
 31
0.0
  0
LINE
  5
1004
330
15C4
100
AcDbEntity
  8
0
100
AcDbLine
 10
485.534753
 20
374.96549
 30
0.0
 11
481.114753
 21
290.60949
 31
0.0
  0
LINE
  5
1005
330
15C4
100
AcDbEntity
  8
0
100
AcDbLine
 10
481.443753
 20
392.44149
 30
0.0
 11
584.989753
 21
392.44149
 31
0.0
  0
ARC
  5
1006
330
15C4
100
AcDbEntity
  8
0
100
AcDbCircle
 10
495.520753
 20
374.44149
 30
0.0
 40
10.0
100
AcDbArc
 50
90.0
 51
177.0
  0
LINE
  5
1007
330
15C4
100
AcDbEntity
  8
0
100
AcDbLine
 10
589.205753
 20
384.44149
 30
0.0
 11
588.984753
 21
388.65149
 31
0.0
  0
ARC
  5
1008
330
15C4
100
AcDbEntity
  8
0
100
AcDbCircle
 10
584.989753
 20
388.44149
 30
0.0
 40
4.0
100
AcDbArc
 50
3.0
 51
90.0
  0
LINE
  5
1009
330
15C4
100
AcDbEntity
  8
0
100
AcDbLine
 10
495.521753
 20
384.44149
 30
0.0
 11
506.379753
 21
384.82049
 31
0.0
  0
LINE
  5
100A
330
15C4
100
AcDbEntity
  8
0
100
AcDbLine
 10
533.999753
 20
384.44149
 30
0.0
 11
589.205753
 21
384.44149
 31
0.0
  0
ARC
  5
100B
330
15C4
100
AcDbEntity
  8
0
100
AcDbCircle
 10
550.7497530000001
 20
384.03049
 30
0.0
 40
2.5
100
AcDbArc
 50
9.463
 51
44.567
  0
ARC
  5
100C
330
15C4
100
AcDbEntity
  8
0
100
AcDbCircle
 10
551.105753
 20
384.38149
 30
0.0
 40
2.0
100
AcDbArc
 50
44.567
 51
92.0
  0
ARC
  5
100D
330
15C4
100
AcDbEntity
  8
0
100
AcDbCircle
 10
446.161753
 20
292.44149
 30
0.0
 40
30.0
100
AcDbArc
 50
270.0
 51
357.0
  0
ARC
  5
100E
330
15C4
100
AcDbEntity
  8
0
100
AcDbCircle
 10
446.161753
 20
292.44149
 30
0.0
 40
35.0
100
AcDbArc
 50
269.877
 51
357.0
  0
LINE
  5
100F
330
15C4
100
AcDbEntity
  8
0
100
AcDbLine
 10
435.366753
 20
257.44149
 30
0.0
 11
436.706753
 21
262.44149
 31
0.0
  0
LINE
  5
1010
330
15C4
100
AcDbEntity
  8
0
100
AcDbLine
 10
424.369753
 20
202.44149
 30
0.0
 11
425.277753
 21
254.44149
 31
0.0
  0
LINE
  5
1011
330
15C4
100
AcDbEntity
  8
0
100
AcDbLine
 10
428.933753
 20
172.44149
 30
0.0
 11
430.055753
 21
241.72049
 31
0.0
  0
ARC
  5
1012
330
15C4
100
AcDbEntity
  8
0
100
AcDbCircle
 10
446.051753
 20
241.44149
 30
0.0
 40
16.0
100
AcDbArc
 50
89.87700000000002
 51
179.0
  0
LINE
  5
1013
330
15C4
100
AcDbEntity
  8
0
100
AcDbLine
 10
425.276753
 20
254.44249
 30
0.0
 11
426.367753
 21
257.44149
 31
0.0
  0
LINE
  5
1014
330
15C4
100
AcDbEntity
  8
0
100
AcDbLine
 10
423.207753
 20
172.45449
 30
0.0
 11
423.555753
 21
197.44149
 31
0.0
  0
LINE
  5
1015
330
15C4
100
AcDbEntity
  8
0
100
AcDbLine
 10
423.555753
 20
197.44149
 30
0.0
 11
424.369753
 21
202.44149
 31
0.0
  0
LINE
  5
1016
330
15C4
100
AcDbEntity
  8
0
100
AcDbLine
 10
259.942753
 20
392.44149
 30
0.0
 11
260.204753
 21
397.44149
 31
0.0
  0
LINE
  5
1017
330
15C4
100
AcDbEntity
  8
0
100
AcDbLine
 10
266.707753
 20
397.44149
 30
0.0
 11
272.292753
 21
290.87149
 31
0.0
  0
LINE
  5
1018
330
15C4
100
AcDbEntity
  8
0
100
AcDbLine
 10
262.878753
 20
374.96549
 30
0.0
 11
267.2997529999999
 21
290.60949
 31
0.0
  0
LINE
  5
1019
330
15C4
100
AcDbEntity
  8
0
100
AcDbLine
 10
266.968753
 20
392.44149
 30
0.0
 11
163.422753
 21
392.44149
 31
0.0
  0
LINE
  5
101A
330
15C4
100
AcDbEntity
  8
0
100
AcDbLine
 10
159.205753
 20
384.44149
 30
0.0
 11
159.425753
 21
388.65049
 31
0.0
  0
ARC
  5
101B
330
15C4
100
AcDbEntity
  8
0
100
AcDbCircle
 10
163.422753
 20
388.44149
 30
0.0
 40
4.0
100
AcDbArc
 50
90.0
 51
177.0
  0
ARC
  5
101C
330
15C4
100
AcDbEntity
  8
0
100
AcDbCircle
 10
302.251753
 20
292.44149
 30
0.0
 40
30.0
100
AcDbArc
 50
183.0
 51
270.0
  0
ARC
  5
101D
330
15C4
100
AcDbEntity
  8
0
100
AcDbCircle
 10
302.251753
 20
292.44149
 30
0.0
 40
35.0
100
AcDbArc
 50
183.0
 51
270.123
  0
LINE
  5
101E
330
15C4
100
AcDbEntity
  8
0
100
AcDbLine
 10
313.045753
 20
257.44149
 30
0.0
 11
311.705753
 21
262.44149
 31
0.0
  0
LINE
  5
101F
330
15C4
100
AcDbEntity
  8
0
100
AcDbLine
 10
428.9347529999999
 20
172.44149
 30
0.0
 11
319.479753
 21
172.44149
 31
0.0
  0
LINE
  5
1020
330
15C4
100
AcDbEntity
  8
0
100
AcDbLine
 10
324.042753
 20
202.44149
 30
0.0
 11
323.134753
 21
254.44149
 31
0.0
  0
LINE
  5
1021
330
15C4
100
AcDbEntity
  8
0
100
AcDbLine
 10
319.478753
 20
172.44149
 30
0.0
 11
318.356753
 21
241.72049
 31
0.0
  0
ARC
  5
1022
330
15C4
100
AcDbEntity
  8
0
100
AcDbCircle
 10
302.360753
 20
241.44149
 30
0.0
 40
16.0
100
AcDbArc
 50
1.0
 51
90.12299999999999
  0
LINE
  5
1023
330
15C4
100
AcDbEntity
  8
0
100
AcDbLine
 10
323.135753
 20
254.44249
 30
0.0
 11
322.0447529999999
 21
257.44149
 31
0.0
  0
LINE
  5
1024
330
15C4
100
AcDbEntity
  8
0
100
AcDbLine
 10
325.204753
 20
172.45449
 30
0.0
 11
324.856753
 21
197.44149
 31
0.0
  0
LINE
  5
1025
330
15C4
100
AcDbEntity
  8
0
100
AcDbLine
 10
324.856753
 20
197.44149
 30
0.0
 11
324.043753
 21
202.44149
 31
0.0
  0
ARC
  5
1026
330
15C4
100
AcDbEntity
  8
0
100
AcDbCircle
 10
521.705753
 20
374.44149
 30
0.0
 40
10.0
100
AcDbArc
 50
200.0
 51
339.994
  0
LINE
  5
1027
330
15C4
100
AcDbEntity
  8
0
100
AcDbLine
 10
512.308753
 20
371.02149
 30
0.0
 11
510.457753
 21
381.51749
 31
0.0
  0
LINE
  5
1028
330
15C4
100
AcDbEntity
  8
0
100
AcDbLine
 10
531.1017529999999
 20
371.02049
 30
0.0
 11
533.1407529999999
 21
382.58549
 31
0.0
  0
ARC
  5
1029
330
15C4
100
AcDbEntity
  8
0
100
AcDbCircle
 10
537.081753
 20
381.89049
 30
0.0
 40
4.0
100
AcDbArc
 50
92.0
 51
170.0
  0
LINE
  5
102A
330
15C4
100
AcDbEntity
  8
0
100
AcDbLine
 10
536.941753
 20
385.88849
 30
0.0
 11
551.0367529999999
 21
386.38049
 31
0.0
  0
ARC
  5
102B
330
15C4
100
AcDbEntity
  8
0
100
AcDbCircle
 10
506.518753
 20
380.82349
 30
0.0
 40
4.0
100
AcDbArc
 50
10.0
 51
92.0
  0
LINE
  5
102C
330
15C4
100
AcDbEntity
  8
0
100
AcDbLine
 10
435.8667529999999
 20
392.44149
 30
0.0
 11
418.5467529999999
 21
392.44149
 31
0.0
  0
LINE
  5
102D
330
15C4
100
AcDbEntity
  8
0
100
AcDbLine
 10
325.206753
 20
262.44149
 30
0.0
 11
302.251753
 21
262.44149
 31
0.0
  0
LINE
  5
102E
330
15C4
100
AcDbEntity
  8
0
100
AcDbLine
 10
488.468753
 20
392.44149
 30
0.0
 11
488.206753
 21
397.44149
 31
0.0
  0
LINE
  5
102F
330
15C4
100
AcDbEntity
  8
0
100
AcDbLine
 10
488.206753
 20
397.44149
 30
0.0
 11
437.206753
 21
397.44149
 31
0.0
  0
LINE
  5
1030
330
15C4
100
AcDbEntity
  8
0
100
AcDbLine
 10
329.8667529999999
 20
392.44149
 30
0.0
 11
331.206753
 21
397.44149
 31
0.0
  0
LINE
  5
1031
330
15C4
100
AcDbEntity
  8
0
100
AcDbLine
 10
435.8667529999999
 20
392.44149
 30
0.0
 11
437.206753
 21
397.44149
 31
0.0
  0
LINE
  5
1032
330
15C4
100
AcDbEntity
  8
0
100
AcDbLine
 10
312.546753
 20
392.44149
 30
0.0
 11
311.206753
 21
397.44149
 31
0.0
  0
LINE
  5
1033
330
15C4
100
AcDbEntity
  8
0
100
AcDbLine
 10
418.5457529999999
 20
392.4424899999999
 30
0.0
 11
417.2067529999999
 21
397.44149
 31
0.0
  0
LINE
  5
1034
330
15C4
100
AcDbEntity
  8
0
100
AcDbLine
 10
326.760753
 20
392.44149
 30
0.0
 11
328.100753
 21
397.44149
 31
0.0
  0
LINE
  5
1035
330
15C4
100
AcDbEntity
  8
0
100
AcDbLine
 10
421.651753
 20
392.44149
 30
0.0
 11
420.311753
 21
397.44249
 31
0.0
  0
LINE
  5
1036
330
15C4
100
AcDbEntity
  8
0
100
AcDbLine
 10
420.312753
 20
397.44149
 30
0.0
 11
328.100753
 21
397.44149
 31
0.0
  0
LINE
  5
1037
330
15C4
100
AcDbEntity
  8
0
100
AcDbLine
 10
329.8667529999999
 20
392.44149
 30
0.0
 11
312.545753
 21
392.44149
 31
0.0
  0
ARC
  5
1038
330
15C4
100
AcDbEntity
  8
0
100
AcDbCircle
 10
252.891753
 20
374.44149
 30
0.0
 40
10.0
100
AcDbArc
 50
3.0
 51
90.0
  0
LINE
  5
1039
330
15C4
100
AcDbEntity
  8
0
100
AcDbLine
 10
252.890753
 20
384.44149
 30
0.0
 11
242.033753
 21
384.82049
 31
0.0
  0
LINE
  5
103A
330
15C4
100
AcDbEntity
  8
0
100
AcDbLine
 10
214.412753
 20
384.44149
 30
0.0
 11
159.207753
 21
384.44149
 31
0.0
  0
ARC
  5
103B
330
15C4
100
AcDbEntity
  8
0
100
AcDbCircle
 10
197.663753
 20
384.03049
 30
0.0
 40
2.5
100
AcDbArc
 50
135.433
 51
170.537
  0
ARC
  5
103C
330
15C4
100
AcDbEntity
  8
0
100
AcDbCircle
 10
197.306753
 20
384.38149
 30
0.0
 40
2.0
100
AcDbArc
 50
88.0
 51
135.433
  0
ARC
  5
103D
330
15C4
100
AcDbEntity
  8
0
100
AcDbCircle
 10
226.707753
 20
374.44149
 30
0.0
 40
10.0
100
AcDbArc
 50
200.006
 51
340.0
  0
LINE
  5
103E
330
15C4
100
AcDbEntity
  8
0
100
AcDbLine
 10
236.103753
 20
371.02149
 30
0.0
 11
237.954753
 21
381.51749
 31
0.0
  0
LINE
  5
103F
330
15C4
100
AcDbEntity
  8
0
100
AcDbLine
 10
217.310753
 20
371.02049
 30
0.0
 11
215.271753
 21
382.58549
 31
0.0
  0
ARC
  5
1040
330
15C4
100
AcDbEntity
  8
0
100
AcDbCircle
 10
211.331753
 20
381.89049
 30
0.0
 40
4.0
100
AcDbArc
 50
10.0
 51
88.0
  0
LINE
  5
1041
330
15C4
100
AcDbEntity
  8
0
100
AcDbLine
 10
211.471753
 20
385.88849
 30
0.0
 11
197.376753
 21
386.38049
 31
0.0
  0
ARC
  5
1042
330
15C4
100
AcDbEntity
  8
0
100
AcDbCircle
 10
241.894753
 20
380.82349
 30
0.0
 40
4.0
100
AcDbArc
 50
88.0
 51
170.0
  0
LINE
  5
1043
330
15C4
100
AcDbEntity
  8
0
100
AcDbLine
 10
421.706753
 20
219.44149
 30
0.0
 11
374.206753
 21
219.44149
 31
0.0
  0
LINE
  5
1044
330
15C4
100
AcDbEntity
  8
0
100
AcDbLine
 10
421.706753
 20
219.44149
 30
0.0
 11
421.706753
 21
222.44149
 31
0.0
  0
LINE
  5
1045
330
15C4
100
AcDbEntity
  8
0
100
AcDbLine
 10
414.206753
 20
255.11149
 30
0.0
 11
414.206753
 21
219.44149
 31
0.0
  0
LINE
  5
1046
330
15C4
100
AcDbEntity
  8
0
100
AcDbLine
 10
419.206753
 20
237.44149
 30
0.0
 11
419.206753
 21
233.09849
 31
0.0
  0
ARC
  5
1047
330
15C4
100
AcDbEntity
  8
0
100
AcDbCircle
 10
422.206753
 20
227.44149
 30
0.0
 40
5.0
100
AcDbArc
 50
141.058
 51
264.261
  0
ARC
  5
1048
330
15C4
100
AcDbEntity
  8
0
100
AcDbCircle
 10
415.206753
 20
233.09849
 30
0.0
 40
4.0
100
AcDbArc
 50
321.058
 51
0.0
  0
ARC
  5
1049
330
15C4
100
AcDbEntity
  8
0
100
AcDbCircle
 10
415.206753
 20
237.44149
 30
0.0
 40
4.0
100
AcDbArc
 50
0.0
 51
41.41
  0
ARC
  5
104A
330
15C4
100
AcDbEntity
  8
0
100
AcDbCircle
 10
421.206753
 20
242.73349
 30
0.0
 40
4.0
100
AcDbArc
 50
180.0
 51
221.41
  0
LINE
  5
104B
330
15C4
100
AcDbEntity
  8
0
100
AcDbLine
 10
435.366753
 20
257.44149
 30
0.0
 11
421.206753
 21
257.44149
 31
0.0
  0
ARC
  5
104C
330
15C4
100
AcDbEntity
  8
0
100
AcDbCircle
 10
421.206753
 20
253.44149
 30
0.0
 40
4.0
100
AcDbArc
 50
90.0
 51
180.0
  0
LINE
  5
104D
330
15C4
100
AcDbEntity
  8
0
100
AcDbLine
 10
435.206753
 20
260.44149
 30
0.0
 11
434.4027529999999
 21
257.44149
 31
0.0
  0
LINE
  5
104E
330
15C4
100
AcDbEntity
  8
0
100
AcDbLine
 10
423.206753
 20
260.44149
 30
0.0
 11
435.206753
 21
260.44149
 31
0.0
  0
LINE
  5
104F
330
15C4
100
AcDbEntity
  8
0
100
AcDbLine
 10
423.206753
 20
262.44149
 30
0.0
 11
423.206753
 21
260.44149
 31
0.0
  0
LINE
  5
1050
330
15C4
100
AcDbEntity
  8
0
100
AcDbLine
 10
395.706753
 20
340.44149
 30
0.0
 11
395.706753
 21
277.78149
 31
0.0
  0
LINE
  5
1051
330
15C4
100
AcDbEntity
  8
0
100
AcDbLine
 10
398.206753
 20
340.44149
 30
0.0
 11
398.206753
 21
287.44149
 31
0.0
  0
ARC
  5
1052
330
15C4
100
AcDbEntity
  8
0
100
AcDbCircle
 10
423.206753
 20
287.44149
 30
0.0
 40
25.0
100
AcDbArc
 50
180.0
 51
270.0
  0
ARC
  5
1053
330
15C4
100
AcDbEntity
  8
0
100
AcDbCircle
 10
423.206753
 20
287.44149
 30
0.0
 40
27.5
100
AcDbArc
 50
200.566
 51
239.5729999999999
  0
ARC
  5
1054
330
15C4
100
AcDbEntity
  8
0
100
AcDbCircle
 10
404.2067529999999
 20
255.11149
 30
0.0
 40
10.0
100
AcDbArc
 50
0.0
 51
59.55799999999999
  0
LINE
  5
1055
330
15C4
100
AcDbEntity
  8
0
100
AcDbLine
 10
374.206753
 20
340.44149
 30
0.0
 11
398.206753
 21
340.44149
 31
0.0
  0
LINE
  5
1056
330
15C4
100
AcDbEntity
  8
0
100
AcDbLine
 10
436.706753
 20
280.44149
 30
0.0
 11
399.206753
 21
280.44149
 31
0.0
  0
LINE
  5
1057
330
15C4
100
AcDbEntity
  8
0
100
AcDbLine
 10
387.674753
 20
364.26349
 30
0.0
 11
420.731753
 21
361.37149
 31
0.0
  0
LINE
  5
1058
330
15C4
100
AcDbEntity
  8
0
100
AcDbLine
 10
436.706753
 20
280.44149
 30
0.0
 11
436.706753
 21
343.93849
 31
0.0
  0
ARC
  5
1059
330
15C4
100
AcDbEntity
  8
0
100
AcDbCircle
 10
419.206753
 20
343.93849
 30
0.0
 40
17.5
100
AcDbArc
 50
0.0
 51
85.0
  0
ARC
  5
105A
330
15C4
100
AcDbEntity
  8
0
100
AcDbCircle
 10
374.206753
 20
360.44149
 30
0.0
 40
5.0
100
AcDbArc
 50
270.0
 51
90.0
  0
LINE
  5
105B
330
15C4
100
AcDbEntity
  8
0
100
AcDbLine
 10
387.456753
 20
361.77249
 30
0.0
 11
420.513753
 21
358.88049
 31
0.0
  0
LINE
  5
105C
330
15C4
100
AcDbEntity
  8
0
100
AcDbLine
 10
434.206753
 20
280.44149
 30
0.0
 11
434.206753
 21
343.93849
 31
0.0
  0
ARC
  5
105D
330
15C4
100
AcDbEntity
  8
0
100
AcDbCircle
 10
419.206753
 20
343.93849
 30
0.0
 40
15.0
100
AcDbArc
 50
0.0
 51
85.0
  0
LINE
  5
105E
330
15C4
100
AcDbEntity
  8
0
100
AcDbLine
 10
374.206753
 20
373.44149
 30
0.0
 11
381.706753
 21
373.44149
 31
0.0
  0
LINE
  5
105F
330
15C4
100
AcDbEntity
  8
0
100
AcDbLine
 10
381.706753
 20
373.44149
 30
0.0
 11
397.206753
 21
363.42949
 31
0.0
  0
ARC
  5
1060
330
15C4
100
AcDbEntity
  8
0
100
AcDbCircle
 10
435.206753
 20
281.44149
 30
0.0
 40
1.0
100
AcDbArc
 50
180.0
 51
270.0
  0
LINE
  5
1061
330
15C4
100
AcDbEntity
  8
0
100
AcDbLine
 10
326.706753
 20
219.44149
 30
0.0
 11
374.206753
 21
219.44149
 31
0.0
  0
LINE
  5
1062
330
15C4
100
AcDbEntity
  8
0
100
AcDbLine
 10
326.706753
 20
219.44149
 30
0.0
 11
326.706753
 21
222.44149
 31
0.0
  0
LINE
  5
1063
330
15C4
100
AcDbEntity
  8
0
100
AcDbLine
 10
334.206753
 20
255.11149
 30
0.0
 11
334.206753
 21
219.44149
 31
0.0
  0
LINE
  5
1064
330
15C4
100
AcDbEntity
  8
0
100
AcDbLine
 10
329.206753
 20
237.44149
 30
0.0
 11
329.206753
 21
233.09849
 31
0.0
  0
ARC
  5
1065
330
15C4
100
AcDbEntity
  8
0
100
AcDbCircle
 10
326.206753
 20
227.44149
 30
0.0
 40
5.0
100
AcDbArc
 50
275.739
 51
38.942
  0
ARC
  5
1066
330
15C4
100
AcDbEntity
  8
0
100
AcDbCircle
 10
333.206753
 20
233.09849
 30
0.0
 40
4.0
100
AcDbArc
 50
180.0
 51
218.942
  0
ARC
  5
1067
330
15C4
100
AcDbEntity
  8
0
100
AcDbCircle
 10
333.206753
 20
237.44149
 30
0.0
 40
4.0
100
AcDbArc
 50
138.59
 51
180.0
  0
ARC
  5
1068
330
15C4
100
AcDbEntity
  8
0
100
AcDbCircle
 10
327.205753
 20
242.73349
 30
0.0
 40
4.0
100
AcDbArc
 50
318.59
 51
0.0
  0
LINE
  5
1069
330
15C4
100
AcDbEntity
  8
0
100
AcDbLine
 10
313.045753
 20
257.44149
 30
0.0
 11
327.205753
 21
257.44149
 31
0.0
  0
ARC
  5
106A
330
15C4
100
AcDbEntity
  8
0
100
AcDbCircle
 10
327.205753
 20
253.44149
 30
0.0
 40
4.0
100
AcDbArc
 50
0.0
 51
90.0
  0
LINE
  5
106B
330
15C4
100
AcDbEntity
  8
0
100
AcDbLine
 10
313.206753
 20
260.44149
 30
0.0
 11
314.009753
 21
257.44149
 31
0.0
  0
LINE
  5
106C
330
15C4
100
AcDbEntity
  8
0
100
AcDbLine
 10
325.206753
 20
260.44149
 30
0.0
 11
313.206753
 21
260.44149
 31
0.0
  0
LINE
  5
106D
330
15C4
100
AcDbEntity
  8
0
100
AcDbLine
 10
325.206753
 20
262.44149
 30
0.0
 11
325.206753
 21
260.44149
 31
0.0
  0
LINE
  5
106E
330
15C4
100
AcDbEntity
  8
0
100
AcDbLine
 10
352.706753
 20
340.44149
 30
0.0
 11
352.706753
 21
277.78149
 31
0.0
  0
LINE
  5
106F
330
15C4
100
AcDbEntity
  8
0
100
AcDbLine
 10
350.206753
 20
340.44149
 30
0.0
 11
350.206753
 21
287.44149
 31
0.0
  0
ARC
  5
1070
330
15C4
100
AcDbEntity
  8
0
100
AcDbCircle
 10
325.206753
 20
287.44149
 30
0.0
 40
25.0
100
AcDbArc
 50
270.0
 51
0.0
  0
ARC
  5
1071
330
15C4
100
AcDbEntity
  8
0
100
AcDbCircle
 10
325.206753
 20
287.44149
 30
0.0
 40
27.5
100
AcDbArc
 50
300.442
 51
339.434
  0
ARC
  5
1072
330
15C4
100
AcDbEntity
  8
0
100
AcDbCircle
 10
344.206753
 20
255.11149
 30
0.0
 40
10.0
100
AcDbArc
 50
120.442
 51
180.0
  0
LINE
  5
1073
330
15C4
100
AcDbEntity
  8
0
100
AcDbLine
 10
374.206753
 20
340.44149
 30
0.0
 11
350.206753
 21
340.44149
 31
0.0
  0
LINE
  5
1074
330
15C4
100
AcDbEntity
  8
0
100
AcDbLine
 10
311.706753
 20
280.44149
 30
0.0
 11
349.206753
 21
280.44149
 31
0.0
  0
LINE
  5
1075
330
15C4
100
AcDbEntity
  8
0
100
AcDbLine
 10
360.737753
 20
364.26349
 30
0.0
 11
327.680753
 21
361.37149
 31
0.0
  0
LINE
  5
1076
330
15C4
100
AcDbEntity
  8
0
100
AcDbLine
 10
311.706753
 20
280.44149
 30
0.0
 11
311.706753
 21
343.93849
 31
0.0
  0
ARC
  5
1077
330
15C4
100
AcDbEntity
  8
0
100
AcDbCircle
 10
329.206753
 20
343.93849
 30
0.0
 40
17.5
100
AcDbArc
 50
95.0
 51
180.0
  0
ARC
  5
1078
330
15C4
100
AcDbEntity
  8
0
100
AcDbCircle
 10
374.206753
 20
360.44149
 30
0.0
 40
5.0
100
AcDbArc
 50
90.0
 51
270.0
  0
LINE
  5
1079
330
15C4
100
AcDbEntity
  8
0
100
AcDbLine
 10
360.955753
 20
361.77349
 30
0.0
 11
327.898753
 21
358.88149
 31
0.0
  0
LINE
  5
107A
330
15C4
100
AcDbEntity
  8
0
100
AcDbLine
 10
314.206753
 20
280.44149
 30
0.0
 11
314.206753
 21
343.93849
 31
0.0
  0
ARC
  5
107B
330
15C4
100
AcDbEntity
  8
0
100
AcDbCircle
 10
329.206753
 20
343.93849
 30
0.0
 40
15.0
100
AcDbArc
 50
95.0
 51
180.0
  0
LINE
  5
107C
330
15C4
100
AcDbEntity
  8
0
100
AcDbLine
 10
374.206753
 20
373.44149
 30
0.0
 11
366.706753
 21
373.44149
 31
0.0
  0
LINE
  5
107D
330
15C4
100
AcDbEntity
  8
0
100
AcDbLine
 10
366.706753
 20
373.44149
 30
0.0
 11
351.206753
 21
363.42949
 31
0.0
  0
ARC
  5
107E
330
15C4
100
AcDbEntity
  8
0
100
AcDbCircle
 10
313.206753
 20
281.44149
 30
0.0
 40
1.0
100
AcDbArc
 50
270.0
 51
0.0
  0
LINE
  5
107F
330
15C4
100
AcDbEntity
  8
0
100
AcDbLine
 10
350.953753
 20
277.78149
 30
0.0
 11
397.458753
 21
277.78149
 31
0.0
  0
LINE
  5
1080
330
15C4
100
AcDbEntity
  8
0
100
AcDbLine
 10
352.635753
 20
287.88549
 30
0.0
 11
395.706753
 21
287.88549
 31
0.0
  0
LINE
  5
1081
330
15C4
100
AcDbEntity
  8
4
100
AcDbLine
 10
339.1867529999999
 20
258.05149
 30
0.0
 11
408.9867529999999
 21
258.05149
 31
0.0
  0
ARC
  5
1082
330
15C4
100
AcDbEntity
  8
0
100
AcDbCircle
 10
374.206753
 20
360.44149
 30
0.0
 40
6.0
100
AcDbArc
 50
210.0
 51
330.0
  0
ARC
  5
1083
330
15C4
100
AcDbEntity
  8
0
100
AcDbCircle
 10
374.206753
 20
360.44149
 30
0.0
 40
8.5
100
AcDbArc
 50
210.0
 51
330.0
  0
LINE
  5
1084
330
15C4
100
AcDbEntity
  8
0
100
AcDbLine
 10
379.402753
 20
357.44149
 30
0.0
 11
381.478753
 21
361.03849
 31
0.0
  0
LINE
  5
1085
330
15C4
100
AcDbEntity
  8
0
100
AcDbLine
 10
381.567753
 20
356.19149
 30
0.0
 11
383.643753
 21
359.78849
 31
0.0
  0
LINE
  5
1086
330
15C4
100
AcDbEntity
  8
0
100
AcDbLine
 10
369.009753
 20
357.44149
 30
0.0
 11
366.933753
 21
361.03849
 31
0.0
  0
LINE
  5
1087
330
15C4
100
AcDbEntity
  8
0
100
AcDbLine
 10
366.844753
 20
356.19149
 30
0.0
 11
364.768753
 21
359.78849
 31
0.0
  0
ARC
  5
1088
330
15C4
100
AcDbEntity
  8
0
100
AcDbCircle
 10
361.304753
 20
357.78849
 30
0.0
 40
4.0
100
AcDbArc
 50
30.0
 51
95.0
  0
ARC
  5
1089
330
15C4
100
AcDbEntity
  8
0
100
AcDbCircle
 10
387.107753
 20
357.78849
 30
0.0
 40
4.0
100
AcDbArc
 50
85.0
 51
150.0
  0
ARC
  5
108A
330
15C4
100
AcDbEntity
  8
0
100
AcDbCircle
 10
361.304753
 20
357.78849
 30
0.0
 40
6.5
100
AcDbArc
 50
30.0
 51
95.0
  0
ARC
  5
108B
330
15C4
100
AcDbEntity
  8
0
100
AcDbCircle
 10
387.107753
 20
357.78849
 30
0.0
 40
6.5
100
AcDbArc
 50
85.0
 51
150.0
  0
LINE
  5
108C
330
15C4
100
AcDbEntity
  8
0
100
AcDbLine
 10
331.206753
 20
244.44149
 30
0.0
 11
331.206753
 21
242.73349
 31
0.0
  0
ARC
  5
108D
330
15C4
100
AcDbEntity
  8
0
100
AcDbCircle
 10
328.206753
 20
244.44149
 30
0.0
 40
3.0
100
AcDbArc
 50
0.0
 51
90.0
  0
ARC
  5
108E
330
15C4
100
AcDbEntity
  8
0
100
AcDbCircle
 10
328.206753
 20
253.44149
 30
0.0
 40
3.0
100
AcDbArc
 50
270.0
 51
0.0
  0
LINE
  5
108F
330
15C4
100
AcDbEntity
  8
0
100
AcDbLine
 10
328.206753
 20
250.44149
 30
0.0
 11
327.205753
 21
250.44149
 31
0.0
  0
LINE
  5
1090
330
15C4
100
AcDbEntity
  8
0
100
AcDbLine
 10
327.205753
 20
247.44149
 30
0.0
 11
328.206753
 21
247.44149
 31
0.0
  0
ARC
  5
1091
330
15C4
100
AcDbEntity
  8
0
100
AcDbCircle
 10
327.205753
 20
248.94149
 30
0.0
 40
1.5
100
AcDbArc
 50
180.0
 51
270.0
  0
ARC
  5
1092
330
15C4
100
AcDbEntity
  8
0
100
AcDbCircle
 10
327.205753
 20
248.94149
 30
0.0
 40
1.5
100
AcDbArc
 50
90.0
 51
180.0
  0
LINE
  5
1093
330
15C4
100
AcDbEntity
  8
0
100
AcDbLine
 10
421.206753
 20
250.44149
 30
0.0
 11
420.206753
 21
250.44149
 31
0.0
  0
LINE
  5
1094
330
15C4
100
AcDbEntity
  8
0
100
AcDbLine
 10
421.206753
 20
247.44149
 30
0.0
 11
420.206753
 21
247.44149
 31
0.0
  0
LINE
  5
1095
330
15C4
100
AcDbEntity
  8
0
100
AcDbLine
 10
417.2067529999999
 20
244.44149
 30
0.0
 11
417.2067529999999
 21
242.73349
 31
0.0
  0
ARC
  5
1096
330
15C4
100
AcDbEntity
  8
0
100
AcDbCircle
 10
421.206753
 20
248.94149
 30
0.0
 40
1.5
100
AcDbArc
 50
0.0
 51
90.0
  0
ARC
  5
1097
330
15C4
100
AcDbEntity
  8
0
100
AcDbCircle
 10
421.206753
 20
248.94149
 30
0.0
 40
1.5
100
AcDbArc
 50
270.0
 51
0.0
  0
ARC
  5
1098
330
15C4
100
AcDbEntity
  8
0
100
AcDbCircle
 10
420.206753
 20
253.44149
 30
0.0
 40
3.0
100
AcDbArc
 50
180.0
 51
270.0
  0
ARC
  5
1099
330
15C4
100
AcDbEntity
  8
0
100
AcDbCircle
 10
420.206753
 20
244.44149
 30
0.0
 40
3.0
100
AcDbArc
 50
90.0
 51
180.0
  0
CIRCLE
  5
109A
330
15C4
100
AcDbEntity
  8
0
100
AcDbCircle
 10
421.145753
 20
243.50249
 30
0.0
 40
3.939999999999999
  0
CIRCLE
  5
109B
330
15C4
100
AcDbEntity
  8
0
100
AcDbCircle
 10
327.266753
 20
243.50149
 30
0.0
 40
3.939999999999999
  0
LINE
  5
109C
330
15C4
100
AcDbEntity
  8
0
100
AcDbLine
 10
516.706753
 20
396.44449
 30
0.0
 11
516.706753
 21
409.94149
 31
0.0
  0
LINE
  5
109D
330
15C4
100
AcDbEntity
  8
0
100
AcDbLine
 10
516.7057530000001
 20
392.44149
 30
0.0
 11
516.7057530000001
 21
392.63949
 31
0.0
  0
LINE
  5
109E
330
15C4
100
AcDbEntity
  8
4
100
AcDbLine
 10
517.706753
 20
396.44149
 30
0.0
 11
517.706753
 21
409.94149
 31
0.0
  0
LINE
  5
109F
330
15C4
100
AcDbEntity
  8
0
100
AcDbLine
 10
516.7057530000001
 20
392.64149
 30
0.0
 11
517.206753
 21
394.54149
 31
0.0
  0
LINE
  5
10A0
330
15C4
100
AcDbEntity
  8
4
100
AcDbLine
 10
517.206753
 20
394.54149
 30
0.0
 11
517.706753
 21
396.44149
 31
0.0
  0
LINE
  5
10A1
330
15C4
100
AcDbEntity
  8
0
100
AcDbLine
 10
517.206753
 20
394.54149
 30
0.0
 11
516.706753
 21
396.44149
 31
0.0
  0
LINE
  5
10A2
330
15C4
100
AcDbEntity
  8
0
100
AcDbLine
 10
516.707753
 20
421.44149
 30
0.0
 11
517.708753
 21
422.44149
 31
0.0
  0
LINE
  5
10A3
330
15C4
100
AcDbEntity
  8
4
100
AcDbLine
 10
517.705753
 20
388.64149
 30
0.0
 11
517.2087529999999
 21
390.53249
 31
0.0
  0
LINE
  5
10A4
330
15C4
100
AcDbEntity
  8
0
100
AcDbLine
 10
516.7057530000001
 20
388.64149
 30
0.0
 11
517.2037529999999
 21
390.53249
 31
0.0
  0
LINE
  5
10A5
330
15C4
100
AcDbEntity
  8
0
100
AcDbLine
 10
517.205753
 20
390.54149
 30
0.0
 11
516.706753
 21
392.43849
 31
0.0
  0
LINE
  5
10A6
330
15C4
100
AcDbEntity
  8
0
100
AcDbLine
 10
526.705753
 20
388.64149
 30
0.0
 11
526.207753
 21
390.53149
 31
0.0
  0
LINE
  5
10A7
330
15C4
100
AcDbEntity
  8
4
100
AcDbLine
 10
525.705753
 20
388.64149
 30
0.0
 11
526.2037529999999
 21
390.53149
 31
0.0
  0
LINE
  5
10A8
330
15C4
100
AcDbEntity
  8
0
100
AcDbLine
 10
526.205753
 20
390.54149
 30
0.0
 11
526.704753
 21
392.43749
 31
0.0
  0
LINE
  5
10A9
330
15C4
100
AcDbEntity
  8
0
100
AcDbLine
 10
526.705753
 20
392.44149
 30
0.0
 11
526.705753
 21
392.63849
 31
0.0
  0
LINE
  5
10AA
330
15C4
100
AcDbEntity
  8
0
100
AcDbLine
 10
526.705753
 20
388.64149
 30
0.0
 11
516.7087529999999
 21
388.64149
 31
0.0
  0
LINE
  5
10AB
330
15C4
100
AcDbEntity
  8
4
100
AcDbLine
 10
525.705753
 20
390.54149
 30
0.0
 11
517.708753
 21
390.54149
 31
0.0
  0
LINE
  5
10AC
330
15C4
100
AcDbEntity
  8
0
100
AcDbLine
 10
526.705753
 20
392.44149
 30
0.0
 11
516.7097529999999
 21
392.44149
 31
0.0
  0
LINE
  5
10AD
330
15C4
100
AcDbEntity
  8
0
100
AcDbLine
 10
526.205753
 20
394.54149
 30
0.0
 11
526.705753
 21
396.44149
 31
0.0
  0
LINE
  5
10AE
330
15C4
100
AcDbEntity
  8
0
100
AcDbLine
 10
526.705753
 20
392.64149
 30
0.0
 11
526.205753
 21
394.54149
 31
0.0
  0
LINE
  5
10AF
330
15C4
100
AcDbEntity
  8
4
100
AcDbLine
 10
526.205753
 20
394.54149
 30
0.0
 11
525.705753
 21
396.44149
 31
0.0
  0
LINE
  5
10B0
330
15C4
100
AcDbEntity
  8
4
100
AcDbLine
 10
525.705753
 20
396.44149
 30
0.0
 11
525.706753
 21
409.94149
 31
0.0
  0
LINE
  5
10B1
330
15C4
100
AcDbEntity
  8
0
100
AcDbLine
 10
526.705753
 20
396.44349
 30
0.0
 11
526.706753
 21
409.94049
 31
0.0
  0
LINE
  5
10B2
330
15C4
100
AcDbEntity
  8
0
100
AcDbLine
 10
526.706753
 20
421.4404899999999
 30
0.0
 11
525.705753
 21
422.44149
 31
0.0
  0
LINE
  5
10B3
330
15C4
100
AcDbEntity
  8
0
100
AcDbLine
 10
526.705753
 20
392.64149
 30
0.0
 11
516.7087529999999
 21
392.64149
 31
0.0
  0
LINE
  5
10B4
330
15C4
100
AcDbEntity
  8
4
100
AcDbLine
 10
525.705753
 20
394.54149
 30
0.0
 11
517.708753
 21
394.54149
 31
0.0
  0
LINE
  5
10B5
330
15C4
100
AcDbEntity
  8
0
100
AcDbLine
 10
526.705753
 20
396.44149
 30
0.0
 11
516.7087529999999
 21
396.44149
 31
0.0
  0
LINE
  5
10B6
330
15C4
100
AcDbEntity
  8
0
100
AcDbLine
 10
526.706753
 20
421.4404899999999
 30
0.0
 11
516.7097529999999
 21
421.4404899999999
 31
0.0
  0
LINE
  5
10B7
330
15C4
100
AcDbEntity
  8
0
100
AcDbLine
 10
525.706753
 20
422.44149
 30
0.0
 11
517.709753
 21
422.44149
 31
0.0
  0
LINE
  5
10B8
330
15C4
100
AcDbEntity
  8
4
100
AcDbLine
 10
517.705753
 20
381.44449
 30
0.0
 11
517.705753
 21
388.64149
 31
0.0
  0
LINE
  5
10B9
330
15C4
100
AcDbEntity
  8
0
100
AcDbLine
 10
516.7057530000001
 20
382.44249
 30
0.0
 11
516.7057530000001
 21
392.44149
 31
0.0
  0
LINE
  5
10BA
330
15C4
100
AcDbEntity
  8
0
100
AcDbLine
 10
517.705753
 20
381.44049
 30
0.0
 11
516.706753
 21
382.44049
 31
0.0
  0
LINE
  5
10BB
330
15C4
100
AcDbEntity
  8
0
100
AcDbLine
 10
526.704753
 20
382.44049
 30
0.0
 11
516.7087529999999
 21
382.44049
 31
0.0
  0
LINE
  5
10BC
330
15C4
100
AcDbEntity
  8
0
100
AcDbLine
 10
526.704753
 20
382.44149
 30
0.0
 11
526.705753
 21
392.44149
 31
0.0
  0
LINE
  5
10BD
330
15C4
100
AcDbEntity
  8
0
100
AcDbLine
 10
525.705753
 20
381.44049
 30
0.0
 11
526.704753
 21
382.43949
 31
0.0
  0
LINE
  5
10BE
330
15C4
100
AcDbEntity
  8
4
100
AcDbLine
 10
525.704753
 20
381.44349
 30
0.0
 11
525.705753
 21
388.64049
 31
0.0
  0
LINE
  5
10BF
330
15C4
100
AcDbEntity
  8
0
100
AcDbLine
 10
525.702753
 20
381.44149
 30
0.0
 11
517.707753
 21
381.44149
 31
0.0
  0
ARC
  5
10C0
330
15C4
100
AcDbEntity
  8
0
100
AcDbCircle
 10
521.706753
 20
403.76649
 30
0.0
 40
14.175
100
AcDbArc
 50
70.533
 51
109.461
  0
ARC
  5
10C1
330
15C4
100
AcDbEntity
  8
0
100
AcDbCircle
 10
521.707753
 20
424.11649
 30
0.0
 40
14.175
100
AcDbArc
 50
250.525
 51
289.46
  0
LINE
  5
10C2
330
15C4
100
AcDbEntity
  8
0
100
AcDbLine
 10
526.431753
 20
410.75349
 30
0.0
 11
526.431753
 21
417.1294899999999
 31
0.0
  0
LINE
  5
10C3
330
15C4
100
AcDbEntity
  8
0
100
AcDbLine
 10
516.981753
 20
410.75349
 30
0.0
 11
516.981753
 21
417.1294899999999
 31
0.0
  0
LINE
  5
10C4
330
15C4
100
AcDbEntity
  8
0
100
AcDbLine
 10
528.597753
 20
409.94049
 30
0.0
 11
514.8167530000001
 21
409.94149
 31
0.0
  0
LINE
  5
10C5
330
15C4
100
AcDbEntity
  8
0
100
AcDbLine
 10
528.794753
 20
417.9404899999999
 30
0.0
 11
514.817753
 21
417.94149
 31
0.0
  0
LINE
  5
10C6
330
15C4
100
AcDbEntity
  8
0
100
AcDbLine
 10
531.1557529999999
 20
410.75049
 30
0.0
 11
530.242753
 21
410.22449
 31
0.0
  0
ARC
  5
10C7
330
15C4
100
AcDbEntity
  8
0
100
AcDbCircle
 10
528.794753
 20
413.7884899999999
 30
0.0
 40
3.846999999999999
100
AcDbArc
 50
232.13
 51
292.11
  0
LINE
  5
10C8
330
15C4
100
AcDbEntity
  8
0
100
AcDbLine
 10
531.1567529999999
 20
410.75349
 30
0.0
 11
531.1567529999999
 21
417.1284899999999
 31
0.0
  0
ARC
  5
10C9
330
15C4
100
AcDbEntity
  8
0
100
AcDbCircle
 10
528.794753
 20
414.0934899999999
 30
0.0
 40
3.848
100
AcDbArc
 50
60.0
 51
127.859
  0
LINE
  5
10CA
330
15C4
100
AcDbEntity
  8
0
100
AcDbLine
 10
531.1557529999999
 20
417.1314899999999
 30
0.0
 11
530.2447530000001
 21
417.65749
 31
0.0
  0
ARC
  5
10CB
330
15C4
100
AcDbEntity
  8
0
100
AcDbCircle
 10
514.6197530000001
 20
413.78949
 30
0.0
 40
3.848
100
AcDbArc
 50
247.969
 51
307.857
  0
LINE
  5
10CC
330
15C4
100
AcDbEntity
  8
0
100
AcDbLine
 10
513.1757529999999
 20
410.22249
 30
0.0
 11
512.257753
 21
410.7524899999999
 31
0.0
  0
LINE
  5
10CD
330
15C4
100
AcDbEntity
  8
0
100
AcDbLine
 10
512.256753
 20
410.75549
 30
0.0
 11
512.256753
 21
417.1294899999999
 31
0.0
  0
LINE
  5
10CE
330
15C4
100
AcDbEntity
  8
0
100
AcDbLine
 10
513.173753
 20
417.65949
 30
0.0
 11
512.258753
 21
417.1314899999999
 31
0.0
  0
ARC
  5
10CF
330
15C4
100
AcDbEntity
  8
0
100
AcDbCircle
 10
514.6197530000001
 20
414.09449
 30
0.0
 40
3.848
100
AcDbArc
 50
52.138
 51
112.063
  0
LINE
  5
10D0
330
15C4
100
AcDbEntity
  8
7
100
AcDbLine
 10
374.206753
 20
418.92349
 30
0.0
 11
374.206753
 21
160.46149
 31
0.0
  0
LINE
  5
10D1
330
15C4
100
AcDbEntity
  8
0
100
AcDbLine
 10
516.706753
 20
417.94149
 30
0.0
 11
516.707753
 21
421.43949
 31
0.0
  0
LINE
  5
10D2
330
15C4
100
AcDbEntity
  8
4
100
AcDbLine
 10
517.707753
 20
417.3654899999999
 30
0.0
 11
517.707753
 21
422.43949
 31
0.0
  0
LINE
  5
10D3
330
15C4
100
AcDbEntity
  8
4
100
AcDbLine
 10
525.706753
 20
417.94149
 30
0.0
 11
525.706753
 21
422.43849
 31
0.0
  0
LINE
  5
10D4
330
15C4
100
AcDbEntity
  8
0
100
AcDbLine
 10
526.706753
 20
417.9404899999999
 30
0.0
 11
526.706753
 21
421.43949
 31
0.0
  0
LINE
  5
10D6
330
15C4
100
AcDbEntity
  8
0
100
AcDbLine
 10
516.7057530000001
 20
377.44149
 30
0.0
 11
526.704753
 21
377.44149
 31
0.0
  0
LINE
  5
10D7
330
15C4
100
AcDbEntity
  8
0
100
AcDbLine
 10
517.704753
 20
372.44149
 30
0.0
 11
525.704753
 21
372.44149
 31
0.0
  0
LINE
  5
10D8
330
15C4
100
AcDbEntity
  8
0
100
AcDbLine
 10
525.704753
 20
372.44149
 30
0.0
 11
525.702753
 21
381.44149
 31
0.0
  0
LINE
  5
10D9
330
15C4
100
AcDbEntity
  8
0
100
AcDbLine
 10
517.707753
 20
381.44149
 30
0.0
 11
517.704753
 21
372.44149
 31
0.0
  0
LINE
  5
10DA
330
15C4
100
AcDbEntity
  8
4
100
AcDbLine
 10
526.704753
 20
382.44049
 30
0.0
 11
526.704753
 21
377.44149
 31
0.0
  0
LINE
  5
10DB
330
15C4
100
AcDbEntity
  8
4
100
AcDbLine
 10
516.7057530000001
 20
382.44049
 30
0.0
 11
516.7057530000001
 21
377.44149
 31
0.0
  0
LINE
  5
10DC
330
15C4
100
AcDbEntity
  8
0
100
AcDbLine
 10
521.704753
 20
370.13249
 30
0.0
 11
525.704753
 21
372.44149
 31
0.0
  0
LINE
  5
10DD
330
15C4
100
AcDbEntity
  8
0
100
AcDbLine
 10
517.704753
 20
372.44149
 30
0.0
 11
521.704753
 21
370.13249
 31
0.0
  0
LINE
  5
10DE
330
15C4
100
AcDbEntity
  8
0
100
AcDbLine
 10
231.706753
 20
396.44149
 30
0.0
 11
231.705753
 21
409.94149
 31
0.0
  0
LINE
  5
10DF
330
15C4
100
AcDbEntity
  8
4
100
AcDbLine
 10
230.706753
 20
396.44149
 30
0.0
 11
230.705753
 21
409.94149
 31
0.0
  0
LINE
  5
10E0
330
15C4
100
AcDbEntity
  8
0
100
AcDbLine
 10
231.706753
 20
392.64249
 30
0.0
 11
231.206753
 21
394.54149
 31
0.0
  0
LINE
  5
10E1
330
15C4
100
AcDbEntity
  8
4
100
AcDbLine
 10
231.206753
 20
394.54149
 30
0.0
 11
230.706753
 21
396.44249
 31
0.0
  0
LINE
  5
10E2
330
15C4
100
AcDbEntity
  8
0
100
AcDbLine
 10
231.206753
 20
394.54149
 30
0.0
 11
231.706753
 21
396.44149
 31
0.0
  0
LINE
  5
10E3
330
15C4
100
AcDbEntity
  8
0
100
AcDbLine
 10
231.704753
 20
421.44149
 30
0.0
 11
230.704753
 21
422.44149
 31
0.0
  0
LINE
  5
10E4
330
15C4
100
AcDbEntity
  8
4
100
AcDbLine
 10
230.706753
 20
388.64149
 30
0.0
 11
231.204753
 21
390.53249
 31
0.0
  0
LINE
  5
10E5
330
15C4
100
AcDbEntity
  8
0
100
AcDbLine
 10
231.706753
 20
388.64149
 30
0.0
 11
231.209753
 21
390.53249
 31
0.0
  0
LINE
  5
10E6
330
15C4
100
AcDbEntity
  8
0
100
AcDbLine
 10
231.206753
 20
390.54149
 30
0.0
 11
231.705753
 21
392.43849
 31
0.0
  0
LINE
  5
10E7
330
15C4
100
AcDbEntity
  8
0
100
AcDbLine
 10
221.707753
 20
388.64149
 30
0.0
 11
222.204753
 21
390.53149
 31
0.0
  0
LINE
  5
10E8
330
15C4
100
AcDbEntity
  8
4
100
AcDbLine
 10
222.707753
 20
388.64049
 30
0.0
 11
222.209753
 21
390.53249
 31
0.0
  0
LINE
  5
10E9
330
15C4
100
AcDbEntity
  8
0
100
AcDbLine
 10
222.2077529999999
 20
390.54149
 30
0.0
 11
221.707753
 21
392.43849
 31
0.0
  0
LINE
  5
10EA
330
15C4
100
AcDbEntity
  8
0
100
AcDbLine
 10
221.707753
 20
388.64149
 30
0.0
 11
231.704753
 21
388.64149
 31
0.0
  0
LINE
  5
10EB
330
15C4
100
AcDbEntity
  8
4
100
AcDbLine
 10
222.707753
 20
390.54149
 30
0.0
 11
230.704753
 21
390.54149
 31
0.0
  0
LINE
  5
10EC
330
15C4
100
AcDbEntity
  8
0
100
AcDbLine
 10
222.206753
 20
394.54149
 30
0.0
 11
221.706753
 21
396.44049
 31
0.0
  0
LINE
  5
10ED
330
15C4
100
AcDbEntity
  8
0
100
AcDbLine
 10
221.707753
 20
392.64149
 30
0.0
 11
222.2077529999999
 21
394.54149
 31
0.0
  0
LINE
  5
10EE
330
15C4
100
AcDbEntity
  8
4
100
AcDbLine
 10
222.2077529999999
 20
394.54149
 30
0.0
 11
222.707753
 21
396.44149
 31
0.0
  0
LINE
  5
10EF
330
15C4
100
AcDbEntity
  8
4
100
AcDbLine
 10
222.707753
 20
396.44149
 30
0.0
 11
222.706753
 21
409.94149
 31
0.0
  0
LINE
  5
10F0
330
15C4
100
AcDbEntity
  8
0
100
AcDbLine
 10
221.706753
 20
396.44349
 30
0.0
 11
221.706753
 21
409.94049
 31
0.0
  0
LINE
  5
10F1
330
15C4
100
AcDbEntity
  8
0
100
AcDbLine
 10
221.706753
 20
421.4404899999999
 30
0.0
 11
222.706753
 21
422.44149
 31
0.0
  0
LINE
  5
10F2
330
15C4
100
AcDbEntity
  8
0
100
AcDbLine
 10
221.707753
 20
392.64149
 30
0.0
 11
231.704753
 21
392.64149
 31
0.0
  0
LINE
  5
10F3
330
15C4
100
AcDbEntity
  8
4
100
AcDbLine
 10
222.707753
 20
394.54149
 30
0.0
 11
230.704753
 21
394.54149
 31
0.0
  0
LINE
  5
10F4
330
15C4
100
AcDbEntity
  8
0
100
AcDbLine
 10
221.706753
 20
396.44149
 30
0.0
 11
231.703753
 21
396.44149
 31
0.0
  0
LINE
  5
10F5
330
15C4
100
AcDbEntity
  8
0
100
AcDbLine
 10
221.705753
 20
421.4404899999999
 30
0.0
 11
231.702753
 21
421.4404899999999
 31
0.0
  0
LINE
  5
10F6
330
15C4
100
AcDbEntity
  8
0
100
AcDbLine
 10
222.705753
 20
422.44149
 30
0.0
 11
230.702753
 21
422.44149
 31
0.0
  0
LINE
  5
10F7
330
15C4
100
AcDbEntity
  8
4
100
AcDbLine
 10
230.707753
 20
381.44449
 30
0.0
 11
230.706753
 21
388.64149
 31
0.0
  0
LINE
  5
10F8
330
15C4
100
AcDbEntity
  8
0
100
AcDbLine
 10
231.707753
 20
382.44249
 30
0.0
 11
231.706753
 21
392.44149
 31
0.0
  0
LINE
  5
10F9
330
15C4
100
AcDbEntity
  8
0
100
AcDbLine
 10
230.707753
 20
381.44049
 30
0.0
 11
231.706753
 21
382.44049
 31
0.0
  0
LINE
  5
10FA
330
15C4
100
AcDbEntity
  8
0
100
AcDbLine
 10
221.707753
 20
382.44049
 30
0.0
 11
231.703753
 21
382.44049
 31
0.0
  0
LINE
  5
10FB
330
15C4
100
AcDbEntity
  8
0
100
AcDbLine
 10
221.707753
 20
382.44149
 30
0.0
 11
221.706753
 21
392.44149
 31
0.0
  0
LINE
  5
10FC
330
15C4
100
AcDbEntity
  8
0
100
AcDbLine
 10
222.707753
 20
381.44049
 30
0.0
 11
221.708753
 21
382.43949
 31
0.0
  0
LINE
  5
10FD
330
15C4
100
AcDbEntity
  8
4
100
AcDbLine
 10
222.707753
 20
381.44349
 30
0.0
 11
222.707753
 21
388.64049
 31
0.0
  0
LINE
  5
10FE
330
15C4
100
AcDbEntity
  8
0
100
AcDbLine
 10
222.710753
 20
381.44149
 30
0.0
 11
230.704753
 21
381.44149
 31
0.0
  0
ARC
  5
10FF
330
15C4
100
AcDbEntity
  8
0
100
AcDbCircle
 10
226.706753
 20
403.76649
 30
0.0
 40
14.175
100
AcDbArc
 50
70.539
 51
109.467
  0
ARC
  5
1100
330
15C4
100
AcDbEntity
  8
0
100
AcDbCircle
 10
226.704753
 20
424.11649
 30
0.0
 40
14.175
100
AcDbArc
 50
250.54
 51
289.475
  0
LINE
  5
1101
330
15C4
100
AcDbEntity
  8
0
100
AcDbLine
 10
221.980753
 20
410.75349
 30
0.0
 11
221.980753
 21
417.1294899999999
 31
0.0
  0
LINE
  5
1102
330
15C4
100
AcDbEntity
  8
0
100
AcDbLine
 10
231.430753
 20
410.75349
 30
0.0
 11
231.430753
 21
417.1294899999999
 31
0.0
  0
LINE
  5
1103
330
15C4
100
AcDbEntity
  8
0
100
AcDbLine
 10
219.8147529999999
 20
409.94049
 30
0.0
 11
233.595753
 21
409.94149
 31
0.0
  0
LINE
  5
1104
330
15C4
100
AcDbEntity
  8
0
100
AcDbLine
 10
219.617753
 20
417.9404899999999
 30
0.0
 11
233.595753
 21
417.94149
 31
0.0
  0
LINE
  5
1105
330
15C4
100
AcDbEntity
  8
0
100
AcDbLine
 10
217.257753
 20
410.75049
 30
0.0
 11
218.169753
 21
410.22349
 31
0.0
  0
ARC
  5
1106
330
15C4
100
AcDbEntity
  8
0
100
AcDbCircle
 10
219.6187529999999
 20
413.7884899999999
 30
0.0
 40
3.846999999999999
100
AcDbArc
 50
247.89
 51
307.8700000000001
  0
LINE
  5
1107
330
15C4
100
AcDbEntity
  8
0
100
AcDbLine
 10
217.255753
 20
410.75349
 30
0.0
 11
217.255753
 21
417.1284899999999
 31
0.0
  0
ARC
  5
1108
330
15C4
100
AcDbEntity
  8
0
100
AcDbCircle
 10
219.6187529999999
 20
414.0934899999999
 30
0.0
 40
3.848
100
AcDbArc
 50
52.14100000000001
 51
120.0
  0
LINE
  5
1109
330
15C4
100
AcDbEntity
  8
0
100
AcDbLine
 10
217.256753
 20
417.1314899999999
 30
0.0
 11
218.167753
 21
417.65749
 31
0.0
  0
ARC
  5
110A
330
15C4
100
AcDbEntity
  8
0
100
AcDbCircle
 10
233.793753
 20
413.78949
 30
0.0
 40
3.848
100
AcDbArc
 50
232.143
 51
292.031
  0
LINE
  5
110B
330
15C4
100
AcDbEntity
  8
0
100
AcDbLine
 10
235.236753
 20
410.22249
 30
0.0
 11
236.154753
 21
410.7524899999999
 31
0.0
  0
LINE
  5
110C
330
15C4
100
AcDbEntity
  8
0
100
AcDbLine
 10
236.155753
 20
410.75549
 30
0.0
 11
236.155753
 21
417.1294899999999
 31
0.0
  0
LINE
  5
110D
330
15C4
100
AcDbEntity
  8
0
100
AcDbLine
 10
235.238753
 20
417.65949
 30
0.0
 11
236.154753
 21
417.1314899999999
 31
0.0
  0
ARC
  5
110E
330
15C4
100
AcDbEntity
  8
0
100
AcDbCircle
 10
233.793753
 20
414.09449
 30
0.0
 40
3.848
100
AcDbArc
 50
67.937
 51
127.862
  0
LINE
  5
110F
330
15C4
100
AcDbEntity
  8
0
100
AcDbLine
 10
231.705753
 20
417.94149
 30
0.0
 11
231.705753
 21
421.43949
 31
0.0
  0
LINE
  5
1110
330
15C4
100
AcDbEntity
  8
4
100
AcDbLine
 10
230.705753
 20
417.3654899999999
 30
0.0
 11
230.705753
 21
422.43949
 31
0.0
  0
LINE
  5
1111
330
15C4
100
AcDbEntity
  8
4
100
AcDbLine
 10
222.705753
 20
417.94149
 30
0.0
 11
222.705753
 21
422.43849
 31
0.0
  0
LINE
  5
1112
330
15C4
100
AcDbEntity
  8
0
100
AcDbLine
 10
221.705753
 20
417.9404899999999
 30
0.0
 11
221.705753
 21
421.43949
 31
0.0
  0
LINE
  5
1114
330
15C4
100
AcDbEntity
  8
0
100
AcDbLine
 10
231.707753
 20
377.44149
 30
0.0
 11
221.708753
 21
377.44149
 31
0.0
  0
LINE
  5
1115
330
15C4
100
AcDbEntity
  8
0
100
AcDbLine
 10
230.707753
 20
372.44149
 30
0.0
 11
222.708753
 21
372.44149
 31
0.0
  0
LINE
  5
1116
330
15C4
100
AcDbEntity
  8
0
100
AcDbLine
 10
222.708753
 20
372.44149
 30
0.0
 11
222.710753
 21
381.44149
 31
0.0
  0
LINE
  5
1117
330
15C4
100
AcDbEntity
  8
0
100
AcDbLine
 10
230.704753
 20
381.44149
 30
0.0
 11
230.707753
 21
372.44149
 31
0.0
  0
LINE
  5
1118
330
15C4
100
AcDbEntity
  8
4
100
AcDbLine
 10
221.707753
 20
382.44049
 30
0.0
 11
221.708753
 21
377.44149
 31
0.0
  0
LINE
  5
1119
330
15C4
100
AcDbEntity
  8
4
100
AcDbLine
 10
231.707753
 20
382.44049
 30
0.0
 11
231.707753
 21
377.44149
 31
0.0
  0
LINE
  5
111A
330
15C4
100
AcDbEntity
  8
0
100
AcDbLine
 10
226.707753
 20
370.13249
 30
0.0
 11
222.708753
 21
372.44149
 31
0.0
  0
LINE
  5
111B
330
15C4
100
AcDbEntity
  8
0
100
AcDbLine
 10
230.708753
 20
372.44149
 30
0.0
 11
226.707753
 21
370.13149
 31
0.0
  0
LINE
  5
111C
330
15C4
100
AcDbEntity
  8
0
100
AcDbLine
 10
526.706753
 20
409.94149
 30
0.0
 11
546.706753
 21
409.94149
 31
0.0
  0
LINE
  5
111D
330
15C4
100
AcDbEntity
  8
0
100
AcDbLine
 10
374.206753
 20
409.94149
 30
0.0
 11
516.706753
 21
409.94149
 31
0.0
  0
LINE
  5
111E
330
15C4
100
AcDbEntity
  8
0
100
AcDbLine
 10
549.206753
 20
407.4414899999999
 30
0.0
 11
549.206753
 21
400.4414899999999
 31
0.0
  0
LINE
  5
111F
330
15C4
100
AcDbEntity
  8
0
100
AcDbLine
 10
526.705753
 20
397.94149
 30
0.0
 11
546.706753
 21
397.94149
 31
0.0
  0
LINE
  5
1120
330
15C4
100
AcDbEntity
  8
0
100
AcDbLine
 10
374.206753
 20
397.94149
 30
0.0
 11
516.706753
 21
397.94149
 31
0.0
  0
ARC
  5
1121
330
15C4
100
AcDbEntity
  8
0
100
AcDbCircle
 10
546.706753
 20
407.4414899999999
 30
0.0
 40
2.5
100
AcDbArc
 50
0.0
 51
90.0
  0
ARC
  5
1122
330
15C4
100
AcDbEntity
  8
0
100
AcDbCircle
 10
546.706753
 20
400.4414899999999
 30
0.0
 40
2.5
100
AcDbArc
 50
270.0
 51
0.0
  0
LINE
  5
1123
330
15C4
100
AcDbEntity
  8
0
100
AcDbLine
 10
495.706753
 20
410.2104899999999
 30
0.0
 11
495.706753
 21
409.94149
 31
0.0
  0
LINE
  5
1124
330
15C4
100
AcDbEntity
  8
0
100
AcDbLine
 10
374.206753
 20
405.94149
 30
0.0
 11
376.206753
 21
405.94149
 31
0.0
  0
ARC
  5
1125
330
15C4
100
AcDbEntity
  8
0
100
AcDbCircle
 10
491.706753
 20
409.94149
 30
0.0
 40
4.0
100
AcDbArc
 50
270.0
 51
0.0
  0
LINE
  5
1126
330
15C4
100
AcDbEntity
  8
0
100
AcDbLine
 10
374.206753
 20
405.94149
 30
0.0
 11
491.706753
 21
405.94149
 31
0.0
  0
ARC
  5
1127
330
15C4
100
AcDbEntity
  8
0
100
AcDbCircle
 10
376.206753
 20
409.94149
 30
0.0
 40
4.0
100
AcDbArc
 50
270.0
 51
343.398
  0
ARC
  5
1128
330
15C4
100
AcDbEntity
  8
0
100
AcDbCircle
 10
381.572753
 20
408.3414899999999
 30
0.0
 40
1.6
100
AcDbArc
 50
90.00100000000001
 51
163.398
  0
LINE
  5
1129
330
15C4
100
AcDbEntity
  8
0
100
AcDbLine
 10
528.706753
 20
400.4414899999999
 30
0.0
 11
528.706753
 21
407.4414899999999
 31
0.0
  0
LINE
  5
112A
330
15C4
100
AcDbEntity
  8
0
100
AcDbLine
 10
514.706753
 20
400.4414899999999
 30
0.0
 11
514.706753
 21
407.4414899999999
 31
0.0
  0
ARC
  5
112B
330
15C4
100
AcDbEntity
  8
0
100
AcDbCircle
 10
531.206753
 20
400.4414899999999
 30
0.0
 40
2.5
100
AcDbArc
 50
179.996
 51
269.999
  0
ARC
  5
112C
330
15C4
100
AcDbEntity
  8
0
100
AcDbCircle
 10
512.206753
 20
400.4414899999999
 30
0.0
 40
2.5
100
AcDbArc
 50
269.999
 51
359.996
  0
ARC
  5
112D
330
15C4
100
AcDbEntity
  8
0
100
AcDbCircle
 10
531.206753
 20
407.4414899999999
 30
0.0
 40
2.5
100
AcDbArc
 50
90.0
 51
179.996
  0
ARC
  5
112E
330
15C4
100
AcDbEntity
  8
0
100
AcDbCircle
 10
512.206753
 20
407.4414899999999
 30
0.0
 40
2.5
100
AcDbArc
 50
359.996
 51
90.0
  0
LINE
  5
112F
330
15C4
100
AcDbEntity
  8
0
100
AcDbLine
 10
260.206753
 20
397.44149
 30
0.0
 11
311.206753
 21
397.44149
 31
0.0
  0
LINE
  5
1130
330
15C4
100
AcDbEntity
  8
0
100
AcDbLine
 10
221.706753
 20
409.94149
 30
0.0
 11
201.706753
 21
409.94149
 31
0.0
  0
LINE
  5
1131
330
15C4
100
AcDbEntity
  8
0
100
AcDbLine
 10
374.206753
 20
409.94149
 30
0.0
 11
231.705753
 21
409.94149
 31
0.0
  0
LINE
  5
1132
330
15C4
100
AcDbEntity
  8
0
100
AcDbLine
 10
199.206753
 20
407.4414899999999
 30
0.0
 11
199.206753
 21
400.4414899999999
 31
0.0
  0
LINE
  5
1133
330
15C4
100
AcDbEntity
  8
0
100
AcDbLine
 10
221.706753
 20
397.94149
 30
0.0
 11
201.706753
 21
397.94149
 31
0.0
  0
LINE
  5
1134
330
15C4
100
AcDbEntity
  8
0
100
AcDbLine
 10
374.206753
 20
397.94149
 30
0.0
 11
231.706753
 21
397.94149
 31
0.0
  0
ARC
  5
1135
330
15C4
100
AcDbEntity
  8
0
100
AcDbCircle
 10
201.706753
 20
407.4414899999999
 30
0.0
 40
2.5
100
AcDbArc
 50
90.0
 51
180.0
  0
ARC
  5
1136
330
15C4
100
AcDbEntity
  8
0
100
AcDbCircle
 10
201.706753
 20
400.4414899999999
 30
0.0
 40
2.5
100
AcDbArc
 50
180.0
 51
270.0
  0
ARC
  5
1137
330
15C4
100
AcDbEntity
  8
0
100
AcDbCircle
 10
256.706753
 20
409.94149
 30
0.0
 40
4.0
100
AcDbArc
 50
180.0
 51
270.0
  0
LINE
  5
1138
330
15C4
100
AcDbEntity
  8
0
100
AcDbLine
 10
374.206753
 20
405.94149
 30
0.0
 11
256.706753
 21
405.94149
 31
0.0
  0
ARC
  5
1139
330
15C4
100
AcDbEntity
  8
0
100
AcDbCircle
 10
372.206753
 20
409.94149
 30
0.0
 40
4.0
100
AcDbArc
 50
196.602
 51
270.0
  0
ARC
  5
113A
330
15C4
100
AcDbEntity
  8
0
100
AcDbCircle
 10
366.839753
 20
408.3414899999999
 30
0.0
 40
1.6
100
AcDbArc
 50
16.602
 51
89.999
  0
LINE
  5
113B
330
15C4
100
AcDbEntity
  8
0
100
AcDbLine
 10
219.706753
 20
400.4414899999999
 30
0.0
 11
219.705753
 21
407.4414899999999
 31
0.0
  0
LINE
  5
113C
330
15C4
100
AcDbEntity
  8
0
100
AcDbLine
 10
233.706753
 20
400.4414899999999
 30
0.0
 11
233.705753
 21
407.4414899999999
 31
0.0
  0
ARC
  5
113D
330
15C4
100
AcDbEntity
  8
0
100
AcDbCircle
 10
217.206753
 20
400.4414899999999
 30
0.0
 40
2.5
100
AcDbArc
 50
270.001
 51
0.004
  0
ARC
  5
113E
330
15C4
100
AcDbEntity
  8
0
100
AcDbCircle
 10
236.206753
 20
400.4414899999999
 30
0.0
 40
2.5
100
AcDbArc
 50
180.004
 51
270.001
  0
ARC
  5
113F
330
15C4
100
AcDbEntity
  8
0
100
AcDbCircle
 10
217.205753
 20
407.4414899999999
 30
0.0
 40
2.5
100
AcDbArc
 50
0.004
 51
90.0
  0
ARC
  5
1140
330
15C4
100
AcDbEntity
  8
0
100
AcDbCircle
 10
236.205753
 20
407.4414899999999
 30
0.0
 40
2.5
100
AcDbArc
 50
90.0
 51
180.004
  0
LINE
  5
1141
330
15C4
100
AcDbEntity
  8
0
100
AcDbLine
 10
256.706753
 20
405.94149
 30
0.0
 11
256.706753
 21
400.4414899999999
 31
0.0
  0
ARC
  5
1142
330
15C4
100
AcDbEntity
  8
0
100
AcDbCircle
 10
254.206753
 20
400.4414899999999
 30
0.0
 40
2.5
100
AcDbArc
 50
270.0
 51
0.0
  0
LINE
  5
1143
330
15C4
100
AcDbEntity
  8
0
100
AcDbLine
 10
491.706753
 20
405.94149
 30
0.0
 11
491.706753
 21
400.4414899999999
 31
0.0
  0
ARC
  5
1144
330
15C4
100
AcDbEntity
  8
0
100
AcDbCircle
 10
494.206753
 20
400.4414899999999
 30
0.0
 40
2.5
100
AcDbArc
 50
180.0
 51
270.0
  0
LINE
  5
114D
330
15C4
100
AcDbEntity
  8
0
100
AcDbLine
 10
511.451753
 20
410.71149
 30
0.0
 11
511.451753
 21
418.75749
 31
0.0
  0
LINE
  5
114E
330
15C4
100
AcDbEntity
  8
0
100
AcDbLine
 10
511.451753
 20
418.75749
 30
0.0
 11
515.730753
 21
418.75749
 31
0.0
  0
LINE
  5
114F
330
15C4
100
AcDbEntity
  8
0
100
AcDbLine
 10
515.730753
 20
418.75749
 30
0.0
 11
515.730753
 21
423.09149
 31
0.0
  0
LINE
  5
1150
330
15C4
100
AcDbEntity
  8
0
100
AcDbLine
 10
515.730753
 20
423.09149
 30
0.0
 11
521.707753
 21
423.09149
 31
0.0
  0
LINE
  5
1151
330
15C4
100
AcDbEntity
  8
0
100
AcDbLine
 10
531.9627529999999
 20
410.71049
 30
0.0
 11
531.963753
 21
418.7564899999999
 31
0.0
  0
LINE
  5
1152
330
15C4
100
AcDbEntity
  8
0
100
AcDbLine
 10
531.963753
 20
418.7564899999999
 30
0.0
 11
527.683753
 21
418.75749
 31
0.0
  0
LINE
  5
1153
330
15C4
100
AcDbEntity
  8
0
100
AcDbLine
 10
527.683753
 20
418.75749
 30
0.0
 11
527.684753
 21
423.09049
 31
0.0
  0
LINE
  5
1154
330
15C4
100
AcDbEntity
  8
0
100
AcDbLine
 10
527.684753
 20
423.09049
 30
0.0
 11
521.707753
 21
423.09149
 31
0.0
  0
LINE
  5
1162
330
15C4
100
AcDbEntity
  8
0
100
AcDbLine
 10
442.957753
 20
421.44149
 30
0.0
 11
443.957753
 21
422.44149
 31
0.0
  0
LINE
  5
1163
330
15C4
100
AcDbEntity
  8
0
100
AcDbLine
 10
452.9557529999999
 20
421.44149
 30
0.0
 11
451.955753
 21
422.44149
 31
0.0
  0
LINE
  5
1164
330
15C4
100
AcDbEntity
  8
0
100
AcDbLine
 10
452.956753
 20
421.4404899999999
 30
0.0
 11
442.959753
 21
421.4404899999999
 31
0.0
  0
LINE
  5
1165
330
15C4
100
AcDbEntity
  8
0
100
AcDbLine
 10
451.956753
 20
422.44149
 30
0.0
 11
443.959753
 21
422.44149
 31
0.0
  0
ARC
  5
1166
330
15C4
100
AcDbEntity
  8
0
100
AcDbCircle
 10
447.955753
 20
403.76649
 30
0.0
 40
14.175
100
AcDbArc
 50
70.533
 51
109.461
  0
ARC
  5
1167
330
15C4
100
AcDbEntity
  8
0
100
AcDbCircle
 10
447.956753
 20
424.11649
 30
0.0
 40
14.175
100
AcDbArc
 50
250.525
 51
289.46
  0
LINE
  5
1168
330
15C4
100
AcDbEntity
  8
0
100
AcDbLine
 10
452.680753
 20
410.75349
 30
0.0
 11
452.681753
 21
417.1294899999999
 31
0.0
  0
LINE
  5
1169
330
15C4
100
AcDbEntity
  8
0
100
AcDbLine
 10
443.230753
 20
410.75349
 30
0.0
 11
443.231753
 21
417.1294899999999
 31
0.0
  0
LINE
  5
116A
330
15C4
100
AcDbEntity
  8
0
100
AcDbLine
 10
454.847753
 20
409.94049
 30
0.0
 11
441.066753
 21
409.94149
 31
0.0
  0
LINE
  5
116B
330
15C4
100
AcDbEntity
  8
0
100
AcDbLine
 10
455.044753
 20
417.9404899999999
 30
0.0
 11
441.066753
 21
417.94149
 31
0.0
  0
LINE
  5
116C
330
15C4
100
AcDbEntity
  8
0
100
AcDbLine
 10
457.404753
 20
410.7514899999999
 30
0.0
 11
456.491753
 21
410.22449
 31
0.0
  0
ARC
  5
116D
330
15C4
100
AcDbEntity
  8
0
100
AcDbCircle
 10
455.043753
 20
413.7884899999999
 30
0.0
 40
3.846999999999999
100
AcDbArc
 50
232.13
 51
292.11
  0
LINE
  5
116E
330
15C4
100
AcDbEntity
  8
0
100
AcDbLine
 10
457.405753
 20
410.75349
 30
0.0
 11
457.406753
 21
417.1284899999999
 31
0.0
  0
ARC
  5
116F
330
15C4
100
AcDbEntity
  8
0
100
AcDbCircle
 10
455.043753
 20
414.0934899999999
 30
0.0
 40
3.848
100
AcDbArc
 50
60.0
 51
127.859
  0
LINE
  5
1170
330
15C4
100
AcDbEntity
  8
0
100
AcDbLine
 10
457.405753
 20
417.1314899999999
 30
0.0
 11
456.494753
 21
417.65749
 31
0.0
  0
ARC
  5
1171
330
15C4
100
AcDbEntity
  8
0
100
AcDbCircle
 10
440.868753
 20
413.78949
 30
0.0
 40
3.848
100
AcDbArc
 50
247.969
 51
307.857
  0
LINE
  5
1172
330
15C4
100
AcDbEntity
  8
0
100
AcDbLine
 10
439.425753
 20
410.22249
 30
0.0
 11
438.507753
 21
410.7524899999999
 31
0.0
  0
LINE
  5
1173
330
15C4
100
AcDbEntity
  8
0
100
AcDbLine
 10
438.505753
 20
410.75549
 30
0.0
 11
438.5067529999999
 21
417.1294899999999
 31
0.0
  0
LINE
  5
1174
330
15C4
100
AcDbEntity
  8
0
100
AcDbLine
 10
439.423753
 20
417.65949
 30
0.0
 11
438.507753
 21
417.1304899999999
 31
0.0
  0
ARC
  5
1175
330
15C4
100
AcDbEntity
  8
0
100
AcDbCircle
 10
440.868753
 20
414.09449
 30
0.0
 40
3.848
100
AcDbArc
 50
52.138
 51
112.063
  0
LINE
  5
1176
330
15C4
100
AcDbEntity
  8
0
100
AcDbLine
 10
442.956753
 20
417.94149
 30
0.0
 11
442.956753
 21
421.43949
 31
0.0
  0
LINE
  5
1177
330
15C4
100
AcDbEntity
  8
4
100
AcDbLine
 10
443.956753
 20
417.3654899999999
 30
0.0
 11
443.956753
 21
422.43949
 31
0.0
  0
LINE
  5
1178
330
15C4
100
AcDbEntity
  8
4
100
AcDbLine
 10
451.955753
 20
417.94149
 30
0.0
 11
451.956753
 21
422.43849
 31
0.0
  0
LINE
  5
1179
330
15C4
100
AcDbEntity
  8
0
100
AcDbLine
 10
452.9557529999999
 20
417.9404899999999
 30
0.0
 11
452.956753
 21
421.43949
 31
0.0
  0
LINE
  5
117A
330
15C4
100
AcDbEntity
  8
0
100
AcDbLine
 10
437.701753
 20
410.71149
 30
0.0
 11
437.701753
 21
418.75749
 31
0.0
  0
LINE
  5
117B
330
15C4
100
AcDbEntity
  8
0
100
AcDbLine
 10
437.701753
 20
418.75749
 30
0.0
 11
441.980753
 21
418.75749
 31
0.0
  0
LINE
  5
117C
330
15C4
100
AcDbEntity
  8
0
100
AcDbLine
 10
441.980753
 20
418.75749
 30
0.0
 11
441.980753
 21
423.09149
 31
0.0
  0
LINE
  5
117D
330
15C4
100
AcDbEntity
  8
0
100
AcDbLine
 10
441.980753
 20
423.09149
 30
0.0
 11
447.957753
 21
423.09149
 31
0.0
  0
LINE
  5
117E
330
15C4
100
AcDbEntity
  8
0
100
AcDbLine
 10
458.211753
 20
410.71049
 30
0.0
 11
458.212753
 21
418.7564899999999
 31
0.0
  0
LINE
  5
117F
330
15C4
100
AcDbEntity
  8
0
100
AcDbLine
 10
458.212753
 20
418.7564899999999
 30
0.0
 11
453.933753
 21
418.75749
 31
0.0
  0
LINE
  5
1180
330
15C4
100
AcDbEntity
  8
0
100
AcDbLine
 10
453.933753
 20
418.75749
 30
0.0
 11
453.933753
 21
423.09149
 31
0.0
  0
LINE
  5
1181
330
15C4
100
AcDbEntity
  8
0
100
AcDbLine
 10
453.933753
 20
423.09049
 30
0.0
 11
447.957753
 21
423.09149
 31
0.0
  0
LINE
  5
1183
330
15C4
100
AcDbEntity
  8
0
100
AcDbLine
 10
305.455753
 20
421.44149
 30
0.0
 11
304.454753
 21
422.44149
 31
0.0
  0
LINE
  5
1184
330
15C4
100
AcDbEntity
  8
0
100
AcDbLine
 10
295.456753
 20
421.44149
 30
0.0
 11
296.456753
 21
422.44149
 31
0.0
  0
LINE
  5
1185
330
15C4
100
AcDbEntity
  8
0
100
AcDbLine
 10
295.456753
 20
421.4404899999999
 30
0.0
 11
305.453753
 21
421.4404899999999
 31
0.0
  0
LINE
  5
1186
330
15C4
100
AcDbEntity
  8
0
100
AcDbLine
 10
296.456753
 20
422.44149
 30
0.0
 11
304.453753
 21
422.44149
 31
0.0
  0
ARC
  5
1187
330
15C4
100
AcDbEntity
  8
0
100
AcDbCircle
 10
300.456753
 20
403.76649
 30
0.0
 40
14.175
100
AcDbArc
 50
70.539
 51
109.467
  0
ARC
  5
1188
330
15C4
100
AcDbEntity
  8
0
100
AcDbCircle
 10
300.455753
 20
424.11649
 30
0.0
 40
14.175
100
AcDbArc
 50
250.54
 51
289.475
  0
LINE
  5
1189
330
15C4
100
AcDbEntity
  8
0
100
AcDbLine
 10
295.731753
 20
410.75349
 30
0.0
 11
295.731753
 21
417.1294899999999
 31
0.0
  0
LINE
  5
118A
330
15C4
100
AcDbEntity
  8
0
100
AcDbLine
 10
305.181753
 20
410.75349
 30
0.0
 11
305.181753
 21
417.1294899999999
 31
0.0
  0
LINE
  5
118B
330
15C4
100
AcDbEntity
  8
0
100
AcDbLine
 10
293.565753
 20
409.94049
 30
0.0
 11
307.346753
 21
409.94149
 31
0.0
  0
LINE
  5
118C
330
15C4
100
AcDbEntity
  8
0
100
AcDbLine
 10
293.368753
 20
417.9404899999999
 30
0.0
 11
307.345753
 21
417.94149
 31
0.0
  0
LINE
  5
118D
330
15C4
100
AcDbEntity
  8
0
100
AcDbLine
 10
291.008753
 20
410.7514899999999
 30
0.0
 11
291.920753
 21
410.22449
 31
0.0
  0
ARC
  5
118E
330
15C4
100
AcDbEntity
  8
0
100
AcDbCircle
 10
293.368753
 20
413.7884899999999
 30
0.0
 40
3.846999999999999
100
AcDbArc
 50
247.89
 51
307.8700000000001
  0
LINE
  5
118F
330
15C4
100
AcDbEntity
  8
0
100
AcDbLine
 10
291.006753
 20
410.75349
 30
0.0
 11
291.006753
 21
417.1284899999999
 31
0.0
  0
ARC
  5
1190
330
15C4
100
AcDbEntity
  8
0
100
AcDbCircle
 10
293.368753
 20
414.0934899999999
 30
0.0
 40
3.848
100
AcDbArc
 50
52.14100000000001
 51
120.0
  0
LINE
  5
1191
330
15C4
100
AcDbEntity
  8
0
100
AcDbLine
 10
291.007753
 20
417.1314899999999
 30
0.0
 11
291.918753
 21
417.65749
 31
0.0
  0
ARC
  5
1192
330
15C4
100
AcDbEntity
  8
0
100
AcDbCircle
 10
307.543753
 20
413.78949
 30
0.0
 40
3.848
100
AcDbArc
 50
232.143
 51
292.031
  0
LINE
  5
1193
330
15C4
100
AcDbEntity
  8
0
100
AcDbLine
 10
308.987753
 20
410.22249
 30
0.0
 11
309.905753
 21
410.7524899999999
 31
0.0
  0
LINE
  5
1194
330
15C4
100
AcDbEntity
  8
0
100
AcDbLine
 10
309.906753
 20
410.75549
 30
0.0
 11
309.906753
 21
417.1294899999999
 31
0.0
  0
LINE
  5
1195
330
15C4
100
AcDbEntity
  8
0
100
AcDbLine
 10
308.989753
 20
417.65949
 30
0.0
 11
309.904753
 21
417.1304899999999
 31
0.0
  0
ARC
  5
1196
330
15C4
100
AcDbEntity
  8
0
100
AcDbCircle
 10
307.543753
 20
414.09449
 30
0.0
 40
3.848
100
AcDbArc
 50
67.937
 51
127.862
  0
LINE
  5
1197
330
15C4
100
AcDbEntity
  8
0
100
AcDbLine
 10
305.456753
 20
417.94149
 30
0.0
 11
305.456753
 21
421.43949
 31
0.0
  0
LINE
  5
1198
330
15C4
100
AcDbEntity
  8
4
100
AcDbLine
 10
304.456753
 20
417.3654899999999
 30
0.0
 11
304.455753
 21
422.43949
 31
0.0
  0
LINE
  5
1199
330
15C4
100
AcDbEntity
  8
4
100
AcDbLine
 10
296.456753
 20
417.94149
 30
0.0
 11
296.456753
 21
422.43849
 31
0.0
  0
LINE
  5
119A
330
15C4
100
AcDbEntity
  8
0
100
AcDbLine
 10
295.456753
 20
417.9404899999999
 30
0.0
 11
295.456753
 21
421.43949
 31
0.0
  0
LINE
  5
119B
330
15C4
100
AcDbEntity
  8
0
100
AcDbLine
 10
310.711753
 20
410.71149
 30
0.0
 11
310.711753
 21
418.75749
 31
0.0
  0
LINE
  5
119C
330
15C4
100
AcDbEntity
  8
0
100
AcDbLine
 10
310.711753
 20
418.75749
 30
0.0
 11
306.432753
 21
418.75749
 31
0.0
  0
LINE
  5
119D
330
15C4
100
AcDbEntity
  8
0
100
AcDbLine
 10
306.432753
 20
418.75749
 30
0.0
 11
306.432753
 21
423.09149
 31
0.0
  0
LINE
  5
119E
330
15C4
100
AcDbEntity
  8
0
100
AcDbLine
 10
306.432753
 20
423.09149
 30
0.0
 11
300.455753
 21
423.09149
 31
0.0
  0
LINE
  5
119F
330
15C4
100
AcDbEntity
  8
0
100
AcDbLine
 10
290.201753
 20
410.71049
 30
0.0
 11
290.200753
 21
418.7564899999999
 31
0.0
  0
LINE
  5
11A0
330
15C4
100
AcDbEntity
  8
0
100
AcDbLine
 10
290.200753
 20
418.7564899999999
 30
0.0
 11
294.479753
 21
418.75749
 31
0.0
  0
LINE
  5
11A1
330
15C4
100
AcDbEntity
  8
0
100
AcDbLine
 10
294.479753
 20
418.75749
 30
0.0
 11
294.478753
 21
423.09149
 31
0.0
  0
LINE
  5
11A2
330
15C4
100
AcDbEntity
  8
0
100
AcDbLine
 10
294.478753
 20
423.09049
 30
0.0
 11
300.455753
 21
423.09149
 31
0.0
  0
DIMENSION
  5
11BC
330
15C4
100
AcDbEntity
  8
5
100
AcDbDimension
  2
*D14
 10
589.205753
 20
536.72149
 30
0.0
 11
382.029753
 21
536.72149
 31
0.0
 70
   160
  1
%%c  430 
 71
     5
 42
-1.0
  3
GEN-ISO
100
AcDbAlignedDimension
 13
159.207753
 23
384.44149
 33
0.0
 14
589.205753
 24
384.44149
 34
0.0
100
AcDbRotatedDimension
1001
ACAD
1000
DSTYLE
1002
{
1070
    78
1070
    12
1002
}
  0
DIMENSION
  5
11C6
330
15C4
100
AcDbEntity
  8
5
100
AcDbDimension
  2
*D18
 10
648.5407529999999
 20
392.44149
 30
0.0
 11
648.5407529999999
 21
291.15649
 31
0.0
 70
   160
  1
 220 
 71
     5
 42
-1.0
  3
GEN-ISO
100
AcDbAlignedDimension
 13
428.933753
 23
172.44149
 33
0.0
 14
584.989753
 24
392.44149
 34
0.0
 50
90.0
100
AcDbRotatedDimension
1001
GENIUS_GENDTOL_13
1000

1000
h7
1000

1040
0.0
1000
 220 
1001
ACAD
1000
DSTYLE
1002
{
1070
    78
1070
    12
1002
}
  0
POLYLINE
  5
11C7
330
15C4
100
AcDbEntity
  8
SCHRAFFUR_RAND
100
AcDb2dPolyline
 66
     1
 10
0.0
 20
0.0
 30
0.0
 70
     1
  0
VERTEX
  5
11C8
330
11C7
100
AcDbEntity
  8
SCHRAFFUR_RAND
100
AcDbVertex
100
AcDb2dVertex
 10
435.206753
 20
280.44149
 30
0.0
  0
VERTEX
  5
11C9
330
11C7
100
AcDbEntity
  8
SCHRAFFUR_RAND
100
AcDbVertex
100
AcDb2dVertex
 10
436.706753
 20
280.44149
 30
0.0
  0
VERTEX
  5
11CA
330
11C7
100
AcDbEntity
  8
SCHRAFFUR_RAND
100
AcDbVertex
100
AcDb2dVertex
 10
436.706753
 20
343.93849
 30
0.0
  0
VERTEX
  5
11CB
330
11C7
100
AcDbEntity
  8
SCHRAFFUR_RAND
100
AcDbVertex
100
AcDb2dVertex
 10
436.279753
 20
348.24749
 30
0.0
  0
VERTEX
  5
11CC
330
11C7
100
AcDbEntity
  8
SCHRAFFUR_RAND
100
AcDbVertex
100
AcDb2dVertex
 10
434.7057529999999
 20
352.29549
 30
0.0
  0
VERTEX
  5
11CD
330
11C7
100
AcDbEntity
  8
SCHRAFFUR_RAND
100
AcDbVertex
100
AcDb2dVertex
 10
432.188753
 20
355.83449
 30
0.0
  0
VERTEX
  5
11CE
330
11C7
100
AcDbEntity
  8
SCHRAFFUR_RAND
100
AcDbVertex
100
AcDb2dVertex
 10
428.882753
 20
358.65049
 30
0.0
  0
VERTEX
  5
11CF
330
11C7
100
AcDbEntity
  8
SCHRAFFUR_RAND
100
AcDbVertex
100
AcDb2dVertex
 10
424.987753
 20
360.57049
 30
0.0
  0
VERTEX
  5
11D0
330
11C7
100
AcDbEntity
  8
SCHRAFFUR_RAND
100
AcDbVertex
100
AcDb2dVertex
 10
420.731753
 20
361.37149
 30
0.0
  0
VERTEX
  5
11D1
330
11C7
100
AcDbEntity
  8
SCHRAFFUR_RAND
100
AcDbVertex
100
AcDb2dVertex
 10
397.206753
 20
363.42949
 30
0.0
  0
VERTEX
  5
11D2
330
11C7
100
AcDbEntity
  8
SCHRAFFUR_RAND
100
AcDbVertex
100
AcDb2dVertex
 10
387.674753
 20
364.26349
 30
0.0
  0
VERTEX
  5
11D3
330
11C7
100
AcDbEntity
  8
SCHRAFFUR_RAND
100
AcDbVertex
100
AcDb2dVertex
 10
385.212753
 20
364.11949
 30
0.0
  0
VERTEX
  5
11D4
330
11C7
100
AcDbEntity
  8
SCHRAFFUR_RAND
100
AcDbVertex
100
AcDb2dVertex
 10
383.008753
 20
362.97249
 30
0.0
  0
VERTEX
  5
11D5
330
11C7
100
AcDbEntity
  8
SCHRAFFUR_RAND
100
AcDbVertex
100
AcDb2dVertex
 10
381.478753
 20
361.03849
 30
0.0
  0
VERTEX
  5
11D6
330
11C7
100
AcDbEntity
  8
SCHRAFFUR_RAND
100
AcDbVertex
100
AcDb2dVertex
 10
379.402753
 20
357.44149
 30
0.0
  0
VERTEX
  5
11D7
330
11C7
100
AcDbEntity
  8
SCHRAFFUR_RAND
100
AcDbVertex
100
AcDb2dVertex
 10
377.796753
 20
355.49949
 30
0.0
  0
VERTEX
  5
11D8
330
11C7
100
AcDbEntity
  8
SCHRAFFUR_RAND
100
AcDbVertex
100
AcDb2dVertex
 10
375.476753
 20
354.46649
 30
0.0
  0
VERTEX
  5
11D9
330
11C7
100
AcDbEntity
  8
SCHRAFFUR_RAND
100
AcDbVertex
100
AcDb2dVertex
 10
372.935753
 20
354.46649
 30
0.0
  0
VERTEX
  5
11DA
330
11C7
100
AcDbEntity
  8
SCHRAFFUR_RAND
100
AcDbVertex
100
AcDb2dVertex
 10
370.615753
 20
355.49949
 30
0.0
  0
VERTEX
  5
11DB
330
11C7
100
AcDbEntity
  8
SCHRAFFUR_RAND
100
AcDbVertex
100
AcDb2dVertex
 10
369.009753
 20
357.44149
 30
0.0
  0
VERTEX
  5
11DC
330
11C7
100
AcDbEntity
  8
SCHRAFFUR_RAND
100
AcDbVertex
100
AcDb2dVertex
 10
366.933753
 20
361.03849
 30
0.0
  0
VERTEX
  5
11DD
330
11C7
100
AcDbEntity
  8
SCHRAFFUR_RAND
100
AcDbVertex
100
AcDb2dVertex
 10
365.403753
 20
362.97249
 30
0.0
  0
VERTEX
  5
11DE
330
11C7
100
AcDbEntity
  8
SCHRAFFUR_RAND
100
AcDbVertex
100
AcDb2dVertex
 10
363.199753
 20
364.11949
 30
0.0
  0
VERTEX
  5
11DF
330
11C7
100
AcDbEntity
  8
SCHRAFFUR_RAND
100
AcDbVertex
100
AcDb2dVertex
 10
360.737753
 20
364.26349
 30
0.0
  0
VERTEX
  5
11E0
330
11C7
100
AcDbEntity
  8
SCHRAFFUR_RAND
100
AcDbVertex
100
AcDb2dVertex
 10
351.206753
 20
363.42949
 30
0.0
  0
VERTEX
  5
11E1
330
11C7
100
AcDbEntity
  8
SCHRAFFUR_RAND
100
AcDbVertex
100
AcDb2dVertex
 10
327.680753
 20
361.37149
 30
0.0
  0
VERTEX
  5
11E2
330
11C7
100
AcDbEntity
  8
SCHRAFFUR_RAND
100
AcDbVertex
100
AcDb2dVertex
 10
323.424753
 20
360.57049
 30
0.0
  0
VERTEX
  5
11E3
330
11C7
100
AcDbEntity
  8
SCHRAFFUR_RAND
100
AcDbVertex
100
AcDb2dVertex
 10
319.529753
 20
358.65049
 30
0.0
  0
VERTEX
  5
11E4
330
11C7
100
AcDbEntity
  8
SCHRAFFUR_RAND
100
AcDbVertex
100
AcDb2dVertex
 10
316.223753
 20
355.83449
 30
0.0
  0
VERTEX
  5
11E5
330
11C7
100
AcDbEntity
  8
SCHRAFFUR_RAND
100
AcDbVertex
100
AcDb2dVertex
 10
313.706753
 20
352.29549
 30
0.0
  0
VERTEX
  5
11E6
330
11C7
100
AcDbEntity
  8
SCHRAFFUR_RAND
100
AcDbVertex
100
AcDb2dVertex
 10
312.132753
 20
348.24749
 30
0.0
  0
VERTEX
  5
11E7
330
11C7
100
AcDbEntity
  8
SCHRAFFUR_RAND
100
AcDbVertex
100
AcDb2dVertex
 10
311.706753
 20
343.93849
 30
0.0
  0
VERTEX
  5
11E8
330
11C7
100
AcDbEntity
  8
SCHRAFFUR_RAND
100
AcDbVertex
100
AcDb2dVertex
 10
311.706753
 20
280.44149
 30
0.0
  0
VERTEX
  5
11E9
330
11C7
100
AcDbEntity
  8
SCHRAFFUR_RAND
100
AcDbVertex
100
AcDb2dVertex
 10
313.206753
 20
280.44149
 30
0.0
  0
VERTEX
  5
11EA
330
11C7
100
AcDbEntity
  8
SCHRAFFUR_RAND
100
AcDbVertex
100
AcDb2dVertex
 10
313.913753
 20
280.73449
 30
0.0
  0
VERTEX
  5
11EB
330
11C7
100
AcDbEntity
  8
SCHRAFFUR_RAND
100
AcDbVertex
100
AcDb2dVertex
 10
314.206753
 20
281.44149
 30
0.0
  0
VERTEX
  5
11EC
330
11C7
100
AcDbEntity
  8
SCHRAFFUR_RAND
100
AcDbVertex
100
AcDb2dVertex
 10
314.206753
 20
343.93849
 30
0.0
  0
VERTEX
  5
11ED
330
11C7
100
AcDbEntity
  8
SCHRAFFUR_RAND
100
AcDbVertex
100
AcDb2dVertex
 10
314.757753
 20
348.35549
 30
0.0
  0
VERTEX
  5
11EE
330
11C7
100
AcDbEntity
  8
SCHRAFFUR_RAND
100
AcDbVertex
100
AcDb2dVertex
 10
316.680753
 20
352.38649
 30
0.0
  0
VERTEX
  5
11EF
330
11C7
100
AcDbEntity
  8
SCHRAFFUR_RAND
100
AcDbVertex
100
AcDb2dVertex
 10
319.697753
 20
355.67949
 30
0.0
  0
VERTEX
  5
11F0
330
11C7
100
AcDbEntity
  8
SCHRAFFUR_RAND
100
AcDbVertex
100
AcDb2dVertex
 10
323.546753
 20
357.94649
 30
0.0
  0
VERTEX
  5
11F1
330
11C7
100
AcDbEntity
  8
SCHRAFFUR_RAND
100
AcDbVertex
100
AcDb2dVertex
 10
327.898753
 20
358.88149
 30
0.0
  0
VERTEX
  5
11F2
330
11C7
100
AcDbEntity
  8
SCHRAFFUR_RAND
100
AcDbVertex
100
AcDb2dVertex
 10
360.955753
 20
361.77349
 30
0.0
  0
VERTEX
  5
11F3
330
11C7
100
AcDbEntity
  8
SCHRAFFUR_RAND
100
AcDbVertex
100
AcDb2dVertex
 10
362.482753
 20
361.72449
 30
0.0
  0
VERTEX
  5
11F4
330
11C7
100
AcDbEntity
  8
SCHRAFFUR_RAND
100
AcDbVertex
100
AcDb2dVertex
 10
363.852753
 20
361.01149
 30
0.0
  0
VERTEX
  5
11F5
330
11C7
100
AcDbEntity
  8
SCHRAFFUR_RAND
100
AcDbVertex
100
AcDb2dVertex
 10
364.768753
 20
359.78849
 30
0.0
  0
VERTEX
  5
11F6
330
11C7
100
AcDbEntity
  8
SCHRAFFUR_RAND
100
AcDbVertex
100
AcDb2dVertex
 10
366.844753
 20
356.19149
 30
0.0
  0
VERTEX
  5
11F7
330
11C7
100
AcDbEntity
  8
SCHRAFFUR_RAND
100
AcDbVertex
100
AcDb2dVertex
 10
368.672753
 20
353.84749
 30
0.0
  0
VERTEX
  5
11F8
330
11C7
100
AcDbEntity
  8
SCHRAFFUR_RAND
100
AcDbVertex
100
AcDb2dVertex
 10
371.261753
 20
352.35249
 30
0.0
  0
VERTEX
  5
11F9
330
11C7
100
AcDbEntity
  8
SCHRAFFUR_RAND
100
AcDbVertex
100
AcDb2dVertex
 10
374.206753
 20
351.83349
 30
0.0
  0
VERTEX
  5
11FA
330
11C7
100
AcDbEntity
  8
SCHRAFFUR_RAND
100
AcDbVertex
100
AcDb2dVertex
 10
377.150753
 20
352.35249
 30
0.0
  0
VERTEX
  5
11FB
330
11C7
100
AcDbEntity
  8
SCHRAFFUR_RAND
100
AcDbVertex
100
AcDb2dVertex
 10
379.739753
 20
353.84749
 30
0.0
  0
VERTEX
  5
11FC
330
11C7
100
AcDbEntity
  8
SCHRAFFUR_RAND
100
AcDbVertex
100
AcDb2dVertex
 10
381.567753
 20
356.19149
 30
0.0
  0
VERTEX
  5
11FD
330
11C7
100
AcDbEntity
  8
SCHRAFFUR_RAND
100
AcDbVertex
100
AcDb2dVertex
 10
383.643753
 20
359.78849
 30
0.0
  0
VERTEX
  5
11FE
330
11C7
100
AcDbEntity
  8
SCHRAFFUR_RAND
100
AcDbVertex
100
AcDb2dVertex
 10
384.559753
 20
361.01149
 30
0.0
  0
VERTEX
  5
11FF
330
11C7
100
AcDbEntity
  8
SCHRAFFUR_RAND
100
AcDbVertex
100
AcDb2dVertex
 10
385.929753
 20
361.72449
 30
0.0
  0
VERTEX
  5
1200
330
11C7
100
AcDbEntity
  8
SCHRAFFUR_RAND
100
AcDbVertex
100
AcDb2dVertex
 10
387.456753
 20
361.77249
 30
0.0
  0
VERTEX
  5
1201
330
11C7
100
AcDbEntity
  8
SCHRAFFUR_RAND
100
AcDbVertex
100
AcDb2dVertex
 10
420.513753
 20
358.88049
 30
0.0
  0
VERTEX
  5
1202
330
11C7
100
AcDbEntity
  8
SCHRAFFUR_RAND
100
AcDbVertex
100
AcDb2dVertex
 10
424.865753
 20
357.94649
 30
0.0
  0
VERTEX
  5
1203
330
11C7
100
AcDbEntity
  8
SCHRAFFUR_RAND
100
AcDbVertex
100
AcDb2dVertex
 10
428.714753
 20
355.67949
 30
0.0
  0
VERTEX
  5
1204
330
11C7
100
AcDbEntity
  8
SCHRAFFUR_RAND
100
AcDbVertex
100
AcDb2dVertex
 10
431.731753
 20
352.38649
 30
0.0
  0
VERTEX
  5
1205
330
11C7
100
AcDbEntity
  8
SCHRAFFUR_RAND
100
AcDbVertex
100
AcDb2dVertex
 10
433.654753
 20
348.35549
 30
0.0
  0
VERTEX
  5
1206
330
11C7
100
AcDbEntity
  8
SCHRAFFUR_RAND
100
AcDbVertex
100
AcDb2dVertex
 10
434.206753
 20
343.93849
 30
0.0
  0
VERTEX
  5
1207
330
11C7
100
AcDbEntity
  8
SCHRAFFUR_RAND
100
AcDbVertex
100
AcDb2dVertex
 10
434.206753
 20
281.44149
 30
0.0
  0
VERTEX
  5
1208
330
11C7
100
AcDbEntity
  8
SCHRAFFUR_RAND
100
AcDbVertex
100
AcDb2dVertex
 10
434.498753
 20
280.73449
 30
0.0
  0
VERTEX
  5
1209
330
11C7
100
AcDbEntity
  8
SCHRAFFUR_RAND
100
AcDbVertex
100
AcDb2dVertex
 10
435.206753
 20
280.44149
 30
0.0
  0
SEQEND
  5
120A
330
11C7
100
AcDbEntity
  8
SCHRAFFUR_RAND
  0
INSERT
  5
1246
330
15C4
100
AcDbEntity
  8
8
100
AcDbBlockReference
  2
*X0
 10
-148.704247
 20
-811.4345099999999
 30
0.0
1001
ACAD
1000
HATCH
1002
{
1070
    19
1000
ANSI31,_I
1040
3.174999999999999
1040
0.0
1002
}
  0
POLYLINE
  5
1247
330
15C4
100
AcDbEntity
  8
SCHRAFFUR_RAND
100
AcDb2dPolyline
 66
     1
 10
0.0
 20
0.0
 30
0.0
 70
     1
  0
VERTEX
  5
1248
330
1247
100
AcDbEntity
  8
SCHRAFFUR_RAND
100
AcDbVertex
100
AcDb2dVertex
 10
349.206753
 20
280.44149
 30
0.0
  0
VERTEX
  5
1249
330
1247
100
AcDbEntity
  8
SCHRAFFUR_RAND
100
AcDbVertex
100
AcDb2dVertex
 10
348.377753
 20
277.84349
 30
0.0
  0
VERTEX
  5
124A
330
1247
100
AcDbEntity
  8
SCHRAFFUR_RAND
100
AcDbVertex
100
AcDb2dVertex
 10
346.060753
 20
273.50749
 30
0.0
  0
VERTEX
  5
124B
330
1247
100
AcDbEntity
  8
SCHRAFFUR_RAND
100
AcDbVertex
100
AcDb2dVertex
 10
342.941753
 20
269.70649
 30
0.0
  0
VERTEX
  5
124C
330
1247
100
AcDbEntity
  8
SCHRAFFUR_RAND
100
AcDbVertex
100
AcDb2dVertex
 10
339.1407529999999
 20
266.58749
 30
0.0
  0
VERTEX
  5
124D
330
1247
100
AcDbEntity
  8
SCHRAFFUR_RAND
100
AcDbVertex
100
AcDb2dVertex
 10
334.804753
 20
264.26949
 30
0.0
  0
VERTEX
  5
124E
330
1247
100
AcDbEntity
  8
SCHRAFFUR_RAND
100
AcDbVertex
100
AcDb2dVertex
 10
330.099753
 20
262.84249
 30
0.0
  0
VERTEX
  5
124F
330
1247
100
AcDbEntity
  8
SCHRAFFUR_RAND
100
AcDbVertex
100
AcDb2dVertex
 10
325.206753
 20
262.44149
 30
0.0
  0
VERTEX
  5
1250
330
1247
100
AcDbEntity
  8
SCHRAFFUR_RAND
100
AcDbVertex
100
AcDb2dVertex
 10
325.206753
 20
260.44149
 30
0.0
  0
VERTEX
  5
1251
330
1247
100
AcDbEntity
  8
SCHRAFFUR_RAND
100
AcDbVertex
100
AcDb2dVertex
 10
313.206753
 20
260.44149
 30
0.0
  0
VERTEX
  5
1252
330
1247
100
AcDbEntity
  8
SCHRAFFUR_RAND
100
AcDbVertex
100
AcDb2dVertex
 10
314.009753
 20
257.44149
 30
0.0
  0
VERTEX
  5
1253
330
1247
100
AcDbEntity
  8
SCHRAFFUR_RAND
100
AcDbVertex
100
AcDb2dVertex
 10
327.205753
 20
257.44149
 30
0.0
  0
VERTEX
  5
1254
330
1247
100
AcDbEntity
  8
SCHRAFFUR_RAND
100
AcDbVertex
100
AcDb2dVertex
 10
328.767753
 20
257.21249
 30
0.0
  0
VERTEX
  5
1255
330
1247
100
AcDbEntity
  8
SCHRAFFUR_RAND
100
AcDbVertex
100
AcDb2dVertex
 10
330.091753
 20
256.32749
 30
0.0
  0
VERTEX
  5
1256
330
1247
100
AcDbEntity
  8
SCHRAFFUR_RAND
100
AcDbVertex
100
AcDb2dVertex
 10
330.976753
 20
255.00349
 30
0.0
  0
VERTEX
  5
1257
330
1247
100
AcDbEntity
  8
SCHRAFFUR_RAND
100
AcDbVertex
100
AcDb2dVertex
 10
331.206753
 20
253.44149
 30
0.0
  0
VERTEX
  5
1258
330
1247
100
AcDbEntity
  8
SCHRAFFUR_RAND
100
AcDbVertex
100
AcDb2dVertex
 10
330.874753
 20
251.90149
 30
0.0
  0
VERTEX
  5
1259
330
1247
100
AcDbEntity
  8
SCHRAFFUR_RAND
100
AcDbVertex
100
AcDb2dVertex
 10
329.746753
 20
250.77349
 30
0.0
  0
VERTEX
  5
125A
330
1247
100
AcDbEntity
  8
SCHRAFFUR_RAND
100
AcDbVertex
100
AcDb2dVertex
 10
328.206753
 20
250.44149
 30
0.0
  0
VERTEX
  5
125B
330
1247
100
AcDbEntity
  8
SCHRAFFUR_RAND
100
AcDbVertex
100
AcDb2dVertex
 10
327.205753
 20
250.44149
 30
0.0
  0
VERTEX
  5
125C
330
1247
100
AcDbEntity
  8
SCHRAFFUR_RAND
100
AcDbVertex
100
AcDb2dVertex
 10
326.415753
 20
250.31149
 30
0.0
  0
VERTEX
  5
125D
330
1247
100
AcDbEntity
  8
SCHRAFFUR_RAND
100
AcDbVertex
100
AcDb2dVertex
 10
325.836753
 20
249.73249
 30
0.0
  0
VERTEX
  5
125E
330
1247
100
AcDbEntity
  8
SCHRAFFUR_RAND
100
AcDbVertex
100
AcDb2dVertex
 10
325.706753
 20
248.94149
 30
0.0
  0
VERTEX
  5
125F
330
1247
100
AcDbEntity
  8
SCHRAFFUR_RAND
100
AcDbVertex
100
AcDb2dVertex
 10
325.836753
 20
248.15149
 30
0.0
  0
VERTEX
  5
1260
330
1247
100
AcDbEntity
  8
SCHRAFFUR_RAND
100
AcDbVertex
100
AcDb2dVertex
 10
326.415753
 20
247.57249
 30
0.0
  0
VERTEX
  5
1261
330
1247
100
AcDbEntity
  8
SCHRAFFUR_RAND
100
AcDbVertex
100
AcDb2dVertex
 10
327.205753
 20
247.44149
 30
0.0
  0
VERTEX
  5
1262
330
1247
100
AcDbEntity
  8
SCHRAFFUR_RAND
100
AcDbVertex
100
AcDb2dVertex
 10
328.206753
 20
247.44149
 30
0.0
  0
VERTEX
  5
1263
330
1247
100
AcDbEntity
  8
SCHRAFFUR_RAND
100
AcDbVertex
100
AcDb2dVertex
 10
329.746753
 20
247.11049
 30
0.0
  0
VERTEX
  5
1264
330
1247
100
AcDbEntity
  8
SCHRAFFUR_RAND
100
AcDbVertex
100
AcDb2dVertex
 10
330.874753
 20
245.98249
 30
0.0
  0
VERTEX
  5
1265
330
1247
100
AcDbEntity
  8
SCHRAFFUR_RAND
100
AcDbVertex
100
AcDb2dVertex
 10
331.206753
 20
244.44149
 30
0.0
  0
VERTEX
  5
1266
330
1247
100
AcDbEntity
  8
SCHRAFFUR_RAND
100
AcDbVertex
100
AcDb2dVertex
 10
331.206753
 20
242.73349
 30
0.0
  0
VERTEX
  5
1267
330
1247
100
AcDbEntity
  8
SCHRAFFUR_RAND
100
AcDbVertex
100
AcDb2dVertex
 10
330.947753
 20
241.31949
 30
0.0
  0
VERTEX
  5
1268
330
1247
100
AcDbEntity
  8
SCHRAFFUR_RAND
100
AcDbVertex
100
AcDb2dVertex
 10
330.206753
 20
240.08749
 30
0.0
  0
VERTEX
  5
1269
330
1247
100
AcDbEntity
  8
SCHRAFFUR_RAND
100
AcDbVertex
100
AcDb2dVertex
 10
329.464753
 20
238.85549
 30
0.0
  0
VERTEX
  5
126A
330
1247
100
AcDbEntity
  8
SCHRAFFUR_RAND
100
AcDbVertex
100
AcDb2dVertex
 10
329.206753
 20
237.44149
 30
0.0
  0
VERTEX
  5
126B
330
1247
100
AcDbEntity
  8
SCHRAFFUR_RAND
100
AcDbVertex
100
AcDb2dVertex
 10
329.206753
 20
233.09849
 30
0.0
  0
VERTEX
  5
126C
330
1247
100
AcDbEntity
  8
SCHRAFFUR_RAND
100
AcDbVertex
100
AcDb2dVertex
 10
329.434753
 20
231.76549
 30
0.0
  0
VERTEX
  5
126D
330
1247
100
AcDbEntity
  8
SCHRAFFUR_RAND
100
AcDbVertex
100
AcDb2dVertex
 10
330.094753
 20
230.58449
 30
0.0
  0
VERTEX
  5
126E
330
1247
100
AcDbEntity
  8
SCHRAFFUR_RAND
100
AcDbVertex
100
AcDb2dVertex
 10
330.705753
 20
229.80349
 30
0.0
  0
VERTEX
  5
126F
330
1247
100
AcDbEntity
  8
SCHRAFFUR_RAND
100
AcDbVertex
100
AcDb2dVertex
 10
331.206753
 20
227.44149
 30
0.0
  0
VERTEX
  5
1270
330
1247
100
AcDbEntity
  8
SCHRAFFUR_RAND
100
AcDbVertex
100
AcDb2dVertex
 10
330.705753
 20
225.08049
 30
0.0
  0
VERTEX
  5
1271
330
1247
100
AcDbEntity
  8
SCHRAFFUR_RAND
100
AcDbVertex
100
AcDb2dVertex
 10
329.092753
 20
223.26049
 30
0.0
  0
VERTEX
  5
1272
330
1247
100
AcDbEntity
  8
SCHRAFFUR_RAND
100
AcDbVertex
100
AcDb2dVertex
 10
326.706753
 20
222.44149
 30
0.0
  0
VERTEX
  5
1273
330
1247
100
AcDbEntity
  8
SCHRAFFUR_RAND
100
AcDbVertex
100
AcDb2dVertex
 10
326.706753
 20
219.44149
 30
0.0
  0
VERTEX
  5
1274
330
1247
100
AcDbEntity
  8
SCHRAFFUR_RAND
100
AcDbVertex
100
AcDb2dVertex
 10
334.206753
 20
219.44149
 30
0.0
  0
VERTEX
  5
1275
330
1247
100
AcDbEntity
  8
SCHRAFFUR_RAND
100
AcDbVertex
100
AcDb2dVertex
 10
334.206753
 20
255.11149
 30
0.0
  0
VERTEX
  5
1276
330
1247
100
AcDbEntity
  8
SCHRAFFUR_RAND
100
AcDbVertex
100
AcDb2dVertex
 10
334.463753
 20
257.70149
 30
0.0
  0
VERTEX
  5
1277
330
1247
100
AcDbEntity
  8
SCHRAFFUR_RAND
100
AcDbVertex
100
AcDb2dVertex
 10
335.456753
 20
260.11849
 30
0.0
  0
VERTEX
  5
1278
330
1247
100
AcDbEntity
  8
SCHRAFFUR_RAND
100
AcDbVertex
100
AcDb2dVertex
 10
337.036753
 20
262.19849
 30
0.0
  0
VERTEX
  5
1279
330
1247
100
AcDbEntity
  8
SCHRAFFUR_RAND
100
AcDbVertex
100
AcDb2dVertex
 10
339.139753
 20
263.73249
 30
0.0
  0
VERTEX
  5
127A
330
1247
100
AcDbEntity
  8
SCHRAFFUR_RAND
100
AcDbVertex
100
AcDb2dVertex
 10
343.004753
 20
266.37249
 30
0.0
  0
VERTEX
  5
127B
330
1247
100
AcDbEntity
  8
SCHRAFFUR_RAND
100
AcDbVertex
100
AcDb2dVertex
 10
346.315753
 20
269.69049
 30
0.0
  0
VERTEX
  5
127C
330
1247
100
AcDbEntity
  8
SCHRAFFUR_RAND
100
AcDbVertex
100
AcDb2dVertex
 10
349.016753
 20
273.52049
 30
0.0
  0
VERTEX
  5
127D
330
1247
100
AcDbEntity
  8
SCHRAFFUR_RAND
100
AcDbVertex
100
AcDb2dVertex
 10
350.953753
 20
277.78149
 30
0.0
  0
VERTEX
  5
127E
330
1247
100
AcDbEntity
  8
SCHRAFFUR_RAND
100
AcDbVertex
100
AcDb2dVertex
 10
352.706753
 20
277.78149
 30
0.0
  0
VERTEX
  5
127F
330
1247
100
AcDbEntity
  8
SCHRAFFUR_RAND
100
AcDbVertex
100
AcDb2dVertex
 10
352.635753
 20
287.88549
 30
0.0
  0
VERTEX
  5
1280
330
1247
100
AcDbEntity
  8
SCHRAFFUR_RAND
100
AcDbVertex
100
AcDb2dVertex
 10
352.706753
 20
340.44149
 30
0.0
  0
VERTEX
  5
1281
330
1247
100
AcDbEntity
  8
SCHRAFFUR_RAND
100
AcDbVertex
100
AcDb2dVertex
 10
350.206753
 20
340.44149
 30
0.0
  0
VERTEX
  5
1282
330
1247
100
AcDbEntity
  8
SCHRAFFUR_RAND
100
AcDbVertex
100
AcDb2dVertex
 10
350.206753
 20
287.44149
 30
0.0
  0
VERTEX
  5
1283
330
1247
100
AcDbEntity
  8
SCHRAFFUR_RAND
100
AcDbVertex
100
AcDb2dVertex
 10
349.805753
 20
282.54849
 30
0.0
  0
VERTEX
  5
1284
330
1247
100
AcDbEntity
  8
SCHRAFFUR_RAND
100
AcDbVertex
100
AcDb2dVertex
 10
349.206753
 20
280.44149
 30
0.0
  0
SEQEND
  5
1285
330
1247
100
AcDbEntity
  8
SCHRAFFUR_RAND
  0
INSERT
  5
12AD
330
15C4
100
AcDbEntity
  8
8
100
AcDbBlockReference
  2
*X1
 10
-148.704247
 20
-811.4345099999999
 30
0.0
1001
ACAD
1000
HATCH
1002
{
1070
    19
1000
ANSI31,_I
1040
3.174999999999999
1040
0.0
1002
}
  0
POLYLINE
  5
12AE
330
15C4
100
AcDbEntity
  8
SCHRAFFUR_RAND
100
AcDb2dPolyline
 66
     1
 10
0.0
 20
0.0
 30
0.0
 70
     1
  0
VERTEX
  5
12AF
330
12AE
100
AcDbEntity
  8
SCHRAFFUR_RAND
100
AcDbVertex
100
AcDb2dVertex
 10
414.206753
 20
219.44149
 30
0.0
  0
VERTEX
  5
12B0
330
12AE
100
AcDbEntity
  8
SCHRAFFUR_RAND
100
AcDbVertex
100
AcDb2dVertex
 10
421.706753
 20
219.44149
 30
0.0
  0
VERTEX
  5
12B1
330
12AE
100
AcDbEntity
  8
SCHRAFFUR_RAND
100
AcDbVertex
100
AcDb2dVertex
 10
421.706753
 20
222.44149
 30
0.0
  0
VERTEX
  5
12B2
330
12AE
100
AcDbEntity
  8
SCHRAFFUR_RAND
100
AcDbVertex
100
AcDb2dVertex
 10
421.076753
 20
222.49349
 30
0.0
  0
VERTEX
  5
12B3
330
12AE
100
AcDbEntity
  8
SCHRAFFUR_RAND
100
AcDbVertex
100
AcDb2dVertex
 10
419.0417529999999
 20
223.47349
 30
0.0
  0
VERTEX
  5
12B4
330
12AE
100
AcDbEntity
  8
SCHRAFFUR_RAND
100
AcDbVertex
100
AcDb2dVertex
 10
417.6337529999999
 20
225.23949
 30
0.0
  0
VERTEX
  5
12B5
330
12AE
100
AcDbEntity
  8
SCHRAFFUR_RAND
100
AcDbVertex
100
AcDb2dVertex
 10
417.1307529999999
 20
227.44149
 30
0.0
  0
VERTEX
  5
12B6
330
12AE
100
AcDbEntity
  8
SCHRAFFUR_RAND
100
AcDbVertex
100
AcDb2dVertex
 10
417.6337529999999
 20
229.64349
 30
0.0
  0
VERTEX
  5
12B7
330
12AE
100
AcDbEntity
  8
SCHRAFFUR_RAND
100
AcDbVertex
100
AcDb2dVertex
 10
418.317753
 20
230.58449
 30
0.0
  0
VERTEX
  5
12B8
330
12AE
100
AcDbEntity
  8
SCHRAFFUR_RAND
100
AcDbVertex
100
AcDb2dVertex
 10
418.9777529999999
 20
231.76549
 30
0.0
  0
VERTEX
  5
12B9
330
12AE
100
AcDbEntity
  8
SCHRAFFUR_RAND
100
AcDbVertex
100
AcDb2dVertex
 10
419.206753
 20
233.09849
 30
0.0
  0
VERTEX
  5
12BA
330
12AE
100
AcDbEntity
  8
SCHRAFFUR_RAND
100
AcDbVertex
100
AcDb2dVertex
 10
419.206753
 20
237.44149
 30
0.0
  0
VERTEX
  5
12BB
330
12AE
100
AcDbEntity
  8
SCHRAFFUR_RAND
100
AcDbVertex
100
AcDb2dVertex
 10
418.9477529999999
 20
238.85549
 30
0.0
  0
VERTEX
  5
12BC
330
12AE
100
AcDbEntity
  8
SCHRAFFUR_RAND
100
AcDbVertex
100
AcDb2dVertex
 10
418.206753
 20
240.08749
 30
0.0
  0
VERTEX
  5
12BD
330
12AE
100
AcDbEntity
  8
SCHRAFFUR_RAND
100
AcDbVertex
100
AcDb2dVertex
 10
417.4647529999999
 20
241.31949
 30
0.0
  0
VERTEX
  5
12BE
330
12AE
100
AcDbEntity
  8
SCHRAFFUR_RAND
100
AcDbVertex
100
AcDb2dVertex
 10
417.2067529999999
 20
242.73349
 30
0.0
  0
VERTEX
  5
12BF
330
12AE
100
AcDbEntity
  8
SCHRAFFUR_RAND
100
AcDbVertex
100
AcDb2dVertex
 10
417.2067529999999
 20
244.44149
 30
0.0
  0
VERTEX
  5
12C0
330
12AE
100
AcDbEntity
  8
SCHRAFFUR_RAND
100
AcDbVertex
100
AcDb2dVertex
 10
417.542753
 20
245.97949
 30
0.0
  0
VERTEX
  5
12C1
330
12AE
100
AcDbEntity
  8
SCHRAFFUR_RAND
100
AcDbVertex
100
AcDb2dVertex
 10
418.6687529999999
 20
247.10549
 30
0.0
  0
VERTEX
  5
12C2
330
12AE
100
AcDbEntity
  8
SCHRAFFUR_RAND
100
AcDbVertex
100
AcDb2dVertex
 10
420.206753
 20
247.44149
 30
0.0
  0
VERTEX
  5
12C3
330
12AE
100
AcDbEntity
  8
SCHRAFFUR_RAND
100
AcDbVertex
100
AcDb2dVertex
 10
421.206753
 20
247.44149
 30
0.0
  0
VERTEX
  5
12C4
330
12AE
100
AcDbEntity
  8
SCHRAFFUR_RAND
100
AcDbVertex
100
AcDb2dVertex
 10
421.993753
 20
247.57749
 30
0.0
  0
VERTEX
  5
12C5
330
12AE
100
AcDbEntity
  8
SCHRAFFUR_RAND
100
AcDbVertex
100
AcDb2dVertex
 10
422.570753
 20
248.15449
 30
0.0
  0
VERTEX
  5
12C6
330
12AE
100
AcDbEntity
  8
SCHRAFFUR_RAND
100
AcDbVertex
100
AcDb2dVertex
 10
422.706753
 20
248.94149
 30
0.0
  0
VERTEX
  5
12C7
330
12AE
100
AcDbEntity
  8
SCHRAFFUR_RAND
100
AcDbVertex
100
AcDb2dVertex
 10
422.570753
 20
249.72949
 30
0.0
  0
VERTEX
  5
12C8
330
12AE
100
AcDbEntity
  8
SCHRAFFUR_RAND
100
AcDbVertex
100
AcDb2dVertex
 10
421.993753
 20
250.30549
 30
0.0
  0
VERTEX
  5
12C9
330
12AE
100
AcDbEntity
  8
SCHRAFFUR_RAND
100
AcDbVertex
100
AcDb2dVertex
 10
421.206753
 20
250.44149
 30
0.0
  0
VERTEX
  5
12CA
330
12AE
100
AcDbEntity
  8
SCHRAFFUR_RAND
100
AcDbVertex
100
AcDb2dVertex
 10
420.206753
 20
250.44149
 30
0.0
  0
VERTEX
  5
12CB
330
12AE
100
AcDbEntity
  8
SCHRAFFUR_RAND
100
AcDbVertex
100
AcDb2dVertex
 10
418.6687529999999
 20
250.77849
 30
0.0
  0
VERTEX
  5
12CC
330
12AE
100
AcDbEntity
  8
SCHRAFFUR_RAND
100
AcDbVertex
100
AcDb2dVertex
 10
417.542753
 20
251.90449
 30
0.0
  0
VERTEX
  5
12CD
330
12AE
100
AcDbEntity
  8
SCHRAFFUR_RAND
100
AcDbVertex
100
AcDb2dVertex
 10
417.2067529999999
 20
253.44149
 30
0.0
  0
VERTEX
  5
12CE
330
12AE
100
AcDbEntity
  8
SCHRAFFUR_RAND
100
AcDbVertex
100
AcDb2dVertex
 10
417.4407529999999
 20
255.00149
 30
0.0
  0
VERTEX
  5
12CF
330
12AE
100
AcDbEntity
  8
SCHRAFFUR_RAND
100
AcDbVertex
100
AcDb2dVertex
 10
418.324753
 20
256.32349
 30
0.0
  0
VERTEX
  5
12D0
330
12AE
100
AcDbEntity
  8
SCHRAFFUR_RAND
100
AcDbVertex
100
AcDb2dVertex
 10
419.646753
 20
257.20649
 30
0.0
  0
VERTEX
  5
12D1
330
12AE
100
AcDbEntity
  8
SCHRAFFUR_RAND
100
AcDbVertex
100
AcDb2dVertex
 10
421.206753
 20
257.44149
 30
0.0
  0
VERTEX
  5
12D2
330
12AE
100
AcDbEntity
  8
SCHRAFFUR_RAND
100
AcDbVertex
100
AcDb2dVertex
 10
434.4027529999999
 20
257.44149
 30
0.0
  0
VERTEX
  5
12D3
330
12AE
100
AcDbEntity
  8
SCHRAFFUR_RAND
100
AcDbVertex
100
AcDb2dVertex
 10
435.206753
 20
260.44149
 30
0.0
  0
VERTEX
  5
12D4
330
12AE
100
AcDbEntity
  8
SCHRAFFUR_RAND
100
AcDbVertex
100
AcDb2dVertex
 10
423.206753
 20
260.44149
 30
0.0
  0
VERTEX
  5
12D5
330
12AE
100
AcDbEntity
  8
SCHRAFFUR_RAND
100
AcDbVertex
100
AcDb2dVertex
 10
423.206753
 20
262.44149
 30
0.0
  0
VERTEX
  5
12D6
330
12AE
100
AcDbEntity
  8
SCHRAFFUR_RAND
100
AcDbVertex
100
AcDb2dVertex
 10
418.314753
 20
262.84849
 30
0.0
  0
VERTEX
  5
12D7
330
12AE
100
AcDbEntity
  8
SCHRAFFUR_RAND
100
AcDbVertex
100
AcDb2dVertex
 10
413.610753
 20
264.27549
 30
0.0
  0
VERTEX
  5
12D8
330
12AE
100
AcDbEntity
  8
SCHRAFFUR_RAND
100
AcDbVertex
100
AcDb2dVertex
 10
409.2757529999999
 20
266.59249
 30
0.0
  0
VERTEX
  5
12D9
330
12AE
100
AcDbEntity
  8
SCHRAFFUR_RAND
100
AcDbVertex
100
AcDb2dVertex
 10
405.4757529999999
 20
269.71049
 30
0.0
  0
VERTEX
  5
12DA
330
12AE
100
AcDbEntity
  8
SCHRAFFUR_RAND
100
AcDbVertex
100
AcDb2dVertex
 10
402.3567529999999
 20
273.51049
 30
0.0
  0
VERTEX
  5
12DB
330
12AE
100
AcDbEntity
  8
SCHRAFFUR_RAND
100
AcDbVertex
100
AcDb2dVertex
 10
400.0397529999999
 20
277.84549
 30
0.0
  0
VERTEX
  5
12DC
330
12AE
100
AcDbEntity
  8
SCHRAFFUR_RAND
100
AcDbVertex
100
AcDb2dVertex
 10
399.206753
 20
280.44149
 30
0.0
  0
VERTEX
  5
12DD
330
12AE
100
AcDbEntity
  8
SCHRAFFUR_RAND
100
AcDbVertex
100
AcDb2dVertex
 10
398.612753
 20
282.54949
 30
0.0
  0
VERTEX
  5
12DE
330
12AE
100
AcDbEntity
  8
SCHRAFFUR_RAND
100
AcDbVertex
100
AcDb2dVertex
 10
398.206753
 20
287.44149
 30
0.0
  0
VERTEX
  5
12DF
330
12AE
100
AcDbEntity
  8
SCHRAFFUR_RAND
100
AcDbVertex
100
AcDb2dVertex
 10
398.206753
 20
340.44149
 30
0.0
  0
VERTEX
  5
12E0
330
12AE
100
AcDbEntity
  8
SCHRAFFUR_RAND
100
AcDbVertex
100
AcDb2dVertex
 10
395.706753
 20
340.44149
 30
0.0
  0
VERTEX
  5
12E1
330
12AE
100
AcDbEntity
  8
SCHRAFFUR_RAND
100
AcDbVertex
100
AcDb2dVertex
 10
395.706753
 20
287.88549
 30
0.0
  0
VERTEX
  5
12E2
330
12AE
100
AcDbEntity
  8
SCHRAFFUR_RAND
100
AcDbVertex
100
AcDb2dVertex
 10
395.706753
 20
277.78149
 30
0.0
  0
VERTEX
  5
12E3
330
12AE
100
AcDbEntity
  8
SCHRAFFUR_RAND
100
AcDbVertex
100
AcDb2dVertex
 10
397.458753
 20
277.78149
 30
0.0
  0
VERTEX
  5
12E4
330
12AE
100
AcDbEntity
  8
SCHRAFFUR_RAND
100
AcDbVertex
100
AcDb2dVertex
 10
399.401753
 20
273.52249
 30
0.0
  0
VERTEX
  5
12E5
330
12AE
100
AcDbEntity
  8
SCHRAFFUR_RAND
100
AcDbVertex
100
AcDb2dVertex
 10
402.103753
 20
269.69149
 30
0.0
  0
VERTEX
  5
12E6
330
12AE
100
AcDbEntity
  8
SCHRAFFUR_RAND
100
AcDbVertex
100
AcDb2dVertex
 10
405.415753
 20
266.37349
 30
0.0
  0
VERTEX
  5
12E7
330
12AE
100
AcDbEntity
  8
SCHRAFFUR_RAND
100
AcDbVertex
100
AcDb2dVertex
 10
409.2787529999999
 20
263.72949
 30
0.0
  0
VERTEX
  5
12E8
330
12AE
100
AcDbEntity
  8
SCHRAFFUR_RAND
100
AcDbVertex
100
AcDb2dVertex
 10
411.3717529999999
 20
262.19449
 30
0.0
  0
VERTEX
  5
12E9
330
12AE
100
AcDbEntity
  8
SCHRAFFUR_RAND
100
AcDbVertex
100
AcDb2dVertex
 10
412.9507529999999
 20
260.11549
 30
0.0
  0
VERTEX
  5
12EA
330
12AE
100
AcDbEntity
  8
SCHRAFFUR_RAND
100
AcDbVertex
100
AcDb2dVertex
 10
413.9437529999999
 20
257.70049
 30
0.0
  0
VERTEX
  5
12EB
330
12AE
100
AcDbEntity
  8
SCHRAFFUR_RAND
100
AcDbVertex
100
AcDb2dVertex
 10
414.206753
 20
255.11149
 30
0.0
  0
VERTEX
  5
12EC
330
12AE
100
AcDbEntity
  8
SCHRAFFUR_RAND
100
AcDbVertex
100
AcDb2dVertex
 10
414.206753
 20
219.44149
 30
0.0
  0
SEQEND
  5
12ED
330
12AE
100
AcDbEntity
  8
SCHRAFFUR_RAND
  0
INSERT
  5
1315
330
15C4
100
AcDbEntity
  8
8
100
AcDbBlockReference
  2
*X2
 10
-148.704247
 20
-811.4345099999999
 30
0.0
1001
ACAD
1000
HATCH
1002
{
1070
    19
1000
ANSI31,_I
1040
3.174999999999999
1040
0.0
1002
}
  0
POLYLINE
  5
1316
330
15C4
100
AcDbEntity
  8
SCHRAFFUR_RAND
100
AcDb2dPolyline
 66
     1
 10
0.0
 20
0.0
 30
0.0
 70
     1
  0
VERTEX
  5
1317
330
1316
100
AcDbEntity
  8
SCHRAFFUR_RAND
100
AcDbVertex
100
AcDb2dVertex
 10
425.085753
 20
243.50249
 30
0.0
  0
VERTEX
  5
1318
330
1316
100
AcDbEntity
  8
SCHRAFFUR_RAND
100
AcDbVertex
100
AcDb2dVertex
 10
424.969753
 20
244.52649
 30
0.0
  0
VERTEX
  5
1319
330
1316
100
AcDbEntity
  8
SCHRAFFUR_RAND
100
AcDbVertex
100
AcDb2dVertex
 10
424.573753
 20
245.48149
 30
0.0
  0
VERTEX
  5
131A
330
1316
100
AcDbEntity
  8
SCHRAFFUR_RAND
100
AcDbVertex
100
AcDb2dVertex
 10
423.944753
 20
246.30149
 30
0.0
  0
VERTEX
  5
131B
330
1316
100
AcDbEntity
  8
SCHRAFFUR_RAND
100
AcDbVertex
100
AcDb2dVertex
 10
423.124753
 20
246.92949
 30
0.0
  0
VERTEX
  5
131C
330
1316
100
AcDbEntity
  8
SCHRAFFUR_RAND
100
AcDbVertex
100
AcDb2dVertex
 10
422.170753
 20
247.32549
 30
0.0
  0
VERTEX
  5
131D
330
1316
100
AcDbEntity
  8
SCHRAFFUR_RAND
100
AcDbVertex
100
AcDb2dVertex
 10
421.206753
 20
247.44149
 30
0.0
  0
VERTEX
  5
131E
330
1316
100
AcDbEntity
  8
SCHRAFFUR_RAND
100
AcDbVertex
100
AcDb2dVertex
 10
421.145753
 20
247.46049
 30
0.0
  0
VERTEX
  5
131F
330
1316
100
AcDbEntity
  8
SCHRAFFUR_RAND
100
AcDbVertex
100
AcDb2dVertex
 10
420.121753
 20
247.32549
 30
0.0
  0
VERTEX
  5
1320
330
1316
100
AcDbEntity
  8
SCHRAFFUR_RAND
100
AcDbVertex
100
AcDb2dVertex
 10
419.166753
 20
246.92949
 30
0.0
  0
VERTEX
  5
1321
330
1316
100
AcDbEntity
  8
SCHRAFFUR_RAND
100
AcDbVertex
100
AcDb2dVertex
 10
418.3477529999999
 20
246.30149
 30
0.0
  0
VERTEX
  5
1322
330
1316
100
AcDbEntity
  8
SCHRAFFUR_RAND
100
AcDbVertex
100
AcDb2dVertex
 10
417.718753
 20
245.48149
 30
0.0
  0
VERTEX
  5
1323
330
1316
100
AcDbEntity
  8
SCHRAFFUR_RAND
100
AcDbVertex
100
AcDb2dVertex
 10
417.322753
 20
244.52649
 30
0.0
  0
VERTEX
  5
1324
330
1316
100
AcDbEntity
  8
SCHRAFFUR_RAND
100
AcDbVertex
100
AcDb2dVertex
 10
417.1877529999999
 20
243.50249
 30
0.0
  0
VERTEX
  5
1325
330
1316
100
AcDbEntity
  8
SCHRAFFUR_RAND
100
AcDbVertex
100
AcDb2dVertex
 10
417.322753
 20
242.47749
 30
0.0
  0
VERTEX
  5
1326
330
1316
100
AcDbEntity
  8
SCHRAFFUR_RAND
100
AcDbVertex
100
AcDb2dVertex
 10
417.718753
 20
241.52349
 30
0.0
  0
VERTEX
  5
1327
330
1316
100
AcDbEntity
  8
SCHRAFFUR_RAND
100
AcDbVertex
100
AcDb2dVertex
 10
418.3477529999999
 20
240.70349
 30
0.0
  0
VERTEX
  5
1328
330
1316
100
AcDbEntity
  8
SCHRAFFUR_RAND
100
AcDbVertex
100
AcDb2dVertex
 10
419.166753
 20
240.07449
 30
0.0
  0
VERTEX
  5
1329
330
1316
100
AcDbEntity
  8
SCHRAFFUR_RAND
100
AcDbVertex
100
AcDb2dVertex
 10
420.121753
 20
239.67949
 30
0.0
  0
VERTEX
  5
132A
330
1316
100
AcDbEntity
  8
SCHRAFFUR_RAND
100
AcDbVertex
100
AcDb2dVertex
 10
421.145753
 20
239.54449
 30
0.0
  0
VERTEX
  5
132B
330
1316
100
AcDbEntity
  8
SCHRAFFUR_RAND
100
AcDbVertex
100
AcDb2dVertex
 10
422.170753
 20
239.67949
 30
0.0
  0
VERTEX
  5
132C
330
1316
100
AcDbEntity
  8
SCHRAFFUR_RAND
100
AcDbVertex
100
AcDb2dVertex
 10
423.124753
 20
240.07449
 30
0.0
  0
VERTEX
  5
132D
330
1316
100
AcDbEntity
  8
SCHRAFFUR_RAND
100
AcDbVertex
100
AcDb2dVertex
 10
423.944753
 20
240.70349
 30
0.0
  0
VERTEX
  5
132E
330
1316
100
AcDbEntity
  8
SCHRAFFUR_RAND
100
AcDbVertex
100
AcDb2dVertex
 10
424.573753
 20
241.52349
 30
0.0
  0
VERTEX
  5
132F
330
1316
100
AcDbEntity
  8
SCHRAFFUR_RAND
100
AcDbVertex
100
AcDb2dVertex
 10
424.969753
 20
242.47749
 30
0.0
  0
VERTEX
  5
1330
330
1316
100
AcDbEntity
  8
SCHRAFFUR_RAND
100
AcDbVertex
100
AcDb2dVertex
 10
425.085753
 20
243.50249
 30
0.0
  0
SEQEND
  5
1331
330
1316
100
AcDbEntity
  8
SCHRAFFUR_RAND
  0
INSERT
  5
1338
330
15C4
100
AcDbEntity
  8
8
100
AcDbBlockReference
  2
*X3
 10
-148.704247
 20
-811.4345099999999
 30
0.0
1001
ACAD
1000
HATCH
1002
{
1070
    19
1000
ANSI37,_I
1040
3.174999999999999
1040
3.926999999999999
1002
}
  0
POLYLINE
  5
1339
330
15C4
100
AcDbEntity
  8
SCHRAFFUR_RAND
100
AcDb2dPolyline
 66
     1
 10
0.0
 20
0.0
 30
0.0
 70
     1
  0
VERTEX
  5
133A
330
1339
100
AcDbEntity
  8
SCHRAFFUR_RAND
100
AcDbVertex
100
AcDb2dVertex
 10
323.308753
 20
243.50149
 30
0.0
  0
VERTEX
  5
133B
330
1339
100
AcDbEntity
  8
SCHRAFFUR_RAND
100
AcDbVertex
100
AcDb2dVertex
 10
323.443753
 20
242.47749
 30
0.0
  0
VERTEX
  5
133C
330
1339
100
AcDbEntity
  8
SCHRAFFUR_RAND
100
AcDbVertex
100
AcDb2dVertex
 10
323.838753
 20
241.52249
 30
0.0
  0
VERTEX
  5
133D
330
1339
100
AcDbEntity
  8
SCHRAFFUR_RAND
100
AcDbVertex
100
AcDb2dVertex
 10
324.467753
 20
240.70349
 30
0.0
  0
VERTEX
  5
133E
330
1339
100
AcDbEntity
  8
SCHRAFFUR_RAND
100
AcDbVertex
100
AcDb2dVertex
 10
325.287753
 20
240.07449
 30
0.0
  0
VERTEX
  5
133F
330
1339
100
AcDbEntity
  8
SCHRAFFUR_RAND
100
AcDbVertex
100
AcDb2dVertex
 10
326.241753
 20
239.67849
 30
0.0
  0
VERTEX
  5
1340
330
1339
100
AcDbEntity
  8
SCHRAFFUR_RAND
100
AcDbVertex
100
AcDb2dVertex
 10
327.266753
 20
239.54349
 30
0.0
  0
VERTEX
  5
1341
330
1339
100
AcDbEntity
  8
SCHRAFFUR_RAND
100
AcDbVertex
100
AcDb2dVertex
 10
328.290753
 20
239.67849
 30
0.0
  0
VERTEX
  5
1342
330
1339
100
AcDbEntity
  8
SCHRAFFUR_RAND
100
AcDbVertex
100
AcDb2dVertex
 10
329.245753
 20
240.07449
 30
0.0
  0
VERTEX
  5
1343
330
1339
100
AcDbEntity
  8
SCHRAFFUR_RAND
100
AcDbVertex
100
AcDb2dVertex
 10
330.064753
 20
240.70349
 30
0.0
  0
VERTEX
  5
1344
330
1339
100
AcDbEntity
  8
SCHRAFFUR_RAND
100
AcDbVertex
100
AcDb2dVertex
 10
330.6937529999999
 20
241.52249
 30
0.0
  0
VERTEX
  5
1345
330
1339
100
AcDbEntity
  8
SCHRAFFUR_RAND
100
AcDbVertex
100
AcDb2dVertex
 10
331.089753
 20
242.47749
 30
0.0
  0
VERTEX
  5
1346
330
1339
100
AcDbEntity
  8
SCHRAFFUR_RAND
100
AcDbVertex
100
AcDb2dVertex
 10
331.206753
 20
243.50149
 30
0.0
  0
VERTEX
  5
1347
330
1339
100
AcDbEntity
  8
SCHRAFFUR_RAND
100
AcDbVertex
100
AcDb2dVertex
 10
331.089753
 20
244.52649
 30
0.0
  0
VERTEX
  5
1348
330
1339
100
AcDbEntity
  8
SCHRAFFUR_RAND
100
AcDbVertex
100
AcDb2dVertex
 10
330.6937529999999
 20
245.48049
 30
0.0
  0
VERTEX
  5
1349
330
1339
100
AcDbEntity
  8
SCHRAFFUR_RAND
100
AcDbVertex
100
AcDb2dVertex
 10
330.064753
 20
246.30049
 30
0.0
  0
VERTEX
  5
134A
330
1339
100
AcDbEntity
  8
SCHRAFFUR_RAND
100
AcDbVertex
100
AcDb2dVertex
 10
329.245753
 20
246.92949
 30
0.0
  0
VERTEX
  5
134B
330
1339
100
AcDbEntity
  8
SCHRAFFUR_RAND
100
AcDbVertex
100
AcDb2dVertex
 10
328.290753
 20
247.32549
 30
0.0
  0
VERTEX
  5
134C
330
1339
100
AcDbEntity
  8
SCHRAFFUR_RAND
100
AcDbVertex
100
AcDb2dVertex
 10
327.266753
 20
247.45949
 30
0.0
  0
VERTEX
  5
134D
330
1339
100
AcDbEntity
  8
SCHRAFFUR_RAND
100
AcDbVertex
100
AcDb2dVertex
 10
327.205753
 20
247.44149
 30
0.0
  0
VERTEX
  5
134E
330
1339
100
AcDbEntity
  8
SCHRAFFUR_RAND
100
AcDbVertex
100
AcDb2dVertex
 10
326.241753
 20
247.32549
 30
0.0
  0
VERTEX
  5
134F
330
1339
100
AcDbEntity
  8
SCHRAFFUR_RAND
100
AcDbVertex
100
AcDb2dVertex
 10
325.287753
 20
246.92949
 30
0.0
  0
VERTEX
  5
1350
330
1339
100
AcDbEntity
  8
SCHRAFFUR_RAND
100
AcDbVertex
100
AcDb2dVertex
 10
324.467753
 20
246.30049
 30
0.0
  0
VERTEX
  5
1351
330
1339
100
AcDbEntity
  8
SCHRAFFUR_RAND
100
AcDbVertex
100
AcDb2dVertex
 10
323.838753
 20
245.48049
 30
0.0
  0
VERTEX
  5
1352
330
1339
100
AcDbEntity
  8
SCHRAFFUR_RAND
100
AcDbVertex
100
AcDb2dVertex
 10
323.443753
 20
244.52649
 30
0.0
  0
VERTEX
  5
1353
330
1339
100
AcDbEntity
  8
SCHRAFFUR_RAND
100
AcDbVertex
100
AcDb2dVertex
 10
323.308753
 20
243.50149
 30
0.0
  0
SEQEND
  5
1354
330
1339
100
AcDbEntity
  8
SCHRAFFUR_RAND
  0
INSERT
  5
135B
330
15C4
100
AcDbEntity
  8
8
100
AcDbBlockReference
  2
*X4
 10
-148.704247
 20
-811.4345099999999
 30
0.0
1001
ACAD
1000
HATCH
1002
{
1070
    19
1000
ANSI37,_I
1040
3.174999999999999
1040
3.926999999999999
1002
}
  0
POLYLINE
  5
135C
330
15C4
100
AcDbEntity
  8
SCHRAFFUR_RAND
100
AcDb2dPolyline
 66
     1
 10
0.0
 20
0.0
 30
0.0
 70
     1
  0
VERTEX
  5
135D
330
135C
100
AcDbEntity
  8
SCHRAFFUR_RAND
100
AcDbVertex
100
AcDb2dVertex
 10
481.443753
 20
392.44149
 30
0.0
  0
VERTEX
  5
135E
330
135C
100
AcDbEntity
  8
SCHRAFFUR_RAND
100
AcDbVertex
100
AcDb2dVertex
 10
476.120753
 20
290.87149
 30
0.0
  0
VERTEX
  5
135F
330
135C
100
AcDbEntity
  8
SCHRAFFUR_RAND
100
AcDbVertex
100
AcDb2dVertex
 10
474.485753
 20
281.90849
 30
0.0
  0
VERTEX
  5
1360
330
135C
100
AcDbEntity
  8
SCHRAFFUR_RAND
100
AcDbVertex
100
AcDb2dVertex
 10
470.039753
 20
273.92049
 30
0.0
  0
VERTEX
  5
1361
330
135C
100
AcDbEntity
  8
SCHRAFFUR_RAND
100
AcDbVertex
100
AcDb2dVertex
 10
463.408753
 20
267.62749
 30
0.0
  0
VERTEX
  5
1362
330
135C
100
AcDbEntity
  8
SCHRAFFUR_RAND
100
AcDbVertex
100
AcDb2dVertex
 10
455.1987529999999
 20
263.60549
 30
0.0
  0
VERTEX
  5
1363
330
135C
100
AcDbEntity
  8
SCHRAFFUR_RAND
100
AcDbVertex
100
AcDb2dVertex
 10
446.161753
 20
262.44149
 30
0.0
  0
VERTEX
  5
1364
330
135C
100
AcDbEntity
  8
SCHRAFFUR_RAND
100
AcDbVertex
100
AcDb2dVertex
 10
436.706753
 20
262.44149
 30
0.0
  0
VERTEX
  5
1365
330
135C
100
AcDbEntity
  8
SCHRAFFUR_RAND
100
AcDbVertex
100
AcDb2dVertex
 10
435.366753
 20
257.44149
 30
0.0
  0
VERTEX
  5
1366
330
135C
100
AcDbEntity
  8
SCHRAFFUR_RAND
100
AcDbVertex
100
AcDb2dVertex
 10
434.4027529999999
 20
257.44149
 30
0.0
  0
VERTEX
  5
1367
330
135C
100
AcDbEntity
  8
SCHRAFFUR_RAND
100
AcDbVertex
100
AcDb2dVertex
 10
426.367753
 20
257.44149
 30
0.0
  0
VERTEX
  5
1368
330
135C
100
AcDbEntity
  8
SCHRAFFUR_RAND
100
AcDbVertex
100
AcDb2dVertex
 10
425.277753
 20
254.44149
 30
0.0
  0
VERTEX
  5
1369
330
135C
100
AcDbEntity
  8
SCHRAFFUR_RAND
100
AcDbVertex
100
AcDb2dVertex
 10
425.085753
 20
243.50249
 30
0.0
  0
VERTEX
  5
136A
330
135C
100
AcDbEntity
  8
SCHRAFFUR_RAND
100
AcDbVertex
100
AcDb2dVertex
 10
424.369753
 20
202.44149
 30
0.0
  0
VERTEX
  5
136B
330
135C
100
AcDbEntity
  8
SCHRAFFUR_RAND
100
AcDbVertex
100
AcDb2dVertex
 10
423.555753
 20
197.44149
 30
0.0
  0
VERTEX
  5
136C
330
135C
100
AcDbEntity
  8
SCHRAFFUR_RAND
100
AcDbVertex
100
AcDb2dVertex
 10
423.207753
 20
172.45449
 30
0.0
  0
VERTEX
  5
136D
330
135C
100
AcDbEntity
  8
SCHRAFFUR_RAND
100
AcDbVertex
100
AcDb2dVertex
 10
428.933753
 20
172.44149
 30
0.0
  0
VERTEX
  5
136E
330
135C
100
AcDbEntity
  8
SCHRAFFUR_RAND
100
AcDbVertex
100
AcDb2dVertex
 10
430.056753
 20
241.72049
 30
0.0
  0
VERTEX
  5
136F
330
135C
100
AcDbEntity
  8
SCHRAFFUR_RAND
100
AcDbVertex
100
AcDb2dVertex
 10
431.153753
 20
247.85249
 30
0.0
  0
VERTEX
  5
1370
330
135C
100
AcDbEntity
  8
SCHRAFFUR_RAND
100
AcDbVertex
100
AcDb2dVertex
 10
434.6967529999999
 20
253.02249
 30
0.0
  0
VERTEX
  5
1371
330
135C
100
AcDbEntity
  8
SCHRAFFUR_RAND
100
AcDbVertex
100
AcDb2dVertex
 10
439.934753
 20
256.46249
 30
0.0
  0
VERTEX
  5
1372
330
135C
100
AcDbEntity
  8
SCHRAFFUR_RAND
100
AcDbVertex
100
AcDb2dVertex
 10
446.086753
 20
257.44149
 30
0.0
  0
VERTEX
  5
1373
330
135C
100
AcDbEntity
  8
SCHRAFFUR_RAND
100
AcDbVertex
100
AcDb2dVertex
 10
454.9197529999999
 20
258.32849
 30
0.0
  0
VERTEX
  5
1374
330
135C
100
AcDbEntity
  8
SCHRAFFUR_RAND
100
AcDbVertex
100
AcDb2dVertex
 10
463.192753
 20
261.61449
 30
0.0
  0
VERTEX
  5
1375
330
135C
100
AcDbEntity
  8
SCHRAFFUR_RAND
100
AcDbVertex
100
AcDb2dVertex
 10
470.377753
 20
266.86849
 30
0.0
  0
VERTEX
  5
1376
330
135C
100
AcDbEntity
  8
SCHRAFFUR_RAND
100
AcDbVertex
100
AcDb2dVertex
 10
476.0157529999999
 20
273.75749
 30
0.0
  0
VERTEX
  5
1377
330
135C
100
AcDbEntity
  8
SCHRAFFUR_RAND
100
AcDbVertex
100
AcDb2dVertex
 10
479.746753
 20
281.83949
 30
0.0
  0
VERTEX
  5
1378
330
135C
100
AcDbEntity
  8
SCHRAFFUR_RAND
100
AcDbVertex
100
AcDb2dVertex
 10
481.113753
 20
290.60949
 30
0.0
  0
VERTEX
  5
1379
330
135C
100
AcDbEntity
  8
SCHRAFFUR_RAND
100
AcDbVertex
100
AcDb2dVertex
 10
485.534753
 20
374.96549
 30
0.0
  0
VERTEX
  5
137A
330
135C
100
AcDbEntity
  8
SCHRAFFUR_RAND
100
AcDbVertex
100
AcDb2dVertex
 10
486.240753
 20
378.71949
 30
0.0
  0
VERTEX
  5
137B
330
135C
100
AcDbEntity
  8
SCHRAFFUR_RAND
100
AcDbVertex
100
AcDb2dVertex
 10
488.486753
 20
381.85449
 30
0.0
  0
VERTEX
  5
137C
330
135C
100
AcDbEntity
  8
SCHRAFFUR_RAND
100
AcDbVertex
100
AcDb2dVertex
 10
491.7347529999999
 20
383.93349
 30
0.0
  0
VERTEX
  5
137D
330
135C
100
AcDbEntity
  8
SCHRAFFUR_RAND
100
AcDbVertex
100
AcDb2dVertex
 10
495.521753
 20
384.44149
 30
0.0
  0
VERTEX
  5
137E
330
135C
100
AcDbEntity
  8
SCHRAFFUR_RAND
100
AcDbVertex
100
AcDb2dVertex
 10
506.379753
 20
384.82049
 30
0.0
  0
VERTEX
  5
137F
330
135C
100
AcDbEntity
  8
SCHRAFFUR_RAND
100
AcDbVertex
100
AcDb2dVertex
 10
508.3237529999999
 20
384.63649
 30
0.0
  0
VERTEX
  5
1380
330
135C
100
AcDbEntity
  8
SCHRAFFUR_RAND
100
AcDbVertex
100
AcDb2dVertex
 10
509.872753
 20
383.38149
 30
0.0
  0
VERTEX
  5
1381
330
135C
100
AcDbEntity
  8
SCHRAFFUR_RAND
100
AcDbVertex
100
AcDb2dVertex
 10
510.457753
 20
381.51749
 30
0.0
  0
VERTEX
  5
1382
330
135C
100
AcDbEntity
  8
SCHRAFFUR_RAND
100
AcDbVertex
100
AcDb2dVertex
 10
512.308753
 20
371.02149
 30
0.0
  0
VERTEX
  5
1383
330
135C
100
AcDbEntity
  8
SCHRAFFUR_RAND
100
AcDbVertex
100
AcDb2dVertex
 10
514.8677529999999
 20
366.84749
 30
0.0
  0
VERTEX
  5
1384
330
135C
100
AcDbEntity
  8
SCHRAFFUR_RAND
100
AcDbVertex
100
AcDb2dVertex
 10
519.232753
 20
364.52649
 30
0.0
  0
VERTEX
  5
1385
330
135C
100
AcDbEntity
  8
SCHRAFFUR_RAND
100
AcDbVertex
100
AcDb2dVertex
 10
524.176753
 20
364.52649
 30
0.0
  0
VERTEX
  5
1386
330
135C
100
AcDbEntity
  8
SCHRAFFUR_RAND
100
AcDbVertex
100
AcDb2dVertex
 10
528.542753
 20
366.84649
 30
0.0
  0
VERTEX
  5
1387
330
135C
100
AcDbEntity
  8
SCHRAFFUR_RAND
100
AcDbVertex
100
AcDb2dVertex
 10
531.1017529999999
 20
371.02049
 30
0.0
  0
VERTEX
  5
1388
330
135C
100
AcDbEntity
  8
SCHRAFFUR_RAND
100
AcDbVertex
100
AcDb2dVertex
 10
533.1407529999999
 20
382.58549
 30
0.0
  0
VERTEX
  5
1389
330
135C
100
AcDbEntity
  8
SCHRAFFUR_RAND
100
AcDbVertex
100
AcDb2dVertex
 10
533.999753
 20
384.44149
 30
0.0
  0
VERTEX
  5
138A
330
135C
100
AcDbEntity
  8
SCHRAFFUR_RAND
100
AcDbVertex
100
AcDb2dVertex
 10
534.456753
 20
384.90949
 30
0.0
  0
VERTEX
  5
138B
330
135C
100
AcDbEntity
  8
SCHRAFFUR_RAND
100
AcDbVertex
100
AcDb2dVertex
 10
536.941753
 20
385.88849
 30
0.0
  0
VERTEX
  5
138C
330
135C
100
AcDbEntity
  8
SCHRAFFUR_RAND
100
AcDbVertex
100
AcDb2dVertex
 10
551.0367529999999
 20
386.38049
 30
0.0
  0
VERTEX
  5
138D
330
135C
100
AcDbEntity
  8
SCHRAFFUR_RAND
100
AcDbVertex
100
AcDb2dVertex
 10
551.845753
 20
386.23949
 30
0.0
  0
VERTEX
  5
138E
330
135C
100
AcDbEntity
  8
SCHRAFFUR_RAND
100
AcDbVertex
100
AcDb2dVertex
 10
552.530753
 20
385.78549
 30
0.0
  0
VERTEX
  5
138F
330
135C
100
AcDbEntity
  8
SCHRAFFUR_RAND
100
AcDbVertex
100
AcDb2dVertex
 10
552.9767529999999
 20
385.16649
 30
0.0
  0
VERTEX
  5
1390
330
135C
100
AcDbEntity
  8
SCHRAFFUR_RAND
100
AcDbVertex
100
AcDb2dVertex
 10
553.215753
 20
384.44149
 30
0.0
  0
VERTEX
  5
1391
330
135C
100
AcDbEntity
  8
SCHRAFFUR_RAND
100
AcDbVertex
100
AcDb2dVertex
 10
589.205753
 20
384.44149
 30
0.0
  0
VERTEX
  5
1392
330
135C
100
AcDbEntity
  8
SCHRAFFUR_RAND
100
AcDbVertex
100
AcDb2dVertex
 10
588.984753
 20
388.65149
 30
0.0
  0
VERTEX
  5
1393
330
135C
100
AcDbEntity
  8
SCHRAFFUR_RAND
100
AcDbVertex
100
AcDb2dVertex
 10
588.567753
 20
390.67749
 30
0.0
  0
VERTEX
  5
1394
330
135C
100
AcDbEntity
  8
SCHRAFFUR_RAND
100
AcDbVertex
100
AcDb2dVertex
 10
587.0357529999999
 20
392.13149
 30
0.0
  0
VERTEX
  5
1395
330
135C
100
AcDbEntity
  8
SCHRAFFUR_RAND
100
AcDbVertex
100
AcDb2dVertex
 10
584.989753
 20
392.44149
 30
0.0
  0
VERTEX
  5
1396
330
135C
100
AcDbEntity
  8
SCHRAFFUR_RAND
100
AcDbVertex
100
AcDb2dVertex
 10
526.704753
 20
392.43749
 30
0.0
  0
VERTEX
  5
1397
330
135C
100
AcDbEntity
  8
SCHRAFFUR_RAND
100
AcDbVertex
100
AcDb2dVertex
 10
526.705753
 20
388.64149
 30
0.0
  0
VERTEX
  5
1398
330
135C
100
AcDbEntity
  8
SCHRAFFUR_RAND
100
AcDbVertex
100
AcDb2dVertex
 10
526.704753
 20
382.44049
 30
0.0
  0
VERTEX
  5
1399
330
135C
100
AcDbEntity
  8
SCHRAFFUR_RAND
100
AcDbVertex
100
AcDb2dVertex
 10
526.704753
 20
377.44149
 30
0.0
  0
VERTEX
  5
139A
330
135C
100
AcDbEntity
  8
SCHRAFFUR_RAND
100
AcDbVertex
100
AcDb2dVertex
 10
525.704753
 20
377.44149
 30
0.0
  0
VERTEX
  5
139B
330
135C
100
AcDbEntity
  8
SCHRAFFUR_RAND
100
AcDbVertex
100
AcDb2dVertex
 10
525.7037529999999
 20
372.44149
 30
0.0
  0
VERTEX
  5
139C
330
135C
100
AcDbEntity
  8
SCHRAFFUR_RAND
100
AcDbVertex
100
AcDb2dVertex
 10
521.704753
 20
370.13249
 30
0.0
  0
VERTEX
  5
139D
330
135C
100
AcDbEntity
  8
SCHRAFFUR_RAND
100
AcDbVertex
100
AcDb2dVertex
 10
517.704753
 20
372.44149
 30
0.0
  0
VERTEX
  5
139E
330
135C
100
AcDbEntity
  8
SCHRAFFUR_RAND
100
AcDbVertex
100
AcDb2dVertex
 10
517.704753
 20
377.44149
 30
0.0
  0
VERTEX
  5
139F
330
135C
100
AcDbEntity
  8
SCHRAFFUR_RAND
100
AcDbVertex
100
AcDb2dVertex
 10
516.7057530000001
 20
377.44149
 30
0.0
  0
VERTEX
  5
13A0
330
135C
100
AcDbEntity
  8
SCHRAFFUR_RAND
100
AcDbVertex
100
AcDb2dVertex
 10
516.7057530000001
 20
382.44149
 30
0.0
  0
VERTEX
  5
13A1
330
135C
100
AcDbEntity
  8
SCHRAFFUR_RAND
100
AcDbVertex
100
AcDb2dVertex
 10
516.7057530000001
 20
388.64149
 30
0.0
  0
VERTEX
  5
13A2
330
135C
100
AcDbEntity
  8
SCHRAFFUR_RAND
100
AcDbVertex
100
AcDb2dVertex
 10
516.7057530000001
 20
392.44149
 30
0.0
  0
VERTEX
  5
13A3
330
135C
100
AcDbEntity
  8
SCHRAFFUR_RAND
100
AcDbVertex
100
AcDb2dVertex
 10
488.468753
 20
392.44149
 30
0.0
  0
VERTEX
  5
13A4
330
135C
100
AcDbEntity
  8
SCHRAFFUR_RAND
100
AcDbVertex
100
AcDb2dVertex
 10
481.443753
 20
392.44149
 30
0.0
  0
SEQEND
  5
13A5
330
135C
100
AcDbEntity
  8
SCHRAFFUR_RAND
  0
INSERT
  5
13D5
330
15C4
100
AcDbEntity
  8
8
100
AcDbBlockReference
  2
*X5
 10
-148.704247
 20
-811.4345099999999
 30
0.0
1001
ACAD
1000
HATCH
1002
{
1070
    19
1000
ANSI31,_I
1040
6.349999999999999
1040
-0.7850000000000001
1002
}
  0
DIMENSION
  5
13DF
330
15C4
100
AcDbEntity
  8
5
100
AcDbDimension
  2
*D17
 10
537.3057529999999
 20
340.44149
 30
0.0
 11
537.3057529999999
 21
309.52249
 31
0.0
 70
   160
  1
 60 
 71
     5
 42
-1.0
  3
GEN-ISO
100
AcDbAlignedDimension
 13
436.706753
 23
280.44149
 33
0.0
 14
398.206753
 24
340.44149
 34
0.0
 50
90.0
100
AcDbRotatedDimension
1001
GENIUS_GENDTOL_13
1000

1000
h7
1000

1040
0.0
1000
 60 
1001
ACAD
1000
DSTYLE
1002
{
1070
    78
1070
    12
1002
}
  0
DIMENSION
  5
13EA
330
15C4
100
AcDbEntity
  8
5
100
AcDbDimension
  2
*D15
 10
488.206753
 20
455.50949
 30
0.0
 11
373.049753
 21
455.50949
 31
0.0
 70
   160
  1
%%c  228 
 71
     5
 42
-1.0
  3
GEN-ISO
100
AcDbAlignedDimension
 13
260.204753
 23
397.44149
 33
0.0
 14
488.206753
 24
397.44149
 34
0.0
100
AcDbRotatedDimension
1001
ACAD
1000
DSTYLE
1002
{
1070
    78
1070
    12
1002
}
  0
POLYLINE
  5
13EB
330
15C4
100
AcDbEntity
  8
SCHRAFFUR_RAND
100
AcDb2dPolyline
 66
     1
 10
0.0
 20
0.0
 30
0.0
 70
     1
  0
VERTEX
  5
13EC
330
13EB
100
AcDbEntity
  8
SCHRAFFUR_RAND
100
AcDbVertex
100
AcDb2dVertex
 10
531.206753
 20
397.94149
 30
0.0
  0
VERTEX
  5
13ED
330
13EB
100
AcDbEntity
  8
SCHRAFFUR_RAND
100
AcDbVertex
100
AcDb2dVertex
 10
546.706753
 20
397.94149
 30
0.0
  0
VERTEX
  5
13EE
330
13EB
100
AcDbEntity
  8
SCHRAFFUR_RAND
100
AcDbVertex
100
AcDb2dVertex
 10
547.686753
 20
398.07549
 30
0.0
  0
VERTEX
  5
13EF
330
13EB
100
AcDbEntity
  8
SCHRAFFUR_RAND
100
AcDbVertex
100
AcDb2dVertex
 10
548.516753
 20
398.63049
 30
0.0
  0
VERTEX
  5
13F0
330
13EB
100
AcDbEntity
  8
SCHRAFFUR_RAND
100
AcDbVertex
100
AcDb2dVertex
 10
549.071753
 20
399.46149
 30
0.0
  0
VERTEX
  5
13F1
330
13EB
100
AcDbEntity
  8
SCHRAFFUR_RAND
100
AcDbVertex
100
AcDb2dVertex
 10
549.206753
 20
400.4414899999999
 30
0.0
  0
VERTEX
  5
13F2
330
13EB
100
AcDbEntity
  8
SCHRAFFUR_RAND
100
AcDbVertex
100
AcDb2dVertex
 10
549.206753
 20
407.4414899999999
 30
0.0
  0
VERTEX
  5
13F3
330
13EB
100
AcDbEntity
  8
SCHRAFFUR_RAND
100
AcDbVertex
100
AcDb2dVertex
 10
549.071753
 20
408.42149
 30
0.0
  0
VERTEX
  5
13F4
330
13EB
100
AcDbEntity
  8
SCHRAFFUR_RAND
100
AcDbVertex
100
AcDb2dVertex
 10
548.516753
 20
409.2524899999999
 30
0.0
  0
VERTEX
  5
13F5
330
13EB
100
AcDbEntity
  8
SCHRAFFUR_RAND
100
AcDbVertex
100
AcDb2dVertex
 10
547.686753
 20
409.8074899999999
 30
0.0
  0
VERTEX
  5
13F6
330
13EB
100
AcDbEntity
  8
SCHRAFFUR_RAND
100
AcDbVertex
100
AcDb2dVertex
 10
546.706753
 20
409.94149
 30
0.0
  0
VERTEX
  5
13F7
330
13EB
100
AcDbEntity
  8
SCHRAFFUR_RAND
100
AcDbVertex
100
AcDb2dVertex
 10
531.206753
 20
409.94149
 30
0.0
  0
VERTEX
  5
13F8
330
13EB
100
AcDbEntity
  8
SCHRAFFUR_RAND
100
AcDbVertex
100
AcDb2dVertex
 10
530.226753
 20
409.8074899999999
 30
0.0
  0
VERTEX
  5
13F9
330
13EB
100
AcDbEntity
  8
SCHRAFFUR_RAND
100
AcDbVertex
100
AcDb2dVertex
 10
529.3967529999999
 20
409.2524899999999
 30
0.0
  0
VERTEX
  5
13FA
330
13EB
100
AcDbEntity
  8
SCHRAFFUR_RAND
100
AcDbVertex
100
AcDb2dVertex
 10
528.840753
 20
408.42149
 30
0.0
  0
VERTEX
  5
13FB
330
13EB
100
AcDbEntity
  8
SCHRAFFUR_RAND
100
AcDbVertex
100
AcDb2dVertex
 10
528.706753
 20
407.4414899999999
 30
0.0
  0
VERTEX
  5
13FC
330
13EB
100
AcDbEntity
  8
SCHRAFFUR_RAND
100
AcDbVertex
100
AcDb2dVertex
 10
528.706753
 20
400.4414899999999
 30
0.0
  0
VERTEX
  5
13FD
330
13EB
100
AcDbEntity
  8
SCHRAFFUR_RAND
100
AcDbVertex
100
AcDb2dVertex
 10
528.840753
 20
399.46149
 30
0.0
  0
VERTEX
  5
13FE
330
13EB
100
AcDbEntity
  8
SCHRAFFUR_RAND
100
AcDbVertex
100
AcDb2dVertex
 10
529.395753
 20
398.63149
 30
0.0
  0
VERTEX
  5
13FF
330
13EB
100
AcDbEntity
  8
SCHRAFFUR_RAND
100
AcDbVertex
100
AcDb2dVertex
 10
530.226753
 20
398.07549
 30
0.0
  0
VERTEX
  5
1400
330
13EB
100
AcDbEntity
  8
SCHRAFFUR_RAND
100
AcDbVertex
100
AcDb2dVertex
 10
531.206753
 20
397.94149
 30
0.0
  0
SEQEND
  5
1401
330
13EB
100
AcDbEntity
  8
SCHRAFFUR_RAND
  0
INSERT
  5
1407
330
15C4
100
AcDbEntity
  8
8
100
AcDbBlockReference
  2
*X6
 10
-148.704247
 20
-811.4345099999999
 30
0.0
1001
ACAD
1000
HATCH
1002
{
1070
    19
1000
ANSI31,_I
1040
6.349999999999999
1040
0.7850000000000001
1002
}
  0
POLYLINE
  5
1408
330
15C4
100
AcDbEntity
  8
SCHRAFFUR_RAND
100
AcDb2dPolyline
 66
     1
 10
0.0
 20
0.0
 30
0.0
 70
     1
  0
VERTEX
  5
1409
330
1408
100
AcDbEntity
  8
SCHRAFFUR_RAND
100
AcDbVertex
100
AcDb2dVertex
 10
494.206753
 20
397.94149
 30
0.0
  0
VERTEX
  5
140A
330
1408
100
AcDbEntity
  8
SCHRAFFUR_RAND
100
AcDbVertex
100
AcDb2dVertex
 10
512.206753
 20
397.94149
 30
0.0
  0
VERTEX
  5
140B
330
1408
100
AcDbEntity
  8
SCHRAFFUR_RAND
100
AcDbVertex
100
AcDb2dVertex
 10
513.186753
 20
398.07549
 30
0.0
  0
VERTEX
  5
140C
330
1408
100
AcDbEntity
  8
SCHRAFFUR_RAND
100
AcDbVertex
100
AcDb2dVertex
 10
514.016753
 20
398.63049
 30
0.0
  0
VERTEX
  5
140D
330
1408
100
AcDbEntity
  8
SCHRAFFUR_RAND
100
AcDbVertex
100
AcDb2dVertex
 10
514.571753
 20
399.46149
 30
0.0
  0
VERTEX
  5
140E
330
1408
100
AcDbEntity
  8
SCHRAFFUR_RAND
100
AcDbVertex
100
AcDb2dVertex
 10
514.706753
 20
400.4414899999999
 30
0.0
  0
VERTEX
  5
140F
330
1408
100
AcDbEntity
  8
SCHRAFFUR_RAND
100
AcDbVertex
100
AcDb2dVertex
 10
514.706753
 20
407.4414899999999
 30
0.0
  0
VERTEX
  5
1410
330
1408
100
AcDbEntity
  8
SCHRAFFUR_RAND
100
AcDbVertex
100
AcDb2dVertex
 10
514.572753
 20
408.42149
 30
0.0
  0
VERTEX
  5
1411
330
1408
100
AcDbEntity
  8
SCHRAFFUR_RAND
100
AcDbVertex
100
AcDb2dVertex
 10
514.0177529999999
 20
409.2524899999999
 30
0.0
  0
VERTEX
  5
1412
330
1408
100
AcDbEntity
  8
SCHRAFFUR_RAND
100
AcDbVertex
100
AcDb2dVertex
 10
513.186753
 20
409.8074899999999
 30
0.0
  0
VERTEX
  5
1413
330
1408
100
AcDbEntity
  8
SCHRAFFUR_RAND
100
AcDbVertex
100
AcDb2dVertex
 10
495.706753
 20
409.94149
 30
0.0
  0
VERTEX
  5
1414
330
1408
100
AcDbEntity
  8
SCHRAFFUR_RAND
100
AcDbVertex
100
AcDb2dVertex
 10
495.457753
 20
408.38749
 30
0.0
  0
VERTEX
  5
1415
330
1408
100
AcDbEntity
  8
SCHRAFFUR_RAND
100
AcDbVertex
100
AcDb2dVertex
 10
494.5777529999999
 20
407.0704899999999
 30
0.0
  0
VERTEX
  5
1416
330
1408
100
AcDbEntity
  8
SCHRAFFUR_RAND
100
AcDbVertex
100
AcDb2dVertex
 10
493.260753
 20
406.19049
 30
0.0
  0
VERTEX
  5
1417
330
1408
100
AcDbEntity
  8
SCHRAFFUR_RAND
100
AcDbVertex
100
AcDb2dVertex
 10
491.706753
 20
405.94149
 30
0.0
  0
VERTEX
  5
1418
330
1408
100
AcDbEntity
  8
SCHRAFFUR_RAND
100
AcDbVertex
100
AcDb2dVertex
 10
491.706753
 20
400.4414899999999
 30
0.0
  0
VERTEX
  5
1419
330
1408
100
AcDbEntity
  8
SCHRAFFUR_RAND
100
AcDbVertex
100
AcDb2dVertex
 10
491.840753
 20
399.46149
 30
0.0
  0
VERTEX
  5
141A
330
1408
100
AcDbEntity
  8
SCHRAFFUR_RAND
100
AcDbVertex
100
AcDb2dVertex
 10
492.395753
 20
398.63049
 30
0.0
  0
VERTEX
  5
141B
330
1408
100
AcDbEntity
  8
SCHRAFFUR_RAND
100
AcDbVertex
100
AcDb2dVertex
 10
493.226753
 20
398.07549
 30
0.0
  0
VERTEX
  5
141C
330
1408
100
AcDbEntity
  8
SCHRAFFUR_RAND
100
AcDbVertex
100
AcDb2dVertex
 10
494.206753
 20
397.94149
 30
0.0
  0
SEQEND
  5
141D
330
1408
100
AcDbEntity
  8
SCHRAFFUR_RAND
  0
INSERT
  5
1424
330
15C4
100
AcDbEntity
  8
8
100
AcDbBlockReference
  2
*X7
 10
-148.704247
 20
-811.4345099999999
 30
0.0
1001
ACAD
1000
HATCH
1002
{
1070
    19
1000
ANSI31,_I
1040
6.349999999999999
1040
0.7850000000000001
1002
}
  0
POLYLINE
  5
1425
330
15C4
100
AcDbEntity
  8
SCHRAFFUR_RAND
100
AcDb2dPolyline
 66
     1
 10
0.0
 20
0.0
 30
0.0
 70
     1
  0
VERTEX
  5
1426
330
1425
100
AcDbEntity
  8
SCHRAFFUR_RAND
100
AcDbVertex
100
AcDb2dVertex
 10
218.185753
 20
409.8074899999999
 30
0.0
  0
VERTEX
  5
1427
330
1425
100
AcDbEntity
  8
SCHRAFFUR_RAND
100
AcDbVertex
100
AcDb2dVertex
 10
201.706753
 20
409.94149
 30
0.0
  0
VERTEX
  5
1428
330
1425
100
AcDbEntity
  8
SCHRAFFUR_RAND
100
AcDbVertex
100
AcDb2dVertex
 10
200.726753
 20
409.8074899999999
 30
0.0
  0
VERTEX
  5
1429
330
1425
100
AcDbEntity
  8
SCHRAFFUR_RAND
100
AcDbVertex
100
AcDb2dVertex
 10
199.895753
 20
409.2524899999999
 30
0.0
  0
VERTEX
  5
142A
330
1425
100
AcDbEntity
  8
SCHRAFFUR_RAND
100
AcDbVertex
100
AcDb2dVertex
 10
199.340753
 20
408.42149
 30
0.0
  0
VERTEX
  5
142B
330
1425
100
AcDbEntity
  8
SCHRAFFUR_RAND
100
AcDbVertex
100
AcDb2dVertex
 10
199.206753
 20
407.4414899999999
 30
0.0
  0
VERTEX
  5
142C
330
1425
100
AcDbEntity
  8
SCHRAFFUR_RAND
100
AcDbVertex
100
AcDb2dVertex
 10
199.206753
 20
400.4414899999999
 30
0.0
  0
VERTEX
  5
142D
330
1425
100
AcDbEntity
  8
SCHRAFFUR_RAND
100
AcDbVertex
100
AcDb2dVertex
 10
199.340753
 20
399.46149
 30
0.0
  0
VERTEX
  5
142E
330
1425
100
AcDbEntity
  8
SCHRAFFUR_RAND
100
AcDbVertex
100
AcDb2dVertex
 10
199.895753
 20
398.63049
 30
0.0
  0
VERTEX
  5
142F
330
1425
100
AcDbEntity
  8
SCHRAFFUR_RAND
100
AcDbVertex
100
AcDb2dVertex
 10
200.726753
 20
398.07549
 30
0.0
  0
VERTEX
  5
1430
330
1425
100
AcDbEntity
  8
SCHRAFFUR_RAND
100
AcDbVertex
100
AcDb2dVertex
 10
201.706753
 20
397.94149
 30
0.0
  0
VERTEX
  5
1431
330
1425
100
AcDbEntity
  8
SCHRAFFUR_RAND
100
AcDbVertex
100
AcDb2dVertex
 10
217.206753
 20
397.94149
 30
0.0
  0
VERTEX
  5
1432
330
1425
100
AcDbEntity
  8
SCHRAFFUR_RAND
100
AcDbVertex
100
AcDb2dVertex
 10
218.186753
 20
398.07549
 30
0.0
  0
VERTEX
  5
1433
330
1425
100
AcDbEntity
  8
SCHRAFFUR_RAND
100
AcDbVertex
100
AcDb2dVertex
 10
219.017753
 20
398.63149
 30
0.0
  0
VERTEX
  5
1434
330
1425
100
AcDbEntity
  8
SCHRAFFUR_RAND
100
AcDbVertex
100
AcDb2dVertex
 10
219.572753
 20
399.46149
 30
0.0
  0
VERTEX
  5
1435
330
1425
100
AcDbEntity
  8
SCHRAFFUR_RAND
100
AcDbVertex
100
AcDb2dVertex
 10
219.706753
 20
400.4414899999999
 30
0.0
  0
VERTEX
  5
1436
330
1425
100
AcDbEntity
  8
SCHRAFFUR_RAND
100
AcDbVertex
100
AcDb2dVertex
 10
219.705753
 20
407.4414899999999
 30
0.0
  0
VERTEX
  5
1437
330
1425
100
AcDbEntity
  8
SCHRAFFUR_RAND
100
AcDbVertex
100
AcDb2dVertex
 10
219.571753
 20
408.42149
 30
0.0
  0
VERTEX
  5
1438
330
1425
100
AcDbEntity
  8
SCHRAFFUR_RAND
100
AcDbVertex
100
AcDb2dVertex
 10
219.016753
 20
409.2524899999999
 30
0.0
  0
VERTEX
  5
1439
330
1425
100
AcDbEntity
  8
SCHRAFFUR_RAND
100
AcDbVertex
100
AcDb2dVertex
 10
218.185753
 20
409.8074899999999
 30
0.0
  0
SEQEND
  5
143A
330
1425
100
AcDbEntity
  8
SCHRAFFUR_RAND
  0
INSERT
  5
1440
330
15C4
100
AcDbEntity
  8
8
100
AcDbBlockReference
  2
*X8
 10
-148.704247
 20
-811.4345099999999
 30
0.0
1001
ACAD
1000
HATCH
1002
{
1070
    19
1000
ANSI31,_I
1040
6.349999999999999
1040
0.7850000000000001
1002
}
  0
POLYLINE
  5
1441
330
15C4
100
AcDbEntity
  8
SCHRAFFUR_RAND
100
AcDb2dPolyline
 66
     1
 10
0.0
 20
0.0
 30
0.0
 70
     1
  0
VERTEX
  5
1442
330
1441
100
AcDbEntity
  8
SCHRAFFUR_RAND
100
AcDbVertex
100
AcDb2dVertex
 10
252.706753
 20
409.94149
 30
0.0
  0
VERTEX
  5
1443
330
1441
100
AcDbEntity
  8
SCHRAFFUR_RAND
100
AcDbVertex
100
AcDb2dVertex
 10
236.205753
 20
409.94149
 30
0.0
  0
VERTEX
  5
1444
330
1441
100
AcDbEntity
  8
SCHRAFFUR_RAND
100
AcDbVertex
100
AcDb2dVertex
 10
235.225753
 20
409.8074899999999
 30
0.0
  0
VERTEX
  5
1445
330
1441
100
AcDbEntity
  8
SCHRAFFUR_RAND
100
AcDbVertex
100
AcDb2dVertex
 10
234.395753
 20
409.2524899999999
 30
0.0
  0
VERTEX
  5
1446
330
1441
100
AcDbEntity
  8
SCHRAFFUR_RAND
100
AcDbVertex
100
AcDb2dVertex
 10
233.840753
 20
408.42149
 30
0.0
  0
VERTEX
  5
1447
330
1441
100
AcDbEntity
  8
SCHRAFFUR_RAND
100
AcDbVertex
100
AcDb2dVertex
 10
233.705753
 20
407.4414899999999
 30
0.0
  0
VERTEX
  5
1448
330
1441
100
AcDbEntity
  8
SCHRAFFUR_RAND
100
AcDbVertex
100
AcDb2dVertex
 10
233.706753
 20
400.4414899999999
 30
0.0
  0
VERTEX
  5
1449
330
1441
100
AcDbEntity
  8
SCHRAFFUR_RAND
100
AcDbVertex
100
AcDb2dVertex
 10
233.840753
 20
399.46149
 30
0.0
  0
VERTEX
  5
144A
330
1441
100
AcDbEntity
  8
SCHRAFFUR_RAND
100
AcDbVertex
100
AcDb2dVertex
 10
234.395753
 20
398.63049
 30
0.0
  0
VERTEX
  5
144B
330
1441
100
AcDbEntity
  8
SCHRAFFUR_RAND
100
AcDbVertex
100
AcDb2dVertex
 10
235.226753
 20
398.07549
 30
0.0
  0
VERTEX
  5
144C
330
1441
100
AcDbEntity
  8
SCHRAFFUR_RAND
100
AcDbVertex
100
AcDb2dVertex
 10
236.206753
 20
397.94149
 30
0.0
  0
VERTEX
  5
144D
330
1441
100
AcDbEntity
  8
SCHRAFFUR_RAND
100
AcDbVertex
100
AcDb2dVertex
 10
254.206753
 20
397.94149
 30
0.0
  0
VERTEX
  5
144E
330
1441
100
AcDbEntity
  8
SCHRAFFUR_RAND
100
AcDbVertex
100
AcDb2dVertex
 10
255.186753
 20
398.07549
 30
0.0
  0
VERTEX
  5
144F
330
1441
100
AcDbEntity
  8
SCHRAFFUR_RAND
100
AcDbVertex
100
AcDb2dVertex
 10
256.016753
 20
398.63049
 30
0.0
  0
VERTEX
  5
1450
330
1441
100
AcDbEntity
  8
SCHRAFFUR_RAND
100
AcDbVertex
100
AcDb2dVertex
 10
256.571753
 20
399.46149
 30
0.0
  0
VERTEX
  5
1451
330
1441
100
AcDbEntity
  8
SCHRAFFUR_RAND
100
AcDbVertex
100
AcDb2dVertex
 10
256.706753
 20
400.4414899999999
 30
0.0
  0
VERTEX
  5
1452
330
1441
100
AcDbEntity
  8
SCHRAFFUR_RAND
100
AcDbVertex
100
AcDb2dVertex
 10
256.706753
 20
405.94149
 30
0.0
  0
VERTEX
  5
1453
330
1441
100
AcDbEntity
  8
SCHRAFFUR_RAND
100
AcDbVertex
100
AcDb2dVertex
 10
255.152753
 20
406.19049
 30
0.0
  0
VERTEX
  5
1454
330
1441
100
AcDbEntity
  8
SCHRAFFUR_RAND
100
AcDbVertex
100
AcDb2dVertex
 10
253.835753
 20
407.0704899999999
 30
0.0
  0
VERTEX
  5
1455
330
1441
100
AcDbEntity
  8
SCHRAFFUR_RAND
100
AcDbVertex
100
AcDb2dVertex
 10
252.954753
 20
408.38749
 30
0.0
  0
VERTEX
  5
1456
330
1441
100
AcDbEntity
  8
SCHRAFFUR_RAND
100
AcDbVertex
100
AcDb2dVertex
 10
252.706753
 20
409.94149
 30
0.0
  0
SEQEND
  5
1457
330
1441
100
AcDbEntity
  8
SCHRAFFUR_RAND
  0
INSERT
  5
145D
330
15C4
100
AcDbEntity
  8
8
100
AcDbBlockReference
  2
*X9
 10
-148.704247
 20
-811.4345099999999
 30
0.0
1001
ACAD
1000
HATCH
1002
{
1070
    19
1000
ANSI31,_I
1040
6.349999999999999
1040
0.7850000000000001
1002
}
  0
POLYLINE
  5
145E
330
15C4
100
AcDbEntity
  8
SCHRAFFUR_RAND
100
AcDb2dPolyline
 66
     1
 10
0.0
 20
0.0
 30
0.0
 70
     1
  0
VERTEX
  5
145F
330
145E
100
AcDbEntity
  8
SCHRAFFUR_RAND
100
AcDbVertex
100
AcDb2dVertex
 10
226.708753
 20
364.30349
 30
0.0
  0
VERTEX
  5
1460
330
145E
100
AcDbEntity
  8
SCHRAFFUR_RAND
100
AcDbVertex
100
AcDb2dVertex
 10
230.723753
 20
365.13349
 30
0.0
  0
VERTEX
  5
1461
330
145E
100
AcDbEntity
  8
SCHRAFFUR_RAND
100
AcDbVertex
100
AcDb2dVertex
 10
234.081753
 20
367.48449
 30
0.0
  0
VERTEX
  5
1462
330
145E
100
AcDbEntity
  8
SCHRAFFUR_RAND
100
AcDbVertex
100
AcDb2dVertex
 10
236.103753
 20
371.02149
 30
0.0
  0
VERTEX
  5
1463
330
145E
100
AcDbEntity
  8
SCHRAFFUR_RAND
100
AcDbVertex
100
AcDb2dVertex
 10
237.954753
 20
381.51749
 30
0.0
  0
VERTEX
  5
1464
330
145E
100
AcDbEntity
  8
SCHRAFFUR_RAND
100
AcDbVertex
100
AcDb2dVertex
 10
238.604753
 20
383.33249
 30
0.0
  0
VERTEX
  5
1465
330
145E
100
AcDbEntity
  8
SCHRAFFUR_RAND
100
AcDbVertex
100
AcDb2dVertex
 10
240.123753
 20
384.56249
 30
0.0
  0
VERTEX
  5
1466
330
145E
100
AcDbEntity
  8
SCHRAFFUR_RAND
100
AcDbVertex
100
AcDb2dVertex
 10
242.033753
 20
384.82049
 30
0.0
  0
VERTEX
  5
1467
330
145E
100
AcDbEntity
  8
SCHRAFFUR_RAND
100
AcDbVertex
100
AcDb2dVertex
 10
252.890753
 20
384.44149
 30
0.0
  0
VERTEX
  5
1468
330
145E
100
AcDbEntity
  8
SCHRAFFUR_RAND
100
AcDbVertex
100
AcDb2dVertex
 10
256.648753
 20
383.85749
 30
0.0
  0
VERTEX
  5
1469
330
145E
100
AcDbEntity
  8
SCHRAFFUR_RAND
100
AcDbVertex
100
AcDb2dVertex
 10
259.869753
 20
381.79549
 30
0.0
  0
VERTEX
  5
146A
330
145E
100
AcDbEntity
  8
SCHRAFFUR_RAND
100
AcDbVertex
100
AcDb2dVertex
 10
262.098753
 20
378.68549
 30
0.0
  0
VERTEX
  5
146B
330
145E
100
AcDbEntity
  8
SCHRAFFUR_RAND
100
AcDbVertex
100
AcDb2dVertex
 10
262.878753
 20
374.96549
 30
0.0
  0
VERTEX
  5
146C
330
145E
100
AcDbEntity
  8
SCHRAFFUR_RAND
100
AcDbVertex
100
AcDb2dVertex
 10
267.2997529999999
 20
290.60949
 30
0.0
  0
VERTEX
  5
146D
330
145E
100
AcDbEntity
  8
SCHRAFFUR_RAND
100
AcDbVertex
100
AcDb2dVertex
 10
268.3837529999999
 20
283.08349
 30
0.0
  0
VERTEX
  5
146E
330
145E
100
AcDbEntity
  8
SCHRAFFUR_RAND
100
AcDbVertex
100
AcDb2dVertex
 10
271.196753
 20
276.00349
 30
0.0
  0
VERTEX
  5
146F
330
145E
100
AcDbEntity
  8
SCHRAFFUR_RAND
100
AcDbVertex
100
AcDb2dVertex
 10
275.468753
 20
269.69749
 30
0.0
  0
VERTEX
  5
1470
330
145E
100
AcDbEntity
  8
SCHRAFFUR_RAND
100
AcDbVertex
100
AcDb2dVertex
 10
281.000753
 20
264.45949
 30
0.0
  0
VERTEX
  5
1471
330
145E
100
AcDbEntity
  8
SCHRAFFUR_RAND
100
AcDbVertex
100
AcDb2dVertex
 10
287.530753
 20
260.53649
 30
0.0
  0
VERTEX
  5
1472
330
145E
100
AcDbEntity
  8
SCHRAFFUR_RAND
100
AcDbVertex
100
AcDb2dVertex
 10
294.752753
 20
258.11349
 30
0.0
  0
VERTEX
  5
1473
330
145E
100
AcDbEntity
  8
SCHRAFFUR_RAND
100
AcDbVertex
100
AcDb2dVertex
 10
302.326753
 20
257.44149
 30
0.0
  0
VERTEX
  5
1474
330
145E
100
AcDbEntity
  8
SCHRAFFUR_RAND
100
AcDbVertex
100
AcDb2dVertex
 10
307.267753
 20
256.81549
 30
0.0
  0
VERTEX
  5
1475
330
145E
100
AcDbEntity
  8
SCHRAFFUR_RAND
100
AcDbVertex
100
AcDb2dVertex
 10
311.737753
 20
254.57549
 30
0.0
  0
VERTEX
  5
1476
330
145E
100
AcDbEntity
  8
SCHRAFFUR_RAND
100
AcDbVertex
100
AcDb2dVertex
 10
315.307753
 20
251.07449
 30
0.0
  0
VERTEX
  5
1477
330
145E
100
AcDbEntity
  8
SCHRAFFUR_RAND
100
AcDbVertex
100
AcDb2dVertex
 10
317.635753
 20
246.64849
 30
0.0
  0
VERTEX
  5
1478
330
145E
100
AcDbEntity
  8
SCHRAFFUR_RAND
100
AcDbVertex
100
AcDb2dVertex
 10
318.356753
 20
241.72049
 30
0.0
  0
VERTEX
  5
1479
330
145E
100
AcDbEntity
  8
SCHRAFFUR_RAND
100
AcDbVertex
100
AcDb2dVertex
 10
319.479753
 20
172.44149
 30
0.0
  0
VERTEX
  5
147A
330
145E
100
AcDbEntity
  8
SCHRAFFUR_RAND
100
AcDbVertex
100
AcDb2dVertex
 10
325.205753
 20
172.45449
 30
0.0
  0
VERTEX
  5
147B
330
145E
100
AcDbEntity
  8
SCHRAFFUR_RAND
100
AcDbVertex
100
AcDb2dVertex
 10
324.856753
 20
197.44149
 30
0.0
  0
VERTEX
  5
147C
330
145E
100
AcDbEntity
  8
SCHRAFFUR_RAND
100
AcDbVertex
100
AcDb2dVertex
 10
324.042753
 20
202.44149
 30
0.0
  0
VERTEX
  5
147D
330
145E
100
AcDbEntity
  8
SCHRAFFUR_RAND
100
AcDbVertex
100
AcDb2dVertex
 10
323.434753
 20
242.10749
 30
0.0
  0
VERTEX
  5
147E
330
145E
100
AcDbEntity
  8
SCHRAFFUR_RAND
100
AcDbVertex
100
AcDb2dVertex
 10
323.434753
 20
244.89649
 30
0.0
  0
VERTEX
  5
147F
330
145E
100
AcDbEntity
  8
SCHRAFFUR_RAND
100
AcDbVertex
100
AcDb2dVertex
 10
323.134753
 20
254.44149
 30
0.0
  0
VERTEX
  5
1480
330
145E
100
AcDbEntity
  8
SCHRAFFUR_RAND
100
AcDbVertex
100
AcDb2dVertex
 10
322.0447529999999
 20
257.44149
 30
0.0
  0
VERTEX
  5
1481
330
145E
100
AcDbEntity
  8
SCHRAFFUR_RAND
100
AcDbVertex
100
AcDb2dVertex
 10
314.010753
 20
257.44149
 30
0.0
  0
VERTEX
  5
1482
330
145E
100
AcDbEntity
  8
SCHRAFFUR_RAND
100
AcDbVertex
100
AcDb2dVertex
 10
313.045753
 20
257.44149
 30
0.0
  0
VERTEX
  5
1483
330
145E
100
AcDbEntity
  8
SCHRAFFUR_RAND
100
AcDbVertex
100
AcDb2dVertex
 10
311.705753
 20
262.44149
 30
0.0
  0
VERTEX
  5
1484
330
145E
100
AcDbEntity
  8
SCHRAFFUR_RAND
100
AcDbVertex
100
AcDb2dVertex
 10
302.251753
 20
262.44149
 30
0.0
  0
VERTEX
  5
1485
330
145E
100
AcDbEntity
  8
SCHRAFFUR_RAND
100
AcDbVertex
100
AcDb2dVertex
 10
295.765753
 20
263.01049
 30
0.0
  0
VERTEX
  5
1486
330
145E
100
AcDbEntity
  8
SCHRAFFUR_RAND
100
AcDbVertex
100
AcDb2dVertex
 10
289.583753
 20
265.09549
 30
0.0
  0
VERTEX
  5
1487
330
145E
100
AcDbEntity
  8
SCHRAFFUR_RAND
100
AcDbVertex
100
AcDb2dVertex
 10
283.994753
 20
268.46349
 30
0.0
  0
VERTEX
  5
1488
330
145E
100
AcDbEntity
  8
SCHRAFFUR_RAND
100
AcDbVertex
100
AcDb2dVertex
 10
279.262753
 20
272.95449
 30
0.0
  0
VERTEX
  5
1489
330
145E
100
AcDbEntity
  8
SCHRAFFUR_RAND
100
AcDbVertex
100
AcDb2dVertex
 10
275.606753
 20
278.35949
 30
0.0
  0
VERTEX
  5
148A
330
145E
100
AcDbEntity
  8
SCHRAFFUR_RAND
100
AcDbVertex
100
AcDb2dVertex
 10
273.200753
 20
284.42349
 30
0.0
  0
VERTEX
  5
148B
330
145E
100
AcDbEntity
  8
SCHRAFFUR_RAND
100
AcDbVertex
100
AcDb2dVertex
 10
272.292753
 20
290.87149
 30
0.0
  0
VERTEX
  5
148C
330
145E
100
AcDbEntity
  8
SCHRAFFUR_RAND
100
AcDbVertex
100
AcDb2dVertex
 10
266.968753
 20
392.44149
 30
0.0
  0
VERTEX
  5
148D
330
145E
100
AcDbEntity
  8
SCHRAFFUR_RAND
100
AcDbVertex
100
AcDb2dVertex
 10
259.942753
 20
392.44149
 30
0.0
  0
VERTEX
  5
148E
330
145E
100
AcDbEntity
  8
SCHRAFFUR_RAND
100
AcDbVertex
100
AcDb2dVertex
 10
231.706753
 20
392.64149
 30
0.0
  0
VERTEX
  5
148F
330
145E
100
AcDbEntity
  8
SCHRAFFUR_RAND
100
AcDbVertex
100
AcDb2dVertex
 10
231.706753
 20
388.64149
 30
0.0
  0
VERTEX
  5
1490
330
145E
100
AcDbEntity
  8
SCHRAFFUR_RAND
100
AcDbVertex
100
AcDb2dVertex
 10
231.707753
 20
382.44149
 30
0.0
  0
VERTEX
  5
1491
330
145E
100
AcDbEntity
  8
SCHRAFFUR_RAND
100
AcDbVertex
100
AcDb2dVertex
 10
231.707753
 20
377.44149
 30
0.0
  0
VERTEX
  5
1492
330
145E
100
AcDbEntity
  8
SCHRAFFUR_RAND
100
AcDbVertex
100
AcDb2dVertex
 10
230.707753
 20
377.44149
 30
0.0
  0
VERTEX
  5
1493
330
145E
100
AcDbEntity
  8
SCHRAFFUR_RAND
100
AcDbVertex
100
AcDb2dVertex
 10
230.707753
 20
372.44149
 30
0.0
  0
VERTEX
  5
1494
330
145E
100
AcDbEntity
  8
SCHRAFFUR_RAND
100
AcDbVertex
100
AcDb2dVertex
 10
226.707753
 20
370.13249
 30
0.0
  0
VERTEX
  5
1495
330
145E
100
AcDbEntity
  8
SCHRAFFUR_RAND
100
AcDbVertex
100
AcDb2dVertex
 10
226.708753
 20
364.30349
 30
0.0
  0
SEQEND
  5
1496
330
145E
100
AcDbEntity
  8
SCHRAFFUR_RAND
  0
INSERT
  5
14B2
330
15C4
100
AcDbEntity
  8
8
100
AcDbBlockReference
  2
*X10
 10
-148.704247
 20
-811.4345099999999
 30
0.0
1001
ACAD
1000
HATCH
1002
{
1070
    19
1000
ANSI31,_I
1040
7.937
1040
2.355999999999999
1002
}
  0
POLYLINE
  5
14B3
330
15C4
100
AcDbEntity
  8
SCHRAFFUR_RAND
100
AcDb2dPolyline
 66
     1
 10
0.0
 20
0.0
 30
0.0
 70
     1
  0
VERTEX
  5
14B4
330
14B3
100
AcDbEntity
  8
SCHRAFFUR_RAND
100
AcDbVertex
100
AcDb2dVertex
 10
221.707753
 20
392.43749
 30
0.0
  0
VERTEX
  5
14B5
330
14B3
100
AcDbEntity
  8
SCHRAFFUR_RAND
100
AcDbVertex
100
AcDb2dVertex
 10
163.422753
 20
392.44149
 30
0.0
  0
VERTEX
  5
14B6
330
14B3
100
AcDbEntity
  8
SCHRAFFUR_RAND
100
AcDbVertex
100
AcDb2dVertex
 10
161.416753
 20
392.06049
 30
0.0
  0
VERTEX
  5
14B7
330
14B3
100
AcDbEntity
  8
SCHRAFFUR_RAND
100
AcDbVertex
100
AcDb2dVertex
 10
159.913753
 20
390.63449
 30
0.0
  0
VERTEX
  5
14B8
330
14B3
100
AcDbEntity
  8
SCHRAFFUR_RAND
100
AcDbVertex
100
AcDb2dVertex
 10
159.426753
 20
388.65049
 30
0.0
  0
VERTEX
  5
14B9
330
14B3
100
AcDbEntity
  8
SCHRAFFUR_RAND
100
AcDbVertex
100
AcDb2dVertex
 10
159.205753
 20
384.44149
 30
0.0
  0
VERTEX
  5
14BA
330
14B3
100
AcDbEntity
  8
SCHRAFFUR_RAND
100
AcDbVertex
100
AcDb2dVertex
 10
195.197753
 20
384.44149
 30
0.0
  0
VERTEX
  5
14BB
330
14B3
100
AcDbEntity
  8
SCHRAFFUR_RAND
100
AcDbVertex
100
AcDb2dVertex
 10
195.436753
 20
385.16649
 30
0.0
  0
VERTEX
  5
14BC
330
14B3
100
AcDbEntity
  8
SCHRAFFUR_RAND
100
AcDbVertex
100
AcDb2dVertex
 10
195.882753
 20
385.78549
 30
0.0
  0
VERTEX
  5
14BD
330
14B3
100
AcDbEntity
  8
SCHRAFFUR_RAND
100
AcDbVertex
100
AcDb2dVertex
 10
196.566753
 20
386.23949
 30
0.0
  0
VERTEX
  5
14BE
330
14B3
100
AcDbEntity
  8
SCHRAFFUR_RAND
100
AcDbVertex
100
AcDb2dVertex
 10
197.376753
 20
386.38049
 30
0.0
  0
VERTEX
  5
14BF
330
14B3
100
AcDbEntity
  8
SCHRAFFUR_RAND
100
AcDbVertex
100
AcDb2dVertex
 10
211.471753
 20
385.88749
 30
0.0
  0
VERTEX
  5
14C0
330
14B3
100
AcDbEntity
  8
SCHRAFFUR_RAND
100
AcDbVertex
100
AcDb2dVertex
 10
213.274753
 20
385.54349
 30
0.0
  0
VERTEX
  5
14C1
330
14B3
100
AcDbEntity
  8
SCHRAFFUR_RAND
100
AcDbVertex
100
AcDb2dVertex
 10
214.412753
 20
384.44149
 30
0.0
  0
VERTEX
  5
14C2
330
14B3
100
AcDbEntity
  8
SCHRAFFUR_RAND
100
AcDbVertex
100
AcDb2dVertex
 10
215.271753
 20
382.58449
 30
0.0
  0
VERTEX
  5
14C3
330
14B3
100
AcDbEntity
  8
SCHRAFFUR_RAND
100
AcDbVertex
100
AcDb2dVertex
 10
217.310753
 20
371.02049
 30
0.0
  0
VERTEX
  5
14C4
330
14B3
100
AcDbEntity
  8
SCHRAFFUR_RAND
100
AcDbVertex
100
AcDb2dVertex
 10
219.334753
 20
367.48449
 30
0.0
  0
VERTEX
  5
14C5
330
14B3
100
AcDbEntity
  8
SCHRAFFUR_RAND
100
AcDbVertex
100
AcDb2dVertex
 10
222.692753
 20
365.13249
 30
0.0
  0
VERTEX
  5
14C6
330
14B3
100
AcDbEntity
  8
SCHRAFFUR_RAND
100
AcDbVertex
100
AcDb2dVertex
 10
226.708753
 20
364.30349
 30
0.0
  0
VERTEX
  5
14C7
330
14B3
100
AcDbEntity
  8
SCHRAFFUR_RAND
100
AcDbVertex
100
AcDb2dVertex
 10
226.707753
 20
370.13249
 30
0.0
  0
VERTEX
  5
14C8
330
14B3
100
AcDbEntity
  8
SCHRAFFUR_RAND
100
AcDbVertex
100
AcDb2dVertex
 10
222.708753
 20
372.44149
 30
0.0
  0
VERTEX
  5
14C9
330
14B3
100
AcDbEntity
  8
SCHRAFFUR_RAND
100
AcDbVertex
100
AcDb2dVertex
 10
222.707753
 20
377.44149
 30
0.0
  0
VERTEX
  5
14CA
330
14B3
100
AcDbEntity
  8
SCHRAFFUR_RAND
100
AcDbVertex
100
AcDb2dVertex
 10
221.708753
 20
377.44149
 30
0.0
  0
VERTEX
  5
14CB
330
14B3
100
AcDbEntity
  8
SCHRAFFUR_RAND
100
AcDbVertex
100
AcDb2dVertex
 10
221.707753
 20
382.44049
 30
0.0
  0
VERTEX
  5
14CC
330
14B3
100
AcDbEntity
  8
SCHRAFFUR_RAND
100
AcDbVertex
100
AcDb2dVertex
 10
221.707753
 20
388.64149
 30
0.0
  0
VERTEX
  5
14CD
330
14B3
100
AcDbEntity
  8
SCHRAFFUR_RAND
100
AcDbVertex
100
AcDb2dVertex
 10
221.707753
 20
392.43749
 30
0.0
  0
SEQEND
  5
14CE
330
14B3
100
AcDbEntity
  8
SCHRAFFUR_RAND
  0
INSERT
  5
14D8
330
15C4
100
AcDbEntity
  8
8
100
AcDbBlockReference
  2
*X11
 10
-148.704247
 20
-811.4345099999999
 30
0.0
1001
ACAD
1000
HATCH
1002
{
1070
    19
1000
ANSI31,_I
1040
7.937
1040
2.355999999999999
1002
}
  0
DIMENSION
  5
14EB
330
15C4
100
AcDbEntity
  8
5
100
AcDbDimension
  2
*D19
 10
503.1597529999999
 20
257.44149
 30
0.0
 11
503.1597529999999
 21
213.15049
 31
0.0
 70
   160
  1
 85 
 71
     5
 42
-1.0
  3
GEN-ISO
100
AcDbAlignedDimension
 13
503.1597529999999
 23
172.44149
 33
0.0
 14
446.086753
 24
257.44149
 34
0.0
 50
90.0
100
AcDbRotatedDimension
1001
GENIUS_GENDTOL_13
1000

1000
h7
1000

1040
0.0
1000
 85 
1001
ACAD
1000
DSTYLE
1002
{
1070
    78
1070
    12
1002
}
  0
INSERT
  5
165C
330
15C4
100
AcDbEntity
  8
0
100
AcDbBlockReference
  2
KATALOG_LEER
 10
251.839706
 20
11.304483
 30
0.0
 41
5.0
 42
5.0
 43
5.0
1001
GENIUS_GENOREF_13
1005
165D
  0
POINT
  5
165D
330
15C4
100
AcDbEntity
  8
0
 60
     1
100
AcDbPoint
 10
0.0
 20
0.0
 30
0.0
1001
GENIUS_GENOBJ-N-TIT_13
1002
{
1000
OWNER
1000
GEN
1002
}
1001
GENIUS_GENOENT_13
1002
{
1000
MYREF
1005
165D
1002
}
1002
{
1000
GRP
1005
0
1002
}
1001
GENIUS_GENOLIS_13
1002
{
1000
ENT
1005
165C
1002
}
1001
GENIUS_GENTITLE_13
1002
{
1000
SCALE
1000
1:5
1002
}
1002
{
1000
BORDER
1000
KATALOG
1002
}
1002
{
1000
TITLE
1000
KATALOG_LEER
1002
}
1002
{
1000
UNCHG
1002
{
1000
GEN-TITLE-SCA
1000
GEN-TITLE-SIZ
1002
}
1002
}
1002
{
1000
HRA
1005
1655
1002
}
1002
{
1000
HTIT
1005
165C
1002
}
1002
{
1000
GENIUSID
1005
165D
1002
}
1001
GENIUS_GENODEF_13
1002
{
1000
HIER
1070
     1
1002
}
1002
{
1000
MANEDIT
1070
     1
1002
}
1002
{
1000
NOSEL
1070
     0
1002
}
1002
{
1000
BEHIND
1070
     0
1002
}
1002
{
1000
REACTOR
1002
}
  0
LINE
  5
175A
330
15C4
100
AcDbEntity
  8
5
100
AcDbLine
 10
531.2793809999999
 20
419.305693
 30
0.0
 11
577.03717
 21
450.762134
 31
0.0
  0
LINE
  5
175B
330
15C4
100
AcDbEntity
  8
5
100
AcDbLine
 10
673.956208
 20
521.2406999999999
 30
0.0
 11
686.046588
 21
521.2406999999999
 31
0.0
  0
LINE
  5
175C
330
15C4
100
AcDbEntity
  8
5
100
AcDbLine
 10
671.1047049999999
 20
525.7945839999999
 30
0.0
 11
688.8980899999999
 21
525.7945839999999
 31
0.0
  0
LINE
  5
175D
330
15C4
100
AcDbEntity
  8
5
100
AcDbLine
 10
676.6936519999999
 20
516.8689699999999
 30
0.0
 11
683.309144
 21
516.8689699999999
 31
0.0
  0
LINE
  5
175E
330
15C4
100
AcDbEntity
  8
5
100
AcDbLine
 10
680.001398
 20
525.7945839999999
 30
0.0
 11
680.001398
 21
534.3558889999999
 31
0.0
  0
LINE
  5
175F
330
15C4
100
AcDbEntity
  8
5
100
AcDbLine
 10
603.133193
 20
468.701988
 30
0.0
 11
670.5805179999999
 21
515.0690179999998
 31
0.0
  0
ENDSEC
  0
SECTION
  2
OBJECTS
  0
DICTIONARY
  5
15B8
330
0
100
AcDbDictionary
281
     1
  3
ACAD_COLOR
350
17DA
  3
ACAD_GROUP
350
15B9
  3
ACAD_LAYOUT
350
17DD
  3
ACAD_MATERIAL
350
17D9
  3
ACAD_MLINESTYLE
350
15C7
  3
ACAD_PLOTSETTINGS
350
17DE
  3
ACAD_PLOTSTYLENAME
350
17D7
  3
ACAD_TABLESTYLE
350
17DB
  3
ACDBHEADERROUNDTRIPXREC
350
18BE
  3
AcDbVariableDictionary
350
18B1
  3
AcmDictionary
350
183C
  3
AMG
350
17E2
  3
AMGSNAPSETTINGS
350
18A9
  0
DICTIONARY
  5
17DA
102
{ACAD_REACTORS
330
15B8
102
}
330
15B8
100
AcDbDictionary
281
     1
  0
DICTIONARY
  5
15B9
102
{ACAD_REACTORS
330
15B8
102
}
330
15B8
100
AcDbDictionary
281
     1
  0
DICTIONARY
  5
17DD
102
{ACAD_REACTORS
330
15B8
102
}
330
15B8
100
AcDbDictionary
281
     1
  3
Layout1
350
17E0
  3
Model
350
17DF
  0
DICTIONARY
  5
17D9
102
{ACAD_REACTORS
330
15B8
102
}
330
15B8
100
AcDbDictionary
281
     1
  0
DICTIONARY
  5
15C7
102
{ACAD_REACTORS
330
15B8
102
}
330
15B8
100
AcDbDictionary
281
     1
  3
STANDARD
350
15C8
  0
DICTIONARY
  5
17DE
102
{ACAD_REACTORS
330
15B8
102
}
330
15B8
100
AcDbDictionary
281
     1
  0
ACDBDICTIONARYWDFLT
  5
17D7
102
{ACAD_REACTORS
330
15B8
102
}
330
15B8
100
AcDbDictionary
281
     1
  3
Normal
350
17D8
100
AcDbDictionaryWithDefault
340
17D8
  0
DICTIONARY
  5
17DB
102
{ACAD_REACTORS
330
15B8
102
}
330
15B8
100
AcDbDictionary
281
     1
  3
Standard
350
17DC
  0
DICTIONARY
  5
18BE
102
{ACAD_REACTORS
330
15B8
102
}
330
15B8
100
AcDbDictionary
281
     1
  0
DICTIONARY
  5
18B1
102
{ACAD_REACTORS
330
15B8
102
}
330
15B8
100
AcDbDictionary
281
     1
  3
CTABLESTYLE
350
18B2
  3
DIMASSOC
350
18BB
  3
PROJECTNAME
350
18BC
  0
DICTIONARY
  5
183C
102
{ACAD_REACTORS
330
15B8
102
}
330
15B8
100
AcDbDictionary
281
     1
  3
AcmStdDictionary
350
1847
  3
AMDTSECTSYM_ARROWCOLOR
350
186A
  0
DICTIONARY
  5
17E2
102
{ACAD_REACTORS
330
15B8
102
}
330
15B8
100
AcDbDictionary
281
     1
  0
DICTIONARY
  5
18A9
102
{ACAD_REACTORS
330
15B8
102
}
330
15B8
100
AcDbDictionary
281
     1
  0
LAYOUT
  5
17E0
102
{ACAD_XDICTIONARY
360
18C1
102
}
102
{ACAD_REACTORS
330
17DD
102
}
330
17DD
100
AcDbPlotSettings
  1

  2
Xerox Document Centre CS50 PS
  4

  6

 40
0.0
 41
0.0
 42
0.0
 43
0.0
 44
0.0
 45
0.0
 46
0.0
 47
0.0
 48
0.0
 49
0.0
140
0.0
141
0.0
142
1.0
143
1.0
 70
   688
 72
     0
 73
     0
 74
     5
  7

 75
    16
147
1.0
148
0.0
149
0.0
100
AcDbLayout
  1
Layout1
 70
     1
 71
     1
 10
0.0
 20
0.0
 11
210.001
 21
297.001
 12
0.0
 22
0.0
 32
0.0
 14
0.0
 24
0.0
 34
0.0
 15
210.001
 25
297.001
 35
0.0
146
0.0
 13
0.0
 23
0.0
 33
0.0
 16
1.0
 26
0.0
 36
0.0
 17
0.0
 27
1.0
 37
0.0
 76
     0
330
15C1
  0
LAYOUT
  5
17DF
102
{ACAD_XDICTIONARY
360
18BF
102
}
102
{ACAD_REACTORS
330
17DD
102
}
330
17DD
100
AcDbPlotSettings
  1

  2
Xerox Document Centre CS50 PS
  4

  6

 40
0.0
 41
0.0
 42
0.0
 43
0.0
 44
0.0
 45
0.0
 46
0.0
 47
0.0
 48
0.0
 49
0.0
140
0.0
141
0.0
142
1.0
143
1.0
 70
  1712
 72
     0
 73
     0
 74
     0
  7

 75
     0
147
1.0
148
0.0
149
0.0
100
AcDbLayout
  1
Model
 70
     1
 71
     0
 10
0.0
 20
0.0
 11
12.0
 21
9.0
 12
0.0
 22
0.0
 32
0.0
 14
0.0
 24
0.0
 34
0.0
 15
0.0
 25
0.0
 35
0.0
146
0.0
 13
0.0
 23
0.0
 33
0.0
 16
1.0
 26
0.0
 36
0.0
 17
0.0
 27
1.0
 37
0.0
 76
     0
330
15C4
  0
MLINESTYLE
  5
15C8
102
{ACAD_REACTORS
330
15C7
102
}
330
15C7
100
AcDbMlineStyle
  2
STANDARD
 70
     0
  3

 62
   256
 51
90.0
 52
90.0
 71
     2
 49
0.5
 62
   256
  6
BYLAYER
 49
-0.5
 62
   256
  6
BYLAYER
  0
ACDBPLACEHOLDER
  5
17D8
102
{ACAD_REACTORS
330
17D7
102
}
330
17D7
  0
TABLESTYLE
  5
17DC
102
{ACAD_REACTORS
330
17DB
102
}
330
17DB
100
AcDbTableStyle
  3
Standard
 70
     0
 71
     0
 40
1.5
 41
1.5
280
     0
281
     0
  7
STANDARD
140
4.5
170
     2
 62
     0
 63
     7
283
     0
274
    -2
284
     1
 64
     0
275
    -2
285
     1
 65
     0
276
    -2
286
     1
 66
     0
277
    -2
287
     1
 67
     0
278
    -2
288
     1
 68
     0
279
    -2
289
     1
 69
     0
  7
STANDARD
140
6.0
170
     5
 62
     0
 63
     7
283
     0
274
    -2
284
     1
 64
     0
275
    -2
285
     1
 65
     0
276
    -2
286
     1
 66
     0
277
    -2
287
     1
 67
     0
278
    -2
288
     1
 68
     0
279
    -2
289
     1
 69
     0
  7
STANDARD
140
4.5
170
     5
 62
     0
 63
     7
283
     0
274
    -2
284
     1
 64
     0
275
    -2
285
     1
 65
     0
276
    -2
286
     1
 66
     0
277
    -2
287
     1
 67
     0
278
    -2
288
     1
 68
     0
279
    -2
289
     1
 69
     0
  0
DICTIONARYVAR
  5
18B2
102
{ACAD_REACTORS
330
18B1
102
}
330
18B1
100
DictionaryVariables
280
     0
  1
STANDARD
  0
DICTIONARYVAR
  5
18BB
102
{ACAD_REACTORS
330
18B1
102
}
330
18B1
100
DictionaryVariables
280
     0
  1
1
  0
DICTIONARYVAR
  5
18BC
102
{ACAD_REACTORS
330
18B1
102
}
330
18B1
100
DictionaryVariables
280
     0
  1

  0
DICTIONARY
  5
1847
102
{ACAD_REACTORS
330
183C
102
}
330
183C
100
AcDbDictionary
281
     1
  0
XRECORD
  5
186A
102
{ACAD_REACTORS
330
183C
102
}
330
183C
100
AcDbXrecord
280
     1
 90
-1023410169
  0
DICTIONARY
  5
18C1
330
17E0
100
AcDbDictionary
280
     1
281
     1
  3
ACAD_XREC_ROUNDTRIP
360
18C2
  0
DICTIONARY
  5
18BF
330
17DF
100
AcDbDictionary
280
     1
281
     1
  3
ACAD_XREC_ROUNDTRIP
360
18C0
  0
XRECORD
  5
18C2
102
{ACAD_REACTORS
330
18C1
102
}
330
18C1
100
AcDbXrecord
280
     1
102
SHADEPLOT
 70
     0
102
SHADEPLOTRESLEVEL
 70
     2
102
SHADEPLOTCUSTOMDPI
 70
   300
  0
XRECORD
  5
18C0
102
{ACAD_REACTORS
330
18BF
102
}
330
18BF
100
AcDbXrecord
280
     1
102
SHADEPLOT
 70
     0
102
SHADEPLOTRESLEVEL
 70
     2
102
SHADEPLOTCUSTOMDPI
 70
   300
  0
ENDSEC
  0
EOF
