  0
SECTION
  2
HEADER
  9
$ACADVER
  1
AC1015
  9
$ACADMAINTVER
 70
    20
  9
$DWGCODEPAGE
  3
ANSI_1252
  9
$INSBASE
 10
0.0
 20
0.0
 30
0.0
  9
$EXTMIN
 10
2197.89123912985
 20
1028.966440827206
 30
0.0
  9
$EXTMAX
 10
2573.10878213258
 20
1609.137440827206
 30
0.0
  9
$LIMMIN
 10
2168.063895320436
 20
1062.395507378519
  9
$LIMMAX
 10
3008.063895320436
 20
1656.395507378519
  9
$ORTHOMODE
 70
     1
  9
$REGENMODE
 70
     1
  9
$FILLMODE
 70
     1
  9
$QTEXTMODE
 70
     0
  9
$MIRRTEXT
 70
     1
  9
$LTSCALE
 40
2.0
  9
$ATTMODE
 70
     1
  9
$TEXTSIZE
 40
2.5
  9
$TRACEWID
 40
1.0
  9
$TEXTSTYLE
  7
STANDARD
  9
$CLAYER
  8
0
  9
$CELTYPE
  6
ByLayer
  9
$CECOLOR
 62
   256
  9
$CELTSCALE
 40
1.0
  9
$DISPSILH
 70
     0
  9
$DIMSCALE
 40
1.0
  9
$DIMASZ
 40
2.5
  9
$DIMEXO
 40
1.0
  9
$DIMDLI
 40
10.0
  9
$DIMRND
 40
0.0
  9
$DIMDLE
 40
0.0
  9
$DIMEXE
 40
1.0
  9
$DIMTP
 40
0.1
  9
$DIMTM
 40
0.1
  9
$DIMTXT
 40
3.5
  9
$DIMCEN
 40
0.0
  9
$DIMTSZ
 40
0.0
  9
$DIMTOL
 70
     0
  9
$DIMLIM
 70
     0
  9
$DIMTIH
 70
     0
  9
$DIMTOH
 70
     0
  9
$DIMSE1
 70
     0
  9
$DIMSE2
 70
     0
  9
$DIMTAD
 70
     1
  9
$DIMZIN
 70
     8
  9
$DIMBLK
  1

  9
$DIMASO
 70
     1
  9
$DIMSHO
 70
     1
  9
$DIMPOST
  1

  9
$DIMAPOST
  1
"
  9
$DIMALT
 70
     0
  9
$DIMALTD
 70
     2
  9
$DIMALTF
 40
0.0393701
  9
$DIMLFAC
 40
1.0
  9
$DIMTOFL
 70
     1
  9
$DIMTVP
 40
0.0
  9
$DIMTIX
 70
     0
  9
$DIMSOXD
 70
     0
  9
$DIMSAH
 70
     0
  9
$DIMBLK1
  1

  9
$DIMBLK2
  1

  9
$DIMSTYLE
  2
AM_ISO
  9
$DIMCLRD
 70
   256
  9
$DIMCLRE
 70
   256
  9
$DIMCLRT
 70
     2
  9
$DIMTFAC
 40
0.71
  9
$DIMGAP
 40
1.5
  9
$DIMJUST
 70
     0
  9
$DIMSD1
 70
     0
  9
$DIMSD2
 70
     0
  9
$DIMTOLJ
 70
     0
  9
$DIMTZIN
 70
     8
  9
$DIMALTZ
 70
     0
  9
$DIMALTTZ
 70
     0
  9
$DIMUPT
 70
     0
  9
$DIMDEC
 70
     2
  9
$DIMTDEC
 70
     3
  9
$DIMALTU
 70
     2
  9
$DIMALTTD
 70
     4
  9
$DIMTXSTY
  7
STANDARD
  9
$DIMAUNIT
 70
     0
  9
$DIMADEC
 70
     0
  9
$DIMALTRND
 40
0.0
  9
$DIMAZIN
 70
     2
  9
$DIMDSEP
 70
    46
  9
$DIMATFIT
 70
     3
  9
$DIMFRAC
 70
     0
  9
$DIMLDRBLK
  1

  9
$DIMLUNIT
 70
     2
  9
$DIMLWD
 70
    -1
  9
$DIMLWE
 70
    -1
  9
$DIMTMOVE
 70
     0
  9
$LUNITS
 70
     2
  9
$LUPREC
 70
     2
  9
$SKETCHINC
 40
1.0
  9
$FILLETRAD
 40
0.0
  9
$AUNITS
 70
     0
  9
$AUPREC
 70
     0
  9
$MENU
  1
.
  9
$ELEVATION
 40
0.0
  9
$PELEVATION
 40
0.0
  9
$THICKNESS
 40
0.0
  9
$LIMCHECK
 70
     0
  9
$CHAMFERA
 40
5.0
  9
$CHAMFERB
 40
5.0
  9
$CHAMFERC
 40
20.0
  9
$CHAMFERD
 40
0.0
  9
$SKPOLY
 70
     0
  9
$TDCREATE
 40
2454537.396400231
  9
$TDUCREATE
 40
2454537.313066899
  9
$TDUPDATE
 40
2457641.432548125
  9
$TDUUPDATE
 40
2457641.349214792
  9
$TDINDWG
 40
0.3363577894
  9
$TDUSRTIMER
 40
0.3363433218
  9
$USRTIMER
 70
     1
  9
$ANGBASE
 50
0.0
  9
$ANGDIR
 70
     0
  9
$PDMODE
 70
     0
  9
$PDSIZE
 40
0.0
  9
$PLINEWID
 40
0.0
  9
$SPLFRAME
 70
     0
  9
$SPLINETYPE
 70
     6
  9
$SPLINESEGS
 70
     8
  9
$HANDSEED
  5
24B7
  9
$SURFTAB1
 70
     6
  9
$SURFTAB2
 70
     6
  9
$SURFTYPE
 70
     6
  9
$SURFU
 70
     6
  9
$SURFV
 70
     6
  9
$UCSBASE
  2

  9
$UCSNAME
  2

  9
$UCSORG
 10
0.0
 20
0.0
 30
0.0
  9
$UCSXDIR
 10
1.0
 20
0.0
 30
0.0
  9
$UCSYDIR
 10
0.0
 20
1.0
 30
0.0
  9
$UCSORTHOREF
  2

  9
$UCSORTHOVIEW
 70
     0
  9
$UCSORGTOP
 10
0.0
 20
0.0
 30
0.0
  9
$UCSORGBOTTOM
 10
0.0
 20
0.0
 30
0.0
  9
$UCSORGLEFT
 10
0.0
 20
0.0
 30
0.0
  9
$UCSORGRIGHT
 10
0.0
 20
0.0
 30
0.0
  9
$UCSORGFRONT
 10
0.0
 20
0.0
 30
0.0
  9
$UCSORGBACK
 10
0.0
 20
0.0
 30
0.0
  9
$PUCSBASE
  2

  9
$PUCSNAME
  2

  9
$PUCSORG
 10
0.0
 20
0.0
 30
0.0
  9
$PUCSXDIR
 10
1.0
 20
0.0
 30
0.0
  9
$PUCSYDIR
 10
0.0
 20
1.0
 30
0.0
  9
$PUCSORTHOREF
  2

  9
$PUCSORTHOVIEW
 70
     0
  9
$PUCSORGTOP
 10
0.0
 20
0.0
 30
0.0
  9
$PUCSORGBOTTOM
 10
0.0
 20
0.0
 30
0.0
  9
$PUCSORGLEFT
 10
0.0
 20
0.0
 30
0.0
  9
$PUCSORGRIGHT
 10
0.0
 20
0.0
 30
0.0
  9
$PUCSORGFRONT
 10
0.0
 20
0.0
 30
0.0
  9
$PUCSORGBACK
 10
0.0
 20
0.0
 30
0.0
  9
$USERI1
 70
     0
  9
$USERI2
 70
     0
  9
$USERI3
 70
     0
  9
$USERI4
 70
     0
  9
$USERI5
 70
     0
  9
$USERR1
 40
0.0
  9
$USERR2
 40
0.0
  9
$USERR3
 40
0.0
  9
$USERR4
 40
0.0
  9
$USERR5
 40
0.0
  9
$WORLDVIEW
 70
     1
  9
$SHADEDGE
 70
     3
  9
$SHADEDIF
 70
    70
  9
$TILEMODE
 70
     1
  9
$MAXACTVP
 70
    64
  9
$PINSBASE
 10
0.0
 20
0.0
 30
0.0
  9
$PLIMCHECK
 70
     0
  9
$PEXTMIN
 10
1.000000000000000E+20
 20
1.000000000000000E+20
 30
1.000000000000000E+20
  9
$PEXTMAX
 10
-1.000000000000000E+20
 20
-1.000000000000000E+20
 30
-1.000000000000000E+20
  9
$PLIMMIN
 10
-3.757080078125
 20
-3.757083415985106
  9
$PLIMMAX
 10
293.2112426757813
 20
206.2162442207336
  9
$UNITMODE
 70
     0
  9
$VISRETAIN
 70
     1
  9
$PLINEGEN
 70
     0
  9
$PSLTSCALE
 70
     1
  9
$TREEDEPTH
 70
  3020
  9
$CMLSTYLE
  2
Standard
  9
$CMLJUST
 70
     0
  9
$CMLSCALE
 40
20.0
  9
$PROXYGRAPHICS
 70
     1
  9
$MEASUREMENT
 70
     1
  9
$CELWEIGHT
370
    -1
  9
$ENDCAPS
280
     0
  9
$JOINSTYLE
280
     0
  9
$LWDISPLAY
290
     0
  9
$INSUNITS
 70
     4
  9
$HYPERLINKBASE
  1

  9
$STYLESHEET
  1
MONOCHROME.CTB
  9
$XEDIT
290
     1
  9
$CEPSNTYPE
380
     0
  9
$PSTYLEMODE
290
     1
  9
$FINGERPRINTGUID
  2
{DCEDE49B-F5A6-419E-B094-A9639AEDE537}
  9
$VERSIONGUID
  2
{25D200DF-25DC-4246-8BA5-B9C482DD85A8}
  9
$EXTNAMES
290
     1
  9
$PSVPSCALE
 40
0.0
  9
$OLESTARTUP
290
     0
  0
ENDSEC
  0
SECTION
  2
CLASSES
  0
CLASS
  1
ACDBDICTIONARYWDFLT
  2
AcDbDictionaryWithDefault
  3
ObjectDBX Classes
 90
        0
280
     0
281
     0
  0
CLASS
  1
ACDBPLACEHOLDER
  2
AcDbPlaceHolder
  3
ObjectDBX Classes
 90
        0
280
     0
281
     0
  0
CLASS
  1
LAYOUT
  2
AcDbLayout
  3
ObjectDBX Classes
 90
        0
280
     0
281
     0
  0
CLASS
  1
ACME_DOCUMENT
  2
AcMeDbDoc
  3
AcMeServices
 90
     1024
280
     0
281
     0
  0
CLASS
  1
AMGSETTINGSOBJ
  2
AmgSettingsObj
  3
"AcadM|Product Description: AutoCAD Mechanical|Company: Autodesk, Inc."
 90
     1024
280
     0
281
     0
  0
CLASS
  1
ACMESCOPE
  2
AcMeScope
  3
AcMeServices
 90
     1024
280
     0
281
     0
  0
CLASS
  1
ACMECOMMANDHISTORY
  2
AcMeCommandHistory
  3
AcMeServices
 90
     1024
280
     0
281
     0
  0
CLASS
  1
ACIMSYSVARMAN
  2
AcImSysVarManager
  3
AcMeServices
 90
     1024
280
     0
281
     0
  0
CLASS
  1
ACIMREALSYSVAR
  2
AcImRealSysVar
  3
AcMeServices
 90
    33792
280
     0
281
     0
  0
CLASS
  1
ACIMINTSYSVAR
  2
AcImIntSysVar
  3
AcMeServices
 90
     1024
280
     0
281
     0
  0
CLASS
  1
ACMEDRAWINGMAN
  2
AcMeDrawingMan
  3
AcMeServices
 90
    33792
280
     0
281
     0
  0
CLASS
  1
ACMEVIEW
  2
AcMeView
  3
AcMeServices
 90
    33792
280
     0
281
     0
  0
CLASS
  1
ACDBENTITYCACHE
  2
AcMeEntityCache
  3
AcMeServices
 90
     1024
280
     0
281
     0
  0
CLASS
  1
GSMANAGER
  2
AcMeGSManager
  3
AcMeServices
 90
    33792
280
     0
281
     0
  0
CLASS
  1
AMDTINTERNALREACTOR
  2
AmdtInternalReactor
  3
AcMeServices
 90
    33792
280
     0
281
     0
  0
CLASS
  1
ACMESTATEMGR
  2
AcMeStateMgr
  3
AcMeServices
 90
     1024
280
     0
281
     0
  0
CLASS
  1
ACGREFMASTER
  2
AcGrefMaster
  3
AcAttribServices
 90
     1024
280
     0
281
     0
  0
CLASS
  1
ACME_DATABASE
  2
AcMeDbDatabase
  3
AcMeServices
 90
     1024
280
     0
281
     0
  0
CLASS
  1
ACRFINSADJUSTERMGR
  2
AcRfInsAdjusterMgr
  3
AcMeServices
 90
     1024
280
     0
281
     0
  0
CLASS
  1
ACGREFACADMASTER
  2
AcGrefacadMaster
  3
AcGrefServices
 90
     1024
280
     0
281
     0
  0
CLASS
  1
AMIMASTER
  2
AmiMaster
  3
AmiServices
 90
     1024
280
     0
281
     0
  0
CLASS
  1
ACMDATADICTIONARY
  2
AcmDataDictionary
  3
"AcmSymBB|Product Description: AutoCAD Mechanical|Company: Autodesk, Inc."
 90
     1024
280
     0
281
     0
  0
CLASS
  1
ACMDATAENTRYBLOCK
  2
AcmDataEntryBlock
  3
AcmSymBB|Product Description: AutoCAD Mechanical|Company: Autodesk, Inc.
 90
    33792
280
     0
281
     0
  0
CLASS
  1
ACIMSTRSYSVAR
  2
AcImStrSysVar
  3
AcMeServices
 90
     1024
280
     0
281
     0
  0
CLASS
  1
ACMSTANDARDISO
  2
AcmStandardISO
  3
"Amdt_StdImp|Product Description: AutoCAD Mechanical|Company: Autodesk, Inc."
 90
     1024
280
     0
281
     0
  0
CLASS
  1
AMGOBJPROPCFG
  2
AmgObjPropCfg
  3
"AmgLay|Product Description: AutoCAD Mechanical|Company: Autodesk, Inc."
 90
     1024
280
     0
281
     0
  0
CLASS
  1
AMDTEDGESTANDARDISO
  2
AmdtEdgeStdISO
  3
"Amdt_StdImp|Product Description: AutoCAD Mechanical|Company: Autodesk, Inc."
 90
    33792
280
     0
281
     0
  0
CLASS
  1
ACMSURFSTANDARDISO
  2
AcmSurfTextStdISO
  3
"Amdt_StdImp|Product Description: AutoCAD Mechanical|Company: Autodesk, Inc."
 90
    33792
280
     0
281
     0
  0
CLASS
  1
ACMFCFSTANDARDISO
  2
AcmFCFStdISO
  3
"Amdt_StdImp|Product Description: AutoCAD Mechanical|Company: Autodesk, Inc."
 90
    33792
280
     0
281
     0
  0
CLASS
  1
ACMWELDSTANDARDISO
  2
AcmWeldingStdISO
  3
"Amdt_StdImp|Product Description: AutoCAD Mechanical|Company: Autodesk, Inc."
 90
     1024
280
     0
281
     0
  0
CLASS
  1
ACMIDSTANDARDISO
  2
AcmIdStdISO
  3
"Amdt_StdImp|Product Description: AutoCAD Mechanical|Company: Autodesk, Inc."
 90
    33792
280
     0
281
     0
  0
CLASS
  1
ACMDATUMSTANDARDISO
  2
AcmDatumStdISO
  3
"Amdt_StdImp|Product Description: AutoCAD Mechanical|Company: Autodesk, Inc."
 90
     1024
280
     0
281
     0
  0
CLASS
  1
ACMBOMSTANDARDISO
  2
AcmBOMStdISO
  3
"Amdt_StdImp|Product Description: AutoCAD Mechanical|Company: Autodesk, Inc."
 90
     1024
280
     0
281
     0
  0
CLASS
  1
ACMDETAILSTANDARDISO
  2
AmdtDetailSymStdISO
  3
"Amdt_StdImp|Product Description: AutoCAD Mechanical|Company: Autodesk, Inc."
 90
     1024
280
     0
281
     0
  0
CLASS
  1
ACMSECTIONSTANDARDISO
  2
AmdtSectionSymStdISO
  3
"Amdt_StdImp|Product Description: AutoCAD Mechanical|Company: Autodesk, Inc."
 90
    33792
280
     0
281
     0
  0
CLASS
  1
ACMCENTERLINESTANDARDISO
  2
AmdtCenterLineStdISO
  3
"Amdt_StdImp|Product Description: AutoCAD Mechanical|Company: Autodesk, Inc."
 90
     1024
280
     0
281
     0
  0
CLASS
  1
ACMNOTESTANDARDISO
  2
AmdtNoteStdISO
  3
"Amdt_StdImp|Product Description: AutoCAD Mechanical|Company: Autodesk, Inc."
 90
     1024
280
     0
281
     0
  0
CLASS
  1
ACAMGLAYSTD
  2
AcAmgLayStd
  3
"AmgLay|Product Description: AutoCAD Mechanical|Company: Autodesk, Inc."
 90
     1024
280
     0
281
     0
  0
CLASS
  1
ACAMGDIMSTD
  2
AcAmgDimStd
  3
"AmgDim|Product Description: AutoCAD Mechanical|Company: Autodesk, Inc."
 90
     1024
280
     0
281
     0
  0
CLASS
  1
ACAMGHOLECHARTSTDISO
  2
AcAmgHoleChartStdISO
  3
AmgDim|Product Description: AutoCAD Mechanical|Company: Autodesk, Inc.
 90
     1024
280
     0
281
     0
  0
CLASS
  1
ACAMGTITLESTD
  2
AcAmgTitleStd
  3
"AmgTitle|Product Description: AutoCAD Mechanical|Company: Autodesk, Inc."
 90
     1024
280
     0
281
     0
  0
CLASS
  1
LAYER_INDEX
  2
AcDbLayerIndex
  3
ObjectDBX Classes
 90
    32768
280
     0
281
     0
  0
CLASS
  1
IDBUFFER
  2
AcDbIdBuffer
  3
ObjectDBX Classes
 90
    32768
280
     0
281
     0
  0
CLASS
  1
DICTIONARYVAR
  2
AcDbDictionaryVar
  3
ObjectDBX Classes
 90
        0
280
     0
281
     0
  0
CLASS
  1
AM_DRAWING_MGR
  2
AcDmDwgMgr
  3
AcMechDwgViewMgmt
 90
    33792
280
     0
281
     0
  0
CLASS
  1
AM_DWG_DOCUMENT
  2
AcDmDwgDocument
  3
AcMechDwgViewMgmt
 90
    33792
280
     0
281
     0
  0
CLASS
  1
AM_DWG_SHEET
  2
AcDmSheet
  3
AcMechDwgViewMgmt
 90
    33792
280
     0
281
     0
  0
CLASS
  1
AM_VIEWDIMPARMAP
  2
AcDmViewDimParMap
  3
AcMechDwgViewMgmt
 90
    33792
280
     0
281
     0
  0
CLASS
  1
AM_DWGMGR_NAME
  2
AcDmDwgMgrName
  3
AcMechDwgViewMgmt
 90
    33792
280
     0
281
     0
  0
CLASS
  1
AMDTMENUSTATEMGR
  2
AmdtMenuStateMgr
  3
McadcomServices
 90
     1024
280
     0
281
     0
  0
CLASS
  1
AMDTMCOMMENUSTATE
  2
AmdtMcomMenuState
  3
McadcomServices
 90
     1024
280
     0
281
     0
  0
CLASS
  1
MAPIAMMOUDLE
  2
MApiAmModule
  3
MApiAmServices
 90
     1024
280
     0
281
     0
  0
CLASS
  1
AMDTADMENUSTATE
  2
AmdtAdMenuState
  3
DesignerServices
 90
    33792
280
     0
281
     0
  0
CLASS
  1
ADAPPL
  2
AcAdAppl
  3
DesignerAssemblies
 90
    33792
280
     0
281
     0
  0
CLASS
  1
DEPMGR
  2
AcAdDepMgr
  3
DesignerAssemblies
 90
    33792
280
     0
281
     0
  0
CLASS
  1
PARAMMGR
  2
AcAdParamMgr
  3
DesignerAssemblies
 90
    33792
280
     0
281
     0
  0
CLASS
  1
PARAMSCOPE
  2
AcAdParamScope
  3
DesignerAssemblies
 90
    33792
280
     0
281
     0
  0
CLASS
  1
NAMEDAPPL
  2
AcAdNamedAppl
  3
DesignerAssemblies
 90
    33792
280
     0
281
     0
  0
CLASS
  1
AMDTDMMENUSTATE
  2
AmdtDmMenuState
  3
AcMechDwgViewMgmt
 90
    33792
280
     0
281
     0
  0
CLASS
  1
AMDTAMMENUSTATE
  2
AmdtAmMenuState
  3
DesignerAssemblies
 90
     1024
280
     0
281
     0
  0
CLASS
  1
ACAMPROJECT
  2
AcAmProject
  3
DesignerAssemblies
 90
     1024
280
     0
281
     0
  0
CLASS
  1
ACAMGRCOMPDEF
  2
AcAmGrCompDef
  3
DesignerAssemblies
 90
     1024
280
     0
281
     0
  0
CLASS
  1
ACCMCONTEXT
  2
AcCmContext
  3
DesignerAssemblies
 90
    33792
280
     0
281
     0
  0
CLASS
  1
ACAMCOMPDEF
  2
AcAmCompDef
  3
DesignerAssemblies
 90
     1024
280
     0
281
     0
  0
CLASS
  1
ACAMCOMPDEFMGR
  2
AcAmCompDefMgr
  3
DesignerAssemblies
 90
     1024
280
     0
281
     0
  0
CLASS
  1
AMCONTEXTMGR
  2
AcAmContextMgr
  3
DesignerAssemblies
 90
     1024
280
     0
281
     0
  0
CLASS
  1
ACAMCONTEXTMODELER
  2
AcAmContextModeler
  3
DesignerAssemblies
 90
     1024
280
     0
281
     0
  0
CLASS
  1
ACMTHREADLINESTANDARDISO
  2
AmdtThreadLineStdISO
  3
"Amdt_StdImp|Product Description: AutoCAD Mechanical|Company: Autodesk, Inc."
 90
     1024
280
     0
281
     0
  0
CLASS
  1
CATALOGSTATE
  2
AcAmCatalogState
  3
DesignerAssemblies
 90
    33792
280
     0
281
     0
  0
CLASS
  1
ACAMGRCOMPDEFSET
  2
AcAmGrCompDefSet
  3
DesignerAssemblies
 90
     1024
280
     0
281
     0
  0
CLASS
  1
AMDTBROWSERDBTAB
  2
AmdtBrowserDbTab
  3
McadcomServices
 90
     1024
280
     0
281
     0
  0
CLASS
  1
CBROWSERAPPOBJECT
  2
CBrowserAppObject
  3
McadcomServices
 90
     1024
280
     0
281
     0
  0
CLASS
  1
DM_PLACEHOLDER
  2
AcDmSelsetPlaceholder
  3
McadcomServices
 90
     1024
280
     0
281
     0
  0
CLASS
  1
TABLESTYLE
  2
AcDbTableStyle
  3
ObjectDBX Classes
 90
     4095
280
     0
281
     0
  0
CLASS
  1
VAACXREFPANELOBJECT
  2
VaAcXREFPanelObject
  3
VAAC_ADDIN
 90
    32768
280
     0
281
     0
  0
CLASS
  1
VAACIMAGEINVENTORY
  2
VaAcImageInventory
  3
VAAC_ADDIN
 90
    32768
280
     0
281
     0
  0
CLASS
  1
AMDTNOTETEMPLATEDB
  2
AmdtNoteTemplateDB
  3
AcmSymBB|Product Description: AutoCAD Mechanical|Company: Autodesk, Inc.
 90
     1024
280
     0
281
     0
  0
CLASS
  1
ACAMGFILTERDAT
  2
AcAmgFilterDat
  3
"AcadM|Product Description: AutoCAD Mechanical|Company: Autodesk, Inc."
 90
    33792
280
     0
281
     0
  0
CLASS
  1
ACMBOM
  2
AcmBom
  3
"AcmSymBB|Product Description: AutoCAD Mechanical|Company: Autodesk, Inc."
 90
    33792
280
     0
281
     0
  0
CLASS
  1
AMDTFORMULAUPDATEDISPATCHER
  2
AmdtFormulaUpdateDispatcher
  3
AcMeServices
 90
    33792
280
     0
281
     0
  0
CLASS
  1
ACMSTANDARDANSI
  2
AcmStandardANSI
  3
"Amdt_StdImp|Product Description: AutoCAD Mechanical|Company: Autodesk, Inc."
 90
    33792
280
     0
281
     0
  0
CLASS
  1
ACMSURFSTANDARDANSI
  2
AcmSurfTextStdANSI
  3
"Amdt_StdImp|Product Description: AutoCAD Mechanical|Company: Autodesk, Inc."
 90
    33792
280
     0
281
     0
  0
CLASS
  1
ACMFCFSTANDARDANSI
  2
AcmFCFStdANSI
  3
"Amdt_StdImp|Product Description: AutoCAD Mechanical|Company: Autodesk, Inc."
 90
    33792
280
     0
281
     0
  0
CLASS
  1
ACMWELDSTANDARDANSI
  2
AcmWeldingStdANSI
  3
"Amdt_StdImp|Product Description: AutoCAD Mechanical|Company: Autodesk, Inc."
 90
    33792
280
     0
281
     0
  0
CLASS
  1
ACMIDSTANDARDANSI
  2
AcmIdStdANSI
  3
"Amdt_StdImp|Product Description: AutoCAD Mechanical|Company: Autodesk, Inc."
 90
    33792
280
     0
281
     0
  0
CLASS
  1
ACMDATUMSTANDARDANSI
  2
AcmDatumStdANSI
  3
"Amdt_StdImp|Product Description: AutoCAD Mechanical|Company: Autodesk, Inc."
 90
    33792
280
     0
281
     0
  0
CLASS
  1
ACMBOMSTANDARDANSI
  2
AcmBOMStdANSI
  3
"Amdt_StdImp|Product Description: AutoCAD Mechanical|Company: Autodesk, Inc."
 90
    33792
280
     0
281
     0
  0
CLASS
  1
ACMDETAILSTANDARDANSI
  2
AmdtDetailSymStdANSI
  3
"Amdt_StdImp|Product Description: AutoCAD Mechanical|Company: Autodesk, Inc."
 90
    33792
280
     0
281
     0
  0
CLASS
  1
ACMSECTIONSTANDARDANSI
  2
AmdtSectionSymStdANSI
  3
"Amdt_StdImp|Product Description: AutoCAD Mechanical|Company: Autodesk, Inc."
 90
    33792
280
     0
281
     0
  0
CLASS
  1
ACMCENTERLINESTANDARDANSI
  2
AmdtCenterLineStdANSI
  3
"Amdt_StdImp|Product Description: AutoCAD Mechanical|Company: Autodesk, Inc."
 90
    33792
280
     0
281
     0
  0
CLASS
  1
ACMTHREADLINESTANDARDANSI
  2
AmdtThreadLineStdANSI
  3
"Amdt_StdImp|Product Description: AutoCAD Mechanical|Company: Autodesk, Inc."
 90
    33792
280
     0
281
     0
  0
CLASS
  1
ACMNOTESTANDARDANSI
  2
AmdtNoteStdANSI
  3
"Amdt_StdImp|Product Description: AutoCAD Mechanical|Company: Autodesk, Inc."
 90
    33792
280
     0
281
     0
  0
CLASS
  1
ACAMGHOLECHARTSTDANSI
  2
AcAmgHoleChartStdANSI
  3
AmgDim|Product Description: AutoCAD Mechanical|Company: Autodesk, Inc.
 90
    33792
280
     0
281
     0
  0
CLASS
  1
ACMSTANDARDDIN
  2
AcmStandardDIN
  3
"Amdt_StdImp|Product Description: AutoCAD Mechanical|Company: Autodesk, Inc."
 90
    33792
280
     0
281
     0
  0
CLASS
  1
AMDTEDGESTANDARDDIN13715
  2
AmdtEdgeStdDIN13715
  3
"Amdt_StdImp|Product Description: AutoCAD Mechanical|Company: Autodesk, Inc."
 90
    33792
280
     0
281
     0
  0
CLASS
  1
ACMSURFSTANDARDDIN
  2
AcmSurfTextStdDIN
  3
"Amdt_StdImp|Product Description: AutoCAD Mechanical|Company: Autodesk, Inc."
 90
    33792
280
     0
281
     0
  0
CLASS
  1
ACMFCFSTANDARDDIN
  2
AcmFCFStdDIN
  3
"Amdt_StdImp|Product Description: AutoCAD Mechanical|Company: Autodesk, Inc."
 90
    33792
280
     0
281
     0
  0
CLASS
  1
ACMWELDSTANDARDDIN
  2
AcmWeldingStdDIN
  3
"Amdt_StdImp|Product Description: AutoCAD Mechanical|Company: Autodesk, Inc."
 90
    33792
280
     0
281
     0
  0
CLASS
  1
ACMIDSTANDARDDIN
  2
AcmIdStdDIN
  3
"Amdt_StdImp|Product Description: AutoCAD Mechanical|Company: Autodesk, Inc."
 90
    33792
280
     0
281
     0
  0
CLASS
  1
ACMDATUMSTANDARDDIN
  2
AcmDatumStdDIN
  3
"Amdt_StdImp|Product Description: AutoCAD Mechanical|Company: Autodesk, Inc."
 90
    33792
280
     0
281
     0
  0
CLASS
  1
ACMBOMSTANDARDDIN
  2
AcmBOMStdDIN
  3
"Amdt_StdImp|Product Description: AutoCAD Mechanical|Company: Autodesk, Inc."
 90
    33792
280
     0
281
     0
  0
CLASS
  1
ACMDETAILSTANDARDDIN
  2
AmdtDetailSymStdDIN
  3
"Amdt_StdImp|Product Description: AutoCAD Mechanical|Company: Autodesk, Inc."
 90
    33792
280
     0
281
     0
  0
CLASS
  1
ACMSECTIONSTANDARDDIN
  2
AmdtSectionSymStdDIN
  3
"Amdt_StdImp|Product Description: AutoCAD Mechanical|Company: Autodesk, Inc."
 90
    33792
280
     0
281
     0
  0
CLASS
  1
ACMCENTERLINESTANDARDDIN
  2
AmdtCenterLineStdDIN
  3
"Amdt_StdImp|Product Description: AutoCAD Mechanical|Company: Autodesk, Inc."
 90
    33792
280
     0
281
     0
  0
CLASS
  1
ACMTHREADLINESTANDARDDIN
  2
AmdtThreadLineStdDIN
  3
"Amdt_StdImp|Product Description: AutoCAD Mechanical|Company: Autodesk, Inc."
 90
    33792
280
     0
281
     0
  0
CLASS
  1
ACMNOTESTANDARDDIN
  2
AmdtNoteStdDIN
  3
"Amdt_StdImp|Product Description: AutoCAD Mechanical|Company: Autodesk, Inc."
 90
    33792
280
     0
281
     0
  0
CLASS
  1
ACAMGHOLECHARTSTDDIN
  2
AcAmgHoleChartStdDIN
  3
AmgDim|Product Description: AutoCAD Mechanical|Company: Autodesk, Inc.
 90
    33792
280
     0
281
     0
  0
CLASS
  1
MATERIAL
  2
AcDbMaterial
  3
ObjectDBX Classes
 90
     1153
280
     0
281
     0
  0
CLASS
  1
VISUALSTYLE
  2
AcDbVisualStyle
  3
ObjectDBX Classes
 90
     4095
280
     0
281
     0
  0
CLASS
  1
SCALE
  2
AcDbScale
  3
ObjectDBX Classes
 90
     1153
280
     0
281
     0
  0
CLASS
  1
MLEADERSTYLE
  2
AcDbMLeaderStyle
  3
ACDB_MLEADERSTYLE_CLASS
 90
     4095
280
     0
281
     0
  0
CLASS
  1
ACRFATTGENMGR
  2
AcRfAttGeneralMgr
  3
AcAttribServices
 90
    33792
280
     0
281
     0
  0
CLASS
  1
ACRFOBJATTMGR
  2
AcRfObjAttGroupMgr
  3
AcAttribServices
 90
    33792
280
     0
281
     0
  0
CLASS
  1
ACRFMCADAPIATTHOLDER
  2
AcRfMCADAPIAttHolder
  3
AcAttribServices
 90
    33792
280
     0
281
     0
  0
CLASS
  1
AMDTSYSATTR
  2
AmdtSystemAttribute
  3
AcAttribServices
 90
    33792
280
     0
281
     0
  0
CLASS
  1
ACMTAPERSTANDARDISO
  2
AcmTaperStdISO
  3
"Amdt_StdImp|Product Description: AutoCAD Mechanical|Company: Autodesk, Inc."
 90
     1024
280
     0
281
     0
  0
CLASS
  1
ACMANOOTATIONVIEWSTANDARDISO
  2
AmdtAnViewStdISO
  3
"Amdt_StdImp|Product Description: AutoCAD Mechanical|Company: Autodesk, Inc."
 90
     1024
280
     0
281
     0
  0
CLASS
  1
ACMTAPERSTANDARDANSI
  2
AcmTaperStdANSI
  3
"Amdt_StdImp|Product Description: AutoCAD Mechanical|Company: Autodesk, Inc."
 90
    33792
280
     0
281
     0
  0
CLASS
  1
ACMANOOTATIONVIEWSTANDARDANSI
  2
AmdtAnViewStdANSI
  3
"Amdt_StdImp|Product Description: AutoCAD Mechanical|Company: Autodesk, Inc."
 90
    33792
280
     0
281
     0
  0
CLASS
  1
ACMTAPERSTANDARDDIN
  2
AcmTaperStdDIN
  3
"Amdt_StdImp|Product Description: AutoCAD Mechanical|Company: Autodesk, Inc."
 90
    33792
280
     0
281
     0
  0
CLASS
  1
ACMANOOTATIONVIEWSTANDARDDIN
  2
AmdtAnViewStdDIN
  3
"Amdt_StdImp|Product Description: AutoCAD Mechanical|Company: Autodesk, Inc."
 90
    33792
280
     0
281
     0
  0
CLASS
  1
EXACXREFPANELOBJECT
  2
ExAcXREFPanelObject
  3
EXAC_ESW
 90
    33793
280
     0
281
     0
  0
CLASS
  1
NPOCOLLECTION
  2
AcDbImpNonPersistentObjectsCollection
  3
ObjectDBX Classes
 90
    33921
280
     0
281
     0
  0
CLASS
  1
IMAGE
  2
AcDbRasterImage
  3
ISM
 90
    34943
280
     0
281
     1
  0
CLASS
  1
IMAGEDEF_REACTOR
  2
AcDbRasterImageDefReactor
  3
ISM
 90
    32769
280
     0
281
     0
  0
CLASS
  1
IMAGEDEF
  2
AcDbRasterImageDef
  3
ISM
 90
        0
280
     0
281
     0
  0
CLASS
  1
RASTERVARIABLES
  2
AcDbRasterVariables
  3
ISM
 90
        0
280
     0
281
     0
  0
CLASS
  1
CAMSSTRUCTBTNSTATE
  2
StructBtnState
  3
DesignerAssemblies
 90
    33792
280
     0
281
     0
  0
CLASS
  1
CELLSTYLEMAP
  2
AcDbCellStyleMap
  3
ObjectDBX Classes
 90
     1152
280
     0
281
     0
  0
CLASS
  1
DIMASSOC
  2
AcDbDimAssoc
  3
"AcDbDimAssoc|Product Desc:     AcDim ARX App For Dimension|Company:          Autodesk, Inc.|WEB Address:      www.autodesk.com"
 90
        0
280
     0
281
     0
  0
CLASS
  1
AEC_REFEDIT_STATUS_TRACKER
  2
AecDbRefEditStatusTracker
  3
AecArchBase70|Product Desc: Autodesk Architectural Desktop 2007 |Company: Autodesk,Inc. |WEB Address: www.autodesk.com
 90
    32897
280
     0
281
     0
  0
CLASS
  1
SORTENTSTABLE
  2
AcDbSortentsTable
  3
ObjectDBX Classes
 90
        0
280
     0
281
     0
  0
CLASS
  1
ACDBSECTIONVIEWSTYLE
  2
AcDbSectionViewStyle
  3
ObjectDBX Classes
 90
     1025
280
     0
281
     0
  0
CLASS
  1
ACDBDETAILVIEWSTYLE
  2
AcDbDetailViewStyle
  3
ObjectDBX Classes
 90
     1025
280
     0
281
     0
  0
CLASS
  1
ACMSECTIONSTANDARDCUSTOM
  2
AmdtSectionSymStdCustom
  3
"Amdt_StdImp|Product Description: AutoCAD Mechanical|Company: Autodesk, Inc."
 90
     1024
280
     0
281
     0
  0
CLASS
  1
ACMDETAILTANDARDCUSTOM
  2
AmdtDetailSymStdCustom
  3
"Amdt_StdImp|Product Description: AutoCAD Mechanical|Company: Autodesk, Inc."
 90
     1024
280
     0
281
     0
  0
CLASS
  1
FIELD
  2
AcDbField
  3
ObjectDBX Classes
 90
     1152
280
     0
281
     0
  0
CLASS
  1
FIELDLIST
  2
AcDbFieldList
  3
ObjectDBX Classes
 90
     1152
280
     0
281
     0
  0
CLASS
  1
AMDTEDGESTANDARDISO13715
  2
AmdtEdgeStdISO13715
  3
"Amdt_StdImp|Product Description: AutoCAD Mechanical|Company: Autodesk, Inc."
 90
     1024
280
     0
281
     0
  0
CLASS
  1
ACMSURFSTANDARDISO2002
  2
AcmSurfTextStdISO2002
  3
"Amdt_StdImp|Product Description: AutoCAD Mechanical|Company: Autodesk, Inc."
 90
     1024
280
     0
281
     0
  0
CLASS
  1
ACMFCFSTANDARDISO2004
  2
AcmFCFStdISO2004
  3
"Amdt_StdImp|Product Description: AutoCAD Mechanical|Company: Autodesk, Inc."
 90
     1024
280
     0
281
     0
  0
CLASS
  1
ACMIDSTANDARDISO2004
  2
AcmIdStdISO2004
  3
"Amdt_StdImp|Product Description: AutoCAD Mechanical|Company: Autodesk, Inc."
 90
     1024
280
     0
281
     0
  0
CLASS
  1
ACMSECTIONSTANDARDISO2001
  2
AmdtSectionSymStdISO2001
  3
"Amdt_StdImp|Product Description: AutoCAD Mechanical|Company: Autodesk, Inc."
 90
     1024
280
     0
281
     0
  0
CLASS
  1
ACDBASSOC2DCONSTRAINTGROUP
  2
AcDbAssoc2dConstraintGroup
  3
ObjectDBX Classes
 90
     1025
280
     0
281
     0
  0
CLASS
  1
ACDBASSOCGEOMDEPENDENCY
  2
AcDbAssocGeomDependency
  3
ObjectDBX Classes
 90
     1025
280
     0
281
     0
  0
CLASS
  1
ACDBASSOCNETWORK
  2
AcDbAssocNetwork
  3
ObjectDBX Classes
 90
     1025
280
     0
281
     0
  0
CLASS
  1
AMDTSECTIONSYM
  2
AmdtSectionSym
  3
"AcmSymBB|Product Description: AutoCAD Mechanical|Company: Autodesk, Inc."
 90
    33792
280
     0
281
     1
  0
CLASS
  1
AMDTSECTIONSYMLABEL
  2
AmdtSectionSymLabel
  3
"AcmSymBB|Product Description: AutoCAD Mechanical|Company: Autodesk, Inc."
 90
    33792
280
     0
281
     1
  0
ENDSEC
  0
SECTION
  2
TABLES
  0
TABLE
  2
VPORT
  5
8
330
0
100
AcDbSymbolTable
 70
     1
  0
VPORT
  5
C35
330
8
100
AcDbSymbolTableRecord
100
AcDbViewportTableRecord
  2
*Active
 70
     0
 10
0.0
 20
0.0
 11
1.0
 21
1.0
 12
2398.282459332107
 22
1335.746994008768
 13
0.0
 23
0.0
 14
5.0
 24
5.0
 15
20.0
 25
20.0
 16
0.0
 26
0.0
 36
1.0
 17
0.0
 27
0.0
 37
0.0
 40
699.7860256319929
 41
2.069920844327176
 42
50.0
 43
0.0
 44
0.0
 50
0.0
 51
0.0
 71
    16
 72
   100
 73
     1
 74
     3
 75
     1
 76
     0
 77
     0
 78
     0
281
     0
 65
     0
110
0.0
120
0.0
130
0.0
111
1.0
121
0.0
131
0.0
112
0.0
122
1.0
132
0.0
 79
     0
146
0.0
1001
ACAD_NAV_VCDISPLAY
1070
     3
  0
ENDTAB
  0
TABLE
  2
LTYPE
  5
5
330
0
100
AcDbSymbolTable
 70
    16
  0
LTYPE
  5
14
330
5
100
AcDbSymbolTableRecord
100
AcDbLinetypeTableRecord
  2
ByBlock
 70
     0
  3

 72
    65
 73
     0
 40
0.0
  0
LTYPE
  5
15
330
5
100
AcDbSymbolTableRecord
100
AcDbLinetypeTableRecord
  2
ByLayer
 70
     0
  3

 72
    65
 73
     0
 40
0.0
  0
LTYPE
  5
16
330
5
100
AcDbSymbolTableRecord
100
AcDbLinetypeTableRecord
  2
Continuous
 70
     0
  3
Solid line
 72
    65
 73
     0
 40
0.0
  0
LTYPE
  5
64
330
5
100
AcDbSymbolTableRecord
100
AcDbLinetypeTableRecord
  2
AM_ISO02W050
 70
     0
  3
__ __ __ __ __ __ __ __ __ __ __ __ __ __ __
 72
    65
 73
     2
 40
7.5
 49
6.0
 74
     0
 49
-1.5
 74
     0
  0
LTYPE
  5
65
330
5
100
AcDbSymbolTableRecord
100
AcDbLinetypeTableRecord
  2
AM_ISO08W050
 70
     0
  3
____ . ____ . ____ . ____ . ____ . ____ . ____
 72
    65
 73
     4
 40
18.0
 49
12.0
 74
     0
 49
-1.5
 74
     0
 49
3.0
 74
     0
 49
-1.5
 74
     0
  0
LTYPE
  5
66
330
5
100
AcDbSymbolTableRecord
100
AcDbLinetypeTableRecord
  2
AM_ISO09W050
 70
     0
  3
_____ . . _____ . . _____ . . ____ .. ____
 72
    65
 73
     6
 40
22.5
 49
12.0
 74
     0
 49
-1.5
 74
     0
 49
3.0
 74
     0
 49
-1.5
 74
     0
 49
3.0
 74
     0
 49
-1.5
 74
     0
  0
LTYPE
  5
67
330
5
100
AcDbSymbolTableRecord
100
AcDbLinetypeTableRecord
  2
Amconstr
 70
     0
  3
_______________________
 72
    65
 73
     2
 40
9999.0
 49
9999.0
 74
     0
 49
0.0
 74
     0
  0
LTYPE
  5
68
330
5
100
AcDbSymbolTableRecord
100
AcDbLinetypeTableRecord
  2
AM_ISO08W050x2
 70
     0
  3
__ . __ . __ . __ . __ . __
 72
    65
 73
     4
 40
9.0
 49
6.0
 74
     0
 49
-0.75
 74
     0
 49
1.5
 74
     0
 49
-0.75
 74
     0
  0
LTYPE
  5
69
330
5
100
AcDbSymbolTableRecord
100
AcDbLinetypeTableRecord
  2
AM_ISO02W050x2
 70
     0
  3
 _ _ _ _ _ _ _ _ _ _ _ _
 72
    65
 73
     2
 40
3.75
 49
3.0
 74
     0
 49
-0.75
 74
     0
  0
LTYPE
  5
6C
330
5
100
AcDbSymbolTableRecord
100
AcDbLinetypeTableRecord
  2
Amzigzag
 70
     0
  3
/\/-/\/-/\/-/\/-/\/-/\/
 72
    65
 73
     2
 40
11.0001
 49
0.0001
 74
     4
 75
   136
340
22C
 46
0.04
 50
0.0
 44
0.0
 45
0.0
 49
-11.0
 74
     0
  0
LTYPE
  5
7A
330
5
100
AcDbSymbolTableRecord
100
AcDbLinetypeTableRecord
  2
ACISOWELD
 70
     0
  3
_ _ _ _ _
 72
    65
 73
     2
 40
2.0
 49
2.0
 74
     0
 49
-1.0
 74
     0
  0
LTYPE
  5
7B
330
5
100
AcDbSymbolTableRecord
100
AcDbLinetypeTableRecord
  2
ACISOTGB
 70
     0
  3
__ . . __ . .
 72
    65
 73
     6
 40
9.0
 49
4.0
 74
     0
 49
-1.0
 74
     0
 49
1.0
 74
     0
 49
-1.0
 74
     0
 49
1.0
 74
     0
 49
-1.0
 74
     0
  0
LTYPE
  5
7C
330
5
100
AcDbSymbolTableRecord
100
AcDbLinetypeTableRecord
  2
ACISOTGL
 70
     0
  3
_ _ _ _ _
 72
    65
 73
     2
 40
3.0
 49
2.0
 74
     0
 49
-1.0
 74
     0
  0
LTYPE
  5
407
330
5
100
AcDbSymbolTableRecord
100
AcDbLinetypeTableRecord
  2
GEN3
 70
     0
  3
_ _ _ _ _ _ _ _ _ _ _ _ _ _ _ _ _ _ _ _ _ _ _ _ _ _ _ _ _ _ _
 72
    65
 73
     3
 40
3.0
 49
0.0
 74
     0
 49
2.0
 74
     0
 49
-1.0
 74
     0
  0
LTYPE
  5
408
330
5
100
AcDbSymbolTableRecord
100
AcDbLinetypeTableRecord
  2
GEN7
 70
     0
  3
____ _ ____ _ ____ _ ____ _ ____ _ ____ _ ____ _ ____ _ ____ _
 72
    65
 73
     4
 40
22.0
 49
10.75
 74
     0
 49
-3.75
 74
     0
 49
3.75
 74
     0
 49
-3.75
 74
     0
  0
ENDTAB
  0
TABLE
  2
LAYER
  5
2
102
{ACAD_XDICTIONARY
360
9A5
102
}
330
0
100
AcDbSymbolTable
 70
    10
  0
LAYER
  5
10
102
{ACAD_XDICTIONARY
360
DC2
102
}
330
2
100
AcDbSymbolTableRecord
100
AcDbLayerTableRecord
  2
0
 70
     0
 62
     7
  6
Continuous
370
    -3
390
F
  0
LAYER
  5
40E
102
{ACAD_XDICTIONARY
360
DC4
102
}
330
2
100
AcDbSymbolTableRecord
100
AcDbLayerTableRecord
  2
3A
 70
     0
 62
     6
  6
GEN3
370
    -3
390
F
  0
LAYER
  5
412
102
{ACAD_XDICTIONARY
360
DCC
102
}
330
2
100
AcDbSymbolTableRecord
100
AcDbLayerTableRecord
  2
7
 70
     0
 62
     4
  6
GEN7
370
    -3
390
F
  0
LAYER
  5
413
102
{ACAD_XDICTIONARY
360
DCE
102
}
330
2
100
AcDbSymbolTableRecord
100
AcDbLayerTableRecord
  2
8
 70
     0
 62
     1
  6
Continuous
370
    -3
390
F
  0
LAYER
  5
7A2
330
2
100
AcDbSymbolTableRecord
100
AcDbLayerTableRecord
  2
Defpoints
 70
     0
 62
     7
  6
Continuous
290
     0
370
    -3
390
F
  0
LAYER
  5
12CD
330
2
100
AcDbSymbolTableRecord
100
AcDbLayerTableRecord
  2
2A
 70
     0
 62
     7
  6
GEN7
370
    -3
390
F
1001
AcAecLayerStandard
1000

1000

  0
LAYER
  5
193A
102
{ACAD_XDICTIONARY
360
193B
102
}
330
2
100
AcDbSymbolTableRecord
100
AcDbLayerTableRecord
  2
PUNKTE
 70
     0
 62
     1
  6
Continuous
370
    -3
390
F
  0
LAYER
  5
193C
102
{ACAD_XDICTIONARY
360
193D
102
}
330
2
100
AcDbSymbolTableRecord
100
AcDbLayerTableRecord
  2
SCHRAFFUR_RAND
 70
     1
 62
    -1
  6
Continuous
370
    -3
390
F
  0
LAYER
  5
20FE
330
2
100
AcDbSymbolTableRecord
100
AcDbLayerTableRecord
  2
AM_5
 70
     0
 62
     3
  6
Continuous
370
    25
390
F
1001
AcAecLayerStandard
1000

1000

  0
ENDTAB
  0
TABLE
  2
STYLE
  5
3
330
0
100
AcDbSymbolTable
 70
     4
  0
STYLE
  5
11
330
3
100
AcDbSymbolTableRecord
100
AcDbTextStyleTableRecord
  2
STANDARD
 70
     0
 40
0.0
 41
1.0
 50
0.0
 71
     0
 42
2.5
  3
ISOCP.SHX
  4

  0
STYLE
  5
79
330
3
100
AcDbSymbolTableRecord
100
AcDbTextStyleTableRecord
  2
ACISOGDT
 70
     0
 40
0.0
 41
1.0
 50
0.0
 71
     0
 42
2.5
  3
amgdt.shx
  4
bigfont.shx
  0
STYLE
  5
22C
330
3
100
AcDbSymbolTableRecord
100
AcDbTextStyleTableRecord
  2

 70
     1
 40
0.0
 41
1.0
 50
0.0
 71
     0
 42
2.5
  3
genltshp.shx
  4

  0
ENDTAB
  0
TABLE
  2
VIEW
  5
6
330
0
100
AcDbSymbolTable
 70
     6
  0
VIEW
  5
BEC
330
6
100
AcDbSymbolTableRecord
100
AcDbViewTableRecord
  2
AM_VIEW1
 70
     0
 40
297.0
 10
2421.554341180309
 20
1507.895507378519
 41
506.9808917197451
 11
0.0
 21
0.0
 31
1.0
 12
0.0
 22
0.0
 32
0.0
 42
50.0
 43
0.0
 44
0.0
 50
0.0
 71
    16
281
     0
 72
     0
  0
VIEW
  5
BED
330
6
100
AcDbSymbolTableRecord
100
AcDbViewTableRecord
  2
AM_VIEW2
 70
     0
 40
297.0
 10
2754.573449460564
 20
1507.895507378519
 41
506.9808917197451
 11
0.0
 21
0.0
 31
1.0
 12
0.0
 22
0.0
 32
0.0
 42
50.0
 43
0.0
 44
0.0
 50
0.0
 71
    16
281
     0
 72
     0
  0
VIEW
  5
BEE
330
6
100
AcDbSymbolTableRecord
100
AcDbViewTableRecord
  2
AM_VIEW3
 70
     0
 40
297.0
 10
2421.554341180309
 20
1210.895507378519
 41
506.9808917197451
 11
0.0
 21
0.0
 31
1.0
 12
0.0
 22
0.0
 32
0.0
 42
50.0
 43
0.0
 44
0.0
 50
0.0
 71
    16
281
     0
 72
     0
  0
VIEW
  5
BEF
330
6
100
AcDbSymbolTableRecord
100
AcDbViewTableRecord
  2
AM_VIEW4
 70
     0
 40
297.0
 10
2754.573449460564
 20
1210.895507378519
 41
506.9808917197451
 11
0.0
 21
0.0
 31
1.0
 12
0.0
 22
0.0
 32
0.0
 42
50.0
 43
0.0
 44
0.0
 50
0.0
 71
    16
281
     0
 72
     0
  0
VIEW
  5
BF0
330
6
100
AcDbSymbolTableRecord
100
AcDbViewTableRecord
  2
AM_VIEW5
 70
     0
 40
297.0
 10
2588.063895320436
 20
1359.395507378519
 41
506.9808917197451
 11
0.0
 21
0.0
 31
1.0
 12
0.0
 22
0.0
 32
0.0
 42
50.0
 43
0.0
 44
0.0
 50
0.0
 71
    16
281
     0
 72
     0
  0
VIEW
  5
BF1
330
6
100
AcDbSymbolTableRecord
100
AcDbViewTableRecord
  2
AM_VIEW6
 70
     0
 40
593.9940599999999
 10
2588.063895320436
 20
1359.395507378519
 41
1013.951643821656
 11
0.0
 21
0.0
 31
1.0
 12
0.0
 22
0.0
 32
0.0
 42
50.0
 43
0.0
 44
0.0
 50
0.0
 71
    16
281
     0
 72
     0
  0
ENDTAB
  0
TABLE
  2
UCS
  5
7
330
0
100
AcDbSymbolTable
 70
     0
  0
ENDTAB
  0
TABLE
  2
APPID
  5
9
330
0
100
AcDbSymbolTable
 70
    48
  0
APPID
  5
12
330
9
100
AcDbSymbolTableRecord
100
AcDbRegAppTableRecord
  2
ACAD
 70
     0
  0
APPID
  5
46
330
9
100
AcDbSymbolTableRecord
100
AcDbRegAppTableRecord
  2
MCAD_NO_VIS
 70
     0
  0
APPID
  5
47
330
9
100
AcDbSymbolTableRecord
100
AcDbRegAppTableRecord
  2
ACAD_TEMP_GRAPHIC
 70
     0
  0
APPID
  5
58
330
9
100
AcDbSymbolTableRecord
100
AcDbRegAppTableRecord
  2
ACATTRIBSERVICES
 70
     0
  0
APPID
  5
EE
330
9
100
AcDbSymbolTableRecord
100
AcDbRegAppTableRecord
  2
AD_DRAW
 70
     0
  0
APPID
  5
10C
330
9
100
AcDbSymbolTableRecord
100
AcDbRegAppTableRecord
  2
DESIGNERASSEMBLIES
 70
     0
  0
APPID
  5
111
330
9
100
AcDbSymbolTableRecord
100
AcDbRegAppTableRecord
  2
ACADM_DIM_EDIT
 70
     0
  0
APPID
  5
112
330
9
100
AcDbSymbolTableRecord
100
AcDbRegAppTableRecord
  2
AMDT_DM_ADJ
 70
     0
  0
APPID
  5
1A3
330
9
100
AcDbSymbolTableRecord
100
AcDbRegAppTableRecord
  2
ACAD_DSTYLE_DIMARC_LENGTH_SYMBOL
 70
     0
  0
APPID
  5
1A4
330
9
100
AcDbSymbolTableRecord
100
AcDbRegAppTableRecord
  2
ACAD_DSTYLE_DIMJOGGED_JOGANGLE_SYMBOL
 70
     0
  0
APPID
  5
913
330
9
100
AcDbSymbolTableRecord
100
AcDbRegAppTableRecord
  2
GENIUS_GENBLLY_14
 70
     0
  0
APPID
  5
914
330
9
100
AcDbSymbolTableRecord
100
AcDbRegAppTableRecord
  2
GENIUS_GENCFG_13
 70
     0
  0
APPID
  5
915
330
9
100
AcDbSymbolTableRecord
100
AcDbRegAppTableRecord
  2
GENIUS_GENCFG0_13
 70
     0
  0
APPID
  5
916
330
9
100
AcDbSymbolTableRecord
100
AcDbRegAppTableRecord
  2
GENIUS_GENCFG1_13
 70
     0
  0
APPID
  5
917
330
9
100
AcDbSymbolTableRecord
100
AcDbRegAppTableRecord
  2
GENIUS_GENCFG2_13
 70
     0
  0
APPID
  5
918
330
9
100
AcDbSymbolTableRecord
100
AcDbRegAppTableRecord
  2
GENIUS_GENCFG3_13
 70
     0
  0
APPID
  5
919
330
9
100
AcDbSymbolTableRecord
100
AcDbRegAppTableRecord
  2
GENIUS_GENCFG4_13
 70
     0
  0
APPID
  5
91A
330
9
100
AcDbSymbolTableRecord
100
AcDbRegAppTableRecord
  2
GENIUS_VERSION2
 70
     0
  0
APPID
  5
91B
330
9
100
AcDbSymbolTableRecord
100
AcDbRegAppTableRecord
  2
GENIUS_GENOENT_13
 70
     0
  0
APPID
  5
91C
330
9
100
AcDbSymbolTableRecord
100
AcDbRegAppTableRecord
  2
GENIUS_GENCFG5_13
 70
     0
  0
APPID
  5
91D
330
9
100
AcDbSymbolTableRecord
100
AcDbRegAppTableRecord
  2
GENIUS_GEVCFG0_13
 70
     0
  0
APPID
  5
91E
330
9
100
AcDbSymbolTableRecord
100
AcDbRegAppTableRecord
  2
GENIUS_GENREC_14
 70
     0
  0
APPID
  5
91F
330
9
100
AcDbSymbolTableRecord
100
AcDbRegAppTableRecord
  2
GENIUS_GENODEF_13
 70
     0
  0
APPID
  5
920
330
9
100
AcDbSymbolTableRecord
100
AcDbRegAppTableRecord
  2
GENIUS_GENOBJ-N-REC_13
 70
     0
  0
APPID
  5
980
330
9
100
AcDbSymbolTableRecord
100
AcDbRegAppTableRecord
  2
AcAecLayerStandard
 70
     0
  0
APPID
  5
BC6
330
9
100
AcDbSymbolTableRecord
100
AcDbRegAppTableRecord
  2
GENIUS_GENTRA_14
 70
     0
  0
APPID
  5
BE8
330
9
100
AcDbSymbolTableRecord
100
AcDbRegAppTableRecord
  2
GENIUS_GENOLIS_13
 70
     0
  0
APPID
  5
BE9
330
9
100
AcDbSymbolTableRecord
100
AcDbRegAppTableRecord
  2
GENIUS_GENOBJ-N-TIT_13
 70
     0
  0
APPID
  5
BEA
330
9
100
AcDbSymbolTableRecord
100
AcDbRegAppTableRecord
  2
GENIUS_GENTITLE_13
 70
     0
  0
APPID
  5
BEB
330
9
100
AcDbSymbolTableRecord
100
AcDbRegAppTableRecord
  2
GENIUS_GENOREF_13
 70
     0
  0
APPID
  5
BF2
330
9
100
AcDbSymbolTableRecord
100
AcDbRegAppTableRecord
  2
GENIUS_GENSCREG_15
 70
     0
  0
APPID
  5
BF3
330
9
100
AcDbSymbolTableRecord
100
AcDbRegAppTableRecord
  2
GENIUS_GENOBJ-N-SDF_13
 70
     0
  0
APPID
  5
C74
330
9
100
AcDbSymbolTableRecord
100
AcDbRegAppTableRecord
  2
ACAD_MLEADERVER
 70
     0
  0
APPID
  5
CBF
330
9
100
AcDbSymbolTableRecord
100
AcDbRegAppTableRecord
  2
ACAD_EXEMPT_FROM_CAD_STANDARDS
 70
     0
  0
APPID
  5
E3F
330
9
100
AcDbSymbolTableRecord
100
AcDbRegAppTableRecord
  2
ACAD_PSEXT
 70
     0
  0
APPID
  5
F79
330
9
100
AcDbSymbolTableRecord
100
AcDbRegAppTableRecord
  2
ACAD_DSTYLE_DIMINSPECT
 70
     0
  0
APPID
  5
F83
330
9
100
AcDbSymbolTableRecord
100
AcDbRegAppTableRecord
  2
GENIUS_GENDTOL_13
 70
     0
  0
APPID
  5
1138
330
9
100
AcDbSymbolTableRecord
100
AcDbRegAppTableRecord
  2
ACAD_NAV_VCDISPLAY
 70
     0
  0
APPID
  5
11FA
330
9
100
AcDbSymbolTableRecord
100
AcDbRegAppTableRecord
  2
ACAD_DSTYLE_DIMBREAK
 70
     0
  0
APPID
  5
11FB
330
9
100
AcDbSymbolTableRecord
100
AcDbRegAppTableRecord
  2
ACAD_DSTYLE_DIMJAG
 70
     0
  0
APPID
  5
12CE
330
9
100
AcDbSymbolTableRecord
100
AcDbRegAppTableRecord
  2
GENIUS_GENOBJ-N-HTC_13
 70
     0
  0
APPID
  5
12CF
330
9
100
AcDbSymbolTableRecord
100
AcDbRegAppTableRecord
  2
GENIUS_GENHATCH_13
 70
     0
  0
APPID
  5
12D0
330
9
100
AcDbSymbolTableRecord
100
AcDbRegAppTableRecord
  2
GENIUS_AMGTXT_16
 70
     0
  0
APPID
  5
1520
330
9
100
AcDbSymbolTableRecord
100
AcDbRegAppTableRecord
  2
ACAD_DSTYLE_DIMRADIAL_EXTENSION
 70
     0
  0
APPID
  5
1D96
330
9
100
AcDbSymbolTableRecord
100
AcDbRegAppTableRecord
  2
ACAD_DSTYLE_DIM_LINETYPE
 70
     0
  0
APPID
  5
1D97
330
9
100
AcDbSymbolTableRecord
100
AcDbRegAppTableRecord
  2
ACAD_DSTYLE_DIM_EXT1_LINETYPE
 70
     0
  0
APPID
  5
1D98
330
9
100
AcDbSymbolTableRecord
100
AcDbRegAppTableRecord
  2
ACAD_DSTYLE_DIM_EXT2_LINETYPE
 70
     0
  0
APPID
  5
217D
330
9
100
AcDbSymbolTableRecord
100
AcDbRegAppTableRecord
  2
GENIUS_GENOBJ-N-SEC_13
 70
     0
  0
ENDTAB
  0
TABLE
  2
DIMSTYLE
  5
A
330
0
100
AcDbSymbolTable
 70
     9
100
AcDbDimStyleTable
 71
     1
340
81
  0
DIMSTYLE
105
81
102
{ACAD_REACTORS
330
2340
102
}
330
A
100
AcDbSymbolTableRecord
100
AcDbDimStyleTableRecord
  2
AM_ISO
 70
     0
  4
"
 41
2.5
 42
1.0
 43
10.0
 44
1.0
 47
0.1
 48
0.1
 73
     0
 74
     0
 77
     1
 78
     8
 79
     2
140
3.5
141
0.0
143
0.0393701
146
0.71
147
1.5
172
     1
176
   256
177
   256
178
     2
271
     2
272
     3
274
     4
283
     0
284
     8
340
11
371
    -1
372
    -1
1001
ACAD_DSTYLE_DIMJOGGED_JOGANGLE_SYMBOL
1070
   384
1040
0.7853981633974483
1001
ACAD_DSTYLE_DIMARC_LENGTH_SYMBOL
1070
   379
1070
     1
  0
DIMSTYLE
105
82
330
A
100
AcDbSymbolTableRecord
100
AcDbDimStyleTableRecord
  2
AM_ISO$3
 70
     0
  4
"
 41
2.5
 42
1.0
 43
10.0
 44
1.0
 47
0.1
 48
0.1
 73
     0
 77
     1
 78
     8
 79
     2
140
3.5
141
0.0
143
0.0393701
146
0.71
147
1.5
176
   256
177
   256
178
     2
271
     2
272
     3
274
     4
283
     0
284
     8
288
     1
289
     0
340
11
371
    -1
372
    -1
1001
ACAD_DSTYLE_DIMJOGGED_JOGANGLE_SYMBOL
1070
   384
1040
0.7853981633974483
1001
ACAD_DSTYLE_DIMARC_LENGTH_SYMBOL
1070
   379
1070
     1
  0
DIMSTYLE
105
83
330
A
100
AcDbSymbolTableRecord
100
AcDbDimStyleTableRecord
  2
AM_ISO$4
 70
     0
  4
"
 41
2.5
 42
1.0
 43
10.0
 44
1.0
 47
0.1
 48
0.1
 73
     0
 77
     1
 78
     8
 79
     2
140
3.5
141
0.0
143
0.0393701
146
0.71
147
1.5
176
   256
177
   256
178
     2
271
     2
272
     3
274
     4
283
     0
284
     8
288
     1
289
     0
340
11
371
    -1
372
    -1
1001
ACAD_DSTYLE_DIMJOGGED_JOGANGLE_SYMBOL
1070
   384
1040
0.7853981633974483
1001
ACAD_DSTYLE_DIMARC_LENGTH_SYMBOL
1070
   379
1070
     1
  0
DIMSTYLE
105
84
330
A
100
AcDbSymbolTableRecord
100
AcDbDimStyleTableRecord
  2
AM_ISO$6
 70
     0
  4
"
 41
2.5
 42
1.0
 43
10.0
 44
1.0
 47
0.1
 48
0.1
 73
     0
 74
     0
 78
     8
 79
     2
140
3.5
141
0.0
143
0.0393701
146
0.71
147
1.5
172
     1
176
   256
177
   256
178
     2
271
     2
272
     3
274
     4
283
     0
284
     8
340
11
371
    -1
372
    -1
1001
ACAD_DSTYLE_DIMJOGGED_JOGANGLE_SYMBOL
1070
   384
1040
0.7853981633974483
1001
ACAD_DSTYLE_DIMARC_LENGTH_SYMBOL
1070
   379
1070
     1
  0
DIMSTYLE
105
85
330
A
100
AcDbSymbolTableRecord
100
AcDbDimStyleTableRecord
  2
AM_ISO$7
 70
     0
  4
"
 41
2.5
 42
1.0
 43
10.0
 44
1.0
 47
0.1
 48
0.1
 73
     0
 74
     0
 77
     1
 78
     8
 79
     2
140
5.0
141
0.0
143
0.0393701
146
0.71
147
1.5
172
     1
176
   256
177
   256
178
     2
271
     2
272
     3
274
     4
283
     0
284
     8
340
11
371
    -1
372
    -1
1001
ACAD_DSTYLE_DIMJOGGED_JOGANGLE_SYMBOL
1070
   384
1040
0.7853981633974483
1001
ACAD_DSTYLE_DIMARC_LENGTH_SYMBOL
1070
   379
1070
     1
  0
DIMSTYLE
105
86
330
A
100
AcDbSymbolTableRecord
100
AcDbDimStyleTableRecord
  2
AM_ISO$SF
 70
     0
  4
"
 41
2.5
 42
1.0
 43
10.0
 44
1.0
 47
0.1
 48
0.1
 73
     0
 74
     0
 75
     1
 76
     1
 77
     1
 78
     8
 79
     2
140
3.5
141
0.0
143
0.0393701
146
0.71
147
1.5
172
     1
176
   256
177
   256
178
     2
271
     2
272
     3
274
     4
283
     0
284
     8
340
11
371
    -1
372
    -1
1001
ACAD_DSTYLE_DIMJOGGED_JOGANGLE_SYMBOL
1070
   384
1040
0.7853981633974483
1001
ACAD_DSTYLE_DIMARC_LENGTH_SYMBOL
1070
   379
1070
     1
  0
DIMSTYLE
105
8B
330
A
100
AcDbSymbolTableRecord
100
AcDbDimStyleTableRecord
  2
AM_ISO$SH
 70
     0
  4
"
 41
2.5
 42
1.0
 43
10.0
 44
1.0
 47
0.1
 48
0.1
 73
     0
 74
     0
 75
     1
 76
     1
 77
     1
 78
     8
 79
     2
140
3.5
141
0.0
143
0.0393701
144
2.0
146
0.71
147
1.5
172
     1
173
     1
176
   256
177
   256
178
     2
271
     2
272
     3
274
     4
283
     0
284
     8
340
11
343
87
371
    -1
372
    -1
1001
ACAD_DSTYLE_DIMJOGGED_JOGANGLE_SYMBOL
1070
   384
1040
0.7853981633974483
1001
ACAD_DSTYLE_DIMARC_LENGTH_SYMBOL
1070
   379
1070
     1
  0
DIMSTYLE
105
CBD
330
A
100
AcDbSymbolTableRecord
100
AcDbDimStyleTableRecord
  2
STANDARD
 70
     0
340
11
  0
DIMSTYLE
105
20FF
102
{ACAD_REACTORS
330
660
330
66A
330
65F
330
65E
330
663
330
7A0
330
7A1
330
23CA
102
}
330
A
100
AcDbSymbolTableRecord
100
AcDbDimStyleTableRecord
  2
AM_ISO$0
 70
     0
  4
"
 41
2.5
 42
1.0
 43
10.0
 44
1.0
 47
0.1
 48
0.1
 73
     0
 74
     0
 77
     1
 78
     8
 79
     2
140
3.5
141
0.0
143
0.0393701
146
0.71
147
1.5
172
     1
176
   256
177
   256
178
     2
271
     2
272
     3
274
     4
283
     0
284
     8
340
11
371
    -1
372
    -1
1001
ACAD_DSTYLE_DIMJOGGED_JOGANGLE_SYMBOL
1070
   384
1040
0.7853981633974483
1001
ACAD_DSTYLE_DIMARC_LENGTH_SYMBOL
1070
   379
1070
     1
  0
ENDTAB
  0
TABLE
  2
BLOCK_RECORD
  5
1
330
0
100
AcDbSymbolTable
 70
    31
  0
BLOCK_RECORD
  5
1F
102
{ACAD_XDICTIONARY
360
8F
102
}
330
1
100
AcDbSymbolTableRecord
100
AcDbBlockTableRecord
  2
*Model_Space
340
22
  0
BLOCK_RECORD
  5
1B
330
1
100
AcDbSymbolTableRecord
100
AcDbBlockTableRecord
  2
*Paper_Space
340
1E
  0
BLOCK_RECORD
  5
23
330
1
100
AcDbSymbolTableRecord
100
AcDbBlockTableRecord
  2
*Paper_Space0
340
26
  0
BLOCK_RECORD
  5
87
330
1
100
AcDbSymbolTableRecord
100
AcDbBlockTableRecord
  2
GENAXEH
340
0
  0
BLOCK_RECORD
  5
2F4
330
1
100
AcDbSymbolTableRecord
100
AcDbBlockTableRecord
  2
*X2
340
0
102
{BLKREFS
331
65A
102
}
  0
BLOCK_RECORD
  5
31E
330
1
100
AcDbSymbolTableRecord
100
AcDbBlockTableRecord
  2
*X3
340
0
102
{BLKREFS
331
65B
102
}
  0
BLOCK_RECORD
  5
346
330
1
100
AcDbSymbolTableRecord
100
AcDbBlockTableRecord
  2
*X4
340
0
102
{BLKREFS
331
65C
102
}
  0
BLOCK_RECORD
  5
358
330
1
100
AcDbSymbolTableRecord
100
AcDbBlockTableRecord
  2
*X5
340
0
102
{BLKREFS
331
65D
102
}
  0
BLOCK_RECORD
  5
389
330
1
100
AcDbSymbolTableRecord
100
AcDbBlockTableRecord
  2
*X6
340
0
102
{BLKREFS
331
661
102
}
  0
BLOCK_RECORD
  5
399
330
1
100
AcDbSymbolTableRecord
100
AcDbBlockTableRecord
  2
*X7
340
0
102
{BLKREFS
331
662
102
}
  0
BLOCK_RECORD
  5
7A3
330
1
100
AcDbSymbolTableRecord
100
AcDbBlockTableRecord
  2
*D8
340
0
  0
BLOCK_RECORD
  5
7AF
330
1
100
AcDbSymbolTableRecord
100
AcDbBlockTableRecord
  2
*D9
340
0
  0
BLOCK_RECORD
  5
7BB
330
1
100
AcDbSymbolTableRecord
100
AcDbBlockTableRecord
  2
*D10
340
0
  0
BLOCK_RECORD
  5
7C7
330
1
100
AcDbSymbolTableRecord
100
AcDbBlockTableRecord
  2
*D11
340
0
  0
BLOCK_RECORD
  5
7D3
330
1
100
AcDbSymbolTableRecord
100
AcDbBlockTableRecord
  2
*D12
340
0
  0
BLOCK_RECORD
  5
7DF
330
1
100
AcDbSymbolTableRecord
100
AcDbBlockTableRecord
  2
*D13
340
0
  0
BLOCK_RECORD
  5
7EB
330
1
100
AcDbSymbolTableRecord
100
AcDbBlockTableRecord
  2
*D14
340
0
  0
BLOCK_RECORD
  5
17FF
330
1
100
AcDbSymbolTableRecord
100
AcDbBlockTableRecord
  2
*X15
340
0
102
{BLKREFS
331
180F
102
}
  0
BLOCK_RECORD
  5
180D
330
1
100
AcDbSymbolTableRecord
100
AcDbBlockTableRecord
  2
S22_4-6796
340
0
102
{BLKREFS
331
1A3A
331
1A3B
331
1A3C
331
1A3D
331
1A3E
331
1A3F
331
1A40
331
1A41
331
1A42
331
1A43
331
1A44
331
1A45
331
1A46
331
1A47
331
1A48
331
1A49
331
1A4A
331
1A4B
331
1A4C
331
1A4D
331
1A4E
331
1A4F
331
1A50
331
1A51
331
1A52
331
1A53
331
1A54
331
1A55
102
}
  0
BLOCK_RECORD
  5
1827
330
1
100
AcDbSymbolTableRecord
100
AcDbBlockTableRecord
  2
*X17
340
0
102
{BLKREFS
331
1A09
102
}
  0
BLOCK_RECORD
  5
182E
330
1
100
AcDbSymbolTableRecord
100
AcDbBlockTableRecord
  2
*X18
340
0
102
{BLKREFS
331
1A0A
102
}
  0
BLOCK_RECORD
  5
1834
330
1
100
AcDbSymbolTableRecord
100
AcDbBlockTableRecord
  2
*X19
340
0
102
{BLKREFS
331
1A0B
102
}
  0
BLOCK_RECORD
  5
183B
330
1
100
AcDbSymbolTableRecord
100
AcDbBlockTableRecord
  2
*X20
340
0
102
{BLKREFS
331
1A0C
102
}
  0
BLOCK_RECORD
  5
1841
330
1
100
AcDbSymbolTableRecord
100
AcDbBlockTableRecord
  2
*X21
340
0
102
{BLKREFS
331
1A0D
102
}
  0
BLOCK_RECORD
  5
1848
330
1
100
AcDbSymbolTableRecord
100
AcDbBlockTableRecord
  2
*X22
340
0
102
{BLKREFS
331
1A0E
102
}
  0
BLOCK_RECORD
  5
184F
330
1
100
AcDbSymbolTableRecord
100
AcDbBlockTableRecord
  2
*X23
340
0
102
{BLKREFS
331
1A12
102
}
  0
BLOCK_RECORD
  5
1856
330
1
100
AcDbSymbolTableRecord
100
AcDbBlockTableRecord
  2
*X24
340
0
102
{BLKREFS
331
1A13
102
}
  0
BLOCK_RECORD
  5
1879
330
1
100
AcDbSymbolTableRecord
100
AcDbBlockTableRecord
  2
*X25
340
0
102
{BLKREFS
331
1A5D
102
}
  0
BLOCK_RECORD
  5
1884
330
1
100
AcDbSymbolTableRecord
100
AcDbBlockTableRecord
  2
*X26
340
0
102
{BLKREFS
331
1A5E
102
}
  0
BLOCK_RECORD
  5
188F
330
1
100
AcDbSymbolTableRecord
100
AcDbBlockTableRecord
  2
*X27
340
0
102
{BLKREFS
331
1A5F
102
}
  0
BLOCK_RECORD
  5
189A
330
1
100
AcDbSymbolTableRecord
100
AcDbBlockTableRecord
  2
*X28
340
0
102
{BLKREFS
331
1A60
102
}
  0
BLOCK_RECORD
  5
23CB
330
1
100
AcDbSymbolTableRecord
100
AcDbBlockTableRecord
  2
*D30
340
0
  0
ENDTAB
  0
ENDSEC
  0
SECTION
  2
BLOCKS
  0
BLOCK
  5
20
330
1F
100
AcDbEntity
  8
0
100
AcDbBlockBegin
  2
*Model_Space
 70
     0
 10
0.0
 20
0.0
 30
0.0
  3
*Model_Space
  1

  0
ENDBLK
  5
21
330
1F
100
AcDbEntity
  8
0
100
AcDbBlockEnd
  0
BLOCK
  5
1C
330
1B
100
AcDbEntity
 67
     1
  8
0
100
AcDbBlockBegin
  2
*Paper_Space
 70
     0
 10
0.0
 20
0.0
 30
0.0
  3
*Paper_Space
  1

  0
ENDBLK
  5
1D
330
1B
100
AcDbEntity
 67
     1
  8
0
100
AcDbBlockEnd
  0
BLOCK
  5
24
330
23
100
AcDbEntity
 67
     1
  8
0
100
AcDbBlockBegin
  2
*Paper_Space0
 70
     0
 10
0.0
 20
0.0
 30
0.0
  3
*Paper_Space0
  1

  0
VIEWPORT
  5
14DE
102
{ACAD_XDICTIONARY
360
14DF
102
}
330
23
100
AcDbEntity
 67
     1
  8
0
100
AcDbViewport
 10
144.7270812988281
 20
101.2295804023742
 30
0.0
 40
445.7239690838981
 41
222.1517806396485
 68
     0
 69
     1
 12
144.7270812988281
 22
101.2295804023742
 13
0.0
 23
0.0
 14
10.0
 24
10.0
 15
10.0
 25
10.0
 16
0.0
 26
0.0
 36
1.0
 17
0.0
 27
0.0
 37
0.0
 42
50.0
 43
0.0
 44
0.0
 45
222.1517806396485
 50
0.0
 51
0.0
 72
   100
 90
   819232
  1

281
     0
 71
     1
 74
     0
110
0.0
120
0.0
130
0.0
111
1.0
121
0.0
131
0.0
112
0.0
122
1.0
132
0.0
 79
     0
146
0.0
  0
ENDBLK
  5
25
330
23
100
AcDbEntity
 67
     1
  8
0
100
AcDbBlockEnd
  0
BLOCK
  5
89
330
87
100
AcDbEntity
  8
0
100
AcDbBlockBegin
  2
GENAXEH
 70
     0
 10
0.0
 20
0.0
 30
0.0
  3
GENAXEH
  1

  0
LINE
  5
88
330
87
100
AcDbEntity
  8
0
100
AcDbLine
 10
-1.0
 20
0.0
 30
0.0
 11
1.0
 21
0.0
 31
0.0
  0
ENDBLK
  5
8A
330
87
100
AcDbEntity
  8
0
100
AcDbBlockEnd
  0
BLOCK
  5
2F5
330
2F4
100
AcDbEntity
  8
0
100
AcDbBlockBegin
  2
*X2
 70
     1
 10
0.0
 20
0.0
 30
0.0
  3
*X2
  1

  0
LINE
  5
2F6
330
2F4
100
AcDbEntity
  8
8
100
AcDbLine
 10
165.383
 20
462.4369999999998
 30
0.0
 11
166.8829999999999
 21
460.9369999999998
 31
0.0
  0
LINE
  5
2F7
330
2F4
100
AcDbEntity
  8
8
100
AcDbLine
 10
165.383
 20
466.927
 30
0.0
 11
166.8829999999999
 21
465.4269999999998
 31
0.0
  0
LINE
  5
2F8
330
2F4
100
AcDbEntity
  8
8
100
AcDbLine
 10
165.383
 20
471.417
 30
0.0
 11
166.8829999999999
 21
469.9169999999998
 31
0.0
  0
LINE
  5
2F9
330
2F4
100
AcDbEntity
  8
8
100
AcDbLine
 10
165.383
 20
475.9079999999998
 30
0.0
 11
166.8829999999999
 21
474.408
 31
0.0
  0
LINE
  5
2FA
330
2F4
100
AcDbEntity
  8
8
100
AcDbLine
 10
165.383
 20
480.398
 30
0.0
 11
166.8829999999999
 21
478.898
 31
0.0
  0
LINE
  5
2FB
330
2F4
100
AcDbEntity
  8
8
100
AcDbLine
 10
165.383
 20
484.888
 30
0.0
 11
166.8829999999999
 21
483.388
 31
0.0
  0
LINE
  5
2FC
330
2F4
100
AcDbEntity
  8
8
100
AcDbLine
 10
165.383
 20
489.378
 30
0.0
 11
166.8829999999999
 21
487.878
 31
0.0
  0
LINE
  5
2FD
330
2F4
100
AcDbEntity
  8
8
100
AcDbLine
 10
165.383
 20
493.868
 30
0.0
 11
166.8829999999999
 21
492.368
 31
0.0
  0
LINE
  5
2FE
330
2F4
100
AcDbEntity
  8
8
100
AcDbLine
 10
165.383
 20
498.3579999999998
 30
0.0
 11
166.8829999999999
 21
496.858
 31
0.0
  0
LINE
  5
2FF
330
2F4
100
AcDbEntity
  8
8
100
AcDbLine
 10
165.383
 20
502.848
 30
0.0
 11
166.8829999999999
 21
501.348
 31
0.0
  0
LINE
  5
300
330
2F4
100
AcDbEntity
  8
8
100
AcDbLine
 10
165.383
 20
507.338
 30
0.0
 11
166.8829999999999
 21
505.838
 31
0.0
  0
LINE
  5
301
330
2F4
100
AcDbEntity
  8
8
100
AcDbLine
 10
165.383
 20
511.829
 30
0.0
 11
166.8829999999999
 21
510.329
 31
0.0
  0
LINE
  5
302
330
2F4
100
AcDbEntity
  8
8
100
AcDbLine
 10
165.383
 20
516.3189999999998
 30
0.0
 11
166.8829999999999
 21
514.8189999999998
 31
0.0
  0
LINE
  5
303
330
2F4
100
AcDbEntity
  8
8
100
AcDbLine
 10
165.383
 20
520.8089999999998
 30
0.0
 11
166.8829999999999
 21
519.3089999999998
 31
0.0
  0
LINE
  5
304
330
2F4
100
AcDbEntity
  8
8
100
AcDbLine
 10
165.383
 20
525.2989999999998
 30
0.0
 11
166.8829999999999
 21
523.7989999999999
 31
0.0
  0
LINE
  5
305
330
2F4
100
AcDbEntity
  8
8
100
AcDbLine
 10
165.383
 20
529.7889999999998
 30
0.0
 11
166.8829999999999
 21
528.289
 31
0.0
  0
LINE
  5
306
330
2F4
100
AcDbEntity
  8
8
100
AcDbLine
 10
165.383
 20
534.2789999999999
 30
0.0
 11
166.8829999999999
 21
532.779
 31
0.0
  0
LINE
  5
307
330
2F4
100
AcDbEntity
  8
8
100
AcDbLine
 10
165.383
 20
538.769
 30
0.0
 11
166.8829999999999
 21
537.269
 31
0.0
  0
LINE
  5
308
330
2F4
100
AcDbEntity
  8
8
100
AcDbLine
 10
165.383
 20
543.259
 30
0.0
 11
166.8829999999999
 21
541.759
 31
0.0
  0
LINE
  5
309
330
2F4
100
AcDbEntity
  8
8
100
AcDbLine
 10
165.383
 20
547.75
 30
0.0
 11
166.8829999999999
 21
546.25
 31
0.0
  0
LINE
  5
30A
330
2F4
100
AcDbEntity
  8
8
100
AcDbLine
 10
165.383
 20
552.24
 30
0.0
 11
166.8829999999999
 21
550.74
 31
0.0
  0
LINE
  5
30B
330
2F4
100
AcDbEntity
  8
8
100
AcDbLine
 10
165.383
 20
556.73
 30
0.0
 11
166.8829999999999
 21
555.23
 31
0.0
  0
LINE
  5
30C
330
2F4
100
AcDbEntity
  8
8
100
AcDbLine
 10
165.383
 20
561.22
 30
0.0
 11
166.8829999999999
 21
559.7199999999998
 31
0.0
  0
LINE
  5
30D
330
2F4
100
AcDbEntity
  8
8
100
AcDbLine
 10
165.383
 20
565.71
 30
0.0
 11
166.8829999999999
 21
564.21
 31
0.0
  0
LINE
  5
30E
330
2F4
100
AcDbEntity
  8
8
100
AcDbLine
 10
165.383
 20
570.2
 30
0.0
 11
166.8829999999999
 21
568.7
 31
0.0
  0
LINE
  5
30F
330
2F4
100
AcDbEntity
  8
8
100
AcDbLine
 10
165.383
 20
574.6900000000001
 30
0.0
 11
166.8829999999999
 21
573.19
 31
0.0
  0
LINE
  5
310
330
2F4
100
AcDbEntity
  8
8
100
AcDbLine
 10
165.383
 20
579.1799999999997
 30
0.0
 11
166.8829999999999
 21
577.6799999999997
 31
0.0
  0
LINE
  5
311
330
2F4
100
AcDbEntity
  8
8
100
AcDbLine
 10
165.383
 20
583.6709999999998
 30
0.0
 11
166.8829999999999
 21
582.1709999999998
 31
0.0
  0
LINE
  5
312
330
2F4
100
AcDbEntity
  8
8
100
AcDbLine
 10
165.383
 20
588.1609999999997
 30
0.0
 11
166.8829999999999
 21
586.6609999999996
 31
0.0
  0
LINE
  5
313
330
2F4
100
AcDbEntity
  8
8
100
AcDbLine
 10
165.383
 20
592.6509999999997
 30
0.0
 11
166.8829999999999
 21
591.1509999999997
 31
0.0
  0
LINE
  5
314
330
2F4
100
AcDbEntity
  8
8
100
AcDbLine
 10
165.383
 20
597.1409999999997
 30
0.0
 11
166.8829999999999
 21
595.6409999999997
 31
0.0
  0
LINE
  5
315
330
2F4
100
AcDbEntity
  8
8
100
AcDbLine
 10
165.455
 20
601.5589999999997
 30
0.0
 11
166.8829999999999
 21
600.131
 31
0.0
  0
LINE
  5
316
330
2F4
100
AcDbEntity
  8
8
100
AcDbLine
 10
167.132
 20
604.3719999999997
 30
0.0
 11
168.214
 21
603.289
 31
0.0
  0
LINE
  5
317
330
2F4
100
AcDbEntity
  8
8
100
AcDbLine
 10
170.695
 20
605.2979999999998
 30
0.0
 11
172.195
 21
603.798
 31
0.0
  0
LINE
  5
318
330
2F4
100
AcDbEntity
  8
8
100
AcDbLine
 10
175.1859999999999
 20
605.2979999999998
 30
0.0
 11
176.686
 21
603.798
 31
0.0
  0
LINE
  5
319
330
2F4
100
AcDbEntity
  8
8
100
AcDbLine
 10
179.676
 20
605.2979999999998
 30
0.0
 11
181.1759999999999
 21
603.798
 31
0.0
  0
LINE
  5
31A
330
2F4
100
AcDbEntity
  8
8
100
AcDbLine
 10
184.166
 20
605.2979999999998
 30
0.0
 11
185.666
 21
603.798
 31
0.0
  0
LINE
  5
31B
330
2F4
100
AcDbEntity
  8
8
100
AcDbLine
 10
188.656
 20
605.2979999999998
 30
0.0
 11
190.156
 21
603.798
 31
0.0
  0
LINE
  5
31C
330
2F4
100
AcDbEntity
  8
8
100
AcDbLine
 10
193.146
 20
605.2979999999998
 30
0.0
 11
194.382
 21
604.062
 31
0.0
  0
ENDBLK
  5
31D
330
2F4
100
AcDbEntity
  8
0
100
AcDbBlockEnd
  0
BLOCK
  5
31F
330
31E
100
AcDbEntity
  8
0
100
AcDbBlockBegin
  2
*X3
 70
     1
 10
0.0
 20
0.0
 30
0.0
  3
*X3
  1

  0
LINE
  5
320
330
31E
100
AcDbEntity
  8
8
100
AcDbLine
 10
361.883
 20
463.503
 30
0.0
 11
363.3830000000001
 21
462.003
 31
0.0
  0
LINE
  5
321
330
31E
100
AcDbEntity
  8
8
100
AcDbLine
 10
361.883
 20
467.993
 30
0.0
 11
363.3830000000001
 21
466.493
 31
0.0
  0
LINE
  5
322
330
31E
100
AcDbEntity
  8
8
100
AcDbLine
 10
361.883
 20
472.4829999999998
 30
0.0
 11
363.3830000000001
 21
470.983
 31
0.0
  0
LINE
  5
323
330
31E
100
AcDbEntity
  8
8
100
AcDbLine
 10
361.883
 20
476.973
 30
0.0
 11
363.3830000000001
 21
475.473
 31
0.0
  0
LINE
  5
324
330
31E
100
AcDbEntity
  8
8
100
AcDbLine
 10
361.883
 20
481.463
 30
0.0
 11
363.3830000000001
 21
479.963
 31
0.0
  0
LINE
  5
325
330
31E
100
AcDbEntity
  8
8
100
AcDbLine
 10
361.883
 20
485.953
 30
0.0
 11
363.3830000000001
 21
484.453
 31
0.0
  0
LINE
  5
326
330
31E
100
AcDbEntity
  8
8
100
AcDbLine
 10
361.883
 20
490.444
 30
0.0
 11
363.3830000000001
 21
488.944
 31
0.0
  0
LINE
  5
327
330
31E
100
AcDbEntity
  8
8
100
AcDbLine
 10
361.883
 20
494.934
 30
0.0
 11
363.3830000000001
 21
493.434
 31
0.0
  0
LINE
  5
328
330
31E
100
AcDbEntity
  8
8
100
AcDbLine
 10
361.883
 20
499.424
 30
0.0
 11
363.3830000000001
 21
497.924
 31
0.0
  0
LINE
  5
329
330
31E
100
AcDbEntity
  8
8
100
AcDbLine
 10
361.883
 20
503.9139999999998
 30
0.0
 11
363.3830000000001
 21
502.414
 31
0.0
  0
LINE
  5
32A
330
31E
100
AcDbEntity
  8
8
100
AcDbLine
 10
361.883
 20
508.4039999999998
 30
0.0
 11
363.3830000000001
 21
506.904
 31
0.0
  0
LINE
  5
32B
330
31E
100
AcDbEntity
  8
8
100
AcDbLine
 10
361.883
 20
512.894
 30
0.0
 11
363.3830000000001
 21
511.394
 31
0.0
  0
LINE
  5
32C
330
31E
100
AcDbEntity
  8
8
100
AcDbLine
 10
361.883
 20
517.384
 30
0.0
 11
363.3830000000001
 21
515.884
 31
0.0
  0
LINE
  5
32D
330
31E
100
AcDbEntity
  8
8
100
AcDbLine
 10
361.883
 20
521.874
 30
0.0
 11
363.3830000000001
 21
520.374
 31
0.0
  0
LINE
  5
32E
330
31E
100
AcDbEntity
  8
8
100
AcDbLine
 10
361.883
 20
526.365
 30
0.0
 11
363.3830000000001
 21
524.865
 31
0.0
  0
LINE
  5
32F
330
31E
100
AcDbEntity
  8
8
100
AcDbLine
 10
361.883
 20
530.855
 30
0.0
 11
363.3830000000001
 21
529.355
 31
0.0
  0
LINE
  5
330
330
31E
100
AcDbEntity
  8
8
100
AcDbLine
 10
361.883
 20
535.345
 30
0.0
 11
363.3830000000001
 21
533.845
 31
0.0
  0
LINE
  5
331
330
31E
100
AcDbEntity
  8
8
100
AcDbLine
 10
361.883
 20
539.835
 30
0.0
 11
363.3830000000001
 21
538.335
 31
0.0
  0
LINE
  5
332
330
31E
100
AcDbEntity
  8
8
100
AcDbLine
 10
361.883
 20
544.325
 30
0.0
 11
363.3830000000001
 21
542.825
 31
0.0
  0
LINE
  5
333
330
31E
100
AcDbEntity
  8
8
100
AcDbLine
 10
361.883
 20
548.815
 30
0.0
 11
363.3830000000001
 21
547.315
 31
0.0
  0
LINE
  5
334
330
31E
100
AcDbEntity
  8
8
100
AcDbLine
 10
361.883
 20
553.3049999999998
 30
0.0
 11
363.3830000000001
 21
551.8049999999998
 31
0.0
  0
LINE
  5
335
330
31E
100
AcDbEntity
  8
8
100
AcDbLine
 10
361.883
 20
557.7949999999998
 30
0.0
 11
363.3830000000001
 21
556.2949999999998
 31
0.0
  0
LINE
  5
336
330
31E
100
AcDbEntity
  8
8
100
AcDbLine
 10
361.883
 20
562.2859999999998
 30
0.0
 11
363.3830000000001
 21
560.7859999999998
 31
0.0
  0
LINE
  5
337
330
31E
100
AcDbEntity
  8
8
100
AcDbLine
 10
361.883
 20
566.7759999999997
 30
0.0
 11
363.3830000000001
 21
565.2759999999997
 31
0.0
  0
LINE
  5
338
330
31E
100
AcDbEntity
  8
8
100
AcDbLine
 10
361.883
 20
571.2659999999997
 30
0.0
 11
363.3830000000001
 21
569.7659999999997
 31
0.0
  0
LINE
  5
339
330
31E
100
AcDbEntity
  8
8
100
AcDbLine
 10
361.883
 20
575.7559999999997
 30
0.0
 11
363.3830000000001
 21
574.256
 31
0.0
  0
LINE
  5
33A
330
31E
100
AcDbEntity
  8
8
100
AcDbLine
 10
336.83
 20
605.2979999999998
 30
0.0
 11
338.33
 21
603.798
 31
0.0
  0
LINE
  5
33B
330
31E
100
AcDbEntity
  8
8
100
AcDbLine
 10
361.883
 20
580.2459999999999
 30
0.0
 11
363.3830000000001
 21
578.746
 31
0.0
  0
LINE
  5
33C
330
31E
100
AcDbEntity
  8
8
100
AcDbLine
 10
341.32
 20
605.2979999999998
 30
0.0
 11
342.82
 21
603.798
 31
0.0
  0
LINE
  5
33D
330
31E
100
AcDbEntity
  8
8
100
AcDbLine
 10
361.883
 20
584.736
 30
0.0
 11
363.3830000000001
 21
583.236
 31
0.0
  0
LINE
  5
33E
330
31E
100
AcDbEntity
  8
8
100
AcDbLine
 10
345.81
 20
605.2979999999998
 30
0.0
 11
347.31
 21
603.798
 31
0.0
  0
LINE
  5
33F
330
31E
100
AcDbEntity
  8
8
100
AcDbLine
 10
361.883
 20
589.226
 30
0.0
 11
363.3830000000001
 21
587.7259999999997
 31
0.0
  0
LINE
  5
340
330
31E
100
AcDbEntity
  8
8
100
AcDbLine
 10
350.301
 20
605.2979999999998
 30
0.0
 11
351.801
 21
603.798
 31
0.0
  0
LINE
  5
341
330
31E
100
AcDbEntity
  8
8
100
AcDbLine
 10
361.883
 20
593.716
 30
0.0
 11
363.3830000000001
 21
592.2159999999998
 31
0.0
  0
LINE
  5
342
330
31E
100
AcDbEntity
  8
8
100
AcDbLine
 10
354.791
 20
605.2979999999998
 30
0.0
 11
356.291
 21
603.798
 31
0.0
  0
LINE
  5
343
330
31E
100
AcDbEntity
  8
8
100
AcDbLine
 10
361.883
 20
598.207
 30
0.0
 11
363.3830000000001
 21
596.7069999999997
 31
0.0
  0
LINE
  5
344
330
31E
100
AcDbEntity
  8
8
100
AcDbLine
 10
359.3230000000001
 20
605.2569999999997
 30
0.0
 11
363.341
 21
601.239
 31
0.0
  0
ENDBLK
  5
345
330
31E
100
AcDbEntity
  8
0
100
AcDbBlockEnd
  0
BLOCK
  5
347
330
346
100
AcDbEntity
  8
0
100
AcDbBlockBegin
  2
*X4
 70
     1
 10
0.0
 20
0.0
 30
0.0
  3
*X4
  1

  0
LINE
  5
348
330
346
100
AcDbEntity
  8
8
100
AcDbLine
 10
160.719
 20
498.7239999999998
 30
0.0
 11
165.383
 21
503.3869999999998
 31
0.0
  0
LINE
  5
349
330
346
100
AcDbEntity
  8
8
100
AcDbLine
 10
156.229
 20
498.7239999999998
 30
0.0
 11
165.383
 21
507.8769999999998
 31
0.0
  0
LINE
  5
34A
330
346
100
AcDbEntity
  8
8
100
AcDbLine
 10
151.739
 20
498.7239999999998
 30
0.0
 11
163.739
 21
510.724
 31
0.0
  0
LINE
  5
34B
330
346
100
AcDbEntity
  8
8
100
AcDbLine
 10
147.249
 20
498.7239999999998
 30
0.0
 11
155.249
 21
506.7239999999998
 31
0.0
  0
LINE
  5
34C
330
346
100
AcDbEntity
  8
8
100
AcDbLine
 10
142.759
 20
498.7239999999998
 30
0.0
 11
150.759
 21
506.7239999999998
 31
0.0
  0
LINE
  5
34D
330
346
100
AcDbEntity
  8
8
100
AcDbLine
 10
140.383
 20
500.838
 30
0.0
 11
146.269
 21
506.7239999999998
 31
0.0
  0
LINE
  5
34E
330
346
100
AcDbEntity
  8
8
100
AcDbLine
 10
140.383
 20
505.3279999999999
 30
0.0
 11
141.779
 21
506.7239999999998
 31
0.0
  0
LINE
  5
34F
330
346
100
AcDbEntity
  8
8
100
AcDbLine
 10
165.383
 20
508.312
 30
0.0
 11
162.97
 21
510.724
 31
0.0
  0
LINE
  5
350
330
346
100
AcDbEntity
  8
8
100
AcDbLine
 10
165.383
 20
503.8219999999998
 30
0.0
 11
159.383
 21
509.8219999999998
 31
0.0
  0
LINE
  5
351
330
346
100
AcDbEntity
  8
8
100
AcDbLine
 10
165.383
 20
499.3319999999997
 30
0.0
 11
157.99
 21
506.7239999999998
 31
0.0
  0
LINE
  5
352
330
346
100
AcDbEntity
  8
8
100
AcDbLine
 10
161.5
 20
498.7239999999998
 30
0.0
 11
153.5
 21
506.7239999999998
 31
0.0
  0
LINE
  5
353
330
346
100
AcDbEntity
  8
8
100
AcDbLine
 10
157.01
 20
498.7239999999998
 30
0.0
 11
149.01
 21
506.7239999999998
 31
0.0
  0
LINE
  5
354
330
346
100
AcDbEntity
  8
8
100
AcDbLine
 10
152.52
 20
498.7239999999998
 30
0.0
 11
144.52
 21
506.7239999999998
 31
0.0
  0
LINE
  5
355
330
346
100
AcDbEntity
  8
8
100
AcDbLine
 10
148.029
 20
498.7239999999998
 30
0.0
 11
140.383
 21
506.3709999999998
 31
0.0
  0
LINE
  5
356
330
346
100
AcDbEntity
  8
8
100
AcDbLine
 10
143.539
 20
498.7239999999998
 30
0.0
 11
140.383
 21
501.881
 31
0.0
  0
ENDBLK
  5
357
330
346
100
AcDbEntity
  8
0
100
AcDbBlockEnd
  0
BLOCK
  5
359
330
358
100
AcDbEntity
  8
0
100
AcDbBlockBegin
  2
*X5
 70
     1
 10
0.0
 20
0.0
 30
0.0
  3
*X5
  1

  0
LINE
  5
35A
330
358
100
AcDbEntity
  8
8
100
AcDbLine
 10
385.226
 20
498.7239999999998
 30
0.0
 11
388.3830000000001
 21
501.881
 31
0.0
  0
LINE
  5
35B
330
358
100
AcDbEntity
  8
8
100
AcDbLine
 10
380.736
 20
498.7239999999998
 30
0.0
 11
388.3830000000001
 21
506.3709999999998
 31
0.0
  0
LINE
  5
35C
330
358
100
AcDbEntity
  8
8
100
AcDbLine
 10
376.246
 20
498.7239999999998
 30
0.0
 11
384.246
 21
506.7239999999998
 31
0.0
  0
LINE
  5
35D
330
358
100
AcDbEntity
  8
8
100
AcDbLine
 10
371.755
 20
498.7239999999998
 30
0.0
 11
379.755
 21
506.7239999999998
 31
0.0
  0
LINE
  5
35E
330
358
100
AcDbEntity
  8
8
100
AcDbLine
 10
367.265
 20
498.7239999999998
 30
0.0
 11
375.265
 21
506.7239999999998
 31
0.0
  0
LINE
  5
35F
330
358
100
AcDbEntity
  8
8
100
AcDbLine
 10
363.3830000000001
 20
499.3319999999997
 30
0.0
 11
370.775
 21
506.7239999999998
 31
0.0
  0
LINE
  5
360
330
358
100
AcDbEntity
  8
8
100
AcDbLine
 10
363.3830000000001
 20
503.8219999999998
 30
0.0
 11
369.3830000000001
 21
509.8219999999998
 31
0.0
  0
LINE
  5
361
330
358
100
AcDbEntity
  8
8
100
AcDbLine
 10
363.3830000000001
 20
508.312
 30
0.0
 11
365.795
 21
510.724
 31
0.0
  0
LINE
  5
362
330
358
100
AcDbEntity
  8
8
100
AcDbLine
 10
388.3830000000001
 20
500.838
 30
0.0
 11
382.496
 21
506.7239999999998
 31
0.0
  0
LINE
  5
363
330
358
100
AcDbEntity
  8
8
100
AcDbLine
 10
386.006
 20
498.7239999999998
 30
0.0
 11
378.006
 21
506.7239999999998
 31
0.0
  0
LINE
  5
364
330
358
100
AcDbEntity
  8
8
100
AcDbLine
 10
381.516
 20
498.7239999999998
 30
0.0
 11
373.516
 21
506.7239999999998
 31
0.0
  0
LINE
  5
365
330
358
100
AcDbEntity
  8
8
100
AcDbLine
 10
377.026
 20
498.7239999999998
 30
0.0
 11
365.026
 21
510.724
 31
0.0
  0
LINE
  5
366
330
358
100
AcDbEntity
  8
8
100
AcDbLine
 10
372.536
 20
498.7239999999998
 30
0.0
 11
363.3830000000001
 21
507.8769999999998
 31
0.0
  0
LINE
  5
367
330
358
100
AcDbEntity
  8
8
100
AcDbLine
 10
368.046
 20
498.7239999999998
 30
0.0
 11
363.3830000000001
 21
503.3869999999998
 31
0.0
  0
LINE
  5
368
330
358
100
AcDbEntity
  8
8
100
AcDbLine
 10
363.556
 20
498.7239999999998
 30
0.0
 11
363.3830000000001
 21
498.897
 31
0.0
  0
ENDBLK
  5
369
330
358
100
AcDbEntity
  8
0
100
AcDbBlockEnd
  0
BLOCK
  5
38A
330
389
100
AcDbEntity
  8
0
100
AcDbBlockBegin
  2
*X6
 70
     1
 10
0.0
 20
0.0
 30
0.0
  3
*X6
  1

  0
LINE
  5
38B
330
389
100
AcDbEntity
  8
8
100
AcDbLine
 10
175.883
 20
613.506
 30
0.0
 11
177.383
 21
612.0059999999997
 31
0.0
  0
LINE
  5
38C
330
389
100
AcDbEntity
  8
8
100
AcDbLine
 10
182.59
 20
606.798
 30
0.0
 11
184.09
 21
605.2979999999998
 31
0.0
  0
LINE
  5
38D
330
389
100
AcDbEntity
  8
8
100
AcDbLine
 10
175.883
 20
617.996
 30
0.0
 11
177.383
 21
616.4959999999997
 31
0.0
  0
LINE
  5
38E
330
389
100
AcDbEntity
  8
8
100
AcDbLine
 10
187.08
 20
606.798
 30
0.0
 11
188.383
 21
605.496
 31
0.0
  0
LINE
  5
38F
330
389
100
AcDbEntity
  8
8
100
AcDbLine
 10
164.383
 20
633.9859999999998
 30
0.0
 11
165.57
 21
632.7989999999998
 31
0.0
  0
LINE
  5
390
330
389
100
AcDbEntity
  8
8
100
AcDbLine
 10
175.883
 20
622.4859999999997
 30
0.0
 11
177.383
 21
620.9859999999999
 31
0.0
  0
LINE
  5
391
330
389
100
AcDbEntity
  8
8
100
AcDbLine
 10
164.383
 20
638.4759999999999
 30
0.0
 11
165.883
 21
636.976
 31
0.0
  0
LINE
  5
392
330
389
100
AcDbEntity
  8
8
100
AcDbLine
 10
175.883
 20
626.9759999999998
 30
0.0
 11
177.383
 21
625.476
 31
0.0
  0
LINE
  5
393
330
389
100
AcDbEntity
  8
8
100
AcDbLine
 10
165.375
 20
641.9730000000002
 30
0.0
 11
166.425
 21
640.9229999999999
 31
0.0
  0
LINE
  5
394
330
389
100
AcDbEntity
  8
8
100
AcDbLine
 10
175.883
 20
631.4659999999999
 30
0.0
 11
177.383
 21
629.966
 31
0.0
  0
LINE
  5
395
330
389
100
AcDbEntity
  8
8
100
AcDbLine
 10
169.04
 20
642.7979999999998
 30
0.0
 11
170.54
 21
641.2989999999997
 31
0.0
  0
LINE
  5
396
330
389
100
AcDbEntity
  8
8
100
AcDbLine
 10
175.883
 20
635.956
 30
0.0
 11
177.383
 21
634.456
 31
0.0
  0
LINE
  5
397
330
389
100
AcDbEntity
  8
8
100
AcDbLine
 10
173.53
 20
642.7979999999998
 30
0.0
 11
177.383
 21
638.946
 31
0.0
  0
ENDBLK
  5
398
330
389
100
AcDbEntity
  8
0
100
AcDbBlockEnd
  0
BLOCK
  5
39A
330
399
100
AcDbEntity
  8
0
100
AcDbBlockBegin
  2
*X7
 70
     1
 10
0.0
 20
0.0
 30
0.0
  3
*X7
  1

  0
LINE
  5
39B
330
399
100
AcDbEntity
  8
8
100
AcDbLine
 10
344.2340000000001
 20
606.798
 30
0.0
 11
345.734
 21
605.2979999999998
 31
0.0
  0
LINE
  5
39C
330
399
100
AcDbEntity
  8
8
100
AcDbLine
 10
348.724
 20
606.798
 30
0.0
 11
350.177
 21
605.346
 31
0.0
  0
LINE
  5
39D
330
399
100
AcDbEntity
  8
8
100
AcDbLine
 10
351.383
 20
608.63
 30
0.0
 11
352.705
 21
607.308
 31
0.0
  0
LINE
  5
39E
330
399
100
AcDbEntity
  8
8
100
AcDbLine
 10
351.383
 20
613.121
 30
0.0
 11
352.8830000000001
 21
611.6209999999997
 31
0.0
  0
LINE
  5
39F
330
399
100
AcDbEntity
  8
8
100
AcDbLine
 10
351.383
 20
617.611
 30
0.0
 11
352.8830000000001
 21
616.1109999999998
 31
0.0
  0
LINE
  5
3A0
330
399
100
AcDbEntity
  8
8
100
AcDbLine
 10
351.383
 20
622.1009999999997
 30
0.0
 11
352.8830000000001
 21
620.601
 31
0.0
  0
LINE
  5
3A1
330
399
100
AcDbEntity
  8
8
100
AcDbLine
 10
351.383
 20
626.5909999999998
 30
0.0
 11
352.8830000000001
 21
625.091
 31
0.0
  0
LINE
  5
3A2
330
399
100
AcDbEntity
  8
8
100
AcDbLine
 10
351.383
 20
631.081
 30
0.0
 11
352.8830000000001
 21
629.581
 31
0.0
  0
LINE
  5
3A3
330
399
100
AcDbEntity
  8
8
100
AcDbLine
 10
351.383
 20
635.571
 30
0.0
 11
352.8830000000001
 21
634.071
 31
0.0
  0
LINE
  5
3A4
330
399
100
AcDbEntity
  8
8
100
AcDbLine
 10
351.421
 20
640.0219999999998
 30
0.0
 11
352.8830000000001
 21
638.561
 31
0.0
  0
LINE
  5
3A5
330
399
100
AcDbEntity
  8
8
100
AcDbLine
 10
353.34
 20
642.594
 30
0.0
 11
354.635
 21
641.2989999999997
 31
0.0
  0
LINE
  5
3A6
330
399
100
AcDbEntity
  8
8
100
AcDbLine
 10
362.8830000000001
 20
633.0509999999998
 30
0.0
 11
363.135
 21
632.7989999999998
 31
0.0
  0
LINE
  5
3A7
330
399
100
AcDbEntity
  8
8
100
AcDbLine
 10
357.626
 20
642.7979999999998
 30
0.0
 11
359.125
 21
641.2989999999997
 31
0.0
  0
LINE
  5
3A8
330
399
100
AcDbEntity
  8
8
100
AcDbLine
 10
362.8830000000001
 20
637.5419999999998
 30
0.0
 11
364.383
 21
636.0419999999997
 31
0.0
  0
LINE
  5
3A9
330
399
100
AcDbEntity
  8
8
100
AcDbLine
 10
362.23
 20
642.6849999999997
 30
0.0
 11
364.269
 21
640.6449999999997
 31
0.0
  0
ENDBLK
  5
3AA
330
399
100
AcDbEntity
  8
0
100
AcDbBlockEnd
  0
BLOCK
  5
7AD
330
7A3
100
AcDbEntity
  8
0
100
AcDbBlockBegin
  2
*D8
 70
     1
 10
0.0
 20
0.0
 30
0.0
  3
*D8
  1

  0
LINE
  5
240F
330
7A3
100
AcDbEntity
  8
AM_5
100
AcDbLine
 10
2535.634887554155
 20
1542.137440827206
 30
0.0
 11
2528.0
 21
1542.137440827206
 31
0.0
  0
LINE
  5
2410
330
7A3
100
AcDbEntity
  8
AM_5
100
AcDbLine
 10
2386.633887554155
 20
1506.14
 30
0.0
 11
2532.0
 21
1506.14
 31
0.0
  0
LINE
  5
2411
330
7A3
100
AcDbEntity
  8
AM_5
100
AcDbLine
 10
2530.000000000001
 20
1528.137440827206
 30
0.0
 11
2530.000000000001
 21
1520.14
 31
0.0
  0
LINE
  5
2412
330
7A3
100
AcDbEntity
  8
AM_5
100
AcDbLine
 10
2530.000000000001
 20
1506.14
 30
0.0
 11
2530.000000000001
 21
1438.952755905511
 31
0.0
  0
SOLID
  5
2413
330
7A3
100
AcDbEntity
  8
AM_5
100
AcDbTrace
 10
2527.666666666667
 20
1528.137440827206
 30
0.0
 11
2532.333333333334
 21
1528.137440827206
 31
0.0
 12
2530.000000000001
 22
1542.137440827206
 32
0.0
 13
2530.000000000001
 23
1542.137440827206
 33
0.0
  0
SOLID
  5
2414
330
7A3
100
AcDbEntity
  8
AM_5
100
AcDbTrace
 10
2527.666666666667
 20
1520.14
 30
0.0
 11
2532.333333333334
 21
1520.14
 31
0.0
 12
2530.000000000001
 22
1506.14
 32
0.0
 13
2530.000000000001
 23
1506.14
 33
0.0
  0
MTEXT
  5
2415
330
7A3
100
AcDbEntity
  8
AM_5
 62
     2
100
AcDbMText
 10
2520.0
 20
1450.0
 30
0.0
 40
14.0
 41
0.0
 71
     5
 72
     1
  1
36
 11
0.0000000000000001
 21
1.0
 31
0.0
 73
     1
 44
1.0
1001
ACAD
1000
MTEXTBEGIN
1070
    73
1070
     1
1070
    44
1040
1.0
1070
    74
1070
     0
1000
MTEXTEND
  0
POINT
  5
2416
330
7A3
100
AcDbEntity
  8
Defpoints
 62
     0
100
AcDbPoint
 10
2537.634887554155
 20
1542.137440827206
 30
0.0
  0
POINT
  5
2417
330
7A3
100
AcDbEntity
  8
Defpoints
 62
     0
100
AcDbPoint
 10
2384.633887554155
 20
1506.14
 30
0.0
  0
POINT
  5
2418
330
7A3
100
AcDbEntity
  8
Defpoints
 62
     0
100
AcDbPoint
 10
2530.000000000001
 20
1506.14
 30
0.0
  0
ENDBLK
  5
7AE
330
7A3
100
AcDbEntity
  8
0
100
AcDbBlockEnd
  0
BLOCK
  5
7B9
330
7AF
100
AcDbEntity
  8
0
100
AcDbBlockBegin
  2
*D9
 70
     1
 10
0.0
 20
0.0
 30
0.0
  3
*D9
  1

  0
LINE
  5
238D
330
7AF
100
AcDbEntity
  8
AM_5
100
AcDbLine
 10
2483.532887554155
 20
1542.137440827206
 30
0.0
 11
2562.000000000001
 21
1542.137440827206
 31
0.0
  0
LINE
  5
238E
330
7AF
100
AcDbEntity
  8
AM_5
100
AcDbLine
 10
2485.633887554156
 20
1355.137440827206
 30
0.0
 11
2562.000000000001
 21
1355.137440827206
 31
0.0
  0
LINE
  5
238F
330
7AF
100
AcDbEntity
  8
AM_5
100
AcDbLine
 10
2560.0
 20
1528.137440827206
 30
0.0
 11
2560.0
 21
1369.137440827206
 31
0.0
  0
SOLID
  5
2390
330
7AF
100
AcDbEntity
  8
AM_5
100
AcDbTrace
 10
2557.666666666667
 20
1528.137440827206
 30
0.0
 11
2562.333333333334
 21
1528.137440827206
 31
0.0
 12
2560.0
 22
1542.137440827206
 32
0.0
 13
2560.0
 23
1542.137440827206
 33
0.0
  0
SOLID
  5
2391
330
7AF
100
AcDbEntity
  8
AM_5
100
AcDbTrace
 10
2557.666666666667
 20
1369.137440827206
 30
0.0
 11
2562.333333333334
 21
1369.137440827206
 31
0.0
 12
2560.0
 22
1355.137440827206
 32
0.0
 13
2560.0
 23
1355.137440827206
 33
0.0
  0
MTEXT
  5
2392
330
7AF
100
AcDbEntity
  8
AM_5
 62
     2
100
AcDbMText
 10
2550.0
 20
1450.0
 30
0.0
 40
14.0
 41
0.0
 71
     5
 72
     1
  1
187
 11
0.0000000000000001
 21
1.0
 31
0.0
 73
     1
 44
1.0
1001
ACAD
1000
MTEXTBEGIN
1070
    73
1070
     1
1070
    44
1040
1.0
1070
    74
1070
     0
1000
MTEXTEND
  0
POINT
  5
2393
330
7AF
100
AcDbEntity
  8
Defpoints
 62
     0
100
AcDbPoint
 10
2481.532887554155
 20
1542.137440827206
 30
0.0
  0
POINT
  5
2394
330
7AF
100
AcDbEntity
  8
Defpoints
 62
     0
100
AcDbPoint
 10
2483.633887554156
 20
1355.137440827206
 30
0.0
  0
POINT
  5
2395
330
7AF
100
AcDbEntity
  8
Defpoints
 62
     0
100
AcDbPoint
 10
2560.0
 20
1355.137440827206
 30
0.0
  0
ENDBLK
  5
7BA
330
7AF
100
AcDbEntity
  8
0
100
AcDbBlockEnd
  0
BLOCK
  5
7C5
330
7BB
100
AcDbEntity
  8
0
100
AcDbBlockBegin
  2
*D10
 70
     1
 10
0.0
 20
0.0
 30
0.0
  3
*D10
  1

  0
LINE
  5
211D
330
7BB
100
AcDbEntity
  8
AM_5
100
AcDbLine
 10
2284.633887554155
 20
1541.038440827206
 30
0.0
 11
2284.633887554155
 21
1594.137440827206
 31
0.0
  0
LINE
  5
211E
330
7BB
100
AcDbEntity
  8
AM_5
100
AcDbLine
 10
2484.633887554156
 20
1541.038440827206
 30
0.0
 11
2484.633887554156
 21
1594.137440827206
 31
0.0
  0
LINE
  5
211F
330
7BB
100
AcDbEntity
  8
AM_5
100
AcDbLine
 10
2298.633887554155
 20
1592.137440827206
 30
0.0
 11
2470.633887554156
 21
1592.137440827206
 31
0.0
  0
SOLID
  5
2120
330
7BB
100
AcDbEntity
  8
AM_5
100
AcDbTrace
 10
2298.633887554155
 20
1594.470774160539
 30
0.0
 11
2298.633887554155
 21
1589.804107493873
 31
0.0
 12
2284.633887554155
 22
1592.137440827206
 32
0.0
 13
2284.633887554155
 23
1592.137440827206
 33
0.0
  0
SOLID
  5
2121
330
7BB
100
AcDbEntity
  8
AM_5
100
AcDbTrace
 10
2470.633887554156
 20
1594.470774160539
 30
0.0
 11
2470.633887554156
 21
1589.804107493873
 31
0.0
 12
2484.633887554156
 22
1592.137440827206
 32
0.0
 13
2484.633887554156
 23
1592.137440827206
 33
0.0
  0
MTEXT
  5
2122
330
7BB
100
AcDbEntity
  8
AM_5
 62
     2
100
AcDbMText
 10
2384.633887554156
 20
1602.138818779962
 30
0.0
 40
14.0
 41
0.0
 71
     5
 72
     1
  1
{\Famgdt;o} 200
 73
     1
 44
1.0
1001
ACAD
1000
MTEXTBEGIN
1070
    73
1070
     1
1070
    44
1040
1.0
1070
    74
1070
     0
1000
MTEXTEND
  0
POINT
  5
2123
330
7BB
100
AcDbEntity
  8
Defpoints
 62
     0
100
AcDbPoint
 10
2284.633887554155
 20
1539.038440827206
 30
0.0
  0
POINT
  5
2124
330
7BB
100
AcDbEntity
  8
Defpoints
 62
     0
100
AcDbPoint
 10
2484.633887554156
 20
1539.038440827206
 30
0.0
  0
POINT
  5
2125
330
7BB
100
AcDbEntity
  8
Defpoints
 62
     0
100
AcDbPoint
 10
2484.633887554156
 20
1592.137440827206
 30
0.0
  0
ENDBLK
  5
7C6
330
7BB
100
AcDbEntity
  8
0
100
AcDbBlockEnd
  0
BLOCK
  5
7D1
330
7C7
100
AcDbEntity
  8
0
100
AcDbBlockBegin
  2
*D11
 70
     1
 10
0.0
 20
0.0
 30
0.0
  3
*D11
  1

  0
LINE
  5
2149
330
7C7
100
AcDbEntity
  8
AM_5
100
AcDbLine
 10
2285.633887554156
 20
1355.638440827206
 30
0.0
 11
2285.633887554156
 21
1330.638440827206
 31
0.0
  0
LINE
  5
214A
330
7C7
100
AcDbEntity
  8
AM_5
100
AcDbLine
 10
2483.633887554156
 20
1355.638440827206
 30
0.0
 11
2483.633887554156
 21
1330.638440827206
 31
0.0
  0
LINE
  5
214B
330
7C7
100
AcDbEntity
  8
AM_5
100
AcDbLine
 10
2299.633887554156
 20
1332.638440827206
 30
0.0
 11
2469.633887554156
 21
1332.638440827206
 31
0.0
  0
SOLID
  5
214C
330
7C7
100
AcDbEntity
  8
AM_5
100
AcDbTrace
 10
2299.633887554156
 20
1334.971774160539
 30
0.0
 11
2299.633887554156
 21
1330.305107493873
 31
0.0
 12
2285.633887554156
 22
1332.638440827206
 32
0.0
 13
2285.633887554156
 23
1332.638440827206
 33
0.0
  0
SOLID
  5
214D
330
7C7
100
AcDbEntity
  8
AM_5
100
AcDbTrace
 10
2469.633887554156
 20
1334.971774160539
 30
0.0
 11
2469.633887554156
 21
1330.305107493873
 31
0.0
 12
2483.633887554156
 22
1332.638440827206
 32
0.0
 13
2483.633887554156
 23
1332.638440827206
 33
0.0
  0
MTEXT
  5
214E
330
7C7
100
AcDbEntity
  8
AM_5
 62
     2
100
AcDbMText
 10
2384.633887554156
 20
1342.638440827206
 30
0.0
 40
14.0
 41
0.0
 71
     5
 72
     1
  1
%%c  198 
 73
     1
 44
1.0
1001
ACAD
1000
MTEXTBEGIN
1070
    73
1070
     1
1070
    44
1040
1.0
1070
    74
1070
     0
1000
MTEXTEND
  0
POINT
  5
214F
330
7C7
100
AcDbEntity
  8
Defpoints
 62
     0
100
AcDbPoint
 10
2285.633887554156
 20
1357.638440827206
 30
0.0
  0
POINT
  5
2150
330
7C7
100
AcDbEntity
  8
Defpoints
 62
     0
100
AcDbPoint
 10
2483.633887554156
 20
1357.638440827206
 30
0.0
  0
POINT
  5
2151
330
7C7
100
AcDbEntity
  8
Defpoints
 62
     0
100
AcDbPoint
 10
2483.633887554156
 20
1332.638440827206
 30
0.0
  0
ENDBLK
  5
7D2
330
7C7
100
AcDbEntity
  8
0
100
AcDbBlockEnd
  0
BLOCK
  5
7DD
330
7D3
100
AcDbEntity
  8
0
100
AcDbBlockBegin
  2
*D12
 70
     1
 10
0.0
 20
0.0
 30
0.0
  3
*D12
  1

  0
LINE
  5
2126
330
7D3
100
AcDbEntity
  8
AM_5
100
AcDbLine
 10
2299.133887554155
 20
1543.137440827206
 30
0.0
 11
2299.133887554155
 21
1569.137440827206
 31
0.0
  0
LINE
  5
2127
330
7D3
100
AcDbEntity
  8
AM_5
100
AcDbLine
 10
2470.133887554156
 20
1543.137440827206
 30
0.0
 11
2470.133887554156
 21
1569.137440827206
 31
0.0
  0
LINE
  5
2128
330
7D3
100
AcDbEntity
  8
AM_5
100
AcDbLine
 10
2313.133887554155
 20
1567.137440827206
 30
0.0
 11
2456.133887554156
 21
1567.137440827206
 31
0.0
  0
SOLID
  5
2129
330
7D3
100
AcDbEntity
  8
AM_5
100
AcDbTrace
 10
2313.133887554155
 20
1569.470774160539
 30
0.0
 11
2313.133887554155
 21
1564.804107493873
 31
0.0
 12
2299.133887554155
 22
1567.137440827206
 32
0.0
 13
2299.133887554155
 23
1567.137440827206
 33
0.0
  0
SOLID
  5
212A
330
7D3
100
AcDbEntity
  8
AM_5
100
AcDbTrace
 10
2456.133887554156
 20
1569.470774160539
 30
0.0
 11
2456.133887554156
 21
1564.804107493873
 31
0.0
 12
2470.133887554156
 22
1567.137440827206
 32
0.0
 13
2470.133887554156
 23
1567.137440827206
 33
0.0
  0
MTEXT
  5
212B
330
7D3
100
AcDbEntity
  8
AM_5
 62
     2
100
AcDbMText
 10
2384.633887554156
 20
1577.137440827206
 30
0.0
 40
14.0
 41
0.0
 71
     5
 72
     1
  1
{\Famgdt;o} 171
 73
     1
 44
1.0
1001
ACAD
1000
MTEXTBEGIN
1070
    73
1070
     1
1070
    44
1040
1.0
1070
    74
1070
     0
1000
MTEXTEND
  0
POINT
  5
212C
330
7D3
100
AcDbEntity
  8
Defpoints
 62
     0
100
AcDbPoint
 10
2299.133887554155
 20
1541.137440827206
 30
0.0
  0
POINT
  5
212D
330
7D3
100
AcDbEntity
  8
Defpoints
 62
     0
100
AcDbPoint
 10
2470.133887554156
 20
1541.137440827206
 30
0.0
  0
POINT
  5
212E
330
7D3
100
AcDbEntity
  8
Defpoints
 62
     0
100
AcDbPoint
 10
2470.133887554156
 20
1567.137440827206
 30
0.0
  0
ENDBLK
  5
7DE
330
7D3
100
AcDbEntity
  8
0
100
AcDbBlockEnd
  0
BLOCK
  5
7E9
330
7DF
100
AcDbEntity
  8
0
100
AcDbBlockBegin
  2
*D13
 70
     1
 10
0.0
 20
0.0
 30
0.0
  3
*D13
  1

  0
LINE
  5
2152
330
7DF
100
AcDbEntity
  8
AM_5
100
AcDbLine
 10
2468.127887554155
 20
1220.467440827206
 30
0.0
 11
2512.154887554157
 21
1220.467440827206
 31
0.0
  0
LINE
  5
2153
330
7DF
100
AcDbEntity
  8
AM_5
100
AcDbLine
 10
2468.127887554155
 20
1250.967440827206
 30
0.0
 11
2512.154887554157
 21
1250.967440827206
 31
0.0
  0
LINE
  5
2154
330
7DF
100
AcDbEntity
  8
AM_5
100
AcDbLine
 10
2510.154887554156
 20
1206.467440827206
 30
0.0
 11
2510.154887554156
 21
1192.467440827206
 31
0.0
  0
LINE
  5
2155
330
7DF
100
AcDbEntity
  8
AM_5
100
AcDbLine
 10
2510.154887554156
 20
1264.967440827206
 30
0.0
 11
2510.154887554156
 21
1278.967440827206
 31
0.0
  0
LINE
  5
2156
330
7DF
100
AcDbEntity
  8
AM_5
100
AcDbLine
 10
2510.154887554156
 20
1220.467440827206
 30
0.0
 11
2510.154887554156
 21
1250.967440827206
 31
0.0
  0
SOLID
  5
2157
330
7DF
100
AcDbEntity
  8
AM_5
100
AcDbTrace
 10
2507.821554220823
 20
1206.467440827206
 30
0.0
 11
2512.48822088749
 21
1206.467440827206
 31
0.0
 12
2510.154887554156
 22
1220.467440827206
 32
0.0
 13
2510.154887554156
 23
1220.467440827206
 33
0.0
  0
SOLID
  5
2158
330
7DF
100
AcDbEntity
  8
AM_5
100
AcDbTrace
 10
2507.821554220823
 20
1264.967440827206
 30
0.0
 11
2512.48822088749
 21
1264.967440827206
 31
0.0
 12
2510.154887554156
 22
1250.967440827206
 32
0.0
 13
2510.154887554156
 23
1250.967440827206
 33
0.0
  0
MTEXT
  5
2159
330
7DF
100
AcDbEntity
  8
AM_5
 62
     2
100
AcDbMText
 10
2500.154887554156
 20
1235.717440827206
 30
0.0
 40
14.0
 41
0.0
 71
     5
 72
     1
  1
30
 11
0.0000000000000001
 21
1.0
 31
0.0
 73
     1
 44
1.0
1001
ACAD
1000
MTEXTBEGIN
1070
    73
1070
     1
1070
    44
1040
1.0
1070
    74
1070
     0
1000
MTEXTEND
  0
POINT
  5
215A
330
7DF
100
AcDbEntity
  8
Defpoints
 62
     0
100
AcDbPoint
 10
2466.127887554155
 20
1220.467440827206
 30
0.0
  0
POINT
  5
215B
330
7DF
100
AcDbEntity
  8
Defpoints
 62
     0
100
AcDbPoint
 10
2466.127887554155
 20
1250.967440827206
 30
0.0
  0
POINT
  5
215C
330
7DF
100
AcDbEntity
  8
Defpoints
 62
     0
100
AcDbPoint
 10
2510.154887554156
 20
1250.967440827206
 30
0.0
  0
ENDBLK
  5
7EA
330
7DF
100
AcDbEntity
  8
0
100
AcDbBlockEnd
  0
BLOCK
  5
7F5
330
7EB
100
AcDbEntity
  8
0
100
AcDbBlockBegin
  2
*D14
 70
     1
 10
0.0
 20
0.0
 30
0.0
  3
*D14
  1

  0
LINE
  5
215D
330
7EB
100
AcDbEntity
  8
AM_5
100
AcDbLine
 10
2435.627887554155
 20
1252.967440827206
 30
0.0
 11
2435.627887554155
 21
1297.0
 31
0.0
  0
LINE
  5
215E
330
7EB
100
AcDbEntity
  8
AM_5
100
AcDbLine
 10
2466.127887554155
 20
1252.967440827206
 30
0.0
 11
2466.127887554155
 21
1297.0
 31
0.0
  0
LINE
  5
215F
330
7EB
100
AcDbEntity
  8
AM_5
100
AcDbLine
 10
2421.627887554155
 20
1295.0
 30
0.0
 11
2407.627887554155
 21
1295.0
 31
0.0
  0
LINE
  5
2160
330
7EB
100
AcDbEntity
  8
AM_5
100
AcDbLine
 10
2480.127887554155
 20
1295.0
 30
0.0
 11
2494.127887554155
 21
1295.0
 31
0.0
  0
LINE
  5
2161
330
7EB
100
AcDbEntity
  8
AM_5
100
AcDbLine
 10
2435.627887554155
 20
1295.0
 30
0.0
 11
2466.127887554155
 21
1295.0
 31
0.0
  0
SOLID
  5
2162
330
7EB
100
AcDbEntity
  8
AM_5
100
AcDbTrace
 10
2421.627887554155
 20
1297.333333333333
 30
0.0
 11
2421.627887554155
 21
1292.666666666667
 31
0.0
 12
2435.627887554155
 22
1295.0
 32
0.0
 13
2435.627887554155
 23
1295.0
 33
0.0
  0
SOLID
  5
2163
330
7EB
100
AcDbEntity
  8
AM_5
100
AcDbTrace
 10
2480.127887554155
 20
1297.333333333333
 30
0.0
 11
2480.127887554155
 21
1292.666666666667
 31
0.0
 12
2466.127887554155
 22
1295.0
 32
0.0
 13
2466.127887554155
 23
1295.0
 33
0.0
  0
MTEXT
  5
2164
330
7EB
100
AcDbEntity
  8
AM_5
 62
     2
100
AcDbMText
 10
2450.877887554155
 20
1305.0
 30
0.0
 40
14.0
 41
0.0
 71
     5
 72
     1
  1
30
 73
     1
 44
1.0
1001
ACAD
1000
MTEXTBEGIN
1070
    73
1070
     1
1070
    44
1040
1.0
1070
    74
1070
     0
1000
MTEXTEND
  0
POINT
  5
2165
330
7EB
100
AcDbEntity
  8
Defpoints
 62
     0
100
AcDbPoint
 10
2435.627887554155
 20
1250.967440827206
 30
0.0
  0
POINT
  5
2166
330
7EB
100
AcDbEntity
  8
Defpoints
 62
     0
100
AcDbPoint
 10
2466.127887554155
 20
1250.967440827206
 30
0.0
  0
POINT
  5
2167
330
7EB
100
AcDbEntity
  8
Defpoints
 62
     0
100
AcDbPoint
 10
2466.127887554155
 20
1295.0
 30
0.0
  0
ENDBLK
  5
7F6
330
7EB
100
AcDbEntity
  8
0
100
AcDbBlockEnd
  0
BLOCK
  5
1800
330
17FF
100
AcDbEntity
  8
0
100
AcDbBlockBegin
  2
*X15
 70
     1
 10
0.0
 20
0.0
 30
0.0
  3
*X15
  1

  0
LINE
  5
1801
330
17FF
100
AcDbEntity
  8
8
100
AcDbLine
 10
0.0
 20
0.36
 30
0.0
 11
3.883
 21
0.36
 31
0.0
  0
LINE
  5
1802
330
17FF
100
AcDbEntity
  8
8
100
AcDbLine
 10
0.0
 20
0.72
 30
0.0
 11
3.523
 21
0.72
 31
0.0
  0
LINE
  5
1803
330
17FF
100
AcDbEntity
  8
8
100
AcDbLine
 10
0.0
 20
1.08
 30
0.0
 11
3.163
 21
1.08
 31
0.0
  0
LINE
  5
1804
330
17FF
100
AcDbEntity
  8
8
100
AcDbLine
 10
0.0
 20
1.439999999999999
 30
0.0
 11
2.802999999999998
 21
1.439999999999999
 31
0.0
  0
LINE
  5
1805
330
17FF
100
AcDbEntity
  8
8
100
AcDbLine
 10
0.0
 20
1.8
 30
0.0
 11
2.443
 21
1.8
 31
0.0
  0
LINE
  5
1806
330
17FF
100
AcDbEntity
  8
8
100
AcDbLine
 10
0.0
 20
2.16
 30
0.0
 11
2.083
 21
2.16
 31
0.0
  0
LINE
  5
1807
330
17FF
100
AcDbEntity
  8
8
100
AcDbLine
 10
0.0
 20
2.52
 30
0.0
 11
1.723
 21
2.52
 31
0.0
  0
LINE
  5
1808
330
17FF
100
AcDbEntity
  8
8
100
AcDbLine
 10
0.0
 20
2.879999999999999
 30
0.0
 11
1.363
 21
2.879999999999999
 31
0.0
  0
LINE
  5
1809
330
17FF
100
AcDbEntity
  8
8
100
AcDbLine
 10
0.0
 20
3.24
 30
0.0
 11
1.002999999999999
 21
3.24
 31
0.0
  0
LINE
  5
180A
330
17FF
100
AcDbEntity
  8
8
100
AcDbLine
 10
0.0
 20
3.6
 30
0.0
 11
0.643
 21
3.6
 31
0.0
  0
LINE
  5
180B
330
17FF
100
AcDbEntity
  8
8
100
AcDbLine
 10
0.0
 20
3.959999999999998
 30
0.0
 11
0.283
 21
3.959999999999998
 31
0.0
  0
ENDBLK
  5
180C
330
17FF
100
AcDbEntity
  8
0
100
AcDbBlockEnd
  0
BLOCK
  5
180E
330
180D
100
AcDbEntity
  8
0
100
AcDbBlockBegin
  2
S22_4-6796
 70
     0
 10
0.0
 20
0.0
 30
0.0
  3
S22_4-6796
  1

  0
INSERT
  5
180F
330
180D
100
AcDbEntity
  8
8
100
AcDbBlockReference
  2
*X15
 10
0.0
 20
0.0
 30
0.0
1001
ACAD
1000
HATCH
1002
{
1070
    19
1000
ANSI31,_I
1040
0.36
1040
0.0
1002
}
  0
POLYLINE
  5
1810
330
180D
100
AcDbEntity
  8
SCHRAFFUR_RAND
100
AcDb2dPolyline
 66
     1
 10
0.0
 20
0.0
 30
0.0
 70
     1
  0
VERTEX
  5
1811
330
1810
100
AcDbEntity
  8
SCHRAFFUR_RAND
100
AcDbVertex
100
AcDb2dVertex
 10
4.243
 20
0.0
 30
0.0
  0
VERTEX
  5
1812
330
1810
100
AcDbEntity
  8
SCHRAFFUR_RAND
100
AcDbVertex
100
AcDb2dVertex
 10
0.0
 20
4.243
 30
0.0
  0
VERTEX
  5
1813
330
1810
100
AcDbEntity
  8
SCHRAFFUR_RAND
100
AcDbVertex
100
AcDb2dVertex
 10
0.0
 20
0.0
 30
0.0
  0
VERTEX
  5
1814
330
1810
100
AcDbEntity
  8
SCHRAFFUR_RAND
100
AcDbVertex
100
AcDb2dVertex
 10
4.243
 20
0.0
 30
0.0
  0
SEQEND
  5
1815
330
1810
100
AcDbEntity
  8
SCHRAFFUR_RAND
  0
POINT
  5
1816
330
180D
100
AcDbEntity
  8
PUNKTE
100
AcDbPoint
 10
0.0
 20
0.0
 30
0.0
  0
LINE
  5
1817
330
180D
100
AcDbEntity
  8
0
100
AcDbLine
 10
0.0
 20
0.0
 30
0.0
 11
4.243
 21
0.0
 31
0.0
  0
LINE
  5
1818
330
180D
100
AcDbEntity
  8
0
100
AcDbLine
 10
0.0
 20
4.243
 30
0.0
 11
4.243
 21
0.0
 31
0.0
  0
LINE
  5
1819
330
180D
100
AcDbEntity
  8
0
100
AcDbLine
 10
0.0
 20
4.243
 30
0.0
 11
0.0
 21
0.0
 31
0.0
  0
ENDBLK
  5
181A
330
180D
100
AcDbEntity
  8
0
100
AcDbBlockEnd
  0
BLOCK
  5
1828
330
1827
100
AcDbEntity
  8
0
100
AcDbBlockBegin
  2
*X17
 70
     1
 10
0.0
 20
0.0
 30
0.0
  3
*X17
  1

  0
LINE
  5
1829
330
1827
100
AcDbEntity
  8
8
100
AcDbLine
 10
176.526
 20
470.9649999999999
 30
0.0
 11
181.513
 21
475.9509999999998
 31
0.0
  0
LINE
  5
182A
330
1827
100
AcDbEntity
  8
8
100
AcDbLine
 10
175.513
 20
478.9309999999998
 30
0.0
 11
181.513
 21
484.931
 31
0.0
  0
LINE
  5
182B
330
1827
100
AcDbEntity
  8
8
100
AcDbLine
 10
175.513
 20
487.9119999999998
 30
0.0
 11
181.513
 21
493.9119999999999
 31
0.0
  0
LINE
  5
182C
330
1827
100
AcDbEntity
  8
8
100
AcDbLine
 10
175.513
 20
496.8919999999998
 30
0.0
 11
179.586
 21
500.9649999999998
 31
0.0
  0
ENDBLK
  5
182D
330
1827
100
AcDbEntity
  8
0
100
AcDbBlockEnd
  0
BLOCK
  5
182F
330
182E
100
AcDbEntity
  8
0
100
AcDbBlockBegin
  2
*X18
 70
     1
 10
0.0
 20
0.0
 30
0.0
  3
*X18
  1

  0
LINE
  5
1830
330
182E
100
AcDbEntity
  8
8
100
AcDbLine
 10
199.013
 20
475.4909999999998
 30
0.0
 11
205.013
 21
481.491
 31
0.0
  0
LINE
  5
1831
330
182E
100
AcDbEntity
  8
8
100
AcDbLine
 10
199.013
 20
484.471
 30
0.0
 11
205.013
 21
490.471
 31
0.0
  0
LINE
  5
1832
330
182E
100
AcDbEntity
  8
8
100
AcDbLine
 10
199.013
 20
493.4509999999998
 30
0.0
 11
205.013
 21
499.451
 31
0.0
  0
ENDBLK
  5
1833
330
182E
100
AcDbEntity
  8
0
100
AcDbBlockEnd
  0
BLOCK
  5
1835
330
1834
100
AcDbEntity
  8
0
100
AcDbBlockBegin
  2
*X19
 70
     1
 10
0.0
 20
0.0
 30
0.0
  3
*X19
  1

  0
LINE
  5
1836
330
1834
100
AcDbEntity
  8
8
100
AcDbLine
 10
222.513
 20
472.05
 30
0.0
 11
228.513
 21
478.0499999999998
 31
0.0
  0
LINE
  5
1837
330
1834
100
AcDbEntity
  8
8
100
AcDbLine
 10
222.513
 20
481.0299999999998
 30
0.0
 11
228.513
 21
487.0299999999998
 31
0.0
  0
LINE
  5
1838
330
1834
100
AcDbEntity
  8
8
100
AcDbLine
 10
222.513
 20
490.01
 30
0.0
 11
228.513
 21
496.0099999999997
 31
0.0
  0
LINE
  5
1839
330
1834
100
AcDbEntity
  8
8
100
AcDbLine
 10
222.513
 20
498.991
 30
0.0
 11
224.487
 21
500.9649999999998
 31
0.0
  0
ENDBLK
  5
183A
330
1834
100
AcDbEntity
  8
0
100
AcDbBlockEnd
  0
BLOCK
  5
183C
330
183B
100
AcDbEntity
  8
0
100
AcDbBlockBegin
  2
*X20
 70
     1
 10
0.0
 20
0.0
 30
0.0
  3
*X20
  1

  0
LINE
  5
183D
330
183B
100
AcDbEntity
  8
8
100
AcDbLine
 10
245.513
 20
477.089
 30
0.0
 11
251.513
 21
483.089
 31
0.0
  0
LINE
  5
183E
330
183B
100
AcDbEntity
  8
8
100
AcDbLine
 10
245.513
 20
486.07
 30
0.0
 11
251.513
 21
492.07
 31
0.0
  0
LINE
  5
183F
330
183B
100
AcDbEntity
  8
8
100
AcDbLine
 10
245.513
 20
495.0499999999998
 30
0.0
 11
251.428
 21
500.9649999999998
 31
0.0
  0
ENDBLK
  5
1840
330
183B
100
AcDbEntity
  8
0
100
AcDbBlockEnd
  0
BLOCK
  5
1842
330
1841
100
AcDbEntity
  8
0
100
AcDbBlockBegin
  2
*X21
 70
     1
 10
0.0
 20
0.0
 30
0.0
  3
*X21
  1

  0
LINE
  5
1843
330
1841
100
AcDbEntity
  8
8
100
AcDbLine
 10
269.013
 20
473.6489999999998
 30
0.0
 11
275.013
 21
479.649
 31
0.0
  0
LINE
  5
1844
330
1841
100
AcDbEntity
  8
8
100
AcDbLine
 10
269.013
 20
482.629
 30
0.0
 11
275.013
 21
488.629
 31
0.0
  0
LINE
  5
1845
330
1841
100
AcDbEntity
  8
8
100
AcDbLine
 10
269.013
 20
491.609
 30
0.0
 11
275.013
 21
497.609
 31
0.0
  0
LINE
  5
1846
330
1841
100
AcDbEntity
  8
8
100
AcDbLine
 10
269.013
 20
500.5889999999998
 30
0.0
 11
269.388
 21
500.9649999999998
 31
0.0
  0
ENDBLK
  5
1847
330
1841
100
AcDbEntity
  8
0
100
AcDbBlockEnd
  0
BLOCK
  5
1849
330
1848
100
AcDbEntity
  8
0
100
AcDbBlockBegin
  2
*X22
 70
     1
 10
0.0
 20
0.0
 30
0.0
  3
*X22
  1

  0
LINE
  5
184A
330
1848
100
AcDbEntity
  8
8
100
AcDbLine
 10
293.27
 20
470.9649999999999
 30
0.0
 11
298.713
 21
476.4079999999998
 31
0.0
  0
LINE
  5
184B
330
1848
100
AcDbEntity
  8
8
100
AcDbLine
 10
292.713
 20
479.388
 30
0.0
 11
298.713
 21
485.388
 31
0.0
  0
LINE
  5
184C
330
1848
100
AcDbEntity
  8
8
100
AcDbLine
 10
292.713
 20
488.368
 30
0.0
 11
298.713
 21
494.368
 31
0.0
  0
LINE
  5
184D
330
1848
100
AcDbEntity
  8
8
100
AcDbLine
 10
292.713
 20
497.3489999999998
 30
0.0
 11
296.329
 21
500.9649999999998
 31
0.0
  0
ENDBLK
  5
184E
330
1848
100
AcDbEntity
  8
0
100
AcDbBlockEnd
  0
BLOCK
  5
1850
330
184F
100
AcDbEntity
  8
0
100
AcDbBlockBegin
  2
*X23
 70
     1
 10
0.0
 20
0.0
 30
0.0
  3
*X23
  1

  0
LINE
  5
1851
330
184F
100
AcDbEntity
  8
8
100
AcDbLine
 10
152.013
 20
474.634
 30
0.0
 11
158.013
 21
468.634
 31
0.0
  0
LINE
  5
1852
330
184F
100
AcDbEntity
  8
8
100
AcDbLine
 10
152.013
 20
483.614
 30
0.0
 11
158.013
 21
477.614
 31
0.0
  0
LINE
  5
1853
330
184F
100
AcDbEntity
  8
8
100
AcDbLine
 10
152.013
 20
492.5939999999997
 30
0.0
 11
158.013
 21
486.594
 31
0.0
  0
LINE
  5
1854
330
184F
100
AcDbEntity
  8
8
100
AcDbLine
 10
152.623
 20
500.9649999999998
 30
0.0
 11
158.013
 21
495.574
 31
0.0
  0
ENDBLK
  5
1855
330
184F
100
AcDbEntity
  8
0
100
AcDbBlockEnd
  0
BLOCK
  5
1857
330
1856
100
AcDbEntity
  8
0
100
AcDbBlockBegin
  2
*X24
 70
     1
 10
0.0
 20
0.0
 30
0.0
  3
*X24
  1

  0
LINE
  5
1858
330
1856
100
AcDbEntity
  8
8
100
AcDbLine
 10
316.013
 20
472.278
 30
0.0
 11
322.013
 21
466.278
 31
0.0
  0
LINE
  5
1859
330
1856
100
AcDbEntity
  8
8
100
AcDbLine
 10
316.013
 20
481.258
 30
0.0
 11
322.013
 21
475.258
 31
0.0
  0
LINE
  5
185A
330
1856
100
AcDbEntity
  8
8
100
AcDbLine
 10
316.013
 20
490.239
 30
0.0
 11
322.013
 21
484.239
 31
0.0
  0
LINE
  5
185B
330
1856
100
AcDbEntity
  8
8
100
AcDbLine
 10
316.013
 20
499.2189999999998
 30
0.0
 11
322.013
 21
493.219
 31
0.0
  0
ENDBLK
  5
185C
330
1856
100
AcDbEntity
  8
0
100
AcDbBlockEnd
  0
BLOCK
  5
187A
330
1879
100
AcDbEntity
  8
0
100
AcDbBlockBegin
  2
*X25
 70
     1
 10
0.0
 20
0.0
 30
0.0
  3
*X25
  1

  0
LINE
  5
187B
330
1879
100
AcDbEntity
  8
8
100
AcDbLine
 10
154.221
 20
416.1599999999998
 30
0.0
 11
158.013
 21
416.1599999999998
 31
0.0
  0
LINE
  5
187C
330
1879
100
AcDbEntity
  8
8
100
AcDbLine
 10
154.73
 20
416.5199999999998
 30
0.0
 11
158.013
 21
416.5199999999998
 31
0.0
  0
LINE
  5
187D
330
1879
100
AcDbEntity
  8
8
100
AcDbLine
 10
155.239
 20
416.88
 30
0.0
 11
158.013
 21
416.88
 31
0.0
  0
LINE
  5
187E
330
1879
100
AcDbEntity
  8
8
100
AcDbLine
 10
155.748
 20
417.24
 30
0.0
 11
158.013
 21
417.24
 31
0.0
  0
LINE
  5
187F
330
1879
100
AcDbEntity
  8
8
100
AcDbLine
 10
156.257
 20
417.6
 30
0.0
 11
158.013
 21
417.6
 31
0.0
  0
LINE
  5
1880
330
1879
100
AcDbEntity
  8
8
100
AcDbLine
 10
156.767
 20
417.9599999999998
 30
0.0
 11
158.013
 21
417.9599999999998
 31
0.0
  0
LINE
  5
1881
330
1879
100
AcDbEntity
  8
8
100
AcDbLine
 10
157.276
 20
418.32
 30
0.0
 11
158.013
 21
418.32
 31
0.0
  0
LINE
  5
1882
330
1879
100
AcDbEntity
  8
8
100
AcDbLine
 10
157.785
 20
418.6799999999998
 30
0.0
 11
158.013
 21
418.6799999999998
 31
0.0
  0
ENDBLK
  5
1883
330
1879
100
AcDbEntity
  8
0
100
AcDbBlockEnd
  0
BLOCK
  5
1885
330
1884
100
AcDbEntity
  8
0
100
AcDbBlockBegin
  2
*X26
 70
     1
 10
0.0
 20
0.0
 30
0.0
  3
*X26
  1

  0
LINE
  5
1886
330
1884
100
AcDbEntity
  8
8
100
AcDbLine
 10
316.013
 20
249.12
 30
0.0
 11
316.407
 21
249.12
 31
0.0
  0
LINE
  5
1887
330
1884
100
AcDbEntity
  8
8
100
AcDbLine
 10
316.013
 20
249.48
 30
0.0
 11
316.916
 21
249.48
 31
0.0
  0
LINE
  5
1888
330
1884
100
AcDbEntity
  8
8
100
AcDbLine
 10
316.013
 20
249.84
 30
0.0
 11
317.425
 21
249.84
 31
0.0
  0
LINE
  5
1889
330
1884
100
AcDbEntity
  8
8
100
AcDbLine
 10
316.013
 20
250.2
 30
0.0
 11
317.934
 21
250.2
 31
0.0
  0
LINE
  5
188A
330
1884
100
AcDbEntity
  8
8
100
AcDbLine
 10
316.013
 20
250.56
 30
0.0
 11
318.444
 21
250.56
 31
0.0
  0
LINE
  5
188B
330
1884
100
AcDbEntity
  8
8
100
AcDbLine
 10
316.013
 20
250.92
 30
0.0
 11
318.953
 21
250.92
 31
0.0
  0
LINE
  5
188C
330
1884
100
AcDbEntity
  8
8
100
AcDbLine
 10
316.013
 20
251.28
 30
0.0
 11
319.462
 21
251.28
 31
0.0
  0
LINE
  5
188D
330
1884
100
AcDbEntity
  8
8
100
AcDbLine
 10
316.013
 20
251.64
 30
0.0
 11
319.971
 21
251.64
 31
0.0
  0
ENDBLK
  5
188E
330
1884
100
AcDbEntity
  8
0
100
AcDbBlockEnd
  0
BLOCK
  5
1890
330
188F
100
AcDbEntity
  8
0
100
AcDbBlockBegin
  2
*X27
 70
     1
 10
0.0
 20
0.0
 30
0.0
  3
*X27
  1

  0
LINE
  5
1891
330
188F
100
AcDbEntity
  8
8
100
AcDbLine
 10
157.619
 20
249.12
 30
0.0
 11
158.013
 21
249.12
 31
0.0
  0
LINE
  5
1892
330
188F
100
AcDbEntity
  8
8
100
AcDbLine
 10
157.11
 20
249.48
 30
0.0
 11
158.013
 21
249.48
 31
0.0
  0
LINE
  5
1893
330
188F
100
AcDbEntity
  8
8
100
AcDbLine
 10
156.601
 20
249.84
 30
0.0
 11
158.013
 21
249.84
 31
0.0
  0
LINE
  5
1894
330
188F
100
AcDbEntity
  8
8
100
AcDbLine
 10
156.091
 20
250.2
 30
0.0
 11
158.013
 21
250.2
 31
0.0
  0
LINE
  5
1895
330
188F
100
AcDbEntity
  8
8
100
AcDbLine
 10
155.582
 20
250.56
 30
0.0
 11
158.013
 21
250.56
 31
0.0
  0
LINE
  5
1896
330
188F
100
AcDbEntity
  8
8
100
AcDbLine
 10
155.0729999999999
 20
250.92
 30
0.0
 11
158.013
 21
250.92
 31
0.0
  0
LINE
  5
1897
330
188F
100
AcDbEntity
  8
8
100
AcDbLine
 10
154.564
 20
251.28
 30
0.0
 11
158.013
 21
251.28
 31
0.0
  0
LINE
  5
1898
330
188F
100
AcDbEntity
  8
8
100
AcDbLine
 10
154.055
 20
251.64
 30
0.0
 11
158.013
 21
251.64
 31
0.0
  0
ENDBLK
  5
1899
330
188F
100
AcDbEntity
  8
0
100
AcDbBlockEnd
  0
BLOCK
  5
189B
330
189A
100
AcDbEntity
  8
0
100
AcDbBlockBegin
  2
*X28
 70
     1
 10
0.0
 20
0.0
 30
0.0
  3
*X28
  1

  0
LINE
  5
189C
330
189A
100
AcDbEntity
  8
8
100
AcDbLine
 10
316.013
 20
416.1599999999998
 30
0.0
 11
319.805
 21
416.1599999999998
 31
0.0
  0
LINE
  5
189D
330
189A
100
AcDbEntity
  8
8
100
AcDbLine
 10
316.013
 20
416.5199999999998
 30
0.0
 11
319.296
 21
416.5199999999998
 31
0.0
  0
LINE
  5
189E
330
189A
100
AcDbEntity
  8
8
100
AcDbLine
 10
316.013
 20
416.88
 30
0.0
 11
318.787
 21
416.88
 31
0.0
  0
LINE
  5
189F
330
189A
100
AcDbEntity
  8
8
100
AcDbLine
 10
316.013
 20
417.24
 30
0.0
 11
318.278
 21
417.24
 31
0.0
  0
LINE
  5
18A0
330
189A
100
AcDbEntity
  8
8
100
AcDbLine
 10
316.013
 20
417.6
 30
0.0
 11
317.768
 21
417.6
 31
0.0
  0
LINE
  5
18A1
330
189A
100
AcDbEntity
  8
8
100
AcDbLine
 10
316.013
 20
417.9599999999998
 30
0.0
 11
317.259
 21
417.9599999999998
 31
0.0
  0
LINE
  5
18A2
330
189A
100
AcDbEntity
  8
8
100
AcDbLine
 10
316.013
 20
418.32
 30
0.0
 11
316.75
 21
418.32
 31
0.0
  0
LINE
  5
18A3
330
189A
100
AcDbEntity
  8
8
100
AcDbLine
 10
316.013
 20
418.6799999999998
 30
0.0
 11
316.241
 21
418.6799999999998
 31
0.0
  0
ENDBLK
  5
18A4
330
189A
100
AcDbEntity
  8
0
100
AcDbBlockEnd
  0
BLOCK
  5
23CC
330
23CB
100
AcDbEntity
  8
0
100
AcDbBlockBegin
  2
*D30
 70
     1
 10
0.0
 20
0.0
 30
0.0
  3
*D30
  1

  0
LINE
  5
2406
330
23CB
100
AcDbEntity
  8
AM_5
100
AcDbLine
 10
2512.634887554155
 20
1490.138440827206
 30
0.0
 11
2512.634887554155
 21
1468.0
 31
0.0
  0
LINE
  5
2407
330
23CB
100
AcDbEntity
  8
AM_5
100
AcDbLine
 10
2256.631887554155
 20
1490.137440827206
 30
0.0
 11
2256.631887554155
 21
1468.0
 31
0.0
  0
LINE
  5
2408
330
23CB
100
AcDbEntity
  8
AM_5
100
AcDbLine
 10
2498.634887554155
 20
1470.0
 30
0.0
 11
2270.631887554155
 21
1470.0
 31
0.0
  0
SOLID
  5
2409
330
23CB
100
AcDbEntity
  8
AM_5
100
AcDbTrace
 10
2498.634887554155
 20
1472.333333333333
 30
0.0
 11
2498.634887554155
 21
1467.666666666667
 31
0.0
 12
2512.634887554155
 22
1470.0
 32
0.0
 13
2512.634887554155
 23
1470.0
 33
0.0
  0
SOLID
  5
240A
330
23CB
100
AcDbEntity
  8
AM_5
100
AcDbTrace
 10
2270.631887554155
 20
1472.333333333333
 30
0.0
 11
2270.631887554155
 21
1467.666666666667
 31
0.0
 12
2256.631887554155
 22
1470.0
 32
0.0
 13
2256.631887554155
 23
1470.0
 33
0.0
  0
MTEXT
  5
240B
330
23CB
100
AcDbEntity
  8
AM_5
 62
     2
100
AcDbMText
 10
2410.0
 20
1480.001377952756
 30
0.0
 40
14.0
 41
0.0
 71
     5
 72
     1
  1
256
 73
     1
 44
1.0
1001
ACAD
1000
MTEXTBEGIN
1070
    73
1070
     1
1070
    44
1040
1.0
1070
    74
1070
     0
1000
MTEXTEND
  0
POINT
  5
240C
330
23CB
100
AcDbEntity
  8
Defpoints
 62
     0
100
AcDbPoint
 10
2512.634887554155
 20
1492.138440827206
 30
0.0
  0
POINT
  5
240D
330
23CB
100
AcDbEntity
  8
Defpoints
 62
     0
100
AcDbPoint
 10
2256.631887554155
 20
1492.137440827206
 30
0.0
  0
POINT
  5
240E
330
23CB
100
AcDbEntity
  8
Defpoints
 62
     0
100
AcDbPoint
 10
2256.631887554155
 20
1470.0
 30
0.0
  0
ENDBLK
  5
23CD
330
23CB
100
AcDbEntity
  8
0
100
AcDbBlockEnd
  0
ENDSEC
  0
SECTION
  2
ENTITIES
  0
LINE
  5
5EF
330
1F
100
AcDbEntity
  8
0
100
AcDbLine
 10
2263.631887554155
 20
1504.637440827206
 30
0.0
 11
2505.634887554155
 21
1504.637440827206
 31
0.0
  0
LINE
  5
5F0
330
1F
100
AcDbEntity
  8
0
100
AcDbLine
 10
2384.633887554155
 20
1542.137440827206
 30
0.0
 11
2481.532887554155
 21
1542.137440827206
 31
0.0
  0
LINE
  5
5F1
330
1F
100
AcDbEntity
  8
0
100
AcDbLine
 10
2474.733887554155
 20
1540.638440827206
 30
0.0
 11
2481.532887554155
 21
1540.638440827206
 31
0.0
  0
LINE
  5
5F2
330
1F
100
AcDbEntity
  8
0
100
AcDbLine
 10
2471.633887554156
 20
1539.038440827206
 30
0.0
 11
2471.633887554156
 21
1507.738440827206
 31
0.0
  0
LINE
  5
5F3
330
1F
100
AcDbEntity
  8
0
100
AcDbLine
 10
2484.633887554156
 20
1539.038440827206
 30
0.0
 11
2484.633887554156
 21
1532.138440827206
 31
0.0
  0
LINE
  5
5F4
330
1F
100
AcDbEntity
  8
0
100
AcDbLine
 10
2483.133887554155
 20
1539.038440827206
 30
0.0
 11
2483.133887554155
 21
1532.138440827206
 31
0.0
  0
LINE
  5
5F5
330
1F
100
AcDbEntity
  8
0
100
AcDbLine
 10
2473.133887554156
 20
1539.038440827206
 30
0.0
 11
2473.133887554156
 21
1507.738440827206
 31
0.0
  0
LINE
  5
5F6
330
1F
100
AcDbEntity
  8
0
100
AcDbLine
 10
2473.133887554156
 20
1532.138440827206
 30
0.0
 11
2484.633887554156
 21
1532.138440827206
 31
0.0
  0
ARC
  5
5F7
330
1F
100
AcDbEntity
  8
0
100
AcDbCircle
 10
2481.532887554155
 20
1539.038440827206
 30
0.0
 40
1.6
100
AcDbArc
 50
0.0
 51
90.0
  0
ARC
  5
5F8
330
1F
100
AcDbEntity
  8
0
100
AcDbCircle
 10
2474.733887554155
 20
1539.038440827206
 30
0.0
 40
1.6
100
AcDbArc
 50
90.0
 51
180.0
  0
ARC
  5
5F9
330
1F
100
AcDbEntity
  8
0
100
AcDbCircle
 10
2470.032887554155
 20
1507.738440827206
 30
0.0
 40
1.6
100
AcDbArc
 50
270.0
 51
0.0
  0
ARC
  5
5FA
330
1F
100
AcDbEntity
  8
0
100
AcDbCircle
 10
2470.032887554155
 20
1507.738440827206
 30
0.0
 40
3.1
100
AcDbArc
 50
270.0
 51
0.0
  0
ARC
  5
5FB
330
1F
100
AcDbEntity
  8
0
100
AcDbCircle
 10
2481.532887554155
 20
1539.038440827206
 30
0.0
 40
3.1
100
AcDbArc
 50
0.0
 51
90.0
  0
ARC
  5
5FC
330
1F
100
AcDbEntity
  8
0
100
AcDbCircle
 10
2474.733887554155
 20
1539.038440827206
 30
0.0
 40
3.1
100
AcDbArc
 50
90.0
 51
180.0
  0
LINE
  5
5FD
330
1F
100
AcDbEntity
  8
0
100
AcDbLine
 10
2460.633887554156
 20
1506.137440827206
 30
0.0
 11
2460.633887554156
 21
1504.637440827206
 31
0.0
  0
LINE
  5
5FE
330
1F
100
AcDbEntity
  8
0
100
AcDbLine
 10
2384.633887554155
 20
1542.137440827206
 30
0.0
 11
2287.733887554155
 21
1542.137440827206
 31
0.0
  0
LINE
  5
5FF
330
1F
100
AcDbEntity
  8
0
100
AcDbLine
 10
2294.532887554155
 20
1540.638440827206
 30
0.0
 11
2287.733887554155
 21
1540.638440827206
 31
0.0
  0
LINE
  5
600
330
1F
100
AcDbEntity
  8
0
100
AcDbLine
 10
2297.633887554155
 20
1539.038440827206
 30
0.0
 11
2297.633887554155
 21
1507.738440827206
 31
0.0
  0
LINE
  5
601
330
1F
100
AcDbEntity
  8
0
100
AcDbLine
 10
2284.633887554155
 20
1539.038440827206
 30
0.0
 11
2284.633887554155
 21
1532.138440827206
 31
0.0
  0
LINE
  5
602
330
1F
100
AcDbEntity
  8
0
100
AcDbLine
 10
2286.133887554155
 20
1539.038440827206
 30
0.0
 11
2286.133887554155
 21
1532.138440827206
 31
0.0
  0
LINE
  5
603
330
1F
100
AcDbEntity
  8
0
100
AcDbLine
 10
2296.133887554156
 20
1539.038440827206
 30
0.0
 11
2296.133887554156
 21
1507.738440827206
 31
0.0
  0
LINE
  5
604
330
1F
100
AcDbEntity
  8
0
100
AcDbLine
 10
2296.133887554156
 20
1532.138440827206
 30
0.0
 11
2284.633887554155
 21
1532.138440827206
 31
0.0
  0
ARC
  5
605
330
1F
100
AcDbEntity
  8
0
100
AcDbCircle
 10
2287.733887554155
 20
1539.038440827206
 30
0.0
 40
1.6
100
AcDbArc
 50
90.0
 51
180.0
  0
ARC
  5
606
330
1F
100
AcDbEntity
  8
0
100
AcDbCircle
 10
2294.532887554155
 20
1539.038440827206
 30
0.0
 40
1.6
100
AcDbArc
 50
0.0
 51
90.0
  0
ARC
  5
607
330
1F
100
AcDbEntity
  8
0
100
AcDbCircle
 10
2299.233887554155
 20
1507.738440827206
 30
0.0
 40
1.6
100
AcDbArc
 50
180.0
 51
270.0
  0
ARC
  5
608
330
1F
100
AcDbEntity
  8
0
100
AcDbCircle
 10
2299.233887554155
 20
1507.738440827206
 30
0.0
 40
3.1
100
AcDbArc
 50
180.0
 51
270.0
  0
ARC
  5
609
330
1F
100
AcDbEntity
  8
0
100
AcDbCircle
 10
2287.733887554155
 20
1539.038440827206
 30
0.0
 40
3.1
100
AcDbArc
 50
90.0
 51
180.0
  0
ARC
  5
60A
330
1F
100
AcDbEntity
  8
0
100
AcDbCircle
 10
2294.532887554155
 20
1539.038440827206
 30
0.0
 40
3.1
100
AcDbArc
 50
0.0
 51
90.0
  0
LINE
  5
60B
330
1F
100
AcDbEntity
  8
0
100
AcDbLine
 10
2308.633887554156
 20
1506.137440827206
 30
0.0
 11
2308.633887554156
 21
1504.637440827206
 31
0.0
  0
LINE
  5
60C
330
1F
100
AcDbEntity
  8
0
100
AcDbLine
 10
2290.133887554155
 20
1503.137440827206
 30
0.0
 11
2479.133887554155
 21
1503.137440827206
 31
0.0
  0
LINE
  5
60D
330
1F
100
AcDbEntity
  8
0
100
AcDbLine
 10
2285.633887554155
 20
1355.137440827206
 30
0.0
 11
2483.633887554155
 21
1355.137440827206
 31
0.0
  0
LINE
  5
60E
330
1F
100
AcDbEntity
  8
7
100
AcDbLine
 10
2384.633887554155
 20
1554.637440827206
 30
0.0
 11
2384.633887554155
 21
1352.337440827206
 31
0.0
  0
LINE
  5
60F
330
1F
100
AcDbEntity
  8
0
100
AcDbLine
 10
2483.633887554156
 20
1500.137440827206
 30
0.0
 11
2483.633887554156
 21
1355.137440827206
 31
0.0
  0
LINE
  5
610
330
1F
100
AcDbEntity
  8
0
100
AcDbLine
 10
2285.633887554156
 20
1500.137440827206
 30
0.0
 11
2285.633887554156
 21
1355.137440827206
 31
0.0
  0
LINE
  5
611
330
1F
100
AcDbEntity
  8
0
100
AcDbLine
 10
2287.133887554156
 20
1500.137440827206
 30
0.0
 11
2287.133887554156
 21
1355.137440827206
 31
0.0
  0
LINE
  5
612
330
1F
100
AcDbEntity
  8
0
100
AcDbLine
 10
2482.133887554156
 20
1500.137440827206
 30
0.0
 11
2482.133887554156
 21
1355.137440827206
 31
0.0
  0
ARC
  5
613
330
1F
100
AcDbEntity
  8
0
100
AcDbCircle
 10
2479.133887554155
 20
1500.137440827206
 30
0.0
 40
3.0
100
AcDbArc
 50
0.0
 51
90.0
  0
ARC
  5
614
330
1F
100
AcDbEntity
  8
0
100
AcDbCircle
 10
2479.133887554155
 20
1500.137440827206
 30
0.0
 40
4.5
100
AcDbArc
 50
0.0
 51
90.0
  0
ARC
  5
615
330
1F
100
AcDbEntity
  8
0
100
AcDbCircle
 10
2290.133887554155
 20
1500.137440827206
 30
0.0
 40
4.5
100
AcDbArc
 50
90.0
 51
180.0
  0
ARC
  5
616
330
1F
100
AcDbEntity
  8
0
100
AcDbCircle
 10
2290.133887554155
 20
1500.137440827206
 30
0.0
 40
3.0
100
AcDbArc
 50
90.0
 51
180.0
  0
LINE
  5
617
330
1F
100
AcDbEntity
  8
0
100
AcDbLine
 10
2454.632887554156
 20
1504.637440827206
 30
0.0
 11
2454.632887554156
 21
1503.137440827206
 31
0.0
  0
LINE
  5
618
330
1F
100
AcDbEntity
  8
0
100
AcDbLine
 10
2314.632887554155
 20
1504.637440827206
 30
0.0
 11
2314.632887554155
 21
1503.137440827206
 31
0.0
  0
LINE
  5
619
330
1F
100
AcDbEntity
  8
0
100
AcDbLine
 10
2256.631887554155
 20
1500.637440827206
 30
0.0
 11
2256.631887554155
 21
1492.138440827206
 31
0.0
  0
LINE
  5
61A
330
1F
100
AcDbEntity
  8
0
100
AcDbLine
 10
2296.133887554156
 20
1519.637440827206
 30
0.0
 11
2293.133887554156
 21
1519.637440827206
 31
0.0
  0
LINE
  5
61B
102
{ACAD_REACTORS
330
23D8
102
}
330
1F
100
AcDbEntity
  8
0
100
AcDbLine
 10
2259.631887554155
 20
1492.137440827206
 30
0.0
 11
2256.631887554155
 21
1492.137440827206
 31
0.0
  0
LINE
  5
61C
330
1F
100
AcDbEntity
  8
0
100
AcDbLine
 10
2512.634887554155
 20
1500.637440827206
 30
0.0
 11
2512.634887554155
 21
1492.138440827206
 31
0.0
  0
LINE
  5
61D
330
1F
100
AcDbEntity
  8
0
100
AcDbLine
 10
2473.133887554156
 20
1519.637440827206
 30
0.0
 11
2476.133887554155
 21
1519.638440827206
 31
0.0
  0
LINE
  5
61E
102
{ACAD_REACTORS
330
23D8
102
}
330
1F
100
AcDbEntity
  8
0
100
AcDbLine
 10
2509.634887554156
 20
1492.137440827206
 30
0.0
 11
2512.634887554155
 21
1492.138440827206
 31
0.0
  0
LINE
  5
61F
330
1F
100
AcDbEntity
  8
0
100
AcDbLine
 10
2260.633887554156
 20
1398.063440827206
 30
0.0
 11
2285.633887554156
 21
1398.063440827206
 31
0.0
  0
LINE
  5
620
330
1F
100
AcDbEntity
  8
0
100
AcDbLine
 10
2279.633887554155
 20
1410.063440827206
 30
0.0
 11
2285.633887554156
 21
1410.063440827206
 31
0.0
  0
LINE
  5
621
330
1F
100
AcDbEntity
  8
0
100
AcDbLine
 10
2279.633887554155
 20
1406.063440827206
 30
0.0
 11
2260.633887554156
 21
1406.063440827206
 31
0.0
  0
LINE
  5
622
330
1F
100
AcDbEntity
  8
0
100
AcDbLine
 10
2489.633887554156
 20
1410.063440827206
 30
0.0
 11
2483.633887554156
 21
1410.063440827206
 31
0.0
  0
LINE
  5
623
330
1F
100
AcDbEntity
  8
0
100
AcDbLine
 10
2489.633887554156
 20
1406.063440827206
 30
0.0
 11
2508.633887554156
 21
1406.063440827206
 31
0.0
  0
LINE
  5
624
330
1F
100
AcDbEntity
  8
0
100
AcDbLine
 10
2508.633887554156
 20
1398.063440827206
 30
0.0
 11
2483.633887554156
 21
1398.063440827206
 31
0.0
  0
LINE
  5
625
330
1F
100
AcDbEntity
  8
0
100
AcDbLine
 10
2279.633887554155
 20
1410.063440827206
 30
0.0
 11
2279.633887554155
 21
1406.063440827206
 31
0.0
  0
LINE
  5
626
330
1F
100
AcDbEntity
  8
0
100
AcDbLine
 10
2260.633887554156
 20
1406.063440827206
 30
0.0
 11
2260.633887554156
 21
1398.063440827206
 31
0.0
  0
LINE
  5
627
330
1F
100
AcDbEntity
  8
0
100
AcDbLine
 10
2508.633887554156
 20
1406.063440827206
 30
0.0
 11
2508.633887554156
 21
1398.063440827206
 31
0.0
  0
LINE
  5
628
330
1F
100
AcDbEntity
  8
0
100
AcDbLine
 10
2489.633887554156
 20
1406.063440827206
 30
0.0
 11
2489.633887554156
 21
1410.063440827206
 31
0.0
  0
LINE
  5
62A
330
1F
100
AcDbEntity
  8
0
100
AcDbLine
 10
2299.233887554155
 20
1506.137440827206
 30
0.0
 11
2470.032887554155
 21
1506.137440827206
 31
0.0
  0
LINE
  5
649
330
1F
100
AcDbEntity
  8
0
100
AcDbLine
 10
2259.631887554155
 20
1492.137440827206
 30
0.0
 11
2259.631887554155
 21
1500.637440827206
 31
0.0
  0
LINE
  5
64A
330
1F
100
AcDbEntity
  8
0
100
AcDbLine
 10
2293.133887554156
 20
1519.637440827206
 30
0.0
 11
2293.133887554156
 21
1511.637440827206
 31
0.0
  0
LINE
  5
64B
330
1F
100
AcDbEntity
  8
0
100
AcDbLine
 10
2289.133887554156
 20
1507.637440827206
 30
0.0
 11
2263.631887554155
 21
1507.637440827206
 31
0.0
  0
ARC
  5
64C
330
1F
100
AcDbEntity
  8
0
100
AcDbCircle
 10
2263.631887554155
 20
1500.637440827206
 30
0.0
 40
7.0
100
AcDbArc
 50
90.0
 51
180.001000000003
  0
ARC
  5
64D
330
1F
100
AcDbEntity
  8
0
100
AcDbCircle
 10
2289.133887554156
 20
1511.637440827206
 30
0.0
 40
7.0
100
AcDbArc
 50
270.0
 51
0.0
  0
ARC
  5
64E
330
1F
100
AcDbEntity
  8
0
100
AcDbCircle
 10
2263.631887554155
 20
1500.637440827206
 30
0.0
 40
4.0
100
AcDbArc
 50
90.0
 51
180.0
  0
ARC
  5
64F
330
1F
100
AcDbEntity
  8
0
100
AcDbCircle
 10
2289.133887554156
 20
1511.637440827206
 30
0.0
 40
4.0
100
AcDbArc
 50
270.0
 51
0.0
  0
LINE
  5
650
330
1F
100
AcDbEntity
  8
0
100
AcDbLine
 10
2509.634887554156
 20
1492.138440827206
 30
0.0
 11
2509.634887554156
 21
1500.637440827206
 31
0.0
  0
LINE
  5
651
330
1F
100
AcDbEntity
  8
0
100
AcDbLine
 10
2476.133887554155
 20
1519.637440827206
 30
0.0
 11
2476.133887554155
 21
1511.638440827206
 31
0.0
  0
LINE
  5
652
330
1F
100
AcDbEntity
  8
0
100
AcDbLine
 10
2480.133887554156
 20
1507.637440827206
 30
0.0
 11
2505.634887554155
 21
1507.637440827206
 31
0.0
  0
ARC
  5
653
330
1F
100
AcDbEntity
  8
0
100
AcDbCircle
 10
2505.634887554155
 20
1500.637440827206
 30
0.0
 40
4.0
100
AcDbArc
 50
0.0
 51
90.0
  0
ARC
  5
654
330
1F
100
AcDbEntity
  8
0
100
AcDbCircle
 10
2480.133887554156
 20
1511.638440827206
 30
0.0
 40
4.0
100
AcDbArc
 50
180.0
 51
270.0
  0
ARC
  5
655
330
1F
100
AcDbEntity
  8
0
100
AcDbCircle
 10
2505.634887554155
 20
1500.637440827206
 30
0.0
 40
7.0
100
AcDbArc
 50
359.998999999997
 51
90.0
  0
ARC
  5
656
330
1F
100
AcDbEntity
  8
0
100
AcDbCircle
 10
2480.133887554156
 20
1511.637440827206
 30
0.0
 40
7.0
100
AcDbArc
 50
180.0
 51
270.0
  0
INSERT
  5
65A
330
1F
100
AcDbEntity
  8
8
100
AcDbBlockReference
  2
*X2
 10
2120.250887554155
 20
899.3394408272061
 30
0.0
1001
ACAD
1000
HATCH
1002
{
1070
    19
1000
ANSI31,_I
1040
3.174999999999998
1040
-0.7850000000000003
1002
}
  0
INSERT
  5
65B
330
1F
100
AcDbEntity
  8
8
100
AcDbBlockReference
  2
*X3
 10
2120.250887554155
 20
899.3394408272061
 30
0.0
1001
ACAD
1000
HATCH
1002
{
1070
    19
1000
ANSI31,_I
1040
3.174999999999998
1040
-0.7850000000000003
1002
}
  0
INSERT
  5
65C
330
1F
100
AcDbEntity
  8
8
100
AcDbBlockReference
  2
*X4
 10
2120.250887554155
 20
899.3394408272061
 30
0.0
1001
ACAD
1000
HATCH
1002
{
1070
    19
1000
ANSI37,_I
1040
3.174999999999998
1040
3.926999999999998
1002
}
  0
INSERT
  5
65D
330
1F
100
AcDbEntity
  8
8
100
AcDbBlockReference
  2
*X5
 10
2120.250887554155
 20
899.3394408272061
 30
0.0
1001
ACAD
1000
HATCH
1002
{
1070
    19
1000
ANSI37,_I
1040
3.174999999999998
1040
3.926999999999998
1002
}
  0
DIMENSION
  5
65E
330
1F
100
AcDbEntity
  8
AM_5
100
AcDbDimension
  2
*D8
 10
2530.000000000001
 20
1506.14
 30
0.0
 11
2530.0
 21
1450.0
 31
0.0
 70
   160
  1
<>
 71
     5
 42
35.99744082720599
  3
AM_ISO$0
100
AcDbAlignedDimension
 13
2537.634887554155
 23
1542.137440827206
 33
0.0
 14
2384.633887554155
 24
1506.14
 34
0.0
 50
270.0
100
AcDbRotatedDimension
1001
ACAD_DSTYLE_DIMINSPECT
1070
   396
1000
100%
1070
   395
1000

1070
   394
1070
    33
1070
   393
1070
     0
1001
ACAD
1000
DSTYLE
1002
{
1070
    40
1040
2.0
1070
    41
1040
7.0
1070
   140
1040
7.0
1070
   271
1070
     0
1002
}
  0
DIMENSION
  5
65F
330
1F
100
AcDbEntity
  8
AM_5
100
AcDbDimension
  2
*D9
 10
2560.0
 20
1355.137440827206
 30
0.0
 11
2560.0
 21
1450.0
 31
0.0
 70
   160
  1
<>
 71
     5
 42
187.0
  3
AM_ISO$0
100
AcDbAlignedDimension
 13
2481.532887554155
 23
1542.137440827206
 33
0.0
 14
2483.633887554156
 24
1355.137440827206
 34
0.0
 50
270.0
100
AcDbRotatedDimension
1001
ACAD
1000
DSTYLE
1002
{
1070
    40
1040
2.0
1070
    41
1040
7.0
1070
   140
1040
7.0
1002
}
1001
ACAD_DSTYLE_DIMINSPECT
1070
   396
1000
100%
1070
   395
1000

1070
   394
1070
    33
1070
   393
1070
     0
  0
DIMENSION
  5
660
330
1F
100
AcDbEntity
  8
AM_5
100
AcDbDimension
  2
*D10
 10
2484.633887554156
 20
1592.137440827206
 30
0.0
 11
2384.633887554156
 21
1592.137440827206
 31
0.0
 70
   160
  1
{\Famgdt;o} 200
 71
     5
 42
200.0000000000009
  3
AM_ISO$0
100
AcDbAlignedDimension
 13
2284.633887554155
 23
1539.038440827206
 33
0.0
 14
2484.633887554156
 24
1539.038440827206
 34
0.0
100
AcDbRotatedDimension
1001
ACAD
1000
DSTYLE
1002
{
1070
    40
1040
2.0
1070
    41
1040
7.0
1070
   140
1040
7.0
1002
}
1001
ACAD_DSTYLE_DIMINSPECT
1070
   396
1000
100%
1070
   395
1000

1070
   394
1070
    33
1070
   393
1070
     0
  0
INSERT
  5
661
330
1F
100
AcDbEntity
  8
8
100
AcDbBlockReference
  2
*X6
 10
2120.250887554155
 20
899.3394408272061
 30
0.0
1001
ACAD
1000
HATCH
1002
{
1070
    19
1000
ANSI31,_I
1040
3.174999999999998
1040
-0.7850000000000003
1002
}
  0
INSERT
  5
662
330
1F
100
AcDbEntity
  8
8
100
AcDbBlockReference
  2
*X7
 10
2120.250887554155
 20
899.3394408272061
 30
0.0
1001
ACAD
1000
HATCH
1002
{
1070
    19
1000
ANSI31,_I
1040
3.174999999999998
1040
-0.7850000000000003
1002
}
  0
DIMENSION
  5
663
330
1F
100
AcDbEntity
  8
AM_5
100
AcDbDimension
  2
*D11
 10
2483.633887554156
 20
1332.638440827206
 30
0.0
 11
2384.633887554156
 21
1332.638440827206
 31
0.0
 70
   160
  1
%%c  198 
 71
     5
 42
198.0
  3
AM_ISO$0
100
AcDbAlignedDimension
 13
2285.633887554156
 23
1357.638440827206
 33
0.0
 14
2483.633887554156
 24
1357.638440827206
 34
0.0
100
AcDbRotatedDimension
1001
ACAD
1000
DSTYLE
1002
{
1070
    40
1040
2.0
1070
    41
1040
7.0
1070
   140
1040
7.0
1002
}
1001
ACAD_DSTYLE_DIMINSPECT
1070
   396
1000
100%
1070
   395
1000

1070
   394
1070
    33
1070
   393
1070
     0
  0
DIMENSION
  5
66A
330
1F
100
AcDbEntity
  8
AM_5
100
AcDbDimension
  2
*D12
 10
2470.133887554156
 20
1567.137440827206
 30
0.0
 11
2384.633887554156
 21
1567.137440827206
 31
0.0
 70
   160
  1
{\Famgdt;o} 171
 71
     5
 42
171.0000000000009
  3
AM_ISO$0
100
AcDbAlignedDimension
 13
2299.133887554155
 23
1541.137440827206
 33
0.0
 14
2470.133887554156
 24
1541.137440827206
 34
0.0
100
AcDbRotatedDimension
1001
ACAD
1000
DSTYLE
1002
{
1070
    40
1040
2.0
1070
    41
1040
7.0
1070
   140
1040
7.0
1002
}
1001
ACAD_DSTYLE_DIMINSPECT
1070
   396
1000
100%
1070
   395
1000

1070
   394
1070
    33
1070
   393
1070
     0
  0
LINE
  5
701
330
1F
100
AcDbEntity
  8
0
100
AcDbLine
 10
2484.627887554156
 20
1169.467440827206
 30
0.0
 11
2484.627887554156
 21
1269.467440827206
 31
0.0
  0
LINE
  5
702
330
1F
100
AcDbEntity
  8
0
100
AcDbLine
 10
2471.627887554155
 20
1169.467440827206
 30
0.0
 11
2471.627887554155
 21
1256.467440827206
 31
0.0
  0
LINE
  5
703
330
1F
100
AcDbEntity
  8
0
100
AcDbLine
 10
2297.627887554155
 20
1169.467440827206
 30
0.0
 11
2297.627887554155
 21
1256.467440827206
 31
0.0
  0
LINE
  5
704
330
1F
100
AcDbEntity
  8
0
100
AcDbLine
 10
2284.627887554155
 20
1169.467440827206
 30
0.0
 11
2284.627887554155
 21
1269.467440827206
 31
0.0
  0
LINE
  5
706
330
1F
100
AcDbEntity
  8
0
100
AcDbLine
 10
2284.627887554155
 20
1269.467440827206
 30
0.0
 11
2484.627887554156
 21
1269.467440827206
 31
0.0
  0
LINE
  5
707
330
1F
100
AcDbEntity
  8
0
100
AcDbLine
 10
2297.627887554155
 20
1256.467440827206
 30
0.0
 11
2471.627887554155
 21
1256.467440827206
 31
0.0
  0
LINE
  5
709
102
{ACAD_REACTORS
330
150A
102
}
330
1F
100
AcDbEntity
  8
0
100
AcDbLine
 10
2256.625887554156
 20
1169.467440827206
 30
0.0
 11
2256.625887554156
 21
1189.467440827206
 31
0.0
  0
LINE
  5
70A
330
1F
100
AcDbEntity
  8
0
100
AcDbLine
 10
2512.628887554156
 20
1169.467440827206
 30
0.0
 11
2512.628887554156
 21
1189.467440827206
 31
0.0
  0
LINE
  5
70C
330
1F
100
AcDbEntity
  8
0
100
AcDbLine
 10
2256.625887554156
 20
1189.467440827206
 30
0.0
 11
2285.011887554155
 21
1189.467440827206
 31
0.0
  0
LINE
  5
70D
330
1F
100
AcDbEntity
  8
0
100
AcDbLine
 10
2484.772887554155
 20
1189.467440827206
 30
0.0
 11
2512.628887554156
 21
1189.467440827206
 31
0.0
  0
ARC
  5
710
330
1F
100
AcDbEntity
  8
3A
100
AcDbCircle
 10
2384.627887554156
 20
1169.467440827206
 30
0.0
 40
97.5
100
AcDbArc
 50
0.0
 51
180.0
  0
ARC
  5
711
330
1F
100
AcDbEntity
  8
3A
100
AcDbCircle
 10
2384.627887554156
 20
1169.467440827206
 30
0.0
 40
99.0
100
AcDbArc
 50
0.0
 51
180.0
  0
ARC
  5
712
102
{ACAD_REACTORS
330
1525
102
}
330
1F
100
AcDbEntity
  8
3A
100
AcDbCircle
 10
2384.627887554156
 20
1169.467440827206
 30
0.0
 40
124.0
100
AcDbArc
 50
0.0
 51
9.281999999997966
  0
ARC
  5
713
102
{ACAD_REACTORS
330
1524
102
}
330
1F
100
AcDbEntity
  8
0
100
AcDbCircle
 10
2384.627887554156
 20
1169.467440827206
 30
0.0
 40
124.0
100
AcDbArc
 50
9.281999999997966
 51
36.24899999999998
  0
ARC
  5
716
330
1F
100
AcDbEntity
  8
3A
100
AcDbCircle
 10
2384.627887554156
 20
1169.467440827206
 30
0.0
 40
124.0
100
AcDbArc
 50
170.718000000002
 51
180.0
  0
ARC
  5
717
330
1F
100
AcDbEntity
  8
0
100
AcDbCircle
 10
2384.627887554156
 20
1169.467440827206
 30
0.0
 40
124.0
100
AcDbArc
 50
53.75100000000422
 51
126.2489999999957
  0
ARC
  5
718
330
1F
100
AcDbEntity
  8
3A
100
AcDbCircle
 10
2384.627887554156
 20
1169.467440827206
 30
0.0
 40
124.0
100
AcDbArc
 50
36.24899999999998
 51
53.75100000000426
  0
ARC
  5
719
330
1F
100
AcDbEntity
  8
3A
100
AcDbCircle
 10
2384.627887554156
 20
1169.467440827206
 30
0.0
 40
124.0
100
AcDbArc
 50
126.2489999999957
 51
143.751
  0
ARC
  5
71A
330
1F
100
AcDbEntity
  8
0
100
AcDbCircle
 10
2384.627887554156
 20
1169.467440827206
 30
0.0
 40
124.0
100
AcDbArc
 50
143.751
 51
170.718000000002
  0
LINE
  5
71C
330
1F
100
AcDbEntity
  8
0
100
AcDbLine
 10
2299.127887554155
 20
1169.467440827206
 30
0.0
 11
2299.127887554155
 21
1254.967440827206
 31
0.0
  0
LINE
  5
71D
330
1F
100
AcDbEntity
  8
0
100
AcDbLine
 10
2470.127887554156
 20
1169.467440827206
 30
0.0
 11
2470.127887554156
 21
1254.967440827206
 31
0.0
  0
LINE
  5
71E
330
1F
100
AcDbEntity
  8
0
100
AcDbLine
 10
2470.127887554156
 20
1254.967440827206
 30
0.0
 11
2299.127887554155
 21
1254.967440827206
 31
0.0
  0
LINE
  5
777
330
1F
100
AcDbEntity
  8
0
100
AcDbLine
 10
2303.127887554155
 20
1250.967440827206
 30
0.0
 11
2303.127887554155
 21
1169.467440827206
 31
0.0
  0
LINE
  5
778
330
1F
100
AcDbEntity
  8
0
100
AcDbLine
 10
2466.127887554155
 20
1169.467440827206
 30
0.0
 11
2466.127887554155
 21
1250.967440827206
 31
0.0
  0
LINE
  5
779
330
1F
100
AcDbEntity
  8
0
100
AcDbLine
 10
2466.127887554155
 20
1250.967440827206
 30
0.0
 11
2303.127887554155
 21
1250.967440827206
 31
0.0
  0
ARC
  5
79A
330
1F
100
AcDbEntity
  8
0
100
AcDbCircle
 10
2497.628887554156
 20
1169.467440827206
 30
0.0
 40
4.5
100
AcDbArc
 50
0.0
 51
180.0
  0
LINE
  5
79B
330
1F
100
AcDbEntity
  8
7
 48
0.132
100
AcDbLine
 10
2497.628887554156
 20
1178.967440827206
 30
0.0
 11
2497.628887554156
 21
1164.467440827206
 31
0.0
  0
ARC
  5
79C
330
1F
100
AcDbEntity
  8
0
100
AcDbCircle
 10
2271.625887554155
 20
1169.467440827206
 30
0.0
 40
4.5
100
AcDbArc
 50
0.0
 51
180.0
  0
LINE
  5
79D
330
1F
100
AcDbEntity
  8
7
 48
0.132
100
AcDbLine
 10
2271.625887554155
 20
1164.467440827206
 30
0.0
 11
2271.625887554155
 21
1178.967440827206
 31
0.0
  0
DIMENSION
  5
7A0
330
1F
100
AcDbEntity
  8
AM_5
100
AcDbDimension
  2
*D13
 10
2510.154887554156
 20
1250.967440827206
 30
0.0
 11
2510.154887554156
 21
1235.717440827206
 31
0.0
 70
   160
  1
30
 71
     5
 42
30.5
  3
AM_ISO$0
100
AcDbAlignedDimension
 13
2466.127887554155
 23
1220.467440827206
 33
0.0
 14
2466.127887554155
 24
1250.967440827206
 34
0.0
 50
90.0
100
AcDbRotatedDimension
1001
ACAD
1000
DSTYLE
1002
{
1070
    40
1040
2.0
1070
    41
1040
7.0
1070
   140
1040
7.0
1002
}
1001
ACAD_DSTYLE_DIMINSPECT
1070
   396
1000
100%
1070
   395
1000

1070
   394
1070
    33
1070
   393
1070
     0
  0
DIMENSION
  5
7A1
330
1F
100
AcDbEntity
  8
AM_5
100
AcDbDimension
  2
*D14
 10
2466.127887554155
 20
1295.0
 30
0.0
 11
2450.877887554155
 21
1295.0
 31
0.0
 70
   160
  1
30
 71
     5
 42
30.5
  3
AM_ISO$0
100
AcDbAlignedDimension
 13
2435.627887554155
 23
1250.967440827206
 33
0.0
 14
2466.127887554155
 24
1250.967440827206
 34
0.0
100
AcDbRotatedDimension
1001
ACAD
1000
DSTYLE
1002
{
1070
    40
1040
2.0
1070
    41
1040
7.0
1070
   140
1040
7.0
1002
}
1001
ACAD_DSTYLE_DIMINSPECT
1070
   396
1000
100%
1070
   395
1000

1070
   394
1070
    33
1070
   393
1070
     0
  0
LINE
  5
120F
330
1F
100
AcDbEntity
  8
0
100
AcDbLine
 10
2484.627887554156
 20
1169.467440827206
 30
0.0
 11
2484.627887554156
 21
1069.467440827206
 31
0.0
  0
LINE
  5
1210
330
1F
100
AcDbEntity
  8
0
100
AcDbLine
 10
2471.627887554155
 20
1169.467440827206
 30
0.0
 11
2471.627887554155
 21
1082.467440827206
 31
0.0
  0
LINE
  5
1211
330
1F
100
AcDbEntity
  8
0
100
AcDbLine
 10
2297.627887554155
 20
1169.467440827206
 30
0.0
 11
2297.627887554155
 21
1082.467440827206
 31
0.0
  0
LINE
  5
1212
330
1F
100
AcDbEntity
  8
0
100
AcDbLine
 10
2284.627887554155
 20
1169.467440827206
 30
0.0
 11
2284.627887554155
 21
1069.467440827206
 31
0.0
  0
LINE
  5
1213
330
1F
100
AcDbEntity
  8
0
100
AcDbLine
 10
2284.627887554155
 20
1069.467440827206
 30
0.0
 11
2484.627887554156
 21
1069.467440827206
 31
0.0
  0
LINE
  5
1214
330
1F
100
AcDbEntity
  8
0
100
AcDbLine
 10
2297.627887554155
 20
1082.467440827206
 30
0.0
 11
2471.627887554155
 21
1082.467440827206
 31
0.0
  0
LINE
  5
1216
102
{ACAD_REACTORS
330
1509
102
}
330
1F
100
AcDbEntity
  8
0
100
AcDbLine
 10
2256.625887554156
 20
1169.467440827206
 30
0.0
 11
2256.625887554156
 21
1149.467440827206
 31
0.0
  0
LINE
  5
1217
330
1F
100
AcDbEntity
  8
0
100
AcDbLine
 10
2512.628887554156
 20
1169.467440827206
 30
0.0
 11
2512.628887554156
 21
1149.467440827206
 31
0.0
  0
LINE
  5
1218
330
1F
100
AcDbEntity
  8
0
100
AcDbLine
 10
2256.625887554156
 20
1149.467440827206
 30
0.0
 11
2285.011887554155
 21
1149.467440827206
 31
0.0
  0
LINE
  5
1219
330
1F
100
AcDbEntity
  8
0
100
AcDbLine
 10
2484.772887554155
 20
1149.467440827206
 30
0.0
 11
2512.628887554156
 21
1149.467440827206
 31
0.0
  0
ARC
  5
121A
330
1F
100
AcDbEntity
  8
3A
100
AcDbCircle
 10
2384.627887554156
 20
1169.467440827206
 30
0.0
 40
97.5
100
AcDbArc
 50
180.0
 51
0.0
  0
ARC
  5
121B
330
1F
100
AcDbEntity
  8
3A
100
AcDbCircle
 10
2384.627887554156
 20
1169.467440827206
 30
0.0
 40
99.0
100
AcDbArc
 50
180.0
 51
0.0
  0
ARC
  5
121C
330
1F
100
AcDbEntity
  8
3A
100
AcDbCircle
 10
2384.627887554156
 20
1169.467440827206
 30
0.0
 40
124.0
100
AcDbArc
 50
350.7180000000141
 51
0.0
  0
ARC
  5
121E
330
1F
100
AcDbEntity
  8
3A
100
AcDbCircle
 10
2384.627887554156
 20
1169.467440827206
 30
0.0
 40
124.0
100
AcDbArc
 50
180.0
 51
189.2819999999858
  0
ARC
  5
121F
330
1F
100
AcDbEntity
  8
0
100
AcDbCircle
 10
2384.627887554156
 20
1169.467440827206
 30
0.0
 40
124.0
100
AcDbArc
 50
233.7510000000058
 51
306.2489999999942
  0
ARC
  5
1220
330
1F
100
AcDbEntity
  8
3A
100
AcDbCircle
 10
2384.627887554156
 20
1169.467440827206
 30
0.0
 40
124.0
100
AcDbArc
 50
306.2489999999942
 51
323.7509999999929
  0
ARC
  5
1221
330
1F
100
AcDbEntity
  8
3A
100
AcDbCircle
 10
2384.627887554156
 20
1169.467440827206
 30
0.0
 40
124.0
100
AcDbArc
 50
216.2490000000071
 51
233.7510000000059
  0
ARC
  5
1222
330
1F
100
AcDbEntity
  8
0
100
AcDbCircle
 10
2384.627887554156
 20
1169.467440827206
 30
0.0
 40
124.0
100
AcDbArc
 50
189.2819999999858
 51
216.2490000000071
  0
LINE
  5
1223
330
1F
100
AcDbEntity
  8
7
100
AcDbLine
 10
2384.627887554157
 20
1320.0
 30
0.0
 11
2384.627887554156
 21
1028.966440827206
 31
0.0
  0
LINE
  5
1224
330
1F
100
AcDbEntity
  8
0
100
AcDbLine
 10
2299.127887554155
 20
1169.467440827206
 30
0.0
 11
2299.127887554155
 21
1083.967440827206
 31
0.0
  0
LINE
  5
1225
330
1F
100
AcDbEntity
  8
0
100
AcDbLine
 10
2470.127887554156
 20
1169.467440827206
 30
0.0
 11
2470.127887554156
 21
1083.967440827206
 31
0.0
  0
LINE
  5
1226
330
1F
100
AcDbEntity
  8
0
100
AcDbLine
 10
2470.127887554156
 20
1083.967440827206
 30
0.0
 11
2299.127887554155
 21
1083.967440827206
 31
0.0
  0
LINE
  5
1279
330
1F
100
AcDbEntity
  8
0
100
AcDbLine
 10
2303.127887554155
 20
1087.967440827206
 30
0.0
 11
2303.127887554155
 21
1169.467440827206
 31
0.0
  0
LINE
  5
127A
330
1F
100
AcDbEntity
  8
0
100
AcDbLine
 10
2466.127887554155
 20
1169.467440827206
 30
0.0
 11
2466.127887554155
 21
1087.967440827206
 31
0.0
  0
LINE
  5
127B
330
1F
100
AcDbEntity
  8
0
100
AcDbLine
 10
2466.127887554155
 20
1087.967440827206
 30
0.0
 11
2303.127887554155
 21
1087.967440827206
 31
0.0
  0
ARC
  5
1291
330
1F
100
AcDbEntity
  8
3A
 48
0.206
100
AcDbCircle
 10
2384.627887554156
 20
1169.467440827206
 30
0.0
 40
70.0
100
AcDbArc
 50
192.3740000000045
 51
194.9010000000109
  0
ARC
  5
1295
330
1F
100
AcDbEntity
  8
3A
 48
0.206
100
AcDbCircle
 10
2384.627887554156
 20
1169.467440827206
 30
0.0
 40
70.0
100
AcDbArc
 50
255.0990000000012
 51
257.6259999999925
  0
ARC
  5
1297
330
1F
100
AcDbEntity
  8
3A
 48
0.206
100
AcDbCircle
 10
2384.627887554156
 20
1169.467440827206
 30
0.0
 40
70.0
100
AcDbArc
 50
282.3740000000076
 51
284.9009999999989
  0
ARC
  5
129C
330
1F
100
AcDbEntity
  8
0
100
AcDbCircle
 10
2497.628887554156
 20
1169.467440827206
 30
0.0
 40
4.5
100
AcDbArc
 50
180.0
 51
0.0
  0
LINE
  5
129D
330
1F
100
AcDbEntity
  8
7
 48
0.132
100
AcDbLine
 10
2497.628887554156
 20
1159.967440827206
 30
0.0
 11
2497.628887554156
 21
1174.467440827206
 31
0.0
  0
ARC
  5
129E
330
1F
100
AcDbEntity
  8
0
100
AcDbCircle
 10
2271.625887554155
 20
1169.467440827206
 30
0.0
 40
4.5
100
AcDbArc
 50
180.0
 51
0.0
  0
LINE
  5
129F
330
1F
100
AcDbEntity
  8
7
 48
0.132
100
AcDbLine
 10
2271.625887554155
 20
1174.467440827206
 30
0.0
 11
2271.625887554155
 21
1159.967440827206
 31
0.0
  0
LINE
  5
14FC
102
{ACAD_REACTORS
330
1500
102
}
330
1F
100
AcDbEntity
  8
2A
100
AcDbLine
 10
2256.625887554156
 20
1169.467440827206
 30
0.0
 11
2512.628887554156
 21
1169.467440827206
 31
0.0
  0
ARC
  5
1521
102
{ACAD_REACTORS
330
1523
102
}
330
1F
100
AcDbEntity
  8
0
100
AcDbCircle
 10
2384.627887554159
 20
1169.467440827205
 30
0.0
 40
123.9999999999973
100
AcDbArc
 50
323.7506791171002
 51
350.7182009133226
  0
LINE
  5
19EA
330
1F
100
AcDbEntity
  8
0
100
AcDbLine
 10
2299.627887554155
 20
1506.14
 30
0.0
 11
2469.627887554155
 21
1506.14
 31
0.0
  0
LINE
  5
19EB
330
1F
100
AcDbEntity
  8
0
100
AcDbLine
 10
2469.627887554155
 20
1506.14
 30
0.0
 11
2469.627887554155
 21
1541.14
 31
0.0
  0
LINE
  5
19EC
330
1F
100
AcDbEntity
  8
0
100
AcDbLine
 10
2469.627887554155
 20
1541.14
 30
0.0
 11
2299.627887554155
 21
1541.14
 31
0.0
  0
LINE
  5
19ED
330
1F
100
AcDbEntity
  8
0
100
AcDbLine
 10
2299.627887554155
 20
1541.14
 30
0.0
 11
2299.627887554155
 21
1506.14
 31
0.0
  0
LINE
  5
19EE
330
1F
100
AcDbEntity
  8
7
 48
0.505
100
AcDbLine
 10
2384.627887554156
 20
1501.458
 30
0.0
 11
2384.627887554156
 21
1545.921
 31
0.0
  0
LINE
  5
19EF
330
1F
100
AcDbEntity
  8
0
100
AcDbLine
 10
2305.627887554155
 20
1541.14
 30
0.0
 11
2305.627887554155
 21
1506.14
 31
0.0
  0
LINE
  5
19F0
330
1F
100
AcDbEntity
  8
0
100
AcDbLine
 10
2463.627887554155
 20
1541.14
 30
0.0
 11
2463.627887554155
 21
1506.14
 31
0.0
  0
LINE
  5
19F1
330
1F
100
AcDbEntity
  8
0
100
AcDbLine
 10
2323.127887554155
 20
1541.14
 30
0.0
 11
2323.127887554155
 21
1511.14
 31
0.0
  0
LINE
  5
19F2
330
1F
100
AcDbEntity
  8
0
100
AcDbLine
 10
2329.127887554156
 20
1511.14
 30
0.0
 11
2329.127887554156
 21
1541.14
 31
0.0
  0
LINE
  5
19F3
330
1F
100
AcDbEntity
  8
0
100
AcDbLine
 10
2329.127887554156
 20
1511.14
 30
0.0
 11
2323.127887554155
 21
1511.14
 31
0.0
  0
LINE
  5
19F4
330
1F
100
AcDbEntity
  8
0
100
AcDbLine
 10
2346.627887554155
 20
1541.14
 30
0.0
 11
2346.627887554155
 21
1511.14
 31
0.0
  0
LINE
  5
19F5
330
1F
100
AcDbEntity
  8
0
100
AcDbLine
 10
2346.627887554155
 20
1511.14
 30
0.0
 11
2352.627887554155
 21
1511.14
 31
0.0
  0
LINE
  5
19F6
330
1F
100
AcDbEntity
  8
0
100
AcDbLine
 10
2352.627887554155
 20
1511.14
 30
0.0
 11
2352.627887554155
 21
1541.14
 31
0.0
  0
LINE
  5
19F7
330
1F
100
AcDbEntity
  8
0
100
AcDbLine
 10
2370.127887554156
 20
1541.14
 30
0.0
 11
2370.127887554156
 21
1511.14
 31
0.0
  0
LINE
  5
19F8
330
1F
100
AcDbEntity
  8
0
100
AcDbLine
 10
2370.127887554156
 20
1511.14
 30
0.0
 11
2376.127887554155
 21
1511.14
 31
0.0
  0
LINE
  5
19F9
330
1F
100
AcDbEntity
  8
0
100
AcDbLine
 10
2376.127887554155
 20
1511.14
 30
0.0
 11
2376.127887554155
 21
1541.14
 31
0.0
  0
LINE
  5
19FA
330
1F
100
AcDbEntity
  8
0
100
AcDbLine
 10
2393.127887554155
 20
1541.14
 30
0.0
 11
2393.127887554155
 21
1511.14
 31
0.0
  0
LINE
  5
19FB
330
1F
100
AcDbEntity
  8
0
100
AcDbLine
 10
2393.127887554155
 20
1511.14
 30
0.0
 11
2399.127887554155
 21
1511.14
 31
0.0
  0
LINE
  5
19FC
330
1F
100
AcDbEntity
  8
0
100
AcDbLine
 10
2399.127887554155
 20
1511.14
 30
0.0
 11
2399.127887554155
 21
1541.14
 31
0.0
  0
LINE
  5
19FD
330
1F
100
AcDbEntity
  8
0
100
AcDbLine
 10
2416.627887554156
 20
1511.14
 30
0.0
 11
2422.627887554155
 21
1511.14
 31
0.0
  0
LINE
  5
19FE
330
1F
100
AcDbEntity
  8
0
100
AcDbLine
 10
2422.627887554155
 20
1511.14
 30
0.0
 11
2422.627887554155
 21
1541.14
 31
0.0
  0
LINE
  5
19FF
330
1F
100
AcDbEntity
  8
0
100
AcDbLine
 10
2416.627887554156
 20
1541.14
 30
0.0
 11
2416.627887554156
 21
1511.14
 31
0.0
  0
LINE
  5
1A00
330
1F
100
AcDbEntity
  8
0
100
AcDbLine
 10
2440.327887554155
 20
1541.14
 30
0.0
 11
2440.327887554155
 21
1511.14
 31
0.0
  0
LINE
  5
1A01
330
1F
100
AcDbEntity
  8
0
100
AcDbLine
 10
2440.327887554155
 20
1511.14
 30
0.0
 11
2446.327887554155
 21
1511.14
 31
0.0
  0
LINE
  5
1A02
330
1F
100
AcDbEntity
  8
0
100
AcDbLine
 10
2446.327887554155
 20
1511.14
 30
0.0
 11
2446.327887554155
 21
1541.14
 31
0.0
  0
INSERT
  5
1A09
330
1F
100
AcDbEntity
  8
8
100
AcDbBlockReference
  2
*X17
 10
2147.614887554155
 20
1040.175
 30
0.0
1001
ACAD
1000
HATCH
1002
{
1070
    19
1000
ANSI31,_I
1040
6.349999999999997
1040
0.7850000000000003
1002
}
  0
INSERT
  5
1A0A
330
1F
100
AcDbEntity
  8
8
100
AcDbBlockReference
  2
*X18
 10
2147.614887554155
 20
1040.175
 30
0.0
1001
ACAD
1000
HATCH
1002
{
1070
    19
1000
ANSI31,_I
1040
6.349999999999997
1040
0.7850000000000003
1002
}
  0
INSERT
  5
1A0B
330
1F
100
AcDbEntity
  8
8
100
AcDbBlockReference
  2
*X19
 10
2147.614887554155
 20
1040.175
 30
0.0
1001
ACAD
1000
HATCH
1002
{
1070
    19
1000
ANSI31,_I
1040
6.349999999999997
1040
0.7850000000000003
1002
}
  0
INSERT
  5
1A0C
330
1F
100
AcDbEntity
  8
8
100
AcDbBlockReference
  2
*X20
 10
2147.614887554155
 20
1040.175
 30
0.0
1001
ACAD
1000
HATCH
1002
{
1070
    19
1000
ANSI31,_I
1040
6.349999999999997
1040
0.7850000000000003
1002
}
  0
INSERT
  5
1A0D
330
1F
100
AcDbEntity
  8
8
100
AcDbBlockReference
  2
*X21
 10
2147.614887554155
 20
1040.175
 30
0.0
1001
ACAD
1000
HATCH
1002
{
1070
    19
1000
ANSI31,_I
1040
6.349999999999997
1040
0.7850000000000003
1002
}
  0
INSERT
  5
1A0E
330
1F
100
AcDbEntity
  8
8
100
AcDbBlockReference
  2
*X22
 10
2147.614887554155
 20
1040.175
 30
0.0
1001
ACAD
1000
HATCH
1002
{
1070
    19
1000
ANSI31,_I
1040
6.349999999999997
1040
0.7850000000000003
1002
}
  0
INSERT
  5
1A12
330
1F
100
AcDbEntity
  8
8
100
AcDbBlockReference
  2
*X23
 10
2147.614887554155
 20
1040.175
 30
0.0
1001
ACAD
1000
HATCH
1002
{
1070
    19
1000
ANSI31,_I
1040
6.349999999999997
1040
-0.7850000000000003
1002
}
  0
INSERT
  5
1A13
330
1F
100
AcDbEntity
  8
8
100
AcDbBlockReference
  2
*X24
 10
2147.614887554155
 20
1040.175
 30
0.0
1001
ACAD
1000
HATCH
1002
{
1070
    19
1000
ANSI31,_I
1040
6.349999999999997
1040
-0.7850000000000003
1002
}
  0
LINE
  5
1A16
330
1F
100
AcDbEntity
  8
0
100
AcDbLine
 10
2471.589887554156
 20
1087.467440827206
 30
0.0
 11
2471.589887554156
 21
1251.467440827206
 31
0.0
  0
LINE
  5
1A17
330
1F
100
AcDbEntity
  8
0
100
AcDbLine
 10
2465.589887554156
 20
1084.467440827206
 30
0.0
 11
2465.589887554156
 21
1254.467440827206
 31
0.0
  0
LINE
  5
1A18
330
1F
100
AcDbEntity
  8
0
100
AcDbLine
 10
2448.289887554155
 20
1090.467440827206
 30
0.0
 11
2448.289887554155
 21
1248.467440827206
 31
0.0
  0
LINE
  5
1A19
330
1F
100
AcDbEntity
  8
0
100
AcDbLine
 10
2442.289887554156
 20
1090.467440827206
 30
0.0
 11
2442.289887554156
 21
1248.467440827206
 31
0.0
  0
LINE
  5
1A1A
330
1F
100
AcDbEntity
  8
0
100
AcDbLine
 10
2424.589887554156
 20
1090.467440827206
 30
0.0
 11
2424.589887554156
 21
1248.467440827206
 31
0.0
  0
LINE
  5
1A1B
330
1F
100
AcDbEntity
  8
0
100
AcDbLine
 10
2418.589887554156
 20
1090.467440827206
 30
0.0
 11
2418.589887554156
 21
1248.467440827206
 31
0.0
  0
LINE
  5
1A1C
330
1F
100
AcDbEntity
  8
0
100
AcDbLine
 10
2401.089887554156
 20
1090.467440827206
 30
0.0
 11
2401.089887554156
 21
1248.467440827206
 31
0.0
  0
LINE
  5
1A1D
330
1F
100
AcDbEntity
  8
0
100
AcDbLine
 10
2395.089887554156
 20
1090.467440827206
 30
0.0
 11
2395.089887554156
 21
1248.467440827206
 31
0.0
  0
LINE
  5
1A1E
330
1F
100
AcDbEntity
  8
0
100
AcDbLine
 10
2378.089887554156
 20
1090.467440827206
 30
0.0
 11
2378.089887554156
 21
1248.467440827206
 31
0.0
  0
LINE
  5
1A1F
330
1F
100
AcDbEntity
  8
0
100
AcDbLine
 10
2372.089887554156
 20
1090.467440827206
 30
0.0
 11
2372.089887554156
 21
1248.467440827206
 31
0.0
  0
LINE
  5
1A20
330
1F
100
AcDbEntity
  8
0
100
AcDbLine
 10
2354.589887554156
 20
1090.467440827206
 30
0.0
 11
2354.589887554156
 21
1248.467440827206
 31
0.0
  0
LINE
  5
1A21
330
1F
100
AcDbEntity
  8
0
100
AcDbLine
 10
2348.589887554156
 20
1090.467440827206
 30
0.0
 11
2348.589887554156
 21
1248.467440827206
 31
0.0
  0
LINE
  5
1A22
330
1F
100
AcDbEntity
  8
0
100
AcDbLine
 10
2325.089887554156
 20
1090.467440827206
 30
0.0
 11
2325.089887554156
 21
1248.467440827206
 31
0.0
  0
LINE
  5
1A23
330
1F
100
AcDbEntity
  8
0
100
AcDbLine
 10
2331.089887554156
 20
1090.467440827206
 30
0.0
 11
2331.089887554156
 21
1248.467440827206
 31
0.0
  0
LINE
  5
1A24
330
1F
100
AcDbEntity
  8
0
100
AcDbLine
 10
2307.589887554156
 20
1084.467440827206
 30
0.0
 11
2307.589887554156
 21
1254.467440827206
 31
0.0
  0
LINE
  5
1A25
330
1F
100
AcDbEntity
  8
0
100
AcDbLine
 10
2307.589887554156
 20
1254.467440827206
 30
0.0
 11
2465.589887554156
 21
1254.467440827206
 31
0.0
  0
LINE
  5
1A26
330
1F
100
AcDbEntity
  8
0
100
AcDbLine
 10
2307.589887554156
 20
1084.467440827206
 30
0.0
 11
2465.589887554156
 21
1084.467440827206
 31
0.0
  0
LINE
  5
1A27
330
1F
100
AcDbEntity
  8
0
100
AcDbLine
 10
2465.589887554156
 20
1248.467440827206
 30
0.0
 11
2307.589887554156
 21
1248.467440827206
 31
0.0
  0
LINE
  5
1A28
330
1F
100
AcDbEntity
  8
0
100
AcDbLine
 10
2465.589887554156
 20
1090.467440827206
 30
0.0
 11
2307.589887554156
 21
1090.467440827206
 31
0.0
  0
LINE
  5
1A2A
330
1F
100
AcDbEntity
  8
0
100
AcDbLine
 10
2307.589887554156
 20
1087.467440827206
 30
0.0
 11
2303.346887554156
 21
1087.467440827206
 31
0.0
  0
LINE
  5
1A2B
330
1F
100
AcDbEntity
  8
0
100
AcDbLine
 10
2465.589887554156
 20
1087.467440827206
 30
0.0
 11
2471.589887554156
 21
1087.467440827206
 31
0.0
  0
LINE
  5
1A2C
330
1F
100
AcDbEntity
  8
0
100
AcDbLine
 10
2465.589887554156
 20
1251.467440827206
 30
0.0
 11
2469.832887554155
 21
1251.467440827206
 31
0.0
  0
LINE
  5
1A2F
330
1F
100
AcDbEntity
  8
0
100
AcDbLine
 10
2303.346887554156
 20
1251.467440827206
 30
0.0
 11
2307.589887554156
 21
1254.467440827206
 31
0.0
  0
LINE
  5
1A30
330
1F
100
AcDbEntity
  8
0
100
AcDbLine
 10
2303.346887554156
 20
1087.467440827206
 30
0.0
 11
2307.589887554156
 21
1084.467440827206
 31
0.0
  0
LINE
  5
1A31
330
1F
100
AcDbEntity
  8
0
100
AcDbLine
 10
2469.832887554157
 20
1087.467440827206
 30
0.0
 11
2465.589887554156
 21
1084.467440827206
 31
0.0
  0
LINE
  5
1A32
330
1F
100
AcDbEntity
  8
0
100
AcDbLine
 10
2469.832887554157
 20
1251.467440827206
 30
0.0
 11
2465.589887554156
 21
1254.467440827206
 31
0.0
  0
INSERT
  5
1A3A
330
1F
100
AcDbEntity
  8
0
100
AcDbBlockReference
  2
S22_4-6796
 10
-2465.589887554156
 20
1090.467440827206
 30
0.0
210
0.0
220
0.0
230
-1.0
  0
INSERT
  5
1A3B
330
1F
100
AcDbEntity
  8
0
100
AcDbBlockReference
  2
S22_4-6796
 10
2448.289887554155
 20
1090.467440827206
 30
0.0
  0
INSERT
  5
1A3C
330
1F
100
AcDbEntity
  8
0
100
AcDbBlockReference
  2
S22_4-6796
 10
2424.589887554156
 20
1090.467440827206
 30
0.0
  0
INSERT
  5
1A3D
330
1F
100
AcDbEntity
  8
0
100
AcDbBlockReference
  2
S22_4-6796
 10
2401.089887554156
 20
1090.467440827206
 30
0.0
  0
INSERT
  5
1A3E
330
1F
100
AcDbEntity
  8
0
100
AcDbBlockReference
  2
S22_4-6796
 10
2378.089887554156
 20
1090.467440827206
 30
0.0
  0
INSERT
  5
1A3F
330
1F
100
AcDbEntity
  8
0
100
AcDbBlockReference
  2
S22_4-6796
 10
2354.589887554156
 20
1090.467440827206
 30
0.0
  0
INSERT
  5
1A40
330
1F
100
AcDbEntity
  8
0
100
AcDbBlockReference
  2
S22_4-6796
 10
2331.089887554156
 20
1090.467440827206
 30
0.0
  0
INSERT
  5
1A41
330
1F
100
AcDbEntity
  8
0
100
AcDbBlockReference
  2
S22_4-6796
 10
2307.589887554156
 20
1090.467440827206
 30
0.0
  0
INSERT
  5
1A42
330
1F
100
AcDbEntity
  8
0
100
AcDbBlockReference
  2
S22_4-6796
 10
-2325.089887554156
 20
1090.467440827206
 30
0.0
210
0.0
220
0.0
230
-1.0
  0
INSERT
  5
1A43
330
1F
100
AcDbEntity
  8
0
100
AcDbBlockReference
  2
S22_4-6796
 10
-2348.589887554156
 20
1090.467440827206
 30
0.0
210
0.0
220
0.0
230
-1.0
  0
INSERT
  5
1A44
330
1F
100
AcDbEntity
  8
0
100
AcDbBlockReference
  2
S22_4-6796
 10
-2372.089887554156
 20
1090.467440827206
 30
0.0
210
0.0
220
0.0
230
-1.0
  0
INSERT
  5
1A45
330
1F
100
AcDbEntity
  8
0
100
AcDbBlockReference
  2
S22_4-6796
 10
-2395.089887554156
 20
1090.467440827206
 30
0.0
210
0.0
220
0.0
230
-1.0
  0
INSERT
  5
1A46
330
1F
100
AcDbEntity
  8
0
100
AcDbBlockReference
  2
S22_4-6796
 10
-2418.589887554156
 20
1090.467440827206
 30
0.0
210
0.0
220
0.0
230
-1.0
  0
INSERT
  5
1A47
330
1F
100
AcDbEntity
  8
0
100
AcDbBlockReference
  2
S22_4-6796
 10
-2442.289887554156
 20
1090.467440827206
 30
0.0
210
0.0
220
0.0
230
-1.0
  0
INSERT
  5
1A48
330
1F
100
AcDbEntity
  8
0
100
AcDbBlockReference
  2
S22_4-6796
 10
2331.089887554156
 20
1248.467440827206
 30
0.0
 42
-1.0
  0
INSERT
  5
1A49
330
1F
100
AcDbEntity
  8
0
100
AcDbBlockReference
  2
S22_4-6796
 10
2307.589887554156
 20
1248.467440827206
 30
0.0
 42
-1.0
  0
INSERT
  5
1A4A
330
1F
100
AcDbEntity
  8
0
100
AcDbBlockReference
  2
S22_4-6796
 10
2378.089887554156
 20
1248.467440827206
 30
0.0
 42
-1.0
  0
INSERT
  5
1A4B
330
1F
100
AcDbEntity
  8
0
100
AcDbBlockReference
  2
S22_4-6796
 10
2401.089887554156
 20
1248.467440827206
 30
0.0
 42
-1.0
  0
INSERT
  5
1A4C
330
1F
100
AcDbEntity
  8
0
100
AcDbBlockReference
  2
S22_4-6796
 10
2424.589887554156
 20
1248.467440827206
 30
0.0
 42
-1.0
  0
INSERT
  5
1A4D
330
1F
100
AcDbEntity
  8
0
100
AcDbBlockReference
  2
S22_4-6796
 10
2448.289887554155
 20
1248.467440827206
 30
0.0
 42
-1.0
  0
INSERT
  5
1A4E
330
1F
100
AcDbEntity
  8
0
100
AcDbBlockReference
  2
S22_4-6796
 10
2465.589887554156
 20
1248.467440827206
 30
0.0
 50
180.0
  0
INSERT
  5
1A4F
330
1F
100
AcDbEntity
  8
0
100
AcDbBlockReference
  2
S22_4-6796
 10
2442.289887554156
 20
1248.467440827206
 30
0.0
 50
180.0
  0
INSERT
  5
1A50
330
1F
100
AcDbEntity
  8
0
100
AcDbBlockReference
  2
S22_4-6796
 10
2418.589887554156
 20
1248.467440827206
 30
0.0
 50
180.0
  0
INSERT
  5
1A51
330
1F
100
AcDbEntity
  8
0
100
AcDbBlockReference
  2
S22_4-6796
 10
2395.089887554156
 20
1248.467440827206
 30
0.0
 50
180.0
  0
INSERT
  5
1A52
330
1F
100
AcDbEntity
  8
0
100
AcDbBlockReference
  2
S22_4-6796
 10
2372.089887554156
 20
1248.467440827206
 30
0.0
 50
180.0
  0
INSERT
  5
1A53
330
1F
100
AcDbEntity
  8
0
100
AcDbBlockReference
  2
S22_4-6796
 10
2348.589887554156
 20
1248.467440827206
 30
0.0
 50
180.0
  0
INSERT
  5
1A54
330
1F
100
AcDbEntity
  8
0
100
AcDbBlockReference
  2
S22_4-6796
 10
2325.089887554156
 20
1248.467440827206
 30
0.0
 50
180.0
  0
INSERT
  5
1A55
330
1F
100
AcDbEntity
  8
0
100
AcDbBlockReference
  2
S22_4-6796
 10
2354.589887554156
 20
1248.467440827206
 30
0.0
 42
-1.0
  0
INSERT
  5
1A5D
330
1F
100
AcDbEntity
  8
8
100
AcDbBlockReference
  2
*X25
 10
2149.576887554156
 20
835.626440827206
 30
0.0
1001
ACAD
1000
HATCH
1002
{
1070
    19
1000
ANSI31,_I
1040
0.36
1040
3.141999999999999
1002
}
  0
INSERT
  5
1A5E
330
1F
100
AcDbEntity
  8
8
100
AcDbBlockReference
  2
*X26
 10
2149.576887554156
 20
835.626440827206
 30
0.0
1001
ACAD
1000
HATCH
1002
{
1070
    19
1000
ANSI31,_I
1040
0.36
1040
3.141999999999999
1002
}
  0
INSERT
  5
1A5F
330
1F
100
AcDbEntity
  8
8
100
AcDbBlockReference
  2
*X27
 10
2149.576887554156
 20
835.626440827206
 30
0.0
1001
ACAD
1000
HATCH
1002
{
1070
    19
1000
ANSI31,_I
1040
0.36
1040
3.141999999999999
1002
}
  0
INSERT
  5
1A60
330
1F
100
AcDbEntity
  8
8
100
AcDbBlockReference
  2
*X28
 10
2149.576887554156
 20
835.626440827206
 30
0.0
1001
ACAD
1000
HATCH
1002
{
1070
    19
1000
ANSI31,_I
1040
0.36
1040
3.141999999999999
1002
}
  0
LINE
  5
1BB9
330
1F
100
AcDbEntity
  8
0
100
AcDbLine
 10
2470.127887554156
 20
1251.467440827206
 30
0.0
 11
2471.589887554156
 21
1251.467440827206
 31
0.0
  0
LINE
  5
1BBA
330
1F
100
AcDbEntity
  8
0
100
AcDbLine
 10
2469.832887554157
 20
1251.467440827206
 30
0.0
 11
2465.589887554156
 21
1251.467440827205
 31
0.0
  0
LINE
  5
1BBC
330
1F
100
AcDbEntity
  8
0
100
AcDbLine
 10
2307.589887554156
 20
1251.467440827206
 30
0.0
 11
2303.346887554156
 21
1251.467440827206
 31
0.0
  0
ARC
  5
1BD2
330
1F
100
AcDbEntity
  8
0
100
AcDbCircle
 10
2384.627887554156
 20
1169.467440827206
 30
0.0
 40
70.0
100
AcDbArc
 50
60.97629544848788
 51
76.39827188666398
  0
ARC
  5
1FF9
330
1F
100
AcDbEntity
  8
0
100
AcDbCircle
 10
2384.627887554156
 20
1169.467440827206
 30
0.0
 40
70.0
100
AcDbArc
 50
81.40453148708834
 51
95.35923709021728
  0
ARC
  5
1FFA
330
1F
100
AcDbEntity
  8
0
100
AcDbCircle
 10
2384.627887554156
 20
1169.467440827206
 30
0.0
 40
70.0
100
AcDbArc
 50
100.3181737125157
 51
115.4113636152912
  0
ARC
  5
1FFB
330
1F
100
AcDbEntity
  8
0
100
AcDbCircle
 10
2384.627887554156
 20
1169.467440827206
 30
0.0
 40
70.0
100
AcDbArc
 50
120.9859971511972
 51
139.8917433817111
  0
ARC
  5
1FFC
330
1F
100
AcDbEntity
  8
0
100
AcDbCircle
 10
2384.627887554156
 20
1169.467440827206
 30
0.0
 40
70.0
100
AcDbArc
 50
148.2707626902708
 51
211.7292373097291
  0
ARC
  5
1FFD
330
1F
100
AcDbEntity
  8
0
100
AcDbCircle
 10
2384.627887554156
 20
1169.467440827206
 30
0.0
 40
70.0
100
AcDbArc
 50
220.1082566182888
 51
239.0140028488028
  0
ARC
  5
1FFE
330
1F
100
AcDbEntity
  8
0
100
AcDbCircle
 10
2384.627887554156
 20
1169.467440827206
 30
0.0
 40
70.0
100
AcDbArc
 50
244.5886363847088
 51
259.6818262874842
  0
ARC
  5
1FFF
330
1F
100
AcDbEntity
  8
0
100
AcDbCircle
 10
2384.627887554156
 20
1169.467440827206
 30
0.0
 40
70.0
100
AcDbArc
 50
264.6407629097827
 51
278.5954685129117
  0
ARC
  5
2000
330
1F
100
AcDbEntity
  8
0
100
AcDbCircle
 10
2384.627887554156
 20
1169.467440827206
 30
0.0
 40
70.0
100
AcDbArc
 50
283.6017281133361
 51
299.0237045515121
  0
ARC
  5
2001
330
1F
100
AcDbEntity
  8
0
100
AcDbCircle
 10
2384.627887554156
 20
1169.467440827206
 30
0.0
 40
70.0
100
AcDbArc
 50
304.8120124239773
 51
325.4612425270695
  0
ARC
  5
2002
330
1F
100
AcDbEntity
  8
0
100
AcDbCircle
 10
2384.627887554156
 20
1169.467440827206
 30
0.0
 40
70.0
100
AcDbArc
 50
335.4304401680114
 51
24.56955983198858
  0
ARC
  5
2003
330
1F
100
AcDbEntity
  8
0
100
AcDbCircle
 10
2384.627887554156
 20
1169.467440827206
 30
0.0
 40
70.0
100
AcDbArc
 50
34.53875747293045
 51
55.18798757602253
  0
LINE
  5
219A
330
1F
100
AcDbEntity
  8
7
100
AcDbLine
 10
2397.655157665454
 20
1169.467440827206
 30
0.0
 11
2535.18284099976
 21
1169.467440827206
 31
0.0
  0
LINE
  5
219B
330
1F
100
AcDbEntity
  8
7
100
AcDbLine
 10
2397.655157665454
 20
1169.467440827206
 30
0.0
 11
2535.656157665455
 21
1169.467440827206
 31
0.0
  0
LWPOLYLINE
  5
219C
330
1F
100
AcDbEntity
  8
2A
100
AcDbPolyline
 90
        2
 70
     0
 43
0.0
 10
2216.910868194018
 20
1169.467440827206
 10
2552.344906914294
 20
1169.467440827206
  0
TEXT
  5
219D
330
1F
100
AcDbEntity
  8
2A
100
AcDbText
 10
2548.27810318131
 20
1140.91123938839
 30
0.0
 40
25.0
  1
A
 50
0.0000000000032569
 72
     4
 11
2559.528103181309
 21
1153.411239388391
 31
0.0
100
AcDbText
  0
SOLID
  5
219E
330
1F
100
AcDbEntity
  8
2A
100
AcDbTrace
 10
2539.176711548781
 20
1169.467440827206
 30
0.0
 11
2539.176711548781
 21
1169.467440827206
 31
0.0
 12
2543.584900774989
 22
1144.467357411176
 32
0.0
 13
2534.768522322572
 23
1144.467357411176
 33
0.0
  0
LINE
  5
219F
330
1F
100
AcDbEntity
  8
2A
100
AcDbLine
 10
2539.176711548781
 20
1144.467440827206
 30
0.0
 11
2539.176711548781
 21
1106.967440827206
 31
0.0
  0
LWPOLYLINE
  5
21A0
330
1F
100
AcDbEntity
  8
2A
100
AcDbPolyline
 90
        2
 70
     0
 43
0.0
 10
2260.125912774873
 20
1169.467440827206
 10
2573.10878213258
 20
1169.467440827206
  0
TEXT
  5
21A1
330
1F
100
AcDbEntity
  8
2A
100
AcDbText
 10
2194.14123912985
 20
1140.91123938839
 30
0.0
 40
25.0
  1
A
 72
     4
 11
2205.39123912985
 21
1153.41123938839
 31
0.0
100
AcDbText
1001
GENIUS_GENOREF_13
1005
21A4
  0
SOLID
  5
21A2
330
1F
100
AcDbEntity
  8
2A
100
AcDbTrace
 10
2231.109261168501
 20
1169.467440827206
 30
0.0
 11
2231.109261168501
 21
1169.467440827206
 31
0.0
 12
2235.517450394709
 22
1144.467357411176
 32
0.0
 13
2226.701071942292
 23
1144.467357411176
 33
0.0
  0
LINE
  5
21A3
330
1F
100
AcDbEntity
  8
2A
100
AcDbLine
 10
2231.109261168501
 20
1144.467440827205
 30
0.0
 11
2231.109261168501
 21
1106.967440827206
 31
0.0
  0
POINT
  5
21A4
330
1F
100
AcDbEntity
  8
0
 60
     1
100
AcDbPoint
 10
1463.015211688832
 20
555.4082577387564
 30
0.0
1001
GENIUS_GENOBJ-N-SEC_13
1002
{
1000
OWNER
1000
GEN
1002
}
1001
GENIUS_GENOENT_13
1002
{
1000
MYREF
1005
21A4
1002
}
1002
{
1000
GRP
1005
0
1002
}
1001
GENIUS_GENOLIS_13
1002
{
1000
ENT
1005
0
1005
0
1005
0
1005
0
1005
0
1005
21A1
1005
0
1002
}
1001
GENIUS_GENODEF_13
1002
{
1000
HIER
1070
    10
1002
}
1002
{
1000
MANEDIT
1070
     1
1002
}
1002
{
1000
NOSEL
1070
     0
1002
}
1002
{
1000
BEHIND
1070
     0
1002
}
1002
{
1000
REACTOR
1002
}
  0
DIMENSION
  5
23CA
102
{ACAD_XDICTIONARY
360
23D7
102
}
102
{ACAD_REACTORS
330
23D8
102
}
330
1F
100
AcDbEntity
  8
AM_5
100
AcDbDimension
  2
*D30
 10
2256.631887554155
 20
1470.0
 30
0.0
 11
2410.0
 21
1470.0
 31
0.0
 70
   160
 71
     5
 42
256.0029999999997
  3
AM_ISO$0
100
AcDbAlignedDimension
 13
2512.634887554155
 23
1492.138440827206
 33
0.0
 14
2256.631887554155
 24
1492.137440827206
 34
0.0
 50
0.0000000000001132
100
AcDbRotatedDimension
1001
ACAD_DSTYLE_DIMINSPECT
1070
   396
1000
100%
1070
   395
1000

1070
   394
1070
    33
1070
   393
1070
     0
1001
ACAD
1000
DSTYLE
1002
{
1070
    40
1040
2.0
1070
    41
1040
7.0
1070
   140
1040
7.0
1002
}
  0
VIEWPORT
  5
14BA
102
{ACAD_XDICTIONARY
360
14BB
102
}
330
1B
100
AcDbEntity
 67
     1
  8
0
100
AcDbViewport
 10
144.7270812988281
 20
101.2295804023742
 30
0.0
 40
445.7239690838981
 41
222.1517806396485
 68
     1
 69
     1
 12
144.7270812988281
 22
101.2295804023742
 13
0.0
 23
0.0
 14
10.0
 24
10.0
 15
10.0
 25
10.0
 16
0.0
 26
0.0
 36
1.0
 17
0.0
 27
0.0
 37
0.0
 42
50.0
 43
0.0
 44
0.0
 45
222.1517806396485
 50
0.0
 51
0.0
 72
   100
 90
   819232
  1

281
     0
 71
     1
 74
     0
110
0.0
120
0.0
130
0.0
111
1.0
121
0.0
131
0.0
112
0.0
122
1.0
132
0.0
 79
     0
146
0.0
  0
ENDSEC
  0
SECTION
  2
OBJECTS
  0
DICTIONARY
  5
C
330
0
100
AcDbDictionary
281
     1
  3
ACAD_2007HEADERVARS_RT
350
246C
  3
ACAD_ASSOCNETWORK
350
12EF
  3
ACAD_CIP_PREVIOUS_PRODUCT_INFO
350
10EC
  3
ACAD_COLOR
350
BE
  3
ACAD_DETAILVIEWSTYLE
350
10E1
  3
ACAD_FIELDLIST
350
110A
  3
ACAD_GROUP
350
D
  3
ACAD_IMAGE_DICT
350
D4B
  3
ACAD_IMAGE_VARS
350
DC1
  3
ACAD_LAYOUT
350
1A
  3
ACAD_MATERIAL
350
BD
  3
ACAD_MLEADERSTYLE
350
C72
  3
ACAD_MLINESTYLE
350
17
  3
ACAD_PLOTSETTINGS
350
19
  3
ACAD_PLOTSTYLENAME
350
E
  3
ACAD_SCALELIST
350
C60
  3
ACAD_SECTIONVIEWSTYLE
350
10DF
  3
ACAD_TABLESTYLE
350
11A
  3
ACAD_VISUALSTYLE
350
C4F
  3
ACDB_RECOMPOSE_DATA
350
246A
  3
AcDbVariableDictionary
350
94
  3
AcmDictionary
350
5B
  3
AEC_PROPERTY_SET_DEFS
350
EF7
  3
AMG
350
41
  3
AMGSNAPSETTINGS
350
26B
  3
DWGPROPS
350
246B
  0
DICTIONARY
  5
9A5
330
2
100
AcDbDictionary
280
     1
281
     1
  3
ACAD_LAYERSTATES
360
9A6
  0
DICTIONARY
  5
DC2
330
10
100
AcDbDictionary
280
     1
281
     1
  3
ADSK_XREC_LAYER_RECONCILED
360
DC3
  0
DICTIONARY
  5
DC4
330
40E
100
AcDbDictionary
280
     1
281
     1
  3
ADSK_XREC_LAYER_RECONCILED
360
DC5
  0
DICTIONARY
  5
DCC
330
412
100
AcDbDictionary
280
     1
281
     1
  3
ADSK_XREC_LAYER_RECONCILED
360
DCD
  0
DICTIONARY
  5
DCE
330
413
100
AcDbDictionary
280
     1
281
     1
  3
ADSK_XREC_LAYER_RECONCILED
360
DCF
  0
DICTIONARY
  5
193B
330
193A
100
AcDbDictionary
280
     1
281
     1
  0
DICTIONARY
  5
193D
330
193C
100
AcDbDictionary
280
     1
281
     1
  0
DICTIONARY
  5
8F
330
1F
100
AcDbDictionary
280
     1
281
     1
  3
ACAD_ASSOCNETWORK
360
1305
  3
ACAD_SORTENTS
360
1004
  0
DICTIONARY
  5
14DF
330
14DE
100
AcDbDictionary
280
     1
281
     1
  3
ACAD_XREC_ROUNDTRIP
360
24B6
  3
ASDK_XREC_ANNOTATION_SCALE_INFO
360
14E0
  0
DICTIONARY
  5
23D7
330
23CA
100
AcDbDictionary
280
     1
281
     1
  3
ACAD_DIMASSOC
360
23D8
  0
DICTIONARY
  5
14BB
330
14BA
100
AcDbDictionary
280
     1
281
     1
  3
ACAD_XREC_ROUNDTRIP
360
24B5
  3
ASDK_XREC_ANNOTATION_SCALE_INFO
360
14BC
  0
DICTIONARY
  5
246C
102
{ACAD_REACTORS
330
C
102
}
330
C
100
AcDbDictionary
281
     1
  3
DIMARCSYM
350
246D
  3
DIMLTEX1
350
246F
  3
DIMLTEX2
350
2470
  3
DIMLTYPE
350
246E
  3
INTERFEREVPVS
350
2471
  0
DICTIONARY
  5
12EF
102
{ACAD_REACTORS
330
C
102
}
330
C
100
AcDbDictionary
281
     1
  3
ACAD_ASSOCNETWORK
350
12F0
  0
XRECORD
  5
10EC
102
{ACAD_REACTORS
330
C
102
}
330
C
100
AcDbXrecord
280
     1
300
AMECH_PP
300
2014
300
86138AMECH_PP_2014_0F
  0
DICTIONARY
  5
BE
102
{ACAD_REACTORS
330
C
102
}
330
C
100
AcDbDictionary
281
     1
  0
DICTIONARY
  5
10E1
102
{ACAD_REACTORS
330
C
102
}
330
C
100
AcDbDictionary
281
     1
  3
Imperial24
350
12D3
  3
Metric50
350
10E2
  0
FIELDLIST
  5
110A
102
{ACAD_REACTORS
330
C
102
}
330
C
100
AcDbIdSet
 90
        3
330
235D
330
235E
330
235F
100
AcDbFieldList
  0
DICTIONARY
  5
D
102
{ACAD_REACTORS
330
C
102
}
330
C
100
AcDbDictionary
281
     1
  0
DICTIONARY
  5
D4B
102
{ACAD_REACTORS
330
C
102
}
330
C
100
AcDbDictionary
281
     1
  3
ACO-Logo
350
D4C
  0
RASTERVARIABLES
  5
DC1
102
{ACAD_REACTORS
330
C
102
}
330
C
100
AcDbRasterVariables
 90
        0
 70
     1
 71
     1
 72
     1
  0
DICTIONARY
  5
1A
102
{ACAD_REACTORS
330
C
102
}
330
C
100
AcDbDictionary
281
     1
  3
Layout1
350
1E
  3
Layout2
350
26
  3
Model
350
22
  0
DICTIONARY
  5
BD
102
{ACAD_REACTORS
330
C
102
}
330
C
100
AcDbDictionary
281
     1
  3
ByBlock
350
C3F
  3
ByLayer
350
C37
  3
Global
350
C47
  0
DICTIONARY
  5
C72
102
{ACAD_REACTORS
330
C
102
}
330
C
100
AcDbDictionary
281
     1
  3
Standard
350
C73
  0
DICTIONARY
  5
17
102
{ACAD_REACTORS
330
C
102
}
330
C
100
AcDbDictionary
281
     1
  3
Standard
350
18
  0
DICTIONARY
  5
19
102
{ACAD_REACTORS
330
C
102
}
330
C
100
AcDbDictionary
281
     1
  0
ACDBDICTIONARYWDFLT
  5
E
102
{ACAD_REACTORS
330
C
102
}
330
C
100
AcDbDictionary
281
     1
  3
Normal
350
F
100
AcDbDictionaryWithDefault
340
F
  0
DICTIONARY
  5
C60
102
{ACAD_REACTORS
330
C
102
}
330
C
100
AcDbDictionary
281
     1
  3
A0
350
C61
  3
A1
350
C62
  3
A2
350
C63
  3
A3
350
C64
  3
A4
350
C65
  3
A5
350
C66
  3
A6
350
C67
  3
A7
350
C68
  3
A8
350
C69
  3
A9
350
C6A
  3
B0
350
C6B
  3
B1
350
C6C
  3
B2
350
C6D
  3
B3
350
C6E
  3
B4
350
C6F
  3
B5
350
C70
  3
B6
350
C71
  0
DICTIONARY
  5
10DF
102
{ACAD_REACTORS
330
C
102
}
330
C
100
AcDbDictionary
281
     1
  3
Imperial24
350
12D1
  3
Metric50
350
10E0
  0
DICTIONARY
  5
11A
102
{ACAD_REACTORS
330
C
102
}
330
C
100
AcDbDictionary
281
     1
  3
Standard
350
11B
  0
DICTIONARY
  5
C4F
102
{ACAD_REACTORS
330
C
102
}
330
C
100
AcDbDictionary
281
     1
  3
2dWireframe
350
C55
  3
3D Hidden
350
C57
  3
3dWireframe
350
C56
  3
Basic
350
C54
  3
Brighten
350
C5B
  3
ColorChange
350
C5F
  3
Conceptual
350
C58
  3
Dim
350
C5A
  3
EdgeColorOff
350
10DE
  3
Facepattern
350
C5E
  3
Flat
350
C50
  3
FlatWithEdges
350
C51
  3
Gouraud
350
C52
  3
GouraudWithEdges
350
C53
  3
Hidden
350
10D6
  3
JitterOff
350
10DC
  3
Linepattern
350
C5D
  3
OverhangOff
350
10DD
  3
Realistic
350
C59
  3
Shaded
350
10DB
  3
Shaded with edges
350
10DA
  3
Shades of Gray
350
10D7
  3
Sketchy
350
10D8
  3
Thicken
350
C5C
  3
Wireframe
350
10D5
  3
X-Ray
350
10D9
  0
XRECORD
  5
246A
102
{ACAD_REACTORS
330
C
102
}
330
C
100
AcDbXrecord
280
     1
 90
        1
330
11B
  0
DICTIONARY
  5
94
102
{ACAD_REACTORS
330
C
102
}
330
C
100
AcDbDictionary
281
     1
  3
CANNOSCALE
350
DF5
  3
CMLEADERSTYLE
350
DF3
  3
CTABLESTYLE
350
138
  3
CVIEWDETAILSTYLE
350
1162
  3
CVIEWSECTIONSTYLE
350
1163
  3
DIMASSOC
350
96
  3
INDEXCTL
350
95
  3
LAYEREVAL
350
DF7
  3
LAYERNOTIFY
350
DF8
  3
LIGHTINGUNITS
350
DF6
  3
MSLTSCALE
350
DF4
  3
SOLIDHIST
350
1166
  3
SORTENTS
350
1164
  3
XCLIPFRAME
350
2468
  0
DICTIONARY
  5
5B
102
{ACAD_REACTORS
330
C
102
}
330
C
100
AcDbDictionary
281
     1
  3
AcmBOM
350
272
  3
AcmStdDictionary
350
61
  3
AMDTSECTSYM_ARROWCOLOR
350
123
  0
DICTIONARY
  5
EF7
102
{ACAD_REACTORS
330
C
102
}
330
C
100
AcDbDictionary
281
     1
  0
DICTIONARY
  5
41
102
{ACAD_REACTORS
330
C
102
}
330
C
100
AcDbDictionary
281
     1
  0
DICTIONARY
  5
26B
102
{ACAD_REACTORS
330
C
102
}
330
C
100
AcDbDictionary
281
     1
  0
XRECORD
  5
246B
102
{ACAD_REACTORS
330
C
102
}
330
C
100
AcDbXrecord
280
     1
  1
DWGPROPS COOKIE
  2

  3

  4

  6

  7

  8
malaie
  9

300
AmdtFileType=84
301
=
302
=
303
=
304
=
305
=
306
=
307
=
308
=
309
=
 40
0.3363568865740741
 41
2454537.396400231
 42
2457641.432548125
  1

 90
        1
  0
DICTIONARY
  5
9A6
102
{ACAD_REACTORS
330
9A5
102
}
330
9A5
100
AcDbDictionary
281
     1
  0
XRECORD
  5
DC3
102
{ACAD_REACTORS
330
DC2
102
}
330
DC2
100
AcDbXrecord
280
     1
290
     1
  0
XRECORD
  5
DC5
102
{ACAD_REACTORS
330
DC4
102
}
330
DC4
100
AcDbXrecord
280
     1
290
     1
  0
XRECORD
  5
DCD
102
{ACAD_REACTORS
330
DCC
102
}
330
DCC
100
AcDbXrecord
280
     1
290
     1
  0
XRECORD
  5
DCF
102
{ACAD_REACTORS
330
DCE
102
}
330
DCE
100
AcDbXrecord
280
     1
290
     1
  0
DICTIONARY
  5
1305
102
{ACAD_REACTORS
330
8F
102
}
330
8F
100
AcDbDictionary
281
     1
  3
ACAD_ASSOCNETWORK
350
1306
  0
SORTENTSTABLE
  5
1004
102
{ACAD_REACTORS
330
8F
102
}
330
8F
100
AcDbSortentsTable
330
1F
331
1A5F
  5
1E65
331
65D
  5
718
331
626
  5
65D
331
622
  5
656
331
1224
  5
19ED
331
61E
  5
652
331
711
  5
1210
331
19F7
  5
1A11
331
61A
  5
630
331
1220
  5
1599
331
19F3
  5
1A07
331
121C
  5
129F
331
1218
  5
1295
331
1BD2
  5
1EB9
331
1A0C
  5
1A25
331
1A60
  5
1E67
331
1A17
  5
1A2B
331
1A54
  5
1E5D
331
1A13
  5
1A29
331
661
  5
71E
331
1A50
  5
1E47
331
70D
  5
799
331
616
  5
62B
331
1A2F
  5
1A4E
331
709
  5
795
331
19EF
  5
1A03
331
612
  5
627
331
1A2B
  5
1A4B
331
19EB
  5
19FF
331
60E
  5
623
331
1214
  5
1291
331
1210
  5
1227
331
60A
  5
61F
331
1A4C
  5
1CA4
331
1A48
  5
1B8B
331
1A44
  5
1B86
331
1A40
  5
1A5F
331
1A27
  5
1A46
331
1A23
  5
1A42
331
606
  5
61B
331
1A1F
  5
1A3E
331
701
  5
723
331
602
  5
617
331
1A1B
  5
1A31
331
655
  5
70F
331
79C
  5
1222
331
5FE
  5
613
331
651
  5
669
331
129F
  5
19FA
331
5FA
  5
60F
331
778
  5
121E
331
21A1
  5
21A2
331
219D
  5
219E
331
1A3C
  5
1A54
331
64D
  5
665
331
5F6
  5
60B
331
19FF
  5
1A1E
331
649
  5
661
331
1297
  5
19F6
331
5F2
  5
607
331
19FB
  5
1A18
331
127B
  5
19F3
331
71C
  5
1218
331
718
  5
1215
331
1A5E
  5
1E63
331
65C
  5
717
331
7A1
  5
1225
331
625
  5
65C
331
621
  5
655
331
1BBA
  5
1A48
331
1223
  5
19EC
331
61D
  5
651
331
710
  5
120F
331
19F6
  5
1A10
331
619
  5
62E
331
121F
  5
1598
331
19F2
  5
1A06
331
121B
  5
129D
331
1A0B
  5
1A24
331
1A16
  5
1A2A
331
1A53
  5
1E5B
331
1A12
  5
1A28
331
660
  5
71D
331
1A32
  5
1A51
331
70C
  5
798
331
615
  5
62A
331
19EE
  5
1A02
331
611
  5
626
331
1217
  5
1293
331
1A2A
  5
1A4A
331
19EA
  5
19FE
331
60D
  5
622
331
1213
  5
127C
331
120F
  5
1226
331
609
  5
61E
331
1A4F
  5
1DF3
331
1A4B
  5
1BD2
331
1A47
  5
1B8A
331
1A43
  5
1A65
331
1A26
  5
1A45
331
1A22
  5
1A41
331
704
  5
77E
331
605
  5
61A
331
1A1E
  5
1A3D
331
601
  5
616
331
1A1A
  5
1A2F
331
654
  5
70E
331
79B
  5
1221
331
5FD
  5
612
331
650
  5
668
331
129E
  5
19F9
331
5F9
  5
60E
331
21A0
  5
21A1
331
219C
  5
219D
331
1A3F
  5
1A5E
331
1A3B
  5
1A53
331
1521
  5
19FD
331
1A02
  5
1A21
331
64C
  5
664
331
5F5
  5
60A
331
19FE
  5
1A1D
331
777
  5
121C
331
5F1
  5
606
331
19FA
  5
1A17
331
628
  5
65F
331
127A
  5
19F2
331
65F
  5
71C
331
1A5D
  5
1E61
331
65B
  5
715
331
7A0
  5
1224
331
624
  5
65B
331
717
  5
1214
331
1226
  5
19EF
331
620
  5
654
331
1BB9
  5
1A4D
331
713
  5
1212
331
1222
  5
19EB
331
61C
  5
650
331
19F5
  5
1A0F
331
618
  5
62D
331
121E
  5
1521
331
19F1
  5
1A05
331
121A
  5
1298
331
1A0E
  5
1A27
331
1A0A
  5
1A23
331
663
  5
720
331
1A52
  5
1E58
331
1A31
  5
1A50
331
614
  5
629
331
19ED
  5
1A01
331
610
  5
625
331
1216
  5
1292
331
1212
  5
127B
331
60C
  5
621
331
608
  5
61D
331
1A4E
  5
1D43
331
1A4A
  5
1BBA
331
1A46
  5
1B89
331
1A42
  5
1A64
331
1A25
  5
1A44
331
707
  5
794
331
1A21
  5
1A40
331
703
  5
77D
331
604
  5
619
331
1A1D
  5
1A3C
331
600
  5
615
331
1A19
  5
1A2D
331
653
  5
70D
331
79A
  5
1220
331
5FC
  5
611
331
129D
  5
19F8
331
5F8
  5
60D
331
21A3
  5
2372
331
219F
  5
21A0
331
219B
  5
219C
331
1A3E
  5
1A5D
331
1A3A
  5
1A52
331
64F
  5
667
331
1A01
  5
1A20
331
64B
  5
663
331
5F4
  5
609
331
19FD
  5
1A1C
331
1295
  5
19F5
331
5F0
  5
605
331
19F9
  5
1A13
331
1291
  5
19F4
331
71E
  5
121A
331
1279
  5
19F1
331
71A
  5
1217
331
2003
  5
219A
331
65E
  5
71B
331
65A
  5
712
331
627
  5
65E
331
623
  5
657
331
1BBC
  5
1A49
331
716
  5
1213
331
1225
  5
19EE
331
61F
  5
653
331
712
  5
1211
331
1221
  5
19EA
331
61B
  5
64F
331
19F4
  5
1A0E
331
19F0
  5
1A04
331
1219
  5
1296
331
1A0D
  5
1A26
331
66A
  5
722
331
1A09
  5
1A22
331
1A55
  5
1E5F
331
662
  5
71F
331
1A51
  5
1E56
331
617
  5
62C
331
1A30
  5
1A4F
331
70A
  5
796
331
613
  5
628
331
1A2C
  5
1A4C
331
19EC
  5
1A00
331
60F
  5
624
331
1A28
  5
1A47
331
1211
  5
127A
331
60B
  5
620
331
14FC
  5
19FB
331
1A4D
  5
1CA5
331
1A49
  5
1BB9
331
1A45
  5
1B87
331
1A41
  5
1A60
331
1A24
  5
1A43
331
706
  5
77F
331
607
  5
61C
331
1A20
  5
1A3F
331
702
  5
724
331
603
  5
618
331
1A1C
  5
1A3B
331
656
  5
711
331
79D
  5
1223
331
5FF
  5
614
331
1A18
  5
1A2C
331
652
  5
70C
331
5FB
  5
610
331
129C
  5
19F7
331
779
  5
121F
331
21A2
  5
21A3
331
219E
  5
219F
331
219A
  5
219B
331
1A3D
  5
1A55
331
64E
  5
666
331
5F7
  5
60C
331
1A00
  5
1A1F
331
64A
  5
662
331
5F3
  5
608
331
19FC
  5
1A1B
331
5EF
  5
604
331
19F8
  5
1A12
331
62A
  5
660
331
71D
  5
1219
331
719
  5
1216
  0
XRECORD
  5
24B6
102
{ACAD_REACTORS
330
14DF
102
}
330
14DF
100
AcDbXrecord
280
     1
102
SHADEPLOT
 70
     0
  0
XRECORD
  5
14E0
102
{ACAD_REACTORS
330
14DF
102
}
330
14DF
100
AcDbXrecord
280
     1
 90
        1
340
C61
  0
DIMASSOC
  5
23D8
102
{ACAD_REACTORS
330
23D7
102
}
330
23D7
100
AcDbDimAssoc
330
23CA
 90
        3
 70
     0
 71
     0
  1
AcDbOsnapPointRef
 72
     1
331
61E
 73
     0
 91
        0
 40
0.0
 10
0.0
 20
0.0
 30
2.000000000000000E+50
 75
     0
  1
AcDbOsnapPointRef
 72
     1
331
61B
 73
     0
 91
        0
 40
0.0
 10
0.0
 20
0.0
 30
2.000000000000000E+50
 75
     0
  0
XRECORD
  5
24B5
102
{ACAD_REACTORS
330
14BB
102
}
330
14BB
100
AcDbXrecord
280
     1
102
SHADEPLOT
 70
     0
  0
XRECORD
  5
14BC
102
{ACAD_REACTORS
330
14BB
102
}
330
14BB
100
AcDbXrecord
280
     1
 90
        1
340
C61
  0
XRECORD
  5
246D
102
{ACAD_REACTORS
330
246C
102
}
330
246C
100
AcDbXrecord
280
     1
 70
     1
  0
XRECORD
  5
246F
102
{ACAD_REACTORS
330
246C
102
}
330
246C
100
AcDbXrecord
280
     1
340
14
  0
XRECORD
  5
2470
102
{ACAD_REACTORS
330
246C
102
}
330
246C
100
AcDbXrecord
280
     1
340
14
  0
XRECORD
  5
246E
102
{ACAD_REACTORS
330
246C
102
}
330
246C
100
AcDbXrecord
280
     1
340
14
  0
XRECORD
  5
2471
102
{ACAD_REACTORS
330
246C
102
}
330
246C
100
AcDbXrecord
280
     1
340
C56
  0
ACDBASSOCNETWORK
  5
12F0
102
{ACAD_REACTORS
330
12EF
102
}
330
12EF
100
AcDbAssocAction
 90
        1
 90
        0
330
0
360
0
 90
        0
 90
        0
 90
        0
100
AcDbAssocNetwork
 90
        0
 90
        3
 90
        1
330
1306
 90
        0
  0
ACDBDETAILVIEWSTYLE
  5
12D3
102
{ACAD_XDICTIONARY
360
24B3
102
}
102
{ACAD_REACTORS
330
10E1
330
2356
102
}
330
10E1
100
AcDbModelDocViewStyle
 70
     0
  3
Imperial24
290
     0
100
AcDbDetailViewStyle
 70
     0
 71
     0
 90
        3
 71
     1
340
11
 40
0.24
340
0
 40
0.24
300

 40
0.36
280
     3
 71
     2
340
16
 90
       25
 71
     3
340
11
 40
0.24
 90
        1
 40
0.75
 90
        1
300
%<\AcVar ViewType \f "%tc1">% %<\AcVar ViewDetailId>%\PSCALE %<\AcVar ViewScale \f "%sn">%
 71
     4
340
16
 90
       25
340
16
 90
       25
280
     0
  0
ACDBDETAILVIEWSTYLE
  5
10E2
102
{ACAD_XDICTIONARY
360
24AF
102
}
102
{ACAD_REACTORS
330
10E1
330
2357
102
}
330
10E1
100
AcDbModelDocViewStyle
 70
     0
  3
Metric50
290
     0
100
AcDbDetailViewStyle
 70
     0
 71
     0
 90
        3
 71
     1
340
11
 40
5.0
340
0
 40
5.0
300

 40
0.0
280
     1
 71
     2
340
16
 90
       25
 71
     3
340
11
 40
5.0
 90
        0
 40
15.0
 90
        1
300
%<\AcVar ViewDetailId>% (%<\AcVar ViewScale \f "%sn">%)
 71
     4
340
16
 90
       25
340
16
 90
       25
280
     0
  0
IMAGEDEF
  5
D4C
102
{ACAD_REACTORS
330
D4B
102
}
330
D4B
100
AcDbRasterImageDef
 90
        0
  1
L:\calink52\templates\ACO-Logo.jpg
 10
75.0
 20
57.0
 11
0.3527777777777778
 21
0.3527777777777778
280
     1
281
     5
  0
LAYOUT
  5
1E
102
{ACAD_XDICTIONARY
360
2472
102
}
102
{ACAD_REACTORS
330
1A
102
}
330
1A
100
AcDbPlotSettings
  1

  2
\\rd-sr-311.aco.local\ST-PL-002
  4
A4
  6

 40
3.757083415985106
 41
3.757080078125
 42
3.757080078125
 43
3.757080078125
 44
209.9733276367186
 45
296.9683227539062
 46
0.0
 47
0.0
 48
0.0
 49
0.0
140
0.0
141
0.0
142
1.0
143
1.0
 70
   688
 72
     1
 73
     1
 74
     5
  7
monochrome.ctb
 75
    16
147
1.0
148
0.0
149
0.0
100
AcDbLayout
  1
Layout1
 70
     1
 71
     1
 10
-3.757080078125
 20
-3.757083415985106
 11
293.2112426757813
 21
206.2162442207336
 12
0.0
 22
0.0
 32
0.0
 14
1.000000000000000E+20
 24
1.000000000000000E+20
 34
1.000000000000000E+20
 15
-1.000000000000000E+20
 25
-1.000000000000000E+20
 35
-1.000000000000000E+20
146
0.0
 13
0.0
 23
0.0
 33
0.0
 16
1.0
 26
0.0
 36
0.0
 17
0.0
 27
1.0
 37
0.0
 76
     0
330
1B
331
14BA
1001
ACAD_PSEXT
1000
\\rd-sr-311.aco.local\ST-PL-002
1000
Canon iPF755
1000
STL - Konstruktion 
1000
Canon iPF755 (Plotter) - AACN2438
1070
     0
  0
LAYOUT
  5
26
102
{ACAD_XDICTIONARY
360
2476
102
}
102
{ACAD_REACTORS
330
1A
102
}
330
1A
100
AcDbPlotSettings
  1

  2
\\rd-sr-311.aco.local\ST-PL-002
  4
A4
  6

 40
3.757083415985106
 41
3.757080078125
 42
3.757080078125
 43
3.757080078125
 44
209.9733276367186
 45
296.9683227539062
 46
0.0
 47
0.0
 48
0.0
 49
0.0
140
0.0
141
0.0
142
1.0
143
1.0
 70
   688
 72
     1
 73
     1
 74
     5
  7
monochrome.ctb
 75
    16
147
1.0
148
0.0
149
0.0
100
AcDbLayout
  1
Layout2
 70
     1
 71
     2
 10
-3.757080078125
 20
-3.757083415985106
 11
293.2112426757813
 21
206.2162442207336
 12
0.0
 22
0.0
 32
0.0
 14
1.000000000000000E+20
 24
1.000000000000000E+20
 34
1.000000000000000E+20
 15
-1.000000000000000E+20
 25
-1.000000000000000E+20
 35
-1.000000000000000E+20
146
0.0
 13
0.0
 23
0.0
 33
0.0
 16
1.0
 26
0.0
 36
0.0
 17
0.0
 27
1.0
 37
0.0
 76
     0
330
23
331
14DE
1001
ACAD_PSEXT
1000
\\rd-sr-311.aco.local\ST-PL-002
1000
Canon iPF755
1000
STL - Konstruktion 
1000
Canon iPF755 (Plotter) - AACN2438
1070
     0
  0
LAYOUT
  5
22
102
{ACAD_XDICTIONARY
360
2474
102
}
102
{ACAD_REACTORS
330
1A
102
}
330
1A
100
AcDbPlotSettings
  1

  2
\\RD-SR-230\ST-PR-030
  4
A4
  6

 40
6.805083274841307
 41
7.143725872039794
 42
6.805068969726562
 43
7.14373779296875
 44
209.9733276367186
 45
296.9683227539062
 46
0.0
 47
0.0
 48
0.0
 49
0.0
140
0.0
141
0.0
142
1.0
143
3.025007101325086
 70
 11952
 72
     1
 73
     1
 74
     2
  7
monochrome.ctb
 75
     0
147
0.3305777363504224
148
-2168.063895320436
149
-1062.395507378519
100
AcDbLayout
  1
Model
 70
     1
 71
     0
 10
0.0
 20
0.0
 11
12.0
 21
9.0
 12
0.0
 22
0.0
 32
0.0
 14
0.0
 24
0.0
 34
0.0
 15
0.0
 25
0.0
 35
0.0
146
0.0
 13
0.0
 23
0.0
 33
0.0
 16
1.0
 26
0.0
 36
0.0
 17
0.0
 27
1.0
 37
0.0
 76
     0
330
1F
331
C35
1001
ACAD_PSEXT
1000
\\RD-SR-230\ST-PR-030
1000
Xerox WorkCentre Pro 165
1000
ST
1000

1070
     0
  0
MATERIAL
  5
C3F
102
{ACAD_XDICTIONARY
360
C40
102
}
102
{ACAD_REACTORS
330
BD
102
}
330
BD
100
AcDbMaterial
  1
ByBlock
 72
     0
 43
0.0008202099737533
 43
0.0
 43
0.0
 43
0.0
 43
0.0
 43
0.0008202099737533
 43
0.0
 43
0.0
 43
0.0
 43
0.0
 43
1.0
 43
0.0
 43
0.0
 43
0.0
 43
0.0
 43
1.0
 77
     0
 47
0.0008202099737533
 47
0.0
 47
0.0
 47
0.0
 47
0.0
 47
0.0008202099737533
 47
0.0
 47
0.0
 47
0.0
 47
0.0
 47
1.0
 47
0.0
 47
0.0
 47
0.0
 47
0.0
 47
1.0
171
     0
 49
0.0008202099737533
 49
0.0
 49
0.0
 49
0.0
 49
0.0
 49
0.0008202099737533
 49
0.0
 49
0.0
 49
0.0
 49
0.0
 49
1.0
 49
0.0
 49
0.0
 49
0.0
 49
0.0
 49
1.0
175
     0
142
0.0008202099737533
142
0.0
142
0.0
142
0.0
142
0.0
142
0.0008202099737533
142
0.0
142
0.0
142
0.0
142
0.0
142
1.0
142
0.0
142
0.0
142
0.0
142
0.0
142
1.0
179
     0
144
0.0008202099737533
144
0.0
144
0.0
144
0.0
144
0.0
144
0.0008202099737533
144
0.0
144
0.0
144
0.0
144
0.0
144
1.0
144
0.0
144
0.0
144
0.0
144
0.0
144
1.0
147
0.0008202099737533
147
0.0
147
0.0
147
0.0
147
0.0
147
0.0008202099737533
147
0.0
147
0.0
147
0.0
147
0.0
147
1.0
147
0.0
147
0.0
147
0.0
147
0.0
147
1.0
  0
MATERIAL
  5
C37
102
{ACAD_XDICTIONARY
360
C38
102
}
102
{ACAD_REACTORS
330
BD
102
}
330
BD
100
AcDbMaterial
  1
ByLayer
 72
     0
 43
0.0008202099737533
 43
0.0
 43
0.0
 43
0.0
 43
0.0
 43
0.0008202099737533
 43
0.0
 43
0.0
 43
0.0
 43
0.0
 43
1.0
 43
0.0
 43
0.0
 43
0.0
 43
0.0
 43
1.0
 77
     0
 47
0.0008202099737533
 47
0.0
 47
0.0
 47
0.0
 47
0.0
 47
0.0008202099737533
 47
0.0
 47
0.0
 47
0.0
 47
0.0
 47
1.0
 47
0.0
 47
0.0
 47
0.0
 47
0.0
 47
1.0
171
     0
 49
0.0008202099737533
 49
0.0
 49
0.0
 49
0.0
 49
0.0
 49
0.0008202099737533
 49
0.0
 49
0.0
 49
0.0
 49
0.0
 49
1.0
 49
0.0
 49
0.0
 49
0.0
 49
0.0
 49
1.0
175
     0
142
0.0008202099737533
142
0.0
142
0.0
142
0.0
142
0.0
142
0.0008202099737533
142
0.0
142
0.0
142
0.0
142
0.0
142
1.0
142
0.0
142
0.0
142
0.0
142
0.0
142
1.0
179
     0
144
0.0008202099737533
144
0.0
144
0.0
144
0.0
144
0.0
144
0.0008202099737533
144
0.0
144
0.0
144
0.0
144
0.0
144
1.0
144
0.0
144
0.0
144
0.0
144
0.0
144
1.0
147
0.0008202099737533
147
0.0
147
0.0
147
0.0
147
0.0
147
0.0008202099737533
147
0.0
147
0.0
147
0.0
147
0.0
147
1.0
147
0.0
147
0.0
147
0.0
147
0.0
147
1.0
  0
MATERIAL
  5
C47
102
{ACAD_XDICTIONARY
360
C48
102
}
102
{ACAD_REACTORS
330
BD
102
}
330
BD
100
AcDbMaterial
  1
Global
 72
     0
 43
0.0008202099737533
 43
0.0
 43
0.0
 43
0.0
 43
0.0
 43
0.0008202099737533
 43
0.0
 43
0.0
 43
0.0
 43
0.0
 43
1.0
 43
0.0
 43
0.0
 43
0.0
 43
0.0
 43
1.0
 77
     0
 47
0.0008202099737533
 47
0.0
 47
0.0
 47
0.0
 47
0.0
 47
0.0008202099737533
 47
0.0
 47
0.0
 47
0.0
 47
0.0
 47
1.0
 47
0.0
 47
0.0
 47
0.0
 47
0.0
 47
1.0
171
     0
 49
0.0008202099737533
 49
0.0
 49
0.0
 49
0.0
 49
0.0
 49
0.0008202099737533
 49
0.0
 49
0.0
 49
0.0
 49
0.0
 49
1.0
 49
0.0
 49
0.0
 49
0.0
 49
0.0
 49
1.0
175
     0
142
0.0008202099737533
142
0.0
142
0.0
142
0.0
142
0.0
142
0.0008202099737533
142
0.0
142
0.0
142
0.0
142
0.0
142
1.0
142
0.0
142
0.0
142
0.0
142
0.0
142
1.0
179
     0
144
0.0008202099737533
144
0.0
144
0.0
144
0.0
144
0.0
144
0.0008202099737533
144
0.0
144
0.0
144
0.0
144
0.0
144
1.0
144
0.0
144
0.0
144
0.0
144
0.0
144
1.0
147
0.0008202099737533
147
0.0
147
0.0
147
0.0
147
0.0
147
0.0008202099737533
147
0.0
147
0.0
147
0.0
147
0.0
147
1.0
147
0.0
147
0.0
147
0.0
147
0.0
147
1.0
  0
MLEADERSTYLE
  5
C73
102
{ACAD_REACTORS
330
C72
102
}
330
C72
100
AcDbMLeaderStyle
170
     2
171
     1
172
     0
 90
        2
 40
0.0
 41
0.0
173
     1
 91
-1056964608
340
14
 92
       -2
290
     1
 42
2.0
291
     1
 43
0.36
  3
Standard
 44
4.0
300

342
11
174
     1
178
     6
175
     1
176
     0
 93
-1056964608
 45
4.0
292
     0
297
     0
 46
4.0
 94
-1056964608
 47
1.0
 49
1.0
140
1.0
293
     1
141
0.0
294
     1
177
     0
142
1.0
295
     0
296
     0
143
0.125
1001
ACAD_MLEADERVER
1070
     2
  0
MLINESTYLE
  5
18
102
{ACAD_REACTORS
330
17
102
}
330
17
100
AcDbMlineStyle
  2
STANDARD
 70
     0
  3

 62
   256
 51
90.0
 52
90.0
 71
     2
 49
0.5
 62
   256
  6
BYLAYER
 49
-0.5
 62
   256
  6
BYLAYER
  0
ACDBPLACEHOLDER
  5
F
102
{ACAD_REACTORS
330
E
102
}
330
E
  0
SCALE
  5
C61
102
{ACAD_REACTORS
330
C60
102
}
330
C60
100
AcDbScale
 70
     0
300
1:1
140
1.0
141
1.0
290
     1
  0
SCALE
  5
C62
102
{ACAD_REACTORS
330
C60
102
}
330
C60
100
AcDbScale
 70
     0
300
1:2
140
1.0
141
2.0
290
     0
  0
SCALE
  5
C63
102
{ACAD_REACTORS
330
C60
102
}
330
C60
100
AcDbScale
 70
     0
300
1:4
140
1.0
141
4.0
290
     0
  0
SCALE
  5
C64
102
{ACAD_REACTORS
330
C60
102
}
330
C60
100
AcDbScale
 70
     0
300
1:5
140
1.0
141
5.0
290
     0
  0
SCALE
  5
C65
102
{ACAD_REACTORS
330
C60
102
}
330
C60
100
AcDbScale
 70
     0
300
1:8
140
1.0
141
8.0
290
     0
  0
SCALE
  5
C66
102
{ACAD_REACTORS
330
C60
102
}
330
C60
100
AcDbScale
 70
     0
300
1:10
140
1.0
141
10.0
290
     0
  0
SCALE
  5
C67
102
{ACAD_REACTORS
330
C60
102
}
330
C60
100
AcDbScale
 70
     0
300
1:16
140
1.0
141
16.0
290
     0
  0
SCALE
  5
C68
102
{ACAD_REACTORS
330
C60
102
}
330
C60
100
AcDbScale
 70
     0
300
1:20
140
1.0
141
20.0
290
     0
  0
SCALE
  5
C69
102
{ACAD_REACTORS
330
C60
102
}
330
C60
100
AcDbScale
 70
     0
300
1:30
140
1.0
141
30.0
290
     0
  0
SCALE
  5
C6A
102
{ACAD_REACTORS
330
C60
102
}
330
C60
100
AcDbScale
 70
     0
300
1:40
140
1.0
141
40.0
290
     0
  0
SCALE
  5
C6B
102
{ACAD_REACTORS
330
C60
102
}
330
C60
100
AcDbScale
 70
     0
300
1:50
140
1.0
141
50.0
290
     0
  0
SCALE
  5
C6C
102
{ACAD_REACTORS
330
C60
102
}
330
C60
100
AcDbScale
 70
     0
300
1:100
140
1.0
141
100.0
290
     0
  0
SCALE
  5
C6D
102
{ACAD_REACTORS
330
C60
102
}
330
C60
100
AcDbScale
 70
     0
300
2:1
140
2.0
141
1.0
290
     0
  0
SCALE
  5
C6E
102
{ACAD_REACTORS
330
C60
102
}
330
C60
100
AcDbScale
 70
     0
300
4:1
140
4.0
141
1.0
290
     0
  0
SCALE
  5
C6F
102
{ACAD_REACTORS
330
C60
102
}
330
C60
100
AcDbScale
 70
     0
300
8:1
140
8.0
141
1.0
290
     0
  0
SCALE
  5
C70
102
{ACAD_REACTORS
330
C60
102
}
330
C60
100
AcDbScale
 70
     0
300
10:1
140
10.0
141
1.0
290
     0
  0
SCALE
  5
C71
102
{ACAD_REACTORS
330
C60
102
}
330
C60
100
AcDbScale
 70
     0
300
100:1
140
100.0
141
1.0
290
     0
  0
ACDBSECTIONVIEWSTYLE
  5
12D1
102
{ACAD_XDICTIONARY
360
24B1
102
}
102
{ACAD_REACTORS
330
10DF
330
2354
102
}
330
10DF
100
AcDbModelDocViewStyle
 70
     0
  3
Imperial24
290
     0
100
AcDbSectionViewStyle
 70
     0
 71
     0
 90
       78
 71
     1
340
11
 40
0.24
340
0
340
0
 40
0.24
300
I, O, Q, S, X, Z
 40
0.48
 90
        3
 40
0.18
 90
        1
 71
     2
340
16
 90
       25
340
16
 90
       50
 40
0.24
 40
0.0
 40
0.24
 71
     3
340
11
 40
0.24
 90
        1
 40
0.75
 90
        1
300
%<\AcVar ViewType \f "%tc1">% %<\AcVar ViewSectionStartId>%-%<\AcVar ViewSectionEndId>%\PSCALE %<\AcVar ViewScale \f "%sn">%
 71
     4
300
ANSI31
 40
1.0
 90
        0
290
     0
290
     0
 90
        6
 40
0.0
 40
1.570796326794896
 40
0.2617993877991494
 40
1.308996938995747
 40
-0.2617993877991494
 40
1.832595714594044
  0
ACDBSECTIONVIEWSTYLE
  5
10E0
102
{ACAD_XDICTIONARY
360
24AD
102
}
102
{ACAD_REACTORS
330
10DF
330
2355
102
}
330
10DF
100
AcDbModelDocViewStyle
 70
     0
  3
Metric50
290
     0
100
AcDbSectionViewStyle
 70
     0
 71
     0
 90
      102
 71
     1
340
11
 40
5.0
340
0
340
0
 40
5.0
300
I, O, Q, S, X, Z
 40
10.0
 90
        0
 40
2.5
 90
        0
 71
     2
340
16
 90
       25
340
16
 90
       50
 40
5.0
 40
2.5
 40
5.0
 71
     3
340
11
 40
5.0
 90
        0
 40
15.0
 90
        1
300
%<\AcVar ViewSectionStartId>%-%<\AcVar ViewSectionEndId>% (%<\AcVar ViewScale \f "%sn">%)
 71
     4
300
ANSI31
 40
1.0
 90
        0
290
     0
290
     0
 90
        6
 40
0.0
 40
1.570796326794896
 40
0.2617993877991494
 40
1.308996938995747
 40
-0.2617993877991494
 40
1.832595714594044
  0
TABLESTYLE
  5
11B
102
{ACAD_XDICTIONARY
360
DF0
102
}
102
{ACAD_REACTORS
330
11A
102
}
330
11A
100
AcDbTableStyle
  3
Standard
 70
     0
 71
     0
 40
1.5
 41
1.5
280
     0
281
     0
  7
STANDARD
140
4.5
170
     2
 62
     0
 63
     7
283
     0
274
    -2
284
     1
 64
     0
275
    -2
285
     1
 65
     0
276
    -2
286
     1
 66
     0
277
    -2
287
     1
 67
     0
278
    -2
288
     1
 68
     0
279
    -2
289
     1
 69
     0
  7
STANDARD
140
6.0
170
     5
 62
     0
 63
     7
283
     0
274
    -2
284
     1
 64
     0
275
    -2
285
     1
 65
     0
276
    -2
286
     1
 66
     0
277
    -2
287
     1
 67
     0
278
    -2
288
     1
 68
     0
279
    -2
289
     1
 69
     0
  7
STANDARD
140
4.5
170
     5
 62
     0
 63
     7
283
     0
274
    -2
284
     1
 64
     0
275
    -2
285
     1
 65
     0
276
    -2
286
     1
 66
     0
277
    -2
287
     1
 67
     0
278
    -2
288
     1
 68
     0
279
    -2
289
     1
 69
     0
  0
VISUALSTYLE
  5
C55
102
{ACAD_XDICTIONARY
360
2483
102
}
102
{ACAD_REACTORS
330
C4F
102
}
330
C4F
100
AcDbVisualStyle
  2

 70
     4
 71
     0
 72
     2
 73
     0
 90
        0
 40
-0.6
 41
-30.0
 62
     5
 63
     7
 74
     1
 91
        4
 64
     7
 65
   257
 75
     1
175
     1
 42
1.0
 92
        0
 66
   257
 43
1.0
 76
     1
 77
     6
 78
     2
 67
     7
 79
     5
170
     0
171
     0
290
     0
174
     0
 93
        1
 44
0.0
173
     0
291
     0
 45
0.0
1001
ACAD
1000
AcDbSavedByObjectVersion
1070
     0
  0
VISUALSTYLE
  5
C57
102
{ACAD_XDICTIONARY
360
2487
102
}
102
{ACAD_REACTORS
330
C4F
102
}
330
C4F
100
AcDbVisualStyle
  2

 70
     6
 71
     1
 72
     2
 73
     2
 90
        0
 40
-0.6
 41
-30.0
 62
     5
 63
     7
 74
     2
 91
        2
 64
     7
 65
   257
 75
     2
175
     1
 42
40.0
 92
        0
 66
   257
 43
1.0
 76
     1
 77
     6
 78
     2
 67
     7
 79
     3
170
     0
171
     0
290
     0
174
     0
 93
        1
 44
0.0
173
     0
291
     0
 45
0.0
1001
ACAD
1000
AcDbSavedByObjectVersion
1070
     0
  0
VISUALSTYLE
  5
C56
102
{ACAD_XDICTIONARY
360
2485
102
}
102
{ACAD_REACTORS
330
C4F
102
}
330
C4F
100
AcDbVisualStyle
  2

 70
     5
 71
     0
 72
     2
 73
     0
 90
        0
 40
-0.6
 41
-30.0
 62
     5
 63
     7
 74
     1
 91
        4
 64
     7
 65
   257
 75
     1
175
     1
 42
1.0
 92
        0
 66
   257
 43
1.0
 76
     1
 77
     6
 78
     2
 67
     7
 79
     5
170
     0
171
     0
290
     0
174
     0
 93
        1
 44
0.0
173
     0
291
     0
 45
0.0
1001
ACAD
1000
AcDbSavedByObjectVersion
1070
     0
  0
VISUALSTYLE
  5
C54
102
{ACAD_XDICTIONARY
360
2481
102
}
102
{ACAD_REACTORS
330
C4F
102
}
330
C4F
100
AcDbVisualStyle
  2

 70
     7
 71
     1
 72
     0
 73
     1
 90
        0
 40
-0.6
 41
-30.0
 62
     5
 63
     7
 74
     0
 91
        4
 64
     7
 65
   257
 75
     1
175
     1
 42
1.0
 92
        8
 66
     7
 43
1.0
 76
     1
 77
     6
 78
     2
 67
     7
 79
     5
170
     0
171
     0
290
     0
174
     0
 93
        1
 44
0.0
173
     0
291
     1
 45
0.0
1001
ACAD
1000
AcDbSavedByObjectVersion
1070
     0
  0
VISUALSTYLE
  5
C5B
102
{ACAD_XDICTIONARY
360
248F
102
}
102
{ACAD_REACTORS
330
C4F
102
}
330
C4F
100
AcDbVisualStyle
  2

 70
    12
 71
     2
 72
     2
 73
     0
 90
        0
 40
-0.6
 41
-30.0
 62
     5
 63
     7
 74
     1
 91
        4
 64
     7
 65
   257
 75
     1
175
     1
 42
1.0
 92
        8
 66
     7
 43
1.0
 76
     1
 77
     6
 78
     2
 67
     7
 79
     5
170
     0
171
     0
290
     0
174
     0
 93
        1
 44
50.0
173
     0
291
     1
 45
0.0
1001
ACAD
1000
AcDbSavedByObjectVersion
1070
     0
  0
VISUALSTYLE
  5
C5F
102
{ACAD_XDICTIONARY
360
2497
102
}
102
{ACAD_REACTORS
330
C4F
102
}
330
C4F
100
AcDbVisualStyle
  2

 70
    16
 71
     2
 72
     2
 73
     3
 90
        0
 40
-0.6
 41
-30.0
 62
     5
 63
     8
 74
     1
 91
        4
 64
     7
 65
   257
 75
     1
175
     1
 42
1.0
 92
        8
 66
     8
 43
1.0
 76
     1
 77
     6
 78
     2
 67
     7
 79
     5
170
     0
171
     0
290
     0
174
     0
 93
        1
 44
0.0
173
     0
291
     1
 45
0.0
1001
ACAD
1000
AcDbSavedByObjectVersion
1070
     0
  0
VISUALSTYLE
  5
C58
102
{ACAD_XDICTIONARY
360
2489
102
}
102
{ACAD_REACTORS
330
C4F
102
}
330
C4F
100
AcDbVisualStyle
  2

 70
     9
 71
     3
 72
     2
 73
     0
 90
        0
 40
-0.6
 41
-30.0
 62
     5
 63
     7
 74
     2
 91
        2
 64
     7
 65
   257
 75
     1
175
     1
 42
40.0
 92
        8
 66
     7
 43
1.0
 76
     1
 77
     6
 78
     2
 67
     7
 79
     3
170
     0
171
     0
290
     0
174
     0
 93
        1
 44
0.0
173
     0
291
     0
 45
0.0
1001
ACAD
1000
AcDbSavedByObjectVersion
1070
     0
  0
VISUALSTYLE
  5
C5A
102
{ACAD_XDICTIONARY
360
248D
102
}
102
{ACAD_REACTORS
330
C4F
102
}
330
C4F
100
AcDbVisualStyle
  2

 70
    11
 71
     2
 72
     2
 73
     0
 90
        0
 40
-0.6
 41
-30.0
 62
     5
 63
     7
 74
     1
 91
        4
 64
     7
 65
   257
 75
     1
175
     1
 42
1.0
 92
        8
 66
     7
 43
1.0
 76
     1
 77
     6
 78
     2
 67
     7
 79
     5
170
     0
171
     0
290
     0
174
     0
 93
        1
 44
-50.0
173
     0
291
     1
 45
0.0
1001
ACAD
1000
AcDbSavedByObjectVersion
1070
     0
  0
VISUALSTYLE
  5
10DE
102
{ACAD_XDICTIONARY
360
24AB
102
}
102
{ACAD_REACTORS
330
C4F
102
}
330
C4F
100
AcDbVisualStyle
  2

 70
    22
 71
     2
 72
     2
 73
     0
 90
        0
 40
-0.6
 41
-30.0
 62
     5
 63
     7
 74
     1
 91
        4
 64
     7
 65
   257
 75
     1
175
     1
 42
1.0
 92
        8
 66
     7
 43
1.0
 76
     1
 77
     6
 78
     2
 67
     7
 79
     5
170
     0
171
     0
290
     0
174
     0
 93
        1
 44
0.0
173
     0
291
     1
 45
0.0
1001
ACAD
1000
AcDbSavedByObjectVersion
1070
     0
  0
VISUALSTYLE
  5
C5E
102
{ACAD_XDICTIONARY
360
2495
102
}
102
{ACAD_REACTORS
330
C4F
102
}
330
C4F
100
AcDbVisualStyle
  2

 70
    15
 71
     2
 72
     2
 73
     0
 90
        0
 40
-0.6
 41
-30.0
 62
     5
 63
     7
 74
     1
 91
        4
 64
     7
 65
   257
 75
     1
175
     1
 42
1.0
 92
        8
 66
     7
 43
1.0
 76
     1
 77
     6
 78
     2
 67
     7
 79
     5
170
     0
171
     0
290
     0
174
     0
 93
        1
 44
0.0
173
     0
291
     1
 45
0.0
1001
ACAD
1000
AcDbSavedByObjectVersion
1070
     0
  0
VISUALSTYLE
  5
C50
102
{ACAD_XDICTIONARY
360
2479
102
}
102
{ACAD_REACTORS
330
C4F
102
}
330
C4F
100
AcDbVisualStyle
  2

 70
     0
 71
     2
 72
     1
 73
     1
 90
        2
 40
-0.6
 41
30.0
 62
     5
 63
     7
 74
     0
 91
        4
 64
     7
 65
   257
 75
     1
175
     1
 42
1.0
 92
        8
 66
     7
 43
1.0
 76
     1
 77
     6
 78
     2
 67
     7
 79
     5
170
     0
171
     0
290
     0
174
     0
 93
       13
 44
0.0
173
     0
291
     1
 45
0.0
1001
ACAD
1000
AcDbSavedByObjectVersion
1070
     0
  0
VISUALSTYLE
  5
C51
102
{ACAD_XDICTIONARY
360
247B
102
}
102
{ACAD_REACTORS
330
C4F
102
}
330
C4F
100
AcDbVisualStyle
  2

 70
     1
 71
     2
 72
     1
 73
     1
 90
        2
 40
-0.6
 41
30.0
 62
     5
 63
     7
 74
     1
 91
        4
 64
     7
 65
   257
 75
     1
175
     1
 42
1.0
 92
        0
 66
   257
 43
1.0
 76
     1
 77
     6
 78
     2
 67
     7
 79
     5
170
     0
171
     0
290
     0
174
     0
 93
       13
 44
0.0
173
     0
291
     1
 45
0.0
1001
ACAD
1000
AcDbSavedByObjectVersion
1070
     0
  0
VISUALSTYLE
  5
C52
102
{ACAD_XDICTIONARY
360
247D
102
}
102
{ACAD_REACTORS
330
C4F
102
}
330
C4F
100
AcDbVisualStyle
  2

 70
     2
 71
     2
 72
     2
 73
     1
 90
        2
 40
-0.6
 41
30.0
 62
     5
 63
     7
 74
     0
 91
        4
 64
     7
 65
   257
 75
     1
175
     1
 42
1.0
 92
        0
 66
     7
 43
1.0
 76
     1
 77
     6
 78
     2
 67
     7
 79
     5
170
     0
171
     0
290
     0
174
     0
 93
       13
 44
0.0
173
     0
291
     1
 45
0.0
1001
ACAD
1000
AcDbSavedByObjectVersion
1070
     0
  0
VISUALSTYLE
  5
C53
102
{ACAD_XDICTIONARY
360
247F
102
}
102
{ACAD_REACTORS
330
C4F
102
}
330
C4F
100
AcDbVisualStyle
  2

 70
     3
 71
     2
 72
     2
 73
     1
 90
        2
 40
-0.6
 41
30.0
 62
     5
 63
     7
 74
     1
 91
        4
 64
     7
 65
   257
 75
     1
175
     1
 42
1.0
 92
        0
 66
   257
 43
1.0
 76
     1
 77
     6
 78
     2
 67
     7
 79
     5
170
     0
171
     0
290
     0
174
     0
 93
       13
 44
0.0
173
     0
291
     1
 45
0.0
1001
ACAD
1000
AcDbSavedByObjectVersion
1070
     0
  0
VISUALSTYLE
  5
10D6
102
{ACAD_XDICTIONARY
360
249B
102
}
102
{ACAD_REACTORS
330
C4F
102
}
330
C4F
100
AcDbVisualStyle
  2

 70
     6
 71
     1
 72
     2
 73
     2
 90
        0
 40
-0.6
 41
-30.0
 62
     5
 63
     7
 74
     2
 91
        2
 64
     7
 65
   257
 75
     2
175
     1
 42
40.0
 92
        0
 66
   257
 43
1.0
 76
     1
 77
     6
 78
     2
 67
     7
 79
     3
170
     0
171
     0
290
     0
174
     0
 93
        1
 44
0.0
173
     0
291
     0
 45
0.0
1001
ACAD
1000
AcDbSavedByObjectVersion
1070
     0
  0
VISUALSTYLE
  5
10DC
102
{ACAD_XDICTIONARY
360
24A7
102
}
102
{ACAD_REACTORS
330
C4F
102
}
330
C4F
100
AcDbVisualStyle
  2

 70
    20
 71
     2
 72
     2
 73
     0
 90
        0
 40
-0.6
 41
-30.0
 62
     5
 63
     7
 74
     1
 91
        4
 64
     7
 65
   257
 75
     1
175
     1
 42
1.0
 92
       10
 66
     7
 43
1.0
 76
     1
 77
     6
 78
     2
 67
     7
 79
     5
170
     0
171
     0
290
     0
174
     0
 93
        1
 44
0.0
173
     0
291
     1
 45
0.0
1001
ACAD
1000
AcDbSavedByObjectVersion
1070
     0
  0
VISUALSTYLE
  5
C5D
102
{ACAD_XDICTIONARY
360
2493
102
}
102
{ACAD_REACTORS
330
C4F
102
}
330
C4F
100
AcDbVisualStyle
  2

 70
    14
 71
     2
 72
     2
 73
     0
 90
        0
 40
-0.6
 41
-30.0
 62
     5
 63
     7
 74
     1
 91
        4
 64
     7
 65
   257
 75
     7
175
     7
 42
1.0
 92
        8
 66
     7
 43
1.0
 76
     1
 77
     6
 78
     2
 67
     7
 79
     5
170
     0
171
     0
290
     0
174
     0
 93
        1
 44
0.0
173
     0
291
     1
 45
0.0
1001
ACAD
1000
AcDbSavedByObjectVersion
1070
     0
  0
VISUALSTYLE
  5
10DD
102
{ACAD_XDICTIONARY
360
24A9
102
}
102
{ACAD_REACTORS
330
C4F
102
}
330
C4F
100
AcDbVisualStyle
  2

 70
    21
 71
     2
 72
     2
 73
     0
 90
        0
 40
-0.6
 41
-30.0
 62
     5
 63
     7
 74
     1
 91
        4
 64
     7
 65
   257
 75
     1
175
     1
 42
1.0
 92
        9
 66
     7
 43
1.0
 76
     1
 77
     6
 78
     2
 67
     7
 79
     5
170
     0
171
     0
290
     0
174
     0
 93
        1
 44
0.0
173
     0
291
     1
 45
0.0
1001
ACAD
1000
AcDbSavedByObjectVersion
1070
     0
  0
VISUALSTYLE
  5
C59
102
{ACAD_XDICTIONARY
360
248B
102
}
102
{ACAD_REACTORS
330
C4F
102
}
330
C4F
100
AcDbVisualStyle
  2

 70
     8
 71
     2
 72
     2
 73
     0
 90
        0
 40
-0.6
 41
-30.0
 62
     5
 63
     7
 74
     1
 91
        0
 64
     7
 65
   257
 75
     1
175
     1
 42
1.0
 92
        8
 66
     8
 43
1.0
 76
     1
 77
     6
 78
     2
 67
     7
 79
     5
170
     0
171
     0
290
     0
174
     0
 93
       13
 44
0.0
173
     0
291
     0
 45
0.0
1001
ACAD
1000
AcDbSavedByObjectVersion
1070
     0
  0
VISUALSTYLE
  5
10DB
102
{ACAD_XDICTIONARY
360
24A5
102
}
102
{ACAD_REACTORS
330
C4F
102
}
330
C4F
100
AcDbVisualStyle
  2

 70
    27
 71
     2
 72
     2
 73
     1
 90
        2
 40
-0.6
 41
30.0
 62
     5
 63
     7
 74
     0
 91
        4
 64
     7
 65
   257
 75
     1
175
     1
 42
1.0
 92
        8
 66
   257
 43
1.0
 76
     1
 77
     6
 78
     2
 67
     8
 79
     3
170
     0
171
     0
290
     0
174
     0
 93
        5
 44
0.0
173
     0
291
     0
 45
0.0
1001
ACAD
1000
AcDbSavedByObjectVersion
1070
     0
  0
VISUALSTYLE
  5
10DA
102
{ACAD_XDICTIONARY
360
24A3
102
}
102
{ACAD_REACTORS
330
C4F
102
}
330
C4F
100
AcDbVisualStyle
  2

 70
    26
 71
     2
 72
     2
 73
     1
 90
        2
 40
-0.6
 41
30.0
 62
     5
 63
     7
 74
     1
 91
       10
 64
     7
 65
   257
 75
     2
175
     1
 42
1.0
 92
        8
 66
   257
 43
1.0
 76
     1
 77
     6
 78
     2
 67
     7
 79
     3
170
     0
171
     0
290
     0
174
     0
 93
        5
 44
0.0
173
     0
291
     0
 45
0.0
1001
ACAD
1000
AcDbSavedByObjectVersion
1070
     0
  0
VISUALSTYLE
  5
10D7
102
{ACAD_XDICTIONARY
360
249D
102
}
102
{ACAD_REACTORS
330
C4F
102
}
330
C4F
100
AcDbVisualStyle
  2

 70
    23
 71
     2
 72
     2
 73
     3
 90
        0
 40
-0.6
 41
-30.0
 62
     5
 63
     7
 74
     2
 91
        2
 64
     7
 65
     7
 75
     1
175
     1
 42
40.0
 92
        8
 66
     7
 43
1.0
 76
     1
 77
     6
 78
     2
 67
     7
 79
     3
170
     0
171
     0
290
     0
174
     0
 93
        1
 44
0.0
173
     0
291
     0
 45
0.0
1001
ACAD
1000
AcDbSavedByObjectVersion
1070
     0
  0
VISUALSTYLE
  5
10D8
102
{ACAD_XDICTIONARY
360
249F
102
}
102
{ACAD_REACTORS
330
C4F
102
}
330
C4F
100
AcDbVisualStyle
  2

 70
    24
 71
     1
 72
     2
 73
     2
 90
        0
 40
-0.6
 41
-30.0
 62
     5
 63
     7
 74
     2
 91
        2
 64
     7
 65
     7
 75
     1
175
     1
 42
40.0
 92
       11
 66
     7
 43
1.0
 76
     1
 77
     6
 78
     2
 67
     7
 79
     6
170
     0
171
     0
290
     0
174
     0
 93
        1
 44
0.0
173
     0
291
     0
 45
0.0
1001
ACAD
1000
AcDbSavedByObjectVersion
1070
     0
  0
VISUALSTYLE
  5
C5C
102
{ACAD_XDICTIONARY
360
2491
102
}
102
{ACAD_REACTORS
330
C4F
102
}
330
C4F
100
AcDbVisualStyle
  2

 70
    13
 71
     2
 72
     2
 73
     0
 90
        0
 40
-0.6
 41
-30.0
 62
     5
 63
     7
 74
     1
 91
        4
 64
     7
 65
   257
 75
     1
175
     1
 42
1.0
 92
       12
 66
     7
 43
1.0
 76
     1
 77
     6
 78
     2
 67
     7
 79
     5
170
     0
171
     0
290
     0
174
     0
 93
        1
 44
0.0
173
     0
291
     1
 45
0.0
1001
ACAD
1000
AcDbSavedByObjectVersion
1070
     0
  0
VISUALSTYLE
  5
10D5
102
{ACAD_XDICTIONARY
360
2499
102
}
102
{ACAD_REACTORS
330
C4F
102
}
330
C4F
100
AcDbVisualStyle
  2

 70
     5
 71
     0
 72
     2
 73
     0
 90
        0
 40
-0.6
 41
-30.0
 62
     5
 63
     7
 74
     1
 91
        4
 64
     7
 65
   257
 75
     1
175
     1
 42
1.0
 92
        0
 66
   257
 43
1.0
 76
     1
 77
     6
 78
     2
 67
     7
 79
     3
170
     0
171
     0
290
     0
174
     0
 93
        1
 44
0.0
173
     0
291
     0
 45
0.0
1001
ACAD
1000
AcDbSavedByObjectVersion
1070
     0
  0
VISUALSTYLE
  5
10D9
102
{ACAD_XDICTIONARY
360
24A1
102
}
102
{ACAD_REACTORS
330
C4F
102
}
330
C4F
100
AcDbVisualStyle
  2

 70
    25
 71
     2
 72
     2
 73
     1
 90
        1
 40
0.5
 41
-30.0
 62
     5
 63
     7
 74
     1
 91
        0
 64
     7
 65
   257
 75
     1
175
     1
 42
1.0
 92
        8
 66
     7
 43
1.0
 76
     1
 77
     6
 78
     2
 67
     7
 79
     3
170
     0
171
     0
290
     0
174
     0
 93
       13
 44
0.0
173
     0
291
     0
 45
0.0
1001
ACAD
1000
AcDbSavedByObjectVersion
1070
     0
  0
DICTIONARYVAR
  5
DF5
102
{ACAD_REACTORS
330
94
102
}
330
94
100
DictionaryVariables
280
     0
  1
1:1
  0
DICTIONARYVAR
  5
DF3
102
{ACAD_REACTORS
330
94
102
}
330
94
100
DictionaryVariables
280
     0
  1
STANDARD
  0
DICTIONARYVAR
  5
138
102
{ACAD_REACTORS
330
94
102
}
330
94
100
DictionaryVariables
280
     0
  1
STANDARD
  0
DICTIONARYVAR
  5
1162
102
{ACAD_REACTORS
330
94
102
}
330
94
100
DictionaryVariables
280
     0
  1
Metric50
  0
DICTIONARYVAR
  5
1163
102
{ACAD_REACTORS
330
94
102
}
330
94
100
DictionaryVariables
280
     0
  1
Metric50
  0
DICTIONARYVAR
  5
96
102
{ACAD_REACTORS
330
94
102
}
330
94
100
DictionaryVariables
280
     0
  1
2
  0
DICTIONARYVAR
  5
95
102
{ACAD_REACTORS
330
94
102
}
330
94
100
DictionaryVariables
280
     0
  1
0
  0
DICTIONARYVAR
  5
DF7
102
{ACAD_REACTORS
330
94
102
}
330
94
100
DictionaryVariables
280
     0
  1
1
  0
DICTIONARYVAR
  5
DF8
102
{ACAD_REACTORS
330
94
102
}
330
94
100
DictionaryVariables
280
     0
  1
15
  0
DICTIONARYVAR
  5
DF6
102
{ACAD_REACTORS
330
94
102
}
330
94
100
DictionaryVariables
280
     0
  1
0
  0
DICTIONARYVAR
  5
DF4
102
{ACAD_REACTORS
330
94
102
}
330
94
100
DictionaryVariables
280
     0
  1
0
  0
DICTIONARYVAR
  5
1166
102
{ACAD_REACTORS
330
94
102
}
330
94
100
DictionaryVariables
280
     0
  1
1
  0
DICTIONARYVAR
  5
1164
102
{ACAD_REACTORS
330
94
102
}
330
94
100
DictionaryVariables
280
     0
  1
127
  0
DICTIONARYVAR
  5
2468
102
{ACAD_REACTORS
330
94
102
}
330
94
100
DictionaryVariables
280
     0
  1
2
  0
DICTIONARY
  5
272
102
{ACAD_REACTORS
330
5B
102
}
330
5B
100
AcDbDictionary
281
     1
  0
DICTIONARY
  5
61
102
{ACAD_REACTORS
330
5B
102
}
330
5B
100
AcDbDictionary
281
     1
  0
XRECORD
  5
123
102
{ACAD_REACTORS
330
5B
102
}
330
5B
100
AcDbXrecord
280
     1
 90
-1023410169
  0
ACDBASSOCNETWORK
  5
1306
102
{ACAD_REACTORS
330
1305
102
}
330
1305
100
AcDbAssocAction
 90
        1
 90
        0
330
12F0
360
0
 90
        2
 90
        0
 90
        0
100
AcDbAssocNetwork
 90
        0
 90
       12
 90
        1
360
1301
 90
        0
  0
DICTIONARY
  5
24B3
330
12D3
100
AcDbDictionary
280
     1
281
     1
  3
ACAD_XREC_ROUNDTRIP
360
24B4
  0
DICTIONARY
  5
24AF
330
10E2
100
AcDbDictionary
280
     1
281
     1
  3
ACAD_XREC_ROUNDTRIP
360
24B0
  0
DICTIONARY
  5
2472
330
1E
100
AcDbDictionary
280
     1
281
     1
  3
ACAD_XREC_ROUNDTRIP
360
2473
  0
DICTIONARY
  5
2476
330
26
100
AcDbDictionary
280
     1
281
     1
  3
ACAD_XREC_ROUNDTRIP
360
2477
  0
DICTIONARY
  5
2474
330
22
100
AcDbDictionary
280
     1
281
     1
  3
ACAD_XREC_ROUNDTRIP
360
2475
  0
DICTIONARY
  5
C40
330
C3F
100
AcDbDictionary
280
     1
281
     1
  3
ACAD_XREC_ROUNDTRIP
360
1177
  3
BUMPTILE
360
C42
  3
DIFFUSETILE
360
C41
  3
OPACITYTILE
360
C45
  3
REFLECTIONTILE
360
C44
  3
REFRACTIONTILE
360
C46
  3
SPECULARTILE
360
C43
  0
DICTIONARY
  5
C38
330
C37
100
AcDbDictionary
280
     1
281
     1
  3
ACAD_XREC_ROUNDTRIP
360
1176
  3
BUMPTILE
360
C3A
  3
DIFFUSETILE
360
C39
  3
OPACITYTILE
360
C3D
  3
REFLECTIONTILE
360
C3C
  3
REFRACTIONTILE
360
C3E
  3
SPECULARTILE
360
C3B
  0
DICTIONARY
  5
C48
330
C47
100
AcDbDictionary
280
     1
281
     1
  3
ACAD_XREC_ROUNDTRIP
360
1178
  3
BUMPTILE
360
C4A
  3
DIFFUSETILE
360
C49
  3
OPACITYTILE
360
C4D
  3
REFLECTIONTILE
360
C4C
  3
REFRACTIONTILE
360
C4E
  3
SPECULARTILE
360
C4B
  0
DICTIONARY
  5
24B1
330
12D1
100
AcDbDictionary
280
     1
281
     1
  3
ACAD_XREC_ROUNDTRIP
360
24B2
  0
DICTIONARY
  5
24AD
330
10E0
100
AcDbDictionary
280
     1
281
     1
  3
ACAD_XREC_ROUNDTRIP
360
24AE
  0
DICTIONARY
  5
DF0
330
11B
100
AcDbDictionary
280
     1
281
     1
  3
ACAD_ROUNDTRIP_2008_TABLESTYLE_CELLSTYLEMAP
360
2469
  3
ACAD_XREC_ROUNDTRIP
360
2478
  0
DICTIONARY
  5
2483
330
C55
100
AcDbDictionary
280
     1
281
     1
  3
ACAD_XREC_ROUNDTRIP
360
2484
  0
DICTIONARY
  5
2487
330
C57
100
AcDbDictionary
280
     1
281
     1
  3
ACAD_XREC_ROUNDTRIP
360
2488
  0
DICTIONARY
  5
2485
330
C56
100
AcDbDictionary
280
     1
281
     1
  3
ACAD_XREC_ROUNDTRIP
360
2486
  0
DICTIONARY
  5
2481
330
C54
100
AcDbDictionary
280
     1
281
     1
  3
ACAD_XREC_ROUNDTRIP
360
2482
  0
DICTIONARY
  5
248F
330
C5B
100
AcDbDictionary
280
     1
281
     1
  3
ACAD_XREC_ROUNDTRIP
360
2490
  0
DICTIONARY
  5
2497
330
C5F
100
AcDbDictionary
280
     1
281
     1
  3
ACAD_XREC_ROUNDTRIP
360
2498
  0
DICTIONARY
  5
2489
330
C58
100
AcDbDictionary
280
     1
281
     1
  3
ACAD_XREC_ROUNDTRIP
360
248A
  0
DICTIONARY
  5
248D
330
C5A
100
AcDbDictionary
280
     1
281
     1
  3
ACAD_XREC_ROUNDTRIP
360
248E
  0
DICTIONARY
  5
24AB
330
10DE
100
AcDbDictionary
280
     1
281
     1
  3
ACAD_XREC_ROUNDTRIP
360
24AC
  0
DICTIONARY
  5
2495
330
C5E
100
AcDbDictionary
280
     1
281
     1
  3
ACAD_XREC_ROUNDTRIP
360
2496
  0
DICTIONARY
  5
2479
330
C50
100
AcDbDictionary
280
     1
281
     1
  3
ACAD_XREC_ROUNDTRIP
360
247A
  0
DICTIONARY
  5
247B
330
C51
100
AcDbDictionary
280
     1
281
     1
  3
ACAD_XREC_ROUNDTRIP
360
247C
  0
DICTIONARY
  5
247D
330
C52
100
AcDbDictionary
280
     1
281
     1
  3
ACAD_XREC_ROUNDTRIP
360
247E
  0
DICTIONARY
  5
247F
330
C53
100
AcDbDictionary
280
     1
281
     1
  3
ACAD_XREC_ROUNDTRIP
360
2480
  0
DICTIONARY
  5
249B
330
10D6
100
AcDbDictionary
280
     1
281
     1
  3
ACAD_XREC_ROUNDTRIP
360
249C
  0
DICTIONARY
  5
24A7
330
10DC
100
AcDbDictionary
280
     1
281
     1
  3
ACAD_XREC_ROUNDTRIP
360
24A8
  0
DICTIONARY
  5
2493
330
C5D
100
AcDbDictionary
280
     1
281
     1
  3
ACAD_XREC_ROUNDTRIP
360
2494
  0
DICTIONARY
  5
24A9
330
10DD
100
AcDbDictionary
280
     1
281
     1
  3
ACAD_XREC_ROUNDTRIP
360
24AA
  0
DICTIONARY
  5
248B
330
C59
100
AcDbDictionary
280
     1
281
     1
  3
ACAD_XREC_ROUNDTRIP
360
248C
  0
DICTIONARY
  5
24A5
330
10DB
100
AcDbDictionary
280
     1
281
     1
  3
ACAD_XREC_ROUNDTRIP
360
24A6
  0
DICTIONARY
  5
24A3
330
10DA
100
AcDbDictionary
280
     1
281
     1
  3
ACAD_XREC_ROUNDTRIP
360
24A4
  0
DICTIONARY
  5
249D
330
10D7
100
AcDbDictionary
280
     1
281
     1
  3
ACAD_XREC_ROUNDTRIP
360
249E
  0
DICTIONARY
  5
249F
330
10D8
100
AcDbDictionary
280
     1
281
     1
  3
ACAD_XREC_ROUNDTRIP
360
24A0
  0
DICTIONARY
  5
2491
330
C5C
100
AcDbDictionary
280
     1
281
     1
  3
ACAD_XREC_ROUNDTRIP
360
2492
  0
DICTIONARY
  5
2499
330
10D5
100
AcDbDictionary
280
     1
281
     1
  3
ACAD_XREC_ROUNDTRIP
360
249A
  0
DICTIONARY
  5
24A1
330
10D9
100
AcDbDictionary
280
     1
281
     1
  3
ACAD_XREC_ROUNDTRIP
360
24A2
  0
ACDBASSOC2DCONSTRAINTGROUP
  5
1301
330
1306
100
AcDbAssocAction
 90
        1
 90
        0
330
1306
360
0
 90
        1
 90
       59
 90
        0
 90
        2
 70
     0
 10
4205.343872728206
 20
449.7968278855791
 30
0.0
 10
1.0
 20
0.0
 30
0.0
 10
0.0
 20
1.0
 30
0.0
360
0
 90
        6
360
1509
360
150A
360
1500
360
1523
360
1524
360
1525
 90
      385
 90
       42
  1
AcConstrainedDatumLine
330
1301
 90
      308
 70
     0
 90
        0
330
0
 90
        0
 10
-2383.661870617766
 20
254.1467256631213
 30
0.0
 10
1.0
 20
0.0
 30
0.0
  1
AcConstrainedBoundedLine
330
1301
 90
      309
 70
     1
 90
        3
 90
      311
 90
      313
 90
      314
330
1500
 90
        0
 10
-1948.717985174051
 20
719.6706129416265
 30
0.0
 10
1.0
 20
0.0
 30
0.0
290
     0
 10
-1948.717985174051
 20
719.6706129416265
 30
0.0
 11
-1692.71498517405
 21
719.6706129416265
 31
0.0
  1
AcConstrainedImplicitPoint
330
1301
 90
      310
 70
     1
 90
        3
 90
      311
 90
      320
 90
      326
330
0
 90
        0
280
     0
 90
       -1
 90
      309
  1
AcPointCurveConstraint
330
1301
 90
      311
 70
     0
 90
        2
 90
      310
 90
      309
 90
        0
290
     1
290
     1
  1
AcConstrainedImplicitPoint
330
1301
 90
      312
 70
     1
 90
        1
 90
      313
330
0
 90
        0
280
     1
 90
       -1
 90
      309
  1
AcPointCurveConstraint
330
1301
 90
      313
 70
     0
 90
        2
 90
      312
 90
      309
 90
        0
290
     1
290
     1
  1
AcHorizontalConstraint
330
1301
 90
      314
 70
     0
 90
        1
 90
      309
 90
        0
290
     0
290
     1
 90
      308
  1
AcConstrainedBoundedLine
330
1301
 90
      315
 70
     1
 90
        2
 90
      317
 90
      319
330
1509
 90
        0
 10
-1948.717985174051
 20
719.6706129416265
 30
0.0
 10
0.0
 20
-1.0
 30
0.0
290
     0
 10
-1948.717985174051
 20
719.6706129416265
 30
0.0
 11
-1948.717985174051
 21
699.6706129416267
 31
0.0
  1
AcConstrainedImplicitPoint
330
1301
 90
      316
 70
     1
 90
        2
 90
      317
 90
      320
330
0
 90
        0
280
     0
 90
       -1
 90
      315
  1
AcPointCurveConstraint
330
1301
 90
      317
 70
     0
 90
        2
 90
      316
 90
      315
 90
        0
290
     1
290
     1
  1
AcConstrainedImplicitPoint
330
1301
 90
      318
 70
     1
 90
        1
 90
      319
330
0
 90
        0
280
     1
 90
       -1
 90
      315
  1
AcPointCurveConstraint
330
1301
 90
      319
 70
     0
 90
        2
 90
      318
 90
      315
 90
        0
290
     1
290
     1
  1
AcPointCoincidenceConstraint
330
1301
 90
      320
 70
     0
 90
        2
 90
      310
 90
      316
 90
        0
290
     0
290
     1
  1
AcConstrainedBoundedLine
330
1301
 90
      321
 70
     1
 90
        2
 90
      323
 90
      325
330
150A
 90
        0
 10
-1948.717985174051
 20
719.6706129416265
 30
0.0
 10
0.0
 20
1.0
 30
0.0
290
     0
 10
-1948.717985174051
 20
719.6706129416265
 30
0.0
 11
-1948.717985174051
 21
739.6706129416267
 31
0.0
  1
AcConstrainedImplicitPoint
330
1301
 90
      322
 70
     1
 90
        2
 90
      323
 90
      326
330
0
 90
        0
280
     0
 90
       -1
 90
      321
  1
AcPointCurveConstraint
330
1301
 90
      323
 70
     0
 90
        2
 90
      322
 90
      321
 90
        0
290
     1
290
     1
  1
AcConstrainedImplicitPoint
330
1301
 90
      324
 70
     1
 90
        1
 90
      325
330
0
 90
        0
280
     1
 90
       -1
 90
      321
  1
AcPointCurveConstraint
330
1301
 90
      325
 70
     0
 90
        2
 90
      324
 90
      321
 90
        0
290
     1
290
     1
  1
AcPointCoincidenceConstraint
330
1301
 90
      326
 70
     0
 90
        2
 90
      310
 90
      322
 90
        0
290
     0
290
     1
  1
AcConstrainedArc
330
1301
 90
      327
 70
     1
 90
        5
 90
      329
 90
      331
 90
      333
 90
      341
 90
      349
330
1523
 90
        0
 10
-1820.715985174048
 20
719.6706129416261
 30
0.0
 10
0.0
 20
0.0
 30
1.0
 10
1.0
 20
0.0
 30
0.0
 40
123.9999999999973
 40
0.0
 40
6.283185307179584
 10
-1720.71598517405
 20
646.3494018223332
 30
0.0
 11
-1698.339516847823
 21
699.6706129416267
 31
0.0
  1
AcConstrainedImplicitPoint
330
1301
 90
      328
 70
     1
 90
        1
 90
      329
330
0
 90
        0
280
     0
 90
       -1
 90
      327
  1
AcPointCurveConstraint
330
1301
 90
      329
 70
     0
 90
        2
 90
      328
 90
      327
 90
        0
290
     1
290
     1
  1
AcConstrainedImplicitPoint
330
1301
 90
      330
 70
     1
 90
        1
 90
      331
330
0
 90
        0
280
     1
 90
       -1
 90
      327
  1
AcPointCurveConstraint
330
1301
 90
      331
 70
     0
 90
        2
 90
      330
 90
      327
 90
        0
290
     1
290
     1
  1
AcConstrainedImplicitPoint
330
1301
 90
      332
 70
     1
 90
        1
 90
      333
330
0
 90
        0
280
     3
 90
       -1
 90
      327
  1
AcCenterPointConstraint
330
1301
 90
      333
 70
     0
 90
        2
 90
      332
 90
      327
 90
        0
290
     1
290
     1
  1
AcConstrainedArc
330
1301
 90
      334
 70
     1
 90
        3
 90
      336
 90
      338
 90
      340
330
1524
 90
        0
 10
-1820.71598517405
 20
719.6706129416265
 30
0.0
 10
0.0
 20
0.0
 30
1.0
 10
1.0
 20
0.0
 30
0.0
 40
124.0
 40
0.0
 40
6.283185307179584
 10
-1698.339586980555
 20
739.6710420666996
 30
0.0
 11
-1720.715574542881
 21
792.9912640134596
 31
0.0
  1
AcConstrainedImplicitPoint
330
1301
 90
      335
 70
     1
 90
        2
 90
      336
 90
      341
330
0
 90
        0
280
     0
 90
       -1
 90
      334
  1
AcPointCurveConstraint
330
1301
 90
      336
 70
     0
 90
        2
 90
      335
 90
      334
 90
        0
290
     1
290
     1
  1
AcConstrainedImplicitPoint
330
1301
 90
      337
 70
     1
 90
        1
 90
      338
330
0
 90
        0
280
     1
 90
       -1
 90
      334
  1
AcPointCurveConstraint
330
1301
 90
      338
 70
     0
 90
        2
 90
      337
 90
      334
 90
        0
290
     1
290
     1
  1
AcConstrainedImplicitPoint
330
1301
 90
      339
 70
     1
 90
        1
 90
      340
330
0
 90
        0
280
     3
 90
       -1
 90
      334
  1
AcCenterPointConstraint
330
1301
 90
      340
 70
     0
 90
        2
 90
      339
 90
      334
 90
        0
290
     1
290
     1
  1
AcPointCurveConstraint
330
1301
 90
      341
 70
     0
 90
        2
 90
      327
 90
      335
 90
        0
290
     0
290
     1
  1
AcConstrainedArc
330
1301
 90
      342
 70
     1
 90
        3
 90
      344
 90
      346
 90
      348
330
1525
 90
        0
 10
-1820.71598517405
 20
719.6706129416265
 30
0.0
 10
0.0
 20
0.0
 30
1.0
 10
1.0
 20
0.0
 30
0.0
 40
124.0
 40
0.0
 40
6.283185307179584
 10
-1696.715985174051
 20
719.6706129416265
 30
0.0
 11
-1698.339586980555
 21
739.6710420666996
 31
0.0
  1
AcConstrainedImplicitPoint
330
1301
 90
      343
 70
     1
 90
        1
 90
      344
330
0
 90
        0
280
     0
 90
       -1
 90
      342
  1
AcPointCurveConstraint
330
1301
 90
      344
 70
     0
 90
        2
 90
      343
 90
      342
 90
        0
290
     1
290
     1
  1
AcConstrainedImplicitPoint
330
1301
 90
      345
 70
     1
 90
        2
 90
      346
 90
      349
330
0
 90
        0
280
     1
 90
       -1
 90
      342
  1
AcPointCurveConstraint
330
1301
 90
      346
 70
     0
 90
        2
 90
      345
 90
      342
 90
        0
290
     1
290
     1
  1
AcConstrainedImplicitPoint
330
1301
 90
      347
 70
     1
 90
        1
 90
      348
330
0
 90
        0
280
     3
 90
       -1
 90
      342
  1
AcCenterPointConstraint
330
1301
 90
      348
 70
     0
 90
        2
 90
      347
 90
      342
 90
        0
290
     1
290
     1
  1
AcPointCurveConstraint
330
1301
 90
      349
 70
     0
 90
        2
 90
      327
 90
      345
 90
        0
290
     0
290
     1
  0
XRECORD
  5
24B4
102
{ACAD_REACTORS
330
24B3
102
}
330
24B3
100
AcDbXrecord
280
     1
102
DISPLAYNAME
  1
Imperial24
102
FLAGS
 90
        0
  0
XRECORD
  5
24B0
102
{ACAD_REACTORS
330
24AF
102
}
330
24AF
100
AcDbXrecord
280
     1
102
DISPLAYNAME
  1
Metric50
102
FLAGS
 90
        0
  0
XRECORD
  5
2473
102
{ACAD_REACTORS
330
2472
102
}
330
2472
100
AcDbXrecord
280
     1
102
SHADEPLOT
 70
     0
102
SHADEPLOTRESLEVEL
 70
     2
102
SHADEPLOTCUSTOMDPI
 70
   300
  0
XRECORD
  5
2477
102
{ACAD_REACTORS
330
2476
102
}
330
2476
100
AcDbXrecord
280
     1
102
SHADEPLOT
 70
     0
102
SHADEPLOTRESLEVEL
 70
     2
102
SHADEPLOTCUSTOMDPI
 70
   300
  0
XRECORD
  5
2475
102
{ACAD_REACTORS
330
2474
102
}
330
2474
100
AcDbXrecord
280
     1
102
SHADEPLOT
 70
     0
102
SHADEPLOTRESLEVEL
 70
     2
102
SHADEPLOTCUSTOMDPI
 70
   300
  0
XRECORD
  5
1177
102
{ACAD_REACTORS
330
C40
102
}
330
C40
100
AcDbXrecord
280
     1
102
MATERIAL
148
0.0
149
0.0
149
0.0
 93
        0
 94
      127
282
     0
 72
     0
 77
     0
171
     0
175
     0
179
     0
273
     0
  0
XRECORD
  5
C42
102
{ACAD_REACTORS
330
C40
102
}
330
C40
100
AcDbXrecord
280
     1
270
     1
271
     1
  0
XRECORD
  5
C41
102
{ACAD_REACTORS
330
C40
102
}
330
C40
100
AcDbXrecord
280
     1
270
     1
271
     1
  0
XRECORD
  5
C45
102
{ACAD_REACTORS
330
C40
102
}
330
C40
100
AcDbXrecord
280
     1
270
     1
271
     1
  0
XRECORD
  5
C44
102
{ACAD_REACTORS
330
C40
102
}
330
C40
100
AcDbXrecord
280
     1
270
     1
271
     1
  0
XRECORD
  5
C46
102
{ACAD_REACTORS
330
C40
102
}
330
C40
100
AcDbXrecord
280
     1
270
     1
271
     1
  0
XRECORD
  5
C43
102
{ACAD_REACTORS
330
C40
102
}
330
C40
100
AcDbXrecord
280
     1
270
     1
271
     1
  0
XRECORD
  5
1176
102
{ACAD_REACTORS
330
C38
102
}
330
C38
100
AcDbXrecord
280
     1
102
MATERIAL
148
0.0
149
0.0
149
0.0
 93
        0
 94
      127
282
     0
 72
     0
 77
     0
171
     0
175
     0
179
     0
273
     0
  0
XRECORD
  5
C3A
102
{ACAD_REACTORS
330
C38
102
}
330
C38
100
AcDbXrecord
280
     1
270
     1
271
     1
  0
XRECORD
  5
C39
102
{ACAD_REACTORS
330
C38
102
}
330
C38
100
AcDbXrecord
280
     1
270
     1
271
     1
  0
XRECORD
  5
C3D
102
{ACAD_REACTORS
330
C38
102
}
330
C38
100
AcDbXrecord
280
     1
270
     1
271
     1
  0
XRECORD
  5
C3C
102
{ACAD_REACTORS
330
C38
102
}
330
C38
100
AcDbXrecord
280
     1
270
     1
271
     1
  0
XRECORD
  5
C3E
102
{ACAD_REACTORS
330
C38
102
}
330
C38
100
AcDbXrecord
280
     1
270
     1
271
     1
  0
XRECORD
  5
C3B
102
{ACAD_REACTORS
330
C38
102
}
330
C38
100
AcDbXrecord
280
     1
270
     1
271
     1
  0
XRECORD
  5
1178
102
{ACAD_REACTORS
330
C48
102
}
330
C48
100
AcDbXrecord
280
     1
102
MATERIAL
148
0.0
149
0.0
149
0.0
 93
        0
 94
      127
282
     0
 72
     0
 77
     0
171
     0
175
     0
179
     0
273
     0
  0
XRECORD
  5
C4A
102
{ACAD_REACTORS
330
C48
102
}
330
C48
100
AcDbXrecord
280
     1
270
     1
271
     1
  0
XRECORD
  5
C49
102
{ACAD_REACTORS
330
C48
102
}
330
C48
100
AcDbXrecord
280
     1
270
     1
271
     1
  0
XRECORD
  5
C4D
102
{ACAD_REACTORS
330
C48
102
}
330
C48
100
AcDbXrecord
280
     1
270
     1
271
     1
  0
XRECORD
  5
C4C
102
{ACAD_REACTORS
330
C48
102
}
330
C48
100
AcDbXrecord
280
     1
270
     1
271
     1
  0
XRECORD
  5
C4E
102
{ACAD_REACTORS
330
C48
102
}
330
C48
100
AcDbXrecord
280
     1
270
     1
271
     1
  0
XRECORD
  5
C4B
102
{ACAD_REACTORS
330
C48
102
}
330
C48
100
AcDbXrecord
280
     1
270
     1
271
     1
  0
XRECORD
  5
24B2
102
{ACAD_REACTORS
330
24B1
102
}
330
24B1
100
AcDbXrecord
280
     1
102
DISPLAYNAME
  1
Imperial24
102
FLAGS
 90
        0
  0
XRECORD
  5
24AE
102
{ACAD_REACTORS
330
24AD
102
}
330
24AD
100
AcDbXrecord
280
     1
102
DISPLAYNAME
  1
Metric50
102
FLAGS
 90
        0
  0
CELLSTYLEMAP
  5
2469
102
{ACAD_REACTORS
330
DF0
102
}
330
DF0
100
AcDbCellStyleMap
 90
        3
300
CELLSTYLE
  1
TABLEFORMAT_BEGIN
 90
        5
170
     1
 91
        0
 92
    32768
 62
   257
 93
        1
300
CONTENTFORMAT
  1
CONTENTFORMAT_BEGIN
 90
        0
 91
        0
 92
        4
 93
        0
300

 40
0.0
140
1.0
 94
        5
 62
     0
340
11
144
6.0
309
CONTENTFORMAT_END
171
     1
301
MARGIN
  1
CELLMARGIN_BEGIN
 40
1.5
 40
1.5
 40
1.5
 40
1.5
 40
0.18
 40
0.18
309
CELLMARGIN_END
 94
        6
 95
        1
302
GRIDFORMAT
  1
GRIDFORMAT_BEGIN
 90
        0
 91
        1
 62
     0
 92
       -2
340
0
 93
        0
 40
0.045
309
GRIDFORMAT_END
 95
        2
302
GRIDFORMAT
  1
GRIDFORMAT_BEGIN
 90
        0
 91
        1
 62
     0
 92
       -2
340
0
 93
        0
 40
0.045
309
GRIDFORMAT_END
 95
        4
302
GRIDFORMAT
  1
GRIDFORMAT_BEGIN
 90
        0
 91
        1
 62
     0
 92
       -2
340
0
 93
        0
 40
0.045
309
GRIDFORMAT_END
 95
        8
302
GRIDFORMAT
  1
GRIDFORMAT_BEGIN
 90
        0
 91
        1
 62
     0
 92
       -2
340
0
 93
        0
 40
0.045
309
GRIDFORMAT_END
 95
       16
302
GRIDFORMAT
  1
GRIDFORMAT_BEGIN
 90
        0
 91
        1
 62
     0
 92
       -2
340
0
 93
        0
 40
0.045
309
GRIDFORMAT_END
 95
       32
302
GRIDFORMAT
  1
GRIDFORMAT_BEGIN
 90
        0
 91
        1
 62
     0
 92
       -2
340
0
 93
        0
 40
0.045
309
GRIDFORMAT_END
309
TABLEFORMAT_END
  1
CELLSTYLE_BEGIN
 90
        1
 91
        1
300
_TITLE
309
CELLSTYLE_END
300
CELLSTYLE
  1
TABLEFORMAT_BEGIN
 90
        5
170
     1
 91
        0
 92
        0
 62
   257
 93
        1
300
CONTENTFORMAT
  1
CONTENTFORMAT_BEGIN
 90
        0
 91
        0
 92
        4
 93
        0
300

 40
0.0
140
1.0
 94
        5
 62
     0
340
11
144
4.5
309
CONTENTFORMAT_END
171
     1
301
MARGIN
  1
CELLMARGIN_BEGIN
 40
1.5
 40
1.5
 40
1.5
 40
1.5
 40
0.18
 40
0.18
309
CELLMARGIN_END
 94
        6
 95
        1
302
GRIDFORMAT
  1
GRIDFORMAT_BEGIN
 90
        0
 91
        1
 62
     0
 92
       -2
340
0
 93
        0
 40
0.045
309
GRIDFORMAT_END
 95
        2
302
GRIDFORMAT
  1
GRIDFORMAT_BEGIN
 90
        0
 91
        1
 62
     0
 92
       -2
340
0
 93
        0
 40
0.045
309
GRIDFORMAT_END
 95
        4
302
GRIDFORMAT
  1
GRIDFORMAT_BEGIN
 90
        0
 91
        1
 62
     0
 92
       -2
340
0
 93
        0
 40
0.045
309
GRIDFORMAT_END
 95
        8
302
GRIDFORMAT
  1
GRIDFORMAT_BEGIN
 90
        0
 91
        1
 62
     0
 92
       -2
340
0
 93
        0
 40
0.045
309
GRIDFORMAT_END
 95
       16
302
GRIDFORMAT
  1
GRIDFORMAT_BEGIN
 90
        0
 91
        1
 62
     0
 92
       -2
340
0
 93
        0
 40
0.045
309
GRIDFORMAT_END
 95
       32
302
GRIDFORMAT
  1
GRIDFORMAT_BEGIN
 90
        0
 91
        1
 62
     0
 92
       -2
340
0
 93
        0
 40
0.045
309
GRIDFORMAT_END
309
TABLEFORMAT_END
  1
CELLSTYLE_BEGIN
 90
        2
 91
        1
300
_HEADER
309
CELLSTYLE_END
300
CELLSTYLE
  1
TABLEFORMAT_BEGIN
 90
        5
170
     1
 91
        0
 92
        0
 62
   257
 93
        1
300
CONTENTFORMAT
  1
CONTENTFORMAT_BEGIN
 90
        0
 91
        0
 92
        4
 93
        0
300

 40
0.0
140
1.0
 94
        2
 62
     0
340
11
144
4.5
309
CONTENTFORMAT_END
171
     1
301
MARGIN
  1
CELLMARGIN_BEGIN
 40
1.5
 40
1.5
 40
1.5
 40
1.5
 40
0.18
 40
0.18
309
CELLMARGIN_END
 94
        6
 95
        1
302
GRIDFORMAT
  1
GRIDFORMAT_BEGIN
 90
        0
 91
        1
 62
     0
 92
       -2
340
0
 93
        0
 40
0.045
309
GRIDFORMAT_END
 95
        2
302
GRIDFORMAT
  1
GRIDFORMAT_BEGIN
 90
        0
 91
        1
 62
     0
 92
       -2
340
0
 93
        0
 40
0.045
309
GRIDFORMAT_END
 95
        4
302
GRIDFORMAT
  1
GRIDFORMAT_BEGIN
 90
        0
 91
        1
 62
     0
 92
       -2
340
0
 93
        0
 40
0.045
309
GRIDFORMAT_END
 95
        8
302
GRIDFORMAT
  1
GRIDFORMAT_BEGIN
 90
        0
 91
        1
 62
     0
 92
       -2
340
0
 93
        0
 40
0.045
309
GRIDFORMAT_END
 95
       16
302
GRIDFORMAT
  1
GRIDFORMAT_BEGIN
 90
        0
 91
        1
 62
     0
 92
       -2
340
0
 93
        0
 40
0.045
309
GRIDFORMAT_END
 95
       32
302
GRIDFORMAT
  1
GRIDFORMAT_BEGIN
 90
        0
 91
        1
 62
     0
 92
       -2
340
0
 93
        0
 40
0.045
309
GRIDFORMAT_END
309
TABLEFORMAT_END
  1
CELLSTYLE_BEGIN
 90
        3
 91
        2
300
_DATA
309
CELLSTYLE_END
  0
XRECORD
  5
2478
102
{ACAD_REACTORS
330
DF0
102
}
330
DF0
100
AcDbXrecord
280
     1
102
ACAD_ROUNDTRIP_PRE2007_TABLESTYLE
 90
        4
 91
        0
  1

 92
        4
 93
        0
  2

 94
        4
 95
        0
  3

  0
XRECORD
  5
2484
102
{ACAD_REACTORS
330
2483
102
}
330
2483
100
AcDbXrecord
280
     1
102
RTVSPost2010Prop28
280
     1
102
RTVSPost2010PropOp28
 70
     1
102
RTVSPost2010Prop29
280
     1
102
RTVSPost2010PropOp29
 70
     1
102
RTVSPost2010Prop30
280
     0
102
RTVSPost2010PropOp30
 70
     1
102
RTVSPost2010Prop31
280
     0
102
RTVSPost2010PropOp31
 70
     1
102
RTVSPost2010Prop32
280
     0
102
RTVSPost2010PropOp32
 70
     1
102
RTVSPost2010Prop33
280
     0
102
RTVSPost2010PropOp33
 70
     1
102
RTVSPost2010Prop34
280
     0
102
RTVSPost2010PropOp34
 70
     1
102
RTVSPost2010Prop35
280
     0
102
RTVSPost2010PropOp35
 70
     1
102
RTVSPost2010Prop36
280
     0
102
RTVSPost2010PropOp36
 70
     1
102
RTVSPost2010Prop37
 90
       50
102
RTVSPost2010PropOp37
 70
     1
102
RTVSPost2010Prop38
140
0.0
102
RTVSPost2010PropOp38
 70
     1
102
RTVSPost2010Prop39
140
1.0
102
RTVSPost2010PropOp39
 70
     1
102
RTVSPost2010Prop40
 90
        0
102
RTVSPost2010PropOp40
 70
     1
102
RTVSPost2010Prop41ColorIndex
 90
       18
102
RTVSPost2010Prop41ColorRGB
 90
        0
102
RTVSPost2010PropOp41
 70
     1
102
RTVSPost2010Prop42
 90
       50
102
RTVSPost2010PropOp42
 70
     1
102
RTVSPost2010Prop43
 90
        3
102
RTVSPost2010PropOp43
 70
     1
102
RTVSPost2010Prop44ColorIndex
 90
        5
102
RTVSPost2010Prop44ColorRGB
 90
      255
102
RTVSPost2010PropOp44
 70
     1
102
RTVSPost2010Prop45
280
     0
102
RTVSPost2010PropOp45
 70
     1
102
RTVSPost2010Prop46
 90
       50
102
RTVSPost2010PropOp46
 70
     1
102
RTVSPost2010Prop47
 90
       50
102
RTVSPost2010PropOp47
 70
     1
102
RTVSPost2010Prop48
 90
       50
102
RTVSPost2010PropOp48
 70
     1
102
RTVSPost2010Prop49
280
     0
102
RTVSPost2010PropOp49
 70
     1
102
RTVSPost2010Prop50
 90
       50
102
RTVSPost2010PropOp50
 70
     1
102
RTVSPost2010Prop51ColorIndex
 90
      256
102
RTVSPost2010Prop51ColorRGB
 90
-16777216
102
RTVSPost2010PropOp51
 70
     0
102
RTVSPost2010Prop52
140
1.0
102
RTVSPost2010PropOp52
 70
     0
102
RTVSPost2010Prop53
 90
        2
102
RTVSPost2010PropOp53
 70
     1
102
RTVSPost2010Prop54
  1
strokes_ogs.tif
102
RTVSPost2010PropOp54
 70
     1
102
RTVSPost2010Prop55
280
     0
102
RTVSPost2010PropOp55
 70
     1
102
RTVSPost2010Prop56
140
1.0
102
RTVSPost2010PropOp56
 70
     1
102
RTVSPost2010Prop57
140
1.0
102
RTVSPost2010PropOp57
 70
     1
102
RTVSPropertyOp0
 70
     1
102
RTVSPropertyOp1
 70
     1
102
RTVSPropertyOp2
 70
     1
102
RTVSPropertyOp3
 70
     1
102
RTVSPropertyOp4
 70
     1
102
RTVSPropertyOp5
 70
     1
102
RTVSPropertyOp6
 70
     1
102
RTVSPropertyOp7
 70
     1
102
RTVSPropertyOp8
 70
     1
102
RTVSPropertyOp9
 70
     1
102
RTVSPropertyOp10
 70
     1
102
RTVSPropertyOp11
 70
     1
102
RTVSPropertyOp12
 70
     1
102
RTVSPropertyOp13
 70
     1
102
RTVSPropertyOp14
 70
     1
102
RTVSPropertyOp15
 70
     1
102
RTVSPropertyOp16
 70
     1
102
RTVSPropertyOp17
 70
     1
102
RTVSPropertyOp18
 70
     1
102
RTVSPropertyOp19
 70
     1
102
RTVSPropertyOp20
 70
     1
102
RTVSPropertyOp21
 70
     1
102
RTVSPropertyOp22
 70
     1
102
RTVSPropertyOp23
 70
     1
102
RTVSPropertyOp24
 70
     1
102
RTVSPropertyOp25
 70
     1
102
RTVSPropertyOp26
 70
     1
102
RTVSPropertyOp27
 70
     1
102
RTVSPropertyOp28
 70
     1
102
RTVSPropertyOp29
 70
     1
102
RTVSPropertyOp30
 70
     1
102
RTVSPropertyOp31
 70
     1
102
RTVSPropertyOp32
 70
     1
102
RTVSPropertyOp33
 70
     1
102
RTVSPropertyOp34
 70
     1
102
RTVSPropertyOp35
 70
     1
102
RTVSPropertyOp36
 70
     1
102
RTVSPropertyOp37
 70
     1
102
RTVSPropertyOp38
 70
     1
102
RTVSPropertyOp39
 70
     1
102
RTVSPropertyOp40
 70
     1
102
RTVSPropertyOp41
 70
     1
102
RTVSPropertyOp42
 70
     1
102
RTVSPropertyOp43
 70
     1
102
RTVSPropertyOp44
 70
     1
102
RTVSPropertyOp45
 70
     1
102
RTVSPropertyOp46
 70
     1
102
RTVSPropertyOp47
 70
     1
102
RTVSPropertyOp48
 70
     1
102
RTVSPropertyOp49
 70
     1
102
RTVSPropertyOp50
 70
     1
102
RTVSPropertyOp51
 70
     0
102
RTVSPropertyOp52
 70
     0
102
RTVSPropertyOp53
 70
     1
102
RTVSPropertyOp54
 70
     1
102
RTVSPropertyOp55
 70
     1
102
RTVSPropertyOp56
 70
     1
102
RTVSPropertyOp57
 70
     1
102
RTVSPropertyOp58
 70
     1
102
RTVSPropertyOp59
 70
     1
102
RTVSPropertyOp60
 70
     1
102
RTVSPropertyOp61
 70
     1
102
RTVSPropertyOp62
 70
     1
  0
XRECORD
  5
2488
102
{ACAD_REACTORS
330
2487
102
}
330
2487
100
AcDbXrecord
280
     1
102
RTVSPost2010Prop28
280
     0
102
RTVSPost2010PropOp28
 70
     1
102
RTVSPost2010Prop29
280
     1
102
RTVSPost2010PropOp29
 70
     1
102
RTVSPost2010Prop30
280
     1
102
RTVSPost2010PropOp30
 70
     1
102
RTVSPost2010Prop31
280
     0
102
RTVSPost2010PropOp31
 70
     1
102
RTVSPost2010Prop32
280
     0
102
RTVSPost2010PropOp32
 70
     1
102
RTVSPost2010Prop33
280
     0
102
RTVSPost2010PropOp33
 70
     1
102
RTVSPost2010Prop34
280
     0
102
RTVSPost2010PropOp34
 70
     1
102
RTVSPost2010Prop35
280
     0
102
RTVSPost2010PropOp35
 70
     1
102
RTVSPost2010Prop36
280
     0
102
RTVSPost2010PropOp36
 70
     1
102
RTVSPost2010Prop37
 90
       50
102
RTVSPost2010PropOp37
 70
     1
102
RTVSPost2010Prop38
140
0.0
102
RTVSPost2010PropOp38
 70
     1
102
RTVSPost2010Prop39
140
1.0
102
RTVSPost2010PropOp39
 70
     1
102
RTVSPost2010Prop40
 90
        0
102
RTVSPost2010PropOp40
 70
     1
102
RTVSPost2010Prop41ColorIndex
 90
       18
102
RTVSPost2010Prop41ColorRGB
 90
        0
102
RTVSPost2010PropOp41
 70
     1
102
RTVSPost2010Prop42
 90
       50
102
RTVSPost2010PropOp42
 70
     1
102
RTVSPost2010Prop43
 90
        3
102
RTVSPost2010PropOp43
 70
     1
102
RTVSPost2010Prop44ColorIndex
 90
        5
102
RTVSPost2010Prop44ColorRGB
 90
      255
102
RTVSPost2010PropOp44
 70
     1
102
RTVSPost2010Prop45
280
     0
102
RTVSPost2010PropOp45
 70
     1
102
RTVSPost2010Prop46
 90
       50
102
RTVSPost2010PropOp46
 70
     1
102
RTVSPost2010Prop47
 90
       50
102
RTVSPost2010PropOp47
 70
     1
102
RTVSPost2010Prop48
 90
       50
102
RTVSPost2010PropOp48
 70
     1
102
RTVSPost2010Prop49
280
     0
102
RTVSPost2010PropOp49
 70
     1
102
RTVSPost2010Prop50
 90
       50
102
RTVSPost2010PropOp50
 70
     1
102
RTVSPost2010Prop51ColorIndex
 90
      256
102
RTVSPost2010Prop51ColorRGB
 90
-16777216
102
RTVSPost2010PropOp51
 70
     0
102
RTVSPost2010Prop52
140
1.0
102
RTVSPost2010PropOp52
 70
     0
102
RTVSPost2010Prop53
 90
        2
102
RTVSPost2010PropOp53
 70
     1
102
RTVSPost2010Prop54
  1
strokes_ogs.tif
102
RTVSPost2010PropOp54
 70
     1
102
RTVSPost2010Prop55
280
     0
102
RTVSPost2010PropOp55
 70
     1
102
RTVSPost2010Prop56
140
1.0
102
RTVSPost2010PropOp56
 70
     1
102
RTVSPost2010Prop57
140
1.0
102
RTVSPost2010PropOp57
 70
     1
102
RTVSPropertyOp0
 70
     1
102
RTVSPropertyOp1
 70
     1
102
RTVSPropertyOp2
 70
     1
102
RTVSPropertyOp3
 70
     1
102
RTVSPropertyOp4
 70
     1
102
RTVSPropertyOp5
 70
     1
102
RTVSPropertyOp6
 70
     1
102
RTVSPropertyOp7
 70
     1
102
RTVSPropertyOp8
 70
     1
102
RTVSPropertyOp9
 70
     1
102
RTVSPropertyOp10
 70
     1
102
RTVSPropertyOp11
 70
     1
102
RTVSPropertyOp12
 70
     1
102
RTVSPropertyOp13
 70
     1
102
RTVSPropertyOp14
 70
     1
102
RTVSPropertyOp15
 70
     1
102
RTVSPropertyOp16
 70
     1
102
RTVSPropertyOp17
 70
     1
102
RTVSPropertyOp18
 70
     1
102
RTVSPropertyOp19
 70
     1
102
RTVSPropertyOp20
 70
     1
102
RTVSPropertyOp21
 70
     1
102
RTVSPropertyOp22
 70
     1
102
RTVSPropertyOp23
 70
     1
102
RTVSPropertyOp24
 70
     1
102
RTVSPropertyOp25
 70
     1
102
RTVSPropertyOp26
 70
     1
102
RTVSPropertyOp27
 70
     1
102
RTVSPropertyOp28
 70
     1
102
RTVSPropertyOp29
 70
     1
102
RTVSPropertyOp30
 70
     1
102
RTVSPropertyOp31
 70
     1
102
RTVSPropertyOp32
 70
     1
102
RTVSPropertyOp33
 70
     1
102
RTVSPropertyOp34
 70
     1
102
RTVSPropertyOp35
 70
     1
102
RTVSPropertyOp36
 70
     1
102
RTVSPropertyOp37
 70
     1
102
RTVSPropertyOp38
 70
     1
102
RTVSPropertyOp39
 70
     1
102
RTVSPropertyOp40
 70
     1
102
RTVSPropertyOp41
 70
     1
102
RTVSPropertyOp42
 70
     1
102
RTVSPropertyOp43
 70
     1
102
RTVSPropertyOp44
 70
     1
102
RTVSPropertyOp45
 70
     1
102
RTVSPropertyOp46
 70
     1
102
RTVSPropertyOp47
 70
     1
102
RTVSPropertyOp48
 70
     1
102
RTVSPropertyOp49
 70
     1
102
RTVSPropertyOp50
 70
     1
102
RTVSPropertyOp51
 70
     0
102
RTVSPropertyOp52
 70
     0
102
RTVSPropertyOp53
 70
     1
102
RTVSPropertyOp54
 70
     1
102
RTVSPropertyOp55
 70
     1
102
RTVSPropertyOp56
 70
     1
102
RTVSPropertyOp57
 70
     1
102
RTVSPropertyOp58
 70
     1
102
RTVSPropertyOp59
 70
     1
102
RTVSPropertyOp60
 70
     1
102
RTVSPropertyOp61
 70
     1
102
RTVSPropertyOp62
 70
     1
  0
XRECORD
  5
2486
102
{ACAD_REACTORS
330
2485
102
}
330
2485
100
AcDbXrecord
280
     1
102
RTVSPost2010Prop28
280
     0
102
RTVSPost2010PropOp28
 70
     1
102
RTVSPost2010Prop29
280
     1
102
RTVSPost2010PropOp29
 70
     1
102
RTVSPost2010Prop30
280
     1
102
RTVSPost2010PropOp30
 70
     1
102
RTVSPost2010Prop31
280
     0
102
RTVSPost2010PropOp31
 70
     1
102
RTVSPost2010Prop32
280
     0
102
RTVSPost2010PropOp32
 70
     1
102
RTVSPost2010Prop33
280
     0
102
RTVSPost2010PropOp33
 70
     1
102
RTVSPost2010Prop34
280
     0
102
RTVSPost2010PropOp34
 70
     1
102
RTVSPost2010Prop35
280
     0
102
RTVSPost2010PropOp35
 70
     1
102
RTVSPost2010Prop36
280
     0
102
RTVSPost2010PropOp36
 70
     1
102
RTVSPost2010Prop37
 90
       50
102
RTVSPost2010PropOp37
 70
     1
102
RTVSPost2010Prop38
140
0.0
102
RTVSPost2010PropOp38
 70
     1
102
RTVSPost2010Prop39
140
1.0
102
RTVSPost2010PropOp39
 70
     1
102
RTVSPost2010Prop40
 90
        0
102
RTVSPost2010PropOp40
 70
     1
102
RTVSPost2010Prop41ColorIndex
 90
       18
102
RTVSPost2010Prop41ColorRGB
 90
        0
102
RTVSPost2010PropOp41
 70
     1
102
RTVSPost2010Prop42
 90
       50
102
RTVSPost2010PropOp42
 70
     1
102
RTVSPost2010Prop43
 90
        3
102
RTVSPost2010PropOp43
 70
     1
102
RTVSPost2010Prop44ColorIndex
 90
        5
102
RTVSPost2010Prop44ColorRGB
 90
      255
102
RTVSPost2010PropOp44
 70
     1
102
RTVSPost2010Prop45
280
     0
102
RTVSPost2010PropOp45
 70
     1
102
RTVSPost2010Prop46
 90
       50
102
RTVSPost2010PropOp46
 70
     1
102
RTVSPost2010Prop47
 90
       50
102
RTVSPost2010PropOp47
 70
     1
102
RTVSPost2010Prop48
 90
       50
102
RTVSPost2010PropOp48
 70
     1
102
RTVSPost2010Prop49
280
     0
102
RTVSPost2010PropOp49
 70
     1
102
RTVSPost2010Prop50
 90
       50
102
RTVSPost2010PropOp50
 70
     1
102
RTVSPost2010Prop51ColorIndex
 90
      256
102
RTVSPost2010Prop51ColorRGB
 90
-16777216
102
RTVSPost2010PropOp51
 70
     0
102
RTVSPost2010Prop52
140
1.0
102
RTVSPost2010PropOp52
 70
     0
102
RTVSPost2010Prop53
 90
        2
102
RTVSPost2010PropOp53
 70
     1
102
RTVSPost2010Prop54
  1
strokes_ogs.tif
102
RTVSPost2010PropOp54
 70
     1
102
RTVSPost2010Prop55
280
     0
102
RTVSPost2010PropOp55
 70
     1
102
RTVSPost2010Prop56
140
1.0
102
RTVSPost2010PropOp56
 70
     1
102
RTVSPost2010Prop57
140
1.0
102
RTVSPost2010PropOp57
 70
     1
102
RTVSPropertyOp0
 70
     1
102
RTVSPropertyOp1
 70
     1
102
RTVSPropertyOp2
 70
     1
102
RTVSPropertyOp3
 70
     1
102
RTVSPropertyOp4
 70
     1
102
RTVSPropertyOp5
 70
     1
102
RTVSPropertyOp6
 70
     1
102
RTVSPropertyOp7
 70
     1
102
RTVSPropertyOp8
 70
     1
102
RTVSPropertyOp9
 70
     1
102
RTVSPropertyOp10
 70
     1
102
RTVSPropertyOp11
 70
     1
102
RTVSPropertyOp12
 70
     1
102
RTVSPropertyOp13
 70
     1
102
RTVSPropertyOp14
 70
     1
102
RTVSPropertyOp15
 70
     1
102
RTVSPropertyOp16
 70
     1
102
RTVSPropertyOp17
 70
     1
102
RTVSPropertyOp18
 70
     1
102
RTVSPropertyOp19
 70
     1
102
RTVSPropertyOp20
 70
     1
102
RTVSPropertyOp21
 70
     1
102
RTVSPropertyOp22
 70
     1
102
RTVSPropertyOp23
 70
     1
102
RTVSPropertyOp24
 70
     1
102
RTVSPropertyOp25
 70
     1
102
RTVSPropertyOp26
 70
     1
102
RTVSPropertyOp27
 70
     1
102
RTVSPropertyOp28
 70
     1
102
RTVSPropertyOp29
 70
     1
102
RTVSPropertyOp30
 70
     1
102
RTVSPropertyOp31
 70
     1
102
RTVSPropertyOp32
 70
     1
102
RTVSPropertyOp33
 70
     1
102
RTVSPropertyOp34
 70
     1
102
RTVSPropertyOp35
 70
     1
102
RTVSPropertyOp36
 70
     1
102
RTVSPropertyOp37
 70
     1
102
RTVSPropertyOp38
 70
     1
102
RTVSPropertyOp39
 70
     1
102
RTVSPropertyOp40
 70
     1
102
RTVSPropertyOp41
 70
     1
102
RTVSPropertyOp42
 70
     1
102
RTVSPropertyOp43
 70
     1
102
RTVSPropertyOp44
 70
     1
102
RTVSPropertyOp45
 70
     1
102
RTVSPropertyOp46
 70
     1
102
RTVSPropertyOp47
 70
     1
102
RTVSPropertyOp48
 70
     1
102
RTVSPropertyOp49
 70
     1
102
RTVSPropertyOp50
 70
     1
102
RTVSPropertyOp51
 70
     0
102
RTVSPropertyOp52
 70
     0
102
RTVSPropertyOp53
 70
     1
102
RTVSPropertyOp54
 70
     1
102
RTVSPropertyOp55
 70
     1
102
RTVSPropertyOp56
 70
     1
102
RTVSPropertyOp57
 70
     1
102
RTVSPropertyOp58
 70
     1
102
RTVSPropertyOp59
 70
     1
102
RTVSPropertyOp60
 70
     1
102
RTVSPropertyOp61
 70
     1
102
RTVSPropertyOp62
 70
     1
  0
XRECORD
  5
2482
102
{ACAD_REACTORS
330
2481
102
}
330
2481
100
AcDbXrecord
280
     1
102
RTVSPost2010Prop28
280
     0
102
RTVSPost2010PropOp28
 70
     1
102
RTVSPost2010Prop29
280
     1
102
RTVSPost2010PropOp29
 70
     1
102
RTVSPost2010Prop30
280
     1
102
RTVSPost2010PropOp30
 70
     1
102
RTVSPost2010Prop31
280
     0
102
RTVSPost2010PropOp31
 70
     1
102
RTVSPost2010Prop32
280
     0
102
RTVSPost2010PropOp32
 70
     1
102
RTVSPost2010Prop33
280
     0
102
RTVSPost2010PropOp33
 70
     1
102
RTVSPost2010Prop34
280
     0
102
RTVSPost2010PropOp34
 70
     1
102
RTVSPost2010Prop35
280
     0
102
RTVSPost2010PropOp35
 70
     1
102
RTVSPost2010Prop36
280
     0
102
RTVSPost2010PropOp36
 70
     1
102
RTVSPost2010Prop37
 90
       50
102
RTVSPost2010PropOp37
 70
     1
102
RTVSPost2010Prop38
140
0.0
102
RTVSPost2010PropOp38
 70
     1
102
RTVSPost2010Prop39
140
1.0
102
RTVSPost2010PropOp39
 70
     1
102
RTVSPost2010Prop40
 90
        0
102
RTVSPost2010PropOp40
 70
     1
102
RTVSPost2010Prop41ColorIndex
 90
       18
102
RTVSPost2010Prop41ColorRGB
 90
        0
102
RTVSPost2010PropOp41
 70
     1
102
RTVSPost2010Prop42
 90
       50
102
RTVSPost2010PropOp42
 70
     1
102
RTVSPost2010Prop43
 90
        3
102
RTVSPost2010PropOp43
 70
     1
102
RTVSPost2010Prop44ColorIndex
 90
        5
102
RTVSPost2010Prop44ColorRGB
 90
      255
102
RTVSPost2010PropOp44
 70
     1
102
RTVSPost2010Prop45
280
     0
102
RTVSPost2010PropOp45
 70
     1
102
RTVSPost2010Prop46
 90
       50
102
RTVSPost2010PropOp46
 70
     1
102
RTVSPost2010Prop47
 90
       50
102
RTVSPost2010PropOp47
 70
     1
102
RTVSPost2010Prop48
 90
       50
102
RTVSPost2010PropOp48
 70
     1
102
RTVSPost2010Prop49
280
     0
102
RTVSPost2010PropOp49
 70
     1
102
RTVSPost2010Prop50
 90
       50
102
RTVSPost2010PropOp50
 70
     1
102
RTVSPost2010Prop51ColorIndex
 90
      256
102
RTVSPost2010Prop51ColorRGB
 90
-16777216
102
RTVSPost2010PropOp51
 70
     0
102
RTVSPost2010Prop52
140
1.0
102
RTVSPost2010PropOp52
 70
     0
102
RTVSPost2010Prop53
 90
        2
102
RTVSPost2010PropOp53
 70
     1
102
RTVSPost2010Prop54
  1
strokes_ogs.tif
102
RTVSPost2010PropOp54
 70
     1
102
RTVSPost2010Prop55
280
     0
102
RTVSPost2010PropOp55
 70
     1
102
RTVSPost2010Prop56
140
1.0
102
RTVSPost2010PropOp56
 70
     1
102
RTVSPost2010Prop57
140
1.0
102
RTVSPost2010PropOp57
 70
     1
102
RTVSPropertyOp0
 70
     1
102
RTVSPropertyOp1
 70
     1
102
RTVSPropertyOp2
 70
     1
102
RTVSPropertyOp3
 70
     1
102
RTVSPropertyOp4
 70
     1
102
RTVSPropertyOp5
 70
     1
102
RTVSPropertyOp6
 70
     1
102
RTVSPropertyOp7
 70
     1
102
RTVSPropertyOp8
 70
     1
102
RTVSPropertyOp9
 70
     1
102
RTVSPropertyOp10
 70
     1
102
RTVSPropertyOp11
 70
     1
102
RTVSPropertyOp12
 70
     1
102
RTVSPropertyOp13
 70
     1
102
RTVSPropertyOp14
 70
     1
102
RTVSPropertyOp15
 70
     1
102
RTVSPropertyOp16
 70
     1
102
RTVSPropertyOp17
 70
     1
102
RTVSPropertyOp18
 70
     1
102
RTVSPropertyOp19
 70
     1
102
RTVSPropertyOp20
 70
     1
102
RTVSPropertyOp21
 70
     1
102
RTVSPropertyOp22
 70
     1
102
RTVSPropertyOp23
 70
     1
102
RTVSPropertyOp24
 70
     1
102
RTVSPropertyOp25
 70
     1
102
RTVSPropertyOp26
 70
     1
102
RTVSPropertyOp27
 70
     1
102
RTVSPropertyOp28
 70
     1
102
RTVSPropertyOp29
 70
     1
102
RTVSPropertyOp30
 70
     1
102
RTVSPropertyOp31
 70
     1
102
RTVSPropertyOp32
 70
     1
102
RTVSPropertyOp33
 70
     1
102
RTVSPropertyOp34
 70
     1
102
RTVSPropertyOp35
 70
     1
102
RTVSPropertyOp36
 70
     1
102
RTVSPropertyOp37
 70
     1
102
RTVSPropertyOp38
 70
     1
102
RTVSPropertyOp39
 70
     1
102
RTVSPropertyOp40
 70
     1
102
RTVSPropertyOp41
 70
     1
102
RTVSPropertyOp42
 70
     1
102
RTVSPropertyOp43
 70
     1
102
RTVSPropertyOp44
 70
     1
102
RTVSPropertyOp45
 70
     1
102
RTVSPropertyOp46
 70
     1
102
RTVSPropertyOp47
 70
     1
102
RTVSPropertyOp48
 70
     1
102
RTVSPropertyOp49
 70
     1
102
RTVSPropertyOp50
 70
     1
102
RTVSPropertyOp51
 70
     0
102
RTVSPropertyOp52
 70
     0
102
RTVSPropertyOp53
 70
     1
102
RTVSPropertyOp54
 70
     1
102
RTVSPropertyOp55
 70
     1
102
RTVSPropertyOp56
 70
     1
102
RTVSPropertyOp57
 70
     1
102
RTVSPropertyOp58
 70
     1
102
RTVSPropertyOp59
 70
     1
102
RTVSPropertyOp60
 70
     1
102
RTVSPropertyOp61
 70
     1
102
RTVSPropertyOp62
 70
     1
  0
XRECORD
  5
2490
102
{ACAD_REACTORS
330
248F
102
}
330
248F
100
AcDbXrecord
280
     1
102
RTVSPost2010Prop28
280
     0
102
RTVSPost2010PropOp28
 70
     1
102
RTVSPost2010Prop29
280
     1
102
RTVSPost2010PropOp29
 70
     1
102
RTVSPost2010Prop30
280
     1
102
RTVSPost2010PropOp30
 70
     1
102
RTVSPost2010Prop31
280
     0
102
RTVSPost2010PropOp31
 70
     1
102
RTVSPost2010Prop32
280
     0
102
RTVSPost2010PropOp32
 70
     1
102
RTVSPost2010Prop33
280
     0
102
RTVSPost2010PropOp33
 70
     1
102
RTVSPost2010Prop34
280
     0
102
RTVSPost2010PropOp34
 70
     1
102
RTVSPost2010Prop35
280
     0
102
RTVSPost2010PropOp35
 70
     1
102
RTVSPost2010Prop36
280
     0
102
RTVSPost2010PropOp36
 70
     1
102
RTVSPost2010Prop37
 90
       50
102
RTVSPost2010PropOp37
 70
     1
102
RTVSPost2010Prop38
140
0.0
102
RTVSPost2010PropOp38
 70
     1
102
RTVSPost2010Prop39
140
1.0
102
RTVSPost2010PropOp39
 70
     1
102
RTVSPost2010Prop40
 90
        0
102
RTVSPost2010PropOp40
 70
     1
102
RTVSPost2010Prop41ColorIndex
 90
       18
102
RTVSPost2010Prop41ColorRGB
 90
        0
102
RTVSPost2010PropOp41
 70
     1
102
RTVSPost2010Prop42
 90
       50
102
RTVSPost2010PropOp42
 70
     1
102
RTVSPost2010Prop43
 90
        3
102
RTVSPost2010PropOp43
 70
     1
102
RTVSPost2010Prop44ColorIndex
 90
        5
102
RTVSPost2010Prop44ColorRGB
 90
      255
102
RTVSPost2010PropOp44
 70
     1
102
RTVSPost2010Prop45
280
     0
102
RTVSPost2010PropOp45
 70
     1
102
RTVSPost2010Prop46
 90
       50
102
RTVSPost2010PropOp46
 70
     1
102
RTVSPost2010Prop47
 90
       50
102
RTVSPost2010PropOp47
 70
     1
102
RTVSPost2010Prop48
 90
       50
102
RTVSPost2010PropOp48
 70
     1
102
RTVSPost2010Prop49
280
     0
102
RTVSPost2010PropOp49
 70
     1
102
RTVSPost2010Prop50
 90
       50
102
RTVSPost2010PropOp50
 70
     1
102
RTVSPost2010Prop51ColorIndex
 90
      256
102
RTVSPost2010Prop51ColorRGB
 90
-16777216
102
RTVSPost2010PropOp51
 70
     0
102
RTVSPost2010Prop52
140
1.0
102
RTVSPost2010PropOp52
 70
     0
102
RTVSPost2010Prop53
 90
        2
102
RTVSPost2010PropOp53
 70
     1
102
RTVSPost2010Prop54
  1
strokes_ogs.tif
102
RTVSPost2010PropOp54
 70
     1
102
RTVSPost2010Prop55
280
     0
102
RTVSPost2010PropOp55
 70
     1
102
RTVSPost2010Prop56
140
1.0
102
RTVSPost2010PropOp56
 70
     1
102
RTVSPost2010Prop57
140
1.0
102
RTVSPost2010PropOp57
 70
     1
102
RTVSPropertyOp0
 70
     1
102
RTVSPropertyOp1
 70
     1
102
RTVSPropertyOp2
 70
     1
102
RTVSPropertyOp3
 70
     1
102
RTVSPropertyOp4
 70
     1
102
RTVSPropertyOp5
 70
     1
102
RTVSPropertyOp6
 70
     1
102
RTVSPropertyOp7
 70
     1
102
RTVSPropertyOp8
 70
     1
102
RTVSPropertyOp9
 70
     1
102
RTVSPropertyOp10
 70
     1
102
RTVSPropertyOp11
 70
     1
102
RTVSPropertyOp12
 70
     1
102
RTVSPropertyOp13
 70
     1
102
RTVSPropertyOp14
 70
     1
102
RTVSPropertyOp15
 70
     1
102
RTVSPropertyOp16
 70
     1
102
RTVSPropertyOp17
 70
     1
102
RTVSPropertyOp18
 70
     1
102
RTVSPropertyOp19
 70
     1
102
RTVSPropertyOp20
 70
     1
102
RTVSPropertyOp21
 70
     1
102
RTVSPropertyOp22
 70
     1
102
RTVSPropertyOp23
 70
     1
102
RTVSPropertyOp24
 70
     1
102
RTVSPropertyOp25
 70
     1
102
RTVSPropertyOp26
 70
     1
102
RTVSPropertyOp27
 70
     1
102
RTVSPropertyOp28
 70
     1
102
RTVSPropertyOp29
 70
     1
102
RTVSPropertyOp30
 70
     1
102
RTVSPropertyOp31
 70
     1
102
RTVSPropertyOp32
 70
     1
102
RTVSPropertyOp33
 70
     1
102
RTVSPropertyOp34
 70
     1
102
RTVSPropertyOp35
 70
     1
102
RTVSPropertyOp36
 70
     1
102
RTVSPropertyOp37
 70
     1
102
RTVSPropertyOp38
 70
     1
102
RTVSPropertyOp39
 70
     1
102
RTVSPropertyOp40
 70
     1
102
RTVSPropertyOp41
 70
     1
102
RTVSPropertyOp42
 70
     1
102
RTVSPropertyOp43
 70
     1
102
RTVSPropertyOp44
 70
     1
102
RTVSPropertyOp45
 70
     1
102
RTVSPropertyOp46
 70
     1
102
RTVSPropertyOp47
 70
     1
102
RTVSPropertyOp48
 70
     1
102
RTVSPropertyOp49
 70
     1
102
RTVSPropertyOp50
 70
     1
102
RTVSPropertyOp51
 70
     0
102
RTVSPropertyOp52
 70
     0
102
RTVSPropertyOp53
 70
     1
102
RTVSPropertyOp54
 70
     1
102
RTVSPropertyOp55
 70
     1
102
RTVSPropertyOp56
 70
     1
102
RTVSPropertyOp57
 70
     1
102
RTVSPropertyOp58
 70
     1
102
RTVSPropertyOp59
 70
     1
102
RTVSPropertyOp60
 70
     1
102
RTVSPropertyOp61
 70
     1
102
RTVSPropertyOp62
 70
     1
  0
XRECORD
  5
2498
102
{ACAD_REACTORS
330
2497
102
}
330
2497
100
AcDbXrecord
280
     1
102
RTVSPost2010Prop28
280
     0
102
RTVSPost2010PropOp28
 70
     1
102
RTVSPost2010Prop29
280
     1
102
RTVSPost2010PropOp29
 70
     1
102
RTVSPost2010Prop30
280
     1
102
RTVSPost2010PropOp30
 70
     1
102
RTVSPost2010Prop31
280
     0
102
RTVSPost2010PropOp31
 70
     1
102
RTVSPost2010Prop32
280
     0
102
RTVSPost2010PropOp32
 70
     1
102
RTVSPost2010Prop33
280
     0
102
RTVSPost2010PropOp33
 70
     1
102
RTVSPost2010Prop34
280
     0
102
RTVSPost2010PropOp34
 70
     1
102
RTVSPost2010Prop35
280
     0
102
RTVSPost2010PropOp35
 70
     1
102
RTVSPost2010Prop36
280
     0
102
RTVSPost2010PropOp36
 70
     1
102
RTVSPost2010Prop37
 90
       50
102
RTVSPost2010PropOp37
 70
     1
102
RTVSPost2010Prop38
140
0.0
102
RTVSPost2010PropOp38
 70
     1
102
RTVSPost2010Prop39
140
1.0
102
RTVSPost2010PropOp39
 70
     1
102
RTVSPost2010Prop40
 90
        0
102
RTVSPost2010PropOp40
 70
     1
102
RTVSPost2010Prop41ColorIndex
 90
       18
102
RTVSPost2010Prop41ColorRGB
 90
        0
102
RTVSPost2010PropOp41
 70
     1
102
RTVSPost2010Prop42
 90
       50
102
RTVSPost2010PropOp42
 70
     1
102
RTVSPost2010Prop43
 90
        3
102
RTVSPost2010PropOp43
 70
     1
102
RTVSPost2010Prop44ColorIndex
 90
        5
102
RTVSPost2010Prop44ColorRGB
 90
      255
102
RTVSPost2010PropOp44
 70
     1
102
RTVSPost2010Prop45
280
     0
102
RTVSPost2010PropOp45
 70
     1
102
RTVSPost2010Prop46
 90
       50
102
RTVSPost2010PropOp46
 70
     1
102
RTVSPost2010Prop47
 90
       50
102
RTVSPost2010PropOp47
 70
     1
102
RTVSPost2010Prop48
 90
       50
102
RTVSPost2010PropOp48
 70
     1
102
RTVSPost2010Prop49
280
     0
102
RTVSPost2010PropOp49
 70
     1
102
RTVSPost2010Prop50
 90
       50
102
RTVSPost2010PropOp50
 70
     1
102
RTVSPost2010Prop51ColorIndex
 90
      256
102
RTVSPost2010Prop51ColorRGB
 90
-16777216
102
RTVSPost2010PropOp51
 70
     0
102
RTVSPost2010Prop52
140
1.0
102
RTVSPost2010PropOp52
 70
     0
102
RTVSPost2010Prop53
 90
        2
102
RTVSPost2010PropOp53
 70
     1
102
RTVSPost2010Prop54
  1
strokes_ogs.tif
102
RTVSPost2010PropOp54
 70
     1
102
RTVSPost2010Prop55
280
     0
102
RTVSPost2010PropOp55
 70
     1
102
RTVSPost2010Prop56
140
1.0
102
RTVSPost2010PropOp56
 70
     1
102
RTVSPost2010Prop57
140
1.0
102
RTVSPost2010PropOp57
 70
     1
102
RTVSPropertyOp0
 70
     1
102
RTVSPropertyOp1
 70
     1
102
RTVSPropertyOp2
 70
     1
102
RTVSPropertyOp3
 70
     1
102
RTVSPropertyOp4
 70
     1
102
RTVSPropertyOp5
 70
     1
102
RTVSPropertyOp6
 70
     1
102
RTVSPropertyOp7
 70
     1
102
RTVSPropertyOp8
 70
     1
102
RTVSPropertyOp9
 70
     1
102
RTVSPropertyOp10
 70
     1
102
RTVSPropertyOp11
 70
     1
102
RTVSPropertyOp12
 70
     1
102
RTVSPropertyOp13
 70
     1
102
RTVSPropertyOp14
 70
     1
102
RTVSPropertyOp15
 70
     1
102
RTVSPropertyOp16
 70
     1
102
RTVSPropertyOp17
 70
     1
102
RTVSPropertyOp18
 70
     1
102
RTVSPropertyOp19
 70
     1
102
RTVSPropertyOp20
 70
     1
102
RTVSPropertyOp21
 70
     1
102
RTVSPropertyOp22
 70
     1
102
RTVSPropertyOp23
 70
     1
102
RTVSPropertyOp24
 70
     1
102
RTVSPropertyOp25
 70
     1
102
RTVSPropertyOp26
 70
     1
102
RTVSPropertyOp27
 70
     1
102
RTVSPropertyOp28
 70
     1
102
RTVSPropertyOp29
 70
     1
102
RTVSPropertyOp30
 70
     1
102
RTVSPropertyOp31
 70
     1
102
RTVSPropertyOp32
 70
     1
102
RTVSPropertyOp33
 70
     1
102
RTVSPropertyOp34
 70
     1
102
RTVSPropertyOp35
 70
     1
102
RTVSPropertyOp36
 70
     1
102
RTVSPropertyOp37
 70
     1
102
RTVSPropertyOp38
 70
     1
102
RTVSPropertyOp39
 70
     1
102
RTVSPropertyOp40
 70
     1
102
RTVSPropertyOp41
 70
     1
102
RTVSPropertyOp42
 70
     1
102
RTVSPropertyOp43
 70
     1
102
RTVSPropertyOp44
 70
     1
102
RTVSPropertyOp45
 70
     1
102
RTVSPropertyOp46
 70
     1
102
RTVSPropertyOp47
 70
     1
102
RTVSPropertyOp48
 70
     1
102
RTVSPropertyOp49
 70
     1
102
RTVSPropertyOp50
 70
     1
102
RTVSPropertyOp51
 70
     0
102
RTVSPropertyOp52
 70
     0
102
RTVSPropertyOp53
 70
     1
102
RTVSPropertyOp54
 70
     1
102
RTVSPropertyOp55
 70
     1
102
RTVSPropertyOp56
 70
     1
102
RTVSPropertyOp57
 70
     1
102
RTVSPropertyOp58
 70
     1
102
RTVSPropertyOp59
 70
     1
102
RTVSPropertyOp60
 70
     1
102
RTVSPropertyOp61
 70
     1
102
RTVSPropertyOp62
 70
     1
  0
XRECORD
  5
248A
102
{ACAD_REACTORS
330
2489
102
}
330
2489
100
AcDbXrecord
280
     1
102
RTVSPost2010Prop28
280
     0
102
RTVSPost2010PropOp28
 70
     1
102
RTVSPost2010Prop29
280
     1
102
RTVSPost2010PropOp29
 70
     1
102
RTVSPost2010Prop30
280
     1
102
RTVSPost2010PropOp30
 70
     1
102
RTVSPost2010Prop31
280
     0
102
RTVSPost2010PropOp31
 70
     1
102
RTVSPost2010Prop32
280
     0
102
RTVSPost2010PropOp32
 70
     1
102
RTVSPost2010Prop33
280
     0
102
RTVSPost2010PropOp33
 70
     1
102
RTVSPost2010Prop34
280
     0
102
RTVSPost2010PropOp34
 70
     1
102
RTVSPost2010Prop35
280
     0
102
RTVSPost2010PropOp35
 70
     1
102
RTVSPost2010Prop36
280
     0
102
RTVSPost2010PropOp36
 70
     1
102
RTVSPost2010Prop37
 90
       50
102
RTVSPost2010PropOp37
 70
     1
102
RTVSPost2010Prop38
140
0.0
102
RTVSPost2010PropOp38
 70
     1
102
RTVSPost2010Prop39
140
1.0
102
RTVSPost2010PropOp39
 70
     1
102
RTVSPost2010Prop40
 90
        0
102
RTVSPost2010PropOp40
 70
     1
102
RTVSPost2010Prop41ColorIndex
 90
       18
102
RTVSPost2010Prop41ColorRGB
 90
        0
102
RTVSPost2010PropOp41
 70
     1
102
RTVSPost2010Prop42
 90
       50
102
RTVSPost2010PropOp42
 70
     1
102
RTVSPost2010Prop43
 90
        3
102
RTVSPost2010PropOp43
 70
     1
102
RTVSPost2010Prop44ColorIndex
 90
        5
102
RTVSPost2010Prop44ColorRGB
 90
      255
102
RTVSPost2010PropOp44
 70
     1
102
RTVSPost2010Prop45
280
     0
102
RTVSPost2010PropOp45
 70
     1
102
RTVSPost2010Prop46
 90
       50
102
RTVSPost2010PropOp46
 70
     1
102
RTVSPost2010Prop47
 90
       50
102
RTVSPost2010PropOp47
 70
     1
102
RTVSPost2010Prop48
 90
       50
102
RTVSPost2010PropOp48
 70
     1
102
RTVSPost2010Prop49
280
     0
102
RTVSPost2010PropOp49
 70
     1
102
RTVSPost2010Prop50
 90
       50
102
RTVSPost2010PropOp50
 70
     1
102
RTVSPost2010Prop51ColorIndex
 90
      256
102
RTVSPost2010Prop51ColorRGB
 90
-16777216
102
RTVSPost2010PropOp51
 70
     0
102
RTVSPost2010Prop52
140
1.0
102
RTVSPost2010PropOp52
 70
     0
102
RTVSPost2010Prop53
 90
        2
102
RTVSPost2010PropOp53
 70
     1
102
RTVSPost2010Prop54
  1
strokes_ogs.tif
102
RTVSPost2010PropOp54
 70
     1
102
RTVSPost2010Prop55
280
     0
102
RTVSPost2010PropOp55
 70
     1
102
RTVSPost2010Prop56
140
1.0
102
RTVSPost2010PropOp56
 70
     1
102
RTVSPost2010Prop57
140
1.0
102
RTVSPost2010PropOp57
 70
     1
102
RTVSPropertyOp0
 70
     1
102
RTVSPropertyOp1
 70
     1
102
RTVSPropertyOp2
 70
     1
102
RTVSPropertyOp3
 70
     1
102
RTVSPropertyOp4
 70
     1
102
RTVSPropertyOp5
 70
     1
102
RTVSPropertyOp6
 70
     1
102
RTVSPropertyOp7
 70
     1
102
RTVSPropertyOp8
 70
     1
102
RTVSPropertyOp9
 70
     1
102
RTVSPropertyOp10
 70
     1
102
RTVSPropertyOp11
 70
     1
102
RTVSPropertyOp12
 70
     1
102
RTVSPropertyOp13
 70
     1
102
RTVSPropertyOp14
 70
     1
102
RTVSPropertyOp15
 70
     1
102
RTVSPropertyOp16
 70
     1
102
RTVSPropertyOp17
 70
     1
102
RTVSPropertyOp18
 70
     1
102
RTVSPropertyOp19
 70
     1
102
RTVSPropertyOp20
 70
     1
102
RTVSPropertyOp21
 70
     1
102
RTVSPropertyOp22
 70
     1
102
RTVSPropertyOp23
 70
     1
102
RTVSPropertyOp24
 70
     1
102
RTVSPropertyOp25
 70
     1
102
RTVSPropertyOp26
 70
     1
102
RTVSPropertyOp27
 70
     1
102
RTVSPropertyOp28
 70
     1
102
RTVSPropertyOp29
 70
     1
102
RTVSPropertyOp30
 70
     1
102
RTVSPropertyOp31
 70
     1
102
RTVSPropertyOp32
 70
     1
102
RTVSPropertyOp33
 70
     1
102
RTVSPropertyOp34
 70
     1
102
RTVSPropertyOp35
 70
     1
102
RTVSPropertyOp36
 70
     1
102
RTVSPropertyOp37
 70
     1
102
RTVSPropertyOp38
 70
     1
102
RTVSPropertyOp39
 70
     1
102
RTVSPropertyOp40
 70
     1
102
RTVSPropertyOp41
 70
     1
102
RTVSPropertyOp42
 70
     1
102
RTVSPropertyOp43
 70
     1
102
RTVSPropertyOp44
 70
     1
102
RTVSPropertyOp45
 70
     1
102
RTVSPropertyOp46
 70
     1
102
RTVSPropertyOp47
 70
     1
102
RTVSPropertyOp48
 70
     1
102
RTVSPropertyOp49
 70
     1
102
RTVSPropertyOp50
 70
     1
102
RTVSPropertyOp51
 70
     0
102
RTVSPropertyOp52
 70
     0
102
RTVSPropertyOp53
 70
     1
102
RTVSPropertyOp54
 70
     1
102
RTVSPropertyOp55
 70
     1
102
RTVSPropertyOp56
 70
     1
102
RTVSPropertyOp57
 70
     1
102
RTVSPropertyOp58
 70
     1
102
RTVSPropertyOp59
 70
     1
102
RTVSPropertyOp60
 70
     1
102
RTVSPropertyOp61
 70
     1
102
RTVSPropertyOp62
 70
     1
  0
XRECORD
  5
248E
102
{ACAD_REACTORS
330
248D
102
}
330
248D
100
AcDbXrecord
280
     1
102
RTVSPost2010Prop28
280
     0
102
RTVSPost2010PropOp28
 70
     1
102
RTVSPost2010Prop29
280
     1
102
RTVSPost2010PropOp29
 70
     1
102
RTVSPost2010Prop30
280
     1
102
RTVSPost2010PropOp30
 70
     1
102
RTVSPost2010Prop31
280
     0
102
RTVSPost2010PropOp31
 70
     1
102
RTVSPost2010Prop32
280
     0
102
RTVSPost2010PropOp32
 70
     1
102
RTVSPost2010Prop33
280
     0
102
RTVSPost2010PropOp33
 70
     1
102
RTVSPost2010Prop34
280
     0
102
RTVSPost2010PropOp34
 70
     1
102
RTVSPost2010Prop35
280
     0
102
RTVSPost2010PropOp35
 70
     1
102
RTVSPost2010Prop36
280
     0
102
RTVSPost2010PropOp36
 70
     1
102
RTVSPost2010Prop37
 90
       50
102
RTVSPost2010PropOp37
 70
     1
102
RTVSPost2010Prop38
140
0.0
102
RTVSPost2010PropOp38
 70
     1
102
RTVSPost2010Prop39
140
1.0
102
RTVSPost2010PropOp39
 70
     1
102
RTVSPost2010Prop40
 90
        0
102
RTVSPost2010PropOp40
 70
     1
102
RTVSPost2010Prop41ColorIndex
 90
       18
102
RTVSPost2010Prop41ColorRGB
 90
        0
102
RTVSPost2010PropOp41
 70
     1
102
RTVSPost2010Prop42
 90
       50
102
RTVSPost2010PropOp42
 70
     1
102
RTVSPost2010Prop43
 90
        3
102
RTVSPost2010PropOp43
 70
     1
102
RTVSPost2010Prop44ColorIndex
 90
        5
102
RTVSPost2010Prop44ColorRGB
 90
      255
102
RTVSPost2010PropOp44
 70
     1
102
RTVSPost2010Prop45
280
     0
102
RTVSPost2010PropOp45
 70
     1
102
RTVSPost2010Prop46
 90
       50
102
RTVSPost2010PropOp46
 70
     1
102
RTVSPost2010Prop47
 90
       50
102
RTVSPost2010PropOp47
 70
     1
102
RTVSPost2010Prop48
 90
       50
102
RTVSPost2010PropOp48
 70
     1
102
RTVSPost2010Prop49
280
     0
102
RTVSPost2010PropOp49
 70
     1
102
RTVSPost2010Prop50
 90
       50
102
RTVSPost2010PropOp50
 70
     1
102
RTVSPost2010Prop51ColorIndex
 90
      256
102
RTVSPost2010Prop51ColorRGB
 90
-16777216
102
RTVSPost2010PropOp51
 70
     0
102
RTVSPost2010Prop52
140
1.0
102
RTVSPost2010PropOp52
 70
     0
102
RTVSPost2010Prop53
 90
        2
102
RTVSPost2010PropOp53
 70
     1
102
RTVSPost2010Prop54
  1
strokes_ogs.tif
102
RTVSPost2010PropOp54
 70
     1
102
RTVSPost2010Prop55
280
     0
102
RTVSPost2010PropOp55
 70
     1
102
RTVSPost2010Prop56
140
1.0
102
RTVSPost2010PropOp56
 70
     1
102
RTVSPost2010Prop57
140
1.0
102
RTVSPost2010PropOp57
 70
     1
102
RTVSPropertyOp0
 70
     1
102
RTVSPropertyOp1
 70
     1
102
RTVSPropertyOp2
 70
     1
102
RTVSPropertyOp3
 70
     1
102
RTVSPropertyOp4
 70
     1
102
RTVSPropertyOp5
 70
     1
102
RTVSPropertyOp6
 70
     1
102
RTVSPropertyOp7
 70
     1
102
RTVSPropertyOp8
 70
     1
102
RTVSPropertyOp9
 70
     1
102
RTVSPropertyOp10
 70
     1
102
RTVSPropertyOp11
 70
     1
102
RTVSPropertyOp12
 70
     1
102
RTVSPropertyOp13
 70
     1
102
RTVSPropertyOp14
 70
     1
102
RTVSPropertyOp15
 70
     1
102
RTVSPropertyOp16
 70
     1
102
RTVSPropertyOp17
 70
     1
102
RTVSPropertyOp18
 70
     1
102
RTVSPropertyOp19
 70
     1
102
RTVSPropertyOp20
 70
     1
102
RTVSPropertyOp21
 70
     1
102
RTVSPropertyOp22
 70
     1
102
RTVSPropertyOp23
 70
     1
102
RTVSPropertyOp24
 70
     1
102
RTVSPropertyOp25
 70
     1
102
RTVSPropertyOp26
 70
     1
102
RTVSPropertyOp27
 70
     1
102
RTVSPropertyOp28
 70
     1
102
RTVSPropertyOp29
 70
     1
102
RTVSPropertyOp30
 70
     1
102
RTVSPropertyOp31
 70
     1
102
RTVSPropertyOp32
 70
     1
102
RTVSPropertyOp33
 70
     1
102
RTVSPropertyOp34
 70
     1
102
RTVSPropertyOp35
 70
     1
102
RTVSPropertyOp36
 70
     1
102
RTVSPropertyOp37
 70
     1
102
RTVSPropertyOp38
 70
     1
102
RTVSPropertyOp39
 70
     1
102
RTVSPropertyOp40
 70
     1
102
RTVSPropertyOp41
 70
     1
102
RTVSPropertyOp42
 70
     1
102
RTVSPropertyOp43
 70
     1
102
RTVSPropertyOp44
 70
     1
102
RTVSPropertyOp45
 70
     1
102
RTVSPropertyOp46
 70
     1
102
RTVSPropertyOp47
 70
     1
102
RTVSPropertyOp48
 70
     1
102
RTVSPropertyOp49
 70
     1
102
RTVSPropertyOp50
 70
     1
102
RTVSPropertyOp51
 70
     0
102
RTVSPropertyOp52
 70
     0
102
RTVSPropertyOp53
 70
     1
102
RTVSPropertyOp54
 70
     1
102
RTVSPropertyOp55
 70
     1
102
RTVSPropertyOp56
 70
     1
102
RTVSPropertyOp57
 70
     1
102
RTVSPropertyOp58
 70
     1
102
RTVSPropertyOp59
 70
     1
102
RTVSPropertyOp60
 70
     1
102
RTVSPropertyOp61
 70
     1
102
RTVSPropertyOp62
 70
     1
  0
XRECORD
  5
24AC
102
{ACAD_REACTORS
330
24AB
102
}
330
24AB
100
AcDbXrecord
280
     1
102
RTVSPost2010Prop28
280
     0
102
RTVSPost2010PropOp28
 70
     0
102
RTVSPost2010Prop29
280
     1
102
RTVSPost2010PropOp29
 70
     0
102
RTVSPost2010Prop30
280
     1
102
RTVSPost2010PropOp30
 70
     0
102
RTVSPost2010Prop31
280
     0
102
RTVSPost2010PropOp31
 70
     0
102
RTVSPost2010Prop32
280
     0
102
RTVSPost2010PropOp32
 70
     0
102
RTVSPost2010Prop33
280
     0
102
RTVSPost2010PropOp33
 70
     0
102
RTVSPost2010Prop34
280
     0
102
RTVSPost2010PropOp34
 70
     0
102
RTVSPost2010Prop35
280
     0
102
RTVSPost2010PropOp35
 70
     0
102
RTVSPost2010Prop36
280
     0
102
RTVSPost2010PropOp36
 70
     0
102
RTVSPost2010Prop37
 90
       50
102
RTVSPost2010PropOp37
 70
     0
102
RTVSPost2010Prop38
140
0.0
102
RTVSPost2010PropOp38
 70
     0
102
RTVSPost2010Prop39
140
1.0
102
RTVSPost2010PropOp39
 70
     0
102
RTVSPost2010Prop40
 90
        0
102
RTVSPost2010PropOp40
 70
     0
102
RTVSPost2010Prop41ColorIndex
 90
       18
102
RTVSPost2010Prop41ColorRGB
 90
        0
102
RTVSPost2010PropOp41
 70
     0
102
RTVSPost2010Prop42
 90
       50
102
RTVSPost2010PropOp42
 70
     0
102
RTVSPost2010Prop43
 90
        3
102
RTVSPost2010PropOp43
 70
     0
102
RTVSPost2010Prop44ColorIndex
 90
        5
102
RTVSPost2010Prop44ColorRGB
 90
      255
102
RTVSPost2010PropOp44
 70
     0
102
RTVSPost2010Prop45
280
     0
102
RTVSPost2010PropOp45
 70
     0
102
RTVSPost2010Prop46
 90
       50
102
RTVSPost2010PropOp46
 70
     0
102
RTVSPost2010Prop47
 90
       50
102
RTVSPost2010PropOp47
 70
     0
102
RTVSPost2010Prop48
 90
       50
102
RTVSPost2010PropOp48
 70
     0
102
RTVSPost2010Prop49
280
     0
102
RTVSPost2010PropOp49
 70
     0
102
RTVSPost2010Prop50
 90
       50
102
RTVSPost2010PropOp50
 70
     0
102
RTVSPost2010Prop51ColorIndex
 90
      256
102
RTVSPost2010Prop51ColorRGB
 90
-16777216
102
RTVSPost2010PropOp51
 70
     0
102
RTVSPost2010Prop52
140
1.0
102
RTVSPost2010PropOp52
 70
     0
102
RTVSPost2010Prop53
 90
        2
102
RTVSPost2010PropOp53
 70
     0
102
RTVSPost2010Prop54
  1
strokes_ogs.tif
102
RTVSPost2010PropOp54
 70
     0
102
RTVSPost2010Prop55
280
     0
102
RTVSPost2010PropOp55
 70
     0
102
RTVSPost2010Prop56
140
1.0
102
RTVSPost2010PropOp56
 70
     0
102
RTVSPost2010Prop57
140
1.0
102
RTVSPost2010PropOp57
 70
     0
102
RTVSPropertyOp0
 70
     0
102
RTVSPropertyOp1
 70
     0
102
RTVSPropertyOp2
 70
     0
102
RTVSPropertyOp3
 70
     0
102
RTVSPropertyOp4
 70
     0
102
RTVSPropertyOp5
 70
     0
102
RTVSPropertyOp6
 70
     0
102
RTVSPropertyOp7
 70
     0
102
RTVSPropertyOp8
 70
     0
102
RTVSPropertyOp9
 70
     0
102
RTVSPropertyOp10
 70
     0
102
RTVSPropertyOp11
 70
     0
102
RTVSPropertyOp12
 70
     0
102
RTVSPropertyOp13
 70
     0
102
RTVSPropertyOp14
 70
     2
102
RTVSPropertyOp15
 70
     0
102
RTVSPropertyOp16
 70
     0
102
RTVSPropertyOp17
 70
     0
102
RTVSPropertyOp18
 70
     0
102
RTVSPropertyOp19
 70
     0
102
RTVSPropertyOp20
 70
     0
102
RTVSPropertyOp21
 70
     0
102
RTVSPropertyOp22
 70
     0
102
RTVSPropertyOp23
 70
     0
102
RTVSPropertyOp24
 70
     0
102
RTVSPropertyOp25
 70
     0
102
RTVSPropertyOp26
 70
     0
102
RTVSPropertyOp27
 70
     0
102
RTVSPropertyOp28
 70
     0
102
RTVSPropertyOp29
 70
     0
102
RTVSPropertyOp30
 70
     0
102
RTVSPropertyOp31
 70
     0
102
RTVSPropertyOp32
 70
     0
102
RTVSPropertyOp33
 70
     0
102
RTVSPropertyOp34
 70
     0
102
RTVSPropertyOp35
 70
     0
102
RTVSPropertyOp36
 70
     0
102
RTVSPropertyOp37
 70
     0
102
RTVSPropertyOp38
 70
     0
102
RTVSPropertyOp39
 70
     0
102
RTVSPropertyOp40
 70
     0
102
RTVSPropertyOp41
 70
     0
102
RTVSPropertyOp42
 70
     0
102
RTVSPropertyOp43
 70
     0
102
RTVSPropertyOp44
 70
     0
102
RTVSPropertyOp45
 70
     0
102
RTVSPropertyOp46
 70
     0
102
RTVSPropertyOp47
 70
     0
102
RTVSPropertyOp48
 70
     0
102
RTVSPropertyOp49
 70
     0
102
RTVSPropertyOp50
 70
     0
102
RTVSPropertyOp51
 70
     0
102
RTVSPropertyOp52
 70
     0
102
RTVSPropertyOp53
 70
     0
102
RTVSPropertyOp54
 70
     0
102
RTVSPropertyOp55
 70
     0
102
RTVSPropertyOp56
 70
     0
102
RTVSPropertyOp57
 70
     0
102
RTVSPropertyOp58
 70
     0
102
RTVSPropertyOp59
 70
     0
102
RTVSPropertyOp60
 70
     0
102
RTVSPropertyOp61
 70
     0
102
RTVSPropertyOp62
 70
     0
  0
XRECORD
  5
2496
102
{ACAD_REACTORS
330
2495
102
}
330
2495
100
AcDbXrecord
280
     1
102
RTVSPost2010Prop28
280
     0
102
RTVSPost2010PropOp28
 70
     1
102
RTVSPost2010Prop29
280
     1
102
RTVSPost2010PropOp29
 70
     1
102
RTVSPost2010Prop30
280
     1
102
RTVSPost2010PropOp30
 70
     1
102
RTVSPost2010Prop31
280
     0
102
RTVSPost2010PropOp31
 70
     1
102
RTVSPost2010Prop32
280
     0
102
RTVSPost2010PropOp32
 70
     1
102
RTVSPost2010Prop33
280
     0
102
RTVSPost2010PropOp33
 70
     1
102
RTVSPost2010Prop34
280
     0
102
RTVSPost2010PropOp34
 70
     1
102
RTVSPost2010Prop35
280
     0
102
RTVSPost2010PropOp35
 70
     1
102
RTVSPost2010Prop36
280
     0
102
RTVSPost2010PropOp36
 70
     1
102
RTVSPost2010Prop37
 90
       50
102
RTVSPost2010PropOp37
 70
     1
102
RTVSPost2010Prop38
140
0.0
102
RTVSPost2010PropOp38
 70
     1
102
RTVSPost2010Prop39
140
1.0
102
RTVSPost2010PropOp39
 70
     1
102
RTVSPost2010Prop40
 90
        0
102
RTVSPost2010PropOp40
 70
     1
102
RTVSPost2010Prop41ColorIndex
 90
       18
102
RTVSPost2010Prop41ColorRGB
 90
        0
102
RTVSPost2010PropOp41
 70
     1
102
RTVSPost2010Prop42
 90
       50
102
RTVSPost2010PropOp42
 70
     1
102
RTVSPost2010Prop43
 90
        3
102
RTVSPost2010PropOp43
 70
     1
102
RTVSPost2010Prop44ColorIndex
 90
        5
102
RTVSPost2010Prop44ColorRGB
 90
      255
102
RTVSPost2010PropOp44
 70
     1
102
RTVSPost2010Prop45
280
     0
102
RTVSPost2010PropOp45
 70
     1
102
RTVSPost2010Prop46
 90
       50
102
RTVSPost2010PropOp46
 70
     1
102
RTVSPost2010Prop47
 90
       50
102
RTVSPost2010PropOp47
 70
     1
102
RTVSPost2010Prop48
 90
       50
102
RTVSPost2010PropOp48
 70
     1
102
RTVSPost2010Prop49
280
     0
102
RTVSPost2010PropOp49
 70
     1
102
RTVSPost2010Prop50
 90
       50
102
RTVSPost2010PropOp50
 70
     1
102
RTVSPost2010Prop51ColorIndex
 90
      256
102
RTVSPost2010Prop51ColorRGB
 90
-16777216
102
RTVSPost2010PropOp51
 70
     0
102
RTVSPost2010Prop52
140
1.0
102
RTVSPost2010PropOp52
 70
     0
102
RTVSPost2010Prop53
 90
        2
102
RTVSPost2010PropOp53
 70
     1
102
RTVSPost2010Prop54
  1
strokes_ogs.tif
102
RTVSPost2010PropOp54
 70
     1
102
RTVSPost2010Prop55
280
     0
102
RTVSPost2010PropOp55
 70
     1
102
RTVSPost2010Prop56
140
1.0
102
RTVSPost2010PropOp56
 70
     1
102
RTVSPost2010Prop57
140
1.0
102
RTVSPost2010PropOp57
 70
     1
102
RTVSPropertyOp0
 70
     1
102
RTVSPropertyOp1
 70
     1
102
RTVSPropertyOp2
 70
     1
102
RTVSPropertyOp3
 70
     1
102
RTVSPropertyOp4
 70
     1
102
RTVSPropertyOp5
 70
     1
102
RTVSPropertyOp6
 70
     1
102
RTVSPropertyOp7
 70
     1
102
RTVSPropertyOp8
 70
     1
102
RTVSPropertyOp9
 70
     1
102
RTVSPropertyOp10
 70
     1
102
RTVSPropertyOp11
 70
     1
102
RTVSPropertyOp12
 70
     1
102
RTVSPropertyOp13
 70
     1
102
RTVSPropertyOp14
 70
     1
102
RTVSPropertyOp15
 70
     1
102
RTVSPropertyOp16
 70
     1
102
RTVSPropertyOp17
 70
     1
102
RTVSPropertyOp18
 70
     1
102
RTVSPropertyOp19
 70
     1
102
RTVSPropertyOp20
 70
     1
102
RTVSPropertyOp21
 70
     1
102
RTVSPropertyOp22
 70
     1
102
RTVSPropertyOp23
 70
     1
102
RTVSPropertyOp24
 70
     1
102
RTVSPropertyOp25
 70
     1
102
RTVSPropertyOp26
 70
     1
102
RTVSPropertyOp27
 70
     1
102
RTVSPropertyOp28
 70
     1
102
RTVSPropertyOp29
 70
     1
102
RTVSPropertyOp30
 70
     1
102
RTVSPropertyOp31
 70
     1
102
RTVSPropertyOp32
 70
     1
102
RTVSPropertyOp33
 70
     1
102
RTVSPropertyOp34
 70
     1
102
RTVSPropertyOp35
 70
     1
102
RTVSPropertyOp36
 70
     1
102
RTVSPropertyOp37
 70
     1
102
RTVSPropertyOp38
 70
     1
102
RTVSPropertyOp39
 70
     1
102
RTVSPropertyOp40
 70
     1
102
RTVSPropertyOp41
 70
     1
102
RTVSPropertyOp42
 70
     1
102
RTVSPropertyOp43
 70
     1
102
RTVSPropertyOp44
 70
     1
102
RTVSPropertyOp45
 70
     1
102
RTVSPropertyOp46
 70
     1
102
RTVSPropertyOp47
 70
     1
102
RTVSPropertyOp48
 70
     1
102
RTVSPropertyOp49
 70
     1
102
RTVSPropertyOp50
 70
     1
102
RTVSPropertyOp51
 70
     0
102
RTVSPropertyOp52
 70
     0
102
RTVSPropertyOp53
 70
     1
102
RTVSPropertyOp54
 70
     1
102
RTVSPropertyOp55
 70
     1
102
RTVSPropertyOp56
 70
     1
102
RTVSPropertyOp57
 70
     1
102
RTVSPropertyOp58
 70
     1
102
RTVSPropertyOp59
 70
     1
102
RTVSPropertyOp60
 70
     1
102
RTVSPropertyOp61
 70
     1
102
RTVSPropertyOp62
 70
     1
  0
XRECORD
  5
247A
102
{ACAD_REACTORS
330
2479
102
}
330
2479
100
AcDbXrecord
280
     1
102
RTVSPost2010Prop28
280
     0
102
RTVSPost2010PropOp28
 70
     1
102
RTVSPost2010Prop29
280
     1
102
RTVSPost2010PropOp29
 70
     1
102
RTVSPost2010Prop30
280
     1
102
RTVSPost2010PropOp30
 70
     1
102
RTVSPost2010Prop31
280
     0
102
RTVSPost2010PropOp31
 70
     1
102
RTVSPost2010Prop32
280
     0
102
RTVSPost2010PropOp32
 70
     1
102
RTVSPost2010Prop33
280
     0
102
RTVSPost2010PropOp33
 70
     1
102
RTVSPost2010Prop34
280
     0
102
RTVSPost2010PropOp34
 70
     1
102
RTVSPost2010Prop35
280
     0
102
RTVSPost2010PropOp35
 70
     1
102
RTVSPost2010Prop36
280
     0
102
RTVSPost2010PropOp36
 70
     1
102
RTVSPost2010Prop37
 90
       50
102
RTVSPost2010PropOp37
 70
     1
102
RTVSPost2010Prop38
140
0.0
102
RTVSPost2010PropOp38
 70
     1
102
RTVSPost2010Prop39
140
1.0
102
RTVSPost2010PropOp39
 70
     1
102
RTVSPost2010Prop40
 90
        0
102
RTVSPost2010PropOp40
 70
     1
102
RTVSPost2010Prop41ColorIndex
 90
       18
102
RTVSPost2010Prop41ColorRGB
 90
        0
102
RTVSPost2010PropOp41
 70
     1
102
RTVSPost2010Prop42
 90
       50
102
RTVSPost2010PropOp42
 70
     1
102
RTVSPost2010Prop43
 90
        3
102
RTVSPost2010PropOp43
 70
     1
102
RTVSPost2010Prop44ColorIndex
 90
        5
102
RTVSPost2010Prop44ColorRGB
 90
      255
102
RTVSPost2010PropOp44
 70
     1
102
RTVSPost2010Prop45
280
     0
102
RTVSPost2010PropOp45
 70
     1
102
RTVSPost2010Prop46
 90
       50
102
RTVSPost2010PropOp46
 70
     1
102
RTVSPost2010Prop47
 90
       50
102
RTVSPost2010PropOp47
 70
     1
102
RTVSPost2010Prop48
 90
       50
102
RTVSPost2010PropOp48
 70
     1
102
RTVSPost2010Prop49
280
     0
102
RTVSPost2010PropOp49
 70
     1
102
RTVSPost2010Prop50
 90
       50
102
RTVSPost2010PropOp50
 70
     1
102
RTVSPost2010Prop51ColorIndex
 90
      256
102
RTVSPost2010Prop51ColorRGB
 90
-16777216
102
RTVSPost2010PropOp51
 70
     0
102
RTVSPost2010Prop52
140
1.0
102
RTVSPost2010PropOp52
 70
     0
102
RTVSPost2010Prop53
 90
        2
102
RTVSPost2010PropOp53
 70
     1
102
RTVSPost2010Prop54
  1
strokes_ogs.tif
102
RTVSPost2010PropOp54
 70
     1
102
RTVSPost2010Prop55
280
     0
102
RTVSPost2010PropOp55
 70
     1
102
RTVSPost2010Prop56
140
1.0
102
RTVSPost2010PropOp56
 70
     1
102
RTVSPost2010Prop57
140
1.0
102
RTVSPost2010PropOp57
 70
     1
102
RTVSPropertyOp0
 70
     1
102
RTVSPropertyOp1
 70
     1
102
RTVSPropertyOp2
 70
     1
102
RTVSPropertyOp3
 70
     1
102
RTVSPropertyOp4
 70
     1
102
RTVSPropertyOp5
 70
     1
102
RTVSPropertyOp6
 70
     1
102
RTVSPropertyOp7
 70
     1
102
RTVSPropertyOp8
 70
     1
102
RTVSPropertyOp9
 70
     1
102
RTVSPropertyOp10
 70
     1
102
RTVSPropertyOp11
 70
     1
102
RTVSPropertyOp12
 70
     1
102
RTVSPropertyOp13
 70
     1
102
RTVSPropertyOp14
 70
     1
102
RTVSPropertyOp15
 70
     1
102
RTVSPropertyOp16
 70
     1
102
RTVSPropertyOp17
 70
     1
102
RTVSPropertyOp18
 70
     1
102
RTVSPropertyOp19
 70
     1
102
RTVSPropertyOp20
 70
     1
102
RTVSPropertyOp21
 70
     1
102
RTVSPropertyOp22
 70
     1
102
RTVSPropertyOp23
 70
     1
102
RTVSPropertyOp24
 70
     1
102
RTVSPropertyOp25
 70
     1
102
RTVSPropertyOp26
 70
     1
102
RTVSPropertyOp27
 70
     1
102
RTVSPropertyOp28
 70
     1
102
RTVSPropertyOp29
 70
     1
102
RTVSPropertyOp30
 70
     1
102
RTVSPropertyOp31
 70
     1
102
RTVSPropertyOp32
 70
     1
102
RTVSPropertyOp33
 70
     1
102
RTVSPropertyOp34
 70
     1
102
RTVSPropertyOp35
 70
     1
102
RTVSPropertyOp36
 70
     1
102
RTVSPropertyOp37
 70
     1
102
RTVSPropertyOp38
 70
     1
102
RTVSPropertyOp39
 70
     1
102
RTVSPropertyOp40
 70
     1
102
RTVSPropertyOp41
 70
     1
102
RTVSPropertyOp42
 70
     1
102
RTVSPropertyOp43
 70
     1
102
RTVSPropertyOp44
 70
     1
102
RTVSPropertyOp45
 70
     1
102
RTVSPropertyOp46
 70
     1
102
RTVSPropertyOp47
 70
     1
102
RTVSPropertyOp48
 70
     1
102
RTVSPropertyOp49
 70
     1
102
RTVSPropertyOp50
 70
     1
102
RTVSPropertyOp51
 70
     0
102
RTVSPropertyOp52
 70
     0
102
RTVSPropertyOp53
 70
     1
102
RTVSPropertyOp54
 70
     1
102
RTVSPropertyOp55
 70
     1
102
RTVSPropertyOp56
 70
     1
102
RTVSPropertyOp57
 70
     1
102
RTVSPropertyOp58
 70
     1
102
RTVSPropertyOp59
 70
     1
102
RTVSPropertyOp60
 70
     1
102
RTVSPropertyOp61
 70
     1
102
RTVSPropertyOp62
 70
     1
  0
XRECORD
  5
247C
102
{ACAD_REACTORS
330
247B
102
}
330
247B
100
AcDbXrecord
280
     1
102
RTVSPost2010Prop28
280
     0
102
RTVSPost2010PropOp28
 70
     1
102
RTVSPost2010Prop29
280
     1
102
RTVSPost2010PropOp29
 70
     1
102
RTVSPost2010Prop30
280
     1
102
RTVSPost2010PropOp30
 70
     1
102
RTVSPost2010Prop31
280
     0
102
RTVSPost2010PropOp31
 70
     1
102
RTVSPost2010Prop32
280
     0
102
RTVSPost2010PropOp32
 70
     1
102
RTVSPost2010Prop33
280
     0
102
RTVSPost2010PropOp33
 70
     1
102
RTVSPost2010Prop34
280
     0
102
RTVSPost2010PropOp34
 70
     1
102
RTVSPost2010Prop35
280
     0
102
RTVSPost2010PropOp35
 70
     1
102
RTVSPost2010Prop36
280
     0
102
RTVSPost2010PropOp36
 70
     1
102
RTVSPost2010Prop37
 90
       50
102
RTVSPost2010PropOp37
 70
     1
102
RTVSPost2010Prop38
140
0.0
102
RTVSPost2010PropOp38
 70
     1
102
RTVSPost2010Prop39
140
1.0
102
RTVSPost2010PropOp39
 70
     1
102
RTVSPost2010Prop40
 90
        0
102
RTVSPost2010PropOp40
 70
     1
102
RTVSPost2010Prop41ColorIndex
 90
       18
102
RTVSPost2010Prop41ColorRGB
 90
        0
102
RTVSPost2010PropOp41
 70
     1
102
RTVSPost2010Prop42
 90
       50
102
RTVSPost2010PropOp42
 70
     1
102
RTVSPost2010Prop43
 90
        3
102
RTVSPost2010PropOp43
 70
     1
102
RTVSPost2010Prop44ColorIndex
 90
        5
102
RTVSPost2010Prop44ColorRGB
 90
      255
102
RTVSPost2010PropOp44
 70
     1
102
RTVSPost2010Prop45
280
     0
102
RTVSPost2010PropOp45
 70
     1
102
RTVSPost2010Prop46
 90
       50
102
RTVSPost2010PropOp46
 70
     1
102
RTVSPost2010Prop47
 90
       50
102
RTVSPost2010PropOp47
 70
     1
102
RTVSPost2010Prop48
 90
       50
102
RTVSPost2010PropOp48
 70
     1
102
RTVSPost2010Prop49
280
     0
102
RTVSPost2010PropOp49
 70
     1
102
RTVSPost2010Prop50
 90
       50
102
RTVSPost2010PropOp50
 70
     1
102
RTVSPost2010Prop51ColorIndex
 90
      256
102
RTVSPost2010Prop51ColorRGB
 90
-16777216
102
RTVSPost2010PropOp51
 70
     0
102
RTVSPost2010Prop52
140
1.0
102
RTVSPost2010PropOp52
 70
     0
102
RTVSPost2010Prop53
 90
        2
102
RTVSPost2010PropOp53
 70
     1
102
RTVSPost2010Prop54
  1
strokes_ogs.tif
102
RTVSPost2010PropOp54
 70
     1
102
RTVSPost2010Prop55
280
     0
102
RTVSPost2010PropOp55
 70
     1
102
RTVSPost2010Prop56
140
1.0
102
RTVSPost2010PropOp56
 70
     1
102
RTVSPost2010Prop57
140
1.0
102
RTVSPost2010PropOp57
 70
     1
102
RTVSPropertyOp0
 70
     1
102
RTVSPropertyOp1
 70
     1
102
RTVSPropertyOp2
 70
     1
102
RTVSPropertyOp3
 70
     1
102
RTVSPropertyOp4
 70
     1
102
RTVSPropertyOp5
 70
     1
102
RTVSPropertyOp6
 70
     1
102
RTVSPropertyOp7
 70
     1
102
RTVSPropertyOp8
 70
     1
102
RTVSPropertyOp9
 70
     1
102
RTVSPropertyOp10
 70
     1
102
RTVSPropertyOp11
 70
     1
102
RTVSPropertyOp12
 70
     1
102
RTVSPropertyOp13
 70
     1
102
RTVSPropertyOp14
 70
     1
102
RTVSPropertyOp15
 70
     1
102
RTVSPropertyOp16
 70
     1
102
RTVSPropertyOp17
 70
     1
102
RTVSPropertyOp18
 70
     1
102
RTVSPropertyOp19
 70
     1
102
RTVSPropertyOp20
 70
     1
102
RTVSPropertyOp21
 70
     1
102
RTVSPropertyOp22
 70
     1
102
RTVSPropertyOp23
 70
     1
102
RTVSPropertyOp24
 70
     1
102
RTVSPropertyOp25
 70
     1
102
RTVSPropertyOp26
 70
     1
102
RTVSPropertyOp27
 70
     1
102
RTVSPropertyOp28
 70
     1
102
RTVSPropertyOp29
 70
     1
102
RTVSPropertyOp30
 70
     1
102
RTVSPropertyOp31
 70
     1
102
RTVSPropertyOp32
 70
     1
102
RTVSPropertyOp33
 70
     1
102
RTVSPropertyOp34
 70
     1
102
RTVSPropertyOp35
 70
     1
102
RTVSPropertyOp36
 70
     1
102
RTVSPropertyOp37
 70
     1
102
RTVSPropertyOp38
 70
     1
102
RTVSPropertyOp39
 70
     1
102
RTVSPropertyOp40
 70
     1
102
RTVSPropertyOp41
 70
     1
102
RTVSPropertyOp42
 70
     1
102
RTVSPropertyOp43
 70
     1
102
RTVSPropertyOp44
 70
     1
102
RTVSPropertyOp45
 70
     1
102
RTVSPropertyOp46
 70
     1
102
RTVSPropertyOp47
 70
     1
102
RTVSPropertyOp48
 70
     1
102
RTVSPropertyOp49
 70
     1
102
RTVSPropertyOp50
 70
     1
102
RTVSPropertyOp51
 70
     0
102
RTVSPropertyOp52
 70
     0
102
RTVSPropertyOp53
 70
     1
102
RTVSPropertyOp54
 70
     1
102
RTVSPropertyOp55
 70
     1
102
RTVSPropertyOp56
 70
     1
102
RTVSPropertyOp57
 70
     1
102
RTVSPropertyOp58
 70
     1
102
RTVSPropertyOp59
 70
     1
102
RTVSPropertyOp60
 70
     1
102
RTVSPropertyOp61
 70
     1
102
RTVSPropertyOp62
 70
     1
  0
XRECORD
  5
247E
102
{ACAD_REACTORS
330
247D
102
}
330
247D
100
AcDbXrecord
280
     1
102
RTVSPost2010Prop28
280
     0
102
RTVSPost2010PropOp28
 70
     1
102
RTVSPost2010Prop29
280
     1
102
RTVSPost2010PropOp29
 70
     1
102
RTVSPost2010Prop30
280
     1
102
RTVSPost2010PropOp30
 70
     1
102
RTVSPost2010Prop31
280
     0
102
RTVSPost2010PropOp31
 70
     1
102
RTVSPost2010Prop32
280
     0
102
RTVSPost2010PropOp32
 70
     1
102
RTVSPost2010Prop33
280
     0
102
RTVSPost2010PropOp33
 70
     1
102
RTVSPost2010Prop34
280
     0
102
RTVSPost2010PropOp34
 70
     1
102
RTVSPost2010Prop35
280
     0
102
RTVSPost2010PropOp35
 70
     1
102
RTVSPost2010Prop36
280
     0
102
RTVSPost2010PropOp36
 70
     1
102
RTVSPost2010Prop37
 90
       50
102
RTVSPost2010PropOp37
 70
     1
102
RTVSPost2010Prop38
140
0.0
102
RTVSPost2010PropOp38
 70
     1
102
RTVSPost2010Prop39
140
1.0
102
RTVSPost2010PropOp39
 70
     1
102
RTVSPost2010Prop40
 90
        0
102
RTVSPost2010PropOp40
 70
     1
102
RTVSPost2010Prop41ColorIndex
 90
       18
102
RTVSPost2010Prop41ColorRGB
 90
        0
102
RTVSPost2010PropOp41
 70
     1
102
RTVSPost2010Prop42
 90
       50
102
RTVSPost2010PropOp42
 70
     1
102
RTVSPost2010Prop43
 90
        3
102
RTVSPost2010PropOp43
 70
     1
102
RTVSPost2010Prop44ColorIndex
 90
        5
102
RTVSPost2010Prop44ColorRGB
 90
      255
102
RTVSPost2010PropOp44
 70
     1
102
RTVSPost2010Prop45
280
     0
102
RTVSPost2010PropOp45
 70
     1
102
RTVSPost2010Prop46
 90
       50
102
RTVSPost2010PropOp46
 70
     1
102
RTVSPost2010Prop47
 90
       50
102
RTVSPost2010PropOp47
 70
     1
102
RTVSPost2010Prop48
 90
       50
102
RTVSPost2010PropOp48
 70
     1
102
RTVSPost2010Prop49
280
     0
102
RTVSPost2010PropOp49
 70
     1
102
RTVSPost2010Prop50
 90
       50
102
RTVSPost2010PropOp50
 70
     1
102
RTVSPost2010Prop51ColorIndex
 90
      256
102
RTVSPost2010Prop51ColorRGB
 90
-16777216
102
RTVSPost2010PropOp51
 70
     0
102
RTVSPost2010Prop52
140
1.0
102
RTVSPost2010PropOp52
 70
     0
102
RTVSPost2010Prop53
 90
        2
102
RTVSPost2010PropOp53
 70
     1
102
RTVSPost2010Prop54
  1
strokes_ogs.tif
102
RTVSPost2010PropOp54
 70
     1
102
RTVSPost2010Prop55
280
     0
102
RTVSPost2010PropOp55
 70
     1
102
RTVSPost2010Prop56
140
1.0
102
RTVSPost2010PropOp56
 70
     1
102
RTVSPost2010Prop57
140
1.0
102
RTVSPost2010PropOp57
 70
     1
102
RTVSPropertyOp0
 70
     1
102
RTVSPropertyOp1
 70
     1
102
RTVSPropertyOp2
 70
     1
102
RTVSPropertyOp3
 70
     1
102
RTVSPropertyOp4
 70
     1
102
RTVSPropertyOp5
 70
     1
102
RTVSPropertyOp6
 70
     1
102
RTVSPropertyOp7
 70
     1
102
RTVSPropertyOp8
 70
     1
102
RTVSPropertyOp9
 70
     1
102
RTVSPropertyOp10
 70
     1
102
RTVSPropertyOp11
 70
     1
102
RTVSPropertyOp12
 70
     1
102
RTVSPropertyOp13
 70
     1
102
RTVSPropertyOp14
 70
     1
102
RTVSPropertyOp15
 70
     1
102
RTVSPropertyOp16
 70
     1
102
RTVSPropertyOp17
 70
     1
102
RTVSPropertyOp18
 70
     1
102
RTVSPropertyOp19
 70
     1
102
RTVSPropertyOp20
 70
     1
102
RTVSPropertyOp21
 70
     1
102
RTVSPropertyOp22
 70
     1
102
RTVSPropertyOp23
 70
     1
102
RTVSPropertyOp24
 70
     1
102
RTVSPropertyOp25
 70
     1
102
RTVSPropertyOp26
 70
     1
102
RTVSPropertyOp27
 70
     1
102
RTVSPropertyOp28
 70
     1
102
RTVSPropertyOp29
 70
     1
102
RTVSPropertyOp30
 70
     1
102
RTVSPropertyOp31
 70
     1
102
RTVSPropertyOp32
 70
     1
102
RTVSPropertyOp33
 70
     1
102
RTVSPropertyOp34
 70
     1
102
RTVSPropertyOp35
 70
     1
102
RTVSPropertyOp36
 70
     1
102
RTVSPropertyOp37
 70
     1
102
RTVSPropertyOp38
 70
     1
102
RTVSPropertyOp39
 70
     1
102
RTVSPropertyOp40
 70
     1
102
RTVSPropertyOp41
 70
     1
102
RTVSPropertyOp42
 70
     1
102
RTVSPropertyOp43
 70
     1
102
RTVSPropertyOp44
 70
     1
102
RTVSPropertyOp45
 70
     1
102
RTVSPropertyOp46
 70
     1
102
RTVSPropertyOp47
 70
     1
102
RTVSPropertyOp48
 70
     1
102
RTVSPropertyOp49
 70
     1
102
RTVSPropertyOp50
 70
     1
102
RTVSPropertyOp51
 70
     0
102
RTVSPropertyOp52
 70
     0
102
RTVSPropertyOp53
 70
     1
102
RTVSPropertyOp54
 70
     1
102
RTVSPropertyOp55
 70
     1
102
RTVSPropertyOp56
 70
     1
102
RTVSPropertyOp57
 70
     1
102
RTVSPropertyOp58
 70
     1
102
RTVSPropertyOp59
 70
     1
102
RTVSPropertyOp60
 70
     1
102
RTVSPropertyOp61
 70
     1
102
RTVSPropertyOp62
 70
     1
  0
XRECORD
  5
2480
102
{ACAD_REACTORS
330
247F
102
}
330
247F
100
AcDbXrecord
280
     1
102
RTVSPost2010Prop28
280
     0
102
RTVSPost2010PropOp28
 70
     1
102
RTVSPost2010Prop29
280
     1
102
RTVSPost2010PropOp29
 70
     1
102
RTVSPost2010Prop30
280
     1
102
RTVSPost2010PropOp30
 70
     1
102
RTVSPost2010Prop31
280
     0
102
RTVSPost2010PropOp31
 70
     1
102
RTVSPost2010Prop32
280
     0
102
RTVSPost2010PropOp32
 70
     1
102
RTVSPost2010Prop33
280
     0
102
RTVSPost2010PropOp33
 70
     1
102
RTVSPost2010Prop34
280
     0
102
RTVSPost2010PropOp34
 70
     1
102
RTVSPost2010Prop35
280
     0
102
RTVSPost2010PropOp35
 70
     1
102
RTVSPost2010Prop36
280
     0
102
RTVSPost2010PropOp36
 70
     1
102
RTVSPost2010Prop37
 90
       50
102
RTVSPost2010PropOp37
 70
     1
102
RTVSPost2010Prop38
140
0.0
102
RTVSPost2010PropOp38
 70
     1
102
RTVSPost2010Prop39
140
1.0
102
RTVSPost2010PropOp39
 70
     1
102
RTVSPost2010Prop40
 90
        0
102
RTVSPost2010PropOp40
 70
     1
102
RTVSPost2010Prop41ColorIndex
 90
       18
102
RTVSPost2010Prop41ColorRGB
 90
        0
102
RTVSPost2010PropOp41
 70
     1
102
RTVSPost2010Prop42
 90
       50
102
RTVSPost2010PropOp42
 70
     1
102
RTVSPost2010Prop43
 90
        3
102
RTVSPost2010PropOp43
 70
     1
102
RTVSPost2010Prop44ColorIndex
 90
        5
102
RTVSPost2010Prop44ColorRGB
 90
      255
102
RTVSPost2010PropOp44
 70
     1
102
RTVSPost2010Prop45
280
     0
102
RTVSPost2010PropOp45
 70
     1
102
RTVSPost2010Prop46
 90
       50
102
RTVSPost2010PropOp46
 70
     1
102
RTVSPost2010Prop47
 90
       50
102
RTVSPost2010PropOp47
 70
     1
102
RTVSPost2010Prop48
 90
       50
102
RTVSPost2010PropOp48
 70
     1
102
RTVSPost2010Prop49
280
     0
102
RTVSPost2010PropOp49
 70
     1
102
RTVSPost2010Prop50
 90
       50
102
RTVSPost2010PropOp50
 70
     1
102
RTVSPost2010Prop51ColorIndex
 90
      256
102
RTVSPost2010Prop51ColorRGB
 90
-16777216
102
RTVSPost2010PropOp51
 70
     0
102
RTVSPost2010Prop52
140
1.0
102
RTVSPost2010PropOp52
 70
     0
102
RTVSPost2010Prop53
 90
        2
102
RTVSPost2010PropOp53
 70
     1
102
RTVSPost2010Prop54
  1
strokes_ogs.tif
102
RTVSPost2010PropOp54
 70
     1
102
RTVSPost2010Prop55
280
     0
102
RTVSPost2010PropOp55
 70
     1
102
RTVSPost2010Prop56
140
1.0
102
RTVSPost2010PropOp56
 70
     1
102
RTVSPost2010Prop57
140
1.0
102
RTVSPost2010PropOp57
 70
     1
102
RTVSPropertyOp0
 70
     1
102
RTVSPropertyOp1
 70
     1
102
RTVSPropertyOp2
 70
     1
102
RTVSPropertyOp3
 70
     1
102
RTVSPropertyOp4
 70
     1
102
RTVSPropertyOp5
 70
     1
102
RTVSPropertyOp6
 70
     1
102
RTVSPropertyOp7
 70
     1
102
RTVSPropertyOp8
 70
     1
102
RTVSPropertyOp9
 70
     1
102
RTVSPropertyOp10
 70
     1
102
RTVSPropertyOp11
 70
     1
102
RTVSPropertyOp12
 70
     1
102
RTVSPropertyOp13
 70
     1
102
RTVSPropertyOp14
 70
     1
102
RTVSPropertyOp15
 70
     1
102
RTVSPropertyOp16
 70
     1
102
RTVSPropertyOp17
 70
     1
102
RTVSPropertyOp18
 70
     1
102
RTVSPropertyOp19
 70
     1
102
RTVSPropertyOp20
 70
     1
102
RTVSPropertyOp21
 70
     1
102
RTVSPropertyOp22
 70
     1
102
RTVSPropertyOp23
 70
     1
102
RTVSPropertyOp24
 70
     1
102
RTVSPropertyOp25
 70
     1
102
RTVSPropertyOp26
 70
     1
102
RTVSPropertyOp27
 70
     1
102
RTVSPropertyOp28
 70
     1
102
RTVSPropertyOp29
 70
     1
102
RTVSPropertyOp30
 70
     1
102
RTVSPropertyOp31
 70
     1
102
RTVSPropertyOp32
 70
     1
102
RTVSPropertyOp33
 70
     1
102
RTVSPropertyOp34
 70
     1
102
RTVSPropertyOp35
 70
     1
102
RTVSPropertyOp36
 70
     1
102
RTVSPropertyOp37
 70
     1
102
RTVSPropertyOp38
 70
     1
102
RTVSPropertyOp39
 70
     1
102
RTVSPropertyOp40
 70
     1
102
RTVSPropertyOp41
 70
     1
102
RTVSPropertyOp42
 70
     1
102
RTVSPropertyOp43
 70
     1
102
RTVSPropertyOp44
 70
     1
102
RTVSPropertyOp45
 70
     1
102
RTVSPropertyOp46
 70
     1
102
RTVSPropertyOp47
 70
     1
102
RTVSPropertyOp48
 70
     1
102
RTVSPropertyOp49
 70
     1
102
RTVSPropertyOp50
 70
     1
102
RTVSPropertyOp51
 70
     0
102
RTVSPropertyOp52
 70
     0
102
RTVSPropertyOp53
 70
     1
102
RTVSPropertyOp54
 70
     1
102
RTVSPropertyOp55
 70
     1
102
RTVSPropertyOp56
 70
     1
102
RTVSPropertyOp57
 70
     1
102
RTVSPropertyOp58
 70
     1
102
RTVSPropertyOp59
 70
     1
102
RTVSPropertyOp60
 70
     1
102
RTVSPropertyOp61
 70
     1
102
RTVSPropertyOp62
 70
     1
  0
XRECORD
  5
249C
102
{ACAD_REACTORS
330
249B
102
}
330
249B
100
AcDbXrecord
280
     1
102
RTVSPost2010Prop28
280
     0
102
RTVSPost2010PropOp28
 70
     1
102
RTVSPost2010Prop29
280
     1
102
RTVSPost2010PropOp29
 70
     1
102
RTVSPost2010Prop30
280
     1
102
RTVSPost2010PropOp30
 70
     1
102
RTVSPost2010Prop31
280
     0
102
RTVSPost2010PropOp31
 70
     1
102
RTVSPost2010Prop32
280
     0
102
RTVSPost2010PropOp32
 70
     1
102
RTVSPost2010Prop33
280
     0
102
RTVSPost2010PropOp33
 70
     1
102
RTVSPost2010Prop34
280
     0
102
RTVSPost2010PropOp34
 70
     1
102
RTVSPost2010Prop35
280
     0
102
RTVSPost2010PropOp35
 70
     1
102
RTVSPost2010Prop36
280
     0
102
RTVSPost2010PropOp36
 70
     1
102
RTVSPost2010Prop37
 90
       50
102
RTVSPost2010PropOp37
 70
     1
102
RTVSPost2010Prop38
140
0.0
102
RTVSPost2010PropOp38
 70
     1
102
RTVSPost2010Prop39
140
1.0
102
RTVSPost2010PropOp39
 70
     1
102
RTVSPost2010Prop40
 90
        0
102
RTVSPost2010PropOp40
 70
     1
102
RTVSPost2010Prop41ColorIndex
 90
       18
102
RTVSPost2010Prop41ColorRGB
 90
        0
102
RTVSPost2010PropOp41
 70
     1
102
RTVSPost2010Prop42
 90
       50
102
RTVSPost2010PropOp42
 70
     1
102
RTVSPost2010Prop43
 90
        3
102
RTVSPost2010PropOp43
 70
     1
102
RTVSPost2010Prop44ColorIndex
 90
        5
102
RTVSPost2010Prop44ColorRGB
 90
      255
102
RTVSPost2010PropOp44
 70
     1
102
RTVSPost2010Prop45
280
     0
102
RTVSPost2010PropOp45
 70
     1
102
RTVSPost2010Prop46
 90
       50
102
RTVSPost2010PropOp46
 70
     1
102
RTVSPost2010Prop47
 90
       50
102
RTVSPost2010PropOp47
 70
     1
102
RTVSPost2010Prop48
 90
       50
102
RTVSPost2010PropOp48
 70
     1
102
RTVSPost2010Prop49
280
     0
102
RTVSPost2010PropOp49
 70
     1
102
RTVSPost2010Prop50
 90
       50
102
RTVSPost2010PropOp50
 70
     1
102
RTVSPost2010Prop51ColorIndex
 90
      256
102
RTVSPost2010Prop51ColorRGB
 90
-16777216
102
RTVSPost2010PropOp51
 70
     0
102
RTVSPost2010Prop52
140
1.0
102
RTVSPost2010PropOp52
 70
     0
102
RTVSPost2010Prop53
 90
        2
102
RTVSPost2010PropOp53
 70
     1
102
RTVSPost2010Prop54
  1
strokes_ogs.tif
102
RTVSPost2010PropOp54
 70
     1
102
RTVSPost2010Prop55
280
     0
102
RTVSPost2010PropOp55
 70
     1
102
RTVSPost2010Prop56
140
1.0
102
RTVSPost2010PropOp56
 70
     1
102
RTVSPost2010Prop57
140
1.0
102
RTVSPost2010PropOp57
 70
     1
102
RTVSPropertyOp0
 70
     1
102
RTVSPropertyOp1
 70
     1
102
RTVSPropertyOp2
 70
     1
102
RTVSPropertyOp3
 70
     1
102
RTVSPropertyOp4
 70
     1
102
RTVSPropertyOp5
 70
     1
102
RTVSPropertyOp6
 70
     1
102
RTVSPropertyOp7
 70
     1
102
RTVSPropertyOp8
 70
     1
102
RTVSPropertyOp9
 70
     1
102
RTVSPropertyOp10
 70
     1
102
RTVSPropertyOp11
 70
     1
102
RTVSPropertyOp12
 70
     1
102
RTVSPropertyOp13
 70
     1
102
RTVSPropertyOp14
 70
     1
102
RTVSPropertyOp15
 70
     1
102
RTVSPropertyOp16
 70
     1
102
RTVSPropertyOp17
 70
     1
102
RTVSPropertyOp18
 70
     1
102
RTVSPropertyOp19
 70
     1
102
RTVSPropertyOp20
 70
     1
102
RTVSPropertyOp21
 70
     1
102
RTVSPropertyOp22
 70
     1
102
RTVSPropertyOp23
 70
     1
102
RTVSPropertyOp24
 70
     1
102
RTVSPropertyOp25
 70
     1
102
RTVSPropertyOp26
 70
     1
102
RTVSPropertyOp27
 70
     1
102
RTVSPropertyOp28
 70
     1
102
RTVSPropertyOp29
 70
     1
102
RTVSPropertyOp30
 70
     1
102
RTVSPropertyOp31
 70
     1
102
RTVSPropertyOp32
 70
     1
102
RTVSPropertyOp33
 70
     1
102
RTVSPropertyOp34
 70
     1
102
RTVSPropertyOp35
 70
     1
102
RTVSPropertyOp36
 70
     1
102
RTVSPropertyOp37
 70
     1
102
RTVSPropertyOp38
 70
     1
102
RTVSPropertyOp39
 70
     1
102
RTVSPropertyOp40
 70
     1
102
RTVSPropertyOp41
 70
     1
102
RTVSPropertyOp42
 70
     1
102
RTVSPropertyOp43
 70
     1
102
RTVSPropertyOp44
 70
     1
102
RTVSPropertyOp45
 70
     1
102
RTVSPropertyOp46
 70
     1
102
RTVSPropertyOp47
 70
     1
102
RTVSPropertyOp48
 70
     1
102
RTVSPropertyOp49
 70
     1
102
RTVSPropertyOp50
 70
     1
102
RTVSPropertyOp51
 70
     0
102
RTVSPropertyOp52
 70
     0
102
RTVSPropertyOp53
 70
     1
102
RTVSPropertyOp54
 70
     1
102
RTVSPropertyOp55
 70
     1
102
RTVSPropertyOp56
 70
     1
102
RTVSPropertyOp57
 70
     1
102
RTVSPropertyOp58
 70
     1
102
RTVSPropertyOp59
 70
     1
102
RTVSPropertyOp60
 70
     1
102
RTVSPropertyOp61
 70
     1
102
RTVSPropertyOp62
 70
     1
  0
XRECORD
  5
24A8
102
{ACAD_REACTORS
330
24A7
102
}
330
24A7
100
AcDbXrecord
280
     1
102
RTVSPost2010Prop28
280
     0
102
RTVSPost2010PropOp28
 70
     0
102
RTVSPost2010Prop29
280
     1
102
RTVSPost2010PropOp29
 70
     0
102
RTVSPost2010Prop30
280
     1
102
RTVSPost2010PropOp30
 70
     0
102
RTVSPost2010Prop31
280
     0
102
RTVSPost2010PropOp31
 70
     0
102
RTVSPost2010Prop32
280
     0
102
RTVSPost2010PropOp32
 70
     0
102
RTVSPost2010Prop33
280
     0
102
RTVSPost2010PropOp33
 70
     0
102
RTVSPost2010Prop34
280
     0
102
RTVSPost2010PropOp34
 70
     0
102
RTVSPost2010Prop35
280
     0
102
RTVSPost2010PropOp35
 70
     0
102
RTVSPost2010Prop36
280
     0
102
RTVSPost2010PropOp36
 70
     0
102
RTVSPost2010Prop37
 90
       50
102
RTVSPost2010PropOp37
 70
     0
102
RTVSPost2010Prop38
140
0.0
102
RTVSPost2010PropOp38
 70
     0
102
RTVSPost2010Prop39
140
1.0
102
RTVSPost2010PropOp39
 70
     0
102
RTVSPost2010Prop40
 90
        0
102
RTVSPost2010PropOp40
 70
     0
102
RTVSPost2010Prop41ColorIndex
 90
       18
102
RTVSPost2010Prop41ColorRGB
 90
        0
102
RTVSPost2010PropOp41
 70
     0
102
RTVSPost2010Prop42
 90
       50
102
RTVSPost2010PropOp42
 70
     0
102
RTVSPost2010Prop43
 90
        3
102
RTVSPost2010PropOp43
 70
     0
102
RTVSPost2010Prop44ColorIndex
 90
        5
102
RTVSPost2010Prop44ColorRGB
 90
      255
102
RTVSPost2010PropOp44
 70
     0
102
RTVSPost2010Prop45
280
     0
102
RTVSPost2010PropOp45
 70
     0
102
RTVSPost2010Prop46
 90
       50
102
RTVSPost2010PropOp46
 70
     0
102
RTVSPost2010Prop47
 90
       50
102
RTVSPost2010PropOp47
 70
     0
102
RTVSPost2010Prop48
 90
       50
102
RTVSPost2010PropOp48
 70
     0
102
RTVSPost2010Prop49
280
     0
102
RTVSPost2010PropOp49
 70
     0
102
RTVSPost2010Prop50
 90
       50
102
RTVSPost2010PropOp50
 70
     0
102
RTVSPost2010Prop51ColorIndex
 90
      256
102
RTVSPost2010Prop51ColorRGB
 90
-16777216
102
RTVSPost2010PropOp51
 70
     0
102
RTVSPost2010Prop52
140
1.0
102
RTVSPost2010PropOp52
 70
     0
102
RTVSPost2010Prop53
 90
        2
102
RTVSPost2010PropOp53
 70
     0
102
RTVSPost2010Prop54
  1
strokes_ogs.tif
102
RTVSPost2010PropOp54
 70
     0
102
RTVSPost2010Prop55
280
     0
102
RTVSPost2010PropOp55
 70
     0
102
RTVSPost2010Prop56
140
1.0
102
RTVSPost2010PropOp56
 70
     0
102
RTVSPost2010Prop57
140
1.0
102
RTVSPost2010PropOp57
 70
     0
102
RTVSPropertyOp0
 70
     0
102
RTVSPropertyOp1
 70
     0
102
RTVSPropertyOp2
 70
     0
102
RTVSPropertyOp3
 70
     0
102
RTVSPropertyOp4
 70
     0
102
RTVSPropertyOp5
 70
     0
102
RTVSPropertyOp6
 70
     0
102
RTVSPropertyOp7
 70
     0
102
RTVSPropertyOp8
 70
     0
102
RTVSPropertyOp9
 70
     0
102
RTVSPropertyOp10
 70
     0
102
RTVSPropertyOp11
 70
     0
102
RTVSPropertyOp12
 70
     0
102
RTVSPropertyOp13
 70
     0
102
RTVSPropertyOp14
 70
     2
102
RTVSPropertyOp15
 70
     0
102
RTVSPropertyOp16
 70
     0
102
RTVSPropertyOp17
 70
     0
102
RTVSPropertyOp18
 70
     0
102
RTVSPropertyOp19
 70
     0
102
RTVSPropertyOp20
 70
     0
102
RTVSPropertyOp21
 70
     0
102
RTVSPropertyOp22
 70
     0
102
RTVSPropertyOp23
 70
     0
102
RTVSPropertyOp24
 70
     0
102
RTVSPropertyOp25
 70
     0
102
RTVSPropertyOp26
 70
     0
102
RTVSPropertyOp27
 70
     0
102
RTVSPropertyOp28
 70
     0
102
RTVSPropertyOp29
 70
     0
102
RTVSPropertyOp30
 70
     0
102
RTVSPropertyOp31
 70
     0
102
RTVSPropertyOp32
 70
     0
102
RTVSPropertyOp33
 70
     0
102
RTVSPropertyOp34
 70
     0
102
RTVSPropertyOp35
 70
     0
102
RTVSPropertyOp36
 70
     0
102
RTVSPropertyOp37
 70
     0
102
RTVSPropertyOp38
 70
     0
102
RTVSPropertyOp39
 70
     0
102
RTVSPropertyOp40
 70
     0
102
RTVSPropertyOp41
 70
     0
102
RTVSPropertyOp42
 70
     0
102
RTVSPropertyOp43
 70
     0
102
RTVSPropertyOp44
 70
     0
102
RTVSPropertyOp45
 70
     0
102
RTVSPropertyOp46
 70
     0
102
RTVSPropertyOp47
 70
     0
102
RTVSPropertyOp48
 70
     0
102
RTVSPropertyOp49
 70
     0
102
RTVSPropertyOp50
 70
     0
102
RTVSPropertyOp51
 70
     0
102
RTVSPropertyOp52
 70
     0
102
RTVSPropertyOp53
 70
     0
102
RTVSPropertyOp54
 70
     0
102
RTVSPropertyOp55
 70
     0
102
RTVSPropertyOp56
 70
     0
102
RTVSPropertyOp57
 70
     0
102
RTVSPropertyOp58
 70
     0
102
RTVSPropertyOp59
 70
     0
102
RTVSPropertyOp60
 70
     0
102
RTVSPropertyOp61
 70
     0
102
RTVSPropertyOp62
 70
     0
  0
XRECORD
  5
2494
102
{ACAD_REACTORS
330
2493
102
}
330
2493
100
AcDbXrecord
280
     1
102
RTVSPost2010Prop28
280
     0
102
RTVSPost2010PropOp28
 70
     1
102
RTVSPost2010Prop29
280
     1
102
RTVSPost2010PropOp29
 70
     1
102
RTVSPost2010Prop30
280
     1
102
RTVSPost2010PropOp30
 70
     1
102
RTVSPost2010Prop31
280
     0
102
RTVSPost2010PropOp31
 70
     1
102
RTVSPost2010Prop32
280
     0
102
RTVSPost2010PropOp32
 70
     1
102
RTVSPost2010Prop33
280
     0
102
RTVSPost2010PropOp33
 70
     1
102
RTVSPost2010Prop34
280
     0
102
RTVSPost2010PropOp34
 70
     1
102
RTVSPost2010Prop35
280
     0
102
RTVSPost2010PropOp35
 70
     1
102
RTVSPost2010Prop36
280
     0
102
RTVSPost2010PropOp36
 70
     1
102
RTVSPost2010Prop37
 90
       50
102
RTVSPost2010PropOp37
 70
     1
102
RTVSPost2010Prop38
140
0.0
102
RTVSPost2010PropOp38
 70
     1
102
RTVSPost2010Prop39
140
1.0
102
RTVSPost2010PropOp39
 70
     1
102
RTVSPost2010Prop40
 90
        0
102
RTVSPost2010PropOp40
 70
     1
102
RTVSPost2010Prop41ColorIndex
 90
       18
102
RTVSPost2010Prop41ColorRGB
 90
        0
102
RTVSPost2010PropOp41
 70
     1
102
RTVSPost2010Prop42
 90
       50
102
RTVSPost2010PropOp42
 70
     1
102
RTVSPost2010Prop43
 90
        3
102
RTVSPost2010PropOp43
 70
     1
102
RTVSPost2010Prop44ColorIndex
 90
        5
102
RTVSPost2010Prop44ColorRGB
 90
      255
102
RTVSPost2010PropOp44
 70
     1
102
RTVSPost2010Prop45
280
     0
102
RTVSPost2010PropOp45
 70
     1
102
RTVSPost2010Prop46
 90
       50
102
RTVSPost2010PropOp46
 70
     1
102
RTVSPost2010Prop47
 90
       50
102
RTVSPost2010PropOp47
 70
     1
102
RTVSPost2010Prop48
 90
       50
102
RTVSPost2010PropOp48
 70
     1
102
RTVSPost2010Prop49
280
     0
102
RTVSPost2010PropOp49
 70
     1
102
RTVSPost2010Prop50
 90
       50
102
RTVSPost2010PropOp50
 70
     1
102
RTVSPost2010Prop51ColorIndex
 90
      256
102
RTVSPost2010Prop51ColorRGB
 90
-16777216
102
RTVSPost2010PropOp51
 70
     0
102
RTVSPost2010Prop52
140
1.0
102
RTVSPost2010PropOp52
 70
     0
102
RTVSPost2010Prop53
 90
        2
102
RTVSPost2010PropOp53
 70
     1
102
RTVSPost2010Prop54
  1
strokes_ogs.tif
102
RTVSPost2010PropOp54
 70
     1
102
RTVSPost2010Prop55
280
     0
102
RTVSPost2010PropOp55
 70
     1
102
RTVSPost2010Prop56
140
1.0
102
RTVSPost2010PropOp56
 70
     1
102
RTVSPost2010Prop57
140
1.0
102
RTVSPost2010PropOp57
 70
     1
102
RTVSPropertyOp0
 70
     1
102
RTVSPropertyOp1
 70
     1
102
RTVSPropertyOp2
 70
     1
102
RTVSPropertyOp3
 70
     1
102
RTVSPropertyOp4
 70
     1
102
RTVSPropertyOp5
 70
     1
102
RTVSPropertyOp6
 70
     1
102
RTVSPropertyOp7
 70
     1
102
RTVSPropertyOp8
 70
     1
102
RTVSPropertyOp9
 70
     1
102
RTVSPropertyOp10
 70
     1
102
RTVSPropertyOp11
 70
     1
102
RTVSPropertyOp12
 70
     1
102
RTVSPropertyOp13
 70
     1
102
RTVSPropertyOp14
 70
     1
102
RTVSPropertyOp15
 70
     1
102
RTVSPropertyOp16
 70
     1
102
RTVSPropertyOp17
 70
     1
102
RTVSPropertyOp18
 70
     1
102
RTVSPropertyOp19
 70
     1
102
RTVSPropertyOp20
 70
     1
102
RTVSPropertyOp21
 70
     1
102
RTVSPropertyOp22
 70
     1
102
RTVSPropertyOp23
 70
     1
102
RTVSPropertyOp24
 70
     1
102
RTVSPropertyOp25
 70
     1
102
RTVSPropertyOp26
 70
     1
102
RTVSPropertyOp27
 70
     1
102
RTVSPropertyOp28
 70
     1
102
RTVSPropertyOp29
 70
     1
102
RTVSPropertyOp30
 70
     1
102
RTVSPropertyOp31
 70
     1
102
RTVSPropertyOp32
 70
     1
102
RTVSPropertyOp33
 70
     1
102
RTVSPropertyOp34
 70
     1
102
RTVSPropertyOp35
 70
     1
102
RTVSPropertyOp36
 70
     1
102
RTVSPropertyOp37
 70
     1
102
RTVSPropertyOp38
 70
     1
102
RTVSPropertyOp39
 70
     1
102
RTVSPropertyOp40
 70
     1
102
RTVSPropertyOp41
 70
     1
102
RTVSPropertyOp42
 70
     1
102
RTVSPropertyOp43
 70
     1
102
RTVSPropertyOp44
 70
     1
102
RTVSPropertyOp45
 70
     1
102
RTVSPropertyOp46
 70
     1
102
RTVSPropertyOp47
 70
     1
102
RTVSPropertyOp48
 70
     1
102
RTVSPropertyOp49
 70
     1
102
RTVSPropertyOp50
 70
     1
102
RTVSPropertyOp51
 70
     0
102
RTVSPropertyOp52
 70
     0
102
RTVSPropertyOp53
 70
     1
102
RTVSPropertyOp54
 70
     1
102
RTVSPropertyOp55
 70
     1
102
RTVSPropertyOp56
 70
     1
102
RTVSPropertyOp57
 70
     1
102
RTVSPropertyOp58
 70
     1
102
RTVSPropertyOp59
 70
     1
102
RTVSPropertyOp60
 70
     1
102
RTVSPropertyOp61
 70
     1
102
RTVSPropertyOp62
 70
     1
  0
XRECORD
  5
24AA
102
{ACAD_REACTORS
330
24A9
102
}
330
24A9
100
AcDbXrecord
280
     1
102
RTVSPost2010Prop28
280
     0
102
RTVSPost2010PropOp28
 70
     0
102
RTVSPost2010Prop29
280
     1
102
RTVSPost2010PropOp29
 70
     0
102
RTVSPost2010Prop30
280
     1
102
RTVSPost2010PropOp30
 70
     0
102
RTVSPost2010Prop31
280
     0
102
RTVSPost2010PropOp31
 70
     0
102
RTVSPost2010Prop32
280
     0
102
RTVSPost2010PropOp32
 70
     0
102
RTVSPost2010Prop33
280
     0
102
RTVSPost2010PropOp33
 70
     0
102
RTVSPost2010Prop34
280
     0
102
RTVSPost2010PropOp34
 70
     0
102
RTVSPost2010Prop35
280
     0
102
RTVSPost2010PropOp35
 70
     0
102
RTVSPost2010Prop36
280
     0
102
RTVSPost2010PropOp36
 70
     0
102
RTVSPost2010Prop37
 90
       50
102
RTVSPost2010PropOp37
 70
     0
102
RTVSPost2010Prop38
140
0.0
102
RTVSPost2010PropOp38
 70
     0
102
RTVSPost2010Prop39
140
1.0
102
RTVSPost2010PropOp39
 70
     0
102
RTVSPost2010Prop40
 90
        0
102
RTVSPost2010PropOp40
 70
     0
102
RTVSPost2010Prop41ColorIndex
 90
       18
102
RTVSPost2010Prop41ColorRGB
 90
        0
102
RTVSPost2010PropOp41
 70
     0
102
RTVSPost2010Prop42
 90
       50
102
RTVSPost2010PropOp42
 70
     0
102
RTVSPost2010Prop43
 90
        3
102
RTVSPost2010PropOp43
 70
     0
102
RTVSPost2010Prop44ColorIndex
 90
        5
102
RTVSPost2010Prop44ColorRGB
 90
      255
102
RTVSPost2010PropOp44
 70
     0
102
RTVSPost2010Prop45
280
     0
102
RTVSPost2010PropOp45
 70
     0
102
RTVSPost2010Prop46
 90
       50
102
RTVSPost2010PropOp46
 70
     0
102
RTVSPost2010Prop47
 90
       50
102
RTVSPost2010PropOp47
 70
     0
102
RTVSPost2010Prop48
 90
       50
102
RTVSPost2010PropOp48
 70
     0
102
RTVSPost2010Prop49
280
     0
102
RTVSPost2010PropOp49
 70
     0
102
RTVSPost2010Prop50
 90
       50
102
RTVSPost2010PropOp50
 70
     0
102
RTVSPost2010Prop51ColorIndex
 90
      256
102
RTVSPost2010Prop51ColorRGB
 90
-16777216
102
RTVSPost2010PropOp51
 70
     0
102
RTVSPost2010Prop52
140
1.0
102
RTVSPost2010PropOp52
 70
     0
102
RTVSPost2010Prop53
 90
        2
102
RTVSPost2010PropOp53
 70
     0
102
RTVSPost2010Prop54
  1
strokes_ogs.tif
102
RTVSPost2010PropOp54
 70
     0
102
RTVSPost2010Prop55
280
     0
102
RTVSPost2010PropOp55
 70
     0
102
RTVSPost2010Prop56
140
1.0
102
RTVSPost2010PropOp56
 70
     0
102
RTVSPost2010Prop57
140
1.0
102
RTVSPost2010PropOp57
 70
     0
102
RTVSPropertyOp0
 70
     0
102
RTVSPropertyOp1
 70
     0
102
RTVSPropertyOp2
 70
     0
102
RTVSPropertyOp3
 70
     0
102
RTVSPropertyOp4
 70
     0
102
RTVSPropertyOp5
 70
     0
102
RTVSPropertyOp6
 70
     0
102
RTVSPropertyOp7
 70
     0
102
RTVSPropertyOp8
 70
     0
102
RTVSPropertyOp9
 70
     0
102
RTVSPropertyOp10
 70
     0
102
RTVSPropertyOp11
 70
     0
102
RTVSPropertyOp12
 70
     0
102
RTVSPropertyOp13
 70
     0
102
RTVSPropertyOp14
 70
     2
102
RTVSPropertyOp15
 70
     0
102
RTVSPropertyOp16
 70
     0
102
RTVSPropertyOp17
 70
     0
102
RTVSPropertyOp18
 70
     0
102
RTVSPropertyOp19
 70
     0
102
RTVSPropertyOp20
 70
     0
102
RTVSPropertyOp21
 70
     0
102
RTVSPropertyOp22
 70
     0
102
RTVSPropertyOp23
 70
     0
102
RTVSPropertyOp24
 70
     0
102
RTVSPropertyOp25
 70
     0
102
RTVSPropertyOp26
 70
     0
102
RTVSPropertyOp27
 70
     0
102
RTVSPropertyOp28
 70
     0
102
RTVSPropertyOp29
 70
     0
102
RTVSPropertyOp30
 70
     0
102
RTVSPropertyOp31
 70
     0
102
RTVSPropertyOp32
 70
     0
102
RTVSPropertyOp33
 70
     0
102
RTVSPropertyOp34
 70
     0
102
RTVSPropertyOp35
 70
     0
102
RTVSPropertyOp36
 70
     0
102
RTVSPropertyOp37
 70
     0
102
RTVSPropertyOp38
 70
     0
102
RTVSPropertyOp39
 70
     0
102
RTVSPropertyOp40
 70
     0
102
RTVSPropertyOp41
 70
     0
102
RTVSPropertyOp42
 70
     0
102
RTVSPropertyOp43
 70
     0
102
RTVSPropertyOp44
 70
     0
102
RTVSPropertyOp45
 70
     0
102
RTVSPropertyOp46
 70
     0
102
RTVSPropertyOp47
 70
     0
102
RTVSPropertyOp48
 70
     0
102
RTVSPropertyOp49
 70
     0
102
RTVSPropertyOp50
 70
     0
102
RTVSPropertyOp51
 70
     0
102
RTVSPropertyOp52
 70
     0
102
RTVSPropertyOp53
 70
     0
102
RTVSPropertyOp54
 70
     0
102
RTVSPropertyOp55
 70
     0
102
RTVSPropertyOp56
 70
     0
102
RTVSPropertyOp57
 70
     0
102
RTVSPropertyOp58
 70
     0
102
RTVSPropertyOp59
 70
     0
102
RTVSPropertyOp60
 70
     0
102
RTVSPropertyOp61
 70
     0
102
RTVSPropertyOp62
 70
     0
  0
XRECORD
  5
248C
102
{ACAD_REACTORS
330
248B
102
}
330
248B
100
AcDbXrecord
280
     1
102
RTVSPost2010Prop28
280
     0
102
RTVSPost2010PropOp28
 70
     1
102
RTVSPost2010Prop29
280
     1
102
RTVSPost2010PropOp29
 70
     1
102
RTVSPost2010Prop30
280
     1
102
RTVSPost2010PropOp30
 70
     1
102
RTVSPost2010Prop31
280
     0
102
RTVSPost2010PropOp31
 70
     1
102
RTVSPost2010Prop32
280
     0
102
RTVSPost2010PropOp32
 70
     1
102
RTVSPost2010Prop33
280
     0
102
RTVSPost2010PropOp33
 70
     1
102
RTVSPost2010Prop34
280
     0
102
RTVSPost2010PropOp34
 70
     1
102
RTVSPost2010Prop35
280
     0
102
RTVSPost2010PropOp35
 70
     1
102
RTVSPost2010Prop36
280
     0
102
RTVSPost2010PropOp36
 70
     1
102
RTVSPost2010Prop37
 90
       50
102
RTVSPost2010PropOp37
 70
     1
102
RTVSPost2010Prop38
140
0.0
102
RTVSPost2010PropOp38
 70
     1
102
RTVSPost2010Prop39
140
1.0
102
RTVSPost2010PropOp39
 70
     1
102
RTVSPost2010Prop40
 90
        0
102
RTVSPost2010PropOp40
 70
     1
102
RTVSPost2010Prop41ColorIndex
 90
       18
102
RTVSPost2010Prop41ColorRGB
 90
        0
102
RTVSPost2010PropOp41
 70
     1
102
RTVSPost2010Prop42
 90
       50
102
RTVSPost2010PropOp42
 70
     1
102
RTVSPost2010Prop43
 90
        3
102
RTVSPost2010PropOp43
 70
     1
102
RTVSPost2010Prop44ColorIndex
 90
        5
102
RTVSPost2010Prop44ColorRGB
 90
      255
102
RTVSPost2010PropOp44
 70
     1
102
RTVSPost2010Prop45
280
     0
102
RTVSPost2010PropOp45
 70
     1
102
RTVSPost2010Prop46
 90
       50
102
RTVSPost2010PropOp46
 70
     1
102
RTVSPost2010Prop47
 90
       50
102
RTVSPost2010PropOp47
 70
     1
102
RTVSPost2010Prop48
 90
       50
102
RTVSPost2010PropOp48
 70
     1
102
RTVSPost2010Prop49
280
     0
102
RTVSPost2010PropOp49
 70
     1
102
RTVSPost2010Prop50
 90
       50
102
RTVSPost2010PropOp50
 70
     1
102
RTVSPost2010Prop51ColorIndex
 90
      256
102
RTVSPost2010Prop51ColorRGB
 90
-16777216
102
RTVSPost2010PropOp51
 70
     0
102
RTVSPost2010Prop52
140
1.0
102
RTVSPost2010PropOp52
 70
     0
102
RTVSPost2010Prop53
 90
        2
102
RTVSPost2010PropOp53
 70
     1
102
RTVSPost2010Prop54
  1
strokes_ogs.tif
102
RTVSPost2010PropOp54
 70
     1
102
RTVSPost2010Prop55
280
     0
102
RTVSPost2010PropOp55
 70
     1
102
RTVSPost2010Prop56
140
1.0
102
RTVSPost2010PropOp56
 70
     1
102
RTVSPost2010Prop57
140
1.0
102
RTVSPost2010PropOp57
 70
     1
102
RTVSPropertyOp0
 70
     1
102
RTVSPropertyOp1
 70
     1
102
RTVSPropertyOp2
 70
     1
102
RTVSPropertyOp3
 70
     1
102
RTVSPropertyOp4
 70
     1
102
RTVSPropertyOp5
 70
     1
102
RTVSPropertyOp6
 70
     1
102
RTVSPropertyOp7
 70
     1
102
RTVSPropertyOp8
 70
     1
102
RTVSPropertyOp9
 70
     1
102
RTVSPropertyOp10
 70
     1
102
RTVSPropertyOp11
 70
     1
102
RTVSPropertyOp12
 70
     1
102
RTVSPropertyOp13
 70
     1
102
RTVSPropertyOp14
 70
     1
102
RTVSPropertyOp15
 70
     1
102
RTVSPropertyOp16
 70
     1
102
RTVSPropertyOp17
 70
     1
102
RTVSPropertyOp18
 70
     1
102
RTVSPropertyOp19
 70
     1
102
RTVSPropertyOp20
 70
     1
102
RTVSPropertyOp21
 70
     1
102
RTVSPropertyOp22
 70
     1
102
RTVSPropertyOp23
 70
     1
102
RTVSPropertyOp24
 70
     1
102
RTVSPropertyOp25
 70
     1
102
RTVSPropertyOp26
 70
     1
102
RTVSPropertyOp27
 70
     1
102
RTVSPropertyOp28
 70
     1
102
RTVSPropertyOp29
 70
     1
102
RTVSPropertyOp30
 70
     1
102
RTVSPropertyOp31
 70
     1
102
RTVSPropertyOp32
 70
     1
102
RTVSPropertyOp33
 70
     1
102
RTVSPropertyOp34
 70
     1
102
RTVSPropertyOp35
 70
     1
102
RTVSPropertyOp36
 70
     1
102
RTVSPropertyOp37
 70
     1
102
RTVSPropertyOp38
 70
     1
102
RTVSPropertyOp39
 70
     1
102
RTVSPropertyOp40
 70
     1
102
RTVSPropertyOp41
 70
     1
102
RTVSPropertyOp42
 70
     1
102
RTVSPropertyOp43
 70
     1
102
RTVSPropertyOp44
 70
     1
102
RTVSPropertyOp45
 70
     1
102
RTVSPropertyOp46
 70
     1
102
RTVSPropertyOp47
 70
     1
102
RTVSPropertyOp48
 70
     1
102
RTVSPropertyOp49
 70
     1
102
RTVSPropertyOp50
 70
     1
102
RTVSPropertyOp51
 70
     0
102
RTVSPropertyOp52
 70
     0
102
RTVSPropertyOp53
 70
     1
102
RTVSPropertyOp54
 70
     1
102
RTVSPropertyOp55
 70
     1
102
RTVSPropertyOp56
 70
     1
102
RTVSPropertyOp57
 70
     1
102
RTVSPropertyOp58
 70
     1
102
RTVSPropertyOp59
 70
     1
102
RTVSPropertyOp60
 70
     1
102
RTVSPropertyOp61
 70
     1
102
RTVSPropertyOp62
 70
     1
  0
XRECORD
  5
24A6
102
{ACAD_REACTORS
330
24A5
102
}
330
24A5
100
AcDbXrecord
280
     1
102
RTVSPost2010Prop28
280
     0
102
RTVSPost2010PropOp28
 70
     1
102
RTVSPost2010Prop29
280
     1
102
RTVSPost2010PropOp29
 70
     1
102
RTVSPost2010Prop30
280
     1
102
RTVSPost2010PropOp30
 70
     1
102
RTVSPost2010Prop31
280
     0
102
RTVSPost2010PropOp31
 70
     1
102
RTVSPost2010Prop32
280
     0
102
RTVSPost2010PropOp32
 70
     1
102
RTVSPost2010Prop33
280
     0
102
RTVSPost2010PropOp33
 70
     1
102
RTVSPost2010Prop34
280
     0
102
RTVSPost2010PropOp34
 70
     1
102
RTVSPost2010Prop35
280
     0
102
RTVSPost2010PropOp35
 70
     1
102
RTVSPost2010Prop36
280
     0
102
RTVSPost2010PropOp36
 70
     1
102
RTVSPost2010Prop37
 90
       50
102
RTVSPost2010PropOp37
 70
     1
102
RTVSPost2010Prop38
140
0.0
102
RTVSPost2010PropOp38
 70
     1
102
RTVSPost2010Prop39
140
1.0
102
RTVSPost2010PropOp39
 70
     1
102
RTVSPost2010Prop40
 90
        0
102
RTVSPost2010PropOp40
 70
     1
102
RTVSPost2010Prop41ColorIndex
 90
       18
102
RTVSPost2010Prop41ColorRGB
 90
        0
102
RTVSPost2010PropOp41
 70
     1
102
RTVSPost2010Prop42
 90
       50
102
RTVSPost2010PropOp42
 70
     1
102
RTVSPost2010Prop43
 90
        3
102
RTVSPost2010PropOp43
 70
     1
102
RTVSPost2010Prop44ColorIndex
 90
        5
102
RTVSPost2010Prop44ColorRGB
 90
      255
102
RTVSPost2010PropOp44
 70
     1
102
RTVSPost2010Prop45
280
     0
102
RTVSPost2010PropOp45
 70
     1
102
RTVSPost2010Prop46
 90
       50
102
RTVSPost2010PropOp46
 70
     1
102
RTVSPost2010Prop47
 90
       50
102
RTVSPost2010PropOp47
 70
     1
102
RTVSPost2010Prop48
 90
       50
102
RTVSPost2010PropOp48
 70
     1
102
RTVSPost2010Prop49
280
     0
102
RTVSPost2010PropOp49
 70
     1
102
RTVSPost2010Prop50
 90
       50
102
RTVSPost2010PropOp50
 70
     1
102
RTVSPost2010Prop51ColorIndex
 90
      256
102
RTVSPost2010Prop51ColorRGB
 90
-16777216
102
RTVSPost2010PropOp51
 70
     0
102
RTVSPost2010Prop52
140
1.0
102
RTVSPost2010PropOp52
 70
     0
102
RTVSPost2010Prop53
 90
        2
102
RTVSPost2010PropOp53
 70
     1
102
RTVSPost2010Prop54
  1
strokes_ogs.tif
102
RTVSPost2010PropOp54
 70
     1
102
RTVSPost2010Prop55
280
     0
102
RTVSPost2010PropOp55
 70
     1
102
RTVSPost2010Prop56
140
1.0
102
RTVSPost2010PropOp56
 70
     1
102
RTVSPost2010Prop57
140
1.0
102
RTVSPost2010PropOp57
 70
     1
102
RTVSPropertyOp0
 70
     1
102
RTVSPropertyOp1
 70
     1
102
RTVSPropertyOp2
 70
     1
102
RTVSPropertyOp3
 70
     1
102
RTVSPropertyOp4
 70
     1
102
RTVSPropertyOp5
 70
     1
102
RTVSPropertyOp6
 70
     1
102
RTVSPropertyOp7
 70
     1
102
RTVSPropertyOp8
 70
     1
102
RTVSPropertyOp9
 70
     1
102
RTVSPropertyOp10
 70
     1
102
RTVSPropertyOp11
 70
     1
102
RTVSPropertyOp12
 70
     1
102
RTVSPropertyOp13
 70
     1
102
RTVSPropertyOp14
 70
     1
102
RTVSPropertyOp15
 70
     1
102
RTVSPropertyOp16
 70
     1
102
RTVSPropertyOp17
 70
     1
102
RTVSPropertyOp18
 70
     1
102
RTVSPropertyOp19
 70
     1
102
RTVSPropertyOp20
 70
     1
102
RTVSPropertyOp21
 70
     1
102
RTVSPropertyOp22
 70
     1
102
RTVSPropertyOp23
 70
     1
102
RTVSPropertyOp24
 70
     1
102
RTVSPropertyOp25
 70
     1
102
RTVSPropertyOp26
 70
     1
102
RTVSPropertyOp27
 70
     1
102
RTVSPropertyOp28
 70
     1
102
RTVSPropertyOp29
 70
     1
102
RTVSPropertyOp30
 70
     1
102
RTVSPropertyOp31
 70
     1
102
RTVSPropertyOp32
 70
     1
102
RTVSPropertyOp33
 70
     1
102
RTVSPropertyOp34
 70
     1
102
RTVSPropertyOp35
 70
     1
102
RTVSPropertyOp36
 70
     1
102
RTVSPropertyOp37
 70
     1
102
RTVSPropertyOp38
 70
     1
102
RTVSPropertyOp39
 70
     1
102
RTVSPropertyOp40
 70
     1
102
RTVSPropertyOp41
 70
     1
102
RTVSPropertyOp42
 70
     1
102
RTVSPropertyOp43
 70
     1
102
RTVSPropertyOp44
 70
     1
102
RTVSPropertyOp45
 70
     1
102
RTVSPropertyOp46
 70
     1
102
RTVSPropertyOp47
 70
     1
102
RTVSPropertyOp48
 70
     1
102
RTVSPropertyOp49
 70
     1
102
RTVSPropertyOp50
 70
     1
102
RTVSPropertyOp51
 70
     0
102
RTVSPropertyOp52
 70
     0
102
RTVSPropertyOp53
 70
     1
102
RTVSPropertyOp54
 70
     1
102
RTVSPropertyOp55
 70
     1
102
RTVSPropertyOp56
 70
     1
102
RTVSPropertyOp57
 70
     1
102
RTVSPropertyOp58
 70
     1
102
RTVSPropertyOp59
 70
     1
102
RTVSPropertyOp60
 70
     1
102
RTVSPropertyOp61
 70
     1
102
RTVSPropertyOp62
 70
     1
  0
XRECORD
  5
24A4
102
{ACAD_REACTORS
330
24A3
102
}
330
24A3
100
AcDbXrecord
280
     1
102
RTVSPost2010Prop28
280
     0
102
RTVSPost2010PropOp28
 70
     1
102
RTVSPost2010Prop29
280
     1
102
RTVSPost2010PropOp29
 70
     1
102
RTVSPost2010Prop30
280
     1
102
RTVSPost2010PropOp30
 70
     1
102
RTVSPost2010Prop31
280
     0
102
RTVSPost2010PropOp31
 70
     1
102
RTVSPost2010Prop32
280
     0
102
RTVSPost2010PropOp32
 70
     1
102
RTVSPost2010Prop33
280
     0
102
RTVSPost2010PropOp33
 70
     1
102
RTVSPost2010Prop34
280
     0
102
RTVSPost2010PropOp34
 70
     1
102
RTVSPost2010Prop35
280
     0
102
RTVSPost2010PropOp35
 70
     1
102
RTVSPost2010Prop36
280
     0
102
RTVSPost2010PropOp36
 70
     1
102
RTVSPost2010Prop37
 90
       50
102
RTVSPost2010PropOp37
 70
     1
102
RTVSPost2010Prop38
140
0.0
102
RTVSPost2010PropOp38
 70
     1
102
RTVSPost2010Prop39
140
1.0
102
RTVSPost2010PropOp39
 70
     1
102
RTVSPost2010Prop40
 90
        0
102
RTVSPost2010PropOp40
 70
     1
102
RTVSPost2010Prop41ColorIndex
 90
       18
102
RTVSPost2010Prop41ColorRGB
 90
        0
102
RTVSPost2010PropOp41
 70
     1
102
RTVSPost2010Prop42
 90
       50
102
RTVSPost2010PropOp42
 70
     1
102
RTVSPost2010Prop43
 90
        3
102
RTVSPost2010PropOp43
 70
     1
102
RTVSPost2010Prop44ColorIndex
 90
        5
102
RTVSPost2010Prop44ColorRGB
 90
      255
102
RTVSPost2010PropOp44
 70
     1
102
RTVSPost2010Prop45
280
     0
102
RTVSPost2010PropOp45
 70
     1
102
RTVSPost2010Prop46
 90
       50
102
RTVSPost2010PropOp46
 70
     1
102
RTVSPost2010Prop47
 90
       50
102
RTVSPost2010PropOp47
 70
     1
102
RTVSPost2010Prop48
 90
       50
102
RTVSPost2010PropOp48
 70
     1
102
RTVSPost2010Prop49
280
     0
102
RTVSPost2010PropOp49
 70
     1
102
RTVSPost2010Prop50
 90
       50
102
RTVSPost2010PropOp50
 70
     1
102
RTVSPost2010Prop51ColorIndex
 90
      256
102
RTVSPost2010Prop51ColorRGB
 90
-16777216
102
RTVSPost2010PropOp51
 70
     0
102
RTVSPost2010Prop52
140
1.0
102
RTVSPost2010PropOp52
 70
     0
102
RTVSPost2010Prop53
 90
        2
102
RTVSPost2010PropOp53
 70
     1
102
RTVSPost2010Prop54
  1
strokes_ogs.tif
102
RTVSPost2010PropOp54
 70
     1
102
RTVSPost2010Prop55
280
     0
102
RTVSPost2010PropOp55
 70
     1
102
RTVSPost2010Prop56
140
1.0
102
RTVSPost2010PropOp56
 70
     1
102
RTVSPost2010Prop57
140
1.0
102
RTVSPost2010PropOp57
 70
     1
102
RTVSPropertyOp0
 70
     1
102
RTVSPropertyOp1
 70
     1
102
RTVSPropertyOp2
 70
     1
102
RTVSPropertyOp3
 70
     1
102
RTVSPropertyOp4
 70
     1
102
RTVSPropertyOp5
 70
     1
102
RTVSPropertyOp6
 70
     1
102
RTVSPropertyOp7
 70
     1
102
RTVSPropertyOp8
 70
     1
102
RTVSPropertyOp9
 70
     1
102
RTVSPropertyOp10
 70
     1
102
RTVSPropertyOp11
 70
     1
102
RTVSPropertyOp12
 70
     1
102
RTVSPropertyOp13
 70
     1
102
RTVSPropertyOp14
 70
     1
102
RTVSPropertyOp15
 70
     1
102
RTVSPropertyOp16
 70
     1
102
RTVSPropertyOp17
 70
     1
102
RTVSPropertyOp18
 70
     1
102
RTVSPropertyOp19
 70
     1
102
RTVSPropertyOp20
 70
     1
102
RTVSPropertyOp21
 70
     1
102
RTVSPropertyOp22
 70
     1
102
RTVSPropertyOp23
 70
     1
102
RTVSPropertyOp24
 70
     1
102
RTVSPropertyOp25
 70
     1
102
RTVSPropertyOp26
 70
     1
102
RTVSPropertyOp27
 70
     1
102
RTVSPropertyOp28
 70
     1
102
RTVSPropertyOp29
 70
     1
102
RTVSPropertyOp30
 70
     1
102
RTVSPropertyOp31
 70
     1
102
RTVSPropertyOp32
 70
     1
102
RTVSPropertyOp33
 70
     1
102
RTVSPropertyOp34
 70
     1
102
RTVSPropertyOp35
 70
     1
102
RTVSPropertyOp36
 70
     1
102
RTVSPropertyOp37
 70
     1
102
RTVSPropertyOp38
 70
     1
102
RTVSPropertyOp39
 70
     1
102
RTVSPropertyOp40
 70
     1
102
RTVSPropertyOp41
 70
     1
102
RTVSPropertyOp42
 70
     1
102
RTVSPropertyOp43
 70
     1
102
RTVSPropertyOp44
 70
     1
102
RTVSPropertyOp45
 70
     1
102
RTVSPropertyOp46
 70
     1
102
RTVSPropertyOp47
 70
     1
102
RTVSPropertyOp48
 70
     1
102
RTVSPropertyOp49
 70
     1
102
RTVSPropertyOp50
 70
     1
102
RTVSPropertyOp51
 70
     0
102
RTVSPropertyOp52
 70
     0
102
RTVSPropertyOp53
 70
     1
102
RTVSPropertyOp54
 70
     1
102
RTVSPropertyOp55
 70
     1
102
RTVSPropertyOp56
 70
     1
102
RTVSPropertyOp57
 70
     1
102
RTVSPropertyOp58
 70
     1
102
RTVSPropertyOp59
 70
     1
102
RTVSPropertyOp60
 70
     1
102
RTVSPropertyOp61
 70
     1
102
RTVSPropertyOp62
 70
     1
  0
XRECORD
  5
249E
102
{ACAD_REACTORS
330
249D
102
}
330
249D
100
AcDbXrecord
280
     1
102
RTVSPost2010Prop28
280
     0
102
RTVSPost2010PropOp28
 70
     1
102
RTVSPost2010Prop29
280
     1
102
RTVSPost2010PropOp29
 70
     1
102
RTVSPost2010Prop30
280
     1
102
RTVSPost2010PropOp30
 70
     1
102
RTVSPost2010Prop31
280
     0
102
RTVSPost2010PropOp31
 70
     1
102
RTVSPost2010Prop32
280
     0
102
RTVSPost2010PropOp32
 70
     1
102
RTVSPost2010Prop33
280
     0
102
RTVSPost2010PropOp33
 70
     1
102
RTVSPost2010Prop34
280
     0
102
RTVSPost2010PropOp34
 70
     1
102
RTVSPost2010Prop35
280
     0
102
RTVSPost2010PropOp35
 70
     1
102
RTVSPost2010Prop36
280
     0
102
RTVSPost2010PropOp36
 70
     1
102
RTVSPost2010Prop37
 90
       50
102
RTVSPost2010PropOp37
 70
     1
102
RTVSPost2010Prop38
140
0.0
102
RTVSPost2010PropOp38
 70
     1
102
RTVSPost2010Prop39
140
1.0
102
RTVSPost2010PropOp39
 70
     1
102
RTVSPost2010Prop40
 90
        0
102
RTVSPost2010PropOp40
 70
     1
102
RTVSPost2010Prop41ColorIndex
 90
       18
102
RTVSPost2010Prop41ColorRGB
 90
        0
102
RTVSPost2010PropOp41
 70
     1
102
RTVSPost2010Prop42
 90
       50
102
RTVSPost2010PropOp42
 70
     1
102
RTVSPost2010Prop43
 90
        3
102
RTVSPost2010PropOp43
 70
     1
102
RTVSPost2010Prop44ColorIndex
 90
        5
102
RTVSPost2010Prop44ColorRGB
 90
      255
102
RTVSPost2010PropOp44
 70
     1
102
RTVSPost2010Prop45
280
     0
102
RTVSPost2010PropOp45
 70
     1
102
RTVSPost2010Prop46
 90
       50
102
RTVSPost2010PropOp46
 70
     1
102
RTVSPost2010Prop47
 90
       50
102
RTVSPost2010PropOp47
 70
     1
102
RTVSPost2010Prop48
 90
       50
102
RTVSPost2010PropOp48
 70
     1
102
RTVSPost2010Prop49
280
     0
102
RTVSPost2010PropOp49
 70
     1
102
RTVSPost2010Prop50
 90
       50
102
RTVSPost2010PropOp50
 70
     1
102
RTVSPost2010Prop51ColorIndex
 90
      256
102
RTVSPost2010Prop51ColorRGB
 90
-16777216
102
RTVSPost2010PropOp51
 70
     0
102
RTVSPost2010Prop52
140
1.0
102
RTVSPost2010PropOp52
 70
     0
102
RTVSPost2010Prop53
 90
        2
102
RTVSPost2010PropOp53
 70
     1
102
RTVSPost2010Prop54
  1
strokes_ogs.tif
102
RTVSPost2010PropOp54
 70
     1
102
RTVSPost2010Prop55
280
     0
102
RTVSPost2010PropOp55
 70
     1
102
RTVSPost2010Prop56
140
1.0
102
RTVSPost2010PropOp56
 70
     1
102
RTVSPost2010Prop57
140
1.0
102
RTVSPost2010PropOp57
 70
     1
102
RTVSPropertyOp0
 70
     1
102
RTVSPropertyOp1
 70
     1
102
RTVSPropertyOp2
 70
     1
102
RTVSPropertyOp3
 70
     1
102
RTVSPropertyOp4
 70
     1
102
RTVSPropertyOp5
 70
     1
102
RTVSPropertyOp6
 70
     1
102
RTVSPropertyOp7
 70
     1
102
RTVSPropertyOp8
 70
     1
102
RTVSPropertyOp9
 70
     1
102
RTVSPropertyOp10
 70
     1
102
RTVSPropertyOp11
 70
     1
102
RTVSPropertyOp12
 70
     1
102
RTVSPropertyOp13
 70
     1
102
RTVSPropertyOp14
 70
     1
102
RTVSPropertyOp15
 70
     1
102
RTVSPropertyOp16
 70
     1
102
RTVSPropertyOp17
 70
     1
102
RTVSPropertyOp18
 70
     1
102
RTVSPropertyOp19
 70
     1
102
RTVSPropertyOp20
 70
     1
102
RTVSPropertyOp21
 70
     1
102
RTVSPropertyOp22
 70
     1
102
RTVSPropertyOp23
 70
     1
102
RTVSPropertyOp24
 70
     1
102
RTVSPropertyOp25
 70
     1
102
RTVSPropertyOp26
 70
     1
102
RTVSPropertyOp27
 70
     1
102
RTVSPropertyOp28
 70
     1
102
RTVSPropertyOp29
 70
     1
102
RTVSPropertyOp30
 70
     1
102
RTVSPropertyOp31
 70
     1
102
RTVSPropertyOp32
 70
     1
102
RTVSPropertyOp33
 70
     1
102
RTVSPropertyOp34
 70
     1
102
RTVSPropertyOp35
 70
     1
102
RTVSPropertyOp36
 70
     1
102
RTVSPropertyOp37
 70
     1
102
RTVSPropertyOp38
 70
     1
102
RTVSPropertyOp39
 70
     1
102
RTVSPropertyOp40
 70
     1
102
RTVSPropertyOp41
 70
     1
102
RTVSPropertyOp42
 70
     1
102
RTVSPropertyOp43
 70
     1
102
RTVSPropertyOp44
 70
     1
102
RTVSPropertyOp45
 70
     1
102
RTVSPropertyOp46
 70
     1
102
RTVSPropertyOp47
 70
     1
102
RTVSPropertyOp48
 70
     1
102
RTVSPropertyOp49
 70
     1
102
RTVSPropertyOp50
 70
     1
102
RTVSPropertyOp51
 70
     0
102
RTVSPropertyOp52
 70
     0
102
RTVSPropertyOp53
 70
     1
102
RTVSPropertyOp54
 70
     1
102
RTVSPropertyOp55
 70
     1
102
RTVSPropertyOp56
 70
     1
102
RTVSPropertyOp57
 70
     1
102
RTVSPropertyOp58
 70
     1
102
RTVSPropertyOp59
 70
     1
102
RTVSPropertyOp60
 70
     1
102
RTVSPropertyOp61
 70
     1
102
RTVSPropertyOp62
 70
     1
  0
XRECORD
  5
24A0
102
{ACAD_REACTORS
330
249F
102
}
330
249F
100
AcDbXrecord
280
     1
102
RTVSPost2010Prop28
280
     0
102
RTVSPost2010PropOp28
 70
     1
102
RTVSPost2010Prop29
280
     1
102
RTVSPost2010PropOp29
 70
     1
102
RTVSPost2010Prop30
280
     1
102
RTVSPost2010PropOp30
 70
     1
102
RTVSPost2010Prop31
280
     0
102
RTVSPost2010PropOp31
 70
     1
102
RTVSPost2010Prop32
280
     0
102
RTVSPost2010PropOp32
 70
     1
102
RTVSPost2010Prop33
280
     0
102
RTVSPost2010PropOp33
 70
     1
102
RTVSPost2010Prop34
280
     0
102
RTVSPost2010PropOp34
 70
     1
102
RTVSPost2010Prop35
280
     0
102
RTVSPost2010PropOp35
 70
     1
102
RTVSPost2010Prop36
280
     0
102
RTVSPost2010PropOp36
 70
     1
102
RTVSPost2010Prop37
 90
       50
102
RTVSPost2010PropOp37
 70
     1
102
RTVSPost2010Prop38
140
0.0
102
RTVSPost2010PropOp38
 70
     1
102
RTVSPost2010Prop39
140
1.0
102
RTVSPost2010PropOp39
 70
     1
102
RTVSPost2010Prop40
 90
        0
102
RTVSPost2010PropOp40
 70
     1
102
RTVSPost2010Prop41ColorIndex
 90
       18
102
RTVSPost2010Prop41ColorRGB
 90
        0
102
RTVSPost2010PropOp41
 70
     1
102
RTVSPost2010Prop42
 90
       50
102
RTVSPost2010PropOp42
 70
     1
102
RTVSPost2010Prop43
 90
        3
102
RTVSPost2010PropOp43
 70
     1
102
RTVSPost2010Prop44ColorIndex
 90
        5
102
RTVSPost2010Prop44ColorRGB
 90
      255
102
RTVSPost2010PropOp44
 70
     1
102
RTVSPost2010Prop45
280
     0
102
RTVSPost2010PropOp45
 70
     1
102
RTVSPost2010Prop46
 90
       50
102
RTVSPost2010PropOp46
 70
     1
102
RTVSPost2010Prop47
 90
       50
102
RTVSPost2010PropOp47
 70
     1
102
RTVSPost2010Prop48
 90
       50
102
RTVSPost2010PropOp48
 70
     1
102
RTVSPost2010Prop49
280
     0
102
RTVSPost2010PropOp49
 70
     1
102
RTVSPost2010Prop50
 90
       50
102
RTVSPost2010PropOp50
 70
     1
102
RTVSPost2010Prop51ColorIndex
 90
      256
102
RTVSPost2010Prop51ColorRGB
 90
-16777216
102
RTVSPost2010PropOp51
 70
     0
102
RTVSPost2010Prop52
140
1.0
102
RTVSPost2010PropOp52
 70
     0
102
RTVSPost2010Prop53
 90
        2
102
RTVSPost2010PropOp53
 70
     1
102
RTVSPost2010Prop54
  1
strokes_ogs.tif
102
RTVSPost2010PropOp54
 70
     1
102
RTVSPost2010Prop55
280
     0
102
RTVSPost2010PropOp55
 70
     1
102
RTVSPost2010Prop56
140
1.0
102
RTVSPost2010PropOp56
 70
     1
102
RTVSPost2010Prop57
140
1.0
102
RTVSPost2010PropOp57
 70
     1
102
RTVSPropertyOp0
 70
     1
102
RTVSPropertyOp1
 70
     1
102
RTVSPropertyOp2
 70
     1
102
RTVSPropertyOp3
 70
     1
102
RTVSPropertyOp4
 70
     1
102
RTVSPropertyOp5
 70
     1
102
RTVSPropertyOp6
 70
     1
102
RTVSPropertyOp7
 70
     1
102
RTVSPropertyOp8
 70
     1
102
RTVSPropertyOp9
 70
     1
102
RTVSPropertyOp10
 70
     1
102
RTVSPropertyOp11
 70
     1
102
RTVSPropertyOp12
 70
     1
102
RTVSPropertyOp13
 70
     1
102
RTVSPropertyOp14
 70
     1
102
RTVSPropertyOp15
 70
     1
102
RTVSPropertyOp16
 70
     1
102
RTVSPropertyOp17
 70
     1
102
RTVSPropertyOp18
 70
     1
102
RTVSPropertyOp19
 70
     1
102
RTVSPropertyOp20
 70
     1
102
RTVSPropertyOp21
 70
     1
102
RTVSPropertyOp22
 70
     1
102
RTVSPropertyOp23
 70
     1
102
RTVSPropertyOp24
 70
     1
102
RTVSPropertyOp25
 70
     1
102
RTVSPropertyOp26
 70
     1
102
RTVSPropertyOp27
 70
     1
102
RTVSPropertyOp28
 70
     1
102
RTVSPropertyOp29
 70
     1
102
RTVSPropertyOp30
 70
     1
102
RTVSPropertyOp31
 70
     1
102
RTVSPropertyOp32
 70
     1
102
RTVSPropertyOp33
 70
     1
102
RTVSPropertyOp34
 70
     1
102
RTVSPropertyOp35
 70
     1
102
RTVSPropertyOp36
 70
     1
102
RTVSPropertyOp37
 70
     1
102
RTVSPropertyOp38
 70
     1
102
RTVSPropertyOp39
 70
     1
102
RTVSPropertyOp40
 70
     1
102
RTVSPropertyOp41
 70
     1
102
RTVSPropertyOp42
 70
     1
102
RTVSPropertyOp43
 70
     1
102
RTVSPropertyOp44
 70
     1
102
RTVSPropertyOp45
 70
     1
102
RTVSPropertyOp46
 70
     1
102
RTVSPropertyOp47
 70
     1
102
RTVSPropertyOp48
 70
     1
102
RTVSPropertyOp49
 70
     1
102
RTVSPropertyOp50
 70
     1
102
RTVSPropertyOp51
 70
     0
102
RTVSPropertyOp52
 70
     0
102
RTVSPropertyOp53
 70
     1
102
RTVSPropertyOp54
 70
     1
102
RTVSPropertyOp55
 70
     1
102
RTVSPropertyOp56
 70
     1
102
RTVSPropertyOp57
 70
     1
102
RTVSPropertyOp58
 70
     1
102
RTVSPropertyOp59
 70
     1
102
RTVSPropertyOp60
 70
     1
102
RTVSPropertyOp61
 70
     1
102
RTVSPropertyOp62
 70
     1
  0
XRECORD
  5
2492
102
{ACAD_REACTORS
330
2491
102
}
330
2491
100
AcDbXrecord
280
     1
102
RTVSPost2010Prop28
280
     0
102
RTVSPost2010PropOp28
 70
     1
102
RTVSPost2010Prop29
280
     1
102
RTVSPost2010PropOp29
 70
     1
102
RTVSPost2010Prop30
280
     1
102
RTVSPost2010PropOp30
 70
     1
102
RTVSPost2010Prop31
280
     0
102
RTVSPost2010PropOp31
 70
     1
102
RTVSPost2010Prop32
280
     0
102
RTVSPost2010PropOp32
 70
     1
102
RTVSPost2010Prop33
280
     0
102
RTVSPost2010PropOp33
 70
     1
102
RTVSPost2010Prop34
280
     0
102
RTVSPost2010PropOp34
 70
     1
102
RTVSPost2010Prop35
280
     0
102
RTVSPost2010PropOp35
 70
     1
102
RTVSPost2010Prop36
280
     0
102
RTVSPost2010PropOp36
 70
     1
102
RTVSPost2010Prop37
 90
       50
102
RTVSPost2010PropOp37
 70
     1
102
RTVSPost2010Prop38
140
0.0
102
RTVSPost2010PropOp38
 70
     1
102
RTVSPost2010Prop39
140
1.0
102
RTVSPost2010PropOp39
 70
     1
102
RTVSPost2010Prop40
 90
        0
102
RTVSPost2010PropOp40
 70
     1
102
RTVSPost2010Prop41ColorIndex
 90
       18
102
RTVSPost2010Prop41ColorRGB
 90
        0
102
RTVSPost2010PropOp41
 70
     1
102
RTVSPost2010Prop42
 90
       50
102
RTVSPost2010PropOp42
 70
     1
102
RTVSPost2010Prop43
 90
        3
102
RTVSPost2010PropOp43
 70
     1
102
RTVSPost2010Prop44ColorIndex
 90
        5
102
RTVSPost2010Prop44ColorRGB
 90
      255
102
RTVSPost2010PropOp44
 70
     1
102
RTVSPost2010Prop45
280
     0
102
RTVSPost2010PropOp45
 70
     1
102
RTVSPost2010Prop46
 90
       50
102
RTVSPost2010PropOp46
 70
     1
102
RTVSPost2010Prop47
 90
       50
102
RTVSPost2010PropOp47
 70
     1
102
RTVSPost2010Prop48
 90
       50
102
RTVSPost2010PropOp48
 70
     1
102
RTVSPost2010Prop49
280
     0
102
RTVSPost2010PropOp49
 70
     1
102
RTVSPost2010Prop50
 90
       50
102
RTVSPost2010PropOp50
 70
     1
102
RTVSPost2010Prop51ColorIndex
 90
      256
102
RTVSPost2010Prop51ColorRGB
 90
-16777216
102
RTVSPost2010PropOp51
 70
     0
102
RTVSPost2010Prop52
140
1.0
102
RTVSPost2010PropOp52
 70
     0
102
RTVSPost2010Prop53
 90
        2
102
RTVSPost2010PropOp53
 70
     1
102
RTVSPost2010Prop54
  1
strokes_ogs.tif
102
RTVSPost2010PropOp54
 70
     1
102
RTVSPost2010Prop55
280
     0
102
RTVSPost2010PropOp55
 70
     1
102
RTVSPost2010Prop56
140
1.0
102
RTVSPost2010PropOp56
 70
     1
102
RTVSPost2010Prop57
140
1.0
102
RTVSPost2010PropOp57
 70
     1
102
RTVSPropertyOp0
 70
     1
102
RTVSPropertyOp1
 70
     1
102
RTVSPropertyOp2
 70
     1
102
RTVSPropertyOp3
 70
     1
102
RTVSPropertyOp4
 70
     1
102
RTVSPropertyOp5
 70
     1
102
RTVSPropertyOp6
 70
     1
102
RTVSPropertyOp7
 70
     1
102
RTVSPropertyOp8
 70
     1
102
RTVSPropertyOp9
 70
     1
102
RTVSPropertyOp10
 70
     1
102
RTVSPropertyOp11
 70
     1
102
RTVSPropertyOp12
 70
     1
102
RTVSPropertyOp13
 70
     1
102
RTVSPropertyOp14
 70
     1
102
RTVSPropertyOp15
 70
     1
102
RTVSPropertyOp16
 70
     1
102
RTVSPropertyOp17
 70
     1
102
RTVSPropertyOp18
 70
     1
102
RTVSPropertyOp19
 70
     1
102
RTVSPropertyOp20
 70
     1
102
RTVSPropertyOp21
 70
     1
102
RTVSPropertyOp22
 70
     1
102
RTVSPropertyOp23
 70
     1
102
RTVSPropertyOp24
 70
     1
102
RTVSPropertyOp25
 70
     1
102
RTVSPropertyOp26
 70
     1
102
RTVSPropertyOp27
 70
     1
102
RTVSPropertyOp28
 70
     1
102
RTVSPropertyOp29
 70
     1
102
RTVSPropertyOp30
 70
     1
102
RTVSPropertyOp31
 70
     1
102
RTVSPropertyOp32
 70
     1
102
RTVSPropertyOp33
 70
     1
102
RTVSPropertyOp34
 70
     1
102
RTVSPropertyOp35
 70
     1
102
RTVSPropertyOp36
 70
     1
102
RTVSPropertyOp37
 70
     1
102
RTVSPropertyOp38
 70
     1
102
RTVSPropertyOp39
 70
     1
102
RTVSPropertyOp40
 70
     1
102
RTVSPropertyOp41
 70
     1
102
RTVSPropertyOp42
 70
     1
102
RTVSPropertyOp43
 70
     1
102
RTVSPropertyOp44
 70
     1
102
RTVSPropertyOp45
 70
     1
102
RTVSPropertyOp46
 70
     1
102
RTVSPropertyOp47
 70
     1
102
RTVSPropertyOp48
 70
     1
102
RTVSPropertyOp49
 70
     1
102
RTVSPropertyOp50
 70
     1
102
RTVSPropertyOp51
 70
     0
102
RTVSPropertyOp52
 70
     0
102
RTVSPropertyOp53
 70
     1
102
RTVSPropertyOp54
 70
     1
102
RTVSPropertyOp55
 70
     1
102
RTVSPropertyOp56
 70
     1
102
RTVSPropertyOp57
 70
     1
102
RTVSPropertyOp58
 70
     1
102
RTVSPropertyOp59
 70
     1
102
RTVSPropertyOp60
 70
     1
102
RTVSPropertyOp61
 70
     1
102
RTVSPropertyOp62
 70
     1
  0
XRECORD
  5
249A
102
{ACAD_REACTORS
330
2499
102
}
330
2499
100
AcDbXrecord
280
     1
102
RTVSPost2010Prop28
280
     0
102
RTVSPost2010PropOp28
 70
     1
102
RTVSPost2010Prop29
280
     1
102
RTVSPost2010PropOp29
 70
     1
102
RTVSPost2010Prop30
280
     1
102
RTVSPost2010PropOp30
 70
     1
102
RTVSPost2010Prop31
280
     0
102
RTVSPost2010PropOp31
 70
     1
102
RTVSPost2010Prop32
280
     0
102
RTVSPost2010PropOp32
 70
     1
102
RTVSPost2010Prop33
280
     0
102
RTVSPost2010PropOp33
 70
     1
102
RTVSPost2010Prop34
280
     0
102
RTVSPost2010PropOp34
 70
     1
102
RTVSPost2010Prop35
280
     0
102
RTVSPost2010PropOp35
 70
     1
102
RTVSPost2010Prop36
280
     0
102
RTVSPost2010PropOp36
 70
     1
102
RTVSPost2010Prop37
 90
       50
102
RTVSPost2010PropOp37
 70
     1
102
RTVSPost2010Prop38
140
0.0
102
RTVSPost2010PropOp38
 70
     1
102
RTVSPost2010Prop39
140
1.0
102
RTVSPost2010PropOp39
 70
     1
102
RTVSPost2010Prop40
 90
        0
102
RTVSPost2010PropOp40
 70
     1
102
RTVSPost2010Prop41ColorIndex
 90
       18
102
RTVSPost2010Prop41ColorRGB
 90
        0
102
RTVSPost2010PropOp41
 70
     1
102
RTVSPost2010Prop42
 90
       50
102
RTVSPost2010PropOp42
 70
     1
102
RTVSPost2010Prop43
 90
        3
102
RTVSPost2010PropOp43
 70
     1
102
RTVSPost2010Prop44ColorIndex
 90
        5
102
RTVSPost2010Prop44ColorRGB
 90
      255
102
RTVSPost2010PropOp44
 70
     1
102
RTVSPost2010Prop45
280
     0
102
RTVSPost2010PropOp45
 70
     1
102
RTVSPost2010Prop46
 90
       50
102
RTVSPost2010PropOp46
 70
     1
102
RTVSPost2010Prop47
 90
       50
102
RTVSPost2010PropOp47
 70
     1
102
RTVSPost2010Prop48
 90
       50
102
RTVSPost2010PropOp48
 70
     1
102
RTVSPost2010Prop49
280
     0
102
RTVSPost2010PropOp49
 70
     1
102
RTVSPost2010Prop50
 90
       50
102
RTVSPost2010PropOp50
 70
     1
102
RTVSPost2010Prop51ColorIndex
 90
      256
102
RTVSPost2010Prop51ColorRGB
 90
-16777216
102
RTVSPost2010PropOp51
 70
     0
102
RTVSPost2010Prop52
140
1.0
102
RTVSPost2010PropOp52
 70
     0
102
RTVSPost2010Prop53
 90
        2
102
RTVSPost2010PropOp53
 70
     1
102
RTVSPost2010Prop54
  1
strokes_ogs.tif
102
RTVSPost2010PropOp54
 70
     1
102
RTVSPost2010Prop55
280
     0
102
RTVSPost2010PropOp55
 70
     1
102
RTVSPost2010Prop56
140
1.0
102
RTVSPost2010PropOp56
 70
     1
102
RTVSPost2010Prop57
140
1.0
102
RTVSPost2010PropOp57
 70
     1
102
RTVSPropertyOp0
 70
     1
102
RTVSPropertyOp1
 70
     1
102
RTVSPropertyOp2
 70
     1
102
RTVSPropertyOp3
 70
     1
102
RTVSPropertyOp4
 70
     1
102
RTVSPropertyOp5
 70
     1
102
RTVSPropertyOp6
 70
     1
102
RTVSPropertyOp7
 70
     1
102
RTVSPropertyOp8
 70
     1
102
RTVSPropertyOp9
 70
     1
102
RTVSPropertyOp10
 70
     1
102
RTVSPropertyOp11
 70
     1
102
RTVSPropertyOp12
 70
     1
102
RTVSPropertyOp13
 70
     1
102
RTVSPropertyOp14
 70
     1
102
RTVSPropertyOp15
 70
     1
102
RTVSPropertyOp16
 70
     1
102
RTVSPropertyOp17
 70
     1
102
RTVSPropertyOp18
 70
     1
102
RTVSPropertyOp19
 70
     1
102
RTVSPropertyOp20
 70
     1
102
RTVSPropertyOp21
 70
     1
102
RTVSPropertyOp22
 70
     1
102
RTVSPropertyOp23
 70
     1
102
RTVSPropertyOp24
 70
     1
102
RTVSPropertyOp25
 70
     1
102
RTVSPropertyOp26
 70
     1
102
RTVSPropertyOp27
 70
     1
102
RTVSPropertyOp28
 70
     1
102
RTVSPropertyOp29
 70
     1
102
RTVSPropertyOp30
 70
     1
102
RTVSPropertyOp31
 70
     1
102
RTVSPropertyOp32
 70
     1
102
RTVSPropertyOp33
 70
     1
102
RTVSPropertyOp34
 70
     1
102
RTVSPropertyOp35
 70
     1
102
RTVSPropertyOp36
 70
     1
102
RTVSPropertyOp37
 70
     1
102
RTVSPropertyOp38
 70
     1
102
RTVSPropertyOp39
 70
     1
102
RTVSPropertyOp40
 70
     1
102
RTVSPropertyOp41
 70
     1
102
RTVSPropertyOp42
 70
     1
102
RTVSPropertyOp43
 70
     1
102
RTVSPropertyOp44
 70
     1
102
RTVSPropertyOp45
 70
     1
102
RTVSPropertyOp46
 70
     1
102
RTVSPropertyOp47
 70
     1
102
RTVSPropertyOp48
 70
     1
102
RTVSPropertyOp49
 70
     1
102
RTVSPropertyOp50
 70
     1
102
RTVSPropertyOp51
 70
     0
102
RTVSPropertyOp52
 70
     0
102
RTVSPropertyOp53
 70
     1
102
RTVSPropertyOp54
 70
     1
102
RTVSPropertyOp55
 70
     1
102
RTVSPropertyOp56
 70
     1
102
RTVSPropertyOp57
 70
     1
102
RTVSPropertyOp58
 70
     1
102
RTVSPropertyOp59
 70
     1
102
RTVSPropertyOp60
 70
     1
102
RTVSPropertyOp61
 70
     1
102
RTVSPropertyOp62
 70
     1
  0
XRECORD
  5
24A2
102
{ACAD_REACTORS
330
24A1
102
}
330
24A1
100
AcDbXrecord
280
     1
102
RTVSPost2010Prop28
280
     0
102
RTVSPost2010PropOp28
 70
     1
102
RTVSPost2010Prop29
280
     1
102
RTVSPost2010PropOp29
 70
     1
102
RTVSPost2010Prop30
280
     1
102
RTVSPost2010PropOp30
 70
     1
102
RTVSPost2010Prop31
280
     0
102
RTVSPost2010PropOp31
 70
     1
102
RTVSPost2010Prop32
280
     0
102
RTVSPost2010PropOp32
 70
     1
102
RTVSPost2010Prop33
280
     0
102
RTVSPost2010PropOp33
 70
     1
102
RTVSPost2010Prop34
280
     0
102
RTVSPost2010PropOp34
 70
     1
102
RTVSPost2010Prop35
280
     0
102
RTVSPost2010PropOp35
 70
     1
102
RTVSPost2010Prop36
280
     0
102
RTVSPost2010PropOp36
 70
     1
102
RTVSPost2010Prop37
 90
       50
102
RTVSPost2010PropOp37
 70
     1
102
RTVSPost2010Prop38
140
0.0
102
RTVSPost2010PropOp38
 70
     1
102
RTVSPost2010Prop39
140
1.0
102
RTVSPost2010PropOp39
 70
     1
102
RTVSPost2010Prop40
 90
        0
102
RTVSPost2010PropOp40
 70
     1
102
RTVSPost2010Prop41ColorIndex
 90
       18
102
RTVSPost2010Prop41ColorRGB
 90
        0
102
RTVSPost2010PropOp41
 70
     1
102
RTVSPost2010Prop42
 90
       50
102
RTVSPost2010PropOp42
 70
     1
102
RTVSPost2010Prop43
 90
        3
102
RTVSPost2010PropOp43
 70
     1
102
RTVSPost2010Prop44ColorIndex
 90
        5
102
RTVSPost2010Prop44ColorRGB
 90
      255
102
RTVSPost2010PropOp44
 70
     1
102
RTVSPost2010Prop45
280
     0
102
RTVSPost2010PropOp45
 70
     1
102
RTVSPost2010Prop46
 90
       50
102
RTVSPost2010PropOp46
 70
     1
102
RTVSPost2010Prop47
 90
       50
102
RTVSPost2010PropOp47
 70
     1
102
RTVSPost2010Prop48
 90
       50
102
RTVSPost2010PropOp48
 70
     1
102
RTVSPost2010Prop49
280
     0
102
RTVSPost2010PropOp49
 70
     1
102
RTVSPost2010Prop50
 90
       50
102
RTVSPost2010PropOp50
 70
     1
102
RTVSPost2010Prop51ColorIndex
 90
      256
102
RTVSPost2010Prop51ColorRGB
 90
-16777216
102
RTVSPost2010PropOp51
 70
     0
102
RTVSPost2010Prop52
140
1.0
102
RTVSPost2010PropOp52
 70
     0
102
RTVSPost2010Prop53
 90
        2
102
RTVSPost2010PropOp53
 70
     1
102
RTVSPost2010Prop54
  1
strokes_ogs.tif
102
RTVSPost2010PropOp54
 70
     1
102
RTVSPost2010Prop55
280
     0
102
RTVSPost2010PropOp55
 70
     1
102
RTVSPost2010Prop56
140
1.0
102
RTVSPost2010PropOp56
 70
     1
102
RTVSPost2010Prop57
140
1.0
102
RTVSPost2010PropOp57
 70
     1
102
RTVSPropertyOp0
 70
     1
102
RTVSPropertyOp1
 70
     1
102
RTVSPropertyOp2
 70
     1
102
RTVSPropertyOp3
 70
     1
102
RTVSPropertyOp4
 70
     1
102
RTVSPropertyOp5
 70
     1
102
RTVSPropertyOp6
 70
     1
102
RTVSPropertyOp7
 70
     1
102
RTVSPropertyOp8
 70
     1
102
RTVSPropertyOp9
 70
     1
102
RTVSPropertyOp10
 70
     1
102
RTVSPropertyOp11
 70
     1
102
RTVSPropertyOp12
 70
     1
102
RTVSPropertyOp13
 70
     1
102
RTVSPropertyOp14
 70
     1
102
RTVSPropertyOp15
 70
     1
102
RTVSPropertyOp16
 70
     1
102
RTVSPropertyOp17
 70
     1
102
RTVSPropertyOp18
 70
     1
102
RTVSPropertyOp19
 70
     1
102
RTVSPropertyOp20
 70
     1
102
RTVSPropertyOp21
 70
     1
102
RTVSPropertyOp22
 70
     1
102
RTVSPropertyOp23
 70
     1
102
RTVSPropertyOp24
 70
     1
102
RTVSPropertyOp25
 70
     1
102
RTVSPropertyOp26
 70
     1
102
RTVSPropertyOp27
 70
     1
102
RTVSPropertyOp28
 70
     1
102
RTVSPropertyOp29
 70
     1
102
RTVSPropertyOp30
 70
     1
102
RTVSPropertyOp31
 70
     1
102
RTVSPropertyOp32
 70
     1
102
RTVSPropertyOp33
 70
     1
102
RTVSPropertyOp34
 70
     1
102
RTVSPropertyOp35
 70
     1
102
RTVSPropertyOp36
 70
     1
102
RTVSPropertyOp37
 70
     1
102
RTVSPropertyOp38
 70
     1
102
RTVSPropertyOp39
 70
     1
102
RTVSPropertyOp40
 70
     1
102
RTVSPropertyOp41
 70
     1
102
RTVSPropertyOp42
 70
     1
102
RTVSPropertyOp43
 70
     1
102
RTVSPropertyOp44
 70
     1
102
RTVSPropertyOp45
 70
     1
102
RTVSPropertyOp46
 70
     1
102
RTVSPropertyOp47
 70
     1
102
RTVSPropertyOp48
 70
     1
102
RTVSPropertyOp49
 70
     1
102
RTVSPropertyOp50
 70
     1
102
RTVSPropertyOp51
 70
     0
102
RTVSPropertyOp52
 70
     0
102
RTVSPropertyOp53
 70
     1
102
RTVSPropertyOp54
 70
     1
102
RTVSPropertyOp55
 70
     1
102
RTVSPropertyOp56
 70
     1
102
RTVSPropertyOp57
 70
     1
102
RTVSPropertyOp58
 70
     1
102
RTVSPropertyOp59
 70
     1
102
RTVSPropertyOp60
 70
     1
102
RTVSPropertyOp61
 70
     1
102
RTVSPropertyOp62
 70
     1
  0
ACDBASSOCGEOMDEPENDENCY
  5
1509
330
1301
100
AcDbAssocDependency
 90
        2
 90
        0
290
     1
290
     1
290
     1
290
     1
 90
   -10000
330
1216
290
     0
330
0
330
0
360
0
 90
       49
100
AcDbAssocGeomDependency
 90
        0
290
     1
  1
AcDbAssocSingleEdgePersSubentId
290
     0
  0
ACDBASSOCGEOMDEPENDENCY
  5
150A
330
1301
100
AcDbAssocDependency
 90
        2
 90
        0
290
     1
290
     1
290
     1
290
     1
 90
   -10000
330
709
290
     0
330
0
330
0
360
0
 90
       50
100
AcDbAssocGeomDependency
 90
        0
290
     1
  1
AcDbAssocSingleEdgePersSubentId
290
     0
  0
ACDBASSOCGEOMDEPENDENCY
  5
1500
330
1301
100
AcDbAssocDependency
 90
        2
 90
        0
290
     1
290
     1
290
     1
290
     1
 90
   -10000
330
14FC
290
     0
330
0
330
0
360
0
 90
       48
100
AcDbAssocGeomDependency
 90
        0
290
     1
  1
AcDbAssocSingleEdgePersSubentId
290
     0
  0
ACDBASSOCGEOMDEPENDENCY
  5
1523
330
1301
100
AcDbAssocDependency
 90
        2
 90
        0
290
     1
290
     1
290
     1
290
     1
 90
   -10000
330
1521
290
     0
330
0
330
0
360
0
 90
       51
100
AcDbAssocGeomDependency
 90
        0
290
     1
  1
AcDbAssocSingleEdgePersSubentId
290
     0
  0
ACDBASSOCGEOMDEPENDENCY
  5
1524
330
1301
100
AcDbAssocDependency
 90
        2
 90
        0
290
     1
290
     1
290
     1
290
     1
 90
   -10000
330
713
290
     0
330
0
330
0
360
0
 90
       52
100
AcDbAssocGeomDependency
 90
        0
290
     1
  1
AcDbAssocSingleEdgePersSubentId
290
     0
  0
ACDBASSOCGEOMDEPENDENCY
  5
1525
330
1301
100
AcDbAssocDependency
 90
        2
 90
        0
290
     1
290
     1
290
     1
290
     1
 90
   -10000
330
712
290
     0
330
0
330
0
360
0
 90
       53
100
AcDbAssocGeomDependency
 90
        0
290
     1
  1
AcDbAssocSingleEdgePersSubentId
290
     0
  0
ENDSEC
  0
EOF
