  0
SECTION
  2
HEADER
  9
$ACADVER
  1
AC1015
  9
$ACADMAINTVER
 70
    20
  9
$DWGCODEPAGE
  3
ANSI_1252
  9
$INSBASE
 10
0.0
 20
0.0
 30
0.0
  9
$EXTMIN
 10
219.6258571925873
 20
104.1893031031231
 30
-0.0015258207003583
  9
$EXTMAX
 10
542.5437945785743
 20
812.8303549518227
 30
0.0000000349246037
  9
$LIMMIN
 10
0.0
 20
0.0
  9
$LIMMAX
 10
1050.0
 20
1050.0
  9
$ORTHOMODE
 70
     1
  9
$REGENMODE
 70
     1
  9
$FILLMODE
 70
     1
  9
$QTEXTMODE
 70
     0
  9
$MIRRTEXT
 70
     0
  9
$LTSCALE
 40
5.0
  9
$ATTMODE
 70
     1
  9
$TEXTSIZE
 40
10.0
  9
$TRACEWID
 40
0.05
  9
$TEXTSTYLE
  7
STANDARD
  9
$CLAYER
  8
0
  9
$CELTYPE
  6
BYLAYER
  9
$CECOLOR
 62
   256
  9
$CELTSCALE
 40
1.0
  9
$DISPSILH
 70
     0
  9
$DIMSCALE
 40
5.0
  9
$DIMASZ
 40
2.5
  9
$DIMEXO
 40
1.0
  9
$DIMDLI
 40
7.0
  9
$DIMRND
 40
0.0
  9
$DIMDLE
 40
0.0
  9
$DIMEXE
 40
1.0
  9
$DIMTP
 40
0.1
  9
$DIMTM
 40
0.1
  9
$DIMTXT
 40
3.5
  9
$DIMCEN
 40
0.0
  9
$DIMTSZ
 40
0.0
  9
$DIMTOL
 70
     0
  9
$DIMLIM
 70
     0
  9
$DIMTIH
 70
     0
  9
$DIMTOH
 70
     0
  9
$DIMSE1
 70
     0
  9
$DIMSE2
 70
     0
  9
$DIMTAD
 70
     1
  9
$DIMZIN
 70
    12
  9
$DIMBLK
  1

  9
$DIMASO
 70
     1
  9
$DIMSHO
 70
     1
  9
$DIMPOST
  1

  9
$DIMAPOST
  1
"
  9
$DIMALT
 70
     0
  9
$DIMALTD
 70
     2
  9
$DIMALTF
 40
0.03937
  9
$DIMLFAC
 40
1.0
  9
$DIMTOFL
 70
     1
  9
$DIMTVP
 40
0.0
  9
$DIMTIX
 70
     0
  9
$DIMSOXD
 70
     0
  9
$DIMSAH
 70
     0
  9
$DIMBLK1
  1

  9
$DIMBLK2
  1

  9
$DIMSTYLE
  2
GEN-ISO
  9
$DIMCLRD
 70
   256
  9
$DIMCLRE
 70
   256
  9
$DIMCLRT
 70
     2
  9
$DIMTFAC
 40
0.71
  9
$DIMGAP
 40
0.6
  9
$DIMJUST
 70
     0
  9
$DIMSD1
 70
     0
  9
$DIMSD2
 70
     0
  9
$DIMTOLJ
 70
     0
  9
$DIMTZIN
 70
     0
  9
$DIMALTZ
 70
     0
  9
$DIMALTTZ
 70
     0
  9
$DIMUPT
 70
     0
  9
$DIMDEC
 70
     2
  9
$DIMTDEC
 70
     3
  9
$DIMALTU
 70
     2
  9
$DIMALTTD
 70
     4
  9
$DIMTXSTY
  7
STANDARD
  9
$DIMAUNIT
 70
     0
  9
$DIMADEC
 70
     0
  9
$DIMALTRND
 40
0.0
  9
$DIMAZIN
 70
     0
  9
$DIMDSEP
 70
    46
  9
$DIMATFIT
 70
     3
  9
$DIMFRAC
 70
     0
  9
$DIMLDRBLK
  1

  9
$DIMLUNIT
 70
     2
  9
$DIMLWD
 70
    -2
  9
$DIMLWE
 70
    -2
  9
$DIMTMOVE
 70
     0
  9
$LUNITS
 70
     2
  9
$LUPREC
 70
     2
  9
$SKETCHINC
 40
0.1
  9
$FILLETRAD
 40
12.5
  9
$AUNITS
 70
     0
  9
$AUPREC
 70
     2
  9
$MENU
  1
.
  9
$ELEVATION
 40
0.0
  9
$PELEVATION
 40
0.0
  9
$THICKNESS
 40
0.0
  9
$LIMCHECK
 70
     0
  9
$CHAMFERA
 40
12.5
  9
$CHAMFERB
 40
12.5
  9
$CHAMFERC
 40
0.0
  9
$CHAMFERD
 40
0.0
  9
$SKPOLY
 70
     0
  9
$TDCREATE
 40
2451145.581152257
  9
$TDUCREATE
 40
2451145.497818924
  9
$TDUPDATE
 40
2454020.032069271
  9
$TDUUPDATE
 40
2454019.948735937
  9
$TDINDWG
 40
0.0175339005
  9
$TDUSRTIMER
 40
0.0175339005
  9
$USRTIMER
 70
     1
  9
$ANGBASE
 50
0.0
  9
$ANGDIR
 70
     0
  9
$PDMODE
 70
     0
  9
$PDSIZE
 40
0.0
  9
$PLINEWID
 40
0.0
  9
$SPLFRAME
 70
     0
  9
$SPLINETYPE
 70
     6
  9
$SPLINESEGS
 70
     8
  9
$HANDSEED
  5
16D6
  9
$SURFTAB1
 70
     6
  9
$SURFTAB2
 70
     6
  9
$SURFTYPE
 70
     6
  9
$SURFU
 70
     6
  9
$SURFV
 70
     6
  9
$UCSBASE
  2

  9
$UCSNAME
  2

  9
$UCSORG
 10
0.0
 20
0.0
 30
0.0
  9
$UCSXDIR
 10
1.0
 20
0.0
 30
0.0
  9
$UCSYDIR
 10
0.0
 20
1.0
 30
0.0
  9
$UCSORTHOREF
  2

  9
$UCSORTHOVIEW
 70
     0
  9
$UCSORGTOP
 10
0.0
 20
0.0
 30
0.0
  9
$UCSORGBOTTOM
 10
0.0
 20
0.0
 30
0.0
  9
$UCSORGLEFT
 10
0.0
 20
0.0
 30
0.0
  9
$UCSORGRIGHT
 10
0.0
 20
0.0
 30
0.0
  9
$UCSORGFRONT
 10
0.0
 20
0.0
 30
0.0
  9
$UCSORGBACK
 10
0.0
 20
0.0
 30
0.0
  9
$PUCSBASE
  2

  9
$PUCSNAME
  2

  9
$PUCSORG
 10
0.0
 20
0.0
 30
0.0
  9
$PUCSXDIR
 10
1.0
 20
0.0
 30
0.0
  9
$PUCSYDIR
 10
0.0
 20
1.0
 30
0.0
  9
$PUCSORTHOREF
  2

  9
$PUCSORTHOVIEW
 70
     0
  9
$PUCSORGTOP
 10
0.0
 20
0.0
 30
0.0
  9
$PUCSORGBOTTOM
 10
0.0
 20
0.0
 30
0.0
  9
$PUCSORGLEFT
 10
0.0
 20
0.0
 30
0.0
  9
$PUCSORGRIGHT
 10
0.0
 20
0.0
 30
0.0
  9
$PUCSORGFRONT
 10
0.0
 20
0.0
 30
0.0
  9
$PUCSORGBACK
 10
0.0
 20
0.0
 30
0.0
  9
$USERI1
 70
     0
  9
$USERI2
 70
     0
  9
$USERI3
 70
     0
  9
$USERI4
 70
     0
  9
$USERI5
 70
     0
  9
$USERR1
 40
0.0
  9
$USERR2
 40
0.0
  9
$USERR3
 40
0.0
  9
$USERR4
 40
0.0
  9
$USERR5
 40
0.0
  9
$WORLDVIEW
 70
     1
  9
$SHADEDGE
 70
     3
  9
$SHADEDIF
 70
    70
  9
$TILEMODE
 70
     1
  9
$MAXACTVP
 70
    48
  9
$PINSBASE
 10
0.0
 20
0.0
 30
0.0
  9
$PLIMCHECK
 70
     0
  9
$PEXTMIN
 10
0.0
 20
0.0
 30
0.0
  9
$PEXTMAX
 10
144.0
 20
229.584
 30
0.0
  9
$PLIMMIN
 10
0.0
 20
0.0
  9
$PLIMMAX
 10
144.0
 20
229.584
  9
$UNITMODE
 70
     0
  9
$VISRETAIN
 70
     1
  9
$PLINEGEN
 70
     1
  9
$PSLTSCALE
 70
     1
  9
$TREEDEPTH
 70
 -3020
  9
$CMLSTYLE
  2
STANDARD
  9
$CMLJUST
 70
     0
  9
$CMLSCALE
 40
1.0
  9
$PROXYGRAPHICS
 70
     1
  9
$MEASUREMENT
 70
     1
  9
$CELWEIGHT
370
    -1
  9
$ENDCAPS
280
     0
  9
$JOINSTYLE
280
     0
  9
$LWDISPLAY
290
     0
  9
$INSUNITS
 70
     0
  9
$HYPERLINKBASE
  1

  9
$STYLESHEET
  1

  9
$XEDIT
290
     1
  9
$CEPSNTYPE
380
     0
  9
$PSTYLEMODE
290
     1
  9
$FINGERPRINTGUID
  2
{2EA8CEED-D6B8-449F-95FA-770C64F4424E}
  9
$VERSIONGUID
  2
{5410E860-8B8E-4604-A983-522EA2D4227F}
  9
$EXTNAMES
290
     1
  9
$PSVPSCALE
 40
0.0
  9
$OLESTARTUP
290
     0
  0
ENDSEC
  0
SECTION
  2
CLASSES
  0
CLASS
  1
ACDBDICTIONARYWDFLT
  2
AcDbDictionaryWithDefault
  3
ObjectDBX Classes
 90
        0
280
     0
281
     0
  0
CLASS
  1
TABLESTYLE
  2
AcDbTableStyle
  3
ObjectDBX Classes
 90
     2047
280
     0
281
     0
  0
CLASS
  1
AMGSETTINGSOBJ
  2
AmgSettingsObj
  3
"AcadM|Product Description: AutoCAD Mechanical 2000|Company: Autodesk"
 90
        0
280
     0
281
     0
  0
CLASS
  1
ACME_DOCUMENT
  2
AcMeDbDoc
  3
AcMeServices
 90
        0
280
     0
281
     0
  0
CLASS
  1
ACMESCOPE
  2
AcMeScope
  3
AcMeServices
 90
        0
280
     0
281
     0
  0
CLASS
  1
ACMECOMMANDHISTORY
  2
AcMeCommandHistory
  3
AcMeServices
 90
        0
280
     0
281
     0
  0
CLASS
  1
ACIMSYSVARMAN
  2
AcImSysVarManager
  3
AcMeServices
 90
        0
280
     0
281
     0
  0
CLASS
  1
ACIMINTSYSVAR
  2
AcImIntSysVar
  3
AcMeServices
 90
        0
280
     0
281
     0
  0
CLASS
  1
ACMEDRAWINGMAN
  2
AcMeDrawingMan
  3
AcMeServices
 90
        0
280
     0
281
     0
  0
CLASS
  1
ACMEVIEW
  2
AcMeView
  3
AcMeServices
 90
        0
280
     0
281
     0
  0
CLASS
  1
ACDBENTITYCACHE
  2
AcMeEntityCache
  3
AcMeServices
 90
        0
280
     0
281
     0
  0
CLASS
  1
GSMANAGER
  2
AcMeGSManager
  3
AcMeServices
 90
        0
280
     0
281
     0
  0
CLASS
  1
AMDTINTERNALREACTOR
  2
AmdtInternalReactor
  3
AcMeServices
 90
        0
280
     0
281
     0
  0
CLASS
  1
ACMESTATEMGR
  2
AcMeStateMgr
  3
AcMeServices
 90
        0
280
     0
281
     0
  0
CLASS
  1
ACGREFMASTER
  2
AcGrefMaster
  3
AcAttribServices
 90
        0
280
     0
281
     0
  0
CLASS
  1
AM_DRAWING_MGR
  2
AcDmDwgMgr
  3
AcMechDwgViewMgmt
 90
        0
280
     0
281
     0
  0
CLASS
  1
AM_DWG_DOCUMENT
  2
AcDmDwgDocument
  3
AcMechDwgViewMgmt
 90
        0
280
     0
281
     0
  0
CLASS
  1
AM_DWG_SHEET
  2
AcDmSheet
  3
AcMechDwgViewMgmt
 90
        0
280
     0
281
     0
  0
CLASS
  1
AM_VIEWDIMPARMAP
  2
AcDmViewDimParMap
  3
AcMechDwgViewMgmt
 90
        0
280
     0
281
     0
  0
CLASS
  1
ACIMREALSYSVAR
  2
AcImRealSysVar
  3
AcMeServices
 90
        0
280
     0
281
     0
  0
CLASS
  1
AM_DWGMGR_NAME
  2
AcDmDwgMgrName
  3
AcMechDwgViewMgmt
 90
        0
280
     0
281
     0
  0
CLASS
  1
ACME_DATABASE
  2
AcMeDbDatabase
  3
AcMeServices
 90
        0
280
     0
281
     0
  0
CLASS
  1
ACRFINSADJUSTERMGR
  2
AcRfInsAdjusterMgr
  3
AcMeServices
 90
        0
280
     0
281
     0
  0
CLASS
  1
ACGREFACADMASTER
  2
AcGrefacadMaster
  3
AcGrefServices
 90
        0
280
     0
281
     0
  0
CLASS
  1
AMDTMENUSTATEMGR
  2
AmdtMenuStateMgr
  3
McadcomServices
 90
        0
280
     0
281
     0
  0
CLASS
  1
AMDTMCOMMENUSTATE
  2
AmdtMcomMenuState
  3
McadcomServices
 90
        0
280
     0
281
     0
  0
CLASS
  1
AMIMASTER
  2
AmiMaster
  3
AmiServices
 90
        0
280
     0
281
     0
  0
CLASS
  1
MAPIAMMOUDLE
  2
MApiAmModule
  3
MApiAmServices
 90
        0
280
     0
281
     0
  0
CLASS
  1
ACIMSTRSYSVAR
  2
AcImStrSysVar
  3
AcMeServices
 90
        0
280
     0
281
     0
  0
CLASS
  1
AMDTADMENUSTATE
  2
AmdtAdMenuState
  3
DesignerServices
 90
        0
280
     0
281
     0
  0
CLASS
  1
ADAPPL
  2
AcAdAppl
  3
DesignerServices
 90
        0
280
     0
281
     0
  0
CLASS
  1
DEPMGR
  2
AcAdDepMgr
  3
DesignerServices
 90
        0
280
     0
281
     0
  0
CLASS
  1
PARAMMGR
  2
AcAdParamMgr
  3
DesignerServices
 90
        0
280
     0
281
     0
  0
CLASS
  1
PARAMSCOPE
  2
AcAdParamScope
  3
DesignerServices
 90
        0
280
     0
281
     0
  0
CLASS
  1
NAMEDAPPL
  2
AcAdNamedAppl
  3
DesignerServices
 90
        0
280
     0
281
     0
  0
CLASS
  1
AMDTDMMENUSTATE
  2
AmdtDmMenuState
  3
AcMechDwgViewMgmt
 90
        0
280
     0
281
     0
  0
CLASS
  1
AMDTAMMENUSTATE
  2
AmdtAmMenuState
  3
DesignerAssemblies
 90
        0
280
     0
281
     0
  0
CLASS
  1
ACAMPROJECT
  2
AcAmProject
  3
DesignerAssemblies
 90
        0
280
     0
281
     0
  0
CLASS
  1
ACAMGRCOMPDEF
  2
AcAmGrCompDef
  3
DesignerAssemblies
 90
        0
280
     0
281
     0
  0
CLASS
  1
ACCMCONTEXT
  2
AcCmContext
  3
DesignerAssemblies
 90
        0
280
     0
281
     0
  0
CLASS
  1
ACAMCOMPDEF
  2
AcAmCompDef
  3
DesignerAssemblies
 90
        0
280
     0
281
     0
  0
CLASS
  1
ACAMCOMPDEFMGR
  2
AcAmCompDefMgr
  3
DesignerAssemblies
 90
        0
280
     0
281
     0
  0
CLASS
  1
AMCONTEXTMGR
  2
AcAmContextMgr
  3
DesignerAssemblies
 90
        0
280
     0
281
     0
  0
CLASS
  1
ACAMCONTEXTMODELER
  2
AcAmContextModeler
  3
DesignerAssemblies
 90
        0
280
     0
281
     0
  0
CLASS
  1
ACMDATADICTIONARY
  2
AcmDataDictionary
  3
"AcmSymBB|Product Description: AutoCAD Mechanical 2004 DX|Company: Autodesk"
 90
        0
280
     0
281
     0
  0
CLASS
  1
CATALOGSTATE
  2
AcAmCatalogState
  3
DesignerAssemblies
 90
        0
280
     0
281
     0
  0
CLASS
  1
ACAMGRCOMPDEFSET
  2
AcAmGrCompDefSet
  3
DesignerAssemblies
 90
        0
280
     0
281
     0
  0
CLASS
  1
AMDTBROWSERDBTAB
  2
AmdtBrowserDbTab
  3
McadcomServices
 90
        0
280
     0
281
     0
  0
CLASS
  1
CBROWSERAPPOBJECT
  2
CBrowserAppObject
  3
McadcomServices
 90
        0
280
     0
281
     0
  0
CLASS
  1
DM_PLACEHOLDER
  2
AcDmSelsetPlaceholder
  3
AcMechDwgViewMgmt
 90
        0
280
     0
281
     0
  0
CLASS
  1
ACMSTANDARDDIN
  2
AcmStandardDIN
  3
"Amdt_StdImp|Product Description: AutoCAD Mechanical 2004 DX|Company: Autodesk"
 90
        0
280
     0
281
     0
  0
CLASS
  1
AMGOBJPROPCFG
  2
AmgObjPropCfg
  3
"AmgLay|Product Description: AutoCAD Mechanical 2000|Company: Autodesk"
 90
        1
280
     0
281
     0
  0
CLASS
  1
AMDTEDGESTANDARDDIN13715
  2
AmdtEdgeStdDIN13715
  3
"Amdt_StdImp|Product Description: AutoCAD Mechanical 2004 DX|Company: Autodesk"
 90
        0
280
     0
281
     0
  0
CLASS
  1
ACMSURFSTANDARDDIN
  2
AcmSurfTextStdDIN
  3
"Amdt_StdImp|Product Description: AutoCAD Mechanical 2004 DX|Company: Autodesk"
 90
        0
280
     0
281
     0
  0
CLASS
  1
ACMFCFSTANDARDDIN
  2
AcmFCFStdDIN
  3
"Amdt_StdImp|Product Description: AutoCAD Mechanical 2004 DX|Company: Autodesk"
 90
        0
280
     0
281
     0
  0
CLASS
  1
ACMWELDSTANDARDDIN
  2
AcmWeldingStdDIN
  3
"Amdt_StdImp|Product Description: AutoCAD Mechanical 2004 DX|Company: Autodesk"
 90
        0
280
     0
281
     0
  0
CLASS
  1
ACMIDSTANDARDDIN
  2
AcmIdStdDIN
  3
"Amdt_StdImp|Product Description: AutoCAD Mechanical 2004 DX|Company: Autodesk"
 90
        0
280
     0
281
     0
  0
CLASS
  1
ACMDATUMSTANDARDDIN
  2
AcmDatumStdDIN
  3
"Amdt_StdImp|Product Description: AutoCAD Mechanical 2004 DX|Company: Autodesk"
 90
        0
280
     0
281
     0
  0
CLASS
  1
ACMBOMSTANDARDDIN
  2
AcmBOMStdDIN
  3
"Amdt_StdImp|Product Description: AutoCAD Mechanical 2004 DX|Company: Autodesk"
 90
        0
280
     0
281
     0
  0
CLASS
  1
ACMDETAILSTANDARDDIN
  2
AmdtDetailSymStdDIN
  3
"Amdt_StdImp|Product Description: AutoCAD Mechanical 2004 DX|Company: Autodesk"
 90
        0
280
     0
281
     0
  0
CLASS
  1
ACMSECTIONSTANDARDDIN
  2
AmdtSectionSymStdDIN
  3
"Amdt_StdImp|Product Description: AutoCAD Mechanical 2004 DX|Company: Autodesk"
 90
        0
280
     0
281
     0
  0
CLASS
  1
ACMCENTERLINESTANDARDDIN
  2
AmdtCenterLineStdDIN
  3
"Amdt_StdImp|Product Description: AutoCAD Mechanical 2004 DX|Company: Autodesk"
 90
        0
280
     0
281
     0
  0
CLASS
  1
ACMTHREADLINESTANDARDDIN
  2
AmdtThreadLineStdDIN
  3
"Amdt_StdImp|Product Description: AutoCAD Mechanical 2004 DX|Company: Autodesk"
 90
        0
280
     0
281
     0
  0
CLASS
  1
ACMNOTESTANDARDDIN
  2
AmdtNoteStdDIN
  3
"Amdt_StdImp|Product Description: AutoCAD Mechanical 2004 DX|Company: Autodesk"
 90
        0
280
     0
281
     0
  0
CLASS
  1
AMDTNOTETEMPLATEDB
  2
AmdtNoteTemplateDB
  3
AMDT_STDIMP_MODULE_NAME
 90
        0
280
     0
281
     0
  0
CLASS
  1
ACAMGLAYSTD
  2
AcAmgLayStd
  3
"AcAmgLayStd|Product Description: AutoCAD Mechanical 2000|Company: Autodesk"
 90
        0
280
     0
281
     0
  0
CLASS
  1
ACAMGDIMSTD
  2
AcAmgDimStd
  3
"AcAmgDimStd|Product Description: AutoCAD Mechanical 2000|Company: Autodesk"
 90
        0
280
     0
281
     0
  0
CLASS
  1
ACAMGHOLECHARTSTDDIN
  2
AcAmgHoleChartStdDIN
  3
ACMSYMBB_MODULE_NAME
 90
        0
280
     0
281
     0
  0
CLASS
  1
ACAMGTITLESTD
  2
AcAmgTitleStd
  3
"TITLEAPP"
 90
        0
280
     0
281
     0
  0
CLASS
  1
ACAMGFILTERDAT
  2
AcAmgFilterDat
  3
"AcadM|Product Description: AutoCAD Mechanical 2000|Company: Autodesk"
 90
        0
280
     0
281
     0
  0
CLASS
  1
DICTIONARYVAR
  2
AcDbDictionaryVar
  3
ObjectDBX Classes
 90
        0
280
     0
281
     0
  0
CLASS
  1
ACDBPLACEHOLDER
  2
AcDbPlaceHolder
  3
ObjectDBX Classes
 90
        0
280
     0
281
     0
  0
CLASS
  1
LAYOUT
  2
AcDbLayout
  3
ObjectDBX Classes
 90
        0
280
     0
281
     0
  0
ENDSEC
  0
SECTION
  2
TABLES
  0
TABLE
  2
VPORT
  5
1280
330
0
100
AcDbSymbolTable
 70
     4
  0
VPORT
  5
16D0
330
1280
100
AcDbSymbolTableRecord
100
AcDbViewportTableRecord
  2
*Active
 70
     0
 10
0.0
 20
0.0
 11
1.0
 21
1.0
 12
381.0848258855809
 22
458.5098290274729
 13
0.0
 23
0.0
 14
5.0
 24
5.0
 15
50.0
 25
50.0
 16
0.0
 26
0.0
 36
1.0
 17
0.0
 27
0.0
 37
0.0
 40
713.7885655425157
 41
1.494545454545454
 42
50.0
 43
0.0
 44
0.0
 50
0.0
 51
0.0
 71
     0
 72
  1000
 73
     1
 74
     1
 75
     0
 76
     0
 77
     0
 78
     0
281
     0
 65
     0
110
0.0
120
0.0
130
0.0
111
1.0
121
0.0
131
0.0
112
0.0
122
1.0
132
0.0
 79
     0
146
0.0
  0
ENDTAB
  0
TABLE
  2
LTYPE
  5
127D
330
0
100
AcDbSymbolTable
 70
    20
  0
LTYPE
  5
128A
330
127D
100
AcDbSymbolTableRecord
100
AcDbLinetypeTableRecord
  2
BYBLOCK
 70
     0
  3

 72
    65
 73
     0
 40
0.0
  0
LTYPE
  5
128B
330
127D
100
AcDbSymbolTableRecord
100
AcDbLinetypeTableRecord
  2
BYLAYER
 70
     0
  3

 72
    65
 73
     0
 40
0.0
  0
LTYPE
  5
128C
330
127D
100
AcDbSymbolTableRecord
100
AcDbLinetypeTableRecord
  2
CONTINUOUS
 70
     0
  3
Solid line
 72
    65
 73
     0
 40
0.0
  0
LTYPE
  5
129B
330
127D
100
AcDbSymbolTableRecord
100
AcDbLinetypeTableRecord
  2
GEN7
 70
     0
  3
____ _ ____ _ ____ _ ____ _ ____ _ ____ _ ____ _ ____ _ ____ _
 72
    65
 73
     4
 40
22.0
 49
10.75
 74
     0
 49
-3.75
 74
     0
 49
3.75
 74
     0
 49
-3.75
 74
     0
  0
LTYPE
  5
15FE
330
127D
100
AcDbSymbolTableRecord
100
AcDbLinetypeTableRecord
  2
HIDDEN
 70
     0
  3
Verdeckt
 72
    65
 73
     2
 40
9.525
 49
6.349999999999999
 74
     0
 49
-3.174999999999999
 74
     0
  0
LTYPE
  5
15FF
330
127D
100
AcDbSymbolTableRecord
100
AcDbLinetypeTableRecord
  2
PHANTOM2
 70
     0
  3
Phantom (.5x) ___ _ _ ___ _ _ ___ _ _ ___ _ _
 72
    65
 73
     6
 40
31.75
 49
15.875
 74
     0
 49
-3.174999999999999
 74
     0
 49
3.174999999999999
 74
     0
 49
-3.174999999999999
 74
     0
 49
3.174999999999999
 74
     0
 49
-3.174999999999999
 74
     0
  0
LTYPE
  5
1600
330
127D
100
AcDbSymbolTableRecord
100
AcDbLinetypeTableRecord
  2
CENTER
 70
     0
  3
Mitte ____ _ ____ _ ____ _ ____ _ ____ _ ____
 72
    65
 73
     4
 40
50.8
 49
31.75
 74
     0
 49
-6.349999999999999
 74
     0
 49
6.349999999999999
 74
     0
 49
-6.349999999999999
 74
     0
  0
LTYPE
  5
1634
330
127D
100
AcDbSymbolTableRecord
100
AcDbLinetypeTableRecord
  2
AM_ISO02W050
 70
     0
  3
__ __ __ __ __ __ __ __ __ __ __ __ __ __ __
 72
    65
 73
     2
 40
7.5
 49
6.0
 74
     0
 49
-1.5
 74
     0
  0
LTYPE
  5
1635
330
127D
100
AcDbSymbolTableRecord
100
AcDbLinetypeTableRecord
  2
AM_ISO08W050
 70
     0
  3
____ . ____ . ____ . ____ . ____ . ____ . ____
 72
    65
 73
     4
 40
18.0
 49
12.0
 74
     0
 49
-1.5
 74
     0
 49
3.0
 74
     0
 49
-1.5
 74
     0
  0
LTYPE
  5
1636
330
127D
100
AcDbSymbolTableRecord
100
AcDbLinetypeTableRecord
  2
AM_ISO09W050
 70
     0
  3
_____ . . _____ . . _____ . . ____ .. ____
 72
    65
 73
     6
 40
22.5
 49
12.0
 74
     0
 49
-1.5
 74
     0
 49
3.0
 74
     0
 49
-1.5
 74
     0
 49
3.0
 74
     0
 49
-1.5
 74
     0
  0
LTYPE
  5
1637
330
127D
100
AcDbSymbolTableRecord
100
AcDbLinetypeTableRecord
  2
Amconstr
 70
     0
  3
_______________________
 72
    65
 73
     2
 40
9999.0
 49
9999.0
 74
     0
 49
0.0
 74
     0
  0
LTYPE
  5
1638
330
127D
100
AcDbSymbolTableRecord
100
AcDbLinetypeTableRecord
  2
AM_ISO08W050x2
 70
     0
  3
__ . __ . __ . __ . __ . __
 72
    65
 73
     4
 40
9.0
 49
6.0
 74
     0
 49
-0.75
 74
     0
 49
1.5
 74
     0
 49
-0.75
 74
     0
  0
LTYPE
  5
1639
330
127D
100
AcDbSymbolTableRecord
100
AcDbLinetypeTableRecord
  2
AM_ISO02W050x2
 70
     0
  3
 _ _ _ _ _ _ _ _ _ _ _ _
 72
    65
 73
     2
 40
3.75
 49
3.0
 74
     0
 49
-0.75
 74
     0
  0
LTYPE
  5
163C
330
127D
100
AcDbSymbolTableRecord
100
AcDbLinetypeTableRecord
  2
Amzigzag
 70
     0
  3
/\/-/\/-/\/-/\/-/\/-/\/
 72
    65
 73
     2
 40
11.0001
 49
0.0001
 74
     4
 75
   136
340
163B
 46
0.04
 50
0.0
 44
0.0
 45
0.0
 49
-11.0
 74
     0
  0
LTYPE
  5
163D
330
127D
100
AcDbSymbolTableRecord
100
AcDbLinetypeTableRecord
  2
AM_DIN_F_W050
 70
     0
  3
__ __ __ __ __ __ __ __ __ __ __ __ __ __ __
 72
    65
 73
     2
 40
6.25
 49
4.75
 74
     0
 49
-1.5
 74
     0
  0
LTYPE
  5
163E
330
127D
100
AcDbSymbolTableRecord
100
AcDbLinetypeTableRecord
  2
AM_DIN_G_W050
 70
     0
  3
____ . ____ . ____ . ____ . ____ . ____ . ____
 72
    65
 73
     4
 40
13.75
 49
9.75
 74
     0
 49
-1.5
 74
     0
 49
1.0
 74
     0
 49
-1.5
 74
     0
  0
LTYPE
  5
163F
330
127D
100
AcDbSymbolTableRecord
100
AcDbLinetypeTableRecord
  2
AM_DIN_K_W050
 70
     0
  3
_____ . . _____ . . _____ . . ____ .. ____
 72
    65
 73
     6
 40
16.25
 49
9.75
 74
     0
 49
-1.5
 74
     0
 49
1.0
 74
     0
 49
-1.5
 74
     0
 49
1.0
 74
     0
 49
-1.5
 74
     0
  0
LTYPE
  5
1640
330
127D
100
AcDbSymbolTableRecord
100
AcDbLinetypeTableRecord
  2
AM_DIN_G_W050x2
 70
     0
  3
__ . __ . __ . __ . __ . __
 72
    65
 73
     4
 40
6.875
 49
4.75
 74
     0
 49
-0.875
 74
     0
 49
0.375
 74
     0
 49
-0.875
 74
     0
  0
LTYPE
  5
1641
330
127D
100
AcDbSymbolTableRecord
100
AcDbLinetypeTableRecord
  2
AM_DIN_F_W050x2
 70
     0
  3
 _ _ _ _ _ _ _ _ _ _ _ _
 72
    65
 73
     2
 40
3.125
 49
2.25
 74
     0
 49
-0.875
 74
     0
  0
LTYPE
  5
1650
330
127D
100
AcDbSymbolTableRecord
100
AcDbLinetypeTableRecord
  2
ACDINWELD
 70
     0
  3
_ _ _ _ _
 72
    65
 73
     2
 40
2.0
 49
2.0
 74
     0
 49
-1.0
 74
     0
  0
LTYPE
  5
1651
330
127D
100
AcDbSymbolTableRecord
100
AcDbLinetypeTableRecord
  2
ACDINTGB
 70
     0
  3
__ . . __ . .
 72
    65
 73
     6
 40
9.0
 49
4.0
 74
     0
 49
-1.0
 74
     0
 49
1.0
 74
     0
 49
-1.0
 74
     0
 49
1.0
 74
     0
 49
-1.0
 74
     0
  0
LTYPE
  5
1652
330
127D
100
AcDbSymbolTableRecord
100
AcDbLinetypeTableRecord
  2
ACDINTGL
 70
     0
  3
_ _ _ _ _
 72
    65
 73
     2
 40
3.0
 49
2.0
 74
     0
 49
-1.0
 74
     0
  0
ENDTAB
  0
TABLE
  2
LAYER
  5
127A
330
0
100
AcDbSymbolTable
 70
    11
  0
LAYER
  5
1286
330
127A
100
AcDbSymbolTableRecord
100
AcDbLayerTableRecord
  2
0
 70
     0
 62
     7
  6
CONTINUOUS
370
    -3
390
15C2
  0
LAYER
  5
12A3
330
127A
100
AcDbSymbolTableRecord
100
AcDbLayerTableRecord
  2
5
 70
     0
 62
     3
  6
CONTINUOUS
370
    -3
390
15C2
  0
LAYER
  5
12A5
330
127A
100
AcDbSymbolTableRecord
100
AcDbLayerTableRecord
  2
7
 70
     0
 62
     4
  6
GEN7
370
    -3
390
15C2
  0
LAYER
  5
12A6
330
127A
100
AcDbSymbolTableRecord
100
AcDbLayerTableRecord
  2
8
 70
     0
 62
     1
  6
CONTINUOUS
370
    -3
390
15C2
  0
LAYER
  5
12A7
330
127A
100
AcDbSymbolTableRecord
100
AcDbLayerTableRecord
  2
SCHRAFFUR_RAND
 70
     0
 62
    36
  6
CONTINUOUS
370
    -3
390
15C2
  0
LAYER
  5
12EB
330
127A
100
AcDbSymbolTableRecord
100
AcDbLayerTableRecord
  2
DEFPOINTS
 70
     0
 62
     7
  6
CONTINUOUS
290
     0
370
    -3
390
15C2
  0
LAYER
  5
12EF
330
127A
100
AcDbSymbolTableRecord
100
AcDbLayerTableRecord
  2
RAHM2
 70
     0
 62
     1
  6
CONTINUOUS
370
    -3
390
15C2
  0
LAYER
  5
12F0
330
127A
100
AcDbSymbolTableRecord
100
AcDbLayerTableRecord
  2
RAHM3
 70
     0
 62
     2
  6
CONTINUOUS
370
    -3
390
15C2
  0
LAYER
  5
15B9
330
127A
100
AcDbSymbolTableRecord
100
AcDbLayerTableRecord
  2
GEVACTIVE
 70
     0
 62
     2
  6
CONTINUOUS
370
    -3
390
15C2
  0
LAYER
  5
15BA
330
127A
100
AcDbSymbolTableRecord
100
AcDbLayerTableRecord
  2
GEVINACTIVE
 70
     0
 62
     8
  6
CONTINUOUS
370
    -3
390
15C2
  0
LAYER
  5
15BB
330
127A
100
AcDbSymbolTableRecord
100
AcDbLayerTableRecord
  2
VCCNULL
 70
     0
 62
    -5
  6
CONTINUOUS
370
    -3
390
15C2
  0
ENDTAB
  0
TABLE
  2
STYLE
  5
127B
330
0
100
AcDbSymbolTable
 70
     4
  0
STYLE
  5
1287
330
127B
100
AcDbSymbolTableRecord
100
AcDbTextStyleTableRecord
  2
STANDARD
 70
     0
 40
0.0
 41
1.0
 50
0.0
 71
     0
 42
10.0
  3
ISOCP.SHX
  4

  0
STYLE
  5
163B
330
127B
100
AcDbSymbolTableRecord
100
AcDbTextStyleTableRecord
  2

 70
     1
 40
0.0
 41
1.0
 50
0.0
 71
     0
 42
0.2
  3
genltshp.shx
  4

  0
STYLE
  5
1642
330
127B
100
AcDbSymbolTableRecord
100
AcDbTextStyleTableRecord
  2
ACDINTS
 70
     0
 40
1.0
 41
1.0
 50
0.0
 71
     0
 42
0.2
  3
isocp.shx
  4

  0
STYLE
  5
164F
330
127B
100
AcDbSymbolTableRecord
100
AcDbTextStyleTableRecord
  2
ACDINGDT
 70
     0
 40
0.0
 41
1.0
 50
0.0
 71
     0
 42
0.2
  3
AMGDT
  4

  0
ENDTAB
  0
TABLE
  2
VIEW
  5
127E
330
0
100
AcDbSymbolTable
 70
     6
  0
VIEW
  5
1324
330
127E
100
AcDbSymbolTableRecord
100
AcDbViewTableRecord
  2
GEN1
 70
     0
 40
525.0
 10
396.875
 20
787.5
 41
793.75
 11
0.0
 21
0.0
 31
1.0
 12
0.0
 22
0.0
 32
0.0
 42
50.0
 43
0.0
 44
0.0
 50
0.0
 71
     0
281
     0
 72
     0
  0
VIEW
  5
1325
330
127E
100
AcDbSymbolTableRecord
100
AcDbViewTableRecord
  2
GEN2
 70
     0
 40
525.0
 10
653.125
 20
787.5
 41
793.75
 11
0.0
 21
0.0
 31
1.0
 12
0.0
 22
0.0
 32
0.0
 42
50.0
 43
0.0
 44
0.0
 50
0.0
 71
     0
281
     0
 72
     0
  0
VIEW
  5
1326
330
127E
100
AcDbSymbolTableRecord
100
AcDbViewTableRecord
  2
GEN3
 70
     0
 40
525.0
 10
396.875
 20
262.5
 41
793.75
 11
0.0
 21
0.0
 31
1.0
 12
0.0
 22
0.0
 32
0.0
 42
50.0
 43
0.0
 44
0.0
 50
0.0
 71
     0
281
     0
 72
     0
  0
VIEW
  5
1327
330
127E
100
AcDbSymbolTableRecord
100
AcDbViewTableRecord
  2
GEN4
 70
     0
 40
525.0
 10
653.125
 20
262.5
 41
793.75
 11
0.0
 21
0.0
 31
1.0
 12
0.0
 22
0.0
 32
0.0
 42
50.0
 43
0.0
 44
0.0
 50
0.0
 71
     0
281
     0
 72
     0
  0
VIEW
  5
1328
330
127E
100
AcDbSymbolTableRecord
100
AcDbViewTableRecord
  2
GEN5
 70
     0
 40
525.0
 10
525.0
 20
525.0
 41
793.75
 11
0.0
 21
0.0
 31
1.0
 12
0.0
 22
0.0
 32
0.0
 42
50.0
 43
0.0
 44
0.0
 50
0.0
 71
     0
281
     0
 72
     0
  0
VIEW
  5
1329
330
127E
100
AcDbSymbolTableRecord
100
AcDbViewTableRecord
  2
GEN6
 70
     0
 40
1049.9895
 10
525.0
 20
525.0
 41
1587.484125
 11
0.0
 21
0.0
 31
1.0
 12
0.0
 22
0.0
 32
0.0
 42
50.0
 43
0.0
 44
0.0
 50
0.0
 71
     0
281
     0
 72
     0
  0
ENDTAB
  0
TABLE
  2
UCS
  5
127F
330
0
100
AcDbSymbolTable
 70
     0
  0
ENDTAB
  0
TABLE
  2
APPID
  5
1281
330
0
100
AcDbSymbolTable
 70
    36
  0
APPID
  5
1288
330
1281
100
AcDbSymbolTableRecord
100
AcDbRegAppTableRecord
  2
ACAD
 70
     0
  0
APPID
  5
12C7
330
1281
100
AcDbSymbolTableRecord
100
AcDbRegAppTableRecord
  2
GENIUS_GENCFG_13
 70
     0
1001
GENIUS_GEFCFG0_13
1000
GEF
1001
GENIUS_GENCFG0_13
1000
GEN@INFO_POS@XLATE
1001
GENIUS_GENCFG1_13
1000
GEN@INFO_POS
1001
GENIUS_GENCFG2_13
1000
GEN@LAYER@DEFS
1001
GENIUS_GENCFG3_13
1000
GEN@LAYER@ENTSORT
1001
GENIUS_GENCFG4_13
1000
GEN
1001
GENIUS_GEVCFG0_13
1000
GEV
1001
GENIUS_DUMCFG0_13
1000
DUM
  0
APPID
  5
12C8
330
1281
100
AcDbSymbolTableRecord
100
AcDbRegAppTableRecord
  2
GENIUS_DUMCFG0_13
 70
     0
1001
GENIUS_GENCFG_13
1071
937215199
1000
12C8
1000
DUM
1070
     0
  0
APPID
  5
12C9
330
1281
100
AcDbSymbolTableRecord
100
AcDbRegAppTableRecord
  2
GENIUS_GEFCFG0_13
 70
     0
1001
GENIUS_GENCFG_13
1071
912171431
1000
12C9
1000
GEF
1070
     5
1000
GenCfgObject
1000
GenCfgString
1000
GenCfgReal
1000
GenCfgShort
1000
GenCfgBool
1000
System
1070
     0
1002
{
1002
}
1000
Prese
1070
     0
1002
{
1000
Funk
1070
     1
1000

1002
{
1002
}
1000
FunkDef
1070
     1
1000

1002
{
1002
}
1000
GefIso
1070
     1
1000
DIN
1002
{
1002
}
1002
}
1000
FEM
1070
     0
1002
{
1000
LayGroup
1070
     1
1000
FEM
1002
{
1002
}
1000
IncrCoef
1070
     2
1040
0.0
1002
{
1002
}
1002
}
1000
Shaft
1070
     0
1002
{
1000
Interrupt
1070
     3
1070
     0
1002
{
1002
}
1002
}
1000
PartDb
1070
     0
1002
{
1000
PartCreate
1070
     0
1002
{
1002
}
1000
SCP
1070
     0
1002
{
1002
}
1000
Symbol
1070
     0
1002
{
1002
}
1002
}
1000
Symbol
1070
     0
1002
{
1000
WeldStyle
1070
     1
1000
ISO
1002
{
1002
}
1000
WeldSize
1070
     2
1040
1.0
1002
{
1002
}
1000
WeldFlag
1070
     4
1070
     1
1002
{
1002
}
1000
WeldOffset
1070
     4
1070
     1
1002
{
1002
}
1000
TolCType
1070
     1
1000
ISO
1002
{
1002
}
1000
TolCSize
1070
     2
1040
1.0
1002
{
1002
}
1000
STextureSize
1070
     2
1040
1.0
1002
{
1002
}
1000
SurfaceType
1070
     1
1000

1002
{
1002
}
1000
M
1070
     0
1002
{
1000
WeldWidth
1070
     2
1040
3.0
1002
{
1002
}
1002
}
1000
I
1070
     0
1002
{
1000
WeldWidth
1070
     2
1040
0.125
1002
{
1002
}
1002
}
1002
}
  0
APPID
  5
12CA
330
1281
100
AcDbSymbolTableRecord
100
AcDbRegAppTableRecord
  2
GENIUS_GENCFG0_13
 70
     0
1001
GENIUS_GENCFG_13
1071
1021306013
1000
12CA
1000
GEN@INFO_POS@XLATE
1070
     7
1000
GenCfgObject
1000
GenCfgShort
1000
GenCfgReal
1000
GenCfgBool
1000
GenCfgString
1000
GenCfgDim
1000
GenCfgAttrInf
1000
INFOPOINTS
1070
     0
1002
{
1000
GENINF14
1070
     0
1002
{
1000
2GENINF
1070
     4
1000
2
1002
{
1002
}
1000
5GENINF
1070
     4
1000
5
1002
{
1002
}
1000
7GENINF
1070
     4
1000
7
1002
{
1002
}
1000
9GENINF
1070
     4
1000
9
1002
{
1002
}
1000
11GENINF
1070
     4
1000
11
1002
{
1002
}
1000
14GENINF
1070
     4
1000
14
1002
{
1002
}
1002
}
1000
GENINF13
1070
     0
1002
{
1000
2GENINF
1070
     4
1000
2
1002
{
1002
}
1000
3GENINF
1070
     4
1000
3
1002
{
1002
}
1000
4GENINF
1070
     4
1000
4
1002
{
1002
}
1000
5GENINF
1070
     4
1000
5
1002
{
1002
}
1000
6GENINF
1070
     4
1000
6
1002
{
1002
}
1000
7GENINF
1070
     4
1000
7
1002
{
1002
}
1000
8GENINF
1070
     4
1000
8
1002
{
1002
}
1000
9GENINF
1070
     4
1000
9
1002
{
1002
}
1000
10GENINF
1070
     4
1000
10
1002
{
1002
}
1000
11GENINF
1070
     4
1000
11
1002
{
1002
}
1000
12GENINF
1070
     4
1000
12
1002
{
1002
}
1000
13GENINF
1070
     4
1000
13
1002
{
1002
}
1000
14GENINF
1070
     4
1000
14
1002
{
1002
}
1000
15GENINF
1070
     4
1000
15
1002
{
1002
}
1000
16GENINF
1070
     4
1000
16
1002
{
1002
}
1000
17GENINF
1070
     4
1000
17
1002
{
1002
}
1000
18GENINF
1070
     4
1000
18
1002
{
1002
}
1000
19GENINF
1070
     4
1000
19
1002
{
1002
}
1000
20GENINF
1070
     4
1000
20
1002
{
1002
}
1000
21GENINF
1070
     4
1000
21
1002
{
1002
}
1000
22GENINF
1070
     4
1000
22
1002
{
1002
}
1000
23GENINF
1070
     4
1000
23
1002
{
1002
}
1000
24GENINF
1070
     4
1000
24
1002
{
1002
}
1000
0GENINF
1070
     4
1000
0
1002
{
1002
}
1002
}
1000
GENINFO
1070
     0
1002
{
1000
3GENINF
1070
     4
1000
3
1002
{
1002
}
1000
4GENINF
1070
     4
1000
4
1002
{
1002
}
1000
5GENINF
1070
     4
1000
5
1002
{
1002
}
1000
6GENINF
1070
     4
1000
6
1002
{
1002
}
1000
7GENINF
1070
     4
1000
7
1002
{
1002
}
1000
8GENINF
1070
     4
1000
8
1002
{
1002
}
1000
9GENINF
1070
     4
1000
9
1002
{
1002
}
1000
10GENINF
1070
     4
1000
10
1002
{
1002
}
1000
11GENINF
1070
     4
1000
11
1002
{
1002
}
1000
12GENINF
1070
     4
1000
12
1002
{
1002
}
1000
13GENINF
1070
     4
1000
13
1002
{
1002
}
1000
14GENINF
1070
     4
1000
14
1002
{
1002
}
1000
15GENINF
1070
     4
1000
15
1002
{
1002
}
1000
16GENINF
1070
     4
1000
16
1002
{
1002
}
1000
17GENINF
1070
     4
1000
17
1002
{
1002
}
1000
18GENINF
1070
     4
1000
18
1002
{
1002
}
1000
19GENINF
1070
     4
1000
19
1002
{
1002
}
1000
20GENINF
1070
     4
1000
20
1002
{
1002
}
1000
21GENINF
1070
     4
1000
21
1002
{
1002
}
1000
22GENINF
1070
     4
1000
22
1002
{
1002
}
1002
}
1000
DININFO
1070
     0
1002
{
1000
ST-NAME1
1070
     4
1000
5
1002
{
1002
}
1000
ST-NAME2
1070
     4
1000
6
1002
{
1002
}
1000
ST-NORM1
1070
     4
1000
7
1002
{
1002
}
1000
ST-NORM2
1070
     4
1000
8
1002
{
1002
}
1000
ST-MAT1
1070
     4
1000
9
1002
{
1002
}
1000
ST-MAT2
1070
     4
1000
10
1002
{
1002
}
1002
}
1002
}
1000
POS_NUMBERS
1070
     0
1002
{
1000
GENPOS14
1070
     0
1002
{
1000
1GENPOS
1070
     4
1000
1
1002
{
1002
}
1000
2GENPOS
1070
     4
1000
2
1002
{
1002
}
1000
5GENPOS
1070
     4
1000
5
1002
{
1002
}
1000
7GENPOS
1070
     4
1000
7
1002
{
1002
}
1000
9GENPOS
1070
     4
1000
9
1002
{
1002
}
1000
11GENPOS
1070
     4
1000
11
1002
{
1002
}
1000
14GENPOS
1070
     4
1000
14
1002
{
1002
}
1002
}
1000
GENPOS13
1070
     0
1002
{
1000
1GENPOS
1070
     4
1000
1
1002
{
1002
}
1000
2GENPOS
1070
     4
1000
2
1002
{
1002
}
1000
3GENPOS
1070
     4
1000
3
1002
{
1002
}
1000
4GENPOS
1070
     4
1000
4
1002
{
1002
}
1000
5GENPOS
1070
     4
1000
5
1002
{
1002
}
1000
6GENPOS
1070
     4
1000
6
1002
{
1002
}
1000
7GENPOS
1070
     4
1000
7
1002
{
1002
}
1000
8GENPOS
1070
     4
1000
8
1002
{
1002
}
1000
9GENPOS
1070
     4
1000
9
1002
{
1002
}
1000
10GENPOS
1070
     4
1000
10
1002
{
1002
}
1000
11GENPOS
1070
     4
1000
11
1002
{
1002
}
1000
12GENPOS
1070
     4
1000
12
1002
{
1002
}
1000
13GENPOS
1070
     4
1000
13
1002
{
1002
}
1000
14GENPOS
1070
     4
1000
14
1002
{
1002
}
1000
15GENPOS
1070
     4
1000
15
1002
{
1002
}
1000
16GENPOS
1070
     4
1000
16
1002
{
1002
}
1000
17GENPOS
1070
     4
1000
17
1002
{
1002
}
1000
18GENPOS
1070
     4
1000
18
1002
{
1002
}
1000
19GENPOS
1070
     4
1000
19
1002
{
1002
}
1000
20GENPOS
1070
     4
1000
20
1002
{
1002
}
1000
21GENPOS
1070
     4
1000
21
1002
{
1002
}
1000
22GENPOS
1070
     4
1000
22
1002
{
1002
}
1000
23GENPOS
1070
     4
1000
23
1002
{
1002
}
1000
24GENPOS
1070
     4
1000
24
1002
{
1002
}
1000
0GENPOS
1070
     4
1000
0
1002
{
1002
}
1002
}
1000
GENPOS
1070
     0
1002
{
1000
1GENPOS
1070
     4
1000
1
1002
{
1002
}
1000
2GENPOS
1070
     4
1000
2
1002
{
1002
}
1000
3GENPOS
1070
     4
1000
3
1002
{
1002
}
1000
4GENPOS
1070
     4
1000
4
1002
{
1002
}
1000
5GENPOS
1070
     4
1000
5
1002
{
1002
}
1000
6GENPOS
1070
     4
1000
6
1002
{
1002
}
1000
7GENPOS
1070
     4
1000
7
1002
{
1002
}
1000
8GENPOS
1070
     4
1000
8
1002
{
1002
}
1000
9GENPOS
1070
     4
1000
9
1002
{
1002
}
1000
10GENPOS
1070
     4
1000
10
1002
{
1002
}
1000
11GENPOS
1070
     4
1000
11
1002
{
1002
}
1000
12GENPOS
1070
     4
1000
12
1002
{
1002
}
1000
13GENPOS
1070
     4
1000
13
1002
{
1002
}
1000
14GENPOS
1070
     4
1000
14
1002
{
1002
}
1000
15GENPOS
1070
     4
1000
15
1002
{
1002
}
1000
16GENPOS
1070
     4
1000
16
1002
{
1002
}
1000
17GENPOS
1070
     4
1000
17
1002
{
1002
}
1000
18GENPOS
1070
     4
1000
18
1002
{
1002
}
1000
19GENPOS
1070
     4
1000
19
1002
{
1002
}
1000
20GENPOS
1070
     4
1000
20
1002
{
1002
}
1000
21GENPOS
1070
     4
1000
21
1002
{
1002
}
1000
22GENPOS
1070
     4
1000
22
1002
{
1002
}
1000
23GENPOS
1070
     4
1000
23
1002
{
1002
}
1002
}
1000
DIN985
1070
     0
1002
{
1000
POSITION
1070
     4
1000
1
1002
{
1002
}
1000
MENGE
1070
     4
1000
2
1002
{
1002
}
1000
BLATT
1070
     4
1000
3
1002
{
1002
}
1000
BENENN
1070
     4
1000
5
1002
{
1002
}
1000
BENENN2
1070
     4
1000
6
1002
{
1002
}
1000
NORM
1070
     4
1000
7
1002
{
1002
}
1000
NORM2
1070
     4
1000
8
1002
{
1002
}
1000
WERKSTOFF
1070
     4
1000
9
1002
{
1002
}
1000
WERKSTOFF2
1070
     4
1000
10
1002
{
1002
}
1002
}
1000
DIN986
1070
     0
1002
{
1000
POSITION
1070
     4
1000
1
1002
{
1002
}
1000
MENGE
1070
     4
1000
2
1002
{
1002
}
1000
BLATT
1070
     4
1000
3
1002
{
1002
}
1000
BENENN
1070
     4
1000
5
1002
{
1002
}
1000
BENENN2
1070
     4
1000
6
1002
{
1002
}
1000
NORM
1070
     4
1000
7
1002
{
1002
}
1000
NORM2
1070
     4
1000
8
1002
{
1002
}
1000
WERKSTOFF
1070
     4
1000
9
1002
{
1002
}
1000
WERKSTOFF2
1070
     4
1000
10
1002
{
1002
}
1002
}
1000
DIN987
1070
     0
1002
{
1000
POSITION
1070
     4
1000
1
1002
{
1002
}
1000
MENGE
1070
     4
1000
2
1002
{
1002
}
1000
BLATT
1070
     4
1000
3
1002
{
1002
}
1000
BENENN
1070
     4
1000
5
1002
{
1002
}
1000
BENENN2
1070
     4
1000
6
1002
{
1002
}
1000
NORM
1070
     4
1000
7
1002
{
1002
}
1000
NORM2
1070
     4
1000
8
1002
{
1002
}
1000
WERKSTOFF
1070
     4
1000
9
1002
{
1002
}
1000
WERKSTOFF2
1070
     4
1000
10
1002
{
1002
}
1002
}
1002
}
  0
APPID
  5
12CB
330
1281
100
AcDbSymbolTableRecord
100
AcDbRegAppTableRecord
  2
GENIUS_GENCFG1_13
 70
     0
1001
GENIUS_GENCFG_13
1071
1021306013
1000
12CB
1000
GEN@INFO_POS
1070
     7
1000
GenCfgObject
1000
GenCfgShort
1000
GenCfgReal
1000
GenCfgBool
1000
GenCfgString
1000
GenCfgDim
1000
GenCfgAttrInf
1000
DescrText
1070
     4
1000
5, ,6, ,7, ,8
1002
{
1002
}
1000
DescrText2
1070
     4
1000
26
1002
{
1002
}
1000
VisibleAttr1
1070
     4
1000
1
1002
{
1002
}
1000
VisibleAttr2
1070
     4
1000
26
1002
{
1002
}
1000
UpdateBlock
1070
     3
1070
     1
1002
{
1002
}
1000
Attrib
1070
     0
1002
{
1000
0
1070
     6
1002
{
1000
Prompt
1070
     4
1000
(genmsg gendwg 103)
1002
{
1002
}
1000
Value
1070
     4
1000

1002
{
1002
}
1000
EditFlag
1070
     1
1070
     0
1002
{
1002
}
1000
PosInDDATTE
1070
     1
1070
    27
1002
{
1002
}
1000
FieldLen
1070
     1
1070
    -1
1002
{
1002
}
1002
}
1000
1
1070
     6
1002
{
1000
Prompt
1070
     4
1000
(genmsg gendwg 31)
1002
{
1002
}
1000
Value
1070
     4
1000
1
1002
{
1002
}
1000
EditFlag
1070
     1
1070
     1
1002
{
1002
}
1000
PosInDDATTE
1070
     1
1070
     1
1002
{
1002
}
1000
FieldLen
1070
     1
1070
    -1
1002
{
1002
}
1002
}
1000
2
1070
     6
1002
{
1000
Prompt
1070
     4
1000
(genmsg gendwg 32)
1002
{
1002
}
1000
Value
1070
     4
1000
1
1002
{
1002
}
1000
EditFlag
1070
     1
1070
     1
1002
{
1002
}
1000
PosInDDATTE
1070
     1
1070
     2
1002
{
1002
}
1000
FieldLen
1070
     1
1070
    -1
1002
{
1002
}
1002
}
1000
3
1070
     6
1002
{
1000
Prompt
1070
     4
1000
(genmsg gendwg 33)
1002
{
1002
}
1000
Value
1070
     4
1000

1002
{
1002
}
1000
EditFlag
1070
     1
1070
     1
1002
{
1002
}
1000
PosInDDATTE
1070
     1
1070
     3
1002
{
1002
}
1000
FieldLen
1070
     1
1070
    -1
1002
{
1002
}
1002
}
1000
4
1070
     6
1002
{
1000
Prompt
1070
     4
1000
(genmsg gendwg 34)
1002
{
1002
}
1000
Value
1070
     4
1000

1002
{
1002
}
1000
EditFlag
1070
     1
1070
     1
1002
{
1002
}
1000
PosInDDATTE
1070
     1
1070
     4
1002
{
1002
}
1000
FieldLen
1070
     1
1070
    -1
1002
{
1002
}
1002
}
1000
5
1070
     6
1002
{
1000
Prompt
1070
     4
1000
(genmsg gendwg 35)
1002
{
1002
}
1000
Value
1070
     4
1000

1002
{
1002
}
1000
EditFlag
1070
     1
1070
     1
1002
{
1002
}
1000
PosInDDATTE
1070
     1
1070
     5
1002
{
1002
}
1000
FieldLen
1070
     1
1070
    -1
1002
{
1002
}
1002
}
1000
6
1070
     6
1002
{
1000
Prompt
1070
     4
1000
(genmsg gendwg 36)
1002
{
1002
}
1000
Value
1070
     4
1000

1002
{
1002
}
1000
EditFlag
1070
     1
1070
     1
1002
{
1002
}
1000
PosInDDATTE
1070
     1
1070
     6
1002
{
1002
}
1000
FieldLen
1070
     1
1070
    -1
1002
{
1002
}
1002
}
1000
7
1070
     6
1002
{
1000
Prompt
1070
     4
1000
(genmsg gendwg 37)
1002
{
1002
}
1000
Value
1070
     4
1000

1002
{
1002
}
1000
EditFlag
1070
     1
1070
     1
1002
{
1002
}
1000
PosInDDATTE
1070
     1
1070
     7
1002
{
1002
}
1000
FieldLen
1070
     1
1070
    -1
1002
{
1002
}
1002
}
1000
8
1070
     6
1002
{
1000
Prompt
1070
     4
1000
(genmsg gendwg 38)
1002
{
1002
}
1000
Value
1070
     4
1000

1002
{
1002
}
1000
EditFlag
1070
     1
1070
     1
1002
{
1002
}
1000
PosInDDATTE
1070
     1
1070
     8
1002
{
1002
}
1000
FieldLen
1070
     1
1070
    -1
1002
{
1002
}
1002
}
1000
9
1070
     6
1002
{
1000
Prompt
1070
     4
1000
(genmsg gendwg 39)
1002
{
1002
}
1000
Value
1070
     4
1000

1002
{
1002
}
1000
EditFlag
1070
     1
1070
     1
1002
{
1002
}
1000
PosInDDATTE
1070
     1
1070
     9
1002
{
1002
}
1000
FieldLen
1070
     1
1070
    -1
1002
{
1002
}
1002
}
1000
10
1070
     6
1002
{
1000
Prompt
1070
     4
1000
(genmsg gendwg 40)
1002
{
1002
}
1000
Value
1070
     4
1000

1002
{
1002
}
1000
EditFlag
1070
     1
1070
     1
1002
{
1002
}
1000
PosInDDATTE
1070
     1
1070
    10
1002
{
1002
}
1000
FieldLen
1070
     1
1070
    -1
1002
{
1002
}
1002
}
1000
11
1070
     6
1002
{
1000
Prompt
1070
     4
1000
(genmsg gendwg 41)
1002
{
1002
}
1000
Value
1070
     4
1000

1002
{
1002
}
1000
EditFlag
1070
     1
1070
     1
1002
{
1002
}
1000
PosInDDATTE
1070
     1
1070
    11
1002
{
1002
}
1000
FieldLen
1070
     1
1070
    -1
1002
{
1002
}
1002
}
1000
12
1070
     6
1002
{
1000
Prompt
1070
     4
1000
(genmsg gendwg 42)
1002
{
1002
}
1000
Value
1070
     4
1000

1002
{
1002
}
1000
EditFlag
1070
     1
1070
     1
1002
{
1002
}
1000
PosInDDATTE
1070
     1
1070
    12
1002
{
1002
}
1000
FieldLen
1070
     1
1070
    -1
1002
{
1002
}
1002
}
1000
13
1070
     6
1002
{
1000
Prompt
1070
     4
1000
(genmsg gendwg 43)
1002
{
1002
}
1000
Value
1070
     4
1000

1002
{
1002
}
1000
EditFlag
1070
     1
1070
     1
1002
{
1002
}
1000
PosInDDATTE
1070
     1
1070
    13
1002
{
1002
}
1000
FieldLen
1070
     1
1070
    -1
1002
{
1002
}
1002
}
1000
14
1070
     6
1002
{
1000
Prompt
1070
     4
1000
(genmsg gendwg 44)
1002
{
1002
}
1000
Value
1070
     4
1000

1002
{
1002
}
1000
EditFlag
1070
     1
1070
     1
1002
{
1002
}
1000
PosInDDATTE
1070
     1
1070
    14
1002
{
1002
}
1000
FieldLen
1070
     1
1070
    -1
1002
{
1002
}
1002
}
1000
15
1070
     6
1002
{
1000
Prompt
1070
     4
1000
(genmsg gendwg 45)
1002
{
1002
}
1000
Value
1070
     4
1000

1002
{
1002
}
1000
EditFlag
1070
     1
1070
     1
1002
{
1002
}
1000
PosInDDATTE
1070
     1
1070
    15
1002
{
1002
}
1000
FieldLen
1070
     1
1070
    -1
1002
{
1002
}
1002
}
1000
16
1070
     6
1002
{
1000
Prompt
1070
     4
1000
(genmsg gendwg 46)
1002
{
1002
}
1000
Value
1070
     4
1000

1002
{
1002
}
1000
EditFlag
1070
     1
1070
     1
1002
{
1002
}
1000
PosInDDATTE
1070
     1
1070
    16
1002
{
1002
}
1000
FieldLen
1070
     1
1070
    -1
1002
{
1002
}
1002
}
1000
17
1070
     6
1002
{
1000
Prompt
1070
     4
1000
(genmsg gendwg 47)
1002
{
1002
}
1000
Value
1070
     4
1000

1002
{
1002
}
1000
EditFlag
1070
     1
1070
     1
1002
{
1002
}
1000
PosInDDATTE
1070
     1
1070
    17
1002
{
1002
}
1000
FieldLen
1070
     1
1070
    -1
1002
{
1002
}
1002
}
1000
18
1070
     6
1002
{
1000
Prompt
1070
     4
1000
(genmsg gendwg 48)
1002
{
1002
}
1000
Value
1070
     4
1000

1002
{
1002
}
1000
EditFlag
1070
     1
1070
     1
1002
{
1002
}
1000
PosInDDATTE
1070
     1
1070
    18
1002
{
1002
}
1000
FieldLen
1070
     1
1070
    -1
1002
{
1002
}
1002
}
1000
19
1070
     6
1002
{
1000
Prompt
1070
     4
1000
(genmsg gendwg 99)
1002
{
1002
}
1000
Value
1070
     4
1000

1002
{
1002
}
1000
EditFlag
1070
     1
1070
     1
1002
{
1002
}
1000
PosInDDATTE
1070
     1
1070
    19
1002
{
1002
}
1000
FieldLen
1070
     1
1070
    -1
1002
{
1002
}
1002
}
1000
20
1070
     6
1002
{
1000
Prompt
1070
     4
1000
(genmsg gendwg 100)
1002
{
1002
}
1000
Value
1070
     4
1000

1002
{
1002
}
1000
EditFlag
1070
     1
1070
     1
1002
{
1002
}
1000
PosInDDATTE
1070
     1
1070
    20
1002
{
1002
}
1000
FieldLen
1070
     1
1070
    -1
1002
{
1002
}
1002
}
1000
21
1070
     6
1002
{
1000
Prompt
1070
     4
1000
(genmsg gendwg 101)
1002
{
1002
}
1000
Value
1070
     4
1000

1002
{
1002
}
1000
EditFlag
1070
     1
1070
     1
1002
{
1002
}
1000
PosInDDATTE
1070
     1
1070
    21
1002
{
1002
}
1000
FieldLen
1070
     1
1070
    -1
1002
{
1002
}
1002
}
1000
22
1070
     6
1002
{
1000
Prompt
1070
     4
1000
(genmsg gendwg 102)
1002
{
1002
}
1000
Value
1070
     4
1000

1002
{
1002
}
1000
EditFlag
1070
     1
1070
     1
1002
{
1002
}
1000
PosInDDATTE
1070
     1
1070
    22
1002
{
1002
}
1000
FieldLen
1070
     1
1070
    -1
1002
{
1002
}
1002
}
1000
23
1070
     6
1002
{
1000
Prompt
1070
     4
1000
(genmsg gendwg 30)
1002
{
1002
}
1000
Value
1070
     4
1000

1002
{
1002
}
1000
EditFlag
1070
     1
1070
     1
1002
{
1002
}
1000
PosInDDATTE
1070
     1
1070
    23
1002
{
1002
}
1000
FieldLen
1070
     1
1070
    -1
1002
{
1002
}
1002
}
1000
24
1070
     6
1002
{
1000
Prompt
1070
     4
1000
(genmsg gendwg 104)
1002
{
1002
}
1000
Value
1070
     4
1000

1002
{
1002
}
1000
EditFlag
1070
     1
1070
     1
1002
{
1002
}
1000
PosInDDATTE
1070
     1
1070
    24
1002
{
1002
}
1000
FieldLen
1070
     1
1070
    -1
1002
{
1002
}
1002
}
1000
25
1070
     6
1002
{
1000
Prompt
1070
     4
1000
(genmsg gendwg 105)
1002
{
1002
}
1000
Value
1070
     4
1000

1002
{
1002
}
1000
EditFlag
1070
     1
1070
     1
1002
{
1002
}
1000
PosInDDATTE
1070
     1
1070
    25
1002
{
1002
}
1000
FieldLen
1070
     1
1070
    -1
1002
{
1002
}
1002
}
1000
26
1070
     6
1002
{
1000
Prompt
1070
     4
1000
(genmsg gendwg 106)
1002
{
1002
}
1000
Value
1070
     4
1000

1002
{
1002
}
1000
EditFlag
1070
     1
1070
     1
1002
{
1002
}
1000
PosInDDATTE
1070
     1
1070
    26
1002
{
1002
}
1000
FieldLen
1070
     1
1070
    -1
1002
{
1002
}
1002
}
1000
27
1070
     6
1002
{
1000
Prompt
1070
     4
1000
(genmsg gendwg 109)
1002
{
1002
}
1000
Value
1070
     4
1000

1002
{
1002
}
1000
EditFlag
1070
     1
1070
     2
1002
{
1002
}
1000
PosInDDATTE
1070
     1
1070
    27
1002
{
1002
}
1000
FieldLen
1070
     1
1070
    -1
1002
{
1002
}
1002
}
1002
}
1000
Xlate
1070
     0
1002
{
1000
>
1002
}
  0
APPID
  5
12CC
330
1281
100
AcDbSymbolTableRecord
100
AcDbRegAppTableRecord
  2
GENIUS_GENCFG2_13
 70
     0
1001
GENIUS_GENCFG_13
1071
1021306013
1000
12CC
1000
GEN@LAYER@DEFS
1070
     9
1000
GenCfgObject
1000
GenCfgShort
1000
GenCfgReal
1000
GenCfgBool
1000
GenCfgString
1000
GenCfgDim
1000
GenCfgAttrInf
1000
GenCfgLaySection
1000
GenCfgLayer
1000
Basic
1070
     0
1002
{
1000
0
1070
     8
1000
0
1002
{
1000
Color
1070
     1
1070
     7
1002
{
1002
}
1000
LType
1070
     4
1000
CONTINUOUS
1002
{
1002
}
1000
Base
1070
     3
1070
     0
1002
{
1002
}
1002
}
1000
1
1070
     8
1000
1
1002
{
1000
Color
1070
     1
1070
    14
1002
{
1002
}
1000
LType
1070
     4
1000
CONTINUOUS
1002
{
1002
}
1000
Base
1070
     3
1070
     0
1002
{
1002
}
1002
}
1000
2
1070
     8
1000
2
1002
{
1000
Color
1070
     1
1070
     5
1002
{
1002
}
1000
LType
1070
     4
1000
CONTINUOUS
1002
{
1002
}
1000
Base
1070
     3
1070
     0
1002
{
1002
}
1002
}
1000
3
1070
     8
1000
3
1002
{
1000
Color
1070
     1
1070
     6
1002
{
1002
}
1000
LType
1070
     4
1000
GEN3
1002
{
1002
}
1000
Base
1070
     3
1070
     0
1002
{
1002
}
1002
}
1000
4
1070
     8
1000
4
1002
{
1000
Color
1070
     1
1070
     3
1002
{
1002
}
1000
LType
1070
     4
1000
CONTINUOUS
1002
{
1002
}
1000
Base
1070
     3
1070
     0
1002
{
1002
}
1002
}
1000
5
1070
     8
1000
5
1002
{
1000
Color
1070
     1
1070
     3
1002
{
1002
}
1000
LType
1070
     4
1000
CONTINUOUS
1002
{
1002
}
1000
Base
1070
     3
1070
     0
1002
{
1002
}
1002
}
1000
6
1070
     8
1000
6
1002
{
1000
Color
1070
     1
1070
     2
1002
{
1002
}
1000
LType
1070
     4
1000
CONTINUOUS
1002
{
1002
}
1000
Base
1070
     3
1070
     0
1002
{
1002
}
1002
}
1000
7
1070
     8
1000
7
1002
{
1000
Color
1070
     1
1070
     4
1002
{
1002
}
1000
LType
1070
     4
1000
GEN7
1002
{
1002
}
1000
Base
1070
     3
1070
     0
1002
{
1002
}
1002
}
1000
8
1070
     8
1000
8
1002
{
1000
Color
1070
     1
1070
     1
1002
{
1002
}
1000
LType
1070
     4
1000
CONTINUOUS
1002
{
1002
}
1000
Base
1070
     3
1070
     0
1002
{
1002
}
1002
}
1000
3A
1070
     8
1000
3A
1002
{
1000
Color
1070
     1
1070
     6
1002
{
1002
}
1000
LType
1070
     4
1000
GEN3A
1002
{
1002
}
1000
Base
1070
     3
1070
     0
1002
{
1002
}
1002
}
1000
7A
1070
     8
1000
7A
1002
{
1000
Color
1070
     1
1070
     4
1002
{
1002
}
1000
LType
1070
     4
1000
GEN7A
1002
{
1002
}
1000
Base
1070
     3
1070
     0
1002
{
1002
}
1002
}
1000
2A
1070
     8
1000
2A
1002
{
1000
Color
1070
     1
1070
     7
1002
{
1002
}
1000
LType
1070
     4
1000
GEN7
1002
{
1002
}
1000
Base
1070
     3
1070
     0
1002
{
1002
}
1002
}
1000
4A
1070
     8
1000
4A
1002
{
1000
Color
1070
     1
1070
     3
1002
{
1002
}
1000
LType
1070
     4
1000
GEN4A
1002
{
1002
}
1000
Base
1070
     3
1070
     0
1002
{
1002
}
1002
}
1000
9
1070
     8
1000
9
1002
{
1000
Color
1070
     1
1070
   253
1002
{
1002
}
1000
LType
1070
     4
1000
CONTINUOUS
1002
{
1002
}
1000
Base
1070
     3
1070
     0
1002
{
1002
}
1002
}
1000
IP
1070
     8
1000
IP
1002
{
1000
Color
1070
     1
1070
     7
1002
{
1002
}
1000
LType
1070
     4
1000
CONTINUOUS
1002
{
1002
}
1000
Base
1070
     3
1070
     0
1002
{
1002
}
1002
}
1002
}
1000
Standard
1070
     0
1002
{
1000
0N
1070
     8
1000
0N
1002
{
1000
Color
1070
     1
1070
     7
1002
{
1002
}
1000
LType
1070
     4
1000
CONTINUOUS
1002
{
1002
}
1000
Base
1070
     3
1070
     0
1002
{
1002
}
1002
}
1000
1N
1070
     8
1000
1N
1002
{
1000
Color
1070
     1
1070
    14
1002
{
1002
}
1000
LType
1070
     4
1000
CONTINUOUS
1002
{
1002
}
1000
Base
1070
     3
1070
     0
1002
{
1002
}
1002
}
1000
2N
1070
     8
1000
2N
1002
{
1000
Color
1070
     1
1070
     5
1002
{
1002
}
1000
LType
1070
     4
1000
CONTINUOUS
1002
{
1002
}
1000
Base
1070
     3
1070
     0
1002
{
1002
}
1002
}
1000
3N
1070
     8
1000
3N
1002
{
1000
Color
1070
     1
1070
     6
1002
{
1002
}
1000
LType
1070
     4
1000
GEN3
1002
{
1002
}
1000
Base
1070
     3
1070
     0
1002
{
1002
}
1002
}
1000
4N
1070
     8
1000
4N
1002
{
1000
Color
1070
     1
1070
     3
1002
{
1002
}
1000
LType
1070
     4
1000
CONTINUOUS
1002
{
1002
}
1000
Base
1070
     3
1070
     0
1002
{
1002
}
1002
}
1000
5N
1070
     8
1000
5N
1002
{
1000
Color
1070
     1
1070
     3
1002
{
1002
}
1000
LType
1070
     4
1000
CONTINUOUS
1002
{
1002
}
1000
Base
1070
     3
1070
     0
1002
{
1002
}
1002
}
1000
6N
1070
     8
1000
6N
1002
{
1000
Color
1070
     1
1070
     2
1002
{
1002
}
1000
LType
1070
     4
1000
CONTINUOUS
1002
{
1002
}
1000
Base
1070
     3
1070
     0
1002
{
1002
}
1002
}
1000
7N
1070
     8
1000
7N
1002
{
1000
Color
1070
     1
1070
     4
1002
{
1002
}
1000
LType
1070
     4
1000
GEN7
1002
{
1002
}
1000
Base
1070
     3
1070
     0
1002
{
1002
}
1002
}
1000
8N
1070
     8
1000
8N
1002
{
1000
Color
1070
     1
1070
     1
1002
{
1002
}
1000
LType
1070
     4
1000
CONTINUOUS
1002
{
1002
}
1000
Base
1070
     3
1070
     0
1002
{
1002
}
1002
}
1000
3AN
1070
     8
1000
3AN
1002
{
1000
Color
1070
     1
1070
     6
1002
{
1002
}
1000
LType
1070
     4
1000
GEN3A
1002
{
1002
}
1000
Base
1070
     3
1070
     0
1002
{
1002
}
1002
}
1000
7AN
1070
     8
1000
7AN
1002
{
1000
Color
1070
     1
1070
     4
1002
{
1002
}
1000
LType
1070
     4
1000
GEN7A
1002
{
1002
}
1000
Base
1070
     3
1070
     0
1002
{
1002
}
1002
}
1000
2AN
1070
     8
1000
2AN
1002
{
1000
Color
1070
     1
1070
     7
1002
{
1002
}
1000
LType
1070
     4
1000
GEN7
1002
{
1002
}
1000
Base
1070
     3
1070
     0
1002
{
1002
}
1002
}
1000
4AN
1070
     8
1000
4AN
1002
{
1000
Color
1070
     1
1070
     3
1002
{
1002
}
1000
LType
1070
     4
1000
GEN4A
1002
{
1002
}
1000
Base
1070
     3
1070
     0
1002
{
1002
}
1002
}
1000
9N
1070
     8
1000
9N
1002
{
1000
Color
1070
     1
1070
   253
1002
{
1002
}
1000
LType
1070
     4
1000
CONTINUOUS
1002
{
1002
}
1000
Base
1070
     3
1070
     0
1002
{
1002
}
1002
}
1000
IPN
1070
     8
1000
IPN
1002
{
1000
Color
1070
     1
1070
     7
1002
{
1002
}
1000
LType
1070
     4
1000
CONTINUOUS
1002
{
1002
}
1000
Base
1070
     3
1070
     0
1002
{
1002
}
1002
}
1002
}
1000
Extra
1070
     0
1002
{
1000
Klin
1070
     8
1000
KLIN
1002
{
1000
Color
1070
     1
1070
     1
1002
{
1002
}
1000
LType
1070
     4
1000
CONTINUOUS
1002
{
1002
}
1000
Base
1070
     3
1070
     1
1002
{
1002
}
1002
}
1000
Info
1070
     8
1000
INFO
1002
{
1000
Color
1070
     1
1070
     4
1002
{
1002
}
1000
LType
1070
     4
1000
CONTINUOUS
1002
{
1002
}
1000
Base
1070
     3
1070
     1
1002
{
1002
}
1002
}
1000
Rahm2
1070
     8
1000
RAHM2
1002
{
1000
Color
1070
     1
1070
     1
1002
{
1002
}
1000
LType
1070
     4
1000
CONTINUOUS
1002
{
1002
}
1000
Base
1070
     3
1070
     1
1002
{
1002
}
1002
}
1000
Rahm3
1070
     8
1000
RAHM3
1002
{
1000
Color
1070
     1
1070
     2
1002
{
1002
}
1000
LType
1070
     4
1000
CONTINUOUS
1002
{
1002
}
1000
Base
1070
     3
1070
     1
1002
{
1002
}
1002
}
1000
Rahm5
1070
     8
1000
RAHM5
1002
{
1000
Color
1070
     1
1070
     7
1002
{
1002
}
1000
LType
1070
     4
1000
CONTINUOUS
1002
{
1002
}
1000
Base
1070
     3
1070
     1
1002
{
1002
}
1002
}
1000
View
1070
     8
1000
VIEW
1002
{
1000
Color
1070
     1
1070
     1
1002
{
1002
}
1000
LType
1070
     4
1000
CONTINUOUS
1002
{
1002
}
1000
Base
1070
     3
1070
     1
1002
{
1002
}
1002
}
1000
Behind
1070
     8
1000
BEHIND
1002
{
1000
Color
1070
     1
1070
   253
1002
{
1002
}
1000
LType
1070
     4
1000
CONTINUOUS
1002
{
1002
}
1000
Base
1070
     3
1070
     1
1002
{
1002
}
1002
}
1002
}
  0
APPID
  5
12CD
330
1281
100
AcDbSymbolTableRecord
100
AcDbRegAppTableRecord
  2
GENIUS_GENCFG3_13
 70
     0
1001
GENIUS_GENCFG_13
1071
1021306013
1000
12CD
1000
GEN@LAYER@ENTSORT
1070
    10
1000
GenCfgObject
1000
GenCfgShort
1000
GenCfgReal
1000
GenCfgBool
1000
GenCfgString
1000
GenCfgDim
1000
GenCfgAttrInf
1000
GenCfgLaySection
1000
GenCfgLayer
1000
GenCfgEntSort
1000
ADDL
1070
     9
1000
5
1002
{
1000
Class
1070
     4
1000
SYM
1002
{
1002
}
1000
Color
1070
     1
1070
     1
1002
{
1002
}
1000
LType
1070
     4
1000
BYLAYER
1002
{
1002
}
1002
}
1000
ALTR
1070
     9
1000
4
1002
{
1000
Class
1070
     4
1000

1002
{
1002
}
1000
Color
1070
     1
1070
     7
1002
{
1002
}
1000
LType
1070
     4
1000
GEN3A
1002
{
1002
}
1002
}
1000
BELI
1070
     9
1000
4
1002
{
1000
Class
1070
     4
1000

1002
{
1002
}
1000
Color
1070
     1
1070
   256
1002
{
1002
}
1000
LType
1070
     4
1000
BYLAYER
1002
{
1002
}
1002
}
1000
BHNV
1070
     9
1000
9
1002
{
1000
Class
1070
     4
1000
INV
1002
{
1002
}
1000
Color
1070
     1
1070
   256
1002
{
1002
}
1000
LType
1070
     4
1000
BYLAYER
1002
{
1002
}
1002
}
1000
BHNVS
1070
     9
1000
BEHIND
1002
{
1000
Class
1070
     4
1000
INV
1002
{
1002
}
1000
Color
1070
     1
1070
   256
1002
{
1002
}
1000
LType
1070
     4
1000
BYLAYER
1002
{
1002
}
1002
}
1000
BLID
1070
     9
1000
4A
1002
{
1000
Class
1070
     4
1000

1002
{
1002
}
1000
Color
1070
     1
1070
   256
1002
{
1002
}
1000
LType
1070
     4
1000
BYLAYER
1002
{
1002
}
1002
}
1000
BOAP
1070
     9
1000
4A
1002
{
1000
Class
1070
     4
1000

1002
{
1002
}
1000
Color
1070
     1
1070
   256
1002
{
1002
}
1000
LType
1070
     4
1000
BYLAYER
1002
{
1002
}
1002
}
1000
BOR2
1070
     9
1000
RAHM2
1002
{
1000
Class
1070
     4
1000
SPZ,SYM
1002
{
1002
}
1000
Color
1070
     1
1070
   256
1002
{
1002
}
1000
LType
1070
     4
1000
BYLAYER
1002
{
1002
}
1002
}
1000
BOR3
1070
     9
1000
RAHM3
1002
{
1000
Class
1070
     4
1000
SPZ,SYM
1002
{
1002
}
1000
Color
1070
     1
1070
   256
1002
{
1002
}
1000
LType
1070
     4
1000
BYLAYER
1002
{
1002
}
1002
}
1000
BOR5
1070
     9
1000
RAHM5
1002
{
1000
Class
1070
     4
1000
SPZ,SYM
1002
{
1002
}
1000
Color
1070
     1
1070
   256
1002
{
1002
}
1000
LType
1070
     4
1000
BYLAYER
1002
{
1002
}
1002
}
1000
BOR7
1070
     9
1000
RAHM5
1002
{
1000
Class
1070
     4
1000
SPZ,SYM
1002
{
1002
}
1000
Color
1070
     1
1070
     7
1002
{
1002
}
1000
LType
1070
     4
1000
CONTINUOUS
1002
{
1002
}
1002
}
1000
BPAP
1070
     9
1000
4A
1002
{
1000
Class
1070
     4
1000

1002
{
1002
}
1000
Color
1070
     1
1070
   256
1002
{
1002
}
1000
LType
1070
     4
1000
BYLAYER
1002
{
1002
}
1002
}
1000
BPEX
1070
     9
1000
4A
1002
{
1000
Class
1070
     4
1000

1002
{
1002
}
1000
Color
1070
     1
1070
   256
1002
{
1002
}
1000
LType
1070
     4
1000
BYLAYER
1002
{
1002
}
1002
}
1000
BTDI
1070
     9
1000
5
1002
{
1000
Class
1070
     4
1000
DIM,SYM
1002
{
1002
}
1000
Color
1070
     1
1070
   256
1002
{
1002
}
1000
LType
1070
     4
1000
BYLAYER
1002
{
1002
}
1002
}
1000
CAL2
1070
     9
1000
4
1002
{
1000
Class
1070
     4
1000
SYM
1002
{
1002
}
1000
Color
1070
     1
1070
   256
1002
{
1002
}
1000
LType
1070
     4
1000
BYLAYER
1002
{
1002
}
1002
}
1000
CAL3
1070
     9
1000
4
1002
{
1000
Class
1070
     4
1000
SYM
1002
{
1002
}
1000
Color
1070
     1
1070
     2
1002
{
1002
}
1000
LType
1070
     4
1000
BYLAYER
1002
{
1002
}
1002
}
1000
CAL5
1070
     9
1000
4
1002
{
1000
Class
1070
     4
1000
SYM
1002
{
1002
}
1000
Color
1070
     1
1070
     7
1002
{
1002
}
1000
LType
1070
     4
1000
BYLAYER
1002
{
1002
}
1002
}
1000
CAL7
1070
     9
1000
4
1002
{
1000
Class
1070
     4
1000
SYM
1002
{
1002
}
1000
Color
1070
     1
1070
     5
1002
{
1002
}
1000
LType
1070
     4
1000
BYLAYER
1002
{
1002
}
1002
}
1000
CENN
1070
     9
1000
7A
1002
{
1000
Class
1070
     4
1000
CEN
1002
{
1002
}
1000
Color
1070
     1
1070
   256
1002
{
1002
}
1000
LType
1070
     4
1000
BYLAYER
1002
{
1002
}
1002
}
1000
CENW
1070
     9
1000
7
1002
{
1000
Class
1070
     4
1000
CEN
1002
{
1002
}
1000
Color
1070
     1
1070
   256
1002
{
1002
}
1000
LType
1070
     4
1000
BYLAYER
1002
{
1002
}
1002
}
1000
CLIN
1070
     9
1000
KLIN
1002
{
1000
Class
1070
     4
1000
SPZ
1002
{
1002
}
1000
Color
1070
     1
1070
   256
1002
{
1002
}
1000
LType
1070
     4
1000
BYLAYER
1002
{
1002
}
1002
}
1000
CON1
1070
     9
1000
0
1002
{
1000
Class
1070
     4
1000
CON,BGD
1002
{
1002
}
1000
Color
1070
     1
1070
   256
1002
{
1002
}
1000
LType
1070
     4
1000
BYLAYER
1002
{
1002
}
1002
}
1000
CON2
1070
     9
1000
1
1002
{
1000
Class
1070
     4
1000
CON,BGD
1002
{
1002
}
1000
Color
1070
     1
1070
   256
1002
{
1002
}
1000
LType
1070
     4
1000
BYLAYER
1002
{
1002
}
1002
}
1000
CON3
1070
     9
1000
2
1002
{
1000
Class
1070
     4
1000
CON,BGD
1002
{
1002
}
1000
Color
1070
     1
1070
   256
1002
{
1002
}
1000
LType
1070
     4
1000
BYLAYER
1002
{
1002
}
1002
}
1000
CON4
1070
     9
1000
2
1002
{
1000
Class
1070
     4
1000
CON,BGD
1002
{
1002
}
1000
Color
1070
     1
1070
   256
1002
{
1002
}
1000
LType
1070
     4
1000
BYLAYER
1002
{
1002
}
1002
}
1000
DERP
1070
     9
1000
4
1002
{
1000
Class
1070
     4
1000

1002
{
1002
}
1000
Color
1070
     1
1070
   256
1002
{
1002
}
1000
LType
1070
     4
1000
BYLAYER
1002
{
1002
}
1002
}
1000
DETA
1070
     9
1000
4
1002
{
1000
Class
1070
     4
1000

1002
{
1002
}
1000
Color
1070
     1
1070
   256
1002
{
1002
}
1000
LType
1070
     4
1000
BYLAYER
1002
{
1002
}
1002
}
1000
DIAG
1070
     9
1000
5
1002
{
1000
Class
1070
     4
1000
SYM
1002
{
1002
}
1000
Color
1070
     1
1070
   256
1002
{
1002
}
1000
LType
1070
     4
1000
BYLAYER
1002
{
1002
}
1002
}
1000
DILI
1070
     9
1000
5
1002
{
1000
Class
1070
     4
1000
DIM,SYM
1002
{
1002
}
1000
Color
1070
     1
1070
   256
1002
{
1002
}
1000
LType
1070
     4
1000
BYLAYER
1002
{
1002
}
1002
}
1000
DITO2
1070
     9
1000
5
1002
{
1000
Class
1070
     4
1000
DIM,SYM
1002
{
1002
}
1000
Color
1070
     1
1070
     3
1002
{
1002
}
1000
LType
1070
     4
1000
BYLAYER
1002
{
1002
}
1002
}
1000
DITO3
1070
     9
1000
5
1002
{
1000
Class
1070
     4
1000
DIM,SYM
1002
{
1002
}
1000
Color
1070
     1
1070
     2
1002
{
1002
}
1000
LType
1070
     4
1000
BYLAYER
1002
{
1002
}
1002
}
1000
DITX
1070
     9
1000
5
1002
{
1000
Class
1070
     4
1000
DIM,SYM
1002
{
1002
}
1000
Color
1070
     1
1070
     2
1002
{
1002
}
1000
LType
1070
     4
1000
CONTINUOUS
1002
{
1002
}
1002
}
1000
DIXL
1070
     9
1000
5
1002
{
1000
Class
1070
     4
1000
DIM,SYM
1002
{
1002
}
1000
Color
1070
     1
1070
   256
1002
{
1002
}
1000
LType
1070
     4
1000
BYLAYER
1002
{
1002
}
1002
}
1000
EXMP
1070
     9
1000
4A
1002
{
1000
Class
1070
     4
1000

1002
{
1002
}
1000
Color
1070
     1
1070
   256
1002
{
1002
}
1000
LType
1070
     4
1000
BYLAYER
1002
{
1002
}
1002
}
1000
FEMN
1070
     9
1000
8
1002
{
1000
Class
1070
     4
1000

1002
{
1002
}
1000
Color
1070
     1
1070
   256
1002
{
1002
}
1000
LType
1070
     4
1000
BYLAYER
1002
{
1002
}
1002
}
1000
FEMPN
1070
     9
1000
8
1002
{
1000
Class
1070
     4
1000
SYM
1002
{
1002
}
1000
Color
1070
     1
1070
     3
1002
{
1002
}
1000
LType
1070
     4
1000
BYLAYER
1002
{
1002
}
1002
}
1000
FEMSP
1070
     9
1000
4A
1002
{
1000
Class
1070
     4
1000

1002
{
1002
}
1000
Color
1070
     1
1070
   256
1002
{
1002
}
1000
LType
1070
     4
1000
CONTINUOUS
1002
{
1002
}
1002
}
1000
FEMST
1070
     9
1000
4A
1002
{
1000
Class
1070
     4
1000
SYM
1002
{
1002
}
1000
Color
1070
     1
1070
     3
1002
{
1002
}
1000
LType
1070
     4
1000
BYLAYER
1002
{
1002
}
1002
}
1000
FEMVN
1070
     9
1000
2
1002
{
1000
Class
1070
     4
1000
CON
1002
{
1002
}
1000
Color
1070
     1
1070
   256
1002
{
1002
}
1000
LType
1070
     4
1000
BYLAYER
1002
{
1002
}
1002
}
1000
FEMVT
1070
     9
1000
2
1002
{
1000
Class
1070
     4
1000
SYM
1002
{
1002
}
1000
Color
1070
     1
1070
     3
1002
{
1002
}
1000
LType
1070
     4
1000
BYLAYER
1002
{
1002
}
1002
}
1000
FLAT
1070
     9
1000
0
1002
{
1000
Class
1070
     4
1000

1002
{
1002
}
1000
Color
1070
     1
1070
   256
1002
{
1002
}
1000
LType
1070
     4
1000
BYLAYER
1002
{
1002
}
1002
}
1000
FRAR
1070
     9
1000
4A
1002
{
1000
Class
1070
     4
1000

1002
{
1002
}
1000
Color
1070
     1
1070
   256
1002
{
1002
}
1000
LType
1070
     4
1000
BYLAYER
1002
{
1002
}
1002
}
1000
GRLI
1070
     9
1000
5
1002
{
1000
Class
1070
     4
1000
SYM
1002
{
1002
}
1000
Color
1070
     1
1070
   256
1002
{
1002
}
1000
LType
1070
     4
1000
BYLAYER
1002
{
1002
}
1002
}
1000
GVLI
1070
     9
1000
4A
1002
{
1000
Class
1070
     4
1000

1002
{
1002
}
1000
Color
1070
     1
1070
   256
1002
{
1002
}
1000
LType
1070
     4
1000
BYLAYER
1002
{
1002
}
1002
}
1000
HATC
1070
     9
1000
8
1002
{
1000
Class
1070
     4
1000
HTC,BGD
1002
{
1002
}
1000
Color
1070
     1
1070
   256
1002
{
1002
}
1000
LType
1070
     4
1000
BYLAYER
1002
{
1002
}
1002
}
1000
HIDN
1070
     9
1000
3A
1002
{
1000
Class
1070
     4
1000
HID,BGD
1002
{
1002
}
1000
Color
1070
     1
1070
   256
1002
{
1002
}
1000
LType
1070
     4
1000
BYLAYER
1002
{
1002
}
1002
}
1000
HIDW
1070
     9
1000
3
1002
{
1000
Class
1070
     4
1000
HID,BGD
1002
{
1002
}
1000
Color
1070
     1
1070
   256
1002
{
1002
}
1000
LType
1070
     4
1000
BYLAYER
1002
{
1002
}
1002
}
1000
HLIN
1070
     9
1000
4
1002
{
1000
Class
1070
     4
1000
BGD
1002
{
1002
}
1000
Color
1070
     1
1070
   256
1002
{
1002
}
1000
LType
1070
     4
1000
BYLAYER
1002
{
1002
}
1002
}
1000
HOCN
1070
     9
1000
7A
1002
{
1000
Class
1070
     4
1000
CEN
1002
{
1002
}
1000
Color
1070
     1
1070
   256
1002
{
1002
}
1000
LType
1070
     4
1000
BYLAYER
1002
{
1002
}
1002
}
1000
HOCW
1070
     9
1000
7
1002
{
1000
Class
1070
     4
1000
CEN
1002
{
1002
}
1000
Color
1070
     1
1070
   256
1002
{
1002
}
1000
LType
1070
     4
1000
BYLAYER
1002
{
1002
}
1002
}
1000
INFO
1070
     9
1000
INFO
1002
{
1000
Class
1070
     4
1000
SPZ,SYM
1002
{
1002
}
1000
Color
1070
     1
1070
   256
1002
{
1002
}
1000
LType
1070
     4
1000
BYLAYER
1002
{
1002
}
1002
}
1000
LADI
1070
     9
1000
4
1002
{
1000
Class
1070
     4
1000
BGD
1002
{
1002
}
1000
Color
1070
     1
1070
   256
1002
{
1002
}
1000
LType
1070
     4
1000
BYLAYER
1002
{
1002
}
1002
}
1000
LEAD
1070
     9
1000
5
1002
{
1000
Class
1070
     4
1000
SYM
1002
{
1002
}
1000
Color
1070
     1
1070
   256
1002
{
1002
}
1000
LType
1070
     4
1000
BYLAYER
1002
{
1002
}
1002
}
1000
N_ADDL
1070
     9
1000
5N
1002
{
1000
Class
1070
     4
1000
SYM
1002
{
1002
}
1000
Color
1070
     1
1070
     1
1002
{
1002
}
1000
LType
1070
     4
1000
BYLAYER
1002
{
1002
}
1002
}
1000
N_BHNV
1070
     9
1000
9N
1002
{
1000
Class
1070
     4
1000
INV
1002
{
1002
}
1000
Color
1070
     1
1070
   256
1002
{
1002
}
1000
LType
1070
     4
1000
BYLAYER
1002
{
1002
}
1002
}
1000
N_CON1
1070
     9
1000
0N
1002
{
1000
Class
1070
     4
1000
CON,BGD
1002
{
1002
}
1000
Color
1070
     1
1070
   256
1002
{
1002
}
1000
LType
1070
     4
1000
BYLAYER
1002
{
1002
}
1002
}
1000
N_CON2
1070
     9
1000
1N
1002
{
1000
Class
1070
     4
1000
CON,BGD
1002
{
1002
}
1000
Color
1070
     1
1070
   256
1002
{
1002
}
1000
LType
1070
     4
1000
BYLAYER
1002
{
1002
}
1002
}
1000
N_CON3
1070
     9
1000
2N
1002
{
1000
Class
1070
     4
1000
CON,BGD
1002
{
1002
}
1000
Color
1070
     1
1070
   256
1002
{
1002
}
1000
LType
1070
     4
1000
BYLAYER
1002
{
1002
}
1002
}
1000
N_CON4
1070
     9
1000
2N
1002
{
1000
Class
1070
     4
1000
CON,BGD
1002
{
1002
}
1000
Color
1070
     1
1070
   256
1002
{
1002
}
1000
LType
1070
     4
1000
BYLAYER
1002
{
1002
}
1002
}
1000
N_CENN
1070
     9
1000
7AN
1002
{
1000
Class
1070
     4
1000
CEN
1002
{
1002
}
1000
Color
1070
     1
1070
   256
1002
{
1002
}
1000
LType
1070
     4
1000
BYLAYER
1002
{
1002
}
1002
}
1000
N_CENW
1070
     9
1000
7N
1002
{
1000
Class
1070
     4
1000
CEN
1002
{
1002
}
1000
Color
1070
     1
1070
   256
1002
{
1002
}
1000
LType
1070
     4
1000
BYLAYER
1002
{
1002
}
1002
}
1000
N_DILI
1070
     9
1000
5N
1002
{
1000
Class
1070
     4
1000
DIM,SYM
1002
{
1002
}
1000
Color
1070
     1
1070
   256
1002
{
1002
}
1000
LType
1070
     4
1000
BYLAYER
1002
{
1002
}
1002
}
1000
N_DITX
1070
     9
1000
5N
1002
{
1000
Class
1070
     4
1000
DIM,SYM
1002
{
1002
}
1000
Color
1070
     1
1070
     2
1002
{
1002
}
1000
LType
1070
     4
1000
CONTINUOUS
1002
{
1002
}
1002
}
1000
N_DIXL
1070
     9
1000
5N
1002
{
1000
Class
1070
     4
1000
DIM,SYM
1002
{
1002
}
1000
Color
1070
     1
1070
   256
1002
{
1002
}
1000
LType
1070
     4
1000
BYLAYER
1002
{
1002
}
1002
}
1000
N_HATC
1070
     9
1000
8N
1002
{
1000
Class
1070
     4
1000
HTC,BGD
1002
{
1002
}
1000
Color
1070
     1
1070
   256
1002
{
1002
}
1000
LType
1070
     4
1000
BYLAYER
1002
{
1002
}
1002
}
1000
N_HIDN
1070
     9
1000
3AN
1002
{
1000
Class
1070
     4
1000
HID,BGD
1002
{
1002
}
1000
Color
1070
     1
1070
   256
1002
{
1002
}
1000
LType
1070
     4
1000
BYLAYER
1002
{
1002
}
1002
}
1000
N_HIDW
1070
     9
1000
3N
1002
{
1000
Class
1070
     4
1000
HID,BGD
1002
{
1002
}
1000
Color
1070
     1
1070
   256
1002
{
1002
}
1000
LType
1070
     4
1000
BYLAYER
1002
{
1002
}
1002
}
1000
N_NGIP
1070
     9
1000
IPN
1002
{
1000
Class
1070
     4
1000

1002
{
1002
}
1000
Color
1070
     1
1070
   256
1002
{
1002
}
1000
LType
1070
     4
1000
BYLAYER
1002
{
1002
}
1002
}
1000
N_PHAN
1070
     9
1000
4AN
1002
{
1000
Class
1070
     4
1000

1002
{
1002
}
1000
Color
1070
     1
1070
   256
1002
{
1002
}
1000
LType
1070
     4
1000
BYLAYER
1002
{
1002
}
1002
}
1000
N_POSL
1070
     9
1000
5N
1002
{
1000
Class
1070
     4
1000
SYM
1002
{
1002
}
1000
Color
1070
     1
1070
   256
1002
{
1002
}
1000
LType
1070
     4
1000
BYLAYER
1002
{
1002
}
1002
}
1000
N_TCON
1070
     9
1000
0N
1002
{
1000
Class
1070
     4
1000
CON,BGD
1002
{
1002
}
1000
Color
1070
     1
1070
   256
1002
{
1002
}
1000
LType
1070
     4
1000
BYLAYER
1002
{
1002
}
1002
}
1000
N_THLI
1070
     9
1000
4N
1002
{
1000
Class
1070
     4
1000
BGD
1002
{
1002
}
1000
Color
1070
     1
1070
   256
1002
{
1002
}
1000
LType
1070
     4
1000
BYLAYER
1002
{
1002
}
1002
}
1000
N_TLEN
1070
     9
1000
0N
1002
{
1000
Class
1070
     4
1000
CON,BGD
1002
{
1002
}
1000
Color
1070
     1
1070
   256
1002
{
1002
}
1000
LType
1070
     4
1000
BYLAYER
1002
{
1002
}
1002
}
1000
N_TXT3
1070
     9
1000
6N
1002
{
1000
Class
1070
     4
1000
SYM
1002
{
1002
}
1000
Color
1070
     1
1070
   256
1002
{
1002
}
1000
LType
1070
     4
1000
BYLAYER
1002
{
1002
}
1002
}
1000
N_VPLI
1070
     9
1000
2AN
1002
{
1000
Class
1070
     4
1000

1002
{
1002
}
1000
Color
1070
     1
1070
   256
1002
{
1002
}
1000
LType
1070
     4
1000
BYLAYER
1002
{
1002
}
1002
}
1000
NGIP
1070
     9
1000
IP
1002
{
1000
Class
1070
     4
1000

1002
{
1002
}
1000
Color
1070
     1
1070
   256
1002
{
1002
}
1000
LType
1070
     4
1000
BYLAYER
1002
{
1002
}
1002
}
1000
PAL2
1070
     9
1000
RAHM2
1002
{
1000
Class
1070
     4
1000
SPZ,SYM
1002
{
1002
}
1000
Color
1070
     1
1070
   256
1002
{
1002
}
1000
LType
1070
     4
1000
BYLAYER
1002
{
1002
}
1002
}
1000
PAL3
1070
     9
1000
RAHM3
1002
{
1000
Class
1070
     4
1000
SPZ,SYM
1002
{
1002
}
1000
Color
1070
     1
1070
   256
1002
{
1002
}
1000
LType
1070
     4
1000
BYLAYER
1002
{
1002
}
1002
}
1000
PAL5
1070
     9
1000
RAHM5
1002
{
1000
Class
1070
     4
1000
SPZ,SYM
1002
{
1002
}
1000
Color
1070
     1
1070
   256
1002
{
1002
}
1000
LType
1070
     4
1000
BYLAYER
1002
{
1002
}
1002
}
1000
PAL7
1070
     9
1000
RAHM5
1002
{
1000
Class
1070
     4
1000
SPZ,SYM
1002
{
1002
}
1000
Color
1070
     1
1070
     7
1002
{
1002
}
1000
LType
1070
     4
1000
CONTINUOUS
1002
{
1002
}
1002
}
1000
PHAN
1070
     9
1000
4A
1002
{
1000
Class
1070
     4
1000

1002
{
1002
}
1000
Color
1070
     1
1070
   256
1002
{
1002
}
1000
LType
1070
     4
1000
BYLAYER
1002
{
1002
}
1002
}
1000
POSL
1070
     9
1000
5
1002
{
1000
Class
1070
     4
1000
SYM
1002
{
1002
}
1000
Color
1070
     1
1070
   256
1002
{
1002
}
1000
LType
1070
     4
1000
BYLAYER
1002
{
1002
}
1002
}
1000
POSN
1070
     9
1000
6
1002
{
1000
Class
1070
     4
1000
SYM
1002
{
1002
}
1000
Color
1070
     1
1070
     7
1002
{
1002
}
1000
LType
1070
     4
1000
BYLAYER
1002
{
1002
}
1002
}
1000
POSREF
1070
     9
1000
6
1002
{
1000
Class
1070
     4
1000
SYM
1002
{
1002
}
1000
Color
1070
     1
1070
     5
1002
{
1002
}
1000
LType
1070
     4
1000
BYLAYER
1002
{
1002
}
1002
}
1000
POSX
1070
     9
1000
5
1002
{
1000
Class
1070
     4
1000
SYM
1002
{
1002
}
1000
Color
1070
     1
1070
     2
1002
{
1002
}
1000
LType
1070
     4
1000
CONTINUOUS
1002
{
1002
}
1002
}
1000
PSEC
1070
     9
1000
4A
1002
{
1000
Class
1070
     4
1000

1002
{
1002
}
1000
Color
1070
     1
1070
   256
1002
{
1002
}
1000
LType
1070
     4
1000
BYLAYER
1002
{
1002
}
1002
}
1000
RCGN
1070
     9
1000
7A
1002
{
1000
Class
1070
     4
1000
CEN
1002
{
1002
}
1000
Color
1070
     1
1070
   256
1002
{
1002
}
1000
LType
1070
     4
1000
BYLAYER
1002
{
1002
}
1002
}
1000
RCGW
1070
     9
1000
7
1002
{
1000
Class
1070
     4
1000
CEN
1002
{
1002
}
1000
Color
1070
     1
1070
   256
1002
{
1002
}
1000
LType
1070
     4
1000
BYLAYER
1002
{
1002
}
1002
}
1000
RFDI
1070
     9
1000
4
1002
{
1000
Class
1070
     4
1000
BGD
1002
{
1002
}
1000
Color
1070
     1
1070
   256
1002
{
1002
}
1000
LType
1070
     4
1000
BYLAYER
1002
{
1002
}
1002
}
1000
RQTR
1070
     9
1000
4
1002
{
1000
Class
1070
     4
1000

1002
{
1002
}
1000
Color
1070
     1
1070
     7
1002
{
1002
}
1000
LType
1070
     4
1000
GEN7A
1002
{
1002
}
1002
}
1000
RSBO
1070
     9
1000
4
1002
{
1000
Class
1070
     4
1000
BGD
1002
{
1002
}
1000
Color
1070
     1
1070
   256
1002
{
1002
}
1000
LType
1070
     4
1000
BYLAYER
1002
{
1002
}
1002
}
1000
SBRK
1070
     9
1000
4
1002
{
1000
Class
1070
     4
1000
BGD
1002
{
1002
}
1000
Color
1070
     1
1070
   256
1002
{
1002
}
1000
LType
1070
     4
1000
BYLAYER
1002
{
1002
}
1002
}
1000
SCEN
1070
     9
1000
7
1002
{
1000
Class
1070
     4
1000

1002
{
1002
}
1000
Color
1070
     1
1070
   256
1002
{
1002
}
1000
LType
1070
     4
1000
CONTINUOUS
1002
{
1002
}
1002
}
1000
SECT
1070
     9
1000
4
1002
{
1000
Class
1070
     4
1000
BGD
1002
{
1002
}
1000
Color
1070
     1
1070
   256
1002
{
1002
}
1000
LType
1070
     4
1000
BYLAYER
1002
{
1002
}
1002
}
1000
SELN
1070
     9
1000
7A
1002
{
1000
Class
1070
     4
1000

1002
{
1002
}
1000
Color
1070
     1
1070
   256
1002
{
1002
}
1000
LType
1070
     4
1000
BYLAYER
1002
{
1002
}
1002
}
1000
SELW
1070
     9
1000
7
1002
{
1000
Class
1070
     4
1000

1002
{
1002
}
1000
Color
1070
     1
1070
   256
1002
{
1002
}
1000
LType
1070
     4
1000
BYLAYER
1002
{
1002
}
1002
}
1000
SSYS
1070
     9
1000
0
1002
{
1000
Class
1070
     4
1000

1002
{
1002
}
1000
Color
1070
     1
1070
   256
1002
{
1002
}
1000
LType
1070
     4
1000
BYLAYER
1002
{
1002
}
1002
}
1000
STLI
1070
     9
1000
4
1002
{
1000
Class
1070
     4
1000

1002
{
1002
}
1000
Color
1070
     1
1070
     7
1002
{
1002
}
1000
LType
1070
     4
1000
GEN3A
1002
{
1002
}
1002
}
1000
SYB1
1070
     9
1000
5
1002
{
1000
Class
1070
     4
1000
SYM
1002
{
1002
}
1000
Color
1070
     1
1070
   256
1002
{
1002
}
1000
LType
1070
     4
1000
BYLAYER
1002
{
1002
}
1002
}
1000
SYB2
1070
     9
1000
5
1002
{
1000
Class
1070
     4
1000
SYM
1002
{
1002
}
1000
Color
1070
     1
1070
   256
1002
{
1002
}
1000
LType
1070
     4
1000
BYLAYER
1002
{
1002
}
1002
}
1000
SYB3
1070
     9
1000
6
1002
{
1000
Class
1070
     4
1000
SYM
1002
{
1002
}
1000
Color
1070
     1
1070
   256
1002
{
1002
}
1000
LType
1070
     4
1000
CONTINUOUS
1002
{
1002
}
1002
}
1000
SYB5
1070
     9
1000
5
1002
{
1000
Class
1070
     4
1000
SYM
1002
{
1002
}
1000
Color
1070
     1
1070
     7
1002
{
1002
}
1000
LType
1070
     4
1000
BYLAYER
1002
{
1002
}
1002
}
1000
SYMN
1070
     9
1000
7A
1002
{
1000
Class
1070
     4
1000
CEN
1002
{
1002
}
1000
Color
1070
     1
1070
   256
1002
{
1002
}
1000
LType
1070
     4
1000
BYLAYER
1002
{
1002
}
1002
}
1000
SYMW
1070
     9
1000
7
1002
{
1000
Class
1070
     4
1000
CEN
1002
{
1002
}
1000
Color
1070
     1
1070
   256
1002
{
1002
}
1000
LType
1070
     4
1000
BYLAYER
1002
{
1002
}
1002
}
1000
TCON
1070
     9
1000
0
1002
{
1000
Class
1070
     4
1000
CON,BGD
1002
{
1002
}
1000
Color
1070
     1
1070
   256
1002
{
1002
}
1000
LType
1070
     4
1000
BYLAYER
1002
{
1002
}
1002
}
1000
THLI
1070
     9
1000
4
1002
{
1000
Class
1070
     4
1000
BGD
1002
{
1002
}
1000
Color
1070
     1
1070
   256
1002
{
1002
}
1000
LType
1070
     4
1000
BYLAYER
1002
{
1002
}
1002
}
1000
TIT2
1070
     9
1000
RAHM2
1002
{
1000
Class
1070
     4
1000
SPZ,SYM
1002
{
1002
}
1000
Color
1070
     1
1070
   256
1002
{
1002
}
1000
LType
1070
     4
1000
BYLAYER
1002
{
1002
}
1002
}
1000
TIT3
1070
     9
1000
RAHM3
1002
{
1000
Class
1070
     4
1000
SPZ,SYM
1002
{
1002
}
1000
Color
1070
     1
1070
   256
1002
{
1002
}
1000
LType
1070
     4
1000
BYLAYER
1002
{
1002
}
1002
}
1000
TIT5
1070
     9
1000
RAHM5
1002
{
1000
Class
1070
     4
1000
SPZ,SYM
1002
{
1002
}
1000
Color
1070
     1
1070
   256
1002
{
1002
}
1000
LType
1070
     4
1000
BYLAYER
1002
{
1002
}
1002
}
1000
TIT7
1070
     9
1000
RAHM5
1002
{
1000
Class
1070
     4
1000
SPZ,SYM
1002
{
1002
}
1000
Color
1070
     1
1070
     7
1002
{
1002
}
1000
LType
1070
     4
1000
CONTINUOUS
1002
{
1002
}
1002
}
1000
TLEN
1070
     9
1000
0
1002
{
1000
Class
1070
     4
1000
CON,BGD
1002
{
1002
}
1000
Color
1070
     1
1070
   256
1002
{
1002
}
1000
LType
1070
     4
1000
BYLAYER
1002
{
1002
}
1002
}
1000
TRKN
1070
     9
1000
7A
1002
{
1000
Class
1070
     4
1000

1002
{
1002
}
1000
Color
1070
     1
1070
   256
1002
{
1002
}
1000
LType
1070
     4
1000
BYLAYER
1002
{
1002
}
1002
}
1000
TRKW
1070
     9
1000
7
1002
{
1000
Class
1070
     4
1000

1002
{
1002
}
1000
Color
1070
     1
1070
   256
1002
{
1002
}
1000
LType
1070
     4
1000
BYLAYER
1002
{
1002
}
1002
}
1000
TRLI
1070
     9
1000
4
1002
{
1000
Class
1070
     4
1000
BGD
1002
{
1002
}
1000
Color
1070
     1
1070
   256
1002
{
1002
}
1000
LType
1070
     4
1000
BYLAYER
1002
{
1002
}
1002
}
1000
TXT1
1070
     9
1000
6
1002
{
1000
Class
1070
     4
1000
SYM
1002
{
1002
}
1000
Color
1070
     1
1070
     2
1002
{
1002
}
1000
LType
1070
     4
1000
BYLAYER
1002
{
1002
}
1002
}
1000
TXT2
1070
     9
1000
6
1002
{
1000
Class
1070
     4
1000
SYM
1002
{
1002
}
1000
Color
1070
     1
1070
     2
1002
{
1002
}
1000
LType
1070
     4
1000
BYLAYER
1002
{
1002
}
1002
}
1000
TXT3
1070
     9
1000
6
1002
{
1000
Class
1070
     4
1000
SYM
1002
{
1002
}
1000
Color
1070
     1
1070
   256
1002
{
1002
}
1000
LType
1070
     4
1000
BYLAYER
1002
{
1002
}
1002
}
1000
TXT5
1070
     9
1000
6
1002
{
1000
Class
1070
     4
1000
SYM
1002
{
1002
}
1000
Color
1070
     1
1070
     7
1002
{
1002
}
1000
LType
1070
     4
1000
BYLAYER
1002
{
1002
}
1002
}
1000
TXT7
1070
     9
1000
6
1002
{
1000
Class
1070
     4
1000
SYM
1002
{
1002
}
1000
Color
1070
     1
1070
     7
1002
{
1002
}
1000
LType
1070
     4
1000
BYLAYER
1002
{
1002
}
1002
}
1000
VIEW
1070
     9
1000
VIEW
1002
{
1000
Class
1070
     4
1000
SPZ
1002
{
1002
}
1000
Color
1070
     1
1070
   256
1002
{
1002
}
1000
LType
1070
     4
1000
BYLAYER
1002
{
1002
}
1002
}
1000
VPLI
1070
     9
1000
2A
1002
{
1000
Class
1070
     4
1000

1002
{
1002
}
1000
Color
1070
     1
1070
   256
1002
{
1002
}
1000
LType
1070
     4
1000
BYLAYER
1002
{
1002
}
1002
}
1000
ZIZA
1070
     9
1000
4
1002
{
1000
Class
1070
     4
1000
BGD
1002
{
1002
}
1000
Color
1070
     1
1070
   256
1002
{
1002
}
1000
LType
1070
     4
1000
GENZIGZAG
1002
{
1002
}
1002
}
  0
APPID
  5
12CE
330
1281
100
AcDbSymbolTableRecord
100
AcDbRegAppTableRecord
  2
GENIUS_GENCFG4_13
 70
     0
1001
GENIUS_GENCFG_13
1071
1021306017
1000
12CE
1000
GEN
1070
     9
1000
GenCfgObject
1000
GenCfgShort
1000
GenCfgReal
1000
GenCfgBool
1000
GenCfgString
1000
GenCfgDim
1000
GenCfgLaySection
1000
GenCfgLType
1000
GenCfgFilter
1000
Balloon
1070
     0
1002
{
1000
GenIF
1070
     1
1070
     0
1002
{
1002
}
1000
GenPosInc
1070
     1
1070
     1
1002
{
1002
}
1000
GenPosBlk
1070
     1
1070
     8
1002
{
1002
}
1000
GenPosVar
1070
     1
1070
     0
1002
{
1002
}
1000
GenZiCir
1070
     2
1040
1.5
1002
{
1002
}
1000
MaxCharForCenteredText
1070
     1
1070
    30
1002
{
1002
}
1000
Snap
1070
     0
1002
{
1000
ActivationRadius
1070
     2
1040
1.0
1002
{
1002
}
1000
M
1070
     0
1002
{
1000
SnapStepX
1070
     2
1040
20.0
1002
{
1002
}
1000
SnapStepY
1070
     2
1040
10.0
1002
{
1002
}
1002
}
1000
I
1070
     0
1002
{
1000
SnapStepX
1070
     2
1040
1.0
1002
{
1002
}
1000
SnapStepY
1070
     2
1040
0.5
1002
{
1002
}
1002
}
1002
}
1002
}
1000
Centerline
1070
     0
1002
{
1000
ScaleNot
1070
     3
1070
     0
1002
{
1002
}
1000
M
1070
     0
1002
{
1000
GenCenAng
1070
     4
1000
45|90|135
1002
{
1002
}
1000
GenCenDia
1070
     2
1040
10.0
1002
{
1002
}
1000
GenCenDias
1070
     4
1000
10|20|30
1002
{
1002
}
1000
GenCenDist
1070
     2
1040
3.0
1002
{
1002
}
1000
GenCenLen
1070
     2
1040
10.0
1002
{
1002
}
1000
GenCenOff
1070
     2
1040
10.0
1002
{
1002
}
1002
}
1000
I
1070
     0
1002
{
1000
GenCenAng
1070
     4
1000
45|90|135
1002
{
1002
}
1000
GenCenDia
1070
     2
1040
0.5
1002
{
1002
}
1000
GenCenDias
1070
     4
1000
0.5|1.0|1.5
1002
{
1002
}
1000
GenCenDist
1070
     2
1040
0.125
1002
{
1002
}
1000
GenCenLen
1070
     2
1040
0.5
1002
{
1002
}
1000
GenCenOff
1070
     2
1040
0.5
1002
{
1002
}
1002
}
1002
}
1000
CLine
1070
     0
1002
{
1000
CAngArray
1070
     4
1000
30|45|60
1002
{
1002
}
1000
Typ
1070
     4
1000
XLINE
1002
{
1002
}
1000
M
1070
     0
1002
{
1000
CLinArray
1070
     4
1000
10|20|30
1002
{
1002
}
1002
}
1000
I
1070
     0
1002
{
1000
CLinArray
1070
     4
1000
0.125|0.25|0.5
1002
{
1002
}
1002
}
1002
}
1000
Detail
1070
     0
1002
{
1002
}
1000
Dimension
1070
     5
1002
{
1000
DIMALT
1070
     1
1070
     0
1002
{
1002
}
1000
DIMALTD
1070
     1
1070
     2
1002
{
1002
}
1000
DIMALTTD
1070
     1
1070
     4
1002
{
1002
}
1000
DIMALTTZ
1070
     1
1070
     0
1002
{
1002
}
1000
DIMALTU
1070
     1
1070
     2
1002
{
1002
}
1000
DIMALTZ
1070
     1
1070
     0
1002
{
1002
}
1000
DIMAUNIT
1070
     1
1070
     0
1002
{
1002
}
1000
DIMBLK
1070
     4
1000

1002
{
1002
}
1000
DIMBLK1
1070
     4
1000

1002
{
1002
}
1000
DIMBLK2
1070
     4
1000

1002
{
1002
}
1000
DIMCLRD
1070
     1
1070
   256
1002
{
1002
}
1000
DIMCLRE
1070
     1
1070
   256
1002
{
1002
}
1000
DIMCLRT
1070
     1
1070
     2
1002
{
1002
}
1000
DIMDLE
1070
     2
1040
0.0
1002
{
1002
}
1000
DIMFIT
1070
     1
1070
     3
1002
{
1002
}
1000
DIMJUST
1070
     1
1070
     0
1002
{
1002
}
1000
DIMLFAC
1070
     2
1040
1.0
1002
{
1002
}
1000
DIMLIM
1070
     1
1070
     0
1002
{
1002
}
1000
DIMPOST
1070
     4
1000

1002
{
1002
}
1000
DIMRND
1070
     2
1040
0.0
1002
{
1002
}
1000
DIMSAH
1070
     1
1070
     0
1002
{
1002
}
1000
DIMSCALE
1070
     2
1040
1.0
1002
{
1002
}
1000
DIMSD1
1070
     1
1070
     0
1002
{
1002
}
1000
DIMSD2
1070
     1
1070
     0
1002
{
1002
}
1000
DIMSE1
1070
     1
1070
     0
1002
{
1002
}
1000
DIMSE2
1070
     1
1070
     0
1002
{
1002
}
1000
DIMSOXD
1070
     1
1070
     0
1002
{
1002
}
1000
DIMTAD
1070
     1
1070
     0
1002
{
1002
}
1000
DIMTFAC
1070
     2
1040
0.71
1002
{
1002
}
1000
DIMTIH
1070
     1
1070
     0
1002
{
1002
}
1000
DIMTIX
1070
     1
1070
     0
1002
{
1002
}
1000
DIMTM
1070
     2
1040
0.1
1002
{
1002
}
1000
DIMTOFL
1070
     1
1070
     0
1002
{
1002
}
1000
DIMTOH
1070
     1
1070
     0
1002
{
1002
}
1000
DIMTOL
1070
     1
1070
     0
1002
{
1002
}
1000
DIMTOLJ
1070
     1
1070
     1
1002
{
1002
}
1000
DIMTP
1070
     2
1040
0.1
1002
{
1002
}
1000
DIMTSZ
1070
     2
1040
0.0
1002
{
1002
}
1000
DIMTVP
1070
     2
1040
0.0
1002
{
1002
}
1000
DIMTXSTY
1070
     4
1000
STANDARD
1002
{
1002
}
1000
DIMTZIN
1070
     1
1070
     0
1002
{
1002
}
1000
DIMUNIT
1070
     1
1070
     2
1002
{
1002
}
1000
DIMUPT
1070
     1
1070
     0
1002
{
1002
}
1000
M
1070
     0
1002
{
1000
DIMALTF
1070
     2
1040
0.03937
1002
{
1002
}
1000
DIMAPOST
1070
     4
1000
"
1002
{
1002
}
1000
DIMASZ
1070
     2
1040
2.5
1002
{
1002
}
1000
DIMCEN
1070
     2
1040
0.0
1002
{
1002
}
1000
DIMDEC
1070
     1
1070
     2
1002
{
1002
}
1000
DIMDLI
1070
     2
1040
7.0
1002
{
1002
}
1000
DIMEXE
1070
     2
1040
1.0
1002
{
1002
}
1000
DIMEXO
1070
     2
1040
1.0
1002
{
1002
}
1000
DIMGAP
1070
     2
1040
0.6
1002
{
1002
}
1000
DIMTDEC
1070
     1
1070
     3
1002
{
1002
}
1000
DIMTXT
1070
     2
1040
3.5
1002
{
1002
}
1000
DIMZIN
1070
     1
1070
     8
1002
{
1002
}
1002
}
1000
I
1070
     0
1002
{
1000
DIMALTF
1070
     2
1040
25.4
1002
{
1002
}
1000
DIMAPOST
1070
     4
1000
mm
1002
{
1002
}
1000
DIMASZ
1070
     2
1040
0.1
1002
{
1002
}
1000
DIMCEN
1070
     2
1040
0.0
1002
{
1002
}
1000
DIMDEC
1070
     1
1070
     4
1002
{
1002
}
1000
DIMDLI
1070
     2
1040
0.5
1002
{
1002
}
1000
DIMEXE
1070
     2
1040
0.1
1002
{
1002
}
1000
DIMEXO
1070
     2
1040
0.05
1002
{
1002
}
1000
DIMGAP
1070
     2
1040
0.06
1002
{
1002
}
1000
DIMTDEC
1070
     1
1070
     4
1002
{
1002
}
1000
DIMTXT
1070
     2
1040
0.12
1002
{
1002
}
1000
DIMZIN
1070
     1
1070
     7
1002
{
1002
}
1002
}
1000
GEN-ISO
1070
     5
1002
{
1000
NAME
1070
     4
1000
GEN-ISO
1002
{
1002
}
1000
DIMTAD
1070
     1
1070
     1
1002
{
1002
}
1000
DIMTOLJ
1070
     1
1070
     0
1002
{
1002
}
1000
DIMTOFL
1070
     1
1070
     1
1002
{
1002
}
1000
M
1070
     0
1002
{
1002
}
1000
I
1070
     0
1002
{
1002
}
1002
}
1000
GEN-ISO-POS
1070
     5
1002
{
1000
NAME
1070
     4
1000
GEN-ISO-POS
1002
{
1002
}
1000
DIMTOLJ
1070
     1
1070
     0
1002
{
1002
}
1000
DIMTXSTY
1070
     4
1000
STANDARD
1002
{
1002
}
1000
M
1070
     0
1002
{
1000
DIMASZ
1070
     2
1040
2.5
1002
{
1002
}
1000
DIMGAP
1070
     2
1040
1.5
1002
{
1002
}
1000
DIMTXT
1070
     2
1040
5.0
1002
{
1002
}
1002
}
1000
I
1070
     0
1002
{
1000
DIMASZ
1070
     2
1040
0.1
1002
{
1002
}
1000
DIMGAP
1070
     2
1040
0.06
1002
{
1002
}
1000
DIMTXT
1070
     2
1040
0.2
1002
{
1002
}
1002
}
1002
}
1000
GEN-ISO-CIR
1070
     5
1002
{
1000
NAME
1070
     4
1000
GEN-ISO$3
1002
{
1002
}
1000
DIMFIT
1070
     1
1070
     0
1002
{
1002
}
1000
DIMTAD
1070
     1
1070
     1
1002
{
1002
}
1000
DIMTOH
1070
     1
1070
     1
1002
{
1002
}
1000
DIMTOLJ
1070
     1
1070
     0
1002
{
1002
}
1000
DIMUPT
1070
     1
1070
     1
1002
{
1002
}
1000
M
1070
     0
1002
{
1002
}
1000
I
1070
     0
1002
{
1002
}
1002
}
1000
GEN-ISO-RAD
1070
     5
1002
{
1000
NAME
1070
     4
1000
GEN-ISO$4
1002
{
1002
}
1000
DIMFIT
1070
     1
1070
     0
1002
{
1002
}
1000
DIMTAD
1070
     1
1070
     1
1002
{
1002
}
1000
DIMTIH
1070
     1
1070
     0
1002
{
1002
}
1000
DIMTIX
1070
     1
1070
     0
1002
{
1002
}
1000
DIMTOH
1070
     1
1070
     1
1002
{
1002
}
1000
DIMTOLJ
1070
     1
1070
     0
1002
{
1002
}
1000
DIMTOFL
1070
     1
1070
     0
1002
{
1002
}
1000
DIMUPT
1070
     1
1070
     1
1002
{
1002
}
1000
M
1070
     0
1002
{
1002
}
1000
I
1070
     0
1002
{
1002
}
1002
}
1000
GEN-ISO-ORD
1070
     5
1002
{
1000
NAME
1070
     4
1000
GEN-ISO$6
1002
{
1002
}
1000
DIMTOLJ
1070
     1
1070
     0
1002
{
1002
}
1000
M
1070
     0
1002
{
1002
}
1000
I
1070
     0
1002
{
1002
}
1002
}
1000
GEN-ISO-AXE-F
1070
     5
1002
{
1000
NAME
1070
     4
1000
GEN-ISO-AXE-F
1002
{
1002
}
1000
DIMSE1
1070
     1
1070
     1
1002
{
1002
}
1000
DIMSE2
1070
     1
1070
     1
1002
{
1002
}
1000
DIMTAD
1070
     1
1070
     1
1002
{
1002
}
1000
DIMTOLJ
1070
     1
1070
     0
1002
{
1002
}
1000
DIMTOFL
1070
     1
1070
     1
1002
{
1002
}
1000
M
1070
     0
1002
{
1002
}
1000
I
1070
     0
1002
{
1002
}
1002
}
1000
GEN-ISO-AXE-H
1070
     5
1002
{
1000
NAME
1070
     4
1000
GEN-ISO-AXE-H
1002
{
1002
}
1000
DIMBLK1
1070
     4
1000
GENAXEH
1002
{
1002
}
1000
DIMLFAC
1070
     2
1040
2.0
1002
{
1002
}
1000
DIMSAH
1070
     1
1070
     1
1002
{
1002
}
1000
DIMSE1
1070
     1
1070
     1
1002
{
1002
}
1000
DIMSE2
1070
     1
1070
     1
1002
{
1002
}
1000
DIMTAD
1070
     1
1070
     1
1002
{
1002
}
1000
DIMTOLJ
1070
     1
1070
     0
1002
{
1002
}
1000
DIMTOFL
1070
     1
1070
     1
1002
{
1002
}
1000
M
1070
     0
1002
{
1002
}
1000
I
1070
     0
1002
{
1002
}
1002
}
1000
GEN-ANSI
1070
     5
1002
{
1000
NAME
1070
     4
1000
GEN-ANSI
1002
{
1002
}
1000
DIMTIH
1070
     1
1070
     1
1002
{
1002
}
1000
DIMTOH
1070
     1
1070
     1
1002
{
1002
}
1000
DIMTAD
1070
     1
1070
     0
1002
{
1002
}
1000
DIMTOLJ
1070
     1
1070
     1
1002
{
1002
}
1000
M
1070
     0
1002
{
1002
}
1000
I
1070
     0
1002
{
1002
}
1002
}
1000
GEN-ANSI-POS
1070
     5
1002
{
1000
NAME
1070
     4
1000
GEN-ANSI-POS
1002
{
1002
}
1000
DIMTOLJ
1070
     1
1070
     1
1002
{
1002
}
1000
DIMTXSTY
1070
     4
1000
STANDARD
1002
{
1002
}
1000
M
1070
     0
1002
{
1000
DIMASZ
1070
     2
1040
2.5
1002
{
1002
}
1000
DIMGAP
1070
     2
1040
1.5
1002
{
1002
}
1000
DIMTXT
1070
     2
1040
5.0
1002
{
1002
}
1002
}
1000
I
1070
     0
1002
{
1000
DIMASZ
1070
     2
1040
0.1
1002
{
1002
}
1000
DIMGAP
1070
     2
1040
0.06
1002
{
1002
}
1000
DIMTXT
1070
     2
1040
0.2
1002
{
1002
}
1002
}
1002
}
1000
GEN-ANSI-CIR
1070
     5
1002
{
1000
NAME
1070
     4
1000
GEN-ANSI$3
1002
{
1002
}
1000
DIMFIT
1070
     1
1070
     0
1002
{
1002
}
1000
DIMTAD
1070
     1
1070
     0
1002
{
1002
}
1000
DIMTIH
1070
     1
1070
     1
1002
{
1002
}
1000
DIMTIX
1070
     1
1070
     0
1002
{
1002
}
1000
DIMTOFL
1070
     1
1070
     0
1002
{
1002
}
1000
DIMTOH
1070
     1
1070
     1
1002
{
1002
}
1000
DIMTOLJ
1070
     1
1070
     1
1002
{
1002
}
1000
DIMUPT
1070
     1
1070
     1
1002
{
1002
}
1000
M
1070
     0
1002
{
1002
}
1000
I
1070
     0
1002
{
1002
}
1002
}
1000
GEN-ANSI-RAD
1070
     5
1002
{
1000
NAME
1070
     4
1000
GEN-ANSI$4
1002
{
1002
}
1000
DIMFIT
1070
     1
1070
     0
1002
{
1002
}
1000
DIMTAD
1070
     1
1070
     0
1002
{
1002
}
1000
DIMTIH
1070
     1
1070
     1
1002
{
1002
}
1000
DIMTIX
1070
     1
1070
     0
1002
{
1002
}
1000
DIMTOFL
1070
     1
1070
     0
1002
{
1002
}
1000
DIMTOH
1070
     1
1070
     1
1002
{
1002
}
1000
DIMTOLJ
1070
     1
1070
     1
1002
{
1002
}
1000
DIMUPT
1070
     1
1070
     1
1002
{
1002
}
1000
M
1070
     0
1002
{
1002
}
1000
I
1070
     0
1002
{
1002
}
1002
}
1000
GEN-ANSI-ORD
1070
     5
1002
{
1000
NAME
1070
     4
1000
GEN-ANSI$6
1002
{
1002
}
1000
DIMTAD
1070
     1
1070
     0
1002
{
1002
}
1000
DIMTIH
1070
     1
1070
     1
1002
{
1002
}
1000
DIMTOH
1070
     1
1070
     1
1002
{
1002
}
1000
DIMTOLJ
1070
     1
1070
     1
1002
{
1002
}
1000
M
1070
     0
1002
{
1002
}
1000
I
1070
     0
1002
{
1002
}
1002
}
1000
GEN-ANSI-AXE-F
1070
     5
1002
{
1000
NAME
1070
     4
1000
GEN-ANSI-AXE-F
1002
{
1002
}
1000
DIMBLK1
1070
     4
1000
GENAXEH
1002
{
1002
}
1000
DIMSAH
1070
     1
1070
     1
1002
{
1002
}
1000
DIMSE1
1070
     1
1070
     1
1002
{
1002
}
1000
DIMSE2
1070
     1
1070
     1
1002
{
1002
}
1000
DIMTAD
1070
     1
1070
     0
1002
{
1002
}
1000
DIMTIH
1070
     1
1070
     1
1002
{
1002
}
1000
DIMTOH
1070
     1
1070
     1
1002
{
1002
}
1000
DIMTOLJ
1070
     1
1070
     1
1002
{
1002
}
1000
M
1070
     0
1002
{
1002
}
1000
I
1070
     0
1002
{
1002
}
1002
}
1000
GEN-ANSI-AXE-H
1070
     5
1002
{
1000
NAME
1070
     4
1000
GEN-ANSI-AXE-H
1002
{
1002
}
1000
DIMBLK1
1070
     4
1000
GENAXEH
1002
{
1002
}
1000
DIMLFAC
1070
     2
1040
2.0
1002
{
1002
}
1000
DIMSAH
1070
     1
1070
     1
1002
{
1002
}
1000
DIMSE1
1070
     1
1070
     1
1002
{
1002
}
1000
DIMSE2
1070
     1
1070
     1
1002
{
1002
}
1000
DIMTAD
1070
     1
1070
     0
1002
{
1002
}
1000
DIMTOFL
1070
     1
1070
     1
1002
{
1002
}
1000
DIMTOLJ
1070
     1
1070
     1
1002
{
1002
}
1000
M
1070
     0
1002
{
1002
}
1000
I
1070
     0
1002
{
1002
}
1002
}
1002
}
1000
DimSet
1070
     0
1002
{
1000
ChainSum
1070
     3
1070
     0
1002
{
1002
}
1000
DimDclTyp0
1070
     4
1000
dim23
1002
{
1002
}
1000
HorBra
1070
     3
1070
     0
1002
{
1002
}
1000
StrDia
1070
     4
1000
%%c<>
1002
{
1002
}
1000
StrRad
1070
     4
1000
R<>
1002
{
1002
}
1000
TextMinus
1070
     4
1000
<>
1002
{
1002
}
1000
TextPlus
1070
     4
1000
<>
1002
{
1002
}
1000
M
1070
     0
1002
{
1000
DimdliFirst
1070
     2
1040
10.0
1002
{
1002
}
1000
PointMakeDist
1070
     2
1040
10.0
1002
{
1002
}
1002
}
1000
I
1070
     0
1002
{
1000
DimdliFirst
1070
     2
1040
0.5
1002
{
1002
}
1000
PointMakeDist
1070
     2
1040
0.5
1002
{
1002
}
1002
}
1000
FitGrade
1070
     4
1000
h7
1002
{
1002
}
1002
}
1000
Drawing
1070
     0
1002
{
1000
ChamferDimMode
1070
     1
1070
     2
1002
{
1002
}
1000
Gen_Fiso
1070
    -3
1040
1.0
1002
{
1002
}
1000
GenDimStil
1070
     4
1000
ISO
1002
{
1002
}
1000
GenDwgUScale
1070
     2
1040
1.0
1002
{
1002
}
1000
GenInch
1070
     4
1000
M
1002
{
1002
}
1000
GenPlotScale
1070
     4
1000
1:5
1002
{
1002
}
1000
Revisi
1070
     4
1000
0
1002
{
1002
}
1000
Version
1070
    -5
1000
14.01/Apr  1 1998
1002
{
1002
}
1000
Platform
1070
    -5
1000
WINNT
1002
{
1002
}
1002
}
1000
DwgVar
1070
     0
1002
{
1000
M
1070
     0
1002
{
1002
}
1000
I
1070
     0
1002
{
1002
}
1002
}
1000
Hatch
1070
     0
1002
{
1000
GenHtcFlag
1070
     3
1070
     0
1002
{
1002
}
1002
}
1000
Info_Pos
1070
     0
1002
{
1000
>
1002
}
1000
Layer
1070
     6
1002
{
1000
Defs
1070
     0
1002
{
1000
>
1002
}
1000
EntSort
1070
     0
1002
{
1000
>
1002
}
1000
Match
1070
     0
1002
{
1002
}
1000
Settings
1070
     0
1002
{
1000
FocGrNC
1070
     3
1070
     0
1002
{
1002
}
1000
FocGrLo
1070
     3
1070
     0
1002
{
1002
}
1000
FocLoNC
1070
     3
1070
     0
1002
{
1002
}
1000
FocusCol
1070
     1
1070
   253
1002
{
1002
}
1000
GenStdLG
1070
     4
1000

1002
{
1002
}
1000
LayMatch
1070
     3
1070
     0
1002
{
1002
}
1000
LgOff
1070
     3
1070
     0
1002
{
1002
}
1000
CurLG
1070
    -5
1000

1002
{
1002
}
1002
}
1002
}
1000
LType
1070
     0
1002
{
1000
GEN3
1070
     7
1000
genius.lin
1002
{
1002
}
1000
GEN7
1070
     7
1000
genius.lin
1002
{
1002
}
1000
GEN4A
1070
     7
1000
genius.lin
1002
{
1002
}
1000
GEN3A
1070
     7
1000
genius.lin
1002
{
1002
}
1000
GEN7A
1070
     7
1000
genius.lin
1002
{
1002
}
1000
GENZIGZAG
1070
     7
1000
genius.lin
1002
{
1002
}
1002
}
1000
Objecter
1070
     0
1002
{
1000
CreateGroups
1070
     3
1070
     0
1002
{
1002
}
1000
LaySwitch
1070
     3
1070
     1
1002
{
1002
}
1000
LastObj
1070
    -5
1000
132B
1002
{
1002
}
1000
TimeStamp
1070
    -5
1000
20020513.18064671
1002
{
1002
}
1002
}
1000
OSWiz
1070
     0
1002
{
1000
Filter
1070
     0
1002
{
1000
HATCH
1070
     8
1002
{
1000
EntityType
1070
     4
1000
LINE
1002
{
1002
}
1000
Layer
1070
     4
1000
8,8N,*-8,*-8N
1002
{
1002
}
1000
Linetype
1070
     4
1000
*
1002
{
1002
}
1000
Color
1070
     4
1000
*
1002
{
1002
}
1000
ApplyInDims
1070
     3
1070
     1
1002
{
1002
}
1002
}
1000
SYMBOLS
1070
     8
1002
{
1000
EntityType
1070
     4
1000
*
1002
{
1002
}
1000
Layer
1070
     4
1000
[5-6],[5-6]N,*-[5-6],*-[5-6]N
1002
{
1002
}
1000
Linetype
1070
     4
1000
*
1002
{
1002
}
1000
Color
1070
     4
1000
*
1002
{
1002
}
1000
ApplyInDims
1070
     3
1070
     1
1002
{
1002
}
1002
}
1000
FEM
1070
     8
1002
{
1000
EntityType
1070
     4
1000
*
1002
{
1002
}
1000
Layer
1070
     4
1000
4A,4AN,*-4A,*-4AN
1002
{
1002
}
1000
Linetype
1070
     4
1000
*
1002
{
1002
}
1000
Color
1070
     4
1000
*
1002
{
1002
}
1000
ApplyInDims
1070
     3
1070
     1
1002
{
1002
}
1002
}
1002
}
1002
}
1000
PaList
1070
     0
1002
{
1000
AutoUpdatePartList
1070
     1
1070
     0
1002
{
1002
}
1000
ReadInfoPoint
1070
     3
1070
     0
1002
{
1002
}
1000
ReadPosNr
1070
     3
1070
     1
1002
{
1002
}
1000
RevStr
1070
     4
1000
0
1002
{
1002
}
1002
}
1000
Paper
1070
     0
1002
{
1002
}
1000
PartDB
1070
     0
1002
{
1000
GenDbOwner
1070
     4
1000

1002
{
1002
}
1002
}
1000
System
1070
     0
1002
{
1000
Menu
1070
     4
1000
GEV
1002
{
1002
}
1002
}
1000
Title
1070
     0
1002
{
1000
MakeView
1070
     1
1070
     2
1002
{
1002
}
1002
}
1000
Tools
1070
     0
1002
{
1000
Trans
1070
     0
1002
{
1000
Drawingtranslation
1070
    -4
1070
     1
1002
{
1002
}
1000
upreserve
1070
     3
1070
     0
1002
{
1002
}
1000
originally_on
1070
    -4
1070
     0
1002
{
1002
}
1000
sourcelang
1070
    -5
1000
D
1002
{
1002
}
1002
}
1002
}
  0
APPID
  5
12CF
330
1281
100
AcDbSymbolTableRecord
100
AcDbRegAppTableRecord
  2
GENIUS_GEVCFG0_13
 70
     0
1001
GENIUS_GENCFG_13
1071
1021306013
1000
12CF
1000
GEV
1070
     1
1000
GenCfgObject
1000
VED
1070
     0
1002
{
1002
}
  0
APPID
  5
12FB
330
1281
100
AcDbSymbolTableRecord
100
AcDbRegAppTableRecord
  2
GEV_VCCNULL_SWITCH_OFF
 70
     0
  0
APPID
  5
12FC
330
1281
100
AcDbSymbolTableRecord
100
AcDbRegAppTableRecord
  2
GENIUS_GENDTOL_13
 70
     0
  0
APPID
  5
12FD
330
1281
100
AcDbSymbolTableRecord
100
AcDbRegAppTableRecord
  2
GENIUS_GENOENT_13
 70
     0
  0
APPID
  5
12FE
330
1281
100
AcDbSymbolTableRecord
100
AcDbRegAppTableRecord
  2
GENIUS_GENBLLY_14
 70
     0
  0
APPID
  5
12FF
330
1281
100
AcDbSymbolTableRecord
100
AcDbRegAppTableRecord
  2
GENIUS_GENODEF_13
 70
     0
  0
APPID
  5
1300
330
1281
100
AcDbSymbolTableRecord
100
AcDbRegAppTableRecord
  2
GENIUS_GENOBJ-N-CRS_13
 70
     0
  0
APPID
  5
1301
330
1281
100
AcDbSymbolTableRecord
100
AcDbRegAppTableRecord
  2
GENIUS_GENOREF_13
 70
     0
  0
APPID
  5
1302
330
1281
100
AcDbSymbolTableRecord
100
AcDbRegAppTableRecord
  2
GENIUS_GENOLIS_13
 70
     0
  0
APPID
  5
1303
330
1281
100
AcDbSymbolTableRecord
100
AcDbRegAppTableRecord
  2
GENIUS_VERSION2
 70
     0
  0
APPID
  5
1304
330
1281
100
AcDbSymbolTableRecord
100
AcDbRegAppTableRecord
  2
GENIUS_GENREC_14
 70
     0
  0
APPID
  5
1305
330
1281
100
AcDbSymbolTableRecord
100
AcDbRegAppTableRecord
  2
GENIUS_GENOBJ-N-REC_13
 70
     0
  0
APPID
  5
1306
330
1281
100
AcDbSymbolTableRecord
100
AcDbRegAppTableRecord
  2
GENIUS_GENOBJ-N-TIT_13
 70
     0
  0
APPID
  5
1307
330
1281
100
AcDbSymbolTableRecord
100
AcDbRegAppTableRecord
  2
GENIUS_GENTITLE_13
 70
     0
  0
APPID
  5
1308
330
1281
100
AcDbSymbolTableRecord
100
AcDbRegAppTableRecord
  2
GENIUS_GENZVEED_13
 70
     0
  0
APPID
  5
1309
330
1281
100
AcDbSymbolTableRecord
100
AcDbRegAppTableRecord
  2
GENIUS_GENOBJ-N-SDF_13
 70
     0
  0
APPID
  5
130A
330
1281
100
AcDbSymbolTableRecord
100
AcDbRegAppTableRecord
  2
GENIUS_GENSCREG_13
 70
     0
  0
APPID
  5
130B
330
1281
100
AcDbSymbolTableRecord
100
AcDbRegAppTableRecord
  2
GENIUS_GENBLKED_14
 70
     0
  0
APPID
  5
15D1
330
1281
100
AcDbSymbolTableRecord
100
AcDbRegAppTableRecord
  2
MCAD_NO_VIS
 70
     0
  0
APPID
  5
15D2
330
1281
100
AcDbSymbolTableRecord
100
AcDbRegAppTableRecord
  2
ACAD_TEMP_GRAPHIC
 70
     0
  0
APPID
  5
1602
330
1281
100
AcDbSymbolTableRecord
100
AcDbRegAppTableRecord
  2
AD_DRAW
 70
     0
  0
APPID
  5
1605
330
1281
100
AcDbSymbolTableRecord
100
AcDbRegAppTableRecord
  2
ACATTRIBSERVICES
 70
     0
  0
APPID
  5
1625
330
1281
100
AcDbSymbolTableRecord
100
AcDbRegAppTableRecord
  2
DESIGNERASSEMBLIES
 70
     0
  0
APPID
  5
162B
330
1281
100
AcDbSymbolTableRecord
100
AcDbRegAppTableRecord
  2
ACADM_DIM_EDIT
 70
     0
  0
APPID
  5
162C
330
1281
100
AcDbSymbolTableRecord
100
AcDbRegAppTableRecord
  2
AMDT_DM_ADJ
 70
     0
  0
APPID
  5
165E
330
1281
100
AcDbSymbolTableRecord
100
AcDbRegAppTableRecord
  2
ACAD_DSTYLE_DIMARC_LENGTH_SYMBOL
 70
     0
  0
APPID
  5
165F
330
1281
100
AcDbSymbolTableRecord
100
AcDbRegAppTableRecord
  2
ACAD_DSTYLE_DIMJOGGED_JOGANGLE_SYMBOL
 70
     0
  0
ENDTAB
  0
TABLE
  2
DIMSTYLE
  5
1282
330
0
100
AcDbSymbolTable
 70
     9
100
AcDbDimStyleTable
 71
     1
340
12A8
  0
DIMSTYLE
105
12A8
102
{ACAD_REACTORS
330
11DA
330
1061
330
1057
330
14AA
102
}
330
1282
100
AcDbSymbolTableRecord
100
AcDbDimStyleTableRecord
  2
GEN-ISO
 70
     0
  4
"
 40
5.0
 41
2.5
 42
1.0
 43
7.0
 44
1.0
 47
0.1
 48
0.1
 73
     0
 74
     0
 77
     1
 78
     8
140
3.5
141
0.0
143
0.03937
146
0.71
147
0.6
172
     1
176
   256
177
   256
178
     2
271
     2
272
     3
274
     4
283
     0
340
1287
  0
DIMSTYLE
105
15A8
330
1282
100
AcDbSymbolTableRecord
100
AcDbDimStyleTableRecord
  2
ISO-25
 70
     0
 41
2.5
 42
0.625
 43
3.75
 44
1.25
 74
     0
 77
     1
 78
     8
140
2.5
141
2.5
143
0.0394
145
1.0
147
0.625
172
     1
340
1287
  0
DIMSTYLE
105
165D
330
1282
100
AcDbSymbolTableRecord
100
AcDbDimStyleTableRecord
  2
AM_DIN
 70
     0
  4
"
 41
2.5
 42
1.0
 43
10.0
 44
1.0
 47
0.1
 48
0.1
 73
     0
 74
     0
 77
     1
 78
     8
 79
     2
140
3.5
141
0.0
143
0.0393701
146
0.71
147
1.5
172
     1
176
   256
177
   256
178
     2
271
     2
272
     3
274
     4
283
     0
284
     8
340
1287
371
    -1
372
    -1
1001
ACAD_DSTYLE_DIMARC_LENGTH_SYMBOL
1070
   379
1070
     0
1001
ACAD_DSTYLE_DIMJOGGED_JOGANGLE_SYMBOL
1070
   384
1040
1.570796326794896
  0
DIMSTYLE
105
166E
330
1282
100
AcDbSymbolTableRecord
100
AcDbDimStyleTableRecord
  2
AM_DIN$3
 70
     0
  4
"
 41
2.5
 42
1.0
 43
10.0
 44
1.0
 47
0.1
 48
0.1
 73
     0
 77
     1
 78
     8
 79
     2
140
3.5
141
0.0
143
0.0393701
146
0.71
147
1.5
176
   256
177
   256
178
     2
271
     2
272
     3
274
     4
283
     0
284
     8
288
     1
289
     0
340
1287
371
    -1
372
    -1
1001
ACAD_DSTYLE_DIMARC_LENGTH_SYMBOL
1070
   379
1070
     0
1001
ACAD_DSTYLE_DIMJOGGED_JOGANGLE_SYMBOL
1070
   384
1040
1.570796326794896
  0
DIMSTYLE
105
1673
330
1282
100
AcDbSymbolTableRecord
100
AcDbDimStyleTableRecord
  2
AM_DIN$4
 70
     0
  4
"
 41
2.5
 42
1.0
 43
10.0
 44
1.0
 47
0.1
 48
0.1
 73
     0
 77
     1
 78
     8
 79
     2
140
3.5
141
0.0
143
0.0393701
146
0.71
147
1.5
176
   256
177
   256
178
     2
271
     2
272
     3
274
     4
283
     0
284
     8
288
     1
289
     0
340
1287
371
    -1
372
    -1
1001
ACAD_DSTYLE_DIMARC_LENGTH_SYMBOL
1070
   379
1070
     0
1001
ACAD_DSTYLE_DIMJOGGED_JOGANGLE_SYMBOL
1070
   384
1040
1.570796326794896
  0
DIMSTYLE
105
1678
330
1282
100
AcDbSymbolTableRecord
100
AcDbDimStyleTableRecord
  2
AM_DIN$6
 70
     0
  4
"
 41
2.5
 42
1.0
 43
10.0
 44
1.0
 47
0.1
 48
0.1
 73
     0
 74
     0
 78
     8
 79
     2
140
3.5
141
0.0
143
0.0393701
146
0.71
147
1.5
172
     1
176
   256
177
   256
178
     2
271
     2
272
     3
274
     4
283
     0
284
     8
340
1287
371
    -1
372
    -1
1001
ACAD_DSTYLE_DIMARC_LENGTH_SYMBOL
1070
   379
1070
     0
1001
ACAD_DSTYLE_DIMJOGGED_JOGANGLE_SYMBOL
1070
   384
1040
1.570796326794896
  0
DIMSTYLE
105
167D
330
1282
100
AcDbSymbolTableRecord
100
AcDbDimStyleTableRecord
  2
AM_DIN$7
 70
     0
  4
"
 41
2.5
 42
1.0
 43
10.0
 44
1.0
 47
0.1
 48
0.1
 73
     0
 74
     0
 77
     1
 78
     8
 79
     2
140
5.0
141
0.0
143
0.0393701
146
0.71
147
1.5
172
     1
176
   256
177
   256
178
     2
271
     2
272
     3
274
     4
283
     0
284
     8
340
1287
371
    -1
372
    -1
1001
ACAD_DSTYLE_DIMARC_LENGTH_SYMBOL
1070
   379
1070
     0
1001
ACAD_DSTYLE_DIMJOGGED_JOGANGLE_SYMBOL
1070
   384
1040
1.570796326794896
  0
DIMSTYLE
105
1682
330
1282
100
AcDbSymbolTableRecord
100
AcDbDimStyleTableRecord
  2
AM_DIN$SF
 70
     0
  4
"
 41
2.5
 42
1.0
 43
10.0
 44
1.0
 47
0.1
 48
0.1
 73
     0
 74
     0
 75
     1
 76
     1
 77
     1
 78
     8
 79
     2
140
3.5
141
0.0
143
0.0393701
146
0.71
147
1.5
172
     1
176
   256
177
   256
178
     2
271
     2
272
     3
274
     4
283
     0
284
     8
340
1287
371
    -1
372
    -1
1001
ACAD_DSTYLE_DIMARC_LENGTH_SYMBOL
1070
   379
1070
     0
1001
ACAD_DSTYLE_DIMJOGGED_JOGANGLE_SYMBOL
1070
   384
1040
1.570796326794896
  0
DIMSTYLE
105
168B
330
1282
100
AcDbSymbolTableRecord
100
AcDbDimStyleTableRecord
  2
AM_DIN$SH
 70
     0
  4
"
 41
2.5
 42
1.0
 43
10.0
 44
1.0
 47
0.1
 48
0.1
 73
     0
 74
     0
 75
     1
 76
     1
 77
     1
 78
     8
 79
     2
140
3.5
141
0.0
143
0.0393701
144
2.0
146
0.71
147
1.5
172
     1
173
     1
176
   256
177
   256
178
     2
271
     2
272
     3
274
     4
283
     0
284
     8
340
1287
343
1683
371
    -1
372
    -1
1001
ACAD_DSTYLE_DIMARC_LENGTH_SYMBOL
1070
   379
1070
     0
1001
ACAD_DSTYLE_DIMJOGGED_JOGANGLE_SYMBOL
1070
   384
1040
1.570796326794896
  0
ENDTAB
  0
TABLE
  2
BLOCK_RECORD
  5
1279
330
0
100
AcDbSymbolTable
 70
    27
  0
BLOCK_RECORD
  5
1290
330
1279
100
AcDbSymbolTableRecord
100
AcDbBlockTableRecord
  2
*MODEL_SPACE
340
15C9
  0
BLOCK_RECORD
  5
128D
330
1279
100
AcDbSymbolTableRecord
100
AcDbBlockTableRecord
  2
*PAPER_SPACE
340
15CA
  0
BLOCK_RECORD
  5
12AC
330
1279
100
AcDbSymbolTableRecord
100
AcDbBlockTableRecord
  2
*X0
340
0
102
{BLKREFS
331
10C1
102
}
  0
BLOCK_RECORD
  5
12AD
330
1279
100
AcDbSymbolTableRecord
100
AcDbBlockTableRecord
  2
*X1
340
0
102
{BLKREFS
331
1118
102
}
  0
BLOCK_RECORD
  5
12AE
330
1279
100
AcDbSymbolTableRecord
100
AcDbBlockTableRecord
  2
*X2
340
0
102
{BLKREFS
331
1125
102
}
  0
BLOCK_RECORD
  5
12AF
330
1279
100
AcDbSymbolTableRecord
100
AcDbBlockTableRecord
  2
*X3
340
0
102
{BLKREFS
331
1135
102
}
  0
BLOCK_RECORD
  5
12B0
330
1279
100
AcDbSymbolTableRecord
100
AcDbBlockTableRecord
  2
*X4
340
0
102
{BLKREFS
331
1142
102
}
  0
BLOCK_RECORD
  5
12B1
330
1279
100
AcDbSymbolTableRecord
100
AcDbBlockTableRecord
  2
*X5
340
0
102
{BLKREFS
331
114F
102
}
  0
BLOCK_RECORD
  5
12B2
330
1279
100
AcDbSymbolTableRecord
100
AcDbBlockTableRecord
  2
*X6
340
0
102
{BLKREFS
331
115C
102
}
  0
BLOCK_RECORD
  5
12B3
330
1279
100
AcDbSymbolTableRecord
100
AcDbBlockTableRecord
  2
*X7
340
0
102
{BLKREFS
331
1169
102
}
  0
BLOCK_RECORD
  5
12B4
330
1279
100
AcDbSymbolTableRecord
100
AcDbBlockTableRecord
  2
*X8
340
0
102
{BLKREFS
331
1176
102
}
  0
BLOCK_RECORD
  5
12B5
330
1279
100
AcDbSymbolTableRecord
100
AcDbBlockTableRecord
  2
*X9
340
0
102
{BLKREFS
331
1183
102
}
  0
BLOCK_RECORD
  5
12B6
330
1279
100
AcDbSymbolTableRecord
100
AcDbBlockTableRecord
  2
*X10
340
0
102
{BLKREFS
331
1190
102
}
  0
BLOCK_RECORD
  5
12B7
330
1279
100
AcDbSymbolTableRecord
100
AcDbBlockTableRecord
  2
*X11
340
0
102
{BLKREFS
331
11A0
102
}
  0
BLOCK_RECORD
  5
12B8
330
1279
100
AcDbSymbolTableRecord
100
AcDbBlockTableRecord
  2
*X12
340
0
102
{BLKREFS
331
11B8
102
}
  0
BLOCK_RECORD
  5
12B9
330
1279
100
AcDbSymbolTableRecord
100
AcDbBlockTableRecord
  2
*X13
340
0
102
{BLKREFS
331
11D0
102
}
  0
BLOCK_RECORD
  5
12D5
330
1279
100
AcDbSymbolTableRecord
100
AcDbBlockTableRecord
  2
KATALOG_LEER
340
0
102
{BLKREFS
331
130D
331
132A
102
}
  0
BLOCK_RECORD
  5
130C
330
1279
100
AcDbSymbolTableRecord
100
AcDbBlockTableRecord
  2
KATALOG
340
0
  0
BLOCK_RECORD
  5
132C
330
1279
100
AcDbSymbolTableRecord
100
AcDbBlockTableRecord
  2
*D16
340
0
  0
BLOCK_RECORD
  5
1353
330
1279
100
AcDbSymbolTableRecord
100
AcDbBlockTableRecord
  2
*D17
340
0
  0
BLOCK_RECORD
  5
136A
330
1279
100
AcDbSymbolTableRecord
100
AcDbBlockTableRecord
  2
*D18
340
0
  0
BLOCK_RECORD
  5
1381
330
1279
100
AcDbSymbolTableRecord
100
AcDbBlockTableRecord
  2
*D19
340
0
  0
BLOCK_RECORD
  5
1398
330
1279
100
AcDbSymbolTableRecord
100
AcDbBlockTableRecord
  2
*D20
340
0
  0
BLOCK_RECORD
  5
149C
330
1279
100
AcDbSymbolTableRecord
100
AcDbBlockTableRecord
  2
*D21
340
0
  0
BLOCK_RECORD
  5
15A5
330
1279
100
AcDbSymbolTableRecord
100
AcDbBlockTableRecord
  2
GEVCON
340
0
  0
BLOCK_RECORD
  5
15A9
330
1279
100
AcDbSymbolTableRecord
100
AcDbBlockTableRecord
  2
GEVEP
340
0
  0
BLOCK_RECORD
  5
15B2
330
1279
100
AcDbSymbolTableRecord
100
AcDbBlockTableRecord
  2
GEVFRAME
340
0
  0
BLOCK_RECORD
  5
1683
330
1279
100
AcDbSymbolTableRecord
100
AcDbBlockTableRecord
  2
GENAXEH
340
0
  0
ENDTAB
  0
ENDSEC
  0
SECTION
  2
BLOCKS
  0
BLOCK
  5
1291
330
1290
100
AcDbEntity
  8
0
100
AcDbBlockBegin
  2
*MODEL_SPACE
 70
     0
 10
0.0
 20
0.0
 30
0.0
  3
*MODEL_SPACE
  1

  0
ENDBLK
  5
1292
330
1290
100
AcDbEntity
  8
0
100
AcDbBlockEnd
  0
BLOCK
  5
128E
330
128D
100
AcDbEntity
 67
     1
  8
0
100
AcDbBlockBegin
  2
*PAPER_SPACE
 70
     0
 10
0.0
 20
0.0
 30
0.0
  3
*PAPER_SPACE
  1

  0
ENDBLK
  5
128F
330
128D
100
AcDbEntity
 67
     1
  8
0
100
AcDbBlockEnd
  0
BLOCK
  5
1097
330
12AC
100
AcDbEntity
  8
0
100
AcDbBlockBegin
  2
*X0
 70
     1
 10
0.0
 20
0.0
 30
0.0
  3
*X0
  1

  0
LINE
  5
1098
330
12AC
100
AcDbEntity
  8
8
100
AcDbLine
 10
45.0
 20
223.158
 30
0.0
 11
46.5
 21
224.658
 31
0.0
  0
LINE
  5
1099
330
12AC
100
AcDbEntity
  8
8
100
AcDbLine
 10
45.0
 20
227.648
 30
0.0
 11
46.5
 21
229.148
 31
0.0
  0
LINE
  5
109A
330
12AC
100
AcDbEntity
  8
8
100
AcDbLine
 10
45.0
 20
232.138
 30
0.0
 11
46.5
 21
233.638
 31
0.0
  0
LINE
  5
109B
330
12AC
100
AcDbEntity
  8
8
100
AcDbLine
 10
45.0
 20
236.628
 30
0.0
 11
46.5
 21
238.128
 31
0.0
  0
LINE
  5
109C
330
12AC
100
AcDbEntity
  8
8
100
AcDbLine
 10
45.0
 20
241.118
 30
0.0
 11
46.5
 21
242.618
 31
0.0
  0
LINE
  5
109D
330
12AC
100
AcDbEntity
  8
8
100
AcDbLine
 10
45.0
 20
245.608
 30
0.0
 11
46.5
 21
247.108
 31
0.0
  0
LINE
  5
109E
330
12AC
100
AcDbEntity
  8
8
100
AcDbLine
 10
45.0
 20
250.099
 30
0.0
 11
46.5
 21
251.599
 31
0.0
  0
LINE
  5
109F
330
12AC
100
AcDbEntity
  8
8
100
AcDbLine
 10
45.0
 20
254.589
 30
0.0
 11
46.5
 21
256.089
 31
0.0
  0
LINE
  5
10A0
330
12AC
100
AcDbEntity
  8
8
100
AcDbLine
 10
45.0
 20
259.079
 30
0.0
 11
46.5
 21
260.579
 31
0.0
  0
LINE
  5
10A1
330
12AC
100
AcDbEntity
  8
8
100
AcDbLine
 10
45.0
 20
263.569
 30
0.0
 11
46.5
 21
265.069
 31
0.0
  0
LINE
  5
10A2
330
12AC
100
AcDbEntity
  8
8
100
AcDbLine
 10
45.0
 20
268.059
 30
0.0
 11
46.5
 21
269.559
 31
0.0
  0
LINE
  5
10A3
330
12AC
100
AcDbEntity
  8
8
100
AcDbLine
 10
45.0
 20
272.549
 30
0.0
 11
46.5
 21
274.049
 31
0.0
  0
LINE
  5
10A4
330
12AC
100
AcDbEntity
  8
8
100
AcDbLine
 10
45.0
 20
277.039
 30
0.0
 11
46.5
 21
278.539
 31
0.0
  0
LINE
  5
10A5
330
12AC
100
AcDbEntity
  8
8
100
AcDbLine
 10
45.0
 20
281.529
 30
0.0
 11
46.5
 21
283.029
 31
0.0
  0
LINE
  5
10A6
330
12AC
100
AcDbEntity
  8
8
100
AcDbLine
 10
45.0
 20
286.02
 30
0.0
 11
46.5
 21
287.52
 31
0.0
  0
LINE
  5
10A7
330
12AC
100
AcDbEntity
  8
8
100
AcDbLine
 10
45.0
 20
290.51
 30
0.0
 11
46.5
 21
292.01
 31
0.0
  0
LINE
  5
10A8
330
12AC
100
AcDbEntity
  8
8
100
AcDbLine
 10
45.0
 20
295.0
 30
0.0
 11
46.5
 21
296.5
 31
0.0
  0
LINE
  5
10A9
330
12AC
100
AcDbEntity
  8
8
100
AcDbLine
 10
45.0
 20
299.49
 30
0.0
 11
46.5
 21
300.99
 31
0.0
  0
LINE
  5
10AA
330
12AC
100
AcDbEntity
  8
8
100
AcDbLine
 10
45.0
 20
303.98
 30
0.0
 11
46.5
 21
305.48
 31
0.0
  0
LINE
  5
10AB
330
12AC
100
AcDbEntity
  8
8
100
AcDbLine
 10
45.0
 20
308.47
 30
0.0
 11
46.5
 21
309.97
 31
0.0
  0
LINE
  5
10AC
330
12AC
100
AcDbEntity
  8
8
100
AcDbLine
 10
45.0
 20
312.96
 30
0.0
 11
46.5
 21
314.46
 31
0.0
  0
LINE
  5
10AD
330
12AC
100
AcDbEntity
  8
8
100
AcDbLine
 10
45.0
 20
317.451
 30
0.0
 11
46.5
 21
318.951
 31
0.0
  0
LINE
  5
10AE
330
12AC
100
AcDbEntity
  8
8
100
AcDbLine
 10
45.0
 20
321.941
 30
0.0
 11
46.5
 21
323.441
 31
0.0
  0
LINE
  5
10AF
330
12AC
100
AcDbEntity
  8
8
100
AcDbLine
 10
45.0
 20
326.431
 30
0.0
 11
46.5
 21
327.931
 31
0.0
  0
LINE
  5
10B0
330
12AC
100
AcDbEntity
  8
8
100
AcDbLine
 10
45.0
 20
330.921
 30
0.0
 11
46.5
 21
332.421
 31
0.0
  0
LINE
  5
10B1
330
12AC
100
AcDbEntity
  8
8
100
AcDbLine
 10
45.0
 20
335.411
 30
0.0
 11
46.5
 21
336.911
 31
0.0
  0
LINE
  5
10B2
330
12AC
100
AcDbEntity
  8
8
100
AcDbLine
 10
45.0
 20
339.901
 30
0.0
 11
46.5
 21
341.401
 31
0.0
  0
LINE
  5
10B3
330
12AC
100
AcDbEntity
  8
8
100
AcDbLine
 10
45.0
 20
344.391
 30
0.0
 11
46.5
 21
345.8909999999999
 31
0.0
  0
LINE
  5
10B4
330
12AC
100
AcDbEntity
  8
8
100
AcDbLine
 10
45.0
 20
348.881
 30
0.0
 11
46.5
 21
350.381
 31
0.0
  0
LINE
  5
10B5
330
12AC
100
AcDbEntity
  8
8
100
AcDbLine
 10
61.263
 20
365.144
 30
0.0
 11
63.5
 21
367.381
 31
0.0
  0
LINE
  5
10B6
330
12AC
100
AcDbEntity
  8
8
100
AcDbLine
 10
45.0
 20
353.372
 30
0.0
 11
46.5
 21
354.8719999999999
 31
0.0
  0
LINE
  5
10B7
330
12AC
100
AcDbEntity
  8
8
100
AcDbLine
 10
56.773
 20
365.144
 30
0.0
 11
61.272
 21
369.644
 31
0.0
  0
LINE
  5
10B8
330
12AC
100
AcDbEntity
  8
8
100
AcDbLine
 10
45.0
 20
357.862
 30
0.0
 11
46.5
 21
359.362
 31
0.0
  0
LINE
  5
10B9
330
12AC
100
AcDbEntity
  8
8
100
AcDbLine
 10
52.283
 20
365.144
 30
0.0
 11
53.78199999999999
 21
366.644
 31
0.0
  0
LINE
  5
10BA
330
12AC
100
AcDbEntity
  8
8
100
AcDbLine
 10
53.864
 20
366.725
 30
0.0
 11
56.782
 21
369.644
 31
0.0
  0
LINE
  5
10BB
330
12AC
100
AcDbEntity
  8
8
100
AcDbLine
 10
45.02399999999999
 20
362.376
 30
0.0
 11
49.268
 21
366.62
 31
0.0
  0
LINE
  5
10BC
330
12AC
100
AcDbEntity
  8
8
100
AcDbLine
 10
51.32899999999999
 20
368.681
 30
0.0
 11
53.99899999999999
 21
371.351
 31
0.0
  0
LINE
  5
10BD
330
12AC
100
AcDbEntity
  8
8
100
AcDbLine
 10
50.001
 20
371.843
 30
0.0
 11
52.43199999999999
 21
374.274
 31
0.0
  0
LINE
  5
10BE
330
12AC
100
AcDbEntity
  8
8
100
AcDbLine
 10
46.788
 20
373.121
 30
0.0
 11
49.08699999999999
 21
375.419
 31
0.0
  0
LINE
  5
10BF
330
12AC
100
AcDbEntity
  8
8
100
AcDbLine
 10
46.0
 20
376.8219999999999
 30
0.0
 11
49.0
 21
379.822
 31
0.0
  0
ENDBLK
  5
10C0
330
12AC
100
AcDbEntity
  8
0
100
AcDbBlockEnd
  0
BLOCK
  5
10EE
330
12AD
100
AcDbEntity
  8
0
100
AcDbBlockBegin
  2
*X1
 70
     1
 10
0.0
 20
0.0
 30
0.0
  3
*X1
  1

  0
LINE
  5
10EF
330
12AD
100
AcDbEntity
  8
8
100
AcDbLine
 10
241.5
 20
222.092
 30
0.0
 11
243.0
 21
223.592
 31
0.0
  0
LINE
  5
10F0
330
12AD
100
AcDbEntity
  8
8
100
AcDbLine
 10
241.5
 20
226.582
 30
0.0
 11
243.0
 21
228.082
 31
0.0
  0
LINE
  5
10F1
330
12AD
100
AcDbEntity
  8
8
100
AcDbLine
 10
241.5
 20
231.072
 30
0.0
 11
243.0
 21
232.572
 31
0.0
  0
LINE
  5
10F2
330
12AD
100
AcDbEntity
  8
8
100
AcDbLine
 10
241.5
 20
235.563
 30
0.0
 11
243.0
 21
237.063
 31
0.0
  0
LINE
  5
10F3
330
12AD
100
AcDbEntity
  8
8
100
AcDbLine
 10
241.5
 20
240.053
 30
0.0
 11
243.0
 21
241.553
 31
0.0
  0
LINE
  5
10F4
330
12AD
100
AcDbEntity
  8
8
100
AcDbLine
 10
241.5
 20
244.543
 30
0.0
 11
243.0
 21
246.043
 31
0.0
  0
LINE
  5
10F5
330
12AD
100
AcDbEntity
  8
8
100
AcDbLine
 10
241.5
 20
249.033
 30
0.0
 11
243.0
 21
250.533
 31
0.0
  0
LINE
  5
10F6
330
12AD
100
AcDbEntity
  8
8
100
AcDbLine
 10
241.5
 20
253.523
 30
0.0
 11
243.0
 21
255.023
 31
0.0
  0
LINE
  5
10F7
330
12AD
100
AcDbEntity
  8
8
100
AcDbLine
 10
241.5
 20
258.013
 30
0.0
 11
243.0
 21
259.513
 31
0.0
  0
LINE
  5
10F8
330
12AD
100
AcDbEntity
  8
8
100
AcDbLine
 10
241.5
 20
262.503
 30
0.0
 11
243.0
 21
264.003
 31
0.0
  0
LINE
  5
10F9
330
12AD
100
AcDbEntity
  8
8
100
AcDbLine
 10
241.5
 20
266.993
 30
0.0
 11
243.0
 21
268.493
 31
0.0
  0
LINE
  5
10FA
330
12AD
100
AcDbEntity
  8
8
100
AcDbLine
 10
241.5
 20
271.4840000000001
 30
0.0
 11
243.0
 21
272.984
 31
0.0
  0
LINE
  5
10FB
330
12AD
100
AcDbEntity
  8
8
100
AcDbLine
 10
241.5
 20
275.974
 30
0.0
 11
243.0
 21
277.474
 31
0.0
  0
LINE
  5
10FC
330
12AD
100
AcDbEntity
  8
8
100
AcDbLine
 10
241.5
 20
280.464
 30
0.0
 11
243.0
 21
281.964
 31
0.0
  0
LINE
  5
10FD
330
12AD
100
AcDbEntity
  8
8
100
AcDbLine
 10
241.5
 20
284.954
 30
0.0
 11
243.0
 21
286.454
 31
0.0
  0
LINE
  5
10FE
330
12AD
100
AcDbEntity
  8
8
100
AcDbLine
 10
241.5
 20
289.444
 30
0.0
 11
243.0
 21
290.944
 31
0.0
  0
LINE
  5
10FF
330
12AD
100
AcDbEntity
  8
8
100
AcDbLine
 10
241.5
 20
293.9340000000001
 30
0.0
 11
243.0
 21
295.434
 31
0.0
  0
LINE
  5
1100
330
12AD
100
AcDbEntity
  8
8
100
AcDbLine
 10
241.5
 20
298.424
 30
0.0
 11
243.0
 21
299.924
 31
0.0
  0
LINE
  5
1101
330
12AD
100
AcDbEntity
  8
8
100
AcDbLine
 10
241.5
 20
302.914
 30
0.0
 11
243.0
 21
304.414
 31
0.0
  0
LINE
  5
1102
330
12AD
100
AcDbEntity
  8
8
100
AcDbLine
 10
241.5
 20
307.405
 30
0.0
 11
243.0
 21
308.905
 31
0.0
  0
LINE
  5
1103
330
12AD
100
AcDbEntity
  8
8
100
AcDbLine
 10
241.5
 20
311.895
 30
0.0
 11
243.0
 21
313.395
 31
0.0
  0
LINE
  5
1104
330
12AD
100
AcDbEntity
  8
8
100
AcDbLine
 10
241.5
 20
316.385
 30
0.0
 11
243.0
 21
317.885
 31
0.0
  0
LINE
  5
1105
330
12AD
100
AcDbEntity
  8
8
100
AcDbLine
 10
241.5
 20
320.875
 30
0.0
 11
243.0
 21
322.375
 31
0.0
  0
LINE
  5
1106
330
12AD
100
AcDbEntity
  8
8
100
AcDbLine
 10
241.5
 20
325.365
 30
0.0
 11
243.0
 21
326.865
 31
0.0
  0
LINE
  5
1107
330
12AD
100
AcDbEntity
  8
8
100
AcDbLine
 10
241.5
 20
329.855
 30
0.0
 11
243.0
 21
331.355
 31
0.0
  0
LINE
  5
1108
330
12AD
100
AcDbEntity
  8
8
100
AcDbLine
 10
241.5
 20
334.345
 30
0.0
 11
243.0
 21
335.845
 31
0.0
  0
LINE
  5
1109
330
12AD
100
AcDbEntity
  8
8
100
AcDbLine
 10
241.5
 20
338.836
 30
0.0
 11
243.0
 21
340.336
 31
0.0
  0
LINE
  5
110A
330
12AD
100
AcDbEntity
  8
8
100
AcDbLine
 10
241.5
 20
343.326
 30
0.0
 11
243.0
 21
344.826
 31
0.0
  0
LINE
  5
110B
330
12AD
100
AcDbEntity
  8
8
100
AcDbLine
 10
241.5
 20
347.816
 30
0.0
 11
243.0
 21
349.316
 31
0.0
  0
LINE
  5
110C
330
12AD
100
AcDbEntity
  8
8
100
AcDbLine
 10
241.5
 20
352.306
 30
0.0
 11
243.0
 21
353.806
 31
0.0
  0
LINE
  5
110D
330
12AD
100
AcDbEntity
  8
8
100
AcDbLine
 10
241.5
 20
356.796
 30
0.0
 11
243.0
 21
358.296
 31
0.0
  0
LINE
  5
110E
330
12AD
100
AcDbEntity
  8
8
100
AcDbLine
 10
241.5
 20
361.286
 30
0.0
 11
242.912
 21
362.698
 31
0.0
  0
LINE
  5
110F
330
12AD
100
AcDbEntity
  8
8
100
AcDbLine
 10
240.292
 20
364.568
 30
0.0
 11
241.353
 21
365.629
 31
0.0
  0
LINE
  5
1110
330
12AD
100
AcDbEntity
  8
8
100
AcDbLine
 10
236.378
 20
365.144
 30
0.0
 11
237.877
 21
366.644
 31
0.0
  0
LINE
  5
1111
330
12AD
100
AcDbEntity
  8
8
100
AcDbLine
 10
231.888
 20
365.144
 30
0.0
 11
237.0
 21
370.257
 31
0.0
  0
LINE
  5
1112
330
12AD
100
AcDbEntity
  8
8
100
AcDbLine
 10
238.602
 20
371.858
 30
0.0
 11
241.985
 21
375.242
 31
0.0
  0
LINE
  5
1113
330
12AD
100
AcDbEntity
  8
8
100
AcDbLine
 10
227.398
 20
365.144
 30
0.0
 11
231.897
 21
369.644
 31
0.0
  0
LINE
  5
1114
330
12AD
100
AcDbEntity
  8
8
100
AcDbLine
 10
234.07
 20
371.816
 30
0.0
 11
237.027
 21
374.774
 31
0.0
  0
LINE
  5
1115
330
12AD
100
AcDbEntity
  8
8
100
AcDbLine
 10
239.0
 20
376.7469999999999
 30
0.0
 11
242.0
 21
379.747
 31
0.0
  0
LINE
  5
1116
330
12AD
100
AcDbEntity
  8
8
100
AcDbLine
 10
224.5
 20
366.737
 30
0.0
 11
227.407
 21
369.644
 31
0.0
  0
ENDBLK
  5
1117
330
12AD
100
AcDbEntity
  8
0
100
AcDbBlockEnd
  0
BLOCK
  5
1120
330
12AE
100
AcDbEntity
  8
0
100
AcDbBlockBegin
  2
*X2
 70
     1
 10
0.0
 20
0.0
 30
0.0
  3
*X2
  1

  0
LINE
  5
1121
330
12AE
100
AcDbEntity
  8
8
100
AcDbLine
 10
212.0
 20
376.316
 30
0.0
 11
208.272
 21
380.044
 31
0.0
  0
LINE
  5
1122
330
12AE
100
AcDbEntity
  8
8
100
AcDbLine
 10
208.982
 20
374.843
 30
0.0
 11
203.782
 21
380.044
 31
0.0
  0
LINE
  5
1123
330
12AE
100
AcDbEntity
  8
8
100
AcDbLine
 10
204.492
 20
374.843
 30
0.0
 11
202.0
 21
377.335
 31
0.0
  0
ENDBLK
  5
1124
330
12AE
100
AcDbEntity
  8
0
100
AcDbBlockEnd
  0
BLOCK
  5
112E
330
12AF
100
AcDbEntity
  8
0
100
AcDbBlockBegin
  2
*X3
 70
     1
 10
0.0
 20
0.0
 30
0.0
  3
*X3
  1

  0
LINE
  5
112F
330
12AF
100
AcDbEntity
  8
8
100
AcDbLine
 10
238.023
 20
377.234
 30
0.0
 11
235.213
 21
380.044
 31
0.0
  0
LINE
  5
1130
330
12AF
100
AcDbEntity
  8
8
100
AcDbLine
 10
235.923
 20
374.843
 30
0.0
 11
230.723
 21
380.044
 31
0.0
  0
LINE
  5
1131
330
12AF
100
AcDbEntity
  8
8
100
AcDbLine
 10
231.433
 20
374.843
 30
0.0
 11
226.233
 21
380.044
 31
0.0
  0
LINE
  5
1132
330
12AF
100
AcDbEntity
  8
8
100
AcDbLine
 10
226.943
 20
374.843
 30
0.0
 11
221.742
 21
380.044
 31
0.0
  0
LINE
  5
1133
330
12AF
100
AcDbEntity
  8
8
100
AcDbLine
 10
222.453
 20
374.843
 30
0.0
 11
220.0
 21
377.296
 31
0.0
  0
ENDBLK
  5
1134
330
12AF
100
AcDbEntity
  8
0
100
AcDbBlockEnd
  0
BLOCK
  5
113D
330
12B0
100
AcDbEntity
  8
0
100
AcDbBlockBegin
  2
*X4
 70
     1
 10
0.0
 20
0.0
 30
0.0
  3
*X4
  1

  0
LINE
  5
113E
330
12B0
100
AcDbEntity
  8
8
100
AcDbLine
 10
194.0
 20
376.355
 30
0.0
 11
190.312
 21
380.044
 31
0.0
  0
LINE
  5
113F
330
12B0
100
AcDbEntity
  8
8
100
AcDbLine
 10
191.022
 20
374.843
 30
0.0
 11
185.821
 21
380.044
 31
0.0
  0
LINE
  5
1140
330
12B0
100
AcDbEntity
  8
8
100
AcDbLine
 10
186.532
 20
374.843
 30
0.0
 11
184.0
 21
377.375
 31
0.0
  0
ENDBLK
  5
1141
330
12B0
100
AcDbEntity
  8
0
100
AcDbBlockEnd
  0
BLOCK
  5
114A
330
12B1
100
AcDbEntity
  8
0
100
AcDbBlockBegin
  2
*X5
 70
     1
 10
0.0
 20
0.0
 30
0.0
  3
*X5
  1

  0
LINE
  5
114B
330
12B1
100
AcDbEntity
  8
8
100
AcDbLine
 10
176.0
 20
376.395
 30
0.0
 11
172.351
 21
380.044
 31
0.0
  0
LINE
  5
114C
330
12B1
100
AcDbEntity
  8
8
100
AcDbLine
 10
173.0609999999999
 20
374.843
 30
0.0
 11
167.861
 21
380.044
 31
0.0
  0
LINE
  5
114D
330
12B1
100
AcDbEntity
  8
8
100
AcDbLine
 10
168.571
 20
374.843
 30
0.0
 11
166.0
 21
377.414
 31
0.0
  0
ENDBLK
  5
114E
330
12B1
100
AcDbEntity
  8
0
100
AcDbBlockEnd
  0
BLOCK
  5
1157
330
12B2
100
AcDbEntity
  8
0
100
AcDbBlockBegin
  2
*X6
 70
     1
 10
0.0
 20
0.0
 30
0.0
  3
*X6
  1

  0
LINE
  5
1158
330
12B2
100
AcDbEntity
  8
8
100
AcDbLine
 10
158.0
 20
376.434
 30
0.0
 11
154.391
 21
380.044
 31
0.0
  0
LINE
  5
1159
330
12B2
100
AcDbEntity
  8
8
100
AcDbLine
 10
155.101
 20
374.843
 30
0.0
 11
149.9
 21
380.044
 31
0.0
  0
LINE
  5
115A
330
12B2
100
AcDbEntity
  8
8
100
AcDbLine
 10
150.61
 20
374.843
 30
0.0
 11
148.0
 21
377.454
 31
0.0
  0
ENDBLK
  5
115B
330
12B2
100
AcDbEntity
  8
0
100
AcDbBlockEnd
  0
BLOCK
  5
1164
330
12B3
100
AcDbEntity
  8
0
100
AcDbBlockBegin
  2
*X7
 70
     1
 10
0.0
 20
0.0
 30
0.0
  3
*X7
  1

  0
LINE
  5
1165
330
12B3
100
AcDbEntity
  8
8
100
AcDbLine
 10
140.0
 20
376.474
 30
0.0
 11
136.43
 21
380.044
 31
0.0
  0
LINE
  5
1166
330
12B3
100
AcDbEntity
  8
8
100
AcDbLine
 10
137.14
 20
374.843
 30
0.0
 11
131.94
 21
380.044
 31
0.0
  0
LINE
  5
1167
330
12B3
100
AcDbEntity
  8
8
100
AcDbLine
 10
132.65
 20
374.843
 30
0.0
 11
130.0
 21
377.4930000000001
 31
0.0
  0
ENDBLK
  5
1168
330
12B3
100
AcDbEntity
  8
0
100
AcDbBlockEnd
  0
BLOCK
  5
1171
330
12B4
100
AcDbEntity
  8
0
100
AcDbBlockBegin
  2
*X8
 70
     1
 10
0.0
 20
0.0
 30
0.0
  3
*X8
  1

  0
LINE
  5
1172
330
12B4
100
AcDbEntity
  8
8
100
AcDbLine
 10
122.0
 20
376.513
 30
0.0
 11
118.47
 21
380.044
 31
0.0
  0
LINE
  5
1173
330
12B4
100
AcDbEntity
  8
8
100
AcDbLine
 10
119.18
 20
374.843
 30
0.0
 11
113.979
 21
380.044
 31
0.0
  0
LINE
  5
1174
330
12B4
100
AcDbEntity
  8
8
100
AcDbLine
 10
114.689
 20
374.843
 30
0.0
 11
112.0
 21
377.533
 31
0.0
  0
ENDBLK
  5
1175
330
12B4
100
AcDbEntity
  8
0
100
AcDbBlockEnd
  0
BLOCK
  5
117E
330
12B5
100
AcDbEntity
  8
0
100
AcDbBlockBegin
  2
*X9
 70
     1
 10
0.0
 20
0.0
 30
0.0
  3
*X9
  1

  0
LINE
  5
117F
330
12B5
100
AcDbEntity
  8
8
100
AcDbLine
 10
104.0
 20
376.553
 30
0.0
 11
100.509
 21
380.044
 31
0.0
  0
LINE
  5
1180
330
12B5
100
AcDbEntity
  8
8
100
AcDbLine
 10
101.219
 20
374.843
 30
0.0
 11
96.019
 21
380.044
 31
0.0
  0
LINE
  5
1181
330
12B5
100
AcDbEntity
  8
8
100
AcDbLine
 10
96.729
 20
374.843
 30
0.0
 11
94.0
 21
377.572
 31
0.0
  0
ENDBLK
  5
1182
330
12B5
100
AcDbEntity
  8
0
100
AcDbBlockEnd
  0
BLOCK
  5
118B
330
12B6
100
AcDbEntity
  8
0
100
AcDbBlockBegin
  2
*X10
 70
     1
 10
0.0
 20
0.0
 30
0.0
  3
*X10
  1

  0
LINE
  5
118C
330
12B6
100
AcDbEntity
  8
8
100
AcDbLine
 10
86.0
 20
376.592
 30
0.0
 11
82.54799999999999
 21
380.044
 31
0.0
  0
LINE
  5
118D
330
12B6
100
AcDbEntity
  8
8
100
AcDbLine
 10
83.259
 20
374.843
 30
0.0
 11
78.05800000000001
 21
380.044
 31
0.0
  0
LINE
  5
118E
330
12B6
100
AcDbEntity
  8
8
100
AcDbLine
 10
78.768
 20
374.843
 30
0.0
 11
76.0
 21
377.612
 31
0.0
  0
ENDBLK
  5
118F
330
12B6
100
AcDbEntity
  8
0
100
AcDbBlockEnd
  0
BLOCK
  5
1199
330
12B7
100
AcDbEntity
  8
0
100
AcDbBlockBegin
  2
*X11
 70
     1
 10
0.0
 20
0.0
 30
0.0
  3
*X11
  1

  0
LINE
  5
119A
330
12B7
100
AcDbEntity
  8
8
100
AcDbLine
 10
68.0
 20
376.6319999999999
 30
0.0
 11
64.588
 21
380.044
 31
0.0
  0
LINE
  5
119B
330
12B7
100
AcDbEntity
  8
8
100
AcDbLine
 10
65.298
 20
374.843
 30
0.0
 11
60.098
 21
380.044
 31
0.0
  0
LINE
  5
119C
330
12B7
100
AcDbEntity
  8
8
100
AcDbLine
 10
60.80799999999999
 20
374.843
 30
0.0
 11
55.608
 21
380.044
 31
0.0
  0
LINE
  5
119D
330
12B7
100
AcDbEntity
  8
8
100
AcDbLine
 10
56.31800000000001
 20
374.843
 30
0.0
 11
51.118
 21
380.044
 31
0.0
  0
LINE
  5
119E
330
12B7
100
AcDbEntity
  8
8
100
AcDbLine
 10
51.828
 20
374.843
 30
0.0
 11
49.982
 21
376.689
 31
0.0
  0
ENDBLK
  5
119F
330
12B7
100
AcDbEntity
  8
0
100
AcDbBlockEnd
  0
BLOCK
  5
11AA
330
12B8
100
AcDbEntity
  8
0
100
AcDbBlockBegin
  2
*X12
 70
     1
 10
0.0
 20
0.0
 30
0.0
  3
*X12
  1

  0
LINE
  5
11AB
330
12B8
100
AcDbEntity
  8
8
100
AcDbLine
 10
39.739
 20
261.561
 30
0.0
 11
45.0
 21
266.822
 31
0.0
  0
LINE
  5
11AC
330
12B8
100
AcDbEntity
  8
8
100
AcDbLine
 10
33.753
 20
261.561
 30
0.0
 11
45.0
 21
272.809
 31
0.0
  0
LINE
  5
11AD
330
12B8
100
AcDbEntity
  8
8
100
AcDbLine
 10
27.766
 20
261.561
 30
0.0
 11
35.766
 21
269.561
 31
0.0
  0
LINE
  5
11AE
330
12B8
100
AcDbEntity
  8
8
100
AcDbLine
 10
39.0
 20
272.796
 30
0.0
 11
39.766
 21
273.561
 31
0.0
  0
LINE
  5
11AF
330
12B8
100
AcDbEntity
  8
8
100
AcDbLine
 10
21.779
 20
261.561
 30
0.0
 11
29.779
 21
269.561
 31
0.0
  0
LINE
  5
11B0
330
12B8
100
AcDbEntity
  8
8
100
AcDbLine
 10
20.0
 20
265.769
 30
0.0
 11
23.792
 21
269.561
 31
0.0
  0
LINE
  5
11B1
330
12B8
100
AcDbEntity
  8
8
100
AcDbLine
 10
45.0
 20
267.843
 30
0.0
 11
39.281
 21
273.561
 31
0.0
  0
LINE
  5
11B2
330
12B8
100
AcDbEntity
  8
8
100
AcDbLine
 10
45.0
 20
261.856
 30
0.0
 11
37.294
 21
269.561
 31
0.0
  0
LINE
  5
11B3
330
12B8
100
AcDbEntity
  8
8
100
AcDbLine
 10
39.308
 20
261.561
 30
0.0
 11
31.30800000000001
 21
269.561
 31
0.0
  0
LINE
  5
11B4
330
12B8
100
AcDbEntity
  8
8
100
AcDbLine
 10
33.321
 20
261.561
 30
0.0
 11
25.321
 21
269.561
 31
0.0
  0
LINE
  5
11B5
330
12B8
100
AcDbEntity
  8
8
100
AcDbLine
 10
27.334
 20
261.561
 30
0.0
 11
20.0
 21
268.895
 31
0.0
  0
LINE
  5
11B6
330
12B8
100
AcDbEntity
  8
8
100
AcDbLine
 10
21.347
 20
261.561
 30
0.0
 11
20.0
 21
262.909
 31
0.0
  0
ENDBLK
  5
11B7
330
12B8
100
AcDbEntity
  8
0
100
AcDbBlockEnd
  0
BLOCK
  5
11C2
330
12B9
100
AcDbEntity
  8
0
100
AcDbBlockBegin
  2
*X13
 70
     1
 10
0.0
 20
0.0
 30
0.0
  3
*X13
  1

  0
LINE
  5
11C3
330
12B9
100
AcDbEntity
  8
8
100
AcDbLine
 10
261.252
 20
261.561
 30
0.0
 11
268.0
 21
268.309
 31
0.0
  0
LINE
  5
11C4
330
12B9
100
AcDbEntity
  8
8
100
AcDbLine
 10
255.265
 20
261.561
 30
0.0
 11
263.265
 21
269.561
 31
0.0
  0
LINE
  5
11C5
330
12B9
100
AcDbEntity
  8
8
100
AcDbLine
 10
249.279
 20
261.561
 30
0.0
 11
257.279
 21
269.561
 31
0.0
  0
LINE
  5
11C6
330
12B9
100
AcDbEntity
  8
8
100
AcDbLine
 10
243.292
 20
261.561
 30
0.0
 11
251.292
 21
269.561
 31
0.0
  0
LINE
  5
11C7
330
12B9
100
AcDbEntity
  8
8
100
AcDbLine
 10
243.0
 20
267.256
 30
0.0
 11
249.0
 21
273.256
 31
0.0
  0
LINE
  5
11C8
330
12B9
100
AcDbEntity
  8
8
100
AcDbLine
 10
243.0
 20
273.243
 30
0.0
 11
243.318
 21
273.561
 31
0.0
  0
LINE
  5
11C9
330
12B9
100
AcDbEntity
  8
8
100
AcDbLine
 10
268.0
 20
266.356
 30
0.0
 11
264.7940000000001
 21
269.561
 31
0.0
  0
LINE
  5
11CA
330
12B9
100
AcDbEntity
  8
8
100
AcDbLine
 10
266.807
 20
261.561
 30
0.0
 11
258.807
 21
269.561
 31
0.0
  0
LINE
  5
11CB
330
12B9
100
AcDbEntity
  8
8
100
AcDbLine
 10
260.821
 20
261.561
 30
0.0
 11
252.821
 21
269.561
 31
0.0
  0
LINE
  5
11CC
330
12B9
100
AcDbEntity
  8
8
100
AcDbLine
 10
249.0
 20
273.382
 30
0.0
 11
248.821
 21
273.561
 31
0.0
  0
LINE
  5
11CD
330
12B9
100
AcDbEntity
  8
8
100
AcDbLine
 10
254.834
 20
261.561
 30
0.0
 11
243.0
 21
273.395
 31
0.0
  0
LINE
  5
11CE
330
12B9
100
AcDbEntity
  8
8
100
AcDbLine
 10
248.847
 20
261.561
 30
0.0
 11
243.0
 21
267.408
 31
0.0
  0
ENDBLK
  5
11CF
330
12B9
100
AcDbEntity
  8
0
100
AcDbBlockEnd
  0
BLOCK
  5
12D6
330
12D5
100
AcDbEntity
  8
0
100
AcDbBlockBegin
  2
KATALOG_LEER
 70
     0
 10
0.0
 20
0.0
 30
0.0
  3
KATALOG_LEER
  1

  0
ENDBLK
  5
12D7
330
12D5
100
AcDbEntity
  8
0
100
AcDbBlockEnd
  0
BLOCK
  5
131E
330
130C
100
AcDbEntity
  8
0
100
AcDbBlockBegin
  2
KATALOG
 70
     0
 10
0.0
 20
0.0
 30
0.0
  3
KATALOG
  1

  0
INSERT
  5
130D
330
130C
100
AcDbEntity
  8
0
100
AcDbBlockReference
  2
KATALOG_LEER
 10
205.0
 20
5.0
 30
0.0
1001
GENIUS_GENOREF_13
1005
130E
  0
POINT
  5
130E
330
130C
100
AcDbEntity
  8
0
 60
     1
100
AcDbPoint
 10
0.0
 20
0.0
 30
0.0
1001
GENIUS_GENOBJ-N-TIT_13
1002
{
1000
OWNER
1000
GEN
1002
}
1001
GENIUS_GENOENT_13
1002
{
1000
MYREF
1005
130E
1002
}
1002
{
1000
GRP
1005
0
1002
}
1001
GENIUS_GENOLIS_13
1002
{
1000
ENT
1005
130D
1005
0
1002
}
1001
GENIUS_GENTITLE_13
1002
{
1000
SCALE
1000
1:1
1002
}
1002
{
1000
BORDER
1000
KATALOG
1002
}
1002
{
1000
TITLE
1000
KATALOG_LEER
1002
}
1002
{
1000
UNCHG
1002
{
1000
GEN-TITLE-SCA
1000
GEN-TITLE-SIZ
1002
}
1002
}
1002
{
1000
HRA
1005
0
1002
}
1002
{
1000
HTIT
1005
130D
1002
}
1002
{
1000
GENIUSID
1005
130E
1002
}
1001
GENIUS_GENODEF_13
1002
{
1000
HIER
1070
     1
1002
}
1002
{
1000
MANEDIT
1070
     0
1002
}
1002
{
1000
NOSEL
1070
     0
1002
}
1002
{
1000
BEHIND
1070
     0
1002
}
1002
{
1000
REACTOR
1002
}
  0
TEXT
  5
130F
330
130C
100
AcDbEntity
  8
RAHM3
 60
     1
100
AcDbText
 10
29.391383
 20
162.283165
 30
0.0
 40
3.5
  1
!GENTITLE-MAX
100
AcDbText
  0
TEXT
  5
1310
330
130C
100
AcDbEntity
  8
RAHM3
 60
     1
100
AcDbText
 10
30.988432
 20
153.503279
 30
0.0
 40
3.5
  1
!GENTITLE-RU
100
AcDbText
  0
TEXT
  5
1311
330
130C
100
AcDbEntity
  8
RAHM3
 60
     1
100
AcDbText
 10
-85.995418
 20
56.924537
 30
0.0
 40
3.5
  1
!GENTITLE-LL
100
AcDbText
  0
TEXT
  5
1312
330
130C
100
AcDbEntity
  8
RAHM3
 60
     1
100
AcDbText
 10
50.36794099999999
 20
2.260896999999999
 30
0.0
 40
3.5
  1
!GENTITLE-INSERT
100
AcDbText
  0
LINE
  5
1313
330
130C
100
AcDbEntity
  8
RAHM2
100
AcDbLine
 10
0.0
 20
0.0
 30
0.0
 11
148.5
 21
0.0
 31
0.0
  0
LINE
  5
1314
330
130C
100
AcDbEntity
  8
RAHM2
100
AcDbLine
 10
148.5
 20
210.0
 30
0.0
 11
0.0
 21
210.0
 31
0.0
  0
LINE
  5
1315
330
130C
100
AcDbEntity
  8
RAHM2
100
AcDbLine
 10
0.0
 20
210.0
 30
0.0
 11
0.0
 21
0.0
 31
0.0
  0
TEXT
  5
1316
330
130C
100
AcDbEntity
  8
RAHM3
 60
     1
100
AcDbText
 10
184.023441
 20
165.022268
 30
0.0
 40
3.5
  1
!GENTITLE-MAX
100
AcDbText
  0
TEXT
  5
1317
330
130C
100
AcDbEntity
  8
RAHM3
 60
     1
100
AcDbText
 10
185.620491
 20
156.242382
 30
0.0
 40
3.5
  1
!GENTITLE-RU
100
AcDbText
  0
TEXT
  5
1318
330
130C
100
AcDbEntity
  8
RAHM3
 60
     1
100
AcDbText
 10
68.636641
 20
59.663641
 30
0.0
 40
3.5
  1
!GENTITLE-LL
100
AcDbText
  0
TEXT
  5
1319
330
130C
100
AcDbEntity
  8
RAHM3
 60
     1
100
AcDbText
 10
205.0
 20
5.0
 30
0.0
 40
3.5
  1
!GENTITLE-INSERT
100
AcDbText
  0
LINE
  5
131A
330
130C
100
AcDbEntity
  8
RAHM2
100
AcDbLine
 10
148.5
 20
0.0
 30
0.0
 11
148.5
 21
210.0
 31
0.0
  0
LINE
  5
131B
330
130C
100
AcDbEntity
  8
RAHM2
100
AcDbLine
 10
210.0
 20
148.5
 30
0.0
 11
0.0
 21
148.5
 31
0.0
  0
LINE
  5
131C
330
130C
100
AcDbEntity
  8
RAHM2
100
AcDbLine
 10
210.0
 20
0.0
 30
0.0
 11
210.0
 21
148.5
 31
0.0
  0
LINE
  5
131D
330
130C
100
AcDbEntity
  8
RAHM2
100
AcDbLine
 10
0.0
 20
0.0
 30
0.0
 11
210.0
 21
0.0
 31
0.0
  0
ENDBLK
  5
131F
330
130C
100
AcDbEntity
  8
0
100
AcDbBlockEnd
  0
BLOCK
  5
158D
330
132C
100
AcDbEntity
  8
0
100
AcDbBlockBegin
  2
*D16
 70
     1
 10
0.0
 20
0.0
 30
0.0
  3
*D16
  1
GEVFRAME
  0
LINE
  5
16B7
330
132C
100
AcDbEntity
  8
5
370
    -2
100
AcDbLine
 10
264.668741
 20
542.772474
 30
0.0
 11
264.668741
 21
492.772474
 31
0.0
  0
LINE
  5
16B8
330
132C
100
AcDbEntity
  8
5
370
    -2
100
AcDbLine
 10
462.668741
 20
542.772474
 30
0.0
 11
462.668741
 21
492.772474
 31
0.0
  0
LINE
  5
16B9
330
132C
100
AcDbEntity
  8
5
370
    -2
100
AcDbLine
 10
289.668741
 20
497.772474
 30
0.0
 11
437.668741
 21
497.772474
 31
0.0
  0
SOLID
  5
16BA
330
132C
100
AcDbEntity
  8
5
100
AcDbTrace
 10
289.668741
 20
501.9391406666667
 30
0.0
 11
289.668741
 21
493.6058073333334
 31
0.0
 12
264.668741
 22
497.772474
 32
0.0
 13
264.668741
 23
497.772474
 33
0.0
  0
SOLID
  5
16BB
330
132C
100
AcDbEntity
  8
5
100
AcDbTrace
 10
437.668741
 20
501.9391406666667
 30
0.0
 11
437.668741
 21
493.6058073333334
 31
0.0
 12
462.668741
 22
497.772474
 32
0.0
 13
462.668741
 23
497.772474
 33
0.0
  0
MTEXT
  5
16BC
330
132C
100
AcDbEntity
  8
5
 62
     2
100
AcDbMText
 10
363.668741
 20
509.522474
 30
0.0
 40
17.5
 41
0.0
 71
     5
 72
     1
  1
%%c 198
 73
     1
 44
1.0
1001
ACAD
1000
MTEXTBEGIN
1070
    73
1070
     1
1070
    44
1040
1.0
1070
    74
1070
     0
1000
MTEXTEND
  0
POINT
  5
16BD
330
132C
100
AcDbEntity
  8
DEFPOINTS
 62
     0
100
AcDbPoint
 10
264.668741
 20
547.772474
 30
0.0
  0
POINT
  5
16BE
330
132C
100
AcDbEntity
  8
DEFPOINTS
 62
     0
100
AcDbPoint
 10
462.668741
 20
547.772474
 30
0.0
  0
POINT
  5
16BF
330
132C
100
AcDbEntity
  8
DEFPOINTS
 62
     0
100
AcDbPoint
 10
462.668741
 20
497.772474
 30
0.0
  0
ENDBLK
  5
1597
330
132C
100
AcDbEntity
  8
0
100
AcDbBlockEnd
  0
BLOCK
  5
142E
330
1353
100
AcDbEntity
  8
0
100
AcDbBlockBegin
  2
*D17
 70
     1
 10
0.0
 20
0.0
 30
0.0
  3
*D17
  1

  0
LINE
  5
142F
330
1353
100
AcDbEntity
  8
0
  6
ByBlock
100
AcDbLine
 10
239.668741
 20
584.689474
 30
0.0
 11
239.668741
 21
457.772474
 31
0.0
  0
LINE
  5
1430
330
1353
100
AcDbEntity
  8
0
  6
ByBlock
100
AcDbLine
 10
487.668741
 20
584.689474
 30
0.0
 11
487.668741
 21
457.772474
 31
0.0
  0
LINE
  5
1431
330
1353
100
AcDbEntity
  8
0
  6
ByBlock
100
AcDbLine
 10
252.168741
 20
462.772474
 30
0.0
 11
475.168741
 21
462.772474
 31
0.0
  0
SOLID
  5
1432
330
1353
100
AcDbEntity
  8
0
  6
ByBlock
100
AcDbTrace
 10
252.168741
 20
464.8558069999999
 30
0.0
 11
252.168741
 21
460.689141
 31
0.0
 12
239.668741
 22
462.772474
 32
0.0
 13
239.668741
 23
462.772474
 33
0.0
  0
SOLID
  5
1433
330
1353
100
AcDbEntity
  8
0
  6
ByBlock
100
AcDbTrace
 10
475.168741
 20
464.8558069999999
 30
0.0
 11
475.168741
 21
460.689141
 31
0.0
 12
487.668741
 22
462.772474
 32
0.0
 13
487.668741
 23
462.772474
 33
0.0
  0
MTEXT
  5
1434
330
1353
100
AcDbEntity
  8
0
  6
ByBlock
 62
     2
100
AcDbMText
 10
363.668741
 20
474.524196
 30
0.0
 40
17.5
 41
0.0
 71
     5
 72
     1
  1
\U+2205 248
 73
     1
 44
1.0
1001
ACAD
1000
MTEXTBEGIN
1070
    73
1070
     1
1070
    44
1040
1.0
1070
    74
1070
     0
1000
MTEXTEND
  0
POINT
  5
1435
330
1353
100
AcDbEntity
  8
DEFPOINTS
  6
ByBlock
 62
     0
100
AcDbPoint
 10
239.668741
 20
589.689474
 30
0.0
  0
POINT
  5
1436
330
1353
100
AcDbEntity
  8
DEFPOINTS
  6
ByBlock
 62
     0
100
AcDbPoint
 10
487.668741
 20
589.689474
 30
0.0
  0
POINT
  5
1437
330
1353
100
AcDbEntity
  8
DEFPOINTS
  6
ByBlock
 62
     0
100
AcDbPoint
 10
487.668741
 20
462.772474
 30
0.0
  0
ENDBLK
  5
1438
330
1353
100
AcDbEntity
  8
0
100
AcDbBlockEnd
  0
BLOCK
  5
156D
330
136A
100
AcDbEntity
  8
0
100
AcDbBlockBegin
  2
*D18
 70
     1
 10
0.0
 20
0.0
 30
0.0
  3
*D18
  1
GEVFRAME
  0
LINE
  5
156E
330
136A
100
AcDbEntity
  8
0
  6
ByBlock
100
AcDbLine
 10
269.618741
 20
713.172474
 30
0.0
 11
269.618741
 21
763.172474
 31
0.0
  0
LINE
  5
156F
330
136A
100
AcDbEntity
  8
0
  6
ByBlock
100
AcDbLine
 10
457.718741
 20
713.172474
 30
0.0
 11
457.718741
 21
763.172474
 31
0.0
  0
LINE
  5
1570
330
136A
100
AcDbEntity
  8
0
  6
ByBlock
100
AcDbLine
 10
282.118741
 20
758.1724739999999
 30
0.0
 11
445.218741
 21
758.1724739999999
 31
0.0
  0
SOLID
  5
1571
330
136A
100
AcDbEntity
  8
0
  6
ByBlock
100
AcDbTrace
 10
282.118741
 20
760.255807
 30
0.0
 11
282.118741
 21
756.089141
 31
0.0
 12
269.618741
 22
758.1724739999999
 32
0.0
 13
269.618741
 23
758.1724739999999
 33
0.0
  0
SOLID
  5
1572
330
136A
100
AcDbEntity
  8
0
  6
ByBlock
100
AcDbTrace
 10
445.218741
 20
760.255807
 30
0.0
 11
445.218741
 21
756.089141
 31
0.0
 12
457.718741
 22
758.1724739999999
 32
0.0
 13
457.718741
 23
758.1724739999999
 33
0.0
  0
MTEXT
  5
1573
330
136A
100
AcDbEntity
  8
0
  6
ByBlock
 62
     2
100
AcDbMText
 10
363.668741
 20
769.922474
 30
0.0
 40
17.5
 41
0.0
 71
     5
 72
     1
  1
{\Fgeniso.shx|c0;\U+25A1}188
 73
     1
 44
1.0
1001
ACAD
1000
MTEXTBEGIN
1070
    73
1070
     1
1070
    44
1040
1.0
1070
    74
1070
     0
1000
MTEXTEND
  0
POINT
  5
1574
330
136A
100
AcDbEntity
  8
DEFPOINTS
  6
ByBlock
 62
     0
100
AcDbPoint
 10
269.618741
 20
708.1724739999999
 30
0.0
  0
POINT
  5
1575
330
136A
100
AcDbEntity
  8
DEFPOINTS
  6
ByBlock
 62
     0
100
AcDbPoint
 10
457.718741
 20
708.1724739999999
 30
0.0
  0
POINT
  5
1576
330
136A
100
AcDbEntity
  8
DEFPOINTS
  6
ByBlock
 62
     0
100
AcDbPoint
 10
457.718741
 20
758.1724739999999
 30
0.0
  0
ENDBLK
  5
1577
330
136A
100
AcDbEntity
  8
0
100
AcDbBlockEnd
  0
BLOCK
  5
1555
330
1381
100
AcDbEntity
  8
0
100
AcDbBlockBegin
  2
*D19
 70
     1
 10
0.0
 20
0.0
 30
0.0
  3
*D19
  1
GEVFRAME
  0
LINE
  5
16A5
330
1381
100
AcDbEntity
  8
5
370
    -2
100
AcDbLine
 10
265.668741
 20
713.172474
 30
0.0
 11
265.668741
 21
798.1724739999999
 31
0.0
  0
LINE
  5
16A6
330
1381
100
AcDbEntity
  8
5
370
    -2
100
AcDbLine
 10
461.6687409999999
 20
713.172474
 30
0.0
 11
461.6687409999999
 21
798.1724739999999
 31
0.0
  0
LINE
  5
16A7
330
1381
100
AcDbEntity
  8
5
370
    -2
100
AcDbLine
 10
290.668741
 20
793.1724739999999
 30
0.0
 11
436.6687409999999
 21
793.1724739999999
 31
0.0
  0
SOLID
  5
16A8
330
1381
100
AcDbEntity
  8
5
100
AcDbTrace
 10
290.668741
 20
797.3391406666666
 30
0.0
 11
290.668741
 21
789.0058073333333
 31
0.0
 12
265.668741
 22
793.1724739999999
 32
0.0
 13
265.668741
 23
793.1724739999999
 33
0.0
  0
SOLID
  5
16A9
330
1381
100
AcDbEntity
  8
5
100
AcDbTrace
 10
436.6687409999999
 20
797.3391406666666
 30
0.0
 11
436.6687409999999
 21
789.0058073333333
 31
0.0
 12
461.6687409999999
 22
793.1724739999999
 32
0.0
 13
461.6687409999999
 23
793.1724739999999
 33
0.0
  0
MTEXT
  5
16AA
330
1381
100
AcDbEntity
  8
5
 62
     2
100
AcDbMText
 10
363.668741
 20
804.9224739999999
 30
0.0
 40
17.5
 41
0.0
 71
     5
 72
     1
  1
{\Fgeniso.shx|c0;\U+25A1}196
 73
     1
 44
1.0
1001
ACAD
1000
MTEXTBEGIN
1070
    73
1070
     1
1070
    44
1040
1.0
1070
    74
1070
     0
1000
MTEXTEND
  0
POINT
  5
16AB
330
1381
100
AcDbEntity
  8
DEFPOINTS
 62
     0
100
AcDbPoint
 10
265.668741
 20
708.1724739999999
 30
0.0
  0
POINT
  5
16AC
330
1381
100
AcDbEntity
  8
DEFPOINTS
 62
     0
100
AcDbPoint
 10
461.6687409999999
 20
708.1724739999999
 30
0.0
  0
POINT
  5
16AD
330
1381
100
AcDbEntity
  8
DEFPOINTS
 62
     0
100
AcDbPoint
 10
461.6687409999999
 20
793.1724739999999
 30
0.0
  0
ENDBLK
  5
155F
330
1381
100
AcDbEntity
  8
0
100
AcDbBlockEnd
  0
BLOCK
  5
1534
330
1398
100
AcDbEntity
  8
0
100
AcDbBlockBegin
  2
*D20
 70
     1
 10
0.0
 20
0.0
 30
0.0
  3
*D20
  1
GEVFRAME
  0
LINE
  5
16AE
330
1398
100
AcDbEntity
  8
5
370
    -2
100
AcDbLine
 10
467.668741
 20
547.772474
 30
0.0
 11
542.4835579999999
 21
547.772474
 31
0.0
  0
LINE
  5
16AF
330
1398
100
AcDbEntity
  8
5
370
    -2
100
AcDbLine
 10
466.668741
 20
708.1724739999999
 30
0.0
 11
542.4835579999999
 21
708.1724739999999
 31
0.0
  0
LINE
  5
16B0
330
1398
100
AcDbEntity
  8
5
370
    -2
100
AcDbLine
 10
537.483558
 20
572.772474
 30
0.0
 11
537.483558
 21
683.1724739999999
 31
0.0
  0
SOLID
  5
16B1
330
1398
100
AcDbEntity
  8
5
100
AcDbTrace
 10
533.3168913333333
 20
572.772474
 30
0.0
 11
541.6502246666666
 21
572.772474
 31
0.0
 12
537.483558
 22
547.772474
 32
0.0
 13
537.483558
 23
547.772474
 33
0.0
  0
SOLID
  5
16B2
330
1398
100
AcDbEntity
  8
5
100
AcDbTrace
 10
533.3168913333333
 20
683.1724739999999
 30
0.0
 11
541.6502246666666
 21
683.1724739999999
 31
0.0
 12
537.483558
 22
708.1724739999999
 32
0.0
 13
537.483558
 23
708.1724739999999
 33
0.0
  0
MTEXT
  5
16B3
330
1398
100
AcDbEntity
  8
5
 62
     2
100
AcDbMText
 10
525.7335579999999
 20
627.9724740000001
 30
0.0
 40
17.5
 41
0.0
 71
     5
 72
     1
  1
160.4
 11
0.0000000000000001
 21
1.0
 31
0.0
 73
     1
 44
1.0
1001
ACAD
1000
MTEXTBEGIN
1070
    73
1070
     1
1070
    44
1040
1.0
1070
    74
1070
     0
1000
MTEXTEND
  0
POINT
  5
16B4
330
1398
100
AcDbEntity
  8
DEFPOINTS
 62
     0
100
AcDbPoint
 10
462.668741
 20
547.772474
 30
0.0
  0
POINT
  5
16B5
330
1398
100
AcDbEntity
  8
DEFPOINTS
 62
     0
100
AcDbPoint
 10
461.6687409999999
 20
708.1724739999999
 30
0.0
  0
POINT
  5
16B6
330
1398
100
AcDbEntity
  8
DEFPOINTS
 62
     0
100
AcDbPoint
 10
537.483558
 20
708.1724739999999
 30
0.0
  0
ENDBLK
  5
153E
330
1398
100
AcDbEntity
  8
0
100
AcDbBlockEnd
  0
BLOCK
  5
14EF
330
149C
100
AcDbEntity
  8
0
100
AcDbBlockBegin
  2
*D21
 70
     1
 10
0.0
 20
0.0
 30
0.0
  3
*D21
  1
GEVFRAME
  0
LINE
  5
16C0
330
149C
100
AcDbEntity
  8
5
370
    -2
100
AcDbLine
 10
395.668741
 20
180.8547842875608
 30
0.0
 11
395.668741
 21
104.2027532875608
 31
0.0
  0
LINE
  5
16C1
330
149C
100
AcDbEntity
  8
5
370
    -2
100
AcDbLine
 10
403.6687409999999
 20
180.8547842875608
 30
0.0
 11
403.6687409999999
 21
104.2027532875608
 31
0.0
  0
LINE
  5
16C2
330
149C
100
AcDbEntity
  8
5
370
    -2
100
AcDbLine
 10
370.668741
 20
109.2027532875608
 30
0.0
 11
345.668741
 21
109.2027532875608
 31
0.0
  0
LINE
  5
16C3
330
149C
100
AcDbEntity
  8
5
370
    -2
100
AcDbLine
 10
428.6687409999999
 20
109.2027532875608
 30
0.0
 11
466.668741
 21
109.2027532875608
 31
0.0
  0
LINE
  5
16C4
330
149C
100
AcDbEntity
  8
5
370
    -2
100
AcDbLine
 10
395.668741
 20
109.2027532875608
 30
0.0
 11
403.6687409999999
 21
109.2027532875608
 31
0.0
  0
SOLID
  5
16C5
330
149C
100
AcDbEntity
  8
5
100
AcDbTrace
 10
370.668741
 20
113.3694199542275
 30
0.0
 11
370.668741
 21
105.0360866208941
 31
0.0
 12
395.668741
 22
109.2027532875608
 32
0.0
 13
395.668741
 23
109.2027532875608
 33
0.0
  0
SOLID
  5
16C6
330
149C
100
AcDbEntity
  8
5
100
AcDbTrace
 10
428.6687409999999
 20
113.3694199542275
 30
0.0
 11
428.6687409999999
 21
105.0360866208941
 31
0.0
 12
403.6687409999999
 22
109.2027532875608
 32
0.0
 13
403.6687409999999
 23
109.2027532875608
 33
0.0
  0
MTEXT
  5
16C7
330
149C
100
AcDbEntity
  8
5
 62
     2
100
AcDbMText
 10
460.168741
 20
120.9527532875608
 30
0.0
 40
17.5
 41
0.0
 71
     5
 72
     1
  1
8
 73
     1
 44
1.0
1001
ACAD
1000
MTEXTBEGIN
1070
    73
1070
     1
1070
    44
1040
1.0
1070
    74
1070
     0
1000
MTEXTEND
  0
POINT
  5
16C8
330
149C
100
AcDbEntity
  8
DEFPOINTS
 62
     0
100
AcDbPoint
 10
395.668741
 20
185.8547842875608
 30
0.0
  0
POINT
  5
16C9
330
149C
100
AcDbEntity
  8
DEFPOINTS
 62
     0
100
AcDbPoint
 10
403.6687409999999
 20
185.8547842875608
 30
0.0
  0
POINT
  5
16CA
330
149C
100
AcDbEntity
  8
DEFPOINTS
 62
     0
100
AcDbPoint
 10
403.6687409999999
 20
109.2027532875608
 30
0.0
  0
ENDBLK
  5
14FB
330
149C
100
AcDbEntity
  8
0
100
AcDbBlockEnd
  0
BLOCK
  5
15A6
330
15A5
100
AcDbEntity
  8
0
100
AcDbBlockBegin
  2
GEVCON
 70
     0
 10
0.0
 20
0.0
 30
0.0
  3
GEVCON
  1
GEVCON
  0
ENDBLK
  5
15A7
330
15A5
100
AcDbEntity
  8
0
100
AcDbBlockEnd
  0
BLOCK
  5
15B0
330
15A9
100
AcDbEntity
  8
0
100
AcDbBlockBegin
  2
GEVEP
 70
     0
 10
0.0
 20
0.0
 30
0.0
  3
GEVEP
  1

  0
LINE
  5
15AA
330
15A9
100
AcDbEntity
  8
0
100
AcDbLine
 10
2.0
 20
-2.0
 30
0.0
 11
-2.0
 21
-2.0
 31
0.0
  0
LINE
  5
15AB
330
15A9
100
AcDbEntity
  8
0
100
AcDbLine
 10
-2.0
 20
2.0
 30
0.0
 11
2.0
 21
2.0
 31
0.0
  0
LINE
  5
15AC
330
15A9
100
AcDbEntity
  8
0
100
AcDbLine
 10
2.0
 20
-2.0
 30
0.0
 11
-2.0
 21
2.0
 31
0.0
  0
LINE
  5
15AD
330
15A9
100
AcDbEntity
  8
0
100
AcDbLine
 10
-2.0
 20
-2.0
 30
0.0
 11
2.0
 21
2.0
 31
0.0
  0
LINE
  5
15AE
330
15A9
100
AcDbEntity
  8
0
100
AcDbLine
 10
-2.0
 20
-2.0
 30
0.0
 11
-2.0
 21
2.0
 31
0.0
  0
LINE
  5
15AF
330
15A9
100
AcDbEntity
  8
0
100
AcDbLine
 10
2.0
 20
2.0
 30
0.0
 11
2.0
 21
-2.0
 31
0.0
  0
ENDBLK
  5
15B1
330
15A9
100
AcDbEntity
  8
0
100
AcDbBlockEnd
  0
BLOCK
  5
15B3
330
15B2
100
AcDbEntity
  8
0
100
AcDbBlockBegin
  2
GEVFRAME
 70
     0
 10
0.0
 20
0.0
 30
0.0
  3
GEVFRAME
  1
GEVFRAME
  0
LINE
  5
15B4
330
15B2
100
AcDbEntity
  8
0
100
AcDbLine
 10
0.0
 20
0.0
 30
0.0
 11
1.0
 21
0.0
 31
0.0
  0
LINE
  5
15B5
330
15B2
100
AcDbEntity
  8
0
100
AcDbLine
 10
1.0
 20
0.0
 30
0.0
 11
1.0
 21
1.0
 31
0.0
  0
LINE
  5
15B6
330
15B2
100
AcDbEntity
  8
0
100
AcDbLine
 10
1.0
 20
1.0
 30
0.0
 11
0.0
 21
1.0
 31
0.0
  0
LINE
  5
15B7
330
15B2
100
AcDbEntity
  8
0
100
AcDbLine
 10
0.0
 20
1.0
 30
0.0
 11
0.0
 21
0.0
 31
0.0
  0
ENDBLK
  5
15B8
330
15B2
100
AcDbEntity
  8
0
100
AcDbBlockEnd
  0
BLOCK
  5
1685
330
1683
100
AcDbEntity
  8
0
100
AcDbBlockBegin
  2
GENAXEH
 70
     0
 10
0.0
 20
0.0
 30
0.0
  3
GENAXEH
  1

  0
LINE
  5
1684
330
1683
100
AcDbEntity
  8
0
100
AcDbLine
 10
-1.0
 20
0.0
 30
0.0
 11
1.0
 21
0.0
 31
0.0
  0
ENDBLK
  5
1686
330
1683
100
AcDbEntity
  8
0
100
AcDbBlockEnd
  0
ENDSEC
  0
SECTION
  2
ENTITIES
  0
LINE
  5
1001
330
1290
100
AcDbEntity
  8
0
100
AcDbLine
 10
269.168741
 20
694.7724739999999
 30
0.0
 11
274.168741
 21
694.7724739999999
 31
0.0
  0
LINE
  5
1002
330
1290
100
AcDbEntity
  8
0
100
AcDbLine
 10
269.168741
 20
693.272474
 30
0.0
 11
458.1687409999999
 21
693.272474
 31
0.0
  0
LINE
  5
1003
330
1290
100
AcDbEntity
  8
0
100
AcDbLine
 10
264.668741
 20
547.772474
 30
0.0
 11
462.668741
 21
547.772474
 31
0.0
  0
LINE
  5
1004
330
1290
100
AcDbEntity
  8
7
100
AcDbLine
 10
363.668741
 20
718.1724739999999
 30
0.0
 11
363.668741
 21
540.272474
 31
0.0
  0
LINE
  5
1005
330
1290
100
AcDbEntity
  8
0
100
AcDbLine
 10
462.668741
 20
690.272474
 30
0.0
 11
462.668741
 21
547.772474
 31
0.0
  0
LINE
  5
1006
330
1290
100
AcDbEntity
  8
0
100
AcDbLine
 10
264.668741
 20
690.272474
 30
0.0
 11
264.668741
 21
547.772474
 31
0.0
  0
LINE
  5
1007
330
1290
100
AcDbEntity
  8
0
100
AcDbLine
 10
266.168741
 20
690.272474
 30
0.0
 11
266.168741
 21
547.772474
 31
0.0
  0
LINE
  5
1008
330
1290
100
AcDbEntity
  8
0
100
AcDbLine
 10
461.168741
 20
690.272474
 30
0.0
 11
461.168741
 21
547.772474
 31
0.0
  0
ARC
  5
1009
330
1290
100
AcDbEntity
  8
0
100
AcDbCircle
 10
458.1687409999999
 20
690.272474
 30
0.0
 40
3.0
100
AcDbArc
 50
0.0
 51
90.0
  0
ARC
  5
100A
330
1290
100
AcDbEntity
  8
0
100
AcDbCircle
 10
458.1687409999999
 20
690.272474
 30
0.0
 40
4.5
100
AcDbArc
 50
0.0
 51
90.0
  0
ARC
  5
100B
330
1290
100
AcDbEntity
  8
0
100
AcDbCircle
 10
269.168741
 20
690.272474
 30
0.0
 40
4.5
100
AcDbArc
 50
90.0
 51
180.0
  0
ARC
  5
100C
330
1290
100
AcDbEntity
  8
0
100
AcDbCircle
 10
269.168741
 20
690.272474
 30
0.0
 40
3.0
100
AcDbArc
 50
90.0
 51
180.0
  0
LINE
  5
100D
330
1290
100
AcDbEntity
  8
0
100
AcDbLine
 10
283.168741
 20
694.7724739999999
 30
0.0
 11
283.168741
 21
693.272474
 31
0.0
  0
LINE
  5
100E
330
1290
100
AcDbEntity
  8
0
100
AcDbLine
 10
313.222741
 20
694.7724739999999
 30
0.0
 11
313.222741
 21
693.272474
 31
0.0
  0
LINE
  5
100F
330
1290
100
AcDbEntity
  8
0
100
AcDbLine
 10
444.168741
 20
694.7724739999999
 30
0.0
 11
444.168741
 21
693.272474
 31
0.0
  0
LINE
  5
1010
330
1290
100
AcDbEntity
  8
0
100
AcDbLine
 10
414.114741
 20
694.7724739999999
 30
0.0
 11
414.114741
 21
693.272474
 31
0.0
  0
LINE
  5
1011
330
1290
100
AcDbEntity
  8
0
100
AcDbLine
 10
265.668741
 20
708.1724739999999
 30
0.0
 11
461.6687409999999
 21
708.1724739999999
 31
0.0
  0
LINE
  5
1012
330
1290
100
AcDbEntity
  8
0
100
AcDbLine
 10
269.668741
 20
702.9714740000001
 30
0.0
 11
457.6687409999999
 21
702.9714740000001
 31
0.0
  0
LINE
  5
1013
330
1290
100
AcDbEntity
  8
0
100
AcDbLine
 10
274.668741
 20
697.772474
 30
0.0
 11
452.668741
 21
697.772474
 31
0.0
  0
LINE
  5
1014
330
1290
100
AcDbEntity
  8
0
100
AcDbLine
 10
265.668741
 20
708.1724739999999
 30
0.0
 11
265.668741
 21
703.471474
 31
0.0
  0
LINE
  5
1015
330
1290
100
AcDbEntity
  8
0
100
AcDbLine
 10
268.668741
 20
708.1724739999999
 30
0.0
 11
268.668741
 21
703.971474
 31
0.0
  0
ARC
  5
1016
330
1290
100
AcDbEntity
  8
0
100
AcDbCircle
 10
269.668741
 20
703.971474
 30
0.0
 40
1.0
100
AcDbArc
 50
180.0
 51
270.0
  0
LINE
  5
1017
330
1290
100
AcDbEntity
  8
0
100
AcDbLine
 10
269.668741
 20
699.971474
 30
0.0
 11
269.168741
 21
699.971474
 31
0.0
  0
LINE
  5
1018
330
1290
100
AcDbEntity
  8
0
100
AcDbLine
 10
270.668741
 20
698.272474
 30
0.0
 11
270.668741
 21
698.9714740000001
 31
0.0
  0
ARC
  5
1019
330
1290
100
AcDbEntity
  8
0
100
AcDbCircle
 10
269.168741
 20
703.471474
 30
0.0
 40
3.5
100
AcDbArc
 50
180.0
 51
270.0
  0
LINE
  5
101A
330
1290
100
AcDbEntity
  8
0
100
AcDbLine
 10
273.668741
 20
698.7724739999999
 30
0.0
 11
273.668741
 21
699.471474
 31
0.0
  0
ARC
  5
101B
330
1290
100
AcDbEntity
  8
0
100
AcDbCircle
 10
270.168741
 20
699.471474
 30
0.0
 40
3.5
100
AcDbArc
 50
0.0
 51
90.0
  0
ARC
  5
101C
330
1290
100
AcDbEntity
  8
0
100
AcDbCircle
 10
269.668741
 20
698.9714740000001
 30
0.0
 40
1.0
100
AcDbArc
 50
0.0
 51
90.0
  0
ARC
  5
101D
330
1290
100
AcDbEntity
  8
0
100
AcDbCircle
 10
274.668741
 20
698.7724739999999
 30
0.0
 40
1.0
100
AcDbArc
 50
180.0
 51
270.0
  0
ARC
  5
101E
330
1290
100
AcDbEntity
  8
0
100
AcDbCircle
 10
274.168741
 20
698.272474
 30
0.0
 40
3.5
100
AcDbArc
 50
180.0
 51
270.0
  0
LINE
  5
101F
330
1290
100
AcDbEntity
  8
0
100
AcDbLine
 10
461.6687409999999
 20
708.1724739999999
 30
0.0
 11
461.6687409999999
 21
703.471474
 31
0.0
  0
LINE
  5
1020
330
1290
100
AcDbEntity
  8
0
100
AcDbLine
 10
458.668741
 20
708.1724739999999
 30
0.0
 11
458.668741
 21
703.971474
 31
0.0
  0
ARC
  5
1021
330
1290
100
AcDbEntity
  8
0
100
AcDbCircle
 10
457.6687409999999
 20
703.971474
 30
0.0
 40
1.0
100
AcDbArc
 50
270.0
 51
0.0
  0
LINE
  5
1022
330
1290
100
AcDbEntity
  8
0
100
AcDbLine
 10
457.6687409999999
 20
699.971474
 30
0.0
 11
458.1687409999999
 21
699.971474
 31
0.0
  0
LINE
  5
1023
330
1290
100
AcDbEntity
  8
0
100
AcDbLine
 10
456.668741
 20
698.272474
 30
0.0
 11
456.668741
 21
698.9714740000001
 31
0.0
  0
ARC
  5
1024
330
1290
100
AcDbEntity
  8
0
100
AcDbCircle
 10
458.1687409999999
 20
703.471474
 30
0.0
 40
3.5
100
AcDbArc
 50
270.0
 51
0.0
  0
LINE
  5
1025
330
1290
100
AcDbEntity
  8
0
100
AcDbLine
 10
453.6687409999999
 20
698.7724739999999
 30
0.0
 11
453.6687409999999
 21
699.471474
 31
0.0
  0
ARC
  5
1026
330
1290
100
AcDbEntity
  8
0
100
AcDbCircle
 10
457.168741
 20
699.471474
 30
0.0
 40
3.5
100
AcDbArc
 50
90.0
 51
180.0
  0
ARC
  5
1027
330
1290
100
AcDbEntity
  8
0
100
AcDbCircle
 10
457.6687409999999
 20
698.9714740000001
 30
0.0
 40
1.0
100
AcDbArc
 50
90.0
 51
180.0
  0
ARC
  5
1028
330
1290
100
AcDbEntity
  8
0
100
AcDbCircle
 10
452.668741
 20
698.7724739999999
 30
0.0
 40
1.0
100
AcDbArc
 50
270.0
 51
0.0
  0
ARC
  5
1029
330
1290
100
AcDbEntity
  8
0
100
AcDbCircle
 10
453.1687409999999
 20
698.272474
 30
0.0
 40
3.5
100
AcDbArc
 50
270.0
 51
0.0
  0
LINE
  5
102A
330
1290
100
AcDbEntity
  8
0
100
AcDbLine
 10
444.168741
 20
697.772474
 30
0.0
 11
444.168741
 21
694.7724739999999
 31
0.0
  0
LINE
  5
102B
330
1290
100
AcDbEntity
  8
0
100
AcDbLine
 10
414.1137409999999
 20
697.772474
 30
0.0
 11
414.1137409999999
 21
694.7724739999999
 31
0.0
  0
LINE
  5
102C
330
1290
100
AcDbEntity
  8
0
100
AcDbLine
 10
313.222741
 20
697.772474
 30
0.0
 11
313.222741
 21
694.7724739999999
 31
0.0
  0
LINE
  5
102D
330
1290
100
AcDbEntity
  8
0
100
AcDbLine
 10
283.168741
 20
697.772474
 30
0.0
 11
283.168741
 21
694.7724739999999
 31
0.0
  0
LINE
  5
102E
330
1290
100
AcDbEntity
  8
0
100
AcDbLine
 10
453.1687409999999
 20
694.7724739999999
 30
0.0
 11
458.1687409999999
 21
694.7724739999999
 31
0.0
  0
LINE
  5
102F
330
1290
100
AcDbEntity
  8
0
100
AcDbLine
 10
457.718741
 20
702.9714740000001
 30
0.0
 11
457.718741
 21
708.1724739999999
 31
0.0
  0
LINE
  5
1030
330
1290
100
AcDbEntity
  8
0
100
AcDbLine
 10
269.618741
 20
702.9714740000001
 30
0.0
 11
269.618741
 21
708.1724739999999
 31
0.0
  0
LINE
  5
1031
330
1290
100
AcDbEntity
  8
0
100
AcDbLine
 10
367.668741
 20
702.9714740000001
 30
0.0
 11
367.668741
 21
708.1724739999999
 31
0.0
  0
LINE
  5
1032
330
1290
100
AcDbEntity
  8
0
100
AcDbLine
 10
359.668741
 20
702.9714740000001
 30
0.0
 11
359.668741
 21
708.1724739999999
 31
0.0
  0
LINE
  5
1033
330
1290
100
AcDbEntity
  8
0
100
AcDbLine
 10
377.668741
 20
702.9714740000001
 30
0.0
 11
377.668741
 21
708.1724739999999
 31
0.0
  0
LINE
  5
1034
330
1290
100
AcDbEntity
  8
0
100
AcDbLine
 10
349.668741
 20
702.9714740000001
 30
0.0
 11
349.668741
 21
708.1724739999999
 31
0.0
  0
LINE
  5
1035
330
1290
100
AcDbEntity
  8
0
100
AcDbLine
 10
385.668741
 20
702.9714740000001
 30
0.0
 11
385.668741
 21
708.1724739999999
 31
0.0
  0
LINE
  5
1036
330
1290
100
AcDbEntity
  8
0
100
AcDbLine
 10
341.668741
 20
702.9714740000001
 30
0.0
 11
341.668741
 21
708.1724739999999
 31
0.0
  0
LINE
  5
1037
330
1290
100
AcDbEntity
  8
0
100
AcDbLine
 10
331.668741
 20
702.9714740000001
 30
0.0
 11
331.668741
 21
708.1724739999999
 31
0.0
  0
LINE
  5
1038
330
1290
100
AcDbEntity
  8
0
100
AcDbLine
 10
395.668741
 20
702.9714740000001
 30
0.0
 11
395.668741
 21
708.1724739999999
 31
0.0
  0
LINE
  5
1039
330
1290
100
AcDbEntity
  8
0
100
AcDbLine
 10
403.6687409999999
 20
702.9714740000001
 30
0.0
 11
403.6687409999999
 21
708.1724739999999
 31
0.0
  0
LINE
  5
103A
330
1290
100
AcDbEntity
  8
0
100
AcDbLine
 10
323.668741
 20
702.9714740000001
 30
0.0
 11
323.668741
 21
708.1724739999999
 31
0.0
  0
LINE
  5
103B
330
1290
100
AcDbEntity
  8
0
100
AcDbLine
 10
313.668741
 20
702.9714740000001
 30
0.0
 11
313.668741
 21
708.1724739999999
 31
0.0
  0
LINE
  5
103C
330
1290
100
AcDbEntity
  8
0
100
AcDbLine
 10
413.668741
 20
702.9714740000001
 30
0.0
 11
413.668741
 21
708.1724739999999
 31
0.0
  0
LINE
  5
103D
330
1290
100
AcDbEntity
  8
0
100
AcDbLine
 10
421.668741
 20
702.9714740000001
 30
0.0
 11
421.668741
 21
708.1724739999999
 31
0.0
  0
LINE
  5
103E
330
1290
100
AcDbEntity
  8
0
100
AcDbLine
 10
305.668741
 20
702.9714740000001
 30
0.0
 11
305.668741
 21
708.1724739999999
 31
0.0
  0
LINE
  5
103F
330
1290
100
AcDbEntity
  8
0
100
AcDbLine
 10
295.668741
 20
702.9714740000001
 30
0.0
 11
295.668741
 21
708.1724739999999
 31
0.0
  0
LINE
  5
1040
330
1290
100
AcDbEntity
  8
0
100
AcDbLine
 10
431.668741
 20
702.9714740000001
 30
0.0
 11
431.668741
 21
708.1724739999999
 31
0.0
  0
LINE
  5
1041
330
1290
100
AcDbEntity
  8
0
100
AcDbLine
 10
439.668741
 20
702.9714740000001
 30
0.0
 11
439.668741
 21
708.1724739999999
 31
0.0
  0
LINE
  5
1042
330
1290
100
AcDbEntity
  8
0
100
AcDbLine
 10
287.668741
 20
702.9714740000001
 30
0.0
 11
287.668741
 21
708.1724739999999
 31
0.0
  0
LINE
  5
1043
330
1290
100
AcDbEntity
  8
0
100
AcDbLine
 10
487.668741
 20
589.689474
 30
0.0
 11
462.668741
 21
589.689474
 31
0.0
  0
LINE
  5
1044
330
1290
100
AcDbEntity
  8
0
100
AcDbLine
 10
487.668741
 20
597.689474
 30
0.0
 11
468.668741
 21
597.689474
 31
0.0
  0
LINE
  5
1045
330
1290
100
AcDbEntity
  8
0
100
AcDbLine
 10
468.668741
 20
601.689474
 30
0.0
 11
462.668741
 21
601.689474
 31
0.0
  0
LINE
  5
1046
330
1290
100
AcDbEntity
  8
0
100
AcDbLine
 10
468.668741
 20
601.689474
 30
0.0
 11
468.668741
 21
597.689474
 31
0.0
  0
LINE
  5
1047
330
1290
100
AcDbEntity
  8
0
100
AcDbLine
 10
487.668741
 20
597.689474
 30
0.0
 11
487.668741
 21
589.689474
 31
0.0
  0
LINE
  5
1048
330
1290
100
AcDbEntity
  8
0
100
AcDbLine
 10
239.668741
 20
589.689474
 30
0.0
 11
264.668741
 21
589.689474
 31
0.0
  0
LINE
  5
1049
330
1290
100
AcDbEntity
  8
0
100
AcDbLine
 10
239.668741
 20
597.689474
 30
0.0
 11
258.668741
 21
597.689474
 31
0.0
  0
LINE
  5
104A
330
1290
100
AcDbEntity
  8
0
100
AcDbLine
 10
258.668741
 20
601.689474
 30
0.0
 11
264.668741
 21
601.689474
 31
0.0
  0
LINE
  5
104B
330
1290
100
AcDbEntity
  8
0
100
AcDbLine
 10
258.668741
 20
601.689474
 30
0.0
 11
258.668741
 21
597.689474
 31
0.0
  0
LINE
  5
104C
330
1290
100
AcDbEntity
  8
0
100
AcDbLine
 10
239.668741
 20
597.689474
 30
0.0
 11
239.668741
 21
589.689474
 31
0.0
  0
DIMENSION
  5
1057
330
1290
100
AcDbEntity
  8
5
100
AcDbDimension
  2
*D16
 10
462.668741
 20
497.772474
 30
0.0
 11
363.668741
 21
509.522474
 31
0.0
 70
    32
  1
%%c 198
 71
     5
 42
198.0
  3
GEN-ISO
100
AcDbAlignedDimension
 13
264.668741
 23
547.772474
 33
0.0
 14
462.668741
 24
547.772474
 34
0.0
100
AcDbRotatedDimension
1001
ACAD
1000
DSTYLE
1002
{
1070
    41
1040
5.0
1002
}
  0
DIMENSION
  5
1061
330
1290
100
AcDbEntity
  8
5
100
AcDbDimension
  2
*D20
 10
537.483558
 20
708.1724739999999
 30
0.0
 11
525.7335579999999
 21
627.9724740000001
 31
0.0
 70
    32
  1
<>
 71
     5
 42
160.4
  3
GEN-ISO
100
AcDbAlignedDimension
 13
462.668741
 23
547.772474
 33
0.0
 14
461.6687409999999
 24
708.1724739999999
 34
0.0
 50
90.0
100
AcDbRotatedDimension
1001
GENIUS_GENDTOL_13
1000

1000
/max
1000

1040
0.0
1000
<>
1001
ACAD
1000
DSTYLE
1002
{
1070
    41
1040
5.0
1002
}
  0
POLYLINE
  5
1062
330
1290
100
AcDbEntity
  8
SCHRAFFUR_RAND
100
AcDb2dPolyline
 66
     1
 10
0.0
 20
0.0
 30
0.0
 70
     1
  0
VERTEX
  5
1063
330
1062
100
AcDbEntity
  8
SCHRAFFUR_RAND
100
AcDbVertex
100
AcDb2dVertex
 10
274.168741
 20
694.7724739999999
 30
0.0
  0
VERTEX
  5
1064
330
1062
100
AcDbEntity
  8
SCHRAFFUR_RAND
100
AcDbVertex
100
AcDb2dVertex
 10
269.168741
 20
694.7724739999999
 30
0.0
  0
VERTEX
  5
1065
330
1062
100
AcDbEntity
  8
SCHRAFFUR_RAND
100
AcDbVertex
100
AcDb2dVertex
 10
267.995741
 20
694.650474
 30
0.0
  0
VERTEX
  5
1066
330
1062
100
AcDbEntity
  8
SCHRAFFUR_RAND
100
AcDbVertex
100
AcDb2dVertex
 10
266.902741
 20
694.197474
 30
0.0
  0
VERTEX
  5
1067
330
1062
100
AcDbEntity
  8
SCHRAFFUR_RAND
100
AcDbVertex
100
AcDb2dVertex
 10
265.963741
 20
693.476474
 30
0.0
  0
VERTEX
  5
1068
330
1062
100
AcDbEntity
  8
SCHRAFFUR_RAND
100
AcDbVertex
100
AcDb2dVertex
 10
265.243741
 20
692.5384740000001
 30
0.0
  0
VERTEX
  5
1069
330
1062
100
AcDbEntity
  8
SCHRAFFUR_RAND
100
AcDbVertex
100
AcDb2dVertex
 10
264.790741
 20
691.445474
 30
0.0
  0
VERTEX
  5
106A
330
1062
100
AcDbEntity
  8
SCHRAFFUR_RAND
100
AcDbVertex
100
AcDb2dVertex
 10
264.668741
 20
690.272474
 30
0.0
  0
VERTEX
  5
106B
330
1062
100
AcDbEntity
  8
SCHRAFFUR_RAND
100
AcDbVertex
100
AcDb2dVertex
 10
264.668741
 20
547.772474
 30
0.0
  0
VERTEX
  5
106C
330
1062
100
AcDbEntity
  8
SCHRAFFUR_RAND
100
AcDbVertex
100
AcDb2dVertex
 10
266.168741
 20
547.772474
 30
0.0
  0
VERTEX
  5
106D
330
1062
100
AcDbEntity
  8
SCHRAFFUR_RAND
100
AcDbVertex
100
AcDb2dVertex
 10
266.168741
 20
690.272474
 30
0.0
  0
VERTEX
  5
106E
330
1062
100
AcDbEntity
  8
SCHRAFFUR_RAND
100
AcDbVertex
100
AcDb2dVertex
 10
266.284741
 20
691.209474
 30
0.0
  0
VERTEX
  5
106F
330
1062
100
AcDbEntity
  8
SCHRAFFUR_RAND
100
AcDbVertex
100
AcDb2dVertex
 10
266.7157410000001
 20
692.054474
 30
0.0
  0
VERTEX
  5
1070
330
1062
100
AcDbEntity
  8
SCHRAFFUR_RAND
100
AcDbVertex
100
AcDb2dVertex
 10
267.386741
 20
692.7254740000001
 30
0.0
  0
VERTEX
  5
1071
330
1062
100
AcDbEntity
  8
SCHRAFFUR_RAND
100
AcDbVertex
100
AcDb2dVertex
 10
268.231741
 20
693.1564739999999
 30
0.0
  0
VERTEX
  5
1072
330
1062
100
AcDbEntity
  8
SCHRAFFUR_RAND
100
AcDbVertex
100
AcDb2dVertex
 10
269.168741
 20
693.272474
 30
0.0
  0
VERTEX
  5
1073
330
1062
100
AcDbEntity
  8
SCHRAFFUR_RAND
100
AcDbVertex
100
AcDb2dVertex
 10
283.168741
 20
693.272474
 30
0.0
  0
VERTEX
  5
1074
330
1062
100
AcDbEntity
  8
SCHRAFFUR_RAND
100
AcDbVertex
100
AcDb2dVertex
 10
283.168741
 20
694.7724739999999
 30
0.0
  0
VERTEX
  5
1075
330
1062
100
AcDbEntity
  8
SCHRAFFUR_RAND
100
AcDbVertex
100
AcDb2dVertex
 10
283.168741
 20
697.772474
 30
0.0
  0
VERTEX
  5
1076
330
1062
100
AcDbEntity
  8
SCHRAFFUR_RAND
100
AcDbVertex
100
AcDb2dVertex
 10
274.668741
 20
697.772474
 30
0.0
  0
VERTEX
  5
1077
330
1062
100
AcDbEntity
  8
SCHRAFFUR_RAND
100
AcDbVertex
100
AcDb2dVertex
 10
274.152741
 20
697.877474
 30
0.0
  0
VERTEX
  5
1078
330
1062
100
AcDbEntity
  8
SCHRAFFUR_RAND
100
AcDbVertex
100
AcDb2dVertex
 10
273.774741
 20
698.255474
 30
0.0
  0
VERTEX
  5
1079
330
1062
100
AcDbEntity
  8
SCHRAFFUR_RAND
100
AcDbVertex
100
AcDb2dVertex
 10
273.668741
 20
698.7724739999999
 30
0.0
  0
VERTEX
  5
107A
330
1062
100
AcDbEntity
  8
SCHRAFFUR_RAND
100
AcDbVertex
100
AcDb2dVertex
 10
273.668741
 20
699.471474
 30
0.0
  0
VERTEX
  5
107B
330
1062
100
AcDbEntity
  8
SCHRAFFUR_RAND
100
AcDbVertex
100
AcDb2dVertex
 10
273.528741
 20
700.563474
 30
0.0
  0
VERTEX
  5
107C
330
1062
100
AcDbEntity
  8
SCHRAFFUR_RAND
100
AcDbVertex
100
AcDb2dVertex
 10
273.026741
 20
701.548474
 30
0.0
  0
VERTEX
  5
107D
330
1062
100
AcDbEntity
  8
SCHRAFFUR_RAND
100
AcDbVertex
100
AcDb2dVertex
 10
272.244741
 20
702.3294739999999
 30
0.0
  0
VERTEX
  5
107E
330
1062
100
AcDbEntity
  8
SCHRAFFUR_RAND
100
AcDbVertex
100
AcDb2dVertex
 10
271.260741
 20
702.831474
 30
0.0
  0
VERTEX
  5
107F
330
1062
100
AcDbEntity
  8
SCHRAFFUR_RAND
100
AcDbVertex
100
AcDb2dVertex
 10
270.168741
 20
702.9714740000001
 30
0.0
  0
VERTEX
  5
1080
330
1062
100
AcDbEntity
  8
SCHRAFFUR_RAND
100
AcDbVertex
100
AcDb2dVertex
 10
269.668741
 20
702.9714740000001
 30
0.0
  0
VERTEX
  5
1081
330
1062
100
AcDbEntity
  8
SCHRAFFUR_RAND
100
AcDbVertex
100
AcDb2dVertex
 10
269.152741
 20
703.077474
 30
0.0
  0
VERTEX
  5
1082
330
1062
100
AcDbEntity
  8
SCHRAFFUR_RAND
100
AcDbVertex
100
AcDb2dVertex
 10
268.774741
 20
703.4554739999999
 30
0.0
  0
VERTEX
  5
1083
330
1062
100
AcDbEntity
  8
SCHRAFFUR_RAND
100
AcDbVertex
100
AcDb2dVertex
 10
268.668741
 20
703.971474
 30
0.0
  0
VERTEX
  5
1084
330
1062
100
AcDbEntity
  8
SCHRAFFUR_RAND
100
AcDbVertex
100
AcDb2dVertex
 10
268.668741
 20
708.1724739999999
 30
0.0
  0
VERTEX
  5
1085
330
1062
100
AcDbEntity
  8
SCHRAFFUR_RAND
100
AcDbVertex
100
AcDb2dVertex
 10
265.668741
 20
708.1724739999999
 30
0.0
  0
VERTEX
  5
1086
330
1062
100
AcDbEntity
  8
SCHRAFFUR_RAND
100
AcDbVertex
100
AcDb2dVertex
 10
265.668741
 20
703.471474
 30
0.0
  0
VERTEX
  5
1087
330
1062
100
AcDbEntity
  8
SCHRAFFUR_RAND
100
AcDbVertex
100
AcDb2dVertex
 10
265.808741
 20
702.380474
 30
0.0
  0
VERTEX
  5
1088
330
1062
100
AcDbEntity
  8
SCHRAFFUR_RAND
100
AcDbVertex
100
AcDb2dVertex
 10
266.310741
 20
701.395474
 30
0.0
  0
VERTEX
  5
1089
330
1062
100
AcDbEntity
  8
SCHRAFFUR_RAND
100
AcDbVertex
100
AcDb2dVertex
 10
267.092741
 20
700.6144739999999
 30
0.0
  0
VERTEX
  5
108A
330
1062
100
AcDbEntity
  8
SCHRAFFUR_RAND
100
AcDbVertex
100
AcDb2dVertex
 10
268.076741
 20
700.112474
 30
0.0
  0
VERTEX
  5
108B
330
1062
100
AcDbEntity
  8
SCHRAFFUR_RAND
100
AcDbVertex
100
AcDb2dVertex
 10
269.168741
 20
699.971474
 30
0.0
  0
VERTEX
  5
108C
330
1062
100
AcDbEntity
  8
SCHRAFFUR_RAND
100
AcDbVertex
100
AcDb2dVertex
 10
269.668741
 20
699.971474
 30
0.0
  0
VERTEX
  5
108D
330
1062
100
AcDbEntity
  8
SCHRAFFUR_RAND
100
AcDbVertex
100
AcDb2dVertex
 10
270.184741
 20
699.865474
 30
0.0
  0
VERTEX
  5
108E
330
1062
100
AcDbEntity
  8
SCHRAFFUR_RAND
100
AcDbVertex
100
AcDb2dVertex
 10
270.562741
 20
699.4884739999999
 30
0.0
  0
VERTEX
  5
108F
330
1062
100
AcDbEntity
  8
SCHRAFFUR_RAND
100
AcDbVertex
100
AcDb2dVertex
 10
270.668741
 20
698.9714740000001
 30
0.0
  0
VERTEX
  5
1090
330
1062
100
AcDbEntity
  8
SCHRAFFUR_RAND
100
AcDbVertex
100
AcDb2dVertex
 10
270.668741
 20
698.272474
 30
0.0
  0
VERTEX
  5
1091
330
1062
100
AcDbEntity
  8
SCHRAFFUR_RAND
100
AcDbVertex
100
AcDb2dVertex
 10
270.808741
 20
697.180474
 30
0.0
  0
VERTEX
  5
1092
330
1062
100
AcDbEntity
  8
SCHRAFFUR_RAND
100
AcDbVertex
100
AcDb2dVertex
 10
271.310741
 20
696.195474
 30
0.0
  0
VERTEX
  5
1093
330
1062
100
AcDbEntity
  8
SCHRAFFUR_RAND
100
AcDbVertex
100
AcDb2dVertex
 10
272.092741
 20
695.414474
 30
0.0
  0
VERTEX
  5
1094
330
1062
100
AcDbEntity
  8
SCHRAFFUR_RAND
100
AcDbVertex
100
AcDb2dVertex
 10
273.076741
 20
694.912474
 30
0.0
  0
VERTEX
  5
1095
330
1062
100
AcDbEntity
  8
SCHRAFFUR_RAND
100
AcDbVertex
100
AcDb2dVertex
 10
274.168741
 20
694.7724739999999
 30
0.0
  0
SEQEND
  5
1096
330
1062
100
AcDbEntity
  8
SCHRAFFUR_RAND
  0
INSERT
  5
10C1
330
1290
100
AcDbEntity
  8
8
100
AcDbBlockReference
  2
*X0
 10
219.668741
 20
328.128474
 30
0.0
1001
ACAD
1000
HATCH
1002
{
1070
    19
1000
ANSI31,_I
1040
3.174999999999999
1040
0.7850000000000001
1002
}
  0
POLYLINE
  5
10C2
330
1290
100
AcDbEntity
  8
SCHRAFFUR_RAND
100
AcDb2dPolyline
 66
     1
 10
0.0
 20
0.0
 30
0.0
 70
     1
  0
VERTEX
  5
10C3
330
10C2
100
AcDbEntity
  8
SCHRAFFUR_RAND
100
AcDbVertex
100
AcDb2dVertex
 10
461.168741
 20
547.772474
 30
0.0
  0
VERTEX
  5
10C4
330
10C2
100
AcDbEntity
  8
SCHRAFFUR_RAND
100
AcDbVertex
100
AcDb2dVertex
 10
462.668741
 20
547.772474
 30
0.0
  0
VERTEX
  5
10C5
330
10C2
100
AcDbEntity
  8
SCHRAFFUR_RAND
100
AcDbVertex
100
AcDb2dVertex
 10
462.668741
 20
690.272474
 30
0.0
  0
VERTEX
  5
10C6
330
10C2
100
AcDbEntity
  8
SCHRAFFUR_RAND
100
AcDbVertex
100
AcDb2dVertex
 10
462.391741
 20
692.021474
 30
0.0
  0
VERTEX
  5
10C7
330
10C2
100
AcDbEntity
  8
SCHRAFFUR_RAND
100
AcDbVertex
100
AcDb2dVertex
 10
461.400741
 20
693.5034739999999
 30
0.0
  0
VERTEX
  5
10C8
330
10C2
100
AcDbEntity
  8
SCHRAFFUR_RAND
100
AcDbVertex
100
AcDb2dVertex
 10
459.917741
 20
694.4944739999999
 30
0.0
  0
VERTEX
  5
10C9
330
10C2
100
AcDbEntity
  8
SCHRAFFUR_RAND
100
AcDbVertex
100
AcDb2dVertex
 10
458.1687409999999
 20
694.7724739999999
 30
0.0
  0
VERTEX
  5
10CA
330
10C2
100
AcDbEntity
  8
SCHRAFFUR_RAND
100
AcDbVertex
100
AcDb2dVertex
 10
453.1687409999999
 20
694.7724739999999
 30
0.0
  0
VERTEX
  5
10CB
330
10C2
100
AcDbEntity
  8
SCHRAFFUR_RAND
100
AcDbVertex
100
AcDb2dVertex
 10
454.5347409999999
 20
694.973474
 30
0.0
  0
VERTEX
  5
10CC
330
10C2
100
AcDbEntity
  8
SCHRAFFUR_RAND
100
AcDbVertex
100
AcDb2dVertex
 10
455.6937409999999
 20
695.747474
 30
0.0
  0
VERTEX
  5
10CD
330
10C2
100
AcDbEntity
  8
SCHRAFFUR_RAND
100
AcDbVertex
100
AcDb2dVertex
 10
456.4677409999999
 20
696.905474
 30
0.0
  0
VERTEX
  5
10CE
330
10C2
100
AcDbEntity
  8
SCHRAFFUR_RAND
100
AcDbVertex
100
AcDb2dVertex
 10
456.668741
 20
698.272474
 30
0.0
  0
VERTEX
  5
10CF
330
10C2
100
AcDbEntity
  8
SCHRAFFUR_RAND
100
AcDbVertex
100
AcDb2dVertex
 10
456.668741
 20
698.9714740000001
 30
0.0
  0
VERTEX
  5
10D0
330
10C2
100
AcDbEntity
  8
SCHRAFFUR_RAND
100
AcDbVertex
100
AcDb2dVertex
 10
456.961741
 20
699.678474
 30
0.0
  0
VERTEX
  5
10D1
330
10C2
100
AcDbEntity
  8
SCHRAFFUR_RAND
100
AcDbVertex
100
AcDb2dVertex
 10
457.6687409999999
 20
699.971474
 30
0.0
  0
VERTEX
  5
10D2
330
10C2
100
AcDbEntity
  8
SCHRAFFUR_RAND
100
AcDbVertex
100
AcDb2dVertex
 10
458.1687409999999
 20
699.971474
 30
0.0
  0
VERTEX
  5
10D3
330
10C2
100
AcDbEntity
  8
SCHRAFFUR_RAND
100
AcDbVertex
100
AcDb2dVertex
 10
459.534741
 20
700.173474
 30
0.0
  0
VERTEX
  5
10D4
330
10C2
100
AcDbEntity
  8
SCHRAFFUR_RAND
100
AcDbVertex
100
AcDb2dVertex
 10
460.6937409999999
 20
700.947474
 30
0.0
  0
VERTEX
  5
10D5
330
10C2
100
AcDbEntity
  8
SCHRAFFUR_RAND
100
AcDbVertex
100
AcDb2dVertex
 10
461.4677409999999
 20
702.1054740000001
 30
0.0
  0
VERTEX
  5
10D6
330
10C2
100
AcDbEntity
  8
SCHRAFFUR_RAND
100
AcDbVertex
100
AcDb2dVertex
 10
461.6687409999999
 20
703.471474
 30
0.0
  0
VERTEX
  5
10D7
330
10C2
100
AcDbEntity
  8
SCHRAFFUR_RAND
100
AcDbVertex
100
AcDb2dVertex
 10
461.6687409999999
 20
708.1724739999999
 30
0.0
  0
VERTEX
  5
10D8
330
10C2
100
AcDbEntity
  8
SCHRAFFUR_RAND
100
AcDbVertex
100
AcDb2dVertex
 10
458.668741
 20
708.1724739999999
 30
0.0
  0
VERTEX
  5
10D9
330
10C2
100
AcDbEntity
  8
SCHRAFFUR_RAND
100
AcDbVertex
100
AcDb2dVertex
 10
458.668741
 20
703.971474
 30
0.0
  0
VERTEX
  5
10DA
330
10C2
100
AcDbEntity
  8
SCHRAFFUR_RAND
100
AcDbVertex
100
AcDb2dVertex
 10
458.375741
 20
703.2644740000001
 30
0.0
  0
VERTEX
  5
10DB
330
10C2
100
AcDbEntity
  8
SCHRAFFUR_RAND
100
AcDbVertex
100
AcDb2dVertex
 10
457.6687409999999
 20
702.9714740000001
 30
0.0
  0
VERTEX
  5
10DC
330
10C2
100
AcDbEntity
  8
SCHRAFFUR_RAND
100
AcDbVertex
100
AcDb2dVertex
 10
457.168741
 20
702.9714740000001
 30
0.0
  0
VERTEX
  5
10DD
330
10C2
100
AcDbEntity
  8
SCHRAFFUR_RAND
100
AcDbVertex
100
AcDb2dVertex
 10
455.802741
 20
702.770474
 30
0.0
  0
VERTEX
  5
10DE
330
10C2
100
AcDbEntity
  8
SCHRAFFUR_RAND
100
AcDbVertex
100
AcDb2dVertex
 10
454.643741
 20
701.996474
 30
0.0
  0
VERTEX
  5
10DF
330
10C2
100
AcDbEntity
  8
SCHRAFFUR_RAND
100
AcDbVertex
100
AcDb2dVertex
 10
453.869741
 20
700.838474
 30
0.0
  0
VERTEX
  5
10E0
330
10C2
100
AcDbEntity
  8
SCHRAFFUR_RAND
100
AcDbVertex
100
AcDb2dVertex
 10
453.6687409999999
 20
699.471474
 30
0.0
  0
VERTEX
  5
10E1
330
10C2
100
AcDbEntity
  8
SCHRAFFUR_RAND
100
AcDbVertex
100
AcDb2dVertex
 10
453.6687409999999
 20
698.7724739999999
 30
0.0
  0
VERTEX
  5
10E2
330
10C2
100
AcDbEntity
  8
SCHRAFFUR_RAND
100
AcDbVertex
100
AcDb2dVertex
 10
453.3757409999999
 20
698.064474
 30
0.0
  0
VERTEX
  5
10E3
330
10C2
100
AcDbEntity
  8
SCHRAFFUR_RAND
100
AcDbVertex
100
AcDb2dVertex
 10
452.668741
 20
697.772474
 30
0.0
  0
VERTEX
  5
10E4
330
10C2
100
AcDbEntity
  8
SCHRAFFUR_RAND
100
AcDbVertex
100
AcDb2dVertex
 10
444.168741
 20
697.772474
 30
0.0
  0
VERTEX
  5
10E5
330
10C2
100
AcDbEntity
  8
SCHRAFFUR_RAND
100
AcDbVertex
100
AcDb2dVertex
 10
444.168741
 20
694.7724739999999
 30
0.0
  0
VERTEX
  5
10E6
330
10C2
100
AcDbEntity
  8
SCHRAFFUR_RAND
100
AcDbVertex
100
AcDb2dVertex
 10
444.168741
 20
693.272474
 30
0.0
  0
VERTEX
  5
10E7
330
10C2
100
AcDbEntity
  8
SCHRAFFUR_RAND
100
AcDbVertex
100
AcDb2dVertex
 10
458.1687409999999
 20
693.272474
 30
0.0
  0
VERTEX
  5
10E8
330
10C2
100
AcDbEntity
  8
SCHRAFFUR_RAND
100
AcDbVertex
100
AcDb2dVertex
 10
459.3437409999999
 20
693.1094739999999
 30
0.0
  0
VERTEX
  5
10E9
330
10C2
100
AcDbEntity
  8
SCHRAFFUR_RAND
100
AcDbVertex
100
AcDb2dVertex
 10
460.339741
 20
692.443474
 30
0.0
  0
VERTEX
  5
10EA
330
10C2
100
AcDbEntity
  8
SCHRAFFUR_RAND
100
AcDbVertex
100
AcDb2dVertex
 10
461.005741
 20
691.4474740000001
 30
0.0
  0
VERTEX
  5
10EB
330
10C2
100
AcDbEntity
  8
SCHRAFFUR_RAND
100
AcDbVertex
100
AcDb2dVertex
 10
461.168741
 20
690.272474
 30
0.0
  0
VERTEX
  5
10EC
330
10C2
100
AcDbEntity
  8
SCHRAFFUR_RAND
100
AcDbVertex
100
AcDb2dVertex
 10
461.168741
 20
547.772474
 30
0.0
  0
SEQEND
  5
10ED
330
10C2
100
AcDbEntity
  8
SCHRAFFUR_RAND
  0
INSERT
  5
1118
330
1290
100
AcDbEntity
  8
8
100
AcDbBlockReference
  2
*X1
 10
219.668741
 20
328.128474
 30
0.0
1001
ACAD
1000
HATCH
1002
{
1070
    19
1000
ANSI31,_I
1040
3.174999999999999
1040
0.7850000000000001
1002
}
  0
POLYLINE
  5
1119
330
1290
100
AcDbEntity
  8
SCHRAFFUR_RAND
100
AcDb2dPolyline
 66
     1
 10
0.0
 20
0.0
 30
0.0
 70
     1
  0
VERTEX
  5
111A
330
1119
100
AcDbEntity
  8
SCHRAFFUR_RAND
100
AcDbVertex
100
AcDb2dVertex
 10
431.668741
 20
708.1724739999999
 30
0.0
  0
VERTEX
  5
111B
330
1119
100
AcDbEntity
  8
SCHRAFFUR_RAND
100
AcDbVertex
100
AcDb2dVertex
 10
421.668741
 20
708.1724739999999
 30
0.0
  0
VERTEX
  5
111C
330
1119
100
AcDbEntity
  8
SCHRAFFUR_RAND
100
AcDbVertex
100
AcDb2dVertex
 10
421.668741
 20
702.9714740000001
 30
0.0
  0
VERTEX
  5
111D
330
1119
100
AcDbEntity
  8
SCHRAFFUR_RAND
100
AcDbVertex
100
AcDb2dVertex
 10
431.668741
 20
702.9714740000001
 30
0.0
  0
VERTEX
  5
111E
330
1119
100
AcDbEntity
  8
SCHRAFFUR_RAND
100
AcDbVertex
100
AcDb2dVertex
 10
431.668741
 20
708.1724739999999
 30
0.0
  0
SEQEND
  5
111F
330
1119
100
AcDbEntity
  8
SCHRAFFUR_RAND
  0
INSERT
  5
1125
330
1290
100
AcDbEntity
  8
8
100
AcDbBlockReference
  2
*X2
 10
219.668741
 20
328.128474
 30
0.0
1001
ACAD
1000
HATCH
1002
{
1070
    19
1000
ANSI31,_I
1040
3.174999999999999
1040
2.355999999999999
1002
}
  0
POLYLINE
  5
1126
330
1290
100
AcDbEntity
  8
SCHRAFFUR_RAND
100
AcDb2dPolyline
 66
     1
 10
0.0
 20
0.0
 30
0.0
 70
     1
  0
VERTEX
  5
1127
330
1126
100
AcDbEntity
  8
SCHRAFFUR_RAND
100
AcDbVertex
100
AcDb2dVertex
 10
457.718741
 20
708.1724739999999
 30
0.0
  0
VERTEX
  5
1128
330
1126
100
AcDbEntity
  8
SCHRAFFUR_RAND
100
AcDbVertex
100
AcDb2dVertex
 10
439.668741
 20
708.1724739999999
 30
0.0
  0
VERTEX
  5
1129
330
1126
100
AcDbEntity
  8
SCHRAFFUR_RAND
100
AcDbVertex
100
AcDb2dVertex
 10
439.668741
 20
702.9714740000001
 30
0.0
  0
VERTEX
  5
112A
330
1126
100
AcDbEntity
  8
SCHRAFFUR_RAND
100
AcDbVertex
100
AcDb2dVertex
 10
457.168741
 20
702.9714740000001
 30
0.0
  0
VERTEX
  5
112B
330
1126
100
AcDbEntity
  8
SCHRAFFUR_RAND
100
AcDbVertex
100
AcDb2dVertex
 10
457.6687409999999
 20
702.9714740000001
 30
0.0
  0
VERTEX
  5
112C
330
1126
100
AcDbEntity
  8
SCHRAFFUR_RAND
100
AcDbVertex
100
AcDb2dVertex
 10
457.718741
 20
708.1724739999999
 30
0.0
  0
SEQEND
  5
112D
330
1126
100
AcDbEntity
  8
SCHRAFFUR_RAND
  0
INSERT
  5
1135
330
1290
100
AcDbEntity
  8
8
100
AcDbBlockReference
  2
*X3
 10
219.668741
 20
328.128474
 30
0.0
1001
ACAD
1000
HATCH
1002
{
1070
    19
1000
ANSI31,_I
1040
3.174999999999999
1040
2.355999999999999
1002
}
  0
POLYLINE
  5
1136
330
1290
100
AcDbEntity
  8
SCHRAFFUR_RAND
100
AcDb2dPolyline
 66
     1
 10
0.0
 20
0.0
 30
0.0
 70
     1
  0
VERTEX
  5
1137
330
1136
100
AcDbEntity
  8
SCHRAFFUR_RAND
100
AcDbVertex
100
AcDb2dVertex
 10
413.668741
 20
708.1724739999999
 30
0.0
  0
VERTEX
  5
1138
330
1136
100
AcDbEntity
  8
SCHRAFFUR_RAND
100
AcDbVertex
100
AcDb2dVertex
 10
403.6687409999999
 20
708.1724739999999
 30
0.0
  0
VERTEX
  5
1139
330
1136
100
AcDbEntity
  8
SCHRAFFUR_RAND
100
AcDbVertex
100
AcDb2dVertex
 10
403.6687409999999
 20
702.9714740000001
 30
0.0
  0
VERTEX
  5
113A
330
1136
100
AcDbEntity
  8
SCHRAFFUR_RAND
100
AcDbVertex
100
AcDb2dVertex
 10
413.668741
 20
702.9714740000001
 30
0.0
  0
VERTEX
  5
113B
330
1136
100
AcDbEntity
  8
SCHRAFFUR_RAND
100
AcDbVertex
100
AcDb2dVertex
 10
413.668741
 20
708.1724739999999
 30
0.0
  0
SEQEND
  5
113C
330
1136
100
AcDbEntity
  8
SCHRAFFUR_RAND
  0
INSERT
  5
1142
330
1290
100
AcDbEntity
  8
8
100
AcDbBlockReference
  2
*X4
 10
219.668741
 20
328.128474
 30
0.0
1001
ACAD
1000
HATCH
1002
{
1070
    19
1000
ANSI31,_I
1040
3.174999999999999
1040
2.355999999999999
1002
}
  0
POLYLINE
  5
1143
330
1290
100
AcDbEntity
  8
SCHRAFFUR_RAND
100
AcDb2dPolyline
 66
     1
 10
0.0
 20
0.0
 30
0.0
 70
     1
  0
VERTEX
  5
1144
330
1143
100
AcDbEntity
  8
SCHRAFFUR_RAND
100
AcDbVertex
100
AcDb2dVertex
 10
395.668741
 20
708.1724739999999
 30
0.0
  0
VERTEX
  5
1145
330
1143
100
AcDbEntity
  8
SCHRAFFUR_RAND
100
AcDbVertex
100
AcDb2dVertex
 10
385.668741
 20
708.1724739999999
 30
0.0
  0
VERTEX
  5
1146
330
1143
100
AcDbEntity
  8
SCHRAFFUR_RAND
100
AcDbVertex
100
AcDb2dVertex
 10
385.668741
 20
702.9714740000001
 30
0.0
  0
VERTEX
  5
1147
330
1143
100
AcDbEntity
  8
SCHRAFFUR_RAND
100
AcDbVertex
100
AcDb2dVertex
 10
395.668741
 20
702.9714740000001
 30
0.0
  0
VERTEX
  5
1148
330
1143
100
AcDbEntity
  8
SCHRAFFUR_RAND
100
AcDbVertex
100
AcDb2dVertex
 10
395.668741
 20
708.1724739999999
 30
0.0
  0
SEQEND
  5
1149
330
1143
100
AcDbEntity
  8
SCHRAFFUR_RAND
  0
INSERT
  5
114F
330
1290
100
AcDbEntity
  8
8
100
AcDbBlockReference
  2
*X5
 10
219.668741
 20
328.128474
 30
0.0
1001
ACAD
1000
HATCH
1002
{
1070
    19
1000
ANSI31,_I
1040
3.174999999999999
1040
2.355999999999999
1002
}
  0
POLYLINE
  5
1150
330
1290
100
AcDbEntity
  8
SCHRAFFUR_RAND
100
AcDb2dPolyline
 66
     1
 10
0.0
 20
0.0
 30
0.0
 70
     1
  0
VERTEX
  5
1151
330
1150
100
AcDbEntity
  8
SCHRAFFUR_RAND
100
AcDbVertex
100
AcDb2dVertex
 10
377.668741
 20
708.1724739999999
 30
0.0
  0
VERTEX
  5
1152
330
1150
100
AcDbEntity
  8
SCHRAFFUR_RAND
100
AcDbVertex
100
AcDb2dVertex
 10
367.668741
 20
708.1724739999999
 30
0.0
  0
VERTEX
  5
1153
330
1150
100
AcDbEntity
  8
SCHRAFFUR_RAND
100
AcDbVertex
100
AcDb2dVertex
 10
367.668741
 20
702.9714740000001
 30
0.0
  0
VERTEX
  5
1154
330
1150
100
AcDbEntity
  8
SCHRAFFUR_RAND
100
AcDbVertex
100
AcDb2dVertex
 10
377.668741
 20
702.9714740000001
 30
0.0
  0
VERTEX
  5
1155
330
1150
100
AcDbEntity
  8
SCHRAFFUR_RAND
100
AcDbVertex
100
AcDb2dVertex
 10
377.668741
 20
708.1724739999999
 30
0.0
  0
SEQEND
  5
1156
330
1150
100
AcDbEntity
  8
SCHRAFFUR_RAND
  0
INSERT
  5
115C
330
1290
100
AcDbEntity
  8
8
100
AcDbBlockReference
  2
*X6
 10
219.668741
 20
328.128474
 30
0.0
1001
ACAD
1000
HATCH
1002
{
1070
    19
1000
ANSI31,_I
1040
3.174999999999999
1040
2.355999999999999
1002
}
  0
POLYLINE
  5
115D
330
1290
100
AcDbEntity
  8
SCHRAFFUR_RAND
100
AcDb2dPolyline
 66
     1
 10
0.0
 20
0.0
 30
0.0
 70
     1
  0
VERTEX
  5
115E
330
115D
100
AcDbEntity
  8
SCHRAFFUR_RAND
100
AcDbVertex
100
AcDb2dVertex
 10
359.668741
 20
708.1724739999999
 30
0.0
  0
VERTEX
  5
115F
330
115D
100
AcDbEntity
  8
SCHRAFFUR_RAND
100
AcDbVertex
100
AcDb2dVertex
 10
349.668741
 20
708.1724739999999
 30
0.0
  0
VERTEX
  5
1160
330
115D
100
AcDbEntity
  8
SCHRAFFUR_RAND
100
AcDbVertex
100
AcDb2dVertex
 10
349.668741
 20
702.9714740000001
 30
0.0
  0
VERTEX
  5
1161
330
115D
100
AcDbEntity
  8
SCHRAFFUR_RAND
100
AcDbVertex
100
AcDb2dVertex
 10
359.668741
 20
702.9714740000001
 30
0.0
  0
VERTEX
  5
1162
330
115D
100
AcDbEntity
  8
SCHRAFFUR_RAND
100
AcDbVertex
100
AcDb2dVertex
 10
359.668741
 20
708.1724739999999
 30
0.0
  0
SEQEND
  5
1163
330
115D
100
AcDbEntity
  8
SCHRAFFUR_RAND
  0
INSERT
  5
1169
330
1290
100
AcDbEntity
  8
8
100
AcDbBlockReference
  2
*X7
 10
219.668741
 20
328.128474
 30
0.0
1001
ACAD
1000
HATCH
1002
{
1070
    19
1000
ANSI31,_I
1040
3.174999999999999
1040
2.355999999999999
1002
}
  0
POLYLINE
  5
116A
330
1290
100
AcDbEntity
  8
SCHRAFFUR_RAND
100
AcDb2dPolyline
 66
     1
 10
0.0
 20
0.0
 30
0.0
 70
     1
  0
VERTEX
  5
116B
330
116A
100
AcDbEntity
  8
SCHRAFFUR_RAND
100
AcDbVertex
100
AcDb2dVertex
 10
341.668741
 20
708.1724739999999
 30
0.0
  0
VERTEX
  5
116C
330
116A
100
AcDbEntity
  8
SCHRAFFUR_RAND
100
AcDbVertex
100
AcDb2dVertex
 10
331.668741
 20
708.1724739999999
 30
0.0
  0
VERTEX
  5
116D
330
116A
100
AcDbEntity
  8
SCHRAFFUR_RAND
100
AcDbVertex
100
AcDb2dVertex
 10
331.668741
 20
702.9714740000001
 30
0.0
  0
VERTEX
  5
116E
330
116A
100
AcDbEntity
  8
SCHRAFFUR_RAND
100
AcDbVertex
100
AcDb2dVertex
 10
341.668741
 20
702.9714740000001
 30
0.0
  0
VERTEX
  5
116F
330
116A
100
AcDbEntity
  8
SCHRAFFUR_RAND
100
AcDbVertex
100
AcDb2dVertex
 10
341.668741
 20
708.1724739999999
 30
0.0
  0
SEQEND
  5
1170
330
116A
100
AcDbEntity
  8
SCHRAFFUR_RAND
  0
INSERT
  5
1176
330
1290
100
AcDbEntity
  8
8
100
AcDbBlockReference
  2
*X8
 10
219.668741
 20
328.128474
 30
0.0
1001
ACAD
1000
HATCH
1002
{
1070
    19
1000
ANSI31,_I
1040
3.174999999999999
1040
2.355999999999999
1002
}
  0
POLYLINE
  5
1177
330
1290
100
AcDbEntity
  8
SCHRAFFUR_RAND
100
AcDb2dPolyline
 66
     1
 10
0.0
 20
0.0
 30
0.0
 70
     1
  0
VERTEX
  5
1178
330
1177
100
AcDbEntity
  8
SCHRAFFUR_RAND
100
AcDbVertex
100
AcDb2dVertex
 10
323.668741
 20
708.1724739999999
 30
0.0
  0
VERTEX
  5
1179
330
1177
100
AcDbEntity
  8
SCHRAFFUR_RAND
100
AcDbVertex
100
AcDb2dVertex
 10
313.668741
 20
708.1724739999999
 30
0.0
  0
VERTEX
  5
117A
330
1177
100
AcDbEntity
  8
SCHRAFFUR_RAND
100
AcDbVertex
100
AcDb2dVertex
 10
313.668741
 20
702.9714740000001
 30
0.0
  0
VERTEX
  5
117B
330
1177
100
AcDbEntity
  8
SCHRAFFUR_RAND
100
AcDbVertex
100
AcDb2dVertex
 10
323.668741
 20
702.9714740000001
 30
0.0
  0
VERTEX
  5
117C
330
1177
100
AcDbEntity
  8
SCHRAFFUR_RAND
100
AcDbVertex
100
AcDb2dVertex
 10
323.668741
 20
708.1724739999999
 30
0.0
  0
SEQEND
  5
117D
330
1177
100
AcDbEntity
  8
SCHRAFFUR_RAND
  0
INSERT
  5
1183
330
1290
100
AcDbEntity
  8
8
100
AcDbBlockReference
  2
*X9
 10
219.668741
 20
328.128474
 30
0.0
1001
ACAD
1000
HATCH
1002
{
1070
    19
1000
ANSI31,_I
1040
3.174999999999999
1040
2.355999999999999
1002
}
  0
POLYLINE
  5
1184
330
1290
100
AcDbEntity
  8
SCHRAFFUR_RAND
100
AcDb2dPolyline
 66
     1
 10
0.0
 20
0.0
 30
0.0
 70
     1
  0
VERTEX
  5
1185
330
1184
100
AcDbEntity
  8
SCHRAFFUR_RAND
100
AcDbVertex
100
AcDb2dVertex
 10
305.668741
 20
708.1724739999999
 30
0.0
  0
VERTEX
  5
1186
330
1184
100
AcDbEntity
  8
SCHRAFFUR_RAND
100
AcDbVertex
100
AcDb2dVertex
 10
295.668741
 20
708.1724739999999
 30
0.0
  0
VERTEX
  5
1187
330
1184
100
AcDbEntity
  8
SCHRAFFUR_RAND
100
AcDbVertex
100
AcDb2dVertex
 10
295.668741
 20
702.9714740000001
 30
0.0
  0
VERTEX
  5
1188
330
1184
100
AcDbEntity
  8
SCHRAFFUR_RAND
100
AcDbVertex
100
AcDb2dVertex
 10
305.668741
 20
702.9714740000001
 30
0.0
  0
VERTEX
  5
1189
330
1184
100
AcDbEntity
  8
SCHRAFFUR_RAND
100
AcDbVertex
100
AcDb2dVertex
 10
305.668741
 20
708.1724739999999
 30
0.0
  0
SEQEND
  5
118A
330
1184
100
AcDbEntity
  8
SCHRAFFUR_RAND
  0
INSERT
  5
1190
330
1290
100
AcDbEntity
  8
8
100
AcDbBlockReference
  2
*X10
 10
219.668741
 20
328.128474
 30
0.0
1001
ACAD
1000
HATCH
1002
{
1070
    19
1000
ANSI31,_I
1040
3.174999999999999
1040
2.355999999999999
1002
}
  0
POLYLINE
  5
1191
330
1290
100
AcDbEntity
  8
SCHRAFFUR_RAND
100
AcDb2dPolyline
 66
     1
 10
0.0
 20
0.0
 30
0.0
 70
     1
  0
VERTEX
  5
1192
330
1191
100
AcDbEntity
  8
SCHRAFFUR_RAND
100
AcDbVertex
100
AcDb2dVertex
 10
287.668741
 20
708.1724739999999
 30
0.0
  0
VERTEX
  5
1193
330
1191
100
AcDbEntity
  8
SCHRAFFUR_RAND
100
AcDbVertex
100
AcDb2dVertex
 10
269.618741
 20
708.1724739999999
 30
0.0
  0
VERTEX
  5
1194
330
1191
100
AcDbEntity
  8
SCHRAFFUR_RAND
100
AcDbVertex
100
AcDb2dVertex
 10
269.668741
 20
702.9714740000001
 30
0.0
  0
VERTEX
  5
1195
330
1191
100
AcDbEntity
  8
SCHRAFFUR_RAND
100
AcDbVertex
100
AcDb2dVertex
 10
270.168741
 20
702.9714740000001
 30
0.0
  0
VERTEX
  5
1196
330
1191
100
AcDbEntity
  8
SCHRAFFUR_RAND
100
AcDbVertex
100
AcDb2dVertex
 10
287.668741
 20
702.9714740000001
 30
0.0
  0
VERTEX
  5
1197
330
1191
100
AcDbEntity
  8
SCHRAFFUR_RAND
100
AcDbVertex
100
AcDb2dVertex
 10
287.668741
 20
708.1724739999999
 30
0.0
  0
SEQEND
  5
1198
330
1191
100
AcDbEntity
  8
SCHRAFFUR_RAND
  0
INSERT
  5
11A0
330
1290
100
AcDbEntity
  8
8
100
AcDbBlockReference
  2
*X11
 10
219.668741
 20
328.128474
 30
0.0
1001
ACAD
1000
HATCH
1002
{
1070
    19
1000
ANSI31,_I
1040
3.174999999999999
1040
2.355999999999999
1002
}
  0
POLYLINE
  5
11A1
330
1290
100
AcDbEntity
  8
SCHRAFFUR_RAND
100
AcDb2dPolyline
 66
     1
 10
0.0
 20
0.0
 30
0.0
 70
     1
  0
VERTEX
  5
11A2
330
11A1
100
AcDbEntity
  8
SCHRAFFUR_RAND
100
AcDbVertex
100
AcDb2dVertex
 10
264.668741
 20
601.689474
 30
0.0
  0
VERTEX
  5
11A3
330
11A1
100
AcDbEntity
  8
SCHRAFFUR_RAND
100
AcDbVertex
100
AcDb2dVertex
 10
258.668741
 20
601.689474
 30
0.0
  0
VERTEX
  5
11A4
330
11A1
100
AcDbEntity
  8
SCHRAFFUR_RAND
100
AcDbVertex
100
AcDb2dVertex
 10
258.668741
 20
597.689474
 30
0.0
  0
VERTEX
  5
11A5
330
11A1
100
AcDbEntity
  8
SCHRAFFUR_RAND
100
AcDbVertex
100
AcDb2dVertex
 10
239.668741
 20
597.689474
 30
0.0
  0
VERTEX
  5
11A6
330
11A1
100
AcDbEntity
  8
SCHRAFFUR_RAND
100
AcDbVertex
100
AcDb2dVertex
 10
239.668741
 20
589.689474
 30
0.0
  0
VERTEX
  5
11A7
330
11A1
100
AcDbEntity
  8
SCHRAFFUR_RAND
100
AcDbVertex
100
AcDb2dVertex
 10
264.668741
 20
589.689474
 30
0.0
  0
VERTEX
  5
11A8
330
11A1
100
AcDbEntity
  8
SCHRAFFUR_RAND
100
AcDbVertex
100
AcDb2dVertex
 10
264.668741
 20
601.689474
 30
0.0
  0
SEQEND
  5
11A9
330
11A1
100
AcDbEntity
  8
SCHRAFFUR_RAND
  0
INSERT
  5
11B8
330
1290
100
AcDbEntity
  8
8
100
AcDbBlockReference
  2
*X12
 10
219.668741
 20
328.128474
 30
0.0
1001
ACAD
1000
HATCH
1002
{
1070
    19
1000
ANSI37,_I
1040
4.233
1040
3.926999999999999
1002
}
  0
POLYLINE
  5
11B9
330
1290
100
AcDbEntity
  8
SCHRAFFUR_RAND
100
AcDb2dPolyline
 66
     1
 10
0.0
 20
0.0
 30
0.0
 70
     1
  0
VERTEX
  5
11BA
330
11B9
100
AcDbEntity
  8
SCHRAFFUR_RAND
100
AcDbVertex
100
AcDb2dVertex
 10
462.668741
 20
589.689474
 30
0.0
  0
VERTEX
  5
11BB
330
11B9
100
AcDbEntity
  8
SCHRAFFUR_RAND
100
AcDbVertex
100
AcDb2dVertex
 10
487.668741
 20
589.689474
 30
0.0
  0
VERTEX
  5
11BC
330
11B9
100
AcDbEntity
  8
SCHRAFFUR_RAND
100
AcDbVertex
100
AcDb2dVertex
 10
487.668741
 20
597.689474
 30
0.0
  0
VERTEX
  5
11BD
330
11B9
100
AcDbEntity
  8
SCHRAFFUR_RAND
100
AcDbVertex
100
AcDb2dVertex
 10
468.668741
 20
597.689474
 30
0.0
  0
VERTEX
  5
11BE
330
11B9
100
AcDbEntity
  8
SCHRAFFUR_RAND
100
AcDbVertex
100
AcDb2dVertex
 10
468.668741
 20
601.689474
 30
0.0
  0
VERTEX
  5
11BF
330
11B9
100
AcDbEntity
  8
SCHRAFFUR_RAND
100
AcDbVertex
100
AcDb2dVertex
 10
462.668741
 20
601.689474
 30
0.0
  0
VERTEX
  5
11C0
330
11B9
100
AcDbEntity
  8
SCHRAFFUR_RAND
100
AcDbVertex
100
AcDb2dVertex
 10
462.668741
 20
589.689474
 30
0.0
  0
SEQEND
  5
11C1
330
11B9
100
AcDbEntity
  8
SCHRAFFUR_RAND
  0
INSERT
  5
11D0
330
1290
100
AcDbEntity
  8
8
100
AcDbBlockReference
  2
*X13
 10
219.668741
 20
328.128474
 30
0.0
1001
ACAD
1000
HATCH
1002
{
1070
    19
1000
ANSI37,_I
1040
4.233
1040
3.926999999999999
1002
}
  0
DIMENSION
  5
11DA
330
1290
100
AcDbEntity
  8
5
100
AcDbDimension
  2
*D19
 10
461.6687409999999
 20
793.1724739999999
 30
0.0
 11
363.668741
 21
804.9224739999999
 31
0.0
 70
    32
  1
{\Fgeniso.shx;\U+25A1}196
 71
     5
 42
196.0
  3
GEN-ISO
100
AcDbAlignedDimension
 13
265.668741
 23
708.1724739999999
 33
0.0
 14
461.6687409999999
 24
708.1724739999999
 34
0.0
100
AcDbRotatedDimension
1001
GENIUS_GENDTOL_13
1000

1000
B2/max
1000

1040
0.0
1000
{\Fgeniso.shx;\U+25A1}196
1001
ACAD
1000
DSTYLE
1002
{
1070
    41
1040
5.0
1002
}
  0
LINE
  5
11F4
330
1290
100
AcDbEntity
  8
0
100
AcDbLine
 10
272.168741
 20
352.8547842875608
 30
0.0
 11
455.168741
 21
352.8547842875608
 31
0.0
  0
LINE
  5
11F5
330
1290
100
AcDbEntity
  8
0
100
AcDbLine
 10
272.168741
 20
355.8547842875608
 30
0.0
 11
455.168741
 21
355.8547842875608
 31
0.0
  0
LINE
  5
11F6
330
1290
100
AcDbEntity
  8
0
100
AcDbLine
 10
265.668741
 20
349.3547842875608
 30
0.0
 11
265.668741
 21
257.8547842875608
 31
0.0
  0
LINE
  5
11F7
330
1290
100
AcDbEntity
  8
0
100
AcDbLine
 10
268.668741
 20
349.3547842875608
 30
0.0
 11
268.668741
 21
257.8547842875608
 31
0.0
  0
LINE
  5
11F8
330
1290
100
AcDbEntity
  8
0
100
AcDbLine
 10
458.668741
 20
257.8547842875608
 30
0.0
 11
458.668741
 21
349.3547842875608
 31
0.0
  0
LINE
  5
11F9
330
1290
100
AcDbEntity
  8
0
100
AcDbLine
 10
461.6687409999999
 20
257.8547842875608
 30
0.0
 11
461.6687409999999
 21
349.3547842875608
 31
0.0
  0
LINE
  5
11FA
330
1290
100
AcDbEntity
  8
7
100
AcDbLine
 10
363.668741
 20
247.8547842875609
 30
0.0
 11
363.668741
 21
389.3547842875609
 31
0.0
  0
LINE
  5
11FB
330
1290
100
AcDbEntity
  8
7
100
AcDbLine
 10
219.668741
 20
257.8547842875608
 30
0.0
 11
507.6687409999999
 21
257.8547842875608
 31
0.0
  0
ARC
  5
11FC
330
1290
100
AcDbEntity
  8
0
100
AcDbCircle
 10
272.168741
 20
349.3547842875608
 30
0.0
 40
3.5
100
AcDbArc
 50
90.0
 51
180.0
  0
ARC
  5
11FD
330
1290
100
AcDbEntity
  8
0
100
AcDbCircle
 10
455.168741
 20
349.3547842875608
 30
0.0
 40
3.5
100
AcDbArc
 50
0.0
 51
90.0
  0
ARC
  5
11FE
330
1290
100
AcDbEntity
  8
0
100
AcDbCircle
 10
272.168741
 20
349.3547842875608
 30
0.0
 40
6.5
100
AcDbArc
 50
90.0
 51
180.0
  0
ARC
  5
11FF
330
1290
100
AcDbEntity
  8
0
100
AcDbCircle
 10
455.168741
 20
349.3547842875608
 30
0.0
 40
6.5
100
AcDbArc
 50
0.0
 51
90.0
  0
LINE
  5
1200
330
1290
100
AcDbEntity
  8
0
100
AcDbLine
 10
457.718741
 20
257.8547842875608
 30
0.0
 11
457.718741
 21
349.4047842875608
 31
0.0
  0
LINE
  5
1201
330
1290
100
AcDbEntity
  8
0
100
AcDbLine
 10
269.618741
 20
257.8547842875608
 30
0.0
 11
269.618741
 21
349.4047842875608
 31
0.0
  0
LINE
  5
1202
330
1290
100
AcDbEntity
  8
0
100
AcDbLine
 10
455.218741
 20
351.9047842875608
 30
0.0
 11
272.118741
 21
351.9047842875608
 31
0.0
  0
ARC
  5
1203
330
1290
100
AcDbEntity
  8
0
100
AcDbCircle
 10
272.118741
 20
349.4047842875608
 30
0.0
 40
2.5
100
AcDbArc
 50
90.0
 51
180.0
  0
ARC
  5
1204
330
1290
100
AcDbEntity
  8
0
100
AcDbCircle
 10
455.218741
 20
349.4047842875608
 30
0.0
 40
2.5
100
AcDbArc
 50
0.0
 51
90.0
  0
LINE
  5
1205
330
1290
100
AcDbEntity
  8
0
100
AcDbLine
 10
439.668741
 20
257.8547842875608
 30
0.0
 11
439.668741
 21
311.3547842875608
 31
0.0
  0
LINE
  5
1206
330
1290
100
AcDbEntity
  8
0
100
AcDbLine
 10
431.668741
 20
257.8547842875608
 30
0.0
 11
431.668741
 21
311.3547842875608
 31
0.0
  0
LINE
  5
1207
330
1290
100
AcDbEntity
  8
0
100
AcDbLine
 10
421.668741
 20
257.8547842875608
 30
0.0
 11
421.668741
 21
326.3547842875608
 31
0.0
  0
LINE
  5
1208
330
1290
100
AcDbEntity
  8
0
100
AcDbLine
 10
413.668741
 20
257.8547842875608
 30
0.0
 11
413.668741
 21
326.3547842875608
 31
0.0
  0
LINE
  5
1209
330
1290
100
AcDbEntity
  8
0
100
AcDbLine
 10
403.6687409999999
 20
257.8547842875608
 30
0.0
 11
403.6687409999999
 21
329.8547842875608
 31
0.0
  0
LINE
  5
120A
330
1290
100
AcDbEntity
  8
0
100
AcDbLine
 10
395.668741
 20
257.8547842875608
 30
0.0
 11
395.668741
 21
329.8547842875608
 31
0.0
  0
LINE
  5
120B
330
1290
100
AcDbEntity
  8
0
100
AcDbLine
 10
385.668741
 20
257.8547842875608
 30
0.0
 11
385.668741
 21
329.8547842875608
 31
0.0
  0
LINE
  5
120C
330
1290
100
AcDbEntity
  8
0
100
AcDbLine
 10
377.668741
 20
257.8547842875608
 30
0.0
 11
377.668741
 21
329.8547842875608
 31
0.0
  0
LINE
  5
120D
330
1290
100
AcDbEntity
  8
0
100
AcDbLine
 10
367.668741
 20
257.8547842875608
 30
0.0
 11
367.668741
 21
329.8547842875608
 31
0.0
  0
LINE
  5
120E
330
1290
100
AcDbEntity
  8
0
100
AcDbLine
 10
359.668741
 20
257.8547842875608
 30
0.0
 11
359.668741
 21
329.8547842875608
 31
0.0
  0
ARC
  5
120F
330
1290
100
AcDbEntity
  8
0
100
AcDbCircle
 10
363.668741
 20
329.8547842875608
 30
0.0
 40
4.0
100
AcDbArc
 50
0.0
 51
180.0
  0
ARC
  5
1210
330
1290
100
AcDbEntity
  8
0
100
AcDbCircle
 10
381.668741
 20
329.8547842875608
 30
0.0
 40
4.0
100
AcDbArc
 50
0.0
 51
180.0
  0
ARC
  5
1211
330
1290
100
AcDbEntity
  8
0
100
AcDbCircle
 10
399.668741
 20
329.8547842875608
 30
0.0
 40
4.0
100
AcDbArc
 50
0.0
 51
180.0
  0
ARC
  5
1212
330
1290
100
AcDbEntity
  8
0
100
AcDbCircle
 10
417.668741
 20
326.3547842875608
 30
0.0
 40
4.0
100
AcDbArc
 50
0.0
 51
180.0
  0
ARC
  5
1213
330
1290
100
AcDbEntity
  8
0
100
AcDbCircle
 10
435.668741
 20
311.3547842875608
 30
0.0
 40
4.0
100
AcDbArc
 50
0.0
 51
180.0
  0
LINE
  5
1214
330
1290
100
AcDbEntity
  8
0
100
AcDbLine
 10
287.668741
 20
257.8547842875608
 30
0.0
 11
287.668741
 21
311.3547842875608
 31
0.0
  0
LINE
  5
1215
330
1290
100
AcDbEntity
  8
0
100
AcDbLine
 10
295.668741
 20
257.8547842875608
 30
0.0
 11
295.668741
 21
311.3547842875608
 31
0.0
  0
LINE
  5
1216
330
1290
100
AcDbEntity
  8
0
100
AcDbLine
 10
305.668741
 20
257.8547842875608
 30
0.0
 11
305.668741
 21
326.3547842875608
 31
0.0
  0
LINE
  5
1217
330
1290
100
AcDbEntity
  8
0
100
AcDbLine
 10
313.668741
 20
257.8547842875608
 30
0.0
 11
313.668741
 21
326.3547842875608
 31
0.0
  0
LINE
  5
1218
330
1290
100
AcDbEntity
  8
0
100
AcDbLine
 10
323.668741
 20
257.8547842875608
 30
0.0
 11
323.668741
 21
329.8547842875608
 31
0.0
  0
LINE
  5
1219
330
1290
100
AcDbEntity
  8
0
100
AcDbLine
 10
331.668741
 20
257.8547842875608
 30
0.0
 11
331.668741
 21
329.8547842875608
 31
0.0
  0
LINE
  5
121A
330
1290
100
AcDbEntity
  8
0
100
AcDbLine
 10
341.668741
 20
257.8547842875608
 30
0.0
 11
341.668741
 21
329.8547842875608
 31
0.0
  0
ARC
  5
121B
330
1290
100
AcDbEntity
  8
0
100
AcDbCircle
 10
345.668741
 20
329.8547842875608
 30
0.0
 40
4.0
100
AcDbArc
 50
0.0
 51
180.0
  0
ARC
  5
121C
330
1290
100
AcDbEntity
  8
0
100
AcDbCircle
 10
327.668741
 20
329.8547842875608
 30
0.0
 40
4.0
100
AcDbArc
 50
0.0
 51
180.0
  0
ARC
  5
121D
330
1290
100
AcDbEntity
  8
0
100
AcDbCircle
 10
309.668741
 20
326.3547842875608
 30
0.0
 40
4.0
100
AcDbArc
 50
0.0
 51
180.0
  0
ARC
  5
121E
330
1290
100
AcDbEntity
  8
0
100
AcDbCircle
 10
291.668741
 20
311.3547842875608
 30
0.0
 40
4.0
100
AcDbArc
 50
0.0
 51
180.0
  0
LINE
  5
121F
330
1290
100
AcDbEntity
  8
0
100
AcDbLine
 10
349.668741
 20
257.8547842875608
 30
0.0
 11
349.668741
 21
329.8547842875608
 31
0.0
  0
CIRCLE
  5
1220
330
1290
100
AcDbEntity
  8
0
100
AcDbCircle
 10
444.9857409999999
 20
339.1717842875609
 30
0.0
 40
5.5
  0
ARC
  5
1221
330
1290
100
AcDbEntity
  8
0
100
AcDbCircle
 10
450.6237409999999
 20
344.8107842875609
 30
0.0
 40
5.5
100
AcDbArc
 50
205.1589999999997
 51
244.8409999999998
  0
LINE
  5
1222
330
1290
100
AcDbEntity
  8
0
100
AcDbLine
 10
446.6357409999999
 20
338.5117842875609
 30
0.0
 11
446.6357409999999
 21
339.8317842875609
 31
0.0
  0
LINE
  5
1223
330
1290
100
AcDbEntity
  8
0
100
AcDbLine
 10
449.385741
 20
338.5117842875609
 30
0.0
 11
449.385741
 21
339.8317842875609
 31
0.0
  0
LINE
  5
1224
330
1290
100
AcDbEntity
  8
0
100
AcDbLine
 10
448.285741
 20
338.5117842875609
 30
0.0
 11
448.285741
 21
339.8317842875609
 31
0.0
  0
ARC
  5
1225
330
1290
100
AcDbEntity
  8
0
100
AcDbCircle
 10
439.347741
 20
344.8107842875609
 30
0.0
 40
5.5
100
AcDbArc
 50
295.1590000000001
 51
334.8410000000003
  0
LINE
  5
1226
330
1290
100
AcDbEntity
  8
0
100
AcDbLine
 10
445.6457409999999
 20
343.5717842875609
 30
0.0
 11
444.326741
 21
343.5717842875609
 31
0.0
  0
LINE
  5
1227
330
1290
100
AcDbEntity
  8
0
100
AcDbLine
 10
445.6457409999999
 20
342.4717842875609
 30
0.0
 11
444.326741
 21
342.4717842875609
 31
0.0
  0
LINE
  5
1228
330
1290
100
AcDbEntity
  8
0
100
AcDbLine
 10
445.6457409999999
 20
340.8217842875609
 30
0.0
 11
444.326741
 21
340.8217842875609
 31
0.0
  0
ARC
  5
1229
330
1290
100
AcDbEntity
  8
0
100
AcDbCircle
 10
439.347741
 20
333.5337842875609
 30
0.0
 40
5.5
100
AcDbArc
 50
25.15899999999971
 51
64.84099999999987
  0
LINE
  5
122A
330
1290
100
AcDbEntity
  8
0
100
AcDbLine
 10
440.585741
 20
339.8317842875609
 30
0.0
 11
440.585741
 21
338.5127842875609
 31
0.0
  0
LINE
  5
122B
330
1290
100
AcDbEntity
  8
0
100
AcDbLine
 10
441.685741
 20
339.8317842875609
 30
0.0
 11
441.685741
 21
338.5127842875609
 31
0.0
  0
LINE
  5
122C
330
1290
100
AcDbEntity
  8
0
100
AcDbLine
 10
443.335741
 20
339.8317842875609
 30
0.0
 11
443.335741
 21
338.5127842875609
 31
0.0
  0
ARC
  5
122D
330
1290
100
AcDbEntity
  8
0
100
AcDbCircle
 10
450.6237409999999
 20
333.5337842875609
 30
0.0
 40
5.5
100
AcDbArc
 50
115.1590000000001
 51
154.8410000000003
  0
LINE
  5
122E
330
1290
100
AcDbEntity
  8
0
100
AcDbLine
 10
444.325741
 20
334.7717842875609
 30
0.0
 11
445.6457409999999
 21
334.7717842875609
 31
0.0
  0
LINE
  5
122F
330
1290
100
AcDbEntity
  8
0
100
AcDbLine
 10
444.325741
 20
335.8717842875608
 30
0.0
 11
445.6457409999999
 21
335.8717842875608
 31
0.0
  0
LINE
  5
1230
330
1290
100
AcDbEntity
  8
0
100
AcDbLine
 10
444.325741
 20
337.5217842875609
 30
0.0
 11
445.6457409999999
 21
337.5217842875609
 31
0.0
  0
LINE
  5
1231
330
1290
100
AcDbEntity
  8
7
 48
0.193
100
AcDbLine
 10
444.9857409999999
 20
347.6717842875609
 30
0.0
 11
444.9857409999999
 21
330.6717842875609
 31
0.0
  0
LINE
  5
1232
330
1290
100
AcDbEntity
  8
7
 48
0.193
100
AcDbLine
 10
453.4857409999999
 20
339.1717842875609
 30
0.0
 11
436.4857409999999
 21
339.1717842875609
 31
0.0
  0
LINE
  5
1233
330
1290
100
AcDbEntity
  8
0
100
AcDbLine
 10
444.326741
 20
340.8227842875608
 30
0.0
 11
444.326741
 21
343.5717842875609
 31
0.0
  0
LINE
  5
1234
330
1290
100
AcDbEntity
  8
0
100
AcDbLine
 10
443.335741
 20
339.8317842875609
 30
0.0
 11
440.585741
 21
339.8317842875609
 31
0.0
  0
ARC
  5
1235
330
1290
100
AcDbEntity
  8
0
100
AcDbCircle
 10
439.347741
 20
344.8107842875609
 30
0.0
 40
6.378999999999999
100
AcDbArc
 50
308.6989999999998
 51
321.3050000000003
  0
LINE
  5
1236
330
1290
100
AcDbEntity
  8
0
100
AcDbLine
 10
443.335741
 20
338.5127842875609
 30
0.0
 11
440.585741
 21
338.5127842875609
 31
0.0
  0
LINE
  5
1237
330
1290
100
AcDbEntity
  8
0
100
AcDbLine
 10
444.325741
 20
337.5217842875609
 30
0.0
 11
444.325741
 21
334.7717842875609
 31
0.0
  0
ARC
  5
1238
330
1290
100
AcDbEntity
  8
0
100
AcDbCircle
 10
439.347741
 20
333.5337842875609
 30
0.0
 40
6.378999999999999
100
AcDbArc
 50
38.69900000000013
 51
51.30500000000019
  0
LINE
  5
1239
330
1290
100
AcDbEntity
  8
0
100
AcDbLine
 10
445.6457409999999
 20
337.5217842875609
 30
0.0
 11
445.6457409999999
 21
334.7717842875609
 31
0.0
  0
LINE
  5
123A
330
1290
100
AcDbEntity
  8
0
100
AcDbLine
 10
446.6357409999999
 20
338.5127842875609
 30
0.0
 11
449.385741
 21
338.5117842875609
 31
0.0
  0
ARC
  5
123B
330
1290
100
AcDbEntity
  8
0
100
AcDbCircle
 10
450.6237409999999
 20
333.5337842875609
 30
0.0
 40
6.378999999999999
100
AcDbArc
 50
128.6989999999997
 51
141.3050000000002
  0
LINE
  5
123C
330
1290
100
AcDbEntity
  8
0
100
AcDbLine
 10
446.636741
 20
339.8317842875609
 30
0.0
 11
449.385741
 21
339.8317842875609
 31
0.0
  0
LINE
  5
123D
330
1290
100
AcDbEntity
  8
0
100
AcDbLine
 10
445.6457409999999
 20
340.8217842875609
 30
0.0
 11
445.6457409999999
 21
343.5717842875609
 31
0.0
  0
ARC
  5
123E
330
1290
100
AcDbEntity
  8
0
100
AcDbCircle
 10
450.6237409999999
 20
344.8107842875609
 30
0.0
 40
6.378999999999999
100
AcDbArc
 50
218.6990000000001
 51
231.3050000000002
  0
ARC
  5
123F
330
1290
100
AcDbEntity
  8
0
100
AcDbCircle
 10
363.668741
 20
257.8547842875608
 30
0.0
 40
99.0
100
AcDbArc
 50
0.0
 51
8.151000000000088
  0
ARC
  5
1240
330
1290
100
AcDbEntity
  8
0
100
AcDbCircle
 10
363.668741
 20
257.8547842875608
 30
0.0
 40
99.0
100
AcDbArc
 50
171.8489999999999
 51
180.0
  0
ARC
  5
1241
330
1290
100
AcDbEntity
  8
0
100
AcDbCircle
 10
363.668741
 20
257.8547842875608
 30
0.0
 40
99.0
100
AcDbArc
 50
81.84899999999997
 51
98.15100000000002
  0
ARC
  5
1242
330
1290
100
AcDbEntity
  8
0
100
AcDbCircle
 10
363.668741
 20
257.8547842875608
 30
0.0
 40
105.0
100
AcDbArc
 50
0.0
 51
21.03900000000006
  0
ARC
  5
1243
330
1290
100
AcDbEntity
  8
0
100
AcDbCircle
 10
363.668741
 20
257.8547842875608
 30
0.0
 40
124.0
100
AcDbArc
 50
0.0
 51
37.78399999999992
  0
ARC
  5
1244
330
1290
100
AcDbEntity
  8
0
100
AcDbCircle
 10
363.668741
 20
257.8547842875608
 30
0.0
 40
105.0
100
AcDbArc
 50
158.9609999999999
 51
180.0
  0
ARC
  5
1245
330
1290
100
AcDbEntity
  8
0
100
AcDbCircle
 10
363.668741
 20
257.8547842875608
 30
0.0
 40
124.0
100
AcDbArc
 50
142.2160000000001
 51
180.0
  0
ARC
  5
1246
330
1290
100
AcDbEntity
  8
0
100
AcDbCircle
 10
363.668741
 20
257.8547842875608
 30
0.0
 40
105.0
100
AcDbArc
 50
68.96099999999989
 51
111.0390000000001
  0
ARC
  5
1247
330
1290
100
AcDbEntity
  8
0
100
AcDbCircle
 10
363.668741
 20
257.8547842875608
 30
0.0
 40
124.0
100
AcDbArc
 50
52.21599999999976
 51
127.7840000000002
  0
INSERT
  5
132A
330
1290
100
AcDbEntity
  8
0
100
AcDbBlockReference
  2
KATALOG_LEER
 10
251.839706
 20
11.304483
 30
0.0
 41
5.0
 42
5.0
 43
5.0
1001
GENIUS_GENOREF_13
1005
132B
  0
POINT
  5
132B
330
1290
100
AcDbEntity
  8
0
 60
     1
100
AcDbPoint
 10
0.0
 20
0.0
 30
0.0
1001
GENIUS_GENOBJ-N-TIT_13
1002
{
1000
OWNER
1000
GEN
1002
}
1001
GENIUS_GENOENT_13
1002
{
1000
MYREF
1005
132B
1002
}
1002
{
1000
GRP
1005
0
1002
}
1001
GENIUS_GENOLIS_13
1002
{
1000
ENT
1005
132A
1002
}
1001
GENIUS_GENTITLE_13
1002
{
1000
SCALE
1000
1:5
1002
}
1002
{
1000
BORDER
1000
KATALOG
1002
}
1002
{
1000
TITLE
1000
KATALOG_LEER
1002
}
1002
{
1000
UNCHG
1002
{
1000
GEN-TITLE-SCA
1000
GEN-TITLE-SIZ
1002
}
1002
}
1002
{
1000
HRA
1005
1323
1002
}
1002
{
1000
HTIT
1005
132A
1002
}
1002
{
1000
GENIUSID
1005
132B
1002
}
1001
GENIUS_GENODEF_13
1002
{
1000
HIER
1070
     1
1002
}
1002
{
1000
MANEDIT
1070
     1
1002
}
1002
{
1000
NOSEL
1070
     0
1002
}
1002
{
1000
BEHIND
1070
     0
1002
}
1002
{
1000
REACTOR
1002
}
  0
ARC
  5
1444
330
1290
100
AcDbEntity
  8
0
100
AcDbCircle
 10
363.668741
 20
257.8547842875608
 30
0.0
 40
124.0
100
AcDbArc
 50
322.2160000000001
 51
0.0
  0
ARC
  5
1445
330
1290
100
AcDbEntity
  8
0
100
AcDbCircle
 10
363.668741
 20
257.8547842875608
 30
0.0
 40
105.0
100
AcDbArc
 50
338.961
 51
0.0
  0
ARC
  5
1446
330
1290
100
AcDbEntity
  8
0
100
AcDbCircle
 10
363.668741
 20
257.8547842875608
 30
0.0
 40
124.0
100
AcDbArc
 50
180.0
 51
217.7839999999999
  0
ARC
  5
1447
330
1290
100
AcDbEntity
  8
0
100
AcDbCircle
 10
363.668741
 20
257.8547842875608
 30
0.0
 40
105.0
100
AcDbArc
 50
180.0
 51
201.0390000000001
  0
LINE
  5
1448
330
1290
100
AcDbEntity
  8
0
100
AcDbLine
 10
377.668741
 20
257.8547842875608
 30
0.0
 11
377.668741
 21
185.8547842875608
 31
0.0
  0
LINE
  5
1449
330
1290
100
AcDbEntity
  8
0
100
AcDbLine
 10
385.668741
 20
257.8547842875608
 30
0.0
 11
385.668741
 21
185.8547842875608
 31
0.0
  0
LINE
  5
144A
330
1290
100
AcDbEntity
  8
0
100
AcDbLine
 10
395.668741
 20
257.8547842875608
 30
0.0
 11
395.668741
 21
185.8547842875608
 31
0.0
  0
LINE
  5
144B
330
1290
100
AcDbEntity
  8
0
100
AcDbLine
 10
403.6687409999999
 20
257.8547842875608
 30
0.0
 11
403.6687409999999
 21
185.8547842875608
 31
0.0
  0
LINE
  5
144C
330
1290
100
AcDbEntity
  8
0
100
AcDbLine
 10
413.668741
 20
257.8547842875608
 30
0.0
 11
413.668741
 21
189.3547842875608
 31
0.0
  0
LINE
  5
144D
330
1290
100
AcDbEntity
  8
0
100
AcDbLine
 10
421.668741
 20
257.8547842875608
 30
0.0
 11
421.668741
 21
189.3547842875608
 31
0.0
  0
LINE
  5
144E
330
1290
100
AcDbEntity
  8
0
100
AcDbLine
 10
431.668741
 20
257.8547842875608
 30
0.0
 11
431.668741
 21
204.3547842875609
 31
0.0
  0
LINE
  5
144F
330
1290
100
AcDbEntity
  8
0
100
AcDbLine
 10
439.668741
 20
257.8547842875608
 30
0.0
 11
439.668741
 21
204.3547842875609
 31
0.0
  0
LINE
  5
1450
330
1290
100
AcDbEntity
  8
0
100
AcDbLine
 10
367.668741
 20
257.8547842875608
 30
0.0
 11
367.668741
 21
185.8547842875608
 31
0.0
  0
LINE
  5
1451
330
1290
100
AcDbEntity
  8
0
100
AcDbLine
 10
359.668741
 20
257.8547842875608
 30
0.0
 11
359.668741
 21
185.8547842875608
 31
0.0
  0
LINE
  5
1452
330
1290
100
AcDbEntity
  8
0
100
AcDbLine
 10
349.668741
 20
257.8547842875608
 30
0.0
 11
349.668741
 21
185.8547842875608
 31
0.0
  0
LINE
  5
1453
330
1290
100
AcDbEntity
  8
0
100
AcDbLine
 10
341.668741
 20
257.8547842875608
 30
0.0
 11
341.668741
 21
185.8547842875608
 31
0.0
  0
LINE
  5
1454
330
1290
100
AcDbEntity
  8
0
100
AcDbLine
 10
331.668741
 20
257.8547842875608
 30
0.0
 11
331.668741
 21
185.8547842875608
 31
0.0
  0
LINE
  5
1455
330
1290
100
AcDbEntity
  8
0
100
AcDbLine
 10
323.668741
 20
257.8547842875608
 30
0.0
 11
323.668741
 21
185.8547842875608
 31
0.0
  0
LINE
  5
1456
330
1290
100
AcDbEntity
  8
0
100
AcDbLine
 10
313.668741
 20
257.8547842875608
 30
0.0
 11
313.668741
 21
189.3547842875608
 31
0.0
  0
LINE
  5
1457
330
1290
100
AcDbEntity
  8
0
100
AcDbLine
 10
305.668741
 20
257.8547842875608
 30
0.0
 11
305.668741
 21
189.3547842875608
 31
0.0
  0
LINE
  5
1458
330
1290
100
AcDbEntity
  8
0
100
AcDbLine
 10
295.668741
 20
257.8547842875608
 30
0.0
 11
295.668741
 21
204.3547842875609
 31
0.0
  0
LINE
  5
1459
330
1290
100
AcDbEntity
  8
0
100
AcDbLine
 10
287.668741
 20
257.8547842875608
 30
0.0
 11
287.668741
 21
204.3547842875609
 31
0.0
  0
LINE
  5
145A
330
1290
100
AcDbEntity
  8
0
100
AcDbLine
 10
457.718741
 20
257.8547842875608
 30
0.0
 11
457.718741
 21
166.3047842875608
 31
0.0
  0
LINE
  5
145B
330
1290
100
AcDbEntity
  8
0
100
AcDbLine
 10
269.618741
 20
257.8547842875608
 30
0.0
 11
269.618741
 21
166.3047842875608
 31
0.0
  0
LINE
  5
145C
330
1290
100
AcDbEntity
  8
7
100
AcDbLine
 10
363.668741
 20
267.8547842875608
 30
0.0
 11
363.668741
 21
126.3547842875608
 31
0.0
  0
LINE
  5
145D
330
1290
100
AcDbEntity
  8
0
100
AcDbLine
 10
265.668741
 20
257.8547842875608
 30
0.0
 11
265.668741
 21
166.3547842875608
 31
0.0
  0
LINE
  5
145E
330
1290
100
AcDbEntity
  8
0
100
AcDbLine
 10
268.668741
 20
257.8547842875608
 30
0.0
 11
268.668741
 21
166.3547842875608
 31
0.0
  0
LINE
  5
145F
330
1290
100
AcDbEntity
  8
0
100
AcDbLine
 10
458.668741
 20
166.3547842875608
 30
0.0
 11
458.668741
 21
257.8547842875608
 31
0.0
  0
LINE
  5
1460
330
1290
100
AcDbEntity
  8
0
100
AcDbLine
 10
461.6687409999999
 20
166.3547842875608
 30
0.0
 11
461.6687409999999
 21
257.8547842875608
 31
0.0
  0
ARC
  5
1461
330
1290
100
AcDbEntity
  8
0
100
AcDbCircle
 10
363.668741
 20
257.8547842875608
 30
0.0
 40
99.0
100
AcDbArc
 50
351.8489999999999
 51
0.0
  0
ARC
  5
1462
330
1290
100
AcDbEntity
  8
0
100
AcDbCircle
 10
363.668741
 20
257.8547842875608
 30
0.0
 40
99.0
100
AcDbArc
 50
180.0
 51
188.1510000000001
  0
ARC
  5
1463
330
1290
100
AcDbEntity
  8
0
100
AcDbCircle
 10
363.668741
 20
257.8547842875608
 30
0.0
 40
124.0
100
AcDbArc
 50
232.2159999999998
 51
307.7839999999997
  0
ARC
  5
1464
330
1290
100
AcDbEntity
  8
0
100
AcDbCircle
 10
363.668741
 20
257.8547842875608
 30
0.0
 40
105.0
100
AcDbArc
 50
248.9609999999998
 51
291.0390000000001
  0
ARC
  5
1465
330
1290
100
AcDbEntity
  8
0
100
AcDbCircle
 10
363.668741
 20
257.8547842875608
 30
0.0
 40
99.0
100
AcDbArc
 50
261.849
 51
278.151
  0
ARC
  5
1466
330
1290
100
AcDbEntity
  8
0
100
AcDbCircle
 10
363.668741
 20
185.8547842875608
 30
0.0
 40
4.0
100
AcDbArc
 50
180.0
 51
0.0
  0
LINE
  5
1467
330
1290
100
AcDbEntity
  8
0
100
AcDbLine
 10
272.118741
 20
163.8047842875608
 30
0.0
 11
455.218741
 21
163.8047842875608
 31
0.0
  0
LINE
  5
1468
330
1290
100
AcDbEntity
  8
0
100
AcDbLine
 10
455.168741
 20
159.8547842875608
 30
0.0
 11
272.168741
 21
159.8547842875608
 31
0.0
  0
LINE
  5
1469
330
1290
100
AcDbEntity
  8
0
100
AcDbLine
 10
455.168741
 20
162.8547842875608
 30
0.0
 11
272.168741
 21
162.8547842875608
 31
0.0
  0
ARC
  5
146A
330
1290
100
AcDbEntity
  8
0
100
AcDbCircle
 10
455.168741
 20
166.3547842875608
 30
0.0
 40
6.5
100
AcDbArc
 50
270.0
 51
0.0
  0
ARC
  5
146B
330
1290
100
AcDbEntity
  8
0
100
AcDbCircle
 10
455.168741
 20
166.3547842875608
 30
0.0
 40
3.5
100
AcDbArc
 50
270.0
 51
0.0
  0
ARC
  5
146C
330
1290
100
AcDbEntity
  8
0
100
AcDbCircle
 10
455.218741
 20
166.3047842875608
 30
0.0
 40
2.5
100
AcDbArc
 50
270.0
 51
0.0
  0
ARC
  5
146D
330
1290
100
AcDbEntity
  8
0
100
AcDbCircle
 10
435.668741
 20
204.3547842875609
 30
0.0
 40
4.0
100
AcDbArc
 50
180.0
 51
0.0
  0
ARC
  5
146E
330
1290
100
AcDbEntity
  8
0
100
AcDbCircle
 10
417.668741
 20
189.3547842875608
 30
0.0
 40
4.0
100
AcDbArc
 50
180.0
 51
0.0
  0
ARC
  5
146F
330
1290
100
AcDbEntity
  8
0
100
AcDbCircle
 10
399.668741
 20
185.8547842875608
 30
0.0
 40
4.0
100
AcDbArc
 50
180.0
 51
0.0
  0
ARC
  5
1470
330
1290
100
AcDbEntity
  8
0
100
AcDbCircle
 10
381.668741
 20
185.8547842875608
 30
0.0
 40
4.0
100
AcDbArc
 50
180.0
 51
0.0
  0
LINE
  5
1471
330
1290
100
AcDbEntity
  8
0
100
AcDbLine
 10
284.0017410000001
 20
177.1967842875608
 30
0.0
 11
286.7517410000001
 21
177.1967842875608
 31
0.0
  0
LINE
  5
1472
330
1290
100
AcDbEntity
  8
0
100
AcDbLine
 10
284.0017410000001
 20
175.8777842875608
 30
0.0
 11
286.7517410000001
 21
175.8777842875608
 31
0.0
  0
LINE
  5
1473
330
1290
100
AcDbEntity
  8
7
 48
0.193
100
AcDbLine
 10
273.851741
 20
176.5377842875608
 30
0.0
 11
290.851741
 21
176.5377842875608
 31
0.0
  0
ARC
  5
1474
330
1290
100
AcDbEntity
  8
0
100
AcDbCircle
 10
287.989741
 20
182.1757842875608
 30
0.0
 40
5.5
100
AcDbArc
 50
205.1589999999997
 51
244.8409999999998
  0
ARC
  5
1475
330
1290
100
AcDbEntity
  8
0
100
AcDbCircle
 10
287.989741
 20
170.8987842875608
 30
0.0
 40
5.5
100
AcDbArc
 50
115.1590000000001
 51
154.8410000000003
  0
CIRCLE
  5
1476
330
1290
100
AcDbEntity
  8
0
100
AcDbCircle
 10
282.351741
 20
176.5377842875608
 30
0.0
 40
5.5
  0
ARC
  5
1477
330
1290
100
AcDbEntity
  8
0
100
AcDbCircle
 10
327.668741
 20
185.8547842875608
 30
0.0
 40
4.0
100
AcDbArc
 50
180.0
 51
0.0
  0
ARC
  5
1478
330
1290
100
AcDbEntity
  8
0
100
AcDbCircle
 10
345.668741
 20
185.8547842875608
 30
0.0
 40
4.0
100
AcDbArc
 50
180.0
 51
0.0
  0
ARC
  5
1479
330
1290
100
AcDbEntity
  8
0
100
AcDbCircle
 10
291.668741
 20
204.3547842875609
 30
0.0
 40
4.0
100
AcDbArc
 50
180.0
 51
0.0
  0
ARC
  5
147A
330
1290
100
AcDbEntity
  8
0
100
AcDbCircle
 10
309.668741
 20
189.3547842875608
 30
0.0
 40
4.0
100
AcDbArc
 50
180.0
 51
0.0
  0
LINE
  5
147B
330
1290
100
AcDbEntity
  8
0
100
AcDbLine
 10
285.651741
 20
175.8777842875608
 30
0.0
 11
285.651741
 21
177.1967842875608
 31
0.0
  0
LINE
  5
147C
330
1290
100
AcDbEntity
  8
0
100
AcDbLine
 10
286.7517410000001
 20
175.8777842875608
 30
0.0
 11
286.7517410000001
 21
177.1967842875608
 31
0.0
  0
ARC
  5
147D
330
1290
100
AcDbEntity
  8
0
100
AcDbCircle
 10
272.168741
 20
166.3547842875608
 30
0.0
 40
6.5
100
AcDbArc
 50
180.0
 51
270.0
  0
LINE
  5
147E
330
1290
100
AcDbEntity
  8
7
 48
0.193
100
AcDbLine
 10
282.351741
 20
168.0377842875608
 30
0.0
 11
282.351741
 21
185.0377842875608
 31
0.0
  0
LINE
  5
147F
330
1290
100
AcDbEntity
  8
0
100
AcDbLine
 10
280.700741
 20
175.8777842875608
 30
0.0
 11
277.951741
 21
175.8777842875608
 31
0.0
  0
LINE
  5
1480
330
1290
100
AcDbEntity
  8
0
100
AcDbLine
 10
280.701741
 20
177.1967842875608
 30
0.0
 11
277.951741
 21
177.1977842875608
 31
0.0
  0
ARC
  5
1481
330
1290
100
AcDbEntity
  8
0
100
AcDbCircle
 10
276.713741
 20
182.1757842875608
 30
0.0
 40
5.5
100
AcDbArc
 50
295.1590000000001
 51
334.8410000000003
  0
ARC
  5
1482
330
1290
100
AcDbEntity
  8
0
100
AcDbCircle
 10
276.713741
 20
170.8987842875608
 30
0.0
 40
5.5
100
AcDbArc
 50
25.15899999999971
 51
64.84099999999987
  0
LINE
  5
1483
330
1290
100
AcDbEntity
  8
0
100
AcDbLine
 10
284.0017410000001
 20
175.8777842875608
 30
0.0
 11
284.0017410000001
 21
177.1967842875608
 31
0.0
  0
LINE
  5
1484
330
1290
100
AcDbEntity
  8
0
100
AcDbLine
 10
280.701741
 20
177.1977842875608
 30
0.0
 11
280.701741
 21
175.8777842875608
 31
0.0
  0
LINE
  5
1485
330
1290
100
AcDbEntity
  8
0
100
AcDbLine
 10
283.011741
 20
178.1877842875608
 30
0.0
 11
281.691741
 21
178.1877842875608
 31
0.0
  0
LINE
  5
1486
330
1290
100
AcDbEntity
  8
0
100
AcDbLine
 10
283.011741
 20
179.8377842875608
 30
0.0
 11
281.691741
 21
179.8377842875608
 31
0.0
  0
LINE
  5
1487
330
1290
100
AcDbEntity
  8
0
100
AcDbLine
 10
283.011741
 20
180.9377842875608
 30
0.0
 11
281.691741
 21
180.9377842875608
 31
0.0
  0
LINE
  5
1488
330
1290
100
AcDbEntity
  8
0
100
AcDbLine
 10
283.011741
 20
178.1877842875608
 30
0.0
 11
283.011741
 21
180.9377842875608
 31
0.0
  0
ARC
  5
1489
330
1290
100
AcDbEntity
  8
0
100
AcDbCircle
 10
287.989741
 20
182.1757842875608
 30
0.0
 40
6.378999999999999
100
AcDbArc
 50
218.6990000000001
 51
231.3050000000002
  0
LINE
  5
148A
330
1290
100
AcDbEntity
  8
0
100
AcDbLine
 10
281.691741
 20
178.1877842875608
 30
0.0
 11
281.691741
 21
180.9377842875608
 31
0.0
  0
ARC
  5
148B
330
1290
100
AcDbEntity
  8
0
100
AcDbCircle
 10
276.713741
 20
182.1757842875608
 30
0.0
 40
6.378999999999999
100
AcDbArc
 50
308.6989999999998
 51
321.3050000000003
  0
LINE
  5
148C
330
1290
100
AcDbEntity
  8
0
100
AcDbLine
 10
281.691741
 20
174.8877842875608
 30
0.0
 11
283.010741
 21
174.8877842875608
 31
0.0
  0
LINE
  5
148D
330
1290
100
AcDbEntity
  8
0
100
AcDbLine
 10
281.691741
 20
173.2377842875608
 30
0.0
 11
283.010741
 21
173.2377842875608
 31
0.0
  0
LINE
  5
148E
330
1290
100
AcDbEntity
  8
0
100
AcDbLine
 10
281.691741
 20
172.1377842875608
 30
0.0
 11
283.010741
 21
172.1377842875608
 31
0.0
  0
LINE
  5
148F
330
1290
100
AcDbEntity
  8
0
100
AcDbLine
 10
283.010741
 20
174.8867842875608
 30
0.0
 11
283.010741
 21
172.1377842875608
 31
0.0
  0
ARC
  5
1490
330
1290
100
AcDbEntity
  8
0
100
AcDbCircle
 10
287.989741
 20
170.8987842875608
 30
0.0
 40
6.378999999999999
100
AcDbArc
 50
128.6989999999997
 51
141.3050000000002
  0
LINE
  5
1491
330
1290
100
AcDbEntity
  8
0
100
AcDbLine
 10
281.691741
 20
174.8877842875608
 30
0.0
 11
281.691741
 21
172.1377842875608
 31
0.0
  0
ARC
  5
1492
330
1290
100
AcDbEntity
  8
0
100
AcDbCircle
 10
276.713741
 20
170.8987842875608
 30
0.0
 40
6.378999999999999
100
AcDbArc
 50
38.69900000000013
 51
51.30500000000019
  0
LINE
  5
1493
330
1290
100
AcDbEntity
  8
0
100
AcDbLine
 10
279.051741
 20
177.1977842875608
 30
0.0
 11
279.051741
 21
175.8777842875608
 31
0.0
  0
LINE
  5
1494
330
1290
100
AcDbEntity
  8
0
100
AcDbLine
 10
277.951741
 20
177.1977842875608
 30
0.0
 11
277.951741
 21
175.8777842875608
 31
0.0
  0
ARC
  5
1495
330
1290
100
AcDbEntity
  8
0
100
AcDbCircle
 10
272.168741
 20
166.3547842875608
 30
0.0
 40
3.5
100
AcDbArc
 50
180.0
 51
270.0
  0
ARC
  5
1496
330
1290
100
AcDbEntity
  8
0
100
AcDbCircle
 10
272.118741
 20
166.3047842875608
 30
0.0
 40
2.5
100
AcDbArc
 50
180.0
 51
270.0
  0
DIMENSION
  5
14AA
330
1290
100
AcDbEntity
  8
5
100
AcDbDimension
  2
*D21
 10
403.6687409999999
 20
109.2027532875608
 30
0.0
 11
460.168741
 21
120.9527532875608
 31
0.0
 70
    32
  1
<>
 71
     5
 42
8.0
  3
GEN-ISO
100
AcDbAlignedDimension
 13
395.668741
 23
185.8547842875608
 33
0.0
 14
403.6687409999999
 24
185.8547842875608
 34
0.0
 50
180.0
100
AcDbRotatedDimension
1001
GENIUS_GENDTOL_13
1000

1000
h7
1000

1040
0.0
1000
<>
1001
ACAD
1000
DSTYLE
1002
{
1070
    41
1040
5.0
1002
}
  0
ENDSEC
  0
SECTION
  2
OBJECTS
  0
DICTIONARY
  5
1284
330
0
100
AcDbDictionary
281
     1
  3
ACAD_COLOR
350
15C4
  3
ACAD_GROUP
350
1285
  3
ACAD_LAYOUT
350
15C7
  3
ACAD_MATERIAL
350
15C3
  3
ACAD_MLINESTYLE
350
1293
  3
ACAD_PLOTSETTINGS
350
15C8
  3
ACAD_PLOTSTYLENAME
350
15C1
  3
ACAD_TABLESTYLE
350
15C5
  3
ACDBHEADERROUNDTRIPXREC
350
16D1
  3
AcDbVariableDictionary
350
16CC
  3
AcmDictionary
350
1626
  3
AMG
350
15CC
  3
AMGSNAPSETTINGS
350
1693
  0
DICTIONARY
  5
15C4
102
{ACAD_REACTORS
330
1284
102
}
330
1284
100
AcDbDictionary
281
     1
  0
DICTIONARY
  5
1285
102
{ACAD_REACTORS
330
1284
102
}
330
1284
100
AcDbDictionary
281
     1
  0
DICTIONARY
  5
15C7
102
{ACAD_REACTORS
330
1284
102
}
330
1284
100
AcDbDictionary
281
     1
  3
Layout1
350
15CA
  3
Model
350
15C9
  0
DICTIONARY
  5
15C3
102
{ACAD_REACTORS
330
1284
102
}
330
1284
100
AcDbDictionary
281
     1
  0
DICTIONARY
  5
1293
102
{ACAD_REACTORS
330
1284
102
}
330
1284
100
AcDbDictionary
281
     1
  3
STANDARD
350
1294
  0
DICTIONARY
  5
15C8
102
{ACAD_REACTORS
330
1284
102
}
330
1284
100
AcDbDictionary
281
     1
  0
ACDBDICTIONARYWDFLT
  5
15C1
102
{ACAD_REACTORS
330
1284
102
}
330
1284
100
AcDbDictionary
281
     1
  3
Normal
350
15C2
100
AcDbDictionaryWithDefault
340
15C2
  0
DICTIONARY
  5
15C5
102
{ACAD_REACTORS
330
1284
102
}
330
1284
100
AcDbDictionary
281
     1
  3
Standard
350
15C6
  0
DICTIONARY
  5
16D1
102
{ACAD_REACTORS
330
1284
102
}
330
1284
100
AcDbDictionary
281
     1
  0
DICTIONARY
  5
16CC
102
{ACAD_REACTORS
330
1284
102
}
330
1284
100
AcDbDictionary
281
     1
  3
CTABLESTYLE
350
16CD
  3
DIMASSOC
350
16CE
  3
PROJECTNAME
350
16CF
  0
DICTIONARY
  5
1626
102
{ACAD_REACTORS
330
1284
102
}
330
1284
100
AcDbDictionary
281
     1
  3
AcmStdDictionary
350
1631
  3
AMDTSECTSYM_ARROWCOLOR
350
1654
  0
DICTIONARY
  5
15CC
102
{ACAD_REACTORS
330
1284
102
}
330
1284
100
AcDbDictionary
281
     1
  0
DICTIONARY
  5
1693
102
{ACAD_REACTORS
330
1284
102
}
330
1284
100
AcDbDictionary
281
     1
  0
LAYOUT
  5
15CA
102
{ACAD_XDICTIONARY
360
16D4
102
}
102
{ACAD_REACTORS
330
15C7
102
}
330
15C7
100
AcDbPlotSettings
  1

  2
Xerox Document Centre CS50 PS
  4

  6

 40
0.0
 41
0.0
 42
0.0
 43
0.0
 44
0.0
 45
0.0
 46
0.0
 47
0.0
 48
0.0
 49
0.0
140
0.0
141
0.0
142
1.0
143
1.0
 70
   688
 72
     0
 73
     0
 74
     5
  7

 75
    16
147
1.0
148
0.0
149
0.0
100
AcDbLayout
  1
Layout1
 70
     1
 71
     1
 10
0.0
 20
0.0
 11
144.0
 21
229.584
 12
0.0
 22
0.0
 32
0.0
 14
0.0
 24
0.0
 34
0.0
 15
144.0
 25
229.584
 35
0.0
146
0.0
 13
0.0
 23
0.0
 33
0.0
 16
1.0
 26
0.0
 36
0.0
 17
0.0
 27
1.0
 37
0.0
 76
     0
330
128D
  0
LAYOUT
  5
15C9
102
{ACAD_XDICTIONARY
360
16D2
102
}
102
{ACAD_REACTORS
330
15C7
102
}
330
15C7
100
AcDbPlotSettings
  1

  2
Xerox Document Centre CS50 PS
  4

  6

 40
0.0
 41
0.0
 42
0.0
 43
0.0
 44
0.0
 45
0.0
 46
0.0
 47
0.0
 48
0.0
 49
0.0
140
0.0
141
0.0
142
1.0
143
1.0
 70
  1712
 72
     0
 73
     0
 74
     0
  7

 75
     0
147
1.0
148
0.0
149
0.0
100
AcDbLayout
  1
Model
 70
     1
 71
     0
 10
0.0
 20
0.0
 11
12.0
 21
9.0
 12
0.0
 22
0.0
 32
0.0
 14
0.0
 24
0.0
 34
0.0
 15
0.0
 25
0.0
 35
0.0
146
0.0
 13
0.0
 23
0.0
 33
0.0
 16
1.0
 26
0.0
 36
0.0
 17
0.0
 27
1.0
 37
0.0
 76
     0
330
1290
  0
MLINESTYLE
  5
1294
102
{ACAD_REACTORS
330
1293
102
}
330
1293
100
AcDbMlineStyle
  2
STANDARD
 70
     0
  3

 62
   256
 51
90.0
 52
90.0
 71
     2
 49
0.5
 62
   256
  6
BYLAYER
 49
-0.5
 62
   256
  6
BYLAYER
  0
ACDBPLACEHOLDER
  5
15C2
102
{ACAD_REACTORS
330
15C1
102
}
330
15C1
  0
TABLESTYLE
  5
15C6
102
{ACAD_REACTORS
330
15C5
102
}
330
15C5
100
AcDbTableStyle
  3
Standard
 70
     0
 71
     0
 40
1.5
 41
1.5
280
     0
281
     0
  7
STANDARD
140
4.5
170
     2
 62
     0
 63
     7
283
     0
274
    -2
284
     1
 64
     0
275
    -2
285
     1
 65
     0
276
    -2
286
     1
 66
     0
277
    -2
287
     1
 67
     0
278
    -2
288
     1
 68
     0
279
    -2
289
     1
 69
     0
  7
STANDARD
140
6.0
170
     5
 62
     0
 63
     7
283
     0
274
    -2
284
     1
 64
     0
275
    -2
285
     1
 65
     0
276
    -2
286
     1
 66
     0
277
    -2
287
     1
 67
     0
278
    -2
288
     1
 68
     0
279
    -2
289
     1
 69
     0
  7
STANDARD
140
4.5
170
     5
 62
     0
 63
     7
283
     0
274
    -2
284
     1
 64
     0
275
    -2
285
     1
 65
     0
276
    -2
286
     1
 66
     0
277
    -2
287
     1
 67
     0
278
    -2
288
     1
 68
     0
279
    -2
289
     1
 69
     0
  0
DICTIONARYVAR
  5
16CD
102
{ACAD_REACTORS
330
16CC
102
}
330
16CC
100
DictionaryVariables
280
     0
  1
STANDARD
  0
DICTIONARYVAR
  5
16CE
102
{ACAD_REACTORS
330
16CC
102
}
330
16CC
100
DictionaryVariables
280
     0
  1
1
  0
DICTIONARYVAR
  5
16CF
102
{ACAD_REACTORS
330
16CC
102
}
330
16CC
100
DictionaryVariables
280
     0
  1

  0
DICTIONARY
  5
1631
102
{ACAD_REACTORS
330
1626
102
}
330
1626
100
AcDbDictionary
281
     1
  0
XRECORD
  5
1654
102
{ACAD_REACTORS
330
1626
102
}
330
1626
100
AcDbXrecord
280
     1
 90
-1023410169
  0
DICTIONARY
  5
16D4
330
15CA
100
AcDbDictionary
280
     1
281
     1
  3
ACAD_XREC_ROUNDTRIP
360
16D5
  0
DICTIONARY
  5
16D2
330
15C9
100
AcDbDictionary
280
     1
281
     1
  3
ACAD_XREC_ROUNDTRIP
360
16D3
  0
XRECORD
  5
16D5
102
{ACAD_REACTORS
330
16D4
102
}
330
16D4
100
AcDbXrecord
280
     1
102
SHADEPLOT
 70
     0
102
SHADEPLOTRESLEVEL
 70
     2
102
SHADEPLOTCUSTOMDPI
 70
   300
  0
XRECORD
  5
16D3
102
{ACAD_REACTORS
330
16D2
102
}
330
16D2
100
AcDbXrecord
280
     1
102
SHADEPLOT
 70
     0
102
SHADEPLOTRESLEVEL
 70
     2
102
SHADEPLOTCUSTOMDPI
 70
   300
  0
ENDSEC
  0
EOF
