  0
SECTION
  2
HEADER
  9
$ACADVER
  1
AC1015
  9
$ACADMAINTVER
 70
    20
  9
$DWGCODEPAGE
  3
ANSI_1252
  9
$INSBASE
 10
0.0
 20
0.0
 30
0.0
  9
$EXTMIN
 10
214.4187954189474
 20
43.70727788622843
 30
-0.0015258207003583
  9
$EXTMAX
 10
553.4385699818826
 20
735.6857320592803
 30
0.0000000349246037
  9
$LIMMIN
 10
0.0
 20
0.0
  9
$LIMMAX
 10
1050.0
 20
1050.0
  9
$ORTHOMODE
 70
     0
  9
$REGENMODE
 70
     1
  9
$FILLMODE
 70
     1
  9
$QTEXTMODE
 70
     0
  9
$MIRRTEXT
 70
     0
  9
$LTSCALE
 40
5.0
  9
$ATTMODE
 70
     1
  9
$TEXTSIZE
 40
2.5
  9
$TRACEWID
 40
1.0
  9
$TEXTSTYLE
  7
STANDARD
  9
$CLAYER
  8
0
  9
$CELTYPE
  6
BYLAYER
  9
$CECOLOR
 62
   256
  9
$CELTSCALE
 40
1.0
  9
$DISPSILH
 70
     0
  9
$DIMSCALE
 40
5.0
  9
$DIMASZ
 40
2.5
  9
$DIMEXO
 40
1.0
  9
$DIMDLI
 40
7.0
  9
$DIMRND
 40
0.0
  9
$DIMDLE
 40
0.0
  9
$DIMEXE
 40
1.0
  9
$DIMTP
 40
0.1
  9
$DIMTM
 40
0.1
  9
$DIMTXT
 40
3.5
  9
$DIMCEN
 40
0.0
  9
$DIMTSZ
 40
0.0
  9
$DIMTOL
 70
     0
  9
$DIMLIM
 70
     0
  9
$DIMTIH
 70
     0
  9
$DIMTOH
 70
     0
  9
$DIMSE1
 70
     0
  9
$DIMSE2
 70
     0
  9
$DIMTAD
 70
     1
  9
$DIMZIN
 70
     8
  9
$DIMBLK
  1

  9
$DIMASO
 70
     1
  9
$DIMSHO
 70
     1
  9
$DIMPOST
  1

  9
$DIMAPOST
  1
"
  9
$DIMALT
 70
     0
  9
$DIMALTD
 70
     2
  9
$DIMALTF
 40
0.03937
  9
$DIMLFAC
 40
1.0
  9
$DIMTOFL
 70
     1
  9
$DIMTVP
 40
0.0
  9
$DIMTIX
 70
     0
  9
$DIMSOXD
 70
     0
  9
$DIMSAH
 70
     0
  9
$DIMBLK1
  1

  9
$DIMBLK2
  1

  9
$DIMSTYLE
  2
GEN-ISO
  9
$DIMCLRD
 70
   256
  9
$DIMCLRE
 70
   256
  9
$DIMCLRT
 70
     2
  9
$DIMTFAC
 40
0.71
  9
$DIMGAP
 40
0.6
  9
$DIMJUST
 70
     0
  9
$DIMSD1
 70
     0
  9
$DIMSD2
 70
     0
  9
$DIMTOLJ
 70
     0
  9
$DIMTZIN
 70
     0
  9
$DIMALTZ
 70
     0
  9
$DIMALTTZ
 70
     0
  9
$DIMUPT
 70
     0
  9
$DIMDEC
 70
     2
  9
$DIMTDEC
 70
     3
  9
$DIMALTU
 70
     2
  9
$DIMALTTD
 70
     4
  9
$DIMTXSTY
  7
STANDARD
  9
$DIMAUNIT
 70
     0
  9
$DIMADEC
 70
     0
  9
$DIMALTRND
 40
0.0
  9
$DIMAZIN
 70
     0
  9
$DIMDSEP
 70
    46
  9
$DIMATFIT
 70
     3
  9
$DIMFRAC
 70
     0
  9
$DIMLDRBLK
  1

  9
$DIMLUNIT
 70
     2
  9
$DIMLWD
 70
    -2
  9
$DIMLWE
 70
    -2
  9
$DIMTMOVE
 70
     0
  9
$LUNITS
 70
     2
  9
$LUPREC
 70
     2
  9
$SKETCHINC
 40
1.0
  9
$FILLETRAD
 40
2.5
  9
$AUNITS
 70
     0
  9
$AUPREC
 70
     0
  9
$MENU
  1
.
  9
$ELEVATION
 40
0.0
  9
$PELEVATION
 40
0.0
  9
$THICKNESS
 40
0.0
  9
$LIMCHECK
 70
     0
  9
$CHAMFERA
 40
12.5
  9
$CHAMFERB
 40
12.5
  9
$CHAMFERC
 40
0.0
  9
$CHAMFERD
 40
0.0
  9
$SKPOLY
 70
     0
  9
$TDCREATE
 40
2450346.688312257
  9
$TDUCREATE
 40
2450346.646645590
  9
$TDUPDATE
 40
2454038.567941921
  9
$TDUUPDATE
 40
2454038.526275255
  9
$TDINDWG
 40
0.0704814699
  9
$TDUSRTIMER
 40
0.0704813542
  9
$USRTIMER
 70
     1
  9
$ANGBASE
 50
0.0
  9
$ANGDIR
 70
     0
  9
$PDMODE
 70
     0
  9
$PDSIZE
 40
0.0
  9
$PLINEWID
 40
0.0
  9
$SPLFRAME
 70
     0
  9
$SPLINETYPE
 70
     6
  9
$SPLINESEGS
 70
     8
  9
$HANDSEED
  5
C26
  9
$SURFTAB1
 70
     6
  9
$SURFTAB2
 70
     6
  9
$SURFTYPE
 70
     6
  9
$SURFU
 70
     6
  9
$SURFV
 70
     6
  9
$UCSBASE
  2

  9
$UCSNAME
  2

  9
$UCSORG
 10
0.0
 20
0.0
 30
0.0
  9
$UCSXDIR
 10
1.0
 20
0.0
 30
0.0
  9
$UCSYDIR
 10
0.0
 20
1.0
 30
0.0
  9
$UCSORTHOREF
  2

  9
$UCSORTHOVIEW
 70
     0
  9
$UCSORGTOP
 10
0.0
 20
0.0
 30
0.0
  9
$UCSORGBOTTOM
 10
0.0
 20
0.0
 30
0.0
  9
$UCSORGLEFT
 10
0.0
 20
0.0
 30
0.0
  9
$UCSORGRIGHT
 10
0.0
 20
0.0
 30
0.0
  9
$UCSORGFRONT
 10
0.0
 20
0.0
 30
0.0
  9
$UCSORGBACK
 10
0.0
 20
0.0
 30
0.0
  9
$PUCSBASE
  2

  9
$PUCSNAME
  2

  9
$PUCSORG
 10
0.0
 20
0.0
 30
0.0
  9
$PUCSXDIR
 10
1.0
 20
0.0
 30
0.0
  9
$PUCSYDIR
 10
0.0
 20
1.0
 30
0.0
  9
$PUCSORTHOREF
  2

  9
$PUCSORTHOVIEW
 70
     0
  9
$PUCSORGTOP
 10
0.0
 20
0.0
 30
0.0
  9
$PUCSORGBOTTOM
 10
0.0
 20
0.0
 30
0.0
  9
$PUCSORGLEFT
 10
0.0
 20
0.0
 30
0.0
  9
$PUCSORGRIGHT
 10
0.0
 20
0.0
 30
0.0
  9
$PUCSORGFRONT
 10
0.0
 20
0.0
 30
0.0
  9
$PUCSORGBACK
 10
0.0
 20
0.0
 30
0.0
  9
$USERI1
 70
     0
  9
$USERI2
 70
     0
  9
$USERI3
 70
     0
  9
$USERI4
 70
     0
  9
$USERI5
 70
     0
  9
$USERR1
 40
0.0
  9
$USERR2
 40
0.0
  9
$USERR3
 40
0.0
  9
$USERR4
 40
0.0
  9
$USERR5
 40
0.0
  9
$WORLDVIEW
 70
     1
  9
$SHADEDGE
 70
     3
  9
$SHADEDIF
 70
    70
  9
$TILEMODE
 70
     1
  9
$MAXACTVP
 70
    16
  9
$PINSBASE
 10
0.0
 20
0.0
 30
0.0
  9
$PLIMCHECK
 70
     0
  9
$PEXTMIN
 10
1.000000000000000E+20
 20
1.000000000000000E+20
 30
1.000000000000000E+20
  9
$PEXTMAX
 10
-1.000000000000000E+20
 20
-1.000000000000000E+20
 30
-1.000000000000000E+20
  9
$PLIMMIN
 10
0.0
 20
0.0
  9
$PLIMMAX
 10
420.0
 20
297.0
  9
$UNITMODE
 70
     0
  9
$VISRETAIN
 70
     0
  9
$PLINEGEN
 70
     0
  9
$PSLTSCALE
 70
     1
  9
$TREEDEPTH
 70
  3020
  9
$CMLSTYLE
  2
STANDARD
  9
$CMLJUST
 70
     0
  9
$CMLSCALE
 40
1.0
  9
$PROXYGRAPHICS
 70
     1
  9
$MEASUREMENT
 70
     1
  9
$CELWEIGHT
370
    -1
  9
$ENDCAPS
280
     0
  9
$JOINSTYLE
280
     0
  9
$LWDISPLAY
290
     0
  9
$INSUNITS
 70
     0
  9
$HYPERLINKBASE
  1

  9
$STYLESHEET
  1

  9
$XEDIT
290
     1
  9
$CEPSNTYPE
380
     0
  9
$PSTYLEMODE
290
     1
  9
$FINGERPRINTGUID
  2
{11554E72-777F-4E89-8D9A-10F5CBB8A069}
  9
$VERSIONGUID
  2
{69879054-A5CC-49C5-A62D-EB4FF8FD4115}
  9
$EXTNAMES
290
     1
  9
$PSVPSCALE
 40
0.0
  9
$OLESTARTUP
290
     0
  0
ENDSEC
  0
SECTION
  2
CLASSES
  0
CLASS
  1
DICTIONARYVAR
  2
AcDbDictionaryVar
  3
ObjectDBX Classes
 90
        0
280
     0
281
     0
  0
CLASS
  1
ACDBDICTIONARYWDFLT
  2
AcDbDictionaryWithDefault
  3
ObjectDBX Classes
 90
        0
280
     0
281
     0
  0
CLASS
  1
TABLESTYLE
  2
AcDbTableStyle
  3
ObjectDBX Classes
 90
     2047
280
     0
281
     0
  0
CLASS
  1
AMGSETTINGSOBJ
  2
AmgSettingsObj
  3
"AcadM|Product Description: AutoCAD Mechanical 2000|Company: Autodesk"
 90
        0
280
     0
281
     0
  0
CLASS
  1
ACME_DOCUMENT
  2
AcMeDbDoc
  3
AcMeServices
 90
        0
280
     0
281
     0
  0
CLASS
  1
ACMESCOPE
  2
AcMeScope
  3
AcMeServices
 90
        0
280
     0
281
     0
  0
CLASS
  1
ACMECOMMANDHISTORY
  2
AcMeCommandHistory
  3
AcMeServices
 90
        0
280
     0
281
     0
  0
CLASS
  1
ACIMSYSVARMAN
  2
AcImSysVarManager
  3
AcMeServices
 90
        0
280
     0
281
     0
  0
CLASS
  1
ACIMINTSYSVAR
  2
AcImIntSysVar
  3
AcMeServices
 90
        0
280
     0
281
     0
  0
CLASS
  1
ACMEDRAWINGMAN
  2
AcMeDrawingMan
  3
AcMeServices
 90
        0
280
     0
281
     0
  0
CLASS
  1
ACMEVIEW
  2
AcMeView
  3
AcMeServices
 90
        0
280
     0
281
     0
  0
CLASS
  1
ACDBENTITYCACHE
  2
AcMeEntityCache
  3
AcMeServices
 90
        0
280
     0
281
     0
  0
CLASS
  1
GSMANAGER
  2
AcMeGSManager
  3
AcMeServices
 90
        0
280
     0
281
     0
  0
CLASS
  1
AMDTINTERNALREACTOR
  2
AmdtInternalReactor
  3
AcMeServices
 90
        0
280
     0
281
     0
  0
CLASS
  1
ACMESTATEMGR
  2
AcMeStateMgr
  3
AcMeServices
 90
        0
280
     0
281
     0
  0
CLASS
  1
ACGREFMASTER
  2
AcGrefMaster
  3
AcAttribServices
 90
        0
280
     0
281
     0
  0
CLASS
  1
AM_DRAWING_MGR
  2
AcDmDwgMgr
  3
AcMechDwgViewMgmt
 90
        0
280
     0
281
     0
  0
CLASS
  1
AM_DWG_DOCUMENT
  2
AcDmDwgDocument
  3
AcMechDwgViewMgmt
 90
        0
280
     0
281
     0
  0
CLASS
  1
AM_DWG_SHEET
  2
AcDmSheet
  3
AcMechDwgViewMgmt
 90
        0
280
     0
281
     0
  0
CLASS
  1
AM_VIEWDIMPARMAP
  2
AcDmViewDimParMap
  3
AcMechDwgViewMgmt
 90
        0
280
     0
281
     0
  0
CLASS
  1
ACIMREALSYSVAR
  2
AcImRealSysVar
  3
AcMeServices
 90
        0
280
     0
281
     0
  0
CLASS
  1
AM_DWGMGR_NAME
  2
AcDmDwgMgrName
  3
AcMechDwgViewMgmt
 90
        0
280
     0
281
     0
  0
CLASS
  1
ACME_DATABASE
  2
AcMeDbDatabase
  3
AcMeServices
 90
        0
280
     0
281
     0
  0
CLASS
  1
ACRFINSADJUSTERMGR
  2
AcRfInsAdjusterMgr
  3
AcMeServices
 90
        0
280
     0
281
     0
  0
CLASS
  1
ACGREFACADMASTER
  2
AcGrefacadMaster
  3
AcGrefServices
 90
        0
280
     0
281
     0
  0
CLASS
  1
AMDTMENUSTATEMGR
  2
AmdtMenuStateMgr
  3
McadcomServices
 90
        0
280
     0
281
     0
  0
CLASS
  1
AMDTMCOMMENUSTATE
  2
AmdtMcomMenuState
  3
McadcomServices
 90
        0
280
     0
281
     0
  0
CLASS
  1
AMIMASTER
  2
AmiMaster
  3
AmiServices
 90
        0
280
     0
281
     0
  0
CLASS
  1
MAPIAMMOUDLE
  2
MApiAmModule
  3
MApiAmServices
 90
        0
280
     0
281
     0
  0
CLASS
  1
ACIMSTRSYSVAR
  2
AcImStrSysVar
  3
AcMeServices
 90
        0
280
     0
281
     0
  0
CLASS
  1
AMDTADMENUSTATE
  2
AmdtAdMenuState
  3
DesignerServices
 90
        0
280
     0
281
     0
  0
CLASS
  1
ADAPPL
  2
AcAdAppl
  3
DesignerServices
 90
        0
280
     0
281
     0
  0
CLASS
  1
DEPMGR
  2
AcAdDepMgr
  3
DesignerServices
 90
        0
280
     0
281
     0
  0
CLASS
  1
PARAMMGR
  2
AcAdParamMgr
  3
DesignerServices
 90
        0
280
     0
281
     0
  0
CLASS
  1
PARAMSCOPE
  2
AcAdParamScope
  3
DesignerServices
 90
        0
280
     0
281
     0
  0
CLASS
  1
NAMEDAPPL
  2
AcAdNamedAppl
  3
DesignerServices
 90
        0
280
     0
281
     0
  0
CLASS
  1
AMDTDMMENUSTATE
  2
AmdtDmMenuState
  3
AcMechDwgViewMgmt
 90
        0
280
     0
281
     0
  0
CLASS
  1
AMDTAMMENUSTATE
  2
AmdtAmMenuState
  3
DesignerAssemblies
 90
        0
280
     0
281
     0
  0
CLASS
  1
ACAMPROJECT
  2
AcAmProject
  3
DesignerAssemblies
 90
        0
280
     0
281
     0
  0
CLASS
  1
ACAMGRCOMPDEF
  2
AcAmGrCompDef
  3
DesignerAssemblies
 90
        0
280
     0
281
     0
  0
CLASS
  1
ACCMCONTEXT
  2
AcCmContext
  3
DesignerAssemblies
 90
        0
280
     0
281
     0
  0
CLASS
  1
ACAMCOMPDEF
  2
AcAmCompDef
  3
DesignerAssemblies
 90
        0
280
     0
281
     0
  0
CLASS
  1
ACAMCOMPDEFMGR
  2
AcAmCompDefMgr
  3
DesignerAssemblies
 90
        0
280
     0
281
     0
  0
CLASS
  1
AMCONTEXTMGR
  2
AcAmContextMgr
  3
DesignerAssemblies
 90
        0
280
     0
281
     0
  0
CLASS
  1
ACAMCONTEXTMODELER
  2
AcAmContextModeler
  3
DesignerAssemblies
 90
        0
280
     0
281
     0
  0
CLASS
  1
ACMDATADICTIONARY
  2
AcmDataDictionary
  3
"AcmSymBB|Product Description: AutoCAD Mechanical 2004 DX|Company: Autodesk"
 90
        0
280
     0
281
     0
  0
CLASS
  1
CATALOGSTATE
  2
AcAmCatalogState
  3
DesignerAssemblies
 90
        0
280
     0
281
     0
  0
CLASS
  1
ACAMGRCOMPDEFSET
  2
AcAmGrCompDefSet
  3
DesignerAssemblies
 90
        0
280
     0
281
     0
  0
CLASS
  1
AMDTBROWSERDBTAB
  2
AmdtBrowserDbTab
  3
McadcomServices
 90
        0
280
     0
281
     0
  0
CLASS
  1
CBROWSERAPPOBJECT
  2
CBrowserAppObject
  3
McadcomServices
 90
        0
280
     0
281
     0
  0
CLASS
  1
DM_PLACEHOLDER
  2
AcDmSelsetPlaceholder
  3
AcMechDwgViewMgmt
 90
        0
280
     0
281
     0
  0
CLASS
  1
ACMSTANDARDDIN
  2
AcmStandardDIN
  3
"Amdt_StdImp|Product Description: AutoCAD Mechanical 2004 DX|Company: Autodesk"
 90
        0
280
     0
281
     0
  0
CLASS
  1
AMGOBJPROPCFG
  2
AmgObjPropCfg
  3
"AmgLay|Product Description: AutoCAD Mechanical 2000|Company: Autodesk"
 90
        1
280
     0
281
     0
  0
CLASS
  1
AMDTEDGESTANDARDDIN13715
  2
AmdtEdgeStdDIN13715
  3
"Amdt_StdImp|Product Description: AutoCAD Mechanical 2004 DX|Company: Autodesk"
 90
        0
280
     0
281
     0
  0
CLASS
  1
ACMSURFSTANDARDDIN
  2
AcmSurfTextStdDIN
  3
"Amdt_StdImp|Product Description: AutoCAD Mechanical 2004 DX|Company: Autodesk"
 90
        0
280
     0
281
     0
  0
CLASS
  1
ACMFCFSTANDARDDIN
  2
AcmFCFStdDIN
  3
"Amdt_StdImp|Product Description: AutoCAD Mechanical 2004 DX|Company: Autodesk"
 90
        0
280
     0
281
     0
  0
CLASS
  1
ACMWELDSTANDARDDIN
  2
AcmWeldingStdDIN
  3
"Amdt_StdImp|Product Description: AutoCAD Mechanical 2004 DX|Company: Autodesk"
 90
        0
280
     0
281
     0
  0
CLASS
  1
ACMIDSTANDARDDIN
  2
AcmIdStdDIN
  3
"Amdt_StdImp|Product Description: AutoCAD Mechanical 2004 DX|Company: Autodesk"
 90
        0
280
     0
281
     0
  0
CLASS
  1
ACMDATUMSTANDARDDIN
  2
AcmDatumStdDIN
  3
"Amdt_StdImp|Product Description: AutoCAD Mechanical 2004 DX|Company: Autodesk"
 90
        0
280
     0
281
     0
  0
CLASS
  1
ACMBOMSTANDARDDIN
  2
AcmBOMStdDIN
  3
"Amdt_StdImp|Product Description: AutoCAD Mechanical 2004 DX|Company: Autodesk"
 90
        0
280
     0
281
     0
  0
CLASS
  1
ACMDETAILSTANDARDDIN
  2
AmdtDetailSymStdDIN
  3
"Amdt_StdImp|Product Description: AutoCAD Mechanical 2004 DX|Company: Autodesk"
 90
        0
280
     0
281
     0
  0
CLASS
  1
ACMSECTIONSTANDARDDIN
  2
AmdtSectionSymStdDIN
  3
"Amdt_StdImp|Product Description: AutoCAD Mechanical 2004 DX|Company: Autodesk"
 90
        0
280
     0
281
     0
  0
CLASS
  1
ACMCENTERLINESTANDARDDIN
  2
AmdtCenterLineStdDIN
  3
"Amdt_StdImp|Product Description: AutoCAD Mechanical 2004 DX|Company: Autodesk"
 90
        0
280
     0
281
     0
  0
CLASS
  1
ACMTHREADLINESTANDARDDIN
  2
AmdtThreadLineStdDIN
  3
"Amdt_StdImp|Product Description: AutoCAD Mechanical 2004 DX|Company: Autodesk"
 90
        0
280
     0
281
     0
  0
CLASS
  1
ACMNOTESTANDARDDIN
  2
AmdtNoteStdDIN
  3
"Amdt_StdImp|Product Description: AutoCAD Mechanical 2004 DX|Company: Autodesk"
 90
        0
280
     0
281
     0
  0
CLASS
  1
AMDTNOTETEMPLATEDB
  2
AmdtNoteTemplateDB
  3
AMDT_STDIMP_MODULE_NAME
 90
        0
280
     0
281
     0
  0
CLASS
  1
ACAMGLAYSTD
  2
AcAmgLayStd
  3
"AcAmgLayStd|Product Description: AutoCAD Mechanical 2000|Company: Autodesk"
 90
        0
280
     0
281
     0
  0
CLASS
  1
ACAMGDIMSTD
  2
AcAmgDimStd
  3
"AcAmgDimStd|Product Description: AutoCAD Mechanical 2000|Company: Autodesk"
 90
        0
280
     0
281
     0
  0
CLASS
  1
ACAMGHOLECHARTSTDDIN
  2
AcAmgHoleChartStdDIN
  3
ACMSYMBB_MODULE_NAME
 90
        0
280
     0
281
     0
  0
CLASS
  1
ACAMGTITLESTD
  2
AcAmgTitleStd
  3
"TITLEAPP"
 90
        0
280
     0
281
     0
  0
CLASS
  1
ACAMGFILTERDAT
  2
AcAmgFilterDat
  3
"AcadM|Product Description: AutoCAD Mechanical 2000|Company: Autodesk"
 90
        0
280
     0
281
     0
  0
CLASS
  1
ACDBPLACEHOLDER
  2
AcDbPlaceHolder
  3
ObjectDBX Classes
 90
        0
280
     0
281
     0
  0
CLASS
  1
LAYOUT
  2
AcDbLayout
  3
ObjectDBX Classes
 90
        0
280
     0
281
     0
  0
ENDSEC
  0
SECTION
  2
TABLES
  0
TABLE
  2
VPORT
  5
1D3
330
0
100
AcDbSymbolTable
 70
     4
  0
VPORT
  5
C1E
330
1D3
100
AcDbSymbolTableRecord
100
AcDbViewportTableRecord
  2
*Active
 70
     0
 10
0.0
 20
0.0
 11
1.0
 21
1.0
 12
383.928682700415
 22
389.6965049727543
 13
0.0
 23
0.0
 14
5.0
 24
5.0
 15
50.0
 25
50.0
 16
0.0
 26
0.0
 36
1.0
 17
0.0
 27
0.0
 37
0.0
 40
697.0049320484008
 41
1.494545454545454
 42
50.0
 43
0.0
 44
0.0
 50
0.0
 51
0.0
 71
     0
 72
   100
 73
     1
 74
     1
 75
     0
 76
     0
 77
     0
 78
     0
281
     0
 65
     0
110
0.0
120
0.0
130
0.0
111
1.0
121
0.0
131
0.0
112
0.0
122
1.0
132
0.0
 79
     0
146
0.0
  0
ENDTAB
  0
TABLE
  2
LTYPE
  5
1D0
330
0
100
AcDbSymbolTable
 70
    21
  0
LTYPE
  5
1DC
330
1D0
100
AcDbSymbolTableRecord
100
AcDbLinetypeTableRecord
  2
BYBLOCK
 70
     0
  3

 72
    65
 73
     0
 40
0.0
  0
LTYPE
  5
1DD
330
1D0
100
AcDbSymbolTableRecord
100
AcDbLinetypeTableRecord
  2
BYLAYER
 70
     0
  3

 72
    65
 73
     0
 40
0.0
  0
LTYPE
  5
1DE
330
1D0
100
AcDbSymbolTableRecord
100
AcDbLinetypeTableRecord
  2
CONTINUOUS
 70
     0
  3
Solid line
 72
    65
 73
     0
 40
0.0
  0
LTYPE
  5
1F9
330
1D0
100
AcDbSymbolTableRecord
100
AcDbLinetypeTableRecord
  2
GEN7
 70
     0
  3
____ . ____ . ____ . ____ . ____ . ____ . ____
 72
    65
 73
     4
 40
13.75
 49
10.0
 74
     0
 49
-1.25
 74
     0
 49
1.25
 74
     0
 49
-1.25
 74
     0
  0
LTYPE
  5
442
330
1D0
100
AcDbSymbolTableRecord
100
AcDbLinetypeTableRecord
  2
GEN3A
 70
     0
  3
 - - - - -
 72
    65
 73
     2
 40
3.125
 49
2.25
 74
     0
 49
-0.875
 74
     0
  0
LTYPE
  5
B7D
330
1D0
100
AcDbSymbolTableRecord
100
AcDbLinetypeTableRecord
  2
HIDDEN
 70
     0
  3
Verdeckt
 72
    65
 73
     2
 40
9.525
 49
6.349999999999999
 74
     0
 49
-3.174999999999999
 74
     0
  0
LTYPE
  5
B7E
330
1D0
100
AcDbSymbolTableRecord
100
AcDbLinetypeTableRecord
  2
PHANTOM2
 70
     0
  3
Phantom (.5x) ___ _ _ ___ _ _ ___ _ _ ___ _ _
 72
    65
 73
     6
 40
31.75
 49
15.875
 74
     0
 49
-3.174999999999999
 74
     0
 49
3.174999999999999
 74
     0
 49
-3.174999999999999
 74
     0
 49
3.174999999999999
 74
     0
 49
-3.174999999999999
 74
     0
  0
LTYPE
  5
B7F
330
1D0
100
AcDbSymbolTableRecord
100
AcDbLinetypeTableRecord
  2
CENTER
 70
     0
  3
Mitte ____ _ ____ _ ____ _ ____ _ ____ _ ____
 72
    65
 73
     4
 40
50.8
 49
31.75
 74
     0
 49
-6.349999999999999
 74
     0
 49
6.349999999999999
 74
     0
 49
-6.349999999999999
 74
     0
  0
LTYPE
  5
BB3
330
1D0
100
AcDbSymbolTableRecord
100
AcDbLinetypeTableRecord
  2
AM_ISO02W050
 70
     0
  3
__ __ __ __ __ __ __ __ __ __ __ __ __ __ __
 72
    65
 73
     2
 40
7.5
 49
6.0
 74
     0
 49
-1.5
 74
     0
  0
LTYPE
  5
BB4
330
1D0
100
AcDbSymbolTableRecord
100
AcDbLinetypeTableRecord
  2
AM_ISO08W050
 70
     0
  3
____ . ____ . ____ . ____ . ____ . ____ . ____
 72
    65
 73
     4
 40
18.0
 49
12.0
 74
     0
 49
-1.5
 74
     0
 49
3.0
 74
     0
 49
-1.5
 74
     0
  0
LTYPE
  5
BB5
330
1D0
100
AcDbSymbolTableRecord
100
AcDbLinetypeTableRecord
  2
AM_ISO09W050
 70
     0
  3
_____ . . _____ . . _____ . . ____ .. ____
 72
    65
 73
     6
 40
22.5
 49
12.0
 74
     0
 49
-1.5
 74
     0
 49
3.0
 74
     0
 49
-1.5
 74
     0
 49
3.0
 74
     0
 49
-1.5
 74
     0
  0
LTYPE
  5
BB6
330
1D0
100
AcDbSymbolTableRecord
100
AcDbLinetypeTableRecord
  2
Amconstr
 70
     0
  3
_______________________
 72
    65
 73
     2
 40
9999.0
 49
9999.0
 74
     0
 49
0.0
 74
     0
  0
LTYPE
  5
BB7
330
1D0
100
AcDbSymbolTableRecord
100
AcDbLinetypeTableRecord
  2
AM_ISO08W050x2
 70
     0
  3
__ . __ . __ . __ . __ . __
 72
    65
 73
     4
 40
9.0
 49
6.0
 74
     0
 49
-0.75
 74
     0
 49
1.5
 74
     0
 49
-0.75
 74
     0
  0
LTYPE
  5
BB8
330
1D0
100
AcDbSymbolTableRecord
100
AcDbLinetypeTableRecord
  2
AM_ISO02W050x2
 70
     0
  3
 _ _ _ _ _ _ _ _ _ _ _ _
 72
    65
 73
     2
 40
3.75
 49
3.0
 74
     0
 49
-0.75
 74
     0
  0
LTYPE
  5
BBB
330
1D0
100
AcDbSymbolTableRecord
100
AcDbLinetypeTableRecord
  2
Amzigzag
 70
     0
  3
/\/-/\/-/\/-/\/-/\/-/\/
 72
    65
 73
     2
 40
11.0001
 49
0.0001
 74
     4
 75
   136
340
BBA
 46
0.04
 50
0.0
 44
0.0
 45
0.0
 49
-11.0
 74
     0
  0
LTYPE
  5
BBC
330
1D0
100
AcDbSymbolTableRecord
100
AcDbLinetypeTableRecord
  2
AM_DIN_F_W050
 70
     0
  3
__ __ __ __ __ __ __ __ __ __ __ __ __ __ __
 72
    65
 73
     2
 40
6.25
 49
4.75
 74
     0
 49
-1.5
 74
     0
  0
LTYPE
  5
BBD
330
1D0
100
AcDbSymbolTableRecord
100
AcDbLinetypeTableRecord
  2
AM_DIN_G_W050
 70
     0
  3
____ . ____ . ____ . ____ . ____ . ____ . ____
 72
    65
 73
     4
 40
13.75
 49
9.75
 74
     0
 49
-1.5
 74
     0
 49
1.0
 74
     0
 49
-1.5
 74
     0
  0
LTYPE
  5
BBE
330
1D0
100
AcDbSymbolTableRecord
100
AcDbLinetypeTableRecord
  2
AM_DIN_K_W050
 70
     0
  3
_____ . . _____ . . _____ . . ____ .. ____
 72
    65
 73
     6
 40
16.25
 49
9.75
 74
     0
 49
-1.5
 74
     0
 49
1.0
 74
     0
 49
-1.5
 74
     0
 49
1.0
 74
     0
 49
-1.5
 74
     0
  0
LTYPE
  5
BBF
330
1D0
100
AcDbSymbolTableRecord
100
AcDbLinetypeTableRecord
  2
AM_DIN_G_W050x2
 70
     0
  3
__ . __ . __ . __ . __ . __
 72
    65
 73
     4
 40
6.875
 49
4.75
 74
     0
 49
-0.875
 74
     0
 49
0.375
 74
     0
 49
-0.875
 74
     0
  0
LTYPE
  5
BC0
330
1D0
100
AcDbSymbolTableRecord
100
AcDbLinetypeTableRecord
  2
AM_DIN_F_W050x2
 70
     0
  3
 _ _ _ _ _ _ _ _ _ _ _ _
 72
    65
 73
     2
 40
3.125
 49
2.25
 74
     0
 49
-0.875
 74
     0
  0
LTYPE
  5
BCF
330
1D0
100
AcDbSymbolTableRecord
100
AcDbLinetypeTableRecord
  2
ACDINWELD
 70
     0
  3
_ _ _ _ _
 72
    65
 73
     2
 40
2.0
 49
2.0
 74
     0
 49
-1.0
 74
     0
  0
LTYPE
  5
BD0
330
1D0
100
AcDbSymbolTableRecord
100
AcDbLinetypeTableRecord
  2
ACDINTGB
 70
     0
  3
__ . . __ . .
 72
    65
 73
     6
 40
9.0
 49
4.0
 74
     0
 49
-1.0
 74
     0
 49
1.0
 74
     0
 49
-1.0
 74
     0
 49
1.0
 74
     0
 49
-1.0
 74
     0
  0
LTYPE
  5
BD1
330
1D0
100
AcDbSymbolTableRecord
100
AcDbLinetypeTableRecord
  2
ACDINTGL
 70
     0
  3
_ _ _ _ _
 72
    65
 73
     2
 40
3.0
 49
2.0
 74
     0
 49
-1.0
 74
     0
  0
ENDTAB
  0
TABLE
  2
LAYER
  5
1CD
330
0
100
AcDbSymbolTable
 70
    13
  0
LAYER
  5
1D9
330
1CD
100
AcDbSymbolTableRecord
100
AcDbLayerTableRecord
  2
0
 70
     0
 62
     7
  6
CONTINUOUS
370
    -3
390
B41
  0
LAYER
  5
20F
330
1CD
100
AcDbSymbolTableRecord
100
AcDbLayerTableRecord
  2
5
 70
     0
 62
     3
  6
CONTINUOUS
370
    -3
390
B41
  0
LAYER
  5
210
330
1CD
100
AcDbSymbolTableRecord
100
AcDbLayerTableRecord
  2
7
 70
     0
 62
     4
  6
GEN7
370
    -3
390
B41
  0
LAYER
  5
211
330
1CD
100
AcDbSymbolTableRecord
100
AcDbLayerTableRecord
  2
8
 70
     0
 62
     1
  6
CONTINUOUS
370
    -3
390
B41
  0
LAYER
  5
212
330
1CD
100
AcDbSymbolTableRecord
100
AcDbLayerTableRecord
  2
DEFPOINTS
 70
     0
 62
     7
  6
CONTINUOUS
290
     0
370
    -3
390
B41
  0
LAYER
  5
279
330
1CD
100
AcDbSymbolTableRecord
100
AcDbLayerTableRecord
  2
RAHM2
 70
     0
 62
     1
  6
CONTINUOUS
370
    -3
390
B41
  0
LAYER
  5
27A
330
1CD
100
AcDbSymbolTableRecord
100
AcDbLayerTableRecord
  2
RAHM3
 70
     0
 62
     2
  6
CONTINUOUS
370
    -3
390
B41
  0
LAYER
  5
373
330
1CD
100
AcDbSymbolTableRecord
100
AcDbLayerTableRecord
  2
SCHRAFFUR_RAND
 70
     1
 62
   -36
  6
CONTINUOUS
370
    -3
390
B41
  0
LAYER
  5
443
330
1CD
100
AcDbSymbolTableRecord
100
AcDbLayerTableRecord
  2
3A
 70
     0
 62
     6
  6
GEN3A
370
    -3
390
B41
  0
LAYER
  5
444
330
1CD
100
AcDbSymbolTableRecord
100
AcDbLayerTableRecord
  2
PUNKTE
 70
     0
 62
     1
  6
CONTINUOUS
370
    -3
390
B41
  0
LAYER
  5
B36
330
1CD
100
AcDbSymbolTableRecord
100
AcDbLayerTableRecord
  2
GEVACTIVE
 70
     0
 62
     2
  6
CONTINUOUS
370
    -3
390
B41
  0
LAYER
  5
B37
330
1CD
100
AcDbSymbolTableRecord
100
AcDbLayerTableRecord
  2
GEVINACTIVE
 70
     0
 62
     8
  6
CONTINUOUS
370
    -3
390
B41
  0
LAYER
  5
B38
330
1CD
100
AcDbSymbolTableRecord
100
AcDbLayerTableRecord
  2
VCCNULL
 70
     0
 62
    -5
  6
CONTINUOUS
370
    -3
390
B41
  0
ENDTAB
  0
TABLE
  2
STYLE
  5
1CE
330
0
100
AcDbSymbolTable
 70
     4
  0
STYLE
  5
1DA
330
1CE
100
AcDbSymbolTableRecord
100
AcDbTextStyleTableRecord
  2
STANDARD
 70
     0
 40
0.0
 41
1.0
 50
0.0
 71
     0
 42
2.5
  3
ISOCP.SHX
  4

  0
STYLE
  5
BBA
330
1CE
100
AcDbSymbolTableRecord
100
AcDbTextStyleTableRecord
  2

 70
     1
 40
0.0
 41
1.0
 50
0.0
 71
     0
 42
2.5
  3
genltshp.shx
  4

  0
STYLE
  5
BC1
330
1CE
100
AcDbSymbolTableRecord
100
AcDbTextStyleTableRecord
  2
ACDINTS
 70
     0
 40
1.0
 41
1.0
 50
0.0
 71
     0
 42
2.5
  3
isocp.shx
  4

  0
STYLE
  5
BCE
330
1CE
100
AcDbSymbolTableRecord
100
AcDbTextStyleTableRecord
  2
ACDINGDT
 70
     0
 40
0.0
 41
1.0
 50
0.0
 71
     0
 42
2.5
  3
AMGDT
  4

  0
ENDTAB
  0
TABLE
  2
VIEW
  5
1D1
330
0
100
AcDbSymbolTable
 70
     6
  0
VIEW
  5
2AC
330
1D1
100
AcDbSymbolTableRecord
100
AcDbViewTableRecord
  2
GEN1
 70
     0
 40
525.0
 10
394.960474
 20
787.5
 41
789.920949
 11
0.0
 21
0.0
 31
1.0
 12
0.0
 22
0.0
 32
0.0
 42
50.0
 43
0.0
 44
0.0
 50
0.0
 71
     0
281
     0
 72
     0
  0
VIEW
  5
2AD
330
1D1
100
AcDbSymbolTableRecord
100
AcDbViewTableRecord
  2
GEN2
 70
     0
 40
525.0
 10
655.039526
 20
787.5
 41
789.920949
 11
0.0
 21
0.0
 31
1.0
 12
0.0
 22
0.0
 32
0.0
 42
50.0
 43
0.0
 44
0.0
 50
0.0
 71
     0
281
     0
 72
     0
  0
VIEW
  5
2AE
330
1D1
100
AcDbSymbolTableRecord
100
AcDbViewTableRecord
  2
GEN3
 70
     0
 40
525.0
 10
394.960474
 20
262.5
 41
789.920949
 11
0.0
 21
0.0
 31
1.0
 12
0.0
 22
0.0
 32
0.0
 42
50.0
 43
0.0
 44
0.0
 50
0.0
 71
     0
281
     0
 72
     0
  0
VIEW
  5
2AF
330
1D1
100
AcDbSymbolTableRecord
100
AcDbViewTableRecord
  2
GEN4
 70
     0
 40
525.0
 10
655.039526
 20
262.5
 41
789.920949
 11
0.0
 21
0.0
 31
1.0
 12
0.0
 22
0.0
 32
0.0
 42
50.0
 43
0.0
 44
0.0
 50
0.0
 71
     0
281
     0
 72
     0
  0
VIEW
  5
2B0
330
1D1
100
AcDbSymbolTableRecord
100
AcDbViewTableRecord
  2
GEN5
 70
     0
 40
525.0
 10
525.0
 20
525.0
 41
789.920949
 11
0.0
 21
0.0
 31
1.0
 12
0.0
 22
0.0
 32
0.0
 42
50.0
 43
0.0
 44
0.0
 50
0.0
 71
     0
281
     0
 72
     0
  0
VIEW
  5
2B1
330
1D1
100
AcDbSymbolTableRecord
100
AcDbViewTableRecord
  2
GEN6
 70
     0
 40
1049.9895
 10
525.0
 20
525.0
 41
1579.826099
 11
0.0
 21
0.0
 31
1.0
 12
0.0
 22
0.0
 32
0.0
 42
50.0
 43
0.0
 44
0.0
 50
0.0
 71
     0
281
     0
 72
     0
  0
ENDTAB
  0
TABLE
  2
UCS
  5
1D2
330
0
100
AcDbSymbolTable
 70
     0
  0
ENDTAB
  0
TABLE
  2
APPID
  5
1D4
330
0
100
AcDbSymbolTable
 70
    43
  0
APPID
  5
1DB
330
1D4
100
AcDbSymbolTableRecord
100
AcDbRegAppTableRecord
  2
ACAD
 70
     0
  0
APPID
  5
1FB
330
1D4
100
AcDbSymbolTableRecord
100
AcDbRegAppTableRecord
  2
GENIUS_VERSION2
 70
     0
  0
APPID
  5
1FC
330
1D4
100
AcDbSymbolTableRecord
100
AcDbRegAppTableRecord
  2
GENIUS_GENOENT_13
 70
     0
  0
APPID
  5
1FD
330
1D4
100
AcDbSymbolTableRecord
100
AcDbRegAppTableRecord
  2
GENIUS_GENOBJ_13
 70
     0
  0
APPID
  5
1FE
330
1D4
100
AcDbSymbolTableRecord
100
AcDbRegAppTableRecord
  2
GENIUS_GENODEF_13
 70
     0
  0
APPID
  5
1FF
330
1D4
100
AcDbSymbolTableRecord
100
AcDbRegAppTableRecord
  2
GENIUS_GENOLIS_13
 70
     0
  0
APPID
  5
200
330
1D4
100
AcDbSymbolTableRecord
100
AcDbRegAppTableRecord
  2
GENIUS_GENOREF_13
 70
     0
  0
APPID
  5
201
330
1D4
100
AcDbSymbolTableRecord
100
AcDbRegAppTableRecord
  2
GENIUS_GENOBJ-N-TIT_13
 70
     0
  0
APPID
  5
202
330
1D4
100
AcDbSymbolTableRecord
100
AcDbRegAppTableRecord
  2
GENIUS_GENTITLE_13
 70
     0
  0
APPID
  5
203
330
1D4
100
AcDbSymbolTableRecord
100
AcDbRegAppTableRecord
  2
GENIUS_GENZVEED_13
 70
     0
  0
APPID
  5
204
330
1D4
100
AcDbSymbolTableRecord
100
AcDbRegAppTableRecord
  2
GENIUS_GENOBJ-N-CEN_13
 70
     0
  0
APPID
  5
205
330
1D4
100
AcDbSymbolTableRecord
100
AcDbRegAppTableRecord
  2
GENIUS_GENOBJ-N-HTC_13
 70
     0
  0
APPID
  5
206
330
1D4
100
AcDbSymbolTableRecord
100
AcDbRegAppTableRecord
  2
GENIUS_GENHATCH_13
 70
     0
  0
APPID
  5
207
330
1D4
100
AcDbSymbolTableRecord
100
AcDbRegAppTableRecord
  2
GENIUS_GENDTOL_13
 70
     0
  0
APPID
  5
208
330
1D4
100
AcDbSymbolTableRecord
100
AcDbRegAppTableRecord
  2
GENIUS_GENREC_13
 70
     0
  0
APPID
  5
209
330
1D4
100
AcDbSymbolTableRecord
100
AcDbRegAppTableRecord
  2
GENIUS_GENOBJ-N-REC_13
 70
     0
  0
APPID
  5
20A
330
1D4
100
AcDbSymbolTableRecord
100
AcDbRegAppTableRecord
  2
GENIUS_GENOBJ-N-CRS_13
 70
     0
  0
APPID
  5
21D
330
1D4
100
AcDbSymbolTableRecord
100
AcDbRegAppTableRecord
  2
GENIUS_GENCFG_13
 70
     0
1001
GENIUS_GENCFG0_13
1000
GEN@INFO_POS@XLATE
1001
GENIUS_GENCFG1_13
1000
GEN@INFO_POS
1001
GENIUS_GENCFG2_13
1000
GEN@LAYER@DEFS
1001
GENIUS_GENCFG3_13
1000
GEN@LAYER@ENTSORT
1001
GENIUS_GENCFG4_13
1000
GEN
1001
GENIUS_GEVCFG0_13
1000
GEV
1001
GENIUS_DUMCFG0_13
1000
DUM
  0
APPID
  5
21E
330
1D4
100
AcDbSymbolTableRecord
100
AcDbRegAppTableRecord
  2
GENIUS_DUMCFG0_13
 70
     0
1001
GENIUS_GENCFG_13
1071
928129545
1000
21E
1000
DUM
1070
     0
  0
APPID
  5
21F
330
1D4
100
AcDbSymbolTableRecord
100
AcDbRegAppTableRecord
  2
GENIUS_GENCFG0_13
 70
     0
1001
GENIUS_GENCFG_13
1071
1021306172
1000
21F
1000
GEN@INFO_POS@XLATE
1070
     7
1000
GenCfgObject
1000
GenCfgShort
1000
GenCfgReal
1000
GenCfgBool
1000
GenCfgString
1000
GenCfgDim
1000
GenCfgAttrInf
1000
INFOPOINTS
1070
     0
1002
{
1000
GENINF14
1070
     0
1002
{
1000
2GENINF
1070
     4
1000
2
1002
{
1002
}
1000
5GENINF
1070
     4
1000
5
1002
{
1002
}
1000
7GENINF
1070
     4
1000
7
1002
{
1002
}
1000
9GENINF
1070
     4
1000
9
1002
{
1002
}
1000
11GENINF
1070
     4
1000
11
1002
{
1002
}
1000
14GENINF
1070
     4
1000
14
1002
{
1002
}
1002
}
1000
GENINF13
1070
     0
1002
{
1000
2GENINF
1070
     4
1000
2
1002
{
1002
}
1000
3GENINF
1070
     4
1000
3
1002
{
1002
}
1000
4GENINF
1070
     4
1000
4
1002
{
1002
}
1000
5GENINF
1070
     4
1000
5
1002
{
1002
}
1000
6GENINF
1070
     4
1000
6
1002
{
1002
}
1000
7GENINF
1070
     4
1000
7
1002
{
1002
}
1000
8GENINF
1070
     4
1000
8
1002
{
1002
}
1000
9GENINF
1070
     4
1000
9
1002
{
1002
}
1000
10GENINF
1070
     4
1000
10
1002
{
1002
}
1000
11GENINF
1070
     4
1000
11
1002
{
1002
}
1000
12GENINF
1070
     4
1000
12
1002
{
1002
}
1000
13GENINF
1070
     4
1000
13
1002
{
1002
}
1000
14GENINF
1070
     4
1000
14
1002
{
1002
}
1000
15GENINF
1070
     4
1000
15
1002
{
1002
}
1000
16GENINF
1070
     4
1000
16
1002
{
1002
}
1000
17GENINF
1070
     4
1000
17
1002
{
1002
}
1000
18GENINF
1070
     4
1000
18
1002
{
1002
}
1000
19GENINF
1070
     4
1000
19
1002
{
1002
}
1000
20GENINF
1070
     4
1000
20
1002
{
1002
}
1000
21GENINF
1070
     4
1000
21
1002
{
1002
}
1000
22GENINF
1070
     4
1000
22
1002
{
1002
}
1000
23GENINF
1070
     4
1000
23
1002
{
1002
}
1000
24GENINF
1070
     4
1000
24
1002
{
1002
}
1000
0GENINF
1070
     4
1000
0
1002
{
1002
}
1002
}
1000
GENINFO
1070
     0
1002
{
1000
3GENINF
1070
     4
1000
3
1002
{
1002
}
1000
4GENINF
1070
     4
1000
4
1002
{
1002
}
1000
5GENINF
1070
     4
1000
5
1002
{
1002
}
1000
6GENINF
1070
     4
1000
6
1002
{
1002
}
1000
7GENINF
1070
     4
1000
7
1002
{
1002
}
1000
8GENINF
1070
     4
1000
8
1002
{
1002
}
1000
9GENINF
1070
     4
1000
9
1002
{
1002
}
1000
10GENINF
1070
     4
1000
10
1002
{
1002
}
1000
11GENINF
1070
     4
1000
11
1002
{
1002
}
1000
12GENINF
1070
     4
1000
12
1002
{
1002
}
1000
13GENINF
1070
     4
1000
13
1002
{
1002
}
1000
14GENINF
1070
     4
1000
14
1002
{
1002
}
1000
15GENINF
1070
     4
1000
15
1002
{
1002
}
1000
16GENINF
1070
     4
1000
16
1002
{
1002
}
1000
17GENINF
1070
     4
1000
17
1002
{
1002
}
1000
18GENINF
1070
     4
1000
18
1002
{
1002
}
1000
19GENINF
1070
     4
1000
19
1002
{
1002
}
1000
20GENINF
1070
     4
1000
20
1002
{
1002
}
1000
21GENINF
1070
     4
1000
21
1002
{
1002
}
1000
22GENINF
1070
     4
1000
22
1002
{
1002
}
1002
}
1000
DININFO
1070
     0
1002
{
1000
ST-NAME1
1070
     4
1000
5
1002
{
1002
}
1000
ST-NAME2
1070
     4
1000
6
1002
{
1002
}
1000
ST-NORM1
1070
     4
1000
7
1002
{
1002
}
1000
ST-NORM2
1070
     4
1000
8
1002
{
1002
}
1000
ST-MAT1
1070
     4
1000
9
1002
{
1002
}
1000
ST-MAT2
1070
     4
1000
10
1002
{
1002
}
1002
}
1002
}
1000
POS_NUMBERS
1070
     0
1002
{
1000
GENPOS14
1070
     0
1002
{
1000
1GENPOS
1070
     4
1000
1
1002
{
1002
}
1000
2GENPOS
1070
     4
1000
2
1002
{
1002
}
1000
5GENPOS
1070
     4
1000
5
1002
{
1002
}
1000
7GENPOS
1070
     4
1000
7
1002
{
1002
}
1000
9GENPOS
1070
     4
1000
9
1002
{
1002
}
1000
11GENPOS
1070
     4
1000
11
1002
{
1002
}
1000
14GENPOS
1070
     4
1000
14
1002
{
1002
}
1002
}
1000
GENPOS13
1070
     0
1002
{
1000
1GENPOS
1070
     4
1000
1
1002
{
1002
}
1000
2GENPOS
1070
     4
1000
2
1002
{
1002
}
1000
3GENPOS
1070
     4
1000
3
1002
{
1002
}
1000
4GENPOS
1070
     4
1000
4
1002
{
1002
}
1000
5GENPOS
1070
     4
1000
5
1002
{
1002
}
1000
6GENPOS
1070
     4
1000
6
1002
{
1002
}
1000
7GENPOS
1070
     4
1000
7
1002
{
1002
}
1000
8GENPOS
1070
     4
1000
8
1002
{
1002
}
1000
9GENPOS
1070
     4
1000
9
1002
{
1002
}
1000
10GENPOS
1070
     4
1000
10
1002
{
1002
}
1000
11GENPOS
1070
     4
1000
11
1002
{
1002
}
1000
12GENPOS
1070
     4
1000
12
1002
{
1002
}
1000
13GENPOS
1070
     4
1000
13
1002
{
1002
}
1000
14GENPOS
1070
     4
1000
14
1002
{
1002
}
1000
15GENPOS
1070
     4
1000
15
1002
{
1002
}
1000
16GENPOS
1070
     4
1000
16
1002
{
1002
}
1000
17GENPOS
1070
     4
1000
17
1002
{
1002
}
1000
18GENPOS
1070
     4
1000
18
1002
{
1002
}
1000
19GENPOS
1070
     4
1000
19
1002
{
1002
}
1000
20GENPOS
1070
     4
1000
20
1002
{
1002
}
1000
21GENPOS
1070
     4
1000
21
1002
{
1002
}
1000
22GENPOS
1070
     4
1000
22
1002
{
1002
}
1000
23GENPOS
1070
     4
1000
23
1002
{
1002
}
1000
24GENPOS
1070
     4
1000
24
1002
{
1002
}
1000
0GENPOS
1070
     4
1000
0
1002
{
1002
}
1002
}
1000
GENPOS
1070
     0
1002
{
1000
1GENPOS
1070
     4
1000
1
1002
{
1002
}
1000
2GENPOS
1070
     4
1000
2
1002
{
1002
}
1000
3GENPOS
1070
     4
1000
3
1002
{
1002
}
1000
4GENPOS
1070
     4
1000
4
1002
{
1002
}
1000
5GENPOS
1070
     4
1000
5
1002
{
1002
}
1000
6GENPOS
1070
     4
1000
6
1002
{
1002
}
1000
7GENPOS
1070
     4
1000
7
1002
{
1002
}
1000
8GENPOS
1070
     4
1000
8
1002
{
1002
}
1000
9GENPOS
1070
     4
1000
9
1002
{
1002
}
1000
10GENPOS
1070
     4
1000
10
1002
{
1002
}
1000
11GENPOS
1070
     4
1000
11
1002
{
1002
}
1000
12GENPOS
1070
     4
1000
12
1002
{
1002
}
1000
13GENPOS
1070
     4
1000
13
1002
{
1002
}
1000
14GENPOS
1070
     4
1000
14
1002
{
1002
}
1000
15GENPOS
1070
     4
1000
15
1002
{
1002
}
1000
16GENPOS
1070
     4
1000
16
1002
{
1002
}
1000
17GENPOS
1070
     4
1000
17
1002
{
1002
}
1000
18GENPOS
1070
     4
1000
18
1002
{
1002
}
1000
19GENPOS
1070
     4
1000
19
1002
{
1002
}
1000
20GENPOS
1070
     4
1000
20
1002
{
1002
}
1000
21GENPOS
1070
     4
1000
21
1002
{
1002
}
1000
22GENPOS
1070
     4
1000
22
1002
{
1002
}
1000
23GENPOS
1070
     4
1000
23
1002
{
1002
}
1002
}
1000
DIN985
1070
     0
1002
{
1000
POSITION
1070
     4
1000
1
1002
{
1002
}
1000
MENGE
1070
     4
1000
2
1002
{
1002
}
1000
BLATT
1070
     4
1000
3
1002
{
1002
}
1000
BENENN
1070
     4
1000
5
1002
{
1002
}
1000
BENENN2
1070
     4
1000
6
1002
{
1002
}
1000
NORM
1070
     4
1000
7
1002
{
1002
}
1000
NORM2
1070
     4
1000
8
1002
{
1002
}
1000
WERKSTOFF
1070
     4
1000
9
1002
{
1002
}
1000
WERKSTOFF2
1070
     4
1000
10
1002
{
1002
}
1002
}
1000
DIN986
1070
     0
1002
{
1000
POSITION
1070
     4
1000
1
1002
{
1002
}
1000
MENGE
1070
     4
1000
2
1002
{
1002
}
1000
BLATT
1070
     4
1000
3
1002
{
1002
}
1000
BENENN
1070
     4
1000
5
1002
{
1002
}
1000
BENENN2
1070
     4
1000
6
1002
{
1002
}
1000
NORM
1070
     4
1000
7
1002
{
1002
}
1000
NORM2
1070
     4
1000
8
1002
{
1002
}
1000
WERKSTOFF
1070
     4
1000
9
1002
{
1002
}
1000
WERKSTOFF2
1070
     4
1000
10
1002
{
1002
}
1002
}
1000
DIN987
1070
     0
1002
{
1000
POSITION
1070
     4
1000
1
1002
{
1002
}
1000
MENGE
1070
     4
1000
2
1002
{
1002
}
1000
BLATT
1070
     4
1000
3
1002
{
1002
}
1000
BENENN
1070
     4
1000
5
1002
{
1002
}
1000
BENENN2
1070
     4
1000
6
1002
{
1002
}
1000
NORM
1070
     4
1000
7
1002
{
1002
}
1000
NORM2
1070
     4
1000
8
1002
{
1002
}
1000
WERKSTOFF
1070
     4
1000
9
1002
{
1002
}
1000
WERKSTOFF2
1070
     4
1000
10
1002
{
1002
}
1002
}
1002
}
  0
APPID
  5
220
330
1D4
100
AcDbSymbolTableRecord
100
AcDbRegAppTableRecord
  2
GENIUS_GENCFG1_13
 70
     0
1001
GENIUS_GENCFG_13
1071
1021306172
1000
220
1000
GEN@INFO_POS
1070
     7
1000
GenCfgObject
1000
GenCfgShort
1000
GenCfgReal
1000
GenCfgBool
1000
GenCfgString
1000
GenCfgDim
1000
GenCfgAttrInf
1000
DescrText
1070
     4
1000
5, ,6, ,7, ,8
1002
{
1002
}
1000
DescrText2
1070
     4
1000
26
1002
{
1002
}
1000
VisibleAttr1
1070
     4
1000
1
1002
{
1002
}
1000
VisibleAttr2
1070
     4
1000
26
1002
{
1002
}
1000
UpdateBlock
1070
     3
1070
     1
1002
{
1002
}
1000
Attrib
1070
     0
1002
{
1000
0
1070
     6
1002
{
1000
Prompt
1070
     4
1000
(genmsg gendwg 103)
1002
{
1002
}
1000
Value
1070
     4
1000

1002
{
1002
}
1000
EditFlag
1070
     1
1070
     0
1002
{
1002
}
1000
PosInDDATTE
1070
     1
1070
    27
1002
{
1002
}
1000
FieldLen
1070
     1
1070
    -1
1002
{
1002
}
1002
}
1000
1
1070
     6
1002
{
1000
Prompt
1070
     4
1000
(genmsg gendwg 31)
1002
{
1002
}
1000
Value
1070
     4
1000
1
1002
{
1002
}
1000
EditFlag
1070
     1
1070
     1
1002
{
1002
}
1000
PosInDDATTE
1070
     1
1070
     1
1002
{
1002
}
1000
FieldLen
1070
     1
1070
    -1
1002
{
1002
}
1002
}
1000
2
1070
     6
1002
{
1000
Prompt
1070
     4
1000
(genmsg gendwg 32)
1002
{
1002
}
1000
Value
1070
     4
1000
1
1002
{
1002
}
1000
EditFlag
1070
     1
1070
     1
1002
{
1002
}
1000
PosInDDATTE
1070
     1
1070
     2
1002
{
1002
}
1000
FieldLen
1070
     1
1070
    -1
1002
{
1002
}
1002
}
1000
3
1070
     6
1002
{
1000
Prompt
1070
     4
1000
(genmsg gendwg 33)
1002
{
1002
}
1000
Value
1070
     4
1000

1002
{
1002
}
1000
EditFlag
1070
     1
1070
     1
1002
{
1002
}
1000
PosInDDATTE
1070
     1
1070
     3
1002
{
1002
}
1000
FieldLen
1070
     1
1070
    -1
1002
{
1002
}
1002
}
1000
4
1070
     6
1002
{
1000
Prompt
1070
     4
1000
(genmsg gendwg 34)
1002
{
1002
}
1000
Value
1070
     4
1000

1002
{
1002
}
1000
EditFlag
1070
     1
1070
     1
1002
{
1002
}
1000
PosInDDATTE
1070
     1
1070
     4
1002
{
1002
}
1000
FieldLen
1070
     1
1070
    -1
1002
{
1002
}
1002
}
1000
5
1070
     6
1002
{
1000
Prompt
1070
     4
1000
(genmsg gendwg 35)
1002
{
1002
}
1000
Value
1070
     4
1000

1002
{
1002
}
1000
EditFlag
1070
     1
1070
     1
1002
{
1002
}
1000
PosInDDATTE
1070
     1
1070
     5
1002
{
1002
}
1000
FieldLen
1070
     1
1070
    -1
1002
{
1002
}
1002
}
1000
6
1070
     6
1002
{
1000
Prompt
1070
     4
1000
(genmsg gendwg 36)
1002
{
1002
}
1000
Value
1070
     4
1000

1002
{
1002
}
1000
EditFlag
1070
     1
1070
     1
1002
{
1002
}
1000
PosInDDATTE
1070
     1
1070
     6
1002
{
1002
}
1000
FieldLen
1070
     1
1070
    -1
1002
{
1002
}
1002
}
1000
7
1070
     6
1002
{
1000
Prompt
1070
     4
1000
(genmsg gendwg 37)
1002
{
1002
}
1000
Value
1070
     4
1000

1002
{
1002
}
1000
EditFlag
1070
     1
1070
     1
1002
{
1002
}
1000
PosInDDATTE
1070
     1
1070
     7
1002
{
1002
}
1000
FieldLen
1070
     1
1070
    -1
1002
{
1002
}
1002
}
1000
8
1070
     6
1002
{
1000
Prompt
1070
     4
1000
(genmsg gendwg 38)
1002
{
1002
}
1000
Value
1070
     4
1000

1002
{
1002
}
1000
EditFlag
1070
     1
1070
     1
1002
{
1002
}
1000
PosInDDATTE
1070
     1
1070
     8
1002
{
1002
}
1000
FieldLen
1070
     1
1070
    -1
1002
{
1002
}
1002
}
1000
9
1070
     6
1002
{
1000
Prompt
1070
     4
1000
(genmsg gendwg 39)
1002
{
1002
}
1000
Value
1070
     4
1000

1002
{
1002
}
1000
EditFlag
1070
     1
1070
     1
1002
{
1002
}
1000
PosInDDATTE
1070
     1
1070
     9
1002
{
1002
}
1000
FieldLen
1070
     1
1070
    -1
1002
{
1002
}
1002
}
1000
10
1070
     6
1002
{
1000
Prompt
1070
     4
1000
(genmsg gendwg 40)
1002
{
1002
}
1000
Value
1070
     4
1000

1002
{
1002
}
1000
EditFlag
1070
     1
1070
     1
1002
{
1002
}
1000
PosInDDATTE
1070
     1
1070
    10
1002
{
1002
}
1000
FieldLen
1070
     1
1070
    -1
1002
{
1002
}
1002
}
1000
11
1070
     6
1002
{
1000
Prompt
1070
     4
1000
(genmsg gendwg 41)
1002
{
1002
}
1000
Value
1070
     4
1000

1002
{
1002
}
1000
EditFlag
1070
     1
1070
     1
1002
{
1002
}
1000
PosInDDATTE
1070
     1
1070
    11
1002
{
1002
}
1000
FieldLen
1070
     1
1070
    -1
1002
{
1002
}
1002
}
1000
12
1070
     6
1002
{
1000
Prompt
1070
     4
1000
(genmsg gendwg 42)
1002
{
1002
}
1000
Value
1070
     4
1000

1002
{
1002
}
1000
EditFlag
1070
     1
1070
     1
1002
{
1002
}
1000
PosInDDATTE
1070
     1
1070
    12
1002
{
1002
}
1000
FieldLen
1070
     1
1070
    -1
1002
{
1002
}
1002
}
1000
13
1070
     6
1002
{
1000
Prompt
1070
     4
1000
(genmsg gendwg 43)
1002
{
1002
}
1000
Value
1070
     4
1000

1002
{
1002
}
1000
EditFlag
1070
     1
1070
     1
1002
{
1002
}
1000
PosInDDATTE
1070
     1
1070
    13
1002
{
1002
}
1000
FieldLen
1070
     1
1070
    -1
1002
{
1002
}
1002
}
1000
14
1070
     6
1002
{
1000
Prompt
1070
     4
1000
(genmsg gendwg 44)
1002
{
1002
}
1000
Value
1070
     4
1000

1002
{
1002
}
1000
EditFlag
1070
     1
1070
     1
1002
{
1002
}
1000
PosInDDATTE
1070
     1
1070
    14
1002
{
1002
}
1000
FieldLen
1070
     1
1070
    -1
1002
{
1002
}
1002
}
1000
15
1070
     6
1002
{
1000
Prompt
1070
     4
1000
(genmsg gendwg 45)
1002
{
1002
}
1000
Value
1070
     4
1000

1002
{
1002
}
1000
EditFlag
1070
     1
1070
     1
1002
{
1002
}
1000
PosInDDATTE
1070
     1
1070
    15
1002
{
1002
}
1000
FieldLen
1070
     1
1070
    -1
1002
{
1002
}
1002
}
1000
16
1070
     6
1002
{
1000
Prompt
1070
     4
1000
(genmsg gendwg 46)
1002
{
1002
}
1000
Value
1070
     4
1000

1002
{
1002
}
1000
EditFlag
1070
     1
1070
     1
1002
{
1002
}
1000
PosInDDATTE
1070
     1
1070
    16
1002
{
1002
}
1000
FieldLen
1070
     1
1070
    -1
1002
{
1002
}
1002
}
1000
17
1070
     6
1002
{
1000
Prompt
1070
     4
1000
(genmsg gendwg 47)
1002
{
1002
}
1000
Value
1070
     4
1000

1002
{
1002
}
1000
EditFlag
1070
     1
1070
     1
1002
{
1002
}
1000
PosInDDATTE
1070
     1
1070
    17
1002
{
1002
}
1000
FieldLen
1070
     1
1070
    -1
1002
{
1002
}
1002
}
1000
18
1070
     6
1002
{
1000
Prompt
1070
     4
1000
(genmsg gendwg 48)
1002
{
1002
}
1000
Value
1070
     4
1000

1002
{
1002
}
1000
EditFlag
1070
     1
1070
     1
1002
{
1002
}
1000
PosInDDATTE
1070
     1
1070
    18
1002
{
1002
}
1000
FieldLen
1070
     1
1070
    -1
1002
{
1002
}
1002
}
1000
19
1070
     6
1002
{
1000
Prompt
1070
     4
1000
(genmsg gendwg 99)
1002
{
1002
}
1000
Value
1070
     4
1000

1002
{
1002
}
1000
EditFlag
1070
     1
1070
     1
1002
{
1002
}
1000
PosInDDATTE
1070
     1
1070
    19
1002
{
1002
}
1000
FieldLen
1070
     1
1070
    -1
1002
{
1002
}
1002
}
1000
20
1070
     6
1002
{
1000
Prompt
1070
     4
1000
(genmsg gendwg 100)
1002
{
1002
}
1000
Value
1070
     4
1000

1002
{
1002
}
1000
EditFlag
1070
     1
1070
     1
1002
{
1002
}
1000
PosInDDATTE
1070
     1
1070
    20
1002
{
1002
}
1000
FieldLen
1070
     1
1070
    -1
1002
{
1002
}
1002
}
1000
21
1070
     6
1002
{
1000
Prompt
1070
     4
1000
(genmsg gendwg 101)
1002
{
1002
}
1000
Value
1070
     4
1000

1002
{
1002
}
1000
EditFlag
1070
     1
1070
     1
1002
{
1002
}
1000
PosInDDATTE
1070
     1
1070
    21
1002
{
1002
}
1000
FieldLen
1070
     1
1070
    -1
1002
{
1002
}
1002
}
1000
22
1070
     6
1002
{
1000
Prompt
1070
     4
1000
(genmsg gendwg 102)
1002
{
1002
}
1000
Value
1070
     4
1000

1002
{
1002
}
1000
EditFlag
1070
     1
1070
     1
1002
{
1002
}
1000
PosInDDATTE
1070
     1
1070
    22
1002
{
1002
}
1000
FieldLen
1070
     1
1070
    -1
1002
{
1002
}
1002
}
1000
23
1070
     6
1002
{
1000
Prompt
1070
     4
1000
(genmsg gendwg 30)
1002
{
1002
}
1000
Value
1070
     4
1000

1002
{
1002
}
1000
EditFlag
1070
     1
1070
     1
1002
{
1002
}
1000
PosInDDATTE
1070
     1
1070
    23
1002
{
1002
}
1000
FieldLen
1070
     1
1070
    -1
1002
{
1002
}
1002
}
1000
24
1070
     6
1002
{
1000
Prompt
1070
     4
1000
(genmsg gendwg 104)
1002
{
1002
}
1000
Value
1070
     4
1000

1002
{
1002
}
1000
EditFlag
1070
     1
1070
     1
1002
{
1002
}
1000
PosInDDATTE
1070
     1
1070
    24
1002
{
1002
}
1000
FieldLen
1070
     1
1070
    -1
1002
{
1002
}
1002
}
1000
25
1070
     6
1002
{
1000
Prompt
1070
     4
1000
(genmsg gendwg 105)
1002
{
1002
}
1000
Value
1070
     4
1000

1002
{
1002
}
1000
EditFlag
1070
     1
1070
     1
1002
{
1002
}
1000
PosInDDATTE
1070
     1
1070
    25
1002
{
1002
}
1000
FieldLen
1070
     1
1070
    -1
1002
{
1002
}
1002
}
1000
26
1070
     6
1002
{
1000
Prompt
1070
     4
1000
(genmsg gendwg 106)
1002
{
1002
}
1000
Value
1070
     4
1000

1002
{
1002
}
1000
EditFlag
1070
     1
1070
     1
1002
{
1002
}
1000
PosInDDATTE
1070
     1
1070
    26
1002
{
1002
}
1000
FieldLen
1070
     1
1070
    -1
1002
{
1002
}
1002
}
1000
27
1070
     6
1002
{
1000
Prompt
1070
     4
1000
(genmsg gendwg 109)
1002
{
1002
}
1000
Value
1070
     4
1000

1002
{
1002
}
1000
EditFlag
1070
     1
1070
     2
1002
{
1002
}
1000
PosInDDATTE
1070
     1
1070
    27
1002
{
1002
}
1000
FieldLen
1070
     1
1070
    -1
1002
{
1002
}
1002
}
1002
}
1000
Xlate
1070
     0
1002
{
1000
>
1002
}
  0
APPID
  5
221
330
1D4
100
AcDbSymbolTableRecord
100
AcDbRegAppTableRecord
  2
GENIUS_GENCFG2_13
 70
     0
1001
GENIUS_GENCFG_13
1071
1021306172
1000
221
1000
GEN@LAYER@DEFS
1070
     9
1000
GenCfgObject
1000
GenCfgShort
1000
GenCfgReal
1000
GenCfgBool
1000
GenCfgString
1000
GenCfgDim
1000
GenCfgAttrInf
1000
GenCfgLaySection
1000
GenCfgLayer
1000
Basic
1070
     0
1002
{
1000
0
1070
     8
1000
0
1002
{
1000
Color
1070
     1
1070
     7
1002
{
1002
}
1000
LType
1070
     4
1000
CONTINUOUS
1002
{
1002
}
1000
Base
1070
     3
1070
     0
1002
{
1002
}
1002
}
1000
1
1070
     8
1000
1
1002
{
1000
Color
1070
     1
1070
    14
1002
{
1002
}
1000
LType
1070
     4
1000
CONTINUOUS
1002
{
1002
}
1000
Base
1070
     3
1070
     0
1002
{
1002
}
1002
}
1000
2
1070
     8
1000
2
1002
{
1000
Color
1070
     1
1070
     5
1002
{
1002
}
1000
LType
1070
     4
1000
CONTINUOUS
1002
{
1002
}
1000
Base
1070
     3
1070
     0
1002
{
1002
}
1002
}
1000
3
1070
     8
1000
3
1002
{
1000
Color
1070
     1
1070
     6
1002
{
1002
}
1000
LType
1070
     4
1000
GEN3
1002
{
1002
}
1000
Base
1070
     3
1070
     0
1002
{
1002
}
1002
}
1000
4
1070
     8
1000
4
1002
{
1000
Color
1070
     1
1070
     3
1002
{
1002
}
1000
LType
1070
     4
1000
CONTINUOUS
1002
{
1002
}
1000
Base
1070
     3
1070
     0
1002
{
1002
}
1002
}
1000
5
1070
     8
1000
5
1002
{
1000
Color
1070
     1
1070
     3
1002
{
1002
}
1000
LType
1070
     4
1000
CONTINUOUS
1002
{
1002
}
1000
Base
1070
     3
1070
     0
1002
{
1002
}
1002
}
1000
6
1070
     8
1000
6
1002
{
1000
Color
1070
     1
1070
     2
1002
{
1002
}
1000
LType
1070
     4
1000
CONTINUOUS
1002
{
1002
}
1000
Base
1070
     3
1070
     0
1002
{
1002
}
1002
}
1000
7
1070
     8
1000
7
1002
{
1000
Color
1070
     1
1070
     4
1002
{
1002
}
1000
LType
1070
     4
1000
GEN7
1002
{
1002
}
1000
Base
1070
     3
1070
     0
1002
{
1002
}
1002
}
1000
8
1070
     8
1000
8
1002
{
1000
Color
1070
     1
1070
     1
1002
{
1002
}
1000
LType
1070
     4
1000
CONTINUOUS
1002
{
1002
}
1000
Base
1070
     3
1070
     0
1002
{
1002
}
1002
}
1000
3A
1070
     8
1000
3A
1002
{
1000
Color
1070
     1
1070
     6
1002
{
1002
}
1000
LType
1070
     4
1000
GEN3A
1002
{
1002
}
1000
Base
1070
     3
1070
     0
1002
{
1002
}
1002
}
1000
7A
1070
     8
1000
7A
1002
{
1000
Color
1070
     1
1070
     4
1002
{
1002
}
1000
LType
1070
     4
1000
GEN7A
1002
{
1002
}
1000
Base
1070
     3
1070
     0
1002
{
1002
}
1002
}
1000
2A
1070
     8
1000
2A
1002
{
1000
Color
1070
     1
1070
     7
1002
{
1002
}
1000
LType
1070
     4
1000
GEN7
1002
{
1002
}
1000
Base
1070
     3
1070
     0
1002
{
1002
}
1002
}
1000
4A
1070
     8
1000
4A
1002
{
1000
Color
1070
     1
1070
     3
1002
{
1002
}
1000
LType
1070
     4
1000
GEN4A
1002
{
1002
}
1000
Base
1070
     3
1070
     0
1002
{
1002
}
1002
}
1000
9
1070
     8
1000
9
1002
{
1000
Color
1070
     1
1070
   253
1002
{
1002
}
1000
LType
1070
     4
1000
CONTINUOUS
1002
{
1002
}
1000
Base
1070
     3
1070
     0
1002
{
1002
}
1002
}
1000
IP
1070
     8
1000
IP
1002
{
1000
Color
1070
     1
1070
     7
1002
{
1002
}
1000
LType
1070
     4
1000
CONTINUOUS
1002
{
1002
}
1000
Base
1070
     3
1070
     0
1002
{
1002
}
1002
}
1002
}
1000
Standard
1070
     0
1002
{
1000
0N
1070
     8
1000
0N
1002
{
1000
Color
1070
     1
1070
     7
1002
{
1002
}
1000
LType
1070
     4
1000
CONTINUOUS
1002
{
1002
}
1000
Base
1070
     3
1070
     0
1002
{
1002
}
1002
}
1000
1N
1070
     8
1000
1N
1002
{
1000
Color
1070
     1
1070
    14
1002
{
1002
}
1000
LType
1070
     4
1000
CONTINUOUS
1002
{
1002
}
1000
Base
1070
     3
1070
     0
1002
{
1002
}
1002
}
1000
2N
1070
     8
1000
2N
1002
{
1000
Color
1070
     1
1070
     5
1002
{
1002
}
1000
LType
1070
     4
1000
CONTINUOUS
1002
{
1002
}
1000
Base
1070
     3
1070
     0
1002
{
1002
}
1002
}
1000
3N
1070
     8
1000
3N
1002
{
1000
Color
1070
     1
1070
     6
1002
{
1002
}
1000
LType
1070
     4
1000
GEN3
1002
{
1002
}
1000
Base
1070
     3
1070
     0
1002
{
1002
}
1002
}
1000
4N
1070
     8
1000
4N
1002
{
1000
Color
1070
     1
1070
     3
1002
{
1002
}
1000
LType
1070
     4
1000
CONTINUOUS
1002
{
1002
}
1000
Base
1070
     3
1070
     0
1002
{
1002
}
1002
}
1000
5N
1070
     8
1000
5N
1002
{
1000
Color
1070
     1
1070
     3
1002
{
1002
}
1000
LType
1070
     4
1000
CONTINUOUS
1002
{
1002
}
1000
Base
1070
     3
1070
     0
1002
{
1002
}
1002
}
1000
6N
1070
     8
1000
6N
1002
{
1000
Color
1070
     1
1070
     2
1002
{
1002
}
1000
LType
1070
     4
1000
CONTINUOUS
1002
{
1002
}
1000
Base
1070
     3
1070
     0
1002
{
1002
}
1002
}
1000
7N
1070
     8
1000
7N
1002
{
1000
Color
1070
     1
1070
     4
1002
{
1002
}
1000
LType
1070
     4
1000
GEN7
1002
{
1002
}
1000
Base
1070
     3
1070
     0
1002
{
1002
}
1002
}
1000
8N
1070
     8
1000
8N
1002
{
1000
Color
1070
     1
1070
     1
1002
{
1002
}
1000
LType
1070
     4
1000
CONTINUOUS
1002
{
1002
}
1000
Base
1070
     3
1070
     0
1002
{
1002
}
1002
}
1000
3AN
1070
     8
1000
3AN
1002
{
1000
Color
1070
     1
1070
     6
1002
{
1002
}
1000
LType
1070
     4
1000
GEN3A
1002
{
1002
}
1000
Base
1070
     3
1070
     0
1002
{
1002
}
1002
}
1000
7AN
1070
     8
1000
7AN
1002
{
1000
Color
1070
     1
1070
     4
1002
{
1002
}
1000
LType
1070
     4
1000
GEN7A
1002
{
1002
}
1000
Base
1070
     3
1070
     0
1002
{
1002
}
1002
}
1000
2AN
1070
     8
1000
2AN
1002
{
1000
Color
1070
     1
1070
     7
1002
{
1002
}
1000
LType
1070
     4
1000
GEN7
1002
{
1002
}
1000
Base
1070
     3
1070
     0
1002
{
1002
}
1002
}
1000
4AN
1070
     8
1000
4AN
1002
{
1000
Color
1070
     1
1070
     3
1002
{
1002
}
1000
LType
1070
     4
1000
GEN4A
1002
{
1002
}
1000
Base
1070
     3
1070
     0
1002
{
1002
}
1002
}
1000
9N
1070
     8
1000
9N
1002
{
1000
Color
1070
     1
1070
   253
1002
{
1002
}
1000
LType
1070
     4
1000
CONTINUOUS
1002
{
1002
}
1000
Base
1070
     3
1070
     0
1002
{
1002
}
1002
}
1000
IPN
1070
     8
1000
IPN
1002
{
1000
Color
1070
     1
1070
     7
1002
{
1002
}
1000
LType
1070
     4
1000
CONTINUOUS
1002
{
1002
}
1000
Base
1070
     3
1070
     0
1002
{
1002
}
1002
}
1002
}
1000
Extra
1070
     0
1002
{
1000
Klin
1070
     8
1000
KLIN
1002
{
1000
Color
1070
     1
1070
     1
1002
{
1002
}
1000
LType
1070
     4
1000
CONTINUOUS
1002
{
1002
}
1000
Base
1070
     3
1070
     1
1002
{
1002
}
1002
}
1000
Info
1070
     8
1000
INFO
1002
{
1000
Color
1070
     1
1070
     4
1002
{
1002
}
1000
LType
1070
     4
1000
CONTINUOUS
1002
{
1002
}
1000
Base
1070
     3
1070
     1
1002
{
1002
}
1002
}
1000
Rahm2
1070
     8
1000
RAHM2
1002
{
1000
Color
1070
     1
1070
     1
1002
{
1002
}
1000
LType
1070
     4
1000
CONTINUOUS
1002
{
1002
}
1000
Base
1070
     3
1070
     1
1002
{
1002
}
1002
}
1000
Rahm3
1070
     8
1000
RAHM3
1002
{
1000
Color
1070
     1
1070
     2
1002
{
1002
}
1000
LType
1070
     4
1000
CONTINUOUS
1002
{
1002
}
1000
Base
1070
     3
1070
     1
1002
{
1002
}
1002
}
1000
Rahm5
1070
     8
1000
RAHM5
1002
{
1000
Color
1070
     1
1070
     7
1002
{
1002
}
1000
LType
1070
     4
1000
CONTINUOUS
1002
{
1002
}
1000
Base
1070
     3
1070
     1
1002
{
1002
}
1002
}
1000
View
1070
     8
1000
VIEW
1002
{
1000
Color
1070
     1
1070
     1
1002
{
1002
}
1000
LType
1070
     4
1000
CONTINUOUS
1002
{
1002
}
1000
Base
1070
     3
1070
     1
1002
{
1002
}
1002
}
1000
Behind
1070
     8
1000
BEHIND
1002
{
1000
Color
1070
     1
1070
   253
1002
{
1002
}
1000
LType
1070
     4
1000
CONTINUOUS
1002
{
1002
}
1000
Base
1070
     3
1070
     1
1002
{
1002
}
1002
}
1002
}
  0
APPID
  5
222
330
1D4
100
AcDbSymbolTableRecord
100
AcDbRegAppTableRecord
  2
GENIUS_GENCFG3_13
 70
     0
1001
GENIUS_GENCFG_13
1071
1021306172
1000
222
1000
GEN@LAYER@ENTSORT
1070
    10
1000
GenCfgObject
1000
GenCfgShort
1000
GenCfgReal
1000
GenCfgBool
1000
GenCfgString
1000
GenCfgDim
1000
GenCfgAttrInf
1000
GenCfgLaySection
1000
GenCfgLayer
1000
GenCfgEntSort
1000
ADDL
1070
     9
1000
5
1002
{
1000
Class
1070
     4
1000
SYM
1002
{
1002
}
1000
Color
1070
     1
1070
     1
1002
{
1002
}
1000
LType
1070
     4
1000
BYLAYER
1002
{
1002
}
1002
}
1000
ALTR
1070
     9
1000
4
1002
{
1000
Class
1070
     4
1000

1002
{
1002
}
1000
Color
1070
     1
1070
     7
1002
{
1002
}
1000
LType
1070
     4
1000
GEN3A
1002
{
1002
}
1002
}
1000
BELI
1070
     9
1000
4
1002
{
1000
Class
1070
     4
1000

1002
{
1002
}
1000
Color
1070
     1
1070
   256
1002
{
1002
}
1000
LType
1070
     4
1000
BYLAYER
1002
{
1002
}
1002
}
1000
BHNV
1070
     9
1000
9
1002
{
1000
Class
1070
     4
1000
INV
1002
{
1002
}
1000
Color
1070
     1
1070
   256
1002
{
1002
}
1000
LType
1070
     4
1000
BYLAYER
1002
{
1002
}
1002
}
1000
BHNVS
1070
     9
1000
BEHIND
1002
{
1000
Class
1070
     4
1000
INV
1002
{
1002
}
1000
Color
1070
     1
1070
   256
1002
{
1002
}
1000
LType
1070
     4
1000
BYLAYER
1002
{
1002
}
1002
}
1000
BLID
1070
     9
1000
4A
1002
{
1000
Class
1070
     4
1000

1002
{
1002
}
1000
Color
1070
     1
1070
   256
1002
{
1002
}
1000
LType
1070
     4
1000
BYLAYER
1002
{
1002
}
1002
}
1000
BOAP
1070
     9
1000
4A
1002
{
1000
Class
1070
     4
1000

1002
{
1002
}
1000
Color
1070
     1
1070
   256
1002
{
1002
}
1000
LType
1070
     4
1000
BYLAYER
1002
{
1002
}
1002
}
1000
BOR2
1070
     9
1000
RAHM2
1002
{
1000
Class
1070
     4
1000
SPZ,SYM
1002
{
1002
}
1000
Color
1070
     1
1070
   256
1002
{
1002
}
1000
LType
1070
     4
1000
BYLAYER
1002
{
1002
}
1002
}
1000
BOR3
1070
     9
1000
RAHM3
1002
{
1000
Class
1070
     4
1000
SPZ,SYM
1002
{
1002
}
1000
Color
1070
     1
1070
   256
1002
{
1002
}
1000
LType
1070
     4
1000
BYLAYER
1002
{
1002
}
1002
}
1000
BOR5
1070
     9
1000
RAHM5
1002
{
1000
Class
1070
     4
1000
SPZ,SYM
1002
{
1002
}
1000
Color
1070
     1
1070
   256
1002
{
1002
}
1000
LType
1070
     4
1000
BYLAYER
1002
{
1002
}
1002
}
1000
BOR7
1070
     9
1000
RAHM5
1002
{
1000
Class
1070
     4
1000
SPZ,SYM
1002
{
1002
}
1000
Color
1070
     1
1070
     7
1002
{
1002
}
1000
LType
1070
     4
1000
CONTINUOUS
1002
{
1002
}
1002
}
1000
BPAP
1070
     9
1000
4A
1002
{
1000
Class
1070
     4
1000

1002
{
1002
}
1000
Color
1070
     1
1070
   256
1002
{
1002
}
1000
LType
1070
     4
1000
BYLAYER
1002
{
1002
}
1002
}
1000
BPEX
1070
     9
1000
4A
1002
{
1000
Class
1070
     4
1000

1002
{
1002
}
1000
Color
1070
     1
1070
   256
1002
{
1002
}
1000
LType
1070
     4
1000
BYLAYER
1002
{
1002
}
1002
}
1000
BTDI
1070
     9
1000
5
1002
{
1000
Class
1070
     4
1000
DIM,SYM
1002
{
1002
}
1000
Color
1070
     1
1070
   256
1002
{
1002
}
1000
LType
1070
     4
1000
BYLAYER
1002
{
1002
}
1002
}
1000
CAL2
1070
     9
1000
4
1002
{
1000
Class
1070
     4
1000
SYM
1002
{
1002
}
1000
Color
1070
     1
1070
   256
1002
{
1002
}
1000
LType
1070
     4
1000
BYLAYER
1002
{
1002
}
1002
}
1000
CAL3
1070
     9
1000
4
1002
{
1000
Class
1070
     4
1000
SYM
1002
{
1002
}
1000
Color
1070
     1
1070
     2
1002
{
1002
}
1000
LType
1070
     4
1000
BYLAYER
1002
{
1002
}
1002
}
1000
CAL5
1070
     9
1000
4
1002
{
1000
Class
1070
     4
1000
SYM
1002
{
1002
}
1000
Color
1070
     1
1070
     7
1002
{
1002
}
1000
LType
1070
     4
1000
BYLAYER
1002
{
1002
}
1002
}
1000
CAL7
1070
     9
1000
4
1002
{
1000
Class
1070
     4
1000
SYM
1002
{
1002
}
1000
Color
1070
     1
1070
     5
1002
{
1002
}
1000
LType
1070
     4
1000
BYLAYER
1002
{
1002
}
1002
}
1000
CENN
1070
     9
1000
7A
1002
{
1000
Class
1070
     4
1000
CEN
1002
{
1002
}
1000
Color
1070
     1
1070
   256
1002
{
1002
}
1000
LType
1070
     4
1000
BYLAYER
1002
{
1002
}
1002
}
1000
CENW
1070
     9
1000
7
1002
{
1000
Class
1070
     4
1000
CEN
1002
{
1002
}
1000
Color
1070
     1
1070
   256
1002
{
1002
}
1000
LType
1070
     4
1000
BYLAYER
1002
{
1002
}
1002
}
1000
CLIN
1070
     9
1000
KLIN
1002
{
1000
Class
1070
     4
1000
SPZ
1002
{
1002
}
1000
Color
1070
     1
1070
   256
1002
{
1002
}
1000
LType
1070
     4
1000
BYLAYER
1002
{
1002
}
1002
}
1000
CON1
1070
     9
1000
0
1002
{
1000
Class
1070
     4
1000
CON,BGD
1002
{
1002
}
1000
Color
1070
     1
1070
   256
1002
{
1002
}
1000
LType
1070
     4
1000
BYLAYER
1002
{
1002
}
1002
}
1000
CON2
1070
     9
1000
1
1002
{
1000
Class
1070
     4
1000
CON,BGD
1002
{
1002
}
1000
Color
1070
     1
1070
   256
1002
{
1002
}
1000
LType
1070
     4
1000
BYLAYER
1002
{
1002
}
1002
}
1000
CON3
1070
     9
1000
2
1002
{
1000
Class
1070
     4
1000
CON,BGD
1002
{
1002
}
1000
Color
1070
     1
1070
   256
1002
{
1002
}
1000
LType
1070
     4
1000
BYLAYER
1002
{
1002
}
1002
}
1000
CON4
1070
     9
1000
2
1002
{
1000
Class
1070
     4
1000
CON,BGD
1002
{
1002
}
1000
Color
1070
     1
1070
   256
1002
{
1002
}
1000
LType
1070
     4
1000
BYLAYER
1002
{
1002
}
1002
}
1000
DERP
1070
     9
1000
4
1002
{
1000
Class
1070
     4
1000

1002
{
1002
}
1000
Color
1070
     1
1070
   256
1002
{
1002
}
1000
LType
1070
     4
1000
BYLAYER
1002
{
1002
}
1002
}
1000
DETA
1070
     9
1000
4
1002
{
1000
Class
1070
     4
1000

1002
{
1002
}
1000
Color
1070
     1
1070
   256
1002
{
1002
}
1000
LType
1070
     4
1000
BYLAYER
1002
{
1002
}
1002
}
1000
DIAG
1070
     9
1000
5
1002
{
1000
Class
1070
     4
1000
SYM
1002
{
1002
}
1000
Color
1070
     1
1070
   256
1002
{
1002
}
1000
LType
1070
     4
1000
BYLAYER
1002
{
1002
}
1002
}
1000
DILI
1070
     9
1000
5
1002
{
1000
Class
1070
     4
1000
DIM,SYM
1002
{
1002
}
1000
Color
1070
     1
1070
   256
1002
{
1002
}
1000
LType
1070
     4
1000
BYLAYER
1002
{
1002
}
1002
}
1000
DITO2
1070
     9
1000
5
1002
{
1000
Class
1070
     4
1000
DIM,SYM
1002
{
1002
}
1000
Color
1070
     1
1070
     3
1002
{
1002
}
1000
LType
1070
     4
1000
BYLAYER
1002
{
1002
}
1002
}
1000
DITO3
1070
     9
1000
5
1002
{
1000
Class
1070
     4
1000
DIM,SYM
1002
{
1002
}
1000
Color
1070
     1
1070
     2
1002
{
1002
}
1000
LType
1070
     4
1000
BYLAYER
1002
{
1002
}
1002
}
1000
DITX
1070
     9
1000
5
1002
{
1000
Class
1070
     4
1000
DIM,SYM
1002
{
1002
}
1000
Color
1070
     1
1070
     2
1002
{
1002
}
1000
LType
1070
     4
1000
CONTINUOUS
1002
{
1002
}
1002
}
1000
DIXL
1070
     9
1000
5
1002
{
1000
Class
1070
     4
1000
DIM,SYM
1002
{
1002
}
1000
Color
1070
     1
1070
   256
1002
{
1002
}
1000
LType
1070
     4
1000
BYLAYER
1002
{
1002
}
1002
}
1000
EXMP
1070
     9
1000
4A
1002
{
1000
Class
1070
     4
1000

1002
{
1002
}
1000
Color
1070
     1
1070
   256
1002
{
1002
}
1000
LType
1070
     4
1000
BYLAYER
1002
{
1002
}
1002
}
1000
FEMN
1070
     9
1000
8
1002
{
1000
Class
1070
     4
1000

1002
{
1002
}
1000
Color
1070
     1
1070
   256
1002
{
1002
}
1000
LType
1070
     4
1000
BYLAYER
1002
{
1002
}
1002
}
1000
FEMPN
1070
     9
1000
8
1002
{
1000
Class
1070
     4
1000
SYM
1002
{
1002
}
1000
Color
1070
     1
1070
     3
1002
{
1002
}
1000
LType
1070
     4
1000
BYLAYER
1002
{
1002
}
1002
}
1000
FEMSP
1070
     9
1000
4A
1002
{
1000
Class
1070
     4
1000

1002
{
1002
}
1000
Color
1070
     1
1070
   256
1002
{
1002
}
1000
LType
1070
     4
1000
CONTINUOUS
1002
{
1002
}
1002
}
1000
FEMST
1070
     9
1000
4A
1002
{
1000
Class
1070
     4
1000
SYM
1002
{
1002
}
1000
Color
1070
     1
1070
     3
1002
{
1002
}
1000
LType
1070
     4
1000
BYLAYER
1002
{
1002
}
1002
}
1000
FEMVN
1070
     9
1000
2
1002
{
1000
Class
1070
     4
1000
CON
1002
{
1002
}
1000
Color
1070
     1
1070
   256
1002
{
1002
}
1000
LType
1070
     4
1000
BYLAYER
1002
{
1002
}
1002
}
1000
FEMVT
1070
     9
1000
2
1002
{
1000
Class
1070
     4
1000
SYM
1002
{
1002
}
1000
Color
1070
     1
1070
     3
1002
{
1002
}
1000
LType
1070
     4
1000
BYLAYER
1002
{
1002
}
1002
}
1000
FLAT
1070
     9
1000
0
1002
{
1000
Class
1070
     4
1000

1002
{
1002
}
1000
Color
1070
     1
1070
   256
1002
{
1002
}
1000
LType
1070
     4
1000
BYLAYER
1002
{
1002
}
1002
}
1000
FRAR
1070
     9
1000
4A
1002
{
1000
Class
1070
     4
1000

1002
{
1002
}
1000
Color
1070
     1
1070
   256
1002
{
1002
}
1000
LType
1070
     4
1000
BYLAYER
1002
{
1002
}
1002
}
1000
GRLI
1070
     9
1000
5
1002
{
1000
Class
1070
     4
1000
SYM
1002
{
1002
}
1000
Color
1070
     1
1070
   256
1002
{
1002
}
1000
LType
1070
     4
1000
BYLAYER
1002
{
1002
}
1002
}
1000
GVLI
1070
     9
1000
4A
1002
{
1000
Class
1070
     4
1000

1002
{
1002
}
1000
Color
1070
     1
1070
   256
1002
{
1002
}
1000
LType
1070
     4
1000
BYLAYER
1002
{
1002
}
1002
}
1000
HATC
1070
     9
1000
8
1002
{
1000
Class
1070
     4
1000
HTC,BGD
1002
{
1002
}
1000
Color
1070
     1
1070
   256
1002
{
1002
}
1000
LType
1070
     4
1000
BYLAYER
1002
{
1002
}
1002
}
1000
HIDN
1070
     9
1000
3A
1002
{
1000
Class
1070
     4
1000
HID,BGD
1002
{
1002
}
1000
Color
1070
     1
1070
   256
1002
{
1002
}
1000
LType
1070
     4
1000
BYLAYER
1002
{
1002
}
1002
}
1000
HIDW
1070
     9
1000
3
1002
{
1000
Class
1070
     4
1000
HID,BGD
1002
{
1002
}
1000
Color
1070
     1
1070
   256
1002
{
1002
}
1000
LType
1070
     4
1000
BYLAYER
1002
{
1002
}
1002
}
1000
HLIN
1070
     9
1000
4
1002
{
1000
Class
1070
     4
1000
BGD
1002
{
1002
}
1000
Color
1070
     1
1070
   256
1002
{
1002
}
1000
LType
1070
     4
1000
BYLAYER
1002
{
1002
}
1002
}
1000
HOCN
1070
     9
1000
7A
1002
{
1000
Class
1070
     4
1000
CEN
1002
{
1002
}
1000
Color
1070
     1
1070
   256
1002
{
1002
}
1000
LType
1070
     4
1000
BYLAYER
1002
{
1002
}
1002
}
1000
HOCW
1070
     9
1000
7
1002
{
1000
Class
1070
     4
1000
CEN
1002
{
1002
}
1000
Color
1070
     1
1070
   256
1002
{
1002
}
1000
LType
1070
     4
1000
BYLAYER
1002
{
1002
}
1002
}
1000
INFO
1070
     9
1000
INFO
1002
{
1000
Class
1070
     4
1000
SPZ,SYM
1002
{
1002
}
1000
Color
1070
     1
1070
   256
1002
{
1002
}
1000
LType
1070
     4
1000
BYLAYER
1002
{
1002
}
1002
}
1000
LADI
1070
     9
1000
4
1002
{
1000
Class
1070
     4
1000
BGD
1002
{
1002
}
1000
Color
1070
     1
1070
   256
1002
{
1002
}
1000
LType
1070
     4
1000
BYLAYER
1002
{
1002
}
1002
}
1000
LEAD
1070
     9
1000
5
1002
{
1000
Class
1070
     4
1000
SYM
1002
{
1002
}
1000
Color
1070
     1
1070
   256
1002
{
1002
}
1000
LType
1070
     4
1000
BYLAYER
1002
{
1002
}
1002
}
1000
N_ADDL
1070
     9
1000
5N
1002
{
1000
Class
1070
     4
1000
SYM
1002
{
1002
}
1000
Color
1070
     1
1070
     1
1002
{
1002
}
1000
LType
1070
     4
1000
BYLAYER
1002
{
1002
}
1002
}
1000
N_BHNV
1070
     9
1000
9N
1002
{
1000
Class
1070
     4
1000
INV
1002
{
1002
}
1000
Color
1070
     1
1070
   256
1002
{
1002
}
1000
LType
1070
     4
1000
BYLAYER
1002
{
1002
}
1002
}
1000
N_CON1
1070
     9
1000
0N
1002
{
1000
Class
1070
     4
1000
CON,BGD
1002
{
1002
}
1000
Color
1070
     1
1070
   256
1002
{
1002
}
1000
LType
1070
     4
1000
BYLAYER
1002
{
1002
}
1002
}
1000
N_CON2
1070
     9
1000
1N
1002
{
1000
Class
1070
     4
1000
CON,BGD
1002
{
1002
}
1000
Color
1070
     1
1070
   256
1002
{
1002
}
1000
LType
1070
     4
1000
BYLAYER
1002
{
1002
}
1002
}
1000
N_CON3
1070
     9
1000
2N
1002
{
1000
Class
1070
     4
1000
CON,BGD
1002
{
1002
}
1000
Color
1070
     1
1070
   256
1002
{
1002
}
1000
LType
1070
     4
1000
BYLAYER
1002
{
1002
}
1002
}
1000
N_CON4
1070
     9
1000
2N
1002
{
1000
Class
1070
     4
1000
CON,BGD
1002
{
1002
}
1000
Color
1070
     1
1070
   256
1002
{
1002
}
1000
LType
1070
     4
1000
BYLAYER
1002
{
1002
}
1002
}
1000
N_CENN
1070
     9
1000
7AN
1002
{
1000
Class
1070
     4
1000
CEN
1002
{
1002
}
1000
Color
1070
     1
1070
   256
1002
{
1002
}
1000
LType
1070
     4
1000
BYLAYER
1002
{
1002
}
1002
}
1000
N_CENW
1070
     9
1000
7N
1002
{
1000
Class
1070
     4
1000
CEN
1002
{
1002
}
1000
Color
1070
     1
1070
   256
1002
{
1002
}
1000
LType
1070
     4
1000
BYLAYER
1002
{
1002
}
1002
}
1000
N_DILI
1070
     9
1000
5N
1002
{
1000
Class
1070
     4
1000
DIM,SYM
1002
{
1002
}
1000
Color
1070
     1
1070
   256
1002
{
1002
}
1000
LType
1070
     4
1000
BYLAYER
1002
{
1002
}
1002
}
1000
N_DITX
1070
     9
1000
5N
1002
{
1000
Class
1070
     4
1000
DIM,SYM
1002
{
1002
}
1000
Color
1070
     1
1070
     2
1002
{
1002
}
1000
LType
1070
     4
1000
CONTINUOUS
1002
{
1002
}
1002
}
1000
N_DIXL
1070
     9
1000
5N
1002
{
1000
Class
1070
     4
1000
DIM,SYM
1002
{
1002
}
1000
Color
1070
     1
1070
   256
1002
{
1002
}
1000
LType
1070
     4
1000
BYLAYER
1002
{
1002
}
1002
}
1000
N_HATC
1070
     9
1000
8N
1002
{
1000
Class
1070
     4
1000
HTC,BGD
1002
{
1002
}
1000
Color
1070
     1
1070
   256
1002
{
1002
}
1000
LType
1070
     4
1000
BYLAYER
1002
{
1002
}
1002
}
1000
N_HIDN
1070
     9
1000
3AN
1002
{
1000
Class
1070
     4
1000
HID,BGD
1002
{
1002
}
1000
Color
1070
     1
1070
   256
1002
{
1002
}
1000
LType
1070
     4
1000
BYLAYER
1002
{
1002
}
1002
}
1000
N_HIDW
1070
     9
1000
3N
1002
{
1000
Class
1070
     4
1000
HID,BGD
1002
{
1002
}
1000
Color
1070
     1
1070
   256
1002
{
1002
}
1000
LType
1070
     4
1000
BYLAYER
1002
{
1002
}
1002
}
1000
N_NGIP
1070
     9
1000
IPN
1002
{
1000
Class
1070
     4
1000

1002
{
1002
}
1000
Color
1070
     1
1070
   256
1002
{
1002
}
1000
LType
1070
     4
1000
BYLAYER
1002
{
1002
}
1002
}
1000
N_PHAN
1070
     9
1000
4AN
1002
{
1000
Class
1070
     4
1000

1002
{
1002
}
1000
Color
1070
     1
1070
   256
1002
{
1002
}
1000
LType
1070
     4
1000
BYLAYER
1002
{
1002
}
1002
}
1000
N_POSL
1070
     9
1000
5N
1002
{
1000
Class
1070
     4
1000
SYM
1002
{
1002
}
1000
Color
1070
     1
1070
   256
1002
{
1002
}
1000
LType
1070
     4
1000
BYLAYER
1002
{
1002
}
1002
}
1000
N_TCON
1070
     9
1000
0N
1002
{
1000
Class
1070
     4
1000
CON,BGD
1002
{
1002
}
1000
Color
1070
     1
1070
   256
1002
{
1002
}
1000
LType
1070
     4
1000
BYLAYER
1002
{
1002
}
1002
}
1000
N_THLI
1070
     9
1000
4N
1002
{
1000
Class
1070
     4
1000
BGD
1002
{
1002
}
1000
Color
1070
     1
1070
   256
1002
{
1002
}
1000
LType
1070
     4
1000
BYLAYER
1002
{
1002
}
1002
}
1000
N_TLEN
1070
     9
1000
0N
1002
{
1000
Class
1070
     4
1000
CON,BGD
1002
{
1002
}
1000
Color
1070
     1
1070
   256
1002
{
1002
}
1000
LType
1070
     4
1000
BYLAYER
1002
{
1002
}
1002
}
1000
N_TXT3
1070
     9
1000
6N
1002
{
1000
Class
1070
     4
1000
SYM
1002
{
1002
}
1000
Color
1070
     1
1070
   256
1002
{
1002
}
1000
LType
1070
     4
1000
BYLAYER
1002
{
1002
}
1002
}
1000
N_VPLI
1070
     9
1000
2AN
1002
{
1000
Class
1070
     4
1000

1002
{
1002
}
1000
Color
1070
     1
1070
   256
1002
{
1002
}
1000
LType
1070
     4
1000
BYLAYER
1002
{
1002
}
1002
}
1000
NGIP
1070
     9
1000
IP
1002
{
1000
Class
1070
     4
1000

1002
{
1002
}
1000
Color
1070
     1
1070
   256
1002
{
1002
}
1000
LType
1070
     4
1000
BYLAYER
1002
{
1002
}
1002
}
1000
PAL2
1070
     9
1000
RAHM2
1002
{
1000
Class
1070
     4
1000
SPZ,SYM
1002
{
1002
}
1000
Color
1070
     1
1070
   256
1002
{
1002
}
1000
LType
1070
     4
1000
BYLAYER
1002
{
1002
}
1002
}
1000
PAL3
1070
     9
1000
RAHM3
1002
{
1000
Class
1070
     4
1000
SPZ,SYM
1002
{
1002
}
1000
Color
1070
     1
1070
   256
1002
{
1002
}
1000
LType
1070
     4
1000
BYLAYER
1002
{
1002
}
1002
}
1000
PAL5
1070
     9
1000
RAHM5
1002
{
1000
Class
1070
     4
1000
SPZ,SYM
1002
{
1002
}
1000
Color
1070
     1
1070
   256
1002
{
1002
}
1000
LType
1070
     4
1000
BYLAYER
1002
{
1002
}
1002
}
1000
PAL7
1070
     9
1000
RAHM5
1002
{
1000
Class
1070
     4
1000
SPZ,SYM
1002
{
1002
}
1000
Color
1070
     1
1070
     7
1002
{
1002
}
1000
LType
1070
     4
1000
CONTINUOUS
1002
{
1002
}
1002
}
1000
PHAN
1070
     9
1000
4A
1002
{
1000
Class
1070
     4
1000

1002
{
1002
}
1000
Color
1070
     1
1070
   256
1002
{
1002
}
1000
LType
1070
     4
1000
BYLAYER
1002
{
1002
}
1002
}
1000
POSL
1070
     9
1000
5
1002
{
1000
Class
1070
     4
1000
SYM
1002
{
1002
}
1000
Color
1070
     1
1070
   256
1002
{
1002
}
1000
LType
1070
     4
1000
BYLAYER
1002
{
1002
}
1002
}
1000
POSN
1070
     9
1000
6
1002
{
1000
Class
1070
     4
1000
SYM
1002
{
1002
}
1000
Color
1070
     1
1070
     7
1002
{
1002
}
1000
LType
1070
     4
1000
BYLAYER
1002
{
1002
}
1002
}
1000
POSREF
1070
     9
1000
6
1002
{
1000
Class
1070
     4
1000
SYM
1002
{
1002
}
1000
Color
1070
     1
1070
     5
1002
{
1002
}
1000
LType
1070
     4
1000
BYLAYER
1002
{
1002
}
1002
}
1000
POSX
1070
     9
1000
5
1002
{
1000
Class
1070
     4
1000
SYM
1002
{
1002
}
1000
Color
1070
     1
1070
     2
1002
{
1002
}
1000
LType
1070
     4
1000
CONTINUOUS
1002
{
1002
}
1002
}
1000
PSEC
1070
     9
1000
4A
1002
{
1000
Class
1070
     4
1000

1002
{
1002
}
1000
Color
1070
     1
1070
   256
1002
{
1002
}
1000
LType
1070
     4
1000
BYLAYER
1002
{
1002
}
1002
}
1000
RCGN
1070
     9
1000
7A
1002
{
1000
Class
1070
     4
1000
CEN
1002
{
1002
}
1000
Color
1070
     1
1070
   256
1002
{
1002
}
1000
LType
1070
     4
1000
BYLAYER
1002
{
1002
}
1002
}
1000
RCGW
1070
     9
1000
7
1002
{
1000
Class
1070
     4
1000
CEN
1002
{
1002
}
1000
Color
1070
     1
1070
   256
1002
{
1002
}
1000
LType
1070
     4
1000
BYLAYER
1002
{
1002
}
1002
}
1000
RFDI
1070
     9
1000
4
1002
{
1000
Class
1070
     4
1000
BGD
1002
{
1002
}
1000
Color
1070
     1
1070
   256
1002
{
1002
}
1000
LType
1070
     4
1000
BYLAYER
1002
{
1002
}
1002
}
1000
RQTR
1070
     9
1000
4
1002
{
1000
Class
1070
     4
1000

1002
{
1002
}
1000
Color
1070
     1
1070
     7
1002
{
1002
}
1000
LType
1070
     4
1000
GEN7A
1002
{
1002
}
1002
}
1000
RSBO
1070
     9
1000
4
1002
{
1000
Class
1070
     4
1000
BGD
1002
{
1002
}
1000
Color
1070
     1
1070
   256
1002
{
1002
}
1000
LType
1070
     4
1000
BYLAYER
1002
{
1002
}
1002
}
1000
SBRK
1070
     9
1000
4
1002
{
1000
Class
1070
     4
1000
BGD
1002
{
1002
}
1000
Color
1070
     1
1070
   256
1002
{
1002
}
1000
LType
1070
     4
1000
BYLAYER
1002
{
1002
}
1002
}
1000
SCEN
1070
     9
1000
7
1002
{
1000
Class
1070
     4
1000

1002
{
1002
}
1000
Color
1070
     1
1070
   256
1002
{
1002
}
1000
LType
1070
     4
1000
CONTINUOUS
1002
{
1002
}
1002
}
1000
SECT
1070
     9
1000
4
1002
{
1000
Class
1070
     4
1000
BGD
1002
{
1002
}
1000
Color
1070
     1
1070
   256
1002
{
1002
}
1000
LType
1070
     4
1000
BYLAYER
1002
{
1002
}
1002
}
1000
SELN
1070
     9
1000
7A
1002
{
1000
Class
1070
     4
1000

1002
{
1002
}
1000
Color
1070
     1
1070
   256
1002
{
1002
}
1000
LType
1070
     4
1000
BYLAYER
1002
{
1002
}
1002
}
1000
SELW
1070
     9
1000
7
1002
{
1000
Class
1070
     4
1000

1002
{
1002
}
1000
Color
1070
     1
1070
   256
1002
{
1002
}
1000
LType
1070
     4
1000
BYLAYER
1002
{
1002
}
1002
}
1000
SSYS
1070
     9
1000
0
1002
{
1000
Class
1070
     4
1000

1002
{
1002
}
1000
Color
1070
     1
1070
   256
1002
{
1002
}
1000
LType
1070
     4
1000
BYLAYER
1002
{
1002
}
1002
}
1000
STLI
1070
     9
1000
4
1002
{
1000
Class
1070
     4
1000

1002
{
1002
}
1000
Color
1070
     1
1070
     7
1002
{
1002
}
1000
LType
1070
     4
1000
GEN3A
1002
{
1002
}
1002
}
1000
SYB1
1070
     9
1000
5
1002
{
1000
Class
1070
     4
1000
SYM
1002
{
1002
}
1000
Color
1070
     1
1070
   256
1002
{
1002
}
1000
LType
1070
     4
1000
BYLAYER
1002
{
1002
}
1002
}
1000
SYB2
1070
     9
1000
5
1002
{
1000
Class
1070
     4
1000
SYM
1002
{
1002
}
1000
Color
1070
     1
1070
   256
1002
{
1002
}
1000
LType
1070
     4
1000
BYLAYER
1002
{
1002
}
1002
}
1000
SYB3
1070
     9
1000
6
1002
{
1000
Class
1070
     4
1000
SYM
1002
{
1002
}
1000
Color
1070
     1
1070
   256
1002
{
1002
}
1000
LType
1070
     4
1000
CONTINUOUS
1002
{
1002
}
1002
}
1000
SYB5
1070
     9
1000
5
1002
{
1000
Class
1070
     4
1000
SYM
1002
{
1002
}
1000
Color
1070
     1
1070
     7
1002
{
1002
}
1000
LType
1070
     4
1000
BYLAYER
1002
{
1002
}
1002
}
1000
SYMN
1070
     9
1000
7A
1002
{
1000
Class
1070
     4
1000
CEN
1002
{
1002
}
1000
Color
1070
     1
1070
   256
1002
{
1002
}
1000
LType
1070
     4
1000
BYLAYER
1002
{
1002
}
1002
}
1000
SYMW
1070
     9
1000
7
1002
{
1000
Class
1070
     4
1000
CEN
1002
{
1002
}
1000
Color
1070
     1
1070
   256
1002
{
1002
}
1000
LType
1070
     4
1000
BYLAYER
1002
{
1002
}
1002
}
1000
TCON
1070
     9
1000
0
1002
{
1000
Class
1070
     4
1000
CON,BGD
1002
{
1002
}
1000
Color
1070
     1
1070
   256
1002
{
1002
}
1000
LType
1070
     4
1000
BYLAYER
1002
{
1002
}
1002
}
1000
THLI
1070
     9
1000
4
1002
{
1000
Class
1070
     4
1000
BGD
1002
{
1002
}
1000
Color
1070
     1
1070
   256
1002
{
1002
}
1000
LType
1070
     4
1000
BYLAYER
1002
{
1002
}
1002
}
1000
TIT2
1070
     9
1000
RAHM2
1002
{
1000
Class
1070
     4
1000
SPZ,SYM
1002
{
1002
}
1000
Color
1070
     1
1070
   256
1002
{
1002
}
1000
LType
1070
     4
1000
BYLAYER
1002
{
1002
}
1002
}
1000
TIT3
1070
     9
1000
RAHM3
1002
{
1000
Class
1070
     4
1000
SPZ,SYM
1002
{
1002
}
1000
Color
1070
     1
1070
   256
1002
{
1002
}
1000
LType
1070
     4
1000
BYLAYER
1002
{
1002
}
1002
}
1000
TIT5
1070
     9
1000
RAHM5
1002
{
1000
Class
1070
     4
1000
SPZ,SYM
1002
{
1002
}
1000
Color
1070
     1
1070
   256
1002
{
1002
}
1000
LType
1070
     4
1000
BYLAYER
1002
{
1002
}
1002
}
1000
TIT7
1070
     9
1000
RAHM5
1002
{
1000
Class
1070
     4
1000
SPZ,SYM
1002
{
1002
}
1000
Color
1070
     1
1070
     7
1002
{
1002
}
1000
LType
1070
     4
1000
CONTINUOUS
1002
{
1002
}
1002
}
1000
TLEN
1070
     9
1000
0
1002
{
1000
Class
1070
     4
1000
CON,BGD
1002
{
1002
}
1000
Color
1070
     1
1070
   256
1002
{
1002
}
1000
LType
1070
     4
1000
BYLAYER
1002
{
1002
}
1002
}
1000
TRKN
1070
     9
1000
7A
1002
{
1000
Class
1070
     4
1000

1002
{
1002
}
1000
Color
1070
     1
1070
   256
1002
{
1002
}
1000
LType
1070
     4
1000
BYLAYER
1002
{
1002
}
1002
}
1000
TRKW
1070
     9
1000
7
1002
{
1000
Class
1070
     4
1000

1002
{
1002
}
1000
Color
1070
     1
1070
   256
1002
{
1002
}
1000
LType
1070
     4
1000
BYLAYER
1002
{
1002
}
1002
}
1000
TRLI
1070
     9
1000
4
1002
{
1000
Class
1070
     4
1000
BGD
1002
{
1002
}
1000
Color
1070
     1
1070
   256
1002
{
1002
}
1000
LType
1070
     4
1000
BYLAYER
1002
{
1002
}
1002
}
1000
TXT1
1070
     9
1000
6
1002
{
1000
Class
1070
     4
1000
SYM
1002
{
1002
}
1000
Color
1070
     1
1070
     2
1002
{
1002
}
1000
LType
1070
     4
1000
BYLAYER
1002
{
1002
}
1002
}
1000
TXT2
1070
     9
1000
6
1002
{
1000
Class
1070
     4
1000
SYM
1002
{
1002
}
1000
Color
1070
     1
1070
     2
1002
{
1002
}
1000
LType
1070
     4
1000
BYLAYER
1002
{
1002
}
1002
}
1000
TXT3
1070
     9
1000
6
1002
{
1000
Class
1070
     4
1000
SYM
1002
{
1002
}
1000
Color
1070
     1
1070
   256
1002
{
1002
}
1000
LType
1070
     4
1000
BYLAYER
1002
{
1002
}
1002
}
1000
TXT5
1070
     9
1000
6
1002
{
1000
Class
1070
     4
1000
SYM
1002
{
1002
}
1000
Color
1070
     1
1070
     7
1002
{
1002
}
1000
LType
1070
     4
1000
BYLAYER
1002
{
1002
}
1002
}
1000
TXT7
1070
     9
1000
6
1002
{
1000
Class
1070
     4
1000
SYM
1002
{
1002
}
1000
Color
1070
     1
1070
     7
1002
{
1002
}
1000
LType
1070
     4
1000
BYLAYER
1002
{
1002
}
1002
}
1000
VIEW
1070
     9
1000
VIEW
1002
{
1000
Class
1070
     4
1000
SPZ
1002
{
1002
}
1000
Color
1070
     1
1070
   256
1002
{
1002
}
1000
LType
1070
     4
1000
BYLAYER
1002
{
1002
}
1002
}
1000
VPLI
1070
     9
1000
2A
1002
{
1000
Class
1070
     4
1000

1002
{
1002
}
1000
Color
1070
     1
1070
   256
1002
{
1002
}
1000
LType
1070
     4
1000
BYLAYER
1002
{
1002
}
1002
}
1000
ZIZA
1070
     9
1000
4
1002
{
1000
Class
1070
     4
1000
BGD
1002
{
1002
}
1000
Color
1070
     1
1070
   256
1002
{
1002
}
1000
LType
1070
     4
1000
GENZIGZAG
1002
{
1002
}
1002
}
  0
APPID
  5
223
330
1D4
100
AcDbSymbolTableRecord
100
AcDbRegAppTableRecord
  2
GENIUS_GENCFG4_13
 70
     0
1001
GENIUS_GENCFG_13
1071
1021306178
1000
223
1000
GEN
1070
     9
1000
GenCfgObject
1000
GenCfgShort
1000
GenCfgReal
1000
GenCfgBool
1000
GenCfgString
1000
GenCfgDim
1000
GenCfgLaySection
1000
GenCfgLType
1000
GenCfgFilter
1000
Balloon
1070
     0
1002
{
1000
GenIF
1070
     1
1070
     0
1002
{
1002
}
1000
GenPosInc
1070
     1
1070
     1
1002
{
1002
}
1000
GenPosBlk
1070
     1
1070
     8
1002
{
1002
}
1000
GenPosVar
1070
     1
1070
     0
1002
{
1002
}
1000
GenZiCir
1070
     2
1040
1.5
1002
{
1002
}
1000
MaxCharForCenteredText
1070
     1
1070
    30
1002
{
1002
}
1000
Snap
1070
     0
1002
{
1000
ActivationRadius
1070
     2
1040
1.0
1002
{
1002
}
1000
M
1070
     0
1002
{
1000
SnapStepX
1070
     2
1040
20.0
1002
{
1002
}
1000
SnapStepY
1070
     2
1040
10.0
1002
{
1002
}
1002
}
1000
I
1070
     0
1002
{
1000
SnapStepX
1070
     2
1040
1.0
1002
{
1002
}
1000
SnapStepY
1070
     2
1040
0.5
1002
{
1002
}
1002
}
1002
}
1002
}
1000
Centerline
1070
     0
1002
{
1000
ScaleNot
1070
     3
1070
     0
1002
{
1002
}
1000
M
1070
     0
1002
{
1000
GenCenAng
1070
     4
1000
45|90|135
1002
{
1002
}
1000
GenCenDia
1070
     2
1040
10.0
1002
{
1002
}
1000
GenCenDias
1070
     4
1000
10|20|30
1002
{
1002
}
1000
GenCenDist
1070
     2
1040
3.0
1002
{
1002
}
1000
GenCenLen
1070
     2
1040
10.0
1002
{
1002
}
1000
GenCenOff
1070
     2
1040
10.0
1002
{
1002
}
1002
}
1000
I
1070
     0
1002
{
1000
GenCenAng
1070
     4
1000
45|90|135
1002
{
1002
}
1000
GenCenDia
1070
     2
1040
0.5
1002
{
1002
}
1000
GenCenDias
1070
     4
1000
0.5|1.0|1.5
1002
{
1002
}
1000
GenCenDist
1070
     2
1040
0.125
1002
{
1002
}
1000
GenCenLen
1070
     2
1040
0.5
1002
{
1002
}
1000
GenCenOff
1070
     2
1040
0.5
1002
{
1002
}
1002
}
1002
}
1000
CLine
1070
     0
1002
{
1000
CAngArray
1070
     4
1000
80
1002
{
1002
}
1000
Typ
1070
     4
1000
XLINE
1002
{
1002
}
1000
M
1070
     0
1002
{
1000
CLinArray
1070
     4
1000
87.5
1002
{
1002
}
1002
}
1000
I
1070
     0
1002
{
1000
CLinArray
1070
     4
1000
0.125|0.25|0.5
1002
{
1002
}
1002
}
1002
}
1000
Detail
1070
     0
1002
{
1002
}
1000
Dimension
1070
     5
1002
{
1000
DIMALT
1070
     1
1070
     0
1002
{
1002
}
1000
DIMALTD
1070
     1
1070
     2
1002
{
1002
}
1000
DIMALTTD
1070
     1
1070
     4
1002
{
1002
}
1000
DIMALTTZ
1070
     1
1070
     0
1002
{
1002
}
1000
DIMALTU
1070
     1
1070
     2
1002
{
1002
}
1000
DIMALTZ
1070
     1
1070
     0
1002
{
1002
}
1000
DIMAUNIT
1070
     1
1070
     0
1002
{
1002
}
1000
DIMBLK
1070
     4
1000

1002
{
1002
}
1000
DIMBLK1
1070
     4
1000

1002
{
1002
}
1000
DIMBLK2
1070
     4
1000

1002
{
1002
}
1000
DIMCLRD
1070
     1
1070
   256
1002
{
1002
}
1000
DIMCLRE
1070
     1
1070
   256
1002
{
1002
}
1000
DIMCLRT
1070
     1
1070
     2
1002
{
1002
}
1000
DIMDLE
1070
     2
1040
0.0
1002
{
1002
}
1000
DIMFIT
1070
     1
1070
     3
1002
{
1002
}
1000
DIMJUST
1070
     1
1070
     0
1002
{
1002
}
1000
DIMLFAC
1070
     2
1040
1.0
1002
{
1002
}
1000
DIMLIM
1070
     1
1070
     0
1002
{
1002
}
1000
DIMPOST
1070
     4
1000

1002
{
1002
}
1000
DIMRND
1070
     2
1040
0.0
1002
{
1002
}
1000
DIMSAH
1070
     1
1070
     0
1002
{
1002
}
1000
DIMSCALE
1070
     2
1040
1.0
1002
{
1002
}
1000
DIMSD1
1070
     1
1070
     0
1002
{
1002
}
1000
DIMSD2
1070
     1
1070
     0
1002
{
1002
}
1000
DIMSE1
1070
     1
1070
     0
1002
{
1002
}
1000
DIMSE2
1070
     1
1070
     0
1002
{
1002
}
1000
DIMSOXD
1070
     1
1070
     0
1002
{
1002
}
1000
DIMTAD
1070
     1
1070
     0
1002
{
1002
}
1000
DIMTFAC
1070
     2
1040
0.71
1002
{
1002
}
1000
DIMTIH
1070
     1
1070
     0
1002
{
1002
}
1000
DIMTIX
1070
     1
1070
     0
1002
{
1002
}
1000
DIMTM
1070
     2
1040
0.1
1002
{
1002
}
1000
DIMTOFL
1070
     1
1070
     0
1002
{
1002
}
1000
DIMTOH
1070
     1
1070
     0
1002
{
1002
}
1000
DIMTOL
1070
     1
1070
     0
1002
{
1002
}
1000
DIMTOLJ
1070
     1
1070
     1
1002
{
1002
}
1000
DIMTP
1070
     2
1040
0.1
1002
{
1002
}
1000
DIMTSZ
1070
     2
1040
0.0
1002
{
1002
}
1000
DIMTVP
1070
     2
1040
0.0
1002
{
1002
}
1000
DIMTXSTY
1070
     4
1000
STANDARD
1002
{
1002
}
1000
DIMTZIN
1070
     1
1070
     0
1002
{
1002
}
1000
DIMUNIT
1070
     1
1070
     2
1002
{
1002
}
1000
DIMUPT
1070
     1
1070
     0
1002
{
1002
}
1000
M
1070
     0
1002
{
1000
DIMALTF
1070
     2
1040
0.03937
1002
{
1002
}
1000
DIMAPOST
1070
     4
1000
"
1002
{
1002
}
1000
DIMASZ
1070
     2
1040
2.5
1002
{
1002
}
1000
DIMCEN
1070
     2
1040
0.0
1002
{
1002
}
1000
DIMDEC
1070
     1
1070
     2
1002
{
1002
}
1000
DIMDLI
1070
     2
1040
7.0
1002
{
1002
}
1000
DIMEXE
1070
     2
1040
1.0
1002
{
1002
}
1000
DIMEXO
1070
     2
1040
1.0
1002
{
1002
}
1000
DIMGAP
1070
     2
1040
0.6
1002
{
1002
}
1000
DIMTDEC
1070
     1
1070
     3
1002
{
1002
}
1000
DIMTXT
1070
     2
1040
3.5
1002
{
1002
}
1000
DIMZIN
1070
     1
1070
     8
1002
{
1002
}
1002
}
1000
I
1070
     0
1002
{
1000
DIMALTF
1070
     2
1040
25.4
1002
{
1002
}
1000
DIMAPOST
1070
     4
1000
mm
1002
{
1002
}
1000
DIMASZ
1070
     2
1040
0.1
1002
{
1002
}
1000
DIMCEN
1070
     2
1040
0.0
1002
{
1002
}
1000
DIMDEC
1070
     1
1070
     4
1002
{
1002
}
1000
DIMDLI
1070
     2
1040
0.5
1002
{
1002
}
1000
DIMEXE
1070
     2
1040
0.1
1002
{
1002
}
1000
DIMEXO
1070
     2
1040
0.05
1002
{
1002
}
1000
DIMGAP
1070
     2
1040
0.06
1002
{
1002
}
1000
DIMTDEC
1070
     1
1070
     4
1002
{
1002
}
1000
DIMTXT
1070
     2
1040
0.12
1002
{
1002
}
1000
DIMZIN
1070
     1
1070
     7
1002
{
1002
}
1002
}
1000
GEN-ISO
1070
     5
1002
{
1000
NAME
1070
     4
1000
GEN-ISO
1002
{
1002
}
1000
DIMTAD
1070
     1
1070
     1
1002
{
1002
}
1000
DIMTOLJ
1070
     1
1070
     0
1002
{
1002
}
1000
DIMTOFL
1070
     1
1070
     1
1002
{
1002
}
1000
M
1070
     0
1002
{
1002
}
1000
I
1070
     0
1002
{
1002
}
1002
}
1000
GEN-ISO-POS
1070
     5
1002
{
1000
NAME
1070
     4
1000
GEN-ISO-POS
1002
{
1002
}
1000
DIMTOLJ
1070
     1
1070
     0
1002
{
1002
}
1000
DIMTXSTY
1070
     4
1000
STANDARD
1002
{
1002
}
1000
M
1070
     0
1002
{
1000
DIMASZ
1070
     2
1040
2.5
1002
{
1002
}
1000
DIMGAP
1070
     2
1040
1.5
1002
{
1002
}
1000
DIMTXT
1070
     2
1040
5.0
1002
{
1002
}
1002
}
1000
I
1070
     0
1002
{
1000
DIMASZ
1070
     2
1040
0.1
1002
{
1002
}
1000
DIMGAP
1070
     2
1040
0.06
1002
{
1002
}
1000
DIMTXT
1070
     2
1040
0.2
1002
{
1002
}
1002
}
1002
}
1000
GEN-ISO-CIR
1070
     5
1002
{
1000
NAME
1070
     4
1000
GEN-ISO$3
1002
{
1002
}
1000
DIMFIT
1070
     1
1070
     0
1002
{
1002
}
1000
DIMTAD
1070
     1
1070
     1
1002
{
1002
}
1000
DIMTOH
1070
     1
1070
     1
1002
{
1002
}
1000
DIMTOLJ
1070
     1
1070
     0
1002
{
1002
}
1000
DIMUPT
1070
     1
1070
     1
1002
{
1002
}
1000
M
1070
     0
1002
{
1002
}
1000
I
1070
     0
1002
{
1002
}
1002
}
1000
GEN-ISO-RAD
1070
     5
1002
{
1000
NAME
1070
     4
1000
GEN-ISO$4
1002
{
1002
}
1000
DIMFIT
1070
     1
1070
     0
1002
{
1002
}
1000
DIMTAD
1070
     1
1070
     1
1002
{
1002
}
1000
DIMTIH
1070
     1
1070
     0
1002
{
1002
}
1000
DIMTIX
1070
     1
1070
     0
1002
{
1002
}
1000
DIMTOH
1070
     1
1070
     1
1002
{
1002
}
1000
DIMTOLJ
1070
     1
1070
     0
1002
{
1002
}
1000
DIMTOFL
1070
     1
1070
     0
1002
{
1002
}
1000
DIMUPT
1070
     1
1070
     1
1002
{
1002
}
1000
M
1070
     0
1002
{
1002
}
1000
I
1070
     0
1002
{
1002
}
1002
}
1000
GEN-ISO-ORD
1070
     5
1002
{
1000
NAME
1070
     4
1000
GEN-ISO$6
1002
{
1002
}
1000
DIMTOLJ
1070
     1
1070
     0
1002
{
1002
}
1000
M
1070
     0
1002
{
1002
}
1000
I
1070
     0
1002
{
1002
}
1002
}
1000
GEN-ISO-AXE-F
1070
     5
1002
{
1000
NAME
1070
     4
1000
GEN-ISO-AXE-F
1002
{
1002
}
1000
DIMSE1
1070
     1
1070
     1
1002
{
1002
}
1000
DIMSE2
1070
     1
1070
     1
1002
{
1002
}
1000
DIMTAD
1070
     1
1070
     1
1002
{
1002
}
1000
DIMTOLJ
1070
     1
1070
     0
1002
{
1002
}
1000
DIMTOFL
1070
     1
1070
     1
1002
{
1002
}
1000
M
1070
     0
1002
{
1002
}
1000
I
1070
     0
1002
{
1002
}
1002
}
1000
GEN-ISO-AXE-H
1070
     5
1002
{
1000
NAME
1070
     4
1000
GEN-ISO-AXE-H
1002
{
1002
}
1000
DIMBLK1
1070
     4
1000
GENAXEH
1002
{
1002
}
1000
DIMLFAC
1070
     2
1040
2.0
1002
{
1002
}
1000
DIMSAH
1070
     1
1070
     1
1002
{
1002
}
1000
DIMSE1
1070
     1
1070
     1
1002
{
1002
}
1000
DIMSE2
1070
     1
1070
     1
1002
{
1002
}
1000
DIMTAD
1070
     1
1070
     1
1002
{
1002
}
1000
DIMTOLJ
1070
     1
1070
     0
1002
{
1002
}
1000
DIMTOFL
1070
     1
1070
     1
1002
{
1002
}
1000
M
1070
     0
1002
{
1002
}
1000
I
1070
     0
1002
{
1002
}
1002
}
1000
GEN-ANSI
1070
     5
1002
{
1000
NAME
1070
     4
1000
GEN-ANSI
1002
{
1002
}
1000
DIMTIH
1070
     1
1070
     1
1002
{
1002
}
1000
DIMTOH
1070
     1
1070
     1
1002
{
1002
}
1000
DIMTAD
1070
     1
1070
     0
1002
{
1002
}
1000
DIMTOLJ
1070
     1
1070
     1
1002
{
1002
}
1000
M
1070
     0
1002
{
1002
}
1000
I
1070
     0
1002
{
1002
}
1002
}
1000
GEN-ANSI-POS
1070
     5
1002
{
1000
NAME
1070
     4
1000
GEN-ANSI-POS
1002
{
1002
}
1000
DIMTOLJ
1070
     1
1070
     1
1002
{
1002
}
1000
DIMTXSTY
1070
     4
1000
STANDARD
1002
{
1002
}
1000
M
1070
     0
1002
{
1000
DIMASZ
1070
     2
1040
2.5
1002
{
1002
}
1000
DIMGAP
1070
     2
1040
1.5
1002
{
1002
}
1000
DIMTXT
1070
     2
1040
5.0
1002
{
1002
}
1002
}
1000
I
1070
     0
1002
{
1000
DIMASZ
1070
     2
1040
0.1
1002
{
1002
}
1000
DIMGAP
1070
     2
1040
0.06
1002
{
1002
}
1000
DIMTXT
1070
     2
1040
0.2
1002
{
1002
}
1002
}
1002
}
1000
GEN-ANSI-CIR
1070
     5
1002
{
1000
NAME
1070
     4
1000
GEN-ANSI$3
1002
{
1002
}
1000
DIMFIT
1070
     1
1070
     0
1002
{
1002
}
1000
DIMTAD
1070
     1
1070
     0
1002
{
1002
}
1000
DIMTIH
1070
     1
1070
     1
1002
{
1002
}
1000
DIMTIX
1070
     1
1070
     0
1002
{
1002
}
1000
DIMTOFL
1070
     1
1070
     0
1002
{
1002
}
1000
DIMTOH
1070
     1
1070
     1
1002
{
1002
}
1000
DIMTOLJ
1070
     1
1070
     1
1002
{
1002
}
1000
DIMUPT
1070
     1
1070
     1
1002
{
1002
}
1000
M
1070
     0
1002
{
1002
}
1000
I
1070
     0
1002
{
1002
}
1002
}
1000
GEN-ANSI-RAD
1070
     5
1002
{
1000
NAME
1070
     4
1000
GEN-ANSI$4
1002
{
1002
}
1000
DIMFIT
1070
     1
1070
     0
1002
{
1002
}
1000
DIMTAD
1070
     1
1070
     0
1002
{
1002
}
1000
DIMTIH
1070
     1
1070
     1
1002
{
1002
}
1000
DIMTIX
1070
     1
1070
     0
1002
{
1002
}
1000
DIMTOFL
1070
     1
1070
     0
1002
{
1002
}
1000
DIMTOH
1070
     1
1070
     1
1002
{
1002
}
1000
DIMTOLJ
1070
     1
1070
     1
1002
{
1002
}
1000
DIMUPT
1070
     1
1070
     1
1002
{
1002
}
1000
M
1070
     0
1002
{
1002
}
1000
I
1070
     0
1002
{
1002
}
1002
}
1000
GEN-ANSI-ORD
1070
     5
1002
{
1000
NAME
1070
     4
1000
GEN-ANSI$6
1002
{
1002
}
1000
DIMTAD
1070
     1
1070
     0
1002
{
1002
}
1000
DIMTIH
1070
     1
1070
     1
1002
{
1002
}
1000
DIMTOH
1070
     1
1070
     1
1002
{
1002
}
1000
DIMTOLJ
1070
     1
1070
     1
1002
{
1002
}
1000
M
1070
     0
1002
{
1002
}
1000
I
1070
     0
1002
{
1002
}
1002
}
1000
GEN-ANSI-AXE-F
1070
     5
1002
{
1000
NAME
1070
     4
1000
GEN-ANSI-AXE-F
1002
{
1002
}
1000
DIMBLK1
1070
     4
1000
GENAXEH
1002
{
1002
}
1000
DIMSAH
1070
     1
1070
     1
1002
{
1002
}
1000
DIMSE1
1070
     1
1070
     1
1002
{
1002
}
1000
DIMSE2
1070
     1
1070
     1
1002
{
1002
}
1000
DIMTAD
1070
     1
1070
     0
1002
{
1002
}
1000
DIMTIH
1070
     1
1070
     1
1002
{
1002
}
1000
DIMTOH
1070
     1
1070
     1
1002
{
1002
}
1000
DIMTOLJ
1070
     1
1070
     1
1002
{
1002
}
1000
M
1070
     0
1002
{
1002
}
1000
I
1070
     0
1002
{
1002
}
1002
}
1000
GEN-ANSI-AXE-H
1070
     5
1002
{
1000
NAME
1070
     4
1000
GEN-ANSI-AXE-H
1002
{
1002
}
1000
DIMBLK1
1070
     4
1000
GENAXEH
1002
{
1002
}
1000
DIMLFAC
1070
     2
1040
2.0
1002
{
1002
}
1000
DIMSAH
1070
     1
1070
     1
1002
{
1002
}
1000
DIMSE1
1070
     1
1070
     1
1002
{
1002
}
1000
DIMSE2
1070
     1
1070
     1
1002
{
1002
}
1000
DIMTAD
1070
     1
1070
     0
1002
{
1002
}
1000
DIMTOFL
1070
     1
1070
     1
1002
{
1002
}
1000
DIMTOLJ
1070
     1
1070
     1
1002
{
1002
}
1000
M
1070
     0
1002
{
1002
}
1000
I
1070
     0
1002
{
1002
}
1002
}
1002
}
1000
DimSet
1070
     0
1002
{
1000
ChainSum
1070
     3
1070
     0
1002
{
1002
}
1000
DimDclTyp0
1070
     4
1000
dim23
1002
{
1002
}
1000
HorBra
1070
     3
1070
     0
1002
{
1002
}
1000
StrDia
1070
     4
1000
%%c<>
1002
{
1002
}
1000
StrRad
1070
     4
1000
R<>
1002
{
1002
}
1000
TextMinus
1070
     4
1000
<>
1002
{
1002
}
1000
TextPlus
1070
     4
1000
<>
1002
{
1002
}
1000
M
1070
     0
1002
{
1000
DimdliFirst
1070
     2
1040
10.0
1002
{
1002
}
1000
PointMakeDist
1070
     2
1040
10.0
1002
{
1002
}
1002
}
1000
I
1070
     0
1002
{
1000
DimdliFirst
1070
     2
1040
0.5
1002
{
1002
}
1000
PointMakeDist
1070
     2
1040
0.5
1002
{
1002
}
1002
}
1000
FitGrade
1070
     4
1000
h7
1002
{
1002
}
1002
}
1000
Drawing
1070
     0
1002
{
1000
ChamferDimMode
1070
     1
1070
     2
1002
{
1002
}
1000
Gen_Fiso
1070
    -3
1040
1.0
1002
{
1002
}
1000
GenDimStil
1070
     4
1000
ISO
1002
{
1002
}
1000
GenDwgUScale
1070
     2
1040
1.0
1002
{
1002
}
1000
GenInch
1070
     4
1000
M
1002
{
1002
}
1000
GenPlotScale
1070
     4
1000
1:5
1002
{
1002
}
1000
Revisi
1070
     4
1000
0
1002
{
1002
}
1000
Version
1070
    -5
1000
14.01/Apr  1 1998
1002
{
1002
}
1000
Platform
1070
    -5
1000
WINNT
1002
{
1002
}
1002
}
1000
DwgVar
1070
     0
1002
{
1000
M
1070
     0
1002
{
1002
}
1000
I
1070
     0
1002
{
1002
}
1002
}
1000
Hatch
1070
     0
1002
{
1000
GenHtcFlag
1070
     3
1070
     0
1002
{
1002
}
1002
}
1000
Info_Pos
1070
     0
1002
{
1000
>
1002
}
1000
Layer
1070
     6
1002
{
1000
Defs
1070
     0
1002
{
1000
>
1002
}
1000
EntSort
1070
     0
1002
{
1000
>
1002
}
1000
Match
1070
     0
1002
{
1002
}
1000
Settings
1070
     0
1002
{
1000
FocGrNC
1070
     3
1070
     0
1002
{
1002
}
1000
FocGrLo
1070
     3
1070
     0
1002
{
1002
}
1000
FocLoNC
1070
     3
1070
     0
1002
{
1002
}
1000
FocusCol
1070
     1
1070
   253
1002
{
1002
}
1000
GenStdLG
1070
     4
1000

1002
{
1002
}
1000
LayMatch
1070
     3
1070
     0
1002
{
1002
}
1000
LgOff
1070
     3
1070
     0
1002
{
1002
}
1000
CurLG
1070
    -5
1000

1002
{
1002
}
1002
}
1002
}
1000
LType
1070
     0
1002
{
1000
GEN3
1070
     7
1000
genius.lin
1002
{
1002
}
1000
GEN7
1070
     7
1000
genius.lin
1002
{
1002
}
1000
GEN4A
1070
     7
1000
genius.lin
1002
{
1002
}
1000
GEN3A
1070
     7
1000
genius.lin
1002
{
1002
}
1000
GEN7A
1070
     7
1000
genius.lin
1002
{
1002
}
1000
GENZIGZAG
1070
     7
1000
genius.lin
1002
{
1002
}
1002
}
1000
Objecter
1070
     0
1002
{
1000
CreateGroups
1070
     3
1070
     0
1002
{
1002
}
1000
LaySwitch
1070
     3
1070
     1
1002
{
1002
}
1000
LastObj
1070
    -5
1000
2B3
1002
{
1002
}
1000
TimeStamp
1070
    -5
1000
20020513.18091908
1002
{
1002
}
1002
}
1000
OSWiz
1070
     0
1002
{
1000
Filter
1070
     0
1002
{
1000
HATCH
1070
     8
1002
{
1000
EntityType
1070
     4
1000
LINE
1002
{
1002
}
1000
Layer
1070
     4
1000
8,8N,*-8,*-8N
1002
{
1002
}
1000
Linetype
1070
     4
1000
*
1002
{
1002
}
1000
Color
1070
     4
1000
*
1002
{
1002
}
1000
ApplyInDims
1070
     3
1070
     1
1002
{
1002
}
1002
}
1000
SYMBOLS
1070
     8
1002
{
1000
EntityType
1070
     4
1000
*
1002
{
1002
}
1000
Layer
1070
     4
1000
[5-6],[5-6]N,*-[5-6],*-[5-6]N
1002
{
1002
}
1000
Linetype
1070
     4
1000
*
1002
{
1002
}
1000
Color
1070
     4
1000
*
1002
{
1002
}
1000
ApplyInDims
1070
     3
1070
     1
1002
{
1002
}
1002
}
1000
FEM
1070
     8
1002
{
1000
EntityType
1070
     4
1000
*
1002
{
1002
}
1000
Layer
1070
     4
1000
4A,4AN,*-4A,*-4AN
1002
{
1002
}
1000
Linetype
1070
     4
1000
*
1002
{
1002
}
1000
Color
1070
     4
1000
*
1002
{
1002
}
1000
ApplyInDims
1070
     3
1070
     1
1002
{
1002
}
1002
}
1002
}
1002
}
1000
PaList
1070
     0
1002
{
1000
AutoUpdatePartList
1070
     1
1070
     0
1002
{
1002
}
1000
ReadInfoPoint
1070
     3
1070
     0
1002
{
1002
}
1000
ReadPosNr
1070
     3
1070
     1
1002
{
1002
}
1000
RevStr
1070
     4
1000
0
1002
{
1002
}
1002
}
1000
Paper
1070
     0
1002
{
1000
Layer
1070
    -5
1000
4,KLIN
1002
{
1002
}
1002
}
1000
PartDB
1070
     0
1002
{
1000
GenDbOwner
1070
     4
1000

1002
{
1002
}
1002
}
1000
System
1070
     0
1002
{
1000
Menu
1070
     4
1000
GEV
1002
{
1002
}
1002
}
1000
Title
1070
     0
1002
{
1000
MakeView
1070
     1
1070
     2
1002
{
1002
}
1002
}
1000
Tools
1070
     0
1002
{
1000
Trans
1070
     0
1002
{
1000
Drawingtranslation
1070
    -4
1070
     1
1002
{
1002
}
1000
upreserve
1070
     3
1070
     0
1002
{
1002
}
1000
originally_on
1070
    -4
1070
     0
1002
{
1002
}
1000
sourcelang
1070
    -5
1000
D
1002
{
1002
}
1002
}
1002
}
  0
APPID
  5
224
330
1D4
100
AcDbSymbolTableRecord
100
AcDbRegAppTableRecord
  2
GENIUS_GEVCFG0_13
 70
     0
1001
GENIUS_GENCFG_13
1071
1021306172
1000
224
1000
GEV
1070
     1
1000
GenCfgObject
1000
VED
1070
     0
1002
{
1002
}
  0
APPID
  5
23E
330
1D4
100
AcDbSymbolTableRecord
100
AcDbRegAppTableRecord
  2
GEV_VCCNULL_SWITCH_OFF
 70
     0
  0
APPID
  5
28E
330
1D4
100
AcDbSymbolTableRecord
100
AcDbRegAppTableRecord
  2
GENIUS_GENBLLY_14
 70
     0
  0
APPID
  5
28F
330
1D4
100
AcDbSymbolTableRecord
100
AcDbRegAppTableRecord
  2
GENIUS_GEFCFG0_13
 70
     0
  0
APPID
  5
290
330
1D4
100
AcDbSymbolTableRecord
100
AcDbRegAppTableRecord
  2
GENIUS_GENREC_14
 70
     0
  0
APPID
  5
291
330
1D4
100
AcDbSymbolTableRecord
100
AcDbRegAppTableRecord
  2
GENIUS_GENOBJ-N-SDF_13
 70
     0
  0
APPID
  5
292
330
1D4
100
AcDbSymbolTableRecord
100
AcDbRegAppTableRecord
  2
GENIUS_GENSCREG_13
 70
     0
  0
APPID
  5
293
330
1D4
100
AcDbSymbolTableRecord
100
AcDbRegAppTableRecord
  2
GENIUS_GENBLKED_14
 70
     0
  0
APPID
  5
5FE
330
1D4
100
AcDbSymbolTableRecord
100
AcDbRegAppTableRecord
  2
GENIUS_GENOBJ-N-FIL_13
 70
     0
  0
APPID
  5
B50
330
1D4
100
AcDbSymbolTableRecord
100
AcDbRegAppTableRecord
  2
MCAD_NO_VIS
 70
     0
  0
APPID
  5
B51
330
1D4
100
AcDbSymbolTableRecord
100
AcDbRegAppTableRecord
  2
ACAD_TEMP_GRAPHIC
 70
     0
  0
APPID
  5
B81
330
1D4
100
AcDbSymbolTableRecord
100
AcDbRegAppTableRecord
  2
AD_DRAW
 70
     0
  0
APPID
  5
B84
330
1D4
100
AcDbSymbolTableRecord
100
AcDbRegAppTableRecord
  2
ACATTRIBSERVICES
 70
     0
  0
APPID
  5
BA4
330
1D4
100
AcDbSymbolTableRecord
100
AcDbRegAppTableRecord
  2
DESIGNERASSEMBLIES
 70
     0
  0
APPID
  5
BAA
330
1D4
100
AcDbSymbolTableRecord
100
AcDbRegAppTableRecord
  2
ACADM_DIM_EDIT
 70
     0
  0
APPID
  5
BAB
330
1D4
100
AcDbSymbolTableRecord
100
AcDbRegAppTableRecord
  2
AMDT_DM_ADJ
 70
     0
  0
APPID
  5
BDD
330
1D4
100
AcDbSymbolTableRecord
100
AcDbRegAppTableRecord
  2
ACAD_DSTYLE_DIMARC_LENGTH_SYMBOL
 70
     0
  0
APPID
  5
BDE
330
1D4
100
AcDbSymbolTableRecord
100
AcDbRegAppTableRecord
  2
ACAD_DSTYLE_DIMJOGGED_JOGANGLE_SYMBOL
 70
     0
  0
APPID
  5
C11
330
1D4
100
AcDbSymbolTableRecord
100
AcDbRegAppTableRecord
  2
GENIUS_GENSCREG_15
 70
     0
  0
ENDTAB
  0
TABLE
  2
DIMSTYLE
  5
1D5
330
0
100
AcDbSymbolTable
 70
     9
100
AcDbDimStyleTable
 71
     0
  0
DIMSTYLE
105
20B
102
{ACAD_REACTORS
330
26
330
115
330
122
330
13C
330
149
330
A20
330
A6B
102
}
330
1D5
100
AcDbSymbolTableRecord
100
AcDbDimStyleTableRecord
  2
GEN-ISO
 70
     0
  4
"
 40
5.0
 41
2.5
 42
1.0
 43
7.0
 44
1.0
 47
0.1
 48
0.1
 73
     0
 74
     0
 77
     1
 78
     8
140
3.5
141
0.0
143
0.03937
146
0.71
147
0.6
172
     1
176
   256
177
   256
178
     2
271
     2
272
     3
274
     4
283
     0
340
1DA
  0
DIMSTYLE
105
B25
330
1D5
100
AcDbSymbolTableRecord
100
AcDbDimStyleTableRecord
  2
ISO-25
 70
     0
 41
2.5
 42
0.625
 43
3.75
 44
1.25
 74
     0
 77
     1
 78
     8
140
2.5
141
2.5
143
0.0394
145
1.0
147
0.625
172
     1
340
1DA
  0
DIMSTYLE
105
BDC
330
1D5
100
AcDbSymbolTableRecord
100
AcDbDimStyleTableRecord
  2
AM_DIN
 70
     0
  4
"
 41
2.5
 42
1.0
 43
10.0
 44
1.0
 47
0.1
 48
0.1
 73
     0
 74
     0
 77
     1
 78
     8
 79
     2
140
3.5
141
0.0
143
0.0393701
146
0.71
147
1.5
172
     1
176
   256
177
   256
178
     2
271
     2
272
     3
274
     4
283
     0
284
     8
340
1DA
371
    -1
372
    -1
1001
ACAD_DSTYLE_DIMARC_LENGTH_SYMBOL
1070
   379
1070
     0
1001
ACAD_DSTYLE_DIMJOGGED_JOGANGLE_SYMBOL
1070
   384
1040
1.570796326794896
  0
DIMSTYLE
105
BED
330
1D5
100
AcDbSymbolTableRecord
100
AcDbDimStyleTableRecord
  2
AM_DIN$3
 70
     0
  4
"
 41
2.5
 42
1.0
 43
10.0
 44
1.0
 47
0.1
 48
0.1
 73
     0
 77
     1
 78
     8
 79
     2
140
3.5
141
0.0
143
0.0393701
146
0.71
147
1.5
176
   256
177
   256
178
     2
271
     2
272
     3
274
     4
283
     0
284
     8
288
     1
289
     0
340
1DA
371
    -1
372
    -1
1001
ACAD_DSTYLE_DIMARC_LENGTH_SYMBOL
1070
   379
1070
     0
1001
ACAD_DSTYLE_DIMJOGGED_JOGANGLE_SYMBOL
1070
   384
1040
1.570796326794896
  0
DIMSTYLE
105
BF2
330
1D5
100
AcDbSymbolTableRecord
100
AcDbDimStyleTableRecord
  2
AM_DIN$4
 70
     0
  4
"
 41
2.5
 42
1.0
 43
10.0
 44
1.0
 47
0.1
 48
0.1
 73
     0
 77
     1
 78
     8
 79
     2
140
3.5
141
0.0
143
0.0393701
146
0.71
147
1.5
176
   256
177
   256
178
     2
271
     2
272
     3
274
     4
283
     0
284
     8
288
     1
289
     0
340
1DA
371
    -1
372
    -1
1001
ACAD_DSTYLE_DIMARC_LENGTH_SYMBOL
1070
   379
1070
     0
1001
ACAD_DSTYLE_DIMJOGGED_JOGANGLE_SYMBOL
1070
   384
1040
1.570796326794896
  0
DIMSTYLE
105
BF7
330
1D5
100
AcDbSymbolTableRecord
100
AcDbDimStyleTableRecord
  2
AM_DIN$6
 70
     0
  4
"
 41
2.5
 42
1.0
 43
10.0
 44
1.0
 47
0.1
 48
0.1
 73
     0
 74
     0
 78
     8
 79
     2
140
3.5
141
0.0
143
0.0393701
146
0.71
147
1.5
172
     1
176
   256
177
   256
178
     2
271
     2
272
     3
274
     4
283
     0
284
     8
340
1DA
371
    -1
372
    -1
1001
ACAD_DSTYLE_DIMARC_LENGTH_SYMBOL
1070
   379
1070
     0
1001
ACAD_DSTYLE_DIMJOGGED_JOGANGLE_SYMBOL
1070
   384
1040
1.570796326794896
  0
DIMSTYLE
105
BFC
330
1D5
100
AcDbSymbolTableRecord
100
AcDbDimStyleTableRecord
  2
AM_DIN$7
 70
     0
  4
"
 41
2.5
 42
1.0
 43
10.0
 44
1.0
 47
0.1
 48
0.1
 73
     0
 74
     0
 77
     1
 78
     8
 79
     2
140
5.0
141
0.0
143
0.0393701
146
0.71
147
1.5
172
     1
176
   256
177
   256
178
     2
271
     2
272
     3
274
     4
283
     0
284
     8
340
1DA
371
    -1
372
    -1
1001
ACAD_DSTYLE_DIMARC_LENGTH_SYMBOL
1070
   379
1070
     0
1001
ACAD_DSTYLE_DIMJOGGED_JOGANGLE_SYMBOL
1070
   384
1040
1.570796326794896
  0
DIMSTYLE
105
C01
330
1D5
100
AcDbSymbolTableRecord
100
AcDbDimStyleTableRecord
  2
AM_DIN$SF
 70
     0
  4
"
 41
2.5
 42
1.0
 43
10.0
 44
1.0
 47
0.1
 48
0.1
 73
     0
 74
     0
 75
     1
 76
     1
 77
     1
 78
     8
 79
     2
140
3.5
141
0.0
143
0.0393701
146
0.71
147
1.5
172
     1
176
   256
177
   256
178
     2
271
     2
272
     3
274
     4
283
     0
284
     8
340
1DA
371
    -1
372
    -1
1001
ACAD_DSTYLE_DIMARC_LENGTH_SYMBOL
1070
   379
1070
     0
1001
ACAD_DSTYLE_DIMJOGGED_JOGANGLE_SYMBOL
1070
   384
1040
1.570796326794896
  0
DIMSTYLE
105
C0A
330
1D5
100
AcDbSymbolTableRecord
100
AcDbDimStyleTableRecord
  2
AM_DIN$SH
 70
     0
  4
"
 41
2.5
 42
1.0
 43
10.0
 44
1.0
 47
0.1
 48
0.1
 73
     0
 74
     0
 75
     1
 76
     1
 77
     1
 78
     8
 79
     2
140
3.5
141
0.0
143
0.0393701
144
2.0
146
0.71
147
1.5
172
     1
173
     1
176
   256
177
   256
178
     2
271
     2
272
     3
274
     4
283
     0
284
     8
340
1DA
343
C02
371
    -1
372
    -1
1001
ACAD_DSTYLE_DIMARC_LENGTH_SYMBOL
1070
   379
1070
     0
1001
ACAD_DSTYLE_DIMJOGGED_JOGANGLE_SYMBOL
1070
   384
1040
1.570796326794896
  0
ENDTAB
  0
TABLE
  2
BLOCK_RECORD
  5
1CC
330
0
100
AcDbSymbolTable
 70
    22
  0
BLOCK_RECORD
  5
1E2
330
1CC
100
AcDbSymbolTableRecord
100
AcDbBlockTableRecord
  2
*MODEL_SPACE
340
B48
  0
BLOCK_RECORD
  5
1DF
330
1CC
100
AcDbSymbolTableRecord
100
AcDbBlockTableRecord
  2
*PAPER_SPACE
340
B49
  0
BLOCK_RECORD
  5
23F
330
1CC
100
AcDbSymbolTableRecord
100
AcDbBlockTableRecord
  2
*D0
340
0
  0
BLOCK_RECORD
  5
258
330
1CC
100
AcDbSymbolTableRecord
100
AcDbBlockTableRecord
  2
*D1
340
0
  0
BLOCK_RECORD
  5
272
330
1CC
100
AcDbSymbolTableRecord
100
AcDbBlockTableRecord
  2
KATALOG_LEER
340
0
102
{BLKREFS
331
295
331
2B2
102
}
  0
BLOCK_RECORD
  5
294
330
1CC
100
AcDbSymbolTableRecord
100
AcDbBlockTableRecord
  2
KATALOG
340
0
  0
BLOCK_RECORD
  5
2B4
330
1CC
100
AcDbSymbolTableRecord
100
AcDbBlockTableRecord
  2
*D4
340
0
  0
BLOCK_RECORD
  5
2DA
330
1CC
100
AcDbSymbolTableRecord
100
AcDbBlockTableRecord
  2
*D5
340
0
  0
BLOCK_RECORD
  5
309
330
1CC
100
AcDbSymbolTableRecord
100
AcDbBlockTableRecord
  2
*D6
340
0
  0
BLOCK_RECORD
  5
315
330
1CC
100
AcDbSymbolTableRecord
100
AcDbBlockTableRecord
  2
*D7
340
0
  0
BLOCK_RECORD
  5
344
330
1CC
100
AcDbSymbolTableRecord
100
AcDbBlockTableRecord
  2
*D8
340
0
  0
BLOCK_RECORD
  5
91E
330
1CC
100
AcDbSymbolTableRecord
100
AcDbBlockTableRecord
  2
*X9
340
0
102
{BLKREFS
331
9A4
102
}
  0
BLOCK_RECORD
  5
929
330
1CC
100
AcDbSymbolTableRecord
100
AcDbBlockTableRecord
  2
*X10
340
0
102
{BLKREFS
331
9DF
102
}
  0
BLOCK_RECORD
  5
934
330
1CC
100
AcDbSymbolTableRecord
100
AcDbBlockTableRecord
  2
*X11
340
0
102
{BLKREFS
331
9AE
102
}
  0
BLOCK_RECORD
  5
93A
330
1CC
100
AcDbSymbolTableRecord
100
AcDbBlockTableRecord
  2
*X12
340
0
102
{BLKREFS
331
9BD
102
}
  0
BLOCK_RECORD
  5
93F
330
1CC
100
AcDbSymbolTableRecord
100
AcDbBlockTableRecord
  2
*X13
340
0
102
{BLKREFS
331
9CA
102
}
  0
BLOCK_RECORD
  5
945
330
1CC
100
AcDbSymbolTableRecord
100
AcDbBlockTableRecord
  2
*X14
340
0
102
{BLKREFS
331
9D7
102
}
  0
BLOCK_RECORD
  5
A12
330
1CC
100
AcDbSymbolTableRecord
100
AcDbBlockTableRecord
  2
*D15
340
0
  0
BLOCK_RECORD
  5
A5D
330
1CC
100
AcDbSymbolTableRecord
100
AcDbBlockTableRecord
  2
*D16
340
0
  0
BLOCK_RECORD
  5
B22
330
1CC
100
AcDbSymbolTableRecord
100
AcDbBlockTableRecord
  2
GEVCON
340
0
  0
BLOCK_RECORD
  5
B26
330
1CC
100
AcDbSymbolTableRecord
100
AcDbBlockTableRecord
  2
GEVEP
340
0
  0
BLOCK_RECORD
  5
B2F
330
1CC
100
AcDbSymbolTableRecord
100
AcDbBlockTableRecord
  2
GEVFRAME
340
0
  0
BLOCK_RECORD
  5
C02
330
1CC
100
AcDbSymbolTableRecord
100
AcDbBlockTableRecord
  2
GENAXEH
340
0
  0
ENDTAB
  0
ENDSEC
  0
SECTION
  2
BLOCKS
  0
BLOCK
  5
215
330
1E2
100
AcDbEntity
  8
0
100
AcDbBlockBegin
  2
*MODEL_SPACE
 70
     0
 10
0.0
 20
0.0
 30
0.0
  3
*MODEL_SPACE
  1

  0
ENDBLK
  5
216
330
1E2
100
AcDbEntity
  8
0
100
AcDbBlockEnd
  0
BLOCK
  5
213
330
1DF
100
AcDbEntity
 67
     1
  8
0
100
AcDbBlockBegin
  2
*PAPER_SPACE
 70
     0
 10
0.0
 20
0.0
 30
0.0
  3
*PAPER_SPACE
  1

  0
ENDBLK
  5
214
330
1DF
100
AcDbEntity
 67
     1
  8
0
100
AcDbBlockEnd
  0
BLOCK
  5
AB4
330
23F
100
AcDbEntity
  8
0
100
AcDbBlockBegin
  2
*D0
 70
     1
 10
0.0
 20
0.0
 30
0.0
  3
*D0
  1
GEVFRAME
  0
LINE
  5
AB5
330
23F
100
AcDbEntity
  8
0
  6
ByBlock
100
AcDbLine
 10
431.100992
 20
600.1586459999999
 30
0.0
 11
431.100992
 21
650.1586459999999
 31
0.0
  0
LINE
  5
AB6
330
23F
100
AcDbEntity
  8
0
  6
ByBlock
100
AcDbLine
 10
256.100992
 20
600.1586459999999
 30
0.0
 11
256.100992
 21
650.1586459999999
 31
0.0
  0
LINE
  5
AB7
330
23F
100
AcDbEntity
  8
0
  6
ByBlock
100
AcDbLine
 10
418.600992
 20
645.1586459999999
 30
0.0
 11
268.600992
 21
645.1586459999999
 31
0.0
  0
SOLID
  5
AB8
330
23F
100
AcDbEntity
  8
0
  6
ByBlock
100
AcDbTrace
 10
418.600992
 20
647.241979
 30
0.0
 11
418.600992
 21
643.075312
 31
0.0
 12
431.100992
 22
645.1586459999999
 32
0.0
 13
431.100992
 23
645.1586459999999
 33
0.0
  0
SOLID
  5
AB9
330
23F
100
AcDbEntity
  8
0
  6
ByBlock
100
AcDbTrace
 10
268.600992
 20
647.241979
 30
0.0
 11
268.600992
 21
643.075312
 31
0.0
 12
256.100992
 22
645.1586459999999
 32
0.0
 13
256.100992
 23
645.1586459999999
 33
0.0
  0
MTEXT
  5
ABA
330
23F
100
AcDbEntity
  8
0
  6
ByBlock
 62
     2
100
AcDbMText
 10
343.600992
 20
656.908646
 30
0.0
 40
17.5
 41
0.0
 71
     5
 72
     1
  1
{\Fgeniso.shx|c0;\U+25A1}175
 73
     1
 44
1.0
1001
ACAD
1000
MTEXTBEGIN
1070
    73
1070
     1
1070
    44
1040
1.0
1070
    74
1070
     0
1000
MTEXTEND
  0
POINT
  5
ABB
330
23F
100
AcDbEntity
  8
DEFPOINTS
  6
ByBlock
 62
     0
100
AcDbPoint
 10
431.100992
 20
595.1586459999999
 30
0.0
  0
POINT
  5
ABC
330
23F
100
AcDbEntity
  8
DEFPOINTS
  6
ByBlock
 62
     0
100
AcDbPoint
 10
256.100992
 20
595.1586459999999
 30
0.0
  0
POINT
  5
ABD
330
23F
100
AcDbEntity
  8
DEFPOINTS
  6
ByBlock
 62
     0
100
AcDbPoint
 10
256.100992
 20
645.1586459999999
 30
0.0
  0
ENDBLK
  5
ABE
330
23F
100
AcDbEntity
  8
0
100
AcDbBlockEnd
  0
BLOCK
  5
2FC
330
258
100
AcDbEntity
  8
0
100
AcDbBlockBegin
  2
*D1
 70
     1
 10
0.0
 20
0.0
 30
0.0
  3
*D1
  1
GEVFRAME
  0
LINE
  5
2FD
330
258
100
AcDbEntity
  8
0
  6
ByBlock
100
AcDbLine
 10
442.100992
 20
600.1586459999999
 30
0.0
 11
442.100992
 21
685.158646
 31
0.0
  0
LINE
  5
2FE
330
258
100
AcDbEntity
  8
0
  6
ByBlock
100
AcDbLine
 10
245.100992
 20
600.1586459999999
 30
0.0
 11
245.100992
 21
685.158646
 31
0.0
  0
LINE
  5
2FF
330
258
100
AcDbEntity
  8
0
  6
ByBlock
100
AcDbLine
 10
429.600992
 20
680.158646
 30
0.0
 11
257.600992
 21
680.158646
 31
0.0
  0
SOLID
  5
300
330
258
100
AcDbEntity
  8
0
  6
ByBlock
100
AcDbTrace
 10
429.600992
 20
682.241979
 30
0.0
 11
429.600992
 21
678.075312
 31
0.0
 12
442.100992
 22
680.158646
 32
0.0
 13
442.100992
 23
680.158646
 33
0.0
  0
SOLID
  5
301
330
258
100
AcDbEntity
  8
0
  6
ByBlock
100
AcDbTrace
 10
257.600992
 20
682.241979
 30
0.0
 11
257.600992
 21
678.075312
 31
0.0
 12
245.100992
 22
680.158646
 32
0.0
 13
245.100992
 23
680.158646
 33
0.0
  0
MTEXT
  5
302
330
258
100
AcDbEntity
  8
0
  6
ByBlock
 62
     2
100
AcDbMText
 10
343.600992
 20
691.9086459999999
 30
0.0
 40
17.5
 41
0.0
 71
     5
 72
     1
  1
{\Fgeniso.shx|c0;\U+25A1}197
 73
     1
 44
1.0
1001
ACAD
1000
MTEXTBEGIN
1070
    73
1070
     1
1070
    44
1040
1.0
1070
    74
1070
     0
1000
MTEXTEND
  0
POINT
  5
303
330
258
100
AcDbEntity
  8
DEFPOINTS
  6
ByBlock
 62
     0
100
AcDbPoint
 10
442.100992
 20
595.1586459999999
 30
0.0
  0
POINT
  5
304
330
258
100
AcDbEntity
  8
DEFPOINTS
  6
ByBlock
 62
     0
100
AcDbPoint
 10
245.100992
 20
595.1586459999999
 30
0.0
  0
POINT
  5
305
330
258
100
AcDbEntity
  8
DEFPOINTS
  6
ByBlock
 62
     0
100
AcDbPoint
 10
245.100992
 20
680.158646
 30
0.0
  0
ENDBLK
  5
306
330
258
100
AcDbEntity
  8
0
100
AcDbBlockEnd
  0
BLOCK
  5
273
330
272
100
AcDbEntity
  8
0
100
AcDbBlockBegin
  2
KATALOG_LEER
 70
     0
 10
0.0
 20
0.0
 30
0.0
  3
KATALOG_LEER
  1

  0
ENDBLK
  5
274
330
272
100
AcDbEntity
  8
0
100
AcDbBlockEnd
  0
BLOCK
  5
2A6
330
294
100
AcDbEntity
  8
0
100
AcDbBlockBegin
  2
KATALOG
 70
     0
 10
0.0
 20
0.0
 30
0.0
  3
KATALOG
  1

  0
INSERT
  5
295
330
294
100
AcDbEntity
  8
0
100
AcDbBlockReference
  2
KATALOG_LEER
 10
205.0
 20
5.0
 30
0.0
1001
GENIUS_GENOREF_13
1005
296
  0
POINT
  5
296
330
294
100
AcDbEntity
  8
0
 60
     1
100
AcDbPoint
 10
0.0
 20
0.0
 30
0.0
1001
GENIUS_GENOBJ-N-TIT_13
1002
{
1000
OWNER
1000
GEN
1002
}
1001
GENIUS_GENOENT_13
1002
{
1000
MYREF
1005
296
1002
}
1002
{
1000
GRP
1005
0
1002
}
1001
GENIUS_GENOLIS_13
1002
{
1000
ENT
1005
295
1005
0
1002
}
1001
GENIUS_GENTITLE_13
1002
{
1000
SCALE
1000
1:1
1002
}
1002
{
1000
BORDER
1000
KATALOG
1002
}
1002
{
1000
TITLE
1000
KATALOG_LEER
1002
}
1002
{
1000
UNCHG
1002
{
1000
GEN-TITLE-SCA
1000
GEN-TITLE-SIZ
1002
}
1002
}
1002
{
1000
HRA
1005
0
1002
}
1002
{
1000
HTIT
1005
295
1002
}
1002
{
1000
GENIUSID
1005
296
1002
}
1001
GENIUS_GENODEF_13
1002
{
1000
HIER
1070
     1
1002
}
1002
{
1000
MANEDIT
1070
     0
1002
}
1002
{
1000
NOSEL
1070
     0
1002
}
1002
{
1000
BEHIND
1070
     0
1002
}
1002
{
1000
REACTOR
1002
}
  0
TEXT
  5
297
330
294
100
AcDbEntity
  8
RAHM3
 60
     1
100
AcDbText
 10
29.391383
 20
162.283165
 30
0.0
 40
3.5
  1
!GENTITLE-MAX
100
AcDbText
  0
TEXT
  5
298
330
294
100
AcDbEntity
  8
RAHM3
 60
     1
100
AcDbText
 10
30.988432
 20
153.503279
 30
0.0
 40
3.5
  1
!GENTITLE-RU
100
AcDbText
  0
TEXT
  5
299
330
294
100
AcDbEntity
  8
RAHM3
 60
     1
100
AcDbText
 10
-85.995418
 20
56.924537
 30
0.0
 40
3.5
  1
!GENTITLE-LL
100
AcDbText
  0
TEXT
  5
29A
330
294
100
AcDbEntity
  8
RAHM3
 60
     1
100
AcDbText
 10
50.36794099999999
 20
2.260896999999999
 30
0.0
 40
3.5
  1
!GENTITLE-INSERT
100
AcDbText
  0
LINE
  5
29B
330
294
100
AcDbEntity
  8
RAHM2
100
AcDbLine
 10
0.0
 20
0.0
 30
0.0
 11
148.5
 21
0.0
 31
0.0
  0
LINE
  5
29C
330
294
100
AcDbEntity
  8
RAHM2
100
AcDbLine
 10
148.5
 20
210.0
 30
0.0
 11
0.0
 21
210.0
 31
0.0
  0
LINE
  5
29D
330
294
100
AcDbEntity
  8
RAHM2
100
AcDbLine
 10
0.0
 20
210.0
 30
0.0
 11
0.0
 21
0.0
 31
0.0
  0
TEXT
  5
29E
330
294
100
AcDbEntity
  8
RAHM3
 60
     1
100
AcDbText
 10
184.023441
 20
165.022268
 30
0.0
 40
3.5
  1
!GENTITLE-MAX
100
AcDbText
  0
TEXT
  5
29F
330
294
100
AcDbEntity
  8
RAHM3
 60
     1
100
AcDbText
 10
185.620491
 20
156.242382
 30
0.0
 40
3.5
  1
!GENTITLE-RU
100
AcDbText
  0
TEXT
  5
2A0
330
294
100
AcDbEntity
  8
RAHM3
 60
     1
100
AcDbText
 10
68.636641
 20
59.663641
 30
0.0
 40
3.5
  1
!GENTITLE-LL
100
AcDbText
  0
TEXT
  5
2A1
330
294
100
AcDbEntity
  8
RAHM3
 60
     1
100
AcDbText
 10
205.0
 20
5.0
 30
0.0
 40
3.5
  1
!GENTITLE-INSERT
100
AcDbText
  0
LINE
  5
2A2
330
294
100
AcDbEntity
  8
RAHM2
100
AcDbLine
 10
148.5
 20
0.0
 30
0.0
 11
148.5
 21
210.0
 31
0.0
  0
LINE
  5
2A3
330
294
100
AcDbEntity
  8
RAHM2
100
AcDbLine
 10
210.0
 20
148.5
 30
0.0
 11
0.0
 21
148.5
 31
0.0
  0
LINE
  5
2A4
330
294
100
AcDbEntity
  8
RAHM2
100
AcDbLine
 10
210.0
 20
0.0
 30
0.0
 11
210.0
 21
148.5
 31
0.0
  0
LINE
  5
2A5
330
294
100
AcDbEntity
  8
RAHM2
100
AcDbLine
 10
0.0
 20
0.0
 30
0.0
 11
210.0
 21
0.0
 31
0.0
  0
ENDBLK
  5
2A7
330
294
100
AcDbEntity
  8
0
100
AcDbBlockEnd
  0
BLOCK
  5
B0A
330
2B4
100
AcDbEntity
  8
0
100
AcDbBlockBegin
  2
*D4
 70
     1
 10
0.0
 20
0.0
 30
0.0
  3
*D4
  1
GEVFRAME
  0
LINE
  5
B0B
330
2B4
100
AcDbEntity
  8
0
  6
ByBlock
100
AcDbLine
 10
244.600992
 20
474.1586459999999
 30
0.0
 11
244.600992
 21
424.1586459999999
 31
0.0
  0
LINE
  5
B0C
330
2B4
100
AcDbEntity
  8
0
  6
ByBlock
100
AcDbLine
 10
442.600992
 20
474.1586459999999
 30
0.0
 11
442.600992
 21
424.1586459999999
 31
0.0
  0
LINE
  5
B0D
330
2B4
100
AcDbEntity
  8
0
  6
ByBlock
100
AcDbLine
 10
257.100992
 20
429.1586459999999
 30
0.0
 11
430.100992
 21
429.1586459999999
 31
0.0
  0
SOLID
  5
B0E
330
2B4
100
AcDbEntity
  8
0
  6
ByBlock
100
AcDbTrace
 10
257.100992
 20
431.2419789999999
 30
0.0
 11
257.100992
 21
427.075312
 31
0.0
 12
244.600992
 22
429.1586459999999
 32
0.0
 13
244.600992
 23
429.1586459999999
 33
0.0
  0
SOLID
  5
B0F
330
2B4
100
AcDbEntity
  8
0
  6
ByBlock
100
AcDbTrace
 10
430.100992
 20
431.2419789999999
 30
0.0
 11
430.100992
 21
427.075312
 31
0.0
 12
442.600992
 22
429.1586459999999
 32
0.0
 13
442.600992
 23
429.1586459999999
 33
0.0
  0
MTEXT
  5
B10
330
2B4
100
AcDbEntity
  8
0
  6
ByBlock
 62
     2
100
AcDbMText
 10
343.600992
 20
440.908646
 30
0.0
 40
17.5
 41
0.0
 71
     5
 72
     1
  1
\U+2205198
 73
     1
 44
1.0
1001
ACAD
1000
MTEXTBEGIN
1070
    73
1070
     1
1070
    44
1040
1.0
1070
    74
1070
     0
1000
MTEXTEND
  0
POINT
  5
B11
330
2B4
100
AcDbEntity
  8
DEFPOINTS
  6
ByBlock
 62
     0
100
AcDbPoint
 10
244.600992
 20
479.1586459999999
 30
0.0
  0
POINT
  5
B12
330
2B4
100
AcDbEntity
  8
DEFPOINTS
  6
ByBlock
 62
     0
100
AcDbPoint
 10
442.600992
 20
479.1586459999999
 30
0.0
  0
POINT
  5
B13
330
2B4
100
AcDbEntity
  8
DEFPOINTS
  6
ByBlock
 62
     0
100
AcDbPoint
 10
442.600992
 20
429.1586459999999
 30
0.0
  0
ENDBLK
  5
B14
330
2B4
100
AcDbEntity
  8
0
100
AcDbBlockEnd
  0
BLOCK
  5
2F1
330
2DA
100
AcDbEntity
  8
0
100
AcDbBlockBegin
  2
*D5
 70
     1
 10
0.0
 20
0.0
 30
0.0
  3
*D5
  1
GEVFRAME
  0
LINE
  5
2F2
330
2DA
100
AcDbEntity
  8
0
  6
ByBlock
100
AcDbLine
 10
223.600992
 20
557.1586459999999
 30
0.0
 11
223.600992
 21
720.1586459999999
 31
0.0
  0
LINE
  5
2F3
330
2DA
100
AcDbEntity
  8
0
  6
ByBlock
100
AcDbLine
 10
463.600992
 20
557.1586459999999
 30
0.0
 11
463.600992
 21
720.1586459999999
 31
0.0
  0
LINE
  5
2F4
330
2DA
100
AcDbEntity
  8
0
  6
ByBlock
100
AcDbLine
 10
236.100992
 20
715.1586459999999
 30
0.0
 11
451.100992
 21
715.1586459999999
 31
0.0
  0
SOLID
  5
2F5
330
2DA
100
AcDbEntity
  8
0
  6
ByBlock
100
AcDbTrace
 10
236.100992
 20
717.241979
 30
0.0
 11
236.100992
 21
713.075312
 31
0.0
 12
223.600992
 22
715.1586459999999
 32
0.0
 13
223.600992
 23
715.1586459999999
 33
0.0
  0
SOLID
  5
2F6
330
2DA
100
AcDbEntity
  8
0
  6
ByBlock
100
AcDbTrace
 10
451.100992
 20
717.241979
 30
0.0
 11
451.100992
 21
713.075312
 31
0.0
 12
463.600992
 22
715.1586459999999
 32
0.0
 13
463.600992
 23
715.1586459999999
 33
0.0
  0
MTEXT
  5
2F7
330
2DA
100
AcDbEntity
  8
0
  6
ByBlock
 62
     2
100
AcDbMText
 10
343.600992
 20
726.9103679999999
 30
0.0
 40
17.5
 41
0.0
 71
     5
 72
     1
  1
\U+2205240
 73
     1
 44
1.0
1001
ACAD
1000
MTEXTBEGIN
1070
    73
1070
     1
1070
    44
1040
1.0
1070
    74
1070
     0
1000
MTEXTEND
  0
POINT
  5
2F8
330
2DA
100
AcDbEntity
  8
DEFPOINTS
  6
ByBlock
 62
     0
100
AcDbPoint
 10
223.600992
 20
552.1586459999999
 30
0.0
  0
POINT
  5
2F9
330
2DA
100
AcDbEntity
  8
DEFPOINTS
  6
ByBlock
 62
     0
100
AcDbPoint
 10
463.600992
 20
552.1586459999999
 30
0.0
  0
POINT
  5
2FA
330
2DA
100
AcDbEntity
  8
DEFPOINTS
  6
ByBlock
 62
     0
100
AcDbPoint
 10
463.600992
 20
715.1586459999999
 30
0.0
  0
ENDBLK
  5
2FB
330
2DA
100
AcDbEntity
  8
0
100
AcDbBlockEnd
  0
BLOCK
  5
32C
330
309
100
AcDbEntity
  8
0
100
AcDbBlockBegin
  2
*D6
 70
     1
 10
0.0
 20
0.0
 30
0.0
  3
*D6
  1
GEVFRAME
  0
LINE
  5
32D
330
309
100
AcDbEntity
  8
0
  6
ByBlock
100
AcDbLine
 10
468.600992
 20
547.158646
 30
0.0
 11
518.412114
 21
547.158646
 31
0.0
  0
LINE
  5
32E
330
309
100
AcDbEntity
  8
0
  6
ByBlock
100
AcDbLine
 10
468.600992
 20
595.1586459999999
 30
0.0
 11
518.412114
 21
595.1586459999999
 31
0.0
  0
LINE
  5
32F
330
309
100
AcDbEntity
  8
0
  6
ByBlock
100
AcDbLine
 10
513.4121139999999
 20
559.658646
 30
0.0
 11
513.4121139999999
 21
582.6586459999999
 31
0.0
  0
SOLID
  5
330
330
309
100
AcDbEntity
  8
0
  6
ByBlock
100
AcDbTrace
 10
511.3287809999999
 20
559.658646
 30
0.0
 11
515.4954479999999
 21
559.658646
 31
0.0
 12
513.4121139999999
 22
547.158646
 32
0.0
 13
513.4121139999999
 23
547.158646
 33
0.0
  0
SOLID
  5
331
330
309
100
AcDbEntity
  8
0
  6
ByBlock
100
AcDbTrace
 10
511.3287809999999
 20
582.6586459999999
 30
0.0
 11
515.4954479999999
 21
582.6586459999999
 31
0.0
 12
513.4121139999999
 22
595.1586459999999
 32
0.0
 13
513.4121139999999
 23
595.1586459999999
 33
0.0
  0
MTEXT
  5
332
330
309
100
AcDbEntity
  8
0
  6
ByBlock
 62
     2
100
AcDbMText
 10
501.6621139999999
 20
571.1586459999999
 30
0.0
 40
17.5
 41
0.0
 71
     5
 72
     1
  1
48
 11
0.0
 21
1.0
 31
0.0
 73
     1
 44
1.0
1001
ACAD
1000
MTEXTBEGIN
1070
    73
1070
     1
1070
    44
1040
1.0
1070
    74
1070
     0
1000
MTEXTEND
  0
POINT
  5
333
330
309
100
AcDbEntity
  8
DEFPOINTS
  6
ByBlock
 62
     0
100
AcDbPoint
 10
463.600992
 20
547.158646
 30
0.0
  0
POINT
  5
334
330
309
100
AcDbEntity
  8
DEFPOINTS
  6
ByBlock
 62
     0
100
AcDbPoint
 10
463.600992
 20
595.1586459999999
 30
0.0
  0
POINT
  5
335
330
309
100
AcDbEntity
  8
DEFPOINTS
  6
ByBlock
 62
     0
100
AcDbPoint
 10
513.4121139999999
 20
595.1586459999999
 30
0.0
  0
ENDBLK
  5
336
330
309
100
AcDbEntity
  8
0
100
AcDbBlockEnd
  0
BLOCK
  5
57C
330
315
100
AcDbEntity
  8
0
100
AcDbBlockBegin
  2
*D7
 70
     1
 10
0.0
 20
0.0
 30
0.0
  3
*D7
  1
GEVFRAME
  0
LINE
  5
57D
330
315
100
AcDbEntity
  8
0
  6
ByBlock
100
AcDbLine
 10
447.600992
 20
479.1586459999999
 30
0.0
 11
553.4121139999999
 21
479.1586459999999
 31
0.0
  0
LINE
  5
57E
330
315
100
AcDbEntity
  8
0
  6
ByBlock
100
AcDbLine
 10
447.100992
 20
595.1586459999999
 30
0.0
 11
553.4121139999999
 21
595.1586459999999
 31
0.0
  0
LINE
  5
57F
330
315
100
AcDbEntity
  8
0
  6
ByBlock
100
AcDbLine
 10
548.412114
 20
491.6586459999999
 30
0.0
 11
548.412114
 21
582.6586459999999
 31
0.0
  0
SOLID
  5
580
330
315
100
AcDbEntity
  8
0
  6
ByBlock
100
AcDbTrace
 10
546.3287809999999
 20
491.6586459999999
 30
0.0
 11
550.495448
 21
491.6586459999999
 31
0.0
 12
548.412114
 22
479.1586459999999
 32
0.0
 13
548.412114
 23
479.1586459999999
 33
0.0
  0
SOLID
  5
581
330
315
100
AcDbEntity
  8
0
  6
ByBlock
100
AcDbTrace
 10
546.3287809999999
 20
582.6586459999999
 30
0.0
 11
550.495448
 21
582.6586459999999
 31
0.0
 12
548.412114
 22
595.1586459999999
 32
0.0
 13
548.412114
 23
595.1586459999999
 33
0.0
  0
MTEXT
  5
582
330
315
100
AcDbEntity
  8
0
  6
ByBlock
 62
     2
100
AcDbMText
 10
536.6621139999999
 20
537.1586459999999
 30
0.0
 40
17.5
 41
0.0
 71
     5
 72
     1
  1
116
 11
0.0
 21
1.0
 31
0.0
 73
     1
 44
1.0
1001
ACAD
1000
MTEXTBEGIN
1070
    73
1070
     1
1070
    44
1040
1.0
1070
    74
1070
     0
1000
MTEXTEND
  0
POINT
  5
583
330
315
100
AcDbEntity
  8
DEFPOINTS
  6
ByBlock
 62
     0
100
AcDbPoint
 10
442.600992
 20
479.1586459999999
 30
0.0
  0
POINT
  5
584
330
315
100
AcDbEntity
  8
DEFPOINTS
  6
ByBlock
 62
     0
100
AcDbPoint
 10
442.100992
 20
595.1586459999999
 30
0.0
  0
POINT
  5
585
330
315
100
AcDbEntity
  8
DEFPOINTS
  6
ByBlock
 62
     0
100
AcDbPoint
 10
548.412114
 20
595.1586459999999
 30
0.0
  0
ENDBLK
  5
586
330
315
100
AcDbEntity
  8
0
100
AcDbBlockEnd
  0
BLOCK
  5
662
330
344
100
AcDbEntity
  8
0
100
AcDbBlockBegin
  2
*D8
 70
     1
 10
0.0
 20
0.0
 30
0.0
  3
*D8
  1
GEVFRAME
  0
LINE
  5
663
330
344
100
AcDbEntity
  8
0
  6
ByBlock
100
AcDbLine
 10
219.600992
 20
497.158646
 30
0.0
 11
219.600992
 21
389.158646
 31
0.0
  0
LINE
  5
664
330
344
100
AcDbEntity
  8
0
  6
ByBlock
100
AcDbLine
 10
467.600992
 20
497.158646
 30
0.0
 11
467.600992
 21
389.158646
 31
0.0
  0
LINE
  5
665
330
344
100
AcDbEntity
  8
0
  6
ByBlock
100
AcDbLine
 10
232.100992
 20
394.158646
 30
0.0
 11
455.100992
 21
394.158646
 31
0.0
  0
SOLID
  5
666
330
344
100
AcDbEntity
  8
0
  6
ByBlock
100
AcDbTrace
 10
232.100992
 20
396.241979
 30
0.0
 11
232.100992
 21
392.075312
 31
0.0
 12
219.600992
 22
394.158646
 32
0.0
 13
219.600992
 23
394.158646
 33
0.0
  0
SOLID
  5
667
330
344
100
AcDbEntity
  8
0
  6
ByBlock
100
AcDbTrace
 10
455.100992
 20
396.241979
 30
0.0
 11
455.100992
 21
392.075312
 31
0.0
 12
467.600992
 22
394.158646
 32
0.0
 13
467.600992
 23
394.158646
 33
0.0
  0
MTEXT
  5
668
330
344
100
AcDbEntity
  8
0
  6
ByBlock
 62
     2
100
AcDbMText
 10
343.600992
 20
405.9103679999999
 30
0.0
 40
17.5
 41
0.0
 71
     5
 72
     1
  1
\U+2205248
 73
     1
 44
1.0
1001
ACAD
1000
MTEXTBEGIN
1070
    73
1070
     1
1070
    44
1040
1.0
1070
    74
1070
     0
1000
MTEXTEND
  0
POINT
  5
669
330
344
100
AcDbEntity
  8
DEFPOINTS
  6
ByBlock
 62
     0
100
AcDbPoint
 10
219.600992
 20
502.1586459999999
 30
0.0
  0
POINT
  5
66A
330
344
100
AcDbEntity
  8
DEFPOINTS
  6
ByBlock
 62
     0
100
AcDbPoint
 10
467.600992
 20
502.1586459999999
 30
0.0
  0
POINT
  5
66B
330
344
100
AcDbEntity
  8
DEFPOINTS
  6
ByBlock
 62
     0
100
AcDbPoint
 10
467.600992
 20
394.158646
 30
0.0
  0
ENDBLK
  5
66C
330
344
100
AcDbEntity
  8
0
100
AcDbBlockEnd
  0
BLOCK
  5
927
330
91E
100
AcDbEntity
  8
0
100
AcDbBlockBegin
  2
*X9
 70
     1
 10
0.0
 20
0.0
 30
0.0
  3
*X9
  1

  0
LINE
  5
91F
330
91E
100
AcDbEntity
  8
8
100
AcDbLine
 10
77.999
 20
472.404
 30
0.0
 11
72.999
 21
467.4039999999999
 31
0.0
  0
LINE
  5
920
330
91E
100
AcDbEntity
  8
8
100
AcDbLine
 10
77.999
 20
467.914
 30
0.0
 11
72.999
 21
462.9139999999999
 31
0.0
  0
LINE
  5
921
330
91E
100
AcDbEntity
  8
8
100
AcDbLine
 10
77.999
 20
463.424
 30
0.0
 11
72.999
 21
458.424
 31
0.0
  0
LINE
  5
922
330
91E
100
AcDbEntity
  8
8
100
AcDbLine
 10
77.999
 20
458.9339999999999
 30
0.0
 11
72.999
 21
453.934
 31
0.0
  0
LINE
  5
923
330
91E
100
AcDbEntity
  8
8
100
AcDbLine
 10
77.999
 20
454.443
 30
0.0
 11
72.999
 21
449.443
 31
0.0
  0
LINE
  5
924
330
91E
100
AcDbEntity
  8
8
100
AcDbLine
 10
77.999
 20
449.953
 30
0.0
 11
72.999
 21
444.953
 31
0.0
  0
LINE
  5
925
330
91E
100
AcDbEntity
  8
8
100
AcDbLine
 10
77.999
 20
445.463
 30
0.0
 11
72.999
 21
440.463
 31
0.0
  0
LINE
  5
926
330
91E
100
AcDbEntity
  8
8
100
AcDbLine
 10
77.999
 20
440.973
 30
0.0
 11
75.85899999999999
 21
438.834
 31
0.0
  0
ENDBLK
  5
928
330
91E
100
AcDbEntity
  8
0
100
AcDbBlockEnd
  0
BLOCK
  5
932
330
929
100
AcDbEntity
  8
0
100
AcDbBlockBegin
  2
*X10
 70
     1
 10
0.0
 20
0.0
 30
0.0
  3
*X10
  1

  0
LINE
  5
92A
330
929
100
AcDbEntity
  8
8
100
AcDbLine
 10
243.999
 20
472.269
 30
0.0
 11
238.999
 21
467.269
 31
0.0
  0
LINE
  5
92B
330
929
100
AcDbEntity
  8
8
100
AcDbLine
 10
243.999
 20
467.7789999999999
 30
0.0
 11
238.999
 21
462.779
 31
0.0
  0
LINE
  5
92C
330
929
100
AcDbEntity
  8
8
100
AcDbLine
 10
243.999
 20
463.2889999999999
 30
0.0
 11
238.999
 21
458.2889999999999
 31
0.0
  0
LINE
  5
92D
330
929
100
AcDbEntity
  8
8
100
AcDbLine
 10
243.999
 20
458.799
 30
0.0
 11
238.999
 21
453.799
 31
0.0
  0
LINE
  5
92E
330
929
100
AcDbEntity
  8
8
100
AcDbLine
 10
243.999
 20
454.309
 30
0.0
 11
238.999
 21
449.309
 31
0.0
  0
LINE
  5
92F
330
929
100
AcDbEntity
  8
8
100
AcDbLine
 10
243.999
 20
449.819
 30
0.0
 11
238.999
 21
444.819
 31
0.0
  0
LINE
  5
930
330
929
100
AcDbEntity
  8
8
100
AcDbLine
 10
243.999
 20
445.328
 30
0.0
 11
238.999
 21
440.328
 31
0.0
  0
LINE
  5
931
330
929
100
AcDbEntity
  8
8
100
AcDbLine
 10
243.999
 20
440.838
 30
0.0
 11
241.994
 21
438.834
 31
0.0
  0
ENDBLK
  5
933
330
929
100
AcDbEntity
  8
0
100
AcDbBlockEnd
  0
BLOCK
  5
938
330
934
100
AcDbEntity
  8
0
100
AcDbBlockBegin
  2
*X11
 70
     1
 10
0.0
 20
0.0
 30
0.0
  3
*X11
  1

  0
LINE
  5
935
330
934
100
AcDbEntity
  8
8
100
AcDbLine
 10
110.499
 20
473.4729999999999
 30
0.0
 11
107.499
 21
470.473
 31
0.0
  0
LINE
  5
936
330
934
100
AcDbEntity
  8
8
100
AcDbLine
 10
110.499
 20
468.9829999999999
 30
0.0
 11
107.499
 21
465.983
 31
0.0
  0
LINE
  5
937
330
934
100
AcDbEntity
  8
8
100
AcDbLine
 10
110.499
 20
464.493
 30
0.0
 11
107.84
 21
461.8339999999999
 31
0.0
  0
ENDBLK
  5
939
330
934
100
AcDbEntity
  8
0
100
AcDbBlockEnd
  0
BLOCK
  5
93D
330
93A
100
AcDbEntity
  8
0
100
AcDbBlockBegin
  2
*X12
 70
     1
 10
0.0
 20
0.0
 30
0.0
  3
*X12
  1

  0
LINE
  5
93B
330
93A
100
AcDbEntity
  8
8
100
AcDbLine
 10
143.499
 20
470.5519999999999
 30
0.0
 11
140.499
 21
467.5519999999999
 31
0.0
  0
LINE
  5
93C
330
93A
100
AcDbEntity
  8
8
100
AcDbLine
 10
143.499
 20
466.0619999999999
 30
0.0
 11
140.499
 21
463.0619999999999
 31
0.0
  0
ENDBLK
  5
93E
330
93A
100
AcDbEntity
  8
0
100
AcDbBlockEnd
  0
BLOCK
  5
943
330
93F
100
AcDbEntity
  8
0
100
AcDbBlockBegin
  2
*X13
 70
     1
 10
0.0
 20
0.0
 30
0.0
  3
*X13
  1

  0
LINE
  5
940
330
93F
100
AcDbEntity
  8
8
100
AcDbLine
 10
176.499
 20
472.121
 30
0.0
 11
173.499
 21
469.1209999999999
 31
0.0
  0
LINE
  5
941
330
93F
100
AcDbEntity
  8
8
100
AcDbLine
 10
176.499
 20
467.6309999999999
 30
0.0
 11
173.499
 21
464.6309999999999
 31
0.0
  0
LINE
  5
942
330
93F
100
AcDbEntity
  8
8
100
AcDbLine
 10
176.499
 20
463.1409999999999
 30
0.0
 11
175.192
 21
461.8339999999999
 31
0.0
  0
ENDBLK
  5
944
330
93F
100
AcDbEntity
  8
0
100
AcDbBlockEnd
  0
BLOCK
  5
949
330
945
100
AcDbEntity
  8
0
100
AcDbBlockBegin
  2
*X14
 70
     1
 10
0.0
 20
0.0
 30
0.0
  3
*X14
  1

  0
LINE
  5
946
330
945
100
AcDbEntity
  8
8
100
AcDbLine
 10
209.499
 20
473.69
 30
0.0
 11
206.499
 21
470.69
 31
0.0
  0
LINE
  5
947
330
945
100
AcDbEntity
  8
8
100
AcDbLine
 10
209.499
 20
469.2
 30
0.0
 11
206.499
 21
466.1999999999999
 31
0.0
  0
LINE
  5
948
330
945
100
AcDbEntity
  8
8
100
AcDbLine
 10
209.499
 20
464.71
 30
0.0
 11
206.623
 21
461.8339999999999
 31
0.0
  0
ENDBLK
  5
94A
330
945
100
AcDbEntity
  8
0
100
AcDbBlockEnd
  0
BLOCK
  5
AEC
330
A12
100
AcDbEntity
  8
0
100
AcDbBlockBegin
  2
*D15
 70
     1
 10
0.0
 20
0.0
 30
0.0
  3
*D15
  1
GEVFRAME
  0
LINE
  5
AED
330
A12
100
AcDbEntity
  8
0
  6
ByBlock
100
AcDbLine
 10
361.600992
 20
91.582801
 30
0.0
 11
361.600992
 21
2.0828
 31
0.0
  0
LINE
  5
AEE
330
A12
100
AcDbEntity
  8
0
  6
ByBlock
100
AcDbLine
 10
391.600992
 20
91.582801
 30
0.0
 11
391.600992
 21
2.0828
 31
0.0
  0
LINE
  5
AEF
330
A12
100
AcDbEntity
  8
0
  6
ByBlock
100
AcDbLine
 10
349.100992
 20
7.082799999999999
 30
0.0
 11
336.600992
 21
7.082799999999999
 31
0.0
  0
LINE
  5
AF0
330
A12
100
AcDbEntity
  8
0
  6
ByBlock
100
AcDbLine
 10
404.100992
 20
7.082799999999999
 30
0.0
 11
416.600992
 21
7.082799999999999
 31
0.0
  0
LINE
  5
AF1
330
A12
100
AcDbEntity
  8
0
  6
ByBlock
100
AcDbLine
 10
361.600992
 20
7.082799999999999
 30
0.0
 11
391.600992
 21
7.082799999999999
 31
0.0
  0
SOLID
  5
AF2
330
A12
100
AcDbEntity
  8
0
  6
ByBlock
100
AcDbTrace
 10
349.100992
 20
9.166133999999999
 30
0.0
 11
349.100992
 21
4.999467
 31
0.0
 12
361.600992
 22
7.082799999999999
 32
0.0
 13
361.600992
 23
7.082799999999999
 33
0.0
  0
SOLID
  5
AF3
330
A12
100
AcDbEntity
  8
0
  6
ByBlock
100
AcDbTrace
 10
404.100992
 20
9.166133999999999
 30
0.0
 11
404.100992
 21
4.999467
 31
0.0
 12
391.600992
 22
7.082799999999999
 32
0.0
 13
391.600992
 23
7.082799999999999
 33
0.0
  0
MTEXT
  5
AF4
330
A12
100
AcDbEntity
  8
0
  6
ByBlock
 62
     2
100
AcDbMText
 10
376.600992
 20
18.8328
 30
0.0
 40
17.5
 41
0.0
 71
     5
 72
     1
  1
30
 73
     1
 44
1.0
1001
ACAD
1000
MTEXTBEGIN
1070
    73
1070
     1
1070
    44
1040
1.0
1070
    74
1070
     0
1000
MTEXTEND
  0
POINT
  5
AF5
330
A12
100
AcDbEntity
  8
DEFPOINTS
  6
ByBlock
 62
     0
100
AcDbPoint
 10
361.600992
 20
96.582801
 30
0.0
  0
POINT
  5
AF6
330
A12
100
AcDbEntity
  8
DEFPOINTS
  6
ByBlock
 62
     0
100
AcDbPoint
 10
391.600992
 20
96.582801
 30
0.0
  0
POINT
  5
AF7
330
A12
100
AcDbEntity
  8
DEFPOINTS
  6
ByBlock
 62
     0
100
AcDbPoint
 10
391.600992
 20
7.082799999999999
 30
0.0
  0
ENDBLK
  5
AF8
330
A12
100
AcDbEntity
  8
0
100
AcDbBlockEnd
  0
BLOCK
  5
AF9
330
A5D
100
AcDbEntity
  8
0
100
AcDbBlockBegin
  2
*D16
 70
     1
 10
0.0
 20
0.0
 30
0.0
  3
*D16
  1
GEVFRAME
  0
LINE
  5
AFA
330
A5D
100
AcDbEntity
  8
0
  6
ByBlock
100
AcDbLine
 10
429.100992
 20
125.082801
 30
0.0
 11
518.6009929999999
 21
125.082801
 31
0.0
  0
LINE
  5
AFB
330
A5D
100
AcDbEntity
  8
0
  6
ByBlock
100
AcDbLine
 10
429.100992
 20
96.582801
 30
0.0
 11
518.6009929999999
 21
96.582801
 31
0.0
  0
LINE
  5
AFC
330
A5D
100
AcDbEntity
  8
0
  6
ByBlock
100
AcDbLine
 10
513.600993
 20
137.582801
 30
0.0
 11
513.600993
 21
150.082801
 31
0.0
  0
LINE
  5
AFD
330
A5D
100
AcDbEntity
  8
0
  6
ByBlock
100
AcDbLine
 10
513.600993
 20
84.082801
 30
0.0
 11
513.600993
 21
71.582801
 31
0.0
  0
LINE
  5
AFE
330
A5D
100
AcDbEntity
  8
0
  6
ByBlock
100
AcDbLine
 10
513.600993
 20
125.082801
 30
0.0
 11
513.600993
 21
96.582801
 31
0.0
  0
SOLID
  5
AFF
330
A5D
100
AcDbEntity
  8
0
  6
ByBlock
100
AcDbTrace
 10
511.5176589999999
 20
137.582801
 30
0.0
 11
515.6843259999999
 21
137.582801
 31
0.0
 12
513.600993
 22
125.082801
 32
0.0
 13
513.600993
 23
125.082801
 33
0.0
  0
SOLID
  5
B00
330
A5D
100
AcDbEntity
  8
0
  6
ByBlock
100
AcDbTrace
 10
511.5176589999999
 20
84.082801
 30
0.0
 11
515.6843259999999
 21
84.082801
 31
0.0
 12
513.600993
 22
96.582801
 32
0.0
 13
513.600993
 23
96.582801
 33
0.0
  0
MTEXT
  5
B01
330
A5D
100
AcDbEntity
  8
0
  6
ByBlock
 62
     2
100
AcDbMText
 10
501.8509929999999
 20
110.832801
 30
0.0
 40
17.5
 41
0.0
 71
     5
 72
     1
  1
30
 11
0.0
 21
1.0
 31
0.0
 73
     1
 44
1.0
1001
ACAD
1000
MTEXTBEGIN
1070
    73
1070
     1
1070
    44
1040
1.0
1070
    74
1070
     0
1000
MTEXTEND
  0
POINT
  5
B02
330
A5D
100
AcDbEntity
  8
DEFPOINTS
  6
ByBlock
 62
     0
100
AcDbPoint
 10
424.100992
 20
125.082801
 30
0.0
  0
POINT
  5
B03
330
A5D
100
AcDbEntity
  8
DEFPOINTS
  6
ByBlock
 62
     0
100
AcDbPoint
 10
424.100992
 20
96.582801
 30
0.0
  0
POINT
  5
B04
330
A5D
100
AcDbEntity
  8
DEFPOINTS
  6
ByBlock
 62
     0
100
AcDbPoint
 10
513.600993
 20
96.582801
 30
0.0
  0
ENDBLK
  5
B05
330
A5D
100
AcDbEntity
  8
0
100
AcDbBlockEnd
  0
BLOCK
  5
B23
330
B22
100
AcDbEntity
  8
0
100
AcDbBlockBegin
  2
GEVCON
 70
     0
 10
0.0
 20
0.0
 30
0.0
  3
GEVCON
  1
GEVCON
  0
ENDBLK
  5
B24
330
B22
100
AcDbEntity
  8
0
100
AcDbBlockEnd
  0
BLOCK
  5
B2D
330
B26
100
AcDbEntity
  8
0
100
AcDbBlockBegin
  2
GEVEP
 70
     0
 10
0.0
 20
0.0
 30
0.0
  3
GEVEP
  1

  0
LINE
  5
B27
330
B26
100
AcDbEntity
  8
0
100
AcDbLine
 10
2.0
 20
-2.0
 30
0.0
 11
-2.0
 21
-2.0
 31
0.0
  0
LINE
  5
B28
330
B26
100
AcDbEntity
  8
0
100
AcDbLine
 10
-2.0
 20
2.0
 30
0.0
 11
2.0
 21
2.0
 31
0.0
  0
LINE
  5
B29
330
B26
100
AcDbEntity
  8
0
100
AcDbLine
 10
2.0
 20
-2.0
 30
0.0
 11
-2.0
 21
2.0
 31
0.0
  0
LINE
  5
B2A
330
B26
100
AcDbEntity
  8
0
100
AcDbLine
 10
-2.0
 20
-2.0
 30
0.0
 11
2.0
 21
2.0
 31
0.0
  0
LINE
  5
B2B
330
B26
100
AcDbEntity
  8
0
100
AcDbLine
 10
-2.0
 20
-2.0
 30
0.0
 11
-2.0
 21
2.0
 31
0.0
  0
LINE
  5
B2C
330
B26
100
AcDbEntity
  8
0
100
AcDbLine
 10
2.0
 20
2.0
 30
0.0
 11
2.0
 21
-2.0
 31
0.0
  0
ENDBLK
  5
B2E
330
B26
100
AcDbEntity
  8
0
100
AcDbBlockEnd
  0
BLOCK
  5
B30
330
B2F
100
AcDbEntity
  8
0
100
AcDbBlockBegin
  2
GEVFRAME
 70
     0
 10
0.0
 20
0.0
 30
0.0
  3
GEVFRAME
  1
GEVFRAME
  0
LINE
  5
B31
330
B2F
100
AcDbEntity
  8
0
100
AcDbLine
 10
0.0
 20
0.0
 30
0.0
 11
1.0
 21
0.0
 31
0.0
  0
LINE
  5
B32
330
B2F
100
AcDbEntity
  8
0
100
AcDbLine
 10
1.0
 20
0.0
 30
0.0
 11
1.0
 21
1.0
 31
0.0
  0
LINE
  5
B33
330
B2F
100
AcDbEntity
  8
0
100
AcDbLine
 10
1.0
 20
1.0
 30
0.0
 11
0.0
 21
1.0
 31
0.0
  0
LINE
  5
B34
330
B2F
100
AcDbEntity
  8
0
100
AcDbLine
 10
0.0
 20
1.0
 30
0.0
 11
0.0
 21
0.0
 31
0.0
  0
ENDBLK
  5
B35
330
B2F
100
AcDbEntity
  8
0
100
AcDbBlockEnd
  0
BLOCK
  5
C04
330
C02
100
AcDbEntity
  8
0
100
AcDbBlockBegin
  2
GENAXEH
 70
     0
 10
0.0
 20
0.0
 30
0.0
  3
GENAXEH
  1

  0
LINE
  5
C03
330
C02
100
AcDbEntity
  8
0
100
AcDbLine
 10
-1.0
 20
0.0
 30
0.0
 11
1.0
 21
0.0
 31
0.0
  0
ENDBLK
  5
C05
330
C02
100
AcDbEntity
  8
0
100
AcDbBlockEnd
  0
ENDSEC
  0
SECTION
  2
ENTITIES
  0
LINE
  5
3
330
1E2
100
AcDbEntity
  8
0
100
AcDbLine
 10
245.100992
 20
595.1586459999999
 30
0.0
 11
442.100992
 21
595.1586459999999
 31
0.0
  0
LINE
  5
7
330
1E2
100
AcDbEntity
  8
0
100
AcDbLine
 10
442.600992
 20
479.1586459999999
 30
0.0
 11
244.600992
 21
479.1586459999999
 31
0.0
  0
LINE
  5
8
330
1E2
100
AcDbEntity
  8
7
100
AcDbLine
 10
343.600992
 20
601.158646
 30
0.0
 11
343.600992
 21
473.1586459999999
 31
0.0
1001
GENIUS_GENODEF_13
1002
{
1000
HIER
1070
     0
1002
}
1002
{
1000
MANEDIT
1070
     0
1002
}
1002
{
1000
NOSEL
1070
     0
1002
}
1002
{
1000
BEHIND
1070
     0
1002
}
1002
{
1000
REACTOR
1002
}
1001
GENIUS_GENOBJ-N-CEN_13
1002
{
1000
OWNER
1000
GEN
1002
}
  0
DIMENSION
  5
26
330
1E2
100
AcDbEntity
  8
5
100
AcDbDimension
  2
*D4
 10
442.600992
 20
429.1586459999999
 30
0.0
 11
343.600992
 21
440.908646
 31
0.0
 70
    32
  1
%%c<>
 71
     5
 42
-1.0
  3
GEN-ISO
100
AcDbAlignedDimension
 13
244.600992
 23
479.1586459999999
 33
0.0
 14
442.600992
 24
479.1586459999999
 34
0.0
100
AcDbRotatedDimension
1001
GENIUS_GENDTOL_13
1000

1000
h7
1000

1040
0.0
  0
LINE
  5
5B
330
1E2
100
AcDbEntity
  8
0
100
AcDbLine
 10
343.600992
 20
547.158646
 30
0.0
 11
258.196717
 21
547.158646
 31
0.0
  0
LINE
  5
5C
330
1E2
100
AcDbEntity
  8
0
100
AcDbLine
 10
242.818881
 20
553.8399929999999
 30
0.0
 11
225.883102
 21
552.358304
 31
0.0
  0
LINE
  5
5D
330
1E2
100
AcDbEntity
  8
0
100
AcDbLine
 10
256.100992
 20
595.1586459999999
 30
0.0
 11
258.196717
 21
547.158646
 31
0.0
1001
GENIUS_GENODEF_13
1002
{
1000
HIER
1070
     0
1002
}
1002
{
1000
MANEDIT
1070
     0
1002
}
1002
{
1000
NOSEL
1070
     0
1002
}
1002
{
1000
BEHIND
1070
     0
1002
}
1002
{
1000
REACTOR
1002
}
1001
GENIUS_GENOBJ-N-CEN_13
1002
{
1000
OWNER
1000
GEN
1002
}
  0
LINE
  5
5E
330
1E2
100
AcDbEntity
  8
0
100
AcDbLine
 10
245.100992
 20
595.1586459999999
 30
0.0
 11
245.100992
 21
556.33048
 31
0.0
1001
GENIUS_GENODEF_13
1002
{
1000
HIER
1070
     0
1002
}
1002
{
1000
MANEDIT
1070
     0
1002
}
1002
{
1000
NOSEL
1070
     0
1002
}
1002
{
1000
BEHIND
1070
     0
1002
}
1002
{
1000
REACTOR
1002
}
1001
GENIUS_GENOBJ-N-CEN_13
1002
{
1000
OWNER
1000
GEN
1002
}
  0
LINE
  5
61
330
1E2
100
AcDbEntity
  8
0
100
AcDbLine
 10
223.600992
 20
549.8678179999999
 30
0.0
 11
223.600992
 21
547.158646
 31
0.0
1001
GENIUS_VERSION2
1070
     2
1001
GENIUS_GENODEF_13
1002
{
1000
HIER
1070
     0
1002
}
1002
{
1000
MANEDIT
1070
     0
1002
}
1002
{
1000
NOSEL
1070
     0
1002
}
1002
{
1000
BEHIND
1070
     0
1002
}
1002
{
1000
REACTOR
1002
}
1001
GENIUS_GENOBJ-N-CEN_13
1002
{
1000
OWNER
1000
GEN
1002
}
  0
DIMENSION
  5
115
330
1E2
100
AcDbEntity
  8
5
100
AcDbDimension
  2
*D1
 10
245.100992
 20
680.158646
 30
0.0
 11
343.600992
 21
691.9086459999999
 31
0.0
 70
    32
  1
{\Fgeniso.shx;\U+25A1}<>
 71
     5
 42
-1.0
  3
GEN-ISO
100
AcDbAlignedDimension
 13
442.100992
 23
595.1586459999999
 33
0.0
 14
245.100992
 24
595.1586459999999
 34
0.0
100
AcDbRotatedDimension
1001
ACAD
1000
DSTYLE
1002
{
1070
   283
1070
     0
1002
}
1001
GENIUS_GENDTOL_13
1000

1000
h7
1000

1040
0.0
1000
{\Fgeniso.shx;\U+25A1}<>
  0
DIMENSION
  5
122
330
1E2
100
AcDbEntity
  8
5
100
AcDbDimension
  2
*D5
 10
463.600992
 20
715.1586459999999
 30
0.0
 11
343.600992
 21
726.9103679999999
 31
0.0
 70
    32
  1
%%c<>
 71
     5
 42
-1.0
  3
GEN-ISO
100
AcDbAlignedDimension
 13
223.600992
 23
552.1586459999999
 33
0.0
 14
463.600992
 24
552.1586459999999
 34
0.0
100
AcDbRotatedDimension
1001
GENIUS_GENDTOL_13
1000

1000
h7
1000

1040
0.0
  0
DIMENSION
  5
13C
330
1E2
100
AcDbEntity
  8
5
100
AcDbDimension
  2
*D7
 10
548.412114
 20
595.1586459999999
 30
0.0
 11
536.6621139999999
 21
537.1586459999999
 31
0.0
 70
    32
  1
<>
 71
     5
 42
-1.0
  3
GEN-ISO
100
AcDbAlignedDimension
 13
442.600992
 23
479.1586459999999
 33
0.0
 14
442.100992
 24
595.1586459999999
 34
0.0
 50
90.0
100
AcDbRotatedDimension
1001
GENIUS_GENDTOL_13
1000

1000
h7
1000

1040
0.0
  0
DIMENSION
  5
149
330
1E2
100
AcDbEntity
  8
5
100
AcDbDimension
  2
*D6
 10
513.4121139999999
 20
595.1586459999999
 30
0.0
 11
501.6621139999999
 21
571.1586459999999
 31
0.0
 70
    32
  1
<>
 71
     5
 42
-1.0
  3
GEN-ISO
100
AcDbAlignedDimension
 13
463.600992
 23
547.158646
 33
0.0
 14
463.600992
 24
595.1586459999999
 34
0.0
 50
90.0
100
AcDbRotatedDimension
1001
GENIUS_GENDTOL_13
1000

1000
h7
1000

1040
0.0
  0
ARC
  5
158
330
1E2
100
AcDbEntity
  8
0
100
AcDbCircle
 10
343.600992
 20
218.732954
 30
0.0
 40
120.0
100
AcDbArc
 50
55.16830099999999
 51
124.831699
  0
LINE
  5
159
330
1E2
100
AcDbEntity
  8
7
100
AcDbLine
 10
343.600992
 20
218.732954
 30
0.0
 11
472.725986
 21
218.732954
 31
0.0
1001
GENIUS_GENOREF_13
1005
15D
  0
LINE
  5
15A
330
1E2
100
AcDbEntity
  8
7
100
AcDbLine
 10
343.600992
 20
218.732954
 30
0.0
 11
343.600992
 21
347.857948
 31
0.0
1001
GENIUS_GENOREF_13
1005
15D
  0
LINE
  5
15B
330
1E2
100
AcDbEntity
  8
7
100
AcDbLine
 10
343.600992
 20
218.732954
 30
0.0
 11
214.475998
 21
218.732954
 31
0.0
1001
GENIUS_GENOREF_13
1005
15D
  0
LINE
  5
15C
330
1E2
100
AcDbEntity
  8
7
100
AcDbLine
 10
343.600992
 20
218.732954
 30
0.0
 11
343.600992
 21
89.60796
 31
0.0
1001
GENIUS_VERSION2
1070
     2
1001
GENIUS_GENOREF_13
1005
15D
  0
POINT
  5
15D
330
1E2
100
AcDbEntity
  8
0
 60
     1
100
AcDbPoint
 10
0.0
 20
0.0
 30
0.0
1001
GENIUS_GENODEF_13
1002
{
1000
HIER
1070
    10
1002
}
1002
{
1000
MANEDIT
1070
     0
1002
}
1002
{
1000
NOSEL
1070
     0
1002
}
1002
{
1000
BEHIND
1070
     0
1002
}
1002
{
1000
REACTOR
1002
}
1001
GENIUS_GENOBJ-N-CRS_13
1002
{
1000
OWNER
1000
GEN
1002
}
1001
GENIUS_GENOENT_13
1002
{
1000
MYREF
1005
15D
1002
}
1002
{
1000
GRP
1005
0
1002
}
1001
GENIUS_GENOLIS_13
1002
{
1000
ENT
1005
15C
1005
15B
1005
15A
1005
159
1002
}
  0
POLYLINE
  5
15E
330
1E2
100
AcDbEntity
  8
0
100
AcDb2dPolyline
 66
     1
 10
0.0
 20
0.0
 30
0.0
 70
     1
1001
GENIUS_GENODEF_13
1002
{
1000
HIER
1070
     0
1002
}
1002
{
1000
MANEDIT
1070
     0
1002
}
1002
{
1000
NOSEL
1070
     0
1002
}
1002
{
1000
BEHIND
1070
     0
1002
}
1002
{
1000
REACTOR
1002
}
1001
GENIUS_GENOBJ-N-REC_13
1002
{
1000
OWNER
1000
GEN
1002
}
1001
GENIUS_GENREC_13
1070
     4
1070
     3
1070
     4
  0
VERTEX
  5
1C2
330
15E
100
AcDbEntity
  8
0
100
AcDbVertex
100
AcDb2dVertex
 10
245.100992
 20
120.232954
 30
0.0
  0
VERTEX
  5
1C3
330
15E
100
AcDbEntity
  8
0
100
AcDbVertex
100
AcDb2dVertex
 10
442.100992
 20
120.232954
 30
0.0
  0
VERTEX
  5
1C4
330
15E
100
AcDbEntity
  8
0
100
AcDbVertex
100
AcDb2dVertex
 10
442.100992
 20
317.232954
 30
0.0
  0
VERTEX
  5
1C5
330
15E
100
AcDbEntity
  8
0
100
AcDbVertex
100
AcDb2dVertex
 10
245.100992
 20
317.232954
 30
0.0
  0
SEQEND
  5
1C6
330
15E
100
AcDbEntity
  8
0
  0
ARC
  5
171
330
1E2
100
AcDbEntity
  8
0
100
AcDbCircle
 10
343.600992
 20
218.732954
 30
0.0
 40
120.0
100
AcDbArc
 50
145.168301
 51
214.831699
  0
ARC
  5
172
330
1E2
100
AcDbEntity
  8
0
100
AcDbCircle
 10
343.600992
 20
218.732954
 30
0.0
 40
120.0
100
AcDbArc
 50
235.168301
 51
304.831699
  0
ARC
  5
173
330
1E2
100
AcDbEntity
  8
0
100
AcDbCircle
 10
343.600992
 20
218.732954
 30
0.0
 40
120.0
100
AcDbArc
 50
325.168301
 51
34.831699
  0
INSERT
  5
2B2
330
1E2
100
AcDbEntity
  8
0
100
AcDbBlockReference
  2
KATALOG_LEER
 10
251.839706
 20
11.304483
 30
0.0
 41
5.0
 42
5.0
 43
5.0
1001
GENIUS_GENOREF_13
1005
2B3
  0
POINT
  5
2B3
330
1E2
100
AcDbEntity
  8
0
 60
     1
100
AcDbPoint
 10
0.0
 20
0.0
 30
0.0
1001
GENIUS_GENOBJ-N-TIT_13
1002
{
1000
OWNER
1000
GEN
1002
}
1001
GENIUS_GENOENT_13
1002
{
1000
MYREF
1005
2B3
1002
}
1002
{
1000
GRP
1005
0
1002
}
1001
GENIUS_GENOLIS_13
1002
{
1000
ENT
1005
2B2
1002
}
1001
GENIUS_GENTITLE_13
1002
{
1000
SCALE
1000
1:5
1002
}
1002
{
1000
BORDER
1000
KATALOG
1002
}
1002
{
1000
TITLE
1000
KATALOG_LEER
1002
}
1002
{
1000
UNCHG
1002
{
1000
GEN-TITLE-SCA
1000
GEN-TITLE-SIZ
1002
}
1002
}
1002
{
1000
HRA
1005
2AB
1002
}
1002
{
1000
HTIT
1005
2B2
1002
}
1002
{
1000
GENIUSID
1005
2B3
1002
}
1001
GENIUS_GENODEF_13
1002
{
1000
HIER
1070
     1
1002
}
1002
{
1000
MANEDIT
1070
     1
1002
}
1002
{
1000
NOSEL
1070
     0
1002
}
1002
{
1000
BEHIND
1070
     0
1002
}
1002
{
1000
REACTOR
1002
}
  0
LINE
  5
5C0
330
1E2
100
AcDbEntity
  8
0
100
AcDbLine
 10
243.361304
 20
514.6586459999999
 30
0.0
 11
236.297814
 21
514.6586459999999
 31
0.0
  0
LINE
  5
5C2
330
1E2
100
AcDbEntity
  8
0
100
AcDbLine
 10
236.297814
 20
514.6586459999999
 30
0.0
 11
236.297814
 21
507.1586459999999
 31
0.0
  0
LINE
  5
5C4
330
1E2
100
AcDbEntity
  8
0
100
AcDbLine
 10
236.297814
 20
507.1586459999999
 30
0.0
 11
218.797814
 21
507.1586459999999
 31
0.0
  0
LINE
  5
5C6
330
1E2
100
AcDbEntity
  8
0
100
AcDbLine
 10
218.797814
 20
507.1586459999999
 30
0.0
 11
218.797814
 21
502.1586459999999
 31
0.0
  0
LINE
  5
5C8
330
1E2
100
AcDbEntity
  8
0
100
AcDbLine
 10
218.797814
 20
502.1586459999999
 30
0.0
 11
243.797814
 21
502.1586459999999
 31
0.0
  0
LINE
  5
5CD
330
1E2
100
AcDbEntity
  8
0
100
AcDbLine
 10
236.297814
 20
514.6586459999999
 30
0.0
 11
218.797814
 21
507.1586459999999
 31
0.0
  0
LINE
  5
5D2
330
1E2
100
AcDbEntity
  8
0
100
AcDbLine
 10
242.226379
 20
547.158646
 30
0.0
 11
244.600992
 21
479.1586459999999
 31
0.0
  0
LINE
  5
5E3
330
1E2
100
AcDbEntity
  8
0
100
AcDbLine
 10
258.196717
 20
547.158646
 30
0.0
 11
251.847367
 21
479.1586459999999
 31
0.0
  0
LINE
  5
5FA
330
1E2
100
AcDbEntity
  8
0
100
AcDbLine
 10
242.226379
 20
547.158646
 30
0.0
 11
223.600992
 21
547.158646
 31
0.0
  0
ARC
  5
5FD
330
1E2
100
AcDbEntity
  8
0
100
AcDbCircle
 10
242.600992
 20
556.33048
 30
0.0
 40
2.5
100
AcDbArc
 50
275.0
 51
0.0
1001
GENIUS_GENODEF_13
1002
{
1000
HIER
1070
     0
1002
}
1002
{
1000
MANEDIT
1070
     0
1002
}
1002
{
1000
NOSEL
1070
     0
1002
}
1002
{
1000
BEHIND
1070
     0
1002
}
1002
{
1000
REACTOR
1002
}
1001
GENIUS_GENOBJ-N-FIL_13
1002
{
1000
OWNER
1000
GEN
1002
}
  0
ARC
  5
600
330
1E2
100
AcDbEntity
  8
0
100
AcDbCircle
 10
226.100992
 20
549.8678179999999
 30
0.0
 40
2.5
100
AcDbArc
 50
95.0
 51
180.0
1001
GENIUS_VERSION2
1070
     2
1001
GENIUS_GENOBJ-N-CEN_13
1002
{
1000
OWNER
1000
GEN
1002
}
1001
GENIUS_GENODEF_13
1002
{
1000
HIER
1070
     0
1002
}
1002
{
1000
MANEDIT
1070
     0
1002
}
1002
{
1000
NOSEL
1070
     0
1002
}
1002
{
1000
BEHIND
1070
     0
1002
}
1002
{
1000
REACTOR
1002
}
1001
GENIUS_GENOBJ-N-FIL_13
1002
{
1000
OWNER
1000
GEN
1002
}
  0
LINE
  5
62D
330
1E2
100
AcDbEntity
  8
0
100
AcDbLine
 10
329.600992
 20
559.158646
 30
0.0
 11
327.485068
 21
547.158646
 31
0.0
  0
LINE
  5
632
330
1E2
100
AcDbEntity
  8
0
100
AcDbLine
 10
293.600992
 20
559.158646
 30
0.0
 11
295.716915
 21
547.158646
 31
0.0
  0
LINE
  5
637
330
1E2
100
AcDbEntity
  8
0
100
AcDbLine
 10
266.600992
 20
559.158646
 30
0.0
 11
269.009943
 21
545.4968039999999
 31
0.0
  0
LINE
  5
63C
330
1E2
100
AcDbEntity
  8
0
100
AcDbLine
 10
257.672786
 20
559.158646
 30
0.0
 11
293.600992
 21
559.158646
 31
0.0
  0
LINE
  5
63F
330
1E2
100
AcDbEntity
  8
0
100
AcDbLine
 10
329.600992
 20
559.158646
 30
0.0
 11
343.600992
 21
559.158646
 31
0.0
  0
LINE
  5
647
330
1E2
100
AcDbEntity
  8
0
100
AcDbLine
 10
268.251324
 20
543.232813
 30
0.0
 11
257.021871
 21
532.779474
 31
0.0
  0
ARC
  5
64E
330
1E2
100
AcDbEntity
  8
0
100
AcDbCircle
 10
266.547924
 20
545.062683
 30
0.0
 40
2.5
100
AcDbArc
 50
312.950027
 51
10.0
1001
GENIUS_GENODEF_13
1002
{
1000
HIER
1070
     0
1002
}
1002
{
1000
MANEDIT
1070
     0
1002
}
1002
{
1000
NOSEL
1070
     0
1002
}
1002
{
1000
BEHIND
1070
     0
1002
}
1002
{
1000
REACTOR
1002
}
1001
GENIUS_GENOBJ-N-FIL_13
1002
{
1000
OWNER
1000
GEN
1002
}
  0
ARC
  5
650
330
1E2
100
AcDbEntity
  8
0
100
AcDbCircle
 10
258.725271
 20
530.949603
 30
0.0
 40
2.5
100
AcDbArc
 50
132.950027
 51
173.0
1001
GENIUS_GENODEF_13
1002
{
1000
HIER
1070
     0
1002
}
1002
{
1000
MANEDIT
1070
     0
1002
}
1002
{
1000
NOSEL
1070
     0
1002
}
1002
{
1000
BEHIND
1070
     0
1002
}
1002
{
1000
REACTOR
1002
}
1001
GENIUS_GENOBJ-N-FIL_13
1002
{
1000
OWNER
1000
GEN
1002
}
  0
LINE
  5
66F
330
1E2
100
AcDbEntity
  8
0
100
AcDbLine
 10
429.0052659999999
 20
547.158646
 30
0.0
 11
435.354617
 21
479.1586459999999
 31
0.0
  0
LINE
  5
670
330
1E2
100
AcDbEntity
  8
0
100
AcDbLine
 10
444.9756039999999
 20
547.158646
 30
0.0
 11
442.600992
 21
479.1586459999999
 31
0.0
  0
LINE
  5
671
330
1E2
100
AcDbEntity
  8
0
100
AcDbLine
 10
443.840679
 20
514.6586459999999
 30
0.0
 11
450.904169
 21
514.6586459999999
 31
0.0
  0
LINE
  5
672
330
1E2
100
AcDbEntity
  8
0
100
AcDbLine
 10
468.4041689999999
 20
502.1586459999999
 30
0.0
 11
443.4041689999999
 21
502.1586459999999
 31
0.0
  0
LINE
  5
673
330
1E2
100
AcDbEntity
  8
0
100
AcDbLine
 10
468.4041689999999
 20
507.1586459999999
 30
0.0
 11
468.4041689999999
 21
502.1586459999999
 31
0.0
  0
LINE
  5
674
330
1E2
100
AcDbEntity
  8
0
100
AcDbLine
 10
450.904169
 20
507.1586459999999
 30
0.0
 11
468.4041689999999
 21
507.1586459999999
 31
0.0
  0
LINE
  5
675
330
1E2
100
AcDbEntity
  8
0
100
AcDbLine
 10
450.904169
 20
514.6586459999999
 30
0.0
 11
468.4041689999999
 21
507.1586459999999
 31
0.0
  0
LINE
  5
676
330
1E2
100
AcDbEntity
  8
0
100
AcDbLine
 10
450.904169
 20
514.6586459999999
 30
0.0
 11
450.904169
 21
507.1586459999999
 31
0.0
  0
LINE
  5
677
330
1E2
100
AcDbEntity
  8
0
100
AcDbLine
 10
429.529198
 20
559.158646
 30
0.0
 11
393.600992
 21
559.158646
 31
0.0
  0
LINE
  5
678
330
1E2
100
AcDbEntity
  8
0
100
AcDbLine
 10
343.600992
 20
547.158646
 30
0.0
 11
429.0052659999999
 21
547.158646
 31
0.0
  0
LINE
  5
679
330
1E2
100
AcDbEntity
  8
0
100
AcDbLine
 10
444.3831019999999
 20
553.8399929999999
 30
0.0
 11
461.3188809999999
 21
552.358304
 31
0.0
  0
LINE
  5
67A
330
1E2
100
AcDbEntity
  8
0
100
AcDbLine
 10
444.9756039999999
 20
547.158646
 30
0.0
 11
463.600992
 21
547.158646
 31
0.0
  0
ARC
  5
67B
330
1E2
100
AcDbEntity
  8
0
100
AcDbCircle
 10
461.1009919999999
 20
549.8678179999999
 30
0.0
 40
2.5
100
AcDbArc
 50
0.0
 51
85.0
1001
GENIUS_VERSION2
1070
     2
1001
GENIUS_GENOBJ-N-CEN_13
1002
{
1000
OWNER
1000
GEN
1002
}
1001
GENIUS_GENODEF_13
1002
{
1000
HIER
1070
     0
1002
}
1002
{
1000
MANEDIT
1070
     0
1002
}
1002
{
1000
NOSEL
1070
     0
1002
}
1002
{
1000
BEHIND
1070
     0
1002
}
1002
{
1000
REACTOR
1002
}
1001
GENIUS_GENOBJ-N-FIL_13
1002
{
1000
OWNER
1000
GEN
1002
}
  0
LINE
  5
67C
330
1E2
100
AcDbEntity
  8
0
100
AcDbLine
 10
463.600992
 20
549.8678179999999
 30
0.0
 11
463.600992
 21
547.158646
 31
0.0
1001
GENIUS_VERSION2
1070
     2
1001
GENIUS_GENODEF_13
1002
{
1000
HIER
1070
     0
1002
}
1002
{
1000
MANEDIT
1070
     0
1002
}
1002
{
1000
NOSEL
1070
     0
1002
}
1002
{
1000
BEHIND
1070
     0
1002
}
1002
{
1000
REACTOR
1002
}
1001
GENIUS_GENOBJ-N-CEN_13
1002
{
1000
OWNER
1000
GEN
1002
}
  0
LINE
  5
67D
330
1E2
100
AcDbEntity
  8
0
100
AcDbLine
 10
442.100992
 20
595.1586459999999
 30
0.0
 11
442.100992
 21
556.33048
 31
0.0
1001
GENIUS_GENODEF_13
1002
{
1000
HIER
1070
     0
1002
}
1002
{
1000
MANEDIT
1070
     0
1002
}
1002
{
1000
NOSEL
1070
     0
1002
}
1002
{
1000
BEHIND
1070
     0
1002
}
1002
{
1000
REACTOR
1002
}
1001
GENIUS_GENOBJ-N-CEN_13
1002
{
1000
OWNER
1000
GEN
1002
}
  0
LINE
  5
67E
330
1E2
100
AcDbEntity
  8
0
100
AcDbLine
 10
431.100992
 20
595.1586459999999
 30
0.0
 11
429.0052659999999
 21
547.158646
 31
0.0
1001
GENIUS_GENODEF_13
1002
{
1000
HIER
1070
     0
1002
}
1002
{
1000
MANEDIT
1070
     0
1002
}
1002
{
1000
NOSEL
1070
     0
1002
}
1002
{
1000
BEHIND
1070
     0
1002
}
1002
{
1000
REACTOR
1002
}
1001
GENIUS_GENOBJ-N-CEN_13
1002
{
1000
OWNER
1000
GEN
1002
}
  0
ARC
  5
67F
330
1E2
100
AcDbEntity
  8
0
100
AcDbCircle
 10
428.476712
 20
530.949603
 30
0.0
 40
2.5
100
AcDbArc
 50
7.0
 51
47.049973
1001
GENIUS_GENODEF_13
1002
{
1000
HIER
1070
     0
1002
}
1002
{
1000
MANEDIT
1070
     0
1002
}
1002
{
1000
NOSEL
1070
     0
1002
}
1002
{
1000
BEHIND
1070
     0
1002
}
1002
{
1000
REACTOR
1002
}
1001
GENIUS_GENOBJ-N-FIL_13
1002
{
1000
OWNER
1000
GEN
1002
}
  0
ARC
  5
680
330
1E2
100
AcDbEntity
  8
0
100
AcDbCircle
 10
444.600992
 20
556.33048
 30
0.0
 40
2.5
100
AcDbArc
 50
180.0
 51
265.0
1001
GENIUS_GENODEF_13
1002
{
1000
HIER
1070
     0
1002
}
1002
{
1000
MANEDIT
1070
     0
1002
}
1002
{
1000
NOSEL
1070
     0
1002
}
1002
{
1000
BEHIND
1070
     0
1002
}
1002
{
1000
REACTOR
1002
}
1001
GENIUS_GENOBJ-N-FIL_13
1002
{
1000
OWNER
1000
GEN
1002
}
  0
LINE
  5
681
330
1E2
100
AcDbEntity
  8
0
100
AcDbLine
 10
420.600992
 20
559.158646
 30
0.0
 11
418.19204
 21
545.4968039999999
 31
0.0
  0
LINE
  5
682
330
1E2
100
AcDbEntity
  8
0
100
AcDbLine
 10
418.9506589999999
 20
543.232813
 30
0.0
 11
430.180112
 21
532.779474
 31
0.0
  0
ARC
  5
683
330
1E2
100
AcDbEntity
  8
0
100
AcDbCircle
 10
420.6540599999999
 20
545.062683
 30
0.0
 40
2.5
100
AcDbArc
 50
170.0
 51
227.049973
1001
GENIUS_GENODEF_13
1002
{
1000
HIER
1070
     0
1002
}
1002
{
1000
MANEDIT
1070
     0
1002
}
1002
{
1000
NOSEL
1070
     0
1002
}
1002
{
1000
BEHIND
1070
     0
1002
}
1002
{
1000
REACTOR
1002
}
1001
GENIUS_GENOBJ-N-FIL_13
1002
{
1000
OWNER
1000
GEN
1002
}
  0
LINE
  5
684
330
1E2
100
AcDbEntity
  8
0
100
AcDbLine
 10
393.600992
 20
559.158646
 30
0.0
 11
391.485068
 21
547.158646
 31
0.0
  0
LINE
  5
685
330
1E2
100
AcDbEntity
  8
0
100
AcDbLine
 10
357.600992
 20
559.158646
 30
0.0
 11
343.600992
 21
559.158646
 31
0.0
  0
LINE
  5
686
330
1E2
100
AcDbEntity
  8
0
100
AcDbLine
 10
357.600992
 20
559.158646
 30
0.0
 11
359.716915
 21
547.158646
 31
0.0
  0
LINE
  5
689
330
1E2
100
AcDbEntity
  8
0
100
AcDbLine
 10
417.34106
 20
559.158646
 30
0.0
 11
415.2251359999999
 21
547.158646
 31
0.0
  0
POLYLINE
  5
724
330
1E2
100
AcDbEntity
  8
SCHRAFFUR_RAND
100
AcDb2dPolyline
 66
     1
 10
0.0
 20
0.0
 30
0.0
 70
     1
  0
VERTEX
  5
725
330
724
100
AcDbEntity
  8
SCHRAFFUR_RAND
100
AcDbVertex
100
AcDb2dVertex
 10
468.4041689999999
 20
507.1586459999999
 30
0.0
  0
VERTEX
  5
726
330
724
100
AcDbEntity
  8
SCHRAFFUR_RAND
100
AcDbVertex
100
AcDb2dVertex
 10
450.904169
 20
507.1586459999999
 30
0.0
  0
VERTEX
  5
727
330
724
100
AcDbEntity
  8
SCHRAFFUR_RAND
100
AcDbVertex
100
AcDb2dVertex
 10
450.904169
 20
514.6586459999999
 30
0.0
  0
VERTEX
  5
728
330
724
100
AcDbEntity
  8
SCHRAFFUR_RAND
100
AcDbVertex
100
AcDb2dVertex
 10
443.840679
 20
514.6586459999999
 30
0.0
  0
VERTEX
  5
729
330
724
100
AcDbEntity
  8
SCHRAFFUR_RAND
100
AcDbVertex
100
AcDb2dVertex
 10
443.4041689999999
 20
502.1586459999999
 30
0.0
  0
VERTEX
  5
72A
330
724
100
AcDbEntity
  8
SCHRAFFUR_RAND
100
AcDbVertex
100
AcDb2dVertex
 10
468.4041689999999
 20
502.1586459999999
 30
0.0
  0
SEQEND
  5
72B
330
724
100
AcDbEntity
  8
SCHRAFFUR_RAND
  0
POLYLINE
  5
72C
330
1E2
100
AcDbEntity
  8
SCHRAFFUR_RAND
100
AcDb2dPolyline
 66
     1
 10
0.0
 20
0.0
 30
0.0
 70
     1
  0
VERTEX
  5
72D
330
72C
100
AcDbEntity
  8
SCHRAFFUR_RAND
100
AcDbVertex
100
AcDb2dVertex
 10
444.9756039999999
 20
547.158646
 30
0.0
  0
VERTEX
  5
72E
330
72C
100
AcDbEntity
  8
SCHRAFFUR_RAND
100
AcDbVertex
100
AcDb2dVertex
 10
463.600992
 20
547.158646
 30
0.0
  0
VERTEX
  5
72F
330
72C
100
AcDbEntity
  8
SCHRAFFUR_RAND
100
AcDbVertex
100
AcDb2dVertex
 10
463.600992
 20
549.8678179999999
 30
0.0
 42
0.388879
  0
VERTEX
  5
730
330
72C
100
AcDbEntity
  8
SCHRAFFUR_RAND
100
AcDbVertex
100
AcDb2dVertex
 10
461.3188809999999
 20
552.358304
 30
0.0
  0
VERTEX
  5
731
330
72C
100
AcDbEntity
  8
SCHRAFFUR_RAND
100
AcDbVertex
100
AcDb2dVertex
 10
444.3831019999999
 20
553.8399929999999
 30
0.0
 42
-0.388879
  0
VERTEX
  5
732
330
72C
100
AcDbEntity
  8
SCHRAFFUR_RAND
100
AcDbVertex
100
AcDb2dVertex
 10
442.100992
 20
556.33048
 30
0.0
  0
VERTEX
  5
733
330
72C
100
AcDbEntity
  8
SCHRAFFUR_RAND
100
AcDbVertex
100
AcDb2dVertex
 10
442.100992
 20
595.1586459999999
 30
0.0
  0
VERTEX
  5
734
330
72C
100
AcDbEntity
  8
SCHRAFFUR_RAND
100
AcDbVertex
100
AcDb2dVertex
 10
431.100992
 20
595.1586459999999
 30
0.0
  0
VERTEX
  5
735
330
72C
100
AcDbEntity
  8
SCHRAFFUR_RAND
100
AcDbVertex
100
AcDb2dVertex
 10
429.0052659999999
 20
547.158646
 30
0.0
  0
VERTEX
  5
736
330
72C
100
AcDbEntity
  8
SCHRAFFUR_RAND
100
AcDbVertex
100
AcDb2dVertex
 10
435.354617
 20
479.1586459999999
 30
0.0
  0
VERTEX
  5
737
330
72C
100
AcDbEntity
  8
SCHRAFFUR_RAND
100
AcDbVertex
100
AcDb2dVertex
 10
442.600992
 20
479.1586459999999
 30
0.0
  0
SEQEND
  5
738
330
72C
100
AcDbEntity
  8
SCHRAFFUR_RAND
  0
POLYLINE
  5
739
330
1E2
100
AcDbEntity
  8
SCHRAFFUR_RAND
100
AcDb2dPolyline
 66
     1
 10
0.0
 20
0.0
 30
0.0
 70
     1
  0
VERTEX
  5
73A
330
739
100
AcDbEntity
  8
SCHRAFFUR_RAND
100
AcDbVertex
100
AcDb2dVertex
 10
258.196717
 20
547.158646
 30
0.0
  0
VERTEX
  5
73B
330
739
100
AcDbEntity
  8
SCHRAFFUR_RAND
100
AcDbVertex
100
AcDb2dVertex
 10
256.100992
 20
595.1586459999999
 30
0.0
  0
VERTEX
  5
73C
330
739
100
AcDbEntity
  8
SCHRAFFUR_RAND
100
AcDbVertex
100
AcDb2dVertex
 10
245.100992
 20
595.1586459999999
 30
0.0
  0
VERTEX
  5
73D
330
739
100
AcDbEntity
  8
SCHRAFFUR_RAND
100
AcDbVertex
100
AcDb2dVertex
 10
245.100992
 20
556.33048
 30
0.0
 42
-0.388879
  0
VERTEX
  5
73E
330
739
100
AcDbEntity
  8
SCHRAFFUR_RAND
100
AcDbVertex
100
AcDb2dVertex
 10
242.818881
 20
553.8399929999999
 30
0.0
  0
VERTEX
  5
73F
330
739
100
AcDbEntity
  8
SCHRAFFUR_RAND
100
AcDbVertex
100
AcDb2dVertex
 10
225.883102
 20
552.358304
 30
0.0
 42
0.388879
  0
VERTEX
  5
740
330
739
100
AcDbEntity
  8
SCHRAFFUR_RAND
100
AcDbVertex
100
AcDb2dVertex
 10
223.600992
 20
549.8678179999999
 30
0.0
  0
VERTEX
  5
741
330
739
100
AcDbEntity
  8
SCHRAFFUR_RAND
100
AcDbVertex
100
AcDb2dVertex
 10
223.600992
 20
547.158646
 30
0.0
  0
VERTEX
  5
742
330
739
100
AcDbEntity
  8
SCHRAFFUR_RAND
100
AcDbVertex
100
AcDb2dVertex
 10
242.226379
 20
547.158646
 30
0.0
  0
VERTEX
  5
743
330
739
100
AcDbEntity
  8
SCHRAFFUR_RAND
100
AcDbVertex
100
AcDb2dVertex
 10
244.600992
 20
479.1586459999999
 30
0.0
  0
VERTEX
  5
744
330
739
100
AcDbEntity
  8
SCHRAFFUR_RAND
100
AcDbVertex
100
AcDb2dVertex
 10
251.847367
 20
479.1586459999999
 30
0.0
  0
SEQEND
  5
745
330
739
100
AcDbEntity
  8
SCHRAFFUR_RAND
  0
POLYLINE
  5
746
330
1E2
100
AcDbEntity
  8
SCHRAFFUR_RAND
100
AcDb2dPolyline
 66
     1
 10
0.0
 20
0.0
 30
0.0
 70
     1
  0
VERTEX
  5
747
330
746
100
AcDbEntity
  8
SCHRAFFUR_RAND
100
AcDbVertex
100
AcDb2dVertex
 10
243.361304
 20
514.6586459999999
 30
0.0
  0
VERTEX
  5
748
330
746
100
AcDbEntity
  8
SCHRAFFUR_RAND
100
AcDbVertex
100
AcDb2dVertex
 10
236.297814
 20
514.6586459999999
 30
0.0
  0
VERTEX
  5
749
330
746
100
AcDbEntity
  8
SCHRAFFUR_RAND
100
AcDbVertex
100
AcDb2dVertex
 10
236.297814
 20
507.1586459999999
 30
0.0
  0
VERTEX
  5
74A
330
746
100
AcDbEntity
  8
SCHRAFFUR_RAND
100
AcDbVertex
100
AcDb2dVertex
 10
218.797814
 20
507.1586459999999
 30
0.0
  0
VERTEX
  5
74B
330
746
100
AcDbEntity
  8
SCHRAFFUR_RAND
100
AcDbVertex
100
AcDb2dVertex
 10
218.797814
 20
502.1586459999999
 30
0.0
  0
VERTEX
  5
74C
330
746
100
AcDbEntity
  8
SCHRAFFUR_RAND
100
AcDbVertex
100
AcDb2dVertex
 10
243.797814
 20
502.1586459999999
 30
0.0
  0
SEQEND
  5
74D
330
746
100
AcDbEntity
  8
SCHRAFFUR_RAND
  0
HATCH
  5
778
330
1E2
100
AcDbEntity
  8
8
100
AcDbHatch
 10
0.0
 20
0.0
 30
0.0
210
0.0
220
0.0
230
1.0
  2
_U
 70
     0
 71
     0
 91
        1
 92
        1
 93
        6
 72
     1
 10
218.797814
 20
507.1586459999999
 11
218.797814
 21
502.1586459999999
 72
     1
 10
218.797814
 20
502.1586459999999
 11
243.797814
 21
502.1586459999999
 72
     1
 10
243.797814
 20
502.1586459999999
 11
243.361304
 21
514.6586459999999
 72
     1
 10
243.361304
 20
514.6586459999999
 11
236.297814
 21
514.6586459999999
 72
     1
 10
236.297814
 20
514.6586459999999
 11
236.297814
 21
507.1586459999999
 72
     1
 10
236.297814
 20
507.1586459999999
 11
218.797814
 21
507.1586459999999
 97
        0
 75
     0
 76
     0
 52
135.0
 41
5.4
 77
     0
 78
     1
 53
135.0
 43
0.0
 44
0.0
 45
-3.818376618407356
 46
-3.818376618407356
 79
     0
 98
        1
 10
0.0
 20
0.0
1001
GENIUS_GENODEF_13
1002
{
1000
HIER
1070
     0
1002
}
1002
{
1000
MANEDIT
1070
     0
1002
}
1002
{
1000
NOSEL
1070
     0
1002
}
1002
{
1000
BEHIND
1070
     0
1002
}
1002
{
1000
REACTOR
1002
}
1001
GENIUS_GENOBJ-N-HTC_13
1002
{
1000
OWNER
1000
GEN
1002
}
1001
GENIUS_GENHATCH_13
1002
{
1000
DATA
1040
135.0
1042
2.7
1000
_U
1070
     0
1011
239.004081
1021
506.838586
1031
0.0
1002
}
1002
{
1000
UCS
1010
0.0
1020
0.0
1030
0.0
1010
1.0
1020
0.0
1030
0.0
1010
0.0
1020
1.0
1030
0.0
1002
}
  0
HATCH
  5
783
330
1E2
100
AcDbEntity
  8
8
100
AcDbHatch
 10
0.0
 20
0.0
 30
0.0
210
0.0
220
0.0
230
1.0
  2
_U
 70
     0
 71
     0
 91
        1
 92
        1
 93
        6
 72
     1
 10
468.4041689999999
 20
507.1586459999999
 11
450.904169
 21
507.1586459999999
 72
     1
 10
450.904169
 20
507.1586459999999
 11
450.904169
 21
514.6586459999999
 72
     1
 10
450.904169
 20
514.6586459999999
 11
443.840679
 21
514.6586459999999
 72
     1
 10
443.840679
 20
514.6586459999999
 11
443.4041689999999
 21
502.1586459999999
 72
     1
 10
443.4041689999999
 20
502.1586459999999
 11
468.4041689999999
 21
502.1586459999999
 72
     1
 10
468.4041689999999
 20
502.1586459999999
 11
468.4041689999999
 21
507.1586459999999
 97
        0
 75
     0
 76
     0
 52
135.0
 41
5.4
 77
     0
 78
     1
 53
135.0
 43
0.0
 44
0.0
 45
-3.818376618407356
 46
-3.818376618407356
 79
     0
 98
        1
 10
0.0
 20
0.0
1001
GENIUS_GENODEF_13
1002
{
1000
HIER
1070
     0
1002
}
1002
{
1000
MANEDIT
1070
     0
1002
}
1002
{
1000
NOSEL
1070
     0
1002
}
1002
{
1000
BEHIND
1070
     0
1002
}
1002
{
1000
REACTOR
1002
}
1001
GENIUS_GENOBJ-N-HTC_13
1002
{
1000
OWNER
1000
GEN
1002
}
1001
GENIUS_GENHATCH_13
1002
{
1000
DATA
1040
135.0
1042
2.7
1000
_U
1070
     0
1011
453.400272
1021
504.4574599999999
1031
0.0
1002
}
1002
{
1000
UCS
1010
0.0
1020
0.0
1030
0.0
1010
1.0
1020
0.0
1030
0.0
1010
0.0
1020
1.0
1030
0.0
1002
}
  0
LINE
  5
786
330
1E2
100
AcDbEntity
  8
0
100
AcDbLine
 10
429.100992
 20
133.232954
 30
0.0
 11
258.100992
 21
133.232954
 31
0.0
  0
LINE
  5
787
330
1E2
100
AcDbEntity
  8
0
100
AcDbLine
 10
424.100992
 20
138.232954
 30
0.0
 11
263.100992
 21
138.232954
 31
0.0
  0
LINE
  5
788
330
1E2
100
AcDbEntity
  8
0
100
AcDbLine
 10
258.100992
 20
218.732954
 30
0.0
 11
258.100992
 21
133.232954
 31
0.0
  0
LINE
  5
789
330
1E2
100
AcDbEntity
  8
0
100
AcDbLine
 10
429.100992
 20
304.232954
 30
0.0
 11
258.100992
 21
304.232954
 31
0.0
  0
LINE
  5
78A
330
1E2
100
AcDbEntity
  8
0
100
AcDbLine
 10
429.100992
 20
218.732954
 30
0.0
 11
429.100992
 21
304.232954
 31
0.0
  0
LINE
  5
78B
330
1E2
100
AcDbEntity
  8
0
100
AcDbLine
 10
429.100992
 20
218.732954
 30
0.0
 11
429.100992
 21
133.232954
 31
0.0
  0
LINE
  5
78C
330
1E2
100
AcDbEntity
  8
0
100
AcDbLine
 10
263.100992
 20
218.732954
 30
0.0
 11
263.100992
 21
299.232954
 31
0.0
  0
LINE
  5
78D
330
1E2
100
AcDbEntity
  8
0
100
AcDbLine
 10
258.100992
 20
218.732954
 30
0.0
 11
258.100992
 21
304.232954
 31
0.0
  0
ARC
  5
78E
330
1E2
100
AcDbEntity
  8
0
100
AcDbCircle
 10
343.600992
 20
218.732954
 30
0.0
 40
70.0
100
AcDbArc
 50
15.749
 51
42.17699999999999
  0
ARC
  5
78F
330
1E2
100
AcDbEntity
  8
0
100
AcDbCircle
 10
343.600992
 20
218.732954
 30
0.0
 40
70.0
100
AcDbArc
 50
137.823
 51
164.2509999999999
  0
LINE
  5
790
330
1E2
100
AcDbEntity
  8
0
100
AcDbLine
 10
292.600992
 20
299.232954
 30
0.0
 11
292.600992
 21
218.732954
 31
0.0
  0
LINE
  5
791
330
1E2
100
AcDbEntity
  8
0
100
AcDbLine
 10
295.600992
 20
299.232954
 30
0.0
 11
295.600992
 21
218.732954
 31
0.0
  0
LINE
  5
792
330
1E2
100
AcDbEntity
  8
0
100
AcDbLine
 10
325.600992
 20
299.232954
 30
0.0
 11
325.600992
 21
218.732954
 31
0.0
  0
LINE
  5
793
330
1E2
100
AcDbEntity
  8
0
100
AcDbLine
 10
328.600992
 20
299.232954
 30
0.0
 11
328.600992
 21
218.732954
 31
0.0
  0
LINE
  5
794
330
1E2
100
AcDbEntity
  8
0
100
AcDbLine
 10
358.600992
 20
299.232954
 30
0.0
 11
358.600992
 21
218.732954
 31
0.0
  0
LINE
  5
795
330
1E2
100
AcDbEntity
  8
0
100
AcDbLine
 10
361.600992
 20
299.232954
 30
0.0
 11
361.600992
 21
218.732954
 31
0.0
  0
LINE
  5
796
330
1E2
100
AcDbEntity
  8
0
100
AcDbLine
 10
391.600992
 20
299.232954
 30
0.0
 11
391.600992
 21
218.732954
 31
0.0
  0
LINE
  5
797
330
1E2
100
AcDbEntity
  8
0
100
AcDbLine
 10
394.600992
 20
299.232954
 30
0.0
 11
394.600992
 21
218.732954
 31
0.0
  0
LINE
  5
798
330
1E2
100
AcDbEntity
  8
0
100
AcDbLine
 10
328.600992
 20
166.732954
 30
0.0
 11
358.600992
 21
166.732954
 31
0.0
  0
LINE
  5
799
330
1E2
100
AcDbEntity
  8
0
100
AcDbLine
 10
328.600992
 20
171.732954
 30
0.0
 11
358.600992
 21
171.732954
 31
0.0
  0
ARC
  5
79A
330
1E2
100
AcDbEntity
  8
0
100
AcDbCircle
 10
343.600992
 20
218.732954
 30
0.0
 40
70.0
100
AcDbArc
 50
257.626
 51
282.374
  0
LINE
  5
79B
330
1E2
100
AcDbEntity
  8
0
100
AcDbLine
 10
328.600992
 20
199.732954
 30
0.0
 11
358.600992
 21
199.732954
 31
0.0
  0
LINE
  5
79C
330
1E2
100
AcDbEntity
  8
0
100
AcDbLine
 10
328.600992
 20
204.732954
 30
0.0
 11
358.600992
 21
204.732954
 31
0.0
  0
LINE
  5
79D
330
1E2
100
AcDbEntity
  8
0
100
AcDbLine
 10
328.600992
 20
232.732954
 30
0.0
 11
358.600992
 21
232.732954
 31
0.0
  0
LINE
  5
79E
330
1E2
100
AcDbEntity
  8
0
100
AcDbLine
 10
328.600992
 20
237.732954
 30
0.0
 11
358.600992
 21
237.732954
 31
0.0
  0
LINE
  5
79F
330
1E2
100
AcDbEntity
  8
0
100
AcDbLine
 10
266.766992
 20
171.587954
 30
0.0
 11
266.766992
 21
166.732954
 31
0.0
  0
LINE
  5
7A0
330
1E2
100
AcDbEntity
  8
0
100
AcDbLine
 10
266.766992
 20
204.732954
 30
0.0
 11
266.766992
 21
199.732954
 31
0.0
  0
LINE
  5
7A1
330
1E2
100
AcDbEntity
  8
0
100
AcDbLine
 10
266.766992
 20
232.732954
 30
0.0
 11
266.766992
 21
237.732954
 31
0.0
  0
ARC
  5
7A2
330
1E2
100
AcDbEntity
  8
0
100
AcDbCircle
 10
343.600992
 20
218.732954
 30
0.0
 40
70.0
100
AcDbArc
 50
227.975
 51
255.099
  0
LINE
  5
7A3
330
1E2
100
AcDbEntity
  8
0
100
AcDbLine
 10
295.600992
 20
149.067954
 30
0.0
 11
292.600992
 21
149.067954
 31
0.0
  0
LINE
  5
7A4
330
1E2
100
AcDbEntity
  8
0
100
AcDbLine
 10
295.600992
 20
155.897954
 30
0.0
 11
292.600992
 21
155.897954
 31
0.0
  0
ARC
  5
7A5
330
1E2
100
AcDbEntity
  8
3A
 48
0.206
100
AcDbCircle
 10
343.600992
 20
218.732954
 30
0.0
 40
70.0
100
AcDbArc
 50
255.099
 51
257.626
  0
LINE
  5
7A6
330
1E2
100
AcDbEntity
  8
0
100
AcDbLine
 10
325.600992
 20
149.067954
 30
0.0
 11
328.600992
 21
149.067954
 31
0.0
  0
LINE
  5
7A7
330
1E2
100
AcDbEntity
  8
0
100
AcDbLine
 10
325.600992
 20
155.897954
 30
0.0
 11
328.600992
 21
155.897954
 31
0.0
  0
LINE
  5
7A8
330
1E2
100
AcDbEntity
  8
0
100
AcDbLine
 10
295.600992
 20
166.732954
 30
0.0
 11
325.600992
 21
166.732954
 31
0.0
  0
LINE
  5
7A9
330
1E2
100
AcDbEntity
  8
0
100
AcDbLine
 10
295.600992
 20
171.732954
 30
0.0
 11
325.600992
 21
171.732954
 31
0.0
  0
LINE
  5
7AA
330
1E2
100
AcDbEntity
  8
0
100
AcDbLine
 10
295.600992
 20
199.732954
 30
0.0
 11
325.600992
 21
199.732954
 31
0.0
  0
LINE
  5
7AB
330
1E2
100
AcDbEntity
  8
0
100
AcDbLine
 10
295.600992
 20
204.732954
 30
0.0
 11
325.600992
 21
204.732954
 31
0.0
  0
LINE
  5
7AC
330
1E2
100
AcDbEntity
  8
0
100
AcDbLine
 10
295.600992
 20
232.732954
 30
0.0
 11
325.600992
 21
232.732954
 31
0.0
  0
LINE
  5
7AD
330
1E2
100
AcDbEntity
  8
0
100
AcDbLine
 10
295.600992
 20
237.732954
 30
0.0
 11
325.600992
 21
237.732954
 31
0.0
  0
ARC
  5
7AE
330
1E2
100
AcDbEntity
  8
0
100
AcDbCircle
 10
343.600992
 20
218.732954
 30
0.0
 40
70.0
100
AcDbArc
 50
195.749
 51
222.177
  0
LINE
  5
7AF
330
1E2
100
AcDbEntity
  8
0
100
AcDbLine
 10
274.183992
 20
171.732954
 30
0.0
 11
274.183992
 21
166.732954
 31
0.0
  0
LINE
  5
7B0
330
1E2
100
AcDbEntity
  8
0
100
AcDbLine
 10
281.516992
 20
171.732954
 30
0.0
 11
281.516992
 21
166.732954
 31
0.0
  0
LINE
  5
7B1
330
1E2
100
AcDbEntity
  8
0
100
AcDbLine
 10
295.600992
 20
163.317954
 30
0.0
 11
292.600992
 21
163.317954
 31
0.0
  0
LINE
  5
7B2
330
1E2
100
AcDbEntity
  8
0
100
AcDbLine
 10
295.600992
 20
175.022954
 30
0.0
 11
292.600992
 21
175.022954
 31
0.0
  0
ARC
  5
7B3
330
1E2
100
AcDbEntity
  8
3A
 48
0.4720000000000001
100
AcDbCircle
 10
343.600992
 20
218.732954
 30
0.0
 40
70.0
100
AcDbArc
 50
222.177
 51
227.975
  0
LINE
  5
7B4
330
1E2
100
AcDbEntity
  8
0
100
AcDbLine
 10
288.933992
 20
171.732954
 30
0.0
 11
288.933992
 21
166.732954
 31
0.0
  0
LINE
  5
7B5
330
1E2
100
AcDbEntity
  8
0
100
AcDbLine
 10
299.391992
 20
171.732954
 30
0.0
 11
299.391992
 21
166.732954
 31
0.0
  0
LINE
  5
7B6
330
1E2
100
AcDbEntity
  8
0
100
AcDbLine
 10
306.808992
 20
171.732954
 30
0.0
 11
306.808992
 21
166.732954
 31
0.0
  0
LINE
  5
7B7
330
1E2
100
AcDbEntity
  8
0
100
AcDbLine
 10
295.600992
 20
182.442954
 30
0.0
 11
292.600992
 21
182.442954
 31
0.0
  0
LINE
  5
7B8
330
1E2
100
AcDbEntity
  8
0
100
AcDbLine
 10
295.600992
 20
189.022954
 30
0.0
 11
292.600992
 21
189.022954
 31
0.0
  0
LINE
  5
7B9
330
1E2
100
AcDbEntity
  8
0
100
AcDbLine
 10
295.600992
 20
196.442954
 30
0.0
 11
292.600992
 21
196.442954
 31
0.0
  0
ARC
  5
7BA
330
1E2
100
AcDbEntity
  8
0
100
AcDbCircle
 10
343.600992
 20
218.732954
 30
0.0
 40
70.0
100
AcDbArc
 50
180.0
 51
191.537
  0
LINE
  5
7BB
330
1E2
100
AcDbEntity
  8
0
100
AcDbLine
 10
274.183992
 20
204.732954
 30
0.0
 11
274.183992
 21
199.732954
 31
0.0
  0
ARC
  5
7BC
330
1E2
100
AcDbEntity
  8
3A
 48
0.343
100
AcDbCircle
 10
343.600992
 20
218.732954
 30
0.0
 40
70.0
100
AcDbArc
 50
191.537
 51
195.749
  0
LINE
  5
7BD
330
1E2
100
AcDbEntity
  8
0
100
AcDbLine
 10
281.516992
 20
204.732954
 30
0.0
 11
281.516992
 21
199.732954
 31
0.0
  0
ARC
  5
7BE
330
1E2
100
AcDbEntity
  8
0
100
AcDbCircle
 10
343.600992
 20
218.732954
 30
0.0
 40
70.0
100
AcDbArc
 50
168.463
 51
180.0
  0
ARC
  5
7BF
330
1E2
100
AcDbEntity
  8
3A
 48
0.343
100
AcDbCircle
 10
343.600992
 20
218.732954
 30
0.0
 40
70.0
100
AcDbArc
 50
164.2509999999999
 51
168.463
  0
LINE
  5
7C0
330
1E2
100
AcDbEntity
  8
0
100
AcDbLine
 10
274.183992
 20
232.732954
 30
0.0
 11
274.183992
 21
237.732954
 31
0.0
  0
LINE
  5
7C1
330
1E2
100
AcDbEntity
  8
0
100
AcDbLine
 10
281.516992
 20
232.732954
 30
0.0
 11
281.516992
 21
237.732954
 31
0.0
  0
LINE
  5
7C2
330
1E2
100
AcDbEntity
  8
0
100
AcDbLine
 10
288.933992
 20
204.732954
 30
0.0
 11
288.933992
 21
199.732954
 31
0.0
  0
LINE
  5
7C3
330
1E2
100
AcDbEntity
  8
0
100
AcDbLine
 10
295.600992
 20
208.022954
 30
0.0
 11
292.600992
 21
208.022954
 31
0.0
  0
LINE
  5
7C4
330
1E2
100
AcDbEntity
  8
0
100
AcDbLine
 10
295.600992
 20
215.442954
 30
0.0
 11
292.600992
 21
215.442954
 31
0.0
  0
LINE
  5
7C5
330
1E2
100
AcDbEntity
  8
0
100
AcDbLine
 10
299.391992
 20
204.732954
 30
0.0
 11
299.391992
 21
199.732954
 31
0.0
  0
LINE
  5
7C6
330
1E2
100
AcDbEntity
  8
0
100
AcDbLine
 10
306.808992
 20
204.732954
 30
0.0
 11
306.808992
 21
199.732954
 31
0.0
  0
LINE
  5
7C7
330
1E2
100
AcDbEntity
  8
0
100
AcDbLine
 10
295.600992
 20
222.022954
 30
0.0
 11
292.600992
 21
222.022954
 31
0.0
  0
LINE
  5
7C8
330
1E2
100
AcDbEntity
  8
0
100
AcDbLine
 10
295.600992
 20
229.442954
 30
0.0
 11
292.600992
 21
229.442954
 31
0.0
  0
LINE
  5
7C9
330
1E2
100
AcDbEntity
  8
0
100
AcDbLine
 10
288.933992
 20
232.732954
 30
0.0
 11
288.933992
 21
237.732954
 31
0.0
  0
LINE
  5
7CA
330
1E2
100
AcDbEntity
  8
0
100
AcDbLine
 10
299.391992
 20
232.732954
 30
0.0
 11
299.391992
 21
237.732954
 31
0.0
  0
LINE
  5
7CB
330
1E2
100
AcDbEntity
  8
0
100
AcDbLine
 10
306.808992
 20
232.732954
 30
0.0
 11
306.808992
 21
237.732954
 31
0.0
  0
LINE
  5
7CC
330
1E2
100
AcDbEntity
  8
0
100
AcDbLine
 10
314.391992
 20
171.732954
 30
0.0
 11
314.391992
 21
166.732954
 31
0.0
  0
LINE
  5
7CD
330
1E2
100
AcDbEntity
  8
0
100
AcDbLine
 10
325.600992
 20
163.317954
 30
0.0
 11
328.600992
 21
163.317954
 31
0.0
  0
LINE
  5
7CE
330
1E2
100
AcDbEntity
  8
0
100
AcDbLine
 10
321.808992
 20
171.732954
 30
0.0
 11
321.808992
 21
166.732954
 31
0.0
  0
LINE
  5
7CF
330
1E2
100
AcDbEntity
  8
0
100
AcDbLine
 10
325.600992
 20
175.022954
 30
0.0
 11
328.600992
 21
175.022954
 31
0.0
  0
LINE
  5
7D0
330
1E2
100
AcDbEntity
  8
0
100
AcDbLine
 10
325.600992
 20
182.442954
 30
0.0
 11
328.600992
 21
182.442954
 31
0.0
  0
LINE
  5
7D1
330
1E2
100
AcDbEntity
  8
0
100
AcDbLine
 10
325.600992
 20
189.022954
 30
0.0
 11
328.600992
 21
189.022954
 31
0.0
  0
LINE
  5
7D2
330
1E2
100
AcDbEntity
  8
0
100
AcDbLine
 10
325.600992
 20
196.442954
 30
0.0
 11
328.600992
 21
196.442954
 31
0.0
  0
LINE
  5
7D3
330
1E2
100
AcDbEntity
  8
0
100
AcDbLine
 10
332.391992
 20
171.732954
 30
0.0
 11
332.391992
 21
166.732954
 31
0.0
  0
LINE
  5
7D4
330
1E2
100
AcDbEntity
  8
0
100
AcDbLine
 10
339.808992
 20
171.732954
 30
0.0
 11
339.808992
 21
166.732954
 31
0.0
  0
LINE
  5
7D5
330
1E2
100
AcDbEntity
  8
0
100
AcDbLine
 10
347.391992
 20
171.732954
 30
0.0
 11
347.391992
 21
166.732954
 31
0.0
  0
LINE
  5
7D6
330
1E2
100
AcDbEntity
  8
0
100
AcDbLine
 10
314.391992
 20
204.732954
 30
0.0
 11
314.391992
 21
199.732954
 31
0.0
  0
LINE
  5
7D7
330
1E2
100
AcDbEntity
  8
0
100
AcDbLine
 10
321.808992
 20
204.732954
 30
0.0
 11
321.808992
 21
199.732954
 31
0.0
  0
LINE
  5
7D8
330
1E2
100
AcDbEntity
  8
0
100
AcDbLine
 10
325.600992
 20
208.022954
 30
0.0
 11
328.600992
 21
208.022954
 31
0.0
  0
LINE
  5
7D9
330
1E2
100
AcDbEntity
  8
0
100
AcDbLine
 10
325.600992
 20
215.442954
 30
0.0
 11
328.600992
 21
215.442954
 31
0.0
  0
LINE
  5
7DA
330
1E2
100
AcDbEntity
  8
0
100
AcDbLine
 10
314.391992
 20
232.732954
 30
0.0
 11
314.391992
 21
237.732954
 31
0.0
  0
LINE
  5
7DB
330
1E2
100
AcDbEntity
  8
0
100
AcDbLine
 10
325.600992
 20
222.022954
 30
0.0
 11
328.600992
 21
222.022954
 31
0.0
  0
LINE
  5
7DC
330
1E2
100
AcDbEntity
  8
0
100
AcDbLine
 10
321.808992
 20
232.732954
 30
0.0
 11
321.808992
 21
237.732954
 31
0.0
  0
LINE
  5
7DD
330
1E2
100
AcDbEntity
  8
0
100
AcDbLine
 10
325.600992
 20
229.442954
 30
0.0
 11
328.600992
 21
229.442954
 31
0.0
  0
LINE
  5
7DE
330
1E2
100
AcDbEntity
  8
0
100
AcDbLine
 10
332.391992
 20
204.055954
 30
0.0
 11
332.391992
 21
199.732954
 31
0.0
  0
LINE
  5
7DF
330
1E2
100
AcDbEntity
  8
0
100
AcDbLine
 10
339.808992
 20
204.055954
 30
0.0
 11
339.808992
 21
199.732954
 31
0.0
  0
LINE
  5
7E0
330
1E2
100
AcDbEntity
  8
0
100
AcDbLine
 10
347.391992
 20
204.055954
 30
0.0
 11
347.391992
 21
199.732954
 31
0.0
  0
LINE
  5
7E1
330
1E2
100
AcDbEntity
  8
0
100
AcDbLine
 10
332.391992
 20
233.409954
 30
0.0
 11
332.391992
 21
237.732954
 31
0.0
  0
POINT
  5
7E2
330
1E2
100
AcDbEntity
  8
PUNKTE
100
AcDbPoint
 10
343.600992
 20
218.732954
 30
0.0
  0
POINT
  5
7E3
330
1E2
100
AcDbEntity
  8
PUNKTE
100
AcDbPoint
 10
343.600992
 20
218.732954
 30
0.0
  0
LINE
  5
7E4
330
1E2
100
AcDbEntity
  8
0
100
AcDbLine
 10
339.808992
 20
233.409954
 30
0.0
 11
339.808992
 21
237.732954
 31
0.0
  0
LINE
  5
7E5
330
1E2
100
AcDbEntity
  8
0
100
AcDbLine
 10
347.391992
 20
233.409954
 30
0.0
 11
347.391992
 21
237.732954
 31
0.0
  0
ARC
  5
7E6
330
1E2
100
AcDbEntity
  8
0
100
AcDbCircle
 10
343.600992
 20
218.732954
 30
0.0
 40
70.0
100
AcDbArc
 50
284.901
 51
312.025
  0
LINE
  5
7E7
330
1E2
100
AcDbEntity
  8
0
100
AcDbLine
 10
358.600992
 20
155.897954
 30
0.0
 11
361.600992
 21
155.897954
 31
0.0
  0
LINE
  5
7E8
330
1E2
100
AcDbEntity
  8
0
100
AcDbLine
 10
358.600992
 20
149.067954
 30
0.0
 11
361.600992
 21
149.067954
 31
0.0
  0
ARC
  5
7E9
330
1E2
100
AcDbEntity
  8
3A
 48
0.206
100
AcDbCircle
 10
343.600992
 20
218.732954
 30
0.0
 40
70.0
100
AcDbArc
 50
282.374
 51
284.901
  0
LINE
  5
7EA
330
1E2
100
AcDbEntity
  8
0
100
AcDbLine
 10
391.600992
 20
149.067954
 30
0.0
 11
394.600992
 21
149.067954
 31
0.0
  0
LINE
  5
7EB
330
1E2
100
AcDbEntity
  8
0
100
AcDbLine
 10
391.600992
 20
155.897954
 30
0.0
 11
394.600992
 21
155.897954
 31
0.0
  0
LINE
  5
7EC
330
1E2
100
AcDbEntity
  8
0
100
AcDbLine
 10
361.600992
 20
166.732954
 30
0.0
 11
391.600992
 21
166.732954
 31
0.0
  0
LINE
  5
7ED
330
1E2
100
AcDbEntity
  8
0
100
AcDbLine
 10
361.600992
 20
171.732954
 30
0.0
 11
391.600992
 21
171.732954
 31
0.0
  0
LINE
  5
7EE
330
1E2
100
AcDbEntity
  8
0
100
AcDbLine
 10
361.600992
 20
199.732954
 30
0.0
 11
391.600992
 21
199.732954
 31
0.0
  0
LINE
  5
7EF
330
1E2
100
AcDbEntity
  8
0
100
AcDbLine
 10
361.600992
 20
204.732954
 30
0.0
 11
391.600992
 21
204.732954
 31
0.0
  0
LINE
  5
7F0
330
1E2
100
AcDbEntity
  8
0
100
AcDbLine
 10
361.600992
 20
232.732954
 30
0.0
 11
391.600992
 21
232.732954
 31
0.0
  0
LINE
  5
7F1
330
1E2
100
AcDbEntity
  8
0
100
AcDbLine
 10
361.600992
 20
237.732954
 30
0.0
 11
391.600992
 21
237.732954
 31
0.0
  0
LINE
  5
7F2
330
1E2
100
AcDbEntity
  8
0
100
AcDbLine
 10
358.600992
 20
175.022954
 30
0.0
 11
361.600992
 21
175.022954
 31
0.0
  0
LINE
  5
7F3
330
1E2
100
AcDbEntity
  8
0
100
AcDbLine
 10
358.600992
 20
163.317954
 30
0.0
 11
361.600992
 21
163.317954
 31
0.0
  0
LINE
  5
7F4
330
1E2
100
AcDbEntity
  8
0
100
AcDbLine
 10
354.808992
 20
171.732954
 30
0.0
 11
354.808992
 21
166.732954
 31
0.0
  0
LINE
  5
7F5
330
1E2
100
AcDbEntity
  8
0
100
AcDbLine
 10
365.391992
 20
171.732954
 30
0.0
 11
365.391992
 21
166.732954
 31
0.0
  0
LINE
  5
7F6
330
1E2
100
AcDbEntity
  8
0
100
AcDbLine
 10
358.600992
 20
196.442954
 30
0.0
 11
361.600992
 21
196.442954
 31
0.0
  0
LINE
  5
7F7
330
1E2
100
AcDbEntity
  8
0
100
AcDbLine
 10
358.600992
 20
189.022954
 30
0.0
 11
361.600992
 21
189.022954
 31
0.0
  0
LINE
  5
7F8
330
1E2
100
AcDbEntity
  8
0
100
AcDbLine
 10
358.600992
 20
182.442954
 30
0.0
 11
361.600992
 21
182.442954
 31
0.0
  0
LINE
  5
7F9
330
1E2
100
AcDbEntity
  8
0
100
AcDbLine
 10
372.808992
 20
171.732954
 30
0.0
 11
372.808992
 21
166.732954
 31
0.0
  0
LINE
  5
7FA
330
1E2
100
AcDbEntity
  8
0
100
AcDbLine
 10
380.391992
 20
171.732954
 30
0.0
 11
380.391992
 21
166.732954
 31
0.0
  0
LINE
  5
7FB
330
1E2
100
AcDbEntity
  8
0
100
AcDbLine
 10
387.808992
 20
171.732954
 30
0.0
 11
387.808992
 21
166.732954
 31
0.0
  0
LINE
  5
7FC
330
1E2
100
AcDbEntity
  8
0
100
AcDbLine
 10
358.600992
 20
208.022954
 30
0.0
 11
361.600992
 21
208.022954
 31
0.0
  0
LINE
  5
7FD
330
1E2
100
AcDbEntity
  8
0
100
AcDbLine
 10
358.600992
 20
215.442954
 30
0.0
 11
361.600992
 21
215.442954
 31
0.0
  0
LINE
  5
7FE
330
1E2
100
AcDbEntity
  8
0
100
AcDbLine
 10
354.808992
 20
204.055954
 30
0.0
 11
354.808992
 21
199.732954
 31
0.0
  0
LINE
  5
7FF
330
1E2
100
AcDbEntity
  8
0
100
AcDbLine
 10
365.391992
 20
204.732954
 30
0.0
 11
365.391992
 21
199.732954
 31
0.0
  0
LINE
  5
800
330
1E2
100
AcDbEntity
  8
0
100
AcDbLine
 10
358.600992
 20
222.022954
 30
0.0
 11
361.600992
 21
222.022954
 31
0.0
  0
LINE
  5
801
330
1E2
100
AcDbEntity
  8
0
100
AcDbLine
 10
358.600992
 20
229.442954
 30
0.0
 11
361.600992
 21
229.442954
 31
0.0
  0
LINE
  5
802
330
1E2
100
AcDbEntity
  8
0
100
AcDbLine
 10
354.808992
 20
233.409954
 30
0.0
 11
354.808992
 21
237.732954
 31
0.0
  0
LINE
  5
803
330
1E2
100
AcDbEntity
  8
0
100
AcDbLine
 10
365.391992
 20
232.732954
 30
0.0
 11
365.391992
 21
237.732954
 31
0.0
  0
LINE
  5
804
330
1E2
100
AcDbEntity
  8
0
100
AcDbLine
 10
372.808992
 20
204.732954
 30
0.0
 11
372.808992
 21
199.732954
 31
0.0
  0
LINE
  5
805
330
1E2
100
AcDbEntity
  8
0
100
AcDbLine
 10
380.391992
 20
204.732954
 30
0.0
 11
380.391992
 21
199.732954
 31
0.0
  0
LINE
  5
806
330
1E2
100
AcDbEntity
  8
0
100
AcDbLine
 10
387.808992
 20
204.565954
 30
0.0
 11
387.808992
 21
199.732954
 31
0.0
  0
LINE
  5
807
330
1E2
100
AcDbEntity
  8
0
100
AcDbLine
 10
372.808992
 20
232.732954
 30
0.0
 11
372.808992
 21
237.732954
 31
0.0
  0
LINE
  5
808
330
1E2
100
AcDbEntity
  8
0
100
AcDbLine
 10
380.391992
 20
232.732954
 30
0.0
 11
380.391992
 21
237.732954
 31
0.0
  0
LINE
  5
809
330
1E2
100
AcDbEntity
  8
0
100
AcDbLine
 10
387.808992
 20
232.899954
 30
0.0
 11
387.808992
 21
237.732954
 31
0.0
  0
ARC
  5
80A
330
1E2
100
AcDbEntity
  8
0
100
AcDbCircle
 10
343.600992
 20
218.732954
 30
0.0
 40
70.0
100
AcDbArc
 50
317.823
 51
344.251
  0
LINE
  5
80B
330
1E2
100
AcDbEntity
  8
0
100
AcDbLine
 10
391.600992
 20
163.317954
 30
0.0
 11
394.600992
 21
163.317954
 31
0.0
  0
ARC
  5
80C
330
1E2
100
AcDbEntity
  8
3A
 48
0.4720000000000001
100
AcDbCircle
 10
343.600992
 20
218.732954
 30
0.0
 40
70.0
100
AcDbArc
 50
312.025
 51
317.823
  0
LINE
  5
80D
330
1E2
100
AcDbEntity
  8
0
100
AcDbLine
 10
391.600992
 20
175.022954
 30
0.0
 11
394.600992
 21
175.022954
 31
0.0
  0
LINE
  5
80E
330
1E2
100
AcDbEntity
  8
0
100
AcDbLine
 10
398.266992
 20
171.732954
 30
0.0
 11
398.266992
 21
166.732954
 31
0.0
  0
LINE
  5
80F
330
1E2
100
AcDbEntity
  8
0
100
AcDbLine
 10
405.6839919999999
 20
171.732954
 30
0.0
 11
405.6839919999999
 21
166.732954
 31
0.0
  0
LINE
  5
810
330
1E2
100
AcDbEntity
  8
0
100
AcDbLine
 10
391.600992
 20
182.442954
 30
0.0
 11
394.600992
 21
182.442954
 31
0.0
  0
LINE
  5
811
330
1E2
100
AcDbEntity
  8
0
100
AcDbLine
 10
391.600992
 20
189.022954
 30
0.0
 11
394.600992
 21
189.022954
 31
0.0
  0
LINE
  5
812
330
1E2
100
AcDbEntity
  8
0
100
AcDbLine
 10
391.600992
 20
196.442954
 30
0.0
 11
394.600992
 21
196.442954
 31
0.0
  0
LINE
  5
813
330
1E2
100
AcDbEntity
  8
0
100
AcDbLine
 10
413.016992
 20
171.732954
 30
0.0
 11
413.016992
 21
166.732954
 31
0.0
  0
LINE
  5
814
330
1E2
100
AcDbEntity
  8
0
100
AcDbLine
 10
398.266992
 20
204.732954
 30
0.0
 11
398.266992
 21
199.732954
 31
0.0
  0
LINE
  5
815
330
1E2
100
AcDbEntity
  8
0
100
AcDbLine
 10
391.600992
 20
208.022954
 30
0.0
 11
394.600992
 21
208.022954
 31
0.0
  0
LINE
  5
816
330
1E2
100
AcDbEntity
  8
0
100
AcDbLine
 10
391.600992
 20
215.442954
 30
0.0
 11
394.600992
 21
215.442954
 31
0.0
  0
LINE
  5
817
330
1E2
100
AcDbEntity
  8
0
100
AcDbLine
 10
405.6839919999999
 20
204.732954
 30
0.0
 11
405.6839919999999
 21
199.732954
 31
0.0
  0
LINE
  5
818
330
1E2
100
AcDbEntity
  8
0
100
AcDbLine
 10
391.600992
 20
222.022954
 30
0.0
 11
394.600992
 21
222.022954
 31
0.0
  0
LINE
  5
819
330
1E2
100
AcDbEntity
  8
0
100
AcDbLine
 10
391.600992
 20
229.442954
 30
0.0
 11
394.600992
 21
229.442954
 31
0.0
  0
LINE
  5
81A
330
1E2
100
AcDbEntity
  8
0
100
AcDbLine
 10
398.266992
 20
232.732954
 30
0.0
 11
398.266992
 21
237.732954
 31
0.0
  0
LINE
  5
81B
330
1E2
100
AcDbEntity
  8
0
100
AcDbLine
 10
405.6839919999999
 20
232.732954
 30
0.0
 11
405.6839919999999
 21
237.732954
 31
0.0
  0
ARC
  5
81C
330
1E2
100
AcDbEntity
  8
0
100
AcDbCircle
 10
343.600992
 20
218.732954
 30
0.0
 40
70.0
100
AcDbArc
 50
348.463
 51
0.0
  0
LINE
  5
81D
330
1E2
100
AcDbEntity
  8
0
100
AcDbLine
 10
413.016992
 20
204.732954
 30
0.0
 11
413.016992
 21
199.732954
 31
0.0
  0
ARC
  5
81E
330
1E2
100
AcDbEntity
  8
3A
 48
0.343
100
AcDbCircle
 10
343.600992
 20
218.732954
 30
0.0
 40
70.0
100
AcDbArc
 50
344.251
 51
348.463
  0
ARC
  5
81F
330
1E2
100
AcDbEntity
  8
0
100
AcDbCircle
 10
343.600992
 20
218.732954
 30
0.0
 40
70.0
100
AcDbArc
 50
0.0
 51
11.537
  0
ARC
  5
820
330
1E2
100
AcDbEntity
  8
3A
 48
0.343
100
AcDbCircle
 10
343.600992
 20
218.732954
 30
0.0
 40
70.0
100
AcDbArc
 50
11.537
 51
15.749
  0
LINE
  5
821
330
1E2
100
AcDbEntity
  8
0
100
AcDbLine
 10
413.016992
 20
232.732954
 30
0.0
 11
413.016992
 21
237.732954
 31
0.0
  0
ARC
  5
822
330
1E2
100
AcDbEntity
  8
0
100
AcDbCircle
 10
343.600992
 20
218.732954
 30
0.0
 40
70.0
100
AcDbArc
 50
77.626
 51
102.374
  0
LINE
  5
823
330
1E2
100
AcDbEntity
  8
0
100
AcDbLine
 10
328.600992
 20
265.732954
 30
0.0
 11
358.600992
 21
265.732954
 31
0.0
  0
LINE
  5
824
330
1E2
100
AcDbEntity
  8
0
100
AcDbLine
 10
328.600992
 20
270.732954
 30
0.0
 11
358.600992
 21
270.732954
 31
0.0
  0
LINE
  5
825
330
1E2
100
AcDbEntity
  8
0
100
AcDbLine
 10
266.766992
 20
265.877954
 30
0.0
 11
266.766992
 21
270.732954
 31
0.0
  0
ARC
  5
826
330
1E2
100
AcDbEntity
  8
0
100
AcDbCircle
 10
343.600992
 20
218.732954
 30
0.0
 40
70.0
100
AcDbArc
 50
104.901
 51
132.025
  0
LINE
  5
827
330
1E2
100
AcDbEntity
  8
0
100
AcDbLine
 10
295.600992
 20
265.732954
 30
0.0
 11
325.600992
 21
265.732954
 31
0.0
  0
LINE
  5
828
330
1E2
100
AcDbEntity
  8
0
100
AcDbLine
 10
295.600992
 20
270.732954
 30
0.0
 11
325.600992
 21
270.732954
 31
0.0
  0
LINE
  5
829
330
1E2
100
AcDbEntity
  8
0
100
AcDbLine
 10
274.183992
 20
265.732954
 30
0.0
 11
274.183992
 21
270.732954
 31
0.0
  0
LINE
  5
82A
330
1E2
100
AcDbEntity
  8
0
100
AcDbLine
 10
281.516992
 20
265.732954
 30
0.0
 11
281.516992
 21
270.732954
 31
0.0
  0
LINE
  5
82B
330
1E2
100
AcDbEntity
  8
0
100
AcDbLine
 10
295.600992
 20
241.022954
 30
0.0
 11
292.600992
 21
241.022954
 31
0.0
  0
LINE
  5
82C
330
1E2
100
AcDbEntity
  8
0
100
AcDbLine
 10
295.600992
 20
255.022954
 30
0.0
 11
292.600992
 21
255.022954
 31
0.0
  0
LINE
  5
82D
330
1E2
100
AcDbEntity
  8
0
100
AcDbLine
 10
295.600992
 20
248.442954
 30
0.0
 11
292.600992
 21
248.442954
 31
0.0
  0
ARC
  5
82E
330
1E2
100
AcDbEntity
  8
3A
 48
0.4720000000000001
100
AcDbCircle
 10
343.600992
 20
218.732954
 30
0.0
 40
70.0
100
AcDbArc
 50
132.025
 51
137.823
  0
LINE
  5
82F
330
1E2
100
AcDbEntity
  8
0
100
AcDbLine
 10
288.933992
 20
265.732954
 30
0.0
 11
288.933992
 21
270.732954
 31
0.0
  0
LINE
  5
830
330
1E2
100
AcDbEntity
  8
0
100
AcDbLine
 10
295.600992
 20
262.442954
 30
0.0
 11
292.600992
 21
262.442954
 31
0.0
  0
LINE
  5
831
330
1E2
100
AcDbEntity
  8
0
100
AcDbLine
 10
295.600992
 20
274.147954
 30
0.0
 11
292.600992
 21
274.147954
 31
0.0
  0
LINE
  5
832
330
1E2
100
AcDbEntity
  8
0
100
AcDbLine
 10
306.808992
 20
265.732954
 30
0.0
 11
306.808992
 21
270.732954
 31
0.0
  0
LINE
  5
833
330
1E2
100
AcDbEntity
  8
0
100
AcDbLine
 10
299.391992
 20
265.732954
 30
0.0
 11
299.391992
 21
270.732954
 31
0.0
  0
LINE
  5
834
330
1E2
100
AcDbEntity
  8
0
100
AcDbLine
 10
295.600992
 20
281.567954
 30
0.0
 11
292.600992
 21
281.567954
 31
0.0
  0
LINE
  5
835
330
1E2
100
AcDbEntity
  8
0
100
AcDbLine
 10
295.600992
 20
288.397954
 30
0.0
 11
292.600992
 21
288.397954
 31
0.0
  0
LINE
  5
836
330
1E2
100
AcDbEntity
  8
0
100
AcDbLine
 10
295.600992
 20
295.817954
 30
0.0
 11
292.600992
 21
295.817954
 31
0.0
  0
LINE
  5
837
330
1E2
100
AcDbEntity
  8
0
100
AcDbLine
 10
325.600992
 20
241.022954
 30
0.0
 11
328.600992
 21
241.022954
 31
0.0
  0
LINE
  5
838
330
1E2
100
AcDbEntity
  8
0
100
AcDbLine
 10
325.600992
 20
248.442954
 30
0.0
 11
328.600992
 21
248.442954
 31
0.0
  0
LINE
  5
839
330
1E2
100
AcDbEntity
  8
0
100
AcDbLine
 10
325.600992
 20
255.022954
 30
0.0
 11
328.600992
 21
255.022954
 31
0.0
  0
LINE
  5
83A
330
1E2
100
AcDbEntity
  8
0
100
AcDbLine
 10
314.391992
 20
265.732954
 30
0.0
 11
314.391992
 21
270.732954
 31
0.0
  0
LINE
  5
83B
330
1E2
100
AcDbEntity
  8
0
100
AcDbLine
 10
321.808992
 20
265.732954
 30
0.0
 11
321.808992
 21
270.732954
 31
0.0
  0
LINE
  5
83C
330
1E2
100
AcDbEntity
  8
0
100
AcDbLine
 10
325.600992
 20
262.442954
 30
0.0
 11
328.600992
 21
262.442954
 31
0.0
  0
LINE
  5
83D
330
1E2
100
AcDbEntity
  8
0
100
AcDbLine
 10
325.600992
 20
274.147954
 30
0.0
 11
328.600992
 21
274.147954
 31
0.0
  0
LINE
  5
83E
330
1E2
100
AcDbEntity
  8
0
100
AcDbLine
 10
332.391992
 20
265.732954
 30
0.0
 11
332.391992
 21
270.732954
 31
0.0
  0
LINE
  5
83F
330
1E2
100
AcDbEntity
  8
0
100
AcDbLine
 10
347.391992
 20
265.732954
 30
0.0
 11
347.391992
 21
270.732954
 31
0.0
  0
LINE
  5
840
330
1E2
100
AcDbEntity
  8
0
100
AcDbLine
 10
339.808992
 20
265.732954
 30
0.0
 11
339.808992
 21
270.732954
 31
0.0
  0
LINE
  5
841
330
1E2
100
AcDbEntity
  8
0
100
AcDbLine
 10
325.600992
 20
281.567954
 30
0.0
 11
328.600992
 21
281.567954
 31
0.0
  0
ARC
  5
842
330
1E2
100
AcDbEntity
  8
3A
 48
0.206
100
AcDbCircle
 10
343.600992
 20
218.732954
 30
0.0
 40
70.0
100
AcDbArc
 50
102.374
 51
104.901
  0
LINE
  5
843
330
1E2
100
AcDbEntity
  8
0
100
AcDbLine
 10
325.600992
 20
288.397954
 30
0.0
 11
328.600992
 21
288.397954
 31
0.0
  0
LINE
  5
844
330
1E2
100
AcDbEntity
  8
0
100
AcDbLine
 10
325.600992
 20
295.817954
 30
0.0
 11
328.600992
 21
295.817954
 31
0.0
  0
ARC
  5
845
330
1E2
100
AcDbEntity
  8
0
100
AcDbCircle
 10
343.600992
 20
218.732954
 30
0.0
 40
70.0
100
AcDbArc
 50
47.975
 51
75.09899999999999
  0
LINE
  5
846
330
1E2
100
AcDbEntity
  8
0
100
AcDbLine
 10
361.600992
 20
265.732954
 30
0.0
 11
391.600992
 21
265.732954
 31
0.0
  0
LINE
  5
847
330
1E2
100
AcDbEntity
  8
0
100
AcDbLine
 10
361.600992
 20
270.732954
 30
0.0
 11
391.600992
 21
270.732954
 31
0.0
  0
LINE
  5
848
330
1E2
100
AcDbEntity
  8
0
100
AcDbLine
 10
358.600992
 20
255.022954
 30
0.0
 11
361.600992
 21
255.022954
 31
0.0
  0
LINE
  5
849
330
1E2
100
AcDbEntity
  8
0
100
AcDbLine
 10
358.600992
 20
248.442954
 30
0.0
 11
361.600992
 21
248.442954
 31
0.0
  0
LINE
  5
84A
330
1E2
100
AcDbEntity
  8
0
100
AcDbLine
 10
358.600992
 20
241.022954
 30
0.0
 11
361.600992
 21
241.022954
 31
0.0
  0
LINE
  5
84B
330
1E2
100
AcDbEntity
  8
0
100
AcDbLine
 10
358.600992
 20
274.147954
 30
0.0
 11
361.600992
 21
274.147954
 31
0.0
  0
LINE
  5
84C
330
1E2
100
AcDbEntity
  8
0
100
AcDbLine
 10
358.600992
 20
262.442954
 30
0.0
 11
361.600992
 21
262.442954
 31
0.0
  0
LINE
  5
84D
330
1E2
100
AcDbEntity
  8
0
100
AcDbLine
 10
354.808992
 20
265.732954
 30
0.0
 11
354.808992
 21
270.732954
 31
0.0
  0
LINE
  5
84E
330
1E2
100
AcDbEntity
  8
0
100
AcDbLine
 10
365.391992
 20
265.732954
 30
0.0
 11
365.391992
 21
270.732954
 31
0.0
  0
LINE
  5
84F
330
1E2
100
AcDbEntity
  8
0
100
AcDbLine
 10
372.808992
 20
265.732954
 30
0.0
 11
372.808992
 21
270.732954
 31
0.0
  0
LINE
  5
850
330
1E2
100
AcDbEntity
  8
0
100
AcDbLine
 10
387.808992
 20
265.732954
 30
0.0
 11
387.808992
 21
270.732954
 31
0.0
  0
LINE
  5
851
330
1E2
100
AcDbEntity
  8
0
100
AcDbLine
 10
380.391992
 20
265.732954
 30
0.0
 11
380.391992
 21
270.732954
 31
0.0
  0
ARC
  5
852
330
1E2
100
AcDbEntity
  8
3A
 48
0.206
100
AcDbCircle
 10
343.600992
 20
218.732954
 30
0.0
 40
70.0
100
AcDbArc
 50
75.09899999999999
 51
77.626
  0
LINE
  5
853
330
1E2
100
AcDbEntity
  8
0
100
AcDbLine
 10
358.600992
 20
295.817954
 30
0.0
 11
361.600992
 21
295.817954
 31
0.0
  0
LINE
  5
854
330
1E2
100
AcDbEntity
  8
0
100
AcDbLine
 10
358.600992
 20
288.397954
 30
0.0
 11
361.600992
 21
288.397954
 31
0.0
  0
LINE
  5
855
330
1E2
100
AcDbEntity
  8
0
100
AcDbLine
 10
358.600992
 20
281.567954
 30
0.0
 11
361.600992
 21
281.567954
 31
0.0
  0
LINE
  5
856
330
1E2
100
AcDbEntity
  8
0
100
AcDbLine
 10
391.600992
 20
241.022954
 30
0.0
 11
394.600992
 21
241.022954
 31
0.0
  0
LINE
  5
857
330
1E2
100
AcDbEntity
  8
0
100
AcDbLine
 10
391.600992
 20
248.442954
 30
0.0
 11
394.600992
 21
248.442954
 31
0.0
  0
LINE
  5
858
330
1E2
100
AcDbEntity
  8
0
100
AcDbLine
 10
391.600992
 20
255.022954
 30
0.0
 11
394.600992
 21
255.022954
 31
0.0
  0
ARC
  5
859
330
1E2
100
AcDbEntity
  8
3A
 48
0.4720000000000001
100
AcDbCircle
 10
343.600992
 20
218.732954
 30
0.0
 40
70.0
100
AcDbArc
 50
42.17699999999999
 51
47.975
  0
LINE
  5
85A
330
1E2
100
AcDbEntity
  8
0
100
AcDbLine
 10
398.266992
 20
265.732954
 30
0.0
 11
398.266992
 21
270.732954
 31
0.0
  0
LINE
  5
85B
330
1E2
100
AcDbEntity
  8
0
100
AcDbLine
 10
391.600992
 20
262.442954
 30
0.0
 11
394.600992
 21
262.442954
 31
0.0
  0
LINE
  5
85C
330
1E2
100
AcDbEntity
  8
0
100
AcDbLine
 10
391.600992
 20
274.147954
 30
0.0
 11
394.600992
 21
274.147954
 31
0.0
  0
LINE
  5
85D
330
1E2
100
AcDbEntity
  8
0
100
AcDbLine
 10
405.6839919999999
 20
265.732954
 30
0.0
 11
405.6839919999999
 21
270.732954
 31
0.0
  0
LINE
  5
85E
330
1E2
100
AcDbEntity
  8
0
100
AcDbLine
 10
413.016992
 20
265.732954
 30
0.0
 11
413.016992
 21
270.732954
 31
0.0
  0
LINE
  5
85F
330
1E2
100
AcDbEntity
  8
0
100
AcDbLine
 10
391.600992
 20
281.567954
 30
0.0
 11
394.600992
 21
281.567954
 31
0.0
  0
LINE
  5
860
330
1E2
100
AcDbEntity
  8
0
100
AcDbLine
 10
391.600992
 20
288.397954
 30
0.0
 11
394.600992
 21
288.397954
 31
0.0
  0
LINE
  5
861
330
1E2
100
AcDbEntity
  8
0
100
AcDbLine
 10
391.600992
 20
295.817954
 30
0.0
 11
394.600992
 21
295.817954
 31
0.0
  0
LINE
  5
862
330
1E2
100
AcDbEntity
  8
0
100
AcDbLine
 10
424.100992
 20
218.732954
 30
0.0
 11
424.100992
 21
299.232954
 31
0.0
  0
LINE
  5
863
330
1E2
100
AcDbEntity
  8
0
100
AcDbLine
 10
263.100992
 20
166.732954
 30
0.0
 11
292.600992
 21
166.732954
 31
0.0
  0
LINE
  5
864
330
1E2
100
AcDbEntity
  8
0
100
AcDbLine
 10
263.100992
 20
171.732954
 30
0.0
 11
292.600992
 21
171.732954
 31
0.0
  0
LINE
  5
865
330
1E2
100
AcDbEntity
  8
0
100
AcDbLine
 10
263.100992
 20
199.732954
 30
0.0
 11
292.600992
 21
199.732954
 31
0.0
  0
LINE
  5
866
330
1E2
100
AcDbEntity
  8
0
100
AcDbLine
 10
263.100992
 20
204.732954
 30
0.0
 11
292.600992
 21
204.732954
 31
0.0
  0
LINE
  5
867
330
1E2
100
AcDbEntity
  8
0
100
AcDbLine
 10
263.100992
 20
232.732954
 30
0.0
 11
292.600992
 21
232.732954
 31
0.0
  0
LINE
  5
868
330
1E2
100
AcDbEntity
  8
0
100
AcDbLine
 10
263.100992
 20
237.732954
 30
0.0
 11
292.600992
 21
237.732954
 31
0.0
  0
LINE
  5
869
330
1E2
100
AcDbEntity
  8
0
100
AcDbLine
 10
263.100992
 20
218.732954
 30
0.0
 11
263.100992
 21
138.232954
 31
0.0
  0
LINE
  5
86A
330
1E2
100
AcDbEntity
  8
0
100
AcDbLine
 10
328.600992
 20
138.232954
 30
0.0
 11
328.600992
 21
218.732954
 31
0.0
  0
LINE
  5
86B
330
1E2
100
AcDbEntity
  8
0
100
AcDbLine
 10
325.600992
 20
138.232954
 30
0.0
 11
325.600992
 21
218.732954
 31
0.0
  0
LINE
  5
86C
330
1E2
100
AcDbEntity
  8
0
100
AcDbLine
 10
295.600992
 20
138.232954
 30
0.0
 11
295.600992
 21
218.732954
 31
0.0
  0
LINE
  5
86D
330
1E2
100
AcDbEntity
  8
0
100
AcDbLine
 10
292.600992
 20
138.232954
 30
0.0
 11
292.600992
 21
218.732954
 31
0.0
  0
LINE
  5
86E
330
1E2
100
AcDbEntity
  8
0
100
AcDbLine
 10
295.600992
 20
141.647954
 30
0.0
 11
292.600992
 21
141.647954
 31
0.0
  0
LINE
  5
86F
330
1E2
100
AcDbEntity
  8
0
100
AcDbLine
 10
325.600992
 20
141.647954
 30
0.0
 11
328.600992
 21
141.647954
 31
0.0
  0
LINE
  5
870
330
1E2
100
AcDbEntity
  8
0
100
AcDbLine
 10
424.100992
 20
218.732954
 30
0.0
 11
424.100992
 21
138.232954
 31
0.0
  0
LINE
  5
871
330
1E2
100
AcDbEntity
  8
0
100
AcDbLine
 10
394.600992
 20
138.232954
 30
0.0
 11
394.600992
 21
218.732954
 31
0.0
  0
LINE
  5
872
330
1E2
100
AcDbEntity
  8
0
100
AcDbLine
 10
391.600992
 20
138.232954
 30
0.0
 11
391.600992
 21
218.732954
 31
0.0
  0
LINE
  5
873
330
1E2
100
AcDbEntity
  8
0
100
AcDbLine
 10
361.600992
 20
138.232954
 30
0.0
 11
361.600992
 21
218.732954
 31
0.0
  0
LINE
  5
874
330
1E2
100
AcDbEntity
  8
0
100
AcDbLine
 10
358.600992
 20
138.232954
 30
0.0
 11
358.600992
 21
218.732954
 31
0.0
  0
LINE
  5
875
330
1E2
100
AcDbEntity
  8
0
100
AcDbLine
 10
358.600992
 20
141.647954
 30
0.0
 11
361.600992
 21
141.647954
 31
0.0
  0
LINE
  5
876
330
1E2
100
AcDbEntity
  8
0
100
AcDbLine
 10
391.600992
 20
141.647954
 30
0.0
 11
394.600992
 21
141.647954
 31
0.0
  0
LINE
  5
877
330
1E2
100
AcDbEntity
  8
0
100
AcDbLine
 10
394.600992
 20
171.732954
 30
0.0
 11
424.100992
 21
171.732954
 31
0.0
  0
LINE
  5
878
330
1E2
100
AcDbEntity
  8
0
100
AcDbLine
 10
394.600992
 20
166.732954
 30
0.0
 11
424.100992
 21
166.732954
 31
0.0
  0
LINE
  5
879
330
1E2
100
AcDbEntity
  8
0
100
AcDbLine
 10
420.4339919999999
 20
171.732954
 30
0.0
 11
420.4339919999999
 21
166.732954
 31
0.0
  0
LINE
  5
87A
330
1E2
100
AcDbEntity
  8
0
100
AcDbLine
 10
394.600992
 20
204.732954
 30
0.0
 11
424.100992
 21
204.732954
 31
0.0
  0
LINE
  5
87B
330
1E2
100
AcDbEntity
  8
0
100
AcDbLine
 10
394.600992
 20
199.732954
 30
0.0
 11
424.100992
 21
199.732954
 31
0.0
  0
LINE
  5
87C
330
1E2
100
AcDbEntity
  8
0
100
AcDbLine
 10
394.600992
 20
237.732954
 30
0.0
 11
424.100992
 21
237.732954
 31
0.0
  0
LINE
  5
87D
330
1E2
100
AcDbEntity
  8
0
100
AcDbLine
 10
394.600992
 20
232.732954
 30
0.0
 11
424.100992
 21
232.732954
 31
0.0
  0
LINE
  5
87E
330
1E2
100
AcDbEntity
  8
0
100
AcDbLine
 10
420.4339919999999
 20
204.732954
 30
0.0
 11
420.4339919999999
 21
199.732954
 31
0.0
  0
LINE
  5
87F
330
1E2
100
AcDbEntity
  8
0
100
AcDbLine
 10
420.4339919999999
 20
232.732954
 30
0.0
 11
420.4339919999999
 21
237.732954
 31
0.0
  0
LINE
  5
880
330
1E2
100
AcDbEntity
  8
0
100
AcDbLine
 10
424.100992
 20
299.232954
 30
0.0
 11
263.100992
 21
299.232954
 31
0.0
  0
LINE
  5
881
330
1E2
100
AcDbEntity
  8
0
100
AcDbLine
 10
263.100992
 20
265.732954
 30
0.0
 11
292.600992
 21
265.732954
 31
0.0
  0
LINE
  5
882
330
1E2
100
AcDbEntity
  8
0
100
AcDbLine
 10
263.100992
 20
270.732954
 30
0.0
 11
292.600992
 21
270.732954
 31
0.0
  0
LINE
  5
883
330
1E2
100
AcDbEntity
  8
0
100
AcDbLine
 10
394.600992
 20
270.732954
 30
0.0
 11
424.100992
 21
270.732954
 31
0.0
  0
LINE
  5
884
330
1E2
100
AcDbEntity
  8
0
100
AcDbLine
 10
394.600992
 20
265.732954
 30
0.0
 11
424.100992
 21
265.732954
 31
0.0
  0
LINE
  5
885
330
1E2
100
AcDbEntity
  8
0
100
AcDbLine
 10
420.4339919999999
 20
265.732954
 30
0.0
 11
420.4339919999999
 21
270.732954
 31
0.0
  0
HATCH
  5
8D2
330
1E2
100
AcDbEntity
  8
8
100
AcDbHatch
 10
0.0
 20
0.0
 30
0.0
210
0.0
220
0.0
230
1.0
  2
_U
 70
     0
 71
     0
 91
        1
 92
        1
 93
       11
 72
     1
 10
258.196717
 20
547.158646
 11
256.100992
 21
595.1586459999999
 72
     1
 10
256.100992
 20
595.1586459999999
 11
245.100992
 21
595.1586459999999
 72
     1
 10
245.100992
 20
595.1586459999999
 11
245.100992
 21
556.33048
 72
     2
 10
242.600992
 20
556.33048
 40
2.5
 50
0.0
 51
85.0
 73
     0
 72
     1
 10
242.818881
 20
553.8399929999999
 11
225.883102
 21
552.358304
 72
     2
 10
226.100992
 20
549.8678179999999
 40
2.5
 50
95.0
 51
180.0
 73
     1
 72
     1
 10
223.600992
 20
549.8678179999999
 11
223.600992
 21
547.158646
 72
     1
 10
223.600992
 20
547.158646
 11
242.226379
 21
547.158646
 72
     1
 10
242.226379
 20
547.158646
 11
244.600992
 21
479.1586459999999
 72
     1
 10
244.600992
 20
479.1586459999999
 11
251.847367
 21
479.1586459999999
 72
     1
 10
251.847367
 20
479.1586459999999
 11
258.196717
 21
547.158646
 97
        0
 75
     0
 76
     0
 52
45.0
 41
12.5
 77
     0
 78
     1
 53
45.0
 43
0.0
 44
0.0
 45
-8.838834764831842
 46
8.838834764831842
 79
     0
 98
        1
 10
0.0
 20
0.0
1001
GENIUS_GENODEF_13
1002
{
1000
HIER
1070
     0
1002
}
1002
{
1000
MANEDIT
1070
     0
1002
}
1002
{
1000
NOSEL
1070
     0
1002
}
1002
{
1000
BEHIND
1070
     0
1002
}
1002
{
1000
REACTOR
1002
}
1001
GENIUS_GENOBJ-N-HTC_13
1002
{
1000
OWNER
1000
GEN
1002
}
1001
GENIUS_GENHATCH_13
1002
{
1000
DATA
1040
45.0
1042
2.5
1000
_U
1070
     0
1011
251.590481
1021
551.479194
1031
0.0
1002
}
1002
{
1000
UCS
1010
0.0
1020
0.0
1030
0.0
1010
1.0
1020
0.0
1030
0.0
1010
0.0
1020
1.0
1030
0.0
1002
}
  0
HATCH
  5
8E2
330
1E2
100
AcDbEntity
  8
8
100
AcDbHatch
 10
0.0
 20
0.0
 30
0.0
210
0.0
220
0.0
230
1.0
  2
_U
 70
     0
 71
     0
 91
        1
 92
        1
 93
       11
 72
     1
 10
435.354617
 20
479.1586459999999
 11
442.600992
 21
479.1586459999999
 72
     1
 10
442.600992
 20
479.1586459999999
 11
444.9756039999999
 21
547.158646
 72
     1
 10
444.9756039999999
 20
547.158646
 11
463.600992
 21
547.158646
 72
     1
 10
463.600992
 20
547.158646
 11
463.600992
 21
549.8678179999999
 72
     2
 10
461.1009919999999
 20
549.8678179999999
 40
2.5
 50
0.0
 51
85.0
 73
     1
 72
     1
 10
461.3188809999999
 20
552.358304
 11
444.3831019999999
 21
553.8399929999999
 72
     2
 10
444.600992
 20
556.33048
 40
2.5
 50
95.0
 51
180.0
 73
     0
 72
     1
 10
442.100992
 20
556.33048
 11
442.100992
 21
595.1586459999999
 72
     1
 10
442.100992
 20
595.1586459999999
 11
431.100992
 21
595.1586459999999
 72
     1
 10
431.100992
 20
595.1586459999999
 11
429.0052659999999
 21
547.158646
 72
     1
 10
429.0052659999999
 20
547.158646
 11
435.354617
 21
479.1586459999999
 97
        0
 75
     0
 76
     0
 52
45.0
 41
12.5
 77
     0
 78
     1
 53
45.0
 43
0.0
 44
0.0
 45
-8.838834764831842
 46
8.838834764831842
 79
     0
 98
        1
 10
0.0
 20
0.0
1001
GENIUS_GENODEF_13
1002
{
1000
HIER
1070
     0
1002
}
1002
{
1000
MANEDIT
1070
     0
1002
}
1002
{
1000
NOSEL
1070
     0
1002
}
1002
{
1000
BEHIND
1070
     0
1002
}
1002
{
1000
REACTOR
1002
}
1001
GENIUS_GENOBJ-N-HTC_13
1002
{
1000
OWNER
1000
GEN
1002
}
1001
GENIUS_GENHATCH_13
1002
{
1000
DATA
1040
45.0
1042
2.5
1000
_U
1070
     0
1011
438.5364599999999
1021
547.295687
1031
0.0
1002
}
1002
{
1000
UCS
1010
0.0
1020
0.0
1030
0.0
1010
1.0
1020
0.0
1030
0.0
1010
0.0
1020
1.0
1030
0.0
1002
}
  0
POLYLINE
  5
903
330
1E2
100
AcDbEntity
  8
0
100
AcDb2dPolyline
 66
     1
 10
0.0
 20
0.0
 30
0.0
 70
     1
1001
GENIUS_GENREC_14
1002
{
1000
PYDIR
1011
256.100992
1021
306.232954
1031
0.0
1002
}
1002
{
1000
PXDIR
1011
431.100992
1021
131.232954
1031
0.0
1002
}
1002
{
1000
PORI
1011
256.100992
1021
131.232954
1031
0.0
1002
}
1002
{
1000
PINS
1011
256.100992
1021
131.232954
1031
0.0
1002
}
1002
{
1000
PINS2
1011
431.100992
1021
306.232954
1031
0.0
1002
}
1002
{
1000
C
1070
     1
1002
}
1001
GENIUS_GENODEF_13
1002
{
1000
HIER
1070
     0
1002
}
1002
{
1000
MANEDIT
1070
     0
1002
}
1002
{
1000
NOSEL
1070
     0
1002
}
1002
{
1000
BEHIND
1070
     0
1002
}
1002
{
1000
REACTOR
1002
}
1001
GENIUS_GENOBJ-N-REC_13
1002
{
1000
OWNER
1000
GEN
1002
}
  0
VERTEX
  5
904
330
903
100
AcDbEntity
  8
0
100
AcDbVertex
100
AcDb2dVertex
 10
256.100992
 20
131.232954
 30
0.0
  0
VERTEX
  5
905
330
903
100
AcDbEntity
  8
0
100
AcDbVertex
100
AcDb2dVertex
 10
431.100992
 20
131.232954
 30
0.0
  0
VERTEX
  5
906
330
903
100
AcDbEntity
  8
0
100
AcDbVertex
100
AcDb2dVertex
 10
431.100992
 20
306.232954
 30
0.0
  0
VERTEX
  5
907
330
903
100
AcDbEntity
  8
0
100
AcDbVertex
100
AcDb2dVertex
 10
256.100992
 20
306.232954
 30
0.0
  0
SEQEND
  5
908
330
903
100
AcDbEntity
  8
0
  0
ARC
  5
9A0
330
1E2
100
AcDbEntity
  8
0
100
AcDbCircle
 10
351.101492
 20
595.6576459999999
 30
0.0
 40
4.0
100
AcDbArc
 50
202.024
 51
337.976
  0
LINE
  5
9A1
330
1E2
100
AcDbEntity
  8
0
100
AcDbLine
 10
258.101492
 20
594.1586459999999
 30
0.0
 11
429.101492
 21
594.1586459999999
 31
0.0
  0
LINE
  5
9A2
330
1E2
100
AcDbEntity
  8
0
100
AcDbLine
 10
258.201492
 20
559.158646
 30
0.0
 11
429.000492
 21
559.158646
 31
0.0
  0
ARC
  5
9A3
330
1E2
100
AcDbEntity
  8
0
100
AcDbCircle
 10
270.476492
 20
595.6576459999999
 30
0.0
 40
4.0
100
AcDbArc
 50
202.024
 51
337.976
  0
INSERT
  5
9A4
330
1E2
100
AcDbEntity
  8
8
100
AcDbBlockReference
  2
*X9
 10
185.102492
 20
120.324646
 30
0.0
1001
ACAD
1000
HATCH
1002
{
1070
    19
1000
ANSI31,_I
1040
3.174999999999999
1040
-2.355999999999999
1002
}
  0
POLYLINE
  5
9A5
330
1E2
100
AcDbEntity
  8
SCHRAFFUR_RAND
100
AcDb2dPolyline
 66
     1
 10
0.0
 20
0.0
 30
0.0
 70
     1
  0
VERTEX
  5
9A6
330
9A5
100
AcDbEntity
  8
SCHRAFFUR_RAND
100
AcDbVertex
100
AcDb2dVertex
 10
258.101492
 20
559.158646
 30
0.0
  0
VERTEX
  5
9A7
330
9A5
100
AcDbEntity
  8
SCHRAFFUR_RAND
100
AcDbVertex
100
AcDb2dVertex
 10
263.101492
 20
559.158646
 30
0.0
  0
VERTEX
  5
9A8
330
9A5
100
AcDbEntity
  8
SCHRAFFUR_RAND
100
AcDbVertex
100
AcDb2dVertex
 10
263.101492
 20
594.1586459999999
 30
0.0
  0
VERTEX
  5
9A9
330
9A5
100
AcDbEntity
  8
SCHRAFFUR_RAND
100
AcDbVertex
100
AcDb2dVertex
 10
258.101492
 20
594.1586459999999
 30
0.0
  0
VERTEX
  5
9AA
330
9A5
100
AcDbEntity
  8
SCHRAFFUR_RAND
100
AcDbVertex
100
AcDb2dVertex
 10
258.101492
 20
559.158646
 30
0.0
  0
SEQEND
  5
9AB
330
9A5
100
AcDbEntity
  8
SCHRAFFUR_RAND
  0
LINE
  5
9AC
330
1E2
100
AcDbEntity
  8
0
100
AcDbLine
 10
263.101492
 20
594.1586459999999
 30
0.0
 11
263.101492
 21
559.158646
 31
0.0
  0
LINE
  5
9AD
330
1E2
100
AcDbEntity
  8
0
100
AcDbLine
 10
258.101492
 20
594.1586459999999
 30
0.0
 11
258.101492
 21
559.158646
 31
0.0
  0
INSERT
  5
9AE
330
1E2
100
AcDbEntity
  8
8
100
AcDbBlockReference
  2
*X11
 10
185.102492
 20
120.324646
 30
0.0
1001
ACAD
1000
HATCH
1002
{
1070
    19
1000
ANSI31,_I
1040
3.174999999999999
1040
-2.355999999999999
1002
}
  0
POLYLINE
  5
9AF
330
1E2
100
AcDbEntity
  8
SCHRAFFUR_RAND
100
AcDb2dPolyline
 66
     1
 10
0.0
 20
0.0
 30
0.0
 70
     1
  0
VERTEX
  5
9B0
330
9AF
100
AcDbEntity
  8
SCHRAFFUR_RAND
100
AcDbVertex
100
AcDb2dVertex
 10
295.601492
 20
594.1586459999999
 30
0.0
  0
VERTEX
  5
9B1
330
9AF
100
AcDbEntity
  8
SCHRAFFUR_RAND
100
AcDbVertex
100
AcDb2dVertex
 10
292.601492
 20
594.1586459999999
 30
0.0
  0
VERTEX
  5
9B2
330
9AF
100
AcDbEntity
  8
SCHRAFFUR_RAND
100
AcDbVertex
100
AcDb2dVertex
 10
292.601492
 20
582.1586459999999
 30
0.0
  0
VERTEX
  5
9B3
330
9AF
100
AcDbEntity
  8
SCHRAFFUR_RAND
100
AcDbVertex
100
AcDb2dVertex
 10
295.601492
 20
582.1586459999999
 30
0.0
  0
VERTEX
  5
9B4
330
9AF
100
AcDbEntity
  8
SCHRAFFUR_RAND
100
AcDbVertex
100
AcDb2dVertex
 10
295.601492
 20
594.1586459999999
 30
0.0
  0
SEQEND
  5
9B5
330
9AF
100
AcDbEntity
  8
SCHRAFFUR_RAND
  0
LINE
  5
9B6
330
1E2
100
AcDbEntity
  8
0
100
AcDbLine
 10
295.601492
 20
594.1586459999999
 30
0.0
 11
295.601492
 21
582.1586459999999
 31
0.0
  0
LINE
  5
9B7
330
1E2
100
AcDbEntity
  8
0
100
AcDbLine
 10
292.601492
 20
594.1586459999999
 30
0.0
 11
292.601492
 21
582.1586459999999
 31
0.0
  0
LINE
  5
9BA
330
1E2
100
AcDbEntity
  8
0
100
AcDbLine
 10
295.601492
 20
582.1586459999999
 30
0.0
 11
292.601492
 21
582.1586459999999
 31
0.0
  0
ARC
  5
9BB
330
1E2
100
AcDbEntity
  8
0
100
AcDbCircle
 10
285.226492
 20
595.6576459999999
 30
0.0
 40
4.0
100
AcDbArc
 50
202.024
 51
334.193
  0
ARC
  5
9BC
330
1E2
100
AcDbEntity
  8
0
100
AcDbCircle
 10
303.101492
 20
595.6576459999999
 30
0.0
 40
4.0
100
AcDbArc
 50
202.024
 51
337.976
  0
INSERT
  5
9BD
330
1E2
100
AcDbEntity
  8
8
100
AcDbBlockReference
  2
*X12
 10
185.102492
 20
120.324646
 30
0.0
1001
ACAD
1000
HATCH
1002
{
1070
    19
1000
ANSI31,_I
1040
3.174999999999999
1040
-2.355999999999999
1002
}
  0
POLYLINE
  5
9BE
330
1E2
100
AcDbEntity
  8
SCHRAFFUR_RAND
100
AcDb2dPolyline
 66
     1
 10
0.0
 20
0.0
 30
0.0
 70
     1
  0
VERTEX
  5
9BF
330
9BE
100
AcDbEntity
  8
SCHRAFFUR_RAND
100
AcDbVertex
100
AcDb2dVertex
 10
328.601492
 20
594.1586459999999
 30
0.0
  0
VERTEX
  5
9C0
330
9BE
100
AcDbEntity
  8
SCHRAFFUR_RAND
100
AcDbVertex
100
AcDb2dVertex
 10
325.601492
 20
594.1586459999999
 30
0.0
  0
VERTEX
  5
9C1
330
9BE
100
AcDbEntity
  8
SCHRAFFUR_RAND
100
AcDbVertex
100
AcDb2dVertex
 10
325.601492
 20
582.1586459999999
 30
0.0
  0
VERTEX
  5
9C2
330
9BE
100
AcDbEntity
  8
SCHRAFFUR_RAND
100
AcDbVertex
100
AcDb2dVertex
 10
328.601492
 20
582.1586459999999
 30
0.0
  0
VERTEX
  5
9C3
330
9BE
100
AcDbEntity
  8
SCHRAFFUR_RAND
100
AcDbVertex
100
AcDb2dVertex
 10
328.601492
 20
594.1586459999999
 30
0.0
  0
SEQEND
  5
9C4
330
9BE
100
AcDbEntity
  8
SCHRAFFUR_RAND
  0
LINE
  5
9C5
330
1E2
100
AcDbEntity
  8
0
100
AcDbLine
 10
328.601492
 20
594.1586459999999
 30
0.0
 11
328.601492
 21
582.1586459999999
 31
0.0
  0
LINE
  5
9C6
330
1E2
100
AcDbEntity
  8
0
100
AcDbLine
 10
325.601492
 20
594.1586459999999
 30
0.0
 11
325.601492
 21
582.1586459999999
 31
0.0
  0
LINE
  5
9C7
330
1E2
100
AcDbEntity
  8
0
100
AcDbLine
 10
328.601492
 20
582.1586459999999
 30
0.0
 11
325.601492
 21
582.1586459999999
 31
0.0
  0
ARC
  5
9C8
330
1E2
100
AcDbEntity
  8
0
100
AcDbCircle
 10
318.101492
 20
595.6576459999999
 30
0.0
 40
4.0
100
AcDbArc
 50
202.024
 51
337.976
  0
ARC
  5
9C9
330
1E2
100
AcDbEntity
  8
0
100
AcDbCircle
 10
336.101492
 20
595.6576459999999
 30
0.0
 40
4.0
100
AcDbArc
 50
202.024
 51
337.976
  0
INSERT
  5
9CA
330
1E2
100
AcDbEntity
  8
8
100
AcDbBlockReference
  2
*X13
 10
185.102492
 20
120.324646
 30
0.0
1001
ACAD
1000
HATCH
1002
{
1070
    19
1000
ANSI31,_I
1040
3.174999999999999
1040
-2.355999999999999
1002
}
  0
POLYLINE
  5
9CB
330
1E2
100
AcDbEntity
  8
SCHRAFFUR_RAND
100
AcDb2dPolyline
 66
     1
 10
0.0
 20
0.0
 30
0.0
 70
     1
  0
VERTEX
  5
9CC
330
9CB
100
AcDbEntity
  8
SCHRAFFUR_RAND
100
AcDbVertex
100
AcDb2dVertex
 10
361.601492
 20
594.1586459999999
 30
0.0
  0
VERTEX
  5
9CD
330
9CB
100
AcDbEntity
  8
SCHRAFFUR_RAND
100
AcDbVertex
100
AcDb2dVertex
 10
358.601492
 20
594.1586459999999
 30
0.0
  0
VERTEX
  5
9CE
330
9CB
100
AcDbEntity
  8
SCHRAFFUR_RAND
100
AcDbVertex
100
AcDb2dVertex
 10
358.601492
 20
582.1586459999999
 30
0.0
  0
VERTEX
  5
9CF
330
9CB
100
AcDbEntity
  8
SCHRAFFUR_RAND
100
AcDbVertex
100
AcDb2dVertex
 10
361.601492
 20
582.1586459999999
 30
0.0
  0
VERTEX
  5
9D0
330
9CB
100
AcDbEntity
  8
SCHRAFFUR_RAND
100
AcDbVertex
100
AcDb2dVertex
 10
361.601492
 20
594.1586459999999
 30
0.0
  0
SEQEND
  5
9D1
330
9CB
100
AcDbEntity
  8
SCHRAFFUR_RAND
  0
LINE
  5
9D2
330
1E2
100
AcDbEntity
  8
0
100
AcDbLine
 10
361.601492
 20
594.1586459999999
 30
0.0
 11
361.601492
 21
582.1586459999999
 31
0.0
  0
LINE
  5
9D3
330
1E2
100
AcDbEntity
  8
0
100
AcDbLine
 10
358.601492
 20
594.1586459999999
 30
0.0
 11
358.601492
 21
582.1586459999999
 31
0.0
  0
LINE
  5
9D4
330
1E2
100
AcDbEntity
  8
0
100
AcDbLine
 10
361.601492
 20
582.1586459999999
 30
0.0
 11
358.601492
 21
582.1586459999999
 31
0.0
  0
ARC
  5
9D5
330
1E2
100
AcDbEntity
  8
0
100
AcDbCircle
 10
369.101492
 20
595.6576459999999
 30
0.0
 40
4.0
100
AcDbArc
 50
202.024
 51
337.976
  0
ARC
  5
9D6
330
1E2
100
AcDbEntity
  8
0
100
AcDbCircle
 10
384.101492
 20
595.6576459999999
 30
0.0
 40
4.0
100
AcDbArc
 50
202.024
 51
337.976
  0
INSERT
  5
9D7
330
1E2
100
AcDbEntity
  8
8
100
AcDbBlockReference
  2
*X14
 10
185.102492
 20
120.324646
 30
0.0
1001
ACAD
1000
HATCH
1002
{
1070
    19
1000
ANSI31,_I
1040
3.174999999999999
1040
-2.355999999999999
1002
}
  0
POLYLINE
  5
9D8
330
1E2
100
AcDbEntity
  8
SCHRAFFUR_RAND
100
AcDb2dPolyline
 66
     1
 10
0.0
 20
0.0
 30
0.0
 70
     1
  0
VERTEX
  5
9D9
330
9D8
100
AcDbEntity
  8
SCHRAFFUR_RAND
100
AcDbVertex
100
AcDb2dVertex
 10
394.601492
 20
594.1586459999999
 30
0.0
  0
VERTEX
  5
9DA
330
9D8
100
AcDbEntity
  8
SCHRAFFUR_RAND
100
AcDbVertex
100
AcDb2dVertex
 10
391.601492
 20
594.1586459999999
 30
0.0
  0
VERTEX
  5
9DB
330
9D8
100
AcDbEntity
  8
SCHRAFFUR_RAND
100
AcDbVertex
100
AcDb2dVertex
 10
391.601492
 20
582.1586459999999
 30
0.0
  0
VERTEX
  5
9DC
330
9D8
100
AcDbEntity
  8
SCHRAFFUR_RAND
100
AcDbVertex
100
AcDb2dVertex
 10
394.601492
 20
582.1586459999999
 30
0.0
  0
VERTEX
  5
9DD
330
9D8
100
AcDbEntity
  8
SCHRAFFUR_RAND
100
AcDbVertex
100
AcDb2dVertex
 10
394.601492
 20
594.1586459999999
 30
0.0
  0
SEQEND
  5
9DE
330
9D8
100
AcDbEntity
  8
SCHRAFFUR_RAND
  0
INSERT
  5
9DF
330
1E2
100
AcDbEntity
  8
8
100
AcDbBlockReference
  2
*X10
 10
185.102492
 20
120.324646
 30
0.0
1001
ACAD
1000
HATCH
1002
{
1070
    19
1000
ANSI31,_I
1040
3.174999999999999
1040
-2.355999999999999
1002
}
  0
POLYLINE
  5
9E0
330
1E2
100
AcDbEntity
  8
SCHRAFFUR_RAND
100
AcDb2dPolyline
 66
     1
 10
0.0
 20
0.0
 30
0.0
 70
     1
  0
VERTEX
  5
9E1
330
9E0
100
AcDbEntity
  8
SCHRAFFUR_RAND
100
AcDbVertex
100
AcDb2dVertex
 10
424.101492
 20
559.158646
 30
0.0
  0
VERTEX
  5
9E2
330
9E0
100
AcDbEntity
  8
SCHRAFFUR_RAND
100
AcDbVertex
100
AcDb2dVertex
 10
429.101492
 20
559.158646
 30
0.0
  0
VERTEX
  5
9E3
330
9E0
100
AcDbEntity
  8
SCHRAFFUR_RAND
100
AcDbVertex
100
AcDb2dVertex
 10
429.101492
 20
594.1586459999999
 30
0.0
  0
VERTEX
  5
9E4
330
9E0
100
AcDbEntity
  8
SCHRAFFUR_RAND
100
AcDbVertex
100
AcDb2dVertex
 10
424.101492
 20
594.1586459999999
 30
0.0
  0
VERTEX
  5
9E5
330
9E0
100
AcDbEntity
  8
SCHRAFFUR_RAND
100
AcDbVertex
100
AcDb2dVertex
 10
424.101492
 20
559.158646
 30
0.0
  0
SEQEND
  5
9E6
330
9E0
100
AcDbEntity
  8
SCHRAFFUR_RAND
  0
LINE
  5
9E7
330
1E2
100
AcDbEntity
  8
0
100
AcDbLine
 10
394.601492
 20
594.1586459999999
 30
0.0
 11
394.601492
 21
582.1586459999999
 31
0.0
  0
LINE
  5
9E8
330
1E2
100
AcDbEntity
  8
0
100
AcDbLine
 10
391.601492
 20
594.1586459999999
 30
0.0
 11
391.601492
 21
582.1586459999999
 31
0.0
  0
LINE
  5
9E9
330
1E2
100
AcDbEntity
  8
0
100
AcDbLine
 10
424.101492
 20
594.1586459999999
 30
0.0
 11
424.101492
 21
559.158646
 31
0.0
  0
LINE
  5
9EA
330
1E2
100
AcDbEntity
  8
0
100
AcDbLine
 10
429.101492
 20
559.158646
 30
0.0
 11
429.101492
 21
594.1586459999999
 31
0.0
  0
LINE
  5
9EB
330
1E2
100
AcDbEntity
  8
0
100
AcDbLine
 10
394.601492
 20
582.1586459999999
 30
0.0
 11
391.601492
 21
582.1586459999999
 31
0.0
  0
ARC
  5
9EE
330
1E2
100
AcDbEntity
  8
0
100
AcDbCircle
 10
401.976492
 20
595.6576459999999
 30
0.0
 40
4.0
100
AcDbArc
 50
202.024
 51
337.976
  0
ARC
  5
9EF
330
1E2
100
AcDbEntity
  8
0
100
AcDbCircle
 10
416.726492
 20
595.6576459999999
 30
0.0
 40
4.0
100
AcDbArc
 50
202.024
 51
337.976
  0
DIMENSION
  5
A20
330
1E2
100
AcDbEntity
  8
5
100
AcDbDimension
  2
*D15
 10
391.600992
 20
48.732953
 30
0.0
 11
376.600992
 21
60.482953
 31
0.0
 12
0.0
 22
41.650153
 32
0.0
 70
    32
  1
<>
 71
     5
 42
-1.0
  3
GEN-ISO
100
AcDbAlignedDimension
 13
361.600992
 23
138.232954
 33
0.0
 14
391.600992
 24
138.232954
 34
0.0
 50
180.0
100
AcDbRotatedDimension
1001
ACAD
1000
DSTYLE
1002
{
1070
    40
1040
5.0
1002
}
1001
GENIUS_GENDTOL_13
1000

1000
h7
1000

1040
0.0
1000
<>
  0
DIMENSION
  5
A6B
330
1E2
100
AcDbEntity
  8
5
100
AcDbDimension
  2
*D16
 10
513.600993
 20
138.232954
 30
0.0
 11
501.8509929999999
 21
152.482954
 31
0.0
 12
0.0
 22
41.650153
 32
0.0
 70
    32
  1
30
 71
     5
 42
-1.0
  3
GEN-ISO
100
AcDbAlignedDimension
 13
424.100992
 23
166.732954
 33
0.0
 14
424.100992
 24
138.232954
 34
0.0
 50
90.0
100
AcDbRotatedDimension
1001
ACAD
1000
DSTYLE
1002
{
1070
    40
1040
5.0
1070
   271
1070
     1
1070
   171
1070
     1
1002
}
1001
GENIUS_GENDTOL_13
1000

1000
h7
1000

1040
0.0
1000

  0
VIEWPORT
  5
1A1
102
{ACAD_XDICTIONARY
360
C20
102
}
330
1DF
100
AcDbEntity
 67
     1
  8
0
100
AcDbViewport
 10
261.5176990000001
 20
148.5
 30
0.0
 40
523.0353980000001
 41
297.0
 68
    -1
 69
     1
 12
261.5176990000001
 22
148.5
 13
0.0
 23
0.0
 14
1.0
 24
1.0
 15
10.0
 25
10.0
 16
0.0
 26
0.0
 36
1.0
 17
0.0
 27
0.0
 37
0.0
 42
50.0
 43
0.0
 44
0.0
 45
297.0
 50
0.0
 51
0.0
 72
   100
 90
    32800
  1

281
     0
 71
     1
 74
     0
110
0.0
120
0.0
130
0.0
111
1.0
121
0.0
131
0.0
112
0.0
122
1.0
132
0.0
 79
     0
146
0.0
1001
GENIUS_GENSCREG_15
1000
PF
1040
1.0
1000
DF
1040
1.0
1000
MIN
1011
0.0
1021
0.0
1031
0.0
1000
MAX
1011
523.0353980000001
1021
297.0
1031
0.0
1000
FLAGS
1070
     4
1001
GENIUS_GENOBJ-N-SDF_13
1002
{
1000
OWNER
1000
GEN
1002
}
1001
GENIUS_GENODEF_13
1002
{
1000
HIER
1070
     0
1002
}
1002
{
1000
MANEDIT
1070
     0
1002
}
1002
{
1000
NOSEL
1070
     0
1002
}
1002
{
1000
BEHIND
1070
     0
1002
}
1002
{
1000
OTHER
1070
     0
1002
}
1002
{
1000
REACTOR
1002
}
  0
ENDSEC
  0
SECTION
  2
OBJECTS
  0
DICTIONARY
  5
1D7
330
0
100
AcDbDictionary
281
     1
  3
ACAD_COLOR
350
B43
  3
ACAD_GROUP
350
1D8
  3
ACAD_LAYOUT
350
B46
  3
ACAD_MATERIAL
350
B42
  3
ACAD_MLINESTYLE
350
1E5
  3
ACAD_PLOTSETTINGS
350
B47
  3
ACAD_PLOTSTYLENAME
350
B40
  3
ACAD_TABLESTYLE
350
B44
  3
ACDBHEADERROUNDTRIPXREC
350
C1F
  3
ACDBVARIABLEDICTIONARY
350
217
  3
AcmDictionary
350
BA5
  3
AMG
350
B4B
  3
AMGSNAPSETTINGS
350
C13
  0
DICTIONARY
  5
C20
330
1A1
100
AcDbDictionary
280
     1
281
     1
  3
ACAD_XREC_ROUNDTRIP
360
C21
  0
DICTIONARY
  5
B43
102
{ACAD_REACTORS
330
1D7
102
}
330
1D7
100
AcDbDictionary
281
     1
  0
DICTIONARY
  5
1D8
102
{ACAD_REACTORS
330
1D7
102
}
330
1D7
100
AcDbDictionary
281
     1
  0
DICTIONARY
  5
B46
102
{ACAD_REACTORS
330
1D7
102
}
330
1D7
100
AcDbDictionary
281
     1
  3
Layout1
350
B49
  3
Model
350
B48
  0
DICTIONARY
  5
B42
102
{ACAD_REACTORS
330
1D7
102
}
330
1D7
100
AcDbDictionary
281
     1
  0
DICTIONARY
  5
1E5
102
{ACAD_REACTORS
330
1D7
102
}
330
1D7
100
AcDbDictionary
281
     1
  3
STANDARD
350
1E6
  0
DICTIONARY
  5
B47
102
{ACAD_REACTORS
330
1D7
102
}
330
1D7
100
AcDbDictionary
281
     1
  0
ACDBDICTIONARYWDFLT
  5
B40
102
{ACAD_REACTORS
330
1D7
102
}
330
1D7
100
AcDbDictionary
281
     1
  3
Normal
350
B41
100
AcDbDictionaryWithDefault
340
B41
  0
DICTIONARY
  5
B44
102
{ACAD_REACTORS
330
1D7
102
}
330
1D7
100
AcDbDictionary
281
     1
  3
Standard
350
B45
  0
DICTIONARY
  5
C1F
102
{ACAD_REACTORS
330
1D7
102
}
330
1D7
100
AcDbDictionary
281
     1
  0
DICTIONARY
  5
217
102
{ACAD_REACTORS
330
1D7
102
}
330
1D7
100
AcDbDictionary
281
     1
  3
CTABLESTYLE
350
C1B
  3
DIMADEC
350
218
  3
DIMASSOC
350
C1C
  3
PROJECTNAME
350
C1D
  3
SORTENTS
350
375
  0
DICTIONARY
  5
BA5
102
{ACAD_REACTORS
330
1D7
102
}
330
1D7
100
AcDbDictionary
281
     1
  3
AcmStdDictionary
350
BB0
  3
AMDTSECTSYM_ARROWCOLOR
350
BD3
  0
DICTIONARY
  5
B4B
102
{ACAD_REACTORS
330
1D7
102
}
330
1D7
100
AcDbDictionary
281
     1
  0
DICTIONARY
  5
C13
102
{ACAD_REACTORS
330
1D7
102
}
330
1D7
100
AcDbDictionary
281
     1
  0
XRECORD
  5
C21
102
{ACAD_REACTORS
330
C20
102
}
330
C20
100
AcDbXrecord
280
     1
102
SHADEPLOT
 70
     0
  0
LAYOUT
  5
B49
102
{ACAD_XDICTIONARY
360
C24
102
}
102
{ACAD_REACTORS
330
B46
102
}
330
B46
100
AcDbPlotSettings
  1

  2
Xerox Document Centre CS50 PS
  4

  6

 40
0.0
 41
0.0
 42
0.0
 43
0.0
 44
0.0
 45
0.0
 46
0.0
 47
0.0
 48
0.0
 49
0.0
140
0.0
141
0.0
142
1.0
143
1.0
 70
   688
 72
     0
 73
     0
 74
     5
  7

 75
    16
147
1.0
148
0.0
149
0.0
100
AcDbLayout
  1
Layout1
 70
     1
 71
     1
 10
0.0
 20
0.0
 11
420.0
 21
297.0
 12
0.0
 22
0.0
 32
0.0
 14
1.000000000000000E+20
 24
1.000000000000000E+20
 34
1.000000000000000E+20
 15
-1.000000000000000E+20
 25
-1.000000000000000E+20
 35
-1.000000000000000E+20
146
0.0
 13
0.0
 23
0.0
 33
0.0
 16
1.0
 26
0.0
 36
0.0
 17
0.0
 27
1.0
 37
0.0
 76
     0
330
1DF
  0
LAYOUT
  5
B48
102
{ACAD_XDICTIONARY
360
C22
102
}
102
{ACAD_REACTORS
330
B46
102
}
330
B46
100
AcDbPlotSettings
  1

  2
Xerox Document Centre CS50 PS
  4

  6

 40
0.0
 41
0.0
 42
0.0
 43
0.0
 44
0.0
 45
0.0
 46
0.0
 47
0.0
 48
0.0
 49
0.0
140
0.0
141
0.0
142
1.0
143
1.0
 70
  1712
 72
     0
 73
     0
 74
     0
  7

 75
     0
147
1.0
148
0.0
149
0.0
100
AcDbLayout
  1
Model
 70
     1
 71
     0
 10
0.0
 20
0.0
 11
12.0
 21
9.0
 12
0.0
 22
0.0
 32
0.0
 14
0.0
 24
0.0
 34
0.0
 15
0.0
 25
0.0
 35
0.0
146
0.0
 13
0.0
 23
0.0
 33
0.0
 16
1.0
 26
0.0
 36
0.0
 17
0.0
 27
1.0
 37
0.0
 76
     0
330
1E2
  0
MLINESTYLE
  5
1E6
102
{ACAD_REACTORS
330
1E5
102
}
330
1E5
100
AcDbMlineStyle
  2
STANDARD
 70
     0
  3

 62
   256
 51
90.0
 52
90.0
 71
     2
 49
0.5
 62
   256
  6
BYLAYER
 49
-0.5
 62
   256
  6
BYLAYER
  0
ACDBPLACEHOLDER
  5
B41
102
{ACAD_REACTORS
330
B40
102
}
330
B40
  0
TABLESTYLE
  5
B45
102
{ACAD_REACTORS
330
B44
102
}
330
B44
100
AcDbTableStyle
  3
Standard
 70
     0
 71
     0
 40
1.5
 41
1.5
280
     0
281
     0
  7
STANDARD
140
4.5
170
     2
 62
     0
 63
     7
283
     0
274
    -2
284
     1
 64
     0
275
    -2
285
     1
 65
     0
276
    -2
286
     1
 66
     0
277
    -2
287
     1
 67
     0
278
    -2
288
     1
 68
     0
279
    -2
289
     1
 69
     0
  7
STANDARD
140
6.0
170
     5
 62
     0
 63
     7
283
     0
274
    -2
284
     1
 64
     0
275
    -2
285
     1
 65
     0
276
    -2
286
     1
 66
     0
277
    -2
287
     1
 67
     0
278
    -2
288
     1
 68
     0
279
    -2
289
     1
 69
     0
  7
STANDARD
140
4.5
170
     5
 62
     0
 63
     7
283
     0
274
    -2
284
     1
 64
     0
275
    -2
285
     1
 65
     0
276
    -2
286
     1
 66
     0
277
    -2
287
     1
 67
     0
278
    -2
288
     1
 68
     0
279
    -2
289
     1
 69
     0
  0
DICTIONARYVAR
  5
C1B
102
{ACAD_REACTORS
330
217
102
}
330
217
100
DictionaryVariables
280
     0
  1
STANDARD
  0
DICTIONARYVAR
  5
218
102
{ACAD_REACTORS
330
217
102
}
330
217
100
DictionaryVariables
280
     0
  1
0
  0
DICTIONARYVAR
  5
C1C
102
{ACAD_REACTORS
330
217
102
}
330
217
100
DictionaryVariables
280
     0
  1
1
  0
DICTIONARYVAR
  5
C1D
102
{ACAD_REACTORS
330
217
102
}
330
217
100
DictionaryVariables
280
     0
  1

  0
DICTIONARYVAR
  5
375
102
{ACAD_REACTORS
330
217
102
}
330
217
100
DictionaryVariables
280
     0
  1
96
  0
DICTIONARY
  5
BB0
102
{ACAD_REACTORS
330
BA5
102
}
330
BA5
100
AcDbDictionary
281
     1
  0
XRECORD
  5
BD3
102
{ACAD_REACTORS
330
BA5
102
}
330
BA5
100
AcDbXrecord
280
     1
 90
-1023410169
  0
DICTIONARY
  5
C24
330
B49
100
AcDbDictionary
280
     1
281
     1
  3
ACAD_XREC_ROUNDTRIP
360
C25
  0
DICTIONARY
  5
C22
330
B48
100
AcDbDictionary
280
     1
281
     1
  3
ACAD_XREC_ROUNDTRIP
360
C23
  0
XRECORD
  5
C25
102
{ACAD_REACTORS
330
C24
102
}
330
C24
100
AcDbXrecord
280
     1
102
SHADEPLOT
 70
     0
102
SHADEPLOTRESLEVEL
 70
     2
102
SHADEPLOTCUSTOMDPI
 70
   300
  0
XRECORD
  5
C23
102
{ACAD_REACTORS
330
C22
102
}
330
C22
100
AcDbXrecord
280
     1
102
SHADEPLOT
 70
     0
102
SHADEPLOTRESLEVEL
 70
     2
102
SHADEPLOTCUSTOMDPI
 70
   300
  0
ENDSEC
  0
EOF
