  0
SECTION
  2
HEADER
  9
$ACADVER
  1
AC1015
  9
$ACADMAINTVER
 70
    20
  9
$DWGCODEPAGE
  3
ANSI_1252
  9
$INSBASE
 10
0.0
 20
0.0
 30
0.0
  9
$EXTMIN
 10
239.7331265031048
 20
59.32846320714862
 30
-0.0015258207003583
  9
$EXTMAX
 10
562.8112811744345
 20
739.2105123368215
 30
0.0000000349246037
  9
$LIMMIN
 10
0.0
 20
0.0
  9
$LIMMAX
 10
1050.0
 20
1050.0
  9
$ORTHOMODE
 70
     1
  9
$REGENMODE
 70
     1
  9
$FILLMODE
 70
     1
  9
$QTEXTMODE
 70
     0
  9
$MIRRTEXT
 70
     0
  9
$LTSCALE
 40
5.0
  9
$ATTMODE
 70
     1
  9
$TEXTSIZE
 40
25.0
  9
$TRACEWID
 40
1.0
  9
$TEXTSTYLE
  7
STANDARD
  9
$CLAYER
  8
0
  9
$CELTYPE
  6
BYLAYER
  9
$CECOLOR
 62
   256
  9
$CELTSCALE
 40
1.0
  9
$DISPSILH
 70
     0
  9
$DIMSCALE
 40
5.0
  9
$DIMASZ
 40
2.5
  9
$DIMEXO
 40
1.0
  9
$DIMDLI
 40
7.0
  9
$DIMRND
 40
0.0
  9
$DIMDLE
 40
0.0
  9
$DIMEXE
 40
1.0
  9
$DIMTP
 40
0.1
  9
$DIMTM
 40
0.1
  9
$DIMTXT
 40
3.5
  9
$DIMCEN
 40
0.0
  9
$DIMTSZ
 40
0.0
  9
$DIMTOL
 70
     0
  9
$DIMLIM
 70
     0
  9
$DIMTIH
 70
     0
  9
$DIMTOH
 70
     0
  9
$DIMSE1
 70
     0
  9
$DIMSE2
 70
     0
  9
$DIMTAD
 70
     1
  9
$DIMZIN
 70
     8
  9
$DIMBLK
  1

  9
$DIMASO
 70
     1
  9
$DIMSHO
 70
     1
  9
$DIMPOST
  1
<>
  9
$DIMAPOST
  1
"
  9
$DIMALT
 70
     0
  9
$DIMALTD
 70
     2
  9
$DIMALTF
 40
0.03937
  9
$DIMLFAC
 40
1.0
  9
$DIMTOFL
 70
     1
  9
$DIMTVP
 40
0.0
  9
$DIMTIX
 70
     0
  9
$DIMSOXD
 70
     0
  9
$DIMSAH
 70
     0
  9
$DIMBLK1
  1

  9
$DIMBLK2
  1

  9
$DIMSTYLE
  2
GEN-ISO
  9
$DIMCLRD
 70
   256
  9
$DIMCLRE
 70
   256
  9
$DIMCLRT
 70
     2
  9
$DIMTFAC
 40
0.71
  9
$DIMGAP
 40
0.6
  9
$DIMJUST
 70
     0
  9
$DIMSD1
 70
     0
  9
$DIMSD2
 70
     0
  9
$DIMTOLJ
 70
     0
  9
$DIMTZIN
 70
     0
  9
$DIMALTZ
 70
     0
  9
$DIMALTTZ
 70
     0
  9
$DIMUPT
 70
     0
  9
$DIMDEC
 70
     2
  9
$DIMTDEC
 70
     3
  9
$DIMALTU
 70
     2
  9
$DIMALTTD
 70
     4
  9
$DIMTXSTY
  7
STANDARD
  9
$DIMAUNIT
 70
     0
  9
$DIMADEC
 70
     0
  9
$DIMALTRND
 40
0.0
  9
$DIMAZIN
 70
     0
  9
$DIMDSEP
 70
    46
  9
$DIMATFIT
 70
     3
  9
$DIMFRAC
 70
     0
  9
$DIMLDRBLK
  1

  9
$DIMLUNIT
 70
     2
  9
$DIMLWD
 70
    -2
  9
$DIMLWE
 70
    -2
  9
$DIMTMOVE
 70
     0
  9
$LUNITS
 70
     2
  9
$LUPREC
 70
     2
  9
$SKETCHINC
 40
1.0
  9
$FILLETRAD
 40
12.5
  9
$AUNITS
 70
     0
  9
$AUPREC
 70
     0
  9
$MENU
  1
.
  9
$ELEVATION
 40
0.0
  9
$PELEVATION
 40
0.0
  9
$THICKNESS
 40
0.0
  9
$LIMCHECK
 70
     0
  9
$CHAMFERA
 40
12.5
  9
$CHAMFERB
 40
12.5
  9
$CHAMFERC
 40
0.0
  9
$CHAMFERD
 40
0.0
  9
$SKPOLY
 70
     0
  9
$TDCREATE
 40
2450346.688312257
  9
$TDUCREATE
 40
2450346.646645590
  9
$TDUPDATE
 40
2454038.574258993
  9
$TDUUPDATE
 40
2454038.532592326
  9
$TDINDWG
 40
0.0776742940
  9
$TDUSRTIMER
 40
0.0776702315
  9
$USRTIMER
 70
     1
  9
$ANGBASE
 50
0.0
  9
$ANGDIR
 70
     0
  9
$PDMODE
 70
     0
  9
$PDSIZE
 40
0.0
  9
$PLINEWID
 40
0.0
  9
$SPLFRAME
 70
     0
  9
$SPLINETYPE
 70
     6
  9
$SPLINESEGS
 70
     8
  9
$HANDSEED
  5
85F
  9
$SURFTAB1
 70
     6
  9
$SURFTAB2
 70
     6
  9
$SURFTYPE
 70
     6
  9
$SURFU
 70
     6
  9
$SURFV
 70
     6
  9
$UCSBASE
  2

  9
$UCSNAME
  2

  9
$UCSORG
 10
0.0
 20
0.0
 30
0.0
  9
$UCSXDIR
 10
1.0
 20
0.0
 30
0.0
  9
$UCSYDIR
 10
0.0
 20
1.0
 30
0.0
  9
$UCSORTHOREF
  2

  9
$UCSORTHOVIEW
 70
     0
  9
$UCSORGTOP
 10
0.0
 20
0.0
 30
0.0
  9
$UCSORGBOTTOM
 10
0.0
 20
0.0
 30
0.0
  9
$UCSORGLEFT
 10
0.0
 20
0.0
 30
0.0
  9
$UCSORGRIGHT
 10
0.0
 20
0.0
 30
0.0
  9
$UCSORGFRONT
 10
0.0
 20
0.0
 30
0.0
  9
$UCSORGBACK
 10
0.0
 20
0.0
 30
0.0
  9
$PUCSBASE
  2

  9
$PUCSNAME
  2

  9
$PUCSORG
 10
0.0
 20
0.0
 30
0.0
  9
$PUCSXDIR
 10
1.0
 20
0.0
 30
0.0
  9
$PUCSYDIR
 10
0.0
 20
1.0
 30
0.0
  9
$PUCSORTHOREF
  2

  9
$PUCSORTHOVIEW
 70
     0
  9
$PUCSORGTOP
 10
0.0
 20
0.0
 30
0.0
  9
$PUCSORGBOTTOM
 10
0.0
 20
0.0
 30
0.0
  9
$PUCSORGLEFT
 10
0.0
 20
0.0
 30
0.0
  9
$PUCSORGRIGHT
 10
0.0
 20
0.0
 30
0.0
  9
$PUCSORGFRONT
 10
0.0
 20
0.0
 30
0.0
  9
$PUCSORGBACK
 10
0.0
 20
0.0
 30
0.0
  9
$USERI1
 70
     0
  9
$USERI2
 70
     0
  9
$USERI3
 70
     0
  9
$USERI4
 70
     0
  9
$USERI5
 70
     0
  9
$USERR1
 40
0.0
  9
$USERR2
 40
0.0
  9
$USERR3
 40
0.0
  9
$USERR4
 40
0.0
  9
$USERR5
 40
0.0
  9
$WORLDVIEW
 70
     1
  9
$SHADEDGE
 70
     3
  9
$SHADEDIF
 70
    70
  9
$TILEMODE
 70
     1
  9
$MAXACTVP
 70
    16
  9
$PINSBASE
 10
0.0
 20
0.0
 30
0.0
  9
$PLIMCHECK
 70
     0
  9
$PEXTMIN
 10
1.000000000000000E+20
 20
1.000000000000000E+20
 30
1.000000000000000E+20
  9
$PEXTMAX
 10
-1.000000000000000E+20
 20
-1.000000000000000E+20
 30
-1.000000000000000E+20
  9
$PLIMMIN
 10
0.0
 20
0.0
  9
$PLIMMAX
 10
420.0
 20
297.0
  9
$UNITMODE
 70
     0
  9
$VISRETAIN
 70
     0
  9
$PLINEGEN
 70
     0
  9
$PSLTSCALE
 70
     1
  9
$TREEDEPTH
 70
  3020
  9
$CMLSTYLE
  2
STANDARD
  9
$CMLJUST
 70
     0
  9
$CMLSCALE
 40
1.0
  9
$PROXYGRAPHICS
 70
     1
  9
$MEASUREMENT
 70
     1
  9
$CELWEIGHT
370
    -1
  9
$ENDCAPS
280
     0
  9
$JOINSTYLE
280
     0
  9
$LWDISPLAY
290
     0
  9
$INSUNITS
 70
     0
  9
$HYPERLINKBASE
  1

  9
$STYLESHEET
  1

  9
$XEDIT
290
     1
  9
$CEPSNTYPE
380
     0
  9
$PSTYLEMODE
290
     1
  9
$FINGERPRINTGUID
  2
{112CB0A3-7996-4991-AF85-017CA8EA8FE3}
  9
$VERSIONGUID
  2
{E3862E82-7878-4BA5-B397-6CD6DE65AA07}
  9
$EXTNAMES
290
     1
  9
$PSVPSCALE
 40
0.0
  9
$OLESTARTUP
290
     0
  0
ENDSEC
  0
SECTION
  2
CLASSES
  0
CLASS
  1
DICTIONARYVAR
  2
AcDbDictionaryVar
  3
ObjectDBX Classes
 90
        0
280
     0
281
     0
  0
CLASS
  1
ACDBDICTIONARYWDFLT
  2
AcDbDictionaryWithDefault
  3
ObjectDBX Classes
 90
        0
280
     0
281
     0
  0
CLASS
  1
ACDBPLACEHOLDER
  2
AcDbPlaceHolder
  3
ObjectDBX Classes
 90
        0
280
     0
281
     0
  0
CLASS
  1
LAYOUT
  2
AcDbLayout
  3
ObjectDBX Classes
 90
        0
280
     0
281
     0
  0
CLASS
  1
ACME_DOCUMENT
  2
AcMeDbDoc
  3
AcMeServices
 90
        0
280
     0
281
     0
  0
CLASS
  1
ACMESCOPE
  2
AcMeScope
  3
AcMeServices
 90
        0
280
     0
281
     0
  0
CLASS
  1
ACMECOMMANDHISTORY
  2
AcMeCommandHistory
  3
AcMeServices
 90
        0
280
     0
281
     0
  0
CLASS
  1
ACIMSYSVARMAN
  2
AcImSysVarManager
  3
AcMeServices
 90
        0
280
     0
281
     0
  0
CLASS
  1
ACIMREALSYSVAR
  2
AcImRealSysVar
  3
AcMeServices
 90
        0
280
     0
281
     0
  0
CLASS
  1
ACIMINTSYSVAR
  2
AcImIntSysVar
  3
AcMeServices
 90
        0
280
     0
281
     0
  0
CLASS
  1
ACMEDRAWINGMAN
  2
AcMeDrawingMan
  3
AcMeServices
 90
        0
280
     0
281
     0
  0
CLASS
  1
ACMEVIEW
  2
AcMeView
  3
AcMeServices
 90
        0
280
     0
281
     0
  0
CLASS
  1
ACDBENTITYCACHE
  2
AcMeEntityCache
  3
AcMeServices
 90
        0
280
     0
281
     0
  0
CLASS
  1
GSMANAGER
  2
AcMeGSManager
  3
AcMeServices
 90
        0
280
     0
281
     0
  0
CLASS
  1
AMDTINTERNALREACTOR
  2
AmdtInternalReactor
  3
AcMeServices
 90
        0
280
     0
281
     0
  0
CLASS
  1
ACMESTATEMGR
  2
AcMeStateMgr
  3
AcMeServices
 90
        0
280
     0
281
     0
  0
CLASS
  1
ACGREFMASTER
  2
AcGrefMaster
  3
AcAttribServices
 90
        0
280
     0
281
     0
  0
CLASS
  1
ACME_DATABASE
  2
AcMeDbDatabase
  3
AcMeServices
 90
        0
280
     0
281
     0
  0
CLASS
  1
ACRFINSADJUSTERMGR
  2
AcRfInsAdjusterMgr
  3
AcMeServices
 90
        0
280
     0
281
     0
  0
CLASS
  1
ACGREFACADMASTER
  2
AcGrefacadMaster
  3
AcGrefServices
 90
        0
280
     0
281
     0
  0
CLASS
  1
AMIMASTER
  2
AmiMaster
  3
AmiServices
 90
        0
280
     0
281
     0
  0
CLASS
  1
AMGSETTINGSOBJ
  2
AmgSettingsObj
  3
"AcadM|Product Description: AutoCAD Mechanical 2000|Company: Autodesk"
 90
        0
280
     0
281
     0
  0
CLASS
  1
ACMDATADICTIONARY
  2
AcmDataDictionary
  3
"AcmSymBB|Product Description: AutoCAD Mechanical 2004 DX|Company: Autodesk"
 90
        0
280
     0
281
     0
  0
CLASS
  1
ACMDATAENTRYBLOCK
  2
AcmDataEntryBlock
  3
"AcmSymBB|Product Description: AutoCAD Mechanical 2004 DX|Company: Autodesk"
 90
        0
280
     0
281
     0
  0
CLASS
  1
ACIMSTRSYSVAR
  2
AcImStrSysVar
  3
AcMeServices
 90
        0
280
     0
281
     0
  0
CLASS
  1
ACMSTANDARDDIN
  2
AcmStandardDIN
  3
"Amdt_StdImp|Product Description: AutoCAD Mechanical 2004 DX|Company: Autodesk"
 90
        0
280
     0
281
     0
  0
CLASS
  1
AMGOBJPROPCFG
  2
AmgObjPropCfg
  3
"AmgLay|Product Description: AutoCAD Mechanical 2000|Company: Autodesk"
 90
        1
280
     0
281
     0
  0
CLASS
  1
AMDTEDGESTANDARDDIN
  2
AmdtEdgeStdDIN
  3
"Amdt_StdImp|Product Description: AutoCAD Mechanical 2004 DX|Company: Autodesk"
 90
    32768
280
     0
281
     0
  0
CLASS
  1
ACMSURFSTANDARDDIN
  2
AcmSurfTextStdDIN
  3
"Amdt_StdImp|Product Description: AutoCAD Mechanical 2004 DX|Company: Autodesk"
 90
        0
280
     0
281
     0
  0
CLASS
  1
ACMFCFSTANDARDDIN
  2
AcmFCFStdDIN
  3
"Amdt_StdImp|Product Description: AutoCAD Mechanical 2004 DX|Company: Autodesk"
 90
        0
280
     0
281
     0
  0
CLASS
  1
ACMWELDSTANDARDDIN
  2
AcmWeldingStdDIN
  3
"Amdt_StdImp|Product Description: AutoCAD Mechanical 2004 DX|Company: Autodesk"
 90
        0
280
     0
281
     0
  0
CLASS
  1
ACMIDSTANDARDDIN
  2
AcmIdStdDIN
  3
"Amdt_StdImp|Product Description: AutoCAD Mechanical 2004 DX|Company: Autodesk"
 90
        0
280
     0
281
     0
  0
CLASS
  1
ACMDATUMSTANDARDDIN
  2
AcmDatumStdDIN
  3
"Amdt_StdImp|Product Description: AutoCAD Mechanical 2004 DX|Company: Autodesk"
 90
        0
280
     0
281
     0
  0
CLASS
  1
ACMBOMSTANDARDDIN
  2
AcmBOMStdDIN
  3
"Amdt_StdImp|Product Description: AutoCAD Mechanical 2004 DX|Company: Autodesk"
 90
        0
280
     0
281
     0
  0
CLASS
  1
ACMDETAILSTANDARDDIN
  2
AmdtDetailSymStdDIN
  3
"Amdt_StdImp|Product Description: AutoCAD Mechanical 2004 DX|Company: Autodesk"
 90
        0
280
     0
281
     0
  0
CLASS
  1
ACMSECTIONSTANDARDDIN
  2
AmdtSectionSymStdDIN
  3
"Amdt_StdImp|Product Description: AutoCAD Mechanical 2004 DX|Company: Autodesk"
 90
        0
280
     0
281
     0
  0
CLASS
  1
ACMCENTERLINESTANDARDDIN
  2
AmdtCenterLineStdDIN
  3
"Amdt_StdImp|Product Description: AutoCAD Mechanical 2004 DX|Company: Autodesk"
 90
        0
280
     0
281
     0
  0
CLASS
  1
ACAMGLAYSTD
  2
AcAmgLayStd
  3
"AcAmgLayStd|Product Description: AutoCAD Mechanical 2000|Company: Autodesk"
 90
        0
280
     0
281
     0
  0
CLASS
  1
ACAMGDIMSTD
  2
AcAmgDimStd
  3
"AcAmgDimStd|Product Description: AutoCAD Mechanical 2000|Company: Autodesk"
 90
        0
280
     0
281
     0
  0
CLASS
  1
ACAMGTITLESTD
  2
AcAmgTitleStd
  3
"TITLEAPP"
 90
        0
280
     0
281
     0
  0
CLASS
  1
ACAMGFILTERDAT
  2
AcAmgFilterDat
  3
"AcadM|Product Description: AutoCAD Mechanical 2000|Company: Autodesk"
 90
    32768
280
     0
281
     0
  0
CLASS
  1
LAYER_INDEX
  2
AcDbLayerIndex
  3
ObjectDBX Classes
 90
        0
280
     0
281
     0
  0
CLASS
  1
IDBUFFER
  2
AcDbIdBuffer
  3
ObjectDBX Classes
 90
        0
280
     0
281
     0
  0
CLASS
  1
TABLESTYLE
  2
AcDbTableStyle
  3
ObjectDBX Classes
 90
     2047
280
     0
281
     0
  0
CLASS
  1
AM_DRAWING_MGR
  2
AcDmDwgMgr
  3
AcMechDwgViewMgmt
 90
        0
280
     0
281
     0
  0
CLASS
  1
AM_DWG_DOCUMENT
  2
AcDmDwgDocument
  3
AcMechDwgViewMgmt
 90
        0
280
     0
281
     0
  0
CLASS
  1
AM_DWG_SHEET
  2
AcDmSheet
  3
AcMechDwgViewMgmt
 90
        0
280
     0
281
     0
  0
CLASS
  1
AM_VIEWDIMPARMAP
  2
AcDmViewDimParMap
  3
AcMechDwgViewMgmt
 90
        0
280
     0
281
     0
  0
CLASS
  1
AM_DWGMGR_NAME
  2
AcDmDwgMgrName
  3
AcMechDwgViewMgmt
 90
        0
280
     0
281
     0
  0
CLASS
  1
AMDTMENUSTATEMGR
  2
AmdtMenuStateMgr
  3
McadcomServices
 90
        0
280
     0
281
     0
  0
CLASS
  1
AMDTMCOMMENUSTATE
  2
AmdtMcomMenuState
  3
McadcomServices
 90
        0
280
     0
281
     0
  0
CLASS
  1
MAPIAMMOUDLE
  2
MApiAmModule
  3
MApiAmServices
 90
        0
280
     0
281
     0
  0
CLASS
  1
AMDTADMENUSTATE
  2
AmdtAdMenuState
  3
DesignerServices
 90
        0
280
     0
281
     0
  0
CLASS
  1
ADAPPL
  2
AcAdAppl
  3
DesignerServices
 90
        0
280
     0
281
     0
  0
CLASS
  1
DEPMGR
  2
AcAdDepMgr
  3
DesignerServices
 90
        0
280
     0
281
     0
  0
CLASS
  1
PARAMMGR
  2
AcAdParamMgr
  3
DesignerServices
 90
        0
280
     0
281
     0
  0
CLASS
  1
PARAMSCOPE
  2
AcAdParamScope
  3
DesignerServices
 90
        0
280
     0
281
     0
  0
CLASS
  1
NAMEDAPPL
  2
AcAdNamedAppl
  3
DesignerServices
 90
        0
280
     0
281
     0
  0
CLASS
  1
AMDTDMMENUSTATE
  2
AmdtDmMenuState
  3
AcMechDwgViewMgmt
 90
        0
280
     0
281
     0
  0
CLASS
  1
AMDTAMMENUSTATE
  2
AmdtAmMenuState
  3
DesignerAssemblies
 90
        0
280
     0
281
     0
  0
CLASS
  1
ACAMPROJECT
  2
AcAmProject
  3
DesignerAssemblies
 90
        0
280
     0
281
     0
  0
CLASS
  1
ACAMGRCOMPDEF
  2
AcAmGrCompDef
  3
DesignerAssemblies
 90
        0
280
     0
281
     0
  0
CLASS
  1
ACCMCONTEXT
  2
AcCmContext
  3
DesignerAssemblies
 90
        0
280
     0
281
     0
  0
CLASS
  1
ACAMCOMPDEF
  2
AcAmCompDef
  3
DesignerAssemblies
 90
        0
280
     0
281
     0
  0
CLASS
  1
ACAMCOMPDEFMGR
  2
AcAmCompDefMgr
  3
DesignerAssemblies
 90
        0
280
     0
281
     0
  0
CLASS
  1
AMCONTEXTMGR
  2
AcAmContextMgr
  3
DesignerAssemblies
 90
        0
280
     0
281
     0
  0
CLASS
  1
ACAMCONTEXTMODELER
  2
AcAmContextModeler
  3
DesignerAssemblies
 90
        0
280
     0
281
     0
  0
CLASS
  1
CATALOGSTATE
  2
AcAmCatalogState
  3
DesignerAssemblies
 90
        0
280
     0
281
     0
  0
CLASS
  1
ACAMGRCOMPDEFSET
  2
AcAmGrCompDefSet
  3
DesignerAssemblies
 90
        0
280
     0
281
     0
  0
CLASS
  1
AMDTBROWSERDBTAB
  2
AmdtBrowserDbTab
  3
McadcomServices
 90
        0
280
     0
281
     0
  0
CLASS
  1
CBROWSERAPPOBJECT
  2
CBrowserAppObject
  3
McadcomServices
 90
        0
280
     0
281
     0
  0
CLASS
  1
DM_PLACEHOLDER
  2
AcDmSelsetPlaceholder
  3
AcMechDwgViewMgmt
 90
        0
280
     0
281
     0
  0
CLASS
  1
AMDTEDGESTANDARDDIN13715
  2
AmdtEdgeStdDIN13715
  3
"Amdt_StdImp|Product Description: AutoCAD Mechanical 2004 DX|Company: Autodesk"
 90
        0
280
     0
281
     0
  0
CLASS
  1
ACMTHREADLINESTANDARDDIN
  2
AmdtThreadLineStdDIN
  3
"Amdt_StdImp|Product Description: AutoCAD Mechanical 2004 DX|Company: Autodesk"
 90
        0
280
     0
281
     0
  0
CLASS
  1
ACMNOTESTANDARDDIN
  2
AmdtNoteStdDIN
  3
"Amdt_StdImp|Product Description: AutoCAD Mechanical 2004 DX|Company: Autodesk"
 90
        0
280
     0
281
     0
  0
CLASS
  1
AMDTNOTETEMPLATEDB
  2
AmdtNoteTemplateDB
  3
AMDT_STDIMP_MODULE_NAME
 90
        0
280
     0
281
     0
  0
CLASS
  1
ACAMGHOLECHARTSTDDIN
  2
AcAmgHoleChartStdDIN
  3
ACMSYMBB_MODULE_NAME
 90
        0
280
     0
281
     0
  0
ENDSEC
  0
SECTION
  2
TABLES
  0
TABLE
  2
VPORT
  5
1DD
330
0
100
AcDbSymbolTable
 70
     4
  0
VPORT
  5
856
330
1DD
100
AcDbSymbolTableRecord
100
AcDbViewportTableRecord
  2
*Active
 70
     0
 10
0.0
 20
0.0
 11
1.0
 21
1.0
 12
401.2722038387695
 22
399.269487771985
 13
0.0
 23
0.0
 14
5.0
 24
5.0
 15
50.0
 25
50.0
 16
0.0
 26
0.0
 36
1.0
 17
0.0
 27
0.0
 37
0.0
 40
684.8206596560385
 41
1.494545454545454
 42
50.0
 43
0.0
 44
0.0
 50
0.0
 51
0.0
 71
     0
 72
   100
 73
     1
 74
     1
 75
     0
 76
     0
 77
     0
 78
     0
281
     0
 65
     0
110
0.0
120
0.0
130
0.0
111
1.0
121
0.0
131
0.0
112
0.0
122
1.0
132
0.0
 79
     0
146
0.0
  0
ENDTAB
  0
TABLE
  2
LTYPE
  5
1DA
330
0
100
AcDbSymbolTable
 70
    25
  0
LTYPE
  5
1E6
330
1DA
100
AcDbSymbolTableRecord
100
AcDbLinetypeTableRecord
  2
BYBLOCK
 70
     0
  3

 72
    65
 73
     0
 40
0.0
  0
LTYPE
  5
1E7
330
1DA
100
AcDbSymbolTableRecord
100
AcDbLinetypeTableRecord
  2
BYLAYER
 70
     0
  3

 72
    65
 73
     0
 40
0.0
  0
LTYPE
  5
1E8
330
1DA
100
AcDbSymbolTableRecord
100
AcDbLinetypeTableRecord
  2
CONTINUOUS
 70
     0
  3
Solid line
 72
    65
 73
     0
 40
0.0
  0
LTYPE
  5
207
330
1DA
100
AcDbSymbolTableRecord
100
AcDbLinetypeTableRecord
  2
GEN7
 70
     0
  3
____ . ____ . ____ . ____ . ____ . ____ . ____
 72
    65
 73
     4
 40
13.75
 49
10.0
 74
     0
 49
-1.25
 74
     0
 49
1.25
 74
     0
 49
-1.25
 74
     0
  0
LTYPE
  5
738
330
1DA
100
AcDbSymbolTableRecord
100
AcDbLinetypeTableRecord
  2
AMCONSTR
 70
     0
  3
_______________________
 72
    65
 73
     2
 40
9999.0
 49
9999.0
 74
     0
 49
0.0
 74
     0
  0
LTYPE
  5
73D
330
1DA
100
AcDbSymbolTableRecord
100
AcDbLinetypeTableRecord
  2
AMZIGZAG
 70
     0
  3
/\/-/\/-/\/-/\/-/\/-/\/
 72
    65
 73
     2
 40
11.00009999999999
 49
0.0001
 74
     4
 75
   135
340
73C
 46
0.04
 50
0.0
 44
0.0
 45
0.0
 49
-11.0
 74
     0
  0
LTYPE
  5
73E
330
1DA
100
AcDbSymbolTableRecord
100
AcDbLinetypeTableRecord
  2
AM_DIN_F_W050
 70
     0
  3
__ __ __ __ __ __ __ __ __ __ __ __ __ __ __
 72
    65
 73
     2
 40
6.25
 49
4.75
 74
     0
 49
-1.5
 74
     0
  0
LTYPE
  5
73F
330
1DA
100
AcDbSymbolTableRecord
100
AcDbLinetypeTableRecord
  2
AM_DIN_G_W050
 70
     0
  3
____ . ____ . ____ . ____ . ____ . ____ . ____
 72
    65
 73
     4
 40
13.75
 49
9.75
 74
     0
 49
-1.5
 74
     0
 49
1.0
 74
     0
 49
-1.5
 74
     0
  0
LTYPE
  5
740
330
1DA
100
AcDbSymbolTableRecord
100
AcDbLinetypeTableRecord
  2
AM_DIN_K_W050
 70
     0
  3
_____ . . _____ . . _____ . . ____ .. ____
 72
    65
 73
     6
 40
16.25
 49
9.75
 74
     0
 49
-1.5
 74
     0
 49
1.0
 74
     0
 49
-1.5
 74
     0
 49
1.0
 74
     0
 49
-1.5
 74
     0
  0
LTYPE
  5
741
330
1DA
100
AcDbSymbolTableRecord
100
AcDbLinetypeTableRecord
  2
AM_DIN_G_W050X2
 70
     0
  3
__ . __ . __ . __ . __ . __
 72
    65
 73
     4
 40
6.875
 49
4.75
 74
     0
 49
-0.875
 74
     0
 49
0.375
 74
     0
 49
-0.875
 74
     0
  0
LTYPE
  5
742
330
1DA
100
AcDbSymbolTableRecord
100
AcDbLinetypeTableRecord
  2
AM_DIN_F_W050X2
 70
     0
  3
 _ _ _ _ _ _ _ _ _ _ _ _
 72
    65
 73
     2
 40
3.125
 49
2.25
 74
     0
 49
-0.875
 74
     0
  0
LTYPE
  5
74F
330
1DA
100
AcDbSymbolTableRecord
100
AcDbLinetypeTableRecord
  2
ACDINWELD
 70
     0
  3
_ _ _ _ _
 72
    65
 73
     2
 40
2.0
 49
2.0
 74
     0
 49
-1.0
 74
     0
  0
LTYPE
  5
750
330
1DA
100
AcDbSymbolTableRecord
100
AcDbLinetypeTableRecord
  2
ACDINTGB
 70
     0
  3
__ . . __ . .
 72
    65
 73
     6
 40
9.0
 49
4.0
 74
     0
 49
-1.0
 74
     0
 49
1.0
 74
     0
 49
-1.0
 74
     0
 49
1.0
 74
     0
 49
-1.0
 74
     0
  0
LTYPE
  5
751
330
1DA
100
AcDbSymbolTableRecord
100
AcDbLinetypeTableRecord
  2
ACDINTGL
 70
     0
  3
_ _ _ _ _
 72
    65
 73
     2
 40
3.0
 49
2.0
 74
     0
 49
-1.0
 74
     0
  0
LTYPE
  5
753
330
1DA
100
AcDbSymbolTableRecord
100
AcDbLinetypeTableRecord
  2
CENTER
 70
     0
  3
__ . __
 72
    65
 73
     4
 40
7.0
 49
4.0
 74
     0
 49
-1.0
 74
     0
 49
1.0
 74
     0
 49
-1.0
 74
     0
  0
LTYPE
  5
7F2
330
1DA
100
AcDbSymbolTableRecord
100
AcDbLinetypeTableRecord
  2
HIDDEN
 70
     0
  3
Verdeckt
 72
    65
 73
     2
 40
9.525
 49
6.349999999999999
 74
     0
 49
-3.174999999999999
 74
     0
  0
LTYPE
  5
7F3
330
1DA
100
AcDbSymbolTableRecord
100
AcDbLinetypeTableRecord
  2
PHANTOM2
 70
     0
  3
Phantom (.5x) ___ _ _ ___ _ _ ___ _ _ ___ _ _
 72
    65
 73
     6
 40
31.75
 49
15.875
 74
     0
 49
-3.174999999999999
 74
     0
 49
3.174999999999999
 74
     0
 49
-3.174999999999999
 74
     0
 49
3.174999999999999
 74
     0
 49
-3.174999999999999
 74
     0
  0
ENDTAB
  0
TABLE
  2
LAYER
  5
1D7
330
0
100
AcDbSymbolTable
 70
    11
  0
LAYER
  5
1E3
330
1D7
100
AcDbSymbolTableRecord
100
AcDbLayerTableRecord
  2
0
 70
     0
 62
     7
  6
CONTINUOUS
370
    -3
390
70B
  0
LAYER
  5
21F
330
1D7
100
AcDbSymbolTableRecord
100
AcDbLayerTableRecord
  2
5
 70
     0
 62
     3
  6
CONTINUOUS
370
    -3
390
70B
  0
LAYER
  5
220
330
1D7
100
AcDbSymbolTableRecord
100
AcDbLayerTableRecord
  2
7
 70
     0
 62
     4
  6
GEN7
370
    -3
390
70B
  0
LAYER
  5
221
330
1D7
100
AcDbSymbolTableRecord
100
AcDbLayerTableRecord
  2
8
 70
     0
 62
     1
  6
CONTINUOUS
370
    -3
390
70B
  0
LAYER
  5
222
330
1D7
100
AcDbSymbolTableRecord
100
AcDbLayerTableRecord
  2
DEFPOINTS
 70
     0
 62
     7
  6
CONTINUOUS
290
     0
370
    -3
390
70B
  0
LAYER
  5
3B0
330
1D7
100
AcDbSymbolTableRecord
100
AcDbLayerTableRecord
  2
SCHRAFFUR_RAND
 70
     1
 62
   -36
  6
CONTINUOUS
370
    -3
390
70B
  0
ENDTAB
  0
TABLE
  2
STYLE
  5
1D8
330
0
100
AcDbSymbolTable
 70
     5
  0
STYLE
  5
1E4
330
1D8
100
AcDbSymbolTableRecord
100
AcDbTextStyleTableRecord
  2
STANDARD
 70
     0
 40
0.0
 41
1.0
 50
0.0
 71
     0
 42
25.0
  3
ISOCP.SHX
  4

  0
STYLE
  5
73C
330
1D8
100
AcDbSymbolTableRecord
100
AcDbTextStyleTableRecord
  2

 70
     1
 40
0.0
 41
1.0
 50
0.0
 71
     0
 42
25.0
  3
ltypeshp.shx
  4

  0
STYLE
  5
743
330
1D8
100
AcDbSymbolTableRecord
100
AcDbTextStyleTableRecord
  2
ACDINTS
 70
     0
 40
1.0
 41
1.0
 50
0.0
 71
     0
 42
25.0
  3
isocp.shx
  4

  0
STYLE
  5
74E
330
1D8
100
AcDbSymbolTableRecord
100
AcDbTextStyleTableRecord
  2
ACDINGDT
 70
     0
 40
0.0
 41
1.0
 50
0.0
 71
     0
 42
25.0
  3
AMGDT
  4

  0
ENDTAB
  0
TABLE
  2
VIEW
  5
1DB
330
0
100
AcDbSymbolTable
 70
     6
  0
VIEW
  5
285
330
1DB
100
AcDbSymbolTableRecord
100
AcDbViewTableRecord
  2
GEN1
 70
     0
 40
525.0
 10
394.960474
 20
787.5
 41
789.920949
 11
0.0
 21
0.0
 31
1.0
 12
0.0
 22
0.0
 32
0.0
 42
50.0
 43
0.0
 44
0.0
 50
0.0
 71
     0
281
     0
 72
     0
  0
VIEW
  5
286
330
1DB
100
AcDbSymbolTableRecord
100
AcDbViewTableRecord
  2
GEN2
 70
     0
 40
525.0
 10
655.039526
 20
787.5
 41
789.920949
 11
0.0
 21
0.0
 31
1.0
 12
0.0
 22
0.0
 32
0.0
 42
50.0
 43
0.0
 44
0.0
 50
0.0
 71
     0
281
     0
 72
     0
  0
VIEW
  5
287
330
1DB
100
AcDbSymbolTableRecord
100
AcDbViewTableRecord
  2
GEN3
 70
     0
 40
525.0
 10
394.960474
 20
262.5
 41
789.920949
 11
0.0
 21
0.0
 31
1.0
 12
0.0
 22
0.0
 32
0.0
 42
50.0
 43
0.0
 44
0.0
 50
0.0
 71
     0
281
     0
 72
     0
  0
VIEW
  5
288
330
1DB
100
AcDbSymbolTableRecord
100
AcDbViewTableRecord
  2
GEN4
 70
     0
 40
525.0
 10
655.039526
 20
262.5
 41
789.920949
 11
0.0
 21
0.0
 31
1.0
 12
0.0
 22
0.0
 32
0.0
 42
50.0
 43
0.0
 44
0.0
 50
0.0
 71
     0
281
     0
 72
     0
  0
VIEW
  5
289
330
1DB
100
AcDbSymbolTableRecord
100
AcDbViewTableRecord
  2
GEN5
 70
     0
 40
525.0
 10
525.0
 20
525.0
 41
789.920949
 11
0.0
 21
0.0
 31
1.0
 12
0.0
 22
0.0
 32
0.0
 42
50.0
 43
0.0
 44
0.0
 50
0.0
 71
     0
281
     0
 72
     0
  0
VIEW
  5
28A
330
1DB
100
AcDbSymbolTableRecord
100
AcDbViewTableRecord
  2
GEN6
 70
     0
 40
1049.989499999999
 10
525.0
 20
525.0
 41
1579.826099
 11
0.0
 21
0.0
 31
1.0
 12
0.0
 22
0.0
 32
0.0
 42
50.0
 43
0.0
 44
0.0
 50
0.0
 71
     0
281
     0
 72
     0
  0
ENDTAB
  0
TABLE
  2
UCS
  5
1DC
330
0
100
AcDbSymbolTable
 70
     0
  0
ENDTAB
  0
TABLE
  2
APPID
  5
1DE
330
0
100
AcDbSymbolTable
 70
    43
  0
APPID
  5
1E5
330
1DE
100
AcDbSymbolTableRecord
100
AcDbRegAppTableRecord
  2
ACAD
 70
     0
  0
APPID
  5
20A
330
1DE
100
AcDbSymbolTableRecord
100
AcDbRegAppTableRecord
  2
GENIUS_VERSION2
 70
     0
  0
APPID
  5
20B
330
1DE
100
AcDbSymbolTableRecord
100
AcDbRegAppTableRecord
  2
GENIUS_GENOENT_13
 70
     0
  0
APPID
  5
20C
330
1DE
100
AcDbSymbolTableRecord
100
AcDbRegAppTableRecord
  2
GENIUS_GENOBJ_13
 70
     0
  0
APPID
  5
20D
330
1DE
100
AcDbSymbolTableRecord
100
AcDbRegAppTableRecord
  2
GENIUS_GENODEF_13
 70
     0
  0
APPID
  5
20E
330
1DE
100
AcDbSymbolTableRecord
100
AcDbRegAppTableRecord
  2
GENIUS_GENOLIS_13
 70
     0
  0
APPID
  5
20F
330
1DE
100
AcDbSymbolTableRecord
100
AcDbRegAppTableRecord
  2
GENIUS_GENOREF_13
 70
     0
  0
APPID
  5
210
330
1DE
100
AcDbSymbolTableRecord
100
AcDbRegAppTableRecord
  2
GENIUS_GENOBJ-N-TIT_13
 70
     0
  0
APPID
  5
211
330
1DE
100
AcDbSymbolTableRecord
100
AcDbRegAppTableRecord
  2
GENIUS_GENTITLE_13
 70
     0
  0
APPID
  5
212
330
1DE
100
AcDbSymbolTableRecord
100
AcDbRegAppTableRecord
  2
GENIUS_GENZVEED_13
 70
     0
  0
APPID
  5
213
330
1DE
100
AcDbSymbolTableRecord
100
AcDbRegAppTableRecord
  2
GENIUS_GENOBJ-N-CEN_13
 70
     0
  0
APPID
  5
214
330
1DE
100
AcDbSymbolTableRecord
100
AcDbRegAppTableRecord
  2
GENIUS_GENOBJ-N-HTC_13
 70
     0
  0
APPID
  5
215
330
1DE
100
AcDbSymbolTableRecord
100
AcDbRegAppTableRecord
  2
GENIUS_GENHATCH_13
 70
     0
  0
APPID
  5
216
330
1DE
100
AcDbSymbolTableRecord
100
AcDbRegAppTableRecord
  2
GENIUS_GENDTOL_13
 70
     0
  0
APPID
  5
217
330
1DE
100
AcDbSymbolTableRecord
100
AcDbRegAppTableRecord
  2
GENIUS_GENREC_13
 70
     0
  0
APPID
  5
218
330
1DE
100
AcDbSymbolTableRecord
100
AcDbRegAppTableRecord
  2
GENIUS_GENOBJ-N-REC_13
 70
     0
  0
APPID
  5
219
330
1DE
100
AcDbSymbolTableRecord
100
AcDbRegAppTableRecord
  2
GENIUS_GENOBJ-N-FIL_13
 70
     0
  0
APPID
  5
21A
330
1DE
100
AcDbSymbolTableRecord
100
AcDbRegAppTableRecord
  2
GENIUS_GENOBJ-N-CRS_13
 70
     0
  0
APPID
  5
25E
330
1DE
100
AcDbSymbolTableRecord
100
AcDbRegAppTableRecord
  2
GENIUS_GENCFG_13
 70
     0
1001
GENIUS_GENCFG0_13
1000
GEN@INFO_POS@XLATE
1001
GENIUS_GENCFG1_13
1000
GEN@INFO_POS
1001
GENIUS_GENCFG2_13
1000
GEN@LAYER@DEFS
1001
GENIUS_GENCFG3_13
1000
GEN@LAYER@ENTSORT
1001
GENIUS_GENCFG4_13
1000
GEN
1001
GENIUS_GEVCFG0_13
1000
GEV
1001
GENIUS_DUMCFG0_13
1000
DUM
  0
APPID
  5
25F
330
1DE
100
AcDbSymbolTableRecord
100
AcDbRegAppTableRecord
  2
GENIUS_DUMCFG0_13
 70
     0
1001
GENIUS_GENCFG_13
1071
929946560
1000
25F
1000
DUM
1070
     0
  0
APPID
  5
260
330
1DE
100
AcDbSymbolTableRecord
100
AcDbRegAppTableRecord
  2
GENIUS_GENCFG0_13
 70
     0
1001
GENIUS_GENCFG_13
1071
1021306043
1000
260
1000
GEN@INFO_POS@XLATE
1070
     7
1000
GenCfgObject
1000
GenCfgShort
1000
GenCfgReal
1000
GenCfgBool
1000
GenCfgString
1000
GenCfgDim
1000
GenCfgAttrInf
1000
INFOPOINTS
1070
     0
1002
{
1000
GENINF14
1070
     0
1002
{
1000
2GENINF
1070
     4
1000
2
1002
{
1002
}
1000
5GENINF
1070
     4
1000
5
1002
{
1002
}
1000
7GENINF
1070
     4
1000
7
1002
{
1002
}
1000
9GENINF
1070
     4
1000
9
1002
{
1002
}
1000
11GENINF
1070
     4
1000
11
1002
{
1002
}
1000
14GENINF
1070
     4
1000
14
1002
{
1002
}
1002
}
1000
GENINF13
1070
     0
1002
{
1000
2GENINF
1070
     4
1000
2
1002
{
1002
}
1000
3GENINF
1070
     4
1000
3
1002
{
1002
}
1000
4GENINF
1070
     4
1000
4
1002
{
1002
}
1000
5GENINF
1070
     4
1000
5
1002
{
1002
}
1000
6GENINF
1070
     4
1000
6
1002
{
1002
}
1000
7GENINF
1070
     4
1000
7
1002
{
1002
}
1000
8GENINF
1070
     4
1000
8
1002
{
1002
}
1000
9GENINF
1070
     4
1000
9
1002
{
1002
}
1000
10GENINF
1070
     4
1000
10
1002
{
1002
}
1000
11GENINF
1070
     4
1000
11
1002
{
1002
}
1000
12GENINF
1070
     4
1000
12
1002
{
1002
}
1000
13GENINF
1070
     4
1000
13
1002
{
1002
}
1000
14GENINF
1070
     4
1000
14
1002
{
1002
}
1000
15GENINF
1070
     4
1000
15
1002
{
1002
}
1000
16GENINF
1070
     4
1000
16
1002
{
1002
}
1000
17GENINF
1070
     4
1000
17
1002
{
1002
}
1000
18GENINF
1070
     4
1000
18
1002
{
1002
}
1000
19GENINF
1070
     4
1000
19
1002
{
1002
}
1000
20GENINF
1070
     4
1000
20
1002
{
1002
}
1000
21GENINF
1070
     4
1000
21
1002
{
1002
}
1000
22GENINF
1070
     4
1000
22
1002
{
1002
}
1000
23GENINF
1070
     4
1000
23
1002
{
1002
}
1000
24GENINF
1070
     4
1000
24
1002
{
1002
}
1000
0GENINF
1070
     4
1000
0
1002
{
1002
}
1002
}
1000
GENINFO
1070
     0
1002
{
1000
3GENINF
1070
     4
1000
3
1002
{
1002
}
1000
4GENINF
1070
     4
1000
4
1002
{
1002
}
1000
5GENINF
1070
     4
1000
5
1002
{
1002
}
1000
6GENINF
1070
     4
1000
6
1002
{
1002
}
1000
7GENINF
1070
     4
1000
7
1002
{
1002
}
1000
8GENINF
1070
     4
1000
8
1002
{
1002
}
1000
9GENINF
1070
     4
1000
9
1002
{
1002
}
1000
10GENINF
1070
     4
1000
10
1002
{
1002
}
1000
11GENINF
1070
     4
1000
11
1002
{
1002
}
1000
12GENINF
1070
     4
1000
12
1002
{
1002
}
1000
13GENINF
1070
     4
1000
13
1002
{
1002
}
1000
14GENINF
1070
     4
1000
14
1002
{
1002
}
1000
15GENINF
1070
     4
1000
15
1002
{
1002
}
1000
16GENINF
1070
     4
1000
16
1002
{
1002
}
1000
17GENINF
1070
     4
1000
17
1002
{
1002
}
1000
18GENINF
1070
     4
1000
18
1002
{
1002
}
1000
19GENINF
1070
     4
1000
19
1002
{
1002
}
1000
20GENINF
1070
     4
1000
20
1002
{
1002
}
1000
21GENINF
1070
     4
1000
21
1002
{
1002
}
1000
22GENINF
1070
     4
1000
22
1002
{
1002
}
1002
}
1000
DININFO
1070
     0
1002
{
1000
ST-NAME1
1070
     4
1000
5
1002
{
1002
}
1000
ST-NAME2
1070
     4
1000
6
1002
{
1002
}
1000
ST-NORM1
1070
     4
1000
7
1002
{
1002
}
1000
ST-NORM2
1070
     4
1000
8
1002
{
1002
}
1000
ST-MAT1
1070
     4
1000
9
1002
{
1002
}
1000
ST-MAT2
1070
     4
1000
10
1002
{
1002
}
1002
}
1002
}
1000
POS_NUMBERS
1070
     0
1002
{
1000
GENPOS14
1070
     0
1002
{
1000
1GENPOS
1070
     4
1000
1
1002
{
1002
}
1000
2GENPOS
1070
     4
1000
2
1002
{
1002
}
1000
5GENPOS
1070
     4
1000
5
1002
{
1002
}
1000
7GENPOS
1070
     4
1000
7
1002
{
1002
}
1000
9GENPOS
1070
     4
1000
9
1002
{
1002
}
1000
11GENPOS
1070
     4
1000
11
1002
{
1002
}
1000
14GENPOS
1070
     4
1000
14
1002
{
1002
}
1002
}
1000
GENPOS13
1070
     0
1002
{
1000
1GENPOS
1070
     4
1000
1
1002
{
1002
}
1000
2GENPOS
1070
     4
1000
2
1002
{
1002
}
1000
3GENPOS
1070
     4
1000
3
1002
{
1002
}
1000
4GENPOS
1070
     4
1000
4
1002
{
1002
}
1000
5GENPOS
1070
     4
1000
5
1002
{
1002
}
1000
6GENPOS
1070
     4
1000
6
1002
{
1002
}
1000
7GENPOS
1070
     4
1000
7
1002
{
1002
}
1000
8GENPOS
1070
     4
1000
8
1002
{
1002
}
1000
9GENPOS
1070
     4
1000
9
1002
{
1002
}
1000
10GENPOS
1070
     4
1000
10
1002
{
1002
}
1000
11GENPOS
1070
     4
1000
11
1002
{
1002
}
1000
12GENPOS
1070
     4
1000
12
1002
{
1002
}
1000
13GENPOS
1070
     4
1000
13
1002
{
1002
}
1000
14GENPOS
1070
     4
1000
14
1002
{
1002
}
1000
15GENPOS
1070
     4
1000
15
1002
{
1002
}
1000
16GENPOS
1070
     4
1000
16
1002
{
1002
}
1000
17GENPOS
1070
     4
1000
17
1002
{
1002
}
1000
18GENPOS
1070
     4
1000
18
1002
{
1002
}
1000
19GENPOS
1070
     4
1000
19
1002
{
1002
}
1000
20GENPOS
1070
     4
1000
20
1002
{
1002
}
1000
21GENPOS
1070
     4
1000
21
1002
{
1002
}
1000
22GENPOS
1070
     4
1000
22
1002
{
1002
}
1000
23GENPOS
1070
     4
1000
23
1002
{
1002
}
1000
24GENPOS
1070
     4
1000
24
1002
{
1002
}
1000
0GENPOS
1070
     4
1000
0
1002
{
1002
}
1002
}
1000
GENPOS
1070
     0
1002
{
1000
1GENPOS
1070
     4
1000
1
1002
{
1002
}
1000
2GENPOS
1070
     4
1000
2
1002
{
1002
}
1000
3GENPOS
1070
     4
1000
3
1002
{
1002
}
1000
4GENPOS
1070
     4
1000
4
1002
{
1002
}
1000
5GENPOS
1070
     4
1000
5
1002
{
1002
}
1000
6GENPOS
1070
     4
1000
6
1002
{
1002
}
1000
7GENPOS
1070
     4
1000
7
1002
{
1002
}
1000
8GENPOS
1070
     4
1000
8
1002
{
1002
}
1000
9GENPOS
1070
     4
1000
9
1002
{
1002
}
1000
10GENPOS
1070
     4
1000
10
1002
{
1002
}
1000
11GENPOS
1070
     4
1000
11
1002
{
1002
}
1000
12GENPOS
1070
     4
1000
12
1002
{
1002
}
1000
13GENPOS
1070
     4
1000
13
1002
{
1002
}
1000
14GENPOS
1070
     4
1000
14
1002
{
1002
}
1000
15GENPOS
1070
     4
1000
15
1002
{
1002
}
1000
16GENPOS
1070
     4
1000
16
1002
{
1002
}
1000
17GENPOS
1070
     4
1000
17
1002
{
1002
}
1000
18GENPOS
1070
     4
1000
18
1002
{
1002
}
1000
19GENPOS
1070
     4
1000
19
1002
{
1002
}
1000
20GENPOS
1070
     4
1000
20
1002
{
1002
}
1000
21GENPOS
1070
     4
1000
21
1002
{
1002
}
1000
22GENPOS
1070
     4
1000
22
1002
{
1002
}
1000
23GENPOS
1070
     4
1000
23
1002
{
1002
}
1002
}
1000
DIN985
1070
     0
1002
{
1000
POSITION
1070
     4
1000
1
1002
{
1002
}
1000
MENGE
1070
     4
1000
2
1002
{
1002
}
1000
BLATT
1070
     4
1000
3
1002
{
1002
}
1000
BENENN
1070
     4
1000
5
1002
{
1002
}
1000
BENENN2
1070
     4
1000
6
1002
{
1002
}
1000
NORM
1070
     4
1000
7
1002
{
1002
}
1000
NORM2
1070
     4
1000
8
1002
{
1002
}
1000
WERKSTOFF
1070
     4
1000
9
1002
{
1002
}
1000
WERKSTOFF2
1070
     4
1000
10
1002
{
1002
}
1002
}
1000
DIN986
1070
     0
1002
{
1000
POSITION
1070
     4
1000
1
1002
{
1002
}
1000
MENGE
1070
     4
1000
2
1002
{
1002
}
1000
BLATT
1070
     4
1000
3
1002
{
1002
}
1000
BENENN
1070
     4
1000
5
1002
{
1002
}
1000
BENENN2
1070
     4
1000
6
1002
{
1002
}
1000
NORM
1070
     4
1000
7
1002
{
1002
}
1000
NORM2
1070
     4
1000
8
1002
{
1002
}
1000
WERKSTOFF
1070
     4
1000
9
1002
{
1002
}
1000
WERKSTOFF2
1070
     4
1000
10
1002
{
1002
}
1002
}
1000
DIN987
1070
     0
1002
{
1000
POSITION
1070
     4
1000
1
1002
{
1002
}
1000
MENGE
1070
     4
1000
2
1002
{
1002
}
1000
BLATT
1070
     4
1000
3
1002
{
1002
}
1000
BENENN
1070
     4
1000
5
1002
{
1002
}
1000
BENENN2
1070
     4
1000
6
1002
{
1002
}
1000
NORM
1070
     4
1000
7
1002
{
1002
}
1000
NORM2
1070
     4
1000
8
1002
{
1002
}
1000
WERKSTOFF
1070
     4
1000
9
1002
{
1002
}
1000
WERKSTOFF2
1070
     4
1000
10
1002
{
1002
}
1002
}
1002
}
  0
APPID
  5
261
330
1DE
100
AcDbSymbolTableRecord
100
AcDbRegAppTableRecord
  2
GENIUS_GENCFG1_13
 70
     0
1001
GENIUS_GENCFG_13
1071
1021306043
1000
261
1000
GEN@INFO_POS
1070
     7
1000
GenCfgObject
1000
GenCfgShort
1000
GenCfgReal
1000
GenCfgBool
1000
GenCfgString
1000
GenCfgDim
1000
GenCfgAttrInf
1000
DescrText
1070
     4
1000
5, ,6, ,7, ,8
1002
{
1002
}
1000
DescrText2
1070
     4
1000
26
1002
{
1002
}
1000
VisibleAttr1
1070
     4
1000
1
1002
{
1002
}
1000
VisibleAttr2
1070
     4
1000
26
1002
{
1002
}
1000
UpdateBlock
1070
     3
1070
     1
1002
{
1002
}
1000
Attrib
1070
     0
1002
{
1000
0
1070
     6
1002
{
1000
Prompt
1070
     4
1000
(genmsg gendwg 103)
1002
{
1002
}
1000
Value
1070
     4
1000

1002
{
1002
}
1000
EditFlag
1070
     1
1070
     0
1002
{
1002
}
1000
PosInDDATTE
1070
     1
1070
    27
1002
{
1002
}
1000
FieldLen
1070
     1
1070
    -1
1002
{
1002
}
1002
}
1000
1
1070
     6
1002
{
1000
Prompt
1070
     4
1000
(genmsg gendwg 31)
1002
{
1002
}
1000
Value
1070
     4
1000
1
1002
{
1002
}
1000
EditFlag
1070
     1
1070
     1
1002
{
1002
}
1000
PosInDDATTE
1070
     1
1070
     1
1002
{
1002
}
1000
FieldLen
1070
     1
1070
    -1
1002
{
1002
}
1002
}
1000
2
1070
     6
1002
{
1000
Prompt
1070
     4
1000
(genmsg gendwg 32)
1002
{
1002
}
1000
Value
1070
     4
1000
1
1002
{
1002
}
1000
EditFlag
1070
     1
1070
     1
1002
{
1002
}
1000
PosInDDATTE
1070
     1
1070
     2
1002
{
1002
}
1000
FieldLen
1070
     1
1070
    -1
1002
{
1002
}
1002
}
1000
3
1070
     6
1002
{
1000
Prompt
1070
     4
1000
(genmsg gendwg 33)
1002
{
1002
}
1000
Value
1070
     4
1000

1002
{
1002
}
1000
EditFlag
1070
     1
1070
     1
1002
{
1002
}
1000
PosInDDATTE
1070
     1
1070
     3
1002
{
1002
}
1000
FieldLen
1070
     1
1070
    -1
1002
{
1002
}
1002
}
1000
4
1070
     6
1002
{
1000
Prompt
1070
     4
1000
(genmsg gendwg 34)
1002
{
1002
}
1000
Value
1070
     4
1000

1002
{
1002
}
1000
EditFlag
1070
     1
1070
     1
1002
{
1002
}
1000
PosInDDATTE
1070
     1
1070
     4
1002
{
1002
}
1000
FieldLen
1070
     1
1070
    -1
1002
{
1002
}
1002
}
1000
5
1070
     6
1002
{
1000
Prompt
1070
     4
1000
(genmsg gendwg 35)
1002
{
1002
}
1000
Value
1070
     4
1000

1002
{
1002
}
1000
EditFlag
1070
     1
1070
     1
1002
{
1002
}
1000
PosInDDATTE
1070
     1
1070
     5
1002
{
1002
}
1000
FieldLen
1070
     1
1070
    -1
1002
{
1002
}
1002
}
1000
6
1070
     6
1002
{
1000
Prompt
1070
     4
1000
(genmsg gendwg 36)
1002
{
1002
}
1000
Value
1070
     4
1000

1002
{
1002
}
1000
EditFlag
1070
     1
1070
     1
1002
{
1002
}
1000
PosInDDATTE
1070
     1
1070
     6
1002
{
1002
}
1000
FieldLen
1070
     1
1070
    -1
1002
{
1002
}
1002
}
1000
7
1070
     6
1002
{
1000
Prompt
1070
     4
1000
(genmsg gendwg 37)
1002
{
1002
}
1000
Value
1070
     4
1000

1002
{
1002
}
1000
EditFlag
1070
     1
1070
     1
1002
{
1002
}
1000
PosInDDATTE
1070
     1
1070
     7
1002
{
1002
}
1000
FieldLen
1070
     1
1070
    -1
1002
{
1002
}
1002
}
1000
8
1070
     6
1002
{
1000
Prompt
1070
     4
1000
(genmsg gendwg 38)
1002
{
1002
}
1000
Value
1070
     4
1000

1002
{
1002
}
1000
EditFlag
1070
     1
1070
     1
1002
{
1002
}
1000
PosInDDATTE
1070
     1
1070
     8
1002
{
1002
}
1000
FieldLen
1070
     1
1070
    -1
1002
{
1002
}
1002
}
1000
9
1070
     6
1002
{
1000
Prompt
1070
     4
1000
(genmsg gendwg 39)
1002
{
1002
}
1000
Value
1070
     4
1000

1002
{
1002
}
1000
EditFlag
1070
     1
1070
     1
1002
{
1002
}
1000
PosInDDATTE
1070
     1
1070
     9
1002
{
1002
}
1000
FieldLen
1070
     1
1070
    -1
1002
{
1002
}
1002
}
1000
10
1070
     6
1002
{
1000
Prompt
1070
     4
1000
(genmsg gendwg 40)
1002
{
1002
}
1000
Value
1070
     4
1000

1002
{
1002
}
1000
EditFlag
1070
     1
1070
     1
1002
{
1002
}
1000
PosInDDATTE
1070
     1
1070
    10
1002
{
1002
}
1000
FieldLen
1070
     1
1070
    -1
1002
{
1002
}
1002
}
1000
11
1070
     6
1002
{
1000
Prompt
1070
     4
1000
(genmsg gendwg 41)
1002
{
1002
}
1000
Value
1070
     4
1000

1002
{
1002
}
1000
EditFlag
1070
     1
1070
     1
1002
{
1002
}
1000
PosInDDATTE
1070
     1
1070
    11
1002
{
1002
}
1000
FieldLen
1070
     1
1070
    -1
1002
{
1002
}
1002
}
1000
12
1070
     6
1002
{
1000
Prompt
1070
     4
1000
(genmsg gendwg 42)
1002
{
1002
}
1000
Value
1070
     4
1000

1002
{
1002
}
1000
EditFlag
1070
     1
1070
     1
1002
{
1002
}
1000
PosInDDATTE
1070
     1
1070
    12
1002
{
1002
}
1000
FieldLen
1070
     1
1070
    -1
1002
{
1002
}
1002
}
1000
13
1070
     6
1002
{
1000
Prompt
1070
     4
1000
(genmsg gendwg 43)
1002
{
1002
}
1000
Value
1070
     4
1000

1002
{
1002
}
1000
EditFlag
1070
     1
1070
     1
1002
{
1002
}
1000
PosInDDATTE
1070
     1
1070
    13
1002
{
1002
}
1000
FieldLen
1070
     1
1070
    -1
1002
{
1002
}
1002
}
1000
14
1070
     6
1002
{
1000
Prompt
1070
     4
1000
(genmsg gendwg 44)
1002
{
1002
}
1000
Value
1070
     4
1000

1002
{
1002
}
1000
EditFlag
1070
     1
1070
     1
1002
{
1002
}
1000
PosInDDATTE
1070
     1
1070
    14
1002
{
1002
}
1000
FieldLen
1070
     1
1070
    -1
1002
{
1002
}
1002
}
1000
15
1070
     6
1002
{
1000
Prompt
1070
     4
1000
(genmsg gendwg 45)
1002
{
1002
}
1000
Value
1070
     4
1000

1002
{
1002
}
1000
EditFlag
1070
     1
1070
     1
1002
{
1002
}
1000
PosInDDATTE
1070
     1
1070
    15
1002
{
1002
}
1000
FieldLen
1070
     1
1070
    -1
1002
{
1002
}
1002
}
1000
16
1070
     6
1002
{
1000
Prompt
1070
     4
1000
(genmsg gendwg 46)
1002
{
1002
}
1000
Value
1070
     4
1000

1002
{
1002
}
1000
EditFlag
1070
     1
1070
     1
1002
{
1002
}
1000
PosInDDATTE
1070
     1
1070
    16
1002
{
1002
}
1000
FieldLen
1070
     1
1070
    -1
1002
{
1002
}
1002
}
1000
17
1070
     6
1002
{
1000
Prompt
1070
     4
1000
(genmsg gendwg 47)
1002
{
1002
}
1000
Value
1070
     4
1000

1002
{
1002
}
1000
EditFlag
1070
     1
1070
     1
1002
{
1002
}
1000
PosInDDATTE
1070
     1
1070
    17
1002
{
1002
}
1000
FieldLen
1070
     1
1070
    -1
1002
{
1002
}
1002
}
1000
18
1070
     6
1002
{
1000
Prompt
1070
     4
1000
(genmsg gendwg 48)
1002
{
1002
}
1000
Value
1070
     4
1000

1002
{
1002
}
1000
EditFlag
1070
     1
1070
     1
1002
{
1002
}
1000
PosInDDATTE
1070
     1
1070
    18
1002
{
1002
}
1000
FieldLen
1070
     1
1070
    -1
1002
{
1002
}
1002
}
1000
19
1070
     6
1002
{
1000
Prompt
1070
     4
1000
(genmsg gendwg 99)
1002
{
1002
}
1000
Value
1070
     4
1000

1002
{
1002
}
1000
EditFlag
1070
     1
1070
     1
1002
{
1002
}
1000
PosInDDATTE
1070
     1
1070
    19
1002
{
1002
}
1000
FieldLen
1070
     1
1070
    -1
1002
{
1002
}
1002
}
1000
20
1070
     6
1002
{
1000
Prompt
1070
     4
1000
(genmsg gendwg 100)
1002
{
1002
}
1000
Value
1070
     4
1000

1002
{
1002
}
1000
EditFlag
1070
     1
1070
     1
1002
{
1002
}
1000
PosInDDATTE
1070
     1
1070
    20
1002
{
1002
}
1000
FieldLen
1070
     1
1070
    -1
1002
{
1002
}
1002
}
1000
21
1070
     6
1002
{
1000
Prompt
1070
     4
1000
(genmsg gendwg 101)
1002
{
1002
}
1000
Value
1070
     4
1000

1002
{
1002
}
1000
EditFlag
1070
     1
1070
     1
1002
{
1002
}
1000
PosInDDATTE
1070
     1
1070
    21
1002
{
1002
}
1000
FieldLen
1070
     1
1070
    -1
1002
{
1002
}
1002
}
1000
22
1070
     6
1002
{
1000
Prompt
1070
     4
1000
(genmsg gendwg 102)
1002
{
1002
}
1000
Value
1070
     4
1000

1002
{
1002
}
1000
EditFlag
1070
     1
1070
     1
1002
{
1002
}
1000
PosInDDATTE
1070
     1
1070
    22
1002
{
1002
}
1000
FieldLen
1070
     1
1070
    -1
1002
{
1002
}
1002
}
1000
23
1070
     6
1002
{
1000
Prompt
1070
     4
1000
(genmsg gendwg 30)
1002
{
1002
}
1000
Value
1070
     4
1000

1002
{
1002
}
1000
EditFlag
1070
     1
1070
     1
1002
{
1002
}
1000
PosInDDATTE
1070
     1
1070
    23
1002
{
1002
}
1000
FieldLen
1070
     1
1070
    -1
1002
{
1002
}
1002
}
1000
24
1070
     6
1002
{
1000
Prompt
1070
     4
1000
(genmsg gendwg 104)
1002
{
1002
}
1000
Value
1070
     4
1000

1002
{
1002
}
1000
EditFlag
1070
     1
1070
     1
1002
{
1002
}
1000
PosInDDATTE
1070
     1
1070
    24
1002
{
1002
}
1000
FieldLen
1070
     1
1070
    -1
1002
{
1002
}
1002
}
1000
25
1070
     6
1002
{
1000
Prompt
1070
     4
1000
(genmsg gendwg 105)
1002
{
1002
}
1000
Value
1070
     4
1000

1002
{
1002
}
1000
EditFlag
1070
     1
1070
     1
1002
{
1002
}
1000
PosInDDATTE
1070
     1
1070
    25
1002
{
1002
}
1000
FieldLen
1070
     1
1070
    -1
1002
{
1002
}
1002
}
1000
26
1070
     6
1002
{
1000
Prompt
1070
     4
1000
(genmsg gendwg 106)
1002
{
1002
}
1000
Value
1070
     4
1000

1002
{
1002
}
1000
EditFlag
1070
     1
1070
     1
1002
{
1002
}
1000
PosInDDATTE
1070
     1
1070
    26
1002
{
1002
}
1000
FieldLen
1070
     1
1070
    -1
1002
{
1002
}
1002
}
1000
27
1070
     6
1002
{
1000
Prompt
1070
     4
1000
(genmsg gendwg 109)
1002
{
1002
}
1000
Value
1070
     4
1000

1002
{
1002
}
1000
EditFlag
1070
     1
1070
     2
1002
{
1002
}
1000
PosInDDATTE
1070
     1
1070
    27
1002
{
1002
}
1000
FieldLen
1070
     1
1070
    -1
1002
{
1002
}
1002
}
1002
}
1000
Xlate
1070
     0
1002
{
1000
>
1002
}
  0
APPID
  5
262
330
1DE
100
AcDbSymbolTableRecord
100
AcDbRegAppTableRecord
  2
GENIUS_GENCFG2_13
 70
     0
1001
GENIUS_GENCFG_13
1071
1021306043
1000
262
1000
GEN@LAYER@DEFS
1070
     9
1000
GenCfgObject
1000
GenCfgShort
1000
GenCfgReal
1000
GenCfgBool
1000
GenCfgString
1000
GenCfgDim
1000
GenCfgAttrInf
1000
GenCfgLaySection
1000
GenCfgLayer
1000
Basic
1070
     0
1002
{
1000
0
1070
     8
1000
0
1002
{
1000
Color
1070
     1
1070
     7
1002
{
1002
}
1000
LType
1070
     4
1000
CONTINUOUS
1002
{
1002
}
1000
Base
1070
     3
1070
     0
1002
{
1002
}
1002
}
1000
1
1070
     8
1000
1
1002
{
1000
Color
1070
     1
1070
    14
1002
{
1002
}
1000
LType
1070
     4
1000
CONTINUOUS
1002
{
1002
}
1000
Base
1070
     3
1070
     0
1002
{
1002
}
1002
}
1000
2
1070
     8
1000
2
1002
{
1000
Color
1070
     1
1070
     5
1002
{
1002
}
1000
LType
1070
     4
1000
CONTINUOUS
1002
{
1002
}
1000
Base
1070
     3
1070
     0
1002
{
1002
}
1002
}
1000
3
1070
     8
1000
3
1002
{
1000
Color
1070
     1
1070
     6
1002
{
1002
}
1000
LType
1070
     4
1000
GEN3
1002
{
1002
}
1000
Base
1070
     3
1070
     0
1002
{
1002
}
1002
}
1000
4
1070
     8
1000
4
1002
{
1000
Color
1070
     1
1070
     3
1002
{
1002
}
1000
LType
1070
     4
1000
CONTINUOUS
1002
{
1002
}
1000
Base
1070
     3
1070
     0
1002
{
1002
}
1002
}
1000
5
1070
     8
1000
5
1002
{
1000
Color
1070
     1
1070
     3
1002
{
1002
}
1000
LType
1070
     4
1000
CONTINUOUS
1002
{
1002
}
1000
Base
1070
     3
1070
     0
1002
{
1002
}
1002
}
1000
6
1070
     8
1000
6
1002
{
1000
Color
1070
     1
1070
     2
1002
{
1002
}
1000
LType
1070
     4
1000
CONTINUOUS
1002
{
1002
}
1000
Base
1070
     3
1070
     0
1002
{
1002
}
1002
}
1000
7
1070
     8
1000
7
1002
{
1000
Color
1070
     1
1070
     4
1002
{
1002
}
1000
LType
1070
     4
1000
GEN7
1002
{
1002
}
1000
Base
1070
     3
1070
     0
1002
{
1002
}
1002
}
1000
8
1070
     8
1000
8
1002
{
1000
Color
1070
     1
1070
     1
1002
{
1002
}
1000
LType
1070
     4
1000
CONTINUOUS
1002
{
1002
}
1000
Base
1070
     3
1070
     0
1002
{
1002
}
1002
}
1000
3A
1070
     8
1000
3A
1002
{
1000
Color
1070
     1
1070
     6
1002
{
1002
}
1000
LType
1070
     4
1000
GEN3A
1002
{
1002
}
1000
Base
1070
     3
1070
     0
1002
{
1002
}
1002
}
1000
7A
1070
     8
1000
7A
1002
{
1000
Color
1070
     1
1070
     4
1002
{
1002
}
1000
LType
1070
     4
1000
GEN7A
1002
{
1002
}
1000
Base
1070
     3
1070
     0
1002
{
1002
}
1002
}
1000
2A
1070
     8
1000
2A
1002
{
1000
Color
1070
     1
1070
     7
1002
{
1002
}
1000
LType
1070
     4
1000
GEN7
1002
{
1002
}
1000
Base
1070
     3
1070
     0
1002
{
1002
}
1002
}
1000
4A
1070
     8
1000
4A
1002
{
1000
Color
1070
     1
1070
     3
1002
{
1002
}
1000
LType
1070
     4
1000
GEN4A
1002
{
1002
}
1000
Base
1070
     3
1070
     0
1002
{
1002
}
1002
}
1000
9
1070
     8
1000
9
1002
{
1000
Color
1070
     1
1070
   253
1002
{
1002
}
1000
LType
1070
     4
1000
CONTINUOUS
1002
{
1002
}
1000
Base
1070
     3
1070
     0
1002
{
1002
}
1002
}
1000
IP
1070
     8
1000
IP
1002
{
1000
Color
1070
     1
1070
     7
1002
{
1002
}
1000
LType
1070
     4
1000
CONTINUOUS
1002
{
1002
}
1000
Base
1070
     3
1070
     0
1002
{
1002
}
1002
}
1002
}
1000
Standard
1070
     0
1002
{
1000
0N
1070
     8
1000
0N
1002
{
1000
Color
1070
     1
1070
     7
1002
{
1002
}
1000
LType
1070
     4
1000
CONTINUOUS
1002
{
1002
}
1000
Base
1070
     3
1070
     0
1002
{
1002
}
1002
}
1000
1N
1070
     8
1000
1N
1002
{
1000
Color
1070
     1
1070
    14
1002
{
1002
}
1000
LType
1070
     4
1000
CONTINUOUS
1002
{
1002
}
1000
Base
1070
     3
1070
     0
1002
{
1002
}
1002
}
1000
2N
1070
     8
1000
2N
1002
{
1000
Color
1070
     1
1070
     5
1002
{
1002
}
1000
LType
1070
     4
1000
CONTINUOUS
1002
{
1002
}
1000
Base
1070
     3
1070
     0
1002
{
1002
}
1002
}
1000
3N
1070
     8
1000
3N
1002
{
1000
Color
1070
     1
1070
     6
1002
{
1002
}
1000
LType
1070
     4
1000
GEN3
1002
{
1002
}
1000
Base
1070
     3
1070
     0
1002
{
1002
}
1002
}
1000
4N
1070
     8
1000
4N
1002
{
1000
Color
1070
     1
1070
     3
1002
{
1002
}
1000
LType
1070
     4
1000
CONTINUOUS
1002
{
1002
}
1000
Base
1070
     3
1070
     0
1002
{
1002
}
1002
}
1000
5N
1070
     8
1000
5N
1002
{
1000
Color
1070
     1
1070
     3
1002
{
1002
}
1000
LType
1070
     4
1000
CONTINUOUS
1002
{
1002
}
1000
Base
1070
     3
1070
     0
1002
{
1002
}
1002
}
1000
6N
1070
     8
1000
6N
1002
{
1000
Color
1070
     1
1070
     2
1002
{
1002
}
1000
LType
1070
     4
1000
CONTINUOUS
1002
{
1002
}
1000
Base
1070
     3
1070
     0
1002
{
1002
}
1002
}
1000
7N
1070
     8
1000
7N
1002
{
1000
Color
1070
     1
1070
     4
1002
{
1002
}
1000
LType
1070
     4
1000
GEN7
1002
{
1002
}
1000
Base
1070
     3
1070
     0
1002
{
1002
}
1002
}
1000
8N
1070
     8
1000
8N
1002
{
1000
Color
1070
     1
1070
     1
1002
{
1002
}
1000
LType
1070
     4
1000
CONTINUOUS
1002
{
1002
}
1000
Base
1070
     3
1070
     0
1002
{
1002
}
1002
}
1000
3AN
1070
     8
1000
3AN
1002
{
1000
Color
1070
     1
1070
     6
1002
{
1002
}
1000
LType
1070
     4
1000
GEN3A
1002
{
1002
}
1000
Base
1070
     3
1070
     0
1002
{
1002
}
1002
}
1000
7AN
1070
     8
1000
7AN
1002
{
1000
Color
1070
     1
1070
     4
1002
{
1002
}
1000
LType
1070
     4
1000
GEN7A
1002
{
1002
}
1000
Base
1070
     3
1070
     0
1002
{
1002
}
1002
}
1000
2AN
1070
     8
1000
2AN
1002
{
1000
Color
1070
     1
1070
     7
1002
{
1002
}
1000
LType
1070
     4
1000
GEN7
1002
{
1002
}
1000
Base
1070
     3
1070
     0
1002
{
1002
}
1002
}
1000
4AN
1070
     8
1000
4AN
1002
{
1000
Color
1070
     1
1070
     3
1002
{
1002
}
1000
LType
1070
     4
1000
GEN4A
1002
{
1002
}
1000
Base
1070
     3
1070
     0
1002
{
1002
}
1002
}
1000
9N
1070
     8
1000
9N
1002
{
1000
Color
1070
     1
1070
   253
1002
{
1002
}
1000
LType
1070
     4
1000
CONTINUOUS
1002
{
1002
}
1000
Base
1070
     3
1070
     0
1002
{
1002
}
1002
}
1000
IPN
1070
     8
1000
IPN
1002
{
1000
Color
1070
     1
1070
     7
1002
{
1002
}
1000
LType
1070
     4
1000
CONTINUOUS
1002
{
1002
}
1000
Base
1070
     3
1070
     0
1002
{
1002
}
1002
}
1002
}
1000
Extra
1070
     0
1002
{
1000
Klin
1070
     8
1000
KLIN
1002
{
1000
Color
1070
     1
1070
     1
1002
{
1002
}
1000
LType
1070
     4
1000
CONTINUOUS
1002
{
1002
}
1000
Base
1070
     3
1070
     1
1002
{
1002
}
1002
}
1000
Info
1070
     8
1000
INFO
1002
{
1000
Color
1070
     1
1070
     4
1002
{
1002
}
1000
LType
1070
     4
1000
CONTINUOUS
1002
{
1002
}
1000
Base
1070
     3
1070
     1
1002
{
1002
}
1002
}
1000
Rahm2
1070
     8
1000
RAHM2
1002
{
1000
Color
1070
     1
1070
     1
1002
{
1002
}
1000
LType
1070
     4
1000
CONTINUOUS
1002
{
1002
}
1000
Base
1070
     3
1070
     1
1002
{
1002
}
1002
}
1000
Rahm3
1070
     8
1000
RAHM3
1002
{
1000
Color
1070
     1
1070
     2
1002
{
1002
}
1000
LType
1070
     4
1000
CONTINUOUS
1002
{
1002
}
1000
Base
1070
     3
1070
     1
1002
{
1002
}
1002
}
1000
Rahm5
1070
     8
1000
RAHM5
1002
{
1000
Color
1070
     1
1070
     7
1002
{
1002
}
1000
LType
1070
     4
1000
CONTINUOUS
1002
{
1002
}
1000
Base
1070
     3
1070
     1
1002
{
1002
}
1002
}
1000
View
1070
     8
1000
VIEW
1002
{
1000
Color
1070
     1
1070
     1
1002
{
1002
}
1000
LType
1070
     4
1000
CONTINUOUS
1002
{
1002
}
1000
Base
1070
     3
1070
     1
1002
{
1002
}
1002
}
1000
Behind
1070
     8
1000
BEHIND
1002
{
1000
Color
1070
     1
1070
   253
1002
{
1002
}
1000
LType
1070
     4
1000
CONTINUOUS
1002
{
1002
}
1000
Base
1070
     3
1070
     1
1002
{
1002
}
1002
}
1002
}
  0
APPID
  5
263
330
1DE
100
AcDbSymbolTableRecord
100
AcDbRegAppTableRecord
  2
GENIUS_GENCFG3_13
 70
     0
1001
GENIUS_GENCFG_13
1071
1021306043
1000
263
1000
GEN@LAYER@ENTSORT
1070
    10
1000
GenCfgObject
1000
GenCfgShort
1000
GenCfgReal
1000
GenCfgBool
1000
GenCfgString
1000
GenCfgDim
1000
GenCfgAttrInf
1000
GenCfgLaySection
1000
GenCfgLayer
1000
GenCfgEntSort
1000
ADDL
1070
     9
1000
5
1002
{
1000
Class
1070
     4
1000
SYM
1002
{
1002
}
1000
Color
1070
     1
1070
     1
1002
{
1002
}
1000
LType
1070
     4
1000
BYLAYER
1002
{
1002
}
1002
}
1000
ALTR
1070
     9
1000
4
1002
{
1000
Class
1070
     4
1000

1002
{
1002
}
1000
Color
1070
     1
1070
     7
1002
{
1002
}
1000
LType
1070
     4
1000
GEN3A
1002
{
1002
}
1002
}
1000
BELI
1070
     9
1000
4
1002
{
1000
Class
1070
     4
1000

1002
{
1002
}
1000
Color
1070
     1
1070
   256
1002
{
1002
}
1000
LType
1070
     4
1000
BYLAYER
1002
{
1002
}
1002
}
1000
BHNV
1070
     9
1000
9
1002
{
1000
Class
1070
     4
1000
INV
1002
{
1002
}
1000
Color
1070
     1
1070
   256
1002
{
1002
}
1000
LType
1070
     4
1000
BYLAYER
1002
{
1002
}
1002
}
1000
BHNVS
1070
     9
1000
BEHIND
1002
{
1000
Class
1070
     4
1000
INV
1002
{
1002
}
1000
Color
1070
     1
1070
   256
1002
{
1002
}
1000
LType
1070
     4
1000
BYLAYER
1002
{
1002
}
1002
}
1000
BLID
1070
     9
1000
4A
1002
{
1000
Class
1070
     4
1000

1002
{
1002
}
1000
Color
1070
     1
1070
   256
1002
{
1002
}
1000
LType
1070
     4
1000
BYLAYER
1002
{
1002
}
1002
}
1000
BOAP
1070
     9
1000
4A
1002
{
1000
Class
1070
     4
1000

1002
{
1002
}
1000
Color
1070
     1
1070
   256
1002
{
1002
}
1000
LType
1070
     4
1000
BYLAYER
1002
{
1002
}
1002
}
1000
BOR2
1070
     9
1000
RAHM2
1002
{
1000
Class
1070
     4
1000
SPZ,SYM
1002
{
1002
}
1000
Color
1070
     1
1070
   256
1002
{
1002
}
1000
LType
1070
     4
1000
BYLAYER
1002
{
1002
}
1002
}
1000
BOR3
1070
     9
1000
RAHM3
1002
{
1000
Class
1070
     4
1000
SPZ,SYM
1002
{
1002
}
1000
Color
1070
     1
1070
   256
1002
{
1002
}
1000
LType
1070
     4
1000
BYLAYER
1002
{
1002
}
1002
}
1000
BOR5
1070
     9
1000
RAHM5
1002
{
1000
Class
1070
     4
1000
SPZ,SYM
1002
{
1002
}
1000
Color
1070
     1
1070
   256
1002
{
1002
}
1000
LType
1070
     4
1000
BYLAYER
1002
{
1002
}
1002
}
1000
BOR7
1070
     9
1000
RAHM5
1002
{
1000
Class
1070
     4
1000
SPZ,SYM
1002
{
1002
}
1000
Color
1070
     1
1070
     7
1002
{
1002
}
1000
LType
1070
     4
1000
CONTINUOUS
1002
{
1002
}
1002
}
1000
BPAP
1070
     9
1000
4A
1002
{
1000
Class
1070
     4
1000

1002
{
1002
}
1000
Color
1070
     1
1070
   256
1002
{
1002
}
1000
LType
1070
     4
1000
BYLAYER
1002
{
1002
}
1002
}
1000
BPEX
1070
     9
1000
4A
1002
{
1000
Class
1070
     4
1000

1002
{
1002
}
1000
Color
1070
     1
1070
   256
1002
{
1002
}
1000
LType
1070
     4
1000
BYLAYER
1002
{
1002
}
1002
}
1000
BTDI
1070
     9
1000
5
1002
{
1000
Class
1070
     4
1000
DIM,SYM
1002
{
1002
}
1000
Color
1070
     1
1070
   256
1002
{
1002
}
1000
LType
1070
     4
1000
BYLAYER
1002
{
1002
}
1002
}
1000
CAL2
1070
     9
1000
4
1002
{
1000
Class
1070
     4
1000
SYM
1002
{
1002
}
1000
Color
1070
     1
1070
   256
1002
{
1002
}
1000
LType
1070
     4
1000
BYLAYER
1002
{
1002
}
1002
}
1000
CAL3
1070
     9
1000
4
1002
{
1000
Class
1070
     4
1000
SYM
1002
{
1002
}
1000
Color
1070
     1
1070
     2
1002
{
1002
}
1000
LType
1070
     4
1000
BYLAYER
1002
{
1002
}
1002
}
1000
CAL5
1070
     9
1000
4
1002
{
1000
Class
1070
     4
1000
SYM
1002
{
1002
}
1000
Color
1070
     1
1070
     7
1002
{
1002
}
1000
LType
1070
     4
1000
BYLAYER
1002
{
1002
}
1002
}
1000
CAL7
1070
     9
1000
4
1002
{
1000
Class
1070
     4
1000
SYM
1002
{
1002
}
1000
Color
1070
     1
1070
     5
1002
{
1002
}
1000
LType
1070
     4
1000
BYLAYER
1002
{
1002
}
1002
}
1000
CENN
1070
     9
1000
7A
1002
{
1000
Class
1070
     4
1000
CEN
1002
{
1002
}
1000
Color
1070
     1
1070
   256
1002
{
1002
}
1000
LType
1070
     4
1000
BYLAYER
1002
{
1002
}
1002
}
1000
CENW
1070
     9
1000
7
1002
{
1000
Class
1070
     4
1000
CEN
1002
{
1002
}
1000
Color
1070
     1
1070
   256
1002
{
1002
}
1000
LType
1070
     4
1000
BYLAYER
1002
{
1002
}
1002
}
1000
CLIN
1070
     9
1000
KLIN
1002
{
1000
Class
1070
     4
1000
SPZ
1002
{
1002
}
1000
Color
1070
     1
1070
   256
1002
{
1002
}
1000
LType
1070
     4
1000
BYLAYER
1002
{
1002
}
1002
}
1000
CON1
1070
     9
1000
0
1002
{
1000
Class
1070
     4
1000
CON,BGD
1002
{
1002
}
1000
Color
1070
     1
1070
   256
1002
{
1002
}
1000
LType
1070
     4
1000
BYLAYER
1002
{
1002
}
1002
}
1000
CON2
1070
     9
1000
1
1002
{
1000
Class
1070
     4
1000
CON,BGD
1002
{
1002
}
1000
Color
1070
     1
1070
   256
1002
{
1002
}
1000
LType
1070
     4
1000
BYLAYER
1002
{
1002
}
1002
}
1000
CON3
1070
     9
1000
2
1002
{
1000
Class
1070
     4
1000
CON,BGD
1002
{
1002
}
1000
Color
1070
     1
1070
   256
1002
{
1002
}
1000
LType
1070
     4
1000
BYLAYER
1002
{
1002
}
1002
}
1000
CON4
1070
     9
1000
2
1002
{
1000
Class
1070
     4
1000
CON,BGD
1002
{
1002
}
1000
Color
1070
     1
1070
   256
1002
{
1002
}
1000
LType
1070
     4
1000
BYLAYER
1002
{
1002
}
1002
}
1000
DERP
1070
     9
1000
4
1002
{
1000
Class
1070
     4
1000

1002
{
1002
}
1000
Color
1070
     1
1070
   256
1002
{
1002
}
1000
LType
1070
     4
1000
BYLAYER
1002
{
1002
}
1002
}
1000
DETA
1070
     9
1000
4
1002
{
1000
Class
1070
     4
1000

1002
{
1002
}
1000
Color
1070
     1
1070
   256
1002
{
1002
}
1000
LType
1070
     4
1000
BYLAYER
1002
{
1002
}
1002
}
1000
DIAG
1070
     9
1000
5
1002
{
1000
Class
1070
     4
1000
SYM
1002
{
1002
}
1000
Color
1070
     1
1070
   256
1002
{
1002
}
1000
LType
1070
     4
1000
BYLAYER
1002
{
1002
}
1002
}
1000
DILI
1070
     9
1000
5
1002
{
1000
Class
1070
     4
1000
DIM,SYM
1002
{
1002
}
1000
Color
1070
     1
1070
   256
1002
{
1002
}
1000
LType
1070
     4
1000
BYLAYER
1002
{
1002
}
1002
}
1000
DITO2
1070
     9
1000
5
1002
{
1000
Class
1070
     4
1000
DIM,SYM
1002
{
1002
}
1000
Color
1070
     1
1070
     3
1002
{
1002
}
1000
LType
1070
     4
1000
BYLAYER
1002
{
1002
}
1002
}
1000
DITO3
1070
     9
1000
5
1002
{
1000
Class
1070
     4
1000
DIM,SYM
1002
{
1002
}
1000
Color
1070
     1
1070
     2
1002
{
1002
}
1000
LType
1070
     4
1000
BYLAYER
1002
{
1002
}
1002
}
1000
DITX
1070
     9
1000
5
1002
{
1000
Class
1070
     4
1000
DIM,SYM
1002
{
1002
}
1000
Color
1070
     1
1070
     2
1002
{
1002
}
1000
LType
1070
     4
1000
CONTINUOUS
1002
{
1002
}
1002
}
1000
DIXL
1070
     9
1000
5
1002
{
1000
Class
1070
     4
1000
DIM,SYM
1002
{
1002
}
1000
Color
1070
     1
1070
   256
1002
{
1002
}
1000
LType
1070
     4
1000
BYLAYER
1002
{
1002
}
1002
}
1000
EXMP
1070
     9
1000
4A
1002
{
1000
Class
1070
     4
1000

1002
{
1002
}
1000
Color
1070
     1
1070
   256
1002
{
1002
}
1000
LType
1070
     4
1000
BYLAYER
1002
{
1002
}
1002
}
1000
FEMN
1070
     9
1000
8
1002
{
1000
Class
1070
     4
1000

1002
{
1002
}
1000
Color
1070
     1
1070
   256
1002
{
1002
}
1000
LType
1070
     4
1000
BYLAYER
1002
{
1002
}
1002
}
1000
FEMPN
1070
     9
1000
8
1002
{
1000
Class
1070
     4
1000
SYM
1002
{
1002
}
1000
Color
1070
     1
1070
     3
1002
{
1002
}
1000
LType
1070
     4
1000
BYLAYER
1002
{
1002
}
1002
}
1000
FEMSP
1070
     9
1000
4A
1002
{
1000
Class
1070
     4
1000

1002
{
1002
}
1000
Color
1070
     1
1070
   256
1002
{
1002
}
1000
LType
1070
     4
1000
CONTINUOUS
1002
{
1002
}
1002
}
1000
FEMST
1070
     9
1000
4A
1002
{
1000
Class
1070
     4
1000
SYM
1002
{
1002
}
1000
Color
1070
     1
1070
     3
1002
{
1002
}
1000
LType
1070
     4
1000
BYLAYER
1002
{
1002
}
1002
}
1000
FEMVN
1070
     9
1000
2
1002
{
1000
Class
1070
     4
1000
CON
1002
{
1002
}
1000
Color
1070
     1
1070
   256
1002
{
1002
}
1000
LType
1070
     4
1000
BYLAYER
1002
{
1002
}
1002
}
1000
FEMVT
1070
     9
1000
2
1002
{
1000
Class
1070
     4
1000
SYM
1002
{
1002
}
1000
Color
1070
     1
1070
     3
1002
{
1002
}
1000
LType
1070
     4
1000
BYLAYER
1002
{
1002
}
1002
}
1000
FLAT
1070
     9
1000
0
1002
{
1000
Class
1070
     4
1000

1002
{
1002
}
1000
Color
1070
     1
1070
   256
1002
{
1002
}
1000
LType
1070
     4
1000
BYLAYER
1002
{
1002
}
1002
}
1000
FRAR
1070
     9
1000
4A
1002
{
1000
Class
1070
     4
1000

1002
{
1002
}
1000
Color
1070
     1
1070
   256
1002
{
1002
}
1000
LType
1070
     4
1000
BYLAYER
1002
{
1002
}
1002
}
1000
GRLI
1070
     9
1000
5
1002
{
1000
Class
1070
     4
1000
SYM
1002
{
1002
}
1000
Color
1070
     1
1070
   256
1002
{
1002
}
1000
LType
1070
     4
1000
BYLAYER
1002
{
1002
}
1002
}
1000
GVLI
1070
     9
1000
4A
1002
{
1000
Class
1070
     4
1000

1002
{
1002
}
1000
Color
1070
     1
1070
   256
1002
{
1002
}
1000
LType
1070
     4
1000
BYLAYER
1002
{
1002
}
1002
}
1000
HATC
1070
     9
1000
8
1002
{
1000
Class
1070
     4
1000
HTC,BGD
1002
{
1002
}
1000
Color
1070
     1
1070
   256
1002
{
1002
}
1000
LType
1070
     4
1000
BYLAYER
1002
{
1002
}
1002
}
1000
HIDN
1070
     9
1000
3A
1002
{
1000
Class
1070
     4
1000
HID,BGD
1002
{
1002
}
1000
Color
1070
     1
1070
   256
1002
{
1002
}
1000
LType
1070
     4
1000
BYLAYER
1002
{
1002
}
1002
}
1000
HIDW
1070
     9
1000
3
1002
{
1000
Class
1070
     4
1000
HID,BGD
1002
{
1002
}
1000
Color
1070
     1
1070
   256
1002
{
1002
}
1000
LType
1070
     4
1000
BYLAYER
1002
{
1002
}
1002
}
1000
HLIN
1070
     9
1000
4
1002
{
1000
Class
1070
     4
1000
BGD
1002
{
1002
}
1000
Color
1070
     1
1070
   256
1002
{
1002
}
1000
LType
1070
     4
1000
BYLAYER
1002
{
1002
}
1002
}
1000
HOCN
1070
     9
1000
7A
1002
{
1000
Class
1070
     4
1000
CEN
1002
{
1002
}
1000
Color
1070
     1
1070
   256
1002
{
1002
}
1000
LType
1070
     4
1000
BYLAYER
1002
{
1002
}
1002
}
1000
HOCW
1070
     9
1000
7
1002
{
1000
Class
1070
     4
1000
CEN
1002
{
1002
}
1000
Color
1070
     1
1070
   256
1002
{
1002
}
1000
LType
1070
     4
1000
BYLAYER
1002
{
1002
}
1002
}
1000
INFO
1070
     9
1000
INFO
1002
{
1000
Class
1070
     4
1000
SPZ,SYM
1002
{
1002
}
1000
Color
1070
     1
1070
   256
1002
{
1002
}
1000
LType
1070
     4
1000
BYLAYER
1002
{
1002
}
1002
}
1000
LADI
1070
     9
1000
4
1002
{
1000
Class
1070
     4
1000
BGD
1002
{
1002
}
1000
Color
1070
     1
1070
   256
1002
{
1002
}
1000
LType
1070
     4
1000
BYLAYER
1002
{
1002
}
1002
}
1000
LEAD
1070
     9
1000
5
1002
{
1000
Class
1070
     4
1000
SYM
1002
{
1002
}
1000
Color
1070
     1
1070
   256
1002
{
1002
}
1000
LType
1070
     4
1000
BYLAYER
1002
{
1002
}
1002
}
1000
N_ADDL
1070
     9
1000
5N
1002
{
1000
Class
1070
     4
1000
SYM
1002
{
1002
}
1000
Color
1070
     1
1070
     1
1002
{
1002
}
1000
LType
1070
     4
1000
BYLAYER
1002
{
1002
}
1002
}
1000
N_BHNV
1070
     9
1000
9N
1002
{
1000
Class
1070
     4
1000
INV
1002
{
1002
}
1000
Color
1070
     1
1070
   256
1002
{
1002
}
1000
LType
1070
     4
1000
BYLAYER
1002
{
1002
}
1002
}
1000
N_CON1
1070
     9
1000
0N
1002
{
1000
Class
1070
     4
1000
CON,BGD
1002
{
1002
}
1000
Color
1070
     1
1070
   256
1002
{
1002
}
1000
LType
1070
     4
1000
BYLAYER
1002
{
1002
}
1002
}
1000
N_CON2
1070
     9
1000
1N
1002
{
1000
Class
1070
     4
1000
CON,BGD
1002
{
1002
}
1000
Color
1070
     1
1070
   256
1002
{
1002
}
1000
LType
1070
     4
1000
BYLAYER
1002
{
1002
}
1002
}
1000
N_CON3
1070
     9
1000
2N
1002
{
1000
Class
1070
     4
1000
CON,BGD
1002
{
1002
}
1000
Color
1070
     1
1070
   256
1002
{
1002
}
1000
LType
1070
     4
1000
BYLAYER
1002
{
1002
}
1002
}
1000
N_CON4
1070
     9
1000
2N
1002
{
1000
Class
1070
     4
1000
CON,BGD
1002
{
1002
}
1000
Color
1070
     1
1070
   256
1002
{
1002
}
1000
LType
1070
     4
1000
BYLAYER
1002
{
1002
}
1002
}
1000
N_CENN
1070
     9
1000
7AN
1002
{
1000
Class
1070
     4
1000
CEN
1002
{
1002
}
1000
Color
1070
     1
1070
   256
1002
{
1002
}
1000
LType
1070
     4
1000
BYLAYER
1002
{
1002
}
1002
}
1000
N_CENW
1070
     9
1000
7N
1002
{
1000
Class
1070
     4
1000
CEN
1002
{
1002
}
1000
Color
1070
     1
1070
   256
1002
{
1002
}
1000
LType
1070
     4
1000
BYLAYER
1002
{
1002
}
1002
}
1000
N_DILI
1070
     9
1000
5N
1002
{
1000
Class
1070
     4
1000
DIM,SYM
1002
{
1002
}
1000
Color
1070
     1
1070
   256
1002
{
1002
}
1000
LType
1070
     4
1000
BYLAYER
1002
{
1002
}
1002
}
1000
N_DITX
1070
     9
1000
5N
1002
{
1000
Class
1070
     4
1000
DIM,SYM
1002
{
1002
}
1000
Color
1070
     1
1070
     2
1002
{
1002
}
1000
LType
1070
     4
1000
CONTINUOUS
1002
{
1002
}
1002
}
1000
N_DIXL
1070
     9
1000
5N
1002
{
1000
Class
1070
     4
1000
DIM,SYM
1002
{
1002
}
1000
Color
1070
     1
1070
   256
1002
{
1002
}
1000
LType
1070
     4
1000
BYLAYER
1002
{
1002
}
1002
}
1000
N_HATC
1070
     9
1000
8N
1002
{
1000
Class
1070
     4
1000
HTC,BGD
1002
{
1002
}
1000
Color
1070
     1
1070
   256
1002
{
1002
}
1000
LType
1070
     4
1000
BYLAYER
1002
{
1002
}
1002
}
1000
N_HIDN
1070
     9
1000
3AN
1002
{
1000
Class
1070
     4
1000
HID,BGD
1002
{
1002
}
1000
Color
1070
     1
1070
   256
1002
{
1002
}
1000
LType
1070
     4
1000
BYLAYER
1002
{
1002
}
1002
}
1000
N_HIDW
1070
     9
1000
3N
1002
{
1000
Class
1070
     4
1000
HID,BGD
1002
{
1002
}
1000
Color
1070
     1
1070
   256
1002
{
1002
}
1000
LType
1070
     4
1000
BYLAYER
1002
{
1002
}
1002
}
1000
N_NGIP
1070
     9
1000
IPN
1002
{
1000
Class
1070
     4
1000

1002
{
1002
}
1000
Color
1070
     1
1070
   256
1002
{
1002
}
1000
LType
1070
     4
1000
BYLAYER
1002
{
1002
}
1002
}
1000
N_PHAN
1070
     9
1000
4AN
1002
{
1000
Class
1070
     4
1000

1002
{
1002
}
1000
Color
1070
     1
1070
   256
1002
{
1002
}
1000
LType
1070
     4
1000
BYLAYER
1002
{
1002
}
1002
}
1000
N_POSL
1070
     9
1000
5N
1002
{
1000
Class
1070
     4
1000
SYM
1002
{
1002
}
1000
Color
1070
     1
1070
   256
1002
{
1002
}
1000
LType
1070
     4
1000
BYLAYER
1002
{
1002
}
1002
}
1000
N_TCON
1070
     9
1000
0N
1002
{
1000
Class
1070
     4
1000
CON,BGD
1002
{
1002
}
1000
Color
1070
     1
1070
   256
1002
{
1002
}
1000
LType
1070
     4
1000
BYLAYER
1002
{
1002
}
1002
}
1000
N_THLI
1070
     9
1000
4N
1002
{
1000
Class
1070
     4
1000
BGD
1002
{
1002
}
1000
Color
1070
     1
1070
   256
1002
{
1002
}
1000
LType
1070
     4
1000
BYLAYER
1002
{
1002
}
1002
}
1000
N_TLEN
1070
     9
1000
0N
1002
{
1000
Class
1070
     4
1000
CON,BGD
1002
{
1002
}
1000
Color
1070
     1
1070
   256
1002
{
1002
}
1000
LType
1070
     4
1000
BYLAYER
1002
{
1002
}
1002
}
1000
N_TXT3
1070
     9
1000
6N
1002
{
1000
Class
1070
     4
1000
SYM
1002
{
1002
}
1000
Color
1070
     1
1070
   256
1002
{
1002
}
1000
LType
1070
     4
1000
BYLAYER
1002
{
1002
}
1002
}
1000
N_VPLI
1070
     9
1000
2AN
1002
{
1000
Class
1070
     4
1000

1002
{
1002
}
1000
Color
1070
     1
1070
   256
1002
{
1002
}
1000
LType
1070
     4
1000
BYLAYER
1002
{
1002
}
1002
}
1000
NGIP
1070
     9
1000
IP
1002
{
1000
Class
1070
     4
1000

1002
{
1002
}
1000
Color
1070
     1
1070
   256
1002
{
1002
}
1000
LType
1070
     4
1000
BYLAYER
1002
{
1002
}
1002
}
1000
PAL2
1070
     9
1000
RAHM2
1002
{
1000
Class
1070
     4
1000
SPZ,SYM
1002
{
1002
}
1000
Color
1070
     1
1070
   256
1002
{
1002
}
1000
LType
1070
     4
1000
BYLAYER
1002
{
1002
}
1002
}
1000
PAL3
1070
     9
1000
RAHM3
1002
{
1000
Class
1070
     4
1000
SPZ,SYM
1002
{
1002
}
1000
Color
1070
     1
1070
   256
1002
{
1002
}
1000
LType
1070
     4
1000
BYLAYER
1002
{
1002
}
1002
}
1000
PAL5
1070
     9
1000
RAHM5
1002
{
1000
Class
1070
     4
1000
SPZ,SYM
1002
{
1002
}
1000
Color
1070
     1
1070
   256
1002
{
1002
}
1000
LType
1070
     4
1000
BYLAYER
1002
{
1002
}
1002
}
1000
PAL7
1070
     9
1000
RAHM5
1002
{
1000
Class
1070
     4
1000
SPZ,SYM
1002
{
1002
}
1000
Color
1070
     1
1070
     7
1002
{
1002
}
1000
LType
1070
     4
1000
CONTINUOUS
1002
{
1002
}
1002
}
1000
PHAN
1070
     9
1000
4A
1002
{
1000
Class
1070
     4
1000

1002
{
1002
}
1000
Color
1070
     1
1070
   256
1002
{
1002
}
1000
LType
1070
     4
1000
BYLAYER
1002
{
1002
}
1002
}
1000
POSL
1070
     9
1000
5
1002
{
1000
Class
1070
     4
1000
SYM
1002
{
1002
}
1000
Color
1070
     1
1070
   256
1002
{
1002
}
1000
LType
1070
     4
1000
BYLAYER
1002
{
1002
}
1002
}
1000
POSN
1070
     9
1000
6
1002
{
1000
Class
1070
     4
1000
SYM
1002
{
1002
}
1000
Color
1070
     1
1070
     7
1002
{
1002
}
1000
LType
1070
     4
1000
BYLAYER
1002
{
1002
}
1002
}
1000
POSREF
1070
     9
1000
6
1002
{
1000
Class
1070
     4
1000
SYM
1002
{
1002
}
1000
Color
1070
     1
1070
     5
1002
{
1002
}
1000
LType
1070
     4
1000
BYLAYER
1002
{
1002
}
1002
}
1000
POSX
1070
     9
1000
5
1002
{
1000
Class
1070
     4
1000
SYM
1002
{
1002
}
1000
Color
1070
     1
1070
     2
1002
{
1002
}
1000
LType
1070
     4
1000
CONTINUOUS
1002
{
1002
}
1002
}
1000
PSEC
1070
     9
1000
4A
1002
{
1000
Class
1070
     4
1000

1002
{
1002
}
1000
Color
1070
     1
1070
   256
1002
{
1002
}
1000
LType
1070
     4
1000
BYLAYER
1002
{
1002
}
1002
}
1000
RCGN
1070
     9
1000
7A
1002
{
1000
Class
1070
     4
1000
CEN
1002
{
1002
}
1000
Color
1070
     1
1070
   256
1002
{
1002
}
1000
LType
1070
     4
1000
BYLAYER
1002
{
1002
}
1002
}
1000
RCGW
1070
     9
1000
7
1002
{
1000
Class
1070
     4
1000
CEN
1002
{
1002
}
1000
Color
1070
     1
1070
   256
1002
{
1002
}
1000
LType
1070
     4
1000
BYLAYER
1002
{
1002
}
1002
}
1000
RFDI
1070
     9
1000
4
1002
{
1000
Class
1070
     4
1000
BGD
1002
{
1002
}
1000
Color
1070
     1
1070
   256
1002
{
1002
}
1000
LType
1070
     4
1000
BYLAYER
1002
{
1002
}
1002
}
1000
RQTR
1070
     9
1000
4
1002
{
1000
Class
1070
     4
1000

1002
{
1002
}
1000
Color
1070
     1
1070
     7
1002
{
1002
}
1000
LType
1070
     4
1000
GEN7A
1002
{
1002
}
1002
}
1000
RSBO
1070
     9
1000
4
1002
{
1000
Class
1070
     4
1000
BGD
1002
{
1002
}
1000
Color
1070
     1
1070
   256
1002
{
1002
}
1000
LType
1070
     4
1000
BYLAYER
1002
{
1002
}
1002
}
1000
SBRK
1070
     9
1000
4
1002
{
1000
Class
1070
     4
1000
BGD
1002
{
1002
}
1000
Color
1070
     1
1070
   256
1002
{
1002
}
1000
LType
1070
     4
1000
BYLAYER
1002
{
1002
}
1002
}
1000
SCEN
1070
     9
1000
7
1002
{
1000
Class
1070
     4
1000

1002
{
1002
}
1000
Color
1070
     1
1070
   256
1002
{
1002
}
1000
LType
1070
     4
1000
CONTINUOUS
1002
{
1002
}
1002
}
1000
SECT
1070
     9
1000
4
1002
{
1000
Class
1070
     4
1000
BGD
1002
{
1002
}
1000
Color
1070
     1
1070
   256
1002
{
1002
}
1000
LType
1070
     4
1000
BYLAYER
1002
{
1002
}
1002
}
1000
SELN
1070
     9
1000
7A
1002
{
1000
Class
1070
     4
1000

1002
{
1002
}
1000
Color
1070
     1
1070
   256
1002
{
1002
}
1000
LType
1070
     4
1000
BYLAYER
1002
{
1002
}
1002
}
1000
SELW
1070
     9
1000
7
1002
{
1000
Class
1070
     4
1000

1002
{
1002
}
1000
Color
1070
     1
1070
   256
1002
{
1002
}
1000
LType
1070
     4
1000
BYLAYER
1002
{
1002
}
1002
}
1000
SSYS
1070
     9
1000
0
1002
{
1000
Class
1070
     4
1000

1002
{
1002
}
1000
Color
1070
     1
1070
   256
1002
{
1002
}
1000
LType
1070
     4
1000
BYLAYER
1002
{
1002
}
1002
}
1000
STLI
1070
     9
1000
4
1002
{
1000
Class
1070
     4
1000

1002
{
1002
}
1000
Color
1070
     1
1070
     7
1002
{
1002
}
1000
LType
1070
     4
1000
GEN3A
1002
{
1002
}
1002
}
1000
SYB1
1070
     9
1000
5
1002
{
1000
Class
1070
     4
1000
SYM
1002
{
1002
}
1000
Color
1070
     1
1070
   256
1002
{
1002
}
1000
LType
1070
     4
1000
BYLAYER
1002
{
1002
}
1002
}
1000
SYB2
1070
     9
1000
5
1002
{
1000
Class
1070
     4
1000
SYM
1002
{
1002
}
1000
Color
1070
     1
1070
   256
1002
{
1002
}
1000
LType
1070
     4
1000
BYLAYER
1002
{
1002
}
1002
}
1000
SYB3
1070
     9
1000
6
1002
{
1000
Class
1070
     4
1000
SYM
1002
{
1002
}
1000
Color
1070
     1
1070
   256
1002
{
1002
}
1000
LType
1070
     4
1000
CONTINUOUS
1002
{
1002
}
1002
}
1000
SYB5
1070
     9
1000
5
1002
{
1000
Class
1070
     4
1000
SYM
1002
{
1002
}
1000
Color
1070
     1
1070
     7
1002
{
1002
}
1000
LType
1070
     4
1000
BYLAYER
1002
{
1002
}
1002
}
1000
SYMN
1070
     9
1000
7A
1002
{
1000
Class
1070
     4
1000
CEN
1002
{
1002
}
1000
Color
1070
     1
1070
   256
1002
{
1002
}
1000
LType
1070
     4
1000
BYLAYER
1002
{
1002
}
1002
}
1000
SYMW
1070
     9
1000
7
1002
{
1000
Class
1070
     4
1000
CEN
1002
{
1002
}
1000
Color
1070
     1
1070
   256
1002
{
1002
}
1000
LType
1070
     4
1000
BYLAYER
1002
{
1002
}
1002
}
1000
TCON
1070
     9
1000
0
1002
{
1000
Class
1070
     4
1000
CON,BGD
1002
{
1002
}
1000
Color
1070
     1
1070
   256
1002
{
1002
}
1000
LType
1070
     4
1000
BYLAYER
1002
{
1002
}
1002
}
1000
THLI
1070
     9
1000
4
1002
{
1000
Class
1070
     4
1000
BGD
1002
{
1002
}
1000
Color
1070
     1
1070
   256
1002
{
1002
}
1000
LType
1070
     4
1000
BYLAYER
1002
{
1002
}
1002
}
1000
TIT2
1070
     9
1000
RAHM2
1002
{
1000
Class
1070
     4
1000
SPZ,SYM
1002
{
1002
}
1000
Color
1070
     1
1070
   256
1002
{
1002
}
1000
LType
1070
     4
1000
BYLAYER
1002
{
1002
}
1002
}
1000
TIT3
1070
     9
1000
RAHM3
1002
{
1000
Class
1070
     4
1000
SPZ,SYM
1002
{
1002
}
1000
Color
1070
     1
1070
   256
1002
{
1002
}
1000
LType
1070
     4
1000
BYLAYER
1002
{
1002
}
1002
}
1000
TIT5
1070
     9
1000
RAHM5
1002
{
1000
Class
1070
     4
1000
SPZ,SYM
1002
{
1002
}
1000
Color
1070
     1
1070
   256
1002
{
1002
}
1000
LType
1070
     4
1000
BYLAYER
1002
{
1002
}
1002
}
1000
TIT7
1070
     9
1000
RAHM5
1002
{
1000
Class
1070
     4
1000
SPZ,SYM
1002
{
1002
}
1000
Color
1070
     1
1070
     7
1002
{
1002
}
1000
LType
1070
     4
1000
CONTINUOUS
1002
{
1002
}
1002
}
1000
TLEN
1070
     9
1000
0
1002
{
1000
Class
1070
     4
1000
CON,BGD
1002
{
1002
}
1000
Color
1070
     1
1070
   256
1002
{
1002
}
1000
LType
1070
     4
1000
BYLAYER
1002
{
1002
}
1002
}
1000
TRKN
1070
     9
1000
7A
1002
{
1000
Class
1070
     4
1000

1002
{
1002
}
1000
Color
1070
     1
1070
   256
1002
{
1002
}
1000
LType
1070
     4
1000
BYLAYER
1002
{
1002
}
1002
}
1000
TRKW
1070
     9
1000
7
1002
{
1000
Class
1070
     4
1000

1002
{
1002
}
1000
Color
1070
     1
1070
   256
1002
{
1002
}
1000
LType
1070
     4
1000
BYLAYER
1002
{
1002
}
1002
}
1000
TRLI
1070
     9
1000
4
1002
{
1000
Class
1070
     4
1000
BGD
1002
{
1002
}
1000
Color
1070
     1
1070
   256
1002
{
1002
}
1000
LType
1070
     4
1000
BYLAYER
1002
{
1002
}
1002
}
1000
TXT1
1070
     9
1000
6
1002
{
1000
Class
1070
     4
1000
SYM
1002
{
1002
}
1000
Color
1070
     1
1070
     2
1002
{
1002
}
1000
LType
1070
     4
1000
BYLAYER
1002
{
1002
}
1002
}
1000
TXT2
1070
     9
1000
6
1002
{
1000
Class
1070
     4
1000
SYM
1002
{
1002
}
1000
Color
1070
     1
1070
     2
1002
{
1002
}
1000
LType
1070
     4
1000
BYLAYER
1002
{
1002
}
1002
}
1000
TXT3
1070
     9
1000
6
1002
{
1000
Class
1070
     4
1000
SYM
1002
{
1002
}
1000
Color
1070
     1
1070
   256
1002
{
1002
}
1000
LType
1070
     4
1000
BYLAYER
1002
{
1002
}
1002
}
1000
TXT5
1070
     9
1000
6
1002
{
1000
Class
1070
     4
1000
SYM
1002
{
1002
}
1000
Color
1070
     1
1070
     7
1002
{
1002
}
1000
LType
1070
     4
1000
BYLAYER
1002
{
1002
}
1002
}
1000
TXT7
1070
     9
1000
6
1002
{
1000
Class
1070
     4
1000
SYM
1002
{
1002
}
1000
Color
1070
     1
1070
     7
1002
{
1002
}
1000
LType
1070
     4
1000
BYLAYER
1002
{
1002
}
1002
}
1000
VIEW
1070
     9
1000
VIEW
1002
{
1000
Class
1070
     4
1000
SPZ
1002
{
1002
}
1000
Color
1070
     1
1070
   256
1002
{
1002
}
1000
LType
1070
     4
1000
BYLAYER
1002
{
1002
}
1002
}
1000
VPLI
1070
     9
1000
2A
1002
{
1000
Class
1070
     4
1000

1002
{
1002
}
1000
Color
1070
     1
1070
   256
1002
{
1002
}
1000
LType
1070
     4
1000
BYLAYER
1002
{
1002
}
1002
}
1000
ZIZA
1070
     9
1000
4
1002
{
1000
Class
1070
     4
1000
BGD
1002
{
1002
}
1000
Color
1070
     1
1070
   256
1002
{
1002
}
1000
LType
1070
     4
1000
GENZIGZAG
1002
{
1002
}
1002
}
  0
APPID
  5
264
330
1DE
100
AcDbSymbolTableRecord
100
AcDbRegAppTableRecord
  2
GENIUS_GENCFG4_13
 70
     0
1001
GENIUS_GENCFG_13
1071
1021306048
1000
264
1000
GEN
1070
     9
1000
GenCfgObject
1000
GenCfgShort
1000
GenCfgReal
1000
GenCfgBool
1000
GenCfgString
1000
GenCfgDim
1000
GenCfgLaySection
1000
GenCfgLType
1000
GenCfgFilter
1000
Balloon
1070
     0
1002
{
1000
GenIF
1070
     1
1070
     0
1002
{
1002
}
1000
GenPosInc
1070
     1
1070
     1
1002
{
1002
}
1000
GenPosBlk
1070
     1
1070
     8
1002
{
1002
}
1000
GenPosVar
1070
     1
1070
     0
1002
{
1002
}
1000
GenZiCir
1070
     2
1040
1.5
1002
{
1002
}
1000
MaxCharForCenteredText
1070
     1
1070
    30
1002
{
1002
}
1000
Snap
1070
     0
1002
{
1000
ActivationRadius
1070
     2
1040
1.0
1002
{
1002
}
1000
M
1070
     0
1002
{
1000
SnapStepX
1070
     2
1040
20.0
1002
{
1002
}
1000
SnapStepY
1070
     2
1040
10.0
1002
{
1002
}
1002
}
1000
I
1070
     0
1002
{
1000
SnapStepX
1070
     2
1040
1.0
1002
{
1002
}
1000
SnapStepY
1070
     2
1040
0.5
1002
{
1002
}
1002
}
1002
}
1002
}
1000
Centerline
1070
     0
1002
{
1000
ScaleNot
1070
     3
1070
     0
1002
{
1002
}
1000
M
1070
     0
1002
{
1000
GenCenAng
1070
     4
1000
45|90|135
1002
{
1002
}
1000
GenCenDia
1070
     2
1040
10.0
1002
{
1002
}
1000
GenCenDias
1070
     4
1000
10|20|30
1002
{
1002
}
1000
GenCenDist
1070
     2
1040
3.0
1002
{
1002
}
1000
GenCenLen
1070
     2
1040
10.0
1002
{
1002
}
1000
GenCenOff
1070
     2
1040
10.0
1002
{
1002
}
1002
}
1000
I
1070
     0
1002
{
1000
GenCenAng
1070
     4
1000
45|90|135
1002
{
1002
}
1000
GenCenDia
1070
     2
1040
0.5
1002
{
1002
}
1000
GenCenDias
1070
     4
1000
0.5|1.0|1.5
1002
{
1002
}
1000
GenCenDist
1070
     2
1040
0.125
1002
{
1002
}
1000
GenCenLen
1070
     2
1040
0.5
1002
{
1002
}
1000
GenCenOff
1070
     2
1040
0.5
1002
{
1002
}
1002
}
1002
}
1000
CLine
1070
     0
1002
{
1000
CAngArray
1070
     4
1000
30|45|60
1002
{
1002
}
1000
Typ
1070
     4
1000
XLINE
1002
{
1002
}
1000
M
1070
     0
1002
{
1000
CLinArray
1070
     4
1000
10|20|30
1002
{
1002
}
1002
}
1000
I
1070
     0
1002
{
1000
CLinArray
1070
     4
1000
0.125|0.25|0.5
1002
{
1002
}
1002
}
1002
}
1000
Detail
1070
     0
1002
{
1002
}
1000
Dimension
1070
     5
1002
{
1000
DIMALT
1070
     1
1070
     0
1002
{
1002
}
1000
DIMALTD
1070
     1
1070
     2
1002
{
1002
}
1000
DIMALTTD
1070
     1
1070
     4
1002
{
1002
}
1000
DIMALTTZ
1070
     1
1070
     0
1002
{
1002
}
1000
DIMALTU
1070
     1
1070
     2
1002
{
1002
}
1000
DIMALTZ
1070
     1
1070
     0
1002
{
1002
}
1000
DIMAUNIT
1070
     1
1070
     0
1002
{
1002
}
1000
DIMBLK
1070
     4
1000

1002
{
1002
}
1000
DIMBLK1
1070
     4
1000

1002
{
1002
}
1000
DIMBLK2
1070
     4
1000

1002
{
1002
}
1000
DIMCLRD
1070
     1
1070
   256
1002
{
1002
}
1000
DIMCLRE
1070
     1
1070
   256
1002
{
1002
}
1000
DIMCLRT
1070
     1
1070
     2
1002
{
1002
}
1000
DIMDLE
1070
     2
1040
0.0
1002
{
1002
}
1000
DIMFIT
1070
     1
1070
     3
1002
{
1002
}
1000
DIMJUST
1070
     1
1070
     0
1002
{
1002
}
1000
DIMLFAC
1070
     2
1040
1.0
1002
{
1002
}
1000
DIMLIM
1070
     1
1070
     0
1002
{
1002
}
1000
DIMPOST
1070
     4
1000
<>
1002
{
1002
}
1000
DIMRND
1070
     2
1040
0.0
1002
{
1002
}
1000
DIMSAH
1070
     1
1070
     0
1002
{
1002
}
1000
DIMSCALE
1070
     2
1040
1.0
1002
{
1002
}
1000
DIMSD1
1070
     1
1070
     0
1002
{
1002
}
1000
DIMSD2
1070
     1
1070
     0
1002
{
1002
}
1000
DIMSE1
1070
     1
1070
     0
1002
{
1002
}
1000
DIMSE2
1070
     1
1070
     0
1002
{
1002
}
1000
DIMSOXD
1070
     1
1070
     0
1002
{
1002
}
1000
DIMTAD
1070
     1
1070
     0
1002
{
1002
}
1000
DIMTFAC
1070
     2
1040
0.71
1002
{
1002
}
1000
DIMTIH
1070
     1
1070
     0
1002
{
1002
}
1000
DIMTIX
1070
     1
1070
     0
1002
{
1002
}
1000
DIMTM
1070
     2
1040
0.1
1002
{
1002
}
1000
DIMTOFL
1070
     1
1070
     0
1002
{
1002
}
1000
DIMTOH
1070
     1
1070
     0
1002
{
1002
}
1000
DIMTOL
1070
     1
1070
     0
1002
{
1002
}
1000
DIMTOLJ
1070
     1
1070
     1
1002
{
1002
}
1000
DIMTP
1070
     2
1040
0.1
1002
{
1002
}
1000
DIMTSZ
1070
     2
1040
0.0
1002
{
1002
}
1000
DIMTVP
1070
     2
1040
0.0
1002
{
1002
}
1000
DIMTXSTY
1070
     4
1000
STANDARD
1002
{
1002
}
1000
DIMTZIN
1070
     1
1070
     0
1002
{
1002
}
1000
DIMUNIT
1070
     1
1070
     2
1002
{
1002
}
1000
DIMUPT
1070
     1
1070
     0
1002
{
1002
}
1000
M
1070
     0
1002
{
1000
DIMALTF
1070
     2
1040
0.03937
1002
{
1002
}
1000
DIMAPOST
1070
     4
1000
"
1002
{
1002
}
1000
DIMASZ
1070
     2
1040
2.5
1002
{
1002
}
1000
DIMCEN
1070
     2
1040
0.0
1002
{
1002
}
1000
DIMDEC
1070
     1
1070
     2
1002
{
1002
}
1000
DIMDLI
1070
     2
1040
7.0
1002
{
1002
}
1000
DIMEXE
1070
     2
1040
1.0
1002
{
1002
}
1000
DIMEXO
1070
     2
1040
1.0
1002
{
1002
}
1000
DIMGAP
1070
     2
1040
0.6
1002
{
1002
}
1000
DIMTDEC
1070
     1
1070
     3
1002
{
1002
}
1000
DIMTXT
1070
     2
1040
3.5
1002
{
1002
}
1000
DIMZIN
1070
     1
1070
     8
1002
{
1002
}
1002
}
1000
I
1070
     0
1002
{
1000
DIMALTF
1070
     2
1040
25.4
1002
{
1002
}
1000
DIMAPOST
1070
     4
1000
mm
1002
{
1002
}
1000
DIMASZ
1070
     2
1040
0.1
1002
{
1002
}
1000
DIMCEN
1070
     2
1040
0.0
1002
{
1002
}
1000
DIMDEC
1070
     1
1070
     4
1002
{
1002
}
1000
DIMDLI
1070
     2
1040
0.5
1002
{
1002
}
1000
DIMEXE
1070
     2
1040
0.1
1002
{
1002
}
1000
DIMEXO
1070
     2
1040
0.05
1002
{
1002
}
1000
DIMGAP
1070
     2
1040
0.06
1002
{
1002
}
1000
DIMTDEC
1070
     1
1070
     4
1002
{
1002
}
1000
DIMTXT
1070
     2
1040
0.12
1002
{
1002
}
1000
DIMZIN
1070
     1
1070
     7
1002
{
1002
}
1002
}
1000
GEN-ISO
1070
     5
1002
{
1000
NAME
1070
     4
1000
GEN-ISO
1002
{
1002
}
1000
DIMTAD
1070
     1
1070
     1
1002
{
1002
}
1000
DIMTOLJ
1070
     1
1070
     0
1002
{
1002
}
1000
DIMTOFL
1070
     1
1070
     1
1002
{
1002
}
1000
M
1070
     0
1002
{
1002
}
1000
I
1070
     0
1002
{
1002
}
1002
}
1000
GEN-ISO-POS
1070
     5
1002
{
1000
NAME
1070
     4
1000
GEN-ISO-POS
1002
{
1002
}
1000
DIMTOLJ
1070
     1
1070
     0
1002
{
1002
}
1000
DIMTXSTY
1070
     4
1000
STANDARD
1002
{
1002
}
1000
M
1070
     0
1002
{
1000
DIMASZ
1070
     2
1040
2.5
1002
{
1002
}
1000
DIMGAP
1070
     2
1040
1.5
1002
{
1002
}
1000
DIMTXT
1070
     2
1040
5.0
1002
{
1002
}
1002
}
1000
I
1070
     0
1002
{
1000
DIMASZ
1070
     2
1040
0.1
1002
{
1002
}
1000
DIMGAP
1070
     2
1040
0.06
1002
{
1002
}
1000
DIMTXT
1070
     2
1040
0.2
1002
{
1002
}
1002
}
1002
}
1000
GEN-ISO-CIR
1070
     5
1002
{
1000
NAME
1070
     4
1000
GEN-ISO$3
1002
{
1002
}
1000
DIMFIT
1070
     1
1070
     0
1002
{
1002
}
1000
DIMTAD
1070
     1
1070
     1
1002
{
1002
}
1000
DIMTOH
1070
     1
1070
     1
1002
{
1002
}
1000
DIMTOLJ
1070
     1
1070
     0
1002
{
1002
}
1000
DIMUPT
1070
     1
1070
     1
1002
{
1002
}
1000
M
1070
     0
1002
{
1002
}
1000
I
1070
     0
1002
{
1002
}
1002
}
1000
GEN-ISO-RAD
1070
     5
1002
{
1000
NAME
1070
     4
1000
GEN-ISO$4
1002
{
1002
}
1000
DIMFIT
1070
     1
1070
     0
1002
{
1002
}
1000
DIMTAD
1070
     1
1070
     1
1002
{
1002
}
1000
DIMTIH
1070
     1
1070
     0
1002
{
1002
}
1000
DIMTIX
1070
     1
1070
     0
1002
{
1002
}
1000
DIMTOH
1070
     1
1070
     1
1002
{
1002
}
1000
DIMTOLJ
1070
     1
1070
     0
1002
{
1002
}
1000
DIMTOFL
1070
     1
1070
     0
1002
{
1002
}
1000
DIMUPT
1070
     1
1070
     1
1002
{
1002
}
1000
M
1070
     0
1002
{
1002
}
1000
I
1070
     0
1002
{
1002
}
1002
}
1000
GEN-ISO-ORD
1070
     5
1002
{
1000
NAME
1070
     4
1000
GEN-ISO$6
1002
{
1002
}
1000
DIMTOLJ
1070
     1
1070
     0
1002
{
1002
}
1000
M
1070
     0
1002
{
1002
}
1000
I
1070
     0
1002
{
1002
}
1002
}
1000
GEN-ISO-AXE-F
1070
     5
1002
{
1000
NAME
1070
     4
1000
GEN-ISO-AXE-F
1002
{
1002
}
1000
DIMSE1
1070
     1
1070
     1
1002
{
1002
}
1000
DIMSE2
1070
     1
1070
     1
1002
{
1002
}
1000
DIMTAD
1070
     1
1070
     1
1002
{
1002
}
1000
DIMTOLJ
1070
     1
1070
     0
1002
{
1002
}
1000
DIMTOFL
1070
     1
1070
     1
1002
{
1002
}
1000
M
1070
     0
1002
{
1002
}
1000
I
1070
     0
1002
{
1002
}
1002
}
1000
GEN-ISO-AXE-H
1070
     5
1002
{
1000
NAME
1070
     4
1000
GEN-ISO-AXE-H
1002
{
1002
}
1000
DIMBLK1
1070
     4
1000
GENAXEH
1002
{
1002
}
1000
DIMLFAC
1070
     2
1040
2.0
1002
{
1002
}
1000
DIMSAH
1070
     1
1070
     1
1002
{
1002
}
1000
DIMSE1
1070
     1
1070
     1
1002
{
1002
}
1000
DIMSE2
1070
     1
1070
     1
1002
{
1002
}
1000
DIMTAD
1070
     1
1070
     1
1002
{
1002
}
1000
DIMTOLJ
1070
     1
1070
     0
1002
{
1002
}
1000
DIMTOFL
1070
     1
1070
     1
1002
{
1002
}
1000
M
1070
     0
1002
{
1002
}
1000
I
1070
     0
1002
{
1002
}
1002
}
1000
GEN-ANSI
1070
     5
1002
{
1000
NAME
1070
     4
1000
GEN-ANSI
1002
{
1002
}
1000
DIMTIH
1070
     1
1070
     1
1002
{
1002
}
1000
DIMTOH
1070
     1
1070
     1
1002
{
1002
}
1000
DIMTAD
1070
     1
1070
     0
1002
{
1002
}
1000
DIMTOLJ
1070
     1
1070
     1
1002
{
1002
}
1000
M
1070
     0
1002
{
1002
}
1000
I
1070
     0
1002
{
1002
}
1002
}
1000
GEN-ANSI-POS
1070
     5
1002
{
1000
NAME
1070
     4
1000
GEN-ANSI-POS
1002
{
1002
}
1000
DIMTOLJ
1070
     1
1070
     1
1002
{
1002
}
1000
DIMTXSTY
1070
     4
1000
STANDARD
1002
{
1002
}
1000
M
1070
     0
1002
{
1000
DIMASZ
1070
     2
1040
2.5
1002
{
1002
}
1000
DIMGAP
1070
     2
1040
1.5
1002
{
1002
}
1000
DIMTXT
1070
     2
1040
5.0
1002
{
1002
}
1002
}
1000
I
1070
     0
1002
{
1000
DIMASZ
1070
     2
1040
0.1
1002
{
1002
}
1000
DIMGAP
1070
     2
1040
0.06
1002
{
1002
}
1000
DIMTXT
1070
     2
1040
0.2
1002
{
1002
}
1002
}
1002
}
1000
GEN-ANSI-CIR
1070
     5
1002
{
1000
NAME
1070
     4
1000
GEN-ANSI$3
1002
{
1002
}
1000
DIMFIT
1070
     1
1070
     0
1002
{
1002
}
1000
DIMTAD
1070
     1
1070
     0
1002
{
1002
}
1000
DIMTIH
1070
     1
1070
     1
1002
{
1002
}
1000
DIMTIX
1070
     1
1070
     0
1002
{
1002
}
1000
DIMTOFL
1070
     1
1070
     0
1002
{
1002
}
1000
DIMTOH
1070
     1
1070
     1
1002
{
1002
}
1000
DIMTOLJ
1070
     1
1070
     1
1002
{
1002
}
1000
DIMUPT
1070
     1
1070
     1
1002
{
1002
}
1000
M
1070
     0
1002
{
1002
}
1000
I
1070
     0
1002
{
1002
}
1002
}
1000
GEN-ANSI-RAD
1070
     5
1002
{
1000
NAME
1070
     4
1000
GEN-ANSI$4
1002
{
1002
}
1000
DIMFIT
1070
     1
1070
     0
1002
{
1002
}
1000
DIMTAD
1070
     1
1070
     0
1002
{
1002
}
1000
DIMTIH
1070
     1
1070
     1
1002
{
1002
}
1000
DIMTIX
1070
     1
1070
     0
1002
{
1002
}
1000
DIMTOFL
1070
     1
1070
     0
1002
{
1002
}
1000
DIMTOH
1070
     1
1070
     1
1002
{
1002
}
1000
DIMTOLJ
1070
     1
1070
     1
1002
{
1002
}
1000
DIMUPT
1070
     1
1070
     1
1002
{
1002
}
1000
M
1070
     0
1002
{
1002
}
1000
I
1070
     0
1002
{
1002
}
1002
}
1000
GEN-ANSI-ORD
1070
     5
1002
{
1000
NAME
1070
     4
1000
GEN-ANSI$6
1002
{
1002
}
1000
DIMTAD
1070
     1
1070
     0
1002
{
1002
}
1000
DIMTIH
1070
     1
1070
     1
1002
{
1002
}
1000
DIMTOH
1070
     1
1070
     1
1002
{
1002
}
1000
DIMTOLJ
1070
     1
1070
     1
1002
{
1002
}
1000
M
1070
     0
1002
{
1002
}
1000
I
1070
     0
1002
{
1002
}
1002
}
1000
GEN-ANSI-AXE-F
1070
     5
1002
{
1000
NAME
1070
     4
1000
GEN-ANSI-AXE-F
1002
{
1002
}
1000
DIMBLK1
1070
     4
1000
GENAXEH
1002
{
1002
}
1000
DIMSAH
1070
     1
1070
     1
1002
{
1002
}
1000
DIMSE1
1070
     1
1070
     1
1002
{
1002
}
1000
DIMSE2
1070
     1
1070
     1
1002
{
1002
}
1000
DIMTAD
1070
     1
1070
     0
1002
{
1002
}
1000
DIMTIH
1070
     1
1070
     1
1002
{
1002
}
1000
DIMTOH
1070
     1
1070
     1
1002
{
1002
}
1000
DIMTOLJ
1070
     1
1070
     1
1002
{
1002
}
1000
M
1070
     0
1002
{
1002
}
1000
I
1070
     0
1002
{
1002
}
1002
}
1000
GEN-ANSI-AXE-H
1070
     5
1002
{
1000
NAME
1070
     4
1000
GEN-ANSI-AXE-H
1002
{
1002
}
1000
DIMBLK1
1070
     4
1000
GENAXEH
1002
{
1002
}
1000
DIMLFAC
1070
     2
1040
2.0
1002
{
1002
}
1000
DIMSAH
1070
     1
1070
     1
1002
{
1002
}
1000
DIMSE1
1070
     1
1070
     1
1002
{
1002
}
1000
DIMSE2
1070
     1
1070
     1
1002
{
1002
}
1000
DIMTAD
1070
     1
1070
     0
1002
{
1002
}
1000
DIMTOFL
1070
     1
1070
     1
1002
{
1002
}
1000
DIMTOLJ
1070
     1
1070
     1
1002
{
1002
}
1000
M
1070
     0
1002
{
1002
}
1000
I
1070
     0
1002
{
1002
}
1002
}
1002
}
1000
DimSet
1070
     0
1002
{
1000
ChainSum
1070
     3
1070
     0
1002
{
1002
}
1000
DimDclTyp0
1070
     4
1000
dim23
1002
{
1002
}
1000
HorBra
1070
     3
1070
     0
1002
{
1002
}
1000
StrDia
1070
     4
1000
%%c<>
1002
{
1002
}
1000
StrRad
1070
     4
1000
R<>
1002
{
1002
}
1000
TextMinus
1070
     4
1000
<>
1002
{
1002
}
1000
TextPlus
1070
     4
1000
<>
1002
{
1002
}
1000
M
1070
     0
1002
{
1000
DimdliFirst
1070
     2
1040
10.0
1002
{
1002
}
1000
PointMakeDist
1070
     2
1040
10.0
1002
{
1002
}
1002
}
1000
I
1070
     0
1002
{
1000
DimdliFirst
1070
     2
1040
0.5
1002
{
1002
}
1000
PointMakeDist
1070
     2
1040
0.5
1002
{
1002
}
1002
}
1000
FitGrade
1070
     4
1000
h7
1002
{
1002
}
1002
}
1000
Drawing
1070
     0
1002
{
1000
ChamferDimMode
1070
     1
1070
     2
1002
{
1002
}
1000
Gen_Fiso
1070
    -3
1040
1.0
1002
{
1002
}
1000
GenDimStil
1070
     4
1000
ISO
1002
{
1002
}
1000
GenDwgUScale
1070
     2
1040
1.0
1002
{
1002
}
1000
GenInch
1070
     4
1000
M
1002
{
1002
}
1000
GenPlotScale
1070
     4
1000
1:5
1002
{
1002
}
1000
Revisi
1070
     4
1000
0
1002
{
1002
}
1000
Version
1070
    -5
1000
14.01/Apr  1 1998
1002
{
1002
}
1000
Platform
1070
    -5
1000
WINNT
1002
{
1002
}
1002
}
1000
DwgVar
1070
     0
1002
{
1000
M
1070
     0
1002
{
1002
}
1000
I
1070
     0
1002
{
1002
}
1002
}
1000
Hatch
1070
     0
1002
{
1000
GenHtcFlag
1070
     3
1070
     0
1002
{
1002
}
1002
}
1000
Info_Pos
1070
     0
1002
{
1000
>
1002
}
1000
Layer
1070
     6
1002
{
1000
Defs
1070
     0
1002
{
1000
>
1002
}
1000
EntSort
1070
     0
1002
{
1000
>
1002
}
1000
Match
1070
     0
1002
{
1002
}
1000
Settings
1070
     0
1002
{
1000
FocGrNC
1070
     3
1070
     0
1002
{
1002
}
1000
FocGrLo
1070
     3
1070
     0
1002
{
1002
}
1000
FocLoNC
1070
     3
1070
     0
1002
{
1002
}
1000
FocusCol
1070
     1
1070
   253
1002
{
1002
}
1000
GenStdLG
1070
     4
1000

1002
{
1002
}
1000
LayMatch
1070
     3
1070
     0
1002
{
1002
}
1000
LgOff
1070
     3
1070
     0
1002
{
1002
}
1000
CurLG
1070
    -5
1000

1002
{
1002
}
1002
}
1002
}
1000
LType
1070
     0
1002
{
1000
GEN3
1070
     7
1000
genius.lin
1002
{
1002
}
1000
GEN7
1070
     7
1000
genius.lin
1002
{
1002
}
1000
GEN4A
1070
     7
1000
genius.lin
1002
{
1002
}
1000
GEN3A
1070
     7
1000
genius.lin
1002
{
1002
}
1000
GEN7A
1070
     7
1000
genius.lin
1002
{
1002
}
1000
GENZIGZAG
1070
     7
1000
genius.lin
1002
{
1002
}
1002
}
1000
Objecter
1070
     0
1002
{
1000
CreateGroups
1070
     3
1070
     0
1002
{
1002
}
1000
LaySwitch
1070
     3
1070
     1
1002
{
1002
}
1000
LastObj
1070
    -5
1000
28C
1002
{
1002
}
1000
TimeStamp
1070
    -5
1000
20020513.18071829
1002
{
1002
}
1002
}
1000
OSWiz
1070
     0
1002
{
1000
Filter
1070
     0
1002
{
1000
HATCH
1070
     8
1002
{
1000
EntityType
1070
     4
1000
LINE
1002
{
1002
}
1000
Layer
1070
     4
1000
8,8N,*-8,*-8N
1002
{
1002
}
1000
Linetype
1070
     4
1000
*
1002
{
1002
}
1000
Color
1070
     4
1000
*
1002
{
1002
}
1000
ApplyInDims
1070
     3
1070
     1
1002
{
1002
}
1002
}
1000
SYMBOLS
1070
     8
1002
{
1000
EntityType
1070
     4
1000
*
1002
{
1002
}
1000
Layer
1070
     4
1000
[5-6],[5-6]N,*-[5-6],*-[5-6]N
1002
{
1002
}
1000
Linetype
1070
     4
1000
*
1002
{
1002
}
1000
Color
1070
     4
1000
*
1002
{
1002
}
1000
ApplyInDims
1070
     3
1070
     1
1002
{
1002
}
1002
}
1000
FEM
1070
     8
1002
{
1000
EntityType
1070
     4
1000
*
1002
{
1002
}
1000
Layer
1070
     4
1000
4A,4AN,*-4A,*-4AN
1002
{
1002
}
1000
Linetype
1070
     4
1000
*
1002
{
1002
}
1000
Color
1070
     4
1000
*
1002
{
1002
}
1000
ApplyInDims
1070
     3
1070
     1
1002
{
1002
}
1002
}
1002
}
1002
}
1000
PaList
1070
     0
1002
{
1000
AutoUpdatePartList
1070
     1
1070
     0
1002
{
1002
}
1000
ReadInfoPoint
1070
     3
1070
     0
1002
{
1002
}
1000
ReadPosNr
1070
     3
1070
     1
1002
{
1002
}
1000
RevStr
1070
     4
1000
0
1002
{
1002
}
1002
}
1000
Paper
1070
     0
1002
{
1000
Layer
1070
    -5
1000
KLIN
1002
{
1002
}
1002
}
1000
PartDB
1070
     0
1002
{
1000
GenDbOwner
1070
     4
1000

1002
{
1002
}
1002
}
1000
System
1070
     0
1002
{
1000
Menu
1070
     4
1000
GEV
1002
{
1002
}
1002
}
1000
Title
1070
     0
1002
{
1000
MakeView
1070
     1
1070
     2
1002
{
1002
}
1002
}
1000
Tools
1070
     0
1002
{
1000
Trans
1070
     0
1002
{
1000
Drawingtranslation
1070
    -4
1070
     1
1002
{
1002
}
1000
upreserve
1070
     3
1070
     0
1002
{
1002
}
1000
originally_on
1070
    -4
1070
     0
1002
{
1002
}
1000
sourcelang
1070
    -5
1000
D
1002
{
1002
}
1002
}
1002
}
  0
APPID
  5
265
330
1DE
100
AcDbSymbolTableRecord
100
AcDbRegAppTableRecord
  2
GENIUS_GEVCFG0_13
 70
     0
1001
GENIUS_GENCFG_13
1071
1021306043
1000
265
1000
GEV
1070
     1
1000
GenCfgObject
1000
VED
1070
     0
1002
{
1002
}
  0
APPID
  5
266
330
1DE
100
AcDbSymbolTableRecord
100
AcDbRegAppTableRecord
  2
GEV_VCCNULL_SWITCH_OFF
 70
     0
  0
APPID
  5
267
330
1DE
100
AcDbSymbolTableRecord
100
AcDbRegAppTableRecord
  2
GENIUS_GENBLLY_14
 70
     0
  0
APPID
  5
268
330
1DE
100
AcDbSymbolTableRecord
100
AcDbRegAppTableRecord
  2
GENIUS_GEFCFG0_13
 70
     0
  0
APPID
  5
269
330
1DE
100
AcDbSymbolTableRecord
100
AcDbRegAppTableRecord
  2
GENIUS_GENREC_14
 70
     0
  0
APPID
  5
26A
330
1DE
100
AcDbSymbolTableRecord
100
AcDbRegAppTableRecord
  2
GENIUS_GENOBJ-N-SDF_13
 70
     0
  0
APPID
  5
26B
330
1DE
100
AcDbSymbolTableRecord
100
AcDbRegAppTableRecord
  2
GENIUS_GENSCREG_13
 70
     0
  0
APPID
  5
26C
330
1DE
100
AcDbSymbolTableRecord
100
AcDbRegAppTableRecord
  2
GENIUS_GENBLKED_14
 70
     0
  0
APPID
  5
712
330
1DE
100
AcDbSymbolTableRecord
100
AcDbRegAppTableRecord
  2
MCAD_NO_VIS
 70
     0
  0
APPID
  5
713
330
1DE
100
AcDbSymbolTableRecord
100
AcDbRegAppTableRecord
  2
ACAD_TEMP_GRAPHIC
 70
     0
  0
APPID
  5
725
330
1DE
100
AcDbSymbolTableRecord
100
AcDbRegAppTableRecord
  2
ACATTRIBSERVICES
 70
     0
  0
APPID
  5
769
330
1DE
100
AcDbSymbolTableRecord
100
AcDbRegAppTableRecord
  2
GENIUS_GENSCREG_15
 70
     0
  0
APPID
  5
7F5
330
1DE
100
AcDbSymbolTableRecord
100
AcDbRegAppTableRecord
  2
AD_DRAW
 70
     0
  0
APPID
  5
817
330
1DE
100
AcDbSymbolTableRecord
100
AcDbRegAppTableRecord
  2
DESIGNERASSEMBLIES
 70
     0
  0
APPID
  5
81C
330
1DE
100
AcDbSymbolTableRecord
100
AcDbRegAppTableRecord
  2
ACADM_DIM_EDIT
 70
     0
  0
APPID
  5
81D
330
1DE
100
AcDbSymbolTableRecord
100
AcDbRegAppTableRecord
  2
AMDT_DM_ADJ
 70
     0
  0
APPID
  5
839
330
1DE
100
AcDbSymbolTableRecord
100
AcDbRegAppTableRecord
  2
ACAD_DSTYLE_DIMARC_LENGTH_SYMBOL
 70
     0
  0
APPID
  5
83A
330
1DE
100
AcDbSymbolTableRecord
100
AcDbRegAppTableRecord
  2
ACAD_DSTYLE_DIMJOGGED_JOGANGLE_SYMBOL
 70
     0
  0
ENDTAB
  0
TABLE
  2
DIMSTYLE
  5
1DF
330
0
100
AcDbSymbolTable
 70
     9
100
AcDbDimStyleTable
 71
     0
  0
DIMSTYLE
105
21B
102
{ACAD_REACTORS
330
5A
330
7A
330
14C
330
663
102
}
330
1DF
100
AcDbSymbolTableRecord
100
AcDbDimStyleTableRecord
  2
GEN-ISO
 70
     0
  3
<>
  4
"
 40
5.0
 41
2.5
 42
1.0
 43
7.0
 44
1.0
 47
0.1
 48
0.1
 73
     0
 74
     0
 77
     1
 78
     8
140
3.5
141
0.0
143
0.03937
146
0.71
147
0.6
172
     1
176
   256
177
   256
178
     2
271
     2
272
     3
274
     4
283
     0
340
1E4
  0
DIMSTYLE
105
756
330
1DF
100
AcDbSymbolTableRecord
100
AcDbDimStyleTableRecord
  2
AM_DIN
 70
     0
  4
"
 40
5.0
 41
2.5
 42
1.0
 43
10.0
 44
1.0
 47
0.1
 48
0.1
 73
     0
 74
     0
 77
     1
 78
     8
140
3.5
141
0.0
143
0.0393701
146
0.71
147
1.5
172
     1
176
   256
177
   256
178
     2
271
     2
272
     3
274
     4
283
     0
284
     8
340
1E4
  0
DIMSTYLE
105
757
330
1DF
100
AcDbSymbolTableRecord
100
AcDbDimStyleTableRecord
  2
AM_DIN$3
 70
     0
  4
"
 40
5.0
 41
2.5
 42
1.0
 43
10.0
 44
1.0
 47
0.1
 48
0.1
 73
     0
 77
     1
 78
     8
140
3.5
141
0.0
143
0.0393701
146
0.71
147
1.5
176
   256
177
   256
178
     2
271
     2
272
     3
274
     4
283
     0
284
     8
288
     1
340
1E4
  0
DIMSTYLE
105
758
330
1DF
100
AcDbSymbolTableRecord
100
AcDbDimStyleTableRecord
  2
AM_DIN$4
 70
     0
  4
"
 40
5.0
 41
2.5
 42
1.0
 43
10.0
 44
1.0
 47
0.1
 48
0.1
 73
     0
 77
     1
 78
     8
140
3.5
141
0.0
143
0.0393701
146
0.71
147
1.5
176
   256
177
   256
178
     2
271
     2
272
     3
274
     4
283
     0
284
     8
288
     1
340
1E4
  0
DIMSTYLE
105
759
330
1DF
100
AcDbSymbolTableRecord
100
AcDbDimStyleTableRecord
  2
AM_DIN$6
 70
     0
  4
"
 40
5.0
 41
2.5
 42
1.0
 43
10.0
 44
1.0
 47
0.1
 48
0.1
 73
     0
 74
     0
 78
     8
140
3.5
141
0.0
143
0.0393701
146
0.71
147
1.5
172
     1
176
   256
177
   256
178
     2
271
     2
272
     3
274
     4
283
     0
284
     8
340
1E4
  0
DIMSTYLE
105
75A
330
1DF
100
AcDbSymbolTableRecord
100
AcDbDimStyleTableRecord
  2
AM_DIN$7
 70
     0
  4
"
 40
5.0
 41
2.5
 42
1.0
 43
10.0
 44
1.0
 47
0.1
 48
0.1
 73
     0
 74
     0
 77
     1
 78
     8
140
5.0
141
0.0
143
0.0393701
146
0.71
147
1.5
172
     1
176
   256
177
   256
178
     2
271
     2
272
     3
274
     4
283
     0
284
     8
340
1E4
  0
DIMSTYLE
105
75B
330
1DF
100
AcDbSymbolTableRecord
100
AcDbDimStyleTableRecord
  2
AM_DIN$SF
 70
     0
  4
"
 40
5.0
 41
2.5
 42
1.0
 43
10.0
 44
1.0
 47
0.1
 48
0.1
 73
     0
 74
     0
 75
     1
 76
     1
 77
     1
 78
     8
140
3.5
141
0.0
143
0.0393701
146
0.71
147
1.5
172
     1
176
   256
177
   256
178
     2
271
     2
272
     3
274
     4
283
     0
284
     8
340
1E4
  0
DIMSTYLE
105
760
330
1DF
100
AcDbSymbolTableRecord
100
AcDbDimStyleTableRecord
  2
AM_DIN$SH
 70
     0
  4
"
 40
5.0
 41
2.5
 42
1.0
 43
10.0
 44
1.0
 47
0.1
 48
0.1
 73
     0
 74
     0
 75
     1
 76
     1
 77
     1
 78
     8
140
3.5
141
0.0
143
0.0393701
144
2.0
146
0.71
147
1.5
172
     1
173
     1
176
   256
177
   256
178
     2
271
     2
272
     3
274
     4
283
     0
284
     8
340
1E4
341
75C
343
75C
  0
ENDTAB
  0
TABLE
  2
BLOCK_RECORD
  5
1D6
330
0
100
AcDbSymbolTable
 70
    30
  0
BLOCK_RECORD
  5
1EC
102
{ACAD_XDICTIONARY
360
782
102
}
330
1D6
100
AcDbSymbolTableRecord
100
AcDbBlockTableRecord
  2
*MODEL_SPACE
340
7BD
  0
BLOCK_RECORD
  5
1E9
102
{ACAD_XDICTIONARY
360
7B1
102
}
330
1D6
100
AcDbSymbolTableRecord
100
AcDbBlockTableRecord
  2
*PAPER_SPACE
340
7BE
  0
BLOCK_RECORD
  5
1F4
330
1D6
100
AcDbSymbolTableRecord
100
AcDbBlockTableRecord
  2
*X0
340
0
102
{BLKREFS
331
95
102
}
  0
BLOCK_RECORD
  5
1F5
330
1D6
100
AcDbSymbolTableRecord
100
AcDbBlockTableRecord
  2
*X1
340
0
102
{BLKREFS
331
A9
102
}
  0
BLOCK_RECORD
  5
1F6
330
1D6
100
AcDbSymbolTableRecord
100
AcDbBlockTableRecord
  2
*X2
340
0
102
{BLKREFS
331
E0
102
}
  0
BLOCK_RECORD
  5
1F7
330
1D6
100
AcDbSymbolTableRecord
100
AcDbBlockTableRecord
  2
*X3
340
0
102
{BLKREFS
331
E6
102
}
  0
BLOCK_RECORD
  5
1F8
330
1D6
100
AcDbSymbolTableRecord
100
AcDbBlockTableRecord
  2
*X4
340
0
102
{BLKREFS
331
EC
102
}
  0
BLOCK_RECORD
  5
1F9
330
1D6
100
AcDbSymbolTableRecord
100
AcDbBlockTableRecord
  2
*X5
340
0
102
{BLKREFS
331
F2
102
}
  0
BLOCK_RECORD
  5
1FA
330
1D6
100
AcDbSymbolTableRecord
100
AcDbBlockTableRecord
  2
*X6
340
0
102
{BLKREFS
331
F8
102
}
  0
BLOCK_RECORD
  5
1FB
330
1D6
100
AcDbSymbolTableRecord
100
AcDbBlockTableRecord
  2
*X7
340
0
102
{BLKREFS
331
FE
102
}
  0
BLOCK_RECORD
  5
1FC
330
1D6
100
AcDbSymbolTableRecord
100
AcDbBlockTableRecord
  2
*X8
340
0
102
{BLKREFS
331
104
102
}
  0
BLOCK_RECORD
  5
1FD
330
1D6
100
AcDbSymbolTableRecord
100
AcDbBlockTableRecord
  2
*X9
340
0
102
{BLKREFS
331
10A
102
}
  0
BLOCK_RECORD
  5
1FE
330
1D6
100
AcDbSymbolTableRecord
100
AcDbBlockTableRecord
  2
*X10
340
0
102
{BLKREFS
331
110
102
}
  0
BLOCK_RECORD
  5
1FF
330
1D6
100
AcDbSymbolTableRecord
100
AcDbBlockTableRecord
  2
*X11
340
0
102
{BLKREFS
331
128
102
}
  0
BLOCK_RECORD
  5
202
330
1D6
100
AcDbSymbolTableRecord
100
AcDbBlockTableRecord
  2
*X12
340
0
102
{BLKREFS
331
159
102
}
  0
BLOCK_RECORD
  5
203
330
1D6
100
AcDbSymbolTableRecord
100
AcDbBlockTableRecord
  2
*X13
340
0
102
{BLKREFS
331
161
102
}
  0
BLOCK_RECORD
  5
204
330
1D6
100
AcDbSymbolTableRecord
100
AcDbBlockTableRecord
  2
*X14
340
0
102
{BLKREFS
331
16A
102
}
  0
BLOCK_RECORD
  5
205
330
1D6
100
AcDbSymbolTableRecord
100
AcDbBlockTableRecord
  2
*X15
340
0
102
{BLKREFS
331
172
102
}
  0
BLOCK_RECORD
  5
22D
330
1D6
100
AcDbSymbolTableRecord
100
AcDbBlockTableRecord
  2
KATALOG_LEER
340
0
102
{BLKREFS
331
26E
331
28B
102
}
  0
BLOCK_RECORD
  5
28D
330
1D6
100
AcDbSymbolTableRecord
100
AcDbBlockTableRecord
  2
*D18
340
0
  0
BLOCK_RECORD
  5
29F
330
1D6
100
AcDbSymbolTableRecord
100
AcDbBlockTableRecord
  2
*D19
340
0
  0
BLOCK_RECORD
  5
300
330
1D6
100
AcDbSymbolTableRecord
100
AcDbBlockTableRecord
  2
*D22
340
0
  0
BLOCK_RECORD
  5
6B0
330
1D6
100
AcDbSymbolTableRecord
100
AcDbBlockTableRecord
  2
*D23
340
0
  0
BLOCK_RECORD
  5
75C
330
1D6
100
AcDbSymbolTableRecord
100
AcDbBlockTableRecord
  2
GENAXEH
340
0
  0
ENDTAB
  0
ENDSEC
  0
SECTION
  2
BLOCKS
  0
BLOCK
  5
226
330
1EC
100
AcDbEntity
  8
0
100
AcDbBlockBegin
  2
*MODEL_SPACE
 70
     0
 10
0.0
 20
0.0
 30
0.0
  3
*MODEL_SPACE
  1

  0
ENDBLK
  5
227
330
1EC
100
AcDbEntity
  8
0
100
AcDbBlockEnd
  0
BLOCK
  5
224
330
1E9
100
AcDbEntity
 67
     1
  8
0
100
AcDbBlockBegin
  2
*PAPER_SPACE
 70
     0
 10
0.0
 20
0.0
 30
0.0
  3
*PAPER_SPACE
  1

  0
ENDBLK
  5
225
330
1E9
100
AcDbEntity
 67
     1
  8
0
100
AcDbBlockEnd
  0
BLOCK
  5
A3
330
1F4
100
AcDbEntity
  8
0
100
AcDbBlockBegin
  2
*X0
 70
     1
 10
0.0
 20
0.0
 30
0.0
  3
*X0
  1
GEVFRAME
  0
LINE
  5
98
330
1F4
100
AcDbEntity
  8
0
 62
     0
100
AcDbLine
 10
199.4963309999999
 20
329.603978
 30
0.0
 11
204.4963309999999
 21
334.6039779999999
 31
0.0
  0
LINE
  5
99
330
1F4
100
AcDbEntity
  8
0
 62
     0
100
AcDbLine
 10
211.662556
 20
341.770203
 30
0.0
 11
211.996331
 21
342.103978
 31
0.0
  0
LINE
  5
9A
330
1F4
100
AcDbEntity
  8
0
 62
     0
100
AcDbLine
 10
192.990948
 20
329.603978
 30
0.0
 11
197.990948
 21
334.6039779999999
 31
0.0
  0
LINE
  5
9B
330
1F4
100
AcDbEntity
  8
0
 62
     0
100
AcDbLine
 10
206.0017129999999
 20
329.603978
 30
0.0
 11
211.001713
 21
334.6039779999999
 31
0.0
  0
LINE
  5
9C
330
1F4
100
AcDbEntity
  8
0
 62
     0
100
AcDbLine
 10
211.662556
 20
335.2648209999999
 30
0.0
 11
216.6625559999999
 21
340.2648209999999
 31
0.0
  0
LINE
  5
9D
330
1F4
100
AcDbEntity
  8
0
 62
     0
100
AcDbLine
 10
212.507095
 20
329.603978
 30
0.0
 11
216.6625559999999
 21
333.759439
 31
0.0
  0
LINE
  5
9E
330
1F4
100
AcDbEntity
  8
0
 62
     0
100
AcDbLine
 10
210.3427599999999
 20
329.603978
 30
0.0
 11
205.34276
 21
334.6039779999999
 31
0.0
  0
LINE
  5
9F
330
1F4
100
AcDbEntity
  8
0
 62
     0
100
AcDbLine
 10
203.837377
 20
329.603978
 30
0.0
 11
198.837377
 21
334.6039779999999
 31
0.0
  0
LINE
  5
A0
330
1F4
100
AcDbEntity
  8
0
 62
     0
100
AcDbLine
 10
197.331995
 20
329.603978
 30
0.0
 11
192.3319949999999
 21
334.6039779999999
 31
0.0
  0
LINE
  5
A1
330
1F4
100
AcDbEntity
  8
0
 62
     0
100
AcDbLine
 10
216.6625559999999
 20
329.789565
 30
0.0
 11
211.662556
 21
334.7895649999999
 31
0.0
  0
LINE
  5
A2
330
1F4
100
AcDbEntity
  8
0
 62
     0
100
AcDbLine
 10
216.6625559999999
 20
336.294947
 30
0.0
 11
211.662556
 21
341.294947
 31
0.0
  0
ENDBLK
  5
A4
330
1F4
100
AcDbEntity
  8
0
100
AcDbBlockEnd
  0
BLOCK
  5
B7
330
1F5
100
AcDbEntity
  8
0
100
AcDbBlockBegin
  2
*X1
 70
     1
 10
0.0
 20
0.0
 30
0.0
  3
*X1
  1
GEVFRAME
  0
LINE
  5
AB
330
1F5
100
AcDbEntity
  8
0
 62
     0
100
AcDbLine
 10
420.679332
 20
329.603978
 30
0.0
 11
425.679332
 21
334.6039779999999
 31
0.0
  0
LINE
  5
AC
330
1F5
100
AcDbEntity
  8
0
 62
     0
100
AcDbLine
 10
414.662556
 20
330.092585
 30
0.0
 11
419.6625559999998
 21
335.0925849999999
 31
0.0
  0
LINE
  5
AD
330
1F5
100
AcDbEntity
  8
0
 62
     0
100
AcDbLine
 10
414.662556
 20
336.5979669999999
 30
0.0
 11
419.6625559999998
 21
341.597967
 31
0.0
  0
LINE
  5
AE
330
1F5
100
AcDbEntity
  8
0
 62
     0
100
AcDbLine
 10
427.184714
 20
329.603978
 30
0.0
 11
432.184714
 21
334.6039779999999
 31
0.0
  0
LINE
  5
AF
330
1F5
100
AcDbEntity
  8
0
 62
     0
100
AcDbLine
 10
433.690096
 20
329.603978
 30
0.0
 11
438.690096
 21
334.6039779999999
 31
0.0
  0
LINE
  5
B0
330
1F5
100
AcDbEntity
  8
0
 62
     0
100
AcDbLine
 10
431.525761
 20
329.603978
 30
0.0
 11
426.525761
 21
334.6039779999999
 31
0.0
  0
LINE
  5
B1
330
1F5
100
AcDbEntity
  8
0
 62
     0
100
AcDbLine
 10
419.6625559999998
 20
341.467184
 30
0.0
 11
419.0257609999998
 21
342.103978
 31
0.0
  0
LINE
  5
B2
330
1F5
100
AcDbEntity
  8
0
 62
     0
100
AcDbLine
 10
425.0203789999998
 20
329.603978
 30
0.0
 11
420.0203789999997
 21
334.6039779999999
 31
0.0
  0
LINE
  5
B3
330
1F5
100
AcDbEntity
  8
0
 62
     0
100
AcDbLine
 10
419.6625559999998
 20
334.9618009999999
 30
0.0
 11
414.662556
 21
339.9618009999999
 31
0.0
  0
LINE
  5
B4
330
1F5
100
AcDbEntity
  8
0
 62
     0
100
AcDbLine
 10
418.514996
 20
329.603978
 30
0.0
 11
414.662556
 21
333.456419
 31
0.0
  0
LINE
  5
B5
330
1F5
100
AcDbEntity
  8
0
 62
     0
100
AcDbLine
 10
438.0311429999999
 20
329.603978
 30
0.0
 11
433.031143
 21
334.6039779999999
 31
0.0
  0
LINE
  5
B6
330
1F5
100
AcDbEntity
  8
0
 62
     0
100
AcDbLine
 10
439.6625559999998
 20
334.477948
 30
0.0
 11
439.536526
 21
334.6039779999999
 31
0.0
  0
ENDBLK
  5
B8
330
1F5
100
AcDbEntity
  8
0
100
AcDbBlockEnd
  0
BLOCK
  5
E4
330
1F6
100
AcDbEntity
  8
0
100
AcDbBlockBegin
  2
*X2
 70
     1
 10
0.0
 20
0.0
 30
0.0
  3
*X2
  1

  0
LINE
  5
E2
330
1F6
100
AcDbEntity
  8
0
 62
     0
100
AcDbLine
 10
256.848154
 20
445.7331429999999
 30
0.0
 11
255.662556
 21
446.9187419999998
 31
0.0
  0
LINE
  5
E3
330
1F6
100
AcDbEntity
  8
0
 62
     0
100
AcDbLine
 10
263.662556
 20
446.555495
 30
0.0
 11
256.984908
 21
453.233143
 31
0.0
  0
ENDBLK
  5
E5
330
1F6
100
AcDbEntity
  8
0
100
AcDbBlockEnd
  0
BLOCK
  5
EA
330
1F7
100
AcDbEntity
  8
0
100
AcDbBlockBegin
  2
*X3
 70
     1
 10
0.0
 20
0.0
 30
0.0
  3
*X3
  1

  0
LINE
  5
E8
330
1F7
100
AcDbEntity
  8
0
 62
     0
100
AcDbLine
 10
272.1216609999999
 20
445.7331429999999
 30
0.0
 11
271.662556
 21
446.192249
 31
0.0
  0
LINE
  5
E9
330
1F7
100
AcDbEntity
  8
0
 62
     0
100
AcDbLine
 10
279.6625559999999
 20
445.8290019999998
 30
0.0
 11
272.258414
 21
453.233143
 31
0.0
  0
ENDBLK
  5
EB
330
1F7
100
AcDbEntity
  8
0
100
AcDbBlockEnd
  0
BLOCK
  5
F0
330
1F8
100
AcDbEntity
  8
0
100
AcDbBlockBegin
  2
*X4
 70
     1
 10
0.0
 20
0.0
 30
0.0
  3
*X4
  1

  0
LINE
  5
EE
330
1F8
100
AcDbEntity
  8
0
 62
     0
100
AcDbLine
 10
295.0319209999999
 20
445.7331429999999
 30
0.0
 11
287.6625559999999
 21
453.102508
 31
0.0
  0
LINE
  5
EF
330
1F8
100
AcDbEntity
  8
0
 62
     0
100
AcDbLine
 10
295.6625559999999
 20
452.7392619999998
 30
0.0
 11
295.1686739999999
 21
453.233143
 31
0.0
  0
ENDBLK
  5
F1
330
1F8
100
AcDbEntity
  8
0
100
AcDbBlockEnd
  0
BLOCK
  5
F6
330
1F9
100
AcDbEntity
  8
0
100
AcDbBlockBegin
  2
*X5
 70
     1
 10
0.0
 20
0.0
 30
0.0
  3
*X5
  1

  0
LINE
  5
F4
330
1F9
100
AcDbEntity
  8
0
 62
     0
100
AcDbLine
 10
310.305427
 20
445.7331429999999
 30
0.0
 11
303.662556
 21
452.376015
 31
0.0
  0
LINE
  5
F5
330
1F9
100
AcDbEntity
  8
0
 62
     0
100
AcDbLine
 10
311.662556
 20
452.0127679999998
 30
0.0
 11
310.44218
 21
453.233143
 31
0.0
  0
ENDBLK
  5
F7
330
1F9
100
AcDbEntity
  8
0
100
AcDbBlockEnd
  0
BLOCK
  5
FC
330
1FA
100
AcDbEntity
  8
0
100
AcDbBlockBegin
  2
*X6
 70
     1
 10
0.0
 20
0.0
 30
0.0
  3
*X6
  1

  0
LINE
  5
FA
330
1FA
100
AcDbEntity
  8
0
 62
     0
100
AcDbLine
 10
325.578934
 20
445.7331429999999
 30
0.0
 11
319.662556
 21
451.649521
 31
0.0
  0
LINE
  5
FB
330
1FA
100
AcDbEntity
  8
0
 62
     0
100
AcDbLine
 10
327.6625559999999
 20
451.286275
 30
0.0
 11
325.715687
 21
453.233143
 31
0.0
  0
ENDBLK
  5
FD
330
1FA
100
AcDbEntity
  8
0
100
AcDbBlockEnd
  0
BLOCK
  5
102
330
1FB
100
AcDbEntity
  8
0
100
AcDbBlockBegin
  2
*X7
 70
     1
 10
0.0
 20
0.0
 30
0.0
  3
*X7
  1

  0
LINE
  5
100
330
1FB
100
AcDbEntity
  8
0
 62
     0
100
AcDbLine
 10
340.85244
 20
445.7331429999999
 30
0.0
 11
335.6625559999999
 21
450.923028
 31
0.0
  0
LINE
  5
101
330
1FB
100
AcDbEntity
  8
0
 62
     0
100
AcDbLine
 10
343.6625559999998
 20
450.559781
 30
0.0
 11
340.989193
 21
453.233143
 31
0.0
  0
ENDBLK
  5
103
330
1FB
100
AcDbEntity
  8
0
100
AcDbBlockEnd
  0
BLOCK
  5
108
330
1FC
100
AcDbEntity
  8
0
100
AcDbBlockBegin
  2
*X8
 70
     1
 10
0.0
 20
0.0
 30
0.0
  3
*X8
  1

  0
LINE
  5
106
330
1FC
100
AcDbEntity
  8
0
 62
     0
100
AcDbLine
 10
356.125946
 20
445.7331429999999
 30
0.0
 11
351.662556
 21
450.1965339999999
 31
0.0
  0
LINE
  5
107
330
1FC
100
AcDbEntity
  8
0
 62
     0
100
AcDbLine
 10
359.662556
 20
449.8332879999998
 30
0.0
 11
356.2626999999998
 21
453.233143
 31
0.0
  0
ENDBLK
  5
109
330
1FC
100
AcDbEntity
  8
0
100
AcDbBlockEnd
  0
BLOCK
  5
10E
330
1FD
100
AcDbEntity
  8
0
100
AcDbBlockBegin
  2
*X9
 70
     1
 10
0.0
 20
0.0
 30
0.0
  3
*X9
  1

  0
LINE
  5
10C
330
1FD
100
AcDbEntity
  8
0
 62
     0
100
AcDbLine
 10
371.3994529999998
 20
445.7331429999999
 30
0.0
 11
367.662556
 21
449.470041
 31
0.0
  0
LINE
  5
10D
330
1FD
100
AcDbEntity
  8
0
 62
     0
100
AcDbLine
 10
375.6625559999998
 20
449.106794
 30
0.0
 11
371.5362059999998
 21
453.233143
 31
0.0
  0
ENDBLK
  5
10F
330
1FD
100
AcDbEntity
  8
0
100
AcDbBlockEnd
  0
BLOCK
  5
126
330
1FE
100
AcDbEntity
  8
0
100
AcDbBlockBegin
  2
*X10
 70
     1
 10
0.0
 20
0.0
 30
0.0
  3
*X10
  1
GEVFRAME
  0
LINE
  5
112
330
1FE
100
AcDbEntity
  8
0
 62
     0
100
AcDbLine
 10
221.662556
 20
366.3674439999998
 30
0.0
 11
216.6625559999999
 21
371.3674439999999
 31
0.0
  0
LINE
  5
113
330
1FE
100
AcDbEntity
  8
0
 62
     0
100
AcDbLine
 10
221.662556
 20
358.7306899999999
 30
0.0
 11
216.6625559999999
 21
363.73069
 31
0.0
  0
LINE
  5
114
330
1FE
100
AcDbEntity
  8
0
 62
     0
100
AcDbLine
 10
221.662556
 20
351.093937
 30
0.0
 11
216.6625559999999
 21
356.093937
 31
0.0
  0
LINE
  5
115
330
1FE
100
AcDbEntity
  8
0
 62
     0
100
AcDbLine
 10
221.662556
 20
343.4571839999999
 30
0.0
 11
216.6625559999999
 21
348.457184
 31
0.0
  0
LINE
  5
116
330
1FE
100
AcDbEntity
  8
0
 62
     0
100
AcDbLine
 10
221.662556
 20
335.820431
 30
0.0
 11
216.6625559999999
 21
340.8204309999999
 31
0.0
  0
LINE
  5
117
330
1FE
100
AcDbEntity
  8
0
 62
     0
100
AcDbLine
 10
221.662556
 20
328.1836769999999
 30
0.0
 11
216.6625559999999
 21
333.1836769999999
 31
0.0
  0
LINE
  5
118
330
1FE
100
AcDbEntity
  8
0
 62
     0
100
AcDbLine
 10
221.662556
 20
320.5469240000001
 30
0.0
 11
216.6625559999999
 21
325.546924
 31
0.0
  0
LINE
  5
119
330
1FE
100
AcDbEntity
  8
0
 62
     0
100
AcDbLine
 10
221.662556
 20
312.910171
 30
0.0
 11
216.6625559999999
 21
317.9101709999999
 31
0.0
  0
LINE
  5
11A
330
1FE
100
AcDbEntity
  8
0
 62
     0
100
AcDbLine
 10
221.662556
 20
305.2734179999999
 30
0.0
 11
216.6625559999999
 21
310.273418
 31
0.0
  0
LINE
  5
11B
330
1FE
100
AcDbEntity
  8
0
 62
     0
100
AcDbLine
 10
221.662556
 20
297.636665
 30
0.0
 11
216.6625559999999
 21
302.6366649999999
 31
0.0
  0
LINE
  5
11C
330
1FE
100
AcDbEntity
  8
0
 62
     0
100
AcDbLine
 10
221.662556
 20
374.004197
 30
0.0
 11
216.6625559999999
 21
379.004197
 31
0.0
  0
LINE
  5
11D
330
1FE
100
AcDbEntity
  8
0
 62
     0
100
AcDbLine
 10
221.662556
 20
381.6409499999999
 30
0.0
 11
216.6625559999999
 21
386.6409499999999
 31
0.0
  0
LINE
  5
11E
330
1FE
100
AcDbEntity
  8
0
 62
     0
100
AcDbLine
 10
221.662556
 20
389.2777029999999
 30
0.0
 11
216.6625559999999
 21
394.2777029999999
 31
0.0
  0
LINE
  5
11F
330
1FE
100
AcDbEntity
  8
0
 62
     0
100
AcDbLine
 10
221.662556
 20
396.9144569999999
 30
0.0
 11
216.6625559999999
 21
401.9144569999999
 31
0.0
  0
LINE
  5
120
330
1FE
100
AcDbEntity
  8
0
 62
     0
100
AcDbLine
 10
221.662556
 20
404.55121
 30
0.0
 11
216.6625559999999
 21
409.55121
 31
0.0
  0
LINE
  5
121
330
1FE
100
AcDbEntity
  8
0
 62
     0
100
AcDbLine
 10
221.662556
 20
412.1879629999998
 30
0.0
 11
216.6625559999999
 21
417.1879629999998
 31
0.0
  0
LINE
  5
122
330
1FE
100
AcDbEntity
  8
0
 62
     0
100
AcDbLine
 10
221.662556
 20
419.824716
 30
0.0
 11
216.6625559999999
 21
424.824716
 31
0.0
  0
LINE
  5
123
330
1FE
100
AcDbEntity
  8
0
 62
     0
100
AcDbLine
 10
222.037318
 20
427.086707
 30
0.0
 11
216.6625559999999
 21
432.46147
 31
0.0
  0
LINE
  5
124
330
1FE
100
AcDbEntity
  8
0
 62
     0
100
AcDbLine
 10
226.574111
 20
430.1866679999998
 30
0.0
 11
218.027635
 21
438.7331429999998
 31
0.0
  0
LINE
  5
125
330
1FE
100
AcDbEntity
  8
0
 62
     0
100
AcDbLine
 10
231.234428
 20
433.163103
 30
0.0
 11
228.164388
 21
436.233143
 31
0.0
  0
ENDBLK
  5
127
330
1FE
100
AcDbEntity
  8
0
100
AcDbBlockEnd
  0
BLOCK
  5
13D
330
1FF
100
AcDbEntity
  8
0
100
AcDbBlockBegin
  2
*X11
 70
     1
 10
0.0
 20
0.0
 30
0.0
  3
*X11
  1
GEVFRAME
  0
LINE
  5
12A
330
1FF
100
AcDbEntity
  8
0
 62
     0
100
AcDbLine
 10
414.662556
 20
356.6495209999998
 30
0.0
 11
409.6625559999997
 21
361.649521
 31
0.0
  0
LINE
  5
12B
330
1FF
100
AcDbEntity
  8
0
 62
     0
100
AcDbLine
 10
414.662556
 20
349.012768
 30
0.0
 11
409.6625559999997
 21
354.0127679999998
 31
0.0
  0
LINE
  5
12C
330
1FF
100
AcDbEntity
  8
0
 62
     0
100
AcDbLine
 10
414.662556
 20
341.3760149999999
 30
0.0
 11
409.6625559999997
 21
346.376015
 31
0.0
  0
LINE
  5
12D
330
1FF
100
AcDbEntity
  8
0
 62
     0
100
AcDbLine
 10
414.662556
 20
333.739262
 30
0.0
 11
409.6625559999997
 21
338.7392619999999
 31
0.0
  0
LINE
  5
12E
330
1FF
100
AcDbEntity
  8
0
 62
     0
100
AcDbLine
 10
414.662556
 20
326.102508
 30
0.0
 11
409.6625559999997
 21
331.102508
 31
0.0
  0
LINE
  5
12F
330
1FF
100
AcDbEntity
  8
0
 62
     0
100
AcDbLine
 10
414.662556
 20
318.465755
 30
0.0
 11
409.6625559999997
 21
323.465755
 31
0.0
  0
LINE
  5
130
330
1FF
100
AcDbEntity
  8
0
 62
     0
100
AcDbLine
 10
414.662556
 20
310.829002
 30
0.0
 11
409.6625559999997
 21
315.8290019999999
 31
0.0
  0
LINE
  5
131
330
1FF
100
AcDbEntity
  8
0
 62
     0
100
AcDbLine
 10
414.662556
 20
303.1922489999999
 30
0.0
 11
409.6625559999997
 21
308.192249
 31
0.0
  0
LINE
  5
132
330
1FF
100
AcDbEntity
  8
0
 62
     0
100
AcDbLine
 10
414.662556
 20
295.555495
 30
0.0
 11
409.6625559999997
 21
300.555495
 31
0.0
  0
LINE
  5
133
330
1FF
100
AcDbEntity
  8
0
 62
     0
100
AcDbLine
 10
414.662556
 20
364.2862749999999
 30
0.0
 11
409.6625559999997
 21
369.2862749999999
 31
0.0
  0
LINE
  5
134
330
1FF
100
AcDbEntity
  8
0
 62
     0
100
AcDbLine
 10
414.662556
 20
371.923028
 30
0.0
 11
409.6625559999997
 21
376.9230279999999
 31
0.0
  0
LINE
  5
135
330
1FF
100
AcDbEntity
  8
0
 62
     0
100
AcDbLine
 10
414.662556
 20
379.5597809999999
 30
0.0
 11
409.6625559999997
 21
384.559781
 31
0.0
  0
LINE
  5
136
330
1FF
100
AcDbEntity
  8
0
 62
     0
100
AcDbLine
 10
414.662556
 20
387.196534
 30
0.0
 11
409.6625559999997
 21
392.1965339999999
 31
0.0
  0
LINE
  5
137
330
1FF
100
AcDbEntity
  8
0
 62
     0
100
AcDbLine
 10
414.662556
 20
394.8332879999999
 30
0.0
 11
409.6625559999997
 21
399.8332879999999
 31
0.0
  0
LINE
  5
138
330
1FF
100
AcDbEntity
  8
0
 62
     0
100
AcDbLine
 10
414.662556
 20
402.470041
 30
0.0
 11
409.6625559999997
 21
407.470041
 31
0.0
  0
LINE
  5
139
330
1FF
100
AcDbEntity
  8
0
 62
     0
100
AcDbLine
 10
414.662556
 20
410.106794
 30
0.0
 11
409.6625559999997
 21
415.1067939999999
 31
0.0
  0
LINE
  5
13A
330
1FF
100
AcDbEntity
  8
0
 62
     0
100
AcDbLine
 10
414.662556
 20
417.743547
 30
0.0
 11
409.6625559999997
 21
422.7435469999998
 31
0.0
  0
LINE
  5
13B
330
1FF
100
AcDbEntity
  8
0
 62
     0
100
AcDbLine
 10
414.662556
 20
425.3802999999998
 30
0.0
 11
403.8097129999998
 21
436.233143
 31
0.0
  0
LINE
  5
13C
330
1FF
100
AcDbEntity
  8
0
 62
     0
100
AcDbLine
 10
414.662556
 20
433.017054
 30
0.0
 11
408.9464659999999
 21
438.7331429999998
 31
0.0
  0
ENDBLK
  5
13E
330
1FF
100
AcDbEntity
  8
0
100
AcDbBlockEnd
  0
BLOCK
  5
15F
330
202
100
AcDbEntity
  8
0
100
AcDbBlockBegin
  2
*X12
 70
     1
 10
0.0
 20
0.0
 30
0.0
  3
*X12
  1
GEVFRAME
  0
LINE
  5
15B
330
202
100
AcDbEntity
  8
0
 62
     0
100
AcDbLine
 10
233.937895
 20
445.7331429999999
 30
0.0
 11
226.437895
 21
453.233143
 31
0.0
  0
LINE
  5
15C
330
202
100
AcDbEntity
  8
0
 62
     0
100
AcDbLine
 10
226.301141
 20
445.7331429999999
 30
0.0
 11
221.662556
 21
450.3717289999998
 31
0.0
  0
LINE
  5
15D
330
202
100
AcDbEntity
  8
0
 62
     0
100
AcDbLine
 10
241.574648
 20
445.7331429999999
 30
0.0
 11
234.0746479999999
 21
453.233143
 31
0.0
  0
LINE
  5
15E
330
202
100
AcDbEntity
  8
0
 62
     0
100
AcDbLine
 10
247.662556
 20
447.2819889999998
 30
0.0
 11
241.7114009999999
 21
453.233143
 31
0.0
  0
ENDBLK
  5
160
330
202
100
AcDbEntity
  8
0
100
AcDbBlockEnd
  0
BLOCK
  5
168
330
203
100
AcDbEntity
  8
0
100
AcDbBlockBegin
  2
*X13
 70
     1
 10
0.0
 20
0.0
 30
0.0
  3
*X13
  1
GEVFRAME
  0
LINE
  5
163
330
203
100
AcDbEntity
  8
0
 62
     0
100
AcDbLine
 10
225.1625559999999
 20
437.29459
 30
0.0
 11
229.510338
 21
441.642372
 31
0.0
  0
LINE
  5
164
330
203
100
AcDbEntity
  8
0
 62
     0
100
AcDbLine
 10
220.186295
 20
439.3893969999998
 30
0.0
 11
225.4239029999999
 21
444.6270049999998
 31
0.0
  0
LINE
  5
165
330
203
100
AcDbEntity
  8
0
 62
     0
100
AcDbLine
 10
217.662556
 20
443.936726
 30
0.0
 11
221.662556
 21
447.936726
 31
0.0
  0
LINE
  5
166
330
203
100
AcDbEntity
  8
0
 62
     0
100
AcDbLine
 10
217.662556
 20
451.007793
 30
0.0
 11
219.887906
 21
453.233143
 31
0.0
  0
LINE
  5
167
330
203
100
AcDbEntity
  8
0
 62
     0
100
AcDbLine
 10
231.172177
 20
436.233143
 30
0.0
 11
233.672177
 21
438.7331429999998
 31
0.0
  0
ENDBLK
  5
169
330
203
100
AcDbEntity
  8
0
100
AcDbBlockEnd
  0
BLOCK
  5
170
330
204
100
AcDbEntity
  8
0
100
AcDbBlockBegin
  2
*X14
 70
     1
 10
0.0
 20
0.0
 30
0.0
  3
*X14
  1
GEVFRAME
  0
LINE
  5
16C
330
204
100
AcDbEntity
  8
0
 62
     0
100
AcDbLine
 10
400.877804
 20
436.233143
 30
0.0
 11
413.6625559999997
 21
449.0178949999998
 31
0.0
  0
LINE
  5
16D
330
204
100
AcDbEntity
  8
0
 62
     0
100
AcDbLine
 10
396.1625559999998
 20
438.588962
 30
0.0
 11
396.306736
 21
438.7331429999998
 31
0.0
  0
LINE
  5
16E
330
204
100
AcDbEntity
  8
0
 62
     0
100
AcDbLine
 10
409.6625559999997
 20
452.088962
 30
0.0
 11
410.8067359999997
 21
453.233143
 31
0.0
  0
LINE
  5
16F
330
204
100
AcDbEntity
  8
0
 62
     0
100
AcDbLine
 10
411.0624979999998
 20
439.34677
 30
0.0
 11
413.0489289999998
 21
441.3332009999998
 31
0.0
  0
ENDBLK
  5
171
330
204
100
AcDbEntity
  8
0
100
AcDbBlockEnd
  0
BLOCK
  5
178
330
205
100
AcDbEntity
  8
0
100
AcDbBlockBegin
  2
*X15
 70
     1
 10
0.0
 20
0.0
 30
0.0
  3
*X15
  1
GEVFRAME
  0
LINE
  5
174
330
205
100
AcDbEntity
  8
0
 62
     0
100
AcDbLine
 10
394.3097129999999
 20
445.7331429999999
 30
0.0
 11
386.8097129999999
 21
453.233143
 31
0.0
  0
LINE
  5
175
330
205
100
AcDbEntity
  8
0
 62
     0
100
AcDbLine
 10
386.6729589999998
 20
445.7331429999999
 30
0.0
 11
383.6625559999998
 21
448.743547
 31
0.0
  0
LINE
  5
176
330
205
100
AcDbEntity
  8
0
 62
     0
100
AcDbLine
 10
401.9464659999998
 20
445.7331429999999
 30
0.0
 11
394.4464659999999
 21
453.233143
 31
0.0
  0
LINE
  5
177
330
205
100
AcDbEntity
  8
0
 62
     0
100
AcDbLine
 10
409.583219
 20
445.7331429999999
 30
0.0
 11
402.083219
 21
453.233143
 31
0.0
  0
ENDBLK
  5
179
330
205
100
AcDbEntity
  8
0
100
AcDbBlockEnd
  0
BLOCK
  5
22E
330
22D
100
AcDbEntity
  8
0
100
AcDbBlockBegin
  2
KATALOG_LEER
 70
     0
 10
0.0
 20
0.0
 30
0.0
  3
KATALOG_LEER
  1

  0
ENDBLK
  5
22F
330
22D
100
AcDbEntity
  8
0
100
AcDbBlockEnd
  0
BLOCK
  5
6D5
330
28D
100
AcDbEntity
  8
0
100
AcDbBlockBegin
  2
*D18
 70
     1
 10
0.0
 20
0.0
 30
0.0
  3
*D18
  1

  0
LINE
  5
6D6
330
28D
100
AcDbEntity
  8
0
  6
ByBlock
100
AcDbLine
 10
284.78354
 20
471.505857
 30
0.0
 11
284.78354
 21
421.505857
 31
0.0
  0
LINE
  5
6D7
330
28D
100
AcDbEntity
  8
0
  6
ByBlock
100
AcDbLine
 10
482.78354
 20
471.505857
 30
0.0
 11
482.78354
 21
421.505857
 31
0.0
  0
LINE
  5
6D8
330
28D
100
AcDbEntity
  8
0
  6
ByBlock
100
AcDbLine
 10
297.28354
 20
426.505857
 30
0.0
 11
470.28354
 21
426.505857
 31
0.0
  0
SOLID
  5
6D9
330
28D
100
AcDbEntity
  8
0
  6
ByBlock
100
AcDbTrace
 10
297.28354
 20
428.58919
 30
0.0
 11
297.28354
 21
424.422523
 31
0.0
 12
284.78354
 22
426.505857
 32
0.0
 13
284.78354
 23
426.505857
 33
0.0
  0
SOLID
  5
6DA
330
28D
100
AcDbEntity
  8
0
  6
ByBlock
100
AcDbTrace
 10
470.28354
 20
428.58919
 30
0.0
 11
470.28354
 21
424.422523
 31
0.0
 12
482.78354
 22
426.505857
 32
0.0
 13
482.78354
 23
426.505857
 33
0.0
  0
MTEXT
  5
6DB
330
28D
100
AcDbEntity
  8
0
  6
ByBlock
 62
     2
100
AcDbMText
 10
383.78354
 20
438.255857
 30
0.0
 40
17.5
 41
0.0
 71
     5
 72
     1
  1
\U+2205198
 73
     1
 44
1.0
1001
ACAD
1000
MTEXTBEGIN
1070
    73
1070
     1
1070
    44
1040
1.0
1070
    74
1070
     0
1000
MTEXTEND
  0
POINT
  5
6DC
330
28D
100
AcDbEntity
  8
DEFPOINTS
  6
ByBlock
 62
     0
100
AcDbPoint
 10
284.78354
 20
476.505857
 30
0.0
  0
POINT
  5
6DD
330
28D
100
AcDbEntity
  8
DEFPOINTS
  6
ByBlock
 62
     0
100
AcDbPoint
 10
482.78354
 20
476.505857
 30
0.0
  0
POINT
  5
6DE
330
28D
100
AcDbEntity
  8
DEFPOINTS
  6
ByBlock
 62
     0
100
AcDbPoint
 10
482.78354
 20
426.505857
 30
0.0
  0
ENDBLK
  5
6DF
330
28D
100
AcDbEntity
  8
0
100
AcDbBlockEnd
  0
BLOCK
  5
32F
330
29F
100
AcDbEntity
  8
0
100
AcDbBlockBegin
  2
*D19
 70
     1
 10
0.0
 20
0.0
 30
0.0
  3
*D19
  1
GEVFRAME
  0
LINE
  5
330
330
29F
100
AcDbEntity
  8
0
  6
ByBlock
100
AcDbLine
 10
285.78354
 20
639.5058569999998
 30
0.0
 11
285.78354
 21
724.505857
 31
0.0
  0
LINE
  5
331
330
29F
100
AcDbEntity
  8
0
  6
ByBlock
100
AcDbLine
 10
483.78354
 20
639.5058569999998
 30
0.0
 11
483.78354
 21
724.505857
 31
0.0
  0
LINE
  5
332
330
29F
100
AcDbEntity
  8
0
  6
ByBlock
100
AcDbLine
 10
298.28354
 20
719.505857
 30
0.0
 11
471.28354
 21
719.505857
 31
0.0
  0
SOLID
  5
333
330
29F
100
AcDbEntity
  8
0
  6
ByBlock
100
AcDbTrace
 10
298.28354
 20
721.58919
 30
0.0
 11
298.28354
 21
717.4225230000002
 31
0.0
 12
285.78354
 22
719.505857
 32
0.0
 13
285.78354
 23
719.505857
 33
0.0
  0
SOLID
  5
334
330
29F
100
AcDbEntity
  8
0
  6
ByBlock
100
AcDbTrace
 10
471.28354
 20
721.58919
 30
0.0
 11
471.28354
 21
717.4225230000002
 31
0.0
 12
483.78354
 22
719.505857
 32
0.0
 13
483.78354
 23
719.505857
 33
0.0
  0
MTEXT
  5
335
330
29F
100
AcDbEntity
  8
0
  6
ByBlock
 62
     2
100
AcDbMText
 10
384.78354
 20
731.255857
 30
0.0
 40
17.5
 41
0.0
 71
     5
 72
     1
  1
{\Fgeniso.shx|c0;\U+25A1}198
 73
     1
 44
1.0
1001
ACAD
1000
MTEXTBEGIN
1070
    73
1070
     1
1070
    44
1040
1.0
1070
    74
1070
     0
1000
MTEXTEND
  0
POINT
  5
336
330
29F
100
AcDbEntity
  8
DEFPOINTS
  6
ByBlock
 62
     0
100
AcDbPoint
 10
285.78354
 20
634.5058569999999
 30
0.0
  0
POINT
  5
337
330
29F
100
AcDbEntity
  8
DEFPOINTS
  6
ByBlock
 62
     0
100
AcDbPoint
 10
483.78354
 20
634.5058569999999
 30
0.0
  0
POINT
  5
338
330
29F
100
AcDbEntity
  8
DEFPOINTS
  6
ByBlock
 62
     0
100
AcDbPoint
 10
483.78354
 20
719.505857
 30
0.0
  0
ENDBLK
  5
339
330
29F
100
AcDbEntity
  8
0
100
AcDbBlockEnd
  0
BLOCK
  5
30C
330
300
100
AcDbEntity
  8
0
100
AcDbBlockBegin
  2
*D22
 70
     1
 10
0.0
 20
0.0
 30
0.0
  3
*D22
  1
GEVFRAME
  0
LINE
  5
779
330
300
100
AcDbEntity
  8
5
100
AcDbLine
 10
487.78354
 20
476.505857
 30
0.0
 11
562.78354
 21
476.505857
 31
0.0
  0
LINE
  5
77A
330
300
100
AcDbEntity
  8
5
100
AcDbLine
 10
486.78354
 20
634.5058569999999
 30
0.0
 11
562.78354
 21
634.5058569999999
 31
0.0
  0
LINE
  5
77B
330
300
100
AcDbEntity
  8
5
100
AcDbLine
 10
557.78354
 20
489.005857
 30
0.0
 11
557.78354
 21
622.0058569999999
 31
0.0
  0
SOLID
  5
77C
330
300
100
AcDbEntity
  8
5
100
AcDbTrace
 10
555.7002066666666
 20
489.005857
 30
0.0
 11
559.8668733333332
 21
489.005857
 31
0.0
 12
557.78354
 22
476.505857
 32
0.0
 13
557.78354
 23
476.505857
 33
0.0
  0
SOLID
  5
77D
330
300
100
AcDbEntity
  8
5
100
AcDbTrace
 10
555.7002066666666
 20
622.0058569999999
 30
0.0
 11
559.8668733333332
 21
622.0058569999999
 31
0.0
 12
557.78354
 22
634.5058569999999
 32
0.0
 13
557.78354
 23
634.5058569999999
 33
0.0
  0
MTEXT
  5
77E
330
300
100
AcDbEntity
  8
5
 62
     2
100
AcDbMText
 10
546.031817559055
 20
555.5058569999999
 30
0.0
 40
17.5
 41
0.0
 71
     5
 72
     1
  1
290
 11
0.0000000000000001
 21
1.0
 31
0.0
 73
     1
 44
1.0
1001
ACAD
1000
MTEXTBEGIN
1070
    73
1070
     1
1070
    44
1040
1.0
1070
    74
1070
     0
1000
MTEXTEND
  0
POINT
  5
77F
330
300
100
AcDbEntity
  8
DEFPOINTS
 62
     0
100
AcDbPoint
 10
482.78354
 20
476.505857
 30
0.0
  0
POINT
  5
780
330
300
100
AcDbEntity
  8
DEFPOINTS
 62
     0
100
AcDbPoint
 10
481.7835399999998
 20
634.5058569999999
 30
0.0
  0
POINT
  5
781
330
300
100
AcDbEntity
  8
DEFPOINTS
 62
     0
100
AcDbPoint
 10
557.78354
 20
634.5058569999999
 30
0.0
  0
ENDBLK
  5
316
330
300
100
AcDbEntity
  8
0
100
AcDbBlockEnd
  0
BLOCK
  5
6BE
330
6B0
100
AcDbEntity
  8
0
100
AcDbBlockBegin
  2
*D23
 70
     1
 10
0.0
 20
0.0
 30
0.0
  3
*D23
  1

  0
LINE
  5
6BF
330
6B0
100
AcDbEntity
  8
0
  6
ByBlock
100
AcDbLine
 10
413.860571
 20
136.02857
 30
0.0
 11
413.860571
 21
59.376538
 31
0.0
  0
LINE
  5
6C0
330
6B0
100
AcDbEntity
  8
0
  6
ByBlock
100
AcDbLine
 10
421.860571
 20
136.02857
 30
0.0
 11
421.860571
 21
59.376538
 31
0.0
  0
LINE
  5
6C1
330
6B0
100
AcDbEntity
  8
0
  6
ByBlock
100
AcDbLine
 10
401.360571
 20
64.37653799999999
 30
0.0
 11
388.860571
 21
64.37653799999999
 31
0.0
  0
LINE
  5
6C2
330
6B0
100
AcDbEntity
  8
0
  6
ByBlock
100
AcDbLine
 10
434.360571
 20
64.37653799999999
 30
0.0
 11
459.860571
 21
64.37653799999999
 31
0.0
  0
LINE
  5
6C3
330
6B0
100
AcDbEntity
  8
0
  6
ByBlock
100
AcDbLine
 10
413.860571
 20
64.37653799999999
 30
0.0
 11
421.860571
 21
64.37653799999999
 31
0.0
  0
SOLID
  5
6C4
330
6B0
100
AcDbEntity
  8
0
  6
ByBlock
100
AcDbTrace
 10
401.360571
 20
66.459872
 30
0.0
 11
401.360571
 21
62.293205
 31
0.0
 12
413.860571
 22
64.37653799999999
 32
0.0
 13
413.860571
 23
64.37653799999999
 33
0.0
  0
SOLID
  5
6C5
330
6B0
100
AcDbEntity
  8
0
  6
ByBlock
100
AcDbTrace
 10
434.360571
 20
66.459872
 30
0.0
 11
434.360571
 21
62.293205
 31
0.0
 12
421.860571
 22
64.37653799999999
 32
0.0
 13
421.860571
 23
64.37653799999999
 33
0.0
  0
MTEXT
  5
6C6
330
6B0
100
AcDbEntity
  8
0
  6
ByBlock
 62
     2
100
AcDbMText
 10
453.3605709999998
 20
76.126538
 30
0.0
 40
17.5
 41
0.0
 71
     5
 72
     1
  1
8
 73
     1
 44
1.0
1001
ACAD
1000
MTEXTBEGIN
1070
    73
1070
     1
1070
    44
1040
1.0
1070
    74
1070
     0
1000
MTEXTEND
  0
POINT
  5
6C7
330
6B0
100
AcDbEntity
  8
DEFPOINTS
  6
ByBlock
 62
     0
100
AcDbPoint
 10
413.860571
 20
141.02857
 30
0.0
  0
POINT
  5
6C8
330
6B0
100
AcDbEntity
  8
DEFPOINTS
  6
ByBlock
 62
     0
100
AcDbPoint
 10
421.860571
 20
141.02857
 30
0.0
  0
POINT
  5
6C9
330
6B0
100
AcDbEntity
  8
DEFPOINTS
  6
ByBlock
 62
     0
100
AcDbPoint
 10
421.860571
 20
64.37653799999999
 30
0.0
  0
ENDBLK
  5
6CA
330
6B0
100
AcDbEntity
  8
0
100
AcDbBlockEnd
  0
BLOCK
  5
75E
330
75C
100
AcDbEntity
  8
0
100
AcDbBlockBegin
  2
GENAXEH
 70
     0
 10
0.0
 20
0.0
 30
0.0
  3
GENAXEH
  1

  0
LINE
  5
75D
330
75C
100
AcDbEntity
  8
0
100
AcDbLine
 10
-1.0
 20
0.0
 30
0.0
 11
1.0
 21
0.0
 31
0.0
  0
ENDBLK
  5
75F
330
75C
100
AcDbEntity
  8
0
100
AcDbBlockEnd
  0
ENDSEC
  0
SECTION
  2
ENTITIES
  0
LINE
  5
3
330
1EC
100
AcDbEntity
  8
0
100
AcDbLine
 10
285.78354
 20
634.5058569999999
 30
0.0
 11
481.7835399999998
 21
634.5058569999999
 31
0.0
  0
LINE
  5
7
330
1EC
100
AcDbEntity
  8
0
100
AcDbLine
 10
482.78354
 20
476.505857
 30
0.0
 11
284.78354
 21
476.505857
 31
0.0
  0
LINE
  5
8
330
1EC
100
AcDbEntity
  8
7
100
AcDbLine
 10
383.78354
 20
640.505857
 30
0.0
 11
383.78354
 21
470.505857
 31
0.0
1001
GENIUS_GENODEF_13
1002
{
1000
HIER
1070
     0
1002
}
1002
{
1000
MANEDIT
1070
     0
1002
}
1002
{
1000
NOSEL
1070
     0
1002
}
1002
{
1000
BEHIND
1070
     0
1002
}
1002
{
1000
REACTOR
1002
}
1001
GENIUS_GENOBJ-N-CEN_13
1002
{
1000
OWNER
1000
GEN
1002
}
  0
LINE
  5
15
330
1EC
100
AcDbEntity
  8
0
100
AcDbLine
 10
482.78354
 20
620.005857
 30
0.0
 11
482.78354
 21
476.505857
 31
0.0
1001
GENIUS_GENODEF_13
1002
{
1000
HIER
1070
     0
1002
}
1002
{
1000
MANEDIT
1070
     0
1002
}
1002
{
1000
NOSEL
1070
     0
1002
}
1002
{
1000
BEHIND
1070
     0
1002
}
1002
{
1000
REACTOR
1002
}
1001
GENIUS_GENOBJ-N-CEN_13
1002
{
1000
OWNER
1000
GEN
1002
}
  0
LINE
  5
16
330
1EC
100
AcDbEntity
  8
0
100
AcDbLine
 10
284.78354
 20
620.005857
 30
0.0
 11
284.78354
 21
476.505857
 31
0.0
1001
GENIUS_GENODEF_13
1002
{
1000
HIER
1070
     0
1002
}
1002
{
1000
MANEDIT
1070
     0
1002
}
1002
{
1000
NOSEL
1070
     0
1002
}
1002
{
1000
BEHIND
1070
     0
1002
}
1002
{
1000
REACTOR
1002
}
1001
GENIUS_GENOBJ-N-CEN_13
1002
{
1000
OWNER
1000
GEN
1002
}
  0
LINE
  5
17
330
1EC
100
AcDbEntity
  8
0
100
AcDbLine
 10
289.78354
 20
606.4601629999998
 30
0.0
 11
289.78354
 21
476.505857
 31
0.0
1001
GENIUS_GENODEF_13
1002
{
1000
HIER
1070
     0
1002
}
1002
{
1000
MANEDIT
1070
     0
1002
}
1002
{
1000
NOSEL
1070
     0
1002
}
1002
{
1000
BEHIND
1070
     0
1002
}
1002
{
1000
REACTOR
1002
}
1001
GENIUS_GENOBJ-N-CEN_13
1002
{
1000
OWNER
1000
GEN
1002
}
  0
LINE
  5
18
330
1EC
100
AcDbEntity
  8
0
100
AcDbLine
 10
477.7835399999998
 20
606.4601629999998
 30
0.0
 11
477.7835399999998
 21
476.505857
 31
0.0
1001
GENIUS_GENODEF_13
1002
{
1000
HIER
1070
     0
1002
}
1002
{
1000
MANEDIT
1070
     0
1002
}
1002
{
1000
NOSEL
1070
     0
1002
}
1002
{
1000
BEHIND
1070
     0
1002
}
1002
{
1000
REACTOR
1002
}
1001
GENIUS_GENOBJ-N-CEN_13
1002
{
1000
OWNER
1000
GEN
1002
}
  0
LINE
  5
19
330
1EC
100
AcDbEntity
  8
0
100
AcDbLine
 10
289.78354
 20
627.0058569999998
 30
0.0
 11
477.7835399999998
 21
627.0058569999998
 31
0.0
  0
LINE
  5
1A
330
1EC
100
AcDbEntity
  8
0
100
AcDbLine
 10
443.7835399999998
 20
634.5058569999999
 30
0.0
 11
443.7835399999998
 21
627.0058569999998
 31
0.0
1001
GENIUS_GENODEF_13
1002
{
1000
HIER
1070
     0
1002
}
1002
{
1000
MANEDIT
1070
     0
1002
}
1002
{
1000
NOSEL
1070
     0
1002
}
1002
{
1000
BEHIND
1070
     0
1002
}
1002
{
1000
REACTOR
1002
}
1001
GENIUS_GENOBJ-N-CEN_13
1002
{
1000
OWNER
1000
GEN
1002
}
  0
LINE
  5
1B
330
1EC
100
AcDbEntity
  8
0
100
AcDbLine
 10
435.7835399999998
 20
634.5058569999999
 30
0.0
 11
435.7835399999998
 21
627.0058569999998
 31
0.0
1001
GENIUS_GENODEF_13
1002
{
1000
HIER
1070
     0
1002
}
1002
{
1000
MANEDIT
1070
     0
1002
}
1002
{
1000
NOSEL
1070
     0
1002
}
1002
{
1000
BEHIND
1070
     0
1002
}
1002
{
1000
REACTOR
1002
}
1001
GENIUS_GENOBJ-N-CEN_13
1002
{
1000
OWNER
1000
GEN
1002
}
  0
LINE
  5
1C
330
1EC
100
AcDbEntity
  8
0
100
AcDbLine
 10
427.7835399999998
 20
634.5058569999999
 30
0.0
 11
427.7835399999998
 21
627.0058569999998
 31
0.0
1001
GENIUS_GENODEF_13
1002
{
1000
HIER
1070
     0
1002
}
1002
{
1000
MANEDIT
1070
     0
1002
}
1002
{
1000
NOSEL
1070
     0
1002
}
1002
{
1000
BEHIND
1070
     0
1002
}
1002
{
1000
REACTOR
1002
}
1001
GENIUS_GENOBJ-N-CEN_13
1002
{
1000
OWNER
1000
GEN
1002
}
  0
LINE
  5
1D
330
1EC
100
AcDbEntity
  8
0
100
AcDbLine
 10
419.78354
 20
634.5058569999999
 30
0.0
 11
419.78354
 21
627.0058569999998
 31
0.0
1001
GENIUS_GENODEF_13
1002
{
1000
HIER
1070
     0
1002
}
1002
{
1000
MANEDIT
1070
     0
1002
}
1002
{
1000
NOSEL
1070
     0
1002
}
1002
{
1000
BEHIND
1070
     0
1002
}
1002
{
1000
REACTOR
1002
}
1001
GENIUS_GENOBJ-N-CEN_13
1002
{
1000
OWNER
1000
GEN
1002
}
  0
LINE
  5
1E
330
1EC
100
AcDbEntity
  8
0
100
AcDbLine
 10
411.78354
 20
634.5058569999999
 30
0.0
 11
411.78354
 21
627.0058569999998
 31
0.0
1001
GENIUS_GENODEF_13
1002
{
1000
HIER
1070
     0
1002
}
1002
{
1000
MANEDIT
1070
     0
1002
}
1002
{
1000
NOSEL
1070
     0
1002
}
1002
{
1000
BEHIND
1070
     0
1002
}
1002
{
1000
REACTOR
1002
}
1001
GENIUS_GENOBJ-N-CEN_13
1002
{
1000
OWNER
1000
GEN
1002
}
  0
LINE
  5
1F
330
1EC
100
AcDbEntity
  8
0
100
AcDbLine
 10
403.78354
 20
634.5058569999999
 30
0.0
 11
403.78354
 21
627.0058569999998
 31
0.0
1001
GENIUS_GENODEF_13
1002
{
1000
HIER
1070
     0
1002
}
1002
{
1000
MANEDIT
1070
     0
1002
}
1002
{
1000
NOSEL
1070
     0
1002
}
1002
{
1000
BEHIND
1070
     0
1002
}
1002
{
1000
REACTOR
1002
}
1001
GENIUS_GENOBJ-N-CEN_13
1002
{
1000
OWNER
1000
GEN
1002
}
  0
LINE
  5
20
330
1EC
100
AcDbEntity
  8
0
100
AcDbLine
 10
395.78354
 20
634.5058569999999
 30
0.0
 11
395.78354
 21
627.0058569999998
 31
0.0
1001
GENIUS_GENODEF_13
1002
{
1000
HIER
1070
     0
1002
}
1002
{
1000
MANEDIT
1070
     0
1002
}
1002
{
1000
NOSEL
1070
     0
1002
}
1002
{
1000
BEHIND
1070
     0
1002
}
1002
{
1000
REACTOR
1002
}
1001
GENIUS_GENOBJ-N-CEN_13
1002
{
1000
OWNER
1000
GEN
1002
}
  0
LINE
  5
21
330
1EC
100
AcDbEntity
  8
0
100
AcDbLine
 10
387.78354
 20
634.5058569999999
 30
0.0
 11
387.78354
 21
627.0058569999998
 31
0.0
1001
GENIUS_GENODEF_13
1002
{
1000
HIER
1070
     0
1002
}
1002
{
1000
MANEDIT
1070
     0
1002
}
1002
{
1000
NOSEL
1070
     0
1002
}
1002
{
1000
BEHIND
1070
     0
1002
}
1002
{
1000
REACTOR
1002
}
1001
GENIUS_GENOBJ-N-CEN_13
1002
{
1000
OWNER
1000
GEN
1002
}
  0
LINE
  5
22
330
1EC
100
AcDbEntity
  8
0
100
AcDbLine
 10
379.78354
 20
634.5058569999999
 30
0.0
 11
379.78354
 21
627.0058569999998
 31
0.0
1001
GENIUS_GENODEF_13
1002
{
1000
HIER
1070
     0
1002
}
1002
{
1000
MANEDIT
1070
     0
1002
}
1002
{
1000
NOSEL
1070
     0
1002
}
1002
{
1000
BEHIND
1070
     0
1002
}
1002
{
1000
REACTOR
1002
}
1001
GENIUS_GENOBJ-N-CEN_13
1002
{
1000
OWNER
1000
GEN
1002
}
  0
LINE
  5
23
330
1EC
100
AcDbEntity
  8
0
100
AcDbLine
 10
451.78354
 20
634.5058569999999
 30
0.0
 11
451.78354
 21
627.0058569999998
 31
0.0
1001
GENIUS_GENODEF_13
1002
{
1000
HIER
1070
     0
1002
}
1002
{
1000
MANEDIT
1070
     0
1002
}
1002
{
1000
NOSEL
1070
     0
1002
}
1002
{
1000
BEHIND
1070
     0
1002
}
1002
{
1000
REACTOR
1002
}
1001
GENIUS_GENOBJ-N-CEN_13
1002
{
1000
OWNER
1000
GEN
1002
}
  0
LINE
  5
24
330
1EC
100
AcDbEntity
  8
0
100
AcDbLine
 10
371.78354
 20
634.5058569999999
 30
0.0
 11
371.78354
 21
627.0058569999998
 31
0.0
1001
GENIUS_GENODEF_13
1002
{
1000
HIER
1070
     0
1002
}
1002
{
1000
MANEDIT
1070
     0
1002
}
1002
{
1000
NOSEL
1070
     0
1002
}
1002
{
1000
BEHIND
1070
     0
1002
}
1002
{
1000
REACTOR
1002
}
1001
GENIUS_GENOBJ-N-CEN_13
1002
{
1000
OWNER
1000
GEN
1002
}
  0
LINE
  5
25
330
1EC
100
AcDbEntity
  8
0
100
AcDbLine
 10
347.78354
 20
634.5058569999999
 30
0.0
 11
347.78354
 21
627.0058569999998
 31
0.0
1001
GENIUS_GENODEF_13
1002
{
1000
HIER
1070
     0
1002
}
1002
{
1000
MANEDIT
1070
     0
1002
}
1002
{
1000
NOSEL
1070
     0
1002
}
1002
{
1000
BEHIND
1070
     0
1002
}
1002
{
1000
REACTOR
1002
}
1001
GENIUS_GENOBJ-N-CEN_13
1002
{
1000
OWNER
1000
GEN
1002
}
  0
LINE
  5
26
330
1EC
100
AcDbEntity
  8
0
100
AcDbLine
 10
355.78354
 20
634.5058569999999
 30
0.0
 11
355.78354
 21
627.0058569999998
 31
0.0
1001
GENIUS_GENODEF_13
1002
{
1000
HIER
1070
     0
1002
}
1002
{
1000
MANEDIT
1070
     0
1002
}
1002
{
1000
NOSEL
1070
     0
1002
}
1002
{
1000
BEHIND
1070
     0
1002
}
1002
{
1000
REACTOR
1002
}
1001
GENIUS_GENOBJ-N-CEN_13
1002
{
1000
OWNER
1000
GEN
1002
}
  0
LINE
  5
27
330
1EC
100
AcDbEntity
  8
0
100
AcDbLine
 10
363.78354
 20
634.5058569999999
 30
0.0
 11
363.78354
 21
627.0058569999998
 31
0.0
1001
GENIUS_GENODEF_13
1002
{
1000
HIER
1070
     0
1002
}
1002
{
1000
MANEDIT
1070
     0
1002
}
1002
{
1000
NOSEL
1070
     0
1002
}
1002
{
1000
BEHIND
1070
     0
1002
}
1002
{
1000
REACTOR
1002
}
1001
GENIUS_GENOBJ-N-CEN_13
1002
{
1000
OWNER
1000
GEN
1002
}
  0
LINE
  5
28
330
1EC
100
AcDbEntity
  8
0
100
AcDbLine
 10
331.78354
 20
634.5058569999999
 30
0.0
 11
331.78354
 21
627.0058569999998
 31
0.0
1001
GENIUS_GENODEF_13
1002
{
1000
HIER
1070
     0
1002
}
1002
{
1000
MANEDIT
1070
     0
1002
}
1002
{
1000
NOSEL
1070
     0
1002
}
1002
{
1000
BEHIND
1070
     0
1002
}
1002
{
1000
REACTOR
1002
}
1001
GENIUS_GENOBJ-N-CEN_13
1002
{
1000
OWNER
1000
GEN
1002
}
  0
LINE
  5
29
330
1EC
100
AcDbEntity
  8
0
100
AcDbLine
 10
339.78354
 20
634.5058569999999
 30
0.0
 11
339.78354
 21
627.0058569999998
 31
0.0
1001
GENIUS_GENODEF_13
1002
{
1000
HIER
1070
     0
1002
}
1002
{
1000
MANEDIT
1070
     0
1002
}
1002
{
1000
NOSEL
1070
     0
1002
}
1002
{
1000
BEHIND
1070
     0
1002
}
1002
{
1000
REACTOR
1002
}
1001
GENIUS_GENOBJ-N-CEN_13
1002
{
1000
OWNER
1000
GEN
1002
}
  0
LINE
  5
2A
330
1EC
100
AcDbEntity
  8
0
100
AcDbLine
 10
315.78354
 20
634.5058569999999
 30
0.0
 11
315.78354
 21
627.0058569999998
 31
0.0
1001
GENIUS_GENODEF_13
1002
{
1000
HIER
1070
     0
1002
}
1002
{
1000
MANEDIT
1070
     0
1002
}
1002
{
1000
NOSEL
1070
     0
1002
}
1002
{
1000
BEHIND
1070
     0
1002
}
1002
{
1000
REACTOR
1002
}
1001
GENIUS_GENOBJ-N-CEN_13
1002
{
1000
OWNER
1000
GEN
1002
}
  0
LINE
  5
2B
330
1EC
100
AcDbEntity
  8
0
100
AcDbLine
 10
323.78354
 20
634.5058569999999
 30
0.0
 11
323.78354
 21
627.0058569999998
 31
0.0
1001
GENIUS_GENODEF_13
1002
{
1000
HIER
1070
     0
1002
}
1002
{
1000
MANEDIT
1070
     0
1002
}
1002
{
1000
NOSEL
1070
     0
1002
}
1002
{
1000
BEHIND
1070
     0
1002
}
1002
{
1000
REACTOR
1002
}
1001
GENIUS_GENOBJ-N-CEN_13
1002
{
1000
OWNER
1000
GEN
1002
}
  0
LINE
  5
2C
330
1EC
100
AcDbEntity
  8
0
100
AcDbLine
 10
259.78354
 20
515.876692
 30
0.0
 11
259.78354
 21
510.8766919999998
 31
0.0
1001
GENIUS_GENODEF_13
1002
{
1000
HIER
1070
     0
1002
}
1002
{
1000
MANEDIT
1070
     0
1002
}
1002
{
1000
NOSEL
1070
     0
1002
}
1002
{
1000
BEHIND
1070
     0
1002
}
1002
{
1000
REACTOR
1002
}
1001
GENIUS_GENOBJ-N-CEN_13
1002
{
1000
OWNER
1000
GEN
1002
}
  0
LINE
  5
2D
330
1EC
100
AcDbEntity
  8
0
100
AcDbLine
 10
284.78354
 20
510.8766919999998
 30
0.0
 11
259.78354
 21
510.8766919999998
 31
0.0
  0
LINE
  5
2E
330
1EC
100
AcDbEntity
  8
0
100
AcDbLine
 10
279.78354
 20
515.876692
 30
0.0
 11
259.78354
 21
515.876692
 31
0.0
  0
LINE
  5
2F
330
1EC
100
AcDbEntity
  8
0
100
AcDbLine
 10
279.78354
 20
523.376692
 30
0.0
 11
279.78354
 21
515.876692
 31
0.0
1001
GENIUS_GENODEF_13
1002
{
1000
HIER
1070
     0
1002
}
1002
{
1000
MANEDIT
1070
     0
1002
}
1002
{
1000
NOSEL
1070
     0
1002
}
1002
{
1000
BEHIND
1070
     0
1002
}
1002
{
1000
REACTOR
1002
}
1001
GENIUS_GENOBJ-N-CEN_13
1002
{
1000
OWNER
1000
GEN
1002
}
  0
LINE
  5
30
330
1EC
100
AcDbEntity
  8
0
100
AcDbLine
 10
284.78354
 20
523.376692
 30
0.0
 11
279.78354
 21
523.376692
 31
0.0
  0
LINE
  5
31
330
1EC
100
AcDbEntity
  8
0
100
AcDbLine
 10
259.78354
 20
515.876692
 30
0.0
 11
279.78354
 21
523.376692
 31
0.0
  0
LINE
  5
32
330
1EC
100
AcDbEntity
  8
0
100
AcDbLine
 10
507.78354
 20
515.876692
 30
0.0
 11
487.78354
 21
523.376692
 31
0.0
  0
LINE
  5
33
330
1EC
100
AcDbEntity
  8
0
100
AcDbLine
 10
487.78354
 20
515.876692
 30
0.0
 11
507.78354
 21
515.876692
 31
0.0
  0
LINE
  5
34
330
1EC
100
AcDbEntity
  8
0
100
AcDbLine
 10
482.78354
 20
510.8766919999998
 30
0.0
 11
507.78354
 21
510.8766919999998
 31
0.0
  0
LINE
  5
35
330
1EC
100
AcDbEntity
  8
0
100
AcDbLine
 10
507.78354
 20
515.876692
 30
0.0
 11
507.78354
 21
510.8766919999998
 31
0.0
1001
GENIUS_GENODEF_13
1002
{
1000
HIER
1070
     0
1002
}
1002
{
1000
MANEDIT
1070
     0
1002
}
1002
{
1000
NOSEL
1070
     0
1002
}
1002
{
1000
BEHIND
1070
     0
1002
}
1002
{
1000
REACTOR
1002
}
1001
GENIUS_GENOBJ-N-CEN_13
1002
{
1000
OWNER
1000
GEN
1002
}
  0
LINE
  5
36
330
1EC
100
AcDbEntity
  8
0
100
AcDbLine
 10
482.78354
 20
523.376692
 30
0.0
 11
487.78354
 21
523.376692
 31
0.0
  0
LINE
  5
37
330
1EC
100
AcDbEntity
  8
0
100
AcDbLine
 10
487.78354
 20
523.376692
 30
0.0
 11
487.78354
 21
515.876692
 31
0.0
1001
GENIUS_GENODEF_13
1002
{
1000
HIER
1070
     0
1002
}
1002
{
1000
MANEDIT
1070
     0
1002
}
1002
{
1000
NOSEL
1070
     0
1002
}
1002
{
1000
BEHIND
1070
     0
1002
}
1002
{
1000
REACTOR
1002
}
1001
GENIUS_GENOBJ-N-CEN_13
1002
{
1000
OWNER
1000
GEN
1002
}
  0
DIMENSION
  5
5A
330
1EC
100
AcDbEntity
  8
5
100
AcDbDimension
  2
*D18
 10
482.78354
 20
426.505857
 30
0.0
 11
383.78354
 21
438.255857
 31
0.0
 70
    32
  1
%%c<>
 71
     5
 42
-1.0
  3
GEN-ISO
100
AcDbAlignedDimension
 13
284.78354
 23
476.505857
 33
0.0
 14
482.78354
 24
476.505857
 34
0.0
100
AcDbRotatedDimension
1001
GENIUS_GENDTOL_13
1000

1000
h7
1000

1040
0.0
  0
DIMENSION
  5
7A
330
1EC
100
AcDbEntity
  8
5
100
AcDbDimension
  2
*D22
 10
557.78354
 20
634.5058569999999
 30
0.0
 11
546.031817559055
 21
555.5058569999999
 31
0.0
 70
    32
  1
290
 71
     5
 42
-1.0
  3
GEN-ISO
100
AcDbAlignedDimension
 13
482.78354
 23
476.505857
 33
0.0
 14
481.7835399999998
 24
634.5058569999999
 34
0.0
 50
90.0
100
AcDbRotatedDimension
  0
INSERT
  5
95
330
1EC
100
AcDbEntity
  8
8
100
AcDbBlockReference
  2
*X0
 10
68.12098399999999
 20
181.2727129999999
 30
0.0
1001
GENIUS_VERSION2
1070
     2
1001
GENIUS_GENODEF_13
1002
{
1000
HIER
1070
     0
1002
}
1002
{
1000
MANEDIT
1070
     0
1002
}
1002
{
1000
NOSEL
1070
     0
1002
}
1002
{
1000
BEHIND
1070
     0
1002
}
1002
{
1000
REACTOR
1002
}
1001
GENIUS_GENOBJ-N-HTC_13
1002
{
1000
OWNER
1000
GEN
1002
}
1001
GENIUS_GENHATCH_13
1002
{
1000
DATA
1040
45.0
1042
2.299999999999998
1000
_U
1070
     1
1011
277.806495
1021
513.32054
1031
0.0
1002
}
1002
{
1000
UCS
1010
0.0
1020
0.0
1030
0.0
1010
1.0
1020
0.0
1030
0.0
1010
0.0
1020
1.0
1030
0.0
1002
}
1001
ACAD
1000
HATCH
1002
{
1070
    19
1000
_U
1040
4.599999999999998
1040
0.7853979999999999
1070
     1
1002
}
  0
INSERT
  5
A9
330
1EC
100
AcDbEntity
  8
8
100
AcDbBlockReference
  2
*X1
 10
68.12098399999999
 20
181.2727129999999
 30
0.0
1001
GENIUS_GENODEF_13
1002
{
1000
HIER
1070
     0
1002
}
1002
{
1000
MANEDIT
1070
     0
1002
}
1002
{
1000
NOSEL
1070
     0
1002
}
1002
{
1000
BEHIND
1070
     0
1002
}
1002
{
1000
REACTOR
1002
}
1001
GENIUS_GENOBJ-N-HTC_13
1002
{
1000
OWNER
1000
GEN
1002
}
1001
GENIUS_GENHATCH_13
1002
{
1000
DATA
1040
45.0
1042
2.299999999999998
1000
_U
1070
     1
1011
500.032069
1021
513.32054
1031
0.0
1002
}
1002
{
1000
UCS
1010
0.0
1020
0.0
1030
0.0
1010
1.0
1020
0.0
1030
0.0
1010
0.0
1020
1.0
1030
0.0
1002
}
1001
ACAD
1000
HATCH
1002
{
1070
    19
1000
_U
1040
4.599999999999998
1040
0.7853979999999999
1070
     1
1002
}
  0
LINE
  5
B9
330
1EC
100
AcDbEntity
  8
0
100
AcDbLine
 10
285.78354
 20
634.5058569999999
 30
0.0
 11
285.78354
 21
625.005857
 31
0.0
1001
GENIUS_GENODEF_13
1002
{
1000
HIER
1070
     0
1002
}
1002
{
1000
MANEDIT
1070
     0
1002
}
1002
{
1000
NOSEL
1070
     0
1002
}
1002
{
1000
BEHIND
1070
     0
1002
}
1002
{
1000
REACTOR
1002
}
1001
GENIUS_GENOBJ-N-CEN_13
1002
{
1000
OWNER
1000
GEN
1002
}
  0
LINE
  5
BA
330
1EC
100
AcDbEntity
  8
0
100
AcDbLine
 10
289.78354
 20
634.5058569999999
 30
0.0
 11
289.78354
 21
627.0058569999998
 31
0.0
1001
GENIUS_GENODEF_13
1002
{
1000
HIER
1070
     0
1002
}
1002
{
1000
MANEDIT
1070
     0
1002
}
1002
{
1000
NOSEL
1070
     0
1002
}
1002
{
1000
BEHIND
1070
     0
1002
}
1002
{
1000
REACTOR
1002
}
1001
GENIUS_GENOBJ-N-CEN_13
1002
{
1000
OWNER
1000
GEN
1002
}
  0
LINE
  5
BB
330
1EC
100
AcDbEntity
  8
0
100
AcDbLine
 10
284.78354
 20
620.005857
 30
0.0
 11
292.28354
 21
620.005857
 31
0.0
  0
LINE
  5
BC
330
1EC
100
AcDbEntity
  8
0
100
AcDbLine
 10
290.78354
 20
617.505857
 30
0.0
 11
476.78354
 21
617.505857
 31
0.0
  0
LINE
  5
BD
330
1EC
100
AcDbEntity
  8
0
100
AcDbLine
 10
294.78354
 20
611.460163
 30
0.0
 11
294.78354
 21
611.460163
 31
0.0
1001
GENIUS_VERSION2
1070
     2
  0
ARC
  5
BE
330
1EC
100
AcDbEntity
  8
0
100
AcDbCircle
 10
294.78354
 20
606.4601629999998
 30
0.0
 40
5.0
100
AcDbArc
 50
90.0
 51
180.0
1001
GENIUS_GENODEF_13
1002
{
1000
HIER
1070
     0
1002
}
1002
{
1000
MANEDIT
1070
     0
1002
}
1002
{
1000
NOSEL
1070
     0
1002
}
1002
{
1000
BEHIND
1070
     0
1002
}
1002
{
1000
REACTOR
1002
}
1001
GENIUS_GENOBJ-N-FIL_13
1002
{
1000
OWNER
1000
GEN
1002
}
1001
GENIUS_GENOBJ-N-CEN_13
1002
{
1000
OWNER
1000
GEN
1002
}
  0
LINE
  5
C0
330
1EC
100
AcDbEntity
  8
0
100
AcDbLine
 10
299.7835399999999
 20
617.505857
 30
0.0
 11
299.7835399999999
 21
616.4601629999999
 31
0.0
1001
GENIUS_VERSION2
1070
     2
1001
GENIUS_GENODEF_13
1002
{
1000
HIER
1070
     0
1002
}
1002
{
1000
MANEDIT
1070
     0
1002
}
1002
{
1000
NOSEL
1070
     0
1002
}
1002
{
1000
BEHIND
1070
     0
1002
}
1002
{
1000
REACTOR
1002
}
1001
GENIUS_GENOBJ-N-CEN_13
1002
{
1000
OWNER
1000
GEN
1002
}
  0
ARC
  5
C1
330
1EC
100
AcDbEntity
  8
0
100
AcDbCircle
 10
294.78354
 20
616.4601629999999
 30
0.0
 40
5.0
100
AcDbArc
 50
270.0
 51
0.0
1001
GENIUS_GENODEF_13
1002
{
1000
HIER
1070
     0
1002
}
1002
{
1000
MANEDIT
1070
     0
1002
}
1002
{
1000
NOSEL
1070
     0
1002
}
1002
{
1000
BEHIND
1070
     0
1002
}
1002
{
1000
REACTOR
1002
}
1001
GENIUS_GENOBJ-N-FIL_13
1002
{
1000
OWNER
1000
GEN
1002
}
1001
GENIUS_VERSION2
1070
     2
1001
GENIUS_GENOBJ-N-CEN_13
1002
{
1000
OWNER
1000
GEN
1002
}
  0
ARC
  5
C2
330
1EC
100
AcDbEntity
  8
0
100
AcDbCircle
 10
290.78354
 20
625.005857
 30
0.0
 40
5.0
100
AcDbArc
 50
180.0
 51
270.0
1001
GENIUS_GENODEF_13
1002
{
1000
HIER
1070
     0
1002
}
1002
{
1000
MANEDIT
1070
     0
1002
}
1002
{
1000
NOSEL
1070
     0
1002
}
1002
{
1000
BEHIND
1070
     0
1002
}
1002
{
1000
REACTOR
1002
}
1001
GENIUS_GENOBJ-N-FIL_13
1002
{
1000
OWNER
1000
GEN
1002
}
1001
GENIUS_GENOBJ-N-CEN_13
1002
{
1000
OWNER
1000
GEN
1002
}
  0
LINE
  5
C3
330
1EC
100
AcDbEntity
  8
0
100
AcDbLine
 10
293.28354
 20
619.0058569999998
 30
0.0
 11
293.28354
 21
617.505857
 31
0.0
1001
GENIUS_GENODEF_13
1002
{
1000
HIER
1070
     0
1002
}
1002
{
1000
MANEDIT
1070
     0
1002
}
1002
{
1000
NOSEL
1070
     0
1002
}
1002
{
1000
BEHIND
1070
     0
1002
}
1002
{
1000
REACTOR
1002
}
1001
GENIUS_GENOBJ-N-CEN_13
1002
{
1000
OWNER
1000
GEN
1002
}
  0
LINE
  5
C4
330
1EC
100
AcDbEntity
  8
0
100
AcDbLine
 10
292.28354
 20
626.0058569999999
 30
0.0
 11
290.78354
 21
626.0058569999999
 31
0.0
1001
GENIUS_VERSION2
1070
     2
  0
ARC
  5
C5
330
1EC
100
AcDbEntity
  8
0
100
AcDbCircle
 10
290.78354
 20
627.0058569999998
 30
0.0
 40
1.0
100
AcDbArc
 50
180.0
 51
270.0
1001
GENIUS_GENODEF_13
1002
{
1000
HIER
1070
     0
1002
}
1002
{
1000
MANEDIT
1070
     0
1002
}
1002
{
1000
NOSEL
1070
     0
1002
}
1002
{
1000
BEHIND
1070
     0
1002
}
1002
{
1000
REACTOR
1002
}
1001
GENIUS_GENOBJ-N-FIL_13
1002
{
1000
OWNER
1000
GEN
1002
}
1001
GENIUS_GENOBJ-N-CEN_13
1002
{
1000
OWNER
1000
GEN
1002
}
  0
LINE
  5
C6
330
1EC
100
AcDbEntity
  8
0
100
AcDbLine
 10
303.28354
 20
620.005857
 30
0.0
 11
303.28354
 21
617.505857
 31
0.0
1001
GENIUS_VERSION2
1070
     2
1001
GENIUS_GENODEF_13
1002
{
1000
HIER
1070
     0
1002
}
1002
{
1000
MANEDIT
1070
     0
1002
}
1002
{
1000
NOSEL
1070
     0
1002
}
1002
{
1000
BEHIND
1070
     0
1002
}
1002
{
1000
REACTOR
1002
}
1001
GENIUS_GENOBJ-N-CEN_13
1002
{
1000
OWNER
1000
GEN
1002
}
  0
ARC
  5
C7
330
1EC
100
AcDbEntity
  8
0
100
AcDbCircle
 10
292.419072
 20
620.068495
 30
0.0
 40
5.938908999999998
100
AcDbArc
 50
9.081198999999999
 51
91.30765799999997
1001
GENIUS_GENODEF_13
1002
{
1000
HIER
1070
     0
1002
}
1002
{
1000
MANEDIT
1070
     0
1002
}
1002
{
1000
NOSEL
1070
     0
1002
}
1002
{
1000
BEHIND
1070
     0
1002
}
1002
{
1000
REACTOR
1002
}
1001
GENIUS_GENOBJ-N-FIL_13
1002
{
1000
OWNER
1000
GEN
1002
}
1001
GENIUS_VERSION2
1070
     2
  0
ARC
  5
C8
330
1EC
100
AcDbEntity
  8
0
100
AcDbCircle
 10
292.28354
 20
619.0058569999998
 30
0.0
 40
1.0
100
AcDbArc
 50
0.0
 51
90.0
1001
GENIUS_GENODEF_13
1002
{
1000
HIER
1070
     0
1002
}
1002
{
1000
MANEDIT
1070
     0
1002
}
1002
{
1000
NOSEL
1070
     0
1002
}
1002
{
1000
BEHIND
1070
     0
1002
}
1002
{
1000
REACTOR
1002
}
1001
GENIUS_GENOBJ-N-FIL_13
1002
{
1000
OWNER
1000
GEN
1002
}
  0
LINE
  5
C9
330
1EC
100
AcDbEntity
  8
0
100
AcDbLine
 10
290.78354
 20
617.505857
 30
0.0
 11
290.78354
 21
620.005857
 31
0.0
  0
LINE
  5
CA
330
1EC
100
AcDbEntity
  8
0
100
AcDbLine
 10
299.28354
 20
620.005857
 30
0.0
 11
468.28354
 21
620.005857
 31
0.0
1001
GENIUS_VERSION2
1070
     2
  0
LINE
  5
CB
330
1EC
100
AcDbEntity
  8
0
100
AcDbLine
 10
298.28354
 20
621.005857
 30
0.0
 11
298.28354
 21
621.005857
 31
0.0
1001
GENIUS_VERSION2
1070
     2
  0
ARC
  5
CC
330
1EC
100
AcDbEntity
  8
0
100
AcDbCircle
 10
299.28354
 20
621.005857
 30
0.0
 40
1.0
100
AcDbArc
 50
180.0
 51
270.0
1001
GENIUS_GENODEF_13
1002
{
1000
HIER
1070
     0
1002
}
1002
{
1000
MANEDIT
1070
     0
1002
}
1002
{
1000
NOSEL
1070
     0
1002
}
1002
{
1000
BEHIND
1070
     0
1002
}
1002
{
1000
REACTOR
1002
}
1001
GENIUS_GENOBJ-N-FIL_13
1002
{
1000
OWNER
1000
GEN
1002
}
1001
GENIUS_VERSION2
1070
     2
  0
LINE
  5
CD
330
1EC
100
AcDbEntity
  8
0
100
AcDbLine
 10
378.78354
 20
617.505857
 30
0.0
 11
378.78354
 21
612.505857
 31
0.0
1001
GENIUS_GENODEF_13
1002
{
1000
HIER
1070
     0
1002
}
1002
{
1000
MANEDIT
1070
     0
1002
}
1002
{
1000
NOSEL
1070
     0
1002
}
1002
{
1000
BEHIND
1070
     0
1002
}
1002
{
1000
REACTOR
1002
}
1001
GENIUS_GENOBJ-N-CEN_13
1002
{
1000
OWNER
1000
GEN
1002
}
  0
LINE
  5
CE
330
1EC
100
AcDbEntity
  8
0
100
AcDbLine
 10
388.78354
 20
617.505857
 30
0.0
 11
388.78354
 21
612.505857
 31
0.0
1001
GENIUS_GENODEF_13
1002
{
1000
HIER
1070
     0
1002
}
1002
{
1000
MANEDIT
1070
     0
1002
}
1002
{
1000
NOSEL
1070
     0
1002
}
1002
{
1000
BEHIND
1070
     0
1002
}
1002
{
1000
REACTOR
1002
}
1001
GENIUS_GENOBJ-N-CEN_13
1002
{
1000
OWNER
1000
GEN
1002
}
  0
LINE
  5
CF
330
1EC
100
AcDbEntity
  8
0
100
AcDbLine
 10
378.78354
 20
612.505857
 30
0.0
 11
388.78354
 21
612.505857
 31
0.0
  0
ARC
  5
D0
330
1EC
100
AcDbEntity
  8
0
100
AcDbCircle
 10
476.78354
 20
627.0058569999998
 30
0.0
 40
1.0
100
AcDbArc
 50
270.0
 51
0.0
1001
GENIUS_GENODEF_13
1002
{
1000
HIER
1070
     0
1002
}
1002
{
1000
MANEDIT
1070
     0
1002
}
1002
{
1000
NOSEL
1070
     0
1002
}
1002
{
1000
BEHIND
1070
     0
1002
}
1002
{
1000
REACTOR
1002
}
1001
GENIUS_GENOBJ-N-FIL_13
1002
{
1000
OWNER
1000
GEN
1002
}
1001
GENIUS_GENOBJ-N-CEN_13
1002
{
1000
OWNER
1000
GEN
1002
}
  0
LINE
  5
D1
330
1EC
100
AcDbEntity
  8
0
100
AcDbLine
 10
482.78354
 20
620.005857
 30
0.0
 11
475.28354
 21
620.005857
 31
0.0
  0
ARC
  5
D2
330
1EC
100
AcDbEntity
  8
0
100
AcDbCircle
 10
472.78354
 20
606.4601629999998
 30
0.0
 40
5.0
100
AcDbArc
 50
0.0
 51
90.0
1001
GENIUS_GENODEF_13
1002
{
1000
HIER
1070
     0
1002
}
1002
{
1000
MANEDIT
1070
     0
1002
}
1002
{
1000
NOSEL
1070
     0
1002
}
1002
{
1000
BEHIND
1070
     0
1002
}
1002
{
1000
REACTOR
1002
}
1001
GENIUS_GENOBJ-N-FIL_13
1002
{
1000
OWNER
1000
GEN
1002
}
1001
GENIUS_GENOBJ-N-CEN_13
1002
{
1000
OWNER
1000
GEN
1002
}
  0
LINE
  5
D3
330
1EC
100
AcDbEntity
  8
0
100
AcDbLine
 10
477.7835399999998
 20
634.5058569999999
 30
0.0
 11
477.7835399999998
 21
627.0058569999998
 31
0.0
1001
GENIUS_GENODEF_13
1002
{
1000
HIER
1070
     0
1002
}
1002
{
1000
MANEDIT
1070
     0
1002
}
1002
{
1000
NOSEL
1070
     0
1002
}
1002
{
1000
BEHIND
1070
     0
1002
}
1002
{
1000
REACTOR
1002
}
1001
GENIUS_GENOBJ-N-CEN_13
1002
{
1000
OWNER
1000
GEN
1002
}
  0
LINE
  5
D4
330
1EC
100
AcDbEntity
  8
0
100
AcDbLine
 10
481.7835399999998
 20
634.5058569999999
 30
0.0
 11
481.7835399999998
 21
625.005857
 31
0.0
1001
GENIUS_GENODEF_13
1002
{
1000
HIER
1070
     0
1002
}
1002
{
1000
MANEDIT
1070
     0
1002
}
1002
{
1000
NOSEL
1070
     0
1002
}
1002
{
1000
BEHIND
1070
     0
1002
}
1002
{
1000
REACTOR
1002
}
1001
GENIUS_GENOBJ-N-CEN_13
1002
{
1000
OWNER
1000
GEN
1002
}
  0
LINE
  5
D5
330
1EC
100
AcDbEntity
  8
0
100
AcDbLine
 10
476.78354
 20
617.505857
 30
0.0
 11
476.78354
 21
620.005857
 31
0.0
  0
ARC
  5
D6
330
1EC
100
AcDbEntity
  8
0
100
AcDbCircle
 10
476.78354
 20
625.005857
 30
0.0
 40
5.0
100
AcDbArc
 50
270.0
 51
0.0
1001
GENIUS_GENODEF_13
1002
{
1000
HIER
1070
     0
1002
}
1002
{
1000
MANEDIT
1070
     0
1002
}
1002
{
1000
NOSEL
1070
     0
1002
}
1002
{
1000
BEHIND
1070
     0
1002
}
1002
{
1000
REACTOR
1002
}
1001
GENIUS_GENOBJ-N-FIL_13
1002
{
1000
OWNER
1000
GEN
1002
}
1001
GENIUS_GENOBJ-N-CEN_13
1002
{
1000
OWNER
1000
GEN
1002
}
  0
ARC
  5
D7
330
1EC
100
AcDbEntity
  8
0
100
AcDbCircle
 10
472.78354
 20
616.4601629999999
 30
0.0
 40
5.0
100
AcDbArc
 50
180.0
 51
270.0
1001
GENIUS_GENODEF_13
1002
{
1000
HIER
1070
     0
1002
}
1002
{
1000
MANEDIT
1070
     0
1002
}
1002
{
1000
NOSEL
1070
     0
1002
}
1002
{
1000
BEHIND
1070
     0
1002
}
1002
{
1000
REACTOR
1002
}
1001
GENIUS_GENOBJ-N-FIL_13
1002
{
1000
OWNER
1000
GEN
1002
}
1001
GENIUS_VERSION2
1070
     2
1001
GENIUS_GENOBJ-N-CEN_13
1002
{
1000
OWNER
1000
GEN
1002
}
  0
LINE
  5
D8
330
1EC
100
AcDbEntity
  8
0
100
AcDbLine
 10
472.78354
 20
611.460163
 30
0.0
 11
472.78354
 21
611.460163
 31
0.0
1001
GENIUS_VERSION2
1070
     2
  0
ARC
  5
D9
330
1EC
100
AcDbEntity
  8
0
100
AcDbCircle
 10
468.28354
 20
621.005857
 30
0.0
 40
1.0
100
AcDbArc
 50
270.0
 51
0.0
1001
GENIUS_GENODEF_13
1002
{
1000
HIER
1070
     0
1002
}
1002
{
1000
MANEDIT
1070
     0
1002
}
1002
{
1000
NOSEL
1070
     0
1002
}
1002
{
1000
BEHIND
1070
     0
1002
}
1002
{
1000
REACTOR
1002
}
1001
GENIUS_GENOBJ-N-FIL_13
1002
{
1000
OWNER
1000
GEN
1002
}
1001
GENIUS_VERSION2
1070
     2
  0
LINE
  5
DA
330
1EC
100
AcDbEntity
  8
0
100
AcDbLine
 10
469.2835399999998
 20
621.005857
 30
0.0
 11
469.2835399999998
 21
621.005857
 31
0.0
1001
GENIUS_VERSION2
1070
     2
  0
LINE
  5
DB
330
1EC
100
AcDbEntity
  8
0
100
AcDbLine
 10
474.28354
 20
626.0058569999999
 30
0.0
 11
476.78354
 21
626.0058569999999
 31
0.0
1001
GENIUS_VERSION2
1070
     2
  0
ARC
  5
DC
330
1EC
100
AcDbEntity
  8
0
100
AcDbCircle
 10
475.28354
 20
619.0058569999998
 30
0.0
 40
1.0
100
AcDbArc
 50
90.0
 51
180.0
1001
GENIUS_GENODEF_13
1002
{
1000
HIER
1070
     0
1002
}
1002
{
1000
MANEDIT
1070
     0
1002
}
1002
{
1000
NOSEL
1070
     0
1002
}
1002
{
1000
BEHIND
1070
     0
1002
}
1002
{
1000
REACTOR
1002
}
1001
GENIUS_GENOBJ-N-FIL_13
1002
{
1000
OWNER
1000
GEN
1002
}
  0
LINE
  5
DD
330
1EC
100
AcDbEntity
  8
0
100
AcDbLine
 10
474.28354
 20
619.0058569999998
 30
0.0
 11
474.28354
 21
617.505857
 31
0.0
1001
GENIUS_GENODEF_13
1002
{
1000
HIER
1070
     0
1002
}
1002
{
1000
MANEDIT
1070
     0
1002
}
1002
{
1000
NOSEL
1070
     0
1002
}
1002
{
1000
BEHIND
1070
     0
1002
}
1002
{
1000
REACTOR
1002
}
1001
GENIUS_GENOBJ-N-CEN_13
1002
{
1000
OWNER
1000
GEN
1002
}
  0
LINE
  5
DE
330
1EC
100
AcDbEntity
  8
0
100
AcDbLine
 10
464.28354
 20
620.005857
 30
0.0
 11
464.28354
 21
617.505857
 31
0.0
1001
GENIUS_VERSION2
1070
     2
1001
GENIUS_GENODEF_13
1002
{
1000
HIER
1070
     0
1002
}
1002
{
1000
MANEDIT
1070
     0
1002
}
1002
{
1000
NOSEL
1070
     0
1002
}
1002
{
1000
BEHIND
1070
     0
1002
}
1002
{
1000
REACTOR
1002
}
1001
GENIUS_GENOBJ-N-CEN_13
1002
{
1000
OWNER
1000
GEN
1002
}
  0
LINE
  5
DF
330
1EC
100
AcDbEntity
  8
0
100
AcDbLine
 10
467.78354
 20
617.505857
 30
0.0
 11
467.78354
 21
616.4601629999999
 31
0.0
1001
GENIUS_VERSION2
1070
     2
1001
GENIUS_GENODEF_13
1002
{
1000
HIER
1070
     0
1002
}
1002
{
1000
MANEDIT
1070
     0
1002
}
1002
{
1000
NOSEL
1070
     0
1002
}
1002
{
1000
BEHIND
1070
     0
1002
}
1002
{
1000
REACTOR
1002
}
1001
GENIUS_GENOBJ-N-CEN_13
1002
{
1000
OWNER
1000
GEN
1002
}
  0
INSERT
  5
E0
330
1EC
100
AcDbEntity
  8
8
100
AcDbBlockReference
  2
*X2
 10
68.12098399999999
 20
181.2727129999999
 30
0.0
1001
GENIUS_VERSION2
1070
     2
1001
GENIUS_GENODEF_13
1002
{
1000
HIER
1070
     0
1002
}
1002
{
1000
MANEDIT
1070
     0
1002
}
1002
{
1000
NOSEL
1070
     0
1002
}
1002
{
1000
BEHIND
1070
     0
1002
}
1002
{
1000
REACTOR
1002
}
1001
GENIUS_GENOBJ-N-HTC_13
1002
{
1000
OWNER
1000
GEN
1002
}
1001
GENIUS_GENHATCH_13
1002
{
1000
DATA
1040
135.0
1042
2.7
1000
_U
1070
     0
1011
328.3544999999999
1021
630.402799
1031
0.0
1002
}
1002
{
1000
UCS
1010
0.0
1020
0.0
1030
0.0
1010
1.0
1020
0.0
1030
0.0
1010
0.0
1020
1.0
1030
0.0
1002
}
1001
ACAD
1000
HATCH
1002
{
1070
    19
1000
_U
1040
5.4
1040
2.356193999999999
1070
     0
1002
}
  0
INSERT
  5
E6
330
1EC
100
AcDbEntity
  8
8
100
AcDbBlockReference
  2
*X3
 10
68.12098399999999
 20
181.2727129999999
 30
0.0
1001
GENIUS_VERSION2
1070
     2
1001
GENIUS_GENODEF_13
1002
{
1000
HIER
1070
     0
1002
}
1002
{
1000
MANEDIT
1070
     0
1002
}
1002
{
1000
NOSEL
1070
     0
1002
}
1002
{
1000
BEHIND
1070
     0
1002
}
1002
{
1000
REACTOR
1002
}
1001
GENIUS_GENOBJ-N-HTC_13
1002
{
1000
OWNER
1000
GEN
1002
}
1001
GENIUS_GENHATCH_13
1002
{
1000
DATA
1040
135.0
1042
2.7
1000
_U
1070
     0
1011
343.7053649999999
1021
631.408665
1031
0.0
1002
}
1002
{
1000
UCS
1010
0.0
1020
0.0
1030
0.0
1010
1.0
1020
0.0
1030
0.0
1010
0.0
1020
1.0
1030
0.0
1002
}
1001
ACAD
1000
HATCH
1002
{
1070
    19
1000
_U
1040
5.4
1040
2.356193999999999
1070
     0
1002
}
  0
INSERT
  5
EC
330
1EC
100
AcDbEntity
  8
8
100
AcDbBlockReference
  2
*X4
 10
68.12098399999999
 20
181.2727129999999
 30
0.0
1001
GENIUS_VERSION2
1070
     2
1001
GENIUS_GENODEF_13
1002
{
1000
HIER
1070
     0
1002
}
1002
{
1000
MANEDIT
1070
     0
1002
}
1002
{
1000
NOSEL
1070
     0
1002
}
1002
{
1000
BEHIND
1070
     0
1002
}
1002
{
1000
REACTOR
1002
}
1001
GENIUS_GENOBJ-N-HTC_13
1002
{
1000
OWNER
1000
GEN
1002
}
1001
GENIUS_GENHATCH_13
1002
{
1000
DATA
1040
135.0
1042
2.7
1000
_U
1070
     0
1011
361.824423
1021
630.151334
1031
0.0
1002
}
1002
{
1000
UCS
1010
0.0
1020
0.0
1030
0.0
1010
1.0
1020
0.0
1030
0.0
1010
0.0
1020
1.0
1030
0.0
1002
}
1001
ACAD
1000
HATCH
1002
{
1070
    19
1000
_U
1040
5.4
1040
2.356193999999999
1070
     0
1002
}
  0
INSERT
  5
F2
330
1EC
100
AcDbEntity
  8
8
100
AcDbBlockReference
  2
*X5
 10
68.12098399999999
 20
181.2727129999999
 30
0.0
1001
GENIUS_VERSION2
1070
     2
1001
GENIUS_GENODEF_13
1002
{
1000
HIER
1070
     0
1002
}
1002
{
1000
MANEDIT
1070
     0
1002
}
1002
{
1000
NOSEL
1070
     0
1002
}
1002
{
1000
BEHIND
1070
     0
1002
}
1002
{
1000
REACTOR
1002
}
1001
GENIUS_GENOBJ-N-HTC_13
1002
{
1000
OWNER
1000
GEN
1002
}
1001
GENIUS_GENHATCH_13
1002
{
1000
DATA
1040
135.0
1042
2.7
1000
_U
1070
     0
1011
376.4203289999999
1021
630.6542659999998
1031
0.0
1002
}
1002
{
1000
UCS
1010
0.0
1020
0.0
1030
0.0
1010
1.0
1020
0.0
1030
0.0
1010
0.0
1020
1.0
1030
0.0
1002
}
1001
ACAD
1000
HATCH
1002
{
1070
    19
1000
_U
1040
5.4
1040
2.356193999999999
1070
     0
1002
}
  0
INSERT
  5
F8
330
1EC
100
AcDbEntity
  8
8
100
AcDbBlockReference
  2
*X6
 10
68.12098399999999
 20
181.2727129999999
 30
0.0
1001
GENIUS_VERSION2
1070
     2
1001
GENIUS_GENODEF_13
1002
{
1000
HIER
1070
     0
1002
}
1002
{
1000
MANEDIT
1070
     0
1002
}
1002
{
1000
NOSEL
1070
     0
1002
}
1002
{
1000
BEHIND
1070
     0
1002
}
1002
{
1000
REACTOR
1002
}
1001
GENIUS_GENOBJ-N-HTC_13
1002
{
1000
OWNER
1000
GEN
1002
}
1001
GENIUS_GENHATCH_13
1002
{
1000
DATA
1040
135.0
1042
2.7
1000
_U
1070
     0
1011
390.7645799999999
1021
629.6484
1031
0.0
1002
}
1002
{
1000
UCS
1010
0.0
1020
0.0
1030
0.0
1010
1.0
1020
0.0
1030
0.0
1010
0.0
1020
1.0
1030
0.0
1002
}
1001
ACAD
1000
HATCH
1002
{
1070
    19
1000
_U
1040
5.4
1040
2.356193999999999
1070
     0
1002
}
  0
INSERT
  5
FE
330
1EC
100
AcDbEntity
  8
8
100
AcDbBlockReference
  2
*X7
 10
68.12098399999999
 20
181.2727129999999
 30
0.0
1001
GENIUS_VERSION2
1070
     2
1001
GENIUS_GENODEF_13
1002
{
1000
HIER
1070
     0
1002
}
1002
{
1000
MANEDIT
1070
     0
1002
}
1002
{
1000
NOSEL
1070
     0
1002
}
1002
{
1000
BEHIND
1070
     0
1002
}
1002
{
1000
REACTOR
1002
}
1001
GENIUS_GENOBJ-N-HTC_13
1002
{
1000
OWNER
1000
GEN
1002
}
1001
GENIUS_GENHATCH_13
1002
{
1000
DATA
1040
135.0
1042
2.7
1000
_U
1070
     0
1011
408.6319849999998
1021
630.151334
1031
0.0
1002
}
1002
{
1000
UCS
1010
0.0
1020
0.0
1030
0.0
1010
1.0
1020
0.0
1030
0.0
1010
0.0
1020
1.0
1030
0.0
1002
}
1001
ACAD
1000
HATCH
1002
{
1070
    19
1000
_U
1040
5.4
1040
2.356193999999999
1070
     0
1002
}
  0
INSERT
  5
104
330
1EC
100
AcDbEntity
  8
8
100
AcDbBlockReference
  2
*X8
 10
68.12098399999999
 20
181.2727129999999
 30
0.0
1001
GENIUS_VERSION2
1070
     2
1001
GENIUS_GENODEF_13
1002
{
1000
HIER
1070
     0
1002
}
1002
{
1000
MANEDIT
1070
     0
1002
}
1002
{
1000
NOSEL
1070
     0
1002
}
1002
{
1000
BEHIND
1070
     0
1002
}
1002
{
1000
REACTOR
1002
}
1001
GENIUS_GENOBJ-N-HTC_13
1002
{
1000
OWNER
1000
GEN
1002
}
1001
GENIUS_GENHATCH_13
1002
{
1000
DATA
1040
135.0
1042
2.7
1000
_U
1070
     0
1011
424.234503
1021
630.402799
1031
0.0
1002
}
1002
{
1000
UCS
1010
0.0
1020
0.0
1030
0.0
1010
1.0
1020
0.0
1030
0.0
1010
0.0
1020
1.0
1030
0.0
1002
}
1001
ACAD
1000
HATCH
1002
{
1070
    19
1000
_U
1040
5.4
1040
2.356193999999999
1070
     0
1002
}
  0
INSERT
  5
10A
330
1EC
100
AcDbEntity
  8
8
100
AcDbBlockReference
  2
*X9
 10
68.12098399999999
 20
181.2727129999999
 30
0.0
1001
GENIUS_VERSION2
1070
     2
1001
GENIUS_GENODEF_13
1002
{
1000
HIER
1070
     0
1002
}
1002
{
1000
MANEDIT
1070
     0
1002
}
1002
{
1000
NOSEL
1070
     0
1002
}
1002
{
1000
BEHIND
1070
     0
1002
}
1002
{
1000
REACTOR
1002
}
1001
GENIUS_GENOBJ-N-HTC_13
1002
{
1000
OWNER
1000
GEN
1002
}
1001
GENIUS_GENHATCH_13
1002
{
1000
DATA
1040
135.0
1042
2.7
1000
_U
1070
     0
1011
439.3337179999998
1021
630.6542659999998
1031
0.0
1002
}
1002
{
1000
UCS
1010
0.0
1020
0.0
1030
0.0
1010
1.0
1020
0.0
1030
0.0
1010
0.0
1020
1.0
1030
0.0
1002
}
1001
ACAD
1000
HATCH
1002
{
1070
    19
1000
_U
1040
5.4
1040
2.356193999999999
1070
     0
1002
}
  0
INSERT
  5
110
330
1EC
100
AcDbEntity
  8
8
100
AcDbBlockReference
  2
*X10
 10
68.12098399999999
 20
181.2727129999999
 30
0.0
1001
GENIUS_VERSION2
1070
     2
1001
GENIUS_GENODEF_13
1002
{
1000
HIER
1070
     0
1002
}
1002
{
1000
MANEDIT
1070
     0
1002
}
1002
{
1000
NOSEL
1070
     0
1002
}
1002
{
1000
BEHIND
1070
     0
1002
}
1002
{
1000
REACTOR
1002
}
1001
GENIUS_GENOBJ-N-HTC_13
1002
{
1000
OWNER
1000
GEN
1002
}
1001
GENIUS_GENHATCH_13
1002
{
1000
DATA
1040
135.0
1042
2.7
1000
_U
1070
     0
1011
289.5025769999999
1021
614.12422
1031
0.0
1002
}
1002
{
1000
UCS
1010
0.0
1020
0.0
1030
0.0
1010
1.0
1020
0.0
1030
0.0
1010
0.0
1020
1.0
1030
0.0
1002
}
1001
ACAD
1000
HATCH
1002
{
1070
    19
1000
_U
1040
5.4
1040
2.356193999999999
1070
     0
1002
}
  0
INSERT
  5
128
330
1EC
100
AcDbEntity
  8
8
100
AcDbBlockReference
  2
*X11
 10
68.12098399999999
 20
181.2727129999999
 30
0.0
1001
GENIUS_VERSION2
1070
     2
1001
GENIUS_GENODEF_13
1002
{
1000
HIER
1070
     0
1002
}
1002
{
1000
MANEDIT
1070
     0
1002
}
1002
{
1000
NOSEL
1070
     0
1002
}
1002
{
1000
BEHIND
1070
     0
1002
}
1002
{
1000
REACTOR
1002
}
1001
GENIUS_GENOBJ-N-HTC_13
1002
{
1000
OWNER
1000
GEN
1002
}
1001
GENIUS_GENHATCH_13
1002
{
1000
DATA
1040
135.0
1042
2.7
1000
_U
1070
     0
1011
478.1019129999998
1021
614.12422
1031
0.0
1002
}
1002
{
1000
UCS
1010
0.0
1020
0.0
1030
0.0
1010
1.0
1020
0.0
1030
0.0
1010
0.0
1020
1.0
1030
0.0
1002
}
1001
ACAD
1000
HATCH
1002
{
1070
    19
1000
_U
1040
5.4
1040
2.356193999999999
1070
     0
1002
}
  0
DIMENSION
  5
14C
330
1EC
100
AcDbEntity
  8
5
100
AcDbDimension
  2
*D19
 10
483.78354
 20
719.505857
 30
0.0
 11
384.78354
 21
731.255857
 31
0.0
 70
    32
  1
{\Fgeniso.shx;\U+25A1}<>
 71
     5
 42
-1.0
  3
GEN-ISO
100
AcDbAlignedDimension
 13
285.78354
 23
634.5058569999999
 33
0.0
 14
483.78354
 24
634.5058569999999
 34
0.0
100
AcDbRotatedDimension
1001
GENIUS_GENDTOL_13
1000

1000
h7
1000

1040
0.0
1000
{\Fgeniso.shx;\U+25A1}<>
  0
INSERT
  5
159
330
1EC
100
AcDbEntity
  8
8
100
AcDbBlockReference
  2
*X12
 10
68.12098399999999
 20
181.2727129999999
 30
0.0
1001
GENIUS_VERSION2
1070
     2
1001
GENIUS_GENODEF_13
1002
{
1000
HIER
1070
     0
1002
}
1002
{
1000
MANEDIT
1070
     0
1002
}
1002
{
1000
NOSEL
1070
     0
1002
}
1002
{
1000
BEHIND
1070
     0
1002
}
1002
{
1000
REACTOR
1002
}
1001
GENIUS_GENOBJ-N-HTC_13
1002
{
1000
OWNER
1000
GEN
1002
}
1001
GENIUS_GENHATCH_13
1002
{
1000
DATA
1040
135.0
1042
2.7
1000
_U
1070
     0
1011
297.278391
1021
628.5800019999998
1031
0.0
1002
}
1002
{
1000
UCS
1010
0.0
1020
0.0
1030
0.0
1010
1.0
1020
0.0
1030
0.0
1010
0.0
1020
1.0
1030
0.0
1002
}
1001
ACAD
1000
HATCH
1002
{
1070
    19
1000
_U
1040
5.4
1040
2.356193999999999
1070
     0
1002
}
  0
INSERT
  5
161
330
1EC
100
AcDbEntity
  8
8
100
AcDbBlockReference
  2
*X13
 10
68.12098399999999
 20
181.2727129999999
 30
0.0
1001
GENIUS_VERSION2
1070
     2
1001
GENIUS_GENODEF_13
1002
{
1000
HIER
1070
     0
1002
}
1002
{
1000
MANEDIT
1070
     0
1002
}
1002
{
1000
NOSEL
1070
     0
1002
}
1002
{
1000
BEHIND
1070
     0
1002
}
1002
{
1000
REACTOR
1002
}
1001
GENIUS_GENOBJ-N-HTC_13
1002
{
1000
OWNER
1000
GEN
1002
}
1001
GENIUS_GENHATCH_13
1002
{
1000
DATA
1040
45.0
1042
2.5
1000
_U
1070
     0
1011
290.5165919999999
1021
623.418582
1031
0.0
1002
}
1002
{
1000
UCS
1010
0.0
1020
0.0
1030
0.0
1010
1.0
1020
0.0
1030
0.0
1010
0.0
1020
1.0
1030
0.0
1002
}
1001
ACAD
1000
HATCH
1002
{
1070
    19
1000
_U
1040
5.0
1040
0.7853979999999999
1070
     0
1002
}
  0
INSERT
  5
16A
330
1EC
100
AcDbEntity
  8
8
100
AcDbBlockReference
  2
*X14
 10
68.12098399999999
 20
181.2727129999999
 30
0.0
1001
GENIUS_VERSION2
1070
     2
1001
GENIUS_GENODEF_13
1002
{
1000
HIER
1070
     0
1002
}
1002
{
1000
MANEDIT
1070
     0
1002
}
1002
{
1000
NOSEL
1070
     0
1002
}
1002
{
1000
BEHIND
1070
     0
1002
}
1002
{
1000
REACTOR
1002
}
1001
GENIUS_GENOBJ-N-HTC_13
1002
{
1000
OWNER
1000
GEN
1002
}
1001
GENIUS_GENHATCH_13
1002
{
1000
DATA
1040
45.0
1042
2.5
1000
_U
1070
     0
1011
476.732124
1021
624.2585280000001
1031
0.0
1002
}
1002
{
1000
UCS
1010
0.0
1020
0.0
1030
0.0
1010
1.0
1020
0.0
1030
0.0
1010
0.0
1020
1.0
1030
0.0
1002
}
1001
ACAD
1000
HATCH
1002
{
1070
    19
1000
_U
1040
5.0
1040
0.7853979999999999
1070
     0
1002
}
  0
INSERT
  5
172
330
1EC
100
AcDbEntity
  8
8
100
AcDbBlockReference
  2
*X15
 10
68.12098399999999
 20
181.2727129999999
 30
0.0
1001
GENIUS_VERSION2
1070
     2
1001
GENIUS_GENODEF_13
1002
{
1000
HIER
1070
     0
1002
}
1002
{
1000
MANEDIT
1070
     0
1002
}
1002
{
1000
NOSEL
1070
     0
1002
}
1002
{
1000
BEHIND
1070
     0
1002
}
1002
{
1000
REACTOR
1002
}
1001
GENIUS_GENOBJ-N-HTC_13
1002
{
1000
OWNER
1000
GEN
1002
}
1001
GENIUS_GENHATCH_13
1002
{
1000
DATA
1040
135.0
1042
2.7
1000
_U
1070
     0
1011
467.2087499999998
1021
630.262853
1031
0.0
1002
}
1002
{
1000
UCS
1010
0.0
1020
0.0
1030
0.0
1010
1.0
1020
0.0
1030
0.0
1010
0.0
1020
1.0
1030
0.0
1002
}
1001
ACAD
1000
HATCH
1002
{
1070
    19
1000
_U
1040
5.4
1040
2.356193999999999
1070
     0
1002
}
  0
ARC
  5
17A
330
1EC
100
AcDbEntity
  8
0
100
AcDbCircle
 10
474.28354
 20
621.005857
 30
0.0
 40
5.0
100
AcDbArc
 50
90.0
 51
180.0
1001
GENIUS_GENODEF_13
1002
{
1000
HIER
1070
     0
1002
}
1002
{
1000
MANEDIT
1070
     0
1002
}
1002
{
1000
NOSEL
1070
     0
1002
}
1002
{
1000
BEHIND
1070
     0
1002
}
1002
{
1000
REACTOR
1002
}
1001
GENIUS_GENOBJ-N-FIL_13
1002
{
1000
OWNER
1000
GEN
1002
}
1001
GENIUS_VERSION2
1070
     2
  0
INSERT
  5
28B
330
1EC
100
AcDbEntity
  8
0
100
AcDbBlockReference
  2
KATALOG_LEER
 10
251.839706
 20
11.304483
 30
0.0
 41
5.0
 42
5.0
 43
5.0
1001
GENIUS_GENOREF_13
1005
28C
  0
POINT
  5
28C
330
1EC
100
AcDbEntity
  8
0
 60
     1
100
AcDbPoint
 10
0.0
 20
0.0
 30
0.0
1001
GENIUS_GENOBJ-N-TIT_13
1002
{
1000
OWNER
1000
GEN
1002
}
1001
GENIUS_GENOENT_13
1002
{
1000
MYREF
1005
28C
1002
}
1002
{
1000
GRP
1005
0
1002
}
1001
GENIUS_GENOLIS_13
1002
{
1000
ENT
1005
28B
1002
}
1001
GENIUS_GENTITLE_13
1002
{
1000
SCALE
1000
1:5
1002
}
1002
{
1000
BORDER
1000
KATALOG
1002
}
1002
{
1000
TITLE
1000
KATALOG_LEER
1002
}
1002
{
1000
UNCHG
1002
{
1000
GEN-TITLE-SCA
1000
GEN-TITLE-SIZ
1002
}
1002
}
1002
{
1000
HRA
1005
284
1002
}
1002
{
1000
HTIT
1005
28B
1002
}
1002
{
1000
GENIUSID
1005
28C
1002
}
1001
GENIUS_GENODEF_13
1002
{
1000
HIER
1070
     1
1002
}
1002
{
1000
MANEDIT
1070
     1
1002
}
1002
{
1000
NOSEL
1070
     0
1002
}
1002
{
1000
BEHIND
1070
     0
1002
}
1002
{
1000
REACTOR
1002
}
  0
POLYLINE
  5
3E9
330
1EC
100
AcDbEntity
  8
SCHRAFFUR_RAND
100
AcDb2dPolyline
 66
     1
 10
0.0
 20
0.0
 30
0.0
 70
     1
  0
VERTEX
  5
3EA
330
3E9
100
AcDbEntity
  8
SCHRAFFUR_RAND
100
AcDbVertex
100
AcDb2dVertex
 10
289.78354
 20
606.4601629999998
 30
0.0
 42
-0.4142140000000002
  0
VERTEX
  5
3EB
330
3E9
100
AcDbEntity
  8
SCHRAFFUR_RAND
100
AcDbVertex
100
AcDb2dVertex
 10
294.78354
 20
611.460163
 30
0.0
 42
0.4142140000000002
  0
VERTEX
  5
3EC
330
3E9
100
AcDbEntity
  8
SCHRAFFUR_RAND
100
AcDbVertex
100
AcDb2dVertex
 10
299.7835399999999
 20
616.4601629999999
 30
0.0
  0
VERTEX
  5
3ED
330
3E9
100
AcDbEntity
  8
SCHRAFFUR_RAND
100
AcDbVertex
100
AcDb2dVertex
 10
299.7835399999999
 20
617.505857
 30
0.0
  0
VERTEX
  5
3EE
330
3E9
100
AcDbEntity
  8
SCHRAFFUR_RAND
100
AcDbVertex
100
AcDb2dVertex
 10
290.78354
 20
617.505857
 30
0.0
  0
VERTEX
  5
3EF
330
3E9
100
AcDbEntity
  8
SCHRAFFUR_RAND
100
AcDbVertex
100
AcDb2dVertex
 10
290.78354
 20
620.005857
 30
0.0
  0
VERTEX
  5
3F0
330
3E9
100
AcDbEntity
  8
SCHRAFFUR_RAND
100
AcDbVertex
100
AcDb2dVertex
 10
284.78354
 20
620.005857
 30
0.0
  0
VERTEX
  5
3F1
330
3E9
100
AcDbEntity
  8
SCHRAFFUR_RAND
100
AcDbVertex
100
AcDb2dVertex
 10
284.78354
 20
476.505857
 30
0.0
  0
VERTEX
  5
3F2
330
3E9
100
AcDbEntity
  8
SCHRAFFUR_RAND
100
AcDbVertex
100
AcDb2dVertex
 10
289.78354
 20
476.505857
 30
0.0
  0
SEQEND
  5
3F3
330
3E9
100
AcDbEntity
  8
SCHRAFFUR_RAND
  0
POLYLINE
  5
47B
330
1EC
100
AcDbEntity
  8
SCHRAFFUR_RAND
100
AcDb2dPolyline
 66
     1
 10
0.0
 20
0.0
 30
0.0
 70
     1
  0
VERTEX
  5
47C
330
47B
100
AcDbEntity
  8
SCHRAFFUR_RAND
100
AcDbVertex
100
AcDb2dVertex
 10
477.7835399999998
 20
634.5058569999999
 30
0.0
  0
VERTEX
  5
47D
330
47B
100
AcDbEntity
  8
SCHRAFFUR_RAND
100
AcDbVertex
100
AcDb2dVertex
 10
451.78354
 20
634.5058569999999
 30
0.0
  0
VERTEX
  5
47E
330
47B
100
AcDbEntity
  8
SCHRAFFUR_RAND
100
AcDbVertex
100
AcDb2dVertex
 10
451.78354
 20
627.0058569999998
 30
0.0
  0
VERTEX
  5
47F
330
47B
100
AcDbEntity
  8
SCHRAFFUR_RAND
100
AcDbVertex
100
AcDb2dVertex
 10
477.7835399999998
 20
627.0058569999998
 30
0.0
  0
SEQEND
  5
480
330
47B
100
AcDbEntity
  8
SCHRAFFUR_RAND
  0
POLYLINE
  5
481
330
1EC
100
AcDbEntity
  8
SCHRAFFUR_RAND
100
AcDb2dPolyline
 66
     1
 10
0.0
 20
0.0
 30
0.0
 70
     1
  0
VERTEX
  5
482
330
481
100
AcDbEntity
  8
SCHRAFFUR_RAND
100
AcDbVertex
100
AcDb2dVertex
 10
443.7835399999998
 20
634.5058569999999
 30
0.0
  0
VERTEX
  5
483
330
481
100
AcDbEntity
  8
SCHRAFFUR_RAND
100
AcDbVertex
100
AcDb2dVertex
 10
435.7835399999998
 20
634.5058569999999
 30
0.0
  0
VERTEX
  5
484
330
481
100
AcDbEntity
  8
SCHRAFFUR_RAND
100
AcDbVertex
100
AcDb2dVertex
 10
435.7835399999998
 20
627.0058569999998
 30
0.0
  0
VERTEX
  5
485
330
481
100
AcDbEntity
  8
SCHRAFFUR_RAND
100
AcDbVertex
100
AcDb2dVertex
 10
443.7835399999998
 20
627.0058569999998
 30
0.0
  0
SEQEND
  5
486
330
481
100
AcDbEntity
  8
SCHRAFFUR_RAND
  0
POLYLINE
  5
487
330
1EC
100
AcDbEntity
  8
SCHRAFFUR_RAND
100
AcDb2dPolyline
 66
     1
 10
0.0
 20
0.0
 30
0.0
 70
     1
  0
VERTEX
  5
488
330
487
100
AcDbEntity
  8
SCHRAFFUR_RAND
100
AcDbVertex
100
AcDb2dVertex
 10
427.7835399999998
 20
634.5058569999999
 30
0.0
  0
VERTEX
  5
489
330
487
100
AcDbEntity
  8
SCHRAFFUR_RAND
100
AcDbVertex
100
AcDb2dVertex
 10
419.78354
 20
634.5058569999999
 30
0.0
  0
VERTEX
  5
48A
330
487
100
AcDbEntity
  8
SCHRAFFUR_RAND
100
AcDbVertex
100
AcDb2dVertex
 10
419.78354
 20
627.0058569999998
 30
0.0
  0
VERTEX
  5
48B
330
487
100
AcDbEntity
  8
SCHRAFFUR_RAND
100
AcDbVertex
100
AcDb2dVertex
 10
427.7835399999998
 20
627.0058569999998
 30
0.0
  0
SEQEND
  5
48C
330
487
100
AcDbEntity
  8
SCHRAFFUR_RAND
  0
POLYLINE
  5
48D
330
1EC
100
AcDbEntity
  8
SCHRAFFUR_RAND
100
AcDb2dPolyline
 66
     1
 10
0.0
 20
0.0
 30
0.0
 70
     1
  0
VERTEX
  5
48E
330
48D
100
AcDbEntity
  8
SCHRAFFUR_RAND
100
AcDbVertex
100
AcDb2dVertex
 10
411.78354
 20
634.5058569999999
 30
0.0
  0
VERTEX
  5
48F
330
48D
100
AcDbEntity
  8
SCHRAFFUR_RAND
100
AcDbVertex
100
AcDb2dVertex
 10
403.78354
 20
634.5058569999999
 30
0.0
  0
VERTEX
  5
490
330
48D
100
AcDbEntity
  8
SCHRAFFUR_RAND
100
AcDbVertex
100
AcDb2dVertex
 10
403.78354
 20
627.0058569999998
 30
0.0
  0
VERTEX
  5
491
330
48D
100
AcDbEntity
  8
SCHRAFFUR_RAND
100
AcDbVertex
100
AcDb2dVertex
 10
411.78354
 20
627.0058569999998
 30
0.0
  0
SEQEND
  5
492
330
48D
100
AcDbEntity
  8
SCHRAFFUR_RAND
  0
POLYLINE
  5
493
330
1EC
100
AcDbEntity
  8
SCHRAFFUR_RAND
100
AcDb2dPolyline
 66
     1
 10
0.0
 20
0.0
 30
0.0
 70
     1
  0
VERTEX
  5
494
330
493
100
AcDbEntity
  8
SCHRAFFUR_RAND
100
AcDbVertex
100
AcDb2dVertex
 10
395.78354
 20
634.5058569999999
 30
0.0
  0
VERTEX
  5
495
330
493
100
AcDbEntity
  8
SCHRAFFUR_RAND
100
AcDbVertex
100
AcDb2dVertex
 10
387.78354
 20
634.5058569999999
 30
0.0
  0
VERTEX
  5
496
330
493
100
AcDbEntity
  8
SCHRAFFUR_RAND
100
AcDbVertex
100
AcDb2dVertex
 10
387.78354
 20
627.0058569999998
 30
0.0
  0
VERTEX
  5
497
330
493
100
AcDbEntity
  8
SCHRAFFUR_RAND
100
AcDbVertex
100
AcDb2dVertex
 10
395.78354
 20
627.0058569999998
 30
0.0
  0
SEQEND
  5
498
330
493
100
AcDbEntity
  8
SCHRAFFUR_RAND
  0
POLYLINE
  5
499
330
1EC
100
AcDbEntity
  8
SCHRAFFUR_RAND
100
AcDb2dPolyline
 66
     1
 10
0.0
 20
0.0
 30
0.0
 70
     1
  0
VERTEX
  5
49A
330
499
100
AcDbEntity
  8
SCHRAFFUR_RAND
100
AcDbVertex
100
AcDb2dVertex
 10
379.78354
 20
634.5058569999999
 30
0.0
  0
VERTEX
  5
49B
330
499
100
AcDbEntity
  8
SCHRAFFUR_RAND
100
AcDbVertex
100
AcDb2dVertex
 10
371.78354
 20
634.5058569999999
 30
0.0
  0
VERTEX
  5
49C
330
499
100
AcDbEntity
  8
SCHRAFFUR_RAND
100
AcDbVertex
100
AcDb2dVertex
 10
371.78354
 20
627.0058569999998
 30
0.0
  0
VERTEX
  5
49D
330
499
100
AcDbEntity
  8
SCHRAFFUR_RAND
100
AcDbVertex
100
AcDb2dVertex
 10
379.78354
 20
627.0058569999998
 30
0.0
  0
SEQEND
  5
49E
330
499
100
AcDbEntity
  8
SCHRAFFUR_RAND
  0
POLYLINE
  5
49F
330
1EC
100
AcDbEntity
  8
SCHRAFFUR_RAND
100
AcDb2dPolyline
 66
     1
 10
0.0
 20
0.0
 30
0.0
 70
     1
  0
VERTEX
  5
4A0
330
49F
100
AcDbEntity
  8
SCHRAFFUR_RAND
100
AcDbVertex
100
AcDb2dVertex
 10
363.78354
 20
634.5058569999999
 30
0.0
  0
VERTEX
  5
4A1
330
49F
100
AcDbEntity
  8
SCHRAFFUR_RAND
100
AcDbVertex
100
AcDb2dVertex
 10
355.78354
 20
634.5058569999999
 30
0.0
  0
VERTEX
  5
4A2
330
49F
100
AcDbEntity
  8
SCHRAFFUR_RAND
100
AcDbVertex
100
AcDb2dVertex
 10
355.78354
 20
627.0058569999998
 30
0.0
  0
VERTEX
  5
4A3
330
49F
100
AcDbEntity
  8
SCHRAFFUR_RAND
100
AcDbVertex
100
AcDb2dVertex
 10
363.78354
 20
627.0058569999998
 30
0.0
  0
SEQEND
  5
4A4
330
49F
100
AcDbEntity
  8
SCHRAFFUR_RAND
  0
POLYLINE
  5
4A5
330
1EC
100
AcDbEntity
  8
SCHRAFFUR_RAND
100
AcDb2dPolyline
 66
     1
 10
0.0
 20
0.0
 30
0.0
 70
     1
  0
VERTEX
  5
4A6
330
4A5
100
AcDbEntity
  8
SCHRAFFUR_RAND
100
AcDbVertex
100
AcDb2dVertex
 10
347.78354
 20
634.5058569999999
 30
0.0
  0
VERTEX
  5
4A7
330
4A5
100
AcDbEntity
  8
SCHRAFFUR_RAND
100
AcDbVertex
100
AcDb2dVertex
 10
339.78354
 20
634.5058569999999
 30
0.0
  0
VERTEX
  5
4A8
330
4A5
100
AcDbEntity
  8
SCHRAFFUR_RAND
100
AcDbVertex
100
AcDb2dVertex
 10
339.78354
 20
627.0058569999998
 30
0.0
  0
VERTEX
  5
4A9
330
4A5
100
AcDbEntity
  8
SCHRAFFUR_RAND
100
AcDbVertex
100
AcDb2dVertex
 10
347.78354
 20
627.0058569999998
 30
0.0
  0
SEQEND
  5
4AA
330
4A5
100
AcDbEntity
  8
SCHRAFFUR_RAND
  0
POLYLINE
  5
4AB
330
1EC
100
AcDbEntity
  8
SCHRAFFUR_RAND
100
AcDb2dPolyline
 66
     1
 10
0.0
 20
0.0
 30
0.0
 70
     1
  0
VERTEX
  5
4AC
330
4AB
100
AcDbEntity
  8
SCHRAFFUR_RAND
100
AcDbVertex
100
AcDb2dVertex
 10
331.78354
 20
634.5058569999999
 30
0.0
  0
VERTEX
  5
4AD
330
4AB
100
AcDbEntity
  8
SCHRAFFUR_RAND
100
AcDbVertex
100
AcDb2dVertex
 10
323.78354
 20
634.5058569999999
 30
0.0
  0
VERTEX
  5
4AE
330
4AB
100
AcDbEntity
  8
SCHRAFFUR_RAND
100
AcDbVertex
100
AcDb2dVertex
 10
323.78354
 20
627.0058569999998
 30
0.0
  0
VERTEX
  5
4AF
330
4AB
100
AcDbEntity
  8
SCHRAFFUR_RAND
100
AcDbVertex
100
AcDb2dVertex
 10
331.78354
 20
627.0058569999998
 30
0.0
  0
SEQEND
  5
4B0
330
4AB
100
AcDbEntity
  8
SCHRAFFUR_RAND
  0
POLYLINE
  5
4B1
330
1EC
100
AcDbEntity
  8
SCHRAFFUR_RAND
100
AcDb2dPolyline
 66
     1
 10
0.0
 20
0.0
 30
0.0
 70
     1
  0
VERTEX
  5
4B2
330
4B1
100
AcDbEntity
  8
SCHRAFFUR_RAND
100
AcDbVertex
100
AcDb2dVertex
 10
315.78354
 20
634.5058569999999
 30
0.0
  0
VERTEX
  5
4B3
330
4B1
100
AcDbEntity
  8
SCHRAFFUR_RAND
100
AcDbVertex
100
AcDb2dVertex
 10
289.78354
 20
634.5058569999999
 30
0.0
  0
VERTEX
  5
4B4
330
4B1
100
AcDbEntity
  8
SCHRAFFUR_RAND
100
AcDbVertex
100
AcDb2dVertex
 10
289.78354
 20
627.0058569999998
 30
0.0
  0
VERTEX
  5
4B5
330
4B1
100
AcDbEntity
  8
SCHRAFFUR_RAND
100
AcDbVertex
100
AcDb2dVertex
 10
315.78354
 20
627.0058569999998
 30
0.0
  0
SEQEND
  5
4B6
330
4B1
100
AcDbEntity
  8
SCHRAFFUR_RAND
  0
POLYLINE
  5
4B7
330
1EC
100
AcDbEntity
  8
SCHRAFFUR_RAND
100
AcDb2dPolyline
 66
     1
 10
0.0
 20
0.0
 30
0.0
 70
     1
  0
VERTEX
  5
4B8
330
4B7
100
AcDbEntity
  8
SCHRAFFUR_RAND
100
AcDbVertex
100
AcDb2dVertex
 10
289.78354
 20
634.5058569999999
 30
0.0
  0
VERTEX
  5
4B9
330
4B7
100
AcDbEntity
  8
SCHRAFFUR_RAND
100
AcDbVertex
100
AcDb2dVertex
 10
285.78354
 20
634.5058569999999
 30
0.0
  0
VERTEX
  5
4BA
330
4B7
100
AcDbEntity
  8
SCHRAFFUR_RAND
100
AcDbVertex
100
AcDb2dVertex
 10
285.78354
 20
625.005857
 30
0.0
 42
0.4142140000000002
  0
VERTEX
  5
4BB
330
4B7
100
AcDbEntity
  8
SCHRAFFUR_RAND
100
AcDbVertex
100
AcDb2dVertex
 10
290.78354
 20
620.005857
 30
0.0
  0
VERTEX
  5
4BC
330
4B7
100
AcDbEntity
  8
SCHRAFFUR_RAND
100
AcDbVertex
100
AcDb2dVertex
 10
292.28354
 20
620.005857
 30
0.0
 42
-0.4142140000000002
  0
VERTEX
  5
4BD
330
4B7
100
AcDbEntity
  8
SCHRAFFUR_RAND
100
AcDbVertex
100
AcDb2dVertex
 10
293.28354
 20
619.0058569999998
 30
0.0
  0
VERTEX
  5
4BE
330
4B7
100
AcDbEntity
  8
SCHRAFFUR_RAND
100
AcDbVertex
100
AcDb2dVertex
 10
293.28354
 20
617.505857
 30
0.0
  0
VERTEX
  5
4BF
330
4B7
100
AcDbEntity
  8
SCHRAFFUR_RAND
100
AcDbVertex
100
AcDb2dVertex
 10
299.7835399999999
 20
617.505857
 30
0.0
  0
VERTEX
  5
4C0
330
4B7
100
AcDbEntity
  8
SCHRAFFUR_RAND
100
AcDbVertex
100
AcDb2dVertex
 10
303.28354
 20
617.505857
 30
0.0
  0
VERTEX
  5
4C1
330
4B7
100
AcDbEntity
  8
SCHRAFFUR_RAND
100
AcDbVertex
100
AcDb2dVertex
 10
303.28354
 20
620.005857
 30
0.0
  0
VERTEX
  5
4C2
330
4B7
100
AcDbEntity
  8
SCHRAFFUR_RAND
100
AcDbVertex
100
AcDb2dVertex
 10
299.28354
 20
620.005857
 30
0.0
 42
-0.4142140000000002
  0
VERTEX
  5
4C3
330
4B7
100
AcDbEntity
  8
SCHRAFFUR_RAND
100
AcDbVertex
100
AcDb2dVertex
 10
298.28354
 20
621.005857
 30
0.0
 42
0.375011
  0
VERTEX
  5
4C4
330
4B7
100
AcDbEntity
  8
SCHRAFFUR_RAND
100
AcDbVertex
100
AcDb2dVertex
 10
292.28354
 20
626.0058569999999
 30
0.0
  0
VERTEX
  5
4C5
330
4B7
100
AcDbEntity
  8
SCHRAFFUR_RAND
100
AcDbVertex
100
AcDb2dVertex
 10
290.78354
 20
626.0058569999999
 30
0.0
 42
-0.4142140000000002
  0
VERTEX
  5
4C6
330
4B7
100
AcDbEntity
  8
SCHRAFFUR_RAND
100
AcDbVertex
100
AcDb2dVertex
 10
289.78354
 20
627.0058569999998
 30
0.0
  0
SEQEND
  5
4C7
330
4B7
100
AcDbEntity
  8
SCHRAFFUR_RAND
  0
POLYLINE
  5
4C8
330
1EC
100
AcDbEntity
  8
SCHRAFFUR_RAND
100
AcDb2dPolyline
 66
     1
 10
0.0
 20
0.0
 30
0.0
 70
     1
  0
VERTEX
  5
4C9
330
4C8
100
AcDbEntity
  8
SCHRAFFUR_RAND
100
AcDbVertex
100
AcDb2dVertex
 10
482.78354
 20
620.005857
 30
0.0
  0
VERTEX
  5
4CA
330
4C8
100
AcDbEntity
  8
SCHRAFFUR_RAND
100
AcDbVertex
100
AcDb2dVertex
 10
476.78354
 20
620.005857
 30
0.0
  0
VERTEX
  5
4CB
330
4C8
100
AcDbEntity
  8
SCHRAFFUR_RAND
100
AcDbVertex
100
AcDb2dVertex
 10
476.78354
 20
617.505857
 30
0.0
  0
VERTEX
  5
4CC
330
4C8
100
AcDbEntity
  8
SCHRAFFUR_RAND
100
AcDbVertex
100
AcDb2dVertex
 10
467.78354
 20
617.505857
 30
0.0
  0
VERTEX
  5
4CD
330
4C8
100
AcDbEntity
  8
SCHRAFFUR_RAND
100
AcDbVertex
100
AcDb2dVertex
 10
467.78354
 20
616.4601629999999
 30
0.0
 42
0.4142140000000002
  0
VERTEX
  5
4CE
330
4C8
100
AcDbEntity
  8
SCHRAFFUR_RAND
100
AcDbVertex
100
AcDb2dVertex
 10
472.78354
 20
611.460163
 30
0.0
 42
-0.4142140000000002
  0
VERTEX
  5
4CF
330
4C8
100
AcDbEntity
  8
SCHRAFFUR_RAND
100
AcDbVertex
100
AcDb2dVertex
 10
477.7835399999998
 20
606.4601629999998
 30
0.0
  0
VERTEX
  5
4D0
330
4C8
100
AcDbEntity
  8
SCHRAFFUR_RAND
100
AcDbVertex
100
AcDb2dVertex
 10
477.7835399999998
 20
476.505857
 30
0.0
  0
VERTEX
  5
4D1
330
4C8
100
AcDbEntity
  8
SCHRAFFUR_RAND
100
AcDbVertex
100
AcDb2dVertex
 10
482.78354
 20
476.505857
 30
0.0
  0
SEQEND
  5
4D2
330
4C8
100
AcDbEntity
  8
SCHRAFFUR_RAND
  0
POLYLINE
  5
4D3
330
1EC
100
AcDbEntity
  8
SCHRAFFUR_RAND
100
AcDb2dPolyline
 66
     1
 10
0.0
 20
0.0
 30
0.0
 70
     1
  0
VERTEX
  5
4D4
330
4D3
100
AcDbEntity
  8
SCHRAFFUR_RAND
100
AcDbVertex
100
AcDb2dVertex
 10
481.7835399999998
 20
625.005857
 30
0.0
  0
VERTEX
  5
4D5
330
4D3
100
AcDbEntity
  8
SCHRAFFUR_RAND
100
AcDbVertex
100
AcDb2dVertex
 10
481.7835399999998
 20
634.5058569999999
 30
0.0
  0
VERTEX
  5
4D6
330
4D3
100
AcDbEntity
  8
SCHRAFFUR_RAND
100
AcDbVertex
100
AcDb2dVertex
 10
477.7835399999998
 20
634.5058569999999
 30
0.0
  0
VERTEX
  5
4D7
330
4D3
100
AcDbEntity
  8
SCHRAFFUR_RAND
100
AcDbVertex
100
AcDb2dVertex
 10
477.7835399999998
 20
627.0058569999998
 30
0.0
 42
-0.4142140000000002
  0
VERTEX
  5
4D8
330
4D3
100
AcDbEntity
  8
SCHRAFFUR_RAND
100
AcDbVertex
100
AcDb2dVertex
 10
476.78354
 20
626.0058569999999
 30
0.0
  0
VERTEX
  5
4D9
330
4D3
100
AcDbEntity
  8
SCHRAFFUR_RAND
100
AcDbVertex
100
AcDb2dVertex
 10
474.28354
 20
626.0058569999999
 30
0.0
 42
0.4142140000000002
  0
VERTEX
  5
4DA
330
4D3
100
AcDbEntity
  8
SCHRAFFUR_RAND
100
AcDbVertex
100
AcDb2dVertex
 10
469.2835399999998
 20
621.005857
 30
0.0
 42
-0.4142140000000002
  0
VERTEX
  5
4DB
330
4D3
100
AcDbEntity
  8
SCHRAFFUR_RAND
100
AcDbVertex
100
AcDb2dVertex
 10
468.28354
 20
620.005857
 30
0.0
  0
VERTEX
  5
4DC
330
4D3
100
AcDbEntity
  8
SCHRAFFUR_RAND
100
AcDbVertex
100
AcDb2dVertex
 10
464.28354
 20
620.005857
 30
0.0
  0
VERTEX
  5
4DD
330
4D3
100
AcDbEntity
  8
SCHRAFFUR_RAND
100
AcDbVertex
100
AcDb2dVertex
 10
464.28354
 20
617.505857
 30
0.0
  0
VERTEX
  5
4DE
330
4D3
100
AcDbEntity
  8
SCHRAFFUR_RAND
100
AcDbVertex
100
AcDb2dVertex
 10
474.28354
 20
617.505857
 30
0.0
  0
VERTEX
  5
4DF
330
4D3
100
AcDbEntity
  8
SCHRAFFUR_RAND
100
AcDbVertex
100
AcDb2dVertex
 10
474.28354
 20
619.0058569999998
 30
0.0
 42
-0.4142140000000002
  0
VERTEX
  5
4E0
330
4D3
100
AcDbEntity
  8
SCHRAFFUR_RAND
100
AcDbVertex
100
AcDb2dVertex
 10
475.28354
 20
620.005857
 30
0.0
  0
VERTEX
  5
4E1
330
4D3
100
AcDbEntity
  8
SCHRAFFUR_RAND
100
AcDbVertex
100
AcDb2dVertex
 10
476.78354
 20
620.005857
 30
0.0
 42
0.4142140000000002
  0
SEQEND
  5
4E2
330
4D3
100
AcDbEntity
  8
SCHRAFFUR_RAND
  0
POLYLINE
  5
4E3
330
1EC
100
AcDbEntity
  8
SCHRAFFUR_RAND
100
AcDb2dPolyline
 66
     1
 10
0.0
 20
0.0
 30
0.0
 70
     1
  0
VERTEX
  5
4E4
330
4E3
100
AcDbEntity
  8
SCHRAFFUR_RAND
100
AcDbVertex
100
AcDb2dVertex
 10
507.78354
 20
515.876692
 30
0.0
  0
VERTEX
  5
4E5
330
4E3
100
AcDbEntity
  8
SCHRAFFUR_RAND
100
AcDbVertex
100
AcDb2dVertex
 10
487.78354
 20
515.876692
 30
0.0
  0
VERTEX
  5
4E6
330
4E3
100
AcDbEntity
  8
SCHRAFFUR_RAND
100
AcDbVertex
100
AcDb2dVertex
 10
487.78354
 20
523.376692
 30
0.0
  0
VERTEX
  5
4E7
330
4E3
100
AcDbEntity
  8
SCHRAFFUR_RAND
100
AcDbVertex
100
AcDb2dVertex
 10
482.78354
 20
523.376692
 30
0.0
  0
VERTEX
  5
4E8
330
4E3
100
AcDbEntity
  8
SCHRAFFUR_RAND
100
AcDbVertex
100
AcDb2dVertex
 10
482.78354
 20
510.8766919999998
 30
0.0
  0
VERTEX
  5
4E9
330
4E3
100
AcDbEntity
  8
SCHRAFFUR_RAND
100
AcDbVertex
100
AcDb2dVertex
 10
507.78354
 20
510.8766919999998
 30
0.0
  0
SEQEND
  5
4EA
330
4E3
100
AcDbEntity
  8
SCHRAFFUR_RAND
  0
POLYLINE
  5
4EB
330
1EC
100
AcDbEntity
  8
SCHRAFFUR_RAND
100
AcDb2dPolyline
 66
     1
 10
0.0
 20
0.0
 30
0.0
 70
     1
  0
VERTEX
  5
4EC
330
4EB
100
AcDbEntity
  8
SCHRAFFUR_RAND
100
AcDbVertex
100
AcDb2dVertex
 10
284.78354
 20
523.376692
 30
0.0
  0
VERTEX
  5
4ED
330
4EB
100
AcDbEntity
  8
SCHRAFFUR_RAND
100
AcDbVertex
100
AcDb2dVertex
 10
279.78354
 20
523.376692
 30
0.0
  0
VERTEX
  5
4EE
330
4EB
100
AcDbEntity
  8
SCHRAFFUR_RAND
100
AcDbVertex
100
AcDb2dVertex
 10
279.78354
 20
515.876692
 30
0.0
  0
VERTEX
  5
4EF
330
4EB
100
AcDbEntity
  8
SCHRAFFUR_RAND
100
AcDbVertex
100
AcDb2dVertex
 10
259.78354
 20
515.876692
 30
0.0
  0
VERTEX
  5
4F0
330
4EB
100
AcDbEntity
  8
SCHRAFFUR_RAND
100
AcDbVertex
100
AcDb2dVertex
 10
259.78354
 20
510.8766919999998
 30
0.0
  0
VERTEX
  5
4F1
330
4EB
100
AcDbEntity
  8
SCHRAFFUR_RAND
100
AcDbVertex
100
AcDb2dVertex
 10
284.78354
 20
510.8766919999998
 30
0.0
  0
SEQEND
  5
4F2
330
4EB
100
AcDbEntity
  8
SCHRAFFUR_RAND
  0
ARC
  5
608
330
1EC
100
AcDbEntity
  8
0
100
AcDbCircle
 10
383.78354
 20
213.02857
 30
0.0
 40
124.0
100
AcDbArc
 50
142.216
 51
180.0
  0
ARC
  5
609
330
1EC
100
AcDbEntity
  8
0
100
AcDbCircle
 10
383.78354
 20
213.02857
 30
0.0
 40
105.0
100
AcDbArc
 50
158.961
 51
180.0
  0
ARC
  5
60A
330
1EC
100
AcDbEntity
  8
0
100
AcDbCircle
 10
383.78354
 20
213.02857
 30
0.0
 40
124.0
100
AcDbArc
 50
0.0
 51
37.78399999999999
  0
ARC
  5
60B
330
1EC
100
AcDbEntity
  8
0
100
AcDbCircle
 10
383.78354
 20
213.02857
 30
0.0
 40
105.0
100
AcDbArc
 50
0.0
 51
21.039
  0
LINE
  5
60C
330
1EC
100
AcDbEntity
  8
0
100
AcDbLine
 10
369.78354
 20
213.02857
 30
0.0
 11
369.78354
 21
285.02857
 31
0.0
  0
LINE
  5
60D
330
1EC
100
AcDbEntity
  8
0
100
AcDbLine
 10
361.78354
 20
213.02857
 30
0.0
 11
361.78354
 21
285.02857
 31
0.0
  0
LINE
  5
60E
330
1EC
100
AcDbEntity
  8
0
100
AcDbLine
 10
351.78354
 20
213.02857
 30
0.0
 11
351.78354
 21
285.02857
 31
0.0
  0
LINE
  5
60F
330
1EC
100
AcDbEntity
  8
0
100
AcDbLine
 10
343.78354
 20
213.02857
 30
0.0
 11
343.78354
 21
285.02857
 31
0.0
  0
LINE
  5
610
330
1EC
100
AcDbEntity
  8
0
100
AcDbLine
 10
333.78354
 20
213.02857
 30
0.0
 11
333.78354
 21
281.52857
 31
0.0
  0
LINE
  5
611
330
1EC
100
AcDbEntity
  8
0
100
AcDbLine
 10
325.78354
 20
213.02857
 30
0.0
 11
325.78354
 21
281.52857
 31
0.0
  0
LINE
  5
612
330
1EC
100
AcDbEntity
  8
0
100
AcDbLine
 10
315.78354
 20
213.02857
 30
0.0
 11
315.78354
 21
266.52857
 31
0.0
  0
LINE
  5
613
330
1EC
100
AcDbEntity
  8
0
100
AcDbLine
 10
307.78354
 20
213.02857
 30
0.0
 11
307.78354
 21
266.52857
 31
0.0
  0
LINE
  5
614
330
1EC
100
AcDbEntity
  8
0
100
AcDbLine
 10
379.78354
 20
213.02857
 30
0.0
 11
379.78354
 21
285.02857
 31
0.0
  0
LINE
  5
615
330
1EC
100
AcDbEntity
  8
0
100
AcDbLine
 10
387.78354
 20
213.02857
 30
0.0
 11
387.78354
 21
285.02857
 31
0.0
  0
LINE
  5
616
330
1EC
100
AcDbEntity
  8
0
100
AcDbLine
 10
397.78354
 20
213.02857
 30
0.0
 11
397.78354
 21
285.02857
 31
0.0
  0
LINE
  5
617
330
1EC
100
AcDbEntity
  8
0
100
AcDbLine
 10
405.78354
 20
213.02857
 30
0.0
 11
405.78354
 21
285.02857
 31
0.0
  0
LINE
  5
618
330
1EC
100
AcDbEntity
  8
0
100
AcDbLine
 10
415.78354
 20
213.02857
 30
0.0
 11
415.78354
 21
285.02857
 31
0.0
  0
LINE
  5
619
330
1EC
100
AcDbEntity
  8
0
100
AcDbLine
 10
423.7835399999998
 20
213.02857
 30
0.0
 11
423.7835399999998
 21
285.02857
 31
0.0
  0
LINE
  5
61A
330
1EC
100
AcDbEntity
  8
0
100
AcDbLine
 10
433.78354
 20
213.02857
 30
0.0
 11
433.78354
 21
281.52857
 31
0.0
  0
LINE
  5
61B
330
1EC
100
AcDbEntity
  8
0
100
AcDbLine
 10
441.78354
 20
213.02857
 30
0.0
 11
441.78354
 21
281.52857
 31
0.0
  0
LINE
  5
61C
330
1EC
100
AcDbEntity
  8
0
100
AcDbLine
 10
451.78354
 20
213.02857
 30
0.0
 11
451.78354
 21
266.52857
 31
0.0
  0
LINE
  5
61D
330
1EC
100
AcDbEntity
  8
0
100
AcDbLine
 10
459.78354
 20
213.02857
 30
0.0
 11
459.78354
 21
266.52857
 31
0.0
  0
LINE
  5
61E
330
1EC
100
AcDbEntity
  8
0
100
AcDbLine
 10
289.73354
 20
213.02857
 30
0.0
 11
289.73354
 21
304.57857
 31
0.0
  0
LINE
  5
61F
330
1EC
100
AcDbEntity
  8
0
100
AcDbLine
 10
477.83354
 20
213.02857
 30
0.0
 11
477.83354
 21
304.57857
 31
0.0
  0
LINE
  5
620
330
1EC
100
AcDbEntity
  8
7
100
AcDbLine
 10
383.78354
 20
203.0285699999999
 30
0.0
 11
383.78354
 21
344.5285699999999
 31
0.0
  0
LINE
  5
621
330
1EC
100
AcDbEntity
  8
0
100
AcDbLine
 10
481.7835399999998
 20
213.02857
 30
0.0
 11
481.7835399999998
 21
304.5285699999999
 31
0.0
  0
LINE
  5
622
330
1EC
100
AcDbEntity
  8
0
100
AcDbLine
 10
478.78354
 20
213.02857
 30
0.0
 11
478.78354
 21
304.5285699999999
 31
0.0
  0
LINE
  5
623
330
1EC
100
AcDbEntity
  8
0
100
AcDbLine
 10
288.78354
 20
304.5285699999999
 30
0.0
 11
288.78354
 21
213.02857
 31
0.0
  0
LINE
  5
624
330
1EC
100
AcDbEntity
  8
0
100
AcDbLine
 10
285.78354
 20
304.5285699999999
 30
0.0
 11
285.78354
 21
213.02857
 31
0.0
  0
LINE
  5
625
330
1EC
100
AcDbEntity
  8
0
100
AcDbLine
 10
475.28354
 20
118.0285699999999
 30
0.0
 11
292.28354
 21
118.0285699999999
 31
0.0
  0
LINE
  5
626
330
1EC
100
AcDbEntity
  8
0
100
AcDbLine
 10
475.28354
 20
115.0285699999999
 30
0.0
 11
292.28354
 21
115.0285699999999
 31
0.0
  0
LINE
  5
627
330
1EC
100
AcDbEntity
  8
0
100
AcDbLine
 10
292.23354
 20
118.9785699999999
 30
0.0
 11
475.33354
 21
118.9785699999999
 31
0.0
  0
ARC
  5
628
330
1EC
100
AcDbEntity
  8
0
100
AcDbCircle
 10
383.78354
 20
141.02857
 30
0.0
 40
4.0
100
AcDbArc
 50
180.0
 51
0.0
  0
ARC
  5
629
330
1EC
100
AcDbEntity
  8
0
100
AcDbCircle
 10
383.78354
 20
213.02857
 30
0.0
 40
99.0
100
AcDbArc
 50
261.849
 51
278.151
  0
ARC
  5
62A
330
1EC
100
AcDbEntity
  8
0
100
AcDbCircle
 10
383.78354
 20
213.02857
 30
0.0
 40
105.0
100
AcDbArc
 50
248.9609999999999
 51
291.0389999999999
  0
ARC
  5
62B
330
1EC
100
AcDbEntity
  8
0
100
AcDbCircle
 10
383.78354
 20
213.02857
 30
0.0
 40
124.0
100
AcDbArc
 50
232.2159999999999
 51
307.784
  0
LINE
  5
62C
330
1EC
100
AcDbEntity
  8
7
100
AcDbLine
 10
239.7835399999999
 20
213.02857
 30
0.0
 11
527.7835399999998
 21
213.02857
 31
0.0
  0
LINE
  5
62D
330
1EC
100
AcDbEntity
  8
0
100
AcDbLine
 10
300.8165399999999
 20
132.3705699999999
 30
0.0
 11
298.0665399999999
 21
132.3715699999999
 31
0.0
  0
LINE
  5
62E
330
1EC
100
AcDbEntity
  8
0
100
AcDbLine
 10
300.81554
 20
131.05157
 30
0.0
 11
298.0665399999999
 21
131.05157
 31
0.0
  0
CIRCLE
  5
62F
330
1EC
100
AcDbEntity
  8
0
100
AcDbCircle
 10
302.4665399999999
 20
131.71157
 30
0.0
 40
5.5
  0
LINE
  5
630
330
1EC
100
AcDbEntity
  8
7
 48
0.193
100
AcDbLine
 10
293.9665399999999
 20
131.71157
 30
0.0
 11
310.96654
 21
131.71157
 31
0.0
  0
LINE
  5
631
330
1EC
100
AcDbEntity
  8
0
100
AcDbLine
 10
288.78354
 20
213.02857
 30
0.0
 11
288.78354
 21
121.52857
 31
0.0
  0
LINE
  5
632
330
1EC
100
AcDbEntity
  8
0
100
AcDbLine
 10
285.78354
 20
213.02857
 30
0.0
 11
285.78354
 21
121.52857
 31
0.0
  0
LINE
  5
633
330
1EC
100
AcDbEntity
  8
0
100
AcDbLine
 10
289.73354
 20
213.02857
 30
0.0
 11
289.73354
 21
121.4785699999999
 31
0.0
  0
ARC
  5
634
330
1EC
100
AcDbEntity
  8
0
100
AcDbCircle
 10
383.78354
 20
213.02857
 30
0.0
 40
124.0
100
AcDbArc
 50
180.0
 51
217.784
  0
ARC
  5
635
330
1EC
100
AcDbEntity
  8
0
100
AcDbCircle
 10
292.28354
 20
121.52857
 30
0.0
 40
3.5
100
AcDbArc
 50
180.0
 51
270.0
  0
ARC
  5
636
330
1EC
100
AcDbEntity
  8
0
100
AcDbCircle
 10
292.28354
 20
121.52857
 30
0.0
 40
6.5
100
AcDbArc
 50
180.0
 51
270.0
  0
ARC
  5
637
330
1EC
100
AcDbEntity
  8
0
100
AcDbCircle
 10
292.23354
 20
121.4785699999999
 30
0.0
 40
2.5
100
AcDbArc
 50
180.0
 51
270.0
  0
LINE
  5
638
330
1EC
100
AcDbEntity
  8
0
100
AcDbLine
 10
298.0665399999999
 20
132.3715699999999
 30
0.0
 11
298.0665399999999
 21
131.05157
 31
0.0
  0
ARC
  5
639
330
1EC
100
AcDbEntity
  8
0
100
AcDbCircle
 10
383.78354
 20
213.02857
 30
0.0
 40
105.0
100
AcDbArc
 50
180.0
 51
201.039
  0
ARC
  5
63A
330
1EC
100
AcDbEntity
  8
0
100
AcDbCircle
 10
383.78354
 20
213.02857
 30
0.0
 40
99.0
100
AcDbArc
 50
180.0
 51
188.1509999999999
  0
ARC
  5
63B
330
1EC
100
AcDbEntity
  8
0
100
AcDbCircle
 10
383.78354
 20
213.02857
 30
0.0
 40
99.0
100
AcDbArc
 50
171.849
 51
180.0
  0
LINE
  5
63C
330
1EC
100
AcDbEntity
  8
0
100
AcDbLine
 10
325.78354
 20
213.02857
 30
0.0
 11
325.78354
 21
144.52857
 31
0.0
  0
LINE
  5
63D
330
1EC
100
AcDbEntity
  8
0
100
AcDbLine
 10
333.78354
 20
213.02857
 30
0.0
 11
333.78354
 21
144.52857
 31
0.0
  0
LINE
  5
63E
330
1EC
100
AcDbEntity
  8
0
100
AcDbLine
 10
343.78354
 20
213.02857
 30
0.0
 11
343.78354
 21
141.02857
 31
0.0
  0
LINE
  5
63F
330
1EC
100
AcDbEntity
  8
0
100
AcDbLine
 10
351.78354
 20
213.02857
 30
0.0
 11
351.78354
 21
141.02857
 31
0.0
  0
LINE
  5
640
330
1EC
100
AcDbEntity
  8
0
100
AcDbLine
 10
361.78354
 20
213.02857
 30
0.0
 11
361.78354
 21
141.02857
 31
0.0
  0
LINE
  5
641
330
1EC
100
AcDbEntity
  8
0
100
AcDbLine
 10
369.78354
 20
213.02857
 30
0.0
 11
369.78354
 21
141.02857
 31
0.0
  0
LINE
  5
642
330
1EC
100
AcDbEntity
  8
0
100
AcDbLine
 10
379.78354
 20
213.02857
 30
0.0
 11
379.78354
 21
141.02857
 31
0.0
  0
LINE
  5
643
330
1EC
100
AcDbEntity
  8
7
 48
0.193
100
AcDbLine
 10
302.4665399999999
 20
123.21157
 30
0.0
 11
302.4665399999999
 21
140.2115699999999
 31
0.0
  0
LINE
  5
644
330
1EC
100
AcDbEntity
  8
0
100
AcDbLine
 10
301.8065399999999
 20
133.3615699999999
 30
0.0
 11
301.8065399999999
 21
136.11157
 31
0.0
  0
LINE
  5
645
330
1EC
100
AcDbEntity
  8
0
100
AcDbLine
 10
303.1265399999999
 20
133.3615699999999
 30
0.0
 11
303.1265399999999
 21
136.11157
 31
0.0
  0
ARC
  5
646
330
1EC
100
AcDbEntity
  8
0
100
AcDbCircle
 10
308.1045399999999
 20
126.07257
 30
0.0
 40
5.5
100
AcDbArc
 50
115.159
 51
154.841
  0
ARC
  5
647
330
1EC
100
AcDbEntity
  8
0
100
AcDbCircle
 10
308.1045399999999
 20
137.34957
 30
0.0
 40
5.5
100
AcDbArc
 50
205.159
 51
244.8409999999999
  0
LINE
  5
648
330
1EC
100
AcDbEntity
  8
0
100
AcDbLine
 10
304.11654
 20
131.05157
 30
0.0
 11
306.8665399999999
 21
131.05157
 31
0.0
  0
LINE
  5
649
330
1EC
100
AcDbEntity
  8
0
100
AcDbLine
 10
304.11654
 20
132.3705699999999
 30
0.0
 11
306.8665399999999
 21
132.3705699999999
 31
0.0
  0
ARC
  5
64A
330
1EC
100
AcDbEntity
  8
0
100
AcDbCircle
 10
296.8285399999999
 20
126.07257
 30
0.0
 40
6.378999999999998
100
AcDbArc
 50
38.69899999999999
 51
51.305
  0
ARC
  5
64B
330
1EC
100
AcDbEntity
  8
0
100
AcDbCircle
 10
308.1045399999999
 20
126.07257
 30
0.0
 40
6.378999999999998
100
AcDbArc
 50
128.6989999999999
 51
141.305
  0
ARC
  5
64C
330
1EC
100
AcDbEntity
  8
0
100
AcDbCircle
 10
296.8285399999999
 20
126.07257
 30
0.0
 40
5.5
100
AcDbArc
 50
25.159
 51
64.84100000000001
  0
LINE
  5
64D
330
1EC
100
AcDbEntity
  8
0
100
AcDbLine
 10
301.8065399999999
 20
130.0615699999999
 30
0.0
 11
301.8065399999999
 21
127.3115699999999
 31
0.0
  0
LINE
  5
64E
330
1EC
100
AcDbEntity
  8
0
100
AcDbLine
 10
303.12554
 20
130.0605699999999
 30
0.0
 11
303.12554
 21
127.3115699999999
 31
0.0
  0
LINE
  5
64F
330
1EC
100
AcDbEntity
  8
0
100
AcDbLine
 10
301.8065399999999
 20
127.3115699999999
 30
0.0
 11
303.12554
 21
127.3115699999999
 31
0.0
  0
LINE
  5
650
330
1EC
100
AcDbEntity
  8
0
100
AcDbLine
 10
301.8065399999999
 20
128.4115699999999
 30
0.0
 11
303.12554
 21
128.4115699999999
 31
0.0
  0
LINE
  5
651
330
1EC
100
AcDbEntity
  8
0
100
AcDbLine
 10
301.8065399999999
 20
130.0615699999999
 30
0.0
 11
303.12554
 21
130.0615699999999
 31
0.0
  0
ARC
  5
652
330
1EC
100
AcDbEntity
  8
0
100
AcDbCircle
 10
296.8285399999999
 20
137.34957
 30
0.0
 40
6.378999999999998
100
AcDbArc
 50
308.699
 51
321.3049999999999
  0
ARC
  5
653
330
1EC
100
AcDbEntity
  8
0
100
AcDbCircle
 10
296.8285399999999
 20
137.34957
 30
0.0
 40
5.5
100
AcDbArc
 50
295.1589999999999
 51
334.841
  0
LINE
  5
654
330
1EC
100
AcDbEntity
  8
0
100
AcDbLine
 10
299.16654
 20
132.3715699999999
 30
0.0
 11
299.16654
 21
131.05157
 31
0.0
  0
LINE
  5
655
330
1EC
100
AcDbEntity
  8
0
100
AcDbLine
 10
300.8165399999999
 20
132.3715699999999
 30
0.0
 11
300.8165399999999
 21
131.05157
 31
0.0
  0
ARC
  5
656
330
1EC
100
AcDbEntity
  8
0
100
AcDbCircle
 10
308.1045399999999
 20
137.34957
 30
0.0
 40
6.378999999999998
100
AcDbArc
 50
218.699
 51
231.305
  0
LINE
  5
657
330
1EC
100
AcDbEntity
  8
0
100
AcDbLine
 10
304.11654
 20
131.05157
 30
0.0
 11
304.11654
 21
132.3705699999999
 31
0.0
  0
LINE
  5
658
330
1EC
100
AcDbEntity
  8
0
100
AcDbLine
 10
303.1265399999999
 20
135.01157
 30
0.0
 11
301.8065399999999
 21
135.01157
 31
0.0
  0
LINE
  5
659
330
1EC
100
AcDbEntity
  8
0
100
AcDbLine
 10
303.1265399999999
 20
133.3615699999999
 30
0.0
 11
301.8065399999999
 21
133.3615699999999
 31
0.0
  0
LINE
  5
65A
330
1EC
100
AcDbEntity
  8
0
100
AcDbLine
 10
305.7665399999999
 20
131.05157
 30
0.0
 11
305.7665399999999
 21
132.3705699999999
 31
0.0
  0
LINE
  5
65B
330
1EC
100
AcDbEntity
  8
0
100
AcDbLine
 10
306.8665399999999
 20
131.05157
 30
0.0
 11
306.8665399999999
 21
132.3705699999999
 31
0.0
  0
LINE
  5
65C
330
1EC
100
AcDbEntity
  8
0
100
AcDbLine
 10
303.1265399999999
 20
136.11157
 30
0.0
 11
301.8065399999999
 21
136.11157
 31
0.0
  0
ARC
  5
65D
330
1EC
100
AcDbEntity
  8
0
100
AcDbCircle
 10
329.78354
 20
144.52857
 30
0.0
 40
4.0
100
AcDbArc
 50
180.0
 51
0.0
  0
ARC
  5
65E
330
1EC
100
AcDbEntity
  8
0
100
AcDbCircle
 10
347.78354
 20
141.02857
 30
0.0
 40
4.0
100
AcDbArc
 50
180.0
 51
0.0
  0
ARC
  5
65F
330
1EC
100
AcDbEntity
  8
0
100
AcDbCircle
 10
365.78354
 20
141.02857
 30
0.0
 40
4.0
100
AcDbArc
 50
180.0
 51
0.0
  0
LINE
  5
660
330
1EC
100
AcDbEntity
  8
0
100
AcDbLine
 10
307.78354
 20
213.02857
 30
0.0
 11
307.78354
 21
159.5285699999999
 31
0.0
  0
LINE
  5
661
330
1EC
100
AcDbEntity
  8
0
100
AcDbLine
 10
315.78354
 20
213.02857
 30
0.0
 11
315.78354
 21
159.5285699999999
 31
0.0
  0
ARC
  5
662
330
1EC
100
AcDbEntity
  8
0
100
AcDbCircle
 10
311.78354
 20
159.5285699999999
 30
0.0
 40
4.0
100
AcDbArc
 50
180.0
 51
0.0
  0
DIMENSION
  5
663
330
1EC
100
AcDbEntity
  8
5
100
AcDbDimension
  2
*D23
 10
423.7835399999998
 20
64.37653799999999
 30
0.0
 11
455.28354
 21
76.126538
 31
0.0
 12
1.922968999999999
 22
0.0
 32
0.0
 70
    32
  1
<>
 71
     5
 42
-1.0
  3
GEN-ISO
100
AcDbAlignedDimension
 13
415.78354
 23
141.02857
 33
0.0
 14
423.7835399999998
 24
141.02857
 34
0.0
 50
180.0
100
AcDbRotatedDimension
1001
ACAD
1000
DSTYLE
1002
{
1070
    40
1040
5.0
1002
}
1001
GENIUS_GENDTOL_13
1000

1000
h7
1000

1040
0.0
1000
<>
  0
LINE
  5
664
330
1EC
100
AcDbEntity
  8
7
100
AcDbLine
 10
383.78354
 20
223.02857
 30
0.0
 11
383.78354
 21
81.52857
 31
0.0
  0
LINE
  5
665
330
1EC
100
AcDbEntity
  8
0
100
AcDbLine
 10
387.78354
 20
213.02857
 30
0.0
 11
387.78354
 21
141.02857
 31
0.0
  0
LINE
  5
666
330
1EC
100
AcDbEntity
  8
0
100
AcDbLine
 10
441.78354
 20
213.02857
 30
0.0
 11
441.78354
 21
144.52857
 31
0.0
  0
LINE
  5
667
330
1EC
100
AcDbEntity
  8
0
100
AcDbLine
 10
433.78354
 20
213.02857
 30
0.0
 11
433.78354
 21
144.52857
 31
0.0
  0
LINE
  5
668
330
1EC
100
AcDbEntity
  8
0
100
AcDbLine
 10
423.7835399999998
 20
213.02857
 30
0.0
 11
423.7835399999998
 21
141.02857
 31
0.0
  0
LINE
  5
669
330
1EC
100
AcDbEntity
  8
0
100
AcDbLine
 10
415.78354
 20
213.02857
 30
0.0
 11
415.78354
 21
141.02857
 31
0.0
  0
LINE
  5
66A
330
1EC
100
AcDbEntity
  8
0
100
AcDbLine
 10
405.78354
 20
213.02857
 30
0.0
 11
405.78354
 21
141.02857
 31
0.0
  0
LINE
  5
66B
330
1EC
100
AcDbEntity
  8
0
100
AcDbLine
 10
397.78354
 20
213.02857
 30
0.0
 11
397.78354
 21
141.02857
 31
0.0
  0
ARC
  5
66C
330
1EC
100
AcDbEntity
  8
0
100
AcDbCircle
 10
419.78354
 20
141.02857
 30
0.0
 40
4.0
100
AcDbArc
 50
180.0
 51
0.0
  0
ARC
  5
66D
330
1EC
100
AcDbEntity
  8
0
100
AcDbCircle
 10
401.78354
 20
141.02857
 30
0.0
 40
4.0
100
AcDbArc
 50
180.0
 51
0.0
  0
ARC
  5
66E
330
1EC
100
AcDbEntity
  8
0
100
AcDbCircle
 10
437.78354
 20
144.52857
 30
0.0
 40
4.0
100
AcDbArc
 50
180.0
 51
0.0
  0
LINE
  5
66F
330
1EC
100
AcDbEntity
  8
0
100
AcDbLine
 10
459.78354
 20
213.02857
 30
0.0
 11
459.78354
 21
159.5285699999999
 31
0.0
  0
LINE
  5
670
330
1EC
100
AcDbEntity
  8
0
100
AcDbLine
 10
451.78354
 20
213.02857
 30
0.0
 11
451.78354
 21
159.5285699999999
 31
0.0
  0
ARC
  5
671
330
1EC
100
AcDbEntity
  8
0
100
AcDbCircle
 10
455.78354
 20
159.5285699999999
 30
0.0
 40
4.0
100
AcDbArc
 50
180.0
 51
0.0
  0
LINE
  5
672
330
1EC
100
AcDbEntity
  8
0
100
AcDbLine
 10
481.7835399999998
 20
121.52857
 30
0.0
 11
481.7835399999998
 21
213.02857
 31
0.0
  0
LINE
  5
673
330
1EC
100
AcDbEntity
  8
0
100
AcDbLine
 10
478.78354
 20
121.52857
 30
0.0
 11
478.78354
 21
213.02857
 31
0.0
  0
LINE
  5
674
330
1EC
100
AcDbEntity
  8
0
100
AcDbLine
 10
477.83354
 20
213.02857
 30
0.0
 11
477.83354
 21
121.4785699999999
 31
0.0
  0
ARC
  5
675
330
1EC
100
AcDbEntity
  8
0
100
AcDbCircle
 10
383.78354
 20
213.02857
 30
0.0
 40
124.0
100
AcDbArc
 50
322.216
 51
0.0
  0
ARC
  5
676
330
1EC
100
AcDbEntity
  8
0
100
AcDbCircle
 10
475.28354
 20
121.52857
 30
0.0
 40
6.5
100
AcDbArc
 50
270.0
 51
0.0
  0
ARC
  5
677
330
1EC
100
AcDbEntity
  8
0
100
AcDbCircle
 10
475.28354
 20
121.52857
 30
0.0
 40
3.5
100
AcDbArc
 50
270.0
 51
0.0
  0
ARC
  5
678
330
1EC
100
AcDbEntity
  8
0
100
AcDbCircle
 10
475.33354
 20
121.4785699999999
 30
0.0
 40
2.5
100
AcDbArc
 50
270.0
 51
0.0
  0
ARC
  5
679
330
1EC
100
AcDbEntity
  8
0
100
AcDbCircle
 10
383.78354
 20
213.02857
 30
0.0
 40
105.0
100
AcDbArc
 50
338.961
 51
0.0
  0
ARC
  5
67A
330
1EC
100
AcDbEntity
  8
0
100
AcDbCircle
 10
383.78354
 20
213.02857
 30
0.0
 40
99.0
100
AcDbArc
 50
351.8489999999998
 51
0.0
  0
ARC
  5
67B
330
1EC
100
AcDbEntity
  8
0
100
AcDbCircle
 10
383.78354
 20
213.02857
 30
0.0
 40
99.0
100
AcDbArc
 50
0.0
 51
8.150999999999998
  0
ARC
  5
67C
330
1EC
100
AcDbEntity
  8
0
100
AcDbCircle
 10
383.78354
 20
213.02857
 30
0.0
 40
124.0
100
AcDbArc
 50
52.216
 51
127.784
  0
ARC
  5
67D
330
1EC
100
AcDbEntity
  8
0
100
AcDbCircle
 10
383.78354
 20
213.02857
 30
0.0
 40
105.0
100
AcDbArc
 50
68.961
 51
111.0389999999999
  0
ARC
  5
67E
330
1EC
100
AcDbEntity
  8
0
100
AcDbCircle
 10
383.78354
 20
213.02857
 30
0.0
 40
99.0
100
AcDbArc
 50
81.84899999999997
 51
98.15100000000001
  0
ARC
  5
67F
330
1EC
100
AcDbEntity
  8
0
100
AcDbCircle
 10
383.78354
 20
285.02857
 30
0.0
 40
4.0
100
AcDbArc
 50
0.0
 51
180.0
  0
LINE
  5
680
330
1EC
100
AcDbEntity
  8
0
100
AcDbLine
 10
475.33354
 20
307.07857
 30
0.0
 11
292.23354
 21
307.07857
 31
0.0
  0
LINE
  5
681
330
1EC
100
AcDbEntity
  8
0
100
AcDbLine
 10
292.28354
 20
311.0285699999999
 30
0.0
 11
475.28354
 21
311.0285699999999
 31
0.0
  0
LINE
  5
682
330
1EC
100
AcDbEntity
  8
0
100
AcDbLine
 10
292.28354
 20
308.02857
 30
0.0
 11
475.28354
 21
308.02857
 31
0.0
  0
ARC
  5
683
330
1EC
100
AcDbEntity
  8
0
100
AcDbCircle
 10
292.28354
 20
304.5285699999999
 30
0.0
 40
6.5
100
AcDbArc
 50
90.0
 51
180.0
  0
ARC
  5
684
330
1EC
100
AcDbEntity
  8
0
100
AcDbCircle
 10
292.28354
 20
304.5285699999999
 30
0.0
 40
3.5
100
AcDbArc
 50
90.0
 51
180.0
  0
ARC
  5
685
330
1EC
100
AcDbEntity
  8
0
100
AcDbCircle
 10
292.23354
 20
304.57857
 30
0.0
 40
2.5
100
AcDbArc
 50
90.0
 51
180.0
  0
ARC
  5
686
330
1EC
100
AcDbEntity
  8
0
100
AcDbCircle
 10
311.78354
 20
266.52857
 30
0.0
 40
4.0
100
AcDbArc
 50
0.0
 51
180.0
  0
ARC
  5
687
330
1EC
100
AcDbEntity
  8
0
100
AcDbCircle
 10
329.78354
 20
281.52857
 30
0.0
 40
4.0
100
AcDbArc
 50
0.0
 51
180.0
  0
ARC
  5
688
330
1EC
100
AcDbEntity
  8
0
100
AcDbCircle
 10
347.78354
 20
285.02857
 30
0.0
 40
4.0
100
AcDbArc
 50
0.0
 51
180.0
  0
ARC
  5
689
330
1EC
100
AcDbEntity
  8
0
100
AcDbCircle
 10
365.78354
 20
285.02857
 30
0.0
 40
4.0
100
AcDbArc
 50
0.0
 51
180.0
  0
LINE
  5
68A
330
1EC
100
AcDbEntity
  8
0
100
AcDbLine
 10
463.45054
 20
293.68657
 30
0.0
 11
460.70054
 21
293.68657
 31
0.0
  0
LINE
  5
68B
330
1EC
100
AcDbEntity
  8
0
100
AcDbLine
 10
463.45054
 20
295.00557
 30
0.0
 11
460.70054
 21
295.00557
 31
0.0
  0
LINE
  5
68C
330
1EC
100
AcDbEntity
  8
7
 48
0.193
100
AcDbLine
 10
473.60054
 20
294.34557
 30
0.0
 11
456.60054
 21
294.34557
 31
0.0
  0
ARC
  5
68D
330
1EC
100
AcDbEntity
  8
0
100
AcDbCircle
 10
459.46254
 20
288.70757
 30
0.0
 40
5.5
100
AcDbArc
 50
25.159
 51
64.84100000000001
  0
ARC
  5
68E
330
1EC
100
AcDbEntity
  8
0
100
AcDbCircle
 10
459.46254
 20
299.98457
 30
0.0
 40
5.5
100
AcDbArc
 50
295.1589999999999
 51
334.841
  0
CIRCLE
  5
68F
330
1EC
100
AcDbEntity
  8
0
100
AcDbCircle
 10
465.10054
 20
294.34557
 30
0.0
 40
5.5
  0
ARC
  5
690
330
1EC
100
AcDbEntity
  8
0
100
AcDbCircle
 10
419.78354
 20
285.02857
 30
0.0
 40
4.0
100
AcDbArc
 50
0.0
 51
180.0
  0
ARC
  5
691
330
1EC
100
AcDbEntity
  8
0
100
AcDbCircle
 10
401.78354
 20
285.02857
 30
0.0
 40
4.0
100
AcDbArc
 50
0.0
 51
180.0
  0
ARC
  5
692
330
1EC
100
AcDbEntity
  8
0
100
AcDbCircle
 10
455.78354
 20
266.52857
 30
0.0
 40
4.0
100
AcDbArc
 50
0.0
 51
180.0
  0
ARC
  5
693
330
1EC
100
AcDbEntity
  8
0
100
AcDbCircle
 10
437.78354
 20
281.52857
 30
0.0
 40
4.0
100
AcDbArc
 50
0.0
 51
180.0
  0
LINE
  5
694
330
1EC
100
AcDbEntity
  8
0
100
AcDbLine
 10
461.80054
 20
295.00557
 30
0.0
 11
461.80054
 21
293.68657
 31
0.0
  0
LINE
  5
695
330
1EC
100
AcDbEntity
  8
0
100
AcDbLine
 10
460.70054
 20
295.00557
 30
0.0
 11
460.70054
 21
293.68657
 31
0.0
  0
ARC
  5
696
330
1EC
100
AcDbEntity
  8
0
100
AcDbCircle
 10
475.28354
 20
304.5285699999999
 30
0.0
 40
6.5
100
AcDbArc
 50
0.0
 51
90.0
  0
LINE
  5
697
330
1EC
100
AcDbEntity
  8
7
 48
0.193
100
AcDbLine
 10
465.10054
 20
302.84557
 30
0.0
 11
465.10054
 21
285.84557
 31
0.0
  0
LINE
  5
698
330
1EC
100
AcDbEntity
  8
0
100
AcDbLine
 10
466.75154
 20
295.00557
 30
0.0
 11
469.50054
 21
295.00557
 31
0.0
  0
LINE
  5
699
330
1EC
100
AcDbEntity
  8
0
100
AcDbLine
 10
466.75054
 20
293.68657
 30
0.0
 11
469.50054
 21
293.68557
 31
0.0
  0
ARC
  5
69A
330
1EC
100
AcDbEntity
  8
0
100
AcDbCircle
 10
470.73854
 20
288.70757
 30
0.0
 40
5.5
100
AcDbArc
 50
115.159
 51
154.841
  0
ARC
  5
69B
330
1EC
100
AcDbEntity
  8
0
100
AcDbCircle
 10
470.73854
 20
299.98457
 30
0.0
 40
5.5
100
AcDbArc
 50
205.159
 51
244.8409999999999
  0
LINE
  5
69C
330
1EC
100
AcDbEntity
  8
0
100
AcDbLine
 10
463.45054
 20
295.00557
 30
0.0
 11
463.45054
 21
293.68657
 31
0.0
  0
LINE
  5
69D
330
1EC
100
AcDbEntity
  8
0
100
AcDbLine
 10
466.75054
 20
293.68557
 30
0.0
 11
466.75054
 21
295.00557
 31
0.0
  0
LINE
  5
69E
330
1EC
100
AcDbEntity
  8
0
100
AcDbLine
 10
464.4405400000001
 20
292.69557
 30
0.0
 11
465.76054
 21
292.69557
 31
0.0
  0
LINE
  5
69F
330
1EC
100
AcDbEntity
  8
0
100
AcDbLine
 10
464.4405400000001
 20
291.0455699999999
 30
0.0
 11
465.76054
 21
291.0455699999999
 31
0.0
  0
LINE
  5
6A0
330
1EC
100
AcDbEntity
  8
0
100
AcDbLine
 10
464.4405400000001
 20
289.94557
 30
0.0
 11
465.76054
 21
289.94557
 31
0.0
  0
LINE
  5
6A1
330
1EC
100
AcDbEntity
  8
0
100
AcDbLine
 10
464.4405400000001
 20
292.69557
 30
0.0
 11
464.4405400000001
 21
289.94557
 31
0.0
  0
ARC
  5
6A2
330
1EC
100
AcDbEntity
  8
0
100
AcDbCircle
 10
459.46254
 20
288.70757
 30
0.0
 40
6.378999999999998
100
AcDbArc
 50
38.69899999999999
 51
51.305
  0
LINE
  5
6A3
330
1EC
100
AcDbEntity
  8
0
100
AcDbLine
 10
465.76054
 20
292.69557
 30
0.0
 11
465.76054
 21
289.94557
 31
0.0
  0
ARC
  5
6A4
330
1EC
100
AcDbEntity
  8
0
100
AcDbCircle
 10
470.73854
 20
288.70757
 30
0.0
 40
6.378999999999998
100
AcDbArc
 50
128.6989999999999
 51
141.305
  0
LINE
  5
6A5
330
1EC
100
AcDbEntity
  8
0
100
AcDbLine
 10
465.76054
 20
295.99557
 30
0.0
 11
464.44154
 21
295.99557
 31
0.0
  0
LINE
  5
6A6
330
1EC
100
AcDbEntity
  8
0
100
AcDbLine
 10
465.76054
 20
297.64557
 30
0.0
 11
464.44154
 21
297.64557
 31
0.0
  0
LINE
  5
6A7
330
1EC
100
AcDbEntity
  8
0
100
AcDbLine
 10
465.76054
 20
298.74557
 30
0.0
 11
464.44154
 21
298.74557
 31
0.0
  0
LINE
  5
6A8
330
1EC
100
AcDbEntity
  8
0
100
AcDbLine
 10
464.44154
 20
295.99657
 30
0.0
 11
464.44154
 21
298.74557
 31
0.0
  0
ARC
  5
6A9
330
1EC
100
AcDbEntity
  8
0
100
AcDbCircle
 10
459.46254
 20
299.98457
 30
0.0
 40
6.378999999999998
100
AcDbArc
 50
308.699
 51
321.3049999999999
  0
LINE
  5
6AA
330
1EC
100
AcDbEntity
  8
0
100
AcDbLine
 10
465.76054
 20
295.99557
 30
0.0
 11
465.76054
 21
298.74557
 31
0.0
  0
ARC
  5
6AB
330
1EC
100
AcDbEntity
  8
0
100
AcDbCircle
 10
470.73854
 20
299.98457
 30
0.0
 40
6.378999999999998
100
AcDbArc
 50
218.699
 51
231.305
  0
LINE
  5
6AC
330
1EC
100
AcDbEntity
  8
0
100
AcDbLine
 10
468.40054
 20
293.68557
 30
0.0
 11
468.40054
 21
295.00557
 31
0.0
  0
LINE
  5
6AD
330
1EC
100
AcDbEntity
  8
0
100
AcDbLine
 10
469.50054
 20
293.68557
 30
0.0
 11
469.50054
 21
295.00557
 31
0.0
  0
ARC
  5
6AE
330
1EC
100
AcDbEntity
  8
0
100
AcDbCircle
 10
475.28354
 20
304.5285699999999
 30
0.0
 40
3.5
100
AcDbArc
 50
0.0
 51
90.0
  0
ARC
  5
6AF
330
1EC
100
AcDbEntity
  8
0
100
AcDbCircle
 10
475.33354
 20
304.57857
 30
0.0
 40
2.5
100
AcDbArc
 50
0.0
 51
90.0
  0
TEXT
  5
850
330
1EC
100
AcDbEntity
  8
0
100
AcDbText
 10
303.6413452375807
 20
170.9756528692991
 30
0.0
 40
10.0
  1
ACO Passavant
 50
90.0
100
AcDbText
  0
TEXT
  5
851
330
1EC
100
AcDbEntity
  8
0
100
AcDbText
 10
463.5401791058032
 20
257.3728325350629
 30
0.0
 40
10.0
  1
ACO Passavant
 50
270.0
100
AcDbText
  0
VIEWPORT
  5
1AB
102
{ACAD_XDICTIONARY
360
859
102
}
330
1E9
100
AcDbEntity
 67
     1
  8
0
100
AcDbViewport
 10
261.5176990000001
 20
148.5
 30
0.0
 40
523.0353980000001
 41
297.0
 68
    -1
 69
     1
 12
261.5176990000001
 22
148.5
 13
0.0
 23
0.0
 14
1.0
 24
1.0
 15
10.0
 25
10.0
 16
0.0
 26
0.0
 36
1.0
 17
0.0
 27
0.0
 37
0.0
 42
50.0
 43
0.0
 44
0.0
 45
297.0
 50
0.0
 51
0.0
 72
   100
 90
    32800
  1

281
     0
 71
     1
 74
     0
110
0.0
120
0.0
130
0.0
111
1.0
121
0.0
131
0.0
112
0.0
122
1.0
132
0.0
 79
     0
146
0.0
1001
GENIUS_GENOBJ-N-SDF_13
1002
{
1000
OWNER
1000
GEN
1002
}
1001
GENIUS_GENODEF_13
1002
{
1000
HIER
1070
     0
1002
}
1002
{
1000
MANEDIT
1070
     0
1002
}
1002
{
1000
NOSEL
1070
     0
1002
}
1002
{
1000
BEHIND
1070
     0
1002
}
1002
{
1000
OTHER
1070
     0
1002
}
1002
{
1000
REACTOR
1002
}
1001
GENIUS_GENSCREG_15
1000
PF
1040
1.0
1000
DF
1040
1.0
1000
MIN
1011
0.0
1021
0.0
1031
0.0
1000
MAX
1011
523.0353980000001
1021
297.0
1031
0.0
1000
FLAGS
1070
     2
  0
ENDSEC
  0
SECTION
  2
OBJECTS
  0
DICTIONARY
  5
1E1
330
0
100
AcDbDictionary
281
     1
  3
ACAD_COLOR
350
7BA
  3
ACAD_GROUP
350
1E2
  3
ACAD_LAYOUT
350
70C
  3
ACAD_MATERIAL
350
7B9
  3
ACAD_MLINESTYLE
350
1EF
  3
ACAD_PLOTSETTINGS
350
70D
  3
ACAD_PLOTSTYLENAME
350
70A
  3
ACAD_TABLESTYLE
350
7BB
  3
ACDBHEADERROUNDTRIPXREC
350
858
  3
ACDBVARIABLEDICTIONARY
350
228
  3
ACMDICTIONARY
350
72C
  3
AMG
350
728
  3
AMGSNAPSETTINGS
350
76C
  3
DWGPROPS
350
857
  0
DICTIONARY
  5
782
330
1EC
100
AcDbDictionary
280
     1
281
     1
  3
ACAD_INDEX
360
783
  3
ACAD_LAYOUTSELFREF
360
7B3
  0
DICTIONARY
  5
7B1
330
1E9
100
AcDbDictionary
280
     1
281
     1
  3
ACAD_LAYOUTSELFREF
360
7B2
  0
DICTIONARY
  5
859
330
1AB
100
AcDbDictionary
280
     1
281
     1
  3
ACAD_XREC_ROUNDTRIP
360
85A
  0
DICTIONARY
  5
7BA
102
{ACAD_REACTORS
330
1E1
102
}
330
1E1
100
AcDbDictionary
281
     1
  0
DICTIONARY
  5
1E2
102
{ACAD_REACTORS
330
1E1
102
}
330
1E1
100
AcDbDictionary
281
     1
  0
DICTIONARY
  5
70C
102
{ACAD_REACTORS
330
1E1
102
}
330
1E1
100
AcDbDictionary
281
     1
  3
Layout1
350
7BE
  3
Model
350
7BD
  0
DICTIONARY
  5
7B9
102
{ACAD_REACTORS
330
1E1
102
}
330
1E1
100
AcDbDictionary
281
     1
  0
DICTIONARY
  5
1EF
102
{ACAD_REACTORS
330
1E1
102
}
330
1E1
100
AcDbDictionary
281
     1
  3
STANDARD
350
1F0
  0
DICTIONARY
  5
70D
102
{ACAD_REACTORS
330
1E1
102
}
330
1E1
100
AcDbDictionary
281
     1
  0
ACDBDICTIONARYWDFLT
  5
70A
102
{ACAD_REACTORS
330
1E1
102
}
330
1E1
100
AcDbDictionary
281
     1
  3
Normal
350
70B
100
AcDbDictionaryWithDefault
340
70B
  0
DICTIONARY
  5
7BB
102
{ACAD_REACTORS
330
1E1
102
}
330
1E1
100
AcDbDictionary
281
     1
  3
Standard
350
7BC
  0
DICTIONARY
  5
858
102
{ACAD_REACTORS
330
1E1
102
}
330
1E1
100
AcDbDictionary
281
     1
  0
DICTIONARY
  5
228
102
{ACAD_REACTORS
330
1E1
102
}
330
1E1
100
AcDbDictionary
281
     1
  3
CTABLESTYLE
350
853
  3
DIMADEC
350
229
  3
DIMASSOC
350
854
  3
INDEXCTL
350
716
  3
PROJECTNAME
350
855
  3
SORTENTS
350
3B2
  0
DICTIONARY
  5
72C
102
{ACAD_REACTORS
330
1E1
102
}
330
1E1
100
AcDbDictionary
281
     1
  3
ACMSTDDICTIONARY
350
732
  3
AMDTSECTSYM_ARROWCOLOR
350
830
  0
DICTIONARY
  5
728
102
{ACAD_REACTORS
330
1E1
102
}
330
1E1
100
AcDbDictionary
281
     1
  0
DICTIONARY
  5
76C
102
{ACAD_REACTORS
330
1E1
102
}
330
1E1
100
AcDbDictionary
281
     1
  0
XRECORD
  5
857
102
{ACAD_REACTORS
330
1E1
102
}
330
1E1
100
AcDbXrecord
280
     1
  1
DWGPROPS COOKIE
  2

  3

  4

  6

  7

  8

  9

300
AmdtFileType=84
301
=
302
=
303
=
304
=
305
=
306
=
307
=
308
=
309
=
 40
0.0776737152777778
 41
2450346.688312257
 42
2454038.574258993
  1

 90
        1
  0
DICTIONARY
  5
783
102
{ACAD_REACTORS
330
782
102
}
330
782
100
AcDbDictionary
281
     1
  3
*A1
350
784
  0
XRECORD
  5
7B3
102
{ACAD_REACTORS
330
782
102
}
330
782
100
AcDbXrecord
280
     1
340
1EC
  0
XRECORD
  5
7B2
102
{ACAD_REACTORS
330
7B1
102
}
330
7B1
100
AcDbXrecord
280
     1
340
1E9
  0
XRECORD
  5
85A
102
{ACAD_REACTORS
330
859
102
}
330
859
100
AcDbXrecord
280
     1
102
SHADEPLOT
 70
     0
  0
LAYOUT
  5
7BE
102
{ACAD_XDICTIONARY
360
85D
102
}
102
{ACAD_REACTORS
330
70C
102
}
330
70C
100
AcDbPlotSettings
  1

  2
Xerox Document Centre CS50 PS
  4

  6

 40
0.0
 41
0.0
 42
0.0
 43
0.0
 44
0.0
 45
0.0
 46
0.0
 47
0.0
 48
0.0
 49
0.0
140
0.0
141
0.0
142
1.0
143
1.0
 70
   688
 72
     0
 73
     0
 74
     5
  7

 75
    16
147
1.0
148
0.0
149
0.0
100
AcDbLayout
  1
Layout1
 70
     1
 71
     1
 10
0.0
 20
0.0
 11
420.0
 21
297.0
 12
0.0
 22
0.0
 32
0.0
 14
1.000000000000000E+20
 24
1.000000000000000E+20
 34
1.000000000000000E+20
 15
-1.000000000000000E+20
 25
-1.000000000000000E+20
 35
-1.000000000000000E+20
146
0.0
 13
0.0
 23
0.0
 33
0.0
 16
1.0
 26
0.0
 36
0.0
 17
0.0
 27
1.0
 37
0.0
 76
     0
330
1E9
  0
LAYOUT
  5
7BD
102
{ACAD_XDICTIONARY
360
85B
102
}
102
{ACAD_REACTORS
330
70C
102
}
330
70C
100
AcDbPlotSettings
  1

  2
Xerox Document Centre CS50 PS
  4

  6

 40
0.0
 41
0.0
 42
0.0
 43
0.0
 44
0.0
 45
0.0
 46
0.0
 47
0.0
 48
0.0
 49
0.0
140
0.0
141
0.0
142
1.0
143
1.0
 70
  1712
 72
     0
 73
     0
 74
     0
  7

 75
     0
147
1.0
148
0.0
149
0.0
100
AcDbLayout
  1
Model
 70
     1
 71
     0
 10
0.0
 20
0.0
 11
12.0
 21
9.0
 12
0.0
 22
0.0
 32
0.0
 14
0.0
 24
0.0
 34
0.0
 15
0.0
 25
0.0
 35
0.0
146
0.0
 13
0.0
 23
0.0
 33
0.0
 16
1.0
 26
0.0
 36
0.0
 17
0.0
 27
1.0
 37
0.0
 76
     0
330
1EC
  0
MLINESTYLE
  5
1F0
102
{ACAD_REACTORS
330
1EF
102
}
330
1EF
100
AcDbMlineStyle
  2
STANDARD
 70
     0
  3

 62
   256
 51
90.0
 52
90.0
 71
     2
 49
0.5
 62
   256
  6
BYLAYER
 49
-0.5
 62
   256
  6
BYLAYER
  0
ACDBPLACEHOLDER
  5
70B
102
{ACAD_REACTORS
330
70A
102
}
330
70A
  0
TABLESTYLE
  5
7BC
102
{ACAD_REACTORS
330
7BB
102
}
330
7BB
100
AcDbTableStyle
  3
Standard
 70
     0
 71
     0
 40
1.5
 41
1.5
280
     0
281
     0
  7
STANDARD
140
4.5
170
     2
 62
     0
 63
     7
283
     0
274
    -2
284
     1
 64
     0
275
    -2
285
     1
 65
     0
276
    -2
286
     1
 66
     0
277
    -2
287
     1
 67
     0
278
    -2
288
     1
 68
     0
279
    -2
289
     1
 69
     0
  7
STANDARD
140
6.0
170
     5
 62
     0
 63
     7
283
     0
274
    -2
284
     1
 64
     0
275
    -2
285
     1
 65
     0
276
    -2
286
     1
 66
     0
277
    -2
287
     1
 67
     0
278
    -2
288
     1
 68
     0
279
    -2
289
     1
 69
     0
  7
STANDARD
140
4.5
170
     5
 62
     0
 63
     7
283
     0
274
    -2
284
     1
 64
     0
275
    -2
285
     1
 65
     0
276
    -2
286
     1
 66
     0
277
    -2
287
     1
 67
     0
278
    -2
288
     1
 68
     0
279
    -2
289
     1
 69
     0
  0
DICTIONARYVAR
  5
853
102
{ACAD_REACTORS
330
228
102
}
330
228
100
DictionaryVariables
280
     0
  1
STANDARD
  0
DICTIONARYVAR
  5
229
102
{ACAD_REACTORS
330
228
102
}
330
228
100
DictionaryVariables
280
     0
  1
0
  0
DICTIONARYVAR
  5
854
102
{ACAD_REACTORS
330
228
102
}
330
228
100
DictionaryVariables
280
     0
  1
1
  0
DICTIONARYVAR
  5
716
102
{ACAD_REACTORS
330
228
102
}
330
228
100
DictionaryVariables
280
     0
  1
1
  0
DICTIONARYVAR
  5
855
102
{ACAD_REACTORS
330
228
102
}
330
228
100
DictionaryVariables
280
     0
  1

  0
DICTIONARYVAR
  5
3B2
102
{ACAD_REACTORS
330
228
102
}
330
228
100
DictionaryVariables
280
     0
  1
96
  0
DICTIONARY
  5
732
102
{ACAD_REACTORS
330
72C
102
}
330
72C
100
AcDbDictionary
281
     1
  0
XRECORD
  5
830
102
{ACAD_REACTORS
330
72C
102
}
330
72C
100
AcDbXrecord
280
     1
 90
-1023410169
  0
LAYER_INDEX
  5
784
102
{ACAD_REACTORS
330
783
102
}
330
783
100
AcDbIndex
 40
2454038.574258993
100
AcDbLayerIndex
  8
0
360
785
 90
      240
  8
5
360
786
 90
        4
  8
7
360
787
 90
        8
  8
8
360
788
 90
       16
  8
DEFPOINTS
360
789
 90
        0
  8
SCHRAFFUR_RAND
360
78A
 90
       16
  0
DICTIONARY
  5
85D
330
7BE
100
AcDbDictionary
280
     1
281
     1
  3
ACAD_XREC_ROUNDTRIP
360
85E
  0
DICTIONARY
  5
85B
330
7BD
100
AcDbDictionary
280
     1
281
     1
  3
ACAD_XREC_ROUNDTRIP
360
85C
  0
IDBUFFER
  5
785
330
0
100
AcDbIdBuffer
330
850
330
851
330
3
330
7
330
15
330
16
330
17
330
18
330
19
330
1A
330
1B
330
1C
330
1D
330
1E
330
1F
330
20
330
21
330
22
330
23
330
24
330
25
330
26
330
27
330
28
330
29
330
2A
330
2B
330
2C
330
2D
330
2E
330
2F
330
30
330
31
330
32
330
33
330
34
330
35
330
36
330
37
330
B9
330
BA
330
BB
330
BC
330
BD
330
BE
330
C0
330
C1
330
C2
330
C3
330
C4
330
C5
330
C6
330
C7
330
C8
330
C9
330
CA
330
CB
330
CC
330
CD
330
CE
330
CF
330
D0
330
D1
330
D2
330
D3
330
D4
330
D5
330
D6
330
D7
330
D8
330
D9
330
DA
330
DB
330
DC
330
DD
330
DE
330
DF
330
17A
330
28B
330
28C
330
608
330
609
330
60A
330
60B
330
60C
330
60D
330
60E
330
60F
330
610
330
611
330
612
330
613
330
614
330
615
330
616
330
617
330
618
330
619
330
61A
330
61B
330
61C
330
61D
330
61E
330
61F
330
621
330
622
330
623
330
624
330
625
330
626
330
627
330
628
330
629
330
62A
330
62B
330
62D
330
62E
330
62F
330
631
330
632
330
633
330
634
330
635
330
636
330
637
330
638
330
639
330
63A
330
63B
330
63C
330
63D
330
63E
330
63F
330
640
330
641
330
642
330
644
330
645
330
646
330
647
330
648
330
649
330
64A
330
64B
330
64C
330
64D
330
64E
330
64F
330
650
330
651
330
652
330
653
330
654
330
655
330
656
330
657
330
658
330
659
330
65A
330
65B
330
65C
330
65D
330
65E
330
65F
330
660
330
661
330
662
330
665
330
666
330
667
330
668
330
669
330
66A
330
66B
330
66C
330
66D
330
66E
330
66F
330
670
330
671
330
672
330
673
330
674
330
675
330
676
330
677
330
678
330
679
330
67A
330
67B
330
67C
330
67D
330
67E
330
67F
330
680
330
681
330
682
330
683
330
684
330
685
330
686
330
687
330
688
330
689
330
68A
330
68B
330
68D
330
68E
330
68F
330
690
330
691
330
692
330
693
330
694
330
695
330
696
330
698
330
699
330
69A
330
69B
330
69C
330
69D
330
69E
330
69F
330
6A0
330
6A1
330
6A2
330
6A3
330
6A4
330
6A5
330
6A6
330
6A7
330
6A8
330
6A9
330
6AA
330
6AB
330
6AC
330
6AD
330
6AE
330
6AF
  0
IDBUFFER
  5
786
330
0
100
AcDbIdBuffer
330
5A
330
7A
330
14C
330
663
  0
IDBUFFER
  5
787
330
0
100
AcDbIdBuffer
330
8
330
620
330
62C
330
630
330
643
330
664
330
68C
330
697
  0
IDBUFFER
  5
788
330
0
100
AcDbIdBuffer
330
95
330
A9
330
E0
330
E6
330
EC
330
F2
330
F8
330
FE
330
104
330
10A
330
110
330
128
330
159
330
161
330
16A
330
172
  0
IDBUFFER
  5
789
330
0
100
AcDbIdBuffer
  0
IDBUFFER
  5
78A
330
0
100
AcDbIdBuffer
330
3E9
330
47B
330
481
330
487
330
48D
330
493
330
499
330
49F
330
4A5
330
4AB
330
4B1
330
4B7
330
4C8
330
4D3
330
4E3
330
4EB
  0
XRECORD
  5
85E
102
{ACAD_REACTORS
330
85D
102
}
330
85D
100
AcDbXrecord
280
     1
102
SHADEPLOT
 70
     0
102
SHADEPLOTRESLEVEL
 70
     2
102
SHADEPLOTCUSTOMDPI
 70
   300
  0
XRECORD
  5
85C
102
{ACAD_REACTORS
330
85B
102
}
330
85B
100
AcDbXrecord
280
     1
102
SHADEPLOT
 70
     0
102
SHADEPLOTRESLEVEL
 70
     2
102
SHADEPLOTCUSTOMDPI
 70
   300
  0
ENDSEC
  0
EOF
