  0
SECTION
  2
HEADER
  9
$ACADVER
  1
AC1015
  9
$ACADMAINTVER
 70
    20
  9
$DWGCODEPAGE
  3
ANSI_1252
  9
$INSBASE
 10
0.0
 20
0.0
 30
0.0
  9
$EXTMIN
 10
17.3753261805
 20
82.29004465174659
 30
0.0
  9
$EXTMAX
 10
259.0408826640378
 20
270.0519067797
 30
0.0
  9
$LIMMIN
 10
0.0
 20
0.0
  9
$LIMMAX
 10
420.0
 20
297.0
  9
$ORTHOMODE
 70
     1
  9
$REGENMODE
 70
     1
  9
$FILLMODE
 70
     1
  9
$QTEXTMODE
 70
     0
  9
$MIRRTEXT
 70
     0
  9
$LTSCALE
 40
23.1
  9
$ATTMODE
 70
     1
  9
$TEXTSIZE
 40
0.2
  9
$TRACEWID
 40
0.05
  9
$TEXTSTYLE
  7
STANDARD
  9
$CLAYER
  8
0
  9
$CELTYPE
  6
BYLAYER
  9
$CECOLOR
 62
   256
  9
$CELTSCALE
 40
1.0
  9
$DISPSILH
 70
     0
  9
$DIMSCALE
 40
1.0
  9
$DIMASZ
 40
3.5
  9
$DIMEXO
 40
2.625
  9
$DIMDLI
 40
15.96
  9
$DIMRND
 40
0.0
  9
$DIMDLE
 40
0.0
  9
$DIMEXE
 40
7.559999999999999
  9
$DIMTP
 40
0.005
  9
$DIMTM
 40
0.005
  9
$DIMTXT
 40
3.5
  9
$DIMCEN
 40
3.779999999999999
  9
$DIMTSZ
 40
0.0
  9
$DIMTOL
 70
     1
  9
$DIMLIM
 70
     0
  9
$DIMTIH
 70
     1
  9
$DIMTOH
 70
     1
  9
$DIMSE1
 70
     0
  9
$DIMSE2
 70
     0
  9
$DIMTAD
 70
     0
  9
$DIMZIN
 70
     0
  9
$DIMBLK
  1
_FILLED
  9
$DIMASO
 70
     1
  9
$DIMSHO
 70
     1
  9
$DIMPOST
  1

  9
$DIMAPOST
  1

  9
$DIMALT
 70
     0
  9
$DIMALTD
 70
     2
  9
$DIMALTF
 40
25.4
  9
$DIMLFAC
 40
1.0
  9
$DIMTOFL
 70
     0
  9
$DIMTVP
 40
0.0
  9
$DIMTIX
 70
     0
  9
$DIMSOXD
 70
     0
  9
$DIMSAH
 70
     0
  9
$DIMBLK1
  1

  9
$DIMBLK2
  1

  9
$DIMSTYLE
  2
STANDARD
  9
$DIMCLRD
 70
     0
  9
$DIMCLRE
 70
     0
  9
$DIMCLRT
 70
     0
  9
$DIMTFAC
 40
1.0
  9
$DIMGAP
 40
0.09
  9
$DIMJUST
 70
     0
  9
$DIMSD1
 70
     0
  9
$DIMSD2
 70
     0
  9
$DIMTOLJ
 70
     1
  9
$DIMTZIN
 70
     0
  9
$DIMALTZ
 70
     0
  9
$DIMALTTZ
 70
     0
  9
$DIMUPT
 70
     0
  9
$DIMDEC
 70
     4
  9
$DIMTDEC
 70
     4
  9
$DIMALTU
 70
     2
  9
$DIMALTTD
 70
     2
  9
$DIMTXSTY
  7
STANDARD
  9
$DIMAUNIT
 70
     0
  9
$DIMADEC
 70
     0
  9
$DIMALTRND
 40
0.0
  9
$DIMAZIN
 70
     0
  9
$DIMDSEP
 70
    46
  9
$DIMATFIT
 70
     3
  9
$DIMFRAC
 70
     0
  9
$DIMLDRBLK
  1

  9
$DIMLUNIT
 70
     2
  9
$DIMLWD
 70
    -2
  9
$DIMLWE
 70
    -2
  9
$DIMTMOVE
 70
     0
  9
$LUNITS
 70
     2
  9
$LUPREC
 70
     2
  9
$SKETCHINC
 40
0.1
  9
$FILLETRAD
 40
0.0
  9
$AUNITS
 70
     0
  9
$AUPREC
 70
     0
  9
$MENU
  1
.
  9
$ELEVATION
 40
0.0
  9
$PELEVATION
 40
0.0
  9
$THICKNESS
 40
0.0
  9
$LIMCHECK
 70
     0
  9
$CHAMFERA
 40
0.0
  9
$CHAMFERB
 40
0.0
  9
$CHAMFERC
 40
0.0
  9
$CHAMFERD
 40
0.0
  9
$SKPOLY
 70
     0
  9
$TDCREATE
 40
2456324.453174329
  9
$TDUCREATE
 40
2456324.411507662
  9
$TDUPDATE
 40
2456324.457624213
  9
$TDUUPDATE
 40
2456324.415957547
  9
$TDINDWG
 40
0.0044504167
  9
$TDUSRTIMER
 40
0.0044504167
  9
$USRTIMER
 70
     1
  9
$ANGBASE
 50
0.0
  9
$ANGDIR
 70
     0
  9
$PDMODE
 70
     3
  9
$PDSIZE
 40
0.3125
  9
$PLINEWID
 40
0.0
  9
$SPLFRAME
 70
     0
  9
$SPLINETYPE
 70
     6
  9
$SPLINESEGS
 70
     8
  9
$HANDSEED
  5
534
  9
$SURFTAB1
 70
     6
  9
$SURFTAB2
 70
     6
  9
$SURFTYPE
 70
     6
  9
$SURFU
 70
     6
  9
$SURFV
 70
     6
  9
$UCSBASE
  2

  9
$UCSNAME
  2

  9
$UCSORG
 10
0.0
 20
0.0
 30
0.0
  9
$UCSXDIR
 10
1.0
 20
0.0
 30
0.0
  9
$UCSYDIR
 10
0.0
 20
1.0
 30
0.0
  9
$UCSORTHOREF
  2

  9
$UCSORTHOVIEW
 70
     0
  9
$UCSORGTOP
 10
0.0
 20
0.0
 30
0.0
  9
$UCSORGBOTTOM
 10
0.0
 20
0.0
 30
0.0
  9
$UCSORGLEFT
 10
0.0
 20
0.0
 30
0.0
  9
$UCSORGRIGHT
 10
0.0
 20
0.0
 30
0.0
  9
$UCSORGFRONT
 10
0.0
 20
0.0
 30
0.0
  9
$UCSORGBACK
 10
0.0
 20
0.0
 30
0.0
  9
$PUCSBASE
  2

  9
$PUCSNAME
  2

  9
$PUCSORG
 10
0.0
 20
0.0
 30
0.0
  9
$PUCSXDIR
 10
1.0
 20
0.0
 30
0.0
  9
$PUCSYDIR
 10
0.0
 20
1.0
 30
0.0
  9
$PUCSORTHOREF
  2

  9
$PUCSORTHOVIEW
 70
     0
  9
$PUCSORGTOP
 10
0.0
 20
0.0
 30
0.0
  9
$PUCSORGBOTTOM
 10
0.0
 20
0.0
 30
0.0
  9
$PUCSORGLEFT
 10
0.0
 20
0.0
 30
0.0
  9
$PUCSORGRIGHT
 10
0.0
 20
0.0
 30
0.0
  9
$PUCSORGFRONT
 10
0.0
 20
0.0
 30
0.0
  9
$PUCSORGBACK
 10
0.0
 20
0.0
 30
0.0
  9
$USERI1
 70
     0
  9
$USERI2
 70
     0
  9
$USERI3
 70
     0
  9
$USERI4
 70
     0
  9
$USERI5
 70
     0
  9
$USERR1
 40
0.0
  9
$USERR2
 40
0.0
  9
$USERR3
 40
0.0
  9
$USERR4
 40
0.0
  9
$USERR5
 40
0.0
  9
$WORLDVIEW
 70
     1
  9
$SHADEDGE
 70
     3
  9
$SHADEDIF
 70
    70
  9
$TILEMODE
 70
     1
  9
$MAXACTVP
 70
    64
  9
$PINSBASE
 10
0.0
 20
0.0
 30
0.0
  9
$PLIMCHECK
 70
     0
  9
$PEXTMIN
 10
1.000000000000000E+20
 20
1.000000000000000E+20
 30
1.000000000000000E+20
  9
$PEXTMAX
 10
-1.000000000000000E+20
 20
-1.000000000000000E+20
 30
-1.000000000000000E+20
  9
$PLIMMIN
 10
0.0
 20
0.0
  9
$PLIMMAX
 10
12.0
 20
9.0
  9
$UNITMODE
 70
     0
  9
$VISRETAIN
 70
     1
  9
$PLINEGEN
 70
     0
  9
$PSLTSCALE
 70
     1
  9
$TREEDEPTH
 70
  3020
  9
$CMLSTYLE
  2
Standard
  9
$CMLJUST
 70
     0
  9
$CMLSCALE
 40
1.0
  9
$PROXYGRAPHICS
 70
     1
  9
$MEASUREMENT
 70
     1
  9
$CELWEIGHT
370
    -1
  9
$ENDCAPS
280
     0
  9
$JOINSTYLE
280
     0
  9
$LWDISPLAY
290
     0
  9
$INSUNITS
 70
     4
  9
$HYPERLINKBASE
  1

  9
$STYLESHEET
  1

  9
$XEDIT
290
     1
  9
$CEPSNTYPE
380
     0
  9
$PSTYLEMODE
290
     1
  9
$FINGERPRINTGUID
  2
{8A87D61D-44C9-403E-A01D-E71B2D84F8B7}
  9
$VERSIONGUID
  2
{7D2892FD-C3DB-45DC-8E0C-998CD329A627}
  9
$EXTNAMES
290
     1
  9
$PSVPSCALE
 40
0.0
  9
$OLESTARTUP
290
     0
  0
ENDSEC
  0
SECTION
  2
CLASSES
  0
CLASS
  1
ACDBDICTIONARYWDFLT
  2
AcDbDictionaryWithDefault
  3
ObjectDBX Classes
 90
        0
280
     0
281
     0
  0
CLASS
  1
ACDBPLACEHOLDER
  2
AcDbPlaceHolder
  3
ObjectDBX Classes
 90
        0
280
     0
281
     0
  0
CLASS
  1
LAYOUT
  2
AcDbLayout
  3
ObjectDBX Classes
 90
        0
280
     0
281
     0
  0
CLASS
  1
MATERIAL
  2
AcDbMaterial
  3
ObjectDBX Classes
 90
     1153
280
     0
281
     0
  0
CLASS
  1
VISUALSTYLE
  2
AcDbVisualStyle
  3
ObjectDBX Classes
 90
     4095
280
     0
281
     0
  0
CLASS
  1
TABLESTYLE
  2
AcDbTableStyle
  3
ObjectDBX Classes
 90
     4095
280
     0
281
     0
  0
CLASS
  1
SCALE
  2
AcDbScale
  3
ObjectDBX Classes
 90
     1153
280
     0
281
     0
  0
CLASS
  1
MLEADERSTYLE
  2
AcDbMLeaderStyle
  3
ACDB_MLEADERSTYLE_CLASS
 90
     4095
280
     0
281
     0
  0
CLASS
  1
AMGSETTINGSOBJ
  2
AmgSettingsObj
  3
"AcadM|Product Description: AutoCAD Mechanical|Company: Autodesk, Inc."
 90
     1024
280
     0
281
     0
  0
CLASS
  1
ACME_DOCUMENT
  2
AcMeDbDoc
  3
AcMeServices
 90
     1024
280
     0
281
     0
  0
CLASS
  1
ACMESCOPE
  2
AcMeScope
  3
AcMeServices
 90
     1024
280
     0
281
     0
  0
CLASS
  1
ACMECOMMANDHISTORY
  2
AcMeCommandHistory
  3
AcMeServices
 90
     1024
280
     0
281
     0
  0
CLASS
  1
ACIMSYSVARMAN
  2
AcImSysVarManager
  3
AcMeServices
 90
     1024
280
     0
281
     0
  0
CLASS
  1
ACIMINTSYSVAR
  2
AcImIntSysVar
  3
AcMeServices
 90
     1024
280
     0
281
     0
  0
CLASS
  1
ACMEDRAWINGMAN
  2
AcMeDrawingMan
  3
AcMeServices
 90
     1024
280
     0
281
     0
  0
CLASS
  1
ACMEVIEW
  2
AcMeView
  3
AcMeServices
 90
     1024
280
     0
281
     0
  0
CLASS
  1
ACDBENTITYCACHE
  2
AcMeEntityCache
  3
AcMeServices
 90
     1024
280
     0
281
     0
  0
CLASS
  1
ACMESTATEMGR
  2
AcMeStateMgr
  3
AcMeServices
 90
     1024
280
     0
281
     0
  0
CLASS
  1
ACGREFMASTER
  2
AcGrefMaster
  3
AcAttribServices
 90
     1024
280
     0
281
     0
  0
CLASS
  1
AM_DRAWING_MGR
  2
AcDmDwgMgr
  3
AcMechDwgViewMgmt
 90
     1024
280
     0
281
     0
  0
CLASS
  1
AM_DWG_DOCUMENT
  2
AcDmDwgDocument
  3
AcMechDwgViewMgmt
 90
     1024
280
     0
281
     0
  0
CLASS
  1
AM_DWG_SHEET
  2
AcDmSheet
  3
AcMechDwgViewMgmt
 90
     1024
280
     0
281
     0
  0
CLASS
  1
AM_VIEWDIMPARMAP
  2
AcDmViewDimParMap
  3
AcMechDwgViewMgmt
 90
     1024
280
     0
281
     0
  0
CLASS
  1
AMDTINTERNALREACTOR
  2
AmdtInternalReactor
  3
AcMeServices
 90
     1024
280
     0
281
     0
  0
CLASS
  1
ACIMREALSYSVAR
  2
AcImRealSysVar
  3
AcMeServices
 90
     1024
280
     0
281
     0
  0
CLASS
  1
AM_DWGMGR_NAME
  2
AcDmDwgMgrName
  3
AcMechDwgViewMgmt
 90
     1024
280
     0
281
     0
  0
CLASS
  1
ACME_DATABASE
  2
AcMeDbDatabase
  3
AcMeServices
 90
     1024
280
     0
281
     0
  0
CLASS
  1
ACRFINSADJUSTERMGR
  2
AcRfInsAdjusterMgr
  3
AcMeServices
 90
     1024
280
     0
281
     0
  0
CLASS
  1
ACGREFACADMASTER
  2
AcGrefacadMaster
  3
AcGrefServices
 90
     1024
280
     0
281
     0
  0
CLASS
  1
AMDTMENUSTATEMGR
  2
AmdtMenuStateMgr
  3
McadcomServices
 90
     1024
280
     0
281
     0
  0
CLASS
  1
AMDTMCOMMENUSTATE
  2
AmdtMcomMenuState
  3
McadcomServices
 90
     1024
280
     0
281
     0
  0
CLASS
  1
AMIMASTER
  2
AmiMaster
  3
AmiServices
 90
     1024
280
     0
281
     0
  0
CLASS
  1
MAPIAMMOUDLE
  2
MApiAmModule
  3
MApiAmServices
 90
     1024
280
     0
281
     0
  0
CLASS
  1
ACIMSTRSYSVAR
  2
AcImStrSysVar
  3
AcMeServices
 90
     1024
280
     0
281
     0
  0
CLASS
  1
AMDTADMENUSTATE
  2
AmdtAdMenuState
  3
DesignerServices
 90
     1024
280
     0
281
     0
  0
CLASS
  1
ADAPPL
  2
AcAdAppl
  3
DesignerServices
 90
     1024
280
     0
281
     0
  0
CLASS
  1
DEPMGR
  2
AcAdDepMgr
  3
DesignerServices
 90
     1024
280
     0
281
     0
  0
CLASS
  1
PARAMMGR
  2
AcAdParamMgr
  3
DesignerServices
 90
     1024
280
     0
281
     0
  0
CLASS
  1
PARAMSCOPE
  2
AcAdParamScope
  3
DesignerServices
 90
     1024
280
     0
281
     0
  0
CLASS
  1
NAMEDAPPL
  2
AcAdNamedAppl
  3
DesignerServices
 90
     1024
280
     0
281
     0
  0
CLASS
  1
AMDTDMMENUSTATE
  2
AmdtDmMenuState
  3
AcMechDwgViewMgmt
 90
     1024
280
     0
281
     0
  0
CLASS
  1
AMDTAMMENUSTATE
  2
AmdtAmMenuState
  3
DesignerAssemblies
 90
     1024
280
     0
281
     0
  0
CLASS
  1
ACAMPROJECT
  2
AcAmProject
  3
DesignerAssemblies
 90
     1024
280
     0
281
     0
  0
CLASS
  1
ACAMGRCOMPDEF
  2
AcAmGrCompDef
  3
DesignerAssemblies
 90
     1024
280
     0
281
     0
  0
CLASS
  1
ACAMCOMPDEF
  2
AcAmCompDef
  3
DesignerAssemblies
 90
     1024
280
     0
281
     0
  0
CLASS
  1
ACAMCOMPDEFMGR
  2
AcAmCompDefMgr
  3
DesignerAssemblies
 90
     1024
280
     0
281
     0
  0
CLASS
  1
AMCONTEXTMGR
  2
AcAmContextMgr
  3
DesignerAssemblies
 90
     1024
280
     0
281
     0
  0
CLASS
  1
ACAMCONTEXTMODELER
  2
AcAmContextModeler
  3
DesignerAssemblies
 90
     1024
280
     0
281
     0
  0
CLASS
  1
ACMDATADICTIONARY
  2
AcmDataDictionary
  3
"AcmSymBB|Product Description: AutoCAD Mechanical|Company: Autodesk, Inc."
 90
     1024
280
     0
281
     0
  0
CLASS
  1
CATALOGSTATE
  2
AcAmCatalogState
  3
DesignerAssemblies
 90
     1024
280
     0
281
     0
  0
CLASS
  1
ACAMGRCOMPDEFSET
  2
AcAmGrCompDefSet
  3
DesignerAssemblies
 90
     1024
280
     0
281
     0
  0
CLASS
  1
AMDTBROWSERDBTAB
  2
AmdtBrowserDbTab
  3
McadcomServices
 90
     1024
280
     0
281
     0
  0
CLASS
  1
CBROWSERAPPOBJECT
  2
CBrowserAppObject
  3
McadcomServices
 90
     1024
280
     0
281
     0
  0
CLASS
  1
DM_PLACEHOLDER
  2
AcDmSelsetPlaceholder
  3
AcMechDwgViewMgmt
 90
     1024
280
     0
281
     0
  0
CLASS
  1
ACMSTANDARDDIN
  2
AcmStandardDIN
  3
"Amdt_StdImp|Product Description: AutoCAD Mechanical|Company: Autodesk, Inc."
 90
     1024
280
     0
281
     0
  0
CLASS
  1
AMDTEDGESTANDARDDIN13715
  2
AmdtEdgeStdDIN13715
  3
"Amdt_StdImp|Product Description: AutoCAD Mechanical|Company: Autodesk, Inc."
 90
     1024
280
     0
281
     0
  0
CLASS
  1
ACMSURFSTANDARDDIN2002
  2
AcmSurfTextStdDIN2002
  3
"Amdt_StdImp|Product Description: AutoCAD Mechanical|Company: Autodesk, Inc."
 90
     1024
280
     0
281
     0
  0
CLASS
  1
ACMFCFSTANDARDDIN
  2
AcmFCFStdDIN
  3
"Amdt_StdImp|Product Description: AutoCAD Mechanical|Company: Autodesk, Inc."
 90
     1024
280
     0
281
     0
  0
CLASS
  1
ACMWELDSTANDARDDIN
  2
AcmWeldingStdDIN
  3
"Amdt_StdImp|Product Description: AutoCAD Mechanical|Company: Autodesk, Inc."
 90
     1024
280
     0
281
     0
  0
CLASS
  1
ACMIDSTANDARDDIN
  2
AcmIdStdDIN
  3
"Amdt_StdImp|Product Description: AutoCAD Mechanical|Company: Autodesk, Inc."
 90
     1024
280
     0
281
     0
  0
CLASS
  1
ACMDATUMSTANDARDDIN
  2
AcmDatumStdDIN
  3
"Amdt_StdImp|Product Description: AutoCAD Mechanical|Company: Autodesk, Inc."
 90
     1024
280
     0
281
     0
  0
CLASS
  1
ACMBOMSTANDARDDIN
  2
AcmBOMStdDIN
  3
"Amdt_StdImp|Product Description: AutoCAD Mechanical|Company: Autodesk, Inc."
 90
     1024
280
     0
281
     0
  0
CLASS
  1
ACMDETAILSTANDARDDIN
  2
AmdtDetailSymStdDIN
  3
"Amdt_StdImp|Product Description: AutoCAD Mechanical|Company: Autodesk, Inc."
 90
     1024
280
     0
281
     0
  0
CLASS
  1
ACMSECTIONSTANDARDDIN
  2
AmdtSectionSymStdDIN
  3
"Amdt_StdImp|Product Description: AutoCAD Mechanical|Company: Autodesk, Inc."
 90
     1024
280
     0
281
     0
  0
CLASS
  1
ACMCENTERLINESTANDARDDIN
  2
AmdtCenterLineStdDIN
  3
"Amdt_StdImp|Product Description: AutoCAD Mechanical|Company: Autodesk, Inc."
 90
     1024
280
     0
281
     0
  0
CLASS
  1
ACMTHREADLINESTANDARDDIN
  2
AmdtThreadLineStdDIN
  3
"Amdt_StdImp|Product Description: AutoCAD Mechanical|Company: Autodesk, Inc."
 90
     1024
280
     0
281
     0
  0
CLASS
  1
ACMNOTESTANDARDDIN
  2
AmdtNoteStdDIN
  3
"Amdt_StdImp|Product Description: AutoCAD Mechanical|Company: Autodesk, Inc."
 90
     1024
280
     0
281
     0
  0
CLASS
  1
ACMTAPERSTANDARDDIN
  2
AcmTaperStdDIN
  3
"Amdt_StdImp|Product Description: AutoCAD Mechanical|Company: Autodesk, Inc."
 90
     1024
280
     0
281
     0
  0
CLASS
  1
ACMANOOTATIONVIEWSTANDARDDIN
  2
AmdtAnViewStdDIN
  3
"Amdt_StdImp|Product Description: AutoCAD Mechanical|Company: Autodesk, Inc."
 90
     1024
280
     0
281
     0
  0
CLASS
  1
ACAMGLAYSTD
  2
AcAmgLayStd
  3
"AmgLay|Product Description: AutoCAD Mechanical|Company: Autodesk, Inc."
 90
     1024
280
     0
281
     0
  0
CLASS
  1
ACAMGDIMSTD
  2
AcAmgDimStd
  3
"AmgDim|Product Description: AutoCAD Mechanical|Company: Autodesk, Inc."
 90
     1024
280
     0
281
     0
  0
CLASS
  1
AMGOBJPROPCFG
  2
AmgObjPropCfg
  3
"AmgLay|Product Description: AutoCAD Mechanical|Company: Autodesk, Inc."
 90
     1025
280
     0
281
     0
  0
CLASS
  1
ACAMGHOLECHARTSTDDIN
  2
AcAmgHoleChartStdDIN
  3
AmgDim|Product Description: AutoCAD Mechanical|Company: Autodesk, Inc.
 90
     1024
280
     0
281
     0
  0
CLASS
  1
ACAMGTITLESTD
  2
AcAmgTitleStd
  3
"AmgTitle|Product Description: AutoCAD Mechanical|Company: Autodesk, Inc."
 90
     4095
280
     0
281
     0
  0
CLASS
  1
AMDTNOTETEMPLATEDB
  2
AmdtNoteTemplateDB
  3
AcmSymBB|Product Description: AutoCAD Mechanical|Company: Autodesk, Inc.
 90
     1024
280
     0
281
     0
  0
CLASS
  1
ACAMGFILTERDAT
  2
AcAmgFilterDat
  3
"AcadM|Product Description: AutoCAD Mechanical|Company: Autodesk, Inc."
 90
     1024
280
     0
281
     0
  0
CLASS
  1
DICTIONARYVAR
  2
AcDbDictionaryVar
  3
ObjectDBX Classes
 90
        0
280
     0
281
     0
  0
CLASS
  1
CELLSTYLEMAP
  2
AcDbCellStyleMap
  3
ObjectDBX Classes
 90
     1152
280
     0
281
     0
  0
ENDSEC
  0
SECTION
  2
TABLES
  0
TABLE
  2
VPORT
  5
8
330
0
100
AcDbSymbolTable
 70
     1
  0
VPORT
  5
1F4
330
8
100
AcDbSymbolTableRecord
100
AcDbViewportTableRecord
  2
*ACTIVE
 70
     0
 10
0.0
 20
0.0
 11
1.0
 21
1.0
 12
141.850082952859
 22
154.58142661038
 13
0.0
 23
0.0
 14
1.0
 24
1.0
 15
0.0
 25
0.0
 16
0.0
 26
0.0
 36
1.0
 17
0.0
 27
0.0
 37
0.0
 40
347.4490073546399
 41
0.9367245657568236
 42
50.0
 43
0.0
 44
0.0
 50
0.0
 51
0.0
 71
     0
 72
   100
 73
     1
 74
     1
 75
     0
 76
     0
 77
     0
 78
     0
281
     0
 65
     0
110
0.0
120
0.0
130
0.0
111
1.0
121
0.0
131
0.0
112
0.0
122
1.0
132
0.0
 79
     0
146
0.0
  0
ENDTAB
  0
TABLE
  2
LTYPE
  5
5
330
0
100
AcDbSymbolTable
 70
    23
  0
LTYPE
  5
14
330
5
100
AcDbSymbolTableRecord
100
AcDbLinetypeTableRecord
  2
BYBLOCK
 70
     0
  3

 72
    65
 73
     0
 40
0.0
  0
LTYPE
  5
15
330
5
100
AcDbSymbolTableRecord
100
AcDbLinetypeTableRecord
  2
BYLAYER
 70
     0
  3

 72
    65
 73
     0
 40
0.0
  0
LTYPE
  5
16
330
5
100
AcDbSymbolTableRecord
100
AcDbLinetypeTableRecord
  2
CONTINUOUS
 70
     0
  3
Solid line
 72
    65
 73
     0
 40
0.0
  0
LTYPE
  5
1F5
330
5
100
AcDbSymbolTableRecord
100
AcDbLinetypeTableRecord
  2
CENTER
 70
     0
  3
____ _ ____ _ ____ _ ____ _ ____ _ ____ _ ____
 72
    65
 73
     4
 40
0.6
 49
0.375
 74
     0
 49
-0.075
 74
     0
 49
0.075
 74
     0
 49
-0.075
 74
     0
  0
LTYPE
  5
1F6
330
5
100
AcDbSymbolTableRecord
100
AcDbLinetypeTableRecord
  2
HIDDEN
 70
     0
  3
- - - - - - - - - - - - - - - - - - - -
 72
    65
 73
     2
 40
0.2
 49
0.1
 74
     0
 49
-0.1
 74
     0
  0
LTYPE
  5
1F7
330
5
100
AcDbSymbolTableRecord
100
AcDbLinetypeTableRecord
  2
PHANTOM
 70
     0
  3
_____ _ _ _____ _ _ _____ _ _ _____
 72
    65
 73
     6
 40
0.8
 49
0.45
 74
     0
 49
-0.05
 74
     0
 49
0.1
 74
     0
 49
-0.05
 74
     0
 49
0.1
 74
     0
 49
-0.05
 74
     0
  0
LTYPE
  5
1F8
330
5
100
AcDbSymbolTableRecord
100
AcDbLinetypeTableRecord
  2
DOT
 70
     0
  3
. . . . . . . . . . . . . . . . . . . .
 72
    65
 73
     2
 40
0.2
 49
0.1
 74
     0
 49
-0.1
 74
     0
  0
LTYPE
  5
1F9
330
5
100
AcDbSymbolTableRecord
100
AcDbLinetypeTableRecord
  2
DASHED
 70
     0
  3
- - - - - - - - - - - - - - - - - - - -
 72
    65
 73
     2
 40
0.2
 49
0.1
 74
     0
 49
-0.1
 74
     0
  0
LTYPE
  5
3E3
330
5
100
AcDbSymbolTableRecord
100
AcDbLinetypeTableRecord
  2
PHANTOM2
 70
     0
  3
Phantom (.5x) ___ _ _ ___ _ _ ___ _ _ ___ _ _
 72
    65
 73
     6
 40
31.75
 49
15.875
 74
     0
 49
-3.174999999999999
 74
     0
 49
3.174999999999999
 74
     0
 49
-3.174999999999999
 74
     0
 49
3.174999999999999
 74
     0
 49
-3.174999999999999
 74
     0
  0
LTYPE
  5
429
330
5
100
AcDbSymbolTableRecord
100
AcDbLinetypeTableRecord
  2
AM_ISO02W050
 70
     0
  3
__ __ __ __ __ __ __ __ __ __ __ __ __ __ __
 72
    65
 73
     2
 40
7.5
 49
6.0
 74
     0
 49
-1.5
 74
     0
  0
LTYPE
  5
42A
330
5
100
AcDbSymbolTableRecord
100
AcDbLinetypeTableRecord
  2
AM_ISO08W050
 70
     0
  3
____ . ____ . ____ . ____ . ____ . ____ . ____
 72
    65
 73
     4
 40
18.0
 49
12.0
 74
     0
 49
-1.5
 74
     0
 49
3.0
 74
     0
 49
-1.5
 74
     0
  0
LTYPE
  5
42B
330
5
100
AcDbSymbolTableRecord
100
AcDbLinetypeTableRecord
  2
AM_ISO09W050
 70
     0
  3
_____ . . _____ . . _____ . . ____ .. ____
 72
    65
 73
     6
 40
22.5
 49
12.0
 74
     0
 49
-1.5
 74
     0
 49
3.0
 74
     0
 49
-1.5
 74
     0
 49
3.0
 74
     0
 49
-1.5
 74
     0
  0
LTYPE
  5
42C
330
5
100
AcDbSymbolTableRecord
100
AcDbLinetypeTableRecord
  2
Amconstr
 70
     0
  3
_______________________
 72
    65
 73
     2
 40
9999.0
 49
9999.0
 74
     0
 49
0.0
 74
     0
  0
LTYPE
  5
42D
330
5
100
AcDbSymbolTableRecord
100
AcDbLinetypeTableRecord
  2
AM_ISO08W050x2
 70
     0
  3
__ . __ . __ . __ . __ . __
 72
    65
 73
     4
 40
9.0
 49
6.0
 74
     0
 49
-0.75
 74
     0
 49
1.5
 74
     0
 49
-0.75
 74
     0
  0
LTYPE
  5
42E
330
5
100
AcDbSymbolTableRecord
100
AcDbLinetypeTableRecord
  2
AM_ISO02W050x2
 70
     0
  3
 _ _ _ _ _ _ _ _ _ _ _ _
 72
    65
 73
     2
 40
3.75
 49
3.0
 74
     0
 49
-0.75
 74
     0
  0
LTYPE
  5
431
330
5
100
AcDbSymbolTableRecord
100
AcDbLinetypeTableRecord
  2
Amzigzag
 70
     0
  3
/\/-/\/-/\/-/\/-/\/-/\/
 72
    65
 73
     2
 40
11.0001
 49
0.0001
 74
     4
 75
   136
340
430
 46
0.04
 50
0.0
 44
0.0
 45
0.0
 49
-11.0
 74
     0
  0
LTYPE
  5
432
330
5
100
AcDbSymbolTableRecord
100
AcDbLinetypeTableRecord
  2
AM_DIN_F_W050
 70
     0
  3
__ __ __ __ __ __ __ __ __ __ __ __ __ __ __
 72
    65
 73
     2
 40
6.25
 49
4.75
 74
     0
 49
-1.5
 74
     0
  0
LTYPE
  5
433
330
5
100
AcDbSymbolTableRecord
100
AcDbLinetypeTableRecord
  2
AM_DIN_G_W050
 70
     0
  3
____ . ____ . ____ . ____ . ____ . ____ . ____
 72
    65
 73
     4
 40
13.75
 49
9.75
 74
     0
 49
-1.5
 74
     0
 49
1.0
 74
     0
 49
-1.5
 74
     0
  0
LTYPE
  5
434
330
5
100
AcDbSymbolTableRecord
100
AcDbLinetypeTableRecord
  2
AM_DIN_K_W050
 70
     0
  3
_____ . . _____ . . _____ . . ____ .. ____
 72
    65
 73
     6
 40
16.25
 49
9.75
 74
     0
 49
-1.5
 74
     0
 49
1.0
 74
     0
 49
-1.5
 74
     0
 49
1.0
 74
     0
 49
-1.5
 74
     0
  0
LTYPE
  5
435
330
5
100
AcDbSymbolTableRecord
100
AcDbLinetypeTableRecord
  2
AM_DIN_G_W050x2
 70
     0
  3
__ . __ . __ . __ . __ . __
 72
    65
 73
     4
 40
6.875
 49
4.75
 74
     0
 49
-0.875
 74
     0
 49
0.375
 74
     0
 49
-0.875
 74
     0
  0
LTYPE
  5
436
330
5
100
AcDbSymbolTableRecord
100
AcDbLinetypeTableRecord
  2
AM_DIN_F_W050x2
 70
     0
  3
 _ _ _ _ _ _ _ _ _ _ _ _
 72
    65
 73
     2
 40
3.125
 49
2.25
 74
     0
 49
-0.875
 74
     0
  0
LTYPE
  5
445
330
5
100
AcDbSymbolTableRecord
100
AcDbLinetypeTableRecord
  2
ACDINWELD
 70
     0
  3
_ _ _ _ _
 72
    65
 73
     2
 40
2.0
 49
2.0
 74
     0
 49
-1.0
 74
     0
  0
LTYPE
  5
446
330
5
100
AcDbSymbolTableRecord
100
AcDbLinetypeTableRecord
  2
ACDINTGB
 70
     0
  3
__ . . __ . .
 72
    65
 73
     6
 40
9.0
 49
4.0
 74
     0
 49
-1.0
 74
     0
 49
1.0
 74
     0
 49
-1.0
 74
     0
 49
1.0
 74
     0
 49
-1.0
 74
     0
  0
LTYPE
  5
447
330
5
100
AcDbSymbolTableRecord
100
AcDbLinetypeTableRecord
  2
ACDINTGL
 70
     0
  3
_ _ _ _ _
 72
    65
 73
     2
 40
3.0
 49
2.0
 74
     0
 49
-1.0
 74
     0
  0
ENDTAB
  0
TABLE
  2
LAYER
  5
2
330
0
100
AcDbSymbolTable
 70
    15
  0
LAYER
  5
10
330
2
100
AcDbSymbolTableRecord
100
AcDbLayerTableRecord
  2
0
 70
     0
 62
     7
  6
CONTINUOUS
370
    -3
390
F
  0
LAYER
  5
1FA
330
2
100
AcDbSymbolTableRecord
100
AcDbLayerTableRecord
  2
DEFAULT_1
 70
     0
 62
     7
  6
CENTER
370
    -3
390
F
  0
LAYER
  5
1FB
330
2
100
AcDbSymbolTableRecord
100
AcDbLayerTableRecord
  2
DEFAULT_2
 70
     0
 62
     8
  6
HIDDEN
370
    -3
390
F
  0
LAYER
  5
1FC
330
2
100
AcDbSymbolTableRecord
100
AcDbLayerTableRecord
  2
DEFAULT_3
 70
     0
 62
     7
  6
PHANTOM
370
    -3
390
F
  0
LAYER
  5
1FD
330
2
100
AcDbSymbolTableRecord
100
AcDbLayerTableRecord
  2
AUSFORMSCHRAEGEN
 70
     0
 62
     7
  6
CONTINUOUS
370
    -3
390
F
  0
LAYER
  5
1FE
330
2
100
AcDbSymbolTableRecord
100
AcDbLayerTableRecord
  2
BEZUGSACHSEN
 70
     0
 62
     7
  6
CONTINUOUS
370
    -3
390
F
  0
LAYER
  5
1FF
330
2
100
AcDbSymbolTableRecord
100
AcDbLayerTableRecord
  2
BEZUGSEBENEN
 70
     0
 62
     7
  6
CONTINUOUS
370
    -3
390
F
  0
LAYER
  5
200
330
2
100
AcDbSymbolTableRecord
100
AcDbLayerTableRecord
  2
BG_STARTBEZUEGE
 70
     0
 62
     7
  6
CONTINUOUS
370
    -3
390
F
  0
LAYER
  5
201
330
2
100
AcDbSymbolTableRecord
100
AcDbLayerTableRecord
  2
FASEN
 70
     0
 62
     7
  6
CONTINUOUS
370
    -3
390
F
  0
LAYER
  5
202
330
2
100
AcDbSymbolTableRecord
100
AcDbLayerTableRecord
  2
HILFEN
 70
     0
 62
     7
  6
CONTINUOUS
370
    -3
390
F
  0
LAYER
  5
203
330
2
100
AcDbSymbolTableRecord
100
AcDbLayerTableRecord
  2
PLATZIERUNG
 70
     0
 62
     7
  6
CONTINUOUS
370
    -3
390
F
  0
LAYER
  5
204
330
2
100
AcDbSymbolTableRecord
100
AcDbLayerTableRecord
  2
RUNDUNGEN
 70
     0
 62
     7
  6
CONTINUOUS
370
    -3
390
F
  0
LAYER
  5
205
330
2
100
AcDbSymbolTableRecord
100
AcDbLayerTableRecord
  2
TEIL_STARTBEZUEGE
 70
     0
 62
     7
  6
CONTINUOUS
370
    -3
390
F
  0
LAYER
  5
206
330
2
100
AcDbSymbolTableRecord
100
AcDbLayerTableRecord
  2
ZEICHNUNGSBEMASSUNGEN
 70
     0
 62
     7
  6
CONTINUOUS
370
    -3
390
F
  0
LAYER
  5
455
330
2
100
AcDbSymbolTableRecord
100
AcDbLayerTableRecord
  2
Defpoints
 70
     0
 62
     7
  6
CONTINUOUS
290
     0
370
    -3
390
F
  0
ENDTAB
  0
TABLE
  2
STYLE
  5
3
330
0
100
AcDbSymbolTable
 70
     6
  0
STYLE
  5
11
330
3
100
AcDbSymbolTableRecord
100
AcDbTextStyleTableRecord
  2
STANDARD
 70
     0
 40
0.0
 41
0.7
 50
0.0
 71
     0
 42
0.2
  3
txt
  4

  0
STYLE
  5
207
330
3
100
AcDbSymbolTableRecord
100
AcDbTextStyleTableRecord
  2
TEXTSTYLE_1
 70
     0
 40
0.0
 41
0.8
 50
0.0
 71
     0
 42
0.2
  3
gdt
  4

  0
STYLE
  5
208
330
3
100
AcDbSymbolTableRecord
100
AcDbTextStyleTableRecord
  2
TEXTSTYLE_2
 70
     0
 40
0.0
 41
0.7
 50
0.0
 71
     0
 42
0.2
  3
gdt
  4

  0
STYLE
  5
430
330
3
100
AcDbSymbolTableRecord
100
AcDbTextStyleTableRecord
  2

 70
     1
 40
0.0
 41
1.0
 50
0.0
 71
     0
 42
0.2
  3
genltshp.shx
  4

  0
STYLE
  5
443
330
3
100
AcDbSymbolTableRecord
100
AcDbTextStyleTableRecord
  2
ACDINTS
 70
     0
 40
1.0
 41
1.0
 50
0.0
 71
     0
 42
0.2
  3
isocp.shx
  4

  0
STYLE
  5
444
330
3
100
AcDbSymbolTableRecord
100
AcDbTextStyleTableRecord
  2
ACDINGDT
 70
     0
 40
0.0
 41
1.0
 50
0.0
 71
     0
 42
0.2
  3
amgdt.shx
  4

  0
ENDTAB
  0
TABLE
  2
VIEW
  5
6
330
0
100
AcDbSymbolTable
 70
     0
  0
ENDTAB
  0
TABLE
  2
UCS
  5
7
330
0
100
AcDbSymbolTable
 70
     0
  0
ENDTAB
  0
TABLE
  2
APPID
  5
9
330
0
100
AcDbSymbolTable
 70
    21
  0
APPID
  5
209
330
9
100
AcDbSymbolTableRecord
100
AcDbRegAppTableRecord
  2
ACAD
 70
     0
  0
APPID
  5
3B8
330
9
100
AcDbSymbolTableRecord
100
AcDbRegAppTableRecord
  2
MCAD_NO_VIS
 70
     0
  0
APPID
  5
3B9
330
9
100
AcDbSymbolTableRecord
100
AcDbRegAppTableRecord
  2
ACAD_TEMP_GRAPHIC
 70
     0
  0
APPID
  5
3E5
330
9
100
AcDbSymbolTableRecord
100
AcDbRegAppTableRecord
  2
AD_DRAW
 70
     0
  0
APPID
  5
3E8
330
9
100
AcDbSymbolTableRecord
100
AcDbRegAppTableRecord
  2
ACATTRIBSERVICES
 70
     0
  0
APPID
  5
408
330
9
100
AcDbSymbolTableRecord
100
AcDbRegAppTableRecord
  2
DESIGNERASSEMBLIES
 70
     0
  0
APPID
  5
40E
330
9
100
AcDbSymbolTableRecord
100
AcDbRegAppTableRecord
  2
ACADM_DIM_EDIT
 70
     0
  0
APPID
  5
40F
330
9
100
AcDbSymbolTableRecord
100
AcDbRegAppTableRecord
  2
AMDT_DM_ADJ
 70
     0
  0
APPID
  5
426
330
9
100
AcDbSymbolTableRecord
100
AcDbRegAppTableRecord
  2
ACAD_DSTYLE_DIMJAG
 70
     0
  0
APPID
  5
427
330
9
100
AcDbSymbolTableRecord
100
AcDbRegAppTableRecord
  2
ACAD_DSTYLE_DIMBREAK
 70
     0
  0
APPID
  5
456
330
9
100
AcDbSymbolTableRecord
100
AcDbRegAppTableRecord
  2
AcAecLayerStandard
 70
     0
  0
APPID
  5
457
330
9
100
AcDbSymbolTableRecord
100
AcDbRegAppTableRecord
  2
GENIUS_GENODEF_13
 70
     0
  0
APPID
  5
458
330
9
100
AcDbSymbolTableRecord
100
AcDbRegAppTableRecord
  2
GENIUS_GENOBJ-N-HTC_13
 70
     0
  0
APPID
  5
459
330
9
100
AcDbSymbolTableRecord
100
AcDbRegAppTableRecord
  2
GENIUS_GENHATCH_13
 70
     0
  0
APPID
  5
45A
330
9
100
AcDbSymbolTableRecord
100
AcDbRegAppTableRecord
  2
ACAD_EXEMPT_FROM_CAD_STANDARDS
 70
     0
  0
APPID
  5
45B
330
9
100
AcDbSymbolTableRecord
100
AcDbRegAppTableRecord
  2
ACAD_MLEADERVER
 70
     0
  0
APPID
  5
45C
330
9
100
AcDbSymbolTableRecord
100
AcDbRegAppTableRecord
  2
ACAD_DSTYLE_DIMJOGGED_JOGANGLE_SYMBOL
 70
     0
  0
APPID
  5
45D
330
9
100
AcDbSymbolTableRecord
100
AcDbRegAppTableRecord
  2
ACAD_DSTYLE_DIM_LINETYPE
 70
     0
  0
APPID
  5
45E
330
9
100
AcDbSymbolTableRecord
100
AcDbRegAppTableRecord
  2
ACAD_DSTYLE_DIM_EXT1_LINETYPE
 70
     0
  0
APPID
  5
45F
330
9
100
AcDbSymbolTableRecord
100
AcDbRegAppTableRecord
  2
ACAD_DSTYLE_DIM_EXT2_LINETYPE
 70
     0
  0
APPID
  5
460
330
9
100
AcDbSymbolTableRecord
100
AcDbRegAppTableRecord
  2
ACAD_DSTYLE_DIMINSPECT
 70
     0
  0
ENDTAB
  0
TABLE
  2
DIMSTYLE
  5
A
330
0
100
AcDbSymbolTable
 70
    11
100
AcDbDimStyleTable
 71
     2
340
211
340
213
  0
DIMSTYLE
105
211
330
A
100
AcDbSymbolTableRecord
100
AcDbDimStyleTableRecord
  2
STANDARD
 70
     0
 41
3.5
 47
0.005
 48
0.005
 71
     1
 73
     0
 74
     0
 77
     1
 78
     8
140
3.5
178
     5
271
     3
272
     3
284
     8
340
11
341
20C
342
20C
343
20C
344
20C
  0
DIMSTYLE
105
212
330
A
100
AcDbSymbolTableRecord
100
AcDbDimStyleTableRecord
  2
DIMSTYLE_1
 70
     0
 41
3.5
 47
0.5
 48
0.5
 73
     0
 74
     0
 77
     1
 78
     8
140
3.5
178
     5
271
     3
272
     3
284
     8
340
11
341
20C
342
20C
343
20C
344
20C
  0
DIMSTYLE
105
213
102
{ACAD_REACTORS
330
23E
330
23F
330
240
330
241
102
}
330
A
100
AcDbSymbolTableRecord
100
AcDbDimStyleTableRecord
  2
DIMSTYLE_2
 70
     0
 41
3.5
 47
0.3
 48
0.3
 73
     0
 74
     0
 77
     1
 78
     8
140
3.5
178
     5
271
     3
272
     3
284
     8
340
11
341
20C
342
20C
343
20C
344
20C
  0
DIMSTYLE
105
425
102
{ACAD_REACTORS
330
414
102
}
330
A
100
AcDbSymbolTableRecord
100
AcDbDimStyleTableRecord
  2
AM_DIN
 70
     0
  4
"
 41
3.5
 42
1.0
 43
10.0
 44
1.0
 47
0.1
 48
0.1
 73
     0
 74
     0
 77
     1
 78
     8
 79
     2
140
3.5
141
0.0
143
0.0393701
146
0.71
147
1.5
172
     1
176
   256
177
   256
178
     2
271
     2
272
     3
274
     4
283
     0
284
     8
340
11
371
    -1
372
    -1
1001
ACAD_DSTYLE_DIMJAG
1070
   388
1040
1.5
1001
ACAD_DSTYLE_DIMBREAK
1070
   391
1040
3.75
1001
ACAD_DSTYLE_DIMJOGGED_JOGANGLE_SYMBOL
1070
   384
1040
1.570796326794896
1001
ACAD_DSTYLE_DIM_LINETYPE
1070
   380
1005
14
1001
ACAD_DSTYLE_DIM_EXT1_LINETYPE
1070
   381
1005
14
1001
ACAD_DSTYLE_DIM_EXT2_LINETYPE
1070
   382
1005
14
  0
DIMSTYLE
105
437
330
A
100
AcDbSymbolTableRecord
100
AcDbDimStyleTableRecord
  2
AM_DIN$3
 70
     0
  4
"
 41
3.5
 42
1.0
 43
10.0
 44
1.0
 47
0.1
 48
0.1
 73
     0
 77
     1
 78
     8
 79
     2
140
3.5
141
0.0
143
0.0393701
146
0.71
147
1.5
176
   256
177
   256
178
     2
271
     2
272
     3
274
     4
283
     0
284
     8
288
     1
289
     0
340
11
371
    -1
372
    -1
1001
ACAD_DSTYLE_DIMBREAK
1070
   391
1040
3.75
1001
ACAD_DSTYLE_DIMJAG
1070
   388
1040
1.5
1001
ACAD_DSTYLE_DIMJOGGED_JOGANGLE_SYMBOL
1070
   384
1040
1.570796326794896
1001
ACAD_DSTYLE_DIM_LINETYPE
1070
   380
1005
14
1001
ACAD_DSTYLE_DIM_EXT1_LINETYPE
1070
   381
1005
14
1001
ACAD_DSTYLE_DIM_EXT2_LINETYPE
1070
   382
1005
14
  0
DIMSTYLE
105
438
330
A
100
AcDbSymbolTableRecord
100
AcDbDimStyleTableRecord
  2
AM_DIN$4
 70
     0
  4
"
 41
3.5
 42
1.0
 43
10.0
 44
1.0
 47
0.1
 48
0.1
 73
     0
 77
     1
 78
     8
 79
     2
140
3.5
141
0.0
143
0.0393701
146
0.71
147
1.5
176
   256
177
   256
178
     2
271
     2
272
     3
274
     4
283
     0
284
     8
288
     1
289
     0
340
11
371
    -1
372
    -1
1001
ACAD_DSTYLE_DIMBREAK
1070
   391
1040
3.75
1001
ACAD_DSTYLE_DIMJAG
1070
   388
1040
1.5
1001
ACAD_DSTYLE_DIMJOGGED_JOGANGLE_SYMBOL
1070
   384
1040
1.570796326794896
1001
ACAD_DSTYLE_DIM_LINETYPE
1070
   380
1005
14
1001
ACAD_DSTYLE_DIM_EXT1_LINETYPE
1070
   381
1005
14
1001
ACAD_DSTYLE_DIM_EXT2_LINETYPE
1070
   382
1005
14
  0
DIMSTYLE
105
439
330
A
100
AcDbSymbolTableRecord
100
AcDbDimStyleTableRecord
  2
AM_DIN$6
 70
     0
  4
"
 41
3.5
 42
1.0
 43
10.0
 44
1.0
 47
0.1
 48
0.1
 73
     0
 74
     0
 78
     8
 79
     2
140
3.5
141
0.0
143
0.0393701
146
0.71
147
1.5
172
     1
176
   256
177
   256
178
     2
271
     2
272
     3
274
     4
283
     0
284
     8
340
11
371
    -1
372
    -1
1001
ACAD_DSTYLE_DIMBREAK
1070
   391
1040
3.75
1001
ACAD_DSTYLE_DIMJAG
1070
   388
1040
1.5
1001
ACAD_DSTYLE_DIMJOGGED_JOGANGLE_SYMBOL
1070
   384
1040
1.570796326794896
1001
ACAD_DSTYLE_DIM_LINETYPE
1070
   380
1005
14
1001
ACAD_DSTYLE_DIM_EXT1_LINETYPE
1070
   381
1005
14
1001
ACAD_DSTYLE_DIM_EXT2_LINETYPE
1070
   382
1005
14
  0
DIMSTYLE
105
43A
330
A
100
AcDbSymbolTableRecord
100
AcDbDimStyleTableRecord
  2
AM_DIN$7
 70
     0
  4
"
 41
3.5
 42
1.0
 43
10.0
 44
1.0
 47
0.1
 48
0.1
 73
     0
 74
     0
 77
     1
 78
     8
 79
     2
140
3.5
141
0.0
143
0.0393701
146
0.71
147
1.5
172
     1
176
   256
177
   256
178
     2
271
     2
272
     3
274
     4
283
     0
284
     8
340
11
371
    -1
372
    -1
1001
ACAD_DSTYLE_DIMBREAK
1070
   391
1040
3.75
1001
ACAD_DSTYLE_DIMJAG
1070
   388
1040
1.5
1001
ACAD_DSTYLE_DIMJOGGED_JOGANGLE_SYMBOL
1070
   384
1040
1.570796326794896
1001
ACAD_DSTYLE_DIM_LINETYPE
1070
   380
1005
14
1001
ACAD_DSTYLE_DIM_EXT1_LINETYPE
1070
   381
1005
14
1001
ACAD_DSTYLE_DIM_EXT2_LINETYPE
1070
   382
1005
14
  0
DIMSTYLE
105
43B
330
A
100
AcDbSymbolTableRecord
100
AcDbDimStyleTableRecord
  2
AM_DIN$SF
 70
     0
  4
"
 41
3.5
 42
1.0
 43
10.0
 44
1.0
 47
0.1
 48
0.1
 73
     0
 74
     0
 75
     1
 76
     1
 77
     1
 78
     8
 79
     2
140
3.5
141
0.0
143
0.0393701
146
0.71
147
1.5
172
     1
176
   256
177
   256
178
     2
271
     2
272
     3
274
     4
283
     0
284
     8
340
11
371
    -1
372
    -1
1001
ACAD_DSTYLE_DIMBREAK
1070
   391
1040
3.75
1001
ACAD_DSTYLE_DIMJAG
1070
   388
1040
1.5
1001
ACAD_DSTYLE_DIMJOGGED_JOGANGLE_SYMBOL
1070
   384
1040
1.570796326794896
1001
ACAD_DSTYLE_DIM_LINETYPE
1070
   380
1005
14
1001
ACAD_DSTYLE_DIM_EXT1_LINETYPE
1070
   381
1005
14
1001
ACAD_DSTYLE_DIM_EXT2_LINETYPE
1070
   382
1005
14
  0
DIMSTYLE
105
440
330
A
100
AcDbSymbolTableRecord
100
AcDbDimStyleTableRecord
  2
AM_DIN$SH
 70
     0
  4
"
 41
3.5
 42
1.0
 43
10.0
 44
1.0
 47
0.1
 48
0.1
 73
     0
 74
     0
 75
     1
 76
     1
 77
     1
 78
     8
 79
     2
140
3.5
141
0.0
143
0.0393701
144
2.0
146
0.71
147
1.5
172
     1
173
     1
176
   256
177
   256
178
     2
271
     2
272
     3
274
     4
283
     0
284
     8
340
11
343
43C
371
    -1
372
    -1
1001
ACAD_DSTYLE_DIMBREAK
1070
   391
1040
3.75
1001
ACAD_DSTYLE_DIMJAG
1070
   388
1040
1.5
1001
ACAD_DSTYLE_DIMJOGGED_JOGANGLE_SYMBOL
1070
   384
1040
1.570796326794896
1001
ACAD_DSTYLE_DIM_LINETYPE
1070
   380
1005
14
1001
ACAD_DSTYLE_DIM_EXT1_LINETYPE
1070
   381
1005
14
1001
ACAD_DSTYLE_DIM_EXT2_LINETYPE
1070
   382
1005
14
  0
ENDTAB
  0
TABLE
  2
BLOCK_RECORD
  5
1
330
0
100
AcDbSymbolTable
 70
    12
  0
BLOCK_RECORD
  5
20A
330
1
100
AcDbSymbolTableRecord
100
AcDbBlockTableRecord
  2
*Model_Space
340
368
  0
BLOCK_RECORD
  5
20B
330
1
100
AcDbSymbolTableRecord
100
AcDbBlockTableRecord
  2
*Paper_Space
340
369
  0
BLOCK_RECORD
  5
20C
330
1
100
AcDbSymbolTableRecord
100
AcDbBlockTableRecord
  2
_FILLED
340
0
102
{BLKREFS
331
467
331
468
331
47D
331
47E
331
487
331
488
331
493
331
494
331
4A9
331
4AA
331
4D7
331
4D8
331
4E0
331
4E1
331
4E9
331
4EA
102
}
  0
BLOCK_RECORD
  5
20D
330
1
100
AcDbSymbolTableRecord
100
AcDbBlockTableRecord
  2
*D1
340
0
  0
BLOCK_RECORD
  5
20E
330
1
100
AcDbSymbolTableRecord
100
AcDbBlockTableRecord
  2
*D2
340
0
  0
BLOCK_RECORD
  5
20F
330
1
100
AcDbSymbolTableRecord
100
AcDbBlockTableRecord
  2
*D3
340
0
  0
BLOCK_RECORD
  5
210
330
1
100
AcDbSymbolTableRecord
100
AcDbBlockTableRecord
  2
*D4
340
0
  0
BLOCK_RECORD
  5
43C
330
1
100
AcDbSymbolTableRecord
100
AcDbBlockTableRecord
  2
GENAXEH
340
0
  0
ENDTAB
  0
ENDSEC
  0
SECTION
  2
BLOCKS
  0
BLOCK
  5
20
330
20A
100
AcDbEntity
  8
0
100
AcDbBlockBegin
  2
*Model_Space
 70
     0
 10
0.0
 20
0.0
 30
0.0
  3
*Model_Space
  1

  0
ENDBLK
  5
21
330
20A
100
AcDbEntity
  8
0
100
AcDbBlockEnd
  0
BLOCK
  5
1C
330
20B
100
AcDbEntity
 67
     1
  8
0
100
AcDbBlockBegin
  2
*Paper_Space
 70
     0
 10
0.0
 20
0.0
 30
0.0
  3
*Paper_Space
  1

  0
ENDBLK
  5
1D
330
20B
100
AcDbEntity
 67
     1
  8
0
100
AcDbBlockEnd
  0
BLOCK
  5
214
330
20C
100
AcDbEntity
  8
0
100
AcDbBlockBegin
  2
_FILLED
 70
     0
 10
0.0
 20
0.0
 30
0.0
  3
_FILLED
  1

  0
SOLID
  5
215
330
20C
100
AcDbEntity
  8
0
  6
ByBlock
 62
     0
100
AcDbTrace
 10
0.0
 20
0.0
 30
0.0
 11
-1.0
 21
0.125
 31
0.0
 12
-1.0
 22
-0.125
 32
0.0
 13
-1.0
 23
-0.125
 33
0.0
  0
ENDBLK
  5
216
330
20C
100
AcDbEntity
  8
0
  6
ByBlock
 62
     0
100
AcDbBlockEnd
  0
BLOCK
  5
217
330
20D
100
AcDbEntity
  8
ZEICHNUNGSBEMASSUNGEN
  6
Continuous
 62
     2
100
AcDbBlockBegin
  2
*D1
 70
     1
 10
0.0
 20
0.0
 30
0.0
  3
*D1
  1

  0
LINE
  5
4E6
330
20D
100
AcDbEntity
  8
ZEICHNUNGSBEMASSUNGEN
  6
Continuous
 62
     0
370
    -2
100
AcDbLine
 10
47.87605932199999
 20
102.3644067797
 30
0.0
 11
47.87605932199999
 21
82.73504465174658
 31
0.0
  0
LINE
  5
4E7
330
20D
100
AcDbEntity
  8
ZEICHNUNGSBEMASSUNGEN
  6
Continuous
 62
     0
370
    -2
100
AcDbLine
 10
172.876059322
 20
102.3644067797
 30
0.0
 11
172.876059322
 21
82.73504465174658
 31
0.0
  0
LINE
  5
4E8
330
20D
100
AcDbEntity
  8
ZEICHNUNGSBEMASSUNGEN
  6
Continuous
 62
     0
370
    -2
100
AcDbLine
 10
52.87605932199999
 20
82.91504465174659
 30
0.0
 11
167.876059322
 21
82.91504465174659
 31
0.0
  0
INSERT
  5
4E9
330
20D
100
AcDbEntity
  8
ZEICHNUNGSBEMASSUNGEN
  6
Continuous
 62
     0
370
    -2
100
AcDbBlockReference
  2
_FILLED
 10
47.87605932199999
 20
82.91504465174659
 30
0.0
 41
5.0
 42
5.0
 43
5.0
 50
180.0
  0
INSERT
  5
4EA
330
20D
100
AcDbEntity
  8
ZEICHNUNGSBEMASSUNGEN
  6
Continuous
 62
     0
370
    -2
100
AcDbBlockReference
  2
_FILLED
 10
172.876059322
 20
82.91504465174659
 30
0.0
 41
5.0
 42
5.0
 43
5.0
  0
MTEXT
  5
4EB
330
20D
100
AcDbEntity
  8
ZEICHNUNGSBEMASSUNGEN
  6
Continuous
100
AcDbMText
 10
107.3968926554
 20
91.4150446517466
 30
0.0
 40
7.0
 41
0.0
 71
     2
 72
     1
  1
\A1;%%c125
 73
     1
 44
1.0
1001
ACAD
1000
MTEXTBEGIN
1070
    73
1070
     1
1070
    44
1040
1.0
1070
    74
1070
     0
1000
MTEXTEND
  0
POINT
  5
4EC
330
20D
100
AcDbEntity
  8
Defpoints
  6
Continuous
 62
     0
100
AcDbPoint
 10
47.87605932199999
 20
102.4269067797
 30
0.0
  0
POINT
  5
4ED
330
20D
100
AcDbEntity
  8
Defpoints
  6
Continuous
 62
     0
100
AcDbPoint
 10
172.876059322
 20
102.4269067797
 30
0.0
  0
POINT
  5
4EE
330
20D
100
AcDbEntity
  8
Defpoints
  6
Continuous
 62
     0
100
AcDbPoint
 10
172.876059322
 20
82.91504465174659
 30
0.0
  0
ENDBLK
  5
21F
330
20D
100
AcDbEntity
  8
0
  6
ByBlock
 62
     0
100
AcDbBlockEnd
  0
BLOCK
  5
220
330
20E
100
AcDbEntity
  8
ZEICHNUNGSBEMASSUNGEN
  6
Continuous
 62
     2
100
AcDbBlockBegin
  2
*D2
 70
     1
 10
0.0
 20
0.0
 30
0.0
  3
*D2
  1

  0
LINE
  5
484
330
20E
100
AcDbEntity
  8
ZEICHNUNGSBEMASSUNGEN
  6
Continuous
 62
     0
370
    -2
100
AcDbLine
 10
37.313559322
 20
248.9269067797
 30
0.0
 11
25.69532618050005
 21
248.9269067797
 31
0.0
  0
LINE
  5
485
330
20E
100
AcDbEntity
  8
ZEICHNUNGSBEMASSUNGEN
  6
Continuous
 62
     0
370
    -2
100
AcDbLine
 10
47.65333554689999
 20
98.9269147707
 30
0.0
 11
25.69532618050001
 21
98.92691477070002
 31
0.0
  0
LINE
  5
486
330
20E
100
AcDbEntity
  8
ZEICHNUNGSBEMASSUNGEN
  6
Continuous
 62
     0
370
    -2
100
AcDbLine
 10
25.87532618050005
 20
243.9269067797
 30
0.0
 11
25.87532618050002
 21
103.9269147707
 31
0.0
  0
INSERT
  5
487
330
20E
100
AcDbEntity
  8
ZEICHNUNGSBEMASSUNGEN
  6
Continuous
 62
     0
370
    -2
100
AcDbBlockReference
  2
_FILLED
 10
25.87532618050005
 20
248.9269067797
 30
0.0
 41
5.0
 42
5.0
 43
5.0
 50
90.0
  0
INSERT
  5
488
330
20E
100
AcDbEntity
  8
ZEICHNUNGSBEMASSUNGEN
  6
Continuous
 62
     0
370
    -2
100
AcDbBlockReference
  2
_FILLED
 10
25.87532618050002
 20
98.92691477070002
 30
0.0
 41
5.0
 42
5.0
 43
5.0
 50
270.0
  0
MTEXT
  5
489
330
20E
100
AcDbEntity
  8
ZEICHNUNGSBEMASSUNGEN
  6
Continuous
100
AcDbMText
 10
17.3753261805
 20
170.6861728696
 30
0.0
 40
7.0
 41
0.0
 71
     2
 72
     1
  1
\A1;150
 11
0.0000000000000001
 21
1.0
 31
0.0
 73
     1
 44
1.0
1001
ACAD
1000
MTEXTBEGIN
1070
    73
1070
     1
1070
    44
1040
1.0
1070
    74
1070
     0
1000
MTEXTEND
  0
POINT
  5
48A
330
20E
100
AcDbEntity
  8
Defpoints
  6
Continuous
 62
     0
100
AcDbPoint
 10
37.376059322
 20
248.9269067797
 30
0.0
  0
POINT
  5
48B
330
20E
100
AcDbEntity
  8
Defpoints
  6
Continuous
 62
     0
100
AcDbPoint
 10
47.71583554689999
 20
98.9269147707
 30
0.0
  0
POINT
  5
48C
330
20E
100
AcDbEntity
  8
Defpoints
  6
Continuous
 62
     0
100
AcDbPoint
 10
25.87532618050002
 20
98.92691477070002
 30
0.0
  0
ENDBLK
  5
228
330
20E
100
AcDbEntity
  8
0
  6
ByBlock
 62
     0
100
AcDbBlockEnd
  0
BLOCK
  5
229
330
20F
100
AcDbEntity
  8
ZEICHNUNGSBEMASSUNGEN
  6
Continuous
 62
     2
100
AcDbBlockBegin
  2
*D3
 70
     1
 10
0.0
 20
0.0
 30
0.0
  3
*D3
  1

  0
LINE
  5
4D4
330
20F
100
AcDbEntity
  8
ZEICHNUNGSBEMASSUNGEN
  6
Continuous
 62
     0
370
    -2
100
AcDbLine
 10
243.376059322
 20
250.9265724269635
 30
0.0
 11
243.376059322
 21
261.7319067797
 31
0.0
  0
LINE
  5
4D5
330
20F
100
AcDbEntity
  8
ZEICHNUNGSBEMASSUNGEN
  6
Continuous
 62
     0
370
    -2
100
AcDbLine
 10
110.376059322
 20
253.4894067797
 30
0.0
 11
110.376059322
 21
261.7319067797
 31
0.0
  0
LINE
  5
4D6
330
20F
100
AcDbEntity
  8
ZEICHNUNGSBEMASSUNGEN
  6
Continuous
 62
     0
370
    -2
100
AcDbLine
 10
238.376059322
 20
261.5519067797
 30
0.0
 11
115.376059322
 21
261.5519067797
 31
0.0
  0
INSERT
  5
4D7
330
20F
100
AcDbEntity
  8
ZEICHNUNGSBEMASSUNGEN
  6
Continuous
 62
     0
370
    -2
100
AcDbBlockReference
  2
_FILLED
 10
243.376059322
 20
261.5519067797
 30
0.0
 41
5.0
 42
5.0
 43
5.0
  0
INSERT
  5
4D8
330
20F
100
AcDbEntity
  8
ZEICHNUNGSBEMASSUNGEN
  6
Continuous
 62
     0
370
    -2
100
AcDbBlockReference
  2
_FILLED
 10
110.376059322
 20
261.5519067797
 30
0.0
 41
5.0
 42
5.0
 43
5.0
 50
180.0
  0
MTEXT
  5
4D9
330
20F
100
AcDbEntity
  8
ZEICHNUNGSBEMASSUNGEN
  6
Continuous
100
AcDbMText
 10
173.376059322
 20
270.0519067797
 30
0.0
 40
7.0
 41
0.0
 71
     2
 72
     1
  1
\A1;133
 73
     1
 44
1.0
1001
ACAD
1000
MTEXTBEGIN
1070
    73
1070
     1
1070
    44
1040
1.0
1070
    74
1070
     0
1000
MTEXTEND
  0
POINT
  5
4DA
330
20F
100
AcDbEntity
  8
Defpoints
  6
Continuous
 62
     0
100
AcDbPoint
 10
243.376059322
 20
250.8640724269635
 30
0.0
  0
POINT
  5
4DB
330
20F
100
AcDbEntity
  8
Defpoints
  6
Continuous
 62
     0
100
AcDbPoint
 10
110.376059322
 20
253.4269067797
 30
0.0
  0
POINT
  5
4DC
330
20F
100
AcDbEntity
  8
Defpoints
  6
Continuous
 62
     0
100
AcDbPoint
 10
110.376059322
 20
261.5519067797
 30
0.0
  0
ENDBLK
  5
232
330
20F
100
AcDbEntity
  8
0
  6
ByBlock
 62
     0
100
AcDbBlockEnd
  0
BLOCK
  5
233
330
210
100
AcDbEntity
  8
ZEICHNUNGSBEMASSUNGEN
  6
Continuous
 62
     2
100
AcDbBlockBegin
  2
*D4
 70
     1
 10
0.0
 20
0.0
 30
0.0
  3
*D4
  1

  0
LINE
  5
4DD
330
210
100
AcDbEntity
  8
ZEICHNUNGSBEMASSUNGEN
  6
Continuous
 62
     0
370
    -2
100
AcDbLine
 10
243.6375765263131
 20
248.9269067797
 30
0.0
 11
258.5958826640379
 21
248.9269067797
 31
0.0
  0
LINE
  5
4DE
330
210
100
AcDbEntity
  8
ZEICHNUNGSBEMASSUNGEN
  6
Continuous
 62
     0
370
    -2
100
AcDbLine
 10
247.938559322
 20
188.9269067797
 30
0.0
 11
258.5958826640379
 21
188.9269067797
 31
0.0
  0
LINE
  5
4DF
330
210
100
AcDbEntity
  8
ZEICHNUNGSBEMASSUNGEN
  6
Continuous
 62
     0
370
    -2
100
AcDbLine
 10
258.4158826640378
 20
243.9269067797
 30
0.0
 11
258.4158826640378
 21
193.9269067797
 31
0.0
  0
INSERT
  5
4E0
330
210
100
AcDbEntity
  8
ZEICHNUNGSBEMASSUNGEN
  6
Continuous
 62
     0
370
    -2
100
AcDbBlockReference
  2
_FILLED
 10
258.4158826640378
 20
248.9269067797
 30
0.0
 41
5.0
 42
5.0
 43
5.0
 50
90.0
  0
INSERT
  5
4E1
330
210
100
AcDbEntity
  8
ZEICHNUNGSBEMASSUNGEN
  6
Continuous
 62
     0
370
    -2
100
AcDbBlockReference
  2
_FILLED
 10
258.4158826640378
 20
188.9269067797
 30
0.0
 41
5.0
 42
5.0
 43
5.0
 50
270.0
  0
MTEXT
  5
4E2
330
210
100
AcDbEntity
  8
ZEICHNUNGSBEMASSUNGEN
  6
Continuous
100
AcDbMText
 10
249.9158826640378
 20
218.3086269333629
 30
0.0
 40
7.0
 41
0.0
 71
     2
 72
     1
  1
\A1;60
 11
0.0000000000000001
 21
1.0
 31
0.0
 73
     1
 44
1.0
1001
ACAD
1000
MTEXTBEGIN
1070
    73
1070
     1
1070
    44
1040
1.0
1070
    74
1070
     0
1000
MTEXTEND
  0
POINT
  5
4E3
330
210
100
AcDbEntity
  8
Defpoints
  6
Continuous
 62
     0
100
AcDbPoint
 10
243.5750765263131
 20
248.9269067797
 30
0.0
  0
POINT
  5
4E4
330
210
100
AcDbEntity
  8
Defpoints
  6
Continuous
 62
     0
100
AcDbPoint
 10
247.876059322
 20
188.9269067797
 30
0.0
  0
POINT
  5
4E5
330
210
100
AcDbEntity
  8
Defpoints
  6
Continuous
 62
     0
100
AcDbPoint
 10
258.4158826640378
 20
188.9269067797
 30
0.0
  0
ENDBLK
  5
23B
330
210
100
AcDbEntity
  8
0
  6
ByBlock
 62
     0
100
AcDbBlockEnd
  0
BLOCK
  5
43E
330
43C
100
AcDbEntity
  8
0
100
AcDbBlockBegin
  2
GENAXEH
 70
     0
 10
0.0
 20
0.0
 30
0.0
  3
GENAXEH
  1

  0
LINE
  5
43D
330
43C
100
AcDbEntity
  8
0
100
AcDbLine
 10
-1.0
 20
0.0
 30
0.0
 11
1.0
 21
0.0
 31
0.0
  0
ENDBLK
  5
43F
330
43C
100
AcDbEntity
  8
0
100
AcDbBlockEnd
  0
ENDSEC
  0
SECTION
  2
ENTITIES
  0
HATCH
  5
23C
330
20A
100
AcDbEntity
  8
0
  6
Continuous
 62
     1
100
AcDbHatch
 10
0.0
 20
0.0
 30
0.0
210
0.0
220
0.0
230
1.0
  2
A
 70
     0
 71
     0
 91
        2
 92
        1
 93
       22
 72
     1
 10
47.6801692255
 20
121.2828327779
 11
42.4661239957
 21
120.1269067797
 72
     1
 10
42.4661239957
 20
120.1269067797
 11
42.25453161889999
 21
118.9269067797
 72
     1
 10
42.25453161889999
 20
118.9269067797
 11
41.37609659259999
 21
118.9269067797
 72
     1
 10
41.37609659259999
 20
118.9269067797
 11
39.876059322
 21
120.4269448605
 72
     1
 10
39.876059322
 20
120.8569067797
 11
39.876059322
 21
120.4269448605
 72
     4
 94
        3
 73
     1
 74
     0
 95
       11
 96
        7
 40
0.0
 40
0.0
 40
0.0
 40
0.0
 40
1.0
 40
1.0
 40
1.0
 40
2.0
 40
2.0
 40
2.0
 40
2.0
 10
39.876059322
 20
121.8569067797
 42
1.0
 10
39.5831661032
 20
121.8569067797
 42
0.8047378541
 10
39.376059322
 20
121.6497999985
 42
0.8047378541
 10
39.376059322
 20
121.3569067797
 42
1.0
 10
39.376059322
 20
121.0640135608
 42
0.8047378541
 10
39.5831661032
 20
120.8569067797
 42
0.8047378541
 10
39.876059322
 20
120.8569067797
 42
1.0
 72
     1
 10
39.876059322
 20
122.6569067797
 11
39.876059322
 21
121.8569067797
 72
     4
 94
        3
 73
     1
 74
     0
 95
       11
 96
        7
 40
0.0
 40
0.0
 40
0.0
 40
0.0
 40
1.0
 40
1.0
 40
1.0
 40
2.0
 40
2.0
 40
2.0
 40
2.0
 10
39.876059322
 20
123.6569067797
 42
1.0
 10
39.5831661032
 20
123.6569067797
 42
0.8047378541
 10
39.376059322
 20
123.4497999985
 42
0.8047378541
 10
39.376059322
 20
123.1569067797
 42
1.0
 10
39.376059322
 20
122.8640135608
 42
0.8047378541
 10
39.5831661032
 20
122.6569067797
 42
0.8047378541
 10
39.876059322
 20
122.6569067797
 42
1.0
 72
     1
 10
39.876059322
 20
124.4569067797
 11
39.876059322
 21
123.6569067797
 72
     4
 94
        3
 73
     1
 74
     0
 95
       11
 96
        7
 40
0.0
 40
0.0
 40
0.0
 40
0.0
 40
1.0
 40
1.0
 40
1.0
 40
2.0
 40
2.0
 40
2.0
 40
2.0
 10
39.876059322
 20
125.4569067797
 42
1.0
 10
39.5831661032
 20
125.4569067797
 42
0.8047378541
 10
39.376059322
 20
125.2497999985
 42
0.8047378541
 10
39.376059322
 20
124.9569067797
 42
1.0
 10
39.376059322
 20
124.6640135608
 42
0.8047378541
 10
39.5831661032
 20
124.4569067797
 42
0.8047378541
 10
39.876059322
 20
124.4569067797
 42
1.0
 72
     1
 10
39.876059322
 20
126.2569067797
 11
39.876059322
 21
125.4569067797
 72
     4
 94
        3
 73
     1
 74
     0
 95
       11
 96
        7
 40
0.0
 40
0.0
 40
0.0
 40
0.0
 40
1.0
 40
1.0
 40
1.0
 40
2.0
 40
2.0
 40
2.0
 40
2.0
 10
39.876059322
 20
127.2569067797
 42
1.0
 10
39.5831661032
 20
127.2569067797
 42
0.8047378541
 10
39.376059322
 20
127.0497999985
 42
0.8047378541
 10
39.376059322
 20
126.7569067797
 42
1.0
 10
39.376059322
 20
126.4640135608
 42
0.8047378541
 10
39.5831661032
 20
126.2569067797
 42
0.8047378541
 10
39.876059322
 20
126.2569067797
 42
1.0
 72
     1
 10
39.876059322
 20
127.6268691458
 11
39.876059322
 21
127.2569067797
 72
     1
 10
41.3760961552
 20
129.1269067797
 11
39.876059322
 21
127.6268691458
 72
     1
 10
42.25453161889999
 20
129.1269067797
 11
41.3760961552
 21
129.1269067797
 72
     1
 10
42.25453161889999
 20
129.1269067797
 11
42.4661239957
 21
127.9269067797
 72
     1
 10
42.4661239957
 20
127.9269067797
 11
47.6801692255
 21
126.7709807814
 72
     4
 94
        3
 73
     1
 74
     0
 95
        8
 96
        4
 40
0.0
 40
0.0
 40
0.0
 40
0.0
 40
1.0
 40
1.0
 40
1.0
 40
1.0
 10
47.6801692255
 20
126.2828327779
 42
1.0
 10
48.0127701436
 20
126.3565686262
 42
0.4776264093
 10
48.0127701436
 20
126.6972449331
 42
0.4776264093
 10
47.6801692255
 20
126.7709807814
 42
1.0
 72
     1
 10
47.6801692255
 20
126.2828327779
 11
42.4661239957
 21
125.1269067797
 72
     1
 10
42.4661239957
 20
125.1269067797
 11
42.4661239957
 21
122.9269067797
 72
     1
 10
42.4661239957
 20
122.9269067797
 11
47.6801692255
 21
121.7709807814
 72
     4
 94
        3
 73
     1
 74
     0
 95
        8
 96
        4
 40
0.0
 40
0.0
 40
0.0
 40
0.0
 40
1.0
 40
1.0
 40
1.0
 40
1.0
 10
47.6801692255
 20
121.2828327779
 42
1.0
 10
48.0127701436
 20
121.3565686262
 42
0.4776264093
 10
48.0127701436
 20
121.6972449331
 42
0.4776264093
 10
47.6801692255
 20
121.7709807814
 42
1.0
 97
        0
 92
        1
 93
       22
 72
     1
 10
173.0719494185
 20
121.2828327779
 11
178.2859946483
 21
120.1269067797
 72
     4
 94
        3
 73
     1
 74
     0
 95
        8
 96
        4
 40
0.0
 40
0.0
 40
0.0
 40
0.0
 40
1.0
 40
1.0
 40
1.0
 40
1.0
 10
173.0719494185
 20
121.2828327779
 42
1.0
 10
172.7393485004
 20
121.3565686262
 42
0.4776264093
 10
172.7393485004
 20
121.6972449331
 42
0.4776264093
 10
173.0719494185
 20
121.7709807814
 42
1.0
 72
     1
 10
178.2859946483
 20
122.9269067797
 11
173.0719494185
 21
121.7709807814
 72
     1
 10
178.2859946483
 20
125.1269067797
 11
178.2859946483
 21
122.9269067797
 72
     1
 10
173.0719494185
 20
126.2828327779
 11
178.2859946483
 21
125.1269067797
 72
     4
 94
        3
 73
     1
 74
     0
 95
        8
 96
        4
 40
0.0
 40
0.0
 40
0.0
 40
0.0
 40
1.0
 40
1.0
 40
1.0
 40
1.0
 10
173.0719494185
 20
126.2828327779
 42
1.0
 10
172.7393485004
 20
126.3565686262
 42
0.4776264093
 10
172.7393485004
 20
126.6972449331
 42
0.4776264093
 10
173.0719494185
 20
126.7709807814
 42
1.0
 72
     1
 10
178.2859946483
 20
127.9269067797
 11
173.0719494185
 21
126.7709807814
 72
     1
 10
178.4975870252
 20
129.1269067797
 11
178.2859946483
 21
127.9269067797
 72
     1
 10
179.3760224889
 20
129.1269067797
 11
178.4975870252
 21
129.1269067797
 72
     1
 10
179.3760224889
 20
129.1269067797
 11
180.876059322
 21
127.6268691458
 72
     1
 10
180.876059322
 20
127.6268691458
 11
180.876059322
 21
127.2569067797
 72
     4
 94
        3
 73
     1
 74
     0
 95
        8
 96
        4
 40
0.0
 40
0.0
 40
0.0
 40
0.0
 40
1.0
 40
1.0
 40
1.0
 40
1.0
 10
180.876059322
 20
127.2569067797
 42
1.0
 10
181.876059322
 20
127.2569067797
 42
0.3333333333
 10
181.876059322
 20
126.2569067797
 42
0.3333333333
 10
180.876059322
 20
126.2569067797
 42
1.0
 72
     1
 10
180.876059322
 20
126.2569067797
 11
180.876059322
 21
125.4569067797
 72
     4
 94
        3
 73
     1
 74
     0
 95
        8
 96
        4
 40
0.0
 40
0.0
 40
0.0
 40
0.0
 40
1.0
 40
1.0
 40
1.0
 40
1.0
 10
180.876059322
 20
125.4569067797
 42
1.0
 10
181.876059322
 20
125.4569067797
 42
0.3333333333
 10
181.876059322
 20
124.4569067797
 42
0.3333333333
 10
180.876059322
 20
124.4569067797
 42
1.0
 72
     1
 10
180.876059322
 20
124.4569067797
 11
180.876059322
 21
123.6569067797
 72
     4
 94
        3
 73
     1
 74
     0
 95
        8
 96
        4
 40
0.0
 40
0.0
 40
0.0
 40
0.0
 40
1.0
 40
1.0
 40
1.0
 40
1.0
 10
180.876059322
 20
123.6569067797
 42
1.0
 10
181.876059322
 20
123.6569067797
 42
0.3333333333
 10
181.876059322
 20
122.6569067797
 42
0.3333333333
 10
180.876059322
 20
122.6569067797
 42
1.0
 72
     1
 10
180.876059322
 20
122.6569067797
 11
180.876059322
 21
121.8569067797
 72
     4
 94
        3
 73
     1
 74
     0
 95
        8
 96
        4
 40
0.0
 40
0.0
 40
0.0
 40
0.0
 40
1.0
 40
1.0
 40
1.0
 40
1.0
 10
180.876059322
 20
121.8569067797
 42
1.0
 10
181.876059322
 20
121.8569067797
 42
0.3333333333
 10
181.876059322
 20
120.8569067797
 42
0.3333333333
 10
180.876059322
 20
120.8569067797
 42
1.0
 72
     1
 10
180.876059322
 20
120.8569067797
 11
180.876059322
 21
120.4269448605
 72
     1
 10
179.3760220515
 20
118.9269067797
 11
180.876059322
 21
120.4269448605
 72
     1
 10
179.3760220515
 20
118.9269067797
 11
178.4975870252
 21
118.9269067797
 72
     1
 10
178.2859946483
 20
120.1269067797
 11
178.4975870252
 21
118.9269067797
 97
        0
 75
     0
 76
     0
 52
45.0
 41
0.6663148394000001
 77
     0
 78
     1
 53
45.0
 43
0.0
 44
0.0
 45
-0.4711557413000001
 46
0.4711557413000001
 79
     0
 98
        1
 10
0.0
 20
0.0
  0
HATCH
  5
23D
330
20A
100
AcDbEntity
  8
0
  6
Continuous
 62
     1
100
AcDbHatch
 10
0.0
 20
0.0
 30
0.0
210
0.0
220
0.0
230
1.0
  2
DEFAULT__1
 70
     0
 71
     0
 91
        3
 92
        1
 93
       54
 72
     1
 10
183.876059322
 20
246.9269067797
 11
183.876059322
 21
234.4615734065
 72
     4
 94
        3
 73
     1
 74
     0
 95
        8
 96
        4
 40
0.0
 40
0.0
 40
0.0
 40
0.0
 40
1.0
 40
1.0
 40
1.0
 40
1.0
 10
183.876059322
 20
234.4615734065
 42
1.0
 10
183.876059322
 20
233.5202044525
 42
0.8622355934999998
 10
183.3029902736
 20
232.7733662015
 42
0.8622355934999998
 10
182.3936977288999
 20
232.5297218387
 42
1.0
 72
     1
 10
178.3584209152
 20
231.4484719664
 11
182.3936977288999
 21
232.5297218387
 72
     4
 94
        3
 73
     1
 74
     0
 95
        8
 96
        4
 40
0.0
 40
0.0
 40
0.0
 40
0.0
 40
1.0
 40
1.0
 40
1.0
 40
1.0
 10
176.876059322
 20
229.5166203987
 42
1.0
 10
176.876059322
 20
230.4579893526
 42
0.8622355934999998
 10
177.4491283705
 20
231.2048276037
 42
0.8622355934999998
 10
178.3584209152
 20
231.4484719664
 42
1.0
 72
     1
 10
176.876059322
 20
229.5166203987
 11
176.876059322
 21
217.9269067797
 72
     4
 94
        3
 73
     1
 74
     0
 95
        8
 96
        4
 40
0.0
 40
0.0
 40
0.0
 40
0.0
 40
1.0
 40
1.0
 40
1.0
 40
1.0
 10
176.876059322
 20
217.9269067797
 42
1.0
 10
176.876059322
 20
217.341120342
 42
0.8047378541
 10
176.4618457597
 20
216.9269067797
 42
0.8047378541
 10
175.876059322
 20
216.9269067797
 42
1.0
 72
     1
 10
174.376059322
 20
216.9269067797
 11
175.876059322
 21
216.9269067797
 72
     4
 94
        3
 73
     1
 74
     0
 95
        8
 96
        4
 40
0.0
 40
0.0
 40
0.0
 40
0.0
 40
1.0
 40
1.0
 40
1.0
 40
1.0
 10
174.376059322
 20
216.9269067797
 42
1.0
 10
173.7902728844
 20
216.9269067797
 42
0.8047378541
 10
173.376059322
 20
216.5126932173
 42
0.8047378541
 10
173.376059322
 20
215.9269067797
 42
1.0
 72
     1
 10
173.376059322
 20
214.9269067797
 11
173.376059322
 21
215.9269067797
 72
     4
 94
        3
 73
     1
 74
     0
 95
        8
 96
        4
 40
0.0
 40
0.0
 40
0.0
 40
0.0
 40
1.0
 40
1.0
 40
1.0
 40
1.0
 10
173.3760588327
 20
214.9269066277
 42
1.0
 10
173.3760584259
 20
214.3411197398
 42
0.8047376159999998
 10
173.7902722283
 20
213.9269057807
 42
0.8047376159999998
 10
174.3760591162
 20
213.9269059659
 42
1.0
 72
     1
 10
174.376059322
 20
213.9269067797
 11
176.9597138466
 21
213.9269067797
 72
     4
 94
        3
 73
     1
 74
     0
 95
        8
 96
        4
 40
0.0
 40
0.0
 40
0.0
 40
0.0
 40
1.0
 40
1.0
 40
1.0
 40
1.0
 10
177.6067614594
 20
214.0120922139
 42
1.0
 10
177.3954250846
 20
213.955464803
 42
0.9942965742
 10
177.1785053615
 20
213.9269067797
 42
0.9942965742
 10
176.9597138466
 20
213.9269067797
 42
1.0
 72
     1
 10
177.6067614594
 20
214.0120922139
 11
184.9948379581
 21
215.9917213454
 72
     4
 94
        3
 73
     1
 74
     0
 95
        8
 96
        4
 40
0.0
 40
0.0
 40
0.0
 40
0.0
 40
1.0
 40
1.0
 40
1.0
 40
1.0
 10
184.9948379581
 20
215.9917213454
 42
1.0
 10
185.2061743327999
 20
216.0483487563
 42
0.9942965742
 10
185.423094056
 20
216.0769067797
 42
0.9942965742
 10
185.6418855708
 20
216.0769067797
 42
1.0
 72
     1
 10
185.6418855708
 20
216.0769067797
 11
228.076059322
 21
216.0769067797
 72
     4
 94
        3
 73
     1
 74
     0
 95
        8
 96
        4
 40
0.0
 40
0.0
 40
0.0
 40
0.0
 40
1.0
 40
1.0
 40
1.0
 40
1.0
 10
228.576059322
 20
216.5769067797
 42
1.0
 10
228.576059322
 20
216.2840135609
 42
0.8047378541
 10
228.3689525409001
 20
216.0769067797
 42
0.8047378541
 10
228.076059322
 20
216.0769067797
 42
1.0
 72
     1
 10
228.576059322
 20
218.2269067797
 11
228.576059322
 21
216.5769067797
 72
     4
 94
        3
 73
     1
 74
     0
 95
        8
 96
        4
 40
0.0
 40
0.0
 40
0.0
 40
0.0
 40
1.0
 40
1.0
 40
1.0
 40
1.0
 10
228.576059322
 20
218.2269067797
 42
1.0
 10
228.576059322
 20
219.6913728737
 42
0.8047378541
 10
229.611593228
 20
220.7269067797001
 42
0.8047378541
 10
231.076059322
 20
220.7269067797
 42
1.0
 72
     1
 10
231.076059322
 20
220.7269067797
 11
237.876059322
 21
220.7269067797
 72
     4
 94
        3
 73
     1
 74
     0
 95
        8
 96
        4
 40
0.0
 40
0.0
 40
0.0
 40
0.0
 40
1.0
 40
1.0
 40
1.0
 40
1.0
 10
237.876059322
 20
220.7269067797
 42
1.0
 10
239.3405254161
 20
220.7269067797001
 42
0.8047378541
 10
240.376059322
 20
219.6913728737
 42
0.8047378541
 10
240.376059322
 20
218.2269067797
 42
1.0
 72
     1
 10
240.376059322
 20
218.2269067797
 11
240.376059322
 21
216.5769067797
 72
     4
 94
        3
 73
     1
 74
     0
 95
        8
 96
        4
 40
0.0
 40
0.0
 40
0.0
 40
0.0
 40
1.0
 40
1.0
 40
1.0
 40
1.0
 10
240.876059322
 20
216.0769067797
 42
1.0
 10
240.5831661032
 20
216.0769067797
 42
0.8047378541
 10
240.376059322
 20
216.2840135609
 42
0.8047378541
 10
240.376059322
 20
216.5769067797
 42
1.0
 72
     1
 10
240.876059322
 20
216.0769067797
 11
243.376059322
 21
216.0769067797
 72
     1
 10
243.376059322
 20
216.0769067797
 11
243.376059322
 21
214.0769067797
 72
     1
 10
238.876059322
 20
214.0769067797
 11
243.376059322
 21
214.0769067797
 72
     4
 94
        3
 73
     1
 74
     0
 95
        8
 96
        4
 40
0.0
 40
0.0
 40
0.0
 40
0.0
 40
1.0
 40
1.0
 40
1.0
 40
1.0
 10
238.876059322
 20
214.0769067797
 42
1.0
 10
238.5831661032
 20
214.0769067797
 42
0.8047378541
 10
238.376059322
 20
214.2840135609
 42
0.8047378541
 10
238.376059322
 20
214.5769067797
 42
1.0
 72
     1
 10
238.376059322
 20
218.2269067797
 11
238.376059322
 21
214.5769067797
 72
     4
 94
        3
 73
     1
 74
     0
 95
        8
 96
        4
 40
0.0
 40
0.0
 40
0.0
 40
0.0
 40
1.0
 40
1.0
 40
1.0
 40
1.0
 10
237.876059322
 20
218.7269067797
 42
1.0
 10
238.1689525409
 20
218.7269067797
 42
0.8047378541
 10
238.3760593221
 20
218.5197999985
 42
0.8047378541
 10
238.376059322
 20
218.2269067796
 42
1.0
 72
     1
 10
231.076059322
 20
218.7269067797
 11
237.876059322
 21
218.7269067797
 72
     4
 94
        3
 73
     1
 74
     0
 95
        8
 96
        4
 40
0.0
 40
0.0
 40
0.0
 40
0.0
 40
1.0
 40
1.0
 40
1.0
 40
1.0
 10
230.576059322
 20
218.2269067796
 42
1.0
 10
230.576059322
 20
218.5197999985
 42
0.8047378541
 10
230.7831661032
 20
218.7269067797
 42
0.8047378541
 10
231.076059322
 20
218.7269067797
 42
1.0
 72
     1
 10
230.576059322
 20
218.2269067797
 11
230.576059322
 21
214.5769067797
 72
     4
 94
        3
 73
     1
 74
     0
 95
        8
 96
        4
 40
0.0
 40
0.0
 40
0.0
 40
0.0
 40
1.0
 40
1.0
 40
1.0
 40
1.0
 10
230.576059322
 20
214.5769067797
 42
1.0
 10
230.5760593221
 20
214.2840135609
 42
0.8047378541
 10
230.3689525409
 20
214.0769067797
 42
0.8047378541
 10
230.076059322
 20
214.0769067797
 42
1.0
 72
     1
 10
185.6418855708
 20
214.0769067797
 11
230.076059322
 21
214.0769067797
 72
     4
 94
        3
 73
     1
 74
     0
 95
        8
 96
        4
 40
0.0
 40
0.0
 40
0.0
 40
0.0
 40
1.0
 40
1.0
 40
1.0
 40
1.0
 10
185.5124760483
 20
214.0598696928
 42
1.0
 10
185.5547433232
 20
214.071195175
 42
0.9942965742
 10
185.5981272679
 20
214.0769067797
 42
0.9942965742
 10
185.6418855708
 20
214.0769067797
 42
1.0
 72
     1
 10
177.6157333595
 20
211.9439438665
 11
185.5124760483
 21
214.0598696928
 72
     4
 94
        3
 73
     1
 74
     0
 95
        8
 96
        4
 40
0.0
 40
0.0
 40
0.0
 40
0.0
 40
1.0
 40
1.0
 40
1.0
 40
1.0
 10
177.6157333595
 20
211.9439438665
 42
1.0
 10
177.5734660846
 20
211.9326183843
 42
0.9942965742
 10
177.5300821399
 20
211.9269067797
 42
0.9942965742
 10
177.486323837
 20
211.9269067797
 42
1.0
 72
     1
 10
170.4302433495
 20
211.9269067797
 11
177.486323837
 21
211.9269067797
 72
     4
 94
        3
 73
     1
 74
     0
 95
        8
 96
        4
 40
0.0
 40
0.0
 40
0.0
 40
0.0
 40
1.0
 40
1.0
 40
1.0
 40
1.0
 10
170.4302433546
 20
211.9269027839
 42
1.0
 10
170.1392787219
 20
211.9269013566
 42
0.8066948145999999
 10
169.9326805426
 20
212.131785738
 42
0.8066948145999999
 10
169.9302583146
 20
212.4227402882
 42
1.0
 72
     1
 10
169.9302607293
 20
212.4227379131
 11
169.8802607097
 21
218.4227402577
 72
     4
 94
        3
 73
     1
 74
     0
 95
        8
 96
        4
 40
0.0
 40
0.0
 40
0.0
 40
0.0
 40
1.0
 40
1.0
 40
1.0
 40
1.0
 10
169.8802607097
 20
218.4227402577
 42
1.0
 10
169.8778038606
 20
218.7175621539
 42
0.8027696279
 10
170.0854112166
 20
218.9269067797
 42
0.8027696279
 10
170.3802433495
 20
218.9269067797
 42
1.0
 72
     1
 10
173.876059322
 20
218.9269067797
 11
170.3802433495
 21
218.9269067797
 72
     4
 94
        3
 73
     1
 74
     0
 95
        8
 96
        4
 40
0.0
 40
0.0
 40
0.0
 40
0.0
 40
1.0
 40
1.0
 40
1.0
 40
1.0
 10
174.376059322
 20
219.4269067797
 42
1.0
 10
174.376059322
 20
219.1340135608
 42
0.8047378541
 10
174.1689525408
 20
218.9269067796
 42
0.8047378541
 10
173.876059322
 20
218.9269067797
 42
1.0
 72
     1
 10
174.376059322
 20
234.6911872391
 11
174.376059322
 21
219.4269067797
 72
     4
 94
        3
 73
     1
 74
     0
 95
        8
 96
        4
 40
0.0
 40
0.0
 40
0.0
 40
0.0
 40
1.0
 40
1.0
 40
1.0
 40
1.0
 10
174.376059322
 20
234.6911872391
 42
1.0
 10
174.376059322
 20
234.9800432065
 42
0.8088336328
 10
174.5785211456
 20
235.1860698549
 42
0.8088336328
 10
174.8673331188
 20
235.1911110867
 42
1.0
 72
     1
 10
180.8847855253
 20
235.2961461091
 11
174.8673331188
 21
235.1911110867
 72
     4
 94
        3
 73
     1
 74
     0
 95
        8
 96
        4
 40
0.0
 40
0.0
 40
0.0
 40
0.0
 40
1.0
 40
1.0
 40
1.0
 40
1.0
 10
181.376059322
 20
235.7960699567
 42
1.0
 10
181.376059322
 20
235.5072139894
 42
0.8088336328
 10
181.1735974984999
 20
235.3011873409
 42
0.8088336328
 10
180.8847855253
 20
235.2961461091
 42
1.0
 72
     1
 10
181.376059322
 20
245.8133726936
 11
181.376059322
 21
235.7960699567
 72
     4
 94
        3
 73
     1
 74
     0
 95
        8
 96
        4
 40
0.0
 40
0.0
 40
0.0
 40
0.0
 40
1.0
 40
1.0
 40
1.0
 40
1.0
 10
180.8847855253
 20
246.3132965412
 42
1.0
 10
181.1735974984999
 20
246.3082553094
 42
0.8088336328
 10
181.376059322
 20
246.102228661
 42
0.8088336328
 10
181.376059322
 20
245.8133726936
 42
1.0
 72
     1
 10
174.8673331188
 20
246.4183315636
 11
180.8847855253
 21
246.3132965412
 72
     4
 94
        3
 73
     1
 74
     0
 95
        8
 96
        4
 40
0.0
 40
0.0
 40
0.0
 40
0.0
 40
1.0
 40
1.0
 40
1.0
 40
1.0
 10
174.8673331188
 20
246.4183315636
 42
1.0
 10
174.5785211456
 20
246.4233727954
 42
0.8088336328
 10
174.376059322
 20
246.6293994439
 42
0.8088336328
 10
174.376059322
 20
246.9182554112
 42
1.0
 72
     1
 10
174.376059322
 20
248.4269067797
 11
174.376059322
 21
246.9182554112
 72
     4
 94
        3
 73
     1
 74
     0
 95
        8
 96
        4
 40
0.0
 40
0.0
 40
0.0
 40
0.0
 40
1.0
 40
1.0
 40
1.0
 40
1.0
 10
174.376059322
 20
248.4269067797
 42
1.0
 10
174.376059322
 20
248.7197999985
 42
0.8047378541
 10
174.5831661032
 20
248.9269067797
 42
0.8047378541
 10
174.876059322
 20
248.9269067797
 42
1.0
 72
     1
 10
181.876059322
 20
248.9269067797
 11
174.876059322
 21
248.9269067797
 72
     4
 94
        3
 73
     1
 74
     0
 95
        8
 96
        4
 40
0.0
 40
0.0
 40
0.0
 40
0.0
 40
1.0
 40
1.0
 40
1.0
 40
1.0
 10
181.876059322
 20
248.9269067797
 42
1.0
 10
183.0476321973
 20
248.9269067797
 42
0.8047378541
 10
183.8760593219999
 20
248.0984796549
 42
0.8047378541
 10
183.876059322
 20
246.9269067797
 42
1.0
 97
        0
 92
        1
 93
       31
 72
     1
 10
36.876059322
 20
246.9269067797
 11
36.876059322
 21
234.4615734065
 72
     4
 94
        3
 73
     1
 74
     0
 95
        8
 96
        4
 40
0.0
 40
0.0
 40
0.0
 40
0.0
 40
1.0
 40
1.0
 40
1.0
 40
1.0
 10
38.87605932199999
 20
248.9269067797
 42
1.0
 10
37.7044864468
 20
248.9269067797
 42
0.8047378541
 10
36.876059322
 20
248.0984796549
 42
0.8047378541
 10
36.876059322
 20
246.9269067797
 42
1.0
 72
     1
 10
45.87605932199999
 20
248.9269067797
 11
38.87605932199999
 21
248.9269067797
 72
     4
 94
        3
 73
     1
 74
     0
 95
        8
 96
        4
 40
0.0
 40
0.0
 40
0.0
 40
0.0
 40
1.0
 40
1.0
 40
1.0
 40
1.0
 10
46.37605932199999
 20
248.4269067797
 42
1.0
 10
46.37605932199999
 20
248.7197999985
 42
0.8047378541
 10
46.1689525408
 20
248.9269067797
 42
0.8047378541
 10
45.87605932199999
 20
248.9269067797
 42
1.0
 72
     1
 10
46.37605932199999
 20
248.4269067797
 11
46.37605932199999
 21
246.9182554112
 72
     4
 94
        3
 73
     1
 74
     0
 95
        8
 96
        4
 40
0.0
 40
0.0
 40
0.0
 40
0.0
 40
1.0
 40
1.0
 40
1.0
 40
1.0
 10
45.88478552529999
 20
246.4183315636
 42
1.0
 10
46.1735974985
 20
246.4233727954
 42
0.8088336328
 10
46.376059322
 20
246.6293994439
 42
0.8088336328
 10
46.37605932199999
 20
246.9182554112
 42
1.0
 72
     1
 10
45.88478552529999
 20
246.4183315636
 11
39.8673331188
 21
246.3132965412
 72
     4
 94
        3
 73
     1
 74
     0
 95
        8
 96
        4
 40
0.0
 40
0.0
 40
0.0
 40
0.0
 40
1.0
 40
1.0
 40
1.0
 40
1.0
 10
39.8673331188
 20
246.3132965412
 42
1.0
 10
39.5785211456
 20
246.3082553094
 42
0.8088336328
 10
39.376059322
 20
246.102228661
 42
0.8088336328
 10
39.376059322
 20
245.8133726936
 42
1.0
 72
     1
 10
39.376059322
 20
245.8133726936
 11
39.376059322
 21
235.7960699567
 72
     4
 94
        3
 73
     1
 74
     0
 95
        8
 96
        4
 40
0.0
 40
0.0
 40
0.0
 40
0.0
 40
1.0
 40
1.0
 40
1.0
 40
1.0
 10
39.376059322
 20
235.7960699567
 42
1.0
 10
39.376059322
 20
235.5072139894
 42
0.8088336328
 10
39.5785211456
 20
235.3011873409
 42
0.8088336328
 10
39.8673331188
 20
235.2961461091
 42
1.0
 72
     1
 10
39.8673331188
 20
235.2961461091
 11
45.88478552529999
 21
235.1911110867
 72
     4
 94
        3
 73
     1
 74
     0
 95
        8
 96
        4
 40
0.0
 40
0.0
 40
0.0
 40
0.0
 40
1.0
 40
1.0
 40
1.0
 40
1.0
 10
46.37605932199999
 20
234.6911872391
 42
1.0
 10
46.376059322
 20
234.9800432065
 42
0.8088336328
 10
46.1735974985
 20
235.1860698549
 42
0.8088336328
 10
45.88478552529999
 20
235.1911110867
 42
1.0
 72
     1
 10
46.37605932199999
 20
234.6911872391
 11
46.37605932199999
 21
219.4269067797
 72
     4
 94
        3
 73
     1
 74
     0
 95
        8
 96
        4
 40
0.0
 40
0.0
 40
0.0
 40
0.0
 40
1.0
 40
1.0
 40
1.0
 40
1.0
 10
46.37605932199999
 20
219.4269067797
 42
1.0
 10
46.37605932199999
 20
219.1340135608
 42
0.8047378541
 10
46.5831661032
 20
218.9269067796
 42
0.8047378541
 10
46.8760593221
 20
218.9269067797
 42
1.0
 72
     1
 10
50.3718752946
 20
218.9269067797
 11
46.87605932199999
 21
218.9269067797
 72
     4
 94
        3
 73
     1
 74
     0
 95
        8
 96
        4
 40
0.0
 40
0.0
 40
0.0
 40
0.0
 40
1.0
 40
1.0
 40
1.0
 40
1.0
 10
50.87185793439999
 20
218.4227402577
 42
1.0
 10
50.87431478350001
 20
218.7175621539
 42
0.8027696279
 10
50.6667074275
 20
218.9269067797
 42
0.8027696279
 10
50.3718752945
 20
218.9269067797
 42
1.0
 72
     1
 10
50.87185793439999
 20
218.4227402577
 11
49.876059322
 21
98.9269067797
 72
     1
 10
49.2158376881
 20
98.9269067797
 11
49.876059322
 21
98.9269067797
 72
     1
 10
49.2158376881
 20
98.9269067797
 11
47.87609021749999
 21
103.9269150581
 72
     1
 10
47.87605932199999
 20
103.9269067797
 11
47.87605932199999
 21
200.3412635146
 72
     4
 94
        3
 73
     1
 74
     0
 95
        8
 96
        4
 40
0.0
 40
0.0
 40
0.0
 40
0.0
 40
1.0
 40
1.0
 40
1.0
 40
1.0
 10
47.8760593282
 20
200.3412586798
 42
1.0
 10
47.8760599174
 20
200.5835023507
 42
0.9891463203
 10
47.83252668350001
 20
200.8218022747
 42
0.9891463203
 10
47.7468771137
 20
201.0483991586
 42
1.0
 72
     1
 10
47.74687731439999
 20
201.0483986343
 11
47.50524316829999
 21
201.6876712909
 72
     4
 94
        3
 73
     1
 74
     0
 95
        8
 96
        4
 40
0.0
 40
0.0
 40
0.0
 40
0.0
 40
1.0
 40
1.0
 40
1.0
 40
1.0
 10
47.50524338259999
 20
201.6876707856
 42
1.0
 10
47.4195939187
 20
201.9142656249
 42
0.9891464923
 10
47.3760600798
 20
202.1525634572
 42
0.9891464923
 10
47.3760593506
 20
202.3948051806
 42
1.0
 72
     1
 10
47.376059322
 20
202.3948112802
 11
47.376059322
 21
215.9269067797
 72
     4
 94
        3
 73
     1
 74
     0
 95
        8
 96
        4
 40
0.0
 40
0.0
 40
0.0
 40
0.0
 40
1.0
 40
1.0
 40
1.0
 40
1.0
 10
46.37605932199999
 20
216.9269067797
 42
1.0
 10
46.9618457597
 20
216.9269067797
 42
0.8047378541
 10
47.376059322
 20
216.5126932173
 42
0.8047378541
 10
47.376059322
 20
215.9269067797
 42
1.0
 72
     1
 10
44.876059322
 20
216.9269067797
 11
46.37605932199999
 21
216.9269067797
 72
     4
 94
        3
 73
     1
 74
     0
 95
        8
 96
        4
 40
0.0
 40
0.0
 40
0.0
 40
0.0
 40
1.0
 40
1.0
 40
1.0
 40
1.0
 10
43.87605932199999
 20
217.9269067797
 42
1.0
 10
43.87605932199999
 20
217.341120342
 42
0.8047378541
 10
44.29027288439999
 20
216.9269067797
 42
0.8047378541
 10
44.876059322
 20
216.9269067797
 42
1.0
 72
     1
 10
43.87605932199999
 20
229.5166203987
 11
43.87605932199999
 21
217.9269067797
 72
     4
 94
        3
 73
     1
 74
     0
 95
        8
 96
        4
 40
0.0
 40
0.0
 40
0.0
 40
0.0
 40
1.0
 40
1.0
 40
1.0
 40
1.0
 10
43.87605932199999
 20
229.5166203987
 42
1.0
 10
43.87605932199998
 20
230.4579893526
 42
0.8622355934999998
 10
43.30299027359999
 20
231.2048276037
 42
0.8622355934999998
 10
42.39369772889999
 20
231.4484719664
 42
1.0
 72
     1
 10
42.39369772889999
 20
231.4484719664
 11
38.3584209152
 21
232.5297218387
 72
     4
 94
        3
 73
     1
 74
     0
 95
        8
 96
        4
 40
0.0
 40
0.0
 40
0.0
 40
0.0
 40
1.0
 40
1.0
 40
1.0
 40
1.0
 10
36.876059322
 20
234.4615734065
 42
1.0
 10
36.876059322
 20
233.5202044525
 42
0.8622355934999998
 10
37.4491283705
 20
232.7733662015
 42
0.8622355934999998
 10
38.3584209152
 20
232.5297218387
 42
1.0
 97
        0
 92
        1
 93
       33
 72
     1
 10
172.876059322
 20
103.9269067797
 11
172.876059322
 21
162.9269067797
 72
     1
 10
171.536280956
 20
98.9269067797
 11
172.8760284265
 21
103.9269150581
 72
     1
 10
170.876059322
 20
98.9269067797
 11
171.536280956
 21
98.9269067797
 72
     1
 10
170.876059322
 20
98.9269067797
 11
170.3219273551
 21
165.4227428167
 72
     4
 94
        3
 73
     1
 74
     0
 95
        8
 96
        4
 40
0.0
 40
0.0
 40
0.0
 40
0.0
 40
1.0
 40
1.0
 40
1.0
 40
1.0
 10
170.3219259952
 20
165.4227402142
 42
1.0
 10
170.3194676024
 20
165.7175639557
 42
0.802767709
 10
170.5270760302
 20
165.9269101353
 42
0.802767709
 10
170.8219100212
 20
165.9269092732
 42
1.0
 72
     1
 10
170.8219100162
 20
165.9269067797
 11
177.486323837
 21
165.9269067797
 72
     4
 94
        3
 73
     1
 74
     0
 95
        8
 96
        4
 40
0.0
 40
0.0
 40
0.0
 40
0.0
 40
1.0
 40
1.0
 40
1.0
 40
1.0
 10
177.6157333595
 20
165.9098696928
 42
1.0
 10
177.5734660846
 20
165.921195175
 42
0.9942965742
 10
177.5300821399
 20
165.9269067797
 42
0.9942965742
 10
177.486323837
 20
165.9269067797
 42
1.0
 72
     1
 10
177.6157333595
 20
165.9098696928
 11
185.5124760483
 21
163.7939438665
 72
     4
 94
        3
 73
     1
 74
     0
 95
        8
 96
        4
 40
0.0
 40
0.0
 40
0.0
 40
0.0
 40
1.0
 40
1.0
 40
1.0
 40
1.0
 10
185.5124760483
 20
163.7939438665
 42
1.0
 10
185.5547433232
 20
163.7826183843
 42
0.9942965742
 10
185.5981272679
 20
163.7769067797
 42
0.9942965742
 10
185.6418855708
 20
163.7769067797
 42
1.0
 72
     1
 10
185.6418855708
 20
163.7769067797
 11
230.076059322
 21
163.7769067797
 72
     4
 94
        3
 73
     1
 74
     0
 95
        8
 96
        4
 40
0.0
 40
0.0
 40
0.0
 40
0.0
 40
1.0
 40
1.0
 40
1.0
 40
1.0
 10
230.576059322
 20
163.2769067796
 42
1.0
 10
230.5760593221
 20
163.5697999985
 42
0.8047378541
 10
230.3689525409
 20
163.7769067797
 42
0.8047378541
 10
230.076059322
 20
163.7769067797
 42
1.0
 72
     1
 10
230.576059322
 20
163.2769067797
 11
230.576059322
 21
159.6269067797
 72
     4
 94
        3
 73
     1
 74
     0
 95
        8
 96
        4
 40
0.0
 40
0.0
 40
0.0
 40
0.0
 40
1.0
 40
1.0
 40
1.0
 40
1.0
 10
230.576059322
 20
159.6269067797
 42
1.0
 10
230.576059322
 20
159.3340135608999
 42
0.8047378541
 10
230.7831661032
 20
159.1269067797
 42
0.8047378541
 10
231.076059322
 20
159.1269067797
 42
1.0
 72
     1
 10
231.076059322
 20
159.1269067797
 11
237.876059322
 21
159.1269067797
 72
     4
 94
        3
 73
     1
 74
     0
 95
        8
 96
        4
 40
0.0
 40
0.0
 40
0.0
 40
0.0
 40
1.0
 40
1.0
 40
1.0
 40
1.0
 10
237.876059322
 20
159.1269067797
 42
1.0
 10
238.1689525409
 20
159.1269067797
 42
0.8047378541
 10
238.3760593221
 20
159.3340135608999
 42
0.8047378541
 10
238.376059322
 20
159.6269067797
 42
1.0
 72
     1
 10
238.376059322
 20
163.2769067797
 11
238.376059322
 21
159.6269067797
 72
     4
 94
        3
 73
     1
 74
     0
 95
        8
 96
        4
 40
0.0
 40
0.0
 40
0.0
 40
0.0
 40
1.0
 40
1.0
 40
1.0
 40
1.0
 10
238.876059322
 20
163.7769067797
 42
1.0
 10
238.5831661032
 20
163.7769067797
 42
0.8047378541
 10
238.376059322
 20
163.5697999985
 42
0.8047378541
 10
238.376059322
 20
163.2769067796
 42
1.0
 72
     1
 10
238.876059322
 20
163.7769067797
 11
243.376059322
 21
163.7769067797
 72
     1
 10
243.376059322
 20
163.7769067797
 11
243.376059322
 21
161.7769067797
 72
     1
 10
240.876059322
 20
161.7769067797
 11
243.376059322
 21
161.7769067797
 72
     4
 94
        3
 73
     1
 74
     0
 95
        8
 96
        4
 40
0.0
 40
0.0
 40
0.0
 40
0.0
 40
1.0
 40
1.0
 40
1.0
 40
1.0
 10
240.876059322
 20
161.7769067797
 42
1.0
 10
240.5831661032
 20
161.7769067797
 42
0.8047378541
 10
240.376059322
 20
161.5697999985
 42
0.8047378541
 10
240.376059322
 20
161.2769067796
 42
1.0
 72
     1
 10
240.376059322
 20
161.2769067797
 11
240.376059322
 21
159.6269067797
 72
     4
 94
        3
 73
     1
 74
     0
 95
        8
 96
        4
 40
0.0
 40
0.0
 40
0.0
 40
0.0
 40
1.0
 40
1.0
 40
1.0
 40
1.0
 10
237.876059322
 20
157.1269067797
 42
1.0
 10
239.3405254161
 20
157.1269067797
 42
0.8047378541
 10
240.376059322
 20
158.1624406856
 42
0.8047378541
 10
240.376059322
 20
159.6269067797
 42
1.0
 72
     1
 10
231.076059322
 20
157.1269067797
 11
237.876059322
 21
157.1269067797
 72
     4
 94
        3
 73
     1
 74
     0
 95
        8
 96
        4
 40
0.0
 40
0.0
 40
0.0
 40
0.0
 40
1.0
 40
1.0
 40
1.0
 40
1.0
 10
228.576059322
 20
159.6269067797
 42
1.0
 10
228.576059322
 20
158.1624406856
 42
0.8047378541
 10
229.611593228
 20
157.1269067797
 42
0.8047378541
 10
231.076059322
 20
157.1269067797
 42
1.0
 72
     1
 10
228.576059322
 20
161.2769067797
 11
228.576059322
 21
159.6269067797
 72
     4
 94
        3
 73
     1
 74
     0
 95
        8
 96
        4
 40
0.0
 40
0.0
 40
0.0
 40
0.0
 40
1.0
 40
1.0
 40
1.0
 40
1.0
 10
228.576059322
 20
161.2769067796
 42
1.0
 10
228.576059322
 20
161.5697999985
 42
0.8047378541
 10
228.3689525409001
 20
161.7769067797
 42
0.8047378541
 10
228.076059322
 20
161.7769067797
 42
1.0
 72
     1
 10
185.6418855708
 20
161.7769067797
 11
228.076059322
 21
161.7769067797
 72
     4
 94
        3
 73
     1
 74
     0
 95
        8
 96
        4
 40
0.0
 40
0.0
 40
0.0
 40
0.0
 40
1.0
 40
1.0
 40
1.0
 40
1.0
 10
184.9948379581
 20
161.8620922138999
 42
1.0
 10
185.2061743327999
 20
161.805464803
 42
0.9942965742
 10
185.423094056
 20
161.7769067797
 42
0.9942965742
 10
185.6418855708
 20
161.7769067797
 42
1.0
 72
     1
 10
177.6067614594
 20
163.8417213454
 11
184.9948379581
 21
161.8620922138999
 72
     4
 94
        3
 73
     1
 74
     0
 95
        8
 96
        4
 40
0.0
 40
0.0
 40
0.0
 40
0.0
 40
1.0
 40
1.0
 40
1.0
 40
1.0
 10
177.6067614594
 20
163.8417213454
 42
1.0
 10
177.3954250846
 20
163.8983487563
 42
0.9942965742
 10
177.1785053615
 20
163.9269067797
 42
0.9942965742
 10
176.9597138466
 20
163.9269067797
 42
1.0
 72
     1
 10
173.876059322
 20
163.9269067797
 11
176.9597138466
 21
163.9269067797
 72
     4
 94
        3
 73
     1
 74
     0
 95
        8
 96
        4
 40
0.0
 40
0.0
 40
0.0
 40
0.0
 40
1.0
 40
1.0
 40
1.0
 40
1.0
 10
173.8760591162
 20
163.9269075742
 42
1.0
 10
173.290272245
 20
163.9269077495
 42
0.8047376245999998
 10
172.8760584536999
 20
163.5126938029
 42
0.8047376245999998
 10
172.8760588487
 20
162.9269069317
 42
1.0
 97
        0
 75
     0
 76
     0
 52
45.0
 41
3.096174921899999
 77
     0
 78
     1
 53
45.0
 43
0.0
 44
0.0
 45
-2.189326283
 46
2.189326283
 79
     0
 98
        1
 10
0.0
 20
0.0
  0
DIMENSION
  5
23E
330
20A
100
AcDbEntity
  8
ZEICHNUNGSBEMASSUNGEN
  6
Continuous
 62
     7
100
AcDbDimension
  2
*D1
 10
172.876059322
 20
82.91504465174659
 30
0.0
 11
107.3968926554
 21
82.91504465174659
 31
0.0
 70
   160
  1
%%c<>
 71
     2
 42
125.0
  3
DIMSTYLE_2
100
AcDbAlignedDimension
 13
47.87605932199999
 23
102.4269067797
 33
0.0
 14
172.876059322
 24
102.4269067797
 34
0.0
100
AcDbRotatedDimension
1001
ACAD
1000
DSTYLE
1002
{
1070
    41
1040
5.0
1070
   140
1040
7.0
1070
   147
1040
1.5
1070
   178
1070
   256
1002
}
  0
DIMENSION
  5
23F
330
20A
100
AcDbEntity
  8
ZEICHNUNGSBEMASSUNGEN
  6
Continuous
 62
     7
100
AcDbDimension
  2
*D2
 10
25.87532618050002
 20
98.92691477070002
 30
0.0
 11
25.8753261805
 21
170.6861728696
 31
0.0
 70
   160
 71
     2
 42
149.999992009
  3
DIMSTYLE_2
100
AcDbAlignedDimension
 13
37.376059322
 23
248.9269067797
 33
0.0
 14
47.71583554689999
 24
98.9269147707
 34
0.0
 50
270.0
100
AcDbRotatedDimension
1001
ACAD
1000
DSTYLE
1002
{
1070
    41
1040
5.0
1070
   140
1040
7.0
1070
   147
1040
1.5
1070
   178
1070
   256
1002
}
  0
DIMENSION
  5
240
330
20A
100
AcDbEntity
  8
ZEICHNUNGSBEMASSUNGEN
  6
Continuous
 62
     7
100
AcDbDimension
  2
*D3
 10
110.376059322
 20
261.5519067797
 30
0.0
 11
173.376059322
 21
261.5519067797
 31
0.0
 70
   160
 71
     2
 42
133.0
  3
DIMSTYLE_2
100
AcDbAlignedDimension
 13
243.376059322
 23
250.8640724269635
 33
0.0
 14
110.376059322
 24
253.4269067797
 34
0.0
 50
180.0
100
AcDbRotatedDimension
1001
ACAD
1000
DSTYLE
1002
{
1070
    41
1040
5.0
1070
   140
1040
7.0
1070
   147
1040
1.5
1070
   178
1070
   256
1002
}
  0
DIMENSION
  5
241
330
20A
100
AcDbEntity
  8
ZEICHNUNGSBEMASSUNGEN
  6
Continuous
 62
     7
100
AcDbDimension
  2
*D4
 10
258.4158826640378
 20
188.9269067797
 30
0.0
 11
258.4158826640378
 21
218.3086269333629
 31
0.0
 70
   160
 71
     2
 42
60.0
  3
DIMSTYLE_2
100
AcDbAlignedDimension
 13
243.5750765263131
 23
248.9269067797
 33
0.0
 14
247.876059322
 24
188.9269067797
 34
0.0
 50
270.0
100
AcDbRotatedDimension
1001
ACAD
1000
DSTYLE
1002
{
1070
    41
1040
5.0
1070
   140
1040
7.0
1070
   147
1040
1.5
1070
   178
1070
   256
1002
}
  0
LINE
  5
242
330
20A
100
AcDbEntity
  8
0
  6
Continuous
 62
     7
100
AcDbLine
 10
36.876059322
 20
246.9269067797
 30
0.0
 11
36.876059322
 21
234.4615734065
 31
0.0
  0
LINE
  5
243
330
20A
100
AcDbEntity
  8
0
  6
Continuous
 62
     7
100
AcDbLine
 10
41.376087275
 20
118.9269160973
 30
0.0
 11
39.876059322
 21
120.4269448605
 31
0.0
  0
LINE
  5
244
330
20A
100
AcDbEntity
  8
0
  6
Continuous
 62
     7
100
AcDbLine
 10
49.2158366027
 20
98.92691083009999
 30
0.0
 11
47.87609021749999
 21
103.9269150581
 31
0.0
  0
LINE
  5
245
330
20A
100
AcDbEntity
  8
0
  6
Continuous
 62
     7
100
AcDbLine
 10
42.25453161889999
 20
129.1269067797
 30
0.0
 11
42.4661239957
 21
127.9269067797
 31
0.0
  0
LINE
  5
246
330
20A
100
AcDbEntity
  8
0
  6
Continuous
 62
     7
100
AcDbLine
 10
39.376059322
 20
245.8133726936
 30
0.0
 11
39.376059322
 21
235.7960699567
 31
0.0
  0
LINE
  5
247
330
20A
100
AcDbEntity
  8
0
  6
Continuous
 62
     7
100
AcDbLine
 10
39.876059322
 20
127.6268691458
 30
0.0
 11
39.876059322
 21
127.2569067797
 31
0.0
  0
LINE
  5
248
330
20A
100
AcDbEntity
  8
0
  6
Continuous
 62
     7
100
AcDbLine
 10
39.876059322
 20
126.2569067797
 30
0.0
 11
39.876059322
 21
125.4569067797
 31
0.0
  0
LINE
  5
249
330
20A
100
AcDbEntity
  8
0
  6
Continuous
 62
     7
100
AcDbLine
 10
39.876059322
 20
124.4569067797
 30
0.0
 11
39.876059322
 21
123.6569067797
 31
0.0
  0
LINE
  5
24A
330
20A
100
AcDbEntity
  8
0
  6
Continuous
 62
     7
100
AcDbLine
 10
39.876059322
 20
122.6569067797
 30
0.0
 11
39.876059322
 21
121.8569067797
 31
0.0
  0
LINE
  5
24B
330
20A
100
AcDbEntity
  8
0
  6
Continuous
 62
     7
100
AcDbLine
 10
39.876059322
 20
120.8569067797
 30
0.0
 11
39.876059322
 21
120.4269448605
 31
0.0
  0
LINE
  5
24C
330
20A
100
AcDbEntity
  8
0
  6
Continuous
 62
     7
100
AcDbLine
 10
42.4661239957
 20
125.1269067797
 30
0.0
 11
42.4661239957
 21
122.9269067797
 31
0.0
  0
LINE
  5
24D
330
20A
100
AcDbEntity
  8
0
  6
Continuous
 62
     7
100
AcDbLine
 10
43.87605932199999
 20
229.5166203987
 30
0.0
 11
43.87605932199999
 21
217.9269067797
 31
0.0
  0
LINE
  5
24E
330
20A
100
AcDbEntity
  8
0
  6
Continuous
 62
     7
100
AcDbLine
 10
46.37605932199999
 20
248.4269067797
 30
0.0
 11
46.37605932199999
 21
246.9182554112
 31
0.0
  0
LINE
  5
24F
330
20A
100
AcDbEntity
  8
0
  6
Continuous
 62
     7
100
AcDbLine
 10
46.37605932199999
 20
234.6911872391
 30
0.0
 11
46.37605932199999
 21
219.4269067797
 31
0.0
  0
LINE
  5
250
330
20A
100
AcDbEntity
  8
0
  6
Continuous
 62
     7
100
AcDbLine
 10
47.376059322
 20
202.3948112802
 30
0.0
 11
47.376059322
 21
215.9269067797
 31
0.0
  0
LINE
  5
251
330
20A
100
AcDbEntity
  8
0
  6
Continuous
 62
     7
100
AcDbLine
 10
47.87605932199999
 20
103.9269067797
 30
0.0
 11
47.87605932199999
 21
200.3412635146
 31
0.0
  0
LINE
  5
252
330
20A
100
AcDbEntity
  8
0
  6
Continuous
 62
     7
100
AcDbLine
 10
50.87185793439999
 20
218.4227402577
 30
0.0
 11
49.876059322
 21
98.9269067797
 31
0.0
  0
LINE
  5
253
330
20A
100
AcDbEntity
  8
0
  6
Continuous
 62
     7
100
AcDbLine
 10
42.4661239957
 20
120.1269067797
 30
0.0
 11
42.25453161889999
 21
118.9269067797
 31
0.0
  0
LINE
  5
254
330
20A
100
AcDbEntity
  8
0
  6
Continuous
 62
     7
100
AcDbLine
 10
47.74687731439999
 20
201.0483986343
 30
0.0
 11
47.50524316829999
 21
201.6876712909
 31
0.0
  0
LINE
  5
255
330
20A
100
AcDbEntity
  8
0
  6
Continuous
 62
     7
100
AcDbLine
 10
49.2158376881
 20
98.9269067797
 30
0.0
 11
171.536280956
 21
98.9269067797
 31
0.0
  0
LINE
  5
256
330
20A
100
AcDbEntity
  8
0
  6
Continuous
 62
     7
100
AcDbLine
 10
42.4661239957
 20
122.9269067797
 30
0.0
 11
47.6801692255
 21
121.7709807814
 31
0.0
  0
LINE
  5
257
330
20A
100
AcDbEntity
  8
0
  6
Continuous
 62
     7
100
AcDbLine
 10
42.4661239957
 20
127.9269067797
 30
0.0
 11
47.6801692255
 21
126.7709807814
 31
0.0
  0
LINE
  5
258
330
20A
100
AcDbEntity
  8
0
  6
Continuous
 62
     7
100
AcDbLine
 10
178.2859946483
 20
122.9269067797
 30
0.0
 11
173.0719494185
 21
121.7709807814
 31
0.0
  0
LINE
  5
259
330
20A
100
AcDbEntity
  8
0
  6
Continuous
 62
     7
100
AcDbLine
 10
178.2859946483
 20
127.9269067797
 30
0.0
 11
173.0719494185
 21
126.7709807814
 31
0.0
  0
LINE
  5
25A
330
20A
100
AcDbEntity
  8
0
  6
Continuous
 62
     7
100
AcDbLine
 10
179.3760220515
 20
118.9269067797
 30
0.0
 11
172.876059322
 21
118.9269067797
 31
0.0
  0
LINE
  5
25B
330
20A
100
AcDbEntity
  8
0
  6
Continuous
 62
     7
100
AcDbLine
 10
47.87605932199999
 20
118.9269067797
 30
0.0
 11
41.37609659259999
 21
118.9269067797
 31
0.0
  0
LINE
  5
25C
330
20A
100
AcDbEntity
  8
0
  6
Continuous
 62
     7
100
AcDbLine
 10
178.2859946483
 20
120.1269067797
 30
0.0
 11
172.876059322
 21
120.1269067797
 31
0.0
  0
LINE
  5
25D
330
20A
100
AcDbEntity
  8
0
  6
Continuous
 62
     7
100
AcDbLine
 10
47.87605932199999
 20
120.1269067797
 30
0.0
 11
42.4661239957
 21
120.1269067797
 31
0.0
  0
LINE
  5
25E
330
20A
100
AcDbEntity
  8
0
  6
Continuous
 62
     9
100
AcDbLine
 10
173.0719494185
 20
121.2828327779
 30
0.0
 11
172.876059322
 21
121.2828327779
 31
0.0
  0
LINE
  5
25F
330
20A
100
AcDbEntity
  8
0
  6
Continuous
 62
     9
100
AcDbLine
 10
47.87605932199999
 20
121.2828327779
 30
0.0
 11
47.6801692255
 21
121.2828327779
 31
0.0
  0
LINE
  5
260
330
20A
100
AcDbEntity
  8
0
  6
Continuous
 62
     9
100
AcDbLine
 10
173.0719494185
 20
121.7709807814
 30
0.0
 11
172.876059322
 21
121.7709807814
 31
0.0
  0
LINE
  5
261
330
20A
100
AcDbEntity
  8
0
  6
Continuous
 62
     9
100
AcDbLine
 10
47.87605932199999
 20
121.7709807814
 30
0.0
 11
47.6801692255
 21
121.7709807814
 31
0.0
  0
LINE
  5
262
330
20A
100
AcDbEntity
  8
0
  6
Continuous
 62
     7
100
AcDbLine
 10
178.2859946483
 20
122.9269067797
 30
0.0
 11
172.876059322
 21
122.9269067797
 31
0.0
  0
LINE
  5
263
330
20A
100
AcDbEntity
  8
0
  6
Continuous
 62
     7
100
AcDbLine
 10
47.87605932199999
 20
122.9269067797
 30
0.0
 11
42.4661239957
 21
122.9269067797
 31
0.0
  0
LINE
  5
264
330
20A
100
AcDbEntity
  8
RUNDUNGEN
  6
Continuous
 62
     9
100
AcDbLine
 10
97.0512625517
 20
234.0041811332
 30
0.0
 11
97.0512625517
 21
234.6911872391
 31
0.0
  0
LINE
  5
265
330
20A
100
AcDbEntity
  8
RUNDUNGEN
  6
Continuous
 62
     9
100
AcDbLine
 10
97.0512625517
 20
246.9182554112
 30
0.0
 11
97.0512625517
 21
248.4269067797
 31
0.0
  0
LINE
  5
266
330
20A
100
AcDbEntity
  8
RUNDUNGEN
  6
Continuous
 62
     9
100
AcDbLine
 10
97.44525992600001
 20
234.0041813375
 30
0.0
 11
97.44525992600001
 21
234.6911872351
 31
0.0
  0
LINE
  5
267
330
20A
100
AcDbEntity
  8
RUNDUNGEN
  6
Continuous
 62
     9
100
AcDbLine
 10
97.44525992600001
 20
246.91825542
 30
0.0
 11
97.44525992600001
 21
248.4269067797
 31
0.0
  0
LINE
  5
268
330
20A
100
AcDbEntity
  8
RUNDUNGEN
  6
Continuous
 62
     9
100
AcDbLine
 10
98.013506171
 20
246.8089836257
 30
0.0
 11
98.013506171
 21
248.4269067797
 31
0.0
  0
LINE
  5
269
330
20A
100
AcDbEntity
  8
RUNDUNGEN
  6
Continuous
 62
     9
100
AcDbLine
 10
98.42745844340001
 20
246.8089836591
 30
0.0
 11
98.42745844340001
 21
248.4269067797
 31
0.0
  0
LINE
  5
26A
330
20A
100
AcDbEntity
  8
0
  6
Continuous
 62
     7
100
AcDbLine
 10
178.2859946483
 20
125.1269067797
 30
0.0
 11
172.876059322
 21
125.1269067797
 31
0.0
  0
LINE
  5
26B
330
20A
100
AcDbEntity
  8
0
  6
Continuous
 62
     7
100
AcDbLine
 10
47.87605932199999
 20
125.1269067797
 30
0.0
 11
42.4661239957
 21
125.1269067797
 31
0.0
  0
LINE
  5
26C
330
20A
100
AcDbEntity
  8
0
  6
Continuous
 62
     9
100
AcDbLine
 10
173.0719494185
 20
126.2828327779
 30
0.0
 11
172.876059322
 21
126.2828327779
 31
0.0
  0
LINE
  5
26D
330
20A
100
AcDbEntity
  8
0
  6
Continuous
 62
     9
100
AcDbLine
 10
47.87605932199999
 20
126.2828327779
 30
0.0
 11
47.6801692255
 21
126.2828327779
 31
0.0
  0
LINE
  5
26E
330
20A
100
AcDbEntity
  8
0
  6
Continuous
 62
     9
100
AcDbLine
 10
173.0719494185
 20
126.7709807814
 30
0.0
 11
172.876059322
 21
126.7709807814
 31
0.0
  0
LINE
  5
26F
330
20A
100
AcDbEntity
  8
0
  6
Continuous
 62
     9
100
AcDbLine
 10
47.87605932199999
 20
126.7709807814
 30
0.0
 11
47.6801692255
 21
126.7709807814
 31
0.0
  0
LINE
  5
270
330
20A
100
AcDbEntity
  8
0
  6
Continuous
 62
     7
100
AcDbLine
 10
178.2859946483
 20
127.9269067797
 30
0.0
 11
172.876059322
 21
127.9269067797
 31
0.0
  0
LINE
  5
271
330
20A
100
AcDbEntity
  8
0
  6
Continuous
 62
     7
100
AcDbLine
 10
47.87605932199999
 20
127.9269067797
 30
0.0
 11
42.4661239957
 21
127.9269067797
 31
0.0
  0
LINE
  5
272
330
20A
100
AcDbEntity
  8
0
  6
Continuous
 62
     7
100
AcDbLine
 10
179.3760224889
 20
129.1269067797
 30
0.0
 11
172.876059322
 21
129.1269067797
 31
0.0
  0
LINE
  5
273
330
20A
100
AcDbEntity
  8
0
  6
Continuous
 62
     7
100
AcDbLine
 10
47.87605932199999
 20
129.1269067797
 30
0.0
 11
41.3760961552
 21
129.1269067797
 31
0.0
  0
LINE
  5
274
330
20A
100
AcDbEntity
  8
0
  6
Continuous
 62
     7
100
AcDbLine
 10
173.0719494185
 20
121.2828327779
 30
0.0
 11
178.2859946483
 21
120.1269067797
 31
0.0
  0
LINE
  5
275
330
20A
100
AcDbEntity
  8
0
  6
Continuous
 62
     7
100
AcDbLine
 10
41.3760961552
 20
129.1269067797
 30
0.0
 11
39.876059322
 21
127.6268691458
 31
0.0
  0
LINE
  5
276
330
20A
100
AcDbEntity
  8
0
  6
Continuous
 62
     7
100
AcDbLine
 10
173.0719494185
 20
126.2828327779
 30
0.0
 11
178.2859946483
 21
125.1269067797
 31
0.0
  0
LINE
  5
277
330
20A
100
AcDbEntity
  8
0
  6
CENTER
100
AcDbLine
 10
110.376059322
 20
95.92690677969999
 30
0.0
 11
110.376059322
 21
251.9269067797
 31
0.0
  0
LINE
  5
278
330
20A
100
AcDbEntity
  8
0
  6
Continuous
 62
     7
100
AcDbLine
 10
47.6801692255
 20
121.2828327779
 30
0.0
 11
42.4661239957
 21
120.1269067797
 31
0.0
  0
LINE
  5
279
330
20A
100
AcDbEntity
  8
0
  6
Continuous
 62
     7
100
AcDbLine
 10
47.6801692255
 20
126.2828327779
 30
0.0
 11
42.4661239957
 21
125.1269067797
 31
0.0
  0
LINE
  5
27A
330
20A
100
AcDbEntity
  8
RUNDUNGEN
  6
Continuous
 62
     9
100
AcDbLine
 10
122.3246602007
 20
248.4269067797
 30
0.0
 11
122.3246602007
 21
246.8089836593
 31
0.0
  0
LINE
  5
27B
330
20A
100
AcDbEntity
  8
RUNDUNGEN
  6
Continuous
 62
     9
100
AcDbLine
 10
122.7386124731
 20
248.4269067797
 30
0.0
 11
122.7386124731
 21
246.8089836247
 31
0.0
  0
LINE
  5
27C
330
20A
100
AcDbEntity
  8
RUNDUNGEN
  6
Continuous
 62
     9
100
AcDbLine
 10
123.3068587181
 20
248.4269067797
 30
0.0
 11
123.3068587181
 21
246.9182554196
 31
0.0
  0
LINE
  5
27D
330
20A
100
AcDbEntity
  8
RUNDUNGEN
  6
Continuous
 62
     9
100
AcDbLine
 10
123.3068587181
 20
234.6911872352
 30
0.0
 11
123.3068587181
 21
234.0041813359
 31
0.0
  0
LINE
  5
27E
330
20A
100
AcDbEntity
  8
RUNDUNGEN
  6
Continuous
 62
     9
100
AcDbLine
 10
123.7008560923
 20
248.4269067797
 30
0.0
 11
123.7008560923
 21
246.9182554112
 31
0.0
  0
LINE
  5
27F
330
20A
100
AcDbEntity
  8
RUNDUNGEN
  6
Continuous
 62
     9
100
AcDbLine
 10
123.7008560923
 20
234.6911872391
 30
0.0
 11
123.7008560923
 21
234.0041811338
 31
0.0
  0
LINE
  5
280
330
20A
100
AcDbEntity
  8
0
  6
Continuous
 62
     7
100
AcDbLine
 10
231.076059322
 20
157.1269067797
 30
0.0
 11
237.876059322
 21
157.1269067797
 31
0.0
  0
LINE
  5
281
330
20A
100
AcDbEntity
  8
0
  6
Continuous
 62
     7
100
AcDbLine
 10
231.076059322
 20
159.1269067797
 30
0.0
 11
237.876059322
 21
159.1269067797
 31
0.0
  0
LINE
  5
282
330
20A
100
AcDbEntity
  8
0
  6
Continuous
 62
     7
100
AcDbLine
 10
185.6418855708
 20
161.7769067797
 30
0.0
 11
228.076059322
 21
161.7769067797
 31
0.0
  0
LINE
  5
283
330
20A
100
AcDbEntity
  8
0
  6
Continuous
 62
     7
100
AcDbLine
 10
240.876059322
 20
161.7769067797
 30
0.0
 11
243.376059322
 21
161.7769067797
 31
0.0
  0
LINE
  5
284
330
20A
100
AcDbEntity
  8
0
  6
Continuous
 62
     7
100
AcDbLine
 10
185.6418855708
 20
163.7769067797
 30
0.0
 11
230.076059322
 21
163.7769067797
 31
0.0
  0
LINE
  5
285
330
20A
100
AcDbEntity
  8
0
  6
Continuous
 62
     7
100
AcDbLine
 10
238.876059322
 20
163.7769067797
 30
0.0
 11
243.376059322
 21
163.7769067797
 31
0.0
  0
LINE
  5
286
330
20A
100
AcDbEntity
  8
0
  6
Continuous
 62
     7
100
AcDbLine
 10
173.876059322
 20
163.9269067797
 30
0.0
 11
176.9597138466
 21
163.9269067797
 31
0.0
  0
LINE
  5
287
330
20A
100
AcDbEntity
  8
0
  6
Continuous
 62
     7
100
AcDbLine
 10
170.8219100162
 20
165.9269067797
 30
0.0
 11
177.486323837
 21
165.9269067797
 31
0.0
  0
LINE
  5
288
330
20A
100
AcDbEntity
  8
0
  6
Continuous
 62
     7
100
AcDbLine
 10
177.6067614594
 20
163.8417213454
 30
0.0
 11
184.9948379581
 21
161.8620922138999
 31
0.0
  0
LINE
  5
289
330
20A
100
AcDbEntity
  8
0
  6
Continuous
 62
     7
100
AcDbLine
 10
179.3760224889
 20
129.1269067797
 30
0.0
 11
180.876059322
 21
127.6268691458
 31
0.0
  0
LINE
  5
28A
330
20A
100
AcDbEntity
  8
0
  6
Continuous
 62
     7
100
AcDbLine
 10
177.6157333595
 20
165.9098696928
 30
0.0
 11
185.5124760483
 21
163.7939438665
 31
0.0
  0
LINE
  5
28B
330
20A
100
AcDbEntity
  8
0
  6
CENTER
100
AcDbLine
 10
246.376059322
 20
188.9269067797
 30
0.0
 11
101.2166115511254
 21
188.9269067797
 31
0.0
  0
LINE
  5
28C
330
20A
100
AcDbEntity
  8
0
  6
Continuous
 62
     7
100
AcDbLine
 10
170.876059322
 20
98.9269067797
 30
0.0
 11
170.3219273551
 21
165.4227428167
 31
0.0
  0
LINE
  5
28D
330
20A
100
AcDbEntity
  8
0
  6
Continuous
 62
     7
100
AcDbLine
 10
169.9302607293
 20
212.4227379131
 30
0.0
 11
169.8802607097
 21
218.4227402577
 31
0.0
  0
LINE
  5
28E
330
20A
100
AcDbEntity
  8
0
  6
Continuous
 62
     7
100
AcDbLine
 10
172.876059322
 20
103.9269067797
 30
0.0
 11
172.876059322
 21
162.9269067797
 31
0.0
  0
LINE
  5
28F
330
20A
100
AcDbEntity
  8
0
  6
Continuous
 62
     7
100
AcDbLine
 10
173.376059322
 20
214.9269067797
 30
0.0
 11
173.376059322
 21
215.9269067797
 31
0.0
  0
LINE
  5
290
330
20A
100
AcDbEntity
  8
0
  6
Continuous
 62
     7
100
AcDbLine
 10
174.376059322
 20
248.4269067797
 30
0.0
 11
174.376059322
 21
246.9182554112
 31
0.0
  0
LINE
  5
291
330
20A
100
AcDbEntity
  8
0
  6
Continuous
 62
     7
100
AcDbLine
 10
174.376059322
 20
234.6911872391
 30
0.0
 11
174.376059322
 21
219.4269067797
 31
0.0
  0
LINE
  5
292
330
20A
100
AcDbEntity
  8
0
  6
Continuous
 62
     7
100
AcDbLine
 10
177.6157333595
 20
211.9439438665
 30
0.0
 11
185.5124760483
 21
214.0598696928
 31
0.0
  0
LINE
  5
293
330
20A
100
AcDbEntity
  8
0
  6
Continuous
 62
     7
100
AcDbLine
 10
177.6067614594
 20
214.0120922139
 30
0.0
 11
184.9948379581
 21
215.9917213454
 31
0.0
  0
LINE
  5
294
330
20A
100
AcDbEntity
  8
0
  6
Continuous
 62
     7
100
AcDbLine
 10
42.39369772889999
 20
231.4484719664
 30
0.0
 11
38.3584209152
 21
232.5297218387
 31
0.0
  0
LINE
  5
295
330
20A
100
AcDbEntity
  8
0
  6
Continuous
 62
     7
100
AcDbLine
 10
178.2859946483
 20
120.1269067797
 30
0.0
 11
178.4975870252
 21
118.9269067797
 31
0.0
  0
LINE
  5
296
330
20A
100
AcDbEntity
  8
0
  6
Continuous
 62
     7
100
AcDbLine
 10
176.876059322
 20
229.5166203987
 30
0.0
 11
176.876059322
 21
217.9269067797
 31
0.0
  0
LINE
  5
297
330
20A
100
AcDbEntity
  8
0
  6
Continuous
 62
     9
100
AcDbLine
 10
177.486323837
 20
211.9269067797
 30
0.0
 11
177.486323837
 21
165.9269067797
 31
0.0
  0
LINE
  5
298
330
20A
100
AcDbEntity
  8
0
  6
Continuous
 62
     9
100
AcDbLine
 10
177.6157333595
 20
211.9439438665
 30
0.0
 11
177.6157333595
 21
165.9098696928
 31
0.0
  0
LINE
  5
299
330
20A
100
AcDbEntity
  8
0
  6
Continuous
 62
     7
100
AcDbLine
 10
178.2859946483
 20
125.1269067797
 30
0.0
 11
178.2859946483
 21
122.9269067797
 31
0.0
  0
LINE
  5
29A
330
20A
100
AcDbEntity
  8
0
  6
Continuous
 62
     7
100
AcDbLine
 10
180.876059322
 20
127.6268691458
 30
0.0
 11
180.876059322
 21
127.2569067797
 31
0.0
  0
LINE
  5
29B
330
20A
100
AcDbEntity
  8
0
  6
Continuous
 62
     7
100
AcDbLine
 10
180.876059322
 20
126.2569067797
 30
0.0
 11
180.876059322
 21
125.4569067797
 31
0.0
  0
LINE
  5
29C
330
20A
100
AcDbEntity
  8
0
  6
Continuous
 62
     7
100
AcDbLine
 10
180.876059322
 20
124.4569067797
 30
0.0
 11
180.876059322
 21
123.6569067797
 31
0.0
  0
LINE
  5
29D
330
20A
100
AcDbEntity
  8
0
  6
Continuous
 62
     7
100
AcDbLine
 10
180.876059322
 20
122.6569067797
 30
0.0
 11
180.876059322
 21
121.8569067797
 31
0.0
  0
LINE
  5
29E
330
20A
100
AcDbEntity
  8
0
  6
Continuous
 62
     7
100
AcDbLine
 10
180.876059322
 20
120.8569067797
 30
0.0
 11
180.876059322
 21
120.4269448605
 31
0.0
  0
LINE
  5
29F
330
20A
100
AcDbEntity
  8
0
  6
Continuous
 62
     7
100
AcDbLine
 10
181.376059322
 20
245.8133726936
 30
0.0
 11
181.376059322
 21
235.7960699567
 31
0.0
  0
LINE
  5
2A0
330
20A
100
AcDbEntity
  8
0
  6
Continuous
 62
     7
100
AcDbLine
 10
170.4302433495
 20
211.9269067797
 30
0.0
 11
177.486323837
 21
211.9269067797
 31
0.0
  0
LINE
  5
2A1
330
20A
100
AcDbEntity
  8
0
  6
Continuous
 62
     7
100
AcDbLine
 10
174.376059322
 20
213.9269067797
 30
0.0
 11
176.9597138466
 21
213.9269067797
 31
0.0
  0
LINE
  5
2A2
330
20A
100
AcDbEntity
  8
0
  6
Continuous
 62
     7
100
AcDbLine
 10
185.6418855708
 20
214.0769067797
 30
0.0
 11
230.076059322
 21
214.0769067797
 31
0.0
  0
LINE
  5
2A3
330
20A
100
AcDbEntity
  8
0
  6
Continuous
 62
     7
100
AcDbLine
 10
238.876059322
 20
214.0769067797
 30
0.0
 11
243.376059322
 21
214.0769067797
 31
0.0
  0
LINE
  5
2A4
330
20A
100
AcDbEntity
  8
0
  6
Continuous
 62
     7
100
AcDbLine
 10
185.6418855708
 20
216.0769067797
 30
0.0
 11
228.076059322
 21
216.0769067797
 31
0.0
  0
LINE
  5
2A5
330
20A
100
AcDbEntity
  8
0
  6
Continuous
 62
     7
100
AcDbLine
 10
240.876059322
 20
216.0769067797
 30
0.0
 11
243.376059322
 21
216.0769067797
 31
0.0
  0
LINE
  5
2A6
330
20A
100
AcDbEntity
  8
0
  6
Continuous
 62
     7
100
AcDbLine
 10
44.876059322
 20
216.9269067797
 30
0.0
 11
46.37605932199999
 21
216.9269067797
 31
0.0
  0
LINE
  5
2A7
330
20A
100
AcDbEntity
  8
0
  6
Continuous
 62
     7
100
AcDbLine
 10
174.376059322
 20
216.9269067797
 30
0.0
 11
175.876059322
 21
216.9269067797
 31
0.0
  0
LINE
  5
2A8
330
20A
100
AcDbEntity
  8
0
  6
Continuous
 62
     7
100
AcDbLine
 10
183.876059322
 20
246.9269067797
 30
0.0
 11
183.876059322
 21
234.4615734065
 31
0.0
  0
LINE
  5
2A9
330
20A
100
AcDbEntity
  8
0
  6
Continuous
 62
     9
100
AcDbLine
 10
185.5124760483
 20
163.7939438665
 30
0.0
 11
185.5124760483
 21
214.0598696928
 31
0.0
  0
LINE
  5
2AA
330
20A
100
AcDbEntity
  8
0
  6
Continuous
 62
     9
100
AcDbLine
 10
185.6418855708
 20
163.7769067797
 30
0.0
 11
185.6418855708
 21
214.0769067797
 31
0.0
  0
LINE
  5
2AB
330
20A
100
AcDbEntity
  8
0
  6
Continuous
 62
     7
100
AcDbLine
 10
178.4975870252
 20
129.1269067797
 30
0.0
 11
178.2859946483
 21
127.9269067797
 31
0.0
  0
LINE
  5
2AC
330
20A
100
AcDbEntity
  8
0
  6
Continuous
 62
     7
100
AcDbLine
 10
171.536280956
 20
98.9269067797
 30
0.0
 11
172.8760284265
 21
103.9269150581
 31
0.0
  0
LINE
  5
2AD
330
20A
100
AcDbEntity
  8
0
  6
Continuous
 62
     7
100
AcDbLine
 10
178.3584209152
 20
231.4484719664
 30
0.0
 11
182.3936977288999
 21
232.5297218387
 31
0.0
  0
LINE
  5
2AE
330
20A
100
AcDbEntity
  8
0
  6
Continuous
 62
     9
100
AcDbLine
 10
169.8802607097
 20
218.4227402577
 30
0.0
 11
50.87185793439999
 21
218.4227402577
 31
0.0
  0
LINE
  5
2AF
330
20A
100
AcDbEntity
  8
0
  6
Continuous
 62
     7
100
AcDbLine
 10
231.076059322
 20
218.7269067797
 30
0.0
 11
237.876059322
 21
218.7269067797
 31
0.0
  0
LINE
  5
2B0
330
20A
100
AcDbEntity
  8
0
  6
Continuous
 62
     7
100
AcDbLine
 10
173.876059322
 20
218.9269067797
 30
0.0
 11
46.87605932199999
 21
218.9269067797
 31
0.0
  0
LINE
  5
2B1
330
20A
100
AcDbEntity
  8
0
  6
Continuous
 62
     9
100
AcDbLine
 10
46.37605932199999
 20
219.4269067797
 30
0.0
 11
174.376059322
 21
219.4269067797
 31
0.0
  0
LINE
  5
2B2
330
20A
100
AcDbEntity
  8
0
  6
Continuous
 62
     7
100
AcDbLine
 10
231.076059322
 20
220.7269067797
 30
0.0
 11
237.876059322
 21
220.7269067797
 31
0.0
  0
LINE
  5
2B3
330
20A
100
AcDbEntity
  8
0
  6
Continuous
 62
     7
100
AcDbLine
 10
180.8847855253
 20
235.2961461091
 30
0.0
 11
174.8673331188
 21
235.1911110867
 31
0.0
  0
LINE
  5
2B4
330
20A
100
AcDbEntity
  8
RUNDUNGEN
  6
Continuous
 62
     9
100
AcDbLine
 10
97.99244826809999
 20
233.0454134842
 30
0.0
 11
122.7596703733
 21
233.0454134842
 31
0.0
  0
LINE
  5
2B5
330
20A
100
AcDbEntity
  8
RUNDUNGEN
  6
Continuous
 62
     9
100
AcDbLine
 10
97.92073818030001
 20
233.5283763973
 30
0.0
 11
122.831380422
 21
233.5283763973
 31
0.0
  0
LINE
  5
2B6
330
20A
100
AcDbEntity
  8
RUNDUNGEN
  6
Continuous
 62
     9
100
AcDbLine
 10
97.0512625517
 20
234.0041811333
 30
0.0
 11
97.44525992600001
 21
234.0041811333
 31
0.0
  0
LINE
  5
2B7
330
20A
100
AcDbEntity
  8
RUNDUNGEN
  6
Continuous
 62
     9
100
AcDbLine
 10
123.3068587181
 20
234.0041811339
 30
0.0
 11
123.7008560923
 21
234.0041811339
 31
0.0
  0
LINE
  5
2B8
330
20A
100
AcDbEntity
  8
0
  6
Continuous
 62
     7
100
AcDbLine
 10
39.8673331188
 20
235.2961461091
 30
0.0
 11
45.88478552529999
 21
235.1911110867
 31
0.0
  0
LINE
  5
2B9
330
20A
100
AcDbEntity
  8
0
  6
Continuous
 62
     7
100
AcDbLine
 10
179.3760220515
 20
118.9269067797
 30
0.0
 11
180.876059322
 21
120.4269448605
 31
0.0
  0
LINE
  5
2BA
330
20A
100
AcDbEntity
  8
0
  6
Continuous
 62
     9
100
AcDbLine
 10
174.376059322
 20
234.6911872391
 30
0.0
 11
123.7008560923
 21
234.6911872391
 31
0.0
  0
LINE
  5
2BB
330
20A
100
AcDbEntity
  8
RUNDUNGEN
  6
Continuous
 62
     9
100
AcDbLine
 10
123.7008560923
 20
234.6911872391
 30
0.0
 11
123.3068587181
 21
234.6911872391
 31
0.0
  0
LINE
  5
2BC
330
20A
100
AcDbEntity
  8
RUNDUNGEN
  6
Continuous
 62
     9
100
AcDbLine
 10
97.44525992600001
 20
234.6911872391
 30
0.0
 11
97.0512625517
 21
234.6911872391
 31
0.0
  0
LINE
  5
2BD
330
20A
100
AcDbEntity
  8
0
  6
Continuous
 62
     9
100
AcDbLine
 10
97.0512625517
 20
234.6911872391
 30
0.0
 11
46.37605932199999
 21
234.6911872391
 31
0.0
  0
LINE
  5
2BE
330
20A
100
AcDbEntity
  8
0
  6
Continuous
 62
     9
100
AcDbLine
 10
45.88478552529999
 20
235.1911110867
 30
0.0
 11
96.948990335
 21
235.1911110867
 31
0.0
  0
LINE
  5
2BF
330
20A
100
AcDbEntity
  8
0
  6
Continuous
 62
     9
100
AcDbLine
 10
123.8031276391
 20
235.1911110867
 30
0.0
 11
174.8673331188
 21
235.1911110867
 31
0.0
  0
LINE
  5
2C0
330
20A
100
AcDbEntity
  8
RUNDUNGEN
  6
Continuous
 62
     9
100
AcDbLine
 10
97.9337291601
 20
235.205421906
 30
0.0
 11
122.8183934775
 21
235.205421906
 31
0.0
  0
LINE
  5
2C1
330
20A
100
AcDbEntity
  8
0
  6
Continuous
 62
     9
100
AcDbLine
 10
180.8847855253
 20
235.2961461091
 30
0.0
 11
123.2570906111
 21
235.2961461092
 31
0.0
  0
LINE
  5
2C2
330
20A
100
AcDbEntity
  8
0
  6
Continuous
 62
     9
100
AcDbLine
 10
97.49502821420001
 20
235.2961461092
 30
0.0
 11
39.8673331188
 21
235.2961461091
 31
0.0
  0
LINE
  5
2C3
330
20A
100
AcDbEntity
  8
RUNDUNGEN
  6
Continuous
 62
     9
100
AcDbLine
 10
97.86826297240001
 20
235.6883848192
 30
0.0
 11
122.8836284875
 21
235.6883848192
 31
0.0
  0
LINE
  5
2C4
330
20A
100
AcDbEntity
  8
0
  6
Continuous
 62
     9
100
AcDbLine
 10
39.376059322
 20
235.7960699567
 30
0.0
 11
97.4053008199
 21
235.7960699567
 31
0.0
  0
LINE
  5
2C5
330
20A
100
AcDbEntity
  8
0
  6
Continuous
 62
     9
100
AcDbLine
 10
123.3468178311
 20
235.7960699567
 30
0.0
 11
181.376059322
 21
235.7960699567
 31
0.0
  0
LINE
  5
2C6
330
20A
100
AcDbEntity
  8
0
  6
Continuous
 62
     7
100
AcDbLine
 10
45.88478552529999
 20
246.4183315636
 30
0.0
 11
39.8673331188
 21
246.3132965412
 31
0.0
  0
LINE
  5
2C7
330
20A
100
AcDbEntity
  8
0
  6
Continuous
 62
     9
100
AcDbLine
 10
39.376059322
 20
245.8133726936
 30
0.0
 11
97.40530081950002
 21
245.8133726936
 31
0.0
  0
LINE
  5
2C8
330
20A
100
AcDbEntity
  8
0
  6
Continuous
 62
     9
100
AcDbLine
 10
123.3468178253
 20
245.8133726936
 30
0.0
 11
181.376059322
 21
245.8133726936
 31
0.0
  0
LINE
  5
2C9
330
20A
100
AcDbEntity
  8
0
  6
Continuous
 62
     9
100
AcDbLine
 10
39.8673331188
 20
246.3132965412
 30
0.0
 11
97.49502327549999
 21
246.3132965412
 31
0.0
  0
LINE
  5
2CA
330
20A
100
AcDbEntity
  8
0
  6
Continuous
 62
     9
100
AcDbLine
 10
123.2570958592
 20
246.3132965412
 30
0.0
 11
180.8847855253
 21
246.3132965412
 31
0.0
  0
LINE
  5
2CB
330
20A
100
AcDbEntity
  8
0
  6
Continuous
 62
     9
100
AcDbLine
 10
174.8673331188
 20
246.4183315636
 30
0.0
 11
123.8031277774
 21
246.4183315636
 31
0.0
  0
LINE
  5
2CC
330
20A
100
AcDbEntity
  8
0
  6
Continuous
 62
     9
100
AcDbLine
 10
96.9489902886
 20
246.4183315636
 30
0.0
 11
45.88478552529999
 21
246.4183315636
 31
0.0
  0
LINE
  5
2CD
330
20A
100
AcDbEntity
  8
RUNDUNGEN
  6
Continuous
 62
     9
100
AcDbLine
 10
98.013506171
 20
246.8089836592
 30
0.0
 11
98.42745844340001
 21
246.8089836597
 31
0.0
  0
LINE
  5
2CE
330
20A
100
AcDbEntity
  8
RUNDUNGEN
  6
Continuous
 62
     9
100
AcDbLine
 10
122.3246602007
 20
246.8089836599
 30
0.0
 11
122.7386124731
 21
246.8089836594
 31
0.0
  0
LINE
  5
2CF
330
20A
100
AcDbEntity
  8
0
  6
Continuous
 62
     9
100
AcDbLine
 10
174.376059322
 20
246.9182554112
 30
0.0
 11
123.7008560923
 21
246.9182554112
 31
0.0
  0
LINE
  5
2D0
330
20A
100
AcDbEntity
  8
0
  6
Continuous
 62
     9
100
AcDbLine
 10
97.0512625517
 20
246.9182554112
 30
0.0
 11
46.37605932199999
 21
246.9182554112
 31
0.0
  0
LINE
  5
2D1
330
20A
100
AcDbEntity
  8
RUNDUNGEN
  6
Continuous
 62
     9
100
AcDbLine
 10
97.0512625517
 20
246.9182554112
 30
0.0
 11
97.44525992600001
 21
246.9182554112
 31
0.0
  0
LINE
  5
2D2
330
20A
100
AcDbEntity
  8
RUNDUNGEN
  6
Continuous
 62
     9
100
AcDbLine
 10
123.3068587181
 20
246.9182554112
 30
0.0
 11
123.7008560923
 21
246.9182554112
 31
0.0
  0
LINE
  5
2D3
330
20A
100
AcDbEntity
  8
0
  6
Continuous
 62
     9
100
AcDbLine
 10
174.376059322
 20
248.4269067797
 30
0.0
 11
123.7008560923
 21
248.4269067797
 31
0.0
  0
LINE
  5
2D4
330
20A
100
AcDbEntity
  8
0
  6
Continuous
 62
     9
100
AcDbLine
 10
97.0512625517
 20
248.4269067797
 30
0.0
 11
46.37605932199999
 21
248.4269067797
 31
0.0
  0
LINE
  5
2D5
330
20A
100
AcDbEntity
  8
RUNDUNGEN
  6
Continuous
 62
     9
100
AcDbLine
 10
97.0512625517
 20
248.4269067797
 30
0.0
 11
123.7008560923
 21
248.4269067797
 31
0.0
  0
LINE
  5
2D6
330
20A
100
AcDbEntity
  8
0
  6
Continuous
 62
     7
100
AcDbLine
 10
96.94716257700001
 20
248.9269067797
 30
0.0
 11
38.87605932199999
 21
248.9269067797
 31
0.0
  0
LINE
  5
2D7
330
20A
100
AcDbEntity
  8
0
  6
Continuous
 62
     7
100
AcDbLine
 10
98.343313886
 20
248.9269067797
 30
0.0
 11
122.4088047538
 21
248.9269067797
 31
0.0
  0
LINE
  5
2D8
330
20A
100
AcDbEntity
  8
RUNDUNGEN
  6
Continuous
 62
     7
100
AcDbLine
 10
96.94716257700001
 20
248.9269067797
 30
0.0
 11
123.8049560671
 21
248.9269067797
 31
0.0
  0
LINE
  5
2D9
330
20A
100
AcDbEntity
  8
0
  6
Continuous
 62
     7
100
AcDbLine
 10
123.2367098222
 20
248.9269067797
 30
0.0
 11
181.876059322
 21
248.9269067797
 31
0.0
  0
LINE
  5
2DA
330
20A
100
AcDbEntity
  8
0
  6
Continuous
 62
     7
100
AcDbLine
 10
174.8673331188
 20
246.4183315636
 30
0.0
 11
180.8847855253
 21
246.3132965412
 31
0.0
  0
LINE
  5
2DB
330
20A
100
AcDbEntity
  8
0
  6
Continuous
 62
     7
100
AcDbLine
 10
228.576059322
 20
218.2269067797
 30
0.0
 11
228.576059322
 21
216.5769067797
 31
0.0
  0
LINE
  5
2DC
330
20A
100
AcDbEntity
  8
0
  6
Continuous
 62
     7
100
AcDbLine
 10
228.576059322
 20
161.2769067797
 30
0.0
 11
228.576059322
 21
159.6269067797
 31
0.0
  0
LINE
  5
2DD
330
20A
100
AcDbEntity
  8
0
  6
Continuous
 62
     9
100
AcDbLine
 10
230.076059322
 20
214.0769067797
 30
0.0
 11
230.076059322
 21
163.7769067797
 31
0.0
  0
LINE
  5
2DE
330
20A
100
AcDbEntity
  8
0
  6
Continuous
 62
     7
100
AcDbLine
 10
230.576059322
 20
218.2269067797
 30
0.0
 11
230.576059322
 21
159.6269067797
 31
0.0
  0
LINE
  5
2DF
330
20A
100
AcDbEntity
  8
0
  6
Continuous
 62
     9
100
AcDbLine
 10
231.076059322
 20
159.1269067797
 30
0.0
 11
231.076059322
 21
218.7269067797
 31
0.0
  0
LINE
  5
2E0
330
20A
100
AcDbEntity
  8
0
  6
Continuous
 62
     9
100
AcDbLine
 10
237.876059322
 20
159.1269067797
 30
0.0
 11
237.876059322
 21
218.7269067797
 31
0.0
  0
LINE
  5
2E1
330
20A
100
AcDbEntity
  8
0
  6
Continuous
 62
     7
100
AcDbLine
 10
238.376059322
 20
218.2269067797
 30
0.0
 11
238.376059322
 21
159.6269067797
 31
0.0
  0
LINE
  5
2E2
330
20A
100
AcDbEntity
  8
0
  6
Continuous
 62
     9
100
AcDbLine
 10
238.876059322
 20
214.0769067797
 30
0.0
 11
238.876059322
 21
163.7769067797
 31
0.0
  0
LINE
  5
2E3
330
20A
100
AcDbEntity
  8
0
  6
Continuous
 62
     7
100
AcDbLine
 10
240.376059322
 20
218.2269067797
 30
0.0
 11
240.376059322
 21
216.5769067797
 31
0.0
  0
LINE
  5
2E4
330
20A
100
AcDbEntity
  8
0
  6
Continuous
 62
     7
100
AcDbLine
 10
240.376059322
 20
161.2769067797
 30
0.0
 11
240.376059322
 21
159.6269067797
 31
0.0
  0
LINE
  5
2E5
330
20A
100
AcDbEntity
  8
0
  6
Continuous
 62
     7
100
AcDbLine
 10
243.376059322
 20
216.0769067797
 30
0.0
 11
243.376059322
 21
161.7769067797
 31
0.0
  0
ARC
  5
2E6
330
20A
100
AcDbEntity
  8
0
  6
Continuous
 62
     7
100
AcDbCircle
 10
39.876059322
 20
124.9569067797
 30
0.0
 40
0.5
100
AcDbArc
 50
90.0
 51
270.0
  0
ARC
  5
2E7
330
20A
100
AcDbEntity
  8
0
  6
Continuous
 62
     7
100
AcDbCircle
 10
39.876059322
 20
123.1569067797
 30
0.0
 40
0.5
100
AcDbArc
 50
90.0
 51
270.0
  0
ARC
  5
2E8
330
20A
100
AcDbEntity
  8
0
  6
Continuous
 62
     7
100
AcDbCircle
 10
39.876059322
 20
121.3569067797
 30
0.0
 40
0.5
100
AcDbArc
 50
90.0
 51
270.0
  0
ARC
  5
2E9
330
20A
100
AcDbEntity
  8
0
  6
Continuous
 62
     7
100
AcDbCircle
 10
39.876059322
 20
126.7569067797
 30
0.0
 40
0.5
100
AcDbArc
 50
90.0
 51
270.0
  0
ARC
  5
2EA
330
20A
100
AcDbEntity
  8
0
  6
Continuous
 62
     7
100
AcDbCircle
 10
47.62605932199999
 20
121.5269067797
 30
0.0
 40
0.25
100
AcDbArc
 50
282.5
 51
77.5
  0
ARC
  5
2EB
330
20A
100
AcDbEntity
  8
0
  6
Continuous
 62
     7
100
AcDbCircle
 10
47.62605932199999
 20
126.5269067797
 30
0.0
 40
0.25
100
AcDbArc
 50
282.5
 51
77.5
  0
ARC
  5
2EC
330
20A
100
AcDbEntity
  8
0
  6
Continuous
 62
     7
100
AcDbCircle
 10
38.87605932199999
 20
246.9269067797
 30
0.0
 40
2.0
100
AcDbArc
 50
90.0
 51
180.0
  0
ARC
  5
2ED
330
20A
100
AcDbEntity
  8
0
  6
Continuous
 62
     7
100
AcDbCircle
 10
45.8760593284
 20
200.3412635446
 30
0.0
 40
1.999999999799999
100
AcDbArc
 50
359.9998598728
 51
20.7056948797
  0
ARC
  5
2EE
330
20A
100
AcDbEntity
  8
0
  6
Continuous
 62
     7
100
AcDbCircle
 10
38.87605932199999
 20
234.4615734065
 30
0.0
 40
2.0
100
AcDbArc
 50
180.0
 51
254.9999906095
  0
ARC
  5
2EF
330
20A
100
AcDbEntity
  8
0
  6
Continuous
 62
     7
100
AcDbCircle
 10
41.87605932199999
 20
229.5166203987
 30
0.0
 40
2.0
100
AcDbArc
 50
0.0
 51
74.9999906095
  0
ARC
  5
2F0
330
20A
100
AcDbEntity
  8
0
  6
Continuous
 62
     7
100
AcDbCircle
 10
49.3760593268
 20
202.3948112631
 30
0.0
 40
1.9999999993
100
AcDbArc
 50
180.0001732902
 51
200.7058440488
  0
ARC
  5
2F1
330
20A
100
AcDbEntity
  8
RUNDUNGEN
  6
Continuous
 62
     9
100
AcDbCircle
 10
123.3456642175
 20
234.751024285
 30
0.0
 40
1.0450463084
100
AcDbArc
 50
89.93675188780001
 51
116.2392151078
  0
ARC
  5
2F2
330
20A
100
AcDbEntity
  8
RUNDUNGEN
  6
Continuous
 62
     9
100
AcDbCircle
 10
97.40653499149999
 20
234.752345172
 30
0.0
 40
1.043725514399999
100
AcDbArc
 50
63.7438796745
 51
90.06775041430001
  0
ARC
  5
2F3
330
20A
100
AcDbEntity
  8
0
  6
Continuous
 62
     7
100
AcDbCircle
 10
46.37605932199999
 20
215.9269067797
 30
0.0
 40
1.0
100
AcDbArc
 50
0.0
 51
90.0
  0
ARC
  5
2F4
330
20A
100
AcDbEntity
  8
0
  6
Continuous
 62
     7
100
AcDbCircle
 10
44.876059322
 20
217.9269067797
 30
0.0
 40
1.0
100
AcDbArc
 50
180.0
 51
270.0
  0
ARC
  5
2F5
330
20A
100
AcDbEntity
  8
RUNDUNGEN
  6
Continuous
 62
     9
100
AcDbCircle
 10
97.5905094476
 20
234.675048237
 30
0.0
 40
0.6317404529
100
AcDbArc
 50
49.87386749489999
 51
57.09195874369999
  0
ARC
  5
2F6
330
20A
100
AcDbEntity
  8
RUNDUNGEN
  6
Continuous
 62
     9
100
AcDbCircle
 10
123.1594848138
 20
234.6778885995
 30
0.0
 40
0.6281995616
100
AcDbArc
 50
122.8858126725
 51
130.1449380826
  0
ARC
  5
2F7
330
20A
100
AcDbEntity
  8
0
  6
Continuous
 62
     7
100
AcDbCircle
 10
39.876059322
 20
245.8133726936
 30
0.0
 40
0.5
100
AcDbArc
 50
91.0
 51
180.0
  0
ARC
  5
2F8
330
20A
100
AcDbEntity
  8
0
  6
Continuous
 62
     7
100
AcDbCircle
 10
45.87605932199999
 20
246.9182554112
 30
0.0
 40
0.5
100
AcDbArc
 50
271.0
 51
360.0
  0
ARC
  5
2F9
330
20A
100
AcDbEntity
  8
0
  6
Continuous
 62
     7
100
AcDbCircle
 10
45.87605932199999
 20
248.4269067797
 30
0.0
 40
0.5
100
AcDbArc
 50
0.0
 51
90.0
  0
ARC
  5
2FA
330
20A
100
AcDbEntity
  8
0
  6
Continuous
 62
     7
100
AcDbCircle
 10
46.87605932199999
 20
219.4269067797
 30
0.0
 40
0.5
100
AcDbArc
 50
180.0
 51
269.9999999999
  0
ARC
  5
2FB
330
20A
100
AcDbEntity
  8
0
  6
Continuous
 62
     7
100
AcDbCircle
 10
50.3718752946
 20
218.4269067797
 30
0.0
 40
0.5
100
AcDbArc
 50
359.5225462226
 51
90.0
  0
ARC
  5
2FC
330
20A
100
AcDbEntity
  8
0
  6
Continuous
 62
     7
100
AcDbCircle
 10
39.876059322
 20
235.7960699567
 30
0.0
 40
0.5
100
AcDbArc
 50
180.0
 51
269.0
  0
ARC
  5
2FD
330
20A
100
AcDbEntity
  8
0
  6
Continuous
 62
     7
100
AcDbCircle
 10
45.87605932199999
 20
234.6911872391
 30
0.0
 40
0.5
100
AcDbArc
 50
0.0
 51
89.0
  0
ARC
  5
2FE
330
20A
100
AcDbEntity
  8
RUNDUNGEN
  6
Continuous
 62
     9
100
AcDbCircle
 10
97.598993011
 20
235.0881428175
 30
0.0
 40
0.2032813681
100
AcDbArc
 50
39.8116007164
 51
49.76484256049999
  0
ARC
  5
2FF
330
20A
100
AcDbEntity
  8
RUNDUNGEN
  6
Continuous
 62
     9
100
AcDbCircle
 10
123.1523389227
 20
235.088923374
 30
0.0
 40
0.2021773382
100
AcDbArc
 50
130.2078340105
 51
140.2154278948
  0
ARC
  5
300
330
20A
100
AcDbEntity
  8
0
  6
Continuous
 62
     7
100
AcDbCircle
 10
180.876059322
 20
126.7569067797
 30
0.0
 40
0.5
100
AcDbArc
 50
270.0
 51
90.0
  0
ARC
  5
301
330
20A
100
AcDbEntity
  8
0
  6
Continuous
 62
     7
100
AcDbCircle
 10
180.876059322
 20
124.9569067797
 30
0.0
 40
0.5
100
AcDbArc
 50
270.0
 51
90.0
  0
ARC
  5
302
330
20A
100
AcDbEntity
  8
0
  6
Continuous
 62
     7
100
AcDbCircle
 10
180.876059322
 20
123.1569067797
 30
0.0
 40
0.5
100
AcDbArc
 50
270.0
 51
90.0
  0
ARC
  5
303
330
20A
100
AcDbEntity
  8
0
  6
Continuous
 62
     7
100
AcDbCircle
 10
180.876059322
 20
121.3569067797
 30
0.0
 40
0.5
100
AcDbArc
 50
270.0
 51
90.0
  0
ARC
  5
304
330
20A
100
AcDbEntity
  8
0
  6
Continuous
 62
     7
100
AcDbCircle
 10
173.126059322
 20
121.5269067797
 30
0.0
 40
0.25
100
AcDbArc
 50
102.5
 51
257.5
  0
ARC
  5
305
330
20A
100
AcDbEntity
  8
0
  6
Continuous
 62
     7
100
AcDbCircle
 10
173.126059322
 20
126.5269067797
 30
0.0
 40
0.25
100
AcDbArc
 50
102.5
 51
257.5
  0
ARC
  5
306
330
20A
100
AcDbEntity
  8
0
  6
Continuous
 62
     7
100
AcDbCircle
 10
185.6418855708
 20
164.2769067797
 30
0.0
 40
2.5
100
AcDbArc
 50
255.0
 51
270.0
  0
ARC
  5
307
330
20A
100
AcDbEntity
  8
0
  6
Continuous
 62
     7
100
AcDbCircle
 10
176.9597138466
 20
161.4269067797
 30
0.0
 40
2.5
100
AcDbArc
 50
75.0
 51
90.0
  0
ARC
  5
308
330
20A
100
AcDbEntity
  8
0
  6
Continuous
 62
     7
100
AcDbCircle
 10
173.8760588168999
 20
162.9269076059
 30
0.0
 40
0.9999999681999998
100
AcDbArc
 50
89.99998285169999
 51
180.000038634
  0
ARC
  5
309
330
20A
100
AcDbEntity
  8
0
  6
Continuous
 62
     7
100
AcDbCircle
 10
177.486323837
 20
165.4269067797
 30
0.0
 40
0.5
100
AcDbArc
 50
74.99999999989999
 51
90.0
  0
ARC
  5
30A
330
20A
100
AcDbEntity
  8
0
  6
Continuous
 62
     7
100
AcDbCircle
 10
185.6418855708
 20
164.2769067797
 30
0.0
 40
0.5
100
AcDbArc
 50
255.0
 51
270.0
  0
ARC
  5
30B
330
20A
100
AcDbEntity
  8
0
  6
Continuous
 62
     7
100
AcDbCircle
 10
170.8219085592
 20
165.4269093274
 30
0.0
 40
0.4999999458
100
AcDbArc
 50
89.9998324651
 51
180.4777507735
  0
ARC
  5
30C
330
20A
100
AcDbEntity
  8
0
  6
Continuous
 62
     7
100
AcDbCircle
 10
231.076059322
 20
159.6269067797
 30
0.0
 40
2.5
100
AcDbArc
 50
180.0
 51
270.0
  0
ARC
  5
30D
330
20A
100
AcDbEntity
  8
0
  6
Continuous
 62
     7
100
AcDbCircle
 10
237.876059322
 20
159.6269067797
 30
0.0
 40
2.5
100
AcDbArc
 50
270.0
 51
360.0
  0
ARC
  5
30E
330
20A
100
AcDbEntity
  8
0
  6
Continuous
 62
     7
100
AcDbCircle
 10
230.076059322
 20
163.2769067797
 30
0.0
 40
0.5
100
AcDbArc
 50
0.0000000001
 51
90.0
  0
ARC
  5
30F
330
20A
100
AcDbEntity
  8
0
  6
Continuous
 62
     7
100
AcDbCircle
 10
231.076059322
 20
159.6269067797
 30
0.0
 40
0.5
100
AcDbArc
 50
180.0000000001
 51
270.0
  0
ARC
  5
310
330
20A
100
AcDbEntity
  8
0
  6
Continuous
 62
     7
100
AcDbCircle
 10
228.076059322
 20
161.2769067797
 30
0.0
 40
0.5
100
AcDbArc
 50
0.0000000001
 51
90.0
  0
ARC
  5
311
330
20A
100
AcDbEntity
  8
0
  6
Continuous
 62
     7
100
AcDbCircle
 10
238.876059322
 20
163.2769067797
 30
0.0
 40
0.5
100
AcDbArc
 50
90.0
 51
179.9999999999
  0
ARC
  5
312
330
20A
100
AcDbEntity
  8
0
  6
Continuous
 62
     7
100
AcDbCircle
 10
237.876059322
 20
159.6269067797
 30
0.0
 40
0.5
100
AcDbArc
 50
270.0
 51
359.9999999998999
  0
ARC
  5
313
330
20A
100
AcDbEntity
  8
0
  6
Continuous
 62
     7
100
AcDbCircle
 10
240.876059322
 20
161.2769067797
 30
0.0
 40
0.5
100
AcDbArc
 50
90.0
 51
179.9999999999
  0
ARC
  5
314
330
20A
100
AcDbEntity
  8
0
  6
Continuous
 62
     7
100
AcDbCircle
 10
185.6418855708
 20
213.5769067797
 30
0.0
 40
2.5
100
AcDbArc
 50
90.0
 51
105.0
  0
ARC
  5
315
330
20A
100
AcDbEntity
  8
0
  6
Continuous
 62
     7
100
AcDbCircle
 10
176.9597138466
 20
216.4269067797
 30
0.0
 40
2.5
100
AcDbArc
 50
270.0
 51
285.0
  0
ARC
  5
316
330
20A
100
AcDbEntity
  8
0
  6
Continuous
 62
     7
100
AcDbCircle
 10
178.876059322
 20
229.5166203987
 30
0.0
 40
2.0
100
AcDbArc
 50
105.0000093905
 51
180.0
  0
ARC
  5
317
330
20A
100
AcDbEntity
  8
0
  6
Continuous
 62
     7
100
AcDbCircle
 10
174.376059322
 20
215.9269067797
 30
0.0
 40
1.0
100
AcDbArc
 50
90.0
 51
180.0
  0
ARC
  5
318
330
20A
100
AcDbEntity
  8
0
  6
Continuous
 62
     7
100
AcDbCircle
 10
175.876059322
 20
217.9269067797
 30
0.0
 40
1.0
100
AcDbArc
 50
270.0
 51
360.0
  0
ARC
  5
319
330
20A
100
AcDbEntity
  8
0
  6
Continuous
 62
     7
100
AcDbCircle
 10
174.3760588001
 20
214.9269059333
 30
0.0
 40
0.9999999673999999
100
AcDbArc
 50
179.9999602177
 51
270.0000181094
  0
ARC
  5
31A
330
20A
100
AcDbEntity
  8
0
  6
Continuous
 62
     7
100
AcDbCircle
 10
177.486323837
 20
212.4269067797
 30
0.0
 40
0.5
100
AcDbArc
 50
270.0
 51
285.0
  0
ARC
  5
31B
330
20A
100
AcDbEntity
  8
0
  6
Continuous
 62
     7
100
AcDbCircle
 10
185.6418855708
 20
213.5769067797
 30
0.0
 40
0.5
100
AcDbArc
 50
90.0
 51
105.0
  0
ARC
  5
31C
330
20A
100
AcDbEntity
  8
0
  6
Continuous
 62
     7
100
AcDbCircle
 10
173.876059322
 20
219.4269067797
 30
0.0
 40
0.5
100
AcDbArc
 50
270.0000000001
 51
360.0
  0
ARC
  5
31D
330
20A
100
AcDbEntity
  8
0
  6
Continuous
 62
     7
100
AcDbCircle
 10
170.3802433495
 20
218.4269067797
 30
0.0
 40
0.5
100
AcDbArc
 50
90.0
 51
180.4774537775
  0
ARC
  5
31E
330
20A
100
AcDbEntity
  8
0
  6
Continuous
 62
     7
100
AcDbCircle
 10
170.4302409018
 20
212.426902697
 30
0.0
 40
0.4999999131
100
AcDbArc
 50
180.4769825119
 51
270.0002810655
  0
ARC
  5
31F
330
20A
100
AcDbEntity
  8
0
  6
Continuous
 62
     7
100
AcDbCircle
 10
181.876059322
 20
246.9269067797
 30
0.0
 40
2.0
100
AcDbArc
 50
0.0
 51
90.0
  0
ARC
  5
320
330
20A
100
AcDbEntity
  8
0
  6
Continuous
 62
     7
100
AcDbCircle
 10
181.876059322
 20
234.4615734065
 30
0.0
 40
2.0
100
AcDbArc
 50
285.0000093905
 51
360.0
  0
ARC
  5
321
330
20A
100
AcDbEntity
  8
0
  6
Continuous
 62
     7
100
AcDbCircle
 10
180.876059322
 20
245.8133726936
 30
0.0
 40
0.5
100
AcDbArc
 50
0.0
 51
89.0
  0
ARC
  5
322
330
20A
100
AcDbEntity
  8
0
  6
Continuous
 62
     7
100
AcDbCircle
 10
174.876059322
 20
246.9182554112
 30
0.0
 40
0.5
100
AcDbArc
 50
180.0
 51
269.0
  0
ARC
  5
323
330
20A
100
AcDbEntity
  8
0
  6
Continuous
 62
     7
100
AcDbCircle
 10
174.876059322
 20
248.4269067797
 30
0.0
 40
0.5
100
AcDbArc
 50
90.0
 51
180.0
  0
ARC
  5
324
330
20A
100
AcDbEntity
  8
0
  6
Continuous
 62
     7
100
AcDbCircle
 10
180.876059322
 20
235.7960699567
 30
0.0
 40
0.5
100
AcDbArc
 50
271.0
 51
360.0
  0
ARC
  5
325
330
20A
100
AcDbEntity
  8
0
  6
Continuous
 62
     7
100
AcDbCircle
 10
174.876059322
 20
234.6911872391
 30
0.0
 40
0.5
100
AcDbArc
 50
91.0
 51
180.0
  0
ARC
  5
326
330
20A
100
AcDbEntity
  8
0
  6
Continuous
 62
     7
100
AcDbCircle
 10
231.076059322
 20
218.2269067797
 30
0.0
 40
2.5
100
AcDbArc
 50
90.0
 51
180.0
  0
ARC
  5
327
330
20A
100
AcDbEntity
  8
0
  6
Continuous
 62
     7
100
AcDbCircle
 10
237.876059322
 20
218.2269067797
 30
0.0
 40
2.5
100
AcDbArc
 50
0.0
 51
90.0
  0
ARC
  5
328
330
20A
100
AcDbEntity
  8
0
  6
Continuous
 62
     7
100
AcDbCircle
 10
230.076059322
 20
214.5769067797
 30
0.0
 40
0.5
100
AcDbArc
 50
270.0
 51
359.9999999998999
  0
ARC
  5
329
330
20A
100
AcDbEntity
  8
0
  6
Continuous
 62
     7
100
AcDbCircle
 10
231.076059322
 20
218.2269067797
 30
0.0
 40
0.5
100
AcDbArc
 50
90.0
 51
179.9999999999
  0
ARC
  5
32A
330
20A
100
AcDbEntity
  8
0
  6
Continuous
 62
     7
100
AcDbCircle
 10
228.076059322
 20
216.5769067797
 30
0.0
 40
0.5
100
AcDbArc
 50
270.0
 51
359.9999999998999
  0
ARC
  5
32B
330
20A
100
AcDbEntity
  8
0
  6
Continuous
 62
     7
100
AcDbCircle
 10
238.876059322
 20
214.5769067797
 30
0.0
 40
0.5
100
AcDbArc
 50
180.0000000001
 51
270.0
  0
ARC
  5
32C
330
20A
100
AcDbEntity
  8
0
  6
Continuous
 62
     7
100
AcDbCircle
 10
237.876059322
 20
218.2269067797
 30
0.0
 40
0.5
100
AcDbArc
 50
0.0000000001
 51
90.0
  0
ARC
  5
32D
330
20A
100
AcDbEntity
  8
0
  6
Continuous
 62
     7
100
AcDbCircle
 10
240.876059322
 20
216.5769067797
 30
0.0
 40
0.5
100
AcDbArc
 50
180.0000000001
 51
270.0
  0
SPLINE
  5
32E
330
20A
100
AcDbEntity
  8
0
  6
Continuous
 62
     9
100
AcDbSpline
210
0.0
220
0.0
230
1.0
 70
     8
 71
     3
 72
    43
 73
    39
 74
     0
 42
0.0000000001
 43
0.0000000001
 40
0.0
 40
0.0
 40
0.0
 40
0.0
 40
0.0001627044
 40
0.0006497045
 40
0.0014601678
 40
0.0025932623
 40
0.005822799
 40
0.010321548
 40
0.0160684257
 40
0.0230365591
 40
0.0311947187
 40
0.0405085114
 40
0.062447664
 40
0.0885268144
 40
0.1184007702
 40
0.1517200927
 40
0.188138586
 40
0.2273148525
 40
0.3125597268
 40
0.4045987424000001
 40
0.5002198146
 40
0.5958586478
 40
0.6879288489000001
 40
0.7731738724
 40
0.8123282965000001
 40
0.8487084754999999
 40
0.8819744189000001
 40
0.911783291
 40
0.9377906165
 40
0.9596573789
 40
0.9770631193999999
 40
0.9840026454
 40
0.9897249307999999
 40
0.9942038154999998
 40
0.9974187038
 40
0.9985465801
 40
0.999353288
 40
1.0
 40
1.0
 40
1.0
 40
1.0
 10
170.3219273764
 20
165.4227402577
 30
0.0
 10
170.3211802535
 20
165.4252463453
 30
0.0
 10
170.3168328778
 20
165.4347822368
 30
0.0
 10
170.3087320244
 20
165.4567909975
 30
0.0
 10
170.2941564199
 20
165.4930500772
 30
0.0
 10
170.263948678
 20
165.5705058486
 30
0.0
 10
170.2119091557
 20
165.7030897496
 30
0.0
 10
170.1334885115
 20
165.9049723711
 30
0.0
 10
170.0339045261
 20
166.1631003795
 30
0.0
 10
169.9142914229
 20
166.4765395975
 30
0.0
 10
169.7757735059
 20
166.8441240928
 30
0.0
 10
169.5553090907
 20
167.43796212
 30
0.0
 10
169.2423168168
 20
168.3046819975
 30
0.0
 10
168.8337591628
 20
169.4881257962
 30
0.0
 10
168.3887652764
 20
170.8523066396
 30
0.0
 10
167.9229523686
 20
172.384193287
 30
0.0
 10
167.4526324817
 20
174.0705637483
 30
0.0
 10
166.8238787017
 20
176.578306699
 30
0.0
 10
166.1311885636
 20
179.9903898792
 30
0.0
 10
165.562109384
 20
184.3437769936
 30
0.0
 10
165.3303373533
 20
188.8963928305
 30
0.0
 10
165.4755999398
 20
193.4531453025
 30
0.0
 10
165.9653203673
 20
197.8170864055
 30
0.0
 10
166.6000213666
 20
201.2407015042
 30
0.0
 10
167.1885820726
 20
203.7572042883
 30
0.0
 10
167.6326774461
 20
205.4487932795
 30
0.0
 10
168.075341309
 20
206.9849136378
 30
0.0
 10
168.5001977187
 20
208.3523017929
 30
0.0
 10
168.8915911935
 20
209.5379943684
 30
0.0
 10
169.2349547485
 20
210.5294681415
 30
0.0
 10
169.4861110242
 20
211.2284777819
 30
0.0
 10
169.6527229692
 20
211.6821142149
 30
0.0
 10
169.7485866845999
 20
211.9403924135
 30
0.0
 10
169.8243271272
 20
212.1422879207
 30
0.0
 10
169.8741310213
 20
212.2750317058
 30
0.0
 10
169.9037340659
 20
212.3523346108
 30
0.0
 10
169.9178773379
 20
212.3913208955
 30
0.0
 10
169.9272528949
 20
212.4127906071
 30
0.0
 10
169.9302607097
 20
212.4227402577
 30
0.0
  0
SPLINE
  5
32F
330
20A
100
AcDbEntity
  8
RUNDUNGEN
  6
Continuous
 62
     9
100
AcDbSpline
210
0.0
220
0.0
230
1.0
 70
     8
 71
     3
 72
    11
 73
     7
 74
     0
 42
0.0000000001
 43
0.0000000001
 40
0.0
 40
0.0
 40
0.0
 40
0.0
 40
0.2495707198
 40
0.4993727612
 40
0.7495386370000001
 40
1.0
 40
1.0
 40
1.0
 40
1.0
 10
123.8049560671
 20
248.9269067797
 30
0.0
 10
123.7401611207
 20
248.9269067797
 30
0.0
 10
123.609084989
 20
248.9008504978
 30
0.0
 10
123.4435265588
 20
248.7895077356
 30
0.0
 10
123.3327483579
 20
248.6233239427
 30
0.0
 10
123.3068587181
 20
248.4919329598
 30
0.0
 10
123.3068587181
 20
248.4269067797
 30
0.0
  0
SPLINE
  5
330
330
20A
100
AcDbEntity
  8
RUNDUNGEN
  6
Continuous
 62
     9
100
AcDbSpline
210
0.0
220
0.0
230
1.0
 70
     8
 71
     3
 72
    11
 73
     7
 74
     0
 42
0.0000000001
 43
0.0000000001
 40
0.0
 40
0.0
 40
0.0
 40
0.0
 40
0.2402656876
 40
0.4861083889000001
 40
0.7400028153
 40
1.0
 40
1.0
 40
1.0
 40
1.0
 10
97.4950500439
 20
246.3132953937
 30
0.0
 10
97.5585200617
 20
246.3130116754
 30
0.0
 10
97.6882127372
 20
246.3352442641
 30
0.0
 10
97.8601836332
 20
246.43746434
 30
0.0
 10
97.9836310441
 20
246.6026888878
 30
0.0
 10
98.01360573650001
 20
246.7403006385
 30
0.0
 10
98.01350537219999
 20
246.8089836592
 30
0.0
  0
SPLINE
  5
331
330
20A
100
AcDbEntity
  8
RUNDUNGEN
  6
Continuous
 62
     9
100
AcDbSpline
210
0.0
220
0.0
230
1.0
 70
     8
 71
     3
 72
    12
 73
     8
 74
     0
 42
0.0000000001
 43
0.0000000001
 40
0.0
 40
0.0
 40
0.0
 40
0.0
 40
0.3696113739
 40
0.6847032593000001
 40
0.9004615639
 40
0.9632868501
 40
1.0
 40
1.0
 40
1.0
 40
1.0
 10
122.3246602006
 20
248.4269067797
 30
0.0
 10
122.3246602006
 20
248.4907275309
 30
0.0
 10
122.3284063437
 20
248.6091472416
 30
0.0
 10
122.3439918053
 20
248.7634627059
 30
0.0
 10
122.3656776943
 20
248.8651215037
 30
0.0
 10
122.3872670654
 20
248.9144536814
 30
0.0
 10
122.402466022
 20
248.9269067797
 30
0.0
 10
122.4088052772
 20
248.9269067797
 30
0.0
  0
SPLINE
  5
332
330
20A
100
AcDbEntity
  8
RUNDUNGEN
  6
Continuous
 62
     9
100
AcDbSpline
210
0.0
220
0.0
230
1.0
 70
     8
 71
     3
 72
    13
 73
     9
 74
     0
 42
0.0000000001
 43
0.0000000001
 40
0.0
 40
0.0
 40
0.0
 40
0.0
 40
0.0436836783
 40
0.1107855317
 40
0.2060531461
 40
0.3283569647
 40
0.6385584743
 40
1.0
 40
1.0
 40
1.0
 40
1.0
 10
96.94897937200002
 20
246.4183315636
 30
0.0
 10
96.9565866381
 20
246.4189693415
 30
0.0
 10
96.97393343579999
 20
246.4312977359
 30
0.0
 10
96.9913086574
 20
246.4628502386
 30
0.0
 10
97.00838211209999
 20
246.5098216626
 30
0.0
 10
97.0296188959
 20
246.5996620799
 30
0.0
 10
97.0467404294
 20
246.7376991594
 30
0.0
 10
97.0512625517
 20
246.8550915896
 30
0.0
 10
97.0512625517
 20
246.9182554112
 30
0.0
  0
SPLINE
  5
333
330
20A
100
AcDbEntity
  8
RUNDUNGEN
  6
Continuous
 62
     9
100
AcDbSpline
210
0.0
220
0.0
230
1.0
 70
     8
 71
     3
 72
    11
 73
     7
 74
     0
 42
0.0000000001
 43
0.0000000001
 40
0.0
 40
0.0
 40
0.0
 40
0.0
 40
0.2504042171
 40
0.5005995171000001
 40
0.7504539505
 40
1.0
 40
1.0
 40
1.0
 40
1.0
 10
97.44525992600001
 20
246.9182554112
 30
0.0
 10
97.4450927828
 20
246.8534265949
 30
0.0
 10
97.41929725120002
 20
246.7224519058
 30
0.0
 10
97.30888065280002
 20
246.5567179435
 30
0.0
 10
97.14416126110002
 20
246.4452365051
 30
0.0
 10
97.01358549780001
 20
246.4186383836
 30
0.0
 10
96.94897937200002
 20
246.4183315636
 30
0.0
  0
SPLINE
  5
334
330
20A
100
AcDbEntity
  8
RUNDUNGEN
  6
Continuous
 62
     9
100
AcDbSpline
210
0.0
220
0.0
230
1.0
 70
     8
 71
     3
 72
    12
 73
     8
 74
     0
 42
0.0000000001
 43
0.0000000001
 40
0.0
 40
0.0
 40
0.0
 40
0.0
 40
0.0367131499
 40
0.0995384361
 40
0.3152967407
 40
0.6303886261000001
 40
1.0
 40
1.0
 40
1.0
 40
1.0
 10
98.3433133669
 20
248.9269067797
 30
0.0
 10
98.349652622
 20
248.9269067797
 30
0.0
 10
98.36485157860002
 20
248.9144536814
 30
0.0
 10
98.38644094979999
 20
248.8651215037
 30
0.0
 10
98.40812683879999
 20
248.7634627059
 30
0.0
 10
98.42371230040001
 20
248.6091472416
 30
0.0
 10
98.42745844340001
 20
248.4907275309
 30
0.0
 10
98.42745844340001
 20
248.4269067797
 30
0.0
  0
SPLINE
  5
335
330
20A
100
AcDbEntity
  8
RUNDUNGEN
  6
Continuous
 62
     9
100
AcDbSpline
210
0.0
220
0.0
230
1.0
 70
     8
 71
     3
 72
    11
 73
     7
 74
     0
 42
0.0000000001
 43
0.0000000001
 40
0.0
 40
0.0
 40
0.0
 40
0.0
 40
0.2495707198
 40
0.4993727611
 40
0.7495386370000001
 40
1.0
 40
1.0
 40
1.0
 40
1.0
 10
96.94716257700001
 20
248.9269067797
 30
0.0
 10
97.0119575234
 20
248.9269067797
 30
0.0
 10
97.14303365500001
 20
248.9008504978
 30
0.0
 10
97.30859208520001
 20
248.7895077356
 30
0.0
 10
97.4193702862
 20
248.6233239427
 30
0.0
 10
97.44525992600001
 20
248.4919329598
 30
0.0
 10
97.44525992600001
 20
248.4269067797
 30
0.0
  0
SPLINE
  5
336
330
20A
100
AcDbEntity
  8
RUNDUNGEN
  6
Continuous
 62
     9
100
AcDbSpline
210
0.0
220
0.0
230
1.0
 70
     8
 71
     3
 72
    13
 73
     9
 74
     0
 42
0.0000000001
 43
0.0000000001
 40
0.0
 40
0.0
 40
0.0
 40
0.0
 40
0.3614535337
 40
0.6716515233
 40
0.7939539966
 40
0.8892197973
 40
0.956318407
 40
1.0
 40
1.0
 40
1.0
 40
1.0
 10
123.7008560923
 20
246.9182554112
 30
0.0
 10
123.7008560923
 20
246.8550894661
 30
0.0
 10
123.7053783616
 20
246.7376954681
 30
0.0
 10
123.7225005734
 20
246.5996572398
 30
0.0
 10
123.7437375946
 20
246.5098178962
 30
0.0
 10
123.7608114134
 20
246.4628480032
 30
0.0
 10
123.7781858044
 20
246.4312960321
 30
0.0
 10
123.7955323661
 20
246.4189693113
 30
0.0
 10
123.803139272
 20
246.4183315636
 30
0.0
  0
SPLINE
  5
337
330
20A
100
AcDbEntity
  8
RUNDUNGEN
  6
Continuous
 62
     9
100
AcDbSpline
210
0.0
220
0.0
230
1.0
 70
     8
 71
     3
 72
    11
 73
     7
 74
     0
 42
0.0000000001
 43
0.0000000001
 40
0.0
 40
0.0
 40
0.0
 40
0.0
 40
0.2504585489
 40
0.5006226691000001
 40
0.750422088
 40
1.0
 40
1.0
 40
1.0
 40
1.0
 10
98.013506171
 20
248.4269067797
 30
0.0
 10
98.013506171
 20
248.4919322361
 30
0.0
 10
97.98761714660001
 20
248.6233220373
 30
0.0
 10
97.87684086670001
 20
248.7895047168
 30
0.0
 10
97.71128318569999
 20
248.9008497472
 30
0.0
 10
97.58020564250001
 20
248.9269067797
 30
0.0
 10
97.51540882190001
 20
248.9269067797
 30
0.0
  0
SPLINE
  5
338
330
20A
100
AcDbEntity
  8
RUNDUNGEN
  6
Continuous
 62
     9
100
AcDbSpline
210
0.0
220
0.0
230
1.0
 70
     8
 71
     3
 72
    12
 73
     8
 74
     0
 42
0.0000000001
 43
0.0000000001
 40
0.0
 40
0.0
 40
0.0
 40
0.0
 40
0.3648887034
 40
0.6774312456999999
 40
0.8945864645
 40
0.9599667584
 40
1.0
 40
1.0
 40
1.0
 40
1.0
 10
97.40530083200001
 20
245.8133726936
 30
0.0
 10
97.4053008305
 20
245.8765258321
 30
0.0
 10
97.40923314700001
 20
245.9939699064
 30
0.0
 10
97.42610666819999
 20
246.1475364999
 30
0.0
 10
97.4489078516
 20
246.2494191909
 30
0.0
 10
97.47259538819999
 20
246.2995395064
 30
0.0
 10
97.48815269620001
 20
246.3126375248
 30
0.0
 10
97.49505004059999
 20
246.3132965412
 30
0.0
  0
SPLINE
  5
339
330
20A
100
AcDbEntity
  8
RUNDUNGEN
  6
Continuous
 62
     9
100
AcDbSpline
210
0.0
220
0.0
230
1.0
 70
     8
 71
     3
 72
    11
 73
     7
 74
     0
 42
0.0000000001
 43
0.0000000001
 40
0.0
 40
0.0
 40
0.0
 40
0.0
 40
0.2495588226
 40
0.4994030014
 40
0.7495961797000001
 40
1.0
 40
1.0
 40
1.0
 40
1.0
 10
123.803139272
 20
246.4183315636
 30
0.0
 10
123.7385300102
 20
246.4186627699
 30
0.0
 10
123.6079534585
 20
246.4452161414
 30
0.0
 10
123.4432277859
 20
246.5567244698
 30
0.0
 10
123.3328664541
 20
246.7224544338
 30
0.0
 10
123.3069530129
 20
246.8534266014
 30
0.0
 10
123.3068587181
 20
246.9182554112
 30
0.0
  0
LINE
  5
33A
330
20A
100
AcDbEntity
  8
RUNDUNGEN
  6
Continuous
 62
     9
100
AcDbLine
 10
123.8031277774
 20
246.4183315636
 30
0.0
 11
123.2570958592
 21
246.3132965412
 31
0.0
  0
SPLINE
  5
33B
330
20A
100
AcDbEntity
  8
RUNDUNGEN
  6
Continuous
 62
     9
100
AcDbSpline
210
0.0
220
0.0
230
1.0
 70
     8
 71
     3
 72
    11
 73
     7
 74
     0
 42
0.0000000001
 43
0.0000000001
 40
0.0
 40
0.0
 40
0.0
 40
0.0
 40
0.259998385
 40
0.5138919675000001
 40
0.7597343690999999
 40
1.0
 40
1.0
 40
1.0
 40
1.0
 10
122.7386136784
 20
246.8089836594
 30
0.0
 10
122.7385132968
 20
246.740300332
 30
0.0
 10
122.7684877921
 20
246.6026884043
 30
0.0
 10
122.8919354667
 20
246.4374640691
 30
0.0
 10
123.063906034
 20
246.3352441869
 30
0.0
 10
123.1935986068
 20
246.313011652
 30
0.0
 10
123.2570686001
 20
246.3132953663
 30
0.0
  0
SPLINE
  5
33C
330
20A
100
AcDbEntity
  8
RUNDUNGEN
  6
Continuous
 62
     9
100
AcDbSpline
210
0.0
220
0.0
230
1.0
 70
     8
 71
     3
 72
    11
 73
     7
 74
     0
 42
0.0000000001
 43
0.0000000001
 40
0.0
 40
0.0
 40
0.0
 40
0.0
 40
0.249577912
 40
0.4993773309
 40
0.7495414511
 40
1.0
 40
1.0
 40
1.0
 40
1.0
 10
123.2367098222
 20
248.9269067797
 30
0.0
 10
123.1719130016
 20
248.9269067797
 30
0.0
 10
123.0408354584
 20
248.9008497472
 30
0.0
 10
122.8752777773
 20
248.7895047168
 30
0.0
 10
122.7645014975
 20
248.6233220373
 30
0.0
 10
122.7386124731
 20
248.4919322361
 30
0.0
 10
122.7386124731
 20
248.4269067797
 30
0.0
  0
LINE
  5
33D
330
20A
100
AcDbEntity
  8
RUNDUNGEN
  6
Continuous
 62
     9
100
AcDbLine
 10
97.49502327549999
 20
246.3132965412
 30
0.0
 11
96.9489902886
 21
246.4183315636
 31
0.0
  0
SPLINE
  5
33E
330
20A
100
AcDbEntity
  8
RUNDUNGEN
  6
Continuous
 62
     9
100
AcDbSpline
210
0.0
220
0.0
230
1.0
 70
     8
 71
     3
 72
    12
 73
     8
 74
     0
 42
0.0000000001
 43
0.0000000001
 40
0.0
 40
0.0
 40
0.0
 40
0.0
 40
0.0400332417
 40
0.1054135356
 40
0.3225687545
 40
0.6351112968
 40
1.0
 40
1.0
 40
1.0
 40
1.0
 10
123.2570686035
 20
246.3132965412
 30
0.0
 10
123.2639659479
 20
246.3126375248
 30
0.0
 10
123.2795232559
 20
246.2995395064
 30
0.0
 10
123.3032107925
 20
246.2494191909
 30
0.0
 10
123.326011976
 20
246.1475364999
 30
0.0
 10
123.3428854972
 20
245.9939699064
 30
0.0
 10
123.3468178136
 20
245.876525832
 30
0.0
 10
123.3468178121
 20
245.8133726936
 30
0.0
  0
SPLINE
  5
33F
330
20A
100
AcDbEntity
  8
RUNDUNGEN
  6
Continuous
 62
     9
100
AcDbSpline
210
0.0
220
0.0
230
1.0
 70
     8
 71
     3
 72
    11
 73
     7
 74
     0
 42
0.0000000001
 43
0.0000000001
 40
0.0
 40
0.0
 40
0.0
 40
0.0
 40
0.2517232764
 40
0.5024443798
 40
0.7517576047
 40
1.0
 40
1.0
 40
1.0
 40
1.0
 10
98.42745844340001
 20
246.8089836591
 30
0.0
 10
98.42744510799999
 20
246.6768263081
 30
0.0
 10
98.3721767443
 20
246.4099071833
 30
0.0
 10
98.13913984870001
 20
246.0786096153
 30
0.0
 10
97.7995072971
 20
245.8627568123
 30
0.0
 10
97.53563067219999
 20
245.8133753513
 30
0.0
 10
97.40530081950002
 20
245.8133726936
 30
0.0
  0
SPLINE
  5
340
330
20A
100
AcDbEntity
  8
RUNDUNGEN
  6
Continuous
 62
     9
100
AcDbSpline
210
0.0
220
0.0
230
1.0
 70
     8
 71
     3
 72
    11
 73
     7
 74
     0
 42
0.0000000001
 43
0.0000000001
 40
0.0
 40
0.0
 40
0.0
 40
0.0
 40
0.2482423437
 40
0.4975553836000001
 40
0.7482756884000001
 40
1.0
 40
1.0
 40
1.0
 40
1.0
 10
123.3468178253
 20
245.8133726936
 30
0.0
 10
123.2164880136
 20
245.8133752976
 30
0.0
 10
122.9526114932
 20
245.8627566623
 30
0.0
 10
122.6129795645
 20
246.0786092605
 30
0.0
 10
122.3799423726
 20
246.4099066446
 30
0.0
 10
122.3246742324
 20
246.676825779
 30
0.0
 10
122.3246602007
 20
246.8089836593
 30
0.0
  0
SPLINE
  5
341
330
20A
100
AcDbEntity
  8
0
  6
Continuous
 62
     9
100
AcDbSpline
210
0.0
220
0.0
230
1.0
 70
     8
 71
     3
 72
    59
 73
    55
 74
     0
 42
0.0000000001
 43
0.0000000001
 40
0.0
 40
0.0
 40
0.0
 40
0.0
 40
0.0000405357
 40
0.0001618841
 40
0.00036394
 40
0.0006465982
 40
0.0010097536
 40
0.0014533012
 40
0.0025811521
 40
0.0040292523
 40
0.0057957998
 40
0.0078782814
 40
0.010274167
 40
0.0159956735
 40
0.0229340971
 40
0.0310587996
 40
0.0403361675
 40
0.0507284758
 40
0.0621969331
 40
0.0881958792
 40
0.117995036
 40
0.1512520451
 40
0.1876274735
 40
0.2267860407
 40
0.2683920451
 40
0.3121010525
 40
0.4043309524
 40
0.5002355164
 40
0.5961594427
 40
0.6884229528
 40
0.7321388876999999
 40
0.7737378088
 40
0.812872297
 40
0.8492060181999999
 40
0.8824053432999999
 40
0.9121345337999999
 40
0.9380565845999999
 40
0.9494860204
 40
0.9598401006999999
 40
0.9690809572999999
 40
0.9771717518
 40
0.9840797744999999
 40
0.9897751574
 40
0.9921598305999999
 40
0.9942324262999999
 40
0.9959904765
 40
0.9974315311999999
 40
0.9985538542
 40
0.9989952179000001
 40
0.9993565810999999
 40
0.9996378424999999
 40
0.9998389004000001
 40
0.9999596534
 40
1.0
 40
1.0
 40
1.0
 40
1.0
 10
170.8219100162
 20
165.9269067797
 30
0.0
 10
170.8214005041
 20
165.927291816
 30
0.0
 10
170.821089415
 20
165.9301549503
 30
0.0
 10
170.8183033715
 20
165.9349837726
 30
0.0
 10
170.81506958
 20
165.9441063542
 30
0.0
 10
170.809891916
 20
165.9563638213
 30
0.0
 10
170.8035083028
 20
165.9723176496
 30
0.0
 10
170.7920426925
 20
166.0005468828
 30
0.0
 10
170.7742322005
 20
166.0446658304
 30
0.0
 10
170.7486154344
 20
166.1081014875
 30
0.0
 10
170.717444099
 20
166.1855183031
 30
0.0
 10
170.6807938735
 20
166.2768247793
 30
0.0
 10
170.6211286369
 20
166.4260356934
 30
0.0
 10
170.5335363008
 20
166.646473429
 30
0.0
 10
170.4137065414
 20
166.9512209635
 30
0.0
 10
170.2749065596
 20
167.3087034155
 30
0.0
 10
170.1184314978
 20
167.7176914666
 30
0.0
 10
169.9457826696
 20
168.1768884939
 30
0.0
 10
169.6849472343
 20
168.8843656166
 30
0.0
 10
169.3295849237
 20
169.8828372042
 30
0.0
 10
168.8821887611
 20
171.2127341548
 30
0.0
 10
168.4132439561
 20
172.7075640605
 30
0.0
 10
167.9390737362
 20
174.3548511451
 30
0.0
 10
167.4764950541
 20
176.1417189189
 30
0.0
 10
167.0424979588
 20
178.0545230672
 30
0.0
 10
166.5147544398
 20
180.8019293315
 30
0.0
 10
166.0249720677
 20
184.4256145057
 30
0.0
 10
165.789614775
 20
188.9000898994
 30
0.0
 10
165.9377898065
 20
193.3788839318
 30
0.0
 10
166.3600115511
 20
197.0121360367
 30
0.0
 10
166.8393244925
 20
199.7689598818
 30
0.0
 10
167.2408241254
 20
201.6884741898
 30
0.0
 10
167.6741414538
 20
203.4814942958
 30
0.0
 10
168.1222269631
 20
205.1340619041
 30
0.0
 10
168.5681733656
 20
206.6331370491
 30
0.0
 10
168.9955774405
 20
207.9662142702
 30
0.0
 10
169.3362301189
 20
208.9667093631
 30
0.0
 10
169.5867396295
 20
209.6753333174
 30
0.0
 10
169.7526897086
 20
210.1350886546
 30
0.0
 10
169.9032213994
 20
210.544478183
 30
0.0
 10
170.0368379139
 20
210.902235208
 30
0.0
 10
170.1522588547
 20
211.2071568387
 30
0.0
 10
170.2366682364
 20
211.427690585
 30
0.0
 10
170.2941799668
 20
211.5769477032
 30
0.0
 10
170.3295115427
 20
211.6682726714
 30
0.0
 10
170.3595648779
 20
211.7457008492
 30
0.0
 10
170.3842654513
 20
211.8091423838
 30
0.0
 10
170.4014376444
 20
211.8532650579
 30
0.0
 10
170.4124964714
 20
211.8814941702
 30
0.0
 10
170.4186473338
 20
211.8974509997
 30
0.0
 10
170.423653948
 20
211.9097017384
 30
0.0
 10
170.4267429089
 20
211.9188400535
 30
0.0
 10
170.4294830885
 20
211.9236416566
 30
0.0
 10
170.429728872
 20
211.9265334545
 30
0.0
 10
170.4302433495
 20
211.9269067797
 30
0.0
  0
SPLINE
  5
342
330
20A
100
AcDbEntity
  8
RUNDUNGEN
  6
Continuous
 62
     9
100
AcDbSpline
210
0.0
220
0.0
230
1.0
 70
     8
 71
     3
 72
    14
 73
    10
 74
     0
 42
0.0000000001
 43
0.0000000001
 40
0.0
 40
0.0
 40
0.0
 40
0.0
 40
0.3640575097999999
 40
0.5293519390000001
 40
0.6754773906000001
 40
0.7974200628000001
 40
0.8916647906999999
 40
0.9572808513
 40
1.0
 40
1.0
 40
1.0
 40
1.0
 10
97.0512625517
 20
248.4269067797
 30
0.0
 10
97.0512625517
 20
248.4907465083
 30
0.0
 10
97.0477172402
 20
248.5836546602
 30
0.0
 10
97.0349625064
 20
248.7014588219
 30
0.0
 10
97.0224599994
 20
248.7764626073
 30
0.0
 10
97.0075572682
 20
248.8383151169
 30
0.0
 10
96.99017770450002
 20
248.8847680909
 30
0.0
 10
96.97259798370001
 20
248.9158034809
 30
0.0
 10
96.95465364309999
 20
248.9269067797
 30
0.0
 10
96.94716257700001
 20
248.9269067797
 30
0.0
  0
LINE
  5
343
330
20A
100
AcDbEntity
  8
RUNDUNGEN
  6
Continuous
 62
     9
100
AcDbLine
 10
123.2570906111
 20
235.2961461092
 30
0.0
 11
123.8031276391
 21
235.1911110867
 31
0.0
  0
SPLINE
  5
344
330
20A
100
AcDbEntity
  8
RUNDUNGEN
  6
Continuous
 62
     9
100
AcDbSpline
210
0.0
220
0.0
230
1.0
 70
     8
 71
     3
 72
    14
 73
    10
 74
     0
 42
0.0000000001
 43
0.0000000001
 40
0.0
 40
0.0
 40
0.0
 40
0.0
 40
0.0427191388
 40
0.1083351999
 40
0.2025799367
 40
0.3245226171
 40
0.4706480465
 40
0.6359424911
 40
1.0
 40
1.0
 40
1.0
 40
1.0
 10
123.8049560671
 20
248.9269067797
 30
0.0
 10
123.7974650028
 20
248.9269067797
 30
0.0
 10
123.7795206712
 20
248.91580347
 30
0.0
 10
123.7619409306
 20
248.8847680987
 30
0.0
 10
123.7445613667
 20
248.8383151162
 30
0.0
 10
123.7296586698
 20
248.7764626018
 30
0.0
 10
123.7171561286
 20
248.7014588226
 30
0.0
 10
123.7044014074
 20
248.5836546607
 30
0.0
 10
123.7008560923
 20
248.4907465078
 30
0.0
 10
123.7008560923
 20
248.4269067797
 30
0.0
  0
LINE
  5
345
330
20A
100
AcDbEntity
  8
RUNDUNGEN
  6
Continuous
 62
     9
100
AcDbLine
 10
96.948990335
 20
235.1911110867
 30
0.0
 11
97.49502821420001
 21
235.2961461092
 31
0.0
  0
SPLINE
  5
346
330
20A
100
AcDbEntity
  8
RUNDUNGEN
  6
Continuous
 62
     9
100
AcDbSpline
210
0.0
220
0.0
230
1.0
 70
     8
 71
     3
 72
    11
 73
     7
 74
     0
 42
0.0000000001
 43
0.0000000001
 40
0.0
 40
0.0
 40
0.0
 40
0.0
 40
0.238906359
 40
0.4874910153
 40
0.7443633644
 40
1.0
 40
1.0
 40
1.0
 40
1.0
 10
122.8313771988
 20
233.528376624
 30
0.0
 10
122.8915347899
 20
233.5243525369
 30
0.0
 10
123.0174801945
 20
233.5386440551
 30
0.0
 10
123.183540412
 20
233.6399087563
 30
0.0
 10
123.2887194736
 20
233.80834503
 30
0.0
 10
123.3081358991
 20
233.9396796057
 30
0.0
 10
123.306857404
 20
234.0041811339
 30
0.0
  0
SPLINE
  5
347
330
20A
100
AcDbEntity
  8
RUNDUNGEN
  6
Continuous
 62
     9
100
AcDbSpline
210
0.0
220
0.0
230
1.0
 70
     8
 71
     3
 72
    11
 73
     7
 74
     0
 42
0.0000000001
 43
0.0000000001
 40
0.0
 40
0.0
 40
0.0
 40
0.0
 40
0.3268361261
 40
0.6203251219000001
 40
0.8514171362
 40
1.0
 40
1.0
 40
1.0
 40
1.0
 10
122.7596702095
 20
233.0454134842
 30
0.0
 10
122.7596703119
 20
233.0990185428
 30
0.0
 10
122.7627993946
 20
233.2007032594
 30
0.0
 10
122.7761801164
 20
233.3401556266
 30
0.0
 10
122.7970247102
 20
233.4480005479
 30
0.0
 10
122.8171104414
 20
233.508619727
 30
0.0
 10
122.8313772058
 20
233.5283763973
 30
0.0
  0
SPLINE
  5
348
330
20A
100
AcDbEntity
  8
RUNDUNGEN
  6
Continuous
 62
     9
100
AcDbSpline
210
0.0
220
0.0
230
1.0
 70
     8
 71
     3
 72
     9
 73
     5
 74
     0
 42
0.0000000001
 43
0.0000000001
 40
0.0
 40
0.0
 40
0.0
 40
0.0
 40
0.2531240343
 40
1.0
 40
1.0
 40
1.0
 40
1.0
 10
123.0218217625
 20
235.2433258053
 30
0.0
 10
123.0402355213
 20
235.2522052645
 30
0.0
 10
123.1149748052
 20
235.2830388735
 30
0.0
 10
123.196749784
 20
235.2964165853
 30
0.0
 10
123.2570686017
 20
235.2961468481
 30
0.0
  0
SPLINE
  5
349
330
20A
100
AcDbEntity
  8
RUNDUNGEN
  6
Continuous
 62
     9
100
AcDbSpline
210
0.0
220
0.0
230
1.0
 70
     8
 71
     3
 72
    12
 73
     8
 74
     0
 42
0.0000000001
 43
0.0000000001
 40
0.0
 40
0.0
 40
0.0
 40
0.0
 40
0.0400332337
 40
0.1054135255
 40
0.3225687461
 40
0.6351112919
 40
1.0
 40
1.0
 40
1.0
 40
1.0
 10
123.2570686039
 20
235.2961461092
 30
0.0
 10
123.2639659468
 20
235.2968051257
 30
0.0
 10
123.2795232508
 20
235.3099031462
 30
0.0
 10
123.3032107827
 20
235.3600234601
 30
0.0
 10
123.3260119675
 20
235.4619061508
 30
0.0
 10
123.3428854925
 20
235.6154727436
 30
0.0
 10
123.346817812
 20
235.7329168181
 30
0.0
 10
123.346817812
 20
235.7960699567
 30
0.0
  0
SPLINE
  5
34A
330
20A
100
AcDbEntity
  8
RUNDUNGEN
  6
Continuous
 62
     9
100
AcDbSpline
210
0.0
220
0.0
230
1.0
 70
     8
 71
     3
 72
    11
 73
     7
 74
     0
 42
0.0000000001
 43
0.0000000001
 40
0.0
 40
0.0
 40
0.0
 40
0.0
 40
0.2524372881
 40
0.5032513882
 40
0.7520969048000001
 40
1.0
 40
1.0
 40
1.0
 40
1.0
 10
97.0512625517
 20
234.0041811332
 30
0.0
 10
97.0512669746
 20
233.8790147569
 30
0.0
 10
97.0968145992
 20
233.6266538627
 30
0.0
 10
97.30381788629999
 20
233.3044650956
 30
0.0
 10
97.6202811333
 20
233.0924211411
 30
0.0
 10
97.8695300877
 20
233.0454179484
 30
0.0
 10
97.99244826809999
 20
233.0454134842
 30
0.0
  0
SPLINE
  5
34B
330
20A
100
AcDbEntity
  8
RUNDUNGEN
  6
Continuous
 62
     9
100
AcDbSpline
210
0.0
220
0.0
230
1.0
 70
     8
 71
     3
 72
    11
 73
     7
 74
     0
 42
0.0000000001
 43
0.0000000001
 40
0.0
 40
0.0
 40
0.0
 40
0.0
 40
0.2479030258
 40
0.4967484135000001
 40
0.7475621353000001
 40
1.0
 40
1.0
 40
1.0
 40
1.0
 10
122.7596703733
 20
233.0454134842
 30
0.0
 10
122.8825884927
 20
233.0454180096
 30
0.0
 10
123.1318373553
 20
233.0924206337
 30
0.0
 10
123.448300322
 20
233.3044648619
 30
0.0
 10
123.6553024465
 20
233.6266538387
 30
0.0
 10
123.7008519092
 20
233.8790144987
 30
0.0
 10
123.7008560923
 20
234.0041811338
 30
0.0
  0
SPLINE
  5
34C
330
20A
100
AcDbEntity
  8
RUNDUNGEN
  6
Continuous
 62
     9
100
AcDbSpline
210
0.0
220
0.0
230
1.0
 70
     8
 71
     3
 72
    11
 73
     7
 74
     0
 42
0.0000000001
 43
0.0000000001
 40
0.0
 40
0.0
 40
0.0
 40
0.0
 40
0.2924401085
 40
0.5337681755000001
 40
0.7650753164000001
 40
1.0
 40
1.0
 40
1.0
 40
1.0
 10
97.99764876010002
 20
235.1580943839
 30
0.0
 10
98.07008754489999
 20
235.0969878846
 30
0.0
 10
98.17678157080001
 20
234.9514811875
 30
0.0
 10
98.23606371370001
 20
234.7069357808
 30
0.0
 10
98.22901487020001
 20
234.4757000642
 30
0.0
 10
98.19265700489999
 20
234.3279695619
 30
0.0
 10
98.16818429180001
 20
234.2558789076
 30
0.0
  0
SPLINE
  5
34D
330
20A
100
AcDbEntity
  8
RUNDUNGEN
  6
Continuous
 62
     9
100
AcDbSpline
210
0.0
220
0.0
230
1.0
 70
     8
 71
     3
 72
    11
 73
     7
 74
     0
 42
0.0000000001
 43
0.0000000001
 40
0.0
 40
0.0
 40
0.0
 40
0.0
 40
0.234924873
 40
0.4662320421000001
 40
0.7075599234000001
 40
1.0
 40
1.0
 40
1.0
 40
1.0
 10
122.5839343813
 20
234.2558789092
 30
0.0
 10
122.559460718
 20
234.3279693455
 30
0.0
 10
122.523103211
 20
234.4757002984
 30
0.0
 10
122.5160545181
 20
234.7069357642
 30
0.0
 10
122.5753358018
 20
234.9514824013
 30
0.0
 10
122.6820329446
 20
235.0969856196
 30
0.0
 10
122.7544698737
 20
235.1580943756
 30
0.0
  0
SPLINE
  5
34E
330
20A
100
AcDbEntity
  8
RUNDUNGEN
  6
Continuous
 62
     9
100
AcDbSpline
210
0.0
220
0.0
230
1.0
 70
     8
 71
     3
 72
     8
 73
     4
 74
     0
 42
0.0000000001
 43
0.0000000001
 40
0.0
 40
0.0
 40
0.0
 40
0.0
 40
1.0
 40
1.0
 40
1.0
 40
1.0
 10
122.831380422
 20
233.5283763973
 30
0.0
 10
122.7487571133
 20
233.7708291298
 30
0.0
 10
122.6662761811
 20
234.0133304261
 30
0.0
 10
122.5839343813
 20
234.2558789092
 30
0.0
  0
SPLINE
  5
34F
330
20A
100
AcDbEntity
  8
RUNDUNGEN
  6
Continuous
 62
     9
100
AcDbSpline
210
0.0
220
0.0
230
1.0
 70
     8
 71
     3
 72
     8
 73
     4
 74
     0
 42
0.0000000001
 43
0.0000000001
 40
0.0
 40
0.0
 40
0.0
 40
0.0
 40
1.0
 40
1.0
 40
1.0
 40
1.0
 10
98.16818429180001
 20
234.2558789076
 30
0.0
 10
98.08584249010001
 20
234.0133304177
 30
0.0
 10
98.00336149270002
 20
233.7708291361
 30
0.0
 10
97.92073818030001
 20
233.5283763973
 30
0.0
  0
LINE
  5
350
330
20A
100
AcDbEntity
  8
RUNDUNGEN
  6
Continuous
 62
     9
100
AcDbLine
 10
97.44525992600001
 20
234.6911872351
 30
0.0
 11
97.6936312415
 21
234.7388421488
 31
0.0
  0
LINE
  5
351
330
20A
100
AcDbEntity
  8
RUNDUNGEN
  6
Continuous
 62
     9
100
AcDbLine
 10
97.6936312415
 20
234.7388421488
 30
0.0
 11
97.44525992600001
 21
234.0041813375
 31
0.0
  0
SPLINE
  5
352
330
20A
100
AcDbEntity
  8
RUNDUNGEN
  6
Continuous
 62
     9
100
AcDbSpline
210
0.0
220
0.0
230
1.0
 70
     8
 71
     3
 72
     8
 73
     4
 74
     0
 42
0.0000000001
 43
0.0000000001
 40
0.0
 40
0.0
 40
0.0
 40
0.0
 40
1.0
 40
1.0
 40
1.0
 40
1.0
 10
98.013506171
 20
246.8089836257
 30
0.0
 10
97.82411610389999
 20
246.8455391273
 30
0.0
 10
97.6347030572
 20
246.8819759178
 30
0.0
 10
97.44525992600001
 20
246.91825542
 30
0.0
  0
LINE
  5
353
330
20A
100
AcDbEntity
  8
RUNDUNGEN
  6
Continuous
 62
     9
100
AcDbLine
 10
123.3068587181
 20
234.0041813359
 30
0.0
 11
123.0584874024
 21
234.7388421494
 31
0.0
  0
LINE
  5
354
330
20A
100
AcDbEntity
  8
RUNDUNGEN
  6
Continuous
 62
     9
100
AcDbLine
 10
123.0584874024
 20
234.7388421494
 30
0.0
 11
123.3068587181
 21
234.6911872352
 31
0.0
  0
SPLINE
  5
355
330
20A
100
AcDbEntity
  8
RUNDUNGEN
  6
Continuous
 62
     9
100
AcDbSpline
210
0.0
220
0.0
230
1.0
 70
     8
 71
     3
 72
     8
 73
     4
 74
     0
 42
0.0000000001
 43
0.0000000001
 40
0.0
 40
0.0
 40
0.0
 40
0.0
 40
1.0
 40
1.0
 40
1.0
 40
1.0
 10
123.3068587181
 20
246.9182554196
 30
0.0
 10
123.1174155869
 20
246.8819759173
 30
0.0
 10
122.9280025402
 20
246.8455391268
 30
0.0
 10
122.7386124731
 20
246.8089836247
 30
0.0
  0
SPLINE
  5
356
330
20A
100
AcDbEntity
  8
RUNDUNGEN
  6
Continuous
 62
     9
100
AcDbSpline
210
0.0
220
0.0
230
1.0
 70
     8
 71
     3
 72
    11
 73
     7
 74
     0
 42
0.0000000001
 43
0.0000000001
 40
0.0
 40
0.0
 40
0.0
 40
0.0
 40
0.2527008379
 40
0.5046510720000001
 40
0.7539261018000002
 40
1.0
 40
1.0
 40
1.0
 40
1.0
 10
122.5839393087
 20
234.2558787326
 30
0.0
 10
122.6459938033
 20
234.2600501529
 30
0.0
 10
122.7695205573
 20
234.2913336293
 30
0.0
 10
122.9247692614
 20
234.4000627812
 30
0.0
 10
123.0302451255
 20
234.5557538506
 30
0.0
 10
123.0571243106
 20
234.6782939598
 30
0.0
 10
123.0584869773
 20
234.7388421525
 30
0.0
  0
SPLINE
  5
357
330
20A
100
AcDbEntity
  8
RUNDUNGEN
  6
Continuous
 62
     9
100
AcDbSpline
210
0.0
220
0.0
230
1.0
 70
     8
 71
     3
 72
    11
 73
     7
 74
     0
 42
0.0000000001
 43
0.0000000001
 40
0.0
 40
0.0
 40
0.0
 40
0.0
 40
0.1485828639
 40
0.3796748782999999
 40
0.6731638741000001
 40
1.0
 40
1.0
 40
1.0
 40
1.0
 10
97.92074143829999
 20
233.5283763973
 30
0.0
 10
97.93500820270001
 20
233.508619727
 30
0.0
 10
97.95509393389998
 20
233.4480005479
 30
0.0
 10
97.97593852780002
 20
233.3401556265
 30
0.0
 10
97.98931924950002
 20
233.2007032594
 30
0.0
 10
97.99244833220001
 20
233.0990185427
 30
0.0
 10
97.9924484346
 20
233.0454134842
 30
0.0
  0
SPLINE
  5
358
330
20A
100
AcDbEntity
  8
RUNDUNGEN
  6
Continuous
 62
     9
100
AcDbSpline
210
0.0
220
0.0
230
1.0
 70
     8
 71
     3
 72
    11
 73
     7
 74
     0
 42
0.0000000001
 43
0.0000000001
 40
0.0
 40
0.0
 40
0.0
 40
0.0
 40
0.2597181516
 40
0.503992975
 40
0.7400262428000001
 40
1.0
 40
1.0
 40
1.0
 40
1.0
 10
123.0584869773
 20
234.7388421525
 30
0.0
 10
123.0347426677
 20
234.776232672
 30
0.0
 10
122.993119947
 20
234.851837358
 30
0.0
 10
122.9515006067
 20
234.9718034672
 30
0.0
 10
122.938272986
 20
235.0988560161
 30
0.0
 10
122.9686065451
 20
235.1842244089
 30
0.0
 10
122.9969744517
 20
235.218297397
 30
0.0
  0
SPLINE
  5
359
330
20A
100
AcDbEntity
  8
RUNDUNGEN
  6
Continuous
 62
     9
100
AcDbSpline
210
0.0
220
0.0
230
1.0
 70
     8
 71
     3
 72
    11
 73
     7
 74
     0
 42
0.0000000001
 43
0.0000000001
 40
0.0
 40
0.0
 40
0.0
 40
0.0
 40
0.3278167999999999
 40
0.6219452924000001
 40
0.8529380566
 40
1.0
 40
1.0
 40
1.0
 40
1.0
 10
97.86844274049999
 20
235.6883848191
 30
0.0
 10
97.86844274049999
 20
235.6347844389
 30
0.0
 10
97.87130221600001
 20
235.5331488437
 30
0.0
 10
97.88342095879999
 20
235.3938049203
 30
0.0
 10
97.90247055080001
 20
235.2861146267
 30
0.0
 10
97.92051761399999
 20
235.2255141609
 30
0.0
 10
97.9337272983
 20
235.205421906
 30
0.0
  0
SPLINE
  5
35A
330
20A
100
AcDbEntity
  8
RUNDUNGEN
  6
Continuous
 62
     9
100
AcDbSpline
210
0.0
220
0.0
230
1.0
 70
     8
 71
     3
 72
     9
 73
     5
 74
     0
 42
0.0000000001
 43
0.0000000001
 40
0.0
 40
0.0
 40
0.0
 40
0.0
 40
0.2549452894
 40
1.0
 40
1.0
 40
1.0
 40
1.0
 10
97.9337272983
 20
235.205421906
 30
0.0
 10
97.9160727196
 20
235.204290627
 30
0.0
 10
97.84663197950001
 20
235.2039717643
 30
0.0
 10
97.77703146629999
 20
235.2212184588
 30
0.0
 10
97.73029774500001
 20
235.2433277779
 30
0.0
  0
SPLINE
  5
35B
330
20A
100
AcDbEntity
  8
RUNDUNGEN
  6
Continuous
 62
     9
100
AcDbSpline
210
0.0
220
0.0
230
1.0
 70
     8
 71
     3
 72
    14
 73
    10
 74
     0
 42
0.0000000001
 43
0.0000000001
 40
0.0
 40
0.0
 40
0.0
 40
0.0
 40
0.0412519735
 40
0.107461834
 40
0.2028113808
 40
0.3248436948
 40
0.4702023855000001
 40
0.6346452909
 40
1.0
 40
1.0
 40
1.0
 40
1.0
 10
97.73029774500001
 20
235.2433277779
 30
0.0
 10
97.72552489090001
 20
235.2477508067
 30
0.0
 10
97.72104085190001
 20
235.2658762821
 30
0.0
 10
97.72455949940001
 20
235.2971952409
 30
0.0
 10
97.73247353850001
 20
235.3415116144
 30
0.0
 10
97.74837251370001
 20
235.3964677308
 30
0.0
 10
97.77043320969999
 20
235.4609443212
 30
0.0
 10
97.80852775319999
 20
235.5604469808
 30
0.0
 10
97.8449216575
 20
235.6357712579
 30
0.0
 10
97.86844274049999
 20
235.6883848191
 30
0.0
  0
SPLINE
  5
35C
330
20A
100
AcDbEntity
  8
RUNDUNGEN
  6
Continuous
 62
     9
100
AcDbSpline
210
0.0
220
0.0
230
1.0
 70
     8
 71
     3
 72
    11
 73
     7
 74
     0
 42
0.0000000001
 43
0.0000000001
 40
0.0
 40
0.0
 40
0.0
 40
0.0
 40
0.2460738986
 40
0.4953489323
 40
0.7472991686000001
 40
1.0
 40
1.0
 40
1.0
 40
1.0
 10
97.6936312874
 20
234.7388421529
 30
0.0
 10
97.69499396120002
 20
234.6782939541
 30
0.0
 10
97.72187319389999
 20
234.5557538326
 30
0.0
 10
97.8273491947
 20
234.4000628206
 30
0.0
 10
97.98259803909999
 20
234.2913338243
 30
0.0
 10
98.10612485200001
 20
234.2600505131
 30
0.0
 10
98.16817935759999
 20
234.2558791858
 30
0.0
  0
SPLINE
  5
35D
330
20A
100
AcDbEntity
  8
RUNDUNGEN
  6
Continuous
 62
     9
100
AcDbSpline
210
0.0
220
0.0
230
1.0
 70
     8
 71
     3
 72
    11
 73
     7
 74
     0
 42
0.0000000001
 43
0.0000000001
 40
0.0
 40
0.0
 40
0.0
 40
0.0
 40
0.259973118
 40
0.4960065726
 40
0.7402815358
 40
1.0
 40
1.0
 40
1.0
 40
1.0
 10
97.75514440750001
 20
235.2182968434
 30
0.0
 10
97.78351091639999
 20
235.184222913
 30
0.0
 10
97.81384567979999
 20
235.0988560243
 30
0.0
 10
97.80061759110001
 20
234.9718032157
 30
0.0
 10
97.75899842500001
 20
234.8518372949
 30
0.0
 10
97.7173756264
 20
234.7762326445
 30
0.0
 10
97.6936312874
 20
234.7388421529
 30
0.0
  0
SPLINE
  5
35E
330
20A
100
AcDbEntity
  8
RUNDUNGEN
  6
Continuous
 62
     9
100
AcDbSpline
210
0.0
220
0.0
230
1.0
 70
     8
 71
     3
 72
     9
 73
     5
 74
     0
 42
0.0000000001
 43
0.0000000001
 40
0.0
 40
0.0
 40
0.0
 40
0.0
 40
0.7470329264
 40
1.0
 40
1.0
 40
1.0
 40
1.0
 10
97.4950500447
 20
235.2961475951
 30
0.0
 10
97.5553814885
 20
235.2964170637
 30
0.0
 10
97.6371553605
 20
235.2830328813
 30
0.0
 10
97.7118958451
 20
235.2522026008
 30
0.0
 10
97.73029769889999
 20
235.2433276787
 30
0.0
  0
SPLINE
  5
35F
330
20A
100
AcDbEntity
  8
RUNDUNGEN
  6
Continuous
 62
     9
100
AcDbSpline
210
0.0
220
0.0
230
1.0
 70
     8
 71
     3
 72
    12
 73
     8
 74
     0
 42
0.0000000001
 43
0.0000000001
 40
0.0
 40
0.0
 40
0.0
 40
0.0
 40
0.3648887092
 40
0.6774312554000001
 40
0.8945864749
 40
0.9599667664
 40
1.0
 40
1.0
 40
1.0
 40
1.0
 10
97.40530083200001
 20
235.7960699567
 30
0.0
 10
97.40530083200001
 20
235.7329168179
 30
0.0
 10
97.40923315149998
 20
235.6154727431
 30
0.0
 10
97.4261066767
 20
235.4619061503
 30
0.0
 10
97.4489078615
 20
235.3600234598
 30
0.0
 10
97.4725953933
 20
235.3099031461
 30
0.0
 10
97.4881526973
 20
235.2968051257
 30
0.0
 10
97.49505004020001
 20
235.2961461092
 30
0.0
  0
SPLINE
  5
360
330
20A
100
AcDbEntity
  8
RUNDUNGEN
  6
Continuous
 62
     9
100
AcDbSpline
210
0.0
220
0.0
230
1.0
 70
     8
 71
     3
 72
    11
 73
     7
 74
     0
 42
0.0000000001
 43
0.0000000001
 40
0.0
 40
0.0
 40
0.0
 40
0.0
 40
0.2495588232
 40
0.4994030020000001
 40
0.7495961799
 40
1.0
 40
1.0
 40
1.0
 40
1.0
 10
96.94897937200002
 20
235.1911110867
 30
0.0
 10
97.0135886341
 20
235.1907798805
 30
0.0
 10
97.14416518610001
 20
235.1642265092
 30
0.0
 10
97.3088908591
 20
235.0527181808
 30
0.0
 10
97.41925219089999
 20
234.8869882167
 30
0.0
 10
97.44516563139999
 20
234.7560160489
 30
0.0
 10
97.44525992600001
 20
234.6911872391
 30
0.0
  0
SPLINE
  5
361
330
20A
100
AcDbEntity
  8
RUNDUNGEN
  6
Continuous
 62
     9
100
AcDbSpline
210
0.0
220
0.0
230
1.0
 70
     8
 71
     3
 72
    13
 73
     9
 74
     0
 42
0.0000000001
 43
0.0000000001
 40
0.0
 40
0.0
 40
0.0
 40
0.0
 40
0.3614535337
 40
0.6716515233
 40
0.7939539966
 40
0.8892197973
 40
0.956318407
 40
1.0
 40
1.0
 40
1.0
 40
1.0
 10
97.0512625517
 20
234.6911872391
 30
0.0
 10
97.0512625517
 20
234.7543531843
 30
0.0
 10
97.04674028239999
 20
234.8717471822
 30
0.0
 10
97.0296180707
 20
235.0097854105
 30
0.0
 10
97.00838104950001
 20
235.0996247542
 30
0.0
 10
96.9913072307
 20
235.1465946471
 30
0.0
 10
96.97393283970001
 20
235.1781466182
 30
0.0
 10
96.95658627790002
 20
235.190473339
 30
0.0
 10
96.94897937200002
 20
235.1911110867
 30
0.0
  0
SPLINE
  5
362
330
20A
100
AcDbEntity
  8
RUNDUNGEN
  6
Continuous
 62
     9
100
AcDbSpline
210
0.0
220
0.0
230
1.0
 70
     8
 71
     3
 72
    11
 73
     7
 74
     0
 42
0.0000000001
 43
0.0000000001
 40
0.0
 40
0.0
 40
0.0
 40
0.0
 40
0.2556358874
 40
0.5125086523000001
 40
0.7610935482
 40
1.0
 40
1.0
 40
1.0
 40
1.0
 10
97.44526095879999
 20
234.0041811333
 30
0.0
 10
97.4439826447
 20
233.9396797773
 30
0.0
 10
97.46339867290002
 20
233.8083452666
 30
0.0
 10
97.56857789459999
 20
233.6399089192
 30
0.0
 10
97.7346383257
 20
233.5386442858
 30
0.0
 10
97.86058382200002
 20
233.5243524818
 30
0.0
 10
97.9207414452
 20
233.5283766227
 30
0.0
  0
SPLINE
  5
363
330
20A
100
AcDbEntity
  8
RUNDUNGEN
  6
Continuous
 62
     9
100
AcDbSpline
210
0.0
220
0.0
230
1.0
 70
     8
 71
     3
 72
    13
 73
     9
 74
     0
 42
0.0000000001
 43
0.0000000001
 40
0.0
 40
0.0
 40
0.0
 40
0.0
 40
0.0436836783
 40
0.1107855317
 40
0.2060531461
 40
0.3283569647
 40
0.6385584743
 40
1.0
 40
1.0
 40
1.0
 40
1.0
 10
123.803139272
 20
235.1911110867
 30
0.0
 10
123.795532006
 20
235.1904733088
 30
0.0
 10
123.7781852083
 20
235.1781449144
 30
0.0
 10
123.7608099867
 20
235.1465924118
 30
0.0
 10
123.743736532
 20
235.0996209878
 30
0.0
 10
123.7224997482
 20
235.0097805704
 30
0.0
 10
123.7053782146
 20
234.8717434909
 30
0.0
 10
123.7008560923
 20
234.7543510607
 30
0.0
 10
123.7008560923
 20
234.6911872391
 30
0.0
  0
SPLINE
  5
364
330
20A
100
AcDbEntity
  8
RUNDUNGEN
  6
Continuous
 62
     9
100
AcDbSpline
210
0.0
220
0.0
230
1.0
 70
     8
 71
     3
 72
    11
 73
     7
 74
     0
 42
0.0000000001
 43
0.0000000001
 40
0.0
 40
0.0
 40
0.0
 40
0.0
 40
0.2504042173
 40
0.5005995176
 40
0.7504539509999999
 40
1.0
 40
1.0
 40
1.0
 40
1.0
 10
123.3068587181
 20
234.6911872391
 30
0.0
 10
123.3070258615
 20
234.7560160554
 30
0.0
 10
123.3328213936
 20
234.8869907444
 30
0.0
 10
123.4432379921
 20
235.0527247065
 30
0.0
 10
123.6079573834
 20
235.1642061451
 30
0.0
 10
123.7385331465
 20
235.1908042667
 30
0.0
 10
123.803139272
 20
235.1911110867
 30
0.0
  0
SPLINE
  5
365
330
20A
100
AcDbEntity
  8
RUNDUNGEN
  6
Continuous
 62
     9
100
AcDbSpline
210
0.0
220
0.0
230
1.0
 70
     8
 71
     3
 72
    11
 73
     7
 74
     0
 42
0.0000000001
 43
0.0000000001
 40
0.0
 40
0.0
 40
0.0
 40
0.0
 40
0.1470618552
 40
0.3780545159000001
 40
0.6721831287000001
 40
1.0
 40
1.0
 40
1.0
 40
1.0
 10
122.818391346
 20
235.205421906
 30
0.0
 10
122.8316010223
 20
235.2255141488
 30
0.0
 10
122.8496480732
 20
235.2861145842
 30
0.0
 10
122.8686976931
 20
235.3938048607
 30
0.0
 10
122.8808164178
 20
235.5331488012
 30
0.0
 10
122.8836759038
 20
235.6347844266
 30
0.0
 10
122.8836759038
 20
235.6883848185
 30
0.0
  0
SPLINE
  5
366
330
20A
100
AcDbEntity
  8
RUNDUNGEN
  6
Continuous
 62
     9
100
AcDbSpline
210
0.0
220
0.0
230
1.0
 70
     8
 71
     3
 72
    12
 73
     8
 74
     0
 42
0.0000000001
 43
0.0000000001
 40
0.0
 40
0.0
 40
0.0
 40
0.0
 40
0.3656306868
 40
0.6755428777
 40
0.8927517833999999
 40
0.9598586831
 40
1.0
 40
1.0
 40
1.0
 40
1.0
 10
122.8836759038
 20
235.6883848185
 30
0.0
 10
122.9092098383
 20
235.6367155904
 30
0.0
 10
122.9522782528
 20
235.539035532
 30
0.0
 10
123.0014103341
 20
235.4076827251
 30
0.0
 10
123.0270992141
 20
235.3162293387
 30
0.0
 10
123.0301647103
 20
235.2657442974
 30
0.0
 10
123.0261393266
 20
235.247952471
 30
0.0
 10
123.0218208994
 20
235.2433277779
 30
0.0
  0
SPLINE
  5
367
330
20A
100
AcDbEntity
  8
RUNDUNGEN
  6
Continuous
 62
     9
100
AcDbSpline
210
0.0
220
0.0
230
1.0
 70
     8
 71
     3
 72
     9
 73
     5
 74
     0
 42
0.0000000001
 43
0.0000000001
 40
0.0
 40
0.0
 40
0.0
 40
0.0
 40
0.2476544419
 40
1.0
 40
1.0
 40
1.0
 40
1.0
 10
123.0218208994
 20
235.2433277779
 30
0.0
 10
123.0062850758
 20
235.2359774782
 30
0.0
 10
122.9416693409
 20
235.2103621909
 30
0.0
 10
122.8704971918
 20
235.2020982067
 30
0.0
 10
122.818391346
 20
235.205421906
 30
0.0
  0
ENDSEC
  0
SECTION
  2
OBJECTS
  0
DICTIONARY
  5
C
330
0
100
AcDbDictionary
281
     1
  3
ACAD_COLOR
350
399
  3
ACAD_GROUP
350
D
  3
ACAD_LAYOUT
350
1A
  3
ACAD_MATERIAL
350
36C
  3
ACAD_MLEADERSTYLE
350
3AE
  3
ACAD_MLINESTYLE
350
17
  3
ACAD_PLOTSETTINGS
350
19
  3
ACAD_PLOTSTYLENAME
350
E
  3
ACAD_SCALELIST
350
39C
  3
ACAD_TABLESTYLE
350
39A
  3
ACAD_VISUALSTYLE
350
385
  3
ACDB_RECOMPOSE_DATA
350
504
  3
AcDbVariableDictionary
350
4F5
  3
AcmDictionary
350
409
  3
AMG
350
3B3
  3
AMGSNAPSETTINGS
350
44E
  3
DWGPROPS
350
505
  0
DICTIONARY
  5
399
102
{ACAD_REACTORS
330
C
102
}
330
C
100
AcDbDictionary
281
     1
  0
DICTIONARY
  5
D
102
{ACAD_REACTORS
330
C
102
}
330
C
100
AcDbDictionary
281
     1
  0
DICTIONARY
  5
1A
102
{ACAD_REACTORS
330
C
102
}
330
C
100
AcDbDictionary
281
     1
  3
Layout1
350
369
  3
Model
350
368
  0
DICTIONARY
  5
36C
102
{ACAD_REACTORS
330
C
102
}
330
C
100
AcDbDictionary
281
     1
  3
ByBlock
350
375
  3
ByLayer
350
36D
  3
Global
350
37D
  0
DICTIONARY
  5
3AE
102
{ACAD_REACTORS
330
C
102
}
330
C
100
AcDbDictionary
281
     1
  3
Standard
350
3AF
  0
DICTIONARY
  5
17
102
{ACAD_REACTORS
330
C
102
}
330
C
100
AcDbDictionary
281
     1
  3
Standard
350
18
  0
DICTIONARY
  5
19
102
{ACAD_REACTORS
330
C
102
}
330
C
100
AcDbDictionary
281
     1
  0
ACDBDICTIONARYWDFLT
  5
E
102
{ACAD_REACTORS
330
C
102
}
330
C
100
AcDbDictionary
281
     1
  3
Normal
350
F
100
AcDbDictionaryWithDefault
340
F
  0
DICTIONARY
  5
39C
102
{ACAD_REACTORS
330
C
102
}
330
C
100
AcDbDictionary
281
     1
  3
A0
350
39D
  3
A1
350
39E
  3
A2
350
39F
  3
A3
350
3A0
  3
A4
350
3A1
  3
A5
350
3A2
  3
A6
350
3A3
  3
A7
350
3A4
  3
A8
350
3A5
  3
A9
350
3A6
  3
B0
350
3A7
  3
B1
350
3A8
  3
B2
350
3A9
  3
B3
350
3AA
  3
B4
350
3AB
  3
B5
350
3AC
  3
B6
350
3AD
  0
DICTIONARY
  5
39A
102
{ACAD_REACTORS
330
C
102
}
330
C
100
AcDbDictionary
281
     1
  3
Standard
350
39B
  0
DICTIONARY
  5
385
102
{ACAD_REACTORS
330
C
102
}
330
C
100
AcDbDictionary
281
     1
  3
2dWireframe
350
38B
  3
3D Hidden
350
38D
  3
3dWireframe
350
38C
  3
Basic
350
38A
  3
Brighten
350
391
  3
ColorChange
350
395
  3
Conceptual
350
38E
  3
Dim
350
390
  3
EdgeColorOff
350
398
  3
Facepattern
350
394
  3
Flat
350
386
  3
FlatWithEdges
350
387
  3
Gouraud
350
388
  3
GouraudWithEdges
350
389
  3
JitterOff
350
396
  3
Linepattern
350
393
  3
OverhangOff
350
397
  3
Realistic
350
38F
  3
Thicken
350
392
  0
XRECORD
  5
504
102
{ACAD_REACTORS
330
C
102
}
330
C
100
AcDbXrecord
280
     1
 90
        1
330
39B
  0
DICTIONARY
  5
4F5
102
{ACAD_REACTORS
330
C
102
}
330
C
100
AcDbDictionary
281
     1
  3
CANNOSCALE
350
4F9
  3
CMLEADERSTYLE
350
4F7
  3
CTABLESTYLE
350
4F6
  3
DIMASSOC
350
500
  3
HIDETEXT
350
4FF
  3
INDEXCTL
350
4FE
  3
LAYEREVAL
350
4FB
  3
LAYERNOTIFY
350
4FC
  3
LIGHTINGUNITS
350
4FA
  3
MSLTSCALE
350
4F8
  3
SORTENTS
350
4FD
  3
XCLIPFRAME
350
501
  0
DICTIONARY
  5
409
102
{ACAD_REACTORS
330
C
102
}
330
C
100
AcDbDictionary
281
     1
  3
AcmStdDictionary
350
413
  0
DICTIONARY
  5
3B3
102
{ACAD_REACTORS
330
C
102
}
330
C
100
AcDbDictionary
281
     1
  0
DICTIONARY
  5
44E
102
{ACAD_REACTORS
330
C
102
}
330
C
100
AcDbDictionary
281
     1
  0
XRECORD
  5
505
102
{ACAD_REACTORS
330
C
102
}
330
C
100
AcDbXrecord
280
     1
  1
DWGPROPS COOKIE
  2

  3

  4

  6

  7

  8
sheim
  9

300
=
301
=
302
=
303
=
304
=
305
=
306
=
307
=
308
=
309
=
 40
0.0044502430555556
 41
2456324.453174329
 42
2456324.457624213
  1

 90
        0
  0
LAYOUT
  5
369
102
{ACAD_XDICTIONARY
360
508
102
}
102
{ACAD_REACTORS
330
1A
102
}
330
1A
100
AcDbPlotSettings
  1

  2
none_device
  4
ISO_A3_(420.00_x_297.00_MM)
  6

 40
0.0
 41
0.0
 42
0.0
 43
0.0
 44
420.0
 45
297.0
 46
0.0
 47
0.0
 48
0.0
 49
0.0
140
0.0
141
0.0
142
1.0
143
1.0
 70
     0
 72
     1
 73
     0
 74
     0
  7

 75
     0
147
1.0
148
0.0
149
0.0
100
AcDbLayout
  1
Layout1
 70
     1
 71
     1
 10
0.0
 20
0.0
 11
12.0
 21
9.0
 12
0.0
 22
0.0
 32
0.0
 14
1.000000000000000E+20
 24
1.000000000000000E+20
 34
1.000000000000000E+20
 15
-1.000000000000000E+20
 25
-1.000000000000000E+20
 35
-1.000000000000000E+20
146
0.0
 13
0.0
 23
0.0
 33
0.0
 16
1.0
 26
0.0
 36
0.0
 17
0.0
 27
1.0
 37
0.0
 76
     0
330
20B
  0
LAYOUT
  5
368
102
{ACAD_XDICTIONARY
360
506
102
}
102
{ACAD_REACTORS
330
1A
102
}
330
1A
100
AcDbPlotSettings
  1

  2
none_device
  4
ISO_A3_(420.00_x_297.00_MM)
  6

 40
0.0
 41
0.0
 42
0.0
 43
0.0
 44
420.0
 45
297.0
 46
0.0
 47
0.0
 48
0.0
 49
0.0
140
0.0
141
0.0
142
1.0
143
1.0
 70
  1024
 72
     1
 73
     0
 74
     0
  7

 75
     0
147
1.0
148
0.0
149
0.0
100
AcDbLayout
  1
Model
 70
     0
 71
     0
 10
0.0
 20
0.0
 11
420.0
 21
297.0
 12
0.0
 22
0.0
 32
0.0
 14
0.0
 24
0.0
 34
0.0
 15
0.0
 25
0.0
 35
0.0
146
0.0
 13
0.0
 23
0.0
 33
0.0
 16
1.0
 26
0.0
 36
0.0
 17
0.0
 27
1.0
 37
0.0
 76
     0
330
20A
331
1F4
  0
MATERIAL
  5
375
102
{ACAD_XDICTIONARY
360
376
102
}
102
{ACAD_REACTORS
330
36C
102
}
330
36C
100
AcDbMaterial
  1
ByBlock
 72
     0
 43
0.0008202099737533
 43
0.0
 43
0.0
 43
0.0
 43
0.0
 43
0.0008202099737533
 43
0.0
 43
0.0
 43
0.0
 43
0.0
 43
1.0
 43
0.0
 43
0.0
 43
0.0
 43
0.0
 43
1.0
 77
     0
 47
0.0008202099737533
 47
0.0
 47
0.0
 47
0.0
 47
0.0
 47
0.0008202099737533
 47
0.0
 47
0.0
 47
0.0
 47
0.0
 47
1.0
 47
0.0
 47
0.0
 47
0.0
 47
0.0
 47
1.0
171
     0
 49
0.0008202099737533
 49
0.0
 49
0.0
 49
0.0
 49
0.0
 49
0.0008202099737533
 49
0.0
 49
0.0
 49
0.0
 49
0.0
 49
1.0
 49
0.0
 49
0.0
 49
0.0
 49
0.0
 49
1.0
175
     0
142
0.0008202099737533
142
0.0
142
0.0
142
0.0
142
0.0
142
0.0008202099737533
142
0.0
142
0.0
142
0.0
142
0.0
142
1.0
142
0.0
142
0.0
142
0.0
142
0.0
142
1.0
179
     0
144
0.0008202099737533
144
0.0
144
0.0
144
0.0
144
0.0
144
0.0008202099737533
144
0.0
144
0.0
144
0.0
144
0.0
144
1.0
144
0.0
144
0.0
144
0.0
144
0.0
144
1.0
147
0.0008202099737533
147
0.0
147
0.0
147
0.0
147
0.0
147
0.0008202099737533
147
0.0
147
0.0
147
0.0
147
0.0
147
1.0
147
0.0
147
0.0
147
0.0
147
0.0
147
1.0
  0
MATERIAL
  5
36D
102
{ACAD_XDICTIONARY
360
36E
102
}
102
{ACAD_REACTORS
330
36C
102
}
330
36C
100
AcDbMaterial
  1
ByLayer
 72
     0
 43
0.0008202099737533
 43
0.0
 43
0.0
 43
0.0
 43
0.0
 43
0.0008202099737533
 43
0.0
 43
0.0
 43
0.0
 43
0.0
 43
1.0
 43
0.0
 43
0.0
 43
0.0
 43
0.0
 43
1.0
 77
     0
 47
0.0008202099737533
 47
0.0
 47
0.0
 47
0.0
 47
0.0
 47
0.0008202099737533
 47
0.0
 47
0.0
 47
0.0
 47
0.0
 47
1.0
 47
0.0
 47
0.0
 47
0.0
 47
0.0
 47
1.0
171
     0
 49
0.0008202099737533
 49
0.0
 49
0.0
 49
0.0
 49
0.0
 49
0.0008202099737533
 49
0.0
 49
0.0
 49
0.0
 49
0.0
 49
1.0
 49
0.0
 49
0.0
 49
0.0
 49
0.0
 49
1.0
175
     0
142
0.0008202099737533
142
0.0
142
0.0
142
0.0
142
0.0
142
0.0008202099737533
142
0.0
142
0.0
142
0.0
142
0.0
142
1.0
142
0.0
142
0.0
142
0.0
142
0.0
142
1.0
179
     0
144
0.0008202099737533
144
0.0
144
0.0
144
0.0
144
0.0
144
0.0008202099737533
144
0.0
144
0.0
144
0.0
144
0.0
144
1.0
144
0.0
144
0.0
144
0.0
144
0.0
144
1.0
147
0.0008202099737533
147
0.0
147
0.0
147
0.0
147
0.0
147
0.0008202099737533
147
0.0
147
0.0
147
0.0
147
0.0
147
1.0
147
0.0
147
0.0
147
0.0
147
0.0
147
1.0
  0
MATERIAL
  5
37D
102
{ACAD_XDICTIONARY
360
37E
102
}
102
{ACAD_REACTORS
330
36C
102
}
330
36C
100
AcDbMaterial
  1
Global
 72
     0
 43
0.0008202099737533
 43
0.0
 43
0.0
 43
0.0
 43
0.0
 43
0.0008202099737533
 43
0.0
 43
0.0
 43
0.0
 43
0.0
 43
1.0
 43
0.0
 43
0.0
 43
0.0
 43
0.0
 43
1.0
 77
     0
 47
0.0008202099737533
 47
0.0
 47
0.0
 47
0.0
 47
0.0
 47
0.0008202099737533
 47
0.0
 47
0.0
 47
0.0
 47
0.0
 47
1.0
 47
0.0
 47
0.0
 47
0.0
 47
0.0
 47
1.0
171
     0
 49
0.0008202099737533
 49
0.0
 49
0.0
 49
0.0
 49
0.0
 49
0.0008202099737533
 49
0.0
 49
0.0
 49
0.0
 49
0.0
 49
1.0
 49
0.0
 49
0.0
 49
0.0
 49
0.0
 49
1.0
175
     0
142
0.0008202099737533
142
0.0
142
0.0
142
0.0
142
0.0
142
0.0008202099737533
142
0.0
142
0.0
142
0.0
142
0.0
142
1.0
142
0.0
142
0.0
142
0.0
142
0.0
142
1.0
179
     0
144
0.0008202099737533
144
0.0
144
0.0
144
0.0
144
0.0
144
0.0008202099737533
144
0.0
144
0.0
144
0.0
144
0.0
144
1.0
144
0.0
144
0.0
144
0.0
144
0.0
144
1.0
147
0.0008202099737533
147
0.0
147
0.0
147
0.0
147
0.0
147
0.0008202099737533
147
0.0
147
0.0
147
0.0
147
0.0
147
1.0
147
0.0
147
0.0
147
0.0
147
0.0
147
1.0
  0
MLEADERSTYLE
  5
3AF
102
{ACAD_REACTORS
330
3AE
102
}
330
3AE
100
AcDbMLeaderStyle
170
     2
171
     1
172
     0
 90
        2
 40
0.0
 41
0.0
173
     1
 91
-1056964608
340
14
 92
       -2
290
     1
 42
2.0
291
     1
 43
0.36
  3
Standard
 44
4.0
300

342
11
174
     1
178
     6
175
     1
176
     0
 93
-1056964608
 45
4.0
292
     0
297
     0
 46
4.0
 94
-1056964608
 47
1.0
 49
1.0
140
1.0
293
     1
141
0.0
294
     1
177
     0
142
1.0
295
     0
296
     0
143
0.125
1001
ACAD_MLEADERVER
1070
     2
  0
MLINESTYLE
  5
18
102
{ACAD_REACTORS
330
17
102
}
330
17
100
AcDbMlineStyle
  2
STANDARD
 70
     0
  3

 62
   256
 51
90.0
 52
90.0
 71
     2
 49
0.5
 62
   256
  6
BYLAYER
 49
-0.5
 62
   256
  6
BYLAYER
  0
ACDBPLACEHOLDER
  5
F
102
{ACAD_REACTORS
330
E
102
}
330
E
  0
SCALE
  5
39D
102
{ACAD_REACTORS
330
39C
102
}
330
39C
100
AcDbScale
 70
     0
300
1:1
140
1.0
141
1.0
290
     1
  0
SCALE
  5
39E
102
{ACAD_REACTORS
330
39C
102
}
330
39C
100
AcDbScale
 70
     0
300
1:2
140
1.0
141
2.0
290
     0
  0
SCALE
  5
39F
102
{ACAD_REACTORS
330
39C
102
}
330
39C
100
AcDbScale
 70
     0
300
1:4
140
1.0
141
4.0
290
     0
  0
SCALE
  5
3A0
102
{ACAD_REACTORS
330
39C
102
}
330
39C
100
AcDbScale
 70
     0
300
1:5
140
1.0
141
5.0
290
     0
  0
SCALE
  5
3A1
102
{ACAD_REACTORS
330
39C
102
}
330
39C
100
AcDbScale
 70
     0
300
1:8
140
1.0
141
8.0
290
     0
  0
SCALE
  5
3A2
102
{ACAD_REACTORS
330
39C
102
}
330
39C
100
AcDbScale
 70
     0
300
1:10
140
1.0
141
10.0
290
     0
  0
SCALE
  5
3A3
102
{ACAD_REACTORS
330
39C
102
}
330
39C
100
AcDbScale
 70
     0
300
1:16
140
1.0
141
16.0
290
     0
  0
SCALE
  5
3A4
102
{ACAD_REACTORS
330
39C
102
}
330
39C
100
AcDbScale
 70
     0
300
1:20
140
1.0
141
20.0
290
     0
  0
SCALE
  5
3A5
102
{ACAD_REACTORS
330
39C
102
}
330
39C
100
AcDbScale
 70
     0
300
1:30
140
1.0
141
30.0
290
     0
  0
SCALE
  5
3A6
102
{ACAD_REACTORS
330
39C
102
}
330
39C
100
AcDbScale
 70
     0
300
1:40
140
1.0
141
40.0
290
     0
  0
SCALE
  5
3A7
102
{ACAD_REACTORS
330
39C
102
}
330
39C
100
AcDbScale
 70
     0
300
1:50
140
1.0
141
50.0
290
     0
  0
SCALE
  5
3A8
102
{ACAD_REACTORS
330
39C
102
}
330
39C
100
AcDbScale
 70
     0
300
1:100
140
1.0
141
100.0
290
     0
  0
SCALE
  5
3A9
102
{ACAD_REACTORS
330
39C
102
}
330
39C
100
AcDbScale
 70
     0
300
2:1
140
2.0
141
1.0
290
     0
  0
SCALE
  5
3AA
102
{ACAD_REACTORS
330
39C
102
}
330
39C
100
AcDbScale
 70
     0
300
4:1
140
4.0
141
1.0
290
     0
  0
SCALE
  5
3AB
102
{ACAD_REACTORS
330
39C
102
}
330
39C
100
AcDbScale
 70
     0
300
8:1
140
8.0
141
1.0
290
     0
  0
SCALE
  5
3AC
102
{ACAD_REACTORS
330
39C
102
}
330
39C
100
AcDbScale
 70
     0
300
10:1
140
10.0
141
1.0
290
     0
  0
SCALE
  5
3AD
102
{ACAD_REACTORS
330
39C
102
}
330
39C
100
AcDbScale
 70
     0
300
100:1
140
100.0
141
1.0
290
     0
  0
TABLESTYLE
  5
39B
102
{ACAD_XDICTIONARY
360
502
102
}
102
{ACAD_REACTORS
330
39A
102
}
330
39A
100
AcDbTableStyle
  3
Standard
 70
     0
 71
     0
 40
1.5
 41
1.5
280
     0
281
     0
  7
STANDARD
140
4.5
170
     2
 62
     0
 63
     7
283
     0
274
    -2
284
     1
 64
     0
275
    -2
285
     1
 65
     0
276
    -2
286
     1
 66
     0
277
    -2
287
     1
 67
     0
278
    -2
288
     1
 68
     0
279
    -2
289
     1
 69
     0
  7
STANDARD
140
6.0
170
     5
 62
     0
 63
     7
283
     0
274
    -2
284
     1
 64
     0
275
    -2
285
     1
 65
     0
276
    -2
286
     1
 66
     0
277
    -2
287
     1
 67
     0
278
    -2
288
     1
 68
     0
279
    -2
289
     1
 69
     0
  7
STANDARD
140
4.5
170
     5
 62
     0
 63
     7
283
     0
274
    -2
284
     1
 64
     0
275
    -2
285
     1
 65
     0
276
    -2
286
     1
 66
     0
277
    -2
287
     1
 67
     0
278
    -2
288
     1
 68
     0
279
    -2
289
     1
 69
     0
  0
VISUALSTYLE
  5
38B
102
{ACAD_XDICTIONARY
360
517
102
}
102
{ACAD_REACTORS
330
385
102
}
330
385
100
AcDbVisualStyle
  2
2dWireframe
 70
     4
 71
     0
 72
     2
 73
     0
 90
        0
 40
-0.6
 41
-30.0
 62
     5
 63
     7
 74
     1
 91
        4
 64
     7
 65
   257
 75
     1
175
     1
 42
1.0
 92
        0
 66
   257
 43
1.0
 76
     1
 77
     6
 78
     2
 67
     7
 79
     5
170
     0
171
     0
290
     0
174
     0
 93
        1
 44
0.0
173
     0
291
     0
 45
0.0
1001
ACAD
1000
AcDbSavedByObjectVersion
1070
     0
  0
VISUALSTYLE
  5
38D
102
{ACAD_XDICTIONARY
360
51B
102
}
102
{ACAD_REACTORS
330
385
102
}
330
385
100
AcDbVisualStyle
  2
3D Hidden
 70
     6
 71
     1
 72
     2
 73
     2
 90
        0
 40
-0.6
 41
-30.0
 62
     5
 63
     7
 74
     2
 91
        2
 64
     7
 65
   257
 75
     2
175
     1
 42
179.0
 92
        0
 66
   257
 43
1.0
 76
     1
 77
     6
 78
     2
 67
     7
 79
     3
170
     0
171
     0
290
     0
174
     0
 93
        1
 44
0.0
173
     0
291
     0
 45
0.0
1001
ACAD
1000
AcDbSavedByObjectVersion
1070
     0
  0
VISUALSTYLE
  5
38C
102
{ACAD_XDICTIONARY
360
519
102
}
102
{ACAD_REACTORS
330
385
102
}
330
385
100
AcDbVisualStyle
  2
3dWireframe
 70
     5
 71
     0
 72
     2
 73
     0
 90
        0
 40
-0.6
 41
-30.0
 62
     5
 63
     7
 74
     1
 91
        4
 64
     7
 65
   257
 75
     1
175
     1
 42
1.0
 92
        0
 66
   257
 43
1.0
 76
     1
 77
     6
 78
     2
 67
     7
 79
     5
170
     0
171
     0
290
     0
174
     0
 93
        1
 44
0.0
173
     0
291
     0
 45
0.0
1001
ACAD
1000
AcDbSavedByObjectVersion
1070
     0
  0
VISUALSTYLE
  5
38A
102
{ACAD_XDICTIONARY
360
515
102
}
102
{ACAD_REACTORS
330
385
102
}
330
385
100
AcDbVisualStyle
  2
Basic
 70
     7
 71
     1
 72
     0
 73
     1
 90
        0
 40
-0.6
 41
-30.0
 62
     5
 63
     7
 74
     0
 91
        4
 64
     7
 65
   257
 75
     1
175
     1
 42
1.0
 92
        8
 66
     7
 43
1.0
 76
     1
 77
     6
 78
     2
 67
     7
 79
     5
170
     0
171
     0
290
     0
174
     0
 93
        1
 44
0.0
173
     0
291
     1
 45
0.0
1001
ACAD
1000
AcDbSavedByObjectVersion
1070
     0
  0
VISUALSTYLE
  5
391
102
{ACAD_XDICTIONARY
360
523
102
}
102
{ACAD_REACTORS
330
385
102
}
330
385
100
AcDbVisualStyle
  2
Brighten
 70
    12
 71
     2
 72
     2
 73
     0
 90
        0
 40
-0.6
 41
-30.0
 62
     5
 63
     7
 74
     1
 91
        4
 64
     7
 65
   257
 75
     1
175
     1
 42
1.0
 92
        8
 66
     7
 43
1.0
 76
     1
 77
     6
 78
     2
 67
     7
 79
     5
170
     0
171
     0
290
     0
174
     0
 93
        1
 44
50.0
173
     0
291
     1
 45
0.0
1001
ACAD
1000
AcDbSavedByObjectVersion
1070
     0
  0
VISUALSTYLE
  5
395
102
{ACAD_XDICTIONARY
360
52B
102
}
102
{ACAD_REACTORS
330
385
102
}
330
385
100
AcDbVisualStyle
  2
ColorChange
 70
    16
 71
     2
 72
     2
 73
     3
 90
        0
 40
-0.6
 41
-30.0
 62
     5
 63
     8
 74
     1
 91
        4
 64
     7
 65
   257
 75
     1
175
     1
 42
1.0
 92
        8
 66
     8
 43
1.0
 76
     1
 77
     6
 78
     2
 67
     7
 79
     5
170
     0
171
     0
290
     0
174
     0
 93
        1
 44
0.0
173
     0
291
     1
 45
0.0
1001
ACAD
1000
AcDbSavedByObjectVersion
1070
     0
  0
VISUALSTYLE
  5
38E
102
{ACAD_XDICTIONARY
360
51D
102
}
102
{ACAD_REACTORS
330
385
102
}
330
385
100
AcDbVisualStyle
  2
Conceptual
 70
     9
 71
     3
 72
     2
 73
     0
 90
        0
 40
-0.6
 41
-30.0
 62
     5
 63
     7
 74
     2
 91
        2
 64
     7
 65
   257
 75
     1
175
     1
 42
179.0
 92
        8
 66
     7
 43
1.0
 76
     1
 77
     6
 78
     2
 67
     7
 79
     3
170
     0
171
     0
290
     0
174
     0
 93
        1
 44
0.0
173
     0
291
     0
 45
0.0
1001
ACAD
1000
AcDbSavedByObjectVersion
1070
     0
  0
VISUALSTYLE
  5
390
102
{ACAD_XDICTIONARY
360
521
102
}
102
{ACAD_REACTORS
330
385
102
}
330
385
100
AcDbVisualStyle
  2
Dim
 70
    11
 71
     2
 72
     2
 73
     0
 90
        0
 40
-0.6
 41
-30.0
 62
     5
 63
     7
 74
     1
 91
        4
 64
     7
 65
   257
 75
     1
175
     1
 42
1.0
 92
        8
 66
     7
 43
1.0
 76
     1
 77
     6
 78
     2
 67
     7
 79
     5
170
     0
171
     0
290
     0
174
     0
 93
        1
 44
-50.0
173
     0
291
     1
 45
0.0
1001
ACAD
1000
AcDbSavedByObjectVersion
1070
     0
  0
VISUALSTYLE
  5
398
102
{ACAD_XDICTIONARY
360
531
102
}
102
{ACAD_REACTORS
330
385
102
}
330
385
100
AcDbVisualStyle
  2
EdgeColorOff
 70
    22
 71
     2
 72
     2
 73
     0
 90
        0
 40
-0.6
 41
-30.0
 62
     5
 63
     7
 74
     1
 91
        4
 64
     7
 65
   257
 75
     1
175
     1
 42
1.0
 92
        8
 66
     7
 43
1.0
 76
     1
 77
     6
 78
     2
 67
     7
 79
     5
170
     0
171
     0
290
     0
174
     0
 93
        1
 44
0.0
173
     0
291
     1
 45
0.0
1001
ACAD
1000
AcDbSavedByObjectVersion
1070
     0
  0
VISUALSTYLE
  5
394
102
{ACAD_XDICTIONARY
360
529
102
}
102
{ACAD_REACTORS
330
385
102
}
330
385
100
AcDbVisualStyle
  2
Facepattern
 70
    15
 71
     2
 72
     2
 73
     0
 90
        0
 40
-0.6
 41
-30.0
 62
     5
 63
     7
 74
     1
 91
        4
 64
     7
 65
   257
 75
     1
175
     1
 42
1.0
 92
        8
 66
     7
 43
1.0
 76
     1
 77
     6
 78
     2
 67
     7
 79
     5
170
     0
171
     0
290
     0
174
     0
 93
        1
 44
0.0
173
     0
291
     1
 45
0.0
1001
ACAD
1000
AcDbSavedByObjectVersion
1070
     0
  0
VISUALSTYLE
  5
386
102
{ACAD_XDICTIONARY
360
50D
102
}
102
{ACAD_REACTORS
330
385
102
}
330
385
100
AcDbVisualStyle
  2
Flat
 70
     0
 71
     2
 72
     1
 73
     1
 90
        2
 40
-0.6
 41
30.0
 62
     5
 63
     7
 74
     0
 91
        4
 64
     7
 65
   257
 75
     1
175
     1
 42
1.0
 92
        8
 66
     7
 43
1.0
 76
     1
 77
     6
 78
     2
 67
     7
 79
     5
170
     0
171
     0
290
     0
174
     0
 93
       13
 44
0.0
173
     0
291
     1
 45
0.0
1001
ACAD
1000
AcDbSavedByObjectVersion
1070
     0
  0
VISUALSTYLE
  5
387
102
{ACAD_XDICTIONARY
360
50F
102
}
102
{ACAD_REACTORS
330
385
102
}
330
385
100
AcDbVisualStyle
  2
FlatWithEdges
 70
     1
 71
     2
 72
     1
 73
     1
 90
        2
 40
-0.6
 41
30.0
 62
     5
 63
     7
 74
     1
 91
        4
 64
     7
 65
   257
 75
     1
175
     1
 42
1.0
 92
        0
 66
   257
 43
1.0
 76
     1
 77
     6
 78
     2
 67
     7
 79
     5
170
     0
171
     0
290
     0
174
     0
 93
       13
 44
0.0
173
     0
291
     1
 45
0.0
1001
ACAD
1000
AcDbSavedByObjectVersion
1070
     0
  0
VISUALSTYLE
  5
388
102
{ACAD_XDICTIONARY
360
511
102
}
102
{ACAD_REACTORS
330
385
102
}
330
385
100
AcDbVisualStyle
  2
Gouraud
 70
     2
 71
     2
 72
     2
 73
     1
 90
        2
 40
-0.6
 41
30.0
 62
     5
 63
     7
 74
     0
 91
        4
 64
     7
 65
   257
 75
     1
175
     1
 42
1.0
 92
        0
 66
     7
 43
1.0
 76
     1
 77
     6
 78
     2
 67
     7
 79
     5
170
     0
171
     0
290
     0
174
     0
 93
       13
 44
0.0
173
     0
291
     1
 45
0.0
1001
ACAD
1000
AcDbSavedByObjectVersion
1070
     0
  0
VISUALSTYLE
  5
389
102
{ACAD_XDICTIONARY
360
513
102
}
102
{ACAD_REACTORS
330
385
102
}
330
385
100
AcDbVisualStyle
  2
GouraudWithEdges
 70
     3
 71
     2
 72
     2
 73
     1
 90
        2
 40
-0.6
 41
30.0
 62
     5
 63
     7
 74
     1
 91
        4
 64
     7
 65
   257
 75
     1
175
     1
 42
1.0
 92
        0
 66
   257
 43
1.0
 76
     1
 77
     6
 78
     2
 67
     7
 79
     5
170
     0
171
     0
290
     0
174
     0
 93
       13
 44
0.0
173
     0
291
     1
 45
0.0
1001
ACAD
1000
AcDbSavedByObjectVersion
1070
     0
  0
VISUALSTYLE
  5
396
102
{ACAD_XDICTIONARY
360
52D
102
}
102
{ACAD_REACTORS
330
385
102
}
330
385
100
AcDbVisualStyle
  2
JitterOff
 70
    20
 71
     2
 72
     2
 73
     0
 90
        0
 40
-0.6
 41
-30.0
 62
     5
 63
     7
 74
     1
 91
        4
 64
     7
 65
   257
 75
     1
175
     1
 42
1.0
 92
       10
 66
     7
 43
1.0
 76
     1
 77
     6
 78
     2
 67
     7
 79
     5
170
     0
171
     0
290
     0
174
     0
 93
        1
 44
0.0
173
     0
291
     1
 45
0.0
1001
ACAD
1000
AcDbSavedByObjectVersion
1070
     0
  0
VISUALSTYLE
  5
393
102
{ACAD_XDICTIONARY
360
527
102
}
102
{ACAD_REACTORS
330
385
102
}
330
385
100
AcDbVisualStyle
  2
Linepattern
 70
    14
 71
     2
 72
     2
 73
     0
 90
        0
 40
-0.6
 41
-30.0
 62
     5
 63
     7
 74
     1
 91
        4
 64
     7
 65
   257
 75
     7
175
     7
 42
1.0
 92
        8
 66
     7
 43
1.0
 76
     1
 77
     6
 78
     2
 67
     7
 79
     5
170
     0
171
     0
290
     0
174
     0
 93
        1
 44
0.0
173
     0
291
     1
 45
0.0
1001
ACAD
1000
AcDbSavedByObjectVersion
1070
     0
  0
VISUALSTYLE
  5
397
102
{ACAD_XDICTIONARY
360
52F
102
}
102
{ACAD_REACTORS
330
385
102
}
330
385
100
AcDbVisualStyle
  2
OverhangOff
 70
    21
 71
     2
 72
     2
 73
     0
 90
        0
 40
-0.6
 41
-30.0
 62
     5
 63
     7
 74
     1
 91
        4
 64
     7
 65
   257
 75
     1
175
     1
 42
1.0
 92
        9
 66
     7
 43
1.0
 76
     1
 77
     6
 78
     2
 67
     7
 79
     5
170
     0
171
     0
290
     0
174
     0
 93
        1
 44
0.0
173
     0
291
     1
 45
0.0
1001
ACAD
1000
AcDbSavedByObjectVersion
1070
     0
  0
VISUALSTYLE
  5
38F
102
{ACAD_XDICTIONARY
360
51F
102
}
102
{ACAD_REACTORS
330
385
102
}
330
385
100
AcDbVisualStyle
  2
Realistic
 70
     8
 71
     2
 72
     2
 73
     0
 90
        0
 40
-0.6
 41
-30.0
 62
     5
 63
     7
 74
     1
 91
        0
 64
     7
 65
   257
 75
     1
175
     1
 42
1.0
 92
        8
 66
     8
 43
1.0
 76
     1
 77
     6
 78
     2
 67
     7
 79
     5
170
     0
171
     0
290
     0
174
     0
 93
       13
 44
0.0
173
     0
291
     0
 45
0.0
1001
ACAD
1000
AcDbSavedByObjectVersion
1070
     0
  0
VISUALSTYLE
  5
392
102
{ACAD_XDICTIONARY
360
525
102
}
102
{ACAD_REACTORS
330
385
102
}
330
385
100
AcDbVisualStyle
  2
Thicken
 70
    13
 71
     2
 72
     2
 73
     0
 90
        0
 40
-0.6
 41
-30.0
 62
     5
 63
     7
 74
     1
 91
        4
 64
     7
 65
   257
 75
     1
175
     1
 42
1.0
 92
       12
 66
     7
 43
1.0
 76
     1
 77
     6
 78
     2
 67
     7
 79
     5
170
     0
171
     0
290
     0
174
     0
 93
        1
 44
0.0
173
     0
291
     1
 45
0.0
1001
ACAD
1000
AcDbSavedByObjectVersion
1070
     0
  0
DICTIONARYVAR
  5
4F9
102
{ACAD_REACTORS
330
4F5
102
}
330
4F5
100
DictionaryVariables
280
     0
  1
1:1
  0
DICTIONARYVAR
  5
4F7
102
{ACAD_REACTORS
330
4F5
102
}
330
4F5
100
DictionaryVariables
280
     0
  1
STANDARD
  0
DICTIONARYVAR
  5
4F6
102
{ACAD_REACTORS
330
4F5
102
}
330
4F5
100
DictionaryVariables
280
     0
  1
STANDARD
  0
DICTIONARYVAR
  5
500
102
{ACAD_REACTORS
330
4F5
102
}
330
4F5
100
DictionaryVariables
280
     0
  1
2
  0
DICTIONARYVAR
  5
4FF
102
{ACAD_REACTORS
330
4F5
102
}
330
4F5
100
DictionaryVariables
280
     0
  1
1
  0
DICTIONARYVAR
  5
4FE
102
{ACAD_REACTORS
330
4F5
102
}
330
4F5
100
DictionaryVariables
280
     0
  1
0
  0
DICTIONARYVAR
  5
4FB
102
{ACAD_REACTORS
330
4F5
102
}
330
4F5
100
DictionaryVariables
280
     0
  1
0
  0
DICTIONARYVAR
  5
4FC
102
{ACAD_REACTORS
330
4F5
102
}
330
4F5
100
DictionaryVariables
280
     0
  1
0
  0
DICTIONARYVAR
  5
4FA
102
{ACAD_REACTORS
330
4F5
102
}
330
4F5
100
DictionaryVariables
280
     0
  1
2
  0
DICTIONARYVAR
  5
4F8
102
{ACAD_REACTORS
330
4F5
102
}
330
4F5
100
DictionaryVariables
280
     0
  1
1
  0
DICTIONARYVAR
  5
4FD
102
{ACAD_REACTORS
330
4F5
102
}
330
4F5
100
DictionaryVariables
280
     0
  1
127
  0
DICTIONARYVAR
  5
501
102
{ACAD_REACTORS
330
4F5
102
}
330
4F5
100
DictionaryVariables
280
     0
  1
2
  0
DICTIONARY
  5
413
102
{ACAD_REACTORS
330
409
102
}
330
409
100
AcDbDictionary
281
     1
  0
DICTIONARY
  5
508
330
369
100
AcDbDictionary
280
     1
281
     1
  3
ACAD_XREC_ROUNDTRIP
360
509
  0
DICTIONARY
  5
506
330
368
100
AcDbDictionary
280
     1
281
     1
  3
ACAD_XREC_ROUNDTRIP
360
507
  0
DICTIONARY
  5
376
330
375
100
AcDbDictionary
280
     1
281
     1
  3
ACAD_XREC_ROUNDTRIP
360
50B
  3
BUMPTILE
360
378
  3
DIFFUSETILE
360
377
  3
OPACITYTILE
360
37B
  3
REFLECTIONTILE
360
37A
  3
REFRACTIONTILE
360
37C
  3
SPECULARTILE
360
379
  0
DICTIONARY
  5
36E
330
36D
100
AcDbDictionary
280
     1
281
     1
  3
ACAD_XREC_ROUNDTRIP
360
50A
  3
BUMPTILE
360
370
  3
DIFFUSETILE
360
36F
  3
OPACITYTILE
360
373
  3
REFLECTIONTILE
360
372
  3
REFRACTIONTILE
360
374
  3
SPECULARTILE
360
371
  0
DICTIONARY
  5
37E
330
37D
100
AcDbDictionary
280
     1
281
     1
  3
ACAD_XREC_ROUNDTRIP
360
50C
  3
BUMPTILE
360
380
  3
DIFFUSETILE
360
37F
  3
OPACITYTILE
360
383
  3
REFLECTIONTILE
360
382
  3
REFRACTIONTILE
360
384
  3
SPECULARTILE
360
381
  0
DICTIONARY
  5
502
330
39B
100
AcDbDictionary
280
     1
281
     1
  3
ACAD_ROUNDTRIP_2008_TABLESTYLE_CELLSTYLEMAP
360
503
  3
ACAD_XREC_ROUNDTRIP
360
533
  0
DICTIONARY
  5
517
330
38B
100
AcDbDictionary
280
     1
281
     1
  3
ACAD_XREC_ROUNDTRIP
360
518
  0
DICTIONARY
  5
51B
330
38D
100
AcDbDictionary
280
     1
281
     1
  3
ACAD_XREC_ROUNDTRIP
360
51C
  0
DICTIONARY
  5
519
330
38C
100
AcDbDictionary
280
     1
281
     1
  3
ACAD_XREC_ROUNDTRIP
360
51A
  0
DICTIONARY
  5
515
330
38A
100
AcDbDictionary
280
     1
281
     1
  3
ACAD_XREC_ROUNDTRIP
360
516
  0
DICTIONARY
  5
523
330
391
100
AcDbDictionary
280
     1
281
     1
  3
ACAD_XREC_ROUNDTRIP
360
524
  0
DICTIONARY
  5
52B
330
395
100
AcDbDictionary
280
     1
281
     1
  3
ACAD_XREC_ROUNDTRIP
360
52C
  0
DICTIONARY
  5
51D
330
38E
100
AcDbDictionary
280
     1
281
     1
  3
ACAD_XREC_ROUNDTRIP
360
51E
  0
DICTIONARY
  5
521
330
390
100
AcDbDictionary
280
     1
281
     1
  3
ACAD_XREC_ROUNDTRIP
360
522
  0
DICTIONARY
  5
531
330
398
100
AcDbDictionary
280
     1
281
     1
  3
ACAD_XREC_ROUNDTRIP
360
532
  0
DICTIONARY
  5
529
330
394
100
AcDbDictionary
280
     1
281
     1
  3
ACAD_XREC_ROUNDTRIP
360
52A
  0
DICTIONARY
  5
50D
330
386
100
AcDbDictionary
280
     1
281
     1
  3
ACAD_XREC_ROUNDTRIP
360
50E
  0
DICTIONARY
  5
50F
330
387
100
AcDbDictionary
280
     1
281
     1
  3
ACAD_XREC_ROUNDTRIP
360
510
  0
DICTIONARY
  5
511
330
388
100
AcDbDictionary
280
     1
281
     1
  3
ACAD_XREC_ROUNDTRIP
360
512
  0
DICTIONARY
  5
513
330
389
100
AcDbDictionary
280
     1
281
     1
  3
ACAD_XREC_ROUNDTRIP
360
514
  0
DICTIONARY
  5
52D
330
396
100
AcDbDictionary
280
     1
281
     1
  3
ACAD_XREC_ROUNDTRIP
360
52E
  0
DICTIONARY
  5
527
330
393
100
AcDbDictionary
280
     1
281
     1
  3
ACAD_XREC_ROUNDTRIP
360
528
  0
DICTIONARY
  5
52F
330
397
100
AcDbDictionary
280
     1
281
     1
  3
ACAD_XREC_ROUNDTRIP
360
530
  0
DICTIONARY
  5
51F
330
38F
100
AcDbDictionary
280
     1
281
     1
  3
ACAD_XREC_ROUNDTRIP
360
520
  0
DICTIONARY
  5
525
330
392
100
AcDbDictionary
280
     1
281
     1
  3
ACAD_XREC_ROUNDTRIP
360
526
  0
XRECORD
  5
509
102
{ACAD_REACTORS
330
508
102
}
330
508
100
AcDbXrecord
280
     1
102
SHADEPLOT
 70
     0
102
SHADEPLOTRESLEVEL
 70
     2
102
SHADEPLOTCUSTOMDPI
 70
   300
  0
XRECORD
  5
507
102
{ACAD_REACTORS
330
506
102
}
330
506
100
AcDbXrecord
280
     1
102
SHADEPLOT
 70
     0
102
SHADEPLOTRESLEVEL
 70
     2
102
SHADEPLOTCUSTOMDPI
 70
   300
  0
XRECORD
  5
50B
102
{ACAD_REACTORS
330
376
102
}
330
376
100
AcDbXrecord
280
     1
102
MATERIAL
148
0.0
149
0.0
149
0.0
 93
        0
 94
      127
282
     0
 72
     0
 77
     0
171
     0
175
     0
179
     0
273
     0
  0
XRECORD
  5
378
102
{ACAD_REACTORS
330
376
102
}
330
376
100
AcDbXrecord
280
     1
270
     1
271
     1
  0
XRECORD
  5
377
102
{ACAD_REACTORS
330
376
102
}
330
376
100
AcDbXrecord
280
     1
270
     1
271
     1
  0
XRECORD
  5
37B
102
{ACAD_REACTORS
330
376
102
}
330
376
100
AcDbXrecord
280
     1
270
     1
271
     1
  0
XRECORD
  5
37A
102
{ACAD_REACTORS
330
376
102
}
330
376
100
AcDbXrecord
280
     1
270
     1
271
     1
  0
XRECORD
  5
37C
102
{ACAD_REACTORS
330
376
102
}
330
376
100
AcDbXrecord
280
     1
270
     1
271
     1
  0
XRECORD
  5
379
102
{ACAD_REACTORS
330
376
102
}
330
376
100
AcDbXrecord
280
     1
270
     1
271
     1
  0
XRECORD
  5
50A
102
{ACAD_REACTORS
330
36E
102
}
330
36E
100
AcDbXrecord
280
     1
102
MATERIAL
148
0.0
149
0.0
149
0.0
 93
        0
 94
      127
282
     0
 72
     0
 77
     0
171
     0
175
     0
179
     0
273
     0
  0
XRECORD
  5
370
102
{ACAD_REACTORS
330
36E
102
}
330
36E
100
AcDbXrecord
280
     1
270
     1
271
     1
  0
XRECORD
  5
36F
102
{ACAD_REACTORS
330
36E
102
}
330
36E
100
AcDbXrecord
280
     1
270
     1
271
     1
  0
XRECORD
  5
373
102
{ACAD_REACTORS
330
36E
102
}
330
36E
100
AcDbXrecord
280
     1
270
     1
271
     1
  0
XRECORD
  5
372
102
{ACAD_REACTORS
330
36E
102
}
330
36E
100
AcDbXrecord
280
     1
270
     1
271
     1
  0
XRECORD
  5
374
102
{ACAD_REACTORS
330
36E
102
}
330
36E
100
AcDbXrecord
280
     1
270
     1
271
     1
  0
XRECORD
  5
371
102
{ACAD_REACTORS
330
36E
102
}
330
36E
100
AcDbXrecord
280
     1
270
     1
271
     1
  0
XRECORD
  5
50C
102
{ACAD_REACTORS
330
37E
102
}
330
37E
100
AcDbXrecord
280
     1
102
MATERIAL
148
0.0
149
0.0
149
0.0
 93
        0
 94
      127
282
     0
 72
     0
 77
     0
171
     0
175
     0
179
     0
273
     0
  0
XRECORD
  5
380
102
{ACAD_REACTORS
330
37E
102
}
330
37E
100
AcDbXrecord
280
     1
270
     1
271
     1
  0
XRECORD
  5
37F
102
{ACAD_REACTORS
330
37E
102
}
330
37E
100
AcDbXrecord
280
     1
270
     1
271
     1
  0
XRECORD
  5
383
102
{ACAD_REACTORS
330
37E
102
}
330
37E
100
AcDbXrecord
280
     1
270
     1
271
     1
  0
XRECORD
  5
382
102
{ACAD_REACTORS
330
37E
102
}
330
37E
100
AcDbXrecord
280
     1
270
     1
271
     1
  0
XRECORD
  5
384
102
{ACAD_REACTORS
330
37E
102
}
330
37E
100
AcDbXrecord
280
     1
270
     1
271
     1
  0
XRECORD
  5
381
102
{ACAD_REACTORS
330
37E
102
}
330
37E
100
AcDbXrecord
280
     1
270
     1
271
     1
  0
CELLSTYLEMAP
  5
503
102
{ACAD_REACTORS
330
502
102
}
330
502
100
AcDbCellStyleMap
 90
        3
300
CELLSTYLE
  1
TABLEFORMAT_BEGIN
 90
        5
170
     1
 91
        0
 92
    32768
 62
   257
 93
        1
300
CONTENTFORMAT
  1
CONTENTFORMAT_BEGIN
 90
        0
 91
        0
 92
      512
 93
        0
300

 40
0.0
140
1.0
 94
        5
 62
     0
340
11
144
6.0
309
CONTENTFORMAT_END
171
     1
301
MARGIN
  1
CELLMARGIN_BEGIN
 40
1.5
 40
1.5
 40
1.5
 40
1.5
 40
4.5
 40
4.5
309
CELLMARGIN_END
 94
        6
 95
        1
302
GRIDFORMAT
  1
GRIDFORMAT_BEGIN
 90
        0
 91
        1
 62
     0
 92
       -2
340
0
 93
        0
 40
1.125
309
GRIDFORMAT_END
 95
        2
302
GRIDFORMAT
  1
GRIDFORMAT_BEGIN
 90
        0
 91
        1
 62
     0
 92
       -2
340
0
 93
        0
 40
1.125
309
GRIDFORMAT_END
 95
        4
302
GRIDFORMAT
  1
GRIDFORMAT_BEGIN
 90
        0
 91
        1
 62
     0
 92
       -2
340
0
 93
        0
 40
1.125
309
GRIDFORMAT_END
 95
        8
302
GRIDFORMAT
  1
GRIDFORMAT_BEGIN
 90
        0
 91
        1
 62
     0
 92
       -2
340
0
 93
        0
 40
1.125
309
GRIDFORMAT_END
 95
       16
302
GRIDFORMAT
  1
GRIDFORMAT_BEGIN
 90
        0
 91
        1
 62
     0
 92
       -2
340
0
 93
        0
 40
1.125
309
GRIDFORMAT_END
 95
       32
302
GRIDFORMAT
  1
GRIDFORMAT_BEGIN
 90
        0
 91
        1
 62
     0
 92
       -2
340
0
 93
        0
 40
1.125
309
GRIDFORMAT_END
309
TABLEFORMAT_END
  1
CELLSTYLE_BEGIN
 90
        1
 91
        1
300
_TITLE
309
CELLSTYLE_END
300
CELLSTYLE
  1
TABLEFORMAT_BEGIN
 90
        5
170
     1
 91
        0
 92
        0
 62
   257
 93
        1
300
CONTENTFORMAT
  1
CONTENTFORMAT_BEGIN
 90
        0
 91
        0
 92
      512
 93
        0
300

 40
0.0
140
1.0
 94
        5
 62
     0
340
11
144
4.5
309
CONTENTFORMAT_END
171
     1
301
MARGIN
  1
CELLMARGIN_BEGIN
 40
1.5
 40
1.5
 40
1.5
 40
1.5
 40
4.5
 40
4.5
309
CELLMARGIN_END
 94
        6
 95
        1
302
GRIDFORMAT
  1
GRIDFORMAT_BEGIN
 90
        0
 91
        1
 62
     0
 92
       -2
340
0
 93
        0
 40
1.125
309
GRIDFORMAT_END
 95
        2
302
GRIDFORMAT
  1
GRIDFORMAT_BEGIN
 90
        0
 91
        1
 62
     0
 92
       -2
340
0
 93
        0
 40
1.125
309
GRIDFORMAT_END
 95
        4
302
GRIDFORMAT
  1
GRIDFORMAT_BEGIN
 90
        0
 91
        1
 62
     0
 92
       -2
340
0
 93
        0
 40
1.125
309
GRIDFORMAT_END
 95
        8
302
GRIDFORMAT
  1
GRIDFORMAT_BEGIN
 90
        0
 91
        1
 62
     0
 92
       -2
340
0
 93
        0
 40
1.125
309
GRIDFORMAT_END
 95
       16
302
GRIDFORMAT
  1
GRIDFORMAT_BEGIN
 90
        0
 91
        1
 62
     0
 92
       -2
340
0
 93
        0
 40
1.125
309
GRIDFORMAT_END
 95
       32
302
GRIDFORMAT
  1
GRIDFORMAT_BEGIN
 90
        0
 91
        1
 62
     0
 92
       -2
340
0
 93
        0
 40
1.125
309
GRIDFORMAT_END
309
TABLEFORMAT_END
  1
CELLSTYLE_BEGIN
 90
        2
 91
        1
300
_HEADER
309
CELLSTYLE_END
300
CELLSTYLE
  1
TABLEFORMAT_BEGIN
 90
        5
170
     1
 91
        0
 92
        0
 62
   257
 93
        1
300
CONTENTFORMAT
  1
CONTENTFORMAT_BEGIN
 90
        0
 91
        0
 92
      512
 93
        0
300

 40
0.0
140
1.0
 94
        2
 62
     0
340
11
144
4.5
309
CONTENTFORMAT_END
171
     1
301
MARGIN
  1
CELLMARGIN_BEGIN
 40
1.5
 40
1.5
 40
1.5
 40
1.5
 40
4.5
 40
4.5
309
CELLMARGIN_END
 94
        6
 95
        1
302
GRIDFORMAT
  1
GRIDFORMAT_BEGIN
 90
        0
 91
        1
 62
     0
 92
       -2
340
0
 93
        0
 40
1.125
309
GRIDFORMAT_END
 95
        2
302
GRIDFORMAT
  1
GRIDFORMAT_BEGIN
 90
        0
 91
        1
 62
     0
 92
       -2
340
0
 93
        0
 40
1.125
309
GRIDFORMAT_END
 95
        4
302
GRIDFORMAT
  1
GRIDFORMAT_BEGIN
 90
        0
 91
        1
 62
     0
 92
       -2
340
0
 93
        0
 40
1.125
309
GRIDFORMAT_END
 95
        8
302
GRIDFORMAT
  1
GRIDFORMAT_BEGIN
 90
        0
 91
        1
 62
     0
 92
       -2
340
0
 93
        0
 40
1.125
309
GRIDFORMAT_END
 95
       16
302
GRIDFORMAT
  1
GRIDFORMAT_BEGIN
 90
        0
 91
        1
 62
     0
 92
       -2
340
0
 93
        0
 40
1.125
309
GRIDFORMAT_END
 95
       32
302
GRIDFORMAT
  1
GRIDFORMAT_BEGIN
 90
        0
 91
        1
 62
     0
 92
       -2
340
0
 93
        0
 40
1.125
309
GRIDFORMAT_END
309
TABLEFORMAT_END
  1
CELLSTYLE_BEGIN
 90
        3
 91
        2
300
_DATA
309
CELLSTYLE_END
  0
XRECORD
  5
533
102
{ACAD_REACTORS
330
502
102
}
330
502
100
AcDbXrecord
280
     1
102
ACAD_ROUNDTRIP_PRE2007_TABLESTYLE
 90
      512
 91
        0
  1

 92
      512
 93
        0
  2

 94
      512
 95
        0
  3

  0
XRECORD
  5
518
102
{ACAD_REACTORS
330
517
102
}
330
517
100
AcDbXrecord
280
     1
102
RTVSPropertyOp0
 70
     1
102
RTVSPropertyOp1
 70
     1
102
RTVSPropertyOp2
 70
     1
102
RTVSPropertyOp3
 70
     1
102
RTVSPropertyOp4
 70
     1
102
RTVSPropertyOp5
 70
     1
102
RTVSPropertyOp6
 70
     1
102
RTVSPropertyOp7
 70
     1
102
RTVSPropertyOp8
 70
     1
102
RTVSPropertyOp9
 70
     1
102
RTVSPropertyOp10
 70
     1
102
RTVSPropertyOp11
 70
     1
102
RTVSPropertyOp12
 70
     1
102
RTVSPropertyOp13
 70
     1
102
RTVSPropertyOp14
 70
     1
102
RTVSPropertyOp15
 70
     1
102
RTVSPropertyOp16
 70
     1
102
RTVSPropertyOp17
 70
     1
102
RTVSPropertyOp18
 70
     1
102
RTVSPropertyOp19
 70
     1
102
RTVSPropertyOp20
 70
     1
102
RTVSPropertyOp21
 70
     1
102
RTVSPropertyOp22
 70
     1
102
RTVSPropertyOp23
 70
     1
102
RTVSPropertyOp24
 70
     1
102
RTVSPropertyOp25
 70
     1
102
RTVSPropertyOp26
 70
     1
102
RTVSPropertyOp27
 70
     1
  0
XRECORD
  5
51C
102
{ACAD_REACTORS
330
51B
102
}
330
51B
100
AcDbXrecord
280
     1
102
RTVSPropertyOp0
 70
     1
102
RTVSPropertyOp1
 70
     1
102
RTVSPropertyOp2
 70
     1
102
RTVSPropertyOp3
 70
     1
102
RTVSPropertyOp4
 70
     1
102
RTVSPropertyOp5
 70
     1
102
RTVSPropertyOp6
 70
     1
102
RTVSPropertyOp7
 70
     1
102
RTVSPropertyOp8
 70
     1
102
RTVSPropertyOp9
 70
     1
102
RTVSPropertyOp10
 70
     1
102
RTVSPropertyOp11
 70
     1
102
RTVSPropertyOp12
 70
     1
102
RTVSPropertyOp13
 70
     1
102
RTVSPropertyOp14
 70
     1
102
RTVSPropertyOp15
 70
     1
102
RTVSPropertyOp16
 70
     1
102
RTVSPropertyOp17
 70
     1
102
RTVSPropertyOp18
 70
     1
102
RTVSPropertyOp19
 70
     1
102
RTVSPropertyOp20
 70
     1
102
RTVSPropertyOp21
 70
     1
102
RTVSPropertyOp22
 70
     1
102
RTVSPropertyOp23
 70
     1
102
RTVSPropertyOp24
 70
     1
102
RTVSPropertyOp25
 70
     1
102
RTVSPropertyOp26
 70
     1
102
RTVSPropertyOp27
 70
     1
  0
XRECORD
  5
51A
102
{ACAD_REACTORS
330
519
102
}
330
519
100
AcDbXrecord
280
     1
102
RTVSPropertyOp0
 70
     1
102
RTVSPropertyOp1
 70
     1
102
RTVSPropertyOp2
 70
     1
102
RTVSPropertyOp3
 70
     1
102
RTVSPropertyOp4
 70
     1
102
RTVSPropertyOp5
 70
     1
102
RTVSPropertyOp6
 70
     1
102
RTVSPropertyOp7
 70
     1
102
RTVSPropertyOp8
 70
     1
102
RTVSPropertyOp9
 70
     1
102
RTVSPropertyOp10
 70
     1
102
RTVSPropertyOp11
 70
     1
102
RTVSPropertyOp12
 70
     1
102
RTVSPropertyOp13
 70
     1
102
RTVSPropertyOp14
 70
     1
102
RTVSPropertyOp15
 70
     1
102
RTVSPropertyOp16
 70
     1
102
RTVSPropertyOp17
 70
     1
102
RTVSPropertyOp18
 70
     1
102
RTVSPropertyOp19
 70
     1
102
RTVSPropertyOp20
 70
     1
102
RTVSPropertyOp21
 70
     1
102
RTVSPropertyOp22
 70
     1
102
RTVSPropertyOp23
 70
     1
102
RTVSPropertyOp24
 70
     1
102
RTVSPropertyOp25
 70
     1
102
RTVSPropertyOp26
 70
     1
102
RTVSPropertyOp27
 70
     1
  0
XRECORD
  5
516
102
{ACAD_REACTORS
330
515
102
}
330
515
100
AcDbXrecord
280
     1
102
RTVSPropertyOp0
 70
     1
102
RTVSPropertyOp1
 70
     1
102
RTVSPropertyOp2
 70
     1
102
RTVSPropertyOp3
 70
     1
102
RTVSPropertyOp4
 70
     1
102
RTVSPropertyOp5
 70
     1
102
RTVSPropertyOp6
 70
     1
102
RTVSPropertyOp7
 70
     1
102
RTVSPropertyOp8
 70
     1
102
RTVSPropertyOp9
 70
     1
102
RTVSPropertyOp10
 70
     1
102
RTVSPropertyOp11
 70
     1
102
RTVSPropertyOp12
 70
     1
102
RTVSPropertyOp13
 70
     1
102
RTVSPropertyOp14
 70
     1
102
RTVSPropertyOp15
 70
     1
102
RTVSPropertyOp16
 70
     1
102
RTVSPropertyOp17
 70
     1
102
RTVSPropertyOp18
 70
     1
102
RTVSPropertyOp19
 70
     1
102
RTVSPropertyOp20
 70
     1
102
RTVSPropertyOp21
 70
     1
102
RTVSPropertyOp22
 70
     1
102
RTVSPropertyOp23
 70
     1
102
RTVSPropertyOp24
 70
     1
102
RTVSPropertyOp25
 70
     1
102
RTVSPropertyOp26
 70
     1
102
RTVSPropertyOp27
 70
     1
  0
XRECORD
  5
524
102
{ACAD_REACTORS
330
523
102
}
330
523
100
AcDbXrecord
280
     1
102
RTVSPropertyOp0
 70
     1
102
RTVSPropertyOp1
 70
     1
102
RTVSPropertyOp2
 70
     1
102
RTVSPropertyOp3
 70
     1
102
RTVSPropertyOp4
 70
     1
102
RTVSPropertyOp5
 70
     1
102
RTVSPropertyOp6
 70
     1
102
RTVSPropertyOp7
 70
     1
102
RTVSPropertyOp8
 70
     1
102
RTVSPropertyOp9
 70
     1
102
RTVSPropertyOp10
 70
     1
102
RTVSPropertyOp11
 70
     1
102
RTVSPropertyOp12
 70
     1
102
RTVSPropertyOp13
 70
     1
102
RTVSPropertyOp14
 70
     1
102
RTVSPropertyOp15
 70
     1
102
RTVSPropertyOp16
 70
     1
102
RTVSPropertyOp17
 70
     1
102
RTVSPropertyOp18
 70
     1
102
RTVSPropertyOp19
 70
     1
102
RTVSPropertyOp20
 70
     1
102
RTVSPropertyOp21
 70
     1
102
RTVSPropertyOp22
 70
     1
102
RTVSPropertyOp23
 70
     1
102
RTVSPropertyOp24
 70
     1
102
RTVSPropertyOp25
 70
     1
102
RTVSPropertyOp26
 70
     1
102
RTVSPropertyOp27
 70
     1
  0
XRECORD
  5
52C
102
{ACAD_REACTORS
330
52B
102
}
330
52B
100
AcDbXrecord
280
     1
102
RTVSPropertyOp0
 70
     1
102
RTVSPropertyOp1
 70
     1
102
RTVSPropertyOp2
 70
     1
102
RTVSPropertyOp3
 70
     1
102
RTVSPropertyOp4
 70
     1
102
RTVSPropertyOp5
 70
     1
102
RTVSPropertyOp6
 70
     1
102
RTVSPropertyOp7
 70
     1
102
RTVSPropertyOp8
 70
     1
102
RTVSPropertyOp9
 70
     1
102
RTVSPropertyOp10
 70
     1
102
RTVSPropertyOp11
 70
     1
102
RTVSPropertyOp12
 70
     1
102
RTVSPropertyOp13
 70
     1
102
RTVSPropertyOp14
 70
     1
102
RTVSPropertyOp15
 70
     1
102
RTVSPropertyOp16
 70
     1
102
RTVSPropertyOp17
 70
     1
102
RTVSPropertyOp18
 70
     1
102
RTVSPropertyOp19
 70
     1
102
RTVSPropertyOp20
 70
     1
102
RTVSPropertyOp21
 70
     1
102
RTVSPropertyOp22
 70
     1
102
RTVSPropertyOp23
 70
     1
102
RTVSPropertyOp24
 70
     1
102
RTVSPropertyOp25
 70
     1
102
RTVSPropertyOp26
 70
     1
102
RTVSPropertyOp27
 70
     1
  0
XRECORD
  5
51E
102
{ACAD_REACTORS
330
51D
102
}
330
51D
100
AcDbXrecord
280
     1
102
RTVSPropertyOp0
 70
     1
102
RTVSPropertyOp1
 70
     1
102
RTVSPropertyOp2
 70
     1
102
RTVSPropertyOp3
 70
     1
102
RTVSPropertyOp4
 70
     1
102
RTVSPropertyOp5
 70
     1
102
RTVSPropertyOp6
 70
     1
102
RTVSPropertyOp7
 70
     1
102
RTVSPropertyOp8
 70
     1
102
RTVSPropertyOp9
 70
     1
102
RTVSPropertyOp10
 70
     1
102
RTVSPropertyOp11
 70
     1
102
RTVSPropertyOp12
 70
     1
102
RTVSPropertyOp13
 70
     1
102
RTVSPropertyOp14
 70
     1
102
RTVSPropertyOp15
 70
     1
102
RTVSPropertyOp16
 70
     1
102
RTVSPropertyOp17
 70
     1
102
RTVSPropertyOp18
 70
     1
102
RTVSPropertyOp19
 70
     1
102
RTVSPropertyOp20
 70
     1
102
RTVSPropertyOp21
 70
     1
102
RTVSPropertyOp22
 70
     1
102
RTVSPropertyOp23
 70
     1
102
RTVSPropertyOp24
 70
     1
102
RTVSPropertyOp25
 70
     1
102
RTVSPropertyOp26
 70
     1
102
RTVSPropertyOp27
 70
     1
  0
XRECORD
  5
522
102
{ACAD_REACTORS
330
521
102
}
330
521
100
AcDbXrecord
280
     1
102
RTVSPropertyOp0
 70
     1
102
RTVSPropertyOp1
 70
     1
102
RTVSPropertyOp2
 70
     1
102
RTVSPropertyOp3
 70
     1
102
RTVSPropertyOp4
 70
     1
102
RTVSPropertyOp5
 70
     1
102
RTVSPropertyOp6
 70
     1
102
RTVSPropertyOp7
 70
     1
102
RTVSPropertyOp8
 70
     1
102
RTVSPropertyOp9
 70
     1
102
RTVSPropertyOp10
 70
     1
102
RTVSPropertyOp11
 70
     1
102
RTVSPropertyOp12
 70
     1
102
RTVSPropertyOp13
 70
     1
102
RTVSPropertyOp14
 70
     1
102
RTVSPropertyOp15
 70
     1
102
RTVSPropertyOp16
 70
     1
102
RTVSPropertyOp17
 70
     1
102
RTVSPropertyOp18
 70
     1
102
RTVSPropertyOp19
 70
     1
102
RTVSPropertyOp20
 70
     1
102
RTVSPropertyOp21
 70
     1
102
RTVSPropertyOp22
 70
     1
102
RTVSPropertyOp23
 70
     1
102
RTVSPropertyOp24
 70
     1
102
RTVSPropertyOp25
 70
     1
102
RTVSPropertyOp26
 70
     1
102
RTVSPropertyOp27
 70
     1
  0
XRECORD
  5
532
102
{ACAD_REACTORS
330
531
102
}
330
531
100
AcDbXrecord
280
     1
102
RTVSPropertyOp0
 70
     0
102
RTVSPropertyOp1
 70
     0
102
RTVSPropertyOp2
 70
     0
102
RTVSPropertyOp3
 70
     0
102
RTVSPropertyOp4
 70
     0
102
RTVSPropertyOp5
 70
     0
102
RTVSPropertyOp6
 70
     0
102
RTVSPropertyOp7
 70
     0
102
RTVSPropertyOp8
 70
     0
102
RTVSPropertyOp9
 70
     0
102
RTVSPropertyOp10
 70
     0
102
RTVSPropertyOp11
 70
     0
102
RTVSPropertyOp12
 70
     0
102
RTVSPropertyOp13
 70
     0
102
RTVSPropertyOp14
 70
     2
102
RTVSPropertyOp15
 70
     0
102
RTVSPropertyOp16
 70
     0
102
RTVSPropertyOp17
 70
     0
102
RTVSPropertyOp18
 70
     0
102
RTVSPropertyOp19
 70
     0
102
RTVSPropertyOp20
 70
     0
102
RTVSPropertyOp21
 70
     0
102
RTVSPropertyOp22
 70
     0
102
RTVSPropertyOp23
 70
     0
102
RTVSPropertyOp24
 70
     0
102
RTVSPropertyOp25
 70
     0
102
RTVSPropertyOp26
 70
     0
102
RTVSPropertyOp27
 70
     0
  0
XRECORD
  5
52A
102
{ACAD_REACTORS
330
529
102
}
330
529
100
AcDbXrecord
280
     1
102
RTVSPropertyOp0
 70
     1
102
RTVSPropertyOp1
 70
     1
102
RTVSPropertyOp2
 70
     1
102
RTVSPropertyOp3
 70
     1
102
RTVSPropertyOp4
 70
     1
102
RTVSPropertyOp5
 70
     1
102
RTVSPropertyOp6
 70
     1
102
RTVSPropertyOp7
 70
     1
102
RTVSPropertyOp8
 70
     1
102
RTVSPropertyOp9
 70
     1
102
RTVSPropertyOp10
 70
     1
102
RTVSPropertyOp11
 70
     1
102
RTVSPropertyOp12
 70
     1
102
RTVSPropertyOp13
 70
     1
102
RTVSPropertyOp14
 70
     1
102
RTVSPropertyOp15
 70
     1
102
RTVSPropertyOp16
 70
     1
102
RTVSPropertyOp17
 70
     1
102
RTVSPropertyOp18
 70
     1
102
RTVSPropertyOp19
 70
     1
102
RTVSPropertyOp20
 70
     1
102
RTVSPropertyOp21
 70
     1
102
RTVSPropertyOp22
 70
     1
102
RTVSPropertyOp23
 70
     1
102
RTVSPropertyOp24
 70
     1
102
RTVSPropertyOp25
 70
     1
102
RTVSPropertyOp26
 70
     1
102
RTVSPropertyOp27
 70
     1
  0
XRECORD
  5
50E
102
{ACAD_REACTORS
330
50D
102
}
330
50D
100
AcDbXrecord
280
     1
102
RTVSPropertyOp0
 70
     1
102
RTVSPropertyOp1
 70
     1
102
RTVSPropertyOp2
 70
     1
102
RTVSPropertyOp3
 70
     1
102
RTVSPropertyOp4
 70
     1
102
RTVSPropertyOp5
 70
     1
102
RTVSPropertyOp6
 70
     1
102
RTVSPropertyOp7
 70
     1
102
RTVSPropertyOp8
 70
     1
102
RTVSPropertyOp9
 70
     1
102
RTVSPropertyOp10
 70
     1
102
RTVSPropertyOp11
 70
     1
102
RTVSPropertyOp12
 70
     1
102
RTVSPropertyOp13
 70
     1
102
RTVSPropertyOp14
 70
     1
102
RTVSPropertyOp15
 70
     1
102
RTVSPropertyOp16
 70
     1
102
RTVSPropertyOp17
 70
     1
102
RTVSPropertyOp18
 70
     1
102
RTVSPropertyOp19
 70
     1
102
RTVSPropertyOp20
 70
     1
102
RTVSPropertyOp21
 70
     1
102
RTVSPropertyOp22
 70
     1
102
RTVSPropertyOp23
 70
     1
102
RTVSPropertyOp24
 70
     1
102
RTVSPropertyOp25
 70
     1
102
RTVSPropertyOp26
 70
     1
102
RTVSPropertyOp27
 70
     1
  0
XRECORD
  5
510
102
{ACAD_REACTORS
330
50F
102
}
330
50F
100
AcDbXrecord
280
     1
102
RTVSPropertyOp0
 70
     1
102
RTVSPropertyOp1
 70
     1
102
RTVSPropertyOp2
 70
     1
102
RTVSPropertyOp3
 70
     1
102
RTVSPropertyOp4
 70
     1
102
RTVSPropertyOp5
 70
     1
102
RTVSPropertyOp6
 70
     1
102
RTVSPropertyOp7
 70
     1
102
RTVSPropertyOp8
 70
     1
102
RTVSPropertyOp9
 70
     1
102
RTVSPropertyOp10
 70
     1
102
RTVSPropertyOp11
 70
     1
102
RTVSPropertyOp12
 70
     1
102
RTVSPropertyOp13
 70
     1
102
RTVSPropertyOp14
 70
     1
102
RTVSPropertyOp15
 70
     1
102
RTVSPropertyOp16
 70
     1
102
RTVSPropertyOp17
 70
     1
102
RTVSPropertyOp18
 70
     1
102
RTVSPropertyOp19
 70
     1
102
RTVSPropertyOp20
 70
     1
102
RTVSPropertyOp21
 70
     1
102
RTVSPropertyOp22
 70
     1
102
RTVSPropertyOp23
 70
     1
102
RTVSPropertyOp24
 70
     1
102
RTVSPropertyOp25
 70
     1
102
RTVSPropertyOp26
 70
     1
102
RTVSPropertyOp27
 70
     1
  0
XRECORD
  5
512
102
{ACAD_REACTORS
330
511
102
}
330
511
100
AcDbXrecord
280
     1
102
RTVSPropertyOp0
 70
     1
102
RTVSPropertyOp1
 70
     1
102
RTVSPropertyOp2
 70
     1
102
RTVSPropertyOp3
 70
     1
102
RTVSPropertyOp4
 70
     1
102
RTVSPropertyOp5
 70
     1
102
RTVSPropertyOp6
 70
     1
102
RTVSPropertyOp7
 70
     1
102
RTVSPropertyOp8
 70
     1
102
RTVSPropertyOp9
 70
     1
102
RTVSPropertyOp10
 70
     1
102
RTVSPropertyOp11
 70
     1
102
RTVSPropertyOp12
 70
     1
102
RTVSPropertyOp13
 70
     1
102
RTVSPropertyOp14
 70
     1
102
RTVSPropertyOp15
 70
     1
102
RTVSPropertyOp16
 70
     1
102
RTVSPropertyOp17
 70
     1
102
RTVSPropertyOp18
 70
     1
102
RTVSPropertyOp19
 70
     1
102
RTVSPropertyOp20
 70
     1
102
RTVSPropertyOp21
 70
     1
102
RTVSPropertyOp22
 70
     1
102
RTVSPropertyOp23
 70
     1
102
RTVSPropertyOp24
 70
     1
102
RTVSPropertyOp25
 70
     1
102
RTVSPropertyOp26
 70
     1
102
RTVSPropertyOp27
 70
     1
  0
XRECORD
  5
514
102
{ACAD_REACTORS
330
513
102
}
330
513
100
AcDbXrecord
280
     1
102
RTVSPropertyOp0
 70
     1
102
RTVSPropertyOp1
 70
     1
102
RTVSPropertyOp2
 70
     1
102
RTVSPropertyOp3
 70
     1
102
RTVSPropertyOp4
 70
     1
102
RTVSPropertyOp5
 70
     1
102
RTVSPropertyOp6
 70
     1
102
RTVSPropertyOp7
 70
     1
102
RTVSPropertyOp8
 70
     1
102
RTVSPropertyOp9
 70
     1
102
RTVSPropertyOp10
 70
     1
102
RTVSPropertyOp11
 70
     1
102
RTVSPropertyOp12
 70
     1
102
RTVSPropertyOp13
 70
     1
102
RTVSPropertyOp14
 70
     1
102
RTVSPropertyOp15
 70
     1
102
RTVSPropertyOp16
 70
     1
102
RTVSPropertyOp17
 70
     1
102
RTVSPropertyOp18
 70
     1
102
RTVSPropertyOp19
 70
     1
102
RTVSPropertyOp20
 70
     1
102
RTVSPropertyOp21
 70
     1
102
RTVSPropertyOp22
 70
     1
102
RTVSPropertyOp23
 70
     1
102
RTVSPropertyOp24
 70
     1
102
RTVSPropertyOp25
 70
     1
102
RTVSPropertyOp26
 70
     1
102
RTVSPropertyOp27
 70
     1
  0
XRECORD
  5
52E
102
{ACAD_REACTORS
330
52D
102
}
330
52D
100
AcDbXrecord
280
     1
102
RTVSPropertyOp0
 70
     0
102
RTVSPropertyOp1
 70
     0
102
RTVSPropertyOp2
 70
     0
102
RTVSPropertyOp3
 70
     0
102
RTVSPropertyOp4
 70
     0
102
RTVSPropertyOp5
 70
     0
102
RTVSPropertyOp6
 70
     0
102
RTVSPropertyOp7
 70
     0
102
RTVSPropertyOp8
 70
     0
102
RTVSPropertyOp9
 70
     0
102
RTVSPropertyOp10
 70
     0
102
RTVSPropertyOp11
 70
     0
102
RTVSPropertyOp12
 70
     0
102
RTVSPropertyOp13
 70
     0
102
RTVSPropertyOp14
 70
     2
102
RTVSPropertyOp15
 70
     0
102
RTVSPropertyOp16
 70
     0
102
RTVSPropertyOp17
 70
     0
102
RTVSPropertyOp18
 70
     0
102
RTVSPropertyOp19
 70
     0
102
RTVSPropertyOp20
 70
     0
102
RTVSPropertyOp21
 70
     0
102
RTVSPropertyOp22
 70
     0
102
RTVSPropertyOp23
 70
     0
102
RTVSPropertyOp24
 70
     0
102
RTVSPropertyOp25
 70
     0
102
RTVSPropertyOp26
 70
     0
102
RTVSPropertyOp27
 70
     0
  0
XRECORD
  5
528
102
{ACAD_REACTORS
330
527
102
}
330
527
100
AcDbXrecord
280
     1
102
RTVSPropertyOp0
 70
     1
102
RTVSPropertyOp1
 70
     1
102
RTVSPropertyOp2
 70
     1
102
RTVSPropertyOp3
 70
     1
102
RTVSPropertyOp4
 70
     1
102
RTVSPropertyOp5
 70
     1
102
RTVSPropertyOp6
 70
     1
102
RTVSPropertyOp7
 70
     1
102
RTVSPropertyOp8
 70
     1
102
RTVSPropertyOp9
 70
     1
102
RTVSPropertyOp10
 70
     1
102
RTVSPropertyOp11
 70
     1
102
RTVSPropertyOp12
 70
     1
102
RTVSPropertyOp13
 70
     1
102
RTVSPropertyOp14
 70
     1
102
RTVSPropertyOp15
 70
     1
102
RTVSPropertyOp16
 70
     1
102
RTVSPropertyOp17
 70
     1
102
RTVSPropertyOp18
 70
     1
102
RTVSPropertyOp19
 70
     1
102
RTVSPropertyOp20
 70
     1
102
RTVSPropertyOp21
 70
     1
102
RTVSPropertyOp22
 70
     1
102
RTVSPropertyOp23
 70
     1
102
RTVSPropertyOp24
 70
     1
102
RTVSPropertyOp25
 70
     1
102
RTVSPropertyOp26
 70
     1
102
RTVSPropertyOp27
 70
     1
  0
XRECORD
  5
530
102
{ACAD_REACTORS
330
52F
102
}
330
52F
100
AcDbXrecord
280
     1
102
RTVSPropertyOp0
 70
     0
102
RTVSPropertyOp1
 70
     0
102
RTVSPropertyOp2
 70
     0
102
RTVSPropertyOp3
 70
     0
102
RTVSPropertyOp4
 70
     0
102
RTVSPropertyOp5
 70
     0
102
RTVSPropertyOp6
 70
     0
102
RTVSPropertyOp7
 70
     0
102
RTVSPropertyOp8
 70
     0
102
RTVSPropertyOp9
 70
     0
102
RTVSPropertyOp10
 70
     0
102
RTVSPropertyOp11
 70
     0
102
RTVSPropertyOp12
 70
     0
102
RTVSPropertyOp13
 70
     0
102
RTVSPropertyOp14
 70
     2
102
RTVSPropertyOp15
 70
     0
102
RTVSPropertyOp16
 70
     0
102
RTVSPropertyOp17
 70
     0
102
RTVSPropertyOp18
 70
     0
102
RTVSPropertyOp19
 70
     0
102
RTVSPropertyOp20
 70
     0
102
RTVSPropertyOp21
 70
     0
102
RTVSPropertyOp22
 70
     0
102
RTVSPropertyOp23
 70
     0
102
RTVSPropertyOp24
 70
     0
102
RTVSPropertyOp25
 70
     0
102
RTVSPropertyOp26
 70
     0
102
RTVSPropertyOp27
 70
     0
  0
XRECORD
  5
520
102
{ACAD_REACTORS
330
51F
102
}
330
51F
100
AcDbXrecord
280
     1
102
RTVSPropertyOp0
 70
     1
102
RTVSPropertyOp1
 70
     1
102
RTVSPropertyOp2
 70
     1
102
RTVSPropertyOp3
 70
     1
102
RTVSPropertyOp4
 70
     1
102
RTVSPropertyOp5
 70
     1
102
RTVSPropertyOp6
 70
     1
102
RTVSPropertyOp7
 70
     1
102
RTVSPropertyOp8
 70
     1
102
RTVSPropertyOp9
 70
     1
102
RTVSPropertyOp10
 70
     1
102
RTVSPropertyOp11
 70
     1
102
RTVSPropertyOp12
 70
     1
102
RTVSPropertyOp13
 70
     1
102
RTVSPropertyOp14
 70
     1
102
RTVSPropertyOp15
 70
     1
102
RTVSPropertyOp16
 70
     1
102
RTVSPropertyOp17
 70
     1
102
RTVSPropertyOp18
 70
     1
102
RTVSPropertyOp19
 70
     1
102
RTVSPropertyOp20
 70
     1
102
RTVSPropertyOp21
 70
     1
102
RTVSPropertyOp22
 70
     1
102
RTVSPropertyOp23
 70
     1
102
RTVSPropertyOp24
 70
     1
102
RTVSPropertyOp25
 70
     1
102
RTVSPropertyOp26
 70
     1
102
RTVSPropertyOp27
 70
     1
  0
XRECORD
  5
526
102
{ACAD_REACTORS
330
525
102
}
330
525
100
AcDbXrecord
280
     1
102
RTVSPropertyOp0
 70
     1
102
RTVSPropertyOp1
 70
     1
102
RTVSPropertyOp2
 70
     1
102
RTVSPropertyOp3
 70
     1
102
RTVSPropertyOp4
 70
     1
102
RTVSPropertyOp5
 70
     1
102
RTVSPropertyOp6
 70
     1
102
RTVSPropertyOp7
 70
     1
102
RTVSPropertyOp8
 70
     1
102
RTVSPropertyOp9
 70
     1
102
RTVSPropertyOp10
 70
     1
102
RTVSPropertyOp11
 70
     1
102
RTVSPropertyOp12
 70
     1
102
RTVSPropertyOp13
 70
     1
102
RTVSPropertyOp14
 70
     1
102
RTVSPropertyOp15
 70
     1
102
RTVSPropertyOp16
 70
     1
102
RTVSPropertyOp17
 70
     1
102
RTVSPropertyOp18
 70
     1
102
RTVSPropertyOp19
 70
     1
102
RTVSPropertyOp20
 70
     1
102
RTVSPropertyOp21
 70
     1
102
RTVSPropertyOp22
 70
     1
102
RTVSPropertyOp23
 70
     1
102
RTVSPropertyOp24
 70
     1
102
RTVSPropertyOp25
 70
     1
102
RTVSPropertyOp26
 70
     1
102
RTVSPropertyOp27
 70
     1
  0
ENDSEC
  0
EOF
