  0
SECTION
  2
HEADER
  9
$ACADVER
  1
AC1015
  9
$ACADMAINTVER
 70
    20
  9
$DWGCODEPAGE
  3
ANSI_1252
  9
$INSBASE
 10
0.0
 20
0.0
 30
0.0
  9
$EXTMIN
 10
56.67205914933242
 20
103.2267158995694
 30
-0.0000000349181948
  9
$EXTMAX
 10
124.7964483881328
 20
213.1696478107125
 30
0.0000000814935747
  9
$LIMMIN
 10
0.0
 20
0.0
  9
$LIMMAX
 10
420.0
 20
297.0
  9
$ORTHOMODE
 70
     1
  9
$REGENMODE
 70
     1
  9
$FILLMODE
 70
     1
  9
$QTEXTMODE
 70
     0
  9
$MIRRTEXT
 70
     1
  9
$LTSCALE
 40
1.0
  9
$ATTMODE
 70
     1
  9
$TEXTSIZE
 40
2.5
  9
$TRACEWID
 40
1.0
  9
$TEXTSTYLE
  7
STANDARD
  9
$CLAYER
  8
0
  9
$CELTYPE
  6
ByLayer
  9
$CECOLOR
 62
   256
  9
$CELTSCALE
 40
1.0
  9
$DISPSILH
 70
     0
  9
$DIMSCALE
 40
1.0
  9
$DIMASZ
 40
2.5
  9
$DIMEXO
 40
1.0
  9
$DIMDLI
 40
10.0
  9
$DIMRND
 40
0.0
  9
$DIMDLE
 40
0.0
  9
$DIMEXE
 40
1.0
  9
$DIMTP
 40
0.1
  9
$DIMTM
 40
0.1
  9
$DIMTXT
 40
3.5
  9
$DIMCEN
 40
0.0
  9
$DIMTSZ
 40
0.0
  9
$DIMTOL
 70
     0
  9
$DIMLIM
 70
     0
  9
$DIMTIH
 70
     0
  9
$DIMTOH
 70
     0
  9
$DIMSE1
 70
     0
  9
$DIMSE2
 70
     0
  9
$DIMTAD
 70
     1
  9
$DIMZIN
 70
     8
  9
$DIMBLK
  1

  9
$DIMASO
 70
     1
  9
$DIMSHO
 70
     1
  9
$DIMPOST
  1

  9
$DIMAPOST
  1
"
  9
$DIMALT
 70
     0
  9
$DIMALTD
 70
     2
  9
$DIMALTF
 40
0.0393701
  9
$DIMLFAC
 40
1.0
  9
$DIMTOFL
 70
     1
  9
$DIMTVP
 40
0.0
  9
$DIMTIX
 70
     0
  9
$DIMSOXD
 70
     0
  9
$DIMSAH
 70
     0
  9
$DIMBLK1
  1

  9
$DIMBLK2
  1

  9
$DIMSTYLE
  2
AM_DIN
  9
$DIMCLRD
 70
   256
  9
$DIMCLRE
 70
   256
  9
$DIMCLRT
 70
     2
  9
$DIMTFAC
 40
0.71
  9
$DIMGAP
 40
1.5
  9
$DIMJUST
 70
     0
  9
$DIMSD1
 70
     0
  9
$DIMSD2
 70
     0
  9
$DIMTOLJ
 70
     0
  9
$DIMTZIN
 70
     8
  9
$DIMALTZ
 70
     0
  9
$DIMALTTZ
 70
     0
  9
$DIMUPT
 70
     0
  9
$DIMDEC
 70
     2
  9
$DIMTDEC
 70
     3
  9
$DIMALTU
 70
     2
  9
$DIMALTTD
 70
     4
  9
$DIMTXSTY
  7
STANDARD
  9
$DIMAUNIT
 70
     0
  9
$DIMADEC
 70
     0
  9
$DIMALTRND
 40
0.0
  9
$DIMAZIN
 70
     2
  9
$DIMDSEP
 70
    46
  9
$DIMATFIT
 70
     3
  9
$DIMFRAC
 70
     0
  9
$DIMLDRBLK
  1

  9
$DIMLUNIT
 70
     2
  9
$DIMLWD
 70
    -1
  9
$DIMLWE
 70
    -1
  9
$DIMTMOVE
 70
     0
  9
$LUNITS
 70
     2
  9
$LUPREC
 70
     2
  9
$SKETCHINC
 40
1.0
  9
$FILLETRAD
 40
2.5
  9
$AUNITS
 70
     0
  9
$AUPREC
 70
     0
  9
$MENU
  1
.
  9
$ELEVATION
 40
0.0
  9
$PELEVATION
 40
0.0
  9
$THICKNESS
 40
0.0
  9
$LIMCHECK
 70
     0
  9
$CHAMFERA
 40
2.5
  9
$CHAMFERB
 40
2.5
  9
$CHAMFERC
 40
20.0
  9
$CHAMFERD
 40
0.0
  9
$SKPOLY
 70
     0
  9
$TDCREATE
 40
2452702.557501690
  9
$TDUCREATE
 40
2452702.474168357
  9
$TDUPDATE
 40
2454024.779249653
  9
$TDUUPDATE
 40
2454024.695916319
  9
$TDINDWG
 40
0.0239358681
  9
$TDUSRTIMER
 40
0.0239357523
  9
$USRTIMER
 70
     1
  9
$ANGBASE
 50
0.0
  9
$ANGDIR
 70
     0
  9
$PDMODE
 70
     0
  9
$PDSIZE
 40
0.0
  9
$PLINEWID
 40
0.0
  9
$SPLFRAME
 70
     0
  9
$SPLINETYPE
 70
     6
  9
$SPLINESEGS
 70
     8
  9
$HANDSEED
  5
107F
  9
$SURFTAB1
 70
     6
  9
$SURFTAB2
 70
     6
  9
$SURFTYPE
 70
     6
  9
$SURFU
 70
     6
  9
$SURFV
 70
     6
  9
$UCSBASE
  2

  9
$UCSNAME
  2

  9
$UCSORG
 10
0.0
 20
0.0
 30
0.0
  9
$UCSXDIR
 10
1.0
 20
0.0
 30
0.0
  9
$UCSYDIR
 10
0.0
 20
1.0
 30
0.0
  9
$UCSORTHOREF
  2

  9
$UCSORTHOVIEW
 70
     0
  9
$UCSORGTOP
 10
0.0
 20
0.0
 30
0.0
  9
$UCSORGBOTTOM
 10
0.0
 20
0.0
 30
0.0
  9
$UCSORGLEFT
 10
0.0
 20
0.0
 30
0.0
  9
$UCSORGRIGHT
 10
0.0
 20
0.0
 30
0.0
  9
$UCSORGFRONT
 10
0.0
 20
0.0
 30
0.0
  9
$UCSORGBACK
 10
0.0
 20
0.0
 30
0.0
  9
$PUCSBASE
  2

  9
$PUCSNAME
  2

  9
$PUCSORG
 10
0.0
 20
0.0
 30
0.0
  9
$PUCSXDIR
 10
1.0
 20
0.0
 30
0.0
  9
$PUCSYDIR
 10
0.0
 20
1.0
 30
0.0
  9
$PUCSORTHOREF
  2

  9
$PUCSORTHOVIEW
 70
     0
  9
$PUCSORGTOP
 10
0.0
 20
0.0
 30
0.0
  9
$PUCSORGBOTTOM
 10
0.0
 20
0.0
 30
0.0
  9
$PUCSORGLEFT
 10
0.0
 20
0.0
 30
0.0
  9
$PUCSORGRIGHT
 10
0.0
 20
0.0
 30
0.0
  9
$PUCSORGFRONT
 10
0.0
 20
0.0
 30
0.0
  9
$PUCSORGBACK
 10
0.0
 20
0.0
 30
0.0
  9
$USERI1
 70
     0
  9
$USERI2
 70
     0
  9
$USERI3
 70
     0
  9
$USERI4
 70
     0
  9
$USERI5
 70
     0
  9
$USERR1
 40
0.0
  9
$USERR2
 40
0.0
  9
$USERR3
 40
0.0
  9
$USERR4
 40
0.0
  9
$USERR5
 40
0.0
  9
$WORLDVIEW
 70
     1
  9
$SHADEDGE
 70
     3
  9
$SHADEDIF
 70
    70
  9
$TILEMODE
 70
     1
  9
$MAXACTVP
 70
    64
  9
$PINSBASE
 10
0.0
 20
0.0
 30
0.0
  9
$PLIMCHECK
 70
     0
  9
$PEXTMIN
 10
1.000000000000000E+20
 20
1.000000000000000E+20
 30
1.000000000000000E+20
  9
$PEXTMAX
 10
-1.000000000000000E+20
 20
-1.000000000000000E+20
 30
-1.000000000000000E+20
  9
$PLIMMIN
 10
0.0
 20
0.0
  9
$PLIMMAX
 10
420.0
 20
297.0
  9
$UNITMODE
 70
     0
  9
$VISRETAIN
 70
     1
  9
$PLINEGEN
 70
     0
  9
$PSLTSCALE
 70
     1
  9
$TREEDEPTH
 70
  3020
  9
$CMLSTYLE
  2
Standard
  9
$CMLJUST
 70
     0
  9
$CMLSCALE
 40
20.0
  9
$PROXYGRAPHICS
 70
     1
  9
$MEASUREMENT
 70
     1
  9
$CELWEIGHT
370
    -1
  9
$ENDCAPS
280
     0
  9
$JOINSTYLE
280
     0
  9
$LWDISPLAY
290
     0
  9
$INSUNITS
 70
     4
  9
$HYPERLINKBASE
  1

  9
$STYLESHEET
  1

  9
$XEDIT
290
     1
  9
$CEPSNTYPE
380
     0
  9
$PSTYLEMODE
290
     1
  9
$FINGERPRINTGUID
  2
{D5091DE6-A8E7-4749-B1FA-F4240FAEB0F0}
  9
$VERSIONGUID
  2
{423248A0-E247-4E3D-A5EF-045A8A858128}
  9
$EXTNAMES
290
     1
  9
$PSVPSCALE
 40
0.0
  9
$OLESTARTUP
290
     0
  0
ENDSEC
  0
SECTION
  2
CLASSES
  0
CLASS
  1
ACDBDICTIONARYWDFLT
  2
AcDbDictionaryWithDefault
  3
ObjectDBX Classes
 90
        0
280
     0
281
     0
  0
CLASS
  1
ACDBPLACEHOLDER
  2
AcDbPlaceHolder
  3
ObjectDBX Classes
 90
        0
280
     0
281
     0
  0
CLASS
  1
LAYOUT
  2
AcDbLayout
  3
ObjectDBX Classes
 90
        0
280
     0
281
     0
  0
CLASS
  1
AMGSETTINGSOBJ
  2
AmgSettingsObj
  3
"AcadM|Product Description: AutoCAD Mechanical 2000|Company: Autodesk"
 90
        0
280
     0
281
     0
  0
CLASS
  1
ACME_DOCUMENT
  2
AcMeDbDoc
  3
AcMeServices
 90
        0
280
     0
281
     0
  0
CLASS
  1
ACMESCOPE
  2
AcMeScope
  3
AcMeServices
 90
        0
280
     0
281
     0
  0
CLASS
  1
ACMECOMMANDHISTORY
  2
AcMeCommandHistory
  3
AcMeServices
 90
        0
280
     0
281
     0
  0
CLASS
  1
DICTIONARYVAR
  2
AcDbDictionaryVar
  3
ObjectDBX Classes
 90
        0
280
     0
281
     0
  0
CLASS
  1
ACIMSYSVARMAN
  2
AcImSysVarManager
  3
AcMeServices
 90
        0
280
     0
281
     0
  0
CLASS
  1
ACIMREALSYSVAR
  2
AcImRealSysVar
  3
AcMeServices
 90
        0
280
     0
281
     0
  0
CLASS
  1
ACIMINTSYSVAR
  2
AcImIntSysVar
  3
AcMeServices
 90
        0
280
     0
281
     0
  0
CLASS
  1
ACMEDRAWINGMAN
  2
AcMeDrawingMan
  3
AcMeServices
 90
        0
280
     0
281
     0
  0
CLASS
  1
ACMEVIEW
  2
AcMeView
  3
AcMeServices
 90
        0
280
     0
281
     0
  0
CLASS
  1
ACDBENTITYCACHE
  2
AcMeEntityCache
  3
AcMeServices
 90
        0
280
     0
281
     0
  0
CLASS
  1
GSMANAGER
  2
AcMeGSManager
  3
AcMeServices
 90
        0
280
     0
281
     0
  0
CLASS
  1
AMDTINTERNALREACTOR
  2
AmdtInternalReactor
  3
AcMeServices
 90
        0
280
     0
281
     0
  0
CLASS
  1
ACMESTATEMGR
  2
AcMeStateMgr
  3
AcMeServices
 90
        0
280
     0
281
     0
  0
CLASS
  1
ACGREFMASTER
  2
AcGrefMaster
  3
AcAttribServices
 90
        0
280
     0
281
     0
  0
CLASS
  1
ACME_DATABASE
  2
AcMeDbDatabase
  3
AcMeServices
 90
        0
280
     0
281
     0
  0
CLASS
  1
ACRFINSADJUSTERMGR
  2
AcRfInsAdjusterMgr
  3
AcMeServices
 90
        0
280
     0
281
     0
  0
CLASS
  1
ACGREFACADMASTER
  2
AcGrefacadMaster
  3
AcGrefServices
 90
        0
280
     0
281
     0
  0
CLASS
  1
AMIMASTER
  2
AmiMaster
  3
AmiServices
 90
        0
280
     0
281
     0
  0
CLASS
  1
ACMDATADICTIONARY
  2
AcmDataDictionary
  3
"AcmSymBB|Product Description: AutoCAD Mechanical 2004 DX|Company: Autodesk"
 90
        0
280
     0
281
     0
  0
CLASS
  1
ACMDATAENTRYBLOCK
  2
AcmDataEntryBlock
  3
"AcmSymBB|Product Description: AutoCAD Mechanical 2004 DX|Company: Autodesk"
 90
    32768
280
     0
281
     0
  0
CLASS
  1
ACIMSTRSYSVAR
  2
AcImStrSysVar
  3
AcMeServices
 90
        0
280
     0
281
     0
  0
CLASS
  1
ACMSTANDARDDIN
  2
AcmStandardDIN
  3
"Amdt_StdImp|Product Description: AutoCAD Mechanical 2004 DX|Company: Autodesk"
 90
        0
280
     0
281
     0
  0
CLASS
  1
AMGOBJPROPCFG
  2
AmgObjPropCfg
  3
"AmgLay|Product Description: AutoCAD Mechanical 2000|Company: Autodesk"
 90
        1
280
     0
281
     0
  0
CLASS
  1
AMDTEDGESTANDARDDIN
  2
AmdtEdgeStdDIN
  3
"Amdt_StdImp|Product Description: AutoCAD Mechanical 2004 DX|Company: Autodesk"
 90
    32768
280
     0
281
     0
  0
CLASS
  1
ACMSURFSTANDARDDIN
  2
AcmSurfTextStdDIN
  3
"Amdt_StdImp|Product Description: AutoCAD Mechanical 2004 DX|Company: Autodesk"
 90
        0
280
     0
281
     0
  0
CLASS
  1
ACMFCFSTANDARDDIN
  2
AcmFCFStdDIN
  3
"Amdt_StdImp|Product Description: AutoCAD Mechanical 2004 DX|Company: Autodesk"
 90
        0
280
     0
281
     0
  0
CLASS
  1
ACMWELDSTANDARDDIN
  2
AcmWeldingStdDIN
  3
"Amdt_StdImp|Product Description: AutoCAD Mechanical 2004 DX|Company: Autodesk"
 90
        0
280
     0
281
     0
  0
CLASS
  1
ACMIDSTANDARDDIN
  2
AcmIdStdDIN
  3
"Amdt_StdImp|Product Description: AutoCAD Mechanical 2004 DX|Company: Autodesk"
 90
        0
280
     0
281
     0
  0
CLASS
  1
ACMDATUMSTANDARDDIN
  2
AcmDatumStdDIN
  3
"Amdt_StdImp|Product Description: AutoCAD Mechanical 2004 DX|Company: Autodesk"
 90
        0
280
     0
281
     0
  0
CLASS
  1
ACMBOMSTANDARDDIN
  2
AcmBOMStdDIN
  3
"Amdt_StdImp|Product Description: AutoCAD Mechanical 2004 DX|Company: Autodesk"
 90
        0
280
     0
281
     0
  0
CLASS
  1
ACMDETAILSTANDARDDIN
  2
AmdtDetailSymStdDIN
  3
"Amdt_StdImp|Product Description: AutoCAD Mechanical 2004 DX|Company: Autodesk"
 90
        0
280
     0
281
     0
  0
CLASS
  1
ACMSECTIONSTANDARDDIN
  2
AmdtSectionSymStdDIN
  3
"Amdt_StdImp|Product Description: AutoCAD Mechanical 2004 DX|Company: Autodesk"
 90
        0
280
     0
281
     0
  0
CLASS
  1
ACMCENTERLINESTANDARDDIN
  2
AmdtCenterLineStdDIN
  3
"Amdt_StdImp|Product Description: AutoCAD Mechanical 2004 DX|Company: Autodesk"
 90
        0
280
     0
281
     0
  0
CLASS
  1
ACAMGLAYSTD
  2
AcAmgLayStd
  3
"AcAmgLayStd|Product Description: AutoCAD Mechanical 2000|Company: Autodesk"
 90
        0
280
     0
281
     0
  0
CLASS
  1
ACAMGDIMSTD
  2
AcAmgDimStd
  3
"AcAmgDimStd|Product Description: AutoCAD Mechanical 2000|Company: Autodesk"
 90
        0
280
     0
281
     0
  0
CLASS
  1
ACAMGTITLESTD
  2
AcAmgTitleStd
  3
"TITLEAPP"
 90
        0
280
     0
281
     0
  0
CLASS
  1
LAYER_INDEX
  2
AcDbLayerIndex
  3
ObjectDBX Classes
 90
    32768
280
     0
281
     0
  0
CLASS
  1
IDBUFFER
  2
AcDbIdBuffer
  3
ObjectDBX Classes
 90
    32768
280
     0
281
     0
  0
CLASS
  1
ACAMGFILTERDAT
  2
AcAmgFilterDat
  3
"AcadM|Product Description: AutoCAD Mechanical 2000|Company: Autodesk"
 90
    32768
280
     0
281
     0
  0
CLASS
  1
TABLESTYLE
  2
AcDbTableStyle
  3
ObjectDBX Classes
 90
     2047
280
     0
281
     0
  0
CLASS
  1
AM_DRAWING_MGR
  2
AcDmDwgMgr
  3
AcMechDwgViewMgmt
 90
        0
280
     0
281
     0
  0
CLASS
  1
AM_DWG_DOCUMENT
  2
AcDmDwgDocument
  3
AcMechDwgViewMgmt
 90
        0
280
     0
281
     0
  0
CLASS
  1
AM_DWG_SHEET
  2
AcDmSheet
  3
AcMechDwgViewMgmt
 90
        0
280
     0
281
     0
  0
CLASS
  1
AM_VIEWDIMPARMAP
  2
AcDmViewDimParMap
  3
AcMechDwgViewMgmt
 90
        0
280
     0
281
     0
  0
CLASS
  1
AM_DWGMGR_NAME
  2
AcDmDwgMgrName
  3
AcMechDwgViewMgmt
 90
        0
280
     0
281
     0
  0
CLASS
  1
AMDTMENUSTATEMGR
  2
AmdtMenuStateMgr
  3
McadcomServices
 90
        0
280
     0
281
     0
  0
CLASS
  1
AMDTMCOMMENUSTATE
  2
AmdtMcomMenuState
  3
McadcomServices
 90
        0
280
     0
281
     0
  0
CLASS
  1
MAPIAMMOUDLE
  2
MApiAmModule
  3
MApiAmServices
 90
        0
280
     0
281
     0
  0
CLASS
  1
AMDTADMENUSTATE
  2
AmdtAdMenuState
  3
DesignerServices
 90
        0
280
     0
281
     0
  0
CLASS
  1
ADAPPL
  2
AcAdAppl
  3
DesignerServices
 90
        0
280
     0
281
     0
  0
CLASS
  1
DEPMGR
  2
AcAdDepMgr
  3
DesignerServices
 90
        0
280
     0
281
     0
  0
CLASS
  1
PARAMMGR
  2
AcAdParamMgr
  3
DesignerServices
 90
        0
280
     0
281
     0
  0
CLASS
  1
PARAMSCOPE
  2
AcAdParamScope
  3
DesignerServices
 90
        0
280
     0
281
     0
  0
CLASS
  1
NAMEDAPPL
  2
AcAdNamedAppl
  3
DesignerServices
 90
        0
280
     0
281
     0
  0
CLASS
  1
AMDTDMMENUSTATE
  2
AmdtDmMenuState
  3
AcMechDwgViewMgmt
 90
        0
280
     0
281
     0
  0
CLASS
  1
AMDTAMMENUSTATE
  2
AmdtAmMenuState
  3
DesignerAssemblies
 90
        0
280
     0
281
     0
  0
CLASS
  1
ACAMPROJECT
  2
AcAmProject
  3
DesignerAssemblies
 90
        0
280
     0
281
     0
  0
CLASS
  1
ACAMGRCOMPDEF
  2
AcAmGrCompDef
  3
DesignerAssemblies
 90
        0
280
     0
281
     0
  0
CLASS
  1
ACCMCONTEXT
  2
AcCmContext
  3
DesignerAssemblies
 90
        0
280
     0
281
     0
  0
CLASS
  1
ACAMCOMPDEF
  2
AcAmCompDef
  3
DesignerAssemblies
 90
        0
280
     0
281
     0
  0
CLASS
  1
ACAMCOMPDEFMGR
  2
AcAmCompDefMgr
  3
DesignerAssemblies
 90
        0
280
     0
281
     0
  0
CLASS
  1
AMCONTEXTMGR
  2
AcAmContextMgr
  3
DesignerAssemblies
 90
        0
280
     0
281
     0
  0
CLASS
  1
ACAMCONTEXTMODELER
  2
AcAmContextModeler
  3
DesignerAssemblies
 90
        0
280
     0
281
     0
  0
CLASS
  1
ACMTHREADLINESTANDARDDIN
  2
AmdtThreadLineStdDIN
  3
"Amdt_StdImp|Product Description: AutoCAD Mechanical 2004 DX|Company: Autodesk"
 90
        0
280
     0
281
     0
  0
CLASS
  1
ACMNOTESTANDARDDIN
  2
AmdtNoteStdDIN
  3
"Amdt_StdImp|Product Description: AutoCAD Mechanical 2004 DX|Company: Autodesk"
 90
        0
280
     0
281
     0
  0
CLASS
  1
AMDTNOTETEMPLATEDB
  2
AmdtNoteTemplateDB
  3
AMDT_STDIMP_MODULE_NAME
 90
        0
280
     0
281
     0
  0
CLASS
  1
CATALOGSTATE
  2
AcAmCatalogState
  3
DesignerAssemblies
 90
        0
280
     0
281
     0
  0
CLASS
  1
ACAMGRCOMPDEFSET
  2
AcAmGrCompDefSet
  3
DesignerAssemblies
 90
        0
280
     0
281
     0
  0
CLASS
  1
AMDTBROWSERDBTAB
  2
AmdtBrowserDbTab
  3
McadcomServices
 90
        0
280
     0
281
     0
  0
CLASS
  1
CBROWSERAPPOBJECT
  2
CBrowserAppObject
  3
McadcomServices
 90
        0
280
     0
281
     0
  0
CLASS
  1
DM_PLACEHOLDER
  2
AcDmSelsetPlaceholder
  3
AcMechDwgViewMgmt
 90
        0
280
     0
281
     0
  0
CLASS
  1
SORTENTSTABLE
  2
AcDbSortentsTable
  3
ObjectDBX Classes
 90
        0
280
     0
281
     0
  0
CLASS
  1
EXACXREFPANELOBJECT
  2
ExAcXREFPanelObject
  3
EXAC_ESW
 90
    32768
280
     0
281
     0
  0
CLASS
  1
AMDTEDGESTANDARDDIN13715
  2
AmdtEdgeStdDIN13715
  3
"Amdt_StdImp|Product Description: AutoCAD Mechanical 2004 DX|Company: Autodesk"
 90
        0
280
     0
281
     0
  0
CLASS
  1
ACAMGHOLECHARTSTDDIN
  2
AcAmgHoleChartStdDIN
  3
ACMSYMBB_MODULE_NAME
 90
        0
280
     0
281
     0
  0
ENDSEC
  0
SECTION
  2
TABLES
  0
TABLE
  2
VPORT
  5
8
330
0
100
AcDbSymbolTable
 70
    40
  0
VPORT
  5
1076
330
8
100
AcDbSymbolTableRecord
100
AcDbViewportTableRecord
  2
*Active
 70
     0
 10
0.0
 20
0.0
 11
1.0
 21
1.0
 12
90.73425376873261
 22
158.1981818551409
 13
0.0
 23
0.0
 14
2.5
 24
2.5
 15
10.0
 25
10.0
 16
0.0
 26
0.0
 36
1.0
 17
0.0
 27
0.0
 37
0.0
 40
110.7415488499649
 41
1.494545454545454
 42
50.0
 43
0.0
 44
0.0
 50
0.0
 51
0.0
 71
     0
 72
   100
 73
     1
 74
     3
 75
     0
 76
     0
 77
     0
 78
     0
281
     0
 65
     0
110
0.0
120
0.0
130
0.0
111
1.0
121
0.0
131
0.0
112
0.0
122
1.0
132
0.0
 79
     0
146
0.0
  0
ENDTAB
  0
TABLE
  2
LTYPE
  5
5
330
0
100
AcDbSymbolTable
 70
    21
  0
LTYPE
  5
14
330
5
100
AcDbSymbolTableRecord
100
AcDbLinetypeTableRecord
  2
ByBlock
 70
     0
  3

 72
    65
 73
     0
 40
0.0
  0
LTYPE
  5
15
330
5
100
AcDbSymbolTableRecord
100
AcDbLinetypeTableRecord
  2
ByLayer
 70
     0
  3

 72
    65
 73
     0
 40
0.0
  0
LTYPE
  5
16
330
5
100
AcDbSymbolTableRecord
100
AcDbLinetypeTableRecord
  2
Continuous
 70
     0
  3
Solid line
 72
    65
 73
     0
 40
0.0
  0
LTYPE
  5
52
330
5
100
AcDbSymbolTableRecord
100
AcDbLinetypeTableRecord
  2
Amconstr
 70
     0
  3
_______________________
 72
    65
 73
     2
 40
9999.0
 49
9999.0
 74
     0
 49
0.0
 74
     0
  0
LTYPE
  5
57
330
5
100
AcDbSymbolTableRecord
100
AcDbLinetypeTableRecord
  2
Amzigzag
 70
     0
  3
/\/-/\/-/\/-/\/-/\/-/\/
 72
    65
 73
     2
 40
11.0001
 49
0.0001
 74
     4
 75
   135
340
56
 46
0.04
 50
0.0
 44
0.0
 45
0.0
 49
-11.0
 74
     0
  0
LTYPE
  5
58
330
5
100
AcDbSymbolTableRecord
100
AcDbLinetypeTableRecord
  2
AM_DIN_F_W050
 70
     0
  3
__ __ __ __ __ __ __ __ __ __ __ __ __ __ __
 72
    65
 73
     2
 40
6.25
 49
4.75
 74
     0
 49
-1.5
 74
     0
  0
LTYPE
  5
59
330
5
100
AcDbSymbolTableRecord
100
AcDbLinetypeTableRecord
  2
AM_DIN_G_W050
 70
     0
  3
____ . ____ . ____ . ____ . ____ . ____ . ____
 72
    65
 73
     4
 40
13.75
 49
9.75
 74
     0
 49
-1.5
 74
     0
 49
1.0
 74
     0
 49
-1.5
 74
     0
  0
LTYPE
  5
5A
330
5
100
AcDbSymbolTableRecord
100
AcDbLinetypeTableRecord
  2
AM_DIN_K_W050
 70
     0
  3
_____ . . _____ . . _____ . . ____ .. ____
 72
    65
 73
     6
 40
16.25
 49
9.75
 74
     0
 49
-1.5
 74
     0
 49
1.0
 74
     0
 49
-1.5
 74
     0
 49
1.0
 74
     0
 49
-1.5
 74
     0
  0
LTYPE
  5
5B
330
5
100
AcDbSymbolTableRecord
100
AcDbLinetypeTableRecord
  2
AM_DIN_G_W050x2
 70
     0
  3
__ . __ . __ . __ . __ . __
 72
    65
 73
     4
 40
6.875
 49
4.75
 74
     0
 49
-0.875
 74
     0
 49
0.375
 74
     0
 49
-0.875
 74
     0
  0
LTYPE
  5
5C
330
5
100
AcDbSymbolTableRecord
100
AcDbLinetypeTableRecord
  2
AM_DIN_F_W050x2
 70
     0
  3
 _ _ _ _ _ _ _ _ _ _ _ _
 72
    65
 73
     2
 40
3.125
 49
2.25
 74
     0
 49
-0.875
 74
     0
  0
LTYPE
  5
69
330
5
100
AcDbSymbolTableRecord
100
AcDbLinetypeTableRecord
  2
ACDINWELD
 70
     0
  3
_ _ _ _ _
 72
    65
 73
     2
 40
2.0
 49
2.0
 74
     0
 49
-1.0
 74
     0
  0
LTYPE
  5
6A
330
5
100
AcDbSymbolTableRecord
100
AcDbLinetypeTableRecord
  2
ACDINTGB
 70
     0
  3
__ . . __ . .
 72
    65
 73
     6
 40
9.0
 49
4.0
 74
     0
 49
-1.0
 74
     0
 49
1.0
 74
     0
 49
-1.0
 74
     0
 49
1.0
 74
     0
 49
-1.0
 74
     0
  0
LTYPE
  5
6B
330
5
100
AcDbSymbolTableRecord
100
AcDbLinetypeTableRecord
  2
ACDINTGL
 70
     0
  3
_ _ _ _ _
 72
    65
 73
     2
 40
3.0
 49
2.0
 74
     0
 49
-1.0
 74
     0
  0
LTYPE
  5
6D
330
5
100
AcDbSymbolTableRecord
100
AcDbLinetypeTableRecord
  2
CENTER
 70
     0
  3
__ . __
 72
    65
 73
     4
 40
7.0
 49
4.0
 74
     0
 49
-1.0
 74
     0
 49
1.0
 74
     0
 49
-1.0
 74
     0
  0
LTYPE
  5
FF
330
5
100
AcDbSymbolTableRecord
100
AcDbLinetypeTableRecord
  2
STRICHPUNKT
 70
     0
  3
Strichpunkt __ . __ . __ . __ . __ . __ . __ . 
 72
    65
 73
     4
 40
25.4
 49
12.7
 74
     0
 49
-6.349999999999998
 74
     0
 49
0.0
 74
     0
 49
-6.349999999999998
 74
     0
  0
LTYPE
  5
100
330
5
100
AcDbSymbolTableRecord
100
AcDbLinetypeTableRecord
  2
STRICHLINIE
 70
     0
  3
Strichlinie __ __ __ __ __ __ __ __ __ __ __ __
 72
    65
 73
     2
 40
19.05
 49
12.7
 74
     0
 49
-6.349999999999998
 74
     0
  0
LTYPE
  5
10C
330
5
100
AcDbSymbolTableRecord
100
AcDbLinetypeTableRecord
  2
PHANTOM2
 70
     0
  3
Phantom (.5x) ___ _ _ ___ _ _ ___ _ _ ___ _ _
 72
    65
 73
     6
 40
31.75
 49
15.875
 74
     0
 49
-3.174999999999998
 74
     0
 49
3.174999999999998
 74
     0
 49
-3.174999999999998
 74
     0
 49
3.174999999999998
 74
     0
 49
-3.174999999999998
 74
     0
  0
LTYPE
  5
6B6
330
5
100
AcDbSymbolTableRecord
100
AcDbLinetypeTableRecord
  2
HIDDEN
 70
     0
  3
Verdeckt
 72
    65
 73
     2
 40
9.525
 49
6.349999999999998
 74
     0
 49
-3.174999999999998
 74
     0
  0
ENDTAB
  0
TABLE
  2
LAYER
  5
2
102
{ACAD_XDICTIONARY
360
F4A
102
}
330
0
100
AcDbSymbolTable
 70
     9
  0
LAYER
  5
10
330
2
100
AcDbSymbolTableRecord
100
AcDbLayerTableRecord
  2
0
 70
     0
 62
     7
  6
Continuous
370
    -3
390
F
  0
LAYER
  5
115
330
2
100
AcDbSymbolTableRecord
100
AcDbLayerTableRecord
  2
P-0000
 70
     0
 62
     7
  6
Continuous
370
    -3
390
F
  0
LAYER
  5
117
330
2
100
AcDbSymbolTableRecord
100
AcDbLayerTableRecord
  2
Defpoints
 70
     0
 62
     7
  6
Continuous
290
     0
370
    -3
390
F
  0
LAYER
  5
DA2
330
2
100
AcDbSymbolTableRecord
100
AcDbLayerTableRecord
  2
AM_7
 70
     0
 62
     4
  6
AM_DIN_G_W050
370
    25
390
F
1001
AcAecLayerStandard
1000

1000

  0
LAYER
  5
E14
330
2
100
AcDbSymbolTableRecord
100
AcDbLayerTableRecord
  2
AM_5
 70
     0
 62
     3
  6
Continuous
370
    25
390
F
1001
AcAecLayerStandard
1000

1000

  0
LAYER
  5
F4F
330
2
100
AcDbSymbolTableRecord
100
AcDbLayerTableRecord
  2
AM_8
 70
     0
 62
     1
  6
Continuous
370
    25
390
F
1001
AcAecLayerStandard
1000

1000

  0
ENDTAB
  0
TABLE
  2
STYLE
  5
3
330
0
100
AcDbSymbolTable
 70
     4
  0
STYLE
  5
11
330
3
100
AcDbSymbolTableRecord
100
AcDbTextStyleTableRecord
  2
STANDARD
 70
     0
 40
0.0
 41
1.0
 50
0.0
 71
     0
 42
2.5
  3
ISOCP.SHX
  4

  0
STYLE
  5
56
330
3
100
AcDbSymbolTableRecord
100
AcDbTextStyleTableRecord
  2

 70
     1
 40
0.0
 41
1.0
 50
0.0
 71
     0
 42
2.5
  3
ltypeshp.shx
  4

  0
STYLE
  5
5D
330
3
100
AcDbSymbolTableRecord
100
AcDbTextStyleTableRecord
  2
ACDINTS
 70
     0
 40
1.0
 41
1.0
 50
0.0
 71
     0
 42
2.5
  3
isocp.shx
  4

  0
STYLE
  5
68
330
3
100
AcDbSymbolTableRecord
100
AcDbTextStyleTableRecord
  2
ACDINGDT
 70
     0
 40
0.0
 41
1.0
 50
0.0
 71
     0
 42
2.5
  3
AMGDT
  4

  0
ENDTAB
  0
TABLE
  2
VIEW
  5
6
330
0
100
AcDbSymbolTable
 70
     0
  0
ENDTAB
  0
TABLE
  2
UCS
  5
7
330
0
100
AcDbSymbolTable
 70
     0
  0
ENDTAB
  0
TABLE
  2
APPID
  5
9
330
0
100
AcDbSymbolTable
 70
    18
  0
APPID
  5
12
330
9
100
AcDbSymbolTableRecord
100
AcDbRegAppTableRecord
  2
ACAD
 70
     0
  0
APPID
  5
30
330
9
100
AcDbSymbolTableRecord
100
AcDbRegAppTableRecord
  2
MCAD_NO_VIS
 70
     0
  0
APPID
  5
31
330
9
100
AcDbSymbolTableRecord
100
AcDbRegAppTableRecord
  2
ACAD_TEMP_GRAPHIC
 70
     0
  0
APPID
  5
44
330
9
100
AcDbSymbolTableRecord
100
AcDbRegAppTableRecord
  2
ACATTRIBSERVICES
 70
     0
  0
APPID
  5
11F
330
9
100
AcDbSymbolTableRecord
100
AcDbRegAppTableRecord
  2
ACME_LAYERS
 70
     0
  0
APPID
  5
6B8
330
9
100
AcDbSymbolTableRecord
100
AcDbRegAppTableRecord
  2
AD_DRAW
 70
     0
  0
APPID
  5
6D6
330
9
100
AcDbSymbolTableRecord
100
AcDbRegAppTableRecord
  2
DESIGNERASSEMBLIES
 70
     0
  0
APPID
  5
6E0
330
9
100
AcDbSymbolTableRecord
100
AcDbRegAppTableRecord
  2
ACAD_DSTYLE_DIMARC_LENGTH_SYMBOL
 70
     0
  0
APPID
  5
6E1
330
9
100
AcDbSymbolTableRecord
100
AcDbRegAppTableRecord
  2
ACAD_DSTYLE_DIMJOGGED_JOGANGLE_SYMBOL
 70
     0
  0
APPID
  5
6F1
330
9
100
AcDbSymbolTableRecord
100
AcDbRegAppTableRecord
  2
ACADM_DIM_EDIT
 70
     0
  0
APPID
  5
6F2
330
9
100
AcDbSymbolTableRecord
100
AcDbRegAppTableRecord
  2
AMDT_DM_ADJ
 70
     0
  0
APPID
  5
D00
330
9
100
AcDbSymbolTableRecord
100
AcDbRegAppTableRecord
  2
AcAecLayerStandard
 70
     0
  0
APPID
  5
D2F
330
9
100
AcDbSymbolTableRecord
100
AcDbRegAppTableRecord
  2
GENIUS_GENDTOL_13
 70
     0
  0
APPID
  5
DA4
330
9
100
AcDbSymbolTableRecord
100
AcDbRegAppTableRecord
  2
GENIUS_GENODEF_13
 70
     0
  0
APPID
  5
DA5
330
9
100
AcDbSymbolTableRecord
100
AcDbRegAppTableRecord
  2
GENIUS_GENOBJ-N-CEN_13
 70
     0
  0
APPID
  5
DA6
330
9
100
AcDbSymbolTableRecord
100
AcDbRegAppTableRecord
  2
GENIUS_GENCEN_19
 70
     0
  0
APPID
  5
F50
330
9
100
AcDbSymbolTableRecord
100
AcDbRegAppTableRecord
  2
GENIUS_GENOBJ-N-HTC_13
 70
     0
  0
APPID
  5
F51
330
9
100
AcDbSymbolTableRecord
100
AcDbRegAppTableRecord
  2
GENIUS_GENHATCH_13
 70
     0
  0
ENDTAB
  0
TABLE
  2
DIMSTYLE
  5
A
330
0
100
AcDbSymbolTable
 70
     9
100
AcDbDimStyleTable
 71
     1
340
70
  0
DIMSTYLE
105
70
330
A
100
AcDbSymbolTableRecord
100
AcDbDimStyleTableRecord
  2
AM_DIN
 70
     0
  4
"
 41
2.5
 42
1.0
 43
10.0
 44
1.0
 47
0.1
 48
0.1
 73
     0
 74
     0
 77
     1
 78
     8
 79
     2
140
3.5
141
0.0
143
0.0393701
146
0.71
147
1.5
172
     1
176
   256
177
   256
178
     2
271
     2
272
     3
274
     4
283
     0
284
     8
340
11
371
    -1
372
    -1
1001
ACAD_DSTYLE_DIMARC_LENGTH_SYMBOL
1070
   379
1070
     0
1001
ACAD_DSTYLE_DIMJOGGED_JOGANGLE_SYMBOL
1070
   384
1040
1.570796326794896
  0
DIMSTYLE
105
71
330
A
100
AcDbSymbolTableRecord
100
AcDbDimStyleTableRecord
  2
AM_DIN$3
 70
     0
  4
"
 41
2.5
 42
1.0
 43
10.0
 44
1.0
 47
0.1
 48
0.1
 73
     0
 77
     1
 78
     8
 79
     2
140
3.5
141
0.0
143
0.0393701
146
0.71
147
1.5
176
   256
177
   256
178
     2
271
     2
272
     3
274
     4
283
     0
284
     8
288
     1
289
     0
340
11
371
    -1
372
    -1
1001
ACAD_DSTYLE_DIMARC_LENGTH_SYMBOL
1070
   379
1070
     0
1001
ACAD_DSTYLE_DIMJOGGED_JOGANGLE_SYMBOL
1070
   384
1040
1.570796326794896
  0
DIMSTYLE
105
72
330
A
100
AcDbSymbolTableRecord
100
AcDbDimStyleTableRecord
  2
AM_DIN$4
 70
     0
  4
"
 41
2.5
 42
1.0
 43
10.0
 44
1.0
 47
0.1
 48
0.1
 73
     0
 77
     1
 78
     8
 79
     2
140
3.5
141
0.0
143
0.0393701
146
0.71
147
1.5
176
   256
177
   256
178
     2
271
     2
272
     3
274
     4
283
     0
284
     8
288
     1
289
     0
340
11
371
    -1
372
    -1
1001
ACAD_DSTYLE_DIMARC_LENGTH_SYMBOL
1070
   379
1070
     0
1001
ACAD_DSTYLE_DIMJOGGED_JOGANGLE_SYMBOL
1070
   384
1040
1.570796326794896
  0
DIMSTYLE
105
73
330
A
100
AcDbSymbolTableRecord
100
AcDbDimStyleTableRecord
  2
AM_DIN$6
 70
     0
  4
"
 41
2.5
 42
1.0
 43
10.0
 44
1.0
 47
0.1
 48
0.1
 73
     0
 74
     0
 78
     8
 79
     2
140
3.5
141
0.0
143
0.0393701
146
0.71
147
1.5
172
     1
176
   256
177
   256
178
     2
271
     2
272
     3
274
     4
283
     0
284
     8
340
11
371
    -1
372
    -1
1001
ACAD_DSTYLE_DIMARC_LENGTH_SYMBOL
1070
   379
1070
     0
1001
ACAD_DSTYLE_DIMJOGGED_JOGANGLE_SYMBOL
1070
   384
1040
1.570796326794896
  0
DIMSTYLE
105
74
330
A
100
AcDbSymbolTableRecord
100
AcDbDimStyleTableRecord
  2
AM_DIN$7
 70
     0
  4
"
 41
2.5
 42
1.0
 43
10.0
 44
1.0
 47
0.1
 48
0.1
 73
     0
 74
     0
 77
     1
 78
     8
 79
     2
140
5.0
141
0.0
143
0.0393701
146
0.71
147
1.5
172
     1
176
   256
177
   256
178
     2
271
     2
272
     3
274
     4
283
     0
284
     8
340
11
371
    -1
372
    -1
1001
ACAD_DSTYLE_DIMARC_LENGTH_SYMBOL
1070
   379
1070
     0
1001
ACAD_DSTYLE_DIMJOGGED_JOGANGLE_SYMBOL
1070
   384
1040
1.570796326794896
  0
DIMSTYLE
105
75
330
A
100
AcDbSymbolTableRecord
100
AcDbDimStyleTableRecord
  2
AM_DIN$SF
 70
     0
  4
"
 41
2.5
 42
1.0
 43
10.0
 44
1.0
 47
0.1
 48
0.1
 73
     0
 74
     0
 75
     1
 76
     1
 77
     1
 78
     8
 79
     2
140
3.5
141
0.0
143
0.0393701
146
0.71
147
1.5
172
     1
176
   256
177
   256
178
     2
271
     2
272
     3
274
     4
283
     0
284
     8
340
11
371
    -1
372
    -1
1001
ACAD_DSTYLE_DIMARC_LENGTH_SYMBOL
1070
   379
1070
     0
1001
ACAD_DSTYLE_DIMJOGGED_JOGANGLE_SYMBOL
1070
   384
1040
1.570796326794896
  0
DIMSTYLE
105
7A
330
A
100
AcDbSymbolTableRecord
100
AcDbDimStyleTableRecord
  2
AM_DIN$SH
 70
     0
  4
"
 41
2.5
 42
1.0
 43
10.0
 44
1.0
 47
0.1
 48
0.1
 73
     0
 74
     0
 75
     1
 76
     1
 77
     1
 78
     8
 79
     2
140
3.5
141
0.0
143
0.0393701
144
2.0
146
0.71
147
1.5
172
     1
173
     1
176
   256
177
   256
178
     2
271
     2
272
     3
274
     4
283
     0
284
     8
340
11
343
76
371
    -1
372
    -1
1001
ACAD_DSTYLE_DIMARC_LENGTH_SYMBOL
1070
   379
1070
     0
1001
ACAD_DSTYLE_DIMJOGGED_JOGANGLE_SYMBOL
1070
   384
1040
1.570796326794896
  0
DIMSTYLE
105
D0C
102
{ACAD_REACTORS
330
1019
330
104A
102
}
330
A
100
AcDbSymbolTableRecord
100
AcDbDimStyleTableRecord
  2
AM_DIN$0
 70
     0
  4
"
 41
2.5
 42
1.0
 43
10.0
 44
1.0
 47
0.1
 48
0.1
 73
     0
 74
     0
 77
     1
 78
     8
 79
     2
140
3.5
141
0.0
143
0.0393701
146
0.71
147
1.5
172
     1
176
   256
177
   256
178
     2
271
     2
272
     3
274
     4
283
     0
284
     8
340
11
371
    -1
372
    -1
1001
ACAD_DSTYLE_DIMARC_LENGTH_SYMBOL
1070
   379
1070
     0
1001
ACAD_DSTYLE_DIMJOGGED_JOGANGLE_SYMBOL
1070
   384
1040
1.570796326794896
  0
ENDTAB
  0
TABLE
  2
BLOCK_RECORD
  5
1
330
0
100
AcDbSymbolTable
 70
     5
  0
BLOCK_RECORD
  5
1F
102
{ACAD_XDICTIONARY
360
81
102
}
330
1
100
AcDbSymbolTableRecord
100
AcDbBlockTableRecord
  2
*Model_Space
340
22
  0
BLOCK_RECORD
  5
1B
330
1
100
AcDbSymbolTableRecord
100
AcDbBlockTableRecord
  2
*Paper_Space
340
1E
  0
BLOCK_RECORD
  5
23
330
1
100
AcDbSymbolTableRecord
100
AcDbBlockTableRecord
  2
*Paper_Space0
340
26
  0
BLOCK_RECORD
  5
76
330
1
100
AcDbSymbolTableRecord
100
AcDbBlockTableRecord
  2
GENAXEH
340
0
  0
BLOCK_RECORD
  5
101A
330
1
100
AcDbSymbolTableRecord
100
AcDbBlockTableRecord
  2
*D3
340
0
  0
BLOCK_RECORD
  5
104B
330
1
100
AcDbSymbolTableRecord
100
AcDbBlockTableRecord
  2
*D4
340
0
  0
ENDTAB
  0
ENDSEC
  0
SECTION
  2
BLOCKS
  0
BLOCK
  5
20
330
1F
100
AcDbEntity
  8
0
100
AcDbBlockBegin
  2
*Model_Space
 70
     0
 10
0.0
 20
0.0
 30
0.0
  3
*Model_Space
  1

  0
ENDBLK
  5
21
330
1F
100
AcDbEntity
  8
0
100
AcDbBlockEnd
  0
BLOCK
  5
1C
330
1B
100
AcDbEntity
 67
     1
  8
0
100
AcDbBlockBegin
  2
*Paper_Space
 70
     0
 10
0.0
 20
0.0
 30
0.0
  3
*Paper_Space
  1

  0
ENDBLK
  5
1D
330
1B
100
AcDbEntity
 67
     1
  8
0
100
AcDbBlockEnd
  0
BLOCK
  5
24
330
23
100
AcDbEntity
 67
     1
  8
0
100
AcDbBlockBegin
  2
*Paper_Space0
 70
     0
 10
0.0
 20
0.0
 30
0.0
  3
*Paper_Space0
  1

  0
ENDBLK
  5
25
330
23
100
AcDbEntity
 67
     1
  8
0
100
AcDbBlockEnd
  0
BLOCK
  5
78
330
76
100
AcDbEntity
  8
0
100
AcDbBlockBegin
  2
GENAXEH
 70
     0
 10
0.0
 20
0.0
 30
0.0
  3
GENAXEH
  1

  0
LINE
  5
77
330
76
100
AcDbEntity
  8
0
100
AcDbLine
 10
-1.0
 20
0.0
 30
0.0
 11
1.0
 21
0.0
 31
0.0
  0
ENDBLK
  5
79
330
76
100
AcDbEntity
  8
0
100
AcDbBlockEnd
  0
BLOCK
  5
1024
330
101A
100
AcDbEntity
  8
0
100
AcDbBlockBegin
  2
*D3
 70
     1
 10
0.0
 20
0.0
 30
0.0
  3
*D3
  1

  0
LINE
  5
1063
330
101A
100
AcDbEntity
  8
AM_5
100
AcDbLine
 10
90.68126204601934
 20
196.2415164153236
 30
0.0
 11
124.7703932223035
 21
196.2415164153236
 31
0.0
  0
LINE
  5
1064
330
101A
100
AcDbEntity
  8
AM_5
100
AcDbLine
 10
90.68126204601934
 20
103.2415164153237
 30
0.0
 11
124.7703932223034
 21
103.2415164153237
 31
0.0
  0
LINE
  5
1065
330
101A
100
AcDbEntity
  8
AM_5
100
AcDbLine
 10
123.7703932223035
 20
191.2415164153236
 30
0.0
 11
123.7703932223034
 21
108.2415164153237
 31
0.0
  0
SOLID
  5
1066
330
101A
100
AcDbEntity
  8
AM_5
100
AcDbTrace
 10
122.9370598889701
 20
191.2415164153236
 30
0.0
 11
124.6037265556368
 21
191.2415164153236
 31
0.0
 12
123.7703932223035
 22
196.2415164153236
 32
0.0
 13
123.7703932223035
 23
196.2415164153236
 33
0.0
  0
SOLID
  5
1067
330
101A
100
AcDbEntity
  8
AM_5
100
AcDbTrace
 10
122.9370598889701
 20
108.2415164153237
 30
0.0
 11
124.6037265556368
 21
108.2415164153237
 31
0.0
 12
123.7703932223034
 22
103.2415164153237
 32
0.0
 13
123.7703932223034
 23
103.2415164153237
 33
0.0
  0
MTEXT
  5
1068
330
101A
100
AcDbEntity
  8
AM_5
 62
     2
100
AcDbMText
 10
120.5203932223035
 20
149.7415164153237
 30
0.0
 40
3.5
 41
0.0
 71
     5
 72
     1
  1
%%c93
 11
0.0000000000000001
 21
1.0
 31
0.0
 73
     1
 44
1.0
1001
ACAD
1000
MTEXTBEGIN
1070
    73
1070
     1
1070
    44
1040
1.0
1070
    74
1070
     0
1000
MTEXTEND
  0
POINT
  5
1069
330
101A
100
AcDbEntity
  8
Defpoints
 62
     0
100
AcDbPoint
 10
89.68126204601935
 20
196.2415164153236
 30
0.0
  0
POINT
  5
106A
330
101A
100
AcDbEntity
  8
Defpoints
 62
     0
100
AcDbPoint
 10
89.68126204601935
 20
103.2415164153237
 30
0.0
  0
POINT
  5
106B
330
101A
100
AcDbEntity
  8
Defpoints
 62
     0
100
AcDbPoint
 10
123.7703932223034
 20
103.2415164153237
 30
0.0
  0
ENDBLK
  5
1025
330
101A
100
AcDbEntity
  8
0
100
AcDbBlockEnd
  0
BLOCK
  5
1055
330
104B
100
AcDbEntity
  8
0
100
AcDbBlockBegin
  2
*D4
 70
     1
 10
0.0
 20
0.0
 30
0.0
  3
*D4
  1

  0
LINE
  5
106C
330
104B
100
AcDbEntity
  8
AM_5
100
AcDbLine
 10
89.68126204601935
 20
193.7415164153236
 30
0.0
 11
89.68126204601935
 21
209.2415164153237
 31
0.0
  0
LINE
  5
106D
330
104B
100
AcDbEntity
  8
AM_5
100
AcDbLine
 10
64.68126204601936
 20
197.2415164153236
 30
0.0
 11
64.68126204601936
 21
209.2415164153237
 31
0.0
  0
LINE
  5
106E
330
104B
100
AcDbEntity
  8
AM_5
100
AcDbLine
 10
84.68126204601935
 20
208.2415164153237
 30
0.0
 11
69.68126204601936
 21
208.2415164153237
 31
0.0
  0
SOLID
  5
106F
330
104B
100
AcDbEntity
  8
AM_5
100
AcDbTrace
 10
84.68126204601935
 20
209.074849748657
 30
0.0
 11
84.68126204601935
 21
207.4081830819903
 31
0.0
 12
89.68126204601935
 22
208.2415164153237
 32
0.0
 13
89.68126204601935
 23
208.2415164153237
 33
0.0
  0
SOLID
  5
1070
330
104B
100
AcDbEntity
  8
AM_5
100
AcDbTrace
 10
69.68126204601936
 20
209.074849748657
 30
0.0
 11
69.68126204601936
 21
207.4081830819903
 31
0.0
 12
64.68126204601936
 22
208.2415164153237
 32
0.0
 13
64.68126204601936
 23
208.2415164153237
 33
0.0
  0
MTEXT
  5
1071
330
104B
100
AcDbEntity
  8
AM_5
 62
     2
100
AcDbMText
 10
77.18126204601936
 20
211.4918609035127
 30
0.0
 40
3.5
 41
0.0
 71
     5
 72
     1
  1
25
 73
     1
 44
1.0
1001
ACAD
1000
MTEXTBEGIN
1070
    73
1070
     1
1070
    44
1040
1.0
1070
    74
1070
     0
1000
MTEXTEND
  0
POINT
  5
1072
330
104B
100
AcDbEntity
  8
Defpoints
 62
     0
100
AcDbPoint
 10
89.68126204601935
 20
192.7415164153237
 30
0.0
  0
POINT
  5
1073
330
104B
100
AcDbEntity
  8
Defpoints
 62
     0
100
AcDbPoint
 10
64.68126204601936
 20
196.2415164153236
 30
0.0
  0
POINT
  5
1074
330
104B
100
AcDbEntity
  8
Defpoints
 62
     0
100
AcDbPoint
 10
64.68126204601936
 20
208.2415164153237
 30
0.0
  0
ENDBLK
  5
1056
330
104B
100
AcDbEntity
  8
0
100
AcDbBlockEnd
  0
ENDSEC
  0
SECTION
  2
ENTITIES
  0
LWPOLYLINE
  5
B70
330
1F
100
AcDbEntity
  8
P-0000
  6
Continuous
 62
     7
 60
     1
100
AcDbPolyline
 90
        2
 70
     0
 43
0.0
 10
-399.1435663638148
 20
-244.5843033481269
 10
-399.1435663638112
 20
-251.7702017329921
1001
ACME_LAYERS
1000
1
  0
LWPOLYLINE
  5
B71
330
1F
100
AcDbEntity
  8
P-0000
  6
Continuous
 62
     3
 60
     1
100
AcDbPolyline
 90
        2
 70
     0
 43
0.0
 10
-401.3364102339383
 20
-39.52020173298297
 10
-401.3364102339383
 20
-11.62020173298333
1001
ACME_LAYERS
1000
1
  0
LWPOLYLINE
  5
B72
330
1F
100
AcDbEntity
  8
P-0000
  6
Continuous
 62
     7
 60
     1
100
AcDbPolyline
 90
        4
 70
     0
 43
0.0
 10
-394.002700861005
 20
-289.3005429140012
 10
-394.002700861005
 20
-286.7962715976883
 10
-397.5742776681363
 20
-289.4876477659564
 10
-445.8135909999182
 20
-325.8385777012973
1001
ACME_LAYERS
1000
1
  0
LWPOLYLINE
  5
B73
330
1F
100
AcDbEntity
  8
P-0000
  6
Continuous
 62
     3
 60
     1
100
AcDbPolyline
 90
        2
 70
     0
 43
0.0
 10
-401.3364102339383
 20
-264.0202017329975
 10
-401.3364102339383
 20
-291.9202017329972
1001
ACME_LAYERS
1000
1
  0
LWPOLYLINE
  5
B74
330
1F
100
AcDbEntity
  8
P-0000
  6
STRICHPUNKT
 62
     3
 60
     1
100
AcDbPolyline
 90
        2
 70
     0
 43
0.0
 10
-401.3364102339383
 20
-264.0637117749557
 10
-401.3364102339383
 20
-292.2419150052319
1001
ACME_LAYERS
1000
1
  0
LWPOLYLINE
  5
B75
330
1F
100
AcDbEntity
  8
P-0000
  6
Continuous
 62
     7
 60
     1
100
AcDbPolyline
 90
        2
 70
     0
 43
0.0
 10
-405.3364102339383
 20
-215.7702017329884
 10
-405.3364102339383
 20
-236.0919150052305
1001
ACME_LAYERS
1000
1
  0
LWPOLYLINE
  5
B76
330
1F
100
AcDbEntity
  8
P-0000
  6
Continuous
 62
     7
 60
     1
100
AcDbPolyline
 90
       14
 70
     0
 43
0.0
 10
-401.6043594263683
 20
-243.6278133900942
 10
-401.5018715120622
 20
-243.831278596168
 10
-401.4219048251578
 20
-244.0493075217164
 10
-401.4041164979316
 20
-244.1118280048449
 10
-401.3755233988231
 20
-244.2342110274585
 10
-401.3568716607315
 20
-244.3424591590338
 10
-401.3461444809307
 20
-244.4307290619399
 10
-401.3364102339383
 20
-244.6910517715696
 10
-401.3364102339383
 20
-244.7269964386396
 10
-401.3364102339383
 20
-264.0202017329975
 10
-401.3364102339383
 20
-265.9668298812831
 10
-401.3364102339383
 20
-291.9202017329972
 10
-401.3364102339383
 20
-292.1261701825624
 10
-401.3364102339383
 20
-292.2419150052319
1001
ACME_LAYERS
1000
1
  0
LWPOLYLINE
  5
B77
330
1F
100
AcDbEntity
  8
P-0000
  6
Continuous
 62
     7
 60
     1
100
AcDbPolyline
 90
        2
 70
     0
 43
0.0
 10
-360.3364102339383
 20
-246.2604415012536
 10
-249.3364102339391
 20
-246.2604415012536
1001
ACME_LAYERS
1000
1
  0
LWPOLYLINE
  5
B78
330
1F
100
AcDbEntity
  8
P-0000
  6
Continuous
 62
     7
 60
     1
100
AcDbPolyline
 90
        5
 70
     0
 43
0.0
 10
-382.3364102339626
 20
-192.6241603774226
 10
-382.3364102339626
 20
-205.2604415012652
 10
-399.3364102339354
 20
-205.2604415012644
 10
-399.3364102339354
 20
-254.2604415012535
 10
-360.3364102339383
 20
-254.2604415012535
1001
ACME_LAYERS
1000
1
  0
LWPOLYLINE
  5
B79
330
1F
100
AcDbEntity
  8
P-0000
  6
Continuous
 62
     7
 60
     1
100
AcDbPolyline
 90
        3
 70
     0
 43
0.0
 10
-254.3364102339391
 20
-226.7604415012669
 10
-254.3364102339391
 20
-188.2604415012682
 10
-276.3364102339384
 20
-188.2604415012665
1001
ACME_LAYERS
1000
1
  0
LWPOLYLINE
  5
B7A
330
1F
100
AcDbEntity
  8
P-0000
  6
Continuous
 62
     7
 60
     1
100
AcDbPolyline
 90
        2
 70
     0
 43
0.0
 10
-249.3364102339391
 20
-246.2604415012536
 10
-249.3364102339391
 20
-226.7604415012669
1001
ACME_LAYERS
1000
1
  0
LWPOLYLINE
  5
B7B
330
1F
100
AcDbEntity
  8
P-0000
  6
Continuous
 62
     7
 60
     1
100
AcDbPolyline
 90
        4
 70
     0
 43
0.0
 10
-360.3364102339383
 20
-49.26044150127964
 10
-399.3364102339392
 20
-49.26044150127147
 10
-399.3364102339354
 20
-98.26044150126605
 10
-276.3364102339384
 20
-98.26044150126605
1001
ACME_LAYERS
1000
1
  0
LWPOLYLINE
  5
B7C
330
1F
100
AcDbEntity
  8
P-0000
  6
Continuous
 62
     7
 60
     1
100
AcDbPolyline
 90
        3
 70
     0
 43
0.0
 10
-249.3364102339391
 20
-61.760441501266
 10
-249.3364102339391
 20
-57.26044150127954
 10
-360.3364102339383
 20
-57.26044150127954
1001
ACME_LAYERS
1000
1
  0
LWPOLYLINE
  5
B7D
330
1F
100
AcDbEntity
  8
P-0000
  6
Continuous
 62
     7
 60
     1
100
AcDbPolyline
 90
        4
 70
     0
 43
0.0
 10
-276.3364102339384
 20
-98.26044150126605
 10
-276.3364102339384
 20
-100.2604415012681
 10
-254.3364102339391
 20
-100.2604415012685
 10
-254.3364102339391
 20
-61.760441501266
1001
ACME_LAYERS
1000
1
  0
LWPOLYLINE
  5
B7E
330
1F
100
AcDbEntity
  8
P-0000
  6
Continuous
 62
     7
 60
     1
100
AcDbPolyline
 90
        4
 70
     0
 43
0.0
 10
-276.3364102339384
 20
-107.2604415012683
 10
-254.3364102339391
 20
-107.2604415012683
 10
-254.3364102339391
 20
-115.2604415012665
 10
-276.3364102339384
 20
-115.2604415012665
1001
ACME_LAYERS
1000
1
  0
LWPOLYLINE
  5
B7F
330
1F
100
AcDbEntity
  8
P-0000
  6
Continuous
 62
     7
 60
     1
100
AcDbPolyline
 90
        2
 70
     0
 43
0.0
 10
-249.3364102339391
 20
-49.26044150127926
 10
-239.3364102339391
 20
-49.26044150127964
1001
ACME_LAYERS
1000
1
  0
LWPOLYLINE
  5
B80
330
1F
100
AcDbEntity
  8
P-0000
  6
Continuous
 62
     7
 60
     1
100
AcDbPolyline
 90
        4
 70
     0
 43
0.0
 10
-149.3364102339383
 20
-57.26044150127954
 10
-149.3364102339383
 20
-100.2604415012685
 10
-254.3364102339391
 20
-100.2604415012685
 10
-254.3364102339391
 20
-61.760441501266
1001
ACME_LAYERS
1000
1
  0
LWPOLYLINE
  5
B81
330
1F
100
AcDbEntity
  8
P-0000
  6
Continuous
 62
     7
 60
     1
100
AcDbPolyline
 90
        3
 70
     0
 43
0.0
 10
-405.3364102339383
 20
-104.7604415012657
 10
-405.3364102339383
 20
-102.590924512882
 10
-405.3364102339383
 20
-69.32265003178311
1001
ACME_LAYERS
1000
1
  0
LWPOLYLINE
  5
B82
330
1F
100
AcDbEntity
  8
P-0000
  6
Continuous
 62
     7
 60
     1
100
AcDbPolyline
 90
        2
 70
     0
 43
0.0
 10
-390.3364102339383
 20
-109.7604415012653
 10
-400.3364102339382
 20
-109.7604415012659
1001
ACME_LAYERS
1000
1
  0
LWPOLYLINE
  5
B83
330
1F
100
AcDbEntity
  8
P-0000
  6
Continuous
 62
     7
 60
     1
100
AcDbPolyline
 90
        2
 70
     0
 43
0.0
 10
-399.3364102339354
 20
-254.2604415012535
 10
-399.3364102339383
 20
-244.6180531583699
1001
ACME_LAYERS
1000
1
  0
LWPOLYLINE
  5
B84
330
1F
100
AcDbEntity
  8
P-0000
  6
Continuous
 62
     7
 60
     1
100
AcDbPolyline
 90
       14
 70
     0
 43
0.0
 10
-401.6043594263691
 20
-243.6180531583697
 10
-401.5018715120622
 20
-243.8215183644438
 10
-401.4219048251574
 20
-244.0395472899934
 10
-401.4041164979325
 20
-244.1020677731218
 10
-401.375523398824
 20
-244.2244507957341
 10
-401.3568716607315
 20
-244.3326989273108
 10
-401.3461444809311
 20
-244.4209688302156
 10
-401.3364102339383
 20
-244.681291539846
 10
-401.3364102339383
 20
-244.717236206915
 10
-401.3364102339378
 20
-264.0104415012734
 10
-401.3364102339383
 20
-265.957069649559
 10
-401.3364102339378
 20
-291.9104415012735
 10
-401.3364102339383
 20
-292.116409950839
 10
-401.3364102339383
 20
-292.2321547735076
1001
ACME_LAYERS
1000
1
  0
LWPOLYLINE
  5
B85
330
1F
100
AcDbEntity
  8
P-0000
  6
Continuous
 62
     7
 60
     1
100
AcDbPolyline
 90
        2
 70
     0
 43
0.0
 10
-390.3364102339383
 20
-193.7604415012669
 10
-400.3364102339382
 20
-193.7604415012661
1001
ACME_LAYERS
1000
1
  0
LWPOLYLINE
  5
B86
330
1F
100
AcDbEntity
  8
P-0000
  6
Continuous
 62
     7
 60
     1
100
AcDbPolyline
 90
        5
 70
     0
 43
0.0
 10
-249.3364102339391
 20
-246.2604415012536
 10
-360.3364102339383
 20
-246.2604415012536
 10
-360.3364102339383
 20
-254.2604415012535
 10
-399.3364102339354
 20
-254.2604415012535
 10
-399.3364102339354
 20
-221.7604415012638
1001
ACME_LAYERS
1000
1
  0
LWPOLYLINE
  5
B87
330
1F
100
AcDbEntity
  8
P-0000
  6
Continuous
 62
     7
 60
     1
100
AcDbPolyline
 90
        3
 70
     0
 43
0.0
 10
-261.3364102339384
 20
-188.2604415012665
 10
-254.3364102339391
 20
-188.2604415012682
 10
-254.3364102339391
 20
-211.7604415012688
1001
ACME_LAYERS
1000
1
  0
LWPOLYLINE
  5
B88
330
1F
100
AcDbEntity
  8
P-0000
  6
Continuous
 62
     7
 60
     1
100
AcDbPolyline
 90
        7
 70
     0
 43
0.0
 10
-401.6043594263691
 20
-243.6180531583697
 10
-401.5018715120622
 20
-243.8215183644438
 10
-401.4219048251574
 20
-244.0395472899934
 10
-401.3915715088331
 20
-244.1515745057727
 10
-401.3568716607315
 20
-244.3326989273108
 10
-401.3410768584008
 20
-244.481507486657
 10
-401.3364102339383
 20
-244.6180531583699
1001
ACME_LAYERS
1000
1
  0
LWPOLYLINE
  5
B89
330
1F
100
AcDbEntity
  8
P-0000
  6
Continuous
 62
     7
 60
     1
100
AcDbPolyline
 90
        2
 70
     0
 43
0.0
 10
-405.3364102339383
 20
-215.7604415012654
 10
-405.3364102339383
 20
-236.0821547735062
1001
ACME_LAYERS
1000
1
  0
LWPOLYLINE
  5
B8A
330
1F
100
AcDbEntity
  8
P-0000
  6
Continuous
 62
     7
 60
     1
100
AcDbPolyline
 90
        2
 70
     0
 43
0.0
 10
-390.3364102339383
 20
-193.7604415012669
 10
-400.3364102339382
 20
-193.7604415012661
1001
ACME_LAYERS
1000
1
  0
LWPOLYLINE
  5
B8B
330
1F
100
AcDbEntity
  8
P-0000
  6
Continuous
 62
     7
 60
     1
100
AcDbPolyline
 90
        2
 70
     0
 43
0.0
 10
-399.3364102339354
 20
-254.2604415012535
 10
-399.3364102339383
 20
-244.6180531583699
1001
ACME_LAYERS
1000
1
  0
LWPOLYLINE
  5
B8C
330
1F
100
AcDbEntity
  8
P-0000
  6
Continuous
 62
     7
 60
     1
100
AcDbPolyline
 90
        4
 70
     0
 43
0.0
 10
-400.8364102339383
 20
-300.7861845902656
 10
-402.0339019671753
 20
-299.2653703464952
 10
-402.1226396517668
 20
-298.7614346230378
 10
-401.8568087238856
 20
-297.6694097831399
1001
ACME_LAYERS
1000
1
  0
LWPOLYLINE
  5
B8D
330
1F
100
AcDbEntity
  8
P-0000
  6
Continuous
 62
     7
 60
     1
100
AcDbPolyline
 90
        2
 70
     0
 43
0.0
 10
-400.3364102339382
 20
-107.7604415012656
 10
-390.3364102339383
 20
-107.7604415012656
1001
ACME_LAYERS
1000
1
  0
LWPOLYLINE
  5
B8E
330
1F
100
AcDbEntity
  8
P-0000
  6
Continuous
 62
     7
 60
     1
100
AcDbPolyline
 90
        3
 70
     0
 43
0.0
 10
-400.8364102339383
 20
-2.734698412266709
 10
-402.0849776286203
 20
-4.454561794139133
 10
-401.8568087238856
 20
-5.851473219392396
1001
ACME_LAYERS
1000
1
  0
LWPOLYLINE
  5
B8F
330
1F
100
AcDbEntity
  8
P-0000
  6
Continuous
 62
     7
 60
     1
100
AcDbPolyline
 90
        6
 70
     0
 43
0.0
 10
-401.3364102339383
 20
-39.4669314593009
 10
-401.3364102339378
 20
-31.5104415012591
 10
-401.3364102339383
 20
-29.8629525963071
 10
-401.3364102339378
 20
-11.61044150125878
 10
-401.3364102339383
 20
-11.2887282290247
 10
-401.6043594263701
 20
-10.2887282290247
1001
ACME_LAYERS
1000
1
  0
LWPOLYLINE
  5
B90
330
1F
100
AcDbEntity
  8
P-0000
  6
Continuous
 62
     7
 60
     1
100
AcDbPolyline
 90
        2
 70
     0
 43
0.0
 10
-402.1007136732842
 20
-60.76254061837231
 10
-401.6043594263701
 20
-59.9028298441624
1001
ACME_LAYERS
1000
1
  0
LWPOLYLINE
  5
B91
330
1F
100
AcDbEntity
  8
P-0000
  6
Continuous
 62
     7
 60
     1
100
AcDbPolyline
 90
        2
 70
     0
 43
0.0
 10
-390.3364102339383
 20
-109.7604415012653
 10
-400.3364102339382
 20
-109.7604415012659
1001
ACME_LAYERS
1000
1
  0
LWPOLYLINE
  5
B92
330
1F
100
AcDbEntity
  8
P-0000
  6
Continuous
 62
     7
 60
     1
100
AcDbPolyline
 90
        2
 70
     0
 43
0.0
 10
-282.8821475712319
 20
-100.2604415012685
 10
-236.6627423275553
 20
-100.2604415012685
1001
ACME_LAYERS
1000
1
  0
LWPOLYLINE
  5
B93
330
1F
100
AcDbEntity
  8
P-0000
  6
STRICHPUNKT
 62
     3
 60
     1
100
AcDbPolyline
 90
        2
 70
     0
 43
0.0
 10
-362.6710954521003
 20
-225.2604415012733
 10
-362.8346809727659
 20
-227.2604415012733
1001
ACME_LAYERS
1000
1
  0
LWPOLYLINE
  5
B94
330
1F
100
AcDbEntity
  8
P-0000
  6
STRICHPUNKT
 62
     3
 60
     1
100
AcDbPolyline
 90
        3
 70
     0
 43
0.0
 10
-401.3364102339383
 20
-39.4669314593009
 10
-401.3364102339383
 20
-11.2887282290247
 10
-401.6043594263701
 20
-10.2887282290247
1001
ACME_LAYERS
1000
1
  0
LWPOLYLINE
  5
B95
330
1F
100
AcDbEntity
  8
P-0000
  6
STRICHPUNKT
 62
     3
 60
     1
100
AcDbPolyline
 90
        2
 70
     0
 43
0.0
 10
-402.1007136732842
 20
-60.76254061837231
 10
-401.6043594263701
 20
-59.9028298441624
1001
ACME_LAYERS
1000
1
  0
LWPOLYLINE
  5
B96
330
1F
100
AcDbEntity
  8
P-0000
  6
STRICHPUNKT
 62
     3
 60
     1
100
AcDbPolyline
 90
        2
 70
     0
 43
0.0
 10
-390.3364102339383
 20
-109.7604415012653
 10
-400.3364102339382
 20
-109.7604415012659
1001
ACME_LAYERS
1000
1
  0
LWPOLYLINE
  5
B97
330
1F
100
AcDbEntity
  8
P-0000
  6
STRICHPUNKT
 62
     3
 60
     1
100
AcDbPolyline
 90
        2
 70
     0
 43
0.0
 10
-401.3364102339383
 20
-264.0539515432314
 10
-401.3364102339383
 20
-292.2321547735076
1001
ACME_LAYERS
1000
1
  0
LWPOLYLINE
  5
B98
330
1F
100
AcDbEntity
  8
P-0000
  6
STRICHPUNKT
 62
     3
 60
     1
100
AcDbPolyline
 90
        4
 70
     0
 43
0.0
 10
-401.6043594263691
 20
-243.6180531583697
 10
-401.4219048251574
 20
-244.0395472899934
 10
-401.3568716607315
 20
-244.3326989273108
 10
-401.3364102339383
 20
-244.6180531583699
1001
ACME_LAYERS
1000
1
  0
LWPOLYLINE
  5
B99
330
1F
100
AcDbEntity
  8
P-0000
  6
STRICHPUNKT
 62
     3
 60
     1
100
AcDbPolyline
 90
        2
 70
     0
 43
0.0
 10
-390.3364102339383
 20
-193.7604415012669
 10
-400.3364102339382
 20
-193.7604415012661
1001
ACME_LAYERS
1000
1
  0
LWPOLYLINE
  5
B9A
330
1F
100
AcDbEntity
  8
P-0000
  6
Continuous
 62
     7
 60
     1
100
AcDbPolyline
 90
        2
 70
     0
 43
0.0
 10
-410.2520615323683
 20
-80.53114989181912
 10
-381.4540558108805
 20
-80.76044150125891
1001
ACME_LAYERS
1000
1
  0
LWPOLYLINE
  5
B9B
330
1F
100
AcDbEntity
  8
P-0000
  6
Continuous
 62
     7
 60
     1
100
AcDbPolyline
 90
        2
 70
     0
 43
0.0
 10
-397.0869213624627
 20
-109.7604415012662
 10
-391.5397785554807
 20
-109.7604415012657
1001
ACME_LAYERS
1000
1
  0
LWPOLYLINE
  5
B9C
330
1F
100
AcDbEntity
  8
P-0000
  6
Continuous
 62
     3
 60
     1
100
AcDbPolyline
 90
        2
 70
     0
 43
0.0
 10
-401.3364102339378
 20
-264.0104415012734
 10
-401.3364102339378
 20
-291.9104415012735
1001
ACME_LAYERS
1000
1
  0
LWPOLYLINE
  5
B9D
330
1F
100
AcDbEntity
  8
P-0000
  6
Continuous
 62
     7
 60
     1
100
AcDbPolyline
 90
        4
 70
     0
 43
0.0
 10
-394.002700861005
 20
-289.2907826822778
 10
-394.002700861005
 20
-286.7865113659651
 10
-397.5742776681365
 20
-289.4778875342322
 10
-445.8135909999175
 20
-325.8288174695734
1001
ACME_LAYERS
1000
1
  0
LWPOLYLINE
  5
B9E
330
1F
100
AcDbEntity
  8
P-0000
  6
Continuous
 62
     3
 60
     1
100
AcDbPolyline
 90
        2
 70
     0
 43
0.0
 10
-401.3364102339378
 20
-39.5104415012589
 10
-401.3364102339378
 20
-11.61044150125878
1001
ACME_LAYERS
1000
1
  0
LWPOLYLINE
  5
B9F
330
1F
100
AcDbEntity
  8
P-0000
  6
Continuous
 62
     3
 60
     1
100
AcDbPolyline
 90
        2
 70
     0
 43
0.0
 10
-386.0397785554777
 20
-225.2604415012733
 10
-377.6356285135618
 20
-225.2604415012733
1001
ACME_LAYERS
1000
1
  0
LWPOLYLINE
  5
BA0
330
1F
100
AcDbEntity
  8
P-0000
  6
Continuous
 62
     3
 60
     1
100
AcDbPolyline
 90
        2
 70
     0
 43
0.0
 10
-379.4380943947104
 20
-227.2604415012732
 10
-397.0869213624627
 20
-227.2604415012715
1001
ACME_LAYERS
1000
1
  0
LWPOLYLINE
  5
BA1
330
1F
100
AcDbEntity
  8
P-0000
  6
Continuous
 62
     7
 60
     1
100
AcDbPolyline
 90
        2
 70
     0
 43
0.0
 10
-399.1435663638152
 20
-244.5745431164032
 10
-399.1435663638116
 20
-251.7604415012684
1001
ACME_LAYERS
1000
1
  0
LWPOLYLINE
  5
BA2
330
1F
100
AcDbEntity
  8
P-0000
  6
Continuous
 62
     7
 60
     1
100
AcDbPolyline
 90
        2
 70
     0
 43
0.0
 10
-427.7464102339382
 20
-74.76044150127382
 10
-425.7464102339381
 20
-74.76044150127382
1001
ACME_LAYERS
1000
1
  0
LWPOLYLINE
  5
BA3
330
1F
100
AcDbEntity
  8
P-0000
  6
Continuous
 62
     7
 60
     1
100
AcDbPolyline
 90
        2
 70
     0
 43
0.0
 10
-399.1435663638148
 20
-244.5745431163941
 10
-399.1435663638113
 20
-251.7604415012593
1001
ACME_LAYERS
1000
1
  0
LWPOLYLINE
  5
BA4
330
1F
100
AcDbEntity
  8
P-0000
  6
Continuous
 62
     3
 60
     1
100
AcDbPolyline
 90
        2
 70
     0
 43
0.0
 10
-379.4380943947108
 20
-227.2604415012647
 10
-397.0869213624628
 20
-227.2604415012629
1001
ACME_LAYERS
1000
1
  0
LWPOLYLINE
  5
BA5
330
1F
100
AcDbEntity
  8
P-0000
  6
Continuous
 62
     3
 60
     1
100
AcDbPolyline
 90
        2
 70
     0
 43
0.0
 10
-386.0397785554778
 20
-225.2604415012647
 10
-377.6356285135607
 20
-225.2604415012647
1001
ACME_LAYERS
1000
1
  0
LWPOLYLINE
  5
BA6
330
1F
100
AcDbEntity
  8
P-0000
  6
Continuous
 62
     3
 60
     1
100
AcDbPolyline
 90
        2
 70
     0
 43
0.0
 10
-401.3364102339363
 20
-39.51044150125017
 10
-401.3364102339363
 20
-11.61044150125053
1001
ACME_LAYERS
1000
1
  0
LWPOLYLINE
  5
BA7
330
1F
100
AcDbEntity
  8
P-0000
  6
Continuous
 62
     7
 60
     1
100
AcDbPolyline
 90
        4
 70
     0
 43
0.0
 10
-394.002700861005
 20
-289.2907826822683
 10
-394.002700861005
 20
-286.7865113659573
 10
-397.5742776681363
 20
-289.4778875342236
 10
-445.8135909999163
 20
-325.8288174695645
1001
ACME_LAYERS
1000
1
  0
LWPOLYLINE
  5
BA8
330
1F
100
AcDbEntity
  8
P-0000
  6
Continuous
 62
     7
 60
     1
100
AcDbPolyline
 90
        2
 70
     0
 43
0.0
 10
-503.0263082503751
 20
-151.7604415012593
 10
-504.5263082503752
 20
-151.7604415012502
1001
ACME_LAYERS
1000
1
  0
LWPOLYLINE
  5
BA9
330
1F
100
AcDbEntity
  8
P-0000
  6
STRICHLINIE
 62
     2
 60
     1
100
AcDbPolyline
 90
        3
 70
     0
 43
0.0
 10
-404.7520615323683
 20
-24.16236528989793
 10
-404.7520615323683
 20
-23.35166328399828
 10
-404.7520615323683
 20
-17.91729575074351
1001
ACME_LAYERS
1000
1
  0
LWPOLYLINE
  5
BAA
330
1F
100
AcDbEntity
  8
P-0000
  6
Continuous
 62
     7
 60
     1
100
AcDbPolyline
 90
        2
 70
     0
 43
0.0
 10
-408.7520615323683
 20
-22.01044150125927
 10
-408.7520615323683
 20
-30.51044150125017
1001
ACME_LAYERS
1000
1
  0
LWPOLYLINE
  5
BAB
330
1F
100
AcDbEntity
  8
P-0000
  6
Continuous
 62
     7
 60
     1
100
AcDbPolyline
 90
        2
 70
     0
 43
0.0
 10
-503.0263082503751
 20
-151.7604415012429
 10
-504.5263082503752
 20
-151.7604415012502
1001
ACME_LAYERS
1000
1
  0
LWPOLYLINE
  5
BAC
330
1F
100
AcDbEntity
  8
P-0000
  6
Continuous
 62
     7
 60
     1
100
AcDbPolyline
 90
        2
 70
     0
 43
0.0
 10
-503.0263082503768
 20
-151.7604415012593
 10
-504.526308250377
 20
-151.7604415012502
1001
ACME_LAYERS
1000
1
  0
LWPOLYLINE
  5
BAD
330
1F
100
AcDbEntity
  8
P-0000
  6
STRICHLINIE
 62
     2
 60
     1
100
AcDbPolyline
 90
        3
 70
     0
 43
0.0
 10
-404.7520615323683
 20
-24.16236528989793
 10
-404.7520615323683
 20
-23.35166328399828
 10
-404.7520615323683
 20
-17.91729575074351
1001
ACME_LAYERS
1000
1
  0
LWPOLYLINE
  5
BAE
330
1F
100
AcDbEntity
  8
P-0000
  6
Continuous
 62
     7
 60
     1
100
AcDbPolyline
 90
        2
 70
     0
 43
0.0
 10
-503.0263082503768
 20
-151.7604415012429
 10
-504.526308250377
 20
-151.7604415012502
1001
ACME_LAYERS
1000
1
  0
LWPOLYLINE
  5
BAF
330
1F
100
AcDbEntity
  8
P-0000
  6
Continuous
 62
     3
 60
     1
100
AcDbPolyline
 90
        2
 70
     0
 43
0.0
 10
-401.3364102339363
 20
-264.0104415012647
 10
-401.3364102339363
 20
-291.9104415012644
1001
ACME_LAYERS
1000
1
  0
LWPOLYLINE
  5
BB0
330
1F
100
AcDbEntity
  8
P-0000
  6
STRICHLINIE
 62
     2
 60
     1
100
AcDbPolyline
 90
        3
 70
     0
 43
0.0
 10
-404.7520615323683
 20
-279.358517712617
 10
-404.7520615323683
 20
-280.1692197185166
 10
-404.7520615323683
 20
-285.6035872517732
1001
ACME_LAYERS
1000
1
  0
LWPOLYLINE
  5
BB1
330
1F
100
AcDbEntity
  8
P-0000
  6
Continuous
 62
     7
 60
     1
100
AcDbPolyline
 90
        2
 70
     0
 43
0.0
 10
-408.7520615323683
 20
-281.5104415012575
 10
-408.7520615323683
 20
-273.0104415012647
1001
ACME_LAYERS
1000
1
  0
LWPOLYLINE
  5
BB2
330
1F
100
AcDbEntity
  8
P-0000
  6
STRICHLINIE
 62
     2
 60
     1
100
AcDbPolyline
 90
        3
 70
     0
 43
0.0
 10
-404.7520615323683
 20
-279.358517712617
 10
-404.7520615323683
 20
-280.1692197185166
 10
-404.7520615323683
 20
-285.6035872517732
1001
ACME_LAYERS
1000
1
  0
LWPOLYLINE
  5
BB3
330
1F
100
AcDbEntity
  8
P-0000
  6
Continuous
 62
     7
 60
     1
100
AcDbPolyline
 90
        2
 70
     0
 43
0.0
 10
-410.2520615323681
 20
-80.53114989181086
 10
-381.4540558108802
 20
-80.76044150125017
1001
ACME_LAYERS
1000
1
  0
LWPOLYLINE
  5
BB4
330
1F
100
AcDbEntity
  8
P-0000
  6
STRICHPUNKT
 62
     3
 60
     1
100
AcDbPolyline
 90
        2
 70
     0
 43
0.0
 10
-401.3364102339383
 20
-264.0539515432229
 10
-401.3364102339383
 20
-292.2321547734991
1001
ACME_LAYERS
1000
1
  0
LWPOLYLINE
  5
BB5
330
1F
100
AcDbEntity
  8
P-0000
  6
STRICHPUNKT
 62
     3
 60
     1
100
AcDbPolyline
 90
        2
 70
     0
 43
0.0
 10
-390.3364102339383
 20
-109.7604415012575
 10
-400.3364102339382
 20
-109.7604415012575
1001
ACME_LAYERS
1000
1
  0
LWPOLYLINE
  5
BB6
330
1F
100
AcDbEntity
  8
P-0000
  6
STRICHPUNKT
 62
     3
 60
     1
100
AcDbPolyline
 90
        2
 70
     0
 43
0.0
 10
-362.6710954521004
 20
-225.2604415012647
 10
-362.8346809727646
 20
-227.2604415012647
1001
ACME_LAYERS
1000
1
  0
LWPOLYLINE
  5
BB7
330
1F
100
AcDbEntity
  8
P-0000
  6
Continuous
 62
     7
 60
     1
100
AcDbPolyline
 90
        2
 70
     0
 43
0.0
 10
-390.3364102339383
 20
-109.7604415012575
 10
-400.3364102339382
 20
-109.7604415012575
1001
ACME_LAYERS
1000
1
  0
LWPOLYLINE
  5
BB8
330
1F
100
AcDbEntity
  8
P-0000
  6
Continuous
 62
     7
 60
     1
100
AcDbPolyline
 90
        2
 70
     0
 43
0.0
 10
-399.3364102339347
 20
-254.2604415012447
 10
-399.3364102339383
 20
-244.6180531583614
1001
ACME_LAYERS
1000
1
  0
LWPOLYLINE
  5
BB9
330
1F
100
AcDbEntity
  8
P-0000
  6
Continuous
 62
     7
 60
     1
100
AcDbPolyline
 90
        2
 70
     0
 43
0.0
 10
-399.3364102339347
 20
-254.2604415012447
 10
-399.3364102339383
 20
-244.6180531583614
1001
ACME_LAYERS
1000
1
  0
LWPOLYLINE
  5
BBA
330
1F
100
AcDbEntity
  8
P-0000
  6
Continuous
 62
     7
 60
     1
100
AcDbPolyline
 90
        2
 70
     0
 43
0.0
 10
-503.0263082503751
 20
-151.7604415012575
 10
-504.5263082503752
 20
-151.7604415012647
1001
ACME_LAYERS
1000
1
  0
LWPOLYLINE
  5
BBB
330
1F
100
AcDbEntity
  8
P-0000
  6
Continuous
 62
     7
 60
     1
100
AcDbPolyline
 90
        2
 70
     0
 43
0.0
 10
-503.0263082503751
 20
-151.7604415012738
 10
-504.5263082503752
 20
-151.7604415012647
1001
ACME_LAYERS
1000
1
  0
LWPOLYLINE
  5
BBC
330
1F
100
AcDbEntity
  8
P-0000
  6
Continuous
 62
     7
 60
     1
100
AcDbPolyline
 90
        2
 70
     0
 43
0.0
 10
-503.0263082503768
 20
-151.7604415012556
 10
-504.526308250377
 20
-151.7604415012647
1001
ACME_LAYERS
1000
1
  0
LWPOLYLINE
  5
BBD
330
1F
100
AcDbEntity
  8
P-0000
  6
Continuous
 62
     7
 60
     1
100
AcDbPolyline
 90
        2
 70
     0
 43
0.0
 10
-503.0263082503768
 20
-151.760441501272
 10
-504.526308250377
 20
-151.7604415012647
1001
ACME_LAYERS
1000
1
  0
LWPOLYLINE
  5
BBE
330
1F
100
AcDbEntity
  8
P-0000
  6
Continuous
 62
     7
 60
     1
100
AcDbPolyline
 90
        2
 70
     0
 43
0.0
 10
-401.3364102339383
 20
-264.0104415012957
 10
-401.3364102339383
 20
-292.1886447315719
1001
ACME_LAYERS
1000
1
  0
LWPOLYLINE
  5
BBF
330
1F
100
AcDbEntity
  8
P-0000
  6
Continuous
 62
     7
 60
     1
100
AcDbPolyline
 90
        8
 70
     0
 43
0.0
 10
-401.3364102339383
 20
-264.0104415012957
 10
-401.3364102339383
 20
-291.9104415012971
 10
-401.3542596115692
 20
-292.4552510147823
 10
-401.4854694028016
 20
-292.9462845138114
 10
-401.8460122582091
 20
-293.6071997141098
 10
-403.7715573406293
 20
-296.9824722378362
 10
-404.0120816644467
 20
-297.6831834120732
 10
-404.1247579163172
 20
-298.6258997412042
1001
ACME_LAYERS
1000
1
  0
LWPOLYLINE
  5
BC0
330
1F
100
AcDbEntity
  8
P-0000
  6
Continuous
 62
     7
 60
     1
100
AcDbPolyline
 90
        4
 70
     0
 43
0.0
 10
-351.1364102339376
 20
-289.2907826823011
 10
-351.1364102339376
 20
-286.7865113659882
 10
-354.7079870410688
 20
-289.4778875342545
 10
-402.9473003728508
 20
-325.8288174695972
1001
ACME_LAYERS
1000
1
  0
LWPOLYLINE
  5
BC1
330
1F
100
AcDbEntity
  8
P-0000
  6
STRICHPUNKT
 62
     3
 60
     1
100
AcDbPolyline
 90
        2
 70
     0
 43
0.0
 10
-401.3364102339383
 20
-264.0539515432229
 10
-401.3364102339383
 20
-292.2321547734991
1001
ACME_LAYERS
1000
1
  0
LWPOLYLINE
  5
BC2
330
1F
100
AcDbEntity
  8
P-0000
  6
Continuous
 62
     3
 60
     1
100
AcDbPolyline
 90
        2
 70
     0
 43
0.0
 10
-401.3364102339383
 20
-264.0104415012647
 10
-401.3364102339383
 20
-291.9104415012644
1001
ACME_LAYERS
1000
1
  0
LWPOLYLINE
  5
BC3
330
1F
100
AcDbEntity
  8
P-0000
  6
Continuous
 62
     7
 60
     1
100
AcDbPolyline
 90
        4
 70
     0
 43
0.0
 10
-394.002700861005
 20
-289.2907826822683
 10
-394.002700861005
 20
-286.7865113659555
 10
-397.5742776681363
 20
-289.4778875342236
 10
-445.8135909999182
 20
-325.8288174695645
1001
ACME_LAYERS
1000
1
  0
LINE
  5
DA3
330
1F
100
AcDbEntity
  8
AM_7
100
AcDbLine
 10
56.68126204601936
 20
149.7415164153237
 30
0.0
 11
92.68126204601937
 21
149.7415164153237
 31
0.0
1001
GENIUS_GENODEF_13
1002
{
1000
HIER
1070
     0
1002
}
1002
{
1000
MANEDIT
1070
     0
1002
}
1002
{
1000
NOSEL
1070
     0
1002
}
1002
{
1000
BEHIND
1070
     0
1002
}
1002
{
1000
OTHER
1070
     0
1002
}
1002
{
1000
REACTOR
1002
}
1001
GENIUS_GENOBJ-N-CEN_13
1002
{
1000
OWNER
1000
GEN
1002
}
1001
GENIUS_GENCEN_19
1002
{
1040
3.0
1002
}
  0
LINE
  5
E76
330
1F
100
AcDbEntity
  8
0
100
AcDbLine
 10
89.68126204601935
 20
103.2415164153237
 30
0.0
 11
89.68126204601935
 21
106.7415164153237
 31
0.0
  0
LINE
  5
E77
330
1F
100
AcDbEntity
  8
0
100
AcDbLine
 10
89.68126204601935
 20
106.7415164153237
 30
0.0
 11
87.18126204601935
 21
109.2415164153237
 31
0.0
  0
LINE
  5
E78
330
1F
100
AcDbEntity
  8
0
100
AcDbLine
 10
87.18126204601935
 20
109.2415164153237
 30
0.0
 11
87.18126204601935
 21
107.2415164153237
 31
0.0
  0
LINE
  5
E79
330
1F
100
AcDbEntity
  8
0
100
AcDbLine
 10
87.18126204601935
 20
107.2415164153237
 30
0.0
 11
64.68126204601936
 21
107.2415164153237
 31
0.0
  0
LINE
  5
E7A
330
1F
100
AcDbEntity
  8
0
100
AcDbLine
 10
64.68126204601936
 20
107.2415164153237
 30
0.0
 11
64.68126204601936
 21
103.2415164153237
 31
0.0
  0
LINE
  5
E7B
330
1F
100
AcDbEntity
  8
0
100
AcDbLine
 10
64.68126204601936
 20
103.2415164153237
 30
0.0
 11
89.68126204601935
 21
103.2415164153237
 31
0.0
  0
LINE
  5
EFC
330
1F
100
AcDbEntity
  8
0
100
AcDbLine
 10
89.68126204601935
 20
196.2415164153236
 30
0.0
 11
89.68126204601935
 21
192.7415164153237
 31
0.0
  0
LINE
  5
EFD
330
1F
100
AcDbEntity
  8
0
100
AcDbLine
 10
89.68126204601935
 20
192.7415164153237
 30
0.0
 11
87.18126204601935
 21
190.2415164153237
 31
0.0
  0
LINE
  5
EFE
330
1F
100
AcDbEntity
  8
0
100
AcDbLine
 10
87.18126204601935
 20
190.2415164153237
 30
0.0
 11
87.18126204601935
 21
192.2415164153236
 31
0.0
  0
LINE
  5
EFF
330
1F
100
AcDbEntity
  8
0
100
AcDbLine
 10
87.18126204601935
 20
192.2415164153236
 30
0.0
 11
64.68126204601936
 21
192.2415164153236
 31
0.0
  0
LINE
  5
F00
330
1F
100
AcDbEntity
  8
0
100
AcDbLine
 10
64.68126204601936
 20
192.2415164153236
 30
0.0
 11
64.68126204601936
 21
196.2415164153236
 31
0.0
  0
LINE
  5
F01
330
1F
100
AcDbEntity
  8
0
100
AcDbLine
 10
64.68126204601936
 20
196.2415164153236
 30
0.0
 11
89.68126204601935
 21
196.2415164153236
 31
0.0
  0
LINE
  5
F35
330
1F
100
AcDbEntity
  8
0
100
AcDbLine
 10
89.68126204601935
 20
192.7415164153237
 30
0.0
 11
89.68126204601935
 21
106.7415164153237
 31
0.0
  0
LINE
  5
F36
330
1F
100
AcDbEntity
  8
0
100
AcDbLine
 10
64.68126204601936
 20
192.2415164153236
 30
0.0
 11
64.68126204601936
 21
107.2415164153237
 31
0.0
  0
LINE
  5
F41
330
1F
100
AcDbEntity
  8
0
100
AcDbLine
 10
87.18126204601935
 20
190.2415164153237
 30
0.0
 11
87.18126204601935
 21
109.2415164153237
 31
0.0
  0
HATCH
  5
F4E
330
1F
100
AcDbEntity
  8
AM_8
100
AcDbHatch
 10
0.0
 20
0.0
 30
0.0
210
0.0
220
0.0
230
1.0
  2
_U
 70
     0
 71
     0
 91
        1
 92
        1
 93
        6
 72
     1
 10
87.18126204601935
 20
190.2415164153237
 11
89.68126204601935
 21
192.7415164153237
 72
     1
 10
89.68126204601935
 20
192.7415164153237
 11
89.68126204601935
 21
196.2415164153236
 72
     1
 10
89.68126204601935
 20
196.2415164153236
 11
64.68126204601936
 21
196.2415164153236
 72
     1
 10
64.68126204601936
 20
196.2415164153236
 11
64.68126204601936
 21
192.2415164153236
 72
     1
 10
64.68126204601936
 20
192.2415164153236
 11
87.18126204601935
 21
192.2415164153236
 72
     1
 10
87.18126204601935
 20
192.2415164153236
 11
87.18126204601935
 21
190.2415164153237
 97
        0
 75
     0
 76
     0
 52
45.0
 41
2.299999999999998
 77
     1
 78
     2
 53
45.0
 43
0.0
 44
0.0
 45
-1.626345596729059
 46
1.626345596729059
 79
     0
 53
135.0
 43
0.0
 44
0.0
 45
-1.626345596729059
 46
-1.626345596729058
 79
     0
 98
        1
 10
0.0
 20
0.0
1001
GENIUS_GENOBJ-N-HTC_13
1002
{
1000
OWNER
1000
GEN
1002
}
1001
GENIUS_GENODEF_13
1002
{
1000
HIER
1070
     0
1002
}
1002
{
1000
MANEDIT
1070
     0
1002
}
1002
{
1000
NOSEL
1070
     0
1002
}
1002
{
1000
BEHIND
1070
     0
1002
}
1002
{
1000
OTHER
1070
     0
1002
}
1002
{
1000
REACTOR
1002
}
1001
GENIUS_GENHATCH_13
1002
{
1000
DATA
1040
45.0
1042
2.299999999999998
1000
_U
1070
     1
1011
81.66822305056165
1021
193.8313972620833
1031
0.0
1002
}
1002
{
1000
UCS
1010
0.0
1020
0.0
1030
0.0
1010
1.0
1020
0.0
1030
0.0
1010
0.0
1020
1.0
1030
0.0
1002
}
  0
HATCH
  5
F5A
330
1F
100
AcDbEntity
  8
AM_8
100
AcDbHatch
 10
0.0
 20
0.0
 30
0.0
210
0.0
220
0.0
230
1.0
  2
_U
 70
     0
 71
     0
 91
        1
 92
        1
 93
        6
 72
     1
 10
64.68126204601936
 20
103.2415164153237
 11
89.68126204601935
 21
103.2415164153237
 72
     1
 10
89.68126204601935
 20
103.2415164153237
 11
89.68126204601935
 21
106.7415164153237
 72
     1
 10
89.68126204601935
 20
106.7415164153237
 11
87.18126204601935
 21
109.2415164153237
 72
     1
 10
87.18126204601935
 20
109.2415164153237
 11
87.18126204601935
 21
107.2415164153237
 72
     1
 10
87.18126204601935
 20
107.2415164153237
 11
64.68126204601936
 21
107.2415164153237
 72
     1
 10
64.68126204601936
 20
107.2415164153237
 11
64.68126204601936
 21
103.2415164153237
 97
        0
 75
     0
 76
     0
 52
45.0
 41
2.299999999999998
 77
     1
 78
     2
 53
45.0
 43
0.0
 44
0.0
 45
-1.626345596729059
 46
1.626345596729059
 79
     0
 53
135.0
 43
0.0
 44
0.0
 45
-1.626345596729059
 46
-1.626345596729058
 79
     0
 98
        1
 10
0.0
 20
0.0
1001
GENIUS_GENODEF_13
1002
{
1000
HIER
1070
     0
1002
}
1002
{
1000
MANEDIT
1070
     0
1002
}
1002
{
1000
NOSEL
1070
     0
1002
}
1002
{
1000
BEHIND
1070
     0
1002
}
1002
{
1000
OTHER
1070
     0
1002
}
1002
{
1000
REACTOR
1002
}
1001
GENIUS_GENOBJ-N-HTC_13
1002
{
1000
OWNER
1000
GEN
1002
}
1001
GENIUS_GENHATCH_13
1002
{
1000
DATA
1040
45.0
1042
2.299999999999998
1000
_U
1070
     1
1011
80.06717030689742
1021
105.5093440699452
1031
0.0
1002
}
1002
{
1000
UCS
1010
0.0
1020
0.0
1030
0.0
1010
1.0
1020
0.0
1030
0.0
1010
0.0
1020
1.0
1030
0.0
1002
}
  0
DIMENSION
  5
1019
330
1F
100
AcDbEntity
  8
AM_5
100
AcDbDimension
  2
*D3
 10
123.7703932223034
 20
103.2415164153237
 30
0.0
 11
120.5203932223035
 21
149.7415164153237
 31
0.0
 70
    32
  1
%%c<>
 71
     5
 42
92.99999999999998
  3
AM_DIN$0
100
AcDbAlignedDimension
 13
89.68126204601935
 23
196.2415164153236
 33
0.0
 14
89.68126204601935
 24
103.2415164153237
 34
0.0
 50
90.00000000000003
100
AcDbRotatedDimension
1001
ACAD
1000
DSTYLE
1002
{
1070
    41
1040
5.0
1002
}
  0
DIMENSION
  5
104A
330
1F
100
AcDbEntity
  8
AM_5
100
AcDbDimension
  2
*D4
 10
64.68126204601936
 20
208.2415164153237
 30
0.0
 11
77.18126204601936
 21
211.4918609035127
 31
0.0
 70
    32
 71
     5
 42
24.99999999999997
  3
AM_DIN$0
100
AcDbAlignedDimension
 13
89.68126204601935
 23
192.7415164153237
 33
0.0
 14
64.68126204601936
 24
196.2415164153236
 34
0.0
100
AcDbRotatedDimension
1001
ACAD
1000
DSTYLE
1002
{
1070
    41
1040
5.0
1002
}
  0
ENDSEC
  0
SECTION
  2
OBJECTS
  0
DICTIONARY
  5
C
330
0
100
AcDbDictionary
281
     1
  3
ACAD_COLOR
350
686
  3
ACAD_GROUP
350
D
  3
ACAD_LAYOUT
350
1A
  3
ACAD_MATERIAL
350
685
  3
ACAD_MLINESTYLE
350
17
  3
ACAD_PLOTSETTINGS
350
19
  3
ACAD_PLOTSTYLENAME
350
E
  3
ACAD_TABLESTYLE
350
687
  3
ACDBHEADERROUNDTRIPXREC
350
1078
  3
AcDbVariableDictionary
350
34
  3
AcmDictionary
350
47
  3
AMG
350
2B
  3
AMGSNAPSETTINGS
350
678
  3
DWGPROPS
350
1077
  0
DICTIONARY
  5
F4A
330
2
100
AcDbDictionary
280
     1
281
     1
  3
AMLAYER_GROUPCOLORS
360
F4B
  0
DICTIONARY
  5
81
330
1F
100
AcDbDictionary
280
     1
281
     1
  3
ACAD_SORTENTS
360
CA5
  0
DICTIONARY
  5
686
102
{ACAD_REACTORS
330
C
102
}
330
C
100
AcDbDictionary
281
     1
  0
DICTIONARY
  5
D
102
{ACAD_REACTORS
330
C
102
}
330
C
100
AcDbDictionary
281
     1
  0
DICTIONARY
  5
1A
102
{ACAD_REACTORS
330
C
102
}
330
C
100
AcDbDictionary
281
     1
  3
Layout1
350
1E
  3
Layout2
350
26
  3
Model
350
22
  0
DICTIONARY
  5
685
102
{ACAD_REACTORS
330
C
102
}
330
C
100
AcDbDictionary
281
     1
  0
DICTIONARY
  5
17
102
{ACAD_REACTORS
330
C
102
}
330
C
100
AcDbDictionary
281
     1
  3
Standard
350
18
  0
DICTIONARY
  5
19
102
{ACAD_REACTORS
330
C
102
}
330
C
100
AcDbDictionary
281
     1
  0
ACDBDICTIONARYWDFLT
  5
E
102
{ACAD_REACTORS
330
C
102
}
330
C
100
AcDbDictionary
281
     1
  3
Normal
350
F
100
AcDbDictionaryWithDefault
340
F
  0
DICTIONARY
  5
687
102
{ACAD_REACTORS
330
C
102
}
330
C
100
AcDbDictionary
281
     1
  3
Standard
350
688
  0
DICTIONARY
  5
1078
102
{ACAD_REACTORS
330
C
102
}
330
C
100
AcDbDictionary
281
     1
  0
DICTIONARY
  5
34
102
{ACAD_REACTORS
330
C
102
}
330
C
100
AcDbDictionary
281
     1
  3
CTABLESTYLE
350
CEA
  3
DIMASSOC
350
F78
  3
INDEXCTL
350
35
  3
PROJECTNAME
350
F79
  0
DICTIONARY
  5
47
102
{ACAD_REACTORS
330
C
102
}
330
C
100
AcDbDictionary
281
     1
  3
AcmStdDictionary
350
4C
  3
AMDTSECTSYM_ARROWCOLOR
350
6DF
  0
DICTIONARY
  5
2B
102
{ACAD_REACTORS
330
C
102
}
330
C
100
AcDbDictionary
281
     1
  0
DICTIONARY
  5
678
102
{ACAD_REACTORS
330
C
102
}
330
C
100
AcDbDictionary
281
     1
  0
XRECORD
  5
1077
102
{ACAD_REACTORS
330
C
102
}
330
C
100
AcDbXrecord
280
     1
  1
DWGPROPS COOKIE
  2

  3

  4

  6

  7

  8

  9

300
AmdtFileType=84
301
=
302
=
303
=
304
=
305
=
306
=
307
=
308
=
309
=
 40
0.0239357523148148
 41
2452702.55750169
 42
2454024.779249653
  1

 90
        1
  0
DICTIONARY
  5
F4B
102
{ACAD_REACTORS
330
F4A
102
}
330
F4A
100
AcDbDictionary
280
     1
281
     1
  0
SORTENTSTABLE
  5
CA5
102
{ACAD_REACTORS
330
81
102
}
330
81
100
AcDbSortentsTable
330
1F
331
BAE
  5
BAE
331
B7B
  5
B7B
331
BBB
  5
BBB
331
B88
  5
B88
331
B95
  5
B95
331
BA2
  5
BA2
331
B7C
  5
B7C
331
BAF
  5
BAF
331
BBC
  5
BBC
331
F00
  5
F00
331
B89
  5
B89
331
F35
  5
F35
331
B96
  5
B96
331
BA3
  5
BA3
331
B70
  5
B70
331
F5A
  5
F59
331
BB0
  5
BB0
331
B7D
  5
B7D
331
F4E
  5
F4C
331
BBD
  5
BBD
331
F01
  5
F01
331
B8A
  5
B8A
331
F36
  5
F36
331
B97
  5
B97
331
BA4
  5
BA4
331
B71
  5
B71
331
BB1
  5
BB1
331
B7E
  5
B7E
331
BBE
  5
BBE
331
B8B
  5
B8B
331
B98
  5
B98
331
BA5
  5
BA5
331
B72
  5
B72
331
BB2
  5
BB2
331
B7F
  5
B7F
331
BBF
  5
BBF
331
B8C
  5
B8C
331
B99
  5
B99
331
BA6
  5
BA6
331
B73
  5
B73
331
BB3
  5
BB3
331
B80
  5
B80
331
BC0
  5
BC0
331
B8D
  5
B8D
331
F41
  5
F41
331
B9A
  5
B9A
331
BA7
  5
BA7
331
B74
  5
B74
331
BB4
  5
BB4
331
B81
  5
B81
331
BC1
  5
BC1
331
B8E
  5
B8E
331
B9B
  5
B9B
331
E76
  5
E76
331
BA8
  5
BA8
331
B75
  5
B75
331
BB5
  5
BB5
331
B82
  5
B82
331
BC2
  5
BC2
331
B8F
  5
B8F
331
B9C
  5
B9C
331
E77
  5
E77
331
BA9
  5
BA9
331
B76
  5
B76
331
EFC
  5
EFC
331
BB6
  5
BB6
331
B83
  5
B83
331
BC3
  5
BC3
331
B90
  5
B90
331
B9D
  5
B9D
331
E78
  5
E78
331
BAA
  5
BAA
331
B77
  5
B77
331
EFD
  5
EFD
331
BB7
  5
BB7
331
B84
  5
B84
331
B91
  5
B91
331
E79
  5
E79
331
B9E
  5
B9E
331
EFE
  5
EFE
331
B78
  5
B78
331
BAB
  5
BAB
331
B85
  5
B85
331
BB8
  5
BB8
331
B92
  5
B92
331
E7A
  5
E7A
331
B9F
  5
B9F
331
DA3
  5
DA3
331
EFF
  5
EFF
331
B79
  5
B79
331
BAC
  5
BAC
331
B86
  5
B86
331
BB9
  5
BB9
331
B93
  5
B93
331
E7B
  5
E7B
331
BA0
  5
BA0
331
BAD
  5
BAD
331
B7A
  5
B7A
331
BBA
  5
BBA
331
B87
  5
B87
331
B94
  5
B94
331
BA1
  5
BA1
  0
LAYOUT
  5
1E
102
{ACAD_XDICTIONARY
360
1079
102
}
102
{ACAD_REACTORS
330
1A
102
}
330
1A
100
AcDbPlotSettings
  1

  2
C:\Programme\Acadm 2000i\plotters\PH36.pc3
  4

  6

 40
0.0
 41
0.0
 42
0.0
 43
0.0
 44
0.0
 45
0.0
 46
0.0
 47
0.0
 48
0.0
 49
0.0
140
0.0
141
0.0
142
1.0
143
1.0
 70
   688
 72
     0
 73
     0
 74
     5
  7
monochrome.ctb
 75
    16
147
1.0
148
0.0
149
0.0
100
AcDbLayout
  1
Layout1
 70
     1
 71
     1
 10
0.0
 20
0.0
 11
420.0
 21
297.0
 12
0.0
 22
0.0
 32
0.0
 14
1.000000000000000E+20
 24
1.000000000000000E+20
 34
1.000000000000000E+20
 15
-1.000000000000000E+20
 25
-1.000000000000000E+20
 35
-1.000000000000000E+20
146
0.0
 13
0.0
 23
0.0
 33
0.0
 16
1.0
 26
0.0
 36
0.0
 17
0.0
 27
1.0
 37
0.0
 76
     0
330
1B
  0
LAYOUT
  5
26
102
{ACAD_XDICTIONARY
360
107D
102
}
102
{ACAD_REACTORS
330
1A
102
}
330
1A
100
AcDbPlotSettings
  1

  2
C:\Programme\Acadm 2000i\plotters\PH36.pc3
  4

  6

 40
0.0
 41
0.0
 42
0.0
 43
0.0
 44
0.0
 45
0.0
 46
0.0
 47
0.0
 48
0.0
 49
0.0
140
0.0
141
0.0
142
1.0
143
1.0
 70
   688
 72
     0
 73
     0
 74
     5
  7
monochrome.ctb
 75
    16
147
1.0
148
0.0
149
0.0
100
AcDbLayout
  1
Layout2
 70
     1
 71
     2
 10
0.0
 20
0.0
 11
12.0
 21
9.0
 12
0.0
 22
0.0
 32
0.0
 14
0.0
 24
0.0
 34
0.0
 15
0.0
 25
0.0
 35
0.0
146
0.0
 13
0.0
 23
0.0
 33
0.0
 16
1.0
 26
0.0
 36
0.0
 17
0.0
 27
1.0
 37
0.0
 76
     0
330
23
  0
LAYOUT
  5
22
102
{ACAD_XDICTIONARY
360
107B
102
}
102
{ACAD_REACTORS
330
1A
102
}
330
1A
100
AcDbPlotSettings
  1

  2
C:\Programme\Acadm 2000i\plotters\PH36.pc3
  4

  6

 40
0.0
 41
0.0
 42
0.0
 43
0.0
 44
0.0
 45
0.0
 46
0.0
 47
0.0
 48
0.0
 49
0.0
140
0.0
141
0.0
142
1.0
143
1.0
 70
  1712
 72
     0
 73
     0
 74
     0
  7
monochrome.ctb
 75
     0
147
1.0
148
0.0
149
0.0
100
AcDbLayout
  1
Model
 70
     1
 71
     0
 10
0.0
 20
0.0
 11
12.0
 21
9.0
 12
0.0
 22
0.0
 32
0.0
 14
0.0
 24
0.0
 34
0.0
 15
0.0
 25
0.0
 35
0.0
146
0.0
 13
0.0
 23
0.0
 33
0.0
 16
1.0
 26
0.0
 36
0.0
 17
0.0
 27
1.0
 37
0.0
 76
     0
330
1F
  0
MLINESTYLE
  5
18
102
{ACAD_REACTORS
330
17
102
}
330
17
100
AcDbMlineStyle
  2
STANDARD
 70
     0
  3

 62
   256
 51
90.0
 52
90.0
 71
     2
 49
0.5
 62
   256
  6
BYLAYER
 49
-0.5
 62
   256
  6
BYLAYER
  0
ACDBPLACEHOLDER
  5
F
102
{ACAD_REACTORS
330
E
102
}
330
E
  0
TABLESTYLE
  5
688
102
{ACAD_REACTORS
330
687
102
}
330
687
100
AcDbTableStyle
  3
Standard
 70
     0
 71
     0
 40
1.5
 41
1.5
280
     0
281
     0
  7
STANDARD
140
4.5
170
     2
 62
     0
 63
     7
283
     0
274
    -2
284
     1
 64
     0
275
    -2
285
     1
 65
     0
276
    -2
286
     1
 66
     0
277
    -2
287
     1
 67
     0
278
    -2
288
     1
 68
     0
279
    -2
289
     1
 69
     0
  7
STANDARD
140
6.0
170
     5
 62
     0
 63
     7
283
     0
274
    -2
284
     1
 64
     0
275
    -2
285
     1
 65
     0
276
    -2
286
     1
 66
     0
277
    -2
287
     1
 67
     0
278
    -2
288
     1
 68
     0
279
    -2
289
     1
 69
     0
  7
STANDARD
140
4.5
170
     5
 62
     0
 63
     7
283
     0
274
    -2
284
     1
 64
     0
275
    -2
285
     1
 65
     0
276
    -2
286
     1
 66
     0
277
    -2
287
     1
 67
     0
278
    -2
288
     1
 68
     0
279
    -2
289
     1
 69
     0
  0
DICTIONARYVAR
  5
CEA
102
{ACAD_REACTORS
330
34
102
}
330
34
100
DictionaryVariables
280
     0
  1
STANDARD
  0
DICTIONARYVAR
  5
F78
102
{ACAD_REACTORS
330
34
102
}
330
34
100
DictionaryVariables
280
     0
  1
1
  0
DICTIONARYVAR
  5
35
102
{ACAD_REACTORS
330
34
102
}
330
34
100
DictionaryVariables
280
     0
  1
0
  0
DICTIONARYVAR
  5
F79
102
{ACAD_REACTORS
330
34
102
}
330
34
100
DictionaryVariables
280
     0
  1

  0
DICTIONARY
  5
4C
102
{ACAD_REACTORS
330
47
102
}
330
47
100
AcDbDictionary
281
     1
  0
XRECORD
  5
6DF
102
{ACAD_REACTORS
330
47
102
}
330
47
100
AcDbXrecord
280
     1
 90
-1023410169
  0
DICTIONARY
  5
1079
330
1E
100
AcDbDictionary
280
     1
281
     1
  3
ACAD_XREC_ROUNDTRIP
360
107A
  0
DICTIONARY
  5
107D
330
26
100
AcDbDictionary
280
     1
281
     1
  3
ACAD_XREC_ROUNDTRIP
360
107E
  0
DICTIONARY
  5
107B
330
22
100
AcDbDictionary
280
     1
281
     1
  3
ACAD_XREC_ROUNDTRIP
360
107C
  0
XRECORD
  5
107A
102
{ACAD_REACTORS
330
1079
102
}
330
1079
100
AcDbXrecord
280
     1
102
SHADEPLOT
 70
     0
102
SHADEPLOTRESLEVEL
 70
     2
102
SHADEPLOTCUSTOMDPI
 70
   300
  0
XRECORD
  5
107E
102
{ACAD_REACTORS
330
107D
102
}
330
107D
100
AcDbXrecord
280
     1
102
SHADEPLOT
 70
     0
102
SHADEPLOTRESLEVEL
 70
     2
102
SHADEPLOTCUSTOMDPI
 70
   300
  0
XRECORD
  5
107C
102
{ACAD_REACTORS
330
107B
102
}
330
107B
100
AcDbXrecord
280
     1
102
SHADEPLOT
 70
     0
102
SHADEPLOTRESLEVEL
 70
     2
102
SHADEPLOTCUSTOMDPI
 70
   300
  0
ENDSEC
  0
EOF
