  0
SECTION
  2
HEADER
  9
$ACADVER
  1
AC1015
  9
$ACADMAINTVER
 70
    20
  9
$DWGCODEPAGE
  3
ANSI_1252
  9
$INSBASE
 10
0.0
 20
0.0
 30
0.0
  9
$EXTMIN
 10
0.0
 20
0.0
 30
0.0
  9
$EXTMAX
 10
297.0
 20
210.0
 30
0.0
  9
$LIMMIN
 10
0.0
 20
0.0
  9
$LIMMAX
 10
297.0
 20
210.0
  9
$ORTHOMODE
 70
     0
  9
$REGENMODE
 70
     1
  9
$FILLMODE
 70
     1
  9
$QTEXTMODE
 70
     0
  9
$MIRRTEXT
 70
     0
  9
$LTSCALE
 40
16.335
  9
$ATTMODE
 70
     1
  9
$TEXTSIZE
 40
0.2
  9
$TRACEWID
 40
0.05
  9
$TEXTSTYLE
  7
STANDARD
  9
$CLAYER
  8
0
  9
$CELTYPE
  6
BYLAYER
  9
$CECOLOR
 62
   256
  9
$CELTSCALE
 40
1.0
  9
$DISPSILH
 70
     0
  9
$DIMSCALE
 40
1.0
  9
$DIMASZ
 40
3.5
  9
$DIMEXO
 40
1.85625
  9
$DIMDLI
 40
11.286
  9
$DIMRND
 40
0.0
  9
$DIMDLE
 40
0.0
  9
$DIMEXE
 40
5.346
  9
$DIMTP
 40
0.005
  9
$DIMTM
 40
0.005
  9
$DIMTXT
 40
3.5
  9
$DIMCEN
 40
2.673
  9
$DIMTSZ
 40
0.0
  9
$DIMTOL
 70
     1
  9
$DIMLIM
 70
     0
  9
$DIMTIH
 70
     1
  9
$DIMTOH
 70
     1
  9
$DIMSE1
 70
     0
  9
$DIMSE2
 70
     0
  9
$DIMTAD
 70
     0
  9
$DIMZIN
 70
     0
  9
$DIMBLK
  1
_FILLED
  9
$DIMASO
 70
     1
  9
$DIMSHO
 70
     1
  9
$DIMPOST
  1

  9
$DIMAPOST
  1

  9
$DIMALT
 70
     0
  9
$DIMALTD
 70
     2
  9
$DIMALTF
 40
25.4
  9
$DIMLFAC
 40
1.0
  9
$DIMTOFL
 70
     0
  9
$DIMTVP
 40
0.0
  9
$DIMTIX
 70
     0
  9
$DIMSOXD
 70
     0
  9
$DIMSAH
 70
     0
  9
$DIMBLK1
  1

  9
$DIMBLK2
  1

  9
$DIMSTYLE
  2
STANDARD
  9
$DIMCLRD
 70
     0
  9
$DIMCLRE
 70
     0
  9
$DIMCLRT
 70
     0
  9
$DIMTFAC
 40
1.0
  9
$DIMGAP
 40
0.09
  9
$DIMJUST
 70
     0
  9
$DIMSD1
 70
     0
  9
$DIMSD2
 70
     0
  9
$DIMTOLJ
 70
     1
  9
$DIMTZIN
 70
     0
  9
$DIMALTZ
 70
     0
  9
$DIMALTTZ
 70
     0
  9
$DIMUPT
 70
     0
  9
$DIMDEC
 70
     4
  9
$DIMTDEC
 70
     4
  9
$DIMALTU
 70
     2
  9
$DIMALTTD
 70
     2
  9
$DIMTXSTY
  7
STANDARD
  9
$DIMAUNIT
 70
     0
  9
$DIMADEC
 70
     0
  9
$DIMALTRND
 40
0.0
  9
$DIMAZIN
 70
     0
  9
$DIMDSEP
 70
    46
  9
$DIMATFIT
 70
     3
  9
$DIMFRAC
 70
     0
  9
$DIMLDRBLK
  1

  9
$DIMLUNIT
 70
     2
  9
$DIMLWD
 70
    -2
  9
$DIMLWE
 70
    -2
  9
$DIMTMOVE
 70
     0
  9
$LUNITS
 70
     2
  9
$LUPREC
 70
     2
  9
$SKETCHINC
 40
0.1
  9
$FILLETRAD
 40
0.0
  9
$AUNITS
 70
     0
  9
$AUPREC
 70
     0
  9
$MENU
  1
.
  9
$ELEVATION
 40
0.0
  9
$PELEVATION
 40
0.0
  9
$THICKNESS
 40
0.0
  9
$LIMCHECK
 70
     0
  9
$CHAMFERA
 40
0.0
  9
$CHAMFERB
 40
0.0
  9
$CHAMFERC
 40
0.0
  9
$CHAMFERD
 40
0.0
  9
$SKPOLY
 70
     0
  9
$TDCREATE
 40
2456324.545835672
  9
$TDUCREATE
 40
2456324.504169005
  9
$TDUPDATE
 40
2456324.548001018
  9
$TDUUPDATE
 40
2456324.506334352
  9
$TDINDWG
 40
0.0021657176
  9
$TDUSRTIMER
 40
0.0021657176
  9
$USRTIMER
 70
     1
  9
$ANGBASE
 50
0.0
  9
$ANGDIR
 70
     0
  9
$PDMODE
 70
     3
  9
$PDSIZE
 40
0.3125
  9
$PLINEWID
 40
0.0
  9
$SPLFRAME
 70
     0
  9
$SPLINETYPE
 70
     6
  9
$SPLINESEGS
 70
     8
  9
$HANDSEED
  5
45D
  9
$SURFTAB1
 70
     6
  9
$SURFTAB2
 70
     6
  9
$SURFTYPE
 70
     6
  9
$SURFU
 70
     6
  9
$SURFV
 70
     6
  9
$UCSBASE
  2

  9
$UCSNAME
  2

  9
$UCSORG
 10
0.0
 20
0.0
 30
0.0
  9
$UCSXDIR
 10
1.0
 20
0.0
 30
0.0
  9
$UCSYDIR
 10
0.0
 20
1.0
 30
0.0
  9
$UCSORTHOREF
  2

  9
$UCSORTHOVIEW
 70
     0
  9
$UCSORGTOP
 10
0.0
 20
0.0
 30
0.0
  9
$UCSORGBOTTOM
 10
0.0
 20
0.0
 30
0.0
  9
$UCSORGLEFT
 10
0.0
 20
0.0
 30
0.0
  9
$UCSORGRIGHT
 10
0.0
 20
0.0
 30
0.0
  9
$UCSORGFRONT
 10
0.0
 20
0.0
 30
0.0
  9
$UCSORGBACK
 10
0.0
 20
0.0
 30
0.0
  9
$PUCSBASE
  2

  9
$PUCSNAME
  2

  9
$PUCSORG
 10
0.0
 20
0.0
 30
0.0
  9
$PUCSXDIR
 10
1.0
 20
0.0
 30
0.0
  9
$PUCSYDIR
 10
0.0
 20
1.0
 30
0.0
  9
$PUCSORTHOREF
  2

  9
$PUCSORTHOVIEW
 70
     0
  9
$PUCSORGTOP
 10
0.0
 20
0.0
 30
0.0
  9
$PUCSORGBOTTOM
 10
0.0
 20
0.0
 30
0.0
  9
$PUCSORGLEFT
 10
0.0
 20
0.0
 30
0.0
  9
$PUCSORGRIGHT
 10
0.0
 20
0.0
 30
0.0
  9
$PUCSORGFRONT
 10
0.0
 20
0.0
 30
0.0
  9
$PUCSORGBACK
 10
0.0
 20
0.0
 30
0.0
  9
$USERI1
 70
     0
  9
$USERI2
 70
     0
  9
$USERI3
 70
     0
  9
$USERI4
 70
     0
  9
$USERI5
 70
     0
  9
$USERR1
 40
0.0
  9
$USERR2
 40
0.0
  9
$USERR3
 40
0.0
  9
$USERR4
 40
0.0
  9
$USERR5
 40
0.0
  9
$WORLDVIEW
 70
     1
  9
$SHADEDGE
 70
     3
  9
$SHADEDIF
 70
    70
  9
$TILEMODE
 70
     1
  9
$MAXACTVP
 70
    64
  9
$PINSBASE
 10
0.0
 20
0.0
 30
0.0
  9
$PLIMCHECK
 70
     0
  9
$PEXTMIN
 10
1.000000000000000E+20
 20
1.000000000000000E+20
 30
1.000000000000000E+20
  9
$PEXTMAX
 10
-1.000000000000000E+20
 20
-1.000000000000000E+20
 30
-1.000000000000000E+20
  9
$PLIMMIN
 10
0.0
 20
0.0
  9
$PLIMMAX
 10
12.0
 20
9.0
  9
$UNITMODE
 70
     0
  9
$VISRETAIN
 70
     1
  9
$PLINEGEN
 70
     0
  9
$PSLTSCALE
 70
     1
  9
$TREEDEPTH
 70
  3020
  9
$CMLSTYLE
  2
Standard
  9
$CMLJUST
 70
     0
  9
$CMLSCALE
 40
1.0
  9
$PROXYGRAPHICS
 70
     1
  9
$MEASUREMENT
 70
     1
  9
$CELWEIGHT
370
    -1
  9
$ENDCAPS
280
     0
  9
$JOINSTYLE
280
     0
  9
$LWDISPLAY
290
     0
  9
$INSUNITS
 70
     4
  9
$HYPERLINKBASE
  1

  9
$STYLESHEET
  1

  9
$XEDIT
290
     1
  9
$CEPSNTYPE
380
     0
  9
$PSTYLEMODE
290
     1
  9
$FINGERPRINTGUID
  2
{CF5DA0BB-00F4-415F-8EF0-F407506791C7}
  9
$VERSIONGUID
  2
{A72A095F-1A8E-47F7-8642-6CAA2E54C485}
  9
$EXTNAMES
290
     1
  9
$PSVPSCALE
 40
0.0
  9
$OLESTARTUP
290
     0
  0
ENDSEC
  0
SECTION
  2
CLASSES
  0
CLASS
  1
ACDBDICTIONARYWDFLT
  2
AcDbDictionaryWithDefault
  3
ObjectDBX Classes
 90
        0
280
     0
281
     0
  0
CLASS
  1
ACDBPLACEHOLDER
  2
AcDbPlaceHolder
  3
ObjectDBX Classes
 90
        0
280
     0
281
     0
  0
CLASS
  1
LAYOUT
  2
AcDbLayout
  3
ObjectDBX Classes
 90
        0
280
     0
281
     0
  0
CLASS
  1
MATERIAL
  2
AcDbMaterial
  3
ObjectDBX Classes
 90
     1153
280
     0
281
     0
  0
CLASS
  1
VISUALSTYLE
  2
AcDbVisualStyle
  3
ObjectDBX Classes
 90
     4095
280
     0
281
     0
  0
CLASS
  1
TABLESTYLE
  2
AcDbTableStyle
  3
ObjectDBX Classes
 90
     4095
280
     0
281
     0
  0
CLASS
  1
SCALE
  2
AcDbScale
  3
ObjectDBX Classes
 90
     1153
280
     0
281
     0
  0
CLASS
  1
MLEADERSTYLE
  2
AcDbMLeaderStyle
  3
ACDB_MLEADERSTYLE_CLASS
 90
     4095
280
     0
281
     0
  0
CLASS
  1
AMGSETTINGSOBJ
  2
AmgSettingsObj
  3
"AcadM|Product Description: AutoCAD Mechanical|Company: Autodesk, Inc."
 90
     1024
280
     0
281
     0
  0
CLASS
  1
ACME_DOCUMENT
  2
AcMeDbDoc
  3
AcMeServices
 90
     1024
280
     0
281
     0
  0
CLASS
  1
ACMESCOPE
  2
AcMeScope
  3
AcMeServices
 90
     1024
280
     0
281
     0
  0
CLASS
  1
ACMECOMMANDHISTORY
  2
AcMeCommandHistory
  3
AcMeServices
 90
     1024
280
     0
281
     0
  0
CLASS
  1
ACIMSYSVARMAN
  2
AcImSysVarManager
  3
AcMeServices
 90
     1024
280
     0
281
     0
  0
CLASS
  1
ACIMINTSYSVAR
  2
AcImIntSysVar
  3
AcMeServices
 90
     1024
280
     0
281
     0
  0
CLASS
  1
ACMEDRAWINGMAN
  2
AcMeDrawingMan
  3
AcMeServices
 90
     1024
280
     0
281
     0
  0
CLASS
  1
ACMEVIEW
  2
AcMeView
  3
AcMeServices
 90
     1024
280
     0
281
     0
  0
CLASS
  1
ACDBENTITYCACHE
  2
AcMeEntityCache
  3
AcMeServices
 90
     1024
280
     0
281
     0
  0
CLASS
  1
ACMESTATEMGR
  2
AcMeStateMgr
  3
AcMeServices
 90
     1024
280
     0
281
     0
  0
CLASS
  1
ACGREFMASTER
  2
AcGrefMaster
  3
AcAttribServices
 90
     1024
280
     0
281
     0
  0
CLASS
  1
AM_DRAWING_MGR
  2
AcDmDwgMgr
  3
AcMechDwgViewMgmt
 90
     1024
280
     0
281
     0
  0
CLASS
  1
AM_DWG_DOCUMENT
  2
AcDmDwgDocument
  3
AcMechDwgViewMgmt
 90
     1024
280
     0
281
     0
  0
CLASS
  1
AM_DWG_SHEET
  2
AcDmSheet
  3
AcMechDwgViewMgmt
 90
     1024
280
     0
281
     0
  0
CLASS
  1
AM_VIEWDIMPARMAP
  2
AcDmViewDimParMap
  3
AcMechDwgViewMgmt
 90
     1024
280
     0
281
     0
  0
CLASS
  1
AMDTINTERNALREACTOR
  2
AmdtInternalReactor
  3
AcMeServices
 90
     1024
280
     0
281
     0
  0
CLASS
  1
ACIMREALSYSVAR
  2
AcImRealSysVar
  3
AcMeServices
 90
     1024
280
     0
281
     0
  0
CLASS
  1
AM_DWGMGR_NAME
  2
AcDmDwgMgrName
  3
AcMechDwgViewMgmt
 90
     1024
280
     0
281
     0
  0
CLASS
  1
ACME_DATABASE
  2
AcMeDbDatabase
  3
AcMeServices
 90
     1024
280
     0
281
     0
  0
CLASS
  1
ACRFINSADJUSTERMGR
  2
AcRfInsAdjusterMgr
  3
AcMeServices
 90
     1024
280
     0
281
     0
  0
CLASS
  1
ACGREFACADMASTER
  2
AcGrefacadMaster
  3
AcGrefServices
 90
     1024
280
     0
281
     0
  0
CLASS
  1
AMDTMENUSTATEMGR
  2
AmdtMenuStateMgr
  3
McadcomServices
 90
     1024
280
     0
281
     0
  0
CLASS
  1
AMDTMCOMMENUSTATE
  2
AmdtMcomMenuState
  3
McadcomServices
 90
     1024
280
     0
281
     0
  0
CLASS
  1
AMIMASTER
  2
AmiMaster
  3
AmiServices
 90
     1024
280
     0
281
     0
  0
CLASS
  1
MAPIAMMOUDLE
  2
MApiAmModule
  3
MApiAmServices
 90
     1024
280
     0
281
     0
  0
CLASS
  1
ACIMSTRSYSVAR
  2
AcImStrSysVar
  3
AcMeServices
 90
     1024
280
     0
281
     0
  0
CLASS
  1
AMDTADMENUSTATE
  2
AmdtAdMenuState
  3
DesignerServices
 90
     1024
280
     0
281
     0
  0
CLASS
  1
ADAPPL
  2
AcAdAppl
  3
DesignerServices
 90
     1024
280
     0
281
     0
  0
CLASS
  1
DEPMGR
  2
AcAdDepMgr
  3
DesignerServices
 90
     1024
280
     0
281
     0
  0
CLASS
  1
PARAMMGR
  2
AcAdParamMgr
  3
DesignerServices
 90
     1024
280
     0
281
     0
  0
CLASS
  1
PARAMSCOPE
  2
AcAdParamScope
  3
DesignerServices
 90
     1024
280
     0
281
     0
  0
CLASS
  1
NAMEDAPPL
  2
AcAdNamedAppl
  3
DesignerServices
 90
     1024
280
     0
281
     0
  0
CLASS
  1
AMDTDMMENUSTATE
  2
AmdtDmMenuState
  3
AcMechDwgViewMgmt
 90
     1024
280
     0
281
     0
  0
CLASS
  1
AMDTAMMENUSTATE
  2
AmdtAmMenuState
  3
DesignerAssemblies
 90
     1024
280
     0
281
     0
  0
CLASS
  1
ACAMPROJECT
  2
AcAmProject
  3
DesignerAssemblies
 90
     1024
280
     0
281
     0
  0
CLASS
  1
ACAMGRCOMPDEF
  2
AcAmGrCompDef
  3
DesignerAssemblies
 90
     1024
280
     0
281
     0
  0
CLASS
  1
ACAMCOMPDEF
  2
AcAmCompDef
  3
DesignerAssemblies
 90
     1024
280
     0
281
     0
  0
CLASS
  1
ACAMCOMPDEFMGR
  2
AcAmCompDefMgr
  3
DesignerAssemblies
 90
     1024
280
     0
281
     0
  0
CLASS
  1
AMCONTEXTMGR
  2
AcAmContextMgr
  3
DesignerAssemblies
 90
     1024
280
     0
281
     0
  0
CLASS
  1
ACAMCONTEXTMODELER
  2
AcAmContextModeler
  3
DesignerAssemblies
 90
     1024
280
     0
281
     0
  0
CLASS
  1
ACMDATADICTIONARY
  2
AcmDataDictionary
  3
"AcmSymBB|Product Description: AutoCAD Mechanical|Company: Autodesk, Inc."
 90
     1024
280
     0
281
     0
  0
CLASS
  1
CATALOGSTATE
  2
AcAmCatalogState
  3
DesignerAssemblies
 90
     1024
280
     0
281
     0
  0
CLASS
  1
ACAMGRCOMPDEFSET
  2
AcAmGrCompDefSet
  3
DesignerAssemblies
 90
     1024
280
     0
281
     0
  0
CLASS
  1
AMDTBROWSERDBTAB
  2
AmdtBrowserDbTab
  3
McadcomServices
 90
     1024
280
     0
281
     0
  0
CLASS
  1
CBROWSERAPPOBJECT
  2
CBrowserAppObject
  3
McadcomServices
 90
     1024
280
     0
281
     0
  0
CLASS
  1
DM_PLACEHOLDER
  2
AcDmSelsetPlaceholder
  3
AcMechDwgViewMgmt
 90
     1024
280
     0
281
     0
  0
CLASS
  1
ACMSTANDARDDIN
  2
AcmStandardDIN
  3
"Amdt_StdImp|Product Description: AutoCAD Mechanical|Company: Autodesk, Inc."
 90
     1024
280
     0
281
     0
  0
CLASS
  1
AMDTEDGESTANDARDDIN13715
  2
AmdtEdgeStdDIN13715
  3
"Amdt_StdImp|Product Description: AutoCAD Mechanical|Company: Autodesk, Inc."
 90
     1024
280
     0
281
     0
  0
CLASS
  1
ACMSURFSTANDARDDIN2002
  2
AcmSurfTextStdDIN2002
  3
"Amdt_StdImp|Product Description: AutoCAD Mechanical|Company: Autodesk, Inc."
 90
     1024
280
     0
281
     0
  0
CLASS
  1
ACMFCFSTANDARDDIN
  2
AcmFCFStdDIN
  3
"Amdt_StdImp|Product Description: AutoCAD Mechanical|Company: Autodesk, Inc."
 90
     1024
280
     0
281
     0
  0
CLASS
  1
ACMWELDSTANDARDDIN
  2
AcmWeldingStdDIN
  3
"Amdt_StdImp|Product Description: AutoCAD Mechanical|Company: Autodesk, Inc."
 90
     1024
280
     0
281
     0
  0
CLASS
  1
ACMIDSTANDARDDIN
  2
AcmIdStdDIN
  3
"Amdt_StdImp|Product Description: AutoCAD Mechanical|Company: Autodesk, Inc."
 90
     1024
280
     0
281
     0
  0
CLASS
  1
ACMDATUMSTANDARDDIN
  2
AcmDatumStdDIN
  3
"Amdt_StdImp|Product Description: AutoCAD Mechanical|Company: Autodesk, Inc."
 90
     1024
280
     0
281
     0
  0
CLASS
  1
ACMBOMSTANDARDDIN
  2
AcmBOMStdDIN
  3
"Amdt_StdImp|Product Description: AutoCAD Mechanical|Company: Autodesk, Inc."
 90
     1024
280
     0
281
     0
  0
CLASS
  1
ACMDETAILSTANDARDDIN
  2
AmdtDetailSymStdDIN
  3
"Amdt_StdImp|Product Description: AutoCAD Mechanical|Company: Autodesk, Inc."
 90
     1024
280
     0
281
     0
  0
CLASS
  1
ACMSECTIONSTANDARDDIN
  2
AmdtSectionSymStdDIN
  3
"Amdt_StdImp|Product Description: AutoCAD Mechanical|Company: Autodesk, Inc."
 90
     1024
280
     0
281
     0
  0
CLASS
  1
ACMCENTERLINESTANDARDDIN
  2
AmdtCenterLineStdDIN
  3
"Amdt_StdImp|Product Description: AutoCAD Mechanical|Company: Autodesk, Inc."
 90
     1024
280
     0
281
     0
  0
CLASS
  1
ACMTHREADLINESTANDARDDIN
  2
AmdtThreadLineStdDIN
  3
"Amdt_StdImp|Product Description: AutoCAD Mechanical|Company: Autodesk, Inc."
 90
     1024
280
     0
281
     0
  0
CLASS
  1
ACMNOTESTANDARDDIN
  2
AmdtNoteStdDIN
  3
"Amdt_StdImp|Product Description: AutoCAD Mechanical|Company: Autodesk, Inc."
 90
     1024
280
     0
281
     0
  0
CLASS
  1
ACMTAPERSTANDARDDIN
  2
AcmTaperStdDIN
  3
"Amdt_StdImp|Product Description: AutoCAD Mechanical|Company: Autodesk, Inc."
 90
     1024
280
     0
281
     0
  0
CLASS
  1
ACMANOOTATIONVIEWSTANDARDDIN
  2
AmdtAnViewStdDIN
  3
"Amdt_StdImp|Product Description: AutoCAD Mechanical|Company: Autodesk, Inc."
 90
     1024
280
     0
281
     0
  0
CLASS
  1
ACAMGLAYSTD
  2
AcAmgLayStd
  3
"AmgLay|Product Description: AutoCAD Mechanical|Company: Autodesk, Inc."
 90
     1024
280
     0
281
     0
  0
CLASS
  1
ACAMGDIMSTD
  2
AcAmgDimStd
  3
"AmgDim|Product Description: AutoCAD Mechanical|Company: Autodesk, Inc."
 90
     1024
280
     0
281
     0
  0
CLASS
  1
AMGOBJPROPCFG
  2
AmgObjPropCfg
  3
"AmgLay|Product Description: AutoCAD Mechanical|Company: Autodesk, Inc."
 90
     1025
280
     0
281
     0
  0
CLASS
  1
ACAMGHOLECHARTSTDDIN
  2
AcAmgHoleChartStdDIN
  3
AmgDim|Product Description: AutoCAD Mechanical|Company: Autodesk, Inc.
 90
     1024
280
     0
281
     0
  0
CLASS
  1
ACAMGTITLESTD
  2
AcAmgTitleStd
  3
"AmgTitle|Product Description: AutoCAD Mechanical|Company: Autodesk, Inc."
 90
     4095
280
     0
281
     0
  0
CLASS
  1
AMDTNOTETEMPLATEDB
  2
AmdtNoteTemplateDB
  3
AcmSymBB|Product Description: AutoCAD Mechanical|Company: Autodesk, Inc.
 90
     1024
280
     0
281
     0
  0
CLASS
  1
ACAMGFILTERDAT
  2
AcAmgFilterDat
  3
"AcadM|Product Description: AutoCAD Mechanical|Company: Autodesk, Inc."
 90
     1024
280
     0
281
     0
  0
CLASS
  1
DICTIONARYVAR
  2
AcDbDictionaryVar
  3
ObjectDBX Classes
 90
        0
280
     0
281
     0
  0
CLASS
  1
CELLSTYLEMAP
  2
AcDbCellStyleMap
  3
ObjectDBX Classes
 90
     1152
280
     0
281
     0
  0
ENDSEC
  0
SECTION
  2
TABLES
  0
TABLE
  2
VPORT
  5
8
330
0
100
AcDbSymbolTable
 70
     1
  0
VPORT
  5
1F4
330
8
100
AcDbSymbolTableRecord
100
AcDbViewportTableRecord
  2
*ACTIVE
 70
     0
 10
0.0
 20
0.0
 11
1.0
 21
1.0
 12
181.6341221160915
 22
126.1354053543279
 13
0.0
 23
0.0
 14
1.0
 24
1.0
 15
0.0
 25
0.0
 16
0.0
 26
0.0
 36
1.0
 17
0.0
 27
0.0
 37
0.0
 40
152.7044768703217
 41
1.850235849056604
 42
50.0
 43
0.0
 44
0.0
 50
0.0
 51
0.0
 71
     0
 72
   100
 73
     1
 74
     1
 75
     0
 76
     0
 77
     0
 78
     0
281
     0
 65
     0
110
0.0
120
0.0
130
0.0
111
1.0
121
0.0
131
0.0
112
0.0
122
1.0
132
0.0
 79
     0
146
0.0
  0
ENDTAB
  0
TABLE
  2
LTYPE
  5
5
330
0
100
AcDbSymbolTable
 70
    22
  0
LTYPE
  5
14
330
5
100
AcDbSymbolTableRecord
100
AcDbLinetypeTableRecord
  2
BYBLOCK
 70
     0
  3

 72
    65
 73
     0
 40
0.0
  0
LTYPE
  5
15
330
5
100
AcDbSymbolTableRecord
100
AcDbLinetypeTableRecord
  2
BYLAYER
 70
     0
  3

 72
    65
 73
     0
 40
0.0
  0
LTYPE
  5
16
330
5
100
AcDbSymbolTableRecord
100
AcDbLinetypeTableRecord
  2
CONTINUOUS
 70
     0
  3
Solid line
 72
    65
 73
     0
 40
0.0
  0
LTYPE
  5
1F5
330
5
100
AcDbSymbolTableRecord
100
AcDbLinetypeTableRecord
  2
CENTER
 70
     0
  3
____ _ ____ _ ____ _ ____ _ ____ _ ____ _ ____
 72
    65
 73
     4
 40
0.6
 49
0.375
 74
     0
 49
-0.075
 74
     0
 49
0.075
 74
     0
 49
-0.075
 74
     0
  0
LTYPE
  5
1F6
330
5
100
AcDbSymbolTableRecord
100
AcDbLinetypeTableRecord
  2
HIDDEN
 70
     0
  3
- - - - - - - - - - - - - - - - - - - -
 72
    65
 73
     2
 40
0.2
 49
0.1
 74
     0
 49
-0.1
 74
     0
  0
LTYPE
  5
1F7
330
5
100
AcDbSymbolTableRecord
100
AcDbLinetypeTableRecord
  2
PHANTOM
 70
     0
  3
_____ _ _ _____ _ _ _____ _ _ _____
 72
    65
 73
     6
 40
0.8
 49
0.45
 74
     0
 49
-0.05
 74
     0
 49
0.1
 74
     0
 49
-0.05
 74
     0
 49
0.1
 74
     0
 49
-0.05
 74
     0
  0
LTYPE
  5
1F8
330
5
100
AcDbSymbolTableRecord
100
AcDbLinetypeTableRecord
  2
DOT
 70
     0
  3
. . . . . . . . . . . . . . . . . . . .
 72
    65
 73
     2
 40
0.2
 49
0.1
 74
     0
 49
-0.1
 74
     0
  0
LTYPE
  5
1F9
330
5
100
AcDbSymbolTableRecord
100
AcDbLinetypeTableRecord
  2
DASHED
 70
     0
  3
- - - - - - - - - - - - - - - - - - - -
 72
    65
 73
     2
 40
0.2
 49
0.1
 74
     0
 49
-0.1
 74
     0
  0
LTYPE
  5
369
330
5
100
AcDbSymbolTableRecord
100
AcDbLinetypeTableRecord
  2
PHANTOM2
 70
     0
  3
Phantom (.5x) ___ _ _ ___ _ _ ___ _ _ ___ _ _
 72
    65
 73
     6
 40
31.75
 49
15.875
 74
     0
 49
-3.174999999999999
 74
     0
 49
3.174999999999999
 74
     0
 49
-3.174999999999999
 74
     0
 49
3.174999999999999
 74
     0
 49
-3.174999999999999
 74
     0
  0
LTYPE
  5
3AF
330
5
100
AcDbSymbolTableRecord
100
AcDbLinetypeTableRecord
  2
AM_ISO02W050
 70
     0
  3
__ __ __ __ __ __ __ __ __ __ __ __ __ __ __
 72
    65
 73
     2
 40
7.5
 49
6.0
 74
     0
 49
-1.5
 74
     0
  0
LTYPE
  5
3B0
330
5
100
AcDbSymbolTableRecord
100
AcDbLinetypeTableRecord
  2
AM_ISO08W050
 70
     0
  3
____ . ____ . ____ . ____ . ____ . ____ . ____
 72
    65
 73
     4
 40
18.0
 49
12.0
 74
     0
 49
-1.5
 74
     0
 49
3.0
 74
     0
 49
-1.5
 74
     0
  0
LTYPE
  5
3B1
330
5
100
AcDbSymbolTableRecord
100
AcDbLinetypeTableRecord
  2
AM_ISO09W050
 70
     0
  3
_____ . . _____ . . _____ . . ____ .. ____
 72
    65
 73
     6
 40
22.5
 49
12.0
 74
     0
 49
-1.5
 74
     0
 49
3.0
 74
     0
 49
-1.5
 74
     0
 49
3.0
 74
     0
 49
-1.5
 74
     0
  0
LTYPE
  5
3B2
330
5
100
AcDbSymbolTableRecord
100
AcDbLinetypeTableRecord
  2
Amconstr
 70
     0
  3
_______________________
 72
    65
 73
     2
 40
9999.0
 49
9999.0
 74
     0
 49
0.0
 74
     0
  0
LTYPE
  5
3B3
330
5
100
AcDbSymbolTableRecord
100
AcDbLinetypeTableRecord
  2
AM_ISO08W050x2
 70
     0
  3
__ . __ . __ . __ . __ . __
 72
    65
 73
     4
 40
9.0
 49
6.0
 74
     0
 49
-0.75
 74
     0
 49
1.5
 74
     0
 49
-0.75
 74
     0
  0
LTYPE
  5
3B4
330
5
100
AcDbSymbolTableRecord
100
AcDbLinetypeTableRecord
  2
AM_ISO02W050x2
 70
     0
  3
 _ _ _ _ _ _ _ _ _ _ _ _
 72
    65
 73
     2
 40
3.75
 49
3.0
 74
     0
 49
-0.75
 74
     0
  0
LTYPE
  5
3B7
330
5
100
AcDbSymbolTableRecord
100
AcDbLinetypeTableRecord
  2
Amzigzag
 70
     0
  3
/\/-/\/-/\/-/\/-/\/-/\/
 72
    65
 73
     2
 40
11.0001
 49
0.0001
 74
     4
 75
   136
340
3B6
 46
0.04
 50
0.0
 44
0.0
 45
0.0
 49
-11.0
 74
     0
  0
LTYPE
  5
3B8
330
5
100
AcDbSymbolTableRecord
100
AcDbLinetypeTableRecord
  2
AM_DIN_F_W050
 70
     0
  3
__ __ __ __ __ __ __ __ __ __ __ __ __ __ __
 72
    65
 73
     2
 40
6.25
 49
4.75
 74
     0
 49
-1.5
 74
     0
  0
LTYPE
  5
3B9
330
5
100
AcDbSymbolTableRecord
100
AcDbLinetypeTableRecord
  2
AM_DIN_G_W050
 70
     0
  3
____ . ____ . ____ . ____ . ____ . ____ . ____
 72
    65
 73
     4
 40
13.75
 49
9.75
 74
     0
 49
-1.5
 74
     0
 49
1.0
 74
     0
 49
-1.5
 74
     0
  0
LTYPE
  5
3BA
330
5
100
AcDbSymbolTableRecord
100
AcDbLinetypeTableRecord
  2
AM_DIN_K_W050
 70
     0
  3
_____ . . _____ . . _____ . . ____ .. ____
 72
    65
 73
     6
 40
16.25
 49
9.75
 74
     0
 49
-1.5
 74
     0
 49
1.0
 74
     0
 49
-1.5
 74
     0
 49
1.0
 74
     0
 49
-1.5
 74
     0
  0
LTYPE
  5
3BB
330
5
100
AcDbSymbolTableRecord
100
AcDbLinetypeTableRecord
  2
AM_DIN_G_W050x2
 70
     0
  3
__ . __ . __ . __ . __ . __
 72
    65
 73
     4
 40
6.875
 49
4.75
 74
     0
 49
-0.875
 74
     0
 49
0.375
 74
     0
 49
-0.875
 74
     0
  0
LTYPE
  5
3BC
330
5
100
AcDbSymbolTableRecord
100
AcDbLinetypeTableRecord
  2
AM_DIN_F_W050x2
 70
     0
  3
 _ _ _ _ _ _ _ _ _ _ _ _
 72
    65
 73
     2
 40
3.125
 49
2.25
 74
     0
 49
-0.875
 74
     0
  0
LTYPE
  5
3CB
330
5
100
AcDbSymbolTableRecord
100
AcDbLinetypeTableRecord
  2
ACDINWELD
 70
     0
  3
_ _ _ _ _
 72
    65
 73
     2
 40
2.0
 49
2.0
 74
     0
 49
-1.0
 74
     0
  0
LTYPE
  5
3CC
330
5
100
AcDbSymbolTableRecord
100
AcDbLinetypeTableRecord
  2
ACDINTGB
 70
     0
  3
__ . . __ . .
 72
    65
 73
     6
 40
9.0
 49
4.0
 74
     0
 49
-1.0
 74
     0
 49
1.0
 74
     0
 49
-1.0
 74
     0
 49
1.0
 74
     0
 49
-1.0
 74
     0
  0
LTYPE
  5
3CD
330
5
100
AcDbSymbolTableRecord
100
AcDbLinetypeTableRecord
  2
ACDINTGL
 70
     0
  3
_ _ _ _ _
 72
    65
 73
     2
 40
3.0
 49
2.0
 74
     0
 49
-1.0
 74
     0
  0
ENDTAB
  0
TABLE
  2
LAYER
  5
2
330
0
100
AcDbSymbolTable
 70
    12
  0
LAYER
  5
10
330
2
100
AcDbSymbolTableRecord
100
AcDbLayerTableRecord
  2
0
 70
     0
 62
     7
  6
CONTINUOUS
370
    -3
390
F
  0
LAYER
  5
1FA
330
2
100
AcDbSymbolTableRecord
100
AcDbLayerTableRecord
  2
DEFAULT_1
 70
     0
 62
     7
  6
CENTER
370
    -3
390
F
  0
LAYER
  5
1FB
330
2
100
AcDbSymbolTableRecord
100
AcDbLayerTableRecord
  2
DEFAULT_2
 70
     0
 62
     8
  6
HIDDEN
370
    -3
390
F
  0
LAYER
  5
1FC
330
2
100
AcDbSymbolTableRecord
100
AcDbLayerTableRecord
  2
DEFAULT_3
 70
     0
 62
     7
  6
PHANTOM
370
    -3
390
F
  0
LAYER
  5
1FD
330
2
100
AcDbSymbolTableRecord
100
AcDbLayerTableRecord
  2
FASEN
 70
     0
 62
     7
  6
CONTINUOUS
370
    -3
390
F
  0
LAYER
  5
1FE
330
2
100
AcDbSymbolTableRecord
100
AcDbLayerTableRecord
  2
HILFEN
 70
     0
 62
     7
  6
CONTINUOUS
370
    -3
390
F
  0
LAYER
  5
1FF
330
2
100
AcDbSymbolTableRecord
100
AcDbLayerTableRecord
  2
PLATZIERUNG
 70
     0
 62
     7
  6
CONTINUOUS
370
    -3
390
F
  0
LAYER
  5
200
330
2
100
AcDbSymbolTableRecord
100
AcDbLayerTableRecord
  2
RUNDUNGEN
 70
     0
 62
     7
  6
CONTINUOUS
370
    -3
390
F
  0
LAYER
  5
201
330
2
100
AcDbSymbolTableRecord
100
AcDbLayerTableRecord
  2
TEIL_STARTBEZUEGE
 70
     0
 62
     7
  6
CONTINUOUS
370
    -3
390
F
  0
LAYER
  5
202
330
2
100
AcDbSymbolTableRecord
100
AcDbLayerTableRecord
  2
ZEICHNUNGSBEMASSUNGEN
 70
     0
 62
     7
  6
CONTINUOUS
370
    -3
390
F
  0
LAYER
  5
3DB
330
2
100
AcDbSymbolTableRecord
100
AcDbLayerTableRecord
  2
Defpoints
 70
     0
 62
     7
  6
CONTINUOUS
290
     0
370
    -3
390
F
  0
LAYER
  5
3E7
330
2
100
AcDbSymbolTableRecord
100
AcDbLayerTableRecord
  2
AM_8
 70
     0
 62
     1
  6
CONTINUOUS
370
    25
390
F
1001
AcAecLayerStandard
1000

1000

  0
ENDTAB
  0
TABLE
  2
STYLE
  5
3
330
0
100
AcDbSymbolTable
 70
     6
  0
STYLE
  5
11
330
3
100
AcDbSymbolTableRecord
100
AcDbTextStyleTableRecord
  2
STANDARD
 70
     0
 40
0.0
 41
0.7
 50
0.0
 71
     0
 42
0.2
  3
txt
  4

  0
STYLE
  5
203
330
3
100
AcDbSymbolTableRecord
100
AcDbTextStyleTableRecord
  2
TEXTSTYLE_1
 70
     0
 40
0.0
 41
0.8
 50
0.0
 71
     0
 42
0.2
  3
gdt
  4

  0
STYLE
  5
204
330
3
100
AcDbSymbolTableRecord
100
AcDbTextStyleTableRecord
  2
TEXTSTYLE_2
 70
     0
 40
0.0
 41
0.7
 50
0.0
 71
     0
 42
0.2
  3
gdt
  4

  0
STYLE
  5
3B6
330
3
100
AcDbSymbolTableRecord
100
AcDbTextStyleTableRecord
  2

 70
     1
 40
0.0
 41
1.0
 50
0.0
 71
     0
 42
0.2
  3
genltshp.shx
  4

  0
STYLE
  5
3C9
330
3
100
AcDbSymbolTableRecord
100
AcDbTextStyleTableRecord
  2
ACDINTS
 70
     0
 40
1.0
 41
1.0
 50
0.0
 71
     0
 42
0.2
  3
isocp.shx
  4

  0
STYLE
  5
3CA
330
3
100
AcDbSymbolTableRecord
100
AcDbTextStyleTableRecord
  2
ACDINGDT
 70
     0
 40
0.0
 41
1.0
 50
0.0
 71
     0
 42
0.2
  3
amgdt.shx
  4

  0
ENDTAB
  0
TABLE
  2
VIEW
  5
6
330
0
100
AcDbSymbolTable
 70
     0
  0
ENDTAB
  0
TABLE
  2
UCS
  5
7
330
0
100
AcDbSymbolTable
 70
     0
  0
ENDTAB
  0
TABLE
  2
APPID
  5
9
330
0
100
AcDbSymbolTable
 70
    21
  0
APPID
  5
205
330
9
100
AcDbSymbolTableRecord
100
AcDbRegAppTableRecord
  2
ACAD
 70
     0
  0
APPID
  5
33E
330
9
100
AcDbSymbolTableRecord
100
AcDbRegAppTableRecord
  2
MCAD_NO_VIS
 70
     0
  0
APPID
  5
33F
330
9
100
AcDbSymbolTableRecord
100
AcDbRegAppTableRecord
  2
ACAD_TEMP_GRAPHIC
 70
     0
  0
APPID
  5
36B
330
9
100
AcDbSymbolTableRecord
100
AcDbRegAppTableRecord
  2
AD_DRAW
 70
     0
  0
APPID
  5
36E
330
9
100
AcDbSymbolTableRecord
100
AcDbRegAppTableRecord
  2
ACATTRIBSERVICES
 70
     0
  0
APPID
  5
38E
330
9
100
AcDbSymbolTableRecord
100
AcDbRegAppTableRecord
  2
DESIGNERASSEMBLIES
 70
     0
  0
APPID
  5
394
330
9
100
AcDbSymbolTableRecord
100
AcDbRegAppTableRecord
  2
ACADM_DIM_EDIT
 70
     0
  0
APPID
  5
395
330
9
100
AcDbSymbolTableRecord
100
AcDbRegAppTableRecord
  2
AMDT_DM_ADJ
 70
     0
  0
APPID
  5
3AC
330
9
100
AcDbSymbolTableRecord
100
AcDbRegAppTableRecord
  2
ACAD_DSTYLE_DIMJAG
 70
     0
  0
APPID
  5
3AD
330
9
100
AcDbSymbolTableRecord
100
AcDbRegAppTableRecord
  2
ACAD_DSTYLE_DIMBREAK
 70
     0
  0
APPID
  5
3DC
330
9
100
AcDbSymbolTableRecord
100
AcDbRegAppTableRecord
  2
AcAecLayerStandard
 70
     0
  0
APPID
  5
3DD
330
9
100
AcDbSymbolTableRecord
100
AcDbRegAppTableRecord
  2
GENIUS_GENODEF_13
 70
     0
  0
APPID
  5
3DE
330
9
100
AcDbSymbolTableRecord
100
AcDbRegAppTableRecord
  2
GENIUS_GENOBJ-N-HTC_13
 70
     0
  0
APPID
  5
3DF
330
9
100
AcDbSymbolTableRecord
100
AcDbRegAppTableRecord
  2
GENIUS_GENHATCH_13
 70
     0
  0
APPID
  5
3E0
330
9
100
AcDbSymbolTableRecord
100
AcDbRegAppTableRecord
  2
ACAD_EXEMPT_FROM_CAD_STANDARDS
 70
     0
  0
APPID
  5
3E1
330
9
100
AcDbSymbolTableRecord
100
AcDbRegAppTableRecord
  2
ACAD_MLEADERVER
 70
     0
  0
APPID
  5
3E2
330
9
100
AcDbSymbolTableRecord
100
AcDbRegAppTableRecord
  2
ACAD_DSTYLE_DIMJOGGED_JOGANGLE_SYMBOL
 70
     0
  0
APPID
  5
3E3
330
9
100
AcDbSymbolTableRecord
100
AcDbRegAppTableRecord
  2
ACAD_DSTYLE_DIM_LINETYPE
 70
     0
  0
APPID
  5
3E4
330
9
100
AcDbSymbolTableRecord
100
AcDbRegAppTableRecord
  2
ACAD_DSTYLE_DIM_EXT1_LINETYPE
 70
     0
  0
APPID
  5
3E5
330
9
100
AcDbSymbolTableRecord
100
AcDbRegAppTableRecord
  2
ACAD_DSTYLE_DIM_EXT2_LINETYPE
 70
     0
  0
APPID
  5
3E6
330
9
100
AcDbSymbolTableRecord
100
AcDbRegAppTableRecord
  2
ACAD_DSTYLE_DIMINSPECT
 70
     0
  0
ENDTAB
  0
TABLE
  2
DIMSTYLE
  5
A
330
0
100
AcDbSymbolTable
 70
    10
100
AcDbDimStyleTable
 71
     1
340
3F5
  0
DIMSTYLE
105
20B
330
A
100
AcDbSymbolTableRecord
100
AcDbDimStyleTableRecord
  2
STANDARD
 70
     0
 41
3.5
 47
0.005
 48
0.005
 71
     1
 73
     0
 74
     0
 77
     1
 78
     8
140
3.5
178
     5
271
     3
272
     3
284
     8
340
11
341
208
342
208
343
208
344
208
  0
DIMSTYLE
105
20C
330
A
100
AcDbSymbolTableRecord
100
AcDbDimStyleTableRecord
  2
DIMSTYLE_1
 70
     0
 41
3.5
 47
0.5
 48
0.5
 73
     0
 74
     0
 77
     1
 78
     8
140
3.5
178
     5
271
     3
272
     3
284
     8
340
11
341
208
342
208
343
208
344
208
  0
DIMSTYLE
105
3AB
102
{ACAD_REACTORS
330
39A
102
}
330
A
100
AcDbSymbolTableRecord
100
AcDbDimStyleTableRecord
  2
AM_DIN
 70
     0
  4
"
 41
3.5
 42
1.0
 43
10.0
 44
1.0
 47
0.1
 48
0.1
 73
     0
 74
     0
 77
     1
 78
     8
 79
     2
140
3.5
141
0.0
143
0.0393701
146
0.71
147
1.5
172
     1
176
   256
177
   256
178
     2
271
     2
272
     3
274
     4
283
     0
284
     8
340
11
371
    -1
372
    -1
1001
ACAD_DSTYLE_DIMJAG
1070
   388
1040
1.5
1001
ACAD_DSTYLE_DIMBREAK
1070
   391
1040
3.75
1001
ACAD_DSTYLE_DIMJOGGED_JOGANGLE_SYMBOL
1070
   384
1040
1.570796326794896
1001
ACAD_DSTYLE_DIM_LINETYPE
1070
   380
1005
14
1001
ACAD_DSTYLE_DIM_EXT1_LINETYPE
1070
   381
1005
14
1001
ACAD_DSTYLE_DIM_EXT2_LINETYPE
1070
   382
1005
14
  0
DIMSTYLE
105
3BD
330
A
100
AcDbSymbolTableRecord
100
AcDbDimStyleTableRecord
  2
AM_DIN$3
 70
     0
  4
"
 41
3.5
 42
1.0
 43
10.0
 44
1.0
 47
0.1
 48
0.1
 73
     0
 77
     1
 78
     8
 79
     2
140
3.5
141
0.0
143
0.0393701
146
0.71
147
1.5
176
   256
177
   256
178
     2
271
     2
272
     3
274
     4
283
     0
284
     8
288
     1
289
     0
340
11
371
    -1
372
    -1
1001
ACAD_DSTYLE_DIMBREAK
1070
   391
1040
3.75
1001
ACAD_DSTYLE_DIMJAG
1070
   388
1040
1.5
1001
ACAD_DSTYLE_DIMJOGGED_JOGANGLE_SYMBOL
1070
   384
1040
1.570796326794896
1001
ACAD_DSTYLE_DIM_LINETYPE
1070
   380
1005
14
1001
ACAD_DSTYLE_DIM_EXT1_LINETYPE
1070
   381
1005
14
1001
ACAD_DSTYLE_DIM_EXT2_LINETYPE
1070
   382
1005
14
  0
DIMSTYLE
105
3BE
330
A
100
AcDbSymbolTableRecord
100
AcDbDimStyleTableRecord
  2
AM_DIN$4
 70
     0
  4
"
 41
3.5
 42
1.0
 43
10.0
 44
1.0
 47
0.1
 48
0.1
 73
     0
 77
     1
 78
     8
 79
     2
140
3.5
141
0.0
143
0.0393701
146
0.71
147
1.5
176
   256
177
   256
178
     2
271
     2
272
     3
274
     4
283
     0
284
     8
288
     1
289
     0
340
11
371
    -1
372
    -1
1001
ACAD_DSTYLE_DIMBREAK
1070
   391
1040
3.75
1001
ACAD_DSTYLE_DIMJAG
1070
   388
1040
1.5
1001
ACAD_DSTYLE_DIMJOGGED_JOGANGLE_SYMBOL
1070
   384
1040
1.570796326794896
1001
ACAD_DSTYLE_DIM_LINETYPE
1070
   380
1005
14
1001
ACAD_DSTYLE_DIM_EXT1_LINETYPE
1070
   381
1005
14
1001
ACAD_DSTYLE_DIM_EXT2_LINETYPE
1070
   382
1005
14
  0
DIMSTYLE
105
3BF
330
A
100
AcDbSymbolTableRecord
100
AcDbDimStyleTableRecord
  2
AM_DIN$6
 70
     0
  4
"
 41
3.5
 42
1.0
 43
10.0
 44
1.0
 47
0.1
 48
0.1
 73
     0
 74
     0
 78
     8
 79
     2
140
3.5
141
0.0
143
0.0393701
146
0.71
147
1.5
172
     1
176
   256
177
   256
178
     2
271
     2
272
     3
274
     4
283
     0
284
     8
340
11
371
    -1
372
    -1
1001
ACAD_DSTYLE_DIMBREAK
1070
   391
1040
3.75
1001
ACAD_DSTYLE_DIMJAG
1070
   388
1040
1.5
1001
ACAD_DSTYLE_DIMJOGGED_JOGANGLE_SYMBOL
1070
   384
1040
1.570796326794896
1001
ACAD_DSTYLE_DIM_LINETYPE
1070
   380
1005
14
1001
ACAD_DSTYLE_DIM_EXT1_LINETYPE
1070
   381
1005
14
1001
ACAD_DSTYLE_DIM_EXT2_LINETYPE
1070
   382
1005
14
  0
DIMSTYLE
105
3C0
330
A
100
AcDbSymbolTableRecord
100
AcDbDimStyleTableRecord
  2
AM_DIN$7
 70
     0
  4
"
 41
3.5
 42
1.0
 43
10.0
 44
1.0
 47
0.1
 48
0.1
 73
     0
 74
     0
 77
     1
 78
     8
 79
     2
140
3.5
141
0.0
143
0.0393701
146
0.71
147
1.5
172
     1
176
   256
177
   256
178
     2
271
     2
272
     3
274
     4
283
     0
284
     8
340
11
371
    -1
372
    -1
1001
ACAD_DSTYLE_DIMBREAK
1070
   391
1040
3.75
1001
ACAD_DSTYLE_DIMJAG
1070
   388
1040
1.5
1001
ACAD_DSTYLE_DIMJOGGED_JOGANGLE_SYMBOL
1070
   384
1040
1.570796326794896
1001
ACAD_DSTYLE_DIM_LINETYPE
1070
   380
1005
14
1001
ACAD_DSTYLE_DIM_EXT1_LINETYPE
1070
   381
1005
14
1001
ACAD_DSTYLE_DIM_EXT2_LINETYPE
1070
   382
1005
14
  0
DIMSTYLE
105
3C1
330
A
100
AcDbSymbolTableRecord
100
AcDbDimStyleTableRecord
  2
AM_DIN$SF
 70
     0
  4
"
 41
3.5
 42
1.0
 43
10.0
 44
1.0
 47
0.1
 48
0.1
 73
     0
 74
     0
 75
     1
 76
     1
 77
     1
 78
     8
 79
     2
140
3.5
141
0.0
143
0.0393701
146
0.71
147
1.5
172
     1
176
   256
177
   256
178
     2
271
     2
272
     3
274
     4
283
     0
284
     8
340
11
371
    -1
372
    -1
1001
ACAD_DSTYLE_DIMBREAK
1070
   391
1040
3.75
1001
ACAD_DSTYLE_DIMJAG
1070
   388
1040
1.5
1001
ACAD_DSTYLE_DIMJOGGED_JOGANGLE_SYMBOL
1070
   384
1040
1.570796326794896
1001
ACAD_DSTYLE_DIM_LINETYPE
1070
   380
1005
14
1001
ACAD_DSTYLE_DIM_EXT1_LINETYPE
1070
   381
1005
14
1001
ACAD_DSTYLE_DIM_EXT2_LINETYPE
1070
   382
1005
14
  0
DIMSTYLE
105
3C6
330
A
100
AcDbSymbolTableRecord
100
AcDbDimStyleTableRecord
  2
AM_DIN$SH
 70
     0
  4
"
 41
3.5
 42
1.0
 43
10.0
 44
1.0
 47
0.1
 48
0.1
 73
     0
 74
     0
 75
     1
 76
     1
 77
     1
 78
     8
 79
     2
140
3.5
141
0.0
143
0.0393701
144
2.0
146
0.71
147
1.5
172
     1
173
     1
176
   256
177
   256
178
     2
271
     2
272
     3
274
     4
283
     0
284
     8
340
11
343
3C2
371
    -1
372
    -1
1001
ACAD_DSTYLE_DIMBREAK
1070
   391
1040
3.75
1001
ACAD_DSTYLE_DIMJAG
1070
   388
1040
1.5
1001
ACAD_DSTYLE_DIMJOGGED_JOGANGLE_SYMBOL
1070
   384
1040
1.570796326794896
1001
ACAD_DSTYLE_DIM_LINETYPE
1070
   380
1005
14
1001
ACAD_DSTYLE_DIM_EXT1_LINETYPE
1070
   381
1005
14
1001
ACAD_DSTYLE_DIM_EXT2_LINETYPE
1070
   382
1005
14
  0
DIMSTYLE
105
3F5
102
{ACAD_REACTORS
330
224
330
223
102
}
330
A
100
AcDbSymbolTableRecord
100
AcDbDimStyleTableRecord
  2
DIMSTYLE_2
 70
     0
 41
3.5
 47
0.3
 48
0.3
 73
     0
 74
     0
 77
     1
 78
     8
140
3.5
178
     5
271
     3
272
     3
284
     8
340
11
341
208
342
208
343
208
344
208
  0
ENDTAB
  0
TABLE
  2
BLOCK_RECORD
  5
1
330
0
100
AcDbSymbolTable
 70
     7
  0
BLOCK_RECORD
  5
206
330
1
100
AcDbSymbolTableRecord
100
AcDbBlockTableRecord
  2
*Model_Space
340
2EE
  0
BLOCK_RECORD
  5
207
330
1
100
AcDbSymbolTableRecord
100
AcDbBlockTableRecord
  2
*Paper_Space
340
2EF
  0
BLOCK_RECORD
  5
208
330
1
100
AcDbSymbolTableRecord
100
AcDbBlockTableRecord
  2
_FILLED
340
0
102
{BLKREFS
331
3EE
331
3EF
331
3F9
331
3FA
331
405
331
406
331
418
331
419
102
}
  0
BLOCK_RECORD
  5
209
330
1
100
AcDbSymbolTableRecord
100
AcDbBlockTableRecord
  2
*D1
340
0
  0
BLOCK_RECORD
  5
20A
330
1
100
AcDbSymbolTableRecord
100
AcDbBlockTableRecord
  2
*D2
340
0
  0
BLOCK_RECORD
  5
3C2
330
1
100
AcDbSymbolTableRecord
100
AcDbBlockTableRecord
  2
GENAXEH
340
0
  0
ENDTAB
  0
ENDSEC
  0
SECTION
  2
BLOCKS
  0
BLOCK
  5
20
330
206
100
AcDbEntity
  8
0
100
AcDbBlockBegin
  2
*Model_Space
 70
     0
 10
0.0
 20
0.0
 30
0.0
  3
*Model_Space
  1

  0
ENDBLK
  5
21
330
206
100
AcDbEntity
  8
0
100
AcDbBlockEnd
  0
BLOCK
  5
1C
330
207
100
AcDbEntity
 67
     1
  8
0
100
AcDbBlockBegin
  2
*Paper_Space
 70
     0
 10
0.0
 20
0.0
 30
0.0
  3
*Paper_Space
  1

  0
ENDBLK
  5
1D
330
207
100
AcDbEntity
 67
     1
  8
0
100
AcDbBlockEnd
  0
BLOCK
  5
20D
330
208
100
AcDbEntity
  8
0
100
AcDbBlockBegin
  2
_FILLED
 70
     0
 10
0.0
 20
0.0
 30
0.0
  3
_FILLED
  1

  0
SOLID
  5
20E
330
208
100
AcDbEntity
  8
0
  6
ByBlock
 62
     0
100
AcDbTrace
 10
0.0
 20
0.0
 30
0.0
 11
-1.0
 21
0.125
 31
0.0
 12
-1.0
 22
-0.125
 32
0.0
 13
-1.0
 23
-0.125
 33
0.0
  0
ENDBLK
  5
20F
330
208
100
AcDbEntity
  8
0
  6
ByBlock
 62
     0
100
AcDbBlockEnd
  0
BLOCK
  5
210
330
209
100
AcDbEntity
  8
0
  6
Continuous
 62
     2
100
AcDbBlockBegin
  2
*D1
 70
     1
 10
0.0
 20
0.0
 30
0.0
  3
*D1
  1

  0
LINE
  5
415
330
209
100
AcDbEntity
  8
ZEICHNUNGSBEMASSUNGEN
  6
Continuous
 62
     0
370
    -2
100
AcDbLine
 10
220.5573622881
 20
131.9082097458
 30
0.0
 11
220.5573622881
 21
153.4653653009845
 31
0.0
  0
LINE
  5
416
330
209
100
AcDbEntity
  8
ZEICHNUNGSBEMASSUNGEN
  6
Continuous
 62
     0
370
    -2
100
AcDbLine
 10
79.55736228810001
 20
131.9082097458
 30
0.0
 11
79.55736228810001
 21
153.4653653009845
 31
0.0
  0
LINE
  5
417
330
209
100
AcDbEntity
  8
ZEICHNUNGSBEMASSUNGEN
  6
Continuous
 62
     0
370
    -2
100
AcDbLine
 10
215.5573622881
 20
153.2853653009845
 30
0.0
 11
84.55736228810001
 21
153.2853653009845
 31
0.0
  0
INSERT
  5
418
330
209
100
AcDbEntity
  8
ZEICHNUNGSBEMASSUNGEN
  6
Continuous
 62
     0
370
    -2
100
AcDbBlockReference
  2
_FILLED
 10
220.5573622881
 20
153.2853653009845
 30
0.0
 41
5.0
 42
5.0
 43
5.0
  0
INSERT
  5
419
330
209
100
AcDbEntity
  8
ZEICHNUNGSBEMASSUNGEN
  6
Continuous
 62
     0
370
    -2
100
AcDbBlockReference
  2
_FILLED
 10
79.55736228810001
 20
153.2853653009845
 30
0.0
 41
5.0
 42
5.0
 43
5.0
 50
180.0
  0
MTEXT
  5
41A
330
209
100
AcDbEntity
  8
ZEICHNUNGSBEMASSUNGEN
  6
Continuous
100
AcDbMText
 10
146.3553198022413
 20
161.7853653009845
 30
0.0
 40
7.0
 41
0.0
 71
     2
 72
     1
  1
\A1;%%c141
 73
     1
 44
1.0
1001
ACAD
1000
MTEXTBEGIN
1070
    73
1070
     1
1070
    44
1040
1.0
1070
    74
1070
     0
1000
MTEXTEND
  0
POINT
  5
41B
330
209
100
AcDbEntity
  8
Defpoints
  6
Continuous
 62
     0
100
AcDbPoint
 10
220.5573622881
 20
131.8457097458
 30
0.0
  0
POINT
  5
41C
330
209
100
AcDbEntity
  8
Defpoints
  6
Continuous
 62
     0
100
AcDbPoint
 10
79.55736228810001
 20
131.8457097458
 30
0.0
  0
POINT
  5
41D
330
209
100
AcDbEntity
  8
Defpoints
  6
Continuous
 62
     0
100
AcDbPoint
 10
79.55736228810001
 20
153.2853653009845
 30
0.0
  0
ENDBLK
  5
218
330
209
100
AcDbEntity
  8
0
  6
ByBlock
 62
     0
100
AcDbBlockEnd
  0
BLOCK
  5
219
330
20A
100
AcDbEntity
  8
0
  6
Continuous
 62
     2
100
AcDbBlockBegin
  2
*D2
 70
     1
 10
0.0
 20
0.0
 30
0.0
  3
*D2
  1

  0
LINE
  5
3F6
330
20A
100
AcDbEntity
  8
ZEICHNUNGSBEMASSUNGEN
  6
Continuous
 62
     0
370
    -2
100
AcDbLine
 10
212.5573622881
 20
126.8082097458
 30
0.0
 11
212.5573622881
 21
143.1507097458
 31
0.0
  0
LINE
  5
3F7
330
20A
100
AcDbEntity
  8
ZEICHNUNGSBEMASSUNGEN
  6
Continuous
 62
     0
370
    -2
100
AcDbLine
 10
87.55736228809999
 20
126.8082097458
 30
0.0
 11
87.55736228809999
 21
143.1507097458
 31
0.0
  0
LINE
  5
3F8
330
20A
100
AcDbEntity
  8
ZEICHNUNGSBEMASSUNGEN
  6
Continuous
 62
     0
370
    -2
100
AcDbLine
 10
207.5573622881
 20
142.9707097458
 30
0.0
 11
92.55736228809999
 21
142.9707097458
 31
0.0
  0
INSERT
  5
3F9
330
20A
100
AcDbEntity
  8
ZEICHNUNGSBEMASSUNGEN
  6
Continuous
 62
     0
370
    -2
100
AcDbBlockReference
  2
_FILLED
 10
212.5573622881
 20
142.9707097458
 30
0.0
 41
5.0
 42
5.0
 43
5.0
  0
INSERT
  5
3FA
330
20A
100
AcDbEntity
  8
ZEICHNUNGSBEMASSUNGEN
  6
Continuous
 62
     0
370
    -2
100
AcDbBlockReference
  2
_FILLED
 10
87.55736228809999
 20
142.9707097458
 30
0.0
 41
5.0
 42
5.0
 43
5.0
 50
180.0
  0
MTEXT
  5
3FB
330
20A
100
AcDbEntity
  8
ZEICHNUNGSBEMASSUNGEN
  6
Continuous
100
AcDbMText
 10
147.0781956215
 20
151.4707097458
 30
0.0
 40
7.0
 41
0.0
 71
     2
 72
     1
  1
\A1;%%c125
 73
     1
 44
1.0
1001
ACAD
1000
MTEXTBEGIN
1070
    73
1070
     1
1070
    44
1040
1.0
1070
    74
1070
     0
1000
MTEXTEND
  0
POINT
  5
3FC
330
20A
100
AcDbEntity
  8
Defpoints
  6
Continuous
 62
     0
100
AcDbPoint
 10
212.5573622881
 20
126.7457097458
 30
0.0
  0
POINT
  5
3FD
330
20A
100
AcDbEntity
  8
Defpoints
  6
Continuous
 62
     0
100
AcDbPoint
 10
87.55736228809999
 20
126.7457097458
 30
0.0
  0
POINT
  5
3FE
330
20A
100
AcDbEntity
  8
Defpoints
  6
Continuous
 62
     0
100
AcDbPoint
 10
87.55736228809999
 20
142.9707097458
 30
0.0
  0
ENDBLK
  5
221
330
20A
100
AcDbEntity
  8
0
  6
ByBlock
 62
     0
100
AcDbBlockEnd
  0
BLOCK
  5
3C4
330
3C2
100
AcDbEntity
  8
0
100
AcDbBlockBegin
  2
GENAXEH
 70
     0
 10
0.0
 20
0.0
 30
0.0
  3
GENAXEH
  1

  0
LINE
  5
3C3
330
3C2
100
AcDbEntity
  8
0
100
AcDbLine
 10
-1.0
 20
0.0
 30
0.0
 11
1.0
 21
0.0
 31
0.0
  0
ENDBLK
  5
3C5
330
3C2
100
AcDbEntity
  8
0
100
AcDbBlockEnd
  0
ENDSEC
  0
SECTION
  2
ENTITIES
  0
HATCH
  5
222
330
206
100
AcDbEntity
  8
AM_8
100
AcDbHatch
 10
0.0
 20
0.0
 30
0.0
210
0.0
220
0.0
230
1.0
  2
_U
 70
     0
 71
     0
 91
        2
 92
        1
 93
       16
 72
     1
 10
219.057325455
 20
130.3457097458
 11
218.0573622881
 21
130.3457097458
 72
     1
 10
219.057325455
 20
130.3457097458
 11
220.5573622881
 21
128.8456721119
 72
     1
 10
220.5573622881
 20
128.4457097458
 11
220.5573622881
 21
128.8456721119
 72
     4
 94
        3
 73
     1
 74
     0
 95
        8
 96
        4
 40
0.0
 40
0.0
 40
0.0
 40
0.0
 40
1.0
 40
1.0
 40
1.0
 40
1.0
 10
220.5573622881
 20
128.4457097458
 42
1.0
 10
221.5573622881
 20
128.4457097458
 42
0.3333333333
 10
221.5573622881
 20
127.4457097458
 42
0.3333333333
 10
220.5573622881
 20
127.4457097458
 42
1.0
 72
     1
 10
220.5573622881
 20
127.4457097458
 11
220.5573622881
 21
126.6457097458
 72
     4
 94
        3
 73
     1
 74
     0
 95
        8
 96
        4
 40
0.0
 40
0.0
 40
0.0
 40
0.0
 40
1.0
 40
1.0
 40
1.0
 40
1.0
 10
220.5573622881
 20
126.6457097458
 42
1.0
 10
221.5573622881
 20
126.6457097458
 42
0.3333333333
 10
221.5573622881
 20
125.6457097458
 42
0.3333333333
 10
220.5573622881
 20
125.6457097458
 42
1.0
 72
     1
 10
220.5573622881
 20
125.6457097458
 11
220.5573622881
 21
124.8457097458
 72
     4
 94
        3
 73
     1
 74
     0
 95
        8
 96
        4
 40
0.0
 40
0.0
 40
0.0
 40
0.0
 40
1.0
 40
1.0
 40
1.0
 40
1.0
 10
220.5573622881
 20
124.8457097458
 42
1.0
 10
221.5573622881
 20
124.8457097458
 42
0.3333333333
 10
221.5573622881
 20
123.8457097458
 42
0.3333333333
 10
220.5573622881
 20
123.8457097458
 42
1.0
 72
     1
 10
220.5573622881
 20
123.8457097458
 11
220.5573622881
 21
123.0457097458
 72
     4
 94
        3
 73
     1
 74
     0
 95
        8
 96
        4
 40
0.0
 40
0.0
 40
0.0
 40
0.0
 40
1.0
 40
1.0
 40
1.0
 40
1.0
 10
220.5573622881
 20
123.0457097458
 42
1.0
 10
221.5573622881
 20
123.0457097458
 42
0.3333333333
 10
221.5573622881
 20
122.0457097458
 42
0.3333333333
 10
220.5573622881
 20
122.0457097458
 42
1.0
 72
     1
 10
220.5573622881
 20
122.0457097458
 11
220.5573622881
 21
121.6457478266
 72
     1
 10
219.0573250176
 20
120.1457097458
 11
220.5573622881
 21
121.6457478266
 72
     1
 10
219.0573250176
 20
120.1457097458
 11
218.0573622881
 21
120.1457097458
 72
     4
 94
        3
 73
     1
 74
     0
 95
        8
 96
        4
 40
0.0
 40
0.0
 40
0.0
 40
0.0
 40
1.0
 40
1.0
 40
1.0
 40
1.0
 10
217.0573622881
 20
121.1457097458
 42
1.0
 10
217.0573622881
 20
120.5599233081
 42
0.8047378541
 10
217.4715758505
 20
120.1457097458
 42
0.8047378541
 10
218.0573622881
 20
120.1457097458
 42
1.0
 72
     1
 10
217.0573622881
 20
121.1457097458
 11
217.0573622881
 21
129.3457097458
 72
     4
 94
        3
 73
     1
 74
     0
 95
        8
 96
        4
 40
0.0
 40
0.0
 40
0.0
 40
0.0
 40
1.0
 40
1.0
 40
1.0
 40
1.0
 10
218.0573622881
 20
130.3457097458
 42
1.0
 10
217.4715758505
 20
130.3457097458
 42
0.8047378541
 10
217.0573622881
 20
129.9314961834
 42
0.8047378541
 10
217.0573622881
 20
129.3457097458
 42
1.0
 97
        0
 92
        1
 93
       16
 72
     1
 10
82.05736228810001
 20
130.3457097458
 11
81.05739912129999
 21
130.3457097458
 72
     4
 94
        3
 73
     1
 74
     0
 95
        8
 96
        4
 40
0.0
 40
0.0
 40
0.0
 40
0.0
 40
1.0
 40
1.0
 40
1.0
 40
1.0
 10
82.05736228810001
 20
130.3457097458
 42
1.0
 10
82.64314872579999
 20
130.3457097458
 42
0.8047378541
 10
83.05736228810003
 20
129.9314961834
 42
0.8047378541
 10
83.05736228810001
 20
129.3457097458
 42
1.0
 72
     1
 10
83.05736228810001
 20
121.1457097458
 11
83.05736228810001
 21
129.3457097458
 72
     4
 94
        3
 73
     1
 74
     0
 95
        8
 96
        4
 40
0.0
 40
0.0
 40
0.0
 40
0.0
 40
1.0
 40
1.0
 40
1.0
 40
1.0
 10
83.05736228810001
 20
121.1457097458
 42
1.0
 10
83.05736228810003
 20
120.5599233081
 42
0.8047378541
 10
82.64314872579999
 20
120.1457097458
 42
0.8047378541
 10
82.05736228810001
 20
120.1457097458
 42
1.0
 72
     1
 10
82.05736228810001
 20
120.1457097458
 11
81.05739955869999
 21
120.1457097458
 72
     1
 10
81.05739955869999
 20
120.1457097458
 11
79.55736228810001
 21
121.6457478266
 72
     1
 10
79.55736228810001
 20
122.0457097458
 11
79.55736228810001
 21
121.6457478266
 72
     4
 94
        3
 73
     1
 74
     0
 95
       11
 96
        7
 40
0.0
 40
0.0
 40
0.0
 40
0.0
 40
1.0
 40
1.0
 40
1.0
 40
2.0
 40
2.0
 40
2.0
 40
2.0
 10
79.55736228810001
 20
123.0457097458
 42
1.0
 10
79.2644690693
 20
123.0457097458
 42
0.8047378541
 10
79.05736228810001
 20
122.8386029646
 42
0.8047378541
 10
79.05736228810001
 20
122.5457097458
 42
1.0
 10
79.05736228810001
 20
122.2528165269
 42
0.8047378541
 10
79.2644690693
 20
122.0457097458
 42
0.8047378541
 10
79.55736228810001
 20
122.0457097458
 42
1.0
 72
     1
 10
79.55736228810001
 20
123.8457097458
 11
79.55736228810001
 21
123.0457097458
 72
     4
 94
        3
 73
     1
 74
     0
 95
       11
 96
        7
 40
0.0
 40
0.0
 40
0.0
 40
0.0
 40
1.0
 40
1.0
 40
1.0
 40
2.0
 40
2.0
 40
2.0
 40
2.0
 10
79.55736228810001
 20
124.8457097458
 42
1.0
 10
79.2644690693
 20
124.8457097458
 42
0.8047378541
 10
79.05736228810001
 20
124.6386029646
 42
0.8047378541
 10
79.05736228810001
 20
124.3457097458
 42
1.0
 10
79.05736228810001
 20
124.0528165269
 42
0.8047378541
 10
79.2644690693
 20
123.8457097458
 42
0.8047378541
 10
79.55736228810001
 20
123.8457097458
 42
1.0
 72
     1
 10
79.55736228810001
 20
125.6457097458
 11
79.55736228810001
 21
124.8457097458
 72
     4
 94
        3
 73
     1
 74
     0
 95
       11
 96
        7
 40
0.0
 40
0.0
 40
0.0
 40
0.0
 40
1.0
 40
1.0
 40
1.0
 40
2.0
 40
2.0
 40
2.0
 40
2.0
 10
79.55736228810001
 20
126.6457097458
 42
1.0
 10
79.2644690693
 20
126.6457097458
 42
0.8047378541
 10
79.05736228810001
 20
126.4386029646
 42
0.8047378541
 10
79.05736228810001
 20
126.1457097458
 42
1.0
 10
79.05736228810001
 20
125.8528165269
 42
0.8047378541
 10
79.2644690693
 20
125.6457097458
 42
0.8047378541
 10
79.55736228810001
 20
125.6457097458
 42
1.0
 72
     1
 10
79.55736228810001
 20
126.6457097458
 11
79.55736228810001
 21
127.4457097458
 72
     4
 94
        3
 73
     1
 74
     0
 95
       11
 96
        7
 40
0.0
 40
0.0
 40
0.0
 40
0.0
 40
1.0
 40
1.0
 40
1.0
 40
2.0
 40
2.0
 40
2.0
 40
2.0
 10
79.55736228810001
 20
128.4457097458
 42
1.0
 10
79.2644690693
 20
128.4457097458
 42
0.8047378541
 10
79.05736228810001
 20
128.2386029646
 42
0.8047378541
 10
79.05736228810001
 20
127.9457097458
 42
1.0
 10
79.05736228810001
 20
127.6528165269
 42
0.8047378541
 10
79.2644690693
 20
127.4457097458
 42
0.8047378541
 10
79.55736228810001
 20
127.4457097458
 42
1.0
 72
     1
 10
79.55736228810001
 20
128.8456721119
 11
79.55736228810001
 21
128.4457097458
 72
     1
 10
81.05739912129999
 20
130.3457097458
 11
79.55736228810001
 21
128.8456721119
 97
        0
 75
     0
 76
     0
 52
315.0
 41
1.5
 77
     0
 78
     1
 53
315.0
 43
0.0
 44
0.0
 45
1.060660171779821
 46
1.06066017177982
 79
     0
 98
        1
 10
0.0
 20
0.0
1001
ACAD
1010
0.0
1020
0.0
1030
0.0
  0
DIMENSION
  5
223
330
206
100
AcDbEntity
  8
ZEICHNUNGSBEMASSUNGEN
  6
Continuous
 62
     7
100
AcDbDimension
  2
*D1
 10
79.55736228810001
 20
153.2853653009845
 30
0.0
 11
146.3553198022413
 21
153.2853653009845
 31
0.0
 70
   160
  1
%%c<>
 71
     2
 42
141.0
  3
DIMSTYLE_2
100
AcDbAlignedDimension
 13
220.5573622881
 23
131.8457097458
 33
0.0
 14
79.55736228810001
 24
131.8457097458
 34
0.0
 50
180.0
100
AcDbRotatedDimension
1001
ACAD
1000
DSTYLE
1002
{
1070
    41
1040
5.0
1070
   140
1040
7.0
1070
   147
1040
1.5
1070
   178
1070
   256
1002
}
  0
DIMENSION
  5
224
330
206
100
AcDbEntity
  8
ZEICHNUNGSBEMASSUNGEN
  6
Continuous
 62
     7
100
AcDbDimension
  2
*D2
 10
87.55736228809999
 20
142.9707097458
 30
0.0
 11
147.0781956215
 21
142.9707097458
 31
0.0
 70
   160
  1
%%c<>
 71
     2
 42
125.0
  3
DIMSTYLE_2
100
AcDbAlignedDimension
 13
212.5573622881
 23
126.7457097458
 33
0.0
 14
87.55736228809999
 24
126.7457097458
 34
0.0
 50
180.0
100
AcDbRotatedDimension
1001
ACAD
1000
DSTYLE
1002
{
1070
    41
1040
5.0
1070
   140
1040
7.0
1070
   147
1040
1.5
1070
   178
1070
   256
1002
}
  0
LINE
  5
229
330
206
100
AcDbEntity
  8
0
  6
Continuous
 62
     7
100
AcDbLine
 10
79.55736228810001
 20
128.8456721119
 30
0.0
 11
79.55736228810001
 21
128.4457097458
 31
0.0
  0
LINE
  5
22A
330
206
100
AcDbEntity
  8
0
  6
Continuous
 62
     7
100
AcDbLine
 10
79.55736228810001
 20
125.6457097458
 30
0.0
 11
79.55736228810001
 21
124.8457097458
 31
0.0
  0
LINE
  5
22B
330
206
100
AcDbEntity
  8
0
  6
Continuous
 62
     7
100
AcDbLine
 10
79.55736228810001
 20
123.8457097458
 30
0.0
 11
79.55736228810001
 21
123.0457097458
 31
0.0
  0
LINE
  5
22C
330
206
100
AcDbEntity
  8
0
  6
Continuous
 62
     7
100
AcDbLine
 10
79.55736228810001
 20
122.0457097458
 30
0.0
 11
79.55736228810001
 21
121.6457478266
 31
0.0
  0
LINE
  5
22D
330
206
100
AcDbEntity
  8
0
  6
Continuous
 62
     7
100
AcDbLine
 10
79.55736228810001
 20
126.6457097458
 30
0.0
 11
79.55736228810001
 21
127.4457097458
 31
0.0
  0
LINE
  5
22E
330
206
100
AcDbEntity
  8
0
  6
Continuous
 62
     7
100
AcDbLine
 10
83.05736228810001
 20
121.1457097458
 30
0.0
 11
83.05736228810001
 21
129.3457097458
 31
0.0
  0
LINE
  5
22F
330
206
100
AcDbEntity
  8
RUNDUNGEN
  6
Continuous
 62
     9
100
AcDbLine
 10
83.7076374607
 20
129.3457097458
 30
0.0
 11
83.7076374607
 21
121.1457097458
 31
0.0
  0
LINE
  5
230
330
206
100
AcDbEntity
  8
RUNDUNGEN
  6
Continuous
 62
     9
100
AcDbLine
 10
84.48149224720001
 20
129.3457097458
 30
0.0
 11
84.48149224720001
 21
121.1457097458
 31
0.0
  0
LINE
  5
231
330
206
100
AcDbEntity
  8
0
  6
Continuous
 62
     7
100
AcDbLine
 10
81.05739912129999
 20
130.3457097458
 30
0.0
 11
79.55736228810001
 21
128.8456721119
 31
0.0
  0
LINE
  5
232
330
206
100
AcDbEntity
  8
0
  6
Continuous
 62
     7
100
AcDbLine
 10
81.05739955869999
 20
120.1457097458
 30
0.0
 11
79.55736228810001
 21
121.6457478266
 31
0.0
  0
LINE
  5
233
330
206
100
AcDbEntity
  8
RUNDUNGEN
  6
Continuous
 62
     9
100
AcDbLine
 10
139.9080158476
 20
129.3457097458
 30
0.0
 11
139.9080158476
 21
121.1457097458
 31
0.0
  0
LINE
  5
234
330
206
100
AcDbEntity
  8
RUNDUNGEN
  6
Continuous
 62
     9
100
AcDbLine
 10
140.7453262421
 20
129.3457097458
 30
0.0
 11
140.7453262421
 21
121.1457097458
 31
0.0
  0
LINE
  5
235
330
206
100
AcDbEntity
  8
0
  6
Continuous
 62
     7
100
AcDbLine
 10
219.0573250176
 20
120.1457097458
 30
0.0
 11
217.397381516
 21
120.1457097458
 31
0.0
  0
LINE
  5
236
330
206
100
AcDbEntity
  8
0
  6
Continuous
 62
     7
100
AcDbLine
 10
82.71734306029999
 20
120.1457097458
 30
0.0
 11
81.05739955869999
 21
120.1457097458
 31
0.0
  0
LINE
  5
237
330
206
100
AcDbEntity
  8
0
  6
Continuous
 62
     7
100
AcDbLine
 10
84.26505263320001
 20
120.1457097458
 30
0.0
 11
138.7164035393
 21
120.1457097458
 31
0.0
  0
LINE
  5
238
330
206
100
AcDbEntity
  8
RUNDUNGEN
  6
Continuous
 62
     7
100
AcDbLine
 10
82.71734306029999
 20
120.1457097458
 30
0.0
 11
217.397381516
 21
120.1457097458
 31
0.0
  0
LINE
  5
239
330
206
100
AcDbEntity
  8
RUNDUNGEN
  6
Continuous
 62
     9
100
AcDbLine
 10
86.25921798
 20
120.9422756874
 30
0.0
 11
138.555793351
 21
120.9422751059
 31
0.0
  0
LINE
  5
23A
330
206
100
AcDbEntity
  8
RUNDUNGEN
  6
Continuous
 62
     9
100
AcDbLine
 10
161.5589277348
 20
120.9422756874
 30
0.0
 11
213.8555060898
 21
120.9422751059
 31
0.0
  0
LINE
  5
23B
330
206
100
AcDbEntity
  8
0
  6
CENTER
100
AcDbLine
 10
150.0573622881
 20
117.1457097458
 30
0.0
 11
150.0573622881
 21
133.3457097458
 31
0.0
  0
LINE
  5
23C
330
206
100
AcDbEntity
  8
0
  6
Continuous
 62
     9
100
AcDbLine
 10
217.0573622881
 20
121.1457097458
 30
0.0
 11
216.4070871156
 21
121.1457097458
 31
0.0
  0
LINE
  5
23D
330
206
100
AcDbEntity
  8
RUNDUNGEN
  6
Continuous
 62
     9
100
AcDbLine
 10
216.4070871156
 20
121.1457097458
 30
0.0
 11
214.6620032294
 21
121.1457097458
 31
0.0
  0
LINE
  5
23E
330
206
100
AcDbEntity
  8
RUNDUNGEN
  6
Continuous
 62
     9
100
AcDbLine
 10
160.4220250363
 20
121.1457097458
 30
0.0
 11
139.69269954
 21
121.1457097458
 31
0.0
  0
LINE
  5
23F
330
206
100
AcDbEntity
  8
RUNDUNGEN
  6
Continuous
 62
     9
100
AcDbLine
 10
85.4527213469
 20
121.1457097458
 30
0.0
 11
83.7076374607
 21
121.1457097458
 31
0.0
  0
LINE
  5
240
330
206
100
AcDbEntity
  8
0
  6
Continuous
 62
     9
100
AcDbLine
 10
83.7076374607
 20
121.1457097458
 30
0.0
 11
83.05736228810001
 21
121.1457097458
 31
0.0
  0
LINE
  5
241
330
206
100
AcDbEntity
  8
RUNDUNGEN
  6
Continuous
 62
     9
100
AcDbLine
 10
161.486893611
 20
121.5582687465
 30
0.0
 11
213.456032673
 21
121.5582730979
 31
0.0
  0
LINE
  5
242
330
206
100
AcDbEntity
  8
RUNDUNGEN
  6
Continuous
 62
     9
100
AcDbLine
 10
86.65868215729998
 20
121.5582687465
 30
0.0
 11
138.6278119688
 21
121.5582730979
 31
0.0
  0
LINE
  5
243
330
206
100
AcDbEntity
  8
RUNDUNGEN
  6
Continuous
 62
     9
100
AcDbLine
 10
138.6278123067
 20
128.9331463906
 30
0.0
 11
86.65868303280001
 21
128.9331507455
 31
0.0
  0
LINE
  5
244
330
206
100
AcDbEntity
  8
RUNDUNGEN
  6
Continuous
 62
     9
100
AcDbLine
 10
213.4560327296
 20
128.9331463906
 30
0.0
 11
161.4868984705
 21
128.9331507455
 31
0.0
  0
LINE
  5
245
330
206
100
AcDbEntity
  8
0
  6
Continuous
 62
     9
100
AcDbLine
 10
83.05736228810001
 20
129.3457097458
 30
0.0
 11
83.7076374607
 21
129.3457097458
 31
0.0
  0
LINE
  5
246
330
206
100
AcDbEntity
  8
RUNDUNGEN
  6
Continuous
 62
     9
100
AcDbLine
 10
83.7076374607
 20
129.3457097458
 30
0.0
 11
85.45272134799999
 21
129.3457097458
 31
0.0
  0
LINE
  5
247
330
206
100
AcDbEntity
  8
RUNDUNGEN
  6
Continuous
 62
     9
100
AcDbLine
 10
139.6926995398
 20
129.3457097458
 30
0.0
 11
160.4220250365
 21
129.3457097458
 31
0.0
  0
LINE
  5
248
330
206
100
AcDbEntity
  8
RUNDUNGEN
  6
Continuous
 62
     9
100
AcDbLine
 10
214.6620032283
 20
129.3457097458
 30
0.0
 11
216.4070871156
 21
129.3457097458
 31
0.0
  0
LINE
  5
249
330
206
100
AcDbEntity
  8
0
  6
Continuous
 62
     9
100
AcDbLine
 10
216.4070871156
 20
129.3457097458
 30
0.0
 11
217.0573622881
 21
129.3457097458
 31
0.0
  0
LINE
  5
24A
330
206
100
AcDbEntity
  8
RUNDUNGEN
  6
Continuous
 62
     9
100
AcDbLine
 10
213.8555060894
 20
129.5491443851
 30
0.0
 11
161.5589277342
 21
129.5491438037
 31
0.0
  0
LINE
  5
24B
330
206
100
AcDbEntity
  8
RUNDUNGEN
  6
Continuous
 62
     9
100
AcDbLine
 10
138.5557933495
 20
129.5491443851
 30
0.0
 11
86.25921798
 21
129.5491438037
 31
0.0
  0
LINE
  5
24C
330
206
100
AcDbEntity
  8
0
  6
Continuous
 62
     7
100
AcDbLine
 10
219.057325455
 20
130.3457097458
 30
0.0
 11
217.397381516
 21
130.3457097458
 31
0.0
  0
LINE
  5
24D
330
206
100
AcDbEntity
  8
0
  6
Continuous
 62
     7
100
AcDbLine
 10
159.5083839468
 20
130.3457097458
 30
0.0
 11
140.6063406295
 21
130.3457097458
 31
0.0
  0
LINE
  5
24E
330
206
100
AcDbEntity
  8
0
  6
Continuous
 62
     7
100
AcDbLine
 10
81.05739912129999
 20
130.3457097458
 30
0.0
 11
82.71734306029999
 21
130.3457097458
 31
0.0
  0
LINE
  5
24F
330
206
100
AcDbEntity
  8
0
  6
Continuous
 62
     7
100
AcDbLine
 10
84.26505263320001
 20
130.3457097458
 30
0.0
 11
138.9317198405
 21
130.3457097458
 31
0.0
  0
LINE
  5
250
330
206
100
AcDbEntity
  8
RUNDUNGEN
  6
Continuous
 62
     7
100
AcDbLine
 10
82.71734306029999
 20
130.3457097458
 30
0.0
 11
217.397381516
 21
130.3457097458
 31
0.0
  0
LINE
  5
251
330
206
100
AcDbEntity
  8
RUNDUNGEN
  6
Continuous
 62
     9
100
AcDbLine
 10
159.3693983342
 20
129.3457097458
 30
0.0
 11
159.3693983342
 21
121.1457097458
 31
0.0
  0
LINE
  5
252
330
206
100
AcDbEntity
  8
RUNDUNGEN
  6
Continuous
 62
     9
100
AcDbLine
 10
160.2067087287
 20
129.3457097458
 30
0.0
 11
160.2067087287
 21
121.1457097458
 31
0.0
  0
LINE
  5
253
330
206
100
AcDbEntity
  8
0
  6
Continuous
 62
     7
100
AcDbLine
 10
219.0573250176
 20
120.1457097458
 30
0.0
 11
220.5573622881
 21
121.6457478266
 31
0.0
  0
LINE
  5
254
330
206
100
AcDbEntity
  8
0
  6
Continuous
 62
     7
100
AcDbLine
 10
219.057325455
 20
130.3457097458
 30
0.0
 11
220.5573622881
 21
128.8456721119
 31
0.0
  0
LINE
  5
255
330
206
100
AcDbEntity
  8
RUNDUNGEN
  6
Continuous
 62
     9
100
AcDbLine
 10
215.6332323291
 20
129.3457097458
 30
0.0
 11
215.6332323291
 21
121.1457097458
 31
0.0
  0
LINE
  5
256
330
206
100
AcDbEntity
  8
RUNDUNGEN
  6
Continuous
 62
     9
100
AcDbLine
 10
216.4070871156
 20
129.3457097458
 30
0.0
 11
216.4070871156
 21
121.1457097458
 31
0.0
  0
LINE
  5
257
330
206
100
AcDbEntity
  8
0
  6
Continuous
 62
     7
100
AcDbLine
 10
217.0573622881
 20
121.1457097458
 30
0.0
 11
217.0573622881
 21
129.3457097458
 31
0.0
  0
LINE
  5
258
330
206
100
AcDbEntity
  8
0
  6
Continuous
 62
     7
100
AcDbLine
 10
220.5573622881
 20
127.4457097458
 30
0.0
 11
220.5573622881
 21
126.6457097458
 31
0.0
  0
LINE
  5
259
330
206
100
AcDbEntity
  8
0
  6
Continuous
 62
     7
100
AcDbLine
 10
220.5573622881
 20
125.6457097458
 30
0.0
 11
220.5573622881
 21
124.8457097458
 31
0.0
  0
LINE
  5
25A
330
206
100
AcDbEntity
  8
0
  6
Continuous
 62
     7
100
AcDbLine
 10
220.5573622881
 20
123.8457097458
 30
0.0
 11
220.5573622881
 21
123.0457097458
 31
0.0
  0
LINE
  5
25B
330
206
100
AcDbEntity
  8
0
  6
Continuous
 62
     7
100
AcDbLine
 10
220.5573622881
 20
122.0457097458
 30
0.0
 11
220.5573622881
 21
121.6457478266
 31
0.0
  0
LINE
  5
25C
330
206
100
AcDbEntity
  8
0
  6
Continuous
 62
     7
100
AcDbLine
 10
220.5573622881
 20
128.4457097458
 30
0.0
 11
220.5573622881
 21
128.8456721119
 31
0.0
  0
ARC
  5
25D
330
206
100
AcDbEntity
  8
RUNDUNGEN
  6
Continuous
 62
     9
100
AcDbCircle
 10
161.556644692
 20
126.7231543435
 30
0.0
 40
2.8259903825
100
AcDbArc
 50
89.95371226440001
 51
96.6591516044
  0
ARC
  5
25E
330
206
100
AcDbEntity
  8
RUNDUNGEN
  6
Continuous
 62
     9
100
AcDbCircle
 10
138.5581151211
 20
126.7239747178
 30
0.0
 40
2.825170621399999
100
AcDbArc
 50
83.33962632009999
 51
90.04708661870001
  0
ARC
  5
25F
330
206
100
AcDbEntity
  8
RUNDUNGEN
  6
Continuous
 62
     9
100
AcDbCircle
 10
138.5581182517
 20
123.7673907956
 30
0.0
 40
2.8251166463
100
AcDbArc
 50
269.9528490215
 51
276.6604375813
  0
ARC
  5
260
330
206
100
AcDbEntity
  8
RUNDUNGEN
  6
Continuous
 62
     9
100
AcDbCircle
 10
161.5565068102
 20
123.7658785137
 30
0.0
 40
2.8236038642
100
AcDbArc
 50
263.3380114345
 51
270.0491247308
  0
ARC
  5
261
330
206
100
AcDbEntity
  8
RUNDUNGEN
  6
Continuous
 62
     9
100
AcDbCircle
 10
138.3575383649
 20
126.434739996
 30
0.0
 40
2.531915710999999
100
AcDbArc
 50
78.5424198252
 51
80.03789466489999
  0
ARC
  5
262
330
206
100
AcDbEntity
  8
RUNDUNGEN
  6
Continuous
 62
     9
100
AcDbCircle
 10
161.7570158312
 20
124.0558696083
 30
0.0
 40
2.531109701699999
100
AcDbArc
 50
258.5423251498
 51
260.0384536553
  0
ARC
  5
263
330
206
100
AcDbEntity
  8
RUNDUNGEN
  6
Continuous
 62
     9
100
AcDbCircle
 10
138.3693576638
 20
123.9953678262
 30
0.0
 40
2.469484003799999
100
AcDbArc
 50
279.9381064104
 51
281.3749257811
  0
ARC
  5
264
330
206
100
AcDbEntity
  8
RUNDUNGEN
  6
Continuous
 62
     9
100
AcDbCircle
 10
161.7452060767
 20
126.4968125785
 30
0.0
 40
2.468727880999999
100
AcDbArc
 50
99.93754748629999
 51
101.3749783185
  0
ARC
  5
265
330
206
100
AcDbEntity
  8
RUNDUNGEN
  6
Continuous
 62
     9
100
AcDbCircle
 10
161.6209042426
 20
127.8806980338
 30
0.0
 40
1.695316621899999
100
AcDbArc
 50
103.3681889649
 51
105.445519699
  0
ARC
  5
266
330
206
100
AcDbEntity
  8
RUNDUNGEN
  6
Continuous
 62
     9
100
AcDbCircle
 10
138.4938216924
 20
122.610657055
 30
0.0
 40
1.6952528362
100
AcDbArc
 50
283.3686571946
 51
285.4458141672
  0
ARC
  5
267
330
206
100
AcDbEntity
  8
0
  6
Continuous
 62
     7
100
AcDbCircle
 10
218.0573622881
 20
129.3457097458
 30
0.0
 40
1.0
100
AcDbArc
 50
90.0
 51
180.0
  0
ARC
  5
268
330
206
100
AcDbEntity
  8
0
  6
Continuous
 62
     7
100
AcDbCircle
 10
82.05736228810001
 20
121.1457097458
 30
0.0
 40
1.0
100
AcDbArc
 50
270.0
 51
360.0
  0
ARC
  5
269
330
206
100
AcDbEntity
  8
0
  6
Continuous
 62
     7
100
AcDbCircle
 10
218.0573622881
 20
121.1457097458
 30
0.0
 40
1.0
100
AcDbArc
 50
180.0
 51
270.0
  0
ARC
  5
26A
330
206
100
AcDbEntity
  8
0
  6
Continuous
 62
     7
100
AcDbCircle
 10
82.05736228810001
 20
129.3457097458
 30
0.0
 40
1.0
100
AcDbArc
 50
0.0
 51
90.0
  0
ARC
  5
26B
330
206
100
AcDbEntity
  8
RUNDUNGEN
  6
Continuous
 62
     9
100
AcDbCircle
 10
138.7161353702
 20
129.3914423879
 30
0.0
 40
0.9542673956000001
100
AcDbArc
 50
82.3098031263
 51
89.9838986846
  0
ARC
  5
26C
330
206
100
AcDbEntity
  8
0
  6
Continuous
 62
     7
100
AcDbCircle
 10
220.5573622881
 20
127.9457097458
 30
0.0
 40
0.5
100
AcDbArc
 50
270.0
 51
90.0
  0
ARC
  5
26D
330
206
100
AcDbEntity
  8
0
  6
Continuous
 62
     7
100
AcDbCircle
 10
220.5573622881
 20
126.1457097458
 30
0.0
 40
0.5
100
AcDbArc
 50
270.0
 51
90.0
  0
ARC
  5
26E
330
206
100
AcDbEntity
  8
0
  6
Continuous
 62
     7
100
AcDbCircle
 10
220.5573622881
 20
124.3457097458
 30
0.0
 40
0.5
100
AcDbArc
 50
270.0
 51
90.0
  0
ARC
  5
26F
330
206
100
AcDbEntity
  8
0
  6
Continuous
 62
     7
100
AcDbCircle
 10
220.5573622881
 20
122.5457097458
 30
0.0
 40
0.5
100
AcDbArc
 50
270.0
 51
90.0
  0
ARC
  5
270
330
206
100
AcDbEntity
  8
0
  6
Continuous
 62
     7
100
AcDbCircle
 10
79.55736228810001
 20
122.5457097458
 30
0.0
 40
0.5
100
AcDbArc
 50
90.0
 51
270.0
  0
ARC
  5
271
330
206
100
AcDbEntity
  8
0
  6
Continuous
 62
     7
100
AcDbCircle
 10
79.55736228810001
 20
127.9457097458
 30
0.0
 40
0.5
100
AcDbArc
 50
90.0
 51
270.0
  0
ARC
  5
272
330
206
100
AcDbEntity
  8
0
  6
Continuous
 62
     7
100
AcDbCircle
 10
79.55736228810001
 20
126.1457097458
 30
0.0
 40
0.5
100
AcDbArc
 50
90.0
 51
270.0
  0
ARC
  5
273
330
206
100
AcDbEntity
  8
0
  6
Continuous
 62
     7
100
AcDbCircle
 10
79.55736228810001
 20
124.3457097458
 30
0.0
 40
0.5
100
AcDbArc
 50
90.0
 51
270.0
  0
SPLINE
  5
274
330
206
100
AcDbEntity
  8
RUNDUNGEN
  6
Continuous
 62
     9
100
AcDbSpline
210
0.0
220
0.0
230
1.0
 70
     8
 71
     3
 72
    11
 73
     7
 74
     0
 42
0.0000000001
 43
0.0000000001
 40
0.0
 40
0.0
 40
0.0
 40
0.0
 40
0.2472417094
 40
0.4960824497
 40
0.7472176438
 40
1.0
 40
1.0
 40
1.0
 40
1.0
 10
138.9317198405
 20
130.3457097458
 30
0.0
 10
139.0588251238
 20
130.3457097458
 30
0.0
 10
139.3167379187
 20
130.2932190538
 30
0.0
 10
139.641250408
 20
130.0697659407
 30
0.0
 10
139.8576187812
 20
129.7374667184
 30
0.0
 10
139.908015848
 20
129.4756634379
 30
0.0
 10
139.908015848
 20
129.3457097458
 30
0.0
  0
LINE
  5
275
330
206
100
AcDbEntity
  8
RUNDUNGEN
  6
Continuous
 62
     9
100
AcDbLine
 10
214.6620032294
 20
121.1457097458
 30
0.0
 11
214.4999770916
 21
122.0155756051
 31
0.0
  0
LINE
  5
276
330
206
100
AcDbEntity
  8
RUNDUNGEN
  6
Continuous
 62
     9
100
AcDbLine
 10
214.4999771209
 20
128.4758439077
 30
0.0
 11
214.6620032283
 21
129.3457097458
 31
0.0
  0
SPLINE
  5
277
330
206
100
AcDbEntity
  8
RUNDUNGEN
  6
Continuous
 62
     9
100
AcDbSpline
210
0.0
220
0.0
230
1.0
 70
     8
 71
     3
 72
    16
 73
    12
 74
     0
 42
0.0000000001
 43
0.0000000001
 40
0.0
 40
0.0
 40
0.0
 40
0.0
 40
0.0439252466
 40
0.0737769991
 40
0.1103781717
 40
0.2047857781
 40
0.3265852917
 40
0.4723533633
 40
0.6371372056000001
 40
0.8152609901000001
 40
1.0
 40
1.0
 40
1.0
 40
1.0
 10
84.26505263320001
 20
130.3457097458
 30
0.0
 10
84.2805133168
 20
130.3457097458
 30
0.0
 10
84.30562034220001
 20
130.331206847
 30
0.0
 10
84.32990754829999
 20
130.301269464
 30
0.0
 10
84.35886423560001
 20
130.2522156021
 30
0.0
 10
84.39022667039999
 20
130.1685392056
 30
0.0
 10
84.4216860614
 20
130.0449517353
 30
0.0
 10
84.4475307203
 20
129.8948510031
 30
0.0
 10
84.46689110359999
 20
129.7238700742
 30
0.0
 10
84.47881024350001
 20
129.5384695412
 30
0.0
 10
84.48149224720001
 20
129.4107336581
 30
0.0
 10
84.48149224720001
 20
129.3457097458
 30
0.0
  0
LINE
  5
278
330
206
100
AcDbEntity
  8
RUNDUNGEN
  6
Continuous
 62
     9
100
AcDbLine
 10
85.61477988989999
 20
122.0157496977
 30
0.0
 11
85.4527213469
 21
121.1457097458
 31
0.0
  0
LINE
  5
279
330
206
100
AcDbEntity
  8
RUNDUNGEN
  6
Continuous
 62
     9
100
AcDbLine
 10
85.45272134799999
 20
129.3457097458
 30
0.0
 11
85.6147480511
 21
128.475840847
 31
0.0
  0
SPLINE
  5
27A
330
206
100
AcDbEntity
  8
RUNDUNGEN
  6
Continuous
 62
     9
100
AcDbSpline
210
0.0
220
0.0
230
1.0
 70
     8
 71
     3
 72
    12
 73
     8
 74
     0
 42
0.0000000001
 43
0.0000000001
 40
0.0
 40
0.0
 40
0.0
 40
0.0
 40
0.0682311683
 40
0.1609426228
 40
0.4012221082
 40
0.6884224523000001
 40
1.0
 40
1.0
 40
1.0
 40
1.0
 10
86.5959186092
 20
128.9170482257
 30
0.0
 10
86.57573843799999
 20
128.903166613
 30
0.0
 10
86.5257405772
 20
128.8740104471
 30
0.0
 10
86.39806111469999
 20
128.8073933176
 30
0.0
 10
86.19578699939999
 20
128.7140540718
 30
0.0
 10
85.91849804929999
 20
128.5964585176
 30
0.0
 10
85.71912584729998
 20
128.5160371105
 30
0.0
 10
85.6147480511
 20
128.475840847
 30
0.0
  0
SPLINE
  5
27B
330
206
100
AcDbEntity
  8
RUNDUNGEN
  6
Continuous
 62
     9
100
AcDbSpline
210
0.0
220
0.0
230
1.0
 70
     8
 71
     3
 72
     9
 73
     5
 74
     0
 42
0.0000000001
 43
0.0000000001
 40
0.0
 40
0.0
 40
0.0
 40
0.0
 40
0.2294570978
 40
1.0
 40
1.0
 40
1.0
 40
1.0
 10
86.611437926
 20
128.9285007644
 30
0.0
 10
86.61029025370002
 20
128.9275735567
 30
0.0
 10
86.60522361389999
 20
128.9236135155999
 30
0.0
 10
86.60000291780001
 20
128.9198530026
 30
0.0
 10
86.5959186092
 20
128.9170482257
 30
0.0
  0
SPLINE
  5
27C
330
206
100
AcDbEntity
  8
RUNDUNGEN
  6
Continuous
 62
     9
100
AcDbSpline
210
0.0
220
0.0
230
1.0
 70
     8
 71
     3
 72
     9
 73
     5
 74
     0
 42
0.0000000001
 43
0.0000000001
 40
0.0
 40
0.0
 40
0.0
 40
0.0
 40
0.5382463234000001
 40
1.0
 40
1.0
 40
1.0
 40
1.0
 10
86.6586743661
 20
128.9331540752
 30
0.0
 10
86.65030448809998
 20
128.9359091841
 30
0.0
 10
86.6337204513
 20
128.9394435704
 30
0.0
 10
86.61732108329999
 20
128.9332476587
 30
0.0
 10
86.611437926
 20
128.9285007644
 30
0.0
  0
SPLINE
  5
27D
330
206
100
AcDbEntity
  8
RUNDUNGEN
  6
Continuous
 62
     9
100
AcDbSpline
210
0.0
220
0.0
230
1.0
 70
     8
 71
     3
 72
     9
 73
     5
 74
     0
 42
0.0000000001
 43
0.0000000001
 40
0.0
 40
0.0
 40
0.0
 40
0.0
 40
0.4617457074000001
 40
1.0
 40
1.0
 40
1.0
 40
1.0
 10
86.61143793069999
 20
121.5629187293
 30
0.0
 10
86.6173218477
 20
121.558173245
 30
0.0
 10
86.6337186242
 20
121.5519739898
 30
0.0
 10
86.65030322860001
 20
121.5555095589
 30
0.0
 10
86.6586729225
 20
121.5582650346
 30
0.0
  0
SPLINE
  5
27E
330
206
100
AcDbEntity
  8
RUNDUNGEN
  6
Continuous
 62
     9
100
AcDbSpline
210
0.0
220
0.0
230
1.0
 70
     8
 71
     3
 72
     9
 73
     5
 74
     0
 42
0.0000000001
 43
0.0000000001
 40
0.0
 40
0.0
 40
0.0
 40
0.0
 40
0.2718573447
 40
1.0
 40
1.0
 40
1.0
 40
1.0
 10
86.5947212378
 20
121.5752005873
 30
0.0
 10
86.59627765919999
 20
121.5741460094
 30
0.0
 10
86.60196630399999
 20
121.5702140737
 30
0.0
 10
86.60752502900001
 20
121.5660882205
 30
0.0
 10
86.61143793069999
 20
121.5629187293
 30
0.0
  0
SPLINE
  5
27F
330
206
100
AcDbEntity
  8
RUNDUNGEN
  6
Continuous
 62
     9
100
AcDbSpline
210
0.0
220
0.0
230
1.0
 70
     8
 71
     3
 72
    12
 73
     8
 74
     0
 42
0.0000000001
 43
0.0000000001
 40
0.0
 40
0.0
 40
0.0
 40
0.0
 40
0.311059584
 40
0.5979242832000001
 40
0.8382730733
 40
0.9312697471999999
 40
1.0
 40
1.0
 40
1.0
 40
1.0
 10
85.6144349769
 20
122.0157212714
 30
0.0
 10
85.71853305279999
 20
121.975636465
 30
0.0
 10
85.91740878450002
 20
121.8953961202
 30
0.0
 10
86.1941717576
 20
121.7780744621
 30
0.0
 10
86.3962618631
 20
121.6848755039
 30
0.0
 10
86.5241340889
 20
121.6182853499
 30
0.0
 10
86.57437012129999
 20
121.5891047029
 30
0.0
 10
86.5947212378
 20
121.5752005873
 30
0.0
  0
SPLINE
  5
280
330
206
100
AcDbEntity
  8
RUNDUNGEN
  6
Continuous
 62
     9
100
AcDbSpline
210
0.0
220
0.0
230
1.0
 70
     8
 71
     3
 72
    15
 73
    11
 74
     0
 42
0.0000000001
 43
0.0000000001
 40
0.0
 40
0.0
 40
0.0
 40
0.0
 40
0.1239166044
 40
0.2485765794
 40
0.3740291694
 40
0.4999988342
 40
0.6259685426
 40
0.7514211101999999
 40
0.8760801364
 40
1.0
 40
1.0
 40
1.0
 40
1.0
 10
85.61477988989999
 20
122.0157496977
 30
0.0
 10
85.93631447139999
 20
122.1427064529
 30
0.0
 10
86.5502156133
 20
122.4869476394
 30
0.0
 10
87.29123780669999
 20
123.2416161782
 30
0.0
 10
87.7808515152
 20
124.188574091
 30
0.0
 10
87.95288269930001
 20
125.245756426
 30
0.0
 10
87.7808199086
 20
126.3029259966
 30
0.0
 10
87.291199047
 20
127.2498927195
 30
0.0
 10
86.5500938483
 20
128.0044610501
 30
0.0
 10
85.936283031
 20
128.3488603454
 30
0.0
 10
85.6147480511
 20
128.475840847
 30
0.0
  0
SPLINE
  5
281
330
206
100
AcDbEntity
  8
RUNDUNGEN
  6
Continuous
 62
     9
100
AcDbSpline
210
0.0
220
0.0
230
1.0
 70
     8
 71
     3
 72
     9
 73
     5
 74
     0
 42
0.0000000001
 43
0.0000000001
 40
0.0
 40
0.0
 40
0.0
 40
0.0
 40
0.4618221573
 40
1.0
 40
1.0
 40
1.0
 40
1.0
 10
213.5032571751
 20
128.9284804598
 30
0.0
 10
213.4973725697
 20
128.9332254326
 30
0.0
 10
213.4809803718
 20
128.9394263559
 30
0.0
 10
213.4643965369
 20
128.9358970151
 30
0.0
 10
213.4560288685
 20
128.9331432529
 30
0.0
  0
SPLINE
  5
282
330
206
100
AcDbEntity
  8
RUNDUNGEN
  6
Continuous
 62
     9
100
AcDbSpline
210
0.0
220
0.0
230
1.0
 70
     8
 71
     3
 72
     9
 73
     5
 74
     0
 42
0.0000000001
 43
0.0000000001
 40
0.0
 40
0.0
 40
0.0
 40
0.0
 40
0.2718562411
 40
1.0
 40
1.0
 40
1.0
 40
1.0
 10
213.5199722476
 20
128.9161997951
 30
0.0
 10
213.5184159636
 20
128.9172542375
 30
0.0
 10
213.5127277977
 20
128.9211856888
 30
0.0
 10
213.5071696495
 20
128.9253112037
 30
0.0
 10
213.5032571751
 20
128.9284804598
 30
0.0
  0
SPLINE
  5
283
330
206
100
AcDbEntity
  8
RUNDUNGEN
  6
Continuous
 62
     9
100
AcDbSpline
210
0.0
220
0.0
230
1.0
 70
     8
 71
     3
 72
    12
 73
     8
 74
     0
 42
0.0000000001
 43
0.0000000001
 40
0.0
 40
0.0
 40
0.0
 40
0.0
 40
0.3110652956
 40
0.5979261722000001
 40
0.8382686902999999
 40
0.9312660678
 40
1.0
 40
1.0
 40
1.0
 40
1.0
 10
214.4999770927
 20
128.4758438932
 30
0.0
 10
214.3959103741
 20
128.5159218501
 30
0.0
 10
214.1970878284
 20
128.5961220825
 30
0.0
 10
213.9204143102
 20
128.7134176742
 30
0.0
 10
213.7183825263
 20
128.8065736355
 30
0.0
 10
213.5905438387
 20
128.8731319191
 30
0.0
 10
213.5403185331
 20
128.9022994978
 30
0.0
 10
213.5199722476
 20
128.9161997951
 30
0.0
  0
SPLINE
  5
284
330
206
100
AcDbEntity
  8
RUNDUNGEN
  6
Continuous
 62
     9
100
AcDbSpline
210
0.0
220
0.0
230
1.0
 70
     8
 71
     3
 72
    15
 73
    11
 74
     0
 42
0.0000000001
 43
0.0000000001
 40
0.0
 40
0.0
 40
0.0
 40
0.0
 40
0.1239198717
 40
0.2485788008
 40
0.3740314055
 40
0.5000011458
 40
0.6259708331000001
 40
0.7514234437999999
 40
0.8760826169999999
 40
1.0
 40
1.0
 40
1.0
 40
1.0
 10
214.4999771209
 20
128.4758439077
 30
0.0
 10
214.1784337378
 20
128.3488699845
 30
0.0
 10
213.5646225897
 20
128.0044465278
 30
0.0
 10
212.8234987425
 20
127.2498772864
 30
0.0
 10
212.3338764504
 20
126.3028906212
 30
0.0
 10
212.1618219915
 20
125.2457000852
 30
0.0
 10
212.3338830241
 20
124.1885109403
 30
0.0
 10
212.8235093844
 20
123.241525513
 30
0.0
 10
213.5646350428
 20
122.4869668655
 30
0.0
 10
214.1784401603
 20
122.1425469638
 30
0.0
 10
214.4999770916
 20
122.0155756051
 30
0.0
  0
SPLINE
  5
285
330
206
100
AcDbEntity
  8
RUNDUNGEN
  6
Continuous
 62
     9
100
AcDbSpline
210
0.0
220
0.0
230
1.0
 70
     8
 71
     3
 72
    12
 73
     8
 74
     0
 42
0.0000000001
 43
0.0000000001
 40
0.0
 40
0.0
 40
0.0
 40
0.0
 40
0.0682333286
 40
0.1609471665
 40
0.4012260999000001
 40
0.688423392
 40
1.0
 40
1.0
 40
1.0
 40
1.0
 10
213.5187749831
 20
121.5743904617
 30
0.0
 10
213.5389563347
 20
121.588272442
 30
0.0
 10
213.5889599732
 20
121.617424279
 30
0.0
 10
213.7166498313
 20
121.6840293399
 30
0.0
 10
213.9189336839
 20
121.7773549276
 30
0.0
 10
214.1962266126
 20
121.8949493471
 30
0.0
 10
214.3955992966
 20
121.9753751279
 30
0.0
 10
214.4999770916
 20
122.0155756051
 30
0.0
  0
SPLINE
  5
286
330
206
100
AcDbEntity
  8
RUNDUNGEN
  6
Continuous
 62
     9
100
AcDbSpline
210
0.0
220
0.0
230
1.0
 70
     8
 71
     3
 72
     9
 73
     5
 74
     0
 42
0.0000000001
 43
0.0000000001
 40
0.0
 40
0.0
 40
0.0
 40
0.0
 40
0.2294585041
 40
1.0
 40
1.0
 40
1.0
 40
1.0
 10
213.5032571892
 20
121.5629390194
 30
0.0
 10
213.5044047397
 20
121.5638661642
 30
0.0
 10
213.5094708196
 20
121.5678259076
 30
0.0
 10
213.5146910337
 20
121.5715860281
 30
0.0
 10
213.5187749831
 20
121.5743904617
 30
0.0
  0
SPLINE
  5
287
330
206
100
AcDbEntity
  8
RUNDUNGEN
  6
Continuous
 62
     9
100
AcDbSpline
210
0.0
220
0.0
230
1.0
 70
     8
 71
     3
 72
     9
 73
     5
 74
     0
 42
0.0000000001
 43
0.0000000001
 40
0.0
 40
0.0
 40
0.0
 40
0.0
 40
0.5381791809000001
 40
1.0
 40
1.0
 40
1.0
 40
1.0
 10
213.456028778
 20
121.5582762569
 30
0.0
 10
213.4643964832
 20
121.5555224549
 30
0.0
 10
213.4809803458
 20
121.5519930313
 30
0.0
 10
213.4973726381
 20
121.5581939795
 30
0.0
 10
213.5032571892
 20
121.5629390194
 30
0.0
  0
SPLINE
  5
288
330
206
100
AcDbEntity
  8
RUNDUNGEN
  6
Continuous
 62
     9
100
AcDbSpline
210
0.0
220
0.0
230
1.0
 70
     8
 71
     3
 72
    10
 73
     6
 74
     0
 42
0.0000000001
 43
0.0000000001
 40
0.0
 40
0.0
 40
0.0
 40
0.0
 40
0.3366757948
 40
0.6143211722000001
 40
1.0
 40
1.0
 40
1.0
 40
1.0
 10
161.2583007861
 20
128.9170482257
 30
0.0
 10
161.1555487399
 20
128.8963567711
 30
0.0
 10
160.9697459916
 20
128.8454497846
 30
0.0
 10
160.6868134082
 20
128.7178041449
 30
0.0
 10
160.5180414372
 20
128.5797898013
 30
0.0
 10
160.4579454918
 20
128.475840847
 30
0.0
  0
SPLINE
  5
289
330
206
100
AcDbEntity
  8
RUNDUNGEN
  6
Continuous
 62
     9
100
AcDbSpline
210
0.0
220
0.0
230
1.0
 70
     8
 71
     3
 72
     9
 73
     5
 74
     0
 42
0.0000000001
 43
0.0000000001
 40
0.0
 40
0.0
 40
0.0
 40
0.0
 40
0.2470584603
 40
1.0
 40
1.0
 40
1.0
 40
1.0
 10
161.4868975734
 20
128.9331540752
 30
0.0
 10
161.4731416155
 20
128.9347183173
 30
0.0
 10
161.4172752327
 20
128.9392211992
 30
0.0
 10
161.3607260321
 20
128.9357843527
 30
0.0
 10
161.3191662704
 20
128.9285007644
 30
0.0
  0
SPLINE
  5
28A
330
206
100
AcDbEntity
  8
RUNDUNGEN
  6
Continuous
 62
     9
100
AcDbSpline
210
0.0
220
0.0
230
1.0
 70
     8
 71
     3
 72
     9
 73
     5
 74
     0
 42
0.0000000001
 43
0.0000000001
 40
0.0
 40
0.0
 40
0.0
 40
0.0
 40
0.2533570776
 40
1.0
 40
1.0
 40
1.0
 40
1.0
 10
161.3191662715
 20
121.5629187293
 30
0.0
 10
161.3331517251
 20
121.5604682129
 30
0.0
 10
161.3887029761
 20
121.5528583746
 30
0.0
 10
161.4453176967
 20
121.553536124
 30
0.0
 10
161.4868926317
 20
121.5582650346
 30
0.0
  0
SPLINE
  5
28B
330
206
100
AcDbEntity
  8
RUNDUNGEN
  6
Continuous
 62
     9
100
AcDbSpline
210
0.0
220
0.0
230
1.0
 70
     8
 71
     3
 72
    10
 73
     6
 74
     0
 42
0.0000000001
 43
0.0000000001
 40
0.0
 40
0.0
 40
0.0
 40
0.0
 40
0.3858726759
 40
0.6634103726000001
 40
1.0
 40
1.0
 40
1.0
 40
1.0
 10
160.4578761165
 20
122.0157212714
 30
0.0
 10
160.5177333523
 20
121.9121542377
 30
0.0
 10
160.6855467924
 20
121.7744817268
 30
0.0
 10
160.9671100561
 20
121.6469558635
 30
0.0
 10
161.1519764644
 20
121.5959946364
 30
0.0
 10
161.2542260838
 20
121.5752005873
 30
0.0
  0
SPLINE
  5
28C
330
206
100
AcDbEntity
  8
RUNDUNGEN
  6
Continuous
 62
     9
100
AcDbSpline
210
0.0
220
0.0
230
1.0
 70
     8
 71
     3
 72
    19
 73
    15
 74
     0
 42
0.0000000001
 43
0.0000000001
 40
0.0
 40
0.0
 40
0.0
 40
0.0
 40
0.0373447468
 40
0.083211558
 40
0.1373425348
 40
0.1991704018
 40
0.3418795364
 40
0.4999946256000001
 40
0.6581091218
 40
0.8008164479999999
 40
0.8626433651999999
 40
0.9167704177
 40
0.962643723
 40
1.0
 40
1.0
 40
1.0
 40
1.0
 10
160.4579525503
 20
122.0157496977
 30
0.0
 10
160.4980929421
 20
122.0872412118
 30
0.0
 10
160.573152065
 20
122.2545440499
 30
0.0
 10
160.6672799731
 20
122.5412998646
 30
0.0
 10
160.7521957462
 20
122.8865916753
 30
0.0
 10
160.8551102611
 20
123.4453277681
 30
0.0
 10
160.9407673058
 20
124.2380000067
 30
0.0
 10
160.9755505083
 20
125.2457528581
 30
0.0
 10
160.9407626254
 20
126.2535018772
 30
0.0
 10
160.8550972039
 20
127.0461655127
 30
0.0
 10
160.7521871063999
 20
127.60488754
 30
0.0
 10
160.6672537259
 20
127.9501794673
 30
0.0
 10
160.5731210534
 20
128.2369631949
 30
0.0
 10
160.4980926053
 20
128.4043240757
 30
0.0
 10
160.4579454918
 20
128.475840847
 30
0.0
  0
SPLINE
  5
28D
330
206
100
AcDbEntity
  8
RUNDUNGEN
  6
Continuous
 62
     9
100
AcDbSpline
210
0.0
220
0.0
230
1.0
 70
     8
 71
     3
 72
     9
 73
     5
 74
     0
 42
0.0000000001
 43
0.0000000001
 40
0.0
 40
0.0
 40
0.0
 40
0.0
 40
0.2533476314
 40
1.0
 40
1.0
 40
1.0
 40
1.0
 10
138.7955516833
 20
128.9284804598
 30
0.0
 10
138.7815655967
 20
128.9309308696
 30
0.0
 10
138.7260100616
 20
128.9385416133
 30
0.0
 10
138.6693909767
 20
128.9378697865
 30
0.0
 10
138.6278118735
 20
128.9331432529
 30
0.0
  0
SPLINE
  5
28E
330
206
100
AcDbEntity
  8
RUNDUNGEN
  6
Continuous
 62
     9
100
AcDbSpline
210
0.0
220
0.0
230
1.0
 70
     8
 71
     3
 72
    10
 73
     6
 74
     0
 42
0.0000000001
 43
0.0000000001
 40
0.0
 40
0.0
 40
0.0
 40
0.0
 40
0.3859046509
 40
0.6634365568
 40
1.0
 40
1.0
 40
1.0
 40
1.0
 10
139.6567792103
 20
128.4758438932
 30
0.0
 10
139.5969138230999
 20
128.579396032
 30
0.0
 10
139.4290669454
 20
128.7169948175
 30
0.0
 10
139.1475417093
 20
128.8444732845
 30
0.0
 10
138.9627098195999
 20
128.8954108143
 30
0.0
 10
138.8604841208
 20
128.9161997951
 30
0.0
  0
SPLINE
  5
28F
330
206
100
AcDbEntity
  8
RUNDUNGEN
  6
Continuous
 62
     9
100
AcDbSpline
210
0.0
220
0.0
230
1.0
 70
     8
 71
     3
 72
    19
 73
    15
 74
     0
 42
0.0000000001
 43
0.0000000001
 40
0.0
 40
0.0
 40
0.0
 40
0.0
 40
0.0373560003
 40
0.083229298
 40
0.1373553767
 40
0.1991818383
 40
0.341888159
 40
0.5000014526
 40
0.6581145366
 40
0.8008205229999999
 40
0.8626466143000001
 40
0.9167726059999999
 40
0.9626449376
 40
1.0
 40
1.0
 40
1.0
 40
1.0
 10
139.6567792165
 20
128.4758439077
 30
0.0
 10
139.6166290045
 20
128.404327191
 30
0.0
 10
139.5416029325
 20
128.2369603539
 30
0.0
 10
139.4474690701
 20
127.9501723703
 30
0.0
 10
139.3625322782
 20
127.6048751112
 30
0.0
 10
139.2596220363
 20
127.0461439277
 30
0.0
 10
139.1739553651
 20
126.2534660014
 30
0.0
 10
139.1391704055
 20
125.2457006226
 30
0.0
 10
139.173956726
 20
124.2379360314
 30
0.0
 10
139.2596240069
 20
123.4452602007
 30
0.0
 10
139.3625351257
 20
122.8865308952
 30
0.0
 10
139.4474727509
 20
122.5412371252
 30
0.0
 10
139.5416044128
 20
122.2544529669
 30
0.0
 10
139.616630002
 20
122.0870905238
 30
0.0
 10
139.65677921
 20
122.0155756051
 30
0.0
  0
SPLINE
  5
290
330
206
100
AcDbEntity
  8
RUNDUNGEN
  6
Continuous
 62
     9
100
AcDbSpline
210
0.0
220
0.0
230
1.0
 70
     8
 71
     3
 72
    10
 73
     6
 74
     0
 42
0.0000000001
 43
0.0000000001
 40
0.0
 40
0.0
 40
0.0
 40
0.0
 40
0.3366723812
 40
0.6143129224
 40
1.0
 40
1.0
 40
1.0
 40
1.0
 10
138.856409864
 20
121.5743904617
 30
0.0
 10
138.9591613671
 20
121.5950816909
 30
0.0
 10
139.144964085
 20
121.6459802793
 30
0.0
 10
139.4279064079
 20
121.7736062249
 30
0.0
 10
139.596686676
 20
121.9116210693
 30
0.0
 10
139.65677921
 20
122.0155756051
 30
0.0
  0
SPLINE
  5
291
330
206
100
AcDbEntity
  8
RUNDUNGEN
  6
Continuous
 62
     9
100
AcDbSpline
210
0.0
220
0.0
230
1.0
 70
     8
 71
     3
 72
     9
 73
     5
 74
     0
 42
0.0000000001
 43
0.0000000001
 40
0.0
 40
0.0
 40
0.0
 40
0.0
 40
0.2470598569
 40
1.0
 40
1.0
 40
1.0
 40
1.0
 10
138.6278115309
 20
121.5582762569
 30
0.0
 10
138.6415683636
 20
121.556712415
 30
0.0
 10
138.6974383034
 20
121.5522137363
 30
0.0
 10
138.753989407
 20
121.5556570859
 30
0.0
 10
138.7955516862
 20
121.5629390194
 30
0.0
  0
SPLINE
  5
292
330
206
100
AcDbEntity
  8
RUNDUNGEN
  6
Continuous
 62
     9
100
AcDbSpline
210
0.0
220
0.0
230
1.0
 70
     8
 71
     3
 72
    12
 73
     8
 74
     0
 42
0.0000000001
 43
0.0000000001
 40
0.0
 40
0.0
 40
0.0
 40
0.0
 40
0.0794560118
 40
0.1796128509
 40
0.4236543514
 40
0.7031861694
 40
1.0
 40
1.0
 40
1.0
 40
1.0
 10
213.9197911561
 20
120.9766320813
 30
0.0
 10
213.9296757906
 20
121.0065903981
 30
0.0
 10
213.9575616344
 20
121.0724140848
 30
0.0
 10
214.0330200592
 20
121.2227455653
 30
0.0
 10
214.1561771078
 20
121.4377534773
 30
0.0
 10
214.3225165761
 20
121.7177498816
 30
0.0
 10
214.4405266927
 20
121.9138245491
 30
0.0
 10
214.4999770915
 20
122.0155756051
 30
0.0
  0
SPLINE
  5
293
330
206
100
AcDbEntity
  8
RUNDUNGEN
  6
Continuous
 62
     9
100
AcDbSpline
210
0.0
220
0.0
230
1.0
 70
     8
 71
     3
 72
     9
 73
     5
 74
     0
 42
0.0000000001
 43
0.0000000001
 40
0.0
 40
0.0
 40
0.0
 40
0.0
 40
0.2616616054
 40
1.0
 40
1.0
 40
1.0
 40
1.0
 10
86.20443269170001
 20
120.9613400938
 30
0.0
 10
86.2084749551
 20
120.9582077097
 30
0.0
 10
86.224768964
 20
120.9473410877
 30
0.0
 10
86.2447880238
 20
120.942299429
 30
0.0
 10
86.25921798
 20
120.9422756874
 30
0.0
  0
SPLINE
  5
294
330
206
100
AcDbEntity
  8
RUNDUNGEN
  6
Continuous
 62
     9
100
AcDbSpline
210
0.0
220
0.0
230
1.0
 70
     8
 71
     3
 72
    12
 73
     8
 74
     0
 42
0.0000000001
 43
0.0000000001
 40
0.0
 40
0.0
 40
0.0
 40
0.0
 40
0.2963882635
 40
0.5756185276
 40
0.8196404323000001
 40
0.9200411402
 40
1.0
 40
1.0
 40
1.0
 40
1.0
 10
85.61474804959999
 20
122.015578647
 30
0.0
 10
85.6740254466
 20
121.9141242482
 30
0.0
 10
85.79171188470001
 20
121.7185881172
 30
0.0
 10
85.95764410870001
 20
121.4392519519
 30
0.0
 10
86.08066730919999
 20
121.2246367509
 30
0.0
 10
86.15627815679999
 20
121.0743271459
 30
0.0
 10
86.1842154314
 20
121.0083303213
 30
0.0
 10
86.19426708729999
 20
120.9782666978
 30
0.0
  0
SPLINE
  5
295
330
206
100
AcDbEntity
  8
RUNDUNGEN
  6
Continuous
 62
     9
100
AcDbSpline
210
0.0
220
0.0
230
1.0
 70
     8
 71
     3
 72
    15
 73
    11
 74
     0
 42
0.0000000001
 43
0.0000000001
 40
0.0
 40
0.0
 40
0.0
 40
0.0
 40
0.0323790056
 40
0.0589518914
 40
0.0935208017
 40
0.1361243461
 40
0.1865894675
 40
0.309490789
 40
0.626943869
 40
1.0
 40
1.0
 40
1.0
 40
1.0
 10
159.5083839496
 20
130.3457097458
 30
0.0
 10
159.4973074145
 20
130.3457097457
 30
0.0
 10
159.480530635
 20
130.3281536491
 30
0.0
 10
159.4665351134
 20
130.3006369518
 30
0.0
 10
159.4537428723
 20
130.2670419438999
 30
0.0
 10
159.441789435
 20
130.2251615975
 30
0.0
 10
159.4253273824
 20
130.1530469252
 30
0.0
 10
159.3986312214
 20
129.9871913342
 30
0.0
 10
159.3755699113
 20
129.7095553413
 30
0.0
 10
159.3693983359
 20
129.4733285293
 30
0.0
 10
159.3693983359
 20
129.3457097458
 30
0.0
  0
SPLINE
  5
296
330
206
100
AcDbEntity
  8
RUNDUNGEN
  6
Continuous
 62
     9
100
AcDbSpline
210
0.0
220
0.0
230
1.0
 70
     8
 71
     3
 72
    11
 73
     7
 74
     0
 42
0.0000000001
 43
0.0000000001
 40
0.0
 40
0.0
 40
0.0
 40
0.0
 40
0.2488909654
 40
0.4984071591
 40
0.7488562852
 40
1.0
 40
1.0
 40
1.0
 40
1.0
 10
82.71734306029999
 20
120.1457097458
 30
0.0
 10
82.8461986575
 20
120.1457097458
 30
0.0
 10
83.1070947927
 20
120.1979330517
 30
0.0
 10
83.4362565131
 20
120.4208489402
 30
0.0
 10
83.65627120970001
 20
120.7531988506
 30
0.0
 10
83.7076374607
 20
121.0156878572
 30
0.0
 10
83.7076374607
 20
121.1457097458
 30
0.0
  0
SPLINE
  5
297
330
206
100
AcDbEntity
  8
RUNDUNGEN
  6
Continuous
 62
     9
100
AcDbSpline
210
0.0
220
0.0
230
1.0
 70
     8
 71
     3
 72
    16
 73
    12
 74
     0
 42
0.0000000001
 43
0.0000000001
 40
0.0
 40
0.0
 40
0.0
 40
0.0
 40
0.0439252466
 40
0.073776999
 40
0.1103781717
 40
0.204785778
 40
0.3265852918
 40
0.4723533634000001
 40
0.6371372057000001
 40
0.8152609902
 40
1.0
 40
1.0
 40
1.0
 40
1.0
 10
84.26505263320001
 20
120.1457097458
 30
0.0
 10
84.2805133168
 20
120.1457097458
 30
0.0
 10
84.30562034220001
 20
120.1602126445
 30
0.0
 10
84.32990754829999
 20
120.1901500275
 30
0.0
 10
84.35886423560001
 20
120.2392038894
 30
0.0
 10
84.39022667039999
 20
120.3228802859
 30
0.0
 10
84.4216860614
 20
120.4464677562
 30
0.0
 10
84.4475307203
 20
120.5965684885
 30
0.0
 10
84.4668911037
 20
120.7675494174
 30
0.0
 10
84.47881024350001
 20
120.9529499504
 30
0.0
 10
84.48149224699999
 20
121.0806858335
 30
0.0
 10
84.48149224699999
 20
121.1457097458
 30
0.0
  0
SPLINE
  5
298
330
206
100
AcDbEntity
  8
RUNDUNGEN
  6
Continuous
 62
     9
100
AcDbSpline
210
0.0
220
0.0
230
1.0
 70
     8
 71
     3
 72
    11
 73
     7
 74
     0
 42
0.0000000001
 43
0.0000000001
 40
0.0
 40
0.0
 40
0.0
 40
0.0
 40
0.2484997829
 40
0.4977734111000001
 40
0.7483075606999999
 40
1.0
 40
1.0
 40
1.0
 40
1.0
 10
85.2362817038
 20
130.3457097458
 30
0.0
 10
85.34949646189998
 20
130.3457097458
 30
0.0
 10
85.57826830519999
 20
130.3051908097
 30
0.0
 10
85.87863990869999
 20
130.1300919632
 30
0.0
 10
86.1028079137
 20
129.8625735365
 30
0.0
 10
86.1835967805
 20
129.6428394991
 30
0.0
 10
86.2044324932
 20
129.5300790285
 30
0.0
  0
SPLINE
  5
299
330
206
100
AcDbEntity
  8
RUNDUNGEN
  6
Continuous
 62
     9
100
AcDbSpline
210
0.0
220
0.0
230
1.0
 70
     8
 71
     3
 72
    11
 73
     7
 74
     0
 42
0.0000000001
 43
0.0000000001
 40
0.0
 40
0.0
 40
0.0
 40
0.0
 40
0.2488909653
 40
0.4984071591
 40
0.7488562853000001
 40
1.0
 40
1.0
 40
1.0
 40
1.0
 10
217.397381516
 20
120.1457097458
 30
0.0
 10
217.2685259188
 20
120.1457097458
 30
0.0
 10
217.0076297836
 20
120.1979330517
 30
0.0
 10
216.6784680632
 20
120.4208489401
 30
0.0
 10
216.4584533665
 20
120.7531988506
 30
0.0
 10
216.4070871156
 20
121.0156878573
 30
0.0
 10
216.4070871156
 20
121.1457097458
 30
0.0
  0
SPLINE
  5
29A
330
206
100
AcDbEntity
  8
RUNDUNGEN
  6
Continuous
 62
     9
100
AcDbSpline
210
0.0
220
0.0
230
1.0
 70
     8
 71
     3
 72
    16
 73
    12
 74
     0
 42
0.0000000001
 43
0.0000000001
 40
0.0
 40
0.0
 40
0.0
 40
0.0
 40
0.0439252466
 40
0.0737769991
 40
0.1103781717
 40
0.2047857781
 40
0.3265852917
 40
0.4723533633
 40
0.6371372056000001
 40
0.8152609901000001
 40
1.0
 40
1.0
 40
1.0
 40
1.0
 10
215.849671943
 20
120.1457097458
 30
0.0
 10
215.8342112594
 20
120.1457097458
 30
0.0
 10
215.809104234
 20
120.1602126445
 30
0.0
 10
215.7848170279
 20
120.1901500275
 30
0.0
 10
215.7558603406
 20
120.2392038894
 30
0.0
 10
215.7244979058
 20
120.322880286
 30
0.0
 10
215.6930385148
 20
120.4464677562
 30
0.0
 10
215.667193856
 20
120.5965684884
 30
0.0
 10
215.6478334726
 20
120.7675494173
 30
0.0
 10
215.6359143328
 20
120.9529499503
 30
0.0
 10
215.6332323291
 20
121.0806858335
 30
0.0
 10
215.6332323291
 20
121.1457097458
 30
0.0
  0
SPLINE
  5
29B
330
206
100
AcDbEntity
  8
RUNDUNGEN
  6
Continuous
 62
     9
100
AcDbSpline
210
0.0
220
0.0
230
1.0
 70
     8
 71
     3
 72
     9
 73
     5
 74
     0
 42
0.0000000001
 43
0.0000000001
 40
0.0
 40
0.0
 40
0.0
 40
0.0
 40
0.7383338924
 40
1.0
 40
1.0
 40
1.0
 40
1.0
 10
213.8555060898
 20
120.9422751059
 30
0.0
 10
213.869936034
 20
120.9422995704
 30
0.0
 10
213.8899550829
 20
120.9473425649
 30
0.0
 10
213.9062483108
 20
120.9582098551
 30
0.0
 10
213.9102917287
 20
120.9613409371
 30
0.0
  0
SPLINE
  5
29C
330
206
100
AcDbEntity
  8
RUNDUNGEN
  6
Continuous
 62
     9
100
AcDbSpline
210
0.0
220
0.0
230
1.0
 70
     8
 71
     3
 72
    11
 73
     7
 74
     0
 42
0.0000000001
 43
0.0000000001
 40
0.0
 40
0.0
 40
0.0
 40
0.0
 40
0.2383303864
 40
0.4812485043
 40
0.7339544645000001
 40
1.0
 40
1.0
 40
1.0
 40
1.0
 10
160.4579454913
 20
122.015578647
 30
0.0
 10
160.4713737841
 20
121.9127136866
 30
0.0
 10
160.5188177319
 20
121.7069629123
 30
0.0
 10
160.6574493845
 20
121.4159711448
 30
0.0
 10
160.8714592711
 20
121.1581708965
 30
0.0
 10
161.0608967409
 20
121.0280502028
 30
0.0
 10
161.1654507387
 20
120.9782666978
 30
0.0
  0
SPLINE
  5
29D
330
206
100
AcDbEntity
  8
RUNDUNGEN
  6
Continuous
 62
     9
100
AcDbSpline
210
0.0
220
0.0
230
1.0
 70
     8
 71
     3
 72
    11
 73
     7
 74
     0
 42
0.0000000001
 43
0.0000000001
 40
0.0
 40
0.0
 40
0.0
 40
0.0
 40
0.2472417102
 40
0.4960824496000001
 40
0.7472176428
 40
1.0
 40
1.0
 40
1.0
 40
1.0
 10
161.1830047358
 20
120.1457097458
 30
0.0
 10
161.0558994521
 20
120.1457097458
 30
0.0
 10
160.7979866572
 20
120.1982004379
 30
0.0
 10
160.4734741687
 20
120.4216535508
 30
0.0
 10
160.2571057952
 20
120.7539527724
 30
0.0
 10
160.2067087286
 20
121.0157560531
 30
0.0
 10
160.2067087286
 20
121.1457097458
 30
0.0
  0
SPLINE
  5
29E
330
206
100
AcDbEntity
  8
RUNDUNGEN
  6
Continuous
 62
     9
100
AcDbSpline
210
0.0
220
0.0
230
1.0
 70
     8
 71
     3
 72
    15
 73
    11
 74
     0
 42
0.0000000001
 43
0.0000000001
 40
0.0
 40
0.0
 40
0.0
 40
0.0
 40
0.0323790039
 40
0.0589518896
 40
0.0935208003
 40
0.136124345
 40
0.1865894664
 40
0.3094907875
 40
0.6269438668000001
 40
1.0
 40
1.0
 40
1.0
 40
1.0
 10
159.5083839468
 20
120.1457097458
 30
0.0
 10
159.4973074124
 20
120.1457097458
 30
0.0
 10
159.4805306344
 20
120.1632658435
 30
0.0
 10
159.4665351134
 20
120.19078254
 30
0.0
 10
159.4537428723
 20
120.2243775482
 30
0.0
 10
159.4417894349
 20
120.2662578946
 30
0.0
 10
159.4253273822
 20
120.3383725667
 30
0.0
 10
159.3986312214999
 20
120.504228157
 30
0.0
 10
159.3755699124
 20
120.7818641498
 30
0.0
 10
159.3693983342
 20
121.0180909618
 30
0.0
 10
159.3693983342
 20
121.1457097458
 30
0.0
  0
SPLINE
  5
29F
330
206
100
AcDbEntity
  8
RUNDUNGEN
  6
Continuous
 62
     9
100
AcDbSpline
210
0.0
220
0.0
230
1.0
 70
     8
 71
     3
 72
    15
 73
    11
 74
     0
 42
0.0000000001
 43
0.0000000001
 40
0.0
 40
0.0
 40
0.0
 40
0.0
 40
0.032379004
 40
0.0589518898
 40
0.0935208004
 40
0.1361243451
 40
0.1865894665
 40
0.3094907876000001
 40
0.6269438669
 40
1.0
 40
1.0
 40
1.0
 40
1.0
 10
140.6063406293
 20
120.1457097458
 30
0.0
 10
140.6174171638
 20
120.1457097458
 30
0.0
 10
140.6341939418
 20
120.1632658434
 30
0.0
 10
140.6481894628
 20
120.19078254
 30
0.0
 10
140.660981704
 20
120.2243775482
 30
0.0
 10
140.6729351414
 20
120.2662578945
 30
0.0
 10
140.6893971941
 20
120.3383725667
 30
0.0
 10
140.7160933548
 20
120.504228157
 30
0.0
 10
140.7391546639999
 20
120.7818641498
 30
0.0
 10
140.745326242
 20
121.0180909618
 30
0.0
 10
140.745326242
 20
121.1457097458
 30
0.0
  0
SPLINE
  5
2A0
330
206
100
AcDbEntity
  8
RUNDUNGEN
  6
Continuous
 62
     9
100
AcDbSpline
210
0.0
220
0.0
230
1.0
 70
     8
 71
     3
 72
    11
 73
     7
 74
     0
 42
0.0000000001
 43
0.0000000001
 40
0.0
 40
0.0
 40
0.0
 40
0.0
 40
0.2472417103
 40
0.4960824495000001
 40
0.7472176426999999
 40
1.0
 40
1.0
 40
1.0
 40
1.0
 10
138.9317198405
 20
120.1457097458
 30
0.0
 10
139.0588251242
 20
120.1457097458
 30
0.0
 10
139.3167379191
 20
120.198200438
 30
0.0
 10
139.6412504076
 20
120.4216535508
 30
0.0
 10
139.8576187811
 20
120.7539527724
 30
0.0
 10
139.9080158476
 20
121.0157560531
 30
0.0
 10
139.9080158476
 20
121.1457097458
 30
0.0
  0
SPLINE
  5
2A1
330
206
100
AcDbEntity
  8
RUNDUNGEN
  6
Continuous
 62
     9
100
AcDbSpline
210
0.0
220
0.0
230
1.0
 70
     8
 71
     3
 72
    11
 73
     7
 74
     0
 42
0.0000000001
 43
0.0000000001
 40
0.0
 40
0.0
 40
0.0
 40
0.0
 40
0.2660897434
 40
0.5188352908000001
 40
0.7617241239000001
 40
1.0
 40
1.0
 40
1.0
 40
1.0
 10
138.9453131817
 20
120.9766320813
 30
0.0
 10
139.0504112289
 20
121.0261841151
 30
0.0
 10
139.2411280908
 20
121.1558775862
 30
0.0
 10
139.4562497055
 20
121.414273804
 30
0.0
 10
139.5956680812
 20
121.7060191312
 30
0.0
 10
139.6433114981
 20
121.912402603
 30
0.0
 10
139.6567792102
 20
122.0155756051
 30
0.0
  0
SPLINE
  5
2A2
330
206
100
AcDbEntity
  8
RUNDUNGEN
  6
Continuous
 62
     9
100
AcDbSpline
210
0.0
220
0.0
230
1.0
 70
     8
 71
     3
 72
    12
 73
     8
 74
     0
 42
0.0000000001
 43
0.0000000001
 40
0.0
 40
0.0
 40
0.0
 40
0.0
 40
0.3398502586999999
 40
0.6324093812
 40
0.8566116131999999
 40
0.9387088609999999
 40
1.0
 40
1.0
 40
1.0
 40
1.0
 10
138.9453131775
 20
120.9766320804
 30
0.0
 10
139.0325523145
 20
120.9838752905
 30
0.0
 10
139.1946607147
 20
121.0013928727
 30
0.0
 10
139.412058513
 20
121.0391563669
 30
0.0
 10
139.5618930255
 20
121.078558121
 30
0.0
 10
139.6490595002
 20
121.1157021415
 30
0.0
 10
139.6808553531
 20
121.1352713517
 30
0.0
 10
139.6926995465
 20
121.1457097458
 30
0.0
  0
SPLINE
  5
2A3
330
206
100
AcDbEntity
  8
RUNDUNGEN
  6
Continuous
 62
     9
100
AcDbSpline
210
0.0
220
0.0
230
1.0
 70
     8
 71
     3
 72
    11
 73
     7
 74
     0
 42
0.0000000001
 43
0.0000000001
 40
0.0
 40
0.0
 40
0.0
 40
0.0
 40
0.2527797868
 40
0.5039158320000001
 40
0.7527573925
 40
1.0
 40
1.0
 40
1.0
 40
1.0
 10
139.6926995465
 20
121.1457097458
 30
0.0
 10
139.6926995465
 20
121.0157573818
 30
0.0
 10
139.6423027975
 20
120.7539551956
 30
0.0
 10
139.4259362313
 20
120.4216553441
 30
0.0
 10
139.1014229518
 20
120.1982008031
 30
0.0
 10
138.8435092772
 20
120.1457097458
 30
0.0
 10
138.7164035393
 20
120.1457097458
 30
0.0
  0
SPLINE
  5
2A4
330
206
100
AcDbEntity
  8
RUNDUNGEN
  6
Continuous
 62
     9
100
AcDbSpline
210
0.0
220
0.0
230
1.0
 70
     8
 71
     3
 72
    16
 73
    12
 74
     0
 42
0.0000000001
 43
0.0000000001
 40
0.0
 40
0.0
 40
0.0
 40
0.0
 40
0.0439252466
 40
0.0737769991
 40
0.1103781717
 40
0.2047857781
 40
0.3265852917
 40
0.4723533633
 40
0.6371372056000001
 40
0.8152609901000001
 40
1.0
 40
1.0
 40
1.0
 40
1.0
 10
85.2362817038
 20
120.1457097458
 30
0.0
 10
85.2517423874
 20
120.1457097458
 30
0.0
 10
85.2768494128
 20
120.1602126445
 30
0.0
 10
85.3011366189
 20
120.1901500275
 30
0.0
 10
85.3300933062
 20
120.2392038894
 30
0.0
 10
85.361455741
 20
120.322880286
 30
0.0
 10
85.392915132
 20
120.4464677562
 30
0.0
 10
85.41875979089999
 20
120.5965684884
 30
0.0
 10
85.4381201742
 20
120.7675494173
 30
0.0
 10
85.45003931409999
 20
120.9529499503
 30
0.0
 10
85.4527213178
 20
121.0806858335
 30
0.0
 10
85.4527213178
 20
121.1457097458
 30
0.0
  0
SPLINE
  5
2A5
330
206
100
AcDbEntity
  8
RUNDUNGEN
  6
Continuous
 62
     9
100
AcDbSpline
210
0.0
220
0.0
230
1.0
 70
     8
 71
     3
 72
     8
 73
     4
 74
     0
 42
0.0000000001
 43
0.0000000001
 40
0.0
 40
0.0
 40
0.0
 40
0.0
 40
1.0
 40
1.0
 40
1.0
 40
1.0
 10
161.1639727085
 20
120.9782388989
 30
0.0
 10
161.1855226535
 20
120.9722191353
 30
0.0
 10
161.20716718
 20
120.9665146657
 30
0.0
 10
161.2289355319
 20
120.9613400604
 30
0.0
  0
SPLINE
  5
2A6
330
206
100
AcDbEntity
  8
RUNDUNGEN
  6
Continuous
 62
     9
100
AcDbSpline
210
0.0
220
0.0
230
1.0
 70
     8
 71
     3
 72
    13
 73
     9
 74
     0
 42
0.0000000001
 43
0.0000000001
 40
0.0
 40
0.0
 40
0.0
 40
0.0
 40
0.353843537
 40
0.654008491
 40
0.7753786697000001
 40
0.874090018
 40
0.9487737193
 40
1.0
 40
1.0
 40
1.0
 40
1.0
 10
161.2289355319
 20
120.9613400604
 30
0.0
 10
161.2320937137
 20
120.8636496893
 30
0.0
 10
161.2426501361
 20
120.6832298276
 30
0.0
 10
161.2686833681
 20
120.4703088261
 30
0.0
 10
161.2975805924
 20
120.3295091392
 30
0.0
 10
161.3199137247
 20
120.25096898
 30
0.0
 10
161.3434988027
 20
120.1936938917
 30
0.0
 10
161.3636136001
 20
120.16411281
 30
0.0
 10
161.3746329775
 20
120.1552359165
 30
0.0
  0
SPLINE
  5
2A7
330
206
100
AcDbEntity
  8
RUNDUNGEN
  6
Continuous
 62
     9
100
AcDbSpline
210
0.0
220
0.0
230
1.0
 70
     8
 71
     3
 72
     9
 73
     5
 74
     0
 42
0.0000000001
 43
0.0000000001
 40
0.0
 40
0.0
 40
0.0
 40
0.0
 40
0.279972593
 40
1.0
 40
1.0
 40
1.0
 40
1.0
 10
161.3746329775
 20
120.1552359165
 30
0.0
 10
161.3765078749
 20
120.153725553
 30
0.0
 10
161.3834667567
 20
120.1487141517
 30
0.0
 10
161.392129277
 20
120.1457097458
 30
0.0
 10
161.3983210369
 20
120.1457097458
 30
0.0
  0
SPLINE
  5
2A8
330
206
100
AcDbEntity
  8
RUNDUNGEN
  6
Continuous
 62
     9
100
AcDbSpline
210
0.0
220
0.0
230
1.0
 70
     8
 71
     3
 72
    11
 73
     7
 74
     0
 42
0.0000000001
 43
0.0000000001
 40
0.0
 40
0.0
 40
0.0
 40
0.0
 40
0.2472417103
 40
0.4960824495000001
 40
0.7472176426999999
 40
1.0
 40
1.0
 40
1.0
 40
1.0
 10
161.3983210369
 20
120.1457097458
 30
0.0
 10
161.2712157532
 20
120.1457097458
 30
0.0
 10
161.0133029583
 20
120.198200438
 30
0.0
 10
160.6887904698
 20
120.4216535508
 30
0.0
 10
160.4724220963
 20
120.7539527724
 30
0.0
 10
160.4220250298
 20
121.0157560531
 30
0.0
 10
160.4220250298
 20
121.1457097458
 30
0.0
  0
SPLINE
  5
2A9
330
206
100
AcDbEntity
  8
RUNDUNGEN
  6
Continuous
 62
     9
100
AcDbSpline
210
0.0
220
0.0
230
1.0
 70
     8
 71
     3
 72
    13
 73
     9
 74
     0
 42
0.0000000001
 43
0.0000000001
 40
0.0
 40
0.0
 40
0.0
 40
0.0
 40
0.0621555884
 40
0.1437915675
 40
0.2462333641
 40
0.3679603547
 40
0.6603013747
 40
1.0
 40
1.0
 40
1.0
 40
1.0
 10
160.4220250298
 20
121.1457097458
 30
0.0
 10
160.4332640504
 20
121.1344599325
 30
0.0
 10
160.4650203887
 20
121.1145729179
 30
0.0
 10
160.5234382944
 20
121.091135022
 30
0.0
 10
160.5980344245
 20
121.067215963
 30
0.0
 10
160.7260460484
 20
121.0342986486
 30
0.0
 10
160.9163137322999
 20
121.0006213996
 30
0.0
 10
161.0775104938
 20
120.9870416861
 30
0.0
 10
161.1639727085
 20
120.9782388989
 30
0.0
  0
SPLINE
  5
2AA
330
206
100
AcDbEntity
  8
RUNDUNGEN
  6
Continuous
 62
     9
100
AcDbSpline
210
0.0
220
0.0
230
1.0
 70
     8
 71
     3
 72
     9
 73
     5
 74
     0
 42
0.0000000001
 43
0.0000000001
 40
0.0
 40
0.0
 40
0.0
 40
0.0
 40
0.2317417357
 40
1.0
 40
1.0
 40
1.0
 40
1.0
 10
213.9102919353
 20
120.9613413208
 30
0.0
 10
213.9109580582
 20
120.9625623402
 30
0.0
 10
213.9139153508
 20
120.9677860214
 30
0.0
 10
213.9171776661
 20
120.9728332071
 30
0.0
 10
213.9197911523
 20
120.9766320804
 30
0.0
  0
SPLINE
  5
2AB
330
206
100
AcDbEntity
  8
RUNDUNGEN
  6
Continuous
 62
     9
100
AcDbSpline
210
0.0
220
0.0
230
1.0
 70
     8
 71
     3
 72
    11
 73
     7
 74
     0
 42
0.0000000001
 43
0.0000000001
 40
0.0
 40
0.0
 40
0.0
 40
0.0
 40
0.1344758236
 40
0.3585139108
 40
0.6547525377000002
 40
1.0
 40
1.0
 40
1.0
 40
1.0
 10
213.9197911523
 20
120.9766320804
 30
0.0
 10
213.9518018526
 20
120.988489678
 30
0.0
 10
214.039983598
 20
121.0118133686
 30
0.0
 10
214.2014848866
 20
121.0506254104
 30
0.0
 10
214.416372258
 20
121.0967290884
 30
0.0
 10
214.5759895292
 20
121.1289042545
 30
0.0
 10
214.6620032585
 20
121.1457097458
 30
0.0
  0
SPLINE
  5
2AC
330
206
100
AcDbEntity
  8
RUNDUNGEN
  6
Continuous
 62
     9
100
AcDbSpline
210
0.0
220
0.0
230
1.0
 70
     8
 71
     3
 72
    16
 73
    12
 74
     0
 42
0.0000000001
 43
0.0000000001
 40
0.0
 40
0.0
 40
0.0
 40
0.0
 40
0.1847370374
 40
0.3628591904
 40
0.5276442099000001
 40
0.6734128903000001
 40
0.7952131162000001
 40
0.8896212910999999
 40
0.9262227111999999
 40
0.9560746073
 40
1.0
 40
1.0
 40
1.0
 40
1.0
 10
214.6620032585
 20
121.1457097458
 30
0.0
 10
214.6620032585
 20
121.0806865297
 30
0.0
 10
214.6646850019
 20
120.9529519115
 30
0.0
 10
214.6766043022
 20
120.7675522523
 30
0.0
 10
214.6959643595
 20
120.5965712393
 30
0.0
 10
214.7218090533
 20
120.4464696255
 30
0.0
 10
214.7532684464
 20
120.3228814662
 30
0.0
 10
214.7846309676
 20
120.2392045462
 30
0.0
 10
214.8135877137
 20
120.190150308
 30
0.0
 10
214.8378750882
 20
120.1602128459
 30
0.0
 10
214.8629821379
 20
120.1457097458
 30
0.0
 10
214.8784428724
 20
120.1457097458
 30
0.0
  0
SPLINE
  5
2AD
330
206
100
AcDbEntity
  8
RUNDUNGEN
  6
Continuous
 62
     9
100
AcDbSpline
210
0.0
220
0.0
230
1.0
 70
     8
 71
     3
 72
    11
 73
     7
 74
     0
 42
0.0000000001
 43
0.0000000001
 40
0.0
 40
0.0
 40
0.0
 40
0.0
 40
0.2484997832
 40
0.4977734122000001
 40
0.7483075649
 40
1.0
 40
1.0
 40
1.0
 40
1.0
 10
214.8784428724
 20
120.1457097458
 30
0.0
 10
214.7652280434
 20
120.1457097458
 30
0.0
 10
214.5364560532
 20
120.1862287335
 30
0.0
 10
214.2360843136
 20
120.3613277967
 30
0.0
 10
214.0119163006
 20
120.6288465157
 30
0.0
 10
213.9311275646
 20
120.8485807638
 30
0.0
 10
213.9102919353
 20
120.9613413208
 30
0.0
  0
SPLINE
  5
2AE
330
206
100
AcDbEntity
  8
RUNDUNGEN
  6
Continuous
 62
     9
100
AcDbSpline
210
0.0
220
0.0
230
1.0
 70
     8
 71
     3
 72
     9
 73
     5
 74
     0
 42
0.0000000001
 43
0.0000000001
 40
0.0
 40
0.0
 40
0.0
 40
0.0
 40
0.2700740056
 40
1.0
 40
1.0
 40
1.0
 40
1.0
 10
86.19390082249999
 20
120.9782388989
 30
0.0
 10
86.19492741010001
 20
120.9767688536
 30
0.0
 10
86.19862693280001
 20
120.9712562849
 30
0.0
 10
86.20211249569999
 20
120.9655944751
 30
0.0
 10
86.20443270950001
 20
120.9613400604
 30
0.0
  0
SPLINE
  5
2AF
330
206
100
AcDbEntity
  8
RUNDUNGEN
  6
Continuous
 62
     9
100
AcDbSpline
210
0.0
220
0.0
230
1.0
 70
     8
 71
     3
 72
    11
 73
     7
 74
     0
 42
0.0000000001
 43
0.0000000001
 40
0.0
 40
0.0
 40
0.0
 40
0.0
 40
0.2516991298
 40
0.502232228
 40
0.7515062181000002
 40
1.0
 40
1.0
 40
1.0
 40
1.0
 10
86.20443270950001
 20
120.9613400604
 30
0.0
 10
86.18359642680001
 20
120.8485766204
 30
0.0
 10
86.10280562200001
 20
120.6288402007
 30
0.0
 10
85.87863328279999
 20
120.3613218801
 30
0.0
 10
85.5782626451
 20
120.1862277896
 30
0.0
 10
85.3494937037
 20
120.1457097458
 30
0.0
 10
85.2362817038
 20
120.1457097458
 30
0.0
  0
SPLINE
  5
2B0
330
206
100
AcDbEntity
  8
RUNDUNGEN
  6
Continuous
 62
     9
100
AcDbSpline
210
0.0
220
0.0
230
1.0
 70
     8
 71
     3
 72
    11
 73
     7
 74
     0
 42
0.0000000001
 43
0.0000000001
 40
0.0
 40
0.0
 40
0.0
 40
0.0
 40
0.2473491279
 40
0.4963796003
 40
0.7474767646
 40
1.0
 40
1.0
 40
1.0
 40
1.0
 10
138.8438322166
 20
130.3371272073
 30
0.0
 10
138.9595957894
 20
130.3215109097
 30
0.0
 10
139.1882177
 20
130.2462681711
 30
0.0
 10
139.4673890594
 20
130.0181274341
 30
0.0
 10
139.6503958093
 20
129.7049200841
 30
0.0
 10
139.6926995465
 20
129.4649653787
 30
0.0
 10
139.6926995465
 20
129.3457097458
 30
0.0
  0
SPLINE
  5
2B1
330
206
100
AcDbEntity
  8
RUNDUNGEN
  6
Continuous
 62
     9
100
AcDbSpline
210
0.0
220
0.0
230
1.0
 70
     8
 71
     3
 72
    13
 73
     9
 74
     0
 42
0.0000000001
 43
0.0000000001
 40
0.0
 40
0.0
 40
0.0
 40
0.0
 40
0.3442531988000001
 40
0.6400215948
 40
0.7623450943000001
 40
0.8643751783999999
 40
0.9439970845999999
 40
1.0
 40
1.0
 40
1.0
 40
1.0
 10
85.4527213178
 20
121.1457097458
 30
0.0
 10
85.5378777263
 20
121.1268128956
 30
0.0
 10
85.6974076692
 20
121.0974520506
 30
0.0
 10
85.8861826979
 20
121.0563121121
 30
0.0
 10
86.01430628320001
 20
121.0255131229
 30
0.0
 10
86.08913245040001
 20
121.0070831595
 30
0.0
 10
86.1476443809
 20
120.9932914358
 30
0.0
 10
86.1809540724
 20
120.9840477697
 30
0.0
 10
86.19390082249999
 20
120.9782388989
 30
0.0
  0
SPLINE
  5
2B2
330
206
100
AcDbEntity
  8
RUNDUNGEN
  6
Continuous
 62
     9
100
AcDbSpline
210
0.0
220
0.0
230
1.0
 70
     8
 71
     3
 72
    12
 73
     8
 74
     0
 42
0.0000000001
 43
0.0000000001
 40
0.0
 40
0.0
 40
0.0
 40
0.0
 40
0.0794550651
 40
0.1796116556
 40
0.4236543565
 40
0.7031869122
 40
1.0
 40
1.0
 40
1.0
 40
1.0
 10
86.19493179930001
 20
129.5147868099
 30
0.0
 10
86.18504647669999
 20
129.4848291018
 30
0.0
 10
86.1571590427
 20
129.4190065882
 30
0.0
 10
86.08169827899999
 20
129.2686762426
 30
0.0
 10
85.9585420484
 20
129.0536671002
 30
0.0
 10
85.792210681
 20
128.7736651212
 30
0.0
 10
85.6742007927
 20
128.5775902508
 30
0.0
 10
85.6147480511
 20
128.475840847
 30
0.0
  0
SPLINE
  5
2B3
330
206
100
AcDbEntity
  8
RUNDUNGEN
  6
Continuous
 62
     9
100
AcDbSpline
210
0.0
220
0.0
230
1.0
 70
     8
 71
     3
 72
     9
 73
     5
 74
     0
 42
0.0000000001
 43
0.0000000001
 40
0.0
 40
0.0
 40
0.0
 40
0.0
 40
0.2616657932
 40
1.0
 40
1.0
 40
1.0
 40
1.0
 10
213.9102917284
 20
129.5300785526
 30
0.0
 10
213.9062482842
 20
129.5332095858
 30
0.0
 10
213.8899550105
 20
129.544076762
 30
0.0
 10
213.8699360315
 20
129.5491198897
 30
0.0
 10
213.8555060894
 20
129.5491443851
 30
0.0
  0
SPLINE
  5
2B4
330
206
100
AcDbEntity
  8
RUNDUNGEN
  6
Continuous
 62
     9
100
AcDbSpline
210
0.0
220
0.0
230
1.0
 70
     8
 71
     3
 72
    12
 73
     8
 74
     0
 42
0.0000000001
 43
0.0000000001
 40
0.0
 40
0.0
 40
0.0
 40
0.0
 40
0.2963890595
 40
0.5756186312000001
 40
0.8196393361
 40
0.9200402454999998
 40
1.0
 40
1.0
 40
1.0
 40
1.0
 10
214.4999770941
 20
128.4758438909
 30
0.0
 10
214.4407020063
 20
128.5772999655
 30
0.0
 10
214.3230153368
 20
128.7728359749
 30
0.0
 10
214.1570749714
 20
129.052166642
 30
0.0
 10
214.0340509169
 20
129.26678063
 30
0.0
 10
213.9584423739
 20
129.4170913373
 30
0.0
 10
213.9305066986
 20
129.4830893078
 30
0.0
 10
213.9204557528
 20
129.513153533
 30
0.0
  0
SPLINE
  5
2B5
330
206
100
AcDbEntity
  8
RUNDUNGEN
  6
Continuous
 62
     9
100
AcDbSpline
210
0.0
220
0.0
230
1.0
 70
     8
 71
     3
 72
     9
 73
     5
 74
     0
 42
0.0000000001
 43
0.0000000001
 40
0.0
 40
0.0
 40
0.0
 40
0.0
 40
0.2305734766
 40
1.0
 40
1.0
 40
1.0
 40
1.0
 10
138.7164035393
 20
120.1457097458
 30
0.0
 10
138.7183987553
 20
120.1457097458
 30
0.0
 10
138.7270698998
 20
120.146598111
 30
0.0
 10
138.7350127827
 20
120.1511279346
 30
0.0
 10
138.7401891465
 20
120.1553154186
 30
0.0
  0
SPLINE
  5
2B6
330
206
100
AcDbEntity
  8
RUNDUNGEN
  6
Continuous
 62
     9
100
AcDbSpline
210
0.0
220
0.0
230
1.0
 70
     8
 71
     3
 72
    13
 73
     9
 74
     0
 42
0.0000000001
 43
0.0000000001
 40
0.0
 40
0.0
 40
0.0
 40
0.0
 40
0.0512870222
 40
0.1260212559
 40
0.2247623255
 40
0.3461413104
 40
0.6462641817
 40
1.0
 40
1.0
 40
1.0
 40
1.0
 10
138.7401891465
 20
120.1553154186
 30
0.0
 10
138.7512016899
 20
120.164224153
 30
0.0
 10
138.7712994741
 20
120.1938404219
 30
0.0
 10
138.7948728369
 20
120.2511542506
 30
0.0
 10
138.8171913516
 20
120.3297103092
 30
0.0
 10
138.846067033
 20
120.4704919933
 30
0.0
 10
138.872081061
 20
120.6833432662
 30
0.0
 10
138.8826340854
 20
120.8636951347
 30
0.0
 10
138.8857908081
 20
120.9613413208
 30
0.0
  0
SPLINE
  5
2B7
330
206
100
AcDbEntity
  8
RUNDUNGEN
  6
Continuous
 62
     9
100
AcDbSpline
210
0.0
220
0.0
230
1.0
 70
     8
 71
     3
 72
    11
 73
     7
 74
     0
 42
0.0000000001
 43
0.0000000001
 40
0.0
 40
0.0
 40
0.0
 40
0.0
 40
0.2488909654
 40
0.4984071591
 40
0.7488562852
 40
1.0
 40
1.0
 40
1.0
 40
1.0
 10
217.397381516
 20
130.3457097458
 30
0.0
 10
217.2685259188
 20
130.3457097458
 30
0.0
 10
217.0076297836
 20
130.2934864398
 30
0.0
 10
216.6784680632
 20
130.0705705514
 30
0.0
 10
216.4584533665
 20
129.738220641
 30
0.0
 10
216.4070871156
 20
129.4757316343
 30
0.0
 10
216.4070871156
 20
129.3457097458
 30
0.0
  0
SPLINE
  5
2B8
330
206
100
AcDbEntity
  8
RUNDUNGEN
  6
Continuous
 62
     9
100
AcDbSpline
210
0.0
220
0.0
230
1.0
 70
     8
 71
     3
 72
    16
 73
    12
 74
     0
 42
0.0000000001
 43
0.0000000001
 40
0.0
 40
0.0
 40
0.0
 40
0.0
 40
0.0439252464
 40
0.0737769987
 40
0.1103781712
 40
0.2047857776
 40
0.3265852919999999
 40
0.4723533646
 40
0.6371372072
 40
0.8152609908
 40
1.0
 40
1.0
 40
1.0
 40
1.0
 10
215.849671943
 20
130.3457097458
 30
0.0
 10
215.8342112595
 20
130.3457097458
 30
0.0
 10
215.8091042341
 20
130.3312068472
 30
0.0
 10
215.7848170282
 20
130.3012694643
 30
0.0
 10
215.7558603408
 20
130.2522156026
 30
0.0
 10
215.724497906
 20
130.1685392058
 30
0.0
 10
215.6930385147
 20
130.044951735
 30
0.0
 10
215.667193856
 20
129.894851002
 30
0.0
 10
215.6478334721
 20
129.723870073
 30
0.0
 10
215.635914333
 20
129.5384695405
 30
0.0
 10
215.6332323309
 20
129.4107336578
 30
0.0
 10
215.6332323309
 20
129.3457097458
 30
0.0
  0
SPLINE
  5
2B9
330
206
100
AcDbEntity
  8
RUNDUNGEN
  6
Continuous
 62
     9
100
AcDbSpline
210
0.0
220
0.0
230
1.0
 70
     8
 71
     3
 72
    11
 73
     7
 74
     0
 42
0.0000000001
 43
0.0000000001
 40
0.0
 40
0.0
 40
0.0
 40
0.0
 40
0.2488909641
 40
0.4984071588
 40
0.748856286
 40
1.0
 40
1.0
 40
1.0
 40
1.0
 10
82.7173430612
 20
130.3457097458
 30
0.0
 10
82.8461986577
 20
130.3457097457
 30
0.0
 10
83.1070947925
 20
130.2934864398
 30
0.0
 10
83.43625651329999
 20
130.0705705515
 30
0.0
 10
83.65627120979999
 20
129.7382206404
 30
0.0
 10
83.7076374609
 20
129.4757316338
 30
0.0
 10
83.7076374609
 20
129.3457097458
 30
0.0
  0
SPLINE
  5
2BA
330
206
100
AcDbEntity
  8
RUNDUNGEN
  6
Continuous
 62
     9
100
AcDbSpline
210
0.0
220
0.0
230
1.0
 70
     8
 71
     3
 72
     9
 73
     5
 74
     0
 42
0.0000000001
 43
0.0000000001
 40
0.0
 40
0.0
 40
0.0
 40
0.0
 40
0.7383736770000001
 40
1.0
 40
1.0
 40
1.0
 40
1.0
 10
86.25921798
 20
129.5491438037
 30
0.0
 10
86.2447877535
 20
129.5491157374
 30
0.0
 10
86.22477361979999
 20
129.5440688099
 30
0.0
 10
86.2084748168
 20
129.5332105959
 30
0.0
 10
86.2044326918
 20
129.5300793973
 30
0.0
  0
SPLINE
  5
2BB
330
206
100
AcDbEntity
  8
RUNDUNGEN
  6
Continuous
 62
     9
100
AcDbSpline
210
0.0
220
0.0
230
1.0
 70
     8
 71
     3
 72
    11
 73
     7
 74
     0
 42
0.0000000001
 43
0.0000000001
 40
0.0
 40
0.0
 40
0.0
 40
0.0
 40
0.2383309626
 40
0.4812472418000001
 40
0.7339534851
 40
1.0
 40
1.0
 40
1.0
 40
1.0
 10
139.6567792108
 20
128.4758438909
 30
0.0
 10
139.6433517364
 20
128.5787093268
 30
0.0
 10
139.5959088056
 20
128.7844604467
 30
0.0
 10
139.4572697615
 20
129.0754489832
 30
0.0
 10
139.2432564803
 20
129.3332455699
 30
0.0
 10
139.0538201885
 20
129.4633687987
 30
0.0
 10
138.949266162
 20
129.513153533
 30
0.0
  0
SPLINE
  5
2BC
330
206
100
AcDbEntity
  8
RUNDUNGEN
  6
Continuous
 62
     9
100
AcDbSpline
210
0.0
220
0.0
230
1.0
 70
     8
 71
     3
 72
    11
 73
     7
 74
     0
 42
0.0000000001
 43
0.0000000001
 40
0.0
 40
0.0
 40
0.0
 40
0.0
 40
0.2472417103
 40
0.4960824495000001
 40
0.7472176426999999
 40
1.0
 40
1.0
 40
1.0
 40
1.0
 10
161.1830047358
 20
130.3457097458
 30
0.0
 10
161.0558994521
 20
130.3457097458
 30
0.0
 10
160.7979866572
 20
130.2932190536
 30
0.0
 10
160.4734741687
 20
130.0697659407
 30
0.0
 10
160.2571057952
 20
129.7374667192
 30
0.0
 10
160.2067087287
 20
129.4756634384
 30
0.0
 10
160.2067087287
 20
129.3457097458
 30
0.0
  0
SPLINE
  5
2BD
330
206
100
AcDbEntity
  8
RUNDUNGEN
  6
Continuous
 62
     9
100
AcDbSpline
210
0.0
220
0.0
230
1.0
 70
     8
 71
     3
 72
    11
 73
     7
 74
     0
 42
0.0000000001
 43
0.0000000001
 40
0.0
 40
0.0
 40
0.0
 40
0.0
 40
0.2660887774
 40
0.5188340354
 40
0.7617246976000001
 40
1.0
 40
1.0
 40
1.0
 40
1.0
 10
161.1694041643
 20
129.5147868099
 30
0.0
 10
161.0643060962
 20
129.4652360169
 30
0.0
 10
160.873587898
 20
129.3355451957
 30
0.0
 10
160.6584695111
 20
129.0771452643
 30
0.0
 10
160.5190584795
 20
128.7853966019
 30
0.0
 10
160.4714140303
 20
128.5790134087
 30
0.0
 10
160.4579454917
 20
128.475840847
 30
0.0
  0
SPLINE
  5
2BE
330
206
100
AcDbEntity
  8
RUNDUNGEN
  6
Continuous
 62
     9
100
AcDbSpline
210
0.0
220
0.0
230
1.0
 70
     8
 71
     3
 72
    12
 73
     8
 74
     0
 42
0.0000000001
 43
0.0000000001
 40
0.0
 40
0.0
 40
0.0
 40
0.0
 40
0.339850392
 40
0.632409373
 40
0.8566114841999999
 40
0.9387087556
 40
1.0
 40
1.0
 40
1.0
 40
1.0
 10
161.1694041679
 20
129.5147868108
 30
0.0
 10
161.0821658257
 20
129.5075435412
 30
0.0
 10
160.9200589727
 20
129.490025909
 30
0.0
 10
160.7026632941
 20
129.4522624975
 30
0.0
 10
160.5528303026
 20
129.4128609248
 30
0.0
 10
160.4656646909
 20
129.3757171367
 30
0.0
 10
160.4338691324
 20
129.3561480598
 30
0.0
 10
160.4220250298
 20
129.3457097458
 30
0.0
  0
SPLINE
  5
2BF
330
206
100
AcDbEntity
  8
RUNDUNGEN
  6
Continuous
 62
     9
100
AcDbSpline
210
0.0
220
0.0
230
1.0
 70
     8
 71
     3
 72
    11
 73
     7
 74
     0
 42
0.0000000001
 43
0.0000000001
 40
0.0
 40
0.0
 40
0.0
 40
0.0
 40
0.2527797868
 40
0.5039158320000001
 40
0.7527573925
 40
1.0
 40
1.0
 40
1.0
 40
1.0
 10
160.4220250298
 20
129.3457097458
 30
0.0
 10
160.4220250298
 20
129.4756621097
 30
0.0
 10
160.4724217788
 20
129.737464296
 30
0.0
 10
160.688788345
 20
130.0697641475
 30
0.0
 10
161.0133016244
 20
130.2932186885
 30
0.0
 10
161.2712152991
 20
130.3457097458
 30
0.0
 10
161.3983210369
 20
130.3457097458
 30
0.0
  0
SPLINE
  5
2C0
330
206
100
AcDbEntity
  8
RUNDUNGEN
  6
Continuous
 62
     9
100
AcDbSpline
210
0.0
220
0.0
230
1.0
 70
     8
 71
     3
 72
     9
 73
     5
 74
     0
 42
0.0000000001
 43
0.0000000001
 40
0.0
 40
0.0
 40
0.0
 40
0.0
 40
0.2305735142
 40
1.0
 40
1.0
 40
1.0
 40
1.0
 10
161.3983210369
 20
130.3457097458
 30
0.0
 10
161.3963258232
 20
130.3457097458
 30
0.0
 10
161.3876546898
 20
130.3448213827
 30
0.0
 10
161.3797118151
 20
130.3402915697
 30
0.0
 10
161.3745354559
 20
130.336104094
 30
0.0
  0
SPLINE
  5
2C1
330
206
100
AcDbEntity
  8
RUNDUNGEN
  6
Continuous
 62
     9
100
AcDbSpline
210
0.0
220
0.0
230
1.0
 70
     8
 71
     3
 72
    13
 73
     9
 74
     0
 42
0.0000000001
 43
0.0000000001
 40
0.0
 40
0.0
 40
0.0
 40
0.0
 40
0.0512870161
 40
0.1260212366
 40
0.2247622901
 40
0.3461412607
 40
0.6462641276
 40
1.0
 40
1.0
 40
1.0
 40
1.0
 10
161.3745354559
 20
130.336104094
 30
0.0
 10
161.36352292
 20
130.3271953756
 30
0.0
 10
161.3434251452
 20
130.2975791492
 30
0.0
 10
161.3198517918
 20
130.2402653939
 30
0.0
 10
161.2975332862
 20
130.1617094298
 30
0.0
 10
161.2686576144
 20
130.0209279007
 30
0.0
 10
161.2426435363
 20
129.808076838
 30
0.0
 10
161.2320905932
 20
129.6277251314
 30
0.0
 10
161.2289338576
 20
129.5300790285
 30
0.0
  0
SPLINE
  5
2C2
330
206
100
AcDbEntity
  8
RUNDUNGEN
  6
Continuous
 62
     9
100
AcDbSpline
210
0.0
220
0.0
230
1.0
 70
     8
 71
     3
 72
     8
 73
     4
 74
     0
 42
0.0000000001
 43
0.0000000001
 40
0.0
 40
0.0
 40
0.0
 40
0.0
 40
1.0
 40
1.0
 40
1.0
 40
1.0
 10
138.9507440525
 20
129.5131813317
 30
0.0
 10
138.9291967106
 20
129.5192004825
 30
0.0
 10
138.9075548062
 20
129.5249044057
 30
0.0
 10
138.8857890983
 20
129.5300785795
 30
0.0
  0
SPLINE
  5
2C3
330
206
100
AcDbEntity
  8
RUNDUNGEN
  6
Continuous
 62
     9
100
AcDbSpline
210
0.0
220
0.0
230
1.0
 70
     8
 71
     3
 72
    13
 73
     9
 74
     0
 42
0.0000000001
 43
0.0000000001
 40
0.0
 40
0.0
 40
0.0
 40
0.0
 40
0.3538435606000001
 40
0.6540085387
 40
0.7753787234999999
 40
0.8740900681999999
 40
0.9487737505
 40
1.0
 40
1.0
 40
1.0
 40
1.0
 10
138.8857890983
 20
129.5300785795
 30
0.0
 10
138.8826309278
 20
129.6277690632
 30
0.0
 10
138.8720744767
 20
129.8081891319
 30
0.0
 10
138.8460412588
 20
130.0211103833
 30
0.0
 10
138.8171440147
 20
130.1619102322
 30
0.0
 10
138.7948108661
 20
130.2404504745
 30
0.0
 10
138.771225771
 20
130.2977256108
 30
0.0
 10
138.7511109539
 20
130.3273067126
 30
0.0
 10
138.740091565
 20
130.3361836024
 30
0.0
  0
SPLINE
  5
2C4
330
206
100
AcDbEntity
  8
RUNDUNGEN
  6
Continuous
 62
     9
100
AcDbSpline
210
0.0
220
0.0
230
1.0
 70
     8
 71
     3
 72
     9
 73
     5
 74
     0
 42
0.0000000001
 43
0.0000000001
 40
0.0
 40
0.0
 40
0.0
 40
0.0
 40
0.2799725226
 40
1.0
 40
1.0
 40
1.0
 40
1.0
 10
138.740091565
 20
130.3361836024
 30
0.0
 10
138.7382166701
 20
130.3376939617
 30
0.0
 10
138.7312577961
 20
130.3427053499
 30
0.0
 10
138.7225952897
 20
130.3457097458
 30
0.0
 10
138.7164035393
 20
130.3457097458
 30
0.0
  0
LINE
  5
2C5
330
206
100
AcDbEntity
  8
RUNDUNGEN
  6
Continuous
 62
     9
100
AcDbLine
 10
139.69269954
 20
121.1457097458
 30
0.0
 11
139.65677921
 21
122.0155756051
 31
0.0
  0
SPLINE
  5
2C6
330
206
100
AcDbEntity
  8
RUNDUNGEN
  6
Continuous
 62
     9
100
AcDbSpline
210
0.0
220
0.0
230
1.0
 70
     8
 71
     3
 72
    13
 73
     9
 74
     0
 42
0.0000000001
 43
0.0000000001
 40
0.0
 40
0.0
 40
0.0
 40
0.0
 40
0.0621554684
 40
0.1437914136
 40
0.2462332556
 40
0.367960335
 40
0.6603015167000001
 40
1.0
 40
1.0
 40
1.0
 40
1.0
 10
139.6926995465
 20
129.3457097458
 30
0.0
 10
139.6814604379
 20
129.3569596575
 30
0.0
 10
139.649703772
 20
129.3768468123
 30
0.0
 10
139.591285255
 20
129.4002848265
 30
0.0
 10
139.5166883018
 20
129.4242040272
 30
0.0
 10
139.388675251
 20
129.4571215187
 30
0.0
 10
139.1984055499
 20
129.4907988566
 30
0.0
 10
139.037207122
 20
129.5043785309
 30
0.0
 10
138.9507440525
 20
129.5131813317
 30
0.0
  0
SPLINE
  5
2C7
330
206
100
AcDbEntity
  8
RUNDUNGEN
  6
Continuous
 62
     9
100
AcDbSpline
210
0.0
220
0.0
230
1.0
 70
     8
 71
     3
 72
     9
 73
     5
 74
     0
 42
0.0000000001
 43
0.0000000001
 40
0.0
 40
0.0
 40
0.0
 40
0.0
 40
0.2317394113
 40
1.0
 40
1.0
 40
1.0
 40
1.0
 10
86.2044324932
 20
129.5300790285
 30
0.0
 10
86.20376627809999
 20
129.5288578978
 30
0.0
 10
86.2008085409
 20
129.5236336952
 30
0.0
 10
86.1975457093
 20
129.5185860392
 30
0.0
 10
86.1949318033
 20
129.5147868108
 30
0.0
  0
SPLINE
  5
2C8
330
206
100
AcDbEntity
  8
RUNDUNGEN
  6
Continuous
 62
     9
100
AcDbSpline
210
0.0
220
0.0
230
1.0
 70
     8
 71
     3
 72
    11
 73
     7
 74
     0
 42
0.0000000001
 43
0.0000000001
 40
0.0
 40
0.0
 40
0.0
 40
0.0
 40
0.1344774527
 40
0.3585159304999999
 40
0.6547538979
 40
1.0
 40
1.0
 40
1.0
 40
1.0
 10
86.1949318033
 20
129.5147868108
 30
0.0
 10
86.16292072150001
 20
129.5029292749
 30
0.0
 10
86.07473869919999
 20
129.4796055135
 30
0.0
 10
85.91323739879999
 20
129.4407935933
 30
0.0
 10
85.6983509247
 20
129.394690113
 30
0.0
 10
85.5387345133
 20
129.3625151327
 30
0.0
 10
85.4527213178
 20
129.3457097458
 30
0.0
  0
SPLINE
  5
2C9
330
206
100
AcDbEntity
  8
RUNDUNGEN
  6
Continuous
 62
     9
100
AcDbSpline
210
0.0
220
0.0
230
1.0
 70
     8
 71
     3
 72
    16
 73
    12
 74
     0
 42
0.0000000001
 43
0.0000000001
 40
0.0
 40
0.0
 40
0.0
 40
0.0
 40
0.1847370374
 40
0.3628591904
 40
0.5276442099000001
 40
0.6734128903000001
 40
0.7952131162000001
 40
0.8896212910999999
 40
0.9262227111999999
 40
0.9560746073
 40
1.0
 40
1.0
 40
1.0
 40
1.0
 10
85.4527213178
 20
129.3457097458
 30
0.0
 10
85.4527213178
 20
129.4107329619
 30
0.0
 10
85.4500395744
 20
129.53846758
 30
0.0
 10
85.4381202741
 20
129.7238672393
 30
0.0
 10
85.41876021680002
 20
129.8948482522
 30
0.0
 10
85.39291552299999
 20
130.044949866
 30
0.0
 10
85.36145612989999
 20
130.1685380253
 30
0.0
 10
85.3300936087
 20
130.2522149453
 30
0.0
 10
85.30113686259999
 20
130.3012691835
 30
0.0
 10
85.2768494881
 20
130.3312066456
 30
0.0
 10
85.2517424384
 20
130.3457097458
 30
0.0
 10
85.2362817038
 20
130.3457097458
 30
0.0
  0
LINE
  5
2CA
330
206
100
AcDbEntity
  8
RUNDUNGEN
  6
Continuous
 62
     9
100
AcDbLine
 10
139.6567792165
 20
128.4758439077
 30
0.0
 11
139.6926995398
 21
129.3457097458
 31
0.0
  0
SPLINE
  5
2CB
330
206
100
AcDbEntity
  8
RUNDUNGEN
  6
Continuous
 62
     9
100
AcDbSpline
210
0.0
220
0.0
230
1.0
 70
     8
 71
     3
 72
     9
 73
     5
 74
     0
 42
0.0000000001
 43
0.0000000001
 40
0.0
 40
0.0
 40
0.0
 40
0.0
 40
0.2700713537
 40
1.0
 40
1.0
 40
1.0
 40
1.0
 10
213.9208219705
 20
129.5131813317
 30
0.0
 10
213.919795554
 20
129.514651232
 30
0.0
 10
213.9160966062
 20
129.520163298
 30
0.0
 10
213.9126115909
 20
129.5258245746
 30
0.0
 10
213.910291714
 20
129.5300785795
 30
0.0
  0
SPLINE
  5
2CC
330
206
100
AcDbEntity
  8
RUNDUNGEN
  6
Continuous
 62
     9
100
AcDbSpline
210
0.0
220
0.0
230
1.0
 70
     8
 71
     3
 72
    11
 73
     7
 74
     0
 42
0.0000000001
 43
0.0000000001
 40
0.0
 40
0.0
 40
0.0
 40
0.0
 40
0.2516991404
 40
0.5022322352000001
 40
0.7515062223000001
 40
1.0
 40
1.0
 40
1.0
 40
1.0
 10
213.910291714
 20
129.5300785795
 30
0.0
 10
213.9311279146
 20
129.6428421123
 30
0.0
 10
214.0119186013
 20
129.8625787422
 30
0.0
 10
214.236090951
 20
130.1300973521
 30
0.0
 10
214.5364617204
 20
130.305191652
 30
0.0
 10
214.7652308039
 20
130.3457097458
 30
0.0
 10
214.8784428724
 20
130.3457097458
 30
0.0
  0
SPLINE
  5
2CD
330
206
100
AcDbEntity
  8
RUNDUNGEN
  6
Continuous
 62
     9
100
AcDbSpline
210
0.0
220
0.0
230
1.0
 70
     8
 71
     3
 72
    16
 73
    12
 74
     0
 42
0.0000000001
 43
0.0000000001
 40
0.0
 40
0.0
 40
0.0
 40
0.0
 40
0.0439252466
 40
0.0737769991
 40
0.1103781717
 40
0.2047857781
 40
0.3265852917
 40
0.4723533633
 40
0.6371372056000001
 40
0.8152609901000001
 40
1.0
 40
1.0
 40
1.0
 40
1.0
 10
214.8784428724
 20
130.3457097458
 30
0.0
 10
214.8629821888
 20
130.3457097458
 30
0.0
 10
214.8378751634
 20
130.331206847
 30
0.0
 10
214.8135879573
 20
130.301269464
 30
0.0
 10
214.78463127
 20
130.2522156021
 30
0.0
 10
214.7532688352
 20
130.1685392056
 30
0.0
 10
214.7218094442
 20
130.0449517353
 30
0.0
 10
214.6959647853
 20
129.8948510031
 30
0.0
 10
214.676604402
 20
129.7238700742
 30
0.0
 10
214.6646852622
 20
129.5384695412
 30
0.0
 10
214.6620032585
 20
129.4107336581
 30
0.0
 10
214.6620032585
 20
129.3457097458
 30
0.0
  0
SPLINE
  5
2CE
330
206
100
AcDbEntity
  8
RUNDUNGEN
  6
Continuous
 62
     9
100
AcDbSpline
210
0.0
220
0.0
230
1.0
 70
     8
 71
     3
 72
    13
 73
     9
 74
     0
 42
0.0000000001
 43
0.0000000001
 40
0.0
 40
0.0
 40
0.0
 40
0.0
 40
0.3442546579
 40
0.6400237627000001
 40
0.7623472101000001
 40
0.8643769243999999
 40
0.9439981201
 40
1.0
 40
1.0
 40
1.0
 40
1.0
 10
214.6620032585
 20
129.3457097458
 30
0.0
 10
214.5768462773
 20
129.3646067407
 30
0.0
 10
214.4173153797
 20
129.3939677061
 30
0.0
 10
214.2285393544
 20
129.4351078961
 30
0.0
 10
214.1004153913
 20
129.4659070425
 30
0.0
 10
214.0255893229
 20
129.4843370413
 30
0.0
 10
213.9670777965
 20
129.4981287572
 30
0.0
 10
213.9337684506
 20
129.5073724125
 30
0.0
 10
213.9208219705
 20
129.5131813317
 30
0.0
  0
SPLINE
  5
2CF
330
206
100
AcDbEntity
  8
RUNDUNGEN
  6
Continuous
 62
     9
100
AcDbSpline
210
0.0
220
0.0
230
1.0
 70
     8
 71
     3
 72
     9
 73
     5
 74
     0
 42
0.0000000001
 43
0.0000000001
 40
0.0
 40
0.0
 40
0.0
 40
0.0
 40
0.4966820233
 40
1.0
 40
1.0
 40
1.0
 40
1.0
 10
86.19493058639999
 20
129.5147865963
 30
0.0
 10
86.2222762264
 20
129.3968170953
 30
0.0
 10
86.3225253953
 20
129.1678731129
 30
0.0
 10
86.4964811749
 20
128.9889596842
 30
0.0
 10
86.59591686829999
 20
128.9170458319
 30
0.0
  0
SPLINE
  5
2D0
330
206
100
AcDbEntity
  8
RUNDUNGEN
  6
Continuous
 62
     9
100
AcDbSpline
210
0.0
220
0.0
230
1.0
 70
     8
 71
     3
 72
     9
 73
     5
 74
     0
 42
0.0000000001
 43
0.0000000001
 40
0.0
 40
0.0
 40
0.0
 40
0.0
 40
0.4973561897
 40
1.0
 40
1.0
 40
1.0
 40
1.0
 10
86.2044232725
 20
129.5300776033
 30
0.0
 10
86.231520795
 20
129.4106362574
 30
0.0
 10
86.3325029229
 20
129.1789458299
 30
0.0
 10
86.51011111829999
 20
128.9995926152
 30
0.0
 10
86.61143438879999
 20
128.92849581
 30
0.0
  0
SPLINE
  5
2D1
330
206
100
AcDbEntity
  8
RUNDUNGEN
  6
Continuous
 62
     9
100
AcDbSpline
210
0.0
220
0.0
230
1.0
 70
     8
 71
     3
 72
     9
 73
     5
 74
     0
 42
0.0000000001
 43
0.0000000001
 40
0.0
 40
0.0
 40
0.0
 40
0.0
 40
0.5013468987
 40
1.0
 40
1.0
 40
1.0
 40
1.0
 10
86.25921798
 20
129.5491438037
 30
0.0
 10
86.2842374228
 20
129.4267882139
 30
0.0
 10
86.38042375659999
 20
129.1898731565
 30
0.0
 10
86.5574376352
 20
129.005113646
 30
0.0
 10
86.65868508690001
 20
128.9331507455
 30
0.0
  0
SPLINE
  5
2D2
330
206
100
AcDbEntity
  8
RUNDUNGEN
  6
Continuous
 62
     9
100
AcDbSpline
210
0.0
220
0.0
230
1.0
 70
     8
 71
     3
 72
     9
 73
     5
 74
     0
 42
0.0000000001
 43
0.0000000001
 40
0.0
 40
0.0
 40
0.0
 40
0.0
 40
0.5600480217000001
 40
1.0
 40
1.0
 40
1.0
 40
1.0
 10
138.5557933495
 20
129.5491443851
 30
0.0
 10
138.5600633793
 20
129.4333084714
 30
0.0
 10
138.5743966015
 20
129.2267827165
 30
0.0
 10
138.6054220806
 20
129.0214094231
 30
0.0
 10
138.6278094998
 20
128.9331463906
 30
0.0
  0
SPLINE
  5
2D3
330
206
100
AcDbEntity
  8
RUNDUNGEN
  6
Continuous
 62
     9
100
AcDbSpline
210
0.0
220
0.0
230
1.0
 70
     8
 71
     3
 72
     9
 73
     5
 74
     0
 42
0.0000000001
 43
0.0000000001
 40
0.0
 40
0.0
 40
0.0
 40
0.0
 40
0.5626247837000001
 40
1.0
 40
1.0
 40
1.0
 40
1.0
 10
138.8857942788
 20
129.5300840741
 30
0.0
 10
138.8625087821
 20
129.4183272004
 30
0.0
 10
138.8256864456
 20
129.2187806264
 30
0.0
 10
138.8002367161
 20
129.0170977132
 30
0.0
 10
138.7955507959
 20
128.9284777732
 30
0.0
  0
SPLINE
  5
2D4
330
206
100
AcDbEntity
  8
RUNDUNGEN
  6
Continuous
 62
     9
100
AcDbSpline
210
0.0
220
0.0
230
1.0
 70
     8
 71
     3
 72
     9
 73
     5
 74
     0
 42
0.0000000001
 43
0.0000000001
 40
0.0
 40
0.0
 40
0.0
 40
0.0
 40
0.5605201227000001
 40
1.0
 40
1.0
 40
1.0
 40
1.0
 10
138.9492841027
 20
129.5135881591
 30
0.0
 10
138.923565386
 20
129.4035700812
 30
0.0
 10
138.8842103255
 20
129.2058265267
 30
0.0
 10
138.8614479672
 20
129.004777748
 30
0.0
 10
138.8604829122
 20
128.9161969199
 30
0.0
  0
SPLINE
  5
2D5
330
206
100
AcDbEntity
  8
RUNDUNGEN
  6
Continuous
 62
     9
100
AcDbSpline
210
0.0
220
0.0
230
1.0
 70
     8
 71
     3
 72
     9
 73
     5
 74
     0
 42
0.0000000001
 43
0.0000000001
 40
0.0
 40
0.0
 40
0.0
 40
0.0
 40
0.5606673177000001
 40
1.0
 40
1.0
 40
1.0
 40
1.0
 10
138.9453128924
 20
120.9766322942
 30
0.0
 10
138.9197385607
 20
121.0867821298
 30
0.0
 10
138.8805338345
 20
121.2846719319
 30
0.0
 10
138.857597329
 20
121.4857927796
 30
0.0
 10
138.856408873
 20
121.5743928551
 30
0.0
  0
SPLINE
  5
2D6
330
206
100
AcDbEntity
  8
RUNDUNGEN
  6
Continuous
 62
     9
100
AcDbSpline
210
0.0
220
0.0
230
1.0
 70
     8
 71
     3
 72
     9
 73
     5
 74
     0
 42
0.0000000001
 43
0.0000000001
 40
0.0
 40
0.0
 40
0.0
 40
0.0
 40
0.5626308233000001
 40
1.0
 40
1.0
 40
1.0
 40
1.0
 10
138.8857875651
 20
120.9613427294
 30
0.0
 10
138.8625064128
 20
121.0731005634
 30
0.0
 10
138.8256892916
 20
121.2726459045
 30
0.0
 10
138.8002385157
 20
121.4743262999
 30
0.0
 10
138.795550053
 20
121.5629439664
 30
0.0
  0
SPLINE
  5
2D7
330
206
100
AcDbEntity
  8
RUNDUNGEN
  6
Continuous
 62
     9
100
AcDbSpline
210
0.0
220
0.0
230
1.0
 70
     8
 71
     3
 72
     9
 73
     5
 74
     0
 42
0.0000000001
 43
0.0000000001
 40
0.0
 40
0.0
 40
0.0
 40
0.0
 40
0.5600485109000001
 40
1.0
 40
1.0
 40
1.0
 40
1.0
 10
138.555793351
 20
120.9422751059
 30
0.0
 10
138.5600649358
 20
121.0581110253
 30
0.0
 10
138.5743993619
 20
121.2646365656
 30
0.0
 10
138.6054234326
 20
121.4700098587
 30
0.0
 10
138.6278095022
 20
121.5582730979
 30
0.0
  0
SPLINE
  5
2D8
330
206
100
AcDbEntity
  8
RUNDUNGEN
  6
Continuous
 62
     9
100
AcDbSpline
210
0.0
220
0.0
230
1.0
 70
     8
 71
     3
 72
     9
 73
     5
 74
     0
 42
0.0000000001
 43
0.0000000001
 40
0.0
 40
0.0
 40
0.0
 40
0.0
 40
0.5013472757999999
 40
1.0
 40
1.0
 40
1.0
 40
1.0
 10
86.25921798
 20
120.9422756874
 30
0.0
 10
86.2842377129
 20
121.0646312854
 30
0.0
 10
86.3804243519
 20
121.3015460686
 30
0.0
 10
86.5574378756
 20
121.486305719
 30
0.0
 10
86.65868508770001
 20
121.5582687465
 30
0.0
  0
SPLINE
  5
2D9
330
206
100
AcDbEntity
  8
RUNDUNGEN
  6
Continuous
 62
     9
100
AcDbSpline
210
0.0
220
0.0
230
1.0
 70
     8
 71
     3
 72
     9
 73
     5
 74
     0
 42
0.0000000001
 43
0.0000000001
 40
0.0
 40
0.0
 40
0.0
 40
0.0
 40
0.4973549273
 40
1.0
 40
1.0
 40
1.0
 40
1.0
 10
86.20446720809999
 20
120.9613335217
 30
0.0
 10
86.23155779660001
 20
121.0807729623
 30
0.0
 10
86.3325240358
 20
121.3124631132
 30
0.0
 10
86.51011801860001
 20
121.4918219597
 30
0.0
 10
86.6114355516
 20
121.5629220614
 30
0.0
  0
SPLINE
  5
2DA
330
206
100
AcDbEntity
  8
RUNDUNGEN
  6
Continuous
 62
     9
100
AcDbSpline
210
0.0
220
0.0
230
1.0
 70
     8
 71
     3
 72
     9
 73
     5
 74
     0
 42
0.0000000001
 43
0.0000000001
 40
0.0
 40
0.0
 40
0.0
 40
0.0
 40
0.4966380794
 40
1.0
 40
1.0
 40
1.0
 40
1.0
 10
86.19418375429999
 20
120.9778320394
 30
0.0
 10
86.2215579855
 20
121.0956788636
 30
0.0
 10
86.32175901249999
 20
121.3243871358
 30
0.0
 10
86.49543319899999
 20
121.5032413553
 30
0.0
 10
86.59471915500001
 20
121.5752034479
 30
0.0
  0
SPLINE
  5
2DB
330
206
100
AcDbEntity
  8
RUNDUNGEN
  6
Continuous
 62
     9
100
AcDbSpline
210
0.0
220
0.0
230
1.0
 70
     8
 71
     3
 72
     9
 73
     5
 74
     0
 42
0.0000000001
 43
0.0000000001
 40
0.0
 40
0.0
 40
0.0
 40
0.0
 40
0.5606618481
 40
1.0
 40
1.0
 40
1.0
 40
1.0
 10
161.1694044544
 20
129.5147865963
 30
0.0
 10
161.1949768917
 20
129.4046414116
 30
0.0
 10
161.234178923
 20
129.2067580471
 30
0.0
 10
161.257113167
 20
129.0056439869
 30
0.0
 10
161.2583017773
 20
128.9170458319
 30
0.0
  0
SPLINE
  5
2DC
330
206
100
AcDbEntity
  8
RUNDUNGEN
  6
Continuous
 62
     9
100
AcDbSpline
210
0.0
220
0.0
230
1.0
 70
     8
 71
     3
 72
     9
 73
     5
 74
     0
 42
0.0000000001
 43
0.0000000001
 40
0.0
 40
0.0
 40
0.0
 40
0.0
 40
0.5626253617
 40
1.0
 40
1.0
 40
1.0
 40
1.0
 10
161.22893704
 20
129.5300776033
 30
0.0
 10
161.2522162328
 20
129.4183243763
 30
0.0
 10
161.2890305961
 20
129.218785377
 30
0.0
 10
161.3144792668
 20
129.0171116174
 30
0.0
 10
161.3191679061
 20
128.92849581
 30
0.0
  0
SPLINE
  5
2DD
330
206
100
AcDbEntity
  8
RUNDUNGEN
  6
Continuous
 62
     9
100
AcDbSpline
210
0.0
220
0.0
230
1.0
 70
     8
 71
     3
 72
     9
 73
     5
 74
     0
 42
0.0000000001
 43
0.0000000001
 40
0.0
 40
0.0
 40
0.0
 40
0.0
 40
0.5600473860000001
 40
1.0
 40
1.0
 40
1.0
 40
1.0
 10
161.5589277341
 20
129.5491438037
 30
0.0
 10
161.5546557682
 20
129.4333090275
 30
0.0
 10
161.5403197718
 20
129.2267850932
 30
0.0
 10
161.5092946586
 20
129.0214138226
 30
0.0
 10
161.4869098645
 20
128.9331507455
 30
0.0
  0
SPLINE
  5
2DE
330
206
100
AcDbEntity
  8
RUNDUNGEN
  6
Continuous
 62
     9
100
AcDbSpline
210
0.0
220
0.0
230
1.0
 70
     8
 71
     3
 72
     9
 73
     5
 74
     0
 42
0.0000000001
 43
0.0000000001
 40
0.0
 40
0.0
 40
0.0
 40
0.0
 40
0.5013472409000001
 40
1.0
 40
1.0
 40
1.0
 40
1.0
 10
213.8555060894
 20
129.5491443851
 30
0.0
 10
213.8304860716
 20
129.4267874489
 30
0.0
 10
213.7342978366
 20
129.1898701178
 30
0.0
 10
213.557281137
 20
129.0051094036
 30
0.0
 10
213.4560322236
 20
128.9331463906
 30
0.0
  0
SPLINE
  5
2DF
330
206
100
AcDbEntity
  8
RUNDUNGEN
  6
Continuous
 62
     9
100
AcDbSpline
210
0.0
220
0.0
230
1.0
 70
     8
 71
     3
 72
     9
 73
     5
 74
     0
 42
0.0000000001
 43
0.0000000001
 40
0.0
 40
0.0
 40
0.0
 40
0.0
 40
0.4973549092000001
 40
1.0
 40
1.0
 40
1.0
 40
1.0
 10
213.9102627295
 20
129.5300840741
 30
0.0
 10
213.8831695596
 20
129.4106390853
 30
0.0
 10
213.7821936673
 20
129.1789390264
 30
0.0
 10
213.6045844773
 20
128.9995772266
 30
0.0
 10
213.5032590932
 20
128.9284777732
 30
0.0
  0
SPLINE
  5
2E0
330
206
100
AcDbEntity
  8
RUNDUNGEN
  6
Continuous
 62
     9
100
AcDbSpline
210
0.0
220
0.0
230
1.0
 70
     8
 71
     3
 72
     9
 73
     5
 74
     0
 42
0.0000000001
 43
0.0000000001
 40
0.0
 40
0.0
 40
0.0
 40
0.0
 40
0.4966378524000001
 40
1.0
 40
1.0
 40
1.0
 40
1.0
 10
213.9205390835
 20
129.5135881591
 30
0.0
 10
213.8931635541
 20
129.3957358283
 30
0.0
 10
213.7929553285
 20
129.1670171556
 30
0.0
 10
213.6192676082
 20
128.9881588855
 30
0.0
 10
213.5199743409
 20
128.9161969199
 30
0.0
  0
SPLINE
  5
2E1
330
206
100
AcDbEntity
  8
RUNDUNGEN
  6
Continuous
 62
     9
100
AcDbSpline
210
0.0
220
0.0
230
1.0
 70
     8
 71
     3
 72
     9
 73
     5
 74
     0
 42
0.0000000001
 43
0.0000000001
 40
0.0
 40
0.0
 40
0.0
 40
0.0
 40
0.4966817938000001
 40
1.0
 40
1.0
 40
1.0
 40
1.0
 10
213.9197923655
 20
120.9766322942
 30
0.0
 10
213.8924454212
 20
121.094607298
 30
0.0
 10
213.7921890421
 20
121.3235616727
 30
0.0
 10
213.6182197249
 20
121.5024791363
 30
0.0
 10
213.5187767235
 20
121.5743928551
 30
0.0
  0
SPLINE
  5
2E2
330
206
100
AcDbEntity
  8
RUNDUNGEN
  6
Continuous
 62
     9
100
AcDbSpline
210
0.0
220
0.0
230
1.0
 70
     8
 71
     3
 72
     9
 73
     5
 74
     0
 42
0.0000000001
 43
0.0000000001
 40
0.0
 40
0.0
 40
0.0
 40
0.0
 40
0.4973559317000001
 40
1.0
 40
1.0
 40
1.0
 40
1.0
 10
213.910301139
 20
120.9613427294
 30
0.0
 10
213.8832022974
 20
121.0807895344
 30
0.0
 10
213.7822129507
 20
121.3124902854
 30
0.0
 10
213.6045912365
 20
121.4918473835
 30
0.0
 10
213.5032607208
 20
121.5629439664
 30
0.0
  0
SPLINE
  5
2E3
330
206
100
AcDbEntity
  8
RUNDUNGEN
  6
Continuous
 62
     9
100
AcDbSpline
210
0.0
220
0.0
230
1.0
 70
     8
 71
     3
 72
     9
 73
     5
 74
     0
 42
0.0000000001
 43
0.0000000001
 40
0.0
 40
0.0
 40
0.0
 40
0.0
 40
0.5013470267
 40
1.0
 40
1.0
 40
1.0
 40
1.0
 10
213.8555060898
 20
120.9422751059
 30
0.0
 10
213.8304863631
 20
121.0646320666
 30
0.0
 10
213.7342982212
 20
121.3015495839
 30
0.0
 10
213.5572812694
 20
121.4863101399
 30
0.0
 10
213.4560322283
 20
121.5582730979
 30
0.0
  0
SPLINE
  5
2E4
330
206
100
AcDbEntity
  8
RUNDUNGEN
  6
Continuous
 62
     9
100
AcDbSpline
210
0.0
220
0.0
230
1.0
 70
     8
 71
     3
 72
     9
 73
     5
 74
     0
 42
0.0000000001
 43
0.0000000001
 40
0.0
 40
0.0
 40
0.0
 40
0.0
 40
0.5600467715999999
 40
1.0
 40
1.0
 40
1.0
 40
1.0
 10
161.5589277348
 20
120.9422756874
 30
0.0
 10
161.5546572845
 20
121.0581104458
 30
0.0
 10
161.5403233966
 20
121.2646345836
 30
0.0
 10
161.5092973754
 20
121.4700061836
 30
0.0
 10
161.4869098655
 20
121.5582687465
 30
0.0
  0
SPLINE
  5
2E5
330
206
100
AcDbEntity
  8
RUNDUNGEN
  6
Continuous
 62
     9
100
AcDbSpline
210
0.0
220
0.0
230
1.0
 70
     8
 71
     3
 72
     9
 73
     5
 74
     0
 42
0.0000000001
 43
0.0000000001
 40
0.0
 40
0.0
 40
0.0
 40
0.0
 40
0.5626186473
 40
1.0
 40
1.0
 40
1.0
 40
1.0
 10
161.2289293623
 20
120.9613335217
 30
0.0
 10
161.252213912
 20
121.0730858059
 30
0.0
 10
161.2890346512
 20
121.2726264915
 30
0.0
 10
161.3144819736
 20
121.4743035259
 30
0.0
 10
161.3191673723
 20
121.5629220614
 30
0.0
  0
SPLINE
  5
2E6
330
206
100
AcDbEntity
  8
RUNDUNGEN
  6
Continuous
 62
     9
100
AcDbSpline
210
0.0
220
0.0
230
1.0
 70
     8
 71
     3
 72
     9
 73
     5
 74
     0
 42
0.0000000001
 43
0.0000000001
 40
0.0
 40
0.0
 40
0.0
 40
0.0
 40
0.5605146533
 40
1.0
 40
1.0
 40
1.0
 40
1.0
 10
161.1654327959
 20
120.9778320394
 30
0.0
 10
161.1911496217
 20
121.087845462
 30
0.0
 10
161.2305019966
 20
121.2855825675
 30
0.0
 10
161.2532620877
 20
121.4866245464
 30
0.0
 10
161.2542272863
 20
121.5752034479
 30
0.0
  0
SPLINE
  5
2E7
330
206
100
AcDbEntity
  8
RUNDUNGEN
  6
Continuous
 62
     9
100
AcDbSpline
210
0.0
220
0.0
230
1.0
 70
     8
 71
     3
 72
    15
 73
    11
 74
     0
 42
0.0000000001
 43
0.0000000001
 40
0.0
 40
0.0
 40
0.0
 40
0.0
 40
0.096661975
 40
0.2165697922
 40
0.3536821072
 40
0.5000000141
 40
0.6463179205
 40
0.7834302315000001
 40
0.9033380408999999
 40
1.0
 40
1.0
 40
1.0
 40
1.0
 10
138.6278119688
 20
121.5582730979
 30
0.0
 10
138.5809241718
 20
121.7921530955
 30
0.0
 10
138.5031909478
 20
122.3215230746
 30
0.0
 10
138.4234946358
 20
123.1908519315
 30
0.0
 10
138.3733351385
 20
124.1851735172
 30
0.0
 10
138.3561254876
 20
125.2457098738
 30
0.0
 10
138.373335113
 20
126.3062462273
 30
0.0
 10
138.4234947479
 20
127.300567764
 30
0.0
 10
138.5031906988
 20
128.1698966039
 30
0.0
 10
138.5809245133
 20
128.6992664322
 30
0.0
 10
138.6278123067
 20
128.9331463906
 30
0.0
  0
SPLINE
  5
2E8
330
206
100
AcDbEntity
  8
RUNDUNGEN
  6
Continuous
 62
     9
100
AcDbSpline
210
0.0
220
0.0
230
1.0
 70
     8
 71
     3
 72
    15
 73
    11
 74
     0
 42
0.0000000001
 43
0.0000000001
 40
0.0
 40
0.0
 40
0.0
 40
0.0
 40
0.1246821898
 40
0.2496064664
 40
0.3747438612
 40
0.5000000367000001
 40
0.6252562121000001
 40
0.7503936062000001
 40
0.8753178890999999
 40
1.0
 40
1.0
 40
1.0
 40
1.0
 10
86.65868303280001
 20
128.9331507455
 30
0.0
 10
86.95941650379998
 20
128.7311522609
 30
0.0
 10
87.5168316517
 20
128.2549835646
 30
0.0
 10
88.16005677419999
 20
127.3637409649
 30
0.0
 10
88.56809214610001
 20
126.3400643589
 30
0.0
 10
88.70802361870001
 20
125.2457090801
 30
0.0
 10
88.56809182280001
 20
124.1513538193
 30
0.0
 10
88.1600560633
 20
123.1276774059
 30
0.0
 10
87.51683108889999
 20
122.2364348619
 30
0.0
 10
86.9594154526
 20
121.7602670818
 30
0.0
 10
86.65868215729998
 20
121.5582687465
 30
0.0
  0
SPLINE
  5
2E9
330
206
100
AcDbEntity
  8
RUNDUNGEN
  6
Continuous
 62
     9
100
AcDbSpline
210
0.0
220
0.0
230
1.0
 70
     8
 71
     3
 72
    15
 73
    11
 74
     0
 42
0.0000000001
 43
0.0000000001
 40
0.0
 40
0.0
 40
0.0
 40
0.0
 40
0.1246822902
 40
0.2496066123
 40
0.3747439501
 40
0.5000000124000001
 40
0.6252560753000001
 40
0.7503934123000001
 40
0.8753177315999998
 40
1.0
 40
1.0
 40
1.0
 40
1.0
 10
213.456032673
 20
121.5582730979
 30
0.0
 10
213.1552968197
 20
121.760267033
 30
0.0
 10
212.597889577
 20
122.2364445973
 30
0.0
 10
211.9546663715
 20
123.1276841475
 30
0.0
 10
211.5466340345
 20
124.151358597
 30
0.0
 10
211.4066961257
 20
125.245709879
 30
0.0
 10
211.546634101
 20
126.340061151
 30
0.0
 10
211.9546664961
 20
127.3637355641
 30
0.0
 10
212.5978896937
 20
128.2549750338
 30
0.0
 10
213.155296926
 20
128.7311524948
 30
0.0
 10
213.4560327296
 20
128.9331463906
 30
0.0
  0
SPLINE
  5
2EA
330
206
100
AcDbEntity
  8
RUNDUNGEN
  6
Continuous
 62
     9
100
AcDbSpline
210
0.0
220
0.0
230
1.0
 70
     8
 71
     3
 72
    15
 73
    11
 74
     0
 42
0.0000000001
 43
0.0000000001
 40
0.0
 40
0.0
 40
0.0
 40
0.0
 40
0.0966618069
 40
0.2165695434
 40
0.3536819244
 40
0.5000000364
 40
0.6463181429000001
 40
0.7834305071
 40
0.9033382205
 40
1.0
 40
1.0
 40
1.0
 40
1.0
 10
161.4868984705
 20
128.9331507455
 30
0.0
 10
161.5337903133
 20
128.6992715128
 30
0.0
 10
161.6115327311
 20
128.1699024712
 30
0.0
 10
161.6912434353
 20
127.300573599
 30
0.0
 10
161.7413985607
 20
126.3062488634
 30
0.0
 10
161.758572533
 20
125.2457091122
 30
0.0
 10
161.7413988759
 20
124.1851693106
 30
0.0
 10
161.6912420256
 20
123.1908449407
 30
0.0
 10
161.6115364984
 20
122.3215154895
 30
0.0
 10
161.5337854776
 20
121.7921479057
 30
0.0
 10
161.486893611
 20
121.5582687465
 30
0.0
  0
LINE
  5
2EB
330
206
100
AcDbEntity
  8
RUNDUNGEN
  6
Continuous
 62
     9
100
AcDbLine
 10
160.4220250365
 20
129.3457097458
 30
0.0
 11
160.4579454918
 21
128.475840847
 31
0.0
  0
LINE
  5
2EC
330
206
100
AcDbEntity
  8
RUNDUNGEN
  6
Continuous
 62
     9
100
AcDbLine
 10
160.4579525503
 20
122.0157496977
 30
0.0
 11
160.4220250363
 21
121.1457097458
 31
0.0
  0
SPLINE
  5
2ED
330
206
100
AcDbEntity
  8
RUNDUNGEN
  6
Continuous
 62
     9
100
AcDbSpline
210
0.0
220
0.0
230
1.0
 70
     8
 71
     3
 72
    15
 73
    11
 74
     0
 42
0.0000000001
 43
0.0000000001
 40
0.0
 40
0.0
 40
0.0
 40
0.0
 40
0.0323790039
 40
0.0589518896
 40
0.0935208003
 40
0.136124345
 40
0.1865894664
 40
0.3094907875
 40
0.6269438668000001
 40
1.0
 40
1.0
 40
1.0
 40
1.0
 10
140.6063406295
 20
130.3457097458
 30
0.0
 10
140.6174171639
 20
130.3457097458
 30
0.0
 10
140.6341939418
 20
130.3281536481
 30
0.0
 10
140.6481894628
 20
130.3006369515
 30
0.0
 10
140.660981704
 20
130.2670419433
 30
0.0
 10
140.6729351414
 20
130.2251615969
 30
0.0
 10
140.6893971941
 20
130.1530469248
 30
0.0
 10
140.7160933548
 20
129.9871913345
 30
0.0
 10
140.7391546639
 20
129.7095553417
 30
0.0
 10
140.7453262421
 20
129.4733285298
 30
0.0
 10
140.7453262421
 20
129.3457097458
 30
0.0
  0
ENDSEC
  0
SECTION
  2
OBJECTS
  0
DICTIONARY
  5
C
330
0
100
AcDbDictionary
281
     1
  3
ACAD_COLOR
350
31F
  3
ACAD_GROUP
350
D
  3
ACAD_LAYOUT
350
1A
  3
ACAD_MATERIAL
350
2F2
  3
ACAD_MLEADERSTYLE
350
334
  3
ACAD_MLINESTYLE
350
17
  3
ACAD_PLOTSETTINGS
350
19
  3
ACAD_PLOTSTYLENAME
350
E
  3
ACAD_SCALELIST
350
322
  3
ACAD_TABLESTYLE
350
320
  3
ACAD_VISUALSTYLE
350
30B
  3
ACDB_RECOMPOSE_DATA
350
42D
  3
AcDbVariableDictionary
350
41E
  3
AcmDictionary
350
38F
  3
AMG
350
339
  3
AMGSNAPSETTINGS
350
3D4
  3
DWGPROPS
350
42E
  0
DICTIONARY
  5
31F
102
{ACAD_REACTORS
330
C
102
}
330
C
100
AcDbDictionary
281
     1
  0
DICTIONARY
  5
D
102
{ACAD_REACTORS
330
C
102
}
330
C
100
AcDbDictionary
281
     1
  0
DICTIONARY
  5
1A
102
{ACAD_REACTORS
330
C
102
}
330
C
100
AcDbDictionary
281
     1
  3
Layout1
350
2EF
  3
Model
350
2EE
  0
DICTIONARY
  5
2F2
102
{ACAD_REACTORS
330
C
102
}
330
C
100
AcDbDictionary
281
     1
  3
ByBlock
350
2FB
  3
ByLayer
350
2F3
  3
Global
350
303
  0
DICTIONARY
  5
334
102
{ACAD_REACTORS
330
C
102
}
330
C
100
AcDbDictionary
281
     1
  3
Standard
350
335
  0
DICTIONARY
  5
17
102
{ACAD_REACTORS
330
C
102
}
330
C
100
AcDbDictionary
281
     1
  3
Standard
350
18
  0
DICTIONARY
  5
19
102
{ACAD_REACTORS
330
C
102
}
330
C
100
AcDbDictionary
281
     1
  0
ACDBDICTIONARYWDFLT
  5
E
102
{ACAD_REACTORS
330
C
102
}
330
C
100
AcDbDictionary
281
     1
  3
Normal
350
F
100
AcDbDictionaryWithDefault
340
F
  0
DICTIONARY
  5
322
102
{ACAD_REACTORS
330
C
102
}
330
C
100
AcDbDictionary
281
     1
  3
A0
350
323
  3
A1
350
324
  3
A2
350
325
  3
A3
350
326
  3
A4
350
327
  3
A5
350
328
  3
A6
350
329
  3
A7
350
32A
  3
A8
350
32B
  3
A9
350
32C
  3
B0
350
32D
  3
B1
350
32E
  3
B2
350
32F
  3
B3
350
330
  3
B4
350
331
  3
B5
350
332
  3
B6
350
333
  0
DICTIONARY
  5
320
102
{ACAD_REACTORS
330
C
102
}
330
C
100
AcDbDictionary
281
     1
  3
Standard
350
321
  0
DICTIONARY
  5
30B
102
{ACAD_REACTORS
330
C
102
}
330
C
100
AcDbDictionary
281
     1
  3
2dWireframe
350
311
  3
3D Hidden
350
313
  3
3dWireframe
350
312
  3
Basic
350
310
  3
Brighten
350
317
  3
ColorChange
350
31B
  3
Conceptual
350
314
  3
Dim
350
316
  3
EdgeColorOff
350
31E
  3
Facepattern
350
31A
  3
Flat
350
30C
  3
FlatWithEdges
350
30D
  3
Gouraud
350
30E
  3
GouraudWithEdges
350
30F
  3
JitterOff
350
31C
  3
Linepattern
350
319
  3
OverhangOff
350
31D
  3
Realistic
350
315
  3
Thicken
350
318
  0
XRECORD
  5
42D
102
{ACAD_REACTORS
330
C
102
}
330
C
100
AcDbXrecord
280
     1
 90
        1
330
321
  0
DICTIONARY
  5
41E
102
{ACAD_REACTORS
330
C
102
}
330
C
100
AcDbDictionary
281
     1
  3
CANNOSCALE
350
422
  3
CMLEADERSTYLE
350
420
  3
CTABLESTYLE
350
41F
  3
DIMASSOC
350
429
  3
HIDETEXT
350
428
  3
INDEXCTL
350
427
  3
LAYEREVAL
350
424
  3
LAYERNOTIFY
350
425
  3
LIGHTINGUNITS
350
423
  3
MSLTSCALE
350
421
  3
SORTENTS
350
426
  3
XCLIPFRAME
350
42A
  0
DICTIONARY
  5
38F
102
{ACAD_REACTORS
330
C
102
}
330
C
100
AcDbDictionary
281
     1
  3
AcmStdDictionary
350
399
  0
DICTIONARY
  5
339
102
{ACAD_REACTORS
330
C
102
}
330
C
100
AcDbDictionary
281
     1
  0
DICTIONARY
  5
3D4
102
{ACAD_REACTORS
330
C
102
}
330
C
100
AcDbDictionary
281
     1
  0
XRECORD
  5
42E
102
{ACAD_REACTORS
330
C
102
}
330
C
100
AcDbXrecord
280
     1
  1
DWGPROPS COOKIE
  2

  3

  4

  6

  7

  8
sheim
  9

300
=
301
=
302
=
303
=
304
=
305
=
306
=
307
=
308
=
309
=
 40
0.0021657175925926
 41
2456324.545835672
 42
2456324.548001018
  1

 90
        0
  0
LAYOUT
  5
2EF
102
{ACAD_XDICTIONARY
360
431
102
}
102
{ACAD_REACTORS
330
1A
102
}
330
1A
100
AcDbPlotSettings
  1

  2
none_device
  4
ISO_A4_(297.00_x_210.00_MM)
  6

 40
0.0
 41
0.0
 42
0.0
 43
0.0
 44
297.0
 45
210.0
 46
0.0
 47
0.0
 48
0.0
 49
0.0
140
0.0
141
0.0
142
1.0
143
1.0
 70
     0
 72
     1
 73
     0
 74
     0
  7

 75
     0
147
1.0
148
0.0
149
0.0
100
AcDbLayout
  1
Layout1
 70
     1
 71
     1
 10
0.0
 20
0.0
 11
12.0
 21
9.0
 12
0.0
 22
0.0
 32
0.0
 14
1.000000000000000E+20
 24
1.000000000000000E+20
 34
1.000000000000000E+20
 15
-1.000000000000000E+20
 25
-1.000000000000000E+20
 35
-1.000000000000000E+20
146
0.0
 13
0.0
 23
0.0
 33
0.0
 16
1.0
 26
0.0
 36
0.0
 17
0.0
 27
1.0
 37
0.0
 76
     0
330
207
  0
LAYOUT
  5
2EE
102
{ACAD_XDICTIONARY
360
42F
102
}
102
{ACAD_REACTORS
330
1A
102
}
330
1A
100
AcDbPlotSettings
  1

  2
none_device
  4
ISO_A4_(297.00_x_210.00_MM)
  6

 40
0.0
 41
0.0
 42
0.0
 43
0.0
 44
297.0
 45
210.0
 46
0.0
 47
0.0
 48
0.0
 49
0.0
140
0.0
141
0.0
142
1.0
143
1.0
 70
  1024
 72
     1
 73
     0
 74
     0
  7

 75
     0
147
1.0
148
0.0
149
0.0
100
AcDbLayout
  1
Model
 70
     0
 71
     0
 10
0.0
 20
0.0
 11
297.0
 21
210.0
 12
0.0
 22
0.0
 32
0.0
 14
0.0
 24
0.0
 34
0.0
 15
0.0
 25
0.0
 35
0.0
146
0.0
 13
0.0
 23
0.0
 33
0.0
 16
1.0
 26
0.0
 36
0.0
 17
0.0
 27
1.0
 37
0.0
 76
     0
330
206
331
1F4
  0
MATERIAL
  5
2FB
102
{ACAD_XDICTIONARY
360
2FC
102
}
102
{ACAD_REACTORS
330
2F2
102
}
330
2F2
100
AcDbMaterial
  1
ByBlock
 72
     0
 43
0.0008202099737533
 43
0.0
 43
0.0
 43
0.0
 43
0.0
 43
0.0008202099737533
 43
0.0
 43
0.0
 43
0.0
 43
0.0
 43
1.0
 43
0.0
 43
0.0
 43
0.0
 43
0.0
 43
1.0
 77
     0
 47
0.0008202099737533
 47
0.0
 47
0.0
 47
0.0
 47
0.0
 47
0.0008202099737533
 47
0.0
 47
0.0
 47
0.0
 47
0.0
 47
1.0
 47
0.0
 47
0.0
 47
0.0
 47
0.0
 47
1.0
171
     0
 49
0.0008202099737533
 49
0.0
 49
0.0
 49
0.0
 49
0.0
 49
0.0008202099737533
 49
0.0
 49
0.0
 49
0.0
 49
0.0
 49
1.0
 49
0.0
 49
0.0
 49
0.0
 49
0.0
 49
1.0
175
     0
142
0.0008202099737533
142
0.0
142
0.0
142
0.0
142
0.0
142
0.0008202099737533
142
0.0
142
0.0
142
0.0
142
0.0
142
1.0
142
0.0
142
0.0
142
0.0
142
0.0
142
1.0
179
     0
144
0.0008202099737533
144
0.0
144
0.0
144
0.0
144
0.0
144
0.0008202099737533
144
0.0
144
0.0
144
0.0
144
0.0
144
1.0
144
0.0
144
0.0
144
0.0
144
0.0
144
1.0
147
0.0008202099737533
147
0.0
147
0.0
147
0.0
147
0.0
147
0.0008202099737533
147
0.0
147
0.0
147
0.0
147
0.0
147
1.0
147
0.0
147
0.0
147
0.0
147
0.0
147
1.0
  0
MATERIAL
  5
2F3
102
{ACAD_XDICTIONARY
360
2F4
102
}
102
{ACAD_REACTORS
330
2F2
102
}
330
2F2
100
AcDbMaterial
  1
ByLayer
 72
     0
 43
0.0008202099737533
 43
0.0
 43
0.0
 43
0.0
 43
0.0
 43
0.0008202099737533
 43
0.0
 43
0.0
 43
0.0
 43
0.0
 43
1.0
 43
0.0
 43
0.0
 43
0.0
 43
0.0
 43
1.0
 77
     0
 47
0.0008202099737533
 47
0.0
 47
0.0
 47
0.0
 47
0.0
 47
0.0008202099737533
 47
0.0
 47
0.0
 47
0.0
 47
0.0
 47
1.0
 47
0.0
 47
0.0
 47
0.0
 47
0.0
 47
1.0
171
     0
 49
0.0008202099737533
 49
0.0
 49
0.0
 49
0.0
 49
0.0
 49
0.0008202099737533
 49
0.0
 49
0.0
 49
0.0
 49
0.0
 49
1.0
 49
0.0
 49
0.0
 49
0.0
 49
0.0
 49
1.0
175
     0
142
0.0008202099737533
142
0.0
142
0.0
142
0.0
142
0.0
142
0.0008202099737533
142
0.0
142
0.0
142
0.0
142
0.0
142
1.0
142
0.0
142
0.0
142
0.0
142
0.0
142
1.0
179
     0
144
0.0008202099737533
144
0.0
144
0.0
144
0.0
144
0.0
144
0.0008202099737533
144
0.0
144
0.0
144
0.0
144
0.0
144
1.0
144
0.0
144
0.0
144
0.0
144
0.0
144
1.0
147
0.0008202099737533
147
0.0
147
0.0
147
0.0
147
0.0
147
0.0008202099737533
147
0.0
147
0.0
147
0.0
147
0.0
147
1.0
147
0.0
147
0.0
147
0.0
147
0.0
147
1.0
  0
MATERIAL
  5
303
102
{ACAD_XDICTIONARY
360
304
102
}
102
{ACAD_REACTORS
330
2F2
102
}
330
2F2
100
AcDbMaterial
  1
Global
 72
     0
 43
0.0008202099737533
 43
0.0
 43
0.0
 43
0.0
 43
0.0
 43
0.0008202099737533
 43
0.0
 43
0.0
 43
0.0
 43
0.0
 43
1.0
 43
0.0
 43
0.0
 43
0.0
 43
0.0
 43
1.0
 77
     0
 47
0.0008202099737533
 47
0.0
 47
0.0
 47
0.0
 47
0.0
 47
0.0008202099737533
 47
0.0
 47
0.0
 47
0.0
 47
0.0
 47
1.0
 47
0.0
 47
0.0
 47
0.0
 47
0.0
 47
1.0
171
     0
 49
0.0008202099737533
 49
0.0
 49
0.0
 49
0.0
 49
0.0
 49
0.0008202099737533
 49
0.0
 49
0.0
 49
0.0
 49
0.0
 49
1.0
 49
0.0
 49
0.0
 49
0.0
 49
0.0
 49
1.0
175
     0
142
0.0008202099737533
142
0.0
142
0.0
142
0.0
142
0.0
142
0.0008202099737533
142
0.0
142
0.0
142
0.0
142
0.0
142
1.0
142
0.0
142
0.0
142
0.0
142
0.0
142
1.0
179
     0
144
0.0008202099737533
144
0.0
144
0.0
144
0.0
144
0.0
144
0.0008202099737533
144
0.0
144
0.0
144
0.0
144
0.0
144
1.0
144
0.0
144
0.0
144
0.0
144
0.0
144
1.0
147
0.0008202099737533
147
0.0
147
0.0
147
0.0
147
0.0
147
0.0008202099737533
147
0.0
147
0.0
147
0.0
147
0.0
147
1.0
147
0.0
147
0.0
147
0.0
147
0.0
147
1.0
  0
MLEADERSTYLE
  5
335
102
{ACAD_REACTORS
330
334
102
}
330
334
100
AcDbMLeaderStyle
170
     2
171
     1
172
     0
 90
        2
 40
0.0
 41
0.0
173
     1
 91
-1056964608
340
14
 92
       -2
290
     1
 42
2.0
291
     1
 43
0.36
  3
Standard
 44
4.0
300

342
11
174
     1
178
     6
175
     1
176
     0
 93
-1056964608
 45
4.0
292
     0
297
     0
 46
4.0
 94
-1056964608
 47
1.0
 49
1.0
140
1.0
293
     1
141
0.0
294
     1
177
     0
142
1.0
295
     0
296
     0
143
0.125
1001
ACAD_MLEADERVER
1070
     2
  0
MLINESTYLE
  5
18
102
{ACAD_REACTORS
330
17
102
}
330
17
100
AcDbMlineStyle
  2
STANDARD
 70
     0
  3

 62
   256
 51
90.0
 52
90.0
 71
     2
 49
0.5
 62
   256
  6
BYLAYER
 49
-0.5
 62
   256
  6
BYLAYER
  0
ACDBPLACEHOLDER
  5
F
102
{ACAD_REACTORS
330
E
102
}
330
E
  0
SCALE
  5
323
102
{ACAD_REACTORS
330
322
102
}
330
322
100
AcDbScale
 70
     0
300
1:1
140
1.0
141
1.0
290
     1
  0
SCALE
  5
324
102
{ACAD_REACTORS
330
322
102
}
330
322
100
AcDbScale
 70
     0
300
1:2
140
1.0
141
2.0
290
     0
  0
SCALE
  5
325
102
{ACAD_REACTORS
330
322
102
}
330
322
100
AcDbScale
 70
     0
300
1:4
140
1.0
141
4.0
290
     0
  0
SCALE
  5
326
102
{ACAD_REACTORS
330
322
102
}
330
322
100
AcDbScale
 70
     0
300
1:5
140
1.0
141
5.0
290
     0
  0
SCALE
  5
327
102
{ACAD_REACTORS
330
322
102
}
330
322
100
AcDbScale
 70
     0
300
1:8
140
1.0
141
8.0
290
     0
  0
SCALE
  5
328
102
{ACAD_REACTORS
330
322
102
}
330
322
100
AcDbScale
 70
     0
300
1:10
140
1.0
141
10.0
290
     0
  0
SCALE
  5
329
102
{ACAD_REACTORS
330
322
102
}
330
322
100
AcDbScale
 70
     0
300
1:16
140
1.0
141
16.0
290
     0
  0
SCALE
  5
32A
102
{ACAD_REACTORS
330
322
102
}
330
322
100
AcDbScale
 70
     0
300
1:20
140
1.0
141
20.0
290
     0
  0
SCALE
  5
32B
102
{ACAD_REACTORS
330
322
102
}
330
322
100
AcDbScale
 70
     0
300
1:30
140
1.0
141
30.0
290
     0
  0
SCALE
  5
32C
102
{ACAD_REACTORS
330
322
102
}
330
322
100
AcDbScale
 70
     0
300
1:40
140
1.0
141
40.0
290
     0
  0
SCALE
  5
32D
102
{ACAD_REACTORS
330
322
102
}
330
322
100
AcDbScale
 70
     0
300
1:50
140
1.0
141
50.0
290
     0
  0
SCALE
  5
32E
102
{ACAD_REACTORS
330
322
102
}
330
322
100
AcDbScale
 70
     0
300
1:100
140
1.0
141
100.0
290
     0
  0
SCALE
  5
32F
102
{ACAD_REACTORS
330
322
102
}
330
322
100
AcDbScale
 70
     0
300
2:1
140
2.0
141
1.0
290
     0
  0
SCALE
  5
330
102
{ACAD_REACTORS
330
322
102
}
330
322
100
AcDbScale
 70
     0
300
4:1
140
4.0
141
1.0
290
     0
  0
SCALE
  5
331
102
{ACAD_REACTORS
330
322
102
}
330
322
100
AcDbScale
 70
     0
300
8:1
140
8.0
141
1.0
290
     0
  0
SCALE
  5
332
102
{ACAD_REACTORS
330
322
102
}
330
322
100
AcDbScale
 70
     0
300
10:1
140
10.0
141
1.0
290
     0
  0
SCALE
  5
333
102
{ACAD_REACTORS
330
322
102
}
330
322
100
AcDbScale
 70
     0
300
100:1
140
100.0
141
1.0
290
     0
  0
TABLESTYLE
  5
321
102
{ACAD_XDICTIONARY
360
42B
102
}
102
{ACAD_REACTORS
330
320
102
}
330
320
100
AcDbTableStyle
  3
Standard
 70
     0
 71
     0
 40
1.5
 41
1.5
280
     0
281
     0
  7
STANDARD
140
4.5
170
     2
 62
     0
 63
     7
283
     0
274
    -2
284
     1
 64
     0
275
    -2
285
     1
 65
     0
276
    -2
286
     1
 66
     0
277
    -2
287
     1
 67
     0
278
    -2
288
     1
 68
     0
279
    -2
289
     1
 69
     0
  7
STANDARD
140
6.0
170
     5
 62
     0
 63
     7
283
     0
274
    -2
284
     1
 64
     0
275
    -2
285
     1
 65
     0
276
    -2
286
     1
 66
     0
277
    -2
287
     1
 67
     0
278
    -2
288
     1
 68
     0
279
    -2
289
     1
 69
     0
  7
STANDARD
140
4.5
170
     5
 62
     0
 63
     7
283
     0
274
    -2
284
     1
 64
     0
275
    -2
285
     1
 65
     0
276
    -2
286
     1
 66
     0
277
    -2
287
     1
 67
     0
278
    -2
288
     1
 68
     0
279
    -2
289
     1
 69
     0
  0
VISUALSTYLE
  5
311
102
{ACAD_XDICTIONARY
360
440
102
}
102
{ACAD_REACTORS
330
30B
102
}
330
30B
100
AcDbVisualStyle
  2
2dWireframe
 70
     4
 71
     0
 72
     2
 73
     0
 90
        0
 40
-0.6
 41
-30.0
 62
     5
 63
     7
 74
     1
 91
        4
 64
     7
 65
   257
 75
     1
175
     1
 42
1.0
 92
        0
 66
   257
 43
1.0
 76
     1
 77
     6
 78
     2
 67
     7
 79
     5
170
     0
171
     0
290
     0
174
     0
 93
        1
 44
0.0
173
     0
291
     0
 45
0.0
1001
ACAD
1000
AcDbSavedByObjectVersion
1070
     0
  0
VISUALSTYLE
  5
313
102
{ACAD_XDICTIONARY
360
444
102
}
102
{ACAD_REACTORS
330
30B
102
}
330
30B
100
AcDbVisualStyle
  2
3D Hidden
 70
     6
 71
     1
 72
     2
 73
     2
 90
        0
 40
-0.6
 41
-30.0
 62
     5
 63
     7
 74
     2
 91
        2
 64
     7
 65
   257
 75
     2
175
     1
 42
179.0
 92
        0
 66
   257
 43
1.0
 76
     1
 77
     6
 78
     2
 67
     7
 79
     3
170
     0
171
     0
290
     0
174
     0
 93
        1
 44
0.0
173
     0
291
     0
 45
0.0
1001
ACAD
1000
AcDbSavedByObjectVersion
1070
     0
  0
VISUALSTYLE
  5
312
102
{ACAD_XDICTIONARY
360
442
102
}
102
{ACAD_REACTORS
330
30B
102
}
330
30B
100
AcDbVisualStyle
  2
3dWireframe
 70
     5
 71
     0
 72
     2
 73
     0
 90
        0
 40
-0.6
 41
-30.0
 62
     5
 63
     7
 74
     1
 91
        4
 64
     7
 65
   257
 75
     1
175
     1
 42
1.0
 92
        0
 66
   257
 43
1.0
 76
     1
 77
     6
 78
     2
 67
     7
 79
     5
170
     0
171
     0
290
     0
174
     0
 93
        1
 44
0.0
173
     0
291
     0
 45
0.0
1001
ACAD
1000
AcDbSavedByObjectVersion
1070
     0
  0
VISUALSTYLE
  5
310
102
{ACAD_XDICTIONARY
360
43E
102
}
102
{ACAD_REACTORS
330
30B
102
}
330
30B
100
AcDbVisualStyle
  2
Basic
 70
     7
 71
     1
 72
     0
 73
     1
 90
        0
 40
-0.6
 41
-30.0
 62
     5
 63
     7
 74
     0
 91
        4
 64
     7
 65
   257
 75
     1
175
     1
 42
1.0
 92
        8
 66
     7
 43
1.0
 76
     1
 77
     6
 78
     2
 67
     7
 79
     5
170
     0
171
     0
290
     0
174
     0
 93
        1
 44
0.0
173
     0
291
     1
 45
0.0
1001
ACAD
1000
AcDbSavedByObjectVersion
1070
     0
  0
VISUALSTYLE
  5
317
102
{ACAD_XDICTIONARY
360
44C
102
}
102
{ACAD_REACTORS
330
30B
102
}
330
30B
100
AcDbVisualStyle
  2
Brighten
 70
    12
 71
     2
 72
     2
 73
     0
 90
        0
 40
-0.6
 41
-30.0
 62
     5
 63
     7
 74
     1
 91
        4
 64
     7
 65
   257
 75
     1
175
     1
 42
1.0
 92
        8
 66
     7
 43
1.0
 76
     1
 77
     6
 78
     2
 67
     7
 79
     5
170
     0
171
     0
290
     0
174
     0
 93
        1
 44
50.0
173
     0
291
     1
 45
0.0
1001
ACAD
1000
AcDbSavedByObjectVersion
1070
     0
  0
VISUALSTYLE
  5
31B
102
{ACAD_XDICTIONARY
360
454
102
}
102
{ACAD_REACTORS
330
30B
102
}
330
30B
100
AcDbVisualStyle
  2
ColorChange
 70
    16
 71
     2
 72
     2
 73
     3
 90
        0
 40
-0.6
 41
-30.0
 62
     5
 63
     8
 74
     1
 91
        4
 64
     7
 65
   257
 75
     1
175
     1
 42
1.0
 92
        8
 66
     8
 43
1.0
 76
     1
 77
     6
 78
     2
 67
     7
 79
     5
170
     0
171
     0
290
     0
174
     0
 93
        1
 44
0.0
173
     0
291
     1
 45
0.0
1001
ACAD
1000
AcDbSavedByObjectVersion
1070
     0
  0
VISUALSTYLE
  5
314
102
{ACAD_XDICTIONARY
360
446
102
}
102
{ACAD_REACTORS
330
30B
102
}
330
30B
100
AcDbVisualStyle
  2
Conceptual
 70
     9
 71
     3
 72
     2
 73
     0
 90
        0
 40
-0.6
 41
-30.0
 62
     5
 63
     7
 74
     2
 91
        2
 64
     7
 65
   257
 75
     1
175
     1
 42
179.0
 92
        8
 66
     7
 43
1.0
 76
     1
 77
     6
 78
     2
 67
     7
 79
     3
170
     0
171
     0
290
     0
174
     0
 93
        1
 44
0.0
173
     0
291
     0
 45
0.0
1001
ACAD
1000
AcDbSavedByObjectVersion
1070
     0
  0
VISUALSTYLE
  5
316
102
{ACAD_XDICTIONARY
360
44A
102
}
102
{ACAD_REACTORS
330
30B
102
}
330
30B
100
AcDbVisualStyle
  2
Dim
 70
    11
 71
     2
 72
     2
 73
     0
 90
        0
 40
-0.6
 41
-30.0
 62
     5
 63
     7
 74
     1
 91
        4
 64
     7
 65
   257
 75
     1
175
     1
 42
1.0
 92
        8
 66
     7
 43
1.0
 76
     1
 77
     6
 78
     2
 67
     7
 79
     5
170
     0
171
     0
290
     0
174
     0
 93
        1
 44
-50.0
173
     0
291
     1
 45
0.0
1001
ACAD
1000
AcDbSavedByObjectVersion
1070
     0
  0
VISUALSTYLE
  5
31E
102
{ACAD_XDICTIONARY
360
45A
102
}
102
{ACAD_REACTORS
330
30B
102
}
330
30B
100
AcDbVisualStyle
  2
EdgeColorOff
 70
    22
 71
     2
 72
     2
 73
     0
 90
        0
 40
-0.6
 41
-30.0
 62
     5
 63
     7
 74
     1
 91
        4
 64
     7
 65
   257
 75
     1
175
     1
 42
1.0
 92
        8
 66
     7
 43
1.0
 76
     1
 77
     6
 78
     2
 67
     7
 79
     5
170
     0
171
     0
290
     0
174
     0
 93
        1
 44
0.0
173
     0
291
     1
 45
0.0
1001
ACAD
1000
AcDbSavedByObjectVersion
1070
     0
  0
VISUALSTYLE
  5
31A
102
{ACAD_XDICTIONARY
360
452
102
}
102
{ACAD_REACTORS
330
30B
102
}
330
30B
100
AcDbVisualStyle
  2
Facepattern
 70
    15
 71
     2
 72
     2
 73
     0
 90
        0
 40
-0.6
 41
-30.0
 62
     5
 63
     7
 74
     1
 91
        4
 64
     7
 65
   257
 75
     1
175
     1
 42
1.0
 92
        8
 66
     7
 43
1.0
 76
     1
 77
     6
 78
     2
 67
     7
 79
     5
170
     0
171
     0
290
     0
174
     0
 93
        1
 44
0.0
173
     0
291
     1
 45
0.0
1001
ACAD
1000
AcDbSavedByObjectVersion
1070
     0
  0
VISUALSTYLE
  5
30C
102
{ACAD_XDICTIONARY
360
436
102
}
102
{ACAD_REACTORS
330
30B
102
}
330
30B
100
AcDbVisualStyle
  2
Flat
 70
     0
 71
     2
 72
     1
 73
     1
 90
        2
 40
-0.6
 41
30.0
 62
     5
 63
     7
 74
     0
 91
        4
 64
     7
 65
   257
 75
     1
175
     1
 42
1.0
 92
        8
 66
     7
 43
1.0
 76
     1
 77
     6
 78
     2
 67
     7
 79
     5
170
     0
171
     0
290
     0
174
     0
 93
       13
 44
0.0
173
     0
291
     1
 45
0.0
1001
ACAD
1000
AcDbSavedByObjectVersion
1070
     0
  0
VISUALSTYLE
  5
30D
102
{ACAD_XDICTIONARY
360
438
102
}
102
{ACAD_REACTORS
330
30B
102
}
330
30B
100
AcDbVisualStyle
  2
FlatWithEdges
 70
     1
 71
     2
 72
     1
 73
     1
 90
        2
 40
-0.6
 41
30.0
 62
     5
 63
     7
 74
     1
 91
        4
 64
     7
 65
   257
 75
     1
175
     1
 42
1.0
 92
        0
 66
   257
 43
1.0
 76
     1
 77
     6
 78
     2
 67
     7
 79
     5
170
     0
171
     0
290
     0
174
     0
 93
       13
 44
0.0
173
     0
291
     1
 45
0.0
1001
ACAD
1000
AcDbSavedByObjectVersion
1070
     0
  0
VISUALSTYLE
  5
30E
102
{ACAD_XDICTIONARY
360
43A
102
}
102
{ACAD_REACTORS
330
30B
102
}
330
30B
100
AcDbVisualStyle
  2
Gouraud
 70
     2
 71
     2
 72
     2
 73
     1
 90
        2
 40
-0.6
 41
30.0
 62
     5
 63
     7
 74
     0
 91
        4
 64
     7
 65
   257
 75
     1
175
     1
 42
1.0
 92
        0
 66
     7
 43
1.0
 76
     1
 77
     6
 78
     2
 67
     7
 79
     5
170
     0
171
     0
290
     0
174
     0
 93
       13
 44
0.0
173
     0
291
     1
 45
0.0
1001
ACAD
1000
AcDbSavedByObjectVersion
1070
     0
  0
VISUALSTYLE
  5
30F
102
{ACAD_XDICTIONARY
360
43C
102
}
102
{ACAD_REACTORS
330
30B
102
}
330
30B
100
AcDbVisualStyle
  2
GouraudWithEdges
 70
     3
 71
     2
 72
     2
 73
     1
 90
        2
 40
-0.6
 41
30.0
 62
     5
 63
     7
 74
     1
 91
        4
 64
     7
 65
   257
 75
     1
175
     1
 42
1.0
 92
        0
 66
   257
 43
1.0
 76
     1
 77
     6
 78
     2
 67
     7
 79
     5
170
     0
171
     0
290
     0
174
     0
 93
       13
 44
0.0
173
     0
291
     1
 45
0.0
1001
ACAD
1000
AcDbSavedByObjectVersion
1070
     0
  0
VISUALSTYLE
  5
31C
102
{ACAD_XDICTIONARY
360
456
102
}
102
{ACAD_REACTORS
330
30B
102
}
330
30B
100
AcDbVisualStyle
  2
JitterOff
 70
    20
 71
     2
 72
     2
 73
     0
 90
        0
 40
-0.6
 41
-30.0
 62
     5
 63
     7
 74
     1
 91
        4
 64
     7
 65
   257
 75
     1
175
     1
 42
1.0
 92
       10
 66
     7
 43
1.0
 76
     1
 77
     6
 78
     2
 67
     7
 79
     5
170
     0
171
     0
290
     0
174
     0
 93
        1
 44
0.0
173
     0
291
     1
 45
0.0
1001
ACAD
1000
AcDbSavedByObjectVersion
1070
     0
  0
VISUALSTYLE
  5
319
102
{ACAD_XDICTIONARY
360
450
102
}
102
{ACAD_REACTORS
330
30B
102
}
330
30B
100
AcDbVisualStyle
  2
Linepattern
 70
    14
 71
     2
 72
     2
 73
     0
 90
        0
 40
-0.6
 41
-30.0
 62
     5
 63
     7
 74
     1
 91
        4
 64
     7
 65
   257
 75
     7
175
     7
 42
1.0
 92
        8
 66
     7
 43
1.0
 76
     1
 77
     6
 78
     2
 67
     7
 79
     5
170
     0
171
     0
290
     0
174
     0
 93
        1
 44
0.0
173
     0
291
     1
 45
0.0
1001
ACAD
1000
AcDbSavedByObjectVersion
1070
     0
  0
VISUALSTYLE
  5
31D
102
{ACAD_XDICTIONARY
360
458
102
}
102
{ACAD_REACTORS
330
30B
102
}
330
30B
100
AcDbVisualStyle
  2
OverhangOff
 70
    21
 71
     2
 72
     2
 73
     0
 90
        0
 40
-0.6
 41
-30.0
 62
     5
 63
     7
 74
     1
 91
        4
 64
     7
 65
   257
 75
     1
175
     1
 42
1.0
 92
        9
 66
     7
 43
1.0
 76
     1
 77
     6
 78
     2
 67
     7
 79
     5
170
     0
171
     0
290
     0
174
     0
 93
        1
 44
0.0
173
     0
291
     1
 45
0.0
1001
ACAD
1000
AcDbSavedByObjectVersion
1070
     0
  0
VISUALSTYLE
  5
315
102
{ACAD_XDICTIONARY
360
448
102
}
102
{ACAD_REACTORS
330
30B
102
}
330
30B
100
AcDbVisualStyle
  2
Realistic
 70
     8
 71
     2
 72
     2
 73
     0
 90
        0
 40
-0.6
 41
-30.0
 62
     5
 63
     7
 74
     1
 91
        0
 64
     7
 65
   257
 75
     1
175
     1
 42
1.0
 92
        8
 66
     8
 43
1.0
 76
     1
 77
     6
 78
     2
 67
     7
 79
     5
170
     0
171
     0
290
     0
174
     0
 93
       13
 44
0.0
173
     0
291
     0
 45
0.0
1001
ACAD
1000
AcDbSavedByObjectVersion
1070
     0
  0
VISUALSTYLE
  5
318
102
{ACAD_XDICTIONARY
360
44E
102
}
102
{ACAD_REACTORS
330
30B
102
}
330
30B
100
AcDbVisualStyle
  2
Thicken
 70
    13
 71
     2
 72
     2
 73
     0
 90
        0
 40
-0.6
 41
-30.0
 62
     5
 63
     7
 74
     1
 91
        4
 64
     7
 65
   257
 75
     1
175
     1
 42
1.0
 92
       12
 66
     7
 43
1.0
 76
     1
 77
     6
 78
     2
 67
     7
 79
     5
170
     0
171
     0
290
     0
174
     0
 93
        1
 44
0.0
173
     0
291
     1
 45
0.0
1001
ACAD
1000
AcDbSavedByObjectVersion
1070
     0
  0
DICTIONARYVAR
  5
422
102
{ACAD_REACTORS
330
41E
102
}
330
41E
100
DictionaryVariables
280
     0
  1
1:1
  0
DICTIONARYVAR
  5
420
102
{ACAD_REACTORS
330
41E
102
}
330
41E
100
DictionaryVariables
280
     0
  1
STANDARD
  0
DICTIONARYVAR
  5
41F
102
{ACAD_REACTORS
330
41E
102
}
330
41E
100
DictionaryVariables
280
     0
  1
STANDARD
  0
DICTIONARYVAR
  5
429
102
{ACAD_REACTORS
330
41E
102
}
330
41E
100
DictionaryVariables
280
     0
  1
2
  0
DICTIONARYVAR
  5
428
102
{ACAD_REACTORS
330
41E
102
}
330
41E
100
DictionaryVariables
280
     0
  1
1
  0
DICTIONARYVAR
  5
427
102
{ACAD_REACTORS
330
41E
102
}
330
41E
100
DictionaryVariables
280
     0
  1
0
  0
DICTIONARYVAR
  5
424
102
{ACAD_REACTORS
330
41E
102
}
330
41E
100
DictionaryVariables
280
     0
  1
0
  0
DICTIONARYVAR
  5
425
102
{ACAD_REACTORS
330
41E
102
}
330
41E
100
DictionaryVariables
280
     0
  1
0
  0
DICTIONARYVAR
  5
423
102
{ACAD_REACTORS
330
41E
102
}
330
41E
100
DictionaryVariables
280
     0
  1
2
  0
DICTIONARYVAR
  5
421
102
{ACAD_REACTORS
330
41E
102
}
330
41E
100
DictionaryVariables
280
     0
  1
1
  0
DICTIONARYVAR
  5
426
102
{ACAD_REACTORS
330
41E
102
}
330
41E
100
DictionaryVariables
280
     0
  1
127
  0
DICTIONARYVAR
  5
42A
102
{ACAD_REACTORS
330
41E
102
}
330
41E
100
DictionaryVariables
280
     0
  1
2
  0
DICTIONARY
  5
399
102
{ACAD_REACTORS
330
38F
102
}
330
38F
100
AcDbDictionary
281
     1
  0
DICTIONARY
  5
431
330
2EF
100
AcDbDictionary
280
     1
281
     1
  3
ACAD_XREC_ROUNDTRIP
360
432
  0
DICTIONARY
  5
42F
330
2EE
100
AcDbDictionary
280
     1
281
     1
  3
ACAD_XREC_ROUNDTRIP
360
430
  0
DICTIONARY
  5
2FC
330
2FB
100
AcDbDictionary
280
     1
281
     1
  3
ACAD_XREC_ROUNDTRIP
360
434
  3
BUMPTILE
360
2FE
  3
DIFFUSETILE
360
2FD
  3
OPACITYTILE
360
301
  3
REFLECTIONTILE
360
300
  3
REFRACTIONTILE
360
302
  3
SPECULARTILE
360
2FF
  0
DICTIONARY
  5
2F4
330
2F3
100
AcDbDictionary
280
     1
281
     1
  3
ACAD_XREC_ROUNDTRIP
360
433
  3
BUMPTILE
360
2F6
  3
DIFFUSETILE
360
2F5
  3
OPACITYTILE
360
2F9
  3
REFLECTIONTILE
360
2F8
  3
REFRACTIONTILE
360
2FA
  3
SPECULARTILE
360
2F7
  0
DICTIONARY
  5
304
330
303
100
AcDbDictionary
280
     1
281
     1
  3
ACAD_XREC_ROUNDTRIP
360
435
  3
BUMPTILE
360
306
  3
DIFFUSETILE
360
305
  3
OPACITYTILE
360
309
  3
REFLECTIONTILE
360
308
  3
REFRACTIONTILE
360
30A
  3
SPECULARTILE
360
307
  0
DICTIONARY
  5
42B
330
321
100
AcDbDictionary
280
     1
281
     1
  3
ACAD_ROUNDTRIP_2008_TABLESTYLE_CELLSTYLEMAP
360
42C
  3
ACAD_XREC_ROUNDTRIP
360
45C
  0
DICTIONARY
  5
440
330
311
100
AcDbDictionary
280
     1
281
     1
  3
ACAD_XREC_ROUNDTRIP
360
441
  0
DICTIONARY
  5
444
330
313
100
AcDbDictionary
280
     1
281
     1
  3
ACAD_XREC_ROUNDTRIP
360
445
  0
DICTIONARY
  5
442
330
312
100
AcDbDictionary
280
     1
281
     1
  3
ACAD_XREC_ROUNDTRIP
360
443
  0
DICTIONARY
  5
43E
330
310
100
AcDbDictionary
280
     1
281
     1
  3
ACAD_XREC_ROUNDTRIP
360
43F
  0
DICTIONARY
  5
44C
330
317
100
AcDbDictionary
280
     1
281
     1
  3
ACAD_XREC_ROUNDTRIP
360
44D
  0
DICTIONARY
  5
454
330
31B
100
AcDbDictionary
280
     1
281
     1
  3
ACAD_XREC_ROUNDTRIP
360
455
  0
DICTIONARY
  5
446
330
314
100
AcDbDictionary
280
     1
281
     1
  3
ACAD_XREC_ROUNDTRIP
360
447
  0
DICTIONARY
  5
44A
330
316
100
AcDbDictionary
280
     1
281
     1
  3
ACAD_XREC_ROUNDTRIP
360
44B
  0
DICTIONARY
  5
45A
330
31E
100
AcDbDictionary
280
     1
281
     1
  3
ACAD_XREC_ROUNDTRIP
360
45B
  0
DICTIONARY
  5
452
330
31A
100
AcDbDictionary
280
     1
281
     1
  3
ACAD_XREC_ROUNDTRIP
360
453
  0
DICTIONARY
  5
436
330
30C
100
AcDbDictionary
280
     1
281
     1
  3
ACAD_XREC_ROUNDTRIP
360
437
  0
DICTIONARY
  5
438
330
30D
100
AcDbDictionary
280
     1
281
     1
  3
ACAD_XREC_ROUNDTRIP
360
439
  0
DICTIONARY
  5
43A
330
30E
100
AcDbDictionary
280
     1
281
     1
  3
ACAD_XREC_ROUNDTRIP
360
43B
  0
DICTIONARY
  5
43C
330
30F
100
AcDbDictionary
280
     1
281
     1
  3
ACAD_XREC_ROUNDTRIP
360
43D
  0
DICTIONARY
  5
456
330
31C
100
AcDbDictionary
280
     1
281
     1
  3
ACAD_XREC_ROUNDTRIP
360
457
  0
DICTIONARY
  5
450
330
319
100
AcDbDictionary
280
     1
281
     1
  3
ACAD_XREC_ROUNDTRIP
360
451
  0
DICTIONARY
  5
458
330
31D
100
AcDbDictionary
280
     1
281
     1
  3
ACAD_XREC_ROUNDTRIP
360
459
  0
DICTIONARY
  5
448
330
315
100
AcDbDictionary
280
     1
281
     1
  3
ACAD_XREC_ROUNDTRIP
360
449
  0
DICTIONARY
  5
44E
330
318
100
AcDbDictionary
280
     1
281
     1
  3
ACAD_XREC_ROUNDTRIP
360
44F
  0
XRECORD
  5
432
102
{ACAD_REACTORS
330
431
102
}
330
431
100
AcDbXrecord
280
     1
102
SHADEPLOT
 70
     0
102
SHADEPLOTRESLEVEL
 70
     2
102
SHADEPLOTCUSTOMDPI
 70
   300
  0
XRECORD
  5
430
102
{ACAD_REACTORS
330
42F
102
}
330
42F
100
AcDbXrecord
280
     1
102
SHADEPLOT
 70
     0
102
SHADEPLOTRESLEVEL
 70
     2
102
SHADEPLOTCUSTOMDPI
 70
   300
  0
XRECORD
  5
434
102
{ACAD_REACTORS
330
2FC
102
}
330
2FC
100
AcDbXrecord
280
     1
102
MATERIAL
148
0.0
149
0.0
149
0.0
 93
        0
 94
      127
282
     0
 72
     0
 77
     0
171
     0
175
     0
179
     0
273
     0
  0
XRECORD
  5
2FE
102
{ACAD_REACTORS
330
2FC
102
}
330
2FC
100
AcDbXrecord
280
     1
270
     1
271
     1
  0
XRECORD
  5
2FD
102
{ACAD_REACTORS
330
2FC
102
}
330
2FC
100
AcDbXrecord
280
     1
270
     1
271
     1
  0
XRECORD
  5
301
102
{ACAD_REACTORS
330
2FC
102
}
330
2FC
100
AcDbXrecord
280
     1
270
     1
271
     1
  0
XRECORD
  5
300
102
{ACAD_REACTORS
330
2FC
102
}
330
2FC
100
AcDbXrecord
280
     1
270
     1
271
     1
  0
XRECORD
  5
302
102
{ACAD_REACTORS
330
2FC
102
}
330
2FC
100
AcDbXrecord
280
     1
270
     1
271
     1
  0
XRECORD
  5
2FF
102
{ACAD_REACTORS
330
2FC
102
}
330
2FC
100
AcDbXrecord
280
     1
270
     1
271
     1
  0
XRECORD
  5
433
102
{ACAD_REACTORS
330
2F4
102
}
330
2F4
100
AcDbXrecord
280
     1
102
MATERIAL
148
0.0
149
0.0
149
0.0
 93
        0
 94
      127
282
     0
 72
     0
 77
     0
171
     0
175
     0
179
     0
273
     0
  0
XRECORD
  5
2F6
102
{ACAD_REACTORS
330
2F4
102
}
330
2F4
100
AcDbXrecord
280
     1
270
     1
271
     1
  0
XRECORD
  5
2F5
102
{ACAD_REACTORS
330
2F4
102
}
330
2F4
100
AcDbXrecord
280
     1
270
     1
271
     1
  0
XRECORD
  5
2F9
102
{ACAD_REACTORS
330
2F4
102
}
330
2F4
100
AcDbXrecord
280
     1
270
     1
271
     1
  0
XRECORD
  5
2F8
102
{ACAD_REACTORS
330
2F4
102
}
330
2F4
100
AcDbXrecord
280
     1
270
     1
271
     1
  0
XRECORD
  5
2FA
102
{ACAD_REACTORS
330
2F4
102
}
330
2F4
100
AcDbXrecord
280
     1
270
     1
271
     1
  0
XRECORD
  5
2F7
102
{ACAD_REACTORS
330
2F4
102
}
330
2F4
100
AcDbXrecord
280
     1
270
     1
271
     1
  0
XRECORD
  5
435
102
{ACAD_REACTORS
330
304
102
}
330
304
100
AcDbXrecord
280
     1
102
MATERIAL
148
0.0
149
0.0
149
0.0
 93
        0
 94
      127
282
     0
 72
     0
 77
     0
171
     0
175
     0
179
     0
273
     0
  0
XRECORD
  5
306
102
{ACAD_REACTORS
330
304
102
}
330
304
100
AcDbXrecord
280
     1
270
     1
271
     1
  0
XRECORD
  5
305
102
{ACAD_REACTORS
330
304
102
}
330
304
100
AcDbXrecord
280
     1
270
     1
271
     1
  0
XRECORD
  5
309
102
{ACAD_REACTORS
330
304
102
}
330
304
100
AcDbXrecord
280
     1
270
     1
271
     1
  0
XRECORD
  5
308
102
{ACAD_REACTORS
330
304
102
}
330
304
100
AcDbXrecord
280
     1
270
     1
271
     1
  0
XRECORD
  5
30A
102
{ACAD_REACTORS
330
304
102
}
330
304
100
AcDbXrecord
280
     1
270
     1
271
     1
  0
XRECORD
  5
307
102
{ACAD_REACTORS
330
304
102
}
330
304
100
AcDbXrecord
280
     1
270
     1
271
     1
  0
CELLSTYLEMAP
  5
42C
102
{ACAD_REACTORS
330
42B
102
}
330
42B
100
AcDbCellStyleMap
 90
        3
300
CELLSTYLE
  1
TABLEFORMAT_BEGIN
 90
        5
170
     1
 91
        0
 92
    32768
 62
   257
 93
        1
300
CONTENTFORMAT
  1
CONTENTFORMAT_BEGIN
 90
        0
 91
        0
 92
      512
 93
        0
300

 40
0.0
140
1.0
 94
        5
 62
     0
340
11
144
6.0
309
CONTENTFORMAT_END
171
     1
301
MARGIN
  1
CELLMARGIN_BEGIN
 40
1.5
 40
1.5
 40
1.5
 40
1.5
 40
4.5
 40
4.5
309
CELLMARGIN_END
 94
        6
 95
        1
302
GRIDFORMAT
  1
GRIDFORMAT_BEGIN
 90
        0
 91
        1
 62
     0
 92
       -2
340
0
 93
        0
 40
1.125
309
GRIDFORMAT_END
 95
        2
302
GRIDFORMAT
  1
GRIDFORMAT_BEGIN
 90
        0
 91
        1
 62
     0
 92
       -2
340
0
 93
        0
 40
1.125
309
GRIDFORMAT_END
 95
        4
302
GRIDFORMAT
  1
GRIDFORMAT_BEGIN
 90
        0
 91
        1
 62
     0
 92
       -2
340
0
 93
        0
 40
1.125
309
GRIDFORMAT_END
 95
        8
302
GRIDFORMAT
  1
GRIDFORMAT_BEGIN
 90
        0
 91
        1
 62
     0
 92
       -2
340
0
 93
        0
 40
1.125
309
GRIDFORMAT_END
 95
       16
302
GRIDFORMAT
  1
GRIDFORMAT_BEGIN
 90
        0
 91
        1
 62
     0
 92
       -2
340
0
 93
        0
 40
1.125
309
GRIDFORMAT_END
 95
       32
302
GRIDFORMAT
  1
GRIDFORMAT_BEGIN
 90
        0
 91
        1
 62
     0
 92
       -2
340
0
 93
        0
 40
1.125
309
GRIDFORMAT_END
309
TABLEFORMAT_END
  1
CELLSTYLE_BEGIN
 90
        1
 91
        1
300
_TITLE
309
CELLSTYLE_END
300
CELLSTYLE
  1
TABLEFORMAT_BEGIN
 90
        5
170
     1
 91
        0
 92
        0
 62
   257
 93
        1
300
CONTENTFORMAT
  1
CONTENTFORMAT_BEGIN
 90
        0
 91
        0
 92
      512
 93
        0
300

 40
0.0
140
1.0
 94
        5
 62
     0
340
11
144
4.5
309
CONTENTFORMAT_END
171
     1
301
MARGIN
  1
CELLMARGIN_BEGIN
 40
1.5
 40
1.5
 40
1.5
 40
1.5
 40
4.5
 40
4.5
309
CELLMARGIN_END
 94
        6
 95
        1
302
GRIDFORMAT
  1
GRIDFORMAT_BEGIN
 90
        0
 91
        1
 62
     0
 92
       -2
340
0
 93
        0
 40
1.125
309
GRIDFORMAT_END
 95
        2
302
GRIDFORMAT
  1
GRIDFORMAT_BEGIN
 90
        0
 91
        1
 62
     0
 92
       -2
340
0
 93
        0
 40
1.125
309
GRIDFORMAT_END
 95
        4
302
GRIDFORMAT
  1
GRIDFORMAT_BEGIN
 90
        0
 91
        1
 62
     0
 92
       -2
340
0
 93
        0
 40
1.125
309
GRIDFORMAT_END
 95
        8
302
GRIDFORMAT
  1
GRIDFORMAT_BEGIN
 90
        0
 91
        1
 62
     0
 92
       -2
340
0
 93
        0
 40
1.125
309
GRIDFORMAT_END
 95
       16
302
GRIDFORMAT
  1
GRIDFORMAT_BEGIN
 90
        0
 91
        1
 62
     0
 92
       -2
340
0
 93
        0
 40
1.125
309
GRIDFORMAT_END
 95
       32
302
GRIDFORMAT
  1
GRIDFORMAT_BEGIN
 90
        0
 91
        1
 62
     0
 92
       -2
340
0
 93
        0
 40
1.125
309
GRIDFORMAT_END
309
TABLEFORMAT_END
  1
CELLSTYLE_BEGIN
 90
        2
 91
        1
300
_HEADER
309
CELLSTYLE_END
300
CELLSTYLE
  1
TABLEFORMAT_BEGIN
 90
        5
170
     1
 91
        0
 92
        0
 62
   257
 93
        1
300
CONTENTFORMAT
  1
CONTENTFORMAT_BEGIN
 90
        0
 91
        0
 92
      512
 93
        0
300

 40
0.0
140
1.0
 94
        2
 62
     0
340
11
144
4.5
309
CONTENTFORMAT_END
171
     1
301
MARGIN
  1
CELLMARGIN_BEGIN
 40
1.5
 40
1.5
 40
1.5
 40
1.5
 40
4.5
 40
4.5
309
CELLMARGIN_END
 94
        6
 95
        1
302
GRIDFORMAT
  1
GRIDFORMAT_BEGIN
 90
        0
 91
        1
 62
     0
 92
       -2
340
0
 93
        0
 40
1.125
309
GRIDFORMAT_END
 95
        2
302
GRIDFORMAT
  1
GRIDFORMAT_BEGIN
 90
        0
 91
        1
 62
     0
 92
       -2
340
0
 93
        0
 40
1.125
309
GRIDFORMAT_END
 95
        4
302
GRIDFORMAT
  1
GRIDFORMAT_BEGIN
 90
        0
 91
        1
 62
     0
 92
       -2
340
0
 93
        0
 40
1.125
309
GRIDFORMAT_END
 95
        8
302
GRIDFORMAT
  1
GRIDFORMAT_BEGIN
 90
        0
 91
        1
 62
     0
 92
       -2
340
0
 93
        0
 40
1.125
309
GRIDFORMAT_END
 95
       16
302
GRIDFORMAT
  1
GRIDFORMAT_BEGIN
 90
        0
 91
        1
 62
     0
 92
       -2
340
0
 93
        0
 40
1.125
309
GRIDFORMAT_END
 95
       32
302
GRIDFORMAT
  1
GRIDFORMAT_BEGIN
 90
        0
 91
        1
 62
     0
 92
       -2
340
0
 93
        0
 40
1.125
309
GRIDFORMAT_END
309
TABLEFORMAT_END
  1
CELLSTYLE_BEGIN
 90
        3
 91
        2
300
_DATA
309
CELLSTYLE_END
  0
XRECORD
  5
45C
102
{ACAD_REACTORS
330
42B
102
}
330
42B
100
AcDbXrecord
280
     1
102
ACAD_ROUNDTRIP_PRE2007_TABLESTYLE
 90
      512
 91
        0
  1

 92
      512
 93
        0
  2

 94
      512
 95
        0
  3

  0
XRECORD
  5
441
102
{ACAD_REACTORS
330
440
102
}
330
440
100
AcDbXrecord
280
     1
102
RTVSPropertyOp0
 70
     1
102
RTVSPropertyOp1
 70
     1
102
RTVSPropertyOp2
 70
     1
102
RTVSPropertyOp3
 70
     1
102
RTVSPropertyOp4
 70
     1
102
RTVSPropertyOp5
 70
     1
102
RTVSPropertyOp6
 70
     1
102
RTVSPropertyOp7
 70
     1
102
RTVSPropertyOp8
 70
     1
102
RTVSPropertyOp9
 70
     1
102
RTVSPropertyOp10
 70
     1
102
RTVSPropertyOp11
 70
     1
102
RTVSPropertyOp12
 70
     1
102
RTVSPropertyOp13
 70
     1
102
RTVSPropertyOp14
 70
     1
102
RTVSPropertyOp15
 70
     1
102
RTVSPropertyOp16
 70
     1
102
RTVSPropertyOp17
 70
     1
102
RTVSPropertyOp18
 70
     1
102
RTVSPropertyOp19
 70
     1
102
RTVSPropertyOp20
 70
     1
102
RTVSPropertyOp21
 70
     1
102
RTVSPropertyOp22
 70
     1
102
RTVSPropertyOp23
 70
     1
102
RTVSPropertyOp24
 70
     1
102
RTVSPropertyOp25
 70
     1
102
RTVSPropertyOp26
 70
     1
102
RTVSPropertyOp27
 70
     1
  0
XRECORD
  5
445
102
{ACAD_REACTORS
330
444
102
}
330
444
100
AcDbXrecord
280
     1
102
RTVSPropertyOp0
 70
     1
102
RTVSPropertyOp1
 70
     1
102
RTVSPropertyOp2
 70
     1
102
RTVSPropertyOp3
 70
     1
102
RTVSPropertyOp4
 70
     1
102
RTVSPropertyOp5
 70
     1
102
RTVSPropertyOp6
 70
     1
102
RTVSPropertyOp7
 70
     1
102
RTVSPropertyOp8
 70
     1
102
RTVSPropertyOp9
 70
     1
102
RTVSPropertyOp10
 70
     1
102
RTVSPropertyOp11
 70
     1
102
RTVSPropertyOp12
 70
     1
102
RTVSPropertyOp13
 70
     1
102
RTVSPropertyOp14
 70
     1
102
RTVSPropertyOp15
 70
     1
102
RTVSPropertyOp16
 70
     1
102
RTVSPropertyOp17
 70
     1
102
RTVSPropertyOp18
 70
     1
102
RTVSPropertyOp19
 70
     1
102
RTVSPropertyOp20
 70
     1
102
RTVSPropertyOp21
 70
     1
102
RTVSPropertyOp22
 70
     1
102
RTVSPropertyOp23
 70
     1
102
RTVSPropertyOp24
 70
     1
102
RTVSPropertyOp25
 70
     1
102
RTVSPropertyOp26
 70
     1
102
RTVSPropertyOp27
 70
     1
  0
XRECORD
  5
443
102
{ACAD_REACTORS
330
442
102
}
330
442
100
AcDbXrecord
280
     1
102
RTVSPropertyOp0
 70
     1
102
RTVSPropertyOp1
 70
     1
102
RTVSPropertyOp2
 70
     1
102
RTVSPropertyOp3
 70
     1
102
RTVSPropertyOp4
 70
     1
102
RTVSPropertyOp5
 70
     1
102
RTVSPropertyOp6
 70
     1
102
RTVSPropertyOp7
 70
     1
102
RTVSPropertyOp8
 70
     1
102
RTVSPropertyOp9
 70
     1
102
RTVSPropertyOp10
 70
     1
102
RTVSPropertyOp11
 70
     1
102
RTVSPropertyOp12
 70
     1
102
RTVSPropertyOp13
 70
     1
102
RTVSPropertyOp14
 70
     1
102
RTVSPropertyOp15
 70
     1
102
RTVSPropertyOp16
 70
     1
102
RTVSPropertyOp17
 70
     1
102
RTVSPropertyOp18
 70
     1
102
RTVSPropertyOp19
 70
     1
102
RTVSPropertyOp20
 70
     1
102
RTVSPropertyOp21
 70
     1
102
RTVSPropertyOp22
 70
     1
102
RTVSPropertyOp23
 70
     1
102
RTVSPropertyOp24
 70
     1
102
RTVSPropertyOp25
 70
     1
102
RTVSPropertyOp26
 70
     1
102
RTVSPropertyOp27
 70
     1
  0
XRECORD
  5
43F
102
{ACAD_REACTORS
330
43E
102
}
330
43E
100
AcDbXrecord
280
     1
102
RTVSPropertyOp0
 70
     1
102
RTVSPropertyOp1
 70
     1
102
RTVSPropertyOp2
 70
     1
102
RTVSPropertyOp3
 70
     1
102
RTVSPropertyOp4
 70
     1
102
RTVSPropertyOp5
 70
     1
102
RTVSPropertyOp6
 70
     1
102
RTVSPropertyOp7
 70
     1
102
RTVSPropertyOp8
 70
     1
102
RTVSPropertyOp9
 70
     1
102
RTVSPropertyOp10
 70
     1
102
RTVSPropertyOp11
 70
     1
102
RTVSPropertyOp12
 70
     1
102
RTVSPropertyOp13
 70
     1
102
RTVSPropertyOp14
 70
     1
102
RTVSPropertyOp15
 70
     1
102
RTVSPropertyOp16
 70
     1
102
RTVSPropertyOp17
 70
     1
102
RTVSPropertyOp18
 70
     1
102
RTVSPropertyOp19
 70
     1
102
RTVSPropertyOp20
 70
     1
102
RTVSPropertyOp21
 70
     1
102
RTVSPropertyOp22
 70
     1
102
RTVSPropertyOp23
 70
     1
102
RTVSPropertyOp24
 70
     1
102
RTVSPropertyOp25
 70
     1
102
RTVSPropertyOp26
 70
     1
102
RTVSPropertyOp27
 70
     1
  0
XRECORD
  5
44D
102
{ACAD_REACTORS
330
44C
102
}
330
44C
100
AcDbXrecord
280
     1
102
RTVSPropertyOp0
 70
     1
102
RTVSPropertyOp1
 70
     1
102
RTVSPropertyOp2
 70
     1
102
RTVSPropertyOp3
 70
     1
102
RTVSPropertyOp4
 70
     1
102
RTVSPropertyOp5
 70
     1
102
RTVSPropertyOp6
 70
     1
102
RTVSPropertyOp7
 70
     1
102
RTVSPropertyOp8
 70
     1
102
RTVSPropertyOp9
 70
     1
102
RTVSPropertyOp10
 70
     1
102
RTVSPropertyOp11
 70
     1
102
RTVSPropertyOp12
 70
     1
102
RTVSPropertyOp13
 70
     1
102
RTVSPropertyOp14
 70
     1
102
RTVSPropertyOp15
 70
     1
102
RTVSPropertyOp16
 70
     1
102
RTVSPropertyOp17
 70
     1
102
RTVSPropertyOp18
 70
     1
102
RTVSPropertyOp19
 70
     1
102
RTVSPropertyOp20
 70
     1
102
RTVSPropertyOp21
 70
     1
102
RTVSPropertyOp22
 70
     1
102
RTVSPropertyOp23
 70
     1
102
RTVSPropertyOp24
 70
     1
102
RTVSPropertyOp25
 70
     1
102
RTVSPropertyOp26
 70
     1
102
RTVSPropertyOp27
 70
     1
  0
XRECORD
  5
455
102
{ACAD_REACTORS
330
454
102
}
330
454
100
AcDbXrecord
280
     1
102
RTVSPropertyOp0
 70
     1
102
RTVSPropertyOp1
 70
     1
102
RTVSPropertyOp2
 70
     1
102
RTVSPropertyOp3
 70
     1
102
RTVSPropertyOp4
 70
     1
102
RTVSPropertyOp5
 70
     1
102
RTVSPropertyOp6
 70
     1
102
RTVSPropertyOp7
 70
     1
102
RTVSPropertyOp8
 70
     1
102
RTVSPropertyOp9
 70
     1
102
RTVSPropertyOp10
 70
     1
102
RTVSPropertyOp11
 70
     1
102
RTVSPropertyOp12
 70
     1
102
RTVSPropertyOp13
 70
     1
102
RTVSPropertyOp14
 70
     1
102
RTVSPropertyOp15
 70
     1
102
RTVSPropertyOp16
 70
     1
102
RTVSPropertyOp17
 70
     1
102
RTVSPropertyOp18
 70
     1
102
RTVSPropertyOp19
 70
     1
102
RTVSPropertyOp20
 70
     1
102
RTVSPropertyOp21
 70
     1
102
RTVSPropertyOp22
 70
     1
102
RTVSPropertyOp23
 70
     1
102
RTVSPropertyOp24
 70
     1
102
RTVSPropertyOp25
 70
     1
102
RTVSPropertyOp26
 70
     1
102
RTVSPropertyOp27
 70
     1
  0
XRECORD
  5
447
102
{ACAD_REACTORS
330
446
102
}
330
446
100
AcDbXrecord
280
     1
102
RTVSPropertyOp0
 70
     1
102
RTVSPropertyOp1
 70
     1
102
RTVSPropertyOp2
 70
     1
102
RTVSPropertyOp3
 70
     1
102
RTVSPropertyOp4
 70
     1
102
RTVSPropertyOp5
 70
     1
102
RTVSPropertyOp6
 70
     1
102
RTVSPropertyOp7
 70
     1
102
RTVSPropertyOp8
 70
     1
102
RTVSPropertyOp9
 70
     1
102
RTVSPropertyOp10
 70
     1
102
RTVSPropertyOp11
 70
     1
102
RTVSPropertyOp12
 70
     1
102
RTVSPropertyOp13
 70
     1
102
RTVSPropertyOp14
 70
     1
102
RTVSPropertyOp15
 70
     1
102
RTVSPropertyOp16
 70
     1
102
RTVSPropertyOp17
 70
     1
102
RTVSPropertyOp18
 70
     1
102
RTVSPropertyOp19
 70
     1
102
RTVSPropertyOp20
 70
     1
102
RTVSPropertyOp21
 70
     1
102
RTVSPropertyOp22
 70
     1
102
RTVSPropertyOp23
 70
     1
102
RTVSPropertyOp24
 70
     1
102
RTVSPropertyOp25
 70
     1
102
RTVSPropertyOp26
 70
     1
102
RTVSPropertyOp27
 70
     1
  0
XRECORD
  5
44B
102
{ACAD_REACTORS
330
44A
102
}
330
44A
100
AcDbXrecord
280
     1
102
RTVSPropertyOp0
 70
     1
102
RTVSPropertyOp1
 70
     1
102
RTVSPropertyOp2
 70
     1
102
RTVSPropertyOp3
 70
     1
102
RTVSPropertyOp4
 70
     1
102
RTVSPropertyOp5
 70
     1
102
RTVSPropertyOp6
 70
     1
102
RTVSPropertyOp7
 70
     1
102
RTVSPropertyOp8
 70
     1
102
RTVSPropertyOp9
 70
     1
102
RTVSPropertyOp10
 70
     1
102
RTVSPropertyOp11
 70
     1
102
RTVSPropertyOp12
 70
     1
102
RTVSPropertyOp13
 70
     1
102
RTVSPropertyOp14
 70
     1
102
RTVSPropertyOp15
 70
     1
102
RTVSPropertyOp16
 70
     1
102
RTVSPropertyOp17
 70
     1
102
RTVSPropertyOp18
 70
     1
102
RTVSPropertyOp19
 70
     1
102
RTVSPropertyOp20
 70
     1
102
RTVSPropertyOp21
 70
     1
102
RTVSPropertyOp22
 70
     1
102
RTVSPropertyOp23
 70
     1
102
RTVSPropertyOp24
 70
     1
102
RTVSPropertyOp25
 70
     1
102
RTVSPropertyOp26
 70
     1
102
RTVSPropertyOp27
 70
     1
  0
XRECORD
  5
45B
102
{ACAD_REACTORS
330
45A
102
}
330
45A
100
AcDbXrecord
280
     1
102
RTVSPropertyOp0
 70
     0
102
RTVSPropertyOp1
 70
     0
102
RTVSPropertyOp2
 70
     0
102
RTVSPropertyOp3
 70
     0
102
RTVSPropertyOp4
 70
     0
102
RTVSPropertyOp5
 70
     0
102
RTVSPropertyOp6
 70
     0
102
RTVSPropertyOp7
 70
     0
102
RTVSPropertyOp8
 70
     0
102
RTVSPropertyOp9
 70
     0
102
RTVSPropertyOp10
 70
     0
102
RTVSPropertyOp11
 70
     0
102
RTVSPropertyOp12
 70
     0
102
RTVSPropertyOp13
 70
     0
102
RTVSPropertyOp14
 70
     2
102
RTVSPropertyOp15
 70
     0
102
RTVSPropertyOp16
 70
     0
102
RTVSPropertyOp17
 70
     0
102
RTVSPropertyOp18
 70
     0
102
RTVSPropertyOp19
 70
     0
102
RTVSPropertyOp20
 70
     0
102
RTVSPropertyOp21
 70
     0
102
RTVSPropertyOp22
 70
     0
102
RTVSPropertyOp23
 70
     0
102
RTVSPropertyOp24
 70
     0
102
RTVSPropertyOp25
 70
     0
102
RTVSPropertyOp26
 70
     0
102
RTVSPropertyOp27
 70
     0
  0
XRECORD
  5
453
102
{ACAD_REACTORS
330
452
102
}
330
452
100
AcDbXrecord
280
     1
102
RTVSPropertyOp0
 70
     1
102
RTVSPropertyOp1
 70
     1
102
RTVSPropertyOp2
 70
     1
102
RTVSPropertyOp3
 70
     1
102
RTVSPropertyOp4
 70
     1
102
RTVSPropertyOp5
 70
     1
102
RTVSPropertyOp6
 70
     1
102
RTVSPropertyOp7
 70
     1
102
RTVSPropertyOp8
 70
     1
102
RTVSPropertyOp9
 70
     1
102
RTVSPropertyOp10
 70
     1
102
RTVSPropertyOp11
 70
     1
102
RTVSPropertyOp12
 70
     1
102
RTVSPropertyOp13
 70
     1
102
RTVSPropertyOp14
 70
     1
102
RTVSPropertyOp15
 70
     1
102
RTVSPropertyOp16
 70
     1
102
RTVSPropertyOp17
 70
     1
102
RTVSPropertyOp18
 70
     1
102
RTVSPropertyOp19
 70
     1
102
RTVSPropertyOp20
 70
     1
102
RTVSPropertyOp21
 70
     1
102
RTVSPropertyOp22
 70
     1
102
RTVSPropertyOp23
 70
     1
102
RTVSPropertyOp24
 70
     1
102
RTVSPropertyOp25
 70
     1
102
RTVSPropertyOp26
 70
     1
102
RTVSPropertyOp27
 70
     1
  0
XRECORD
  5
437
102
{ACAD_REACTORS
330
436
102
}
330
436
100
AcDbXrecord
280
     1
102
RTVSPropertyOp0
 70
     1
102
RTVSPropertyOp1
 70
     1
102
RTVSPropertyOp2
 70
     1
102
RTVSPropertyOp3
 70
     1
102
RTVSPropertyOp4
 70
     1
102
RTVSPropertyOp5
 70
     1
102
RTVSPropertyOp6
 70
     1
102
RTVSPropertyOp7
 70
     1
102
RTVSPropertyOp8
 70
     1
102
RTVSPropertyOp9
 70
     1
102
RTVSPropertyOp10
 70
     1
102
RTVSPropertyOp11
 70
     1
102
RTVSPropertyOp12
 70
     1
102
RTVSPropertyOp13
 70
     1
102
RTVSPropertyOp14
 70
     1
102
RTVSPropertyOp15
 70
     1
102
RTVSPropertyOp16
 70
     1
102
RTVSPropertyOp17
 70
     1
102
RTVSPropertyOp18
 70
     1
102
RTVSPropertyOp19
 70
     1
102
RTVSPropertyOp20
 70
     1
102
RTVSPropertyOp21
 70
     1
102
RTVSPropertyOp22
 70
     1
102
RTVSPropertyOp23
 70
     1
102
RTVSPropertyOp24
 70
     1
102
RTVSPropertyOp25
 70
     1
102
RTVSPropertyOp26
 70
     1
102
RTVSPropertyOp27
 70
     1
  0
XRECORD
  5
439
102
{ACAD_REACTORS
330
438
102
}
330
438
100
AcDbXrecord
280
     1
102
RTVSPropertyOp0
 70
     1
102
RTVSPropertyOp1
 70
     1
102
RTVSPropertyOp2
 70
     1
102
RTVSPropertyOp3
 70
     1
102
RTVSPropertyOp4
 70
     1
102
RTVSPropertyOp5
 70
     1
102
RTVSPropertyOp6
 70
     1
102
RTVSPropertyOp7
 70
     1
102
RTVSPropertyOp8
 70
     1
102
RTVSPropertyOp9
 70
     1
102
RTVSPropertyOp10
 70
     1
102
RTVSPropertyOp11
 70
     1
102
RTVSPropertyOp12
 70
     1
102
RTVSPropertyOp13
 70
     1
102
RTVSPropertyOp14
 70
     1
102
RTVSPropertyOp15
 70
     1
102
RTVSPropertyOp16
 70
     1
102
RTVSPropertyOp17
 70
     1
102
RTVSPropertyOp18
 70
     1
102
RTVSPropertyOp19
 70
     1
102
RTVSPropertyOp20
 70
     1
102
RTVSPropertyOp21
 70
     1
102
RTVSPropertyOp22
 70
     1
102
RTVSPropertyOp23
 70
     1
102
RTVSPropertyOp24
 70
     1
102
RTVSPropertyOp25
 70
     1
102
RTVSPropertyOp26
 70
     1
102
RTVSPropertyOp27
 70
     1
  0
XRECORD
  5
43B
102
{ACAD_REACTORS
330
43A
102
}
330
43A
100
AcDbXrecord
280
     1
102
RTVSPropertyOp0
 70
     1
102
RTVSPropertyOp1
 70
     1
102
RTVSPropertyOp2
 70
     1
102
RTVSPropertyOp3
 70
     1
102
RTVSPropertyOp4
 70
     1
102
RTVSPropertyOp5
 70
     1
102
RTVSPropertyOp6
 70
     1
102
RTVSPropertyOp7
 70
     1
102
RTVSPropertyOp8
 70
     1
102
RTVSPropertyOp9
 70
     1
102
RTVSPropertyOp10
 70
     1
102
RTVSPropertyOp11
 70
     1
102
RTVSPropertyOp12
 70
     1
102
RTVSPropertyOp13
 70
     1
102
RTVSPropertyOp14
 70
     1
102
RTVSPropertyOp15
 70
     1
102
RTVSPropertyOp16
 70
     1
102
RTVSPropertyOp17
 70
     1
102
RTVSPropertyOp18
 70
     1
102
RTVSPropertyOp19
 70
     1
102
RTVSPropertyOp20
 70
     1
102
RTVSPropertyOp21
 70
     1
102
RTVSPropertyOp22
 70
     1
102
RTVSPropertyOp23
 70
     1
102
RTVSPropertyOp24
 70
     1
102
RTVSPropertyOp25
 70
     1
102
RTVSPropertyOp26
 70
     1
102
RTVSPropertyOp27
 70
     1
  0
XRECORD
  5
43D
102
{ACAD_REACTORS
330
43C
102
}
330
43C
100
AcDbXrecord
280
     1
102
RTVSPropertyOp0
 70
     1
102
RTVSPropertyOp1
 70
     1
102
RTVSPropertyOp2
 70
     1
102
RTVSPropertyOp3
 70
     1
102
RTVSPropertyOp4
 70
     1
102
RTVSPropertyOp5
 70
     1
102
RTVSPropertyOp6
 70
     1
102
RTVSPropertyOp7
 70
     1
102
RTVSPropertyOp8
 70
     1
102
RTVSPropertyOp9
 70
     1
102
RTVSPropertyOp10
 70
     1
102
RTVSPropertyOp11
 70
     1
102
RTVSPropertyOp12
 70
     1
102
RTVSPropertyOp13
 70
     1
102
RTVSPropertyOp14
 70
     1
102
RTVSPropertyOp15
 70
     1
102
RTVSPropertyOp16
 70
     1
102
RTVSPropertyOp17
 70
     1
102
RTVSPropertyOp18
 70
     1
102
RTVSPropertyOp19
 70
     1
102
RTVSPropertyOp20
 70
     1
102
RTVSPropertyOp21
 70
     1
102
RTVSPropertyOp22
 70
     1
102
RTVSPropertyOp23
 70
     1
102
RTVSPropertyOp24
 70
     1
102
RTVSPropertyOp25
 70
     1
102
RTVSPropertyOp26
 70
     1
102
RTVSPropertyOp27
 70
     1
  0
XRECORD
  5
457
102
{ACAD_REACTORS
330
456
102
}
330
456
100
AcDbXrecord
280
     1
102
RTVSPropertyOp0
 70
     0
102
RTVSPropertyOp1
 70
     0
102
RTVSPropertyOp2
 70
     0
102
RTVSPropertyOp3
 70
     0
102
RTVSPropertyOp4
 70
     0
102
RTVSPropertyOp5
 70
     0
102
RTVSPropertyOp6
 70
     0
102
RTVSPropertyOp7
 70
     0
102
RTVSPropertyOp8
 70
     0
102
RTVSPropertyOp9
 70
     0
102
RTVSPropertyOp10
 70
     0
102
RTVSPropertyOp11
 70
     0
102
RTVSPropertyOp12
 70
     0
102
RTVSPropertyOp13
 70
     0
102
RTVSPropertyOp14
 70
     2
102
RTVSPropertyOp15
 70
     0
102
RTVSPropertyOp16
 70
     0
102
RTVSPropertyOp17
 70
     0
102
RTVSPropertyOp18
 70
     0
102
RTVSPropertyOp19
 70
     0
102
RTVSPropertyOp20
 70
     0
102
RTVSPropertyOp21
 70
     0
102
RTVSPropertyOp22
 70
     0
102
RTVSPropertyOp23
 70
     0
102
RTVSPropertyOp24
 70
     0
102
RTVSPropertyOp25
 70
     0
102
RTVSPropertyOp26
 70
     0
102
RTVSPropertyOp27
 70
     0
  0
XRECORD
  5
451
102
{ACAD_REACTORS
330
450
102
}
330
450
100
AcDbXrecord
280
     1
102
RTVSPropertyOp0
 70
     1
102
RTVSPropertyOp1
 70
     1
102
RTVSPropertyOp2
 70
     1
102
RTVSPropertyOp3
 70
     1
102
RTVSPropertyOp4
 70
     1
102
RTVSPropertyOp5
 70
     1
102
RTVSPropertyOp6
 70
     1
102
RTVSPropertyOp7
 70
     1
102
RTVSPropertyOp8
 70
     1
102
RTVSPropertyOp9
 70
     1
102
RTVSPropertyOp10
 70
     1
102
RTVSPropertyOp11
 70
     1
102
RTVSPropertyOp12
 70
     1
102
RTVSPropertyOp13
 70
     1
102
RTVSPropertyOp14
 70
     1
102
RTVSPropertyOp15
 70
     1
102
RTVSPropertyOp16
 70
     1
102
RTVSPropertyOp17
 70
     1
102
RTVSPropertyOp18
 70
     1
102
RTVSPropertyOp19
 70
     1
102
RTVSPropertyOp20
 70
     1
102
RTVSPropertyOp21
 70
     1
102
RTVSPropertyOp22
 70
     1
102
RTVSPropertyOp23
 70
     1
102
RTVSPropertyOp24
 70
     1
102
RTVSPropertyOp25
 70
     1
102
RTVSPropertyOp26
 70
     1
102
RTVSPropertyOp27
 70
     1
  0
XRECORD
  5
459
102
{ACAD_REACTORS
330
458
102
}
330
458
100
AcDbXrecord
280
     1
102
RTVSPropertyOp0
 70
     0
102
RTVSPropertyOp1
 70
     0
102
RTVSPropertyOp2
 70
     0
102
RTVSPropertyOp3
 70
     0
102
RTVSPropertyOp4
 70
     0
102
RTVSPropertyOp5
 70
     0
102
RTVSPropertyOp6
 70
     0
102
RTVSPropertyOp7
 70
     0
102
RTVSPropertyOp8
 70
     0
102
RTVSPropertyOp9
 70
     0
102
RTVSPropertyOp10
 70
     0
102
RTVSPropertyOp11
 70
     0
102
RTVSPropertyOp12
 70
     0
102
RTVSPropertyOp13
 70
     0
102
RTVSPropertyOp14
 70
     2
102
RTVSPropertyOp15
 70
     0
102
RTVSPropertyOp16
 70
     0
102
RTVSPropertyOp17
 70
     0
102
RTVSPropertyOp18
 70
     0
102
RTVSPropertyOp19
 70
     0
102
RTVSPropertyOp20
 70
     0
102
RTVSPropertyOp21
 70
     0
102
RTVSPropertyOp22
 70
     0
102
RTVSPropertyOp23
 70
     0
102
RTVSPropertyOp24
 70
     0
102
RTVSPropertyOp25
 70
     0
102
RTVSPropertyOp26
 70
     0
102
RTVSPropertyOp27
 70
     0
  0
XRECORD
  5
449
102
{ACAD_REACTORS
330
448
102
}
330
448
100
AcDbXrecord
280
     1
102
RTVSPropertyOp0
 70
     1
102
RTVSPropertyOp1
 70
     1
102
RTVSPropertyOp2
 70
     1
102
RTVSPropertyOp3
 70
     1
102
RTVSPropertyOp4
 70
     1
102
RTVSPropertyOp5
 70
     1
102
RTVSPropertyOp6
 70
     1
102
RTVSPropertyOp7
 70
     1
102
RTVSPropertyOp8
 70
     1
102
RTVSPropertyOp9
 70
     1
102
RTVSPropertyOp10
 70
     1
102
RTVSPropertyOp11
 70
     1
102
RTVSPropertyOp12
 70
     1
102
RTVSPropertyOp13
 70
     1
102
RTVSPropertyOp14
 70
     1
102
RTVSPropertyOp15
 70
     1
102
RTVSPropertyOp16
 70
     1
102
RTVSPropertyOp17
 70
     1
102
RTVSPropertyOp18
 70
     1
102
RTVSPropertyOp19
 70
     1
102
RTVSPropertyOp20
 70
     1
102
RTVSPropertyOp21
 70
     1
102
RTVSPropertyOp22
 70
     1
102
RTVSPropertyOp23
 70
     1
102
RTVSPropertyOp24
 70
     1
102
RTVSPropertyOp25
 70
     1
102
RTVSPropertyOp26
 70
     1
102
RTVSPropertyOp27
 70
     1
  0
XRECORD
  5
44F
102
{ACAD_REACTORS
330
44E
102
}
330
44E
100
AcDbXrecord
280
     1
102
RTVSPropertyOp0
 70
     1
102
RTVSPropertyOp1
 70
     1
102
RTVSPropertyOp2
 70
     1
102
RTVSPropertyOp3
 70
     1
102
RTVSPropertyOp4
 70
     1
102
RTVSPropertyOp5
 70
     1
102
RTVSPropertyOp6
 70
     1
102
RTVSPropertyOp7
 70
     1
102
RTVSPropertyOp8
 70
     1
102
RTVSPropertyOp9
 70
     1
102
RTVSPropertyOp10
 70
     1
102
RTVSPropertyOp11
 70
     1
102
RTVSPropertyOp12
 70
     1
102
RTVSPropertyOp13
 70
     1
102
RTVSPropertyOp14
 70
     1
102
RTVSPropertyOp15
 70
     1
102
RTVSPropertyOp16
 70
     1
102
RTVSPropertyOp17
 70
     1
102
RTVSPropertyOp18
 70
     1
102
RTVSPropertyOp19
 70
     1
102
RTVSPropertyOp20
 70
     1
102
RTVSPropertyOp21
 70
     1
102
RTVSPropertyOp22
 70
     1
102
RTVSPropertyOp23
 70
     1
102
RTVSPropertyOp24
 70
     1
102
RTVSPropertyOp25
 70
     1
102
RTVSPropertyOp26
 70
     1
102
RTVSPropertyOp27
 70
     1
  0
ENDSEC
  0
EOF
