  0
SECTION
  2
HEADER
  9
$ACADVER
  1
AC1015
  9
$ACADMAINTVER
 70
    20
  9
$DWGCODEPAGE
  3
ANSI_1252
  9
$INSBASE
 10
0.0
 20
0.0
 30
0.0
  9
$EXTMIN
 10
73.88495307024403
 20
528.6204466418996
 30
0.0
  9
$EXTMAX
 10
667.8849530702441
 20
948.6204466418996
 30
0.0
  9
$LIMMIN
 10
0.0
 20
0.0
  9
$LIMMAX
 10
420.0
 20
297.0
  9
$ORTHOMODE
 70
     0
  9
$REGENMODE
 70
     1
  9
$FILLMODE
 70
     1
  9
$QTEXTMODE
 70
     0
  9
$MIRRTEXT
 70
     1
  9
$LTSCALE
 40
1.0
  9
$ATTMODE
 70
     1
  9
$TEXTSIZE
 40
2.5
  9
$TRACEWID
 40
1.0
  9
$TEXTSTYLE
  7
STANDARD
  9
$CLAYER
  8
0
  9
$CELTYPE
  6
ByLayer
  9
$CECOLOR
 62
   256
  9
$CELTSCALE
 40
1.0
  9
$DISPSILH
 70
     0
  9
$DIMSCALE
 40
1.0
  9
$DIMASZ
 40
2.5
  9
$DIMEXO
 40
1.0
  9
$DIMDLI
 40
10.0
  9
$DIMRND
 40
0.0
  9
$DIMDLE
 40
0.0
  9
$DIMEXE
 40
1.0
  9
$DIMTP
 40
0.1
  9
$DIMTM
 40
0.1
  9
$DIMTXT
 40
3.5
  9
$DIMCEN
 40
0.0
  9
$DIMTSZ
 40
0.0
  9
$DIMTOL
 70
     0
  9
$DIMLIM
 70
     0
  9
$DIMTIH
 70
     0
  9
$DIMTOH
 70
     0
  9
$DIMSE1
 70
     0
  9
$DIMSE2
 70
     0
  9
$DIMTAD
 70
     1
  9
$DIMZIN
 70
     8
  9
$DIMBLK
  1

  9
$DIMASO
 70
     1
  9
$DIMSHO
 70
     1
  9
$DIMPOST
  1

  9
$DIMAPOST
  1
"
  9
$DIMALT
 70
     0
  9
$DIMALTD
 70
     2
  9
$DIMALTF
 40
0.0393701
  9
$DIMLFAC
 40
1.0
  9
$DIMTOFL
 70
     1
  9
$DIMTVP
 40
0.0
  9
$DIMTIX
 70
     0
  9
$DIMSOXD
 70
     0
  9
$DIMSAH
 70
     0
  9
$DIMBLK1
  1

  9
$DIMBLK2
  1

  9
$DIMSTYLE
  2
AM_DIN
  9
$DIMCLRD
 70
   256
  9
$DIMCLRE
 70
   256
  9
$DIMCLRT
 70
     2
  9
$DIMTFAC
 40
0.71
  9
$DIMGAP
 40
1.5
  9
$DIMJUST
 70
     0
  9
$DIMSD1
 70
     0
  9
$DIMSD2
 70
     0
  9
$DIMTOLJ
 70
     0
  9
$DIMTZIN
 70
     8
  9
$DIMALTZ
 70
     0
  9
$DIMALTTZ
 70
     0
  9
$DIMUPT
 70
     0
  9
$DIMDEC
 70
     1
  9
$DIMTDEC
 70
     3
  9
$DIMALTU
 70
     2
  9
$DIMALTTD
 70
     4
  9
$DIMTXSTY
  7
STANDARD
  9
$DIMAUNIT
 70
     0
  9
$DIMADEC
 70
     0
  9
$DIMALTRND
 40
0.0
  9
$DIMAZIN
 70
     2
  9
$DIMDSEP
 70
    46
  9
$DIMATFIT
 70
     3
  9
$DIMFRAC
 70
     0
  9
$DIMLDRBLK
  1

  9
$DIMLUNIT
 70
     2
  9
$DIMLWD
 70
    -1
  9
$DIMLWE
 70
    -1
  9
$DIMTMOVE
 70
     0
  9
$LUNITS
 70
     2
  9
$LUPREC
 70
     2
  9
$SKETCHINC
 40
1.0
  9
$FILLETRAD
 40
0.0
  9
$AUNITS
 70
     0
  9
$AUPREC
 70
     0
  9
$MENU
  1
.
  9
$ELEVATION
 40
0.0
  9
$PELEVATION
 40
0.0
  9
$THICKNESS
 40
0.0
  9
$LIMCHECK
 70
     0
  9
$CHAMFERA
 40
2.5
  9
$CHAMFERB
 40
2.5
  9
$CHAMFERC
 40
20.0
  9
$CHAMFERD
 40
0.0
  9
$SKPOLY
 70
     0
  9
$TDCREATE
 40
2452702.515835023
  9
$TDUCREATE
 40
2452702.474168357
  9
$TDUPDATE
 40
2455597.647514283
  9
$TDUUPDATE
 40
2455597.605847616
  9
$TDINDWG
 40
0.2269421991
  9
$TDUSRTIMER
 40
0.2269421991
  9
$USRTIMER
 70
     1
  9
$ANGBASE
 50
0.0
  9
$ANGDIR
 70
     0
  9
$PDMODE
 70
     0
  9
$PDSIZE
 40
0.0
  9
$PLINEWID
 40
0.0
  9
$SPLFRAME
 70
     0
  9
$SPLINETYPE
 70
     6
  9
$SPLINESEGS
 70
     8
  9
$HANDSEED
  5
19B7
  9
$SURFTAB1
 70
     6
  9
$SURFTAB2
 70
     6
  9
$SURFTYPE
 70
     6
  9
$SURFU
 70
     6
  9
$SURFV
 70
     6
  9
$UCSBASE
  2

  9
$UCSNAME
  2

  9
$UCSORG
 10
0.0
 20
0.0
 30
0.0
  9
$UCSXDIR
 10
1.0
 20
0.0
 30
0.0
  9
$UCSYDIR
 10
0.0
 20
1.0
 30
0.0
  9
$UCSORTHOREF
  2

  9
$UCSORTHOVIEW
 70
     0
  9
$UCSORGTOP
 10
0.0
 20
0.0
 30
0.0
  9
$UCSORGBOTTOM
 10
0.0
 20
0.0
 30
0.0
  9
$UCSORGLEFT
 10
0.0
 20
0.0
 30
0.0
  9
$UCSORGRIGHT
 10
0.0
 20
0.0
 30
0.0
  9
$UCSORGFRONT
 10
0.0
 20
0.0
 30
0.0
  9
$UCSORGBACK
 10
0.0
 20
0.0
 30
0.0
  9
$PUCSBASE
  2

  9
$PUCSNAME
  2

  9
$PUCSORG
 10
0.0
 20
0.0
 30
0.0
  9
$PUCSXDIR
 10
1.0
 20
0.0
 30
0.0
  9
$PUCSYDIR
 10
0.0
 20
1.0
 30
0.0
  9
$PUCSORTHOREF
  2

  9
$PUCSORTHOVIEW
 70
     0
  9
$PUCSORGTOP
 10
0.0
 20
0.0
 30
0.0
  9
$PUCSORGBOTTOM
 10
0.0
 20
0.0
 30
0.0
  9
$PUCSORGLEFT
 10
0.0
 20
0.0
 30
0.0
  9
$PUCSORGRIGHT
 10
0.0
 20
0.0
 30
0.0
  9
$PUCSORGFRONT
 10
0.0
 20
0.0
 30
0.0
  9
$PUCSORGBACK
 10
0.0
 20
0.0
 30
0.0
  9
$USERI1
 70
     0
  9
$USERI2
 70
     0
  9
$USERI3
 70
     0
  9
$USERI4
 70
     0
  9
$USERI5
 70
     0
  9
$USERR1
 40
0.0
  9
$USERR2
 40
0.0
  9
$USERR3
 40
0.0
  9
$USERR4
 40
0.0
  9
$USERR5
 40
0.0
  9
$WORLDVIEW
 70
     1
  9
$SHADEDGE
 70
     3
  9
$SHADEDIF
 70
    70
  9
$TILEMODE
 70
     1
  9
$MAXACTVP
 70
    64
  9
$PINSBASE
 10
0.0
 20
0.0
 30
0.0
  9
$PLIMCHECK
 70
     0
  9
$PEXTMIN
 10
1.000000000000000E+20
 20
1.000000000000000E+20
 30
1.000000000000000E+20
  9
$PEXTMAX
 10
-1.000000000000000E+20
 20
-1.000000000000000E+20
 30
-1.000000000000000E+20
  9
$PLIMMIN
 10
0.0
 20
0.0
  9
$PLIMMAX
 10
420.0
 20
297.0
  9
$UNITMODE
 70
     0
  9
$VISRETAIN
 70
     1
  9
$PLINEGEN
 70
     0
  9
$PSLTSCALE
 70
     1
  9
$TREEDEPTH
 70
  3020
  9
$CMLSTYLE
  2
Standard
  9
$CMLJUST
 70
     0
  9
$CMLSCALE
 40
20.0
  9
$PROXYGRAPHICS
 70
     1
  9
$MEASUREMENT
 70
     1
  9
$CELWEIGHT
370
    -1
  9
$ENDCAPS
280
     0
  9
$JOINSTYLE
280
     0
  9
$LWDISPLAY
290
     0
  9
$INSUNITS
 70
     4
  9
$HYPERLINKBASE
  1

  9
$STYLESHEET
  1
monochrome.ctb
  9
$XEDIT
290
     1
  9
$CEPSNTYPE
380
     0
  9
$PSTYLEMODE
290
     1
  9
$FINGERPRINTGUID
  2
{D5091DE6-A8E7-4749-B1FA-F4240FAEB0F0}
  9
$VERSIONGUID
  2
{BFC10FDC-B420-4035-9839-5229F2454802}
  9
$EXTNAMES
290
     1
  9
$PSVPSCALE
 40
0.0
  9
$OLESTARTUP
290
     0
  0
ENDSEC
  0
SECTION
  2
CLASSES
  0
CLASS
  1
ACDBDICTIONARYWDFLT
  2
AcDbDictionaryWithDefault
  3
ObjectDBX Classes
 90
        0
280
     0
281
     0
  0
CLASS
  1
ACDBPLACEHOLDER
  2
AcDbPlaceHolder
  3
ObjectDBX Classes
 90
        0
280
     0
281
     0
  0
CLASS
  1
LAYOUT
  2
AcDbLayout
  3
ObjectDBX Classes
 90
        0
280
     0
281
     0
  0
CLASS
  1
AMGSETTINGSOBJ
  2
AmgSettingsObj
  3
"AcadM|Product Description: AutoCAD Mechanical|Company: Autodesk, Inc."
 90
     1024
280
     0
281
     0
  0
CLASS
  1
ACME_DOCUMENT
  2
AcMeDbDoc
  3
AcMeServices
 90
     1024
280
     0
281
     0
  0
CLASS
  1
ACMESCOPE
  2
AcMeScope
  3
AcMeServices
 90
     1024
280
     0
281
     0
  0
CLASS
  1
ACMECOMMANDHISTORY
  2
AcMeCommandHistory
  3
AcMeServices
 90
     1024
280
     0
281
     0
  0
CLASS
  1
DICTIONARYVAR
  2
AcDbDictionaryVar
  3
ObjectDBX Classes
 90
        0
280
     0
281
     0
  0
CLASS
  1
ACIMSYSVARMAN
  2
AcImSysVarManager
  3
AcMeServices
 90
     1024
280
     0
281
     0
  0
CLASS
  1
ACIMREALSYSVAR
  2
AcImRealSysVar
  3
AcMeServices
 90
     1024
280
     0
281
     0
  0
CLASS
  1
ACIMINTSYSVAR
  2
AcImIntSysVar
  3
AcMeServices
 90
     1024
280
     0
281
     0
  0
CLASS
  1
ACMEDRAWINGMAN
  2
AcMeDrawingMan
  3
AcMeServices
 90
     1024
280
     0
281
     0
  0
CLASS
  1
ACMEVIEW
  2
AcMeView
  3
AcMeServices
 90
     1024
280
     0
281
     0
  0
CLASS
  1
ACDBENTITYCACHE
  2
AcMeEntityCache
  3
AcMeServices
 90
     1024
280
     0
281
     0
  0
CLASS
  1
GSMANAGER
  2
AcMeGSManager
  3
AcMeServices
 90
     1024
280
     0
281
     0
  0
CLASS
  1
AMDTINTERNALREACTOR
  2
AmdtInternalReactor
  3
AcMeServices
 90
     1024
280
     0
281
     0
  0
CLASS
  1
ACMESTATEMGR
  2
AcMeStateMgr
  3
AcMeServices
 90
     1024
280
     0
281
     0
  0
CLASS
  1
ACGREFMASTER
  2
AcGrefMaster
  3
AcAttribServices
 90
     1024
280
     0
281
     0
  0
CLASS
  1
ACME_DATABASE
  2
AcMeDbDatabase
  3
AcMeServices
 90
     1024
280
     0
281
     0
  0
CLASS
  1
ACRFINSADJUSTERMGR
  2
AcRfInsAdjusterMgr
  3
AcMeServices
 90
     1024
280
     0
281
     0
  0
CLASS
  1
ACGREFACADMASTER
  2
AcGrefacadMaster
  3
AcGrefServices
 90
     1024
280
     0
281
     0
  0
CLASS
  1
AMIMASTER
  2
AmiMaster
  3
AmiServices
 90
     1024
280
     0
281
     0
  0
CLASS
  1
ACMDATADICTIONARY
  2
AcmDataDictionary
  3
"AcmSymBB|Product Description: AutoCAD Mechanical|Company: Autodesk, Inc."
 90
     1024
280
     0
281
     0
  0
CLASS
  1
ACMDATAENTRYBLOCK
  2
AcmDataEntryBlock
  3
AcmSymBB|Product Description: AutoCAD Mechanical|Company: Autodesk, Inc.
 90
     1024
280
     0
281
     0
  0
CLASS
  1
ACIMSTRSYSVAR
  2
AcImStrSysVar
  3
AcMeServices
 90
     1024
280
     0
281
     0
  0
CLASS
  1
ACMSTANDARDDIN
  2
AcmStandardDIN
  3
"Amdt_StdImp|Product Description: AutoCAD Mechanical|Company: Autodesk, Inc."
 90
     1024
280
     0
281
     0
  0
CLASS
  1
AMGOBJPROPCFG
  2
AmgObjPropCfg
  3
"AmgLay|Product Description: AutoCAD Mechanical|Company: Autodesk, Inc."
 90
     1025
280
     0
281
     0
  0
CLASS
  1
AMDTEDGESTANDARDDIN
  2
AmdtEdgeStdDIN
  3
"Amdt_StdImp|Product Description: AutoCAD Mechanical|Company: Autodesk, Inc."
 90
     1024
280
     0
281
     0
  0
CLASS
  1
ACMSURFSTANDARDDIN
  2
AcmSurfTextStdDIN
  3
"Amdt_StdImp|Product Description: AutoCAD Mechanical|Company: Autodesk, Inc."
 90
     1024
280
     0
281
     0
  0
CLASS
  1
ACMFCFSTANDARDDIN
  2
AcmFCFStdDIN
  3
"Amdt_StdImp|Product Description: AutoCAD Mechanical|Company: Autodesk, Inc."
 90
     1024
280
     0
281
     0
  0
CLASS
  1
ACMWELDSTANDARDDIN
  2
AcmWeldingStdDIN
  3
"Amdt_StdImp|Product Description: AutoCAD Mechanical|Company: Autodesk, Inc."
 90
     1024
280
     0
281
     0
  0
CLASS
  1
ACMIDSTANDARDDIN
  2
AcmIdStdDIN
  3
"Amdt_StdImp|Product Description: AutoCAD Mechanical|Company: Autodesk, Inc."
 90
     1024
280
     0
281
     0
  0
CLASS
  1
ACMDATUMSTANDARDDIN
  2
AcmDatumStdDIN
  3
"Amdt_StdImp|Product Description: AutoCAD Mechanical|Company: Autodesk, Inc."
 90
     1024
280
     0
281
     0
  0
CLASS
  1
ACMBOMSTANDARDDIN
  2
AcmBOMStdDIN
  3
"Amdt_StdImp|Product Description: AutoCAD Mechanical|Company: Autodesk, Inc."
 90
     1024
280
     0
281
     0
  0
CLASS
  1
ACMDETAILSTANDARDDIN
  2
AmdtDetailSymStdDIN
  3
"Amdt_StdImp|Product Description: AutoCAD Mechanical|Company: Autodesk, Inc."
 90
     1024
280
     0
281
     0
  0
CLASS
  1
ACMSECTIONSTANDARDDIN
  2
AmdtSectionSymStdDIN
  3
"Amdt_StdImp|Product Description: AutoCAD Mechanical|Company: Autodesk, Inc."
 90
     1024
280
     0
281
     0
  0
CLASS
  1
ACMCENTERLINESTANDARDDIN
  2
AmdtCenterLineStdDIN
  3
"Amdt_StdImp|Product Description: AutoCAD Mechanical|Company: Autodesk, Inc."
 90
     1024
280
     0
281
     0
  0
CLASS
  1
ACAMGLAYSTD
  2
AcAmgLayStd
  3
"AmgLay|Product Description: AutoCAD Mechanical|Company: Autodesk, Inc."
 90
     1024
280
     0
281
     0
  0
CLASS
  1
ACAMGDIMSTD
  2
AcAmgDimStd
  3
"AmgDim|Product Description: AutoCAD Mechanical|Company: Autodesk, Inc."
 90
     1024
280
     0
281
     0
  0
CLASS
  1
ACAMGTITLESTD
  2
AcAmgTitleStd
  3
"AmgTitle|Product Description: AutoCAD Mechanical|Company: Autodesk, Inc."
 90
     4095
280
     0
281
     0
  0
CLASS
  1
LAYER_INDEX
  2
AcDbLayerIndex
  3
ObjectDBX Classes
 90
    32768
280
     0
281
     0
  0
CLASS
  1
IDBUFFER
  2
AcDbIdBuffer
  3
ObjectDBX Classes
 90
    32768
280
     0
281
     0
  0
CLASS
  1
TABLESTYLE
  2
AcDbTableStyle
  3
ObjectDBX Classes
 90
     4095
280
     0
281
     0
  0
CLASS
  1
AM_DRAWING_MGR
  2
AcDmDwgMgr
  3
AcMechDwgViewMgmt
 90
     1024
280
     0
281
     0
  0
CLASS
  1
AM_DWG_DOCUMENT
  2
AcDmDwgDocument
  3
AcMechDwgViewMgmt
 90
     1024
280
     0
281
     0
  0
CLASS
  1
AM_DWG_SHEET
  2
AcDmSheet
  3
AcMechDwgViewMgmt
 90
     1024
280
     0
281
     0
  0
CLASS
  1
AM_VIEWDIMPARMAP
  2
AcDmViewDimParMap
  3
AcMechDwgViewMgmt
 90
     1024
280
     0
281
     0
  0
CLASS
  1
AM_DWGMGR_NAME
  2
AcDmDwgMgrName
  3
AcMechDwgViewMgmt
 90
     1024
280
     0
281
     0
  0
CLASS
  1
AMDTMENUSTATEMGR
  2
AmdtMenuStateMgr
  3
McadcomServices
 90
     1024
280
     0
281
     0
  0
CLASS
  1
AMDTMCOMMENUSTATE
  2
AmdtMcomMenuState
  3
McadcomServices
 90
     1024
280
     0
281
     0
  0
CLASS
  1
MAPIAMMOUDLE
  2
MApiAmModule
  3
MApiAmServices
 90
     1024
280
     0
281
     0
  0
CLASS
  1
AMDTADMENUSTATE
  2
AmdtAdMenuState
  3
DesignerServices
 90
     1024
280
     0
281
     0
  0
CLASS
  1
ADAPPL
  2
AcAdAppl
  3
DesignerServices
 90
     1024
280
     0
281
     0
  0
CLASS
  1
DEPMGR
  2
AcAdDepMgr
  3
DesignerServices
 90
     1024
280
     0
281
     0
  0
CLASS
  1
PARAMMGR
  2
AcAdParamMgr
  3
DesignerServices
 90
     1024
280
     0
281
     0
  0
CLASS
  1
PARAMSCOPE
  2
AcAdParamScope
  3
DesignerServices
 90
     1024
280
     0
281
     0
  0
CLASS
  1
NAMEDAPPL
  2
AcAdNamedAppl
  3
DesignerServices
 90
     1024
280
     0
281
     0
  0
CLASS
  1
AMDTDMMENUSTATE
  2
AmdtDmMenuState
  3
AcMechDwgViewMgmt
 90
     1024
280
     0
281
     0
  0
CLASS
  1
AMDTAMMENUSTATE
  2
AmdtAmMenuState
  3
DesignerAssemblies
 90
     1024
280
     0
281
     0
  0
CLASS
  1
ACAMPROJECT
  2
AcAmProject
  3
DesignerAssemblies
 90
     1024
280
     0
281
     0
  0
CLASS
  1
ACAMGRCOMPDEF
  2
AcAmGrCompDef
  3
DesignerAssemblies
 90
     1024
280
     0
281
     0
  0
CLASS
  1
ACCMCONTEXT
  2
AcCmContext
  3
DesignerAssemblies
 90
     1024
280
     0
281
     0
  0
CLASS
  1
ACAMCOMPDEF
  2
AcAmCompDef
  3
DesignerAssemblies
 90
     1024
280
     0
281
     0
  0
CLASS
  1
ACAMCOMPDEFMGR
  2
AcAmCompDefMgr
  3
DesignerAssemblies
 90
     1024
280
     0
281
     0
  0
CLASS
  1
AMCONTEXTMGR
  2
AcAmContextMgr
  3
DesignerAssemblies
 90
     1024
280
     0
281
     0
  0
CLASS
  1
ACAMCONTEXTMODELER
  2
AcAmContextModeler
  3
DesignerAssemblies
 90
     1024
280
     0
281
     0
  0
CLASS
  1
ACMTHREADLINESTANDARDDIN
  2
AmdtThreadLineStdDIN
  3
"Amdt_StdImp|Product Description: AutoCAD Mechanical|Company: Autodesk, Inc."
 90
     1024
280
     0
281
     0
  0
CLASS
  1
ACMNOTESTANDARDDIN
  2
AmdtNoteStdDIN
  3
"Amdt_StdImp|Product Description: AutoCAD Mechanical|Company: Autodesk, Inc."
 90
     1024
280
     0
281
     0
  0
CLASS
  1
AMDTNOTETEMPLATEDB
  2
AmdtNoteTemplateDB
  3
AcmSymBB|Product Description: AutoCAD Mechanical|Company: Autodesk, Inc.
 90
     1024
280
     0
281
     0
  0
CLASS
  1
CATALOGSTATE
  2
AcAmCatalogState
  3
DesignerAssemblies
 90
     1024
280
     0
281
     0
  0
CLASS
  1
ACAMGRCOMPDEFSET
  2
AcAmGrCompDefSet
  3
DesignerAssemblies
 90
     1024
280
     0
281
     0
  0
CLASS
  1
AMDTBROWSERDBTAB
  2
AmdtBrowserDbTab
  3
McadcomServices
 90
     1024
280
     0
281
     0
  0
CLASS
  1
CBROWSERAPPOBJECT
  2
CBrowserAppObject
  3
McadcomServices
 90
     1024
280
     0
281
     0
  0
CLASS
  1
DM_PLACEHOLDER
  2
AcDmSelsetPlaceholder
  3
AcMechDwgViewMgmt
 90
     1024
280
     0
281
     0
  0
CLASS
  1
MATERIAL
  2
AcDbMaterial
  3
ObjectDBX Classes
 90
     1153
280
     0
281
     0
  0
CLASS
  1
VISUALSTYLE
  2
AcDbVisualStyle
  3
ObjectDBX Classes
 90
     4095
280
     0
281
     0
  0
CLASS
  1
SCALE
  2
AcDbScale
  3
ObjectDBX Classes
 90
     1153
280
     0
281
     0
  0
CLASS
  1
MLEADERSTYLE
  2
AcDbMLeaderStyle
  3
ACDB_MLEADERSTYLE_CLASS
 90
     4095
280
     0
281
     0
  0
CLASS
  1
CELLSTYLEMAP
  2
AcDbCellStyleMap
  3
ObjectDBX Classes
 90
     1152
280
     0
281
     0
  0
CLASS
  1
ACRFATTGENMGR
  2
AcRfAttGeneralMgr
  3
AcAttribServices
 90
     1024
280
     0
281
     0
  0
CLASS
  1
ACRFOBJATTMGR
  2
AcRfObjAttGroupMgr
  3
AcAttribServices
 90
     1024
280
     0
281
     0
  0
CLASS
  1
ACRFMCADAPIATTHOLDER
  2
AcRfMCADAPIAttHolder
  3
AcAttribServices
 90
     1024
280
     0
281
     0
  0
CLASS
  1
AMDTSYSATTR
  2
AmdtSystemAttribute
  3
AcAttribServices
 90
     1024
280
     0
281
     0
  0
CLASS
  1
ACMTAPERSTANDARDDIN
  2
AcmTaperStdDIN
  3
"Amdt_StdImp|Product Description: AutoCAD Mechanical|Company: Autodesk, Inc."
 90
     1024
280
     0
281
     0
  0
CLASS
  1
ACMANOOTATIONVIEWSTANDARDDIN
  2
AmdtAnViewStdDIN
  3
"Amdt_StdImp|Product Description: AutoCAD Mechanical|Company: Autodesk, Inc."
 90
     1024
280
     0
281
     0
  0
CLASS
  1
EXACXREFPANELOBJECT
  2
ExAcXREFPanelObject
  3
EXAC_ESW
 90
     1025
280
     0
281
     0
  0
CLASS
  1
NPOCOLLECTION
  2
AcDbImpNonPersistentObjectsCollection
  3
ObjectDBX Classes
 90
     1153
280
     0
281
     0
  0
CLASS
  1
IMAGE
  2
AcDbRasterImage
  3
ISM
 90
     2175
280
     0
281
     1
  0
CLASS
  1
IMAGEDEF_REACTOR
  2
AcDbRasterImageDefReactor
  3
ISM
 90
        1
280
     0
281
     0
  0
CLASS
  1
SORTENTSTABLE
  2
AcDbSortentsTable
  3
ObjectDBX Classes
 90
        0
280
     0
281
     0
  0
CLASS
  1
IMAGEDEF
  2
AcDbRasterImageDef
  3
ISM
 90
        0
280
     0
281
     0
  0
CLASS
  1
ACAMGFILTERDAT
  2
AcAmgFilterDat
  3
"AcadM|Product Description: AutoCAD Mechanical|Company: Autodesk, Inc."
 90
     1024
280
     0
281
     0
  0
CLASS
  1
AEC_REFEDIT_STATUS_TRACKER
  2
AecDbRefEditStatusTracker
  3
AecArchBase50|Product Desc: Autodesk Architectural Desktop 2007 |Company: Autodesk,Inc. |WEB Address: www.autodesk.com
 90
      129
280
     0
281
     0
  0
CLASS
  1
RASTERVARIABLES
  2
AcDbRasterVariables
  3
ISM
 90
        0
280
     0
281
     0
  0
CLASS
  1
CAMSSTRUCTBTNSTATE
  2
StructBtnState
  3
DesignerAssemblies
 90
     1024
280
     0
281
     0
  0
CLASS
  1
AMDTDETAILSYM
  2
AmdtDetailSym
  3
"AcmSymBB|Product Description: AutoCAD Mechanical|Company: Autodesk, Inc."
 90
     4095
280
     0
281
     1
  0
CLASS
  1
AMDTDETAILSYMLABEL
  2
AmdtDetailSymLabel
  3
"AcmSymBB|Product Description: AutoCAD Mechanical|Company: Autodesk, Inc."
 90
     4095
280
     0
281
     1
  0
CLASS
  1
ACMDIMBREAKPERSREACTOR
  2
AcmDimBreakPersReactor
  3
AmgDim|Product Description: AutoCAD Mechanical|Company: Autodesk, Inc.
 90
    36863
280
     0
281
     0
  0
CLASS
  1
DIMASSOC
  2
AcDbDimAssoc
  3
"AcDbDimAssoc|Product Desc:     AcDim ARX App For Dimension|Company:          Autodesk, Inc.|WEB Address:      www.autodesk.com"
 90
        0
280
     0
281
     0
  0
ENDSEC
  0
SECTION
  2
TABLES
  0
TABLE
  2
VPORT
  5
8
330
0
100
AcDbSymbolTable
 70
     1
  0
VPORT
  5
110
330
8
100
AcDbSymbolTableRecord
100
AcDbViewportTableRecord
  2
*Active
 70
     0
 10
0.0
 20
0.0
 11
1.0
 21
1.0
 12
371.2359584511649
 22
734.6288958255533
 13
0.0
 23
0.0
 14
2.5
 24
2.5
 15
10.0
 25
10.0
 16
0.0
 26
0.0
 36
1.0
 17
0.0
 27
0.0
 37
0.0
 40
455.3623135425371
 41
1.743833017077798
 42
50.0
 43
0.0
 44
0.0
 50
0.0
 51
0.0
 71
     0
 72
   100
 73
     1
 74
     3
 75
     0
 76
     0
 77
     0
 78
     0
281
     0
 65
     1
110
0.0
120
0.0
130
0.0
111
1.0
121
0.0
131
0.0
112
0.0
122
1.0
132
0.0
 79
     0
146
0.0
  0
ENDTAB
  0
TABLE
  2
LTYPE
  5
5
330
0
100
AcDbSymbolTable
 70
    18
  0
LTYPE
  5
14
330
5
100
AcDbSymbolTableRecord
100
AcDbLinetypeTableRecord
  2
ByBlock
 70
     0
  3

 72
    65
 73
     0
 40
0.0
  0
LTYPE
  5
15
330
5
100
AcDbSymbolTableRecord
100
AcDbLinetypeTableRecord
  2
ByLayer
 70
     0
  3

 72
    65
 73
     0
 40
0.0
  0
LTYPE
  5
16
330
5
100
AcDbSymbolTableRecord
100
AcDbLinetypeTableRecord
  2
Continuous
 70
     0
  3
Solid line
 72
    65
 73
     0
 40
0.0
  0
LTYPE
  5
52
330
5
100
AcDbSymbolTableRecord
100
AcDbLinetypeTableRecord
  2
Amconstr
 70
     0
  3
_______________________
 72
    65
 73
     2
 40
9999.0
 49
9999.0
 74
     0
 49
0.0
 74
     0
  0
LTYPE
  5
57
330
5
100
AcDbSymbolTableRecord
100
AcDbLinetypeTableRecord
  2
Amzigzag
 70
     0
  3
/\/-/\/-/\/-/\/-/\/-/\/
 72
    65
 73
     2
 40
11.0001
 49
0.0001
 74
     4
 75
   135
340
56
 46
0.04
 50
0.0
 44
0.0
 45
0.0
 49
-11.0
 74
     0
  0
LTYPE
  5
58
330
5
100
AcDbSymbolTableRecord
100
AcDbLinetypeTableRecord
  2
AM_DIN_F_W050
 70
     0
  3
__ __ __ __ __ __ __ __ __ __ __ __ __ __ __
 72
    65
 73
     2
 40
6.25
 49
4.75
 74
     0
 49
-1.5
 74
     0
  0
LTYPE
  5
59
330
5
100
AcDbSymbolTableRecord
100
AcDbLinetypeTableRecord
  2
AM_DIN_G_W050
 70
     0
  3
____ . ____ . ____ . ____ . ____ . ____ . ____
 72
    65
 73
     4
 40
13.75
 49
9.75
 74
     0
 49
-1.5
 74
     0
 49
1.0
 74
     0
 49
-1.5
 74
     0
  0
LTYPE
  5
5A
330
5
100
AcDbSymbolTableRecord
100
AcDbLinetypeTableRecord
  2
AM_DIN_K_W050
 70
     0
  3
_____ . . _____ . . _____ . . ____ .. ____
 72
    65
 73
     6
 40
16.25
 49
9.75
 74
     0
 49
-1.5
 74
     0
 49
1.0
 74
     0
 49
-1.5
 74
     0
 49
1.0
 74
     0
 49
-1.5
 74
     0
  0
LTYPE
  5
5B
330
5
100
AcDbSymbolTableRecord
100
AcDbLinetypeTableRecord
  2
AM_DIN_G_W050x2
 70
     0
  3
__ . __ . __ . __ . __ . __
 72
    65
 73
     4
 40
6.875
 49
4.75
 74
     0
 49
-0.875
 74
     0
 49
0.375
 74
     0
 49
-0.875
 74
     0
  0
LTYPE
  5
5C
330
5
100
AcDbSymbolTableRecord
100
AcDbLinetypeTableRecord
  2
AM_DIN_F_W050x2
 70
     0
  3
 _ _ _ _ _ _ _ _ _ _ _ _
 72
    65
 73
     2
 40
3.125
 49
2.25
 74
     0
 49
-0.875
 74
     0
  0
LTYPE
  5
69
330
5
100
AcDbSymbolTableRecord
100
AcDbLinetypeTableRecord
  2
ACDINWELD
 70
     0
  3
_ _ _ _ _
 72
    65
 73
     2
 40
2.0
 49
2.0
 74
     0
 49
-1.0
 74
     0
  0
LTYPE
  5
6A
330
5
100
AcDbSymbolTableRecord
100
AcDbLinetypeTableRecord
  2
ACDINTGB
 70
     0
  3
__ . . __ . .
 72
    65
 73
     6
 40
9.0
 49
4.0
 74
     0
 49
-1.0
 74
     0
 49
1.0
 74
     0
 49
-1.0
 74
     0
 49
1.0
 74
     0
 49
-1.0
 74
     0
  0
LTYPE
  5
6B
330
5
100
AcDbSymbolTableRecord
100
AcDbLinetypeTableRecord
  2
ACDINTGL
 70
     0
  3
_ _ _ _ _
 72
    65
 73
     2
 40
3.0
 49
2.0
 74
     0
 49
-1.0
 74
     0
  0
LTYPE
  5
6D
330
5
100
AcDbSymbolTableRecord
100
AcDbLinetypeTableRecord
  2
CENTER
 70
     0
  3
__ . __
 72
    65
 73
     4
 40
7.0
 49
4.0
 74
     0
 49
-1.0
 74
     0
 49
1.0
 74
     0
 49
-1.0
 74
     0
  0
LTYPE
  5
18A
330
5
100
AcDbSymbolTableRecord
100
AcDbLinetypeTableRecord
  2
HIDDEN
 70
     0
  3
Verdeckt
 72
    65
 73
     2
 40
9.525
 49
6.349999999999999
 74
     0
 49
-3.174999999999999
 74
     0
  0
LTYPE
  5
18B
330
5
100
AcDbSymbolTableRecord
100
AcDbLinetypeTableRecord
  2
PHANTOM2
 70
     0
  3
Phantom (.5x) ___ _ _ ___ _ _ ___ _ _ ___ _ _
 72
    65
 73
     6
 40
31.75
 49
15.875
 74
     0
 49
-3.174999999999999
 74
     0
 49
3.174999999999999
 74
     0
 49
-3.174999999999999
 74
     0
 49
3.174999999999999
 74
     0
 49
-3.174999999999999
 74
     0
  0
LTYPE
  5
266
330
5
100
AcDbSymbolTableRecord
100
AcDbLinetypeTableRecord
  2
AM_ISO08W050
 70
     0
  3
____ . ____ . ____ . ____ . ____ . ____ . ____
 72
    65
 73
     4
 40
18.0
 49
12.0
 74
     0
 49
-1.5
 74
     0
 49
3.0
 74
     0
 49
-1.5
 74
     0
  0
LTYPE
  5
267
330
5
100
AcDbSymbolTableRecord
100
AcDbLinetypeTableRecord
  2
STRICHPUNKT
 70
     0
  3
__ . __ . __ . __ . __ . __ . __ . __ . __ . __
 72
    65
 73
     4
 40
1.0
 49
0.5
 74
     0
 49
-0.25
 74
     0
 49
0.0
 74
     0
 49
-0.25
 74
     0
  0
LTYPE
  5
268
330
5
100
AcDbSymbolTableRecord
100
AcDbLinetypeTableRecord
  2
VERDECKT2
 70
     0
  3
Verdeckt (.5x) _ _ _ _ _ _ _ _ _ _ _ _ _ _ _ _ 
 72
    65
 73
     2
 40
4.762499999999999
 49
3.174999999999999
 74
     0
 49
-1.587499999999999
 74
     0
  0
LTYPE
  5
269
330
5
100
AcDbSymbolTableRecord
100
AcDbLinetypeTableRecord
  2
AUSGEZOGEN
 70
     0
  3
Ausgezogene Linie
 72
    65
 73
     0
 40
0.0
  0
ENDTAB
  0
TABLE
  2
LAYER
  5
2
102
{ACAD_XDICTIONARY
360
2A3
102
}
330
0
100
AcDbSymbolTable
 70
    22
  0
LAYER
  5
10
102
{ACAD_XDICTIONARY
360
165
102
}
330
2
100
AcDbSymbolTableRecord
100
AcDbLayerTableRecord
  2
0
 70
     0
 62
     7
  6
Continuous
370
    -3
390
F
  0
LAYER
  5
26A
102
{ACAD_XDICTIONARY
360
26B
102
}
330
2
100
AcDbSymbolTableRecord
100
AcDbLayerTableRecord
  2
AM_7
 70
     0
 62
     4
  6
AM_DIN_G_W050
370
    25
390
F
1001
AcAecLayerStandard
1000

1000

  0
LAYER
  5
26C
102
{ACAD_XDICTIONARY
360
26D
102
}
330
2
100
AcDbSymbolTableRecord
100
AcDbLayerTableRecord
  2
AM_CL
 70
     0
 62
     1
  6
Amconstr
370
    25
390
F
1001
AcAecLayerStandard
1000

1000

  0
LAYER
  5
26E
102
{ACAD_XDICTIONARY
360
26F
102
}
330
2
100
AcDbSymbolTableRecord
100
AcDbLayerTableRecord
  2
MITTE
 70
     0
 62
     1
  6
STRICHPUNKT
370
    -3
390
F
  0
LAYER
  5
270
102
{ACAD_XDICTIONARY
360
271
102
}
330
2
100
AcDbSymbolTableRecord
100
AcDbLayerTableRecord
  2
DUENN
 70
     0
 62
     4
  6
Continuous
370
    -3
390
F
  0
LAYER
  5
272
102
{ACAD_XDICTIONARY
360
273
102
}
330
2
100
AcDbSymbolTableRecord
100
AcDbLayerTableRecord
  2
Viditelná (ISO)
 70
     0
 62
     7
  6
Continuous
370
    35
390
F
  0
LAYER
  5
274
102
{ACAD_XDICTIONARY
360
275
102
}
330
2
100
AcDbSymbolTableRecord
100
AcDbLayerTableRecord
  2
SICHTBAR
 70
     0
 62
     7
  6
Continuous
370
    -3
390
F
  0
LAYER
  5
276
102
{ACAD_XDICTIONARY
360
277
102
}
330
2
100
AcDbSymbolTableRecord
100
AcDbLayerTableRecord
  2
Verdeckt
 70
     0
 62
     6
  6
VERDECKT2
370
    -3
390
F
1001
AcAecLayerStandard
1000

1000

  0
LAYER
  5
278
102
{ACAD_XDICTIONARY
360
279
102
}
330
2
100
AcDbSymbolTableRecord
100
AcDbLayerTableRecord
  2
AM_8
 70
     0
 62
     1
  6
Continuous
370
    25
390
F
1001
AcAecLayerStandard
1000

1000

  0
LAYER
  5
27A
102
{ACAD_XDICTIONARY
360
27B
102
}
330
2
100
AcDbSymbolTableRecord
100
AcDbLayerTableRecord
  2
RAHM2
 70
     0
 62
     1
  6
Continuous
370
    -3
390
F
  0
LAYER
  5
27C
330
2
100
AcDbSymbolTableRecord
100
AcDbLayerTableRecord
  2
AM_BOR
 70
     0
 62
     7
  6
Continuous
370
    50
390
F
1001
AcAecLayerStandard
1000

1000

  0
LAYER
  5
27D
102
{ACAD_XDICTIONARY
360
27E
102
}
330
2
100
AcDbSymbolTableRecord
100
AcDbLayerTableRecord
  2
TEXT50
 70
     0
 62
     7
  6
Continuous
370
    -3
390
F
  0
LAYER
  5
27F
102
{ACAD_XDICTIONARY
360
280
102
}
330
2
100
AcDbSymbolTableRecord
100
AcDbLayerTableRecord
  2
TEXT35
 70
     0
 62
   132
  6
Continuous
370
    -3
390
F
  0
LAYER
  5
281
102
{ACAD_XDICTIONARY
360
282
102
}
330
2
100
AcDbSymbolTableRecord
100
AcDbLayerTableRecord
  2
TEXT25
 70
     0
 62
     3
  6
Continuous
370
    -3
390
F
  0
LAYER
  5
283
102
{ACAD_XDICTIONARY
360
284
102
}
330
2
100
AcDbSymbolTableRecord
100
AcDbLayerTableRecord
  2
KOPF
 70
     0
 62
     1
  6
AUSGEZOGEN
370
    -3
390
F
  0
LAYER
  5
285
102
{ACAD_XDICTIONARY
360
286
102
}
330
2
100
AcDbSymbolTableRecord
100
AcDbLayerTableRecord
  2
Sperrlayer
 70
     1
 62
     7
  6
Continuous
370
    50
390
F
  0
LAYER
  5
287
102
{ACAD_XDICTIONARY
360
288
102
}
330
2
100
AcDbSymbolTableRecord
100
AcDbLayerTableRecord
  2
0N
 70
     0
 62
     7
  6
Continuous
370
    -3
390
F
  0
LAYER
  5
6DB
330
2
100
AcDbSymbolTableRecord
100
AcDbLayerTableRecord
  2
AM_5
 70
     0
 62
     3
  6
Continuous
370
    25
390
F
1001
AcAecLayerStandard
1000

1000

  0
LAYER
  5
6DC
330
2
100
AcDbSymbolTableRecord
100
AcDbLayerTableRecord
  2
AM_4
 70
     0
 62
     3
  6
Continuous
370
    25
390
F
1001
AcAecLayerStandard
1000

1000

  0
LAYER
  5
705
330
2
100
AcDbSymbolTableRecord
100
AcDbLayerTableRecord
  2
AM_9
 70
     0
 62
  -253
  6
Continuous
370
     0
390
F
1001
AcAecLayerStandard
1000

1000

  0
LAYER
  5
70D
330
2
100
AcDbSymbolTableRecord
100
AcDbLayerTableRecord
  2
AM_0
 70
     0
 62
     7
  6
Continuous
370
    50
390
F
1001
AcAecLayerStandard
1000

1000

  0
LAYER
  5
7D5
330
2
100
AcDbSymbolTableRecord
100
AcDbLayerTableRecord
  2
Defpoints
 70
     0
 62
     7
  6
Continuous
290
     0
370
    -3
390
F
  0
ENDTAB
  0
TABLE
  2
STYLE
  5
3
330
0
100
AcDbSymbolTable
 70
     9
  0
STYLE
  5
11
330
3
100
AcDbSymbolTableRecord
100
AcDbTextStyleTableRecord
  2
STANDARD
 70
     0
 40
0.0
 41
1.0
 50
0.0
 71
     0
 42
2.5
  3
ISOCP.SHX
  4

  0
STYLE
  5
56
330
3
100
AcDbSymbolTableRecord
100
AcDbTextStyleTableRecord
  2

 70
     1
 40
0.0
 41
1.0
 50
0.0
 71
     0
 42
2.5
  3
ltypeshp.shx
  4

  0
STYLE
  5
5D
330
3
100
AcDbSymbolTableRecord
100
AcDbTextStyleTableRecord
  2
ACDINTS
 70
     0
 40
1.0
 41
1.0
 50
0.0
 71
     0
 42
2.5
  3
isocp.shx
  4

  0
STYLE
  5
68
330
3
100
AcDbSymbolTableRecord
100
AcDbTextStyleTableRecord
  2
ACDINGDT
 70
     0
 40
0.0
 41
1.0
 50
0.0
 71
     0
 42
2.5
  3
amgdt.shx
  4

  0
STYLE
  5
289
330
3
100
AcDbSymbolTableRecord
100
AcDbTextStyleTableRecord
  2

 70
     1
 40
0.0
 41
1.0
 50
0.0
 71
     0
 42
2.5
  3
genltshp.shx
  4

  0
STYLE
  5
28A
330
3
100
AcDbSymbolTableRecord
100
AcDbTextStyleTableRecord
  2
TEXT20
 70
     0
 40
2.0
 41
0.8
 50
0.0
 71
     0
 42
2.0
  3
isocp3.shx
  4

  0
STYLE
  5
28B
330
3
100
AcDbSymbolTableRecord
100
AcDbTextStyleTableRecord
  2
TEXT35
 70
     0
 40
3.5
 41
0.8
 50
0.0
 71
     0
 42
3.5
  3
isocp3.shx
  4

  0
STYLE
  5
28C
330
3
100
AcDbSymbolTableRecord
100
AcDbTextStyleTableRecord
  2
TEXT50
 70
     0
 40
5.0
 41
0.8
 50
0.0
 71
     0
 42
5.0
  3
isocp3.shx
  4

  0
STYLE
  5
28D
330
3
100
AcDbSymbolTableRecord
100
AcDbTextStyleTableRecord
  2
Anschrift
 70
     0
 40
0.0
 41
1.0
 50
0.0
 71
     0
 42
2.0
  3
C:\Programme\Autodesk\ACADM 2009\Fonts\isocp.shx
  4

  0
ENDTAB
  0
TABLE
  2
VIEW
  5
6
330
0
100
AcDbSymbolTable
 70
     0
  0
ENDTAB
  0
TABLE
  2
UCS
  5
7
330
0
100
AcDbSymbolTable
 70
     0
  0
ENDTAB
  0
TABLE
  2
APPID
  5
9
330
0
100
AcDbSymbolTable
 70
    39
  0
APPID
  5
12
330
9
100
AcDbSymbolTableRecord
100
AcDbRegAppTableRecord
  2
ACAD
 70
     0
  0
APPID
  5
30
330
9
100
AcDbSymbolTableRecord
100
AcDbRegAppTableRecord
  2
MCAD_NO_VIS
 70
     0
  0
APPID
  5
31
330
9
100
AcDbSymbolTableRecord
100
AcDbRegAppTableRecord
  2
ACAD_TEMP_GRAPHIC
 70
     0
  0
APPID
  5
44
330
9
100
AcDbSymbolTableRecord
100
AcDbRegAppTableRecord
  2
ACATTRIBSERVICES
 70
     0
  0
APPID
  5
CE
330
9
100
AcDbSymbolTableRecord
100
AcDbRegAppTableRecord
  2
AD_DRAW
 70
     0
  0
APPID
  5
EC
330
9
100
AcDbSymbolTableRecord
100
AcDbRegAppTableRecord
  2
DESIGNERASSEMBLIES
 70
     0
  0
APPID
  5
F6
330
9
100
AcDbSymbolTableRecord
100
AcDbRegAppTableRecord
  2
ACAD_DSTYLE_DIMARC_LENGTH_SYMBOL
 70
     0
  0
APPID
  5
F7
330
9
100
AcDbSymbolTableRecord
100
AcDbRegAppTableRecord
  2
ACAD_DSTYLE_DIMJOGGED_JOGANGLE_SYMBOL
 70
     0
  0
APPID
  5
107
330
9
100
AcDbSymbolTableRecord
100
AcDbRegAppTableRecord
  2
ACADM_DIM_EDIT
 70
     0
  0
APPID
  5
108
330
9
100
AcDbSymbolTableRecord
100
AcDbRegAppTableRecord
  2
AMDT_DM_ADJ
 70
     0
  0
APPID
  5
15F
330
9
100
AcDbSymbolTableRecord
100
AcDbRegAppTableRecord
  2
ACAD_MLEADERVER
 70
     0
  0
APPID
  5
28F
330
9
100
AcDbSymbolTableRecord
100
AcDbRegAppTableRecord
  2
AcAecLayerStandard
 70
     0
  0
APPID
  5
290
330
9
100
AcDbSymbolTableRecord
100
AcDbRegAppTableRecord
  2
GENIUS_GENOLIS_13
 70
     0
  0
APPID
  5
291
330
9
100
AcDbSymbolTableRecord
100
AcDbRegAppTableRecord
  2
GENIUS_GENOENT_13
 70
     0
  0
APPID
  5
292
330
9
100
AcDbSymbolTableRecord
100
AcDbRegAppTableRecord
  2
GENIUS_GENOBJ-N-CRS_13
 70
     0
  0
APPID
  5
293
330
9
100
AcDbSymbolTableRecord
100
AcDbRegAppTableRecord
  2
GENIUS_GENODEF_13
 70
     0
  0
APPID
  5
294
330
9
100
AcDbSymbolTableRecord
100
AcDbRegAppTableRecord
  2
GENIUS_GENOREF_13
 70
     0
  0
APPID
  5
295
330
9
100
AcDbSymbolTableRecord
100
AcDbRegAppTableRecord
  2
ACAD_PSEXT
 70
     0
  0
APPID
  5
296
330
9
100
AcDbSymbolTableRecord
100
AcDbRegAppTableRecord
  2
GENIUS_GENCEN_19
 70
     0
  0
APPID
  5
297
330
9
100
AcDbSymbolTableRecord
100
AcDbRegAppTableRecord
  2
GENIUS_GENOBJ-N-HTC_13
 70
     0
  0
APPID
  5
298
330
9
100
AcDbSymbolTableRecord
100
AcDbRegAppTableRecord
  2
GENIUS_GENHATCH_13
 70
     0
  0
APPID
  5
299
330
9
100
AcDbSymbolTableRecord
100
AcDbRegAppTableRecord
  2
GENIUS_GENOBJ-N-CEN_13
 70
     0
  0
APPID
  5
29A
330
9
100
AcDbSymbolTableRecord
100
AcDbRegAppTableRecord
  2
GENIUS_GENSCREG_15
 70
     0
  0
APPID
  5
29B
330
9
100
AcDbSymbolTableRecord
100
AcDbRegAppTableRecord
  2
GENIUS_GENOBJ-N-SDF_13
 70
     0
  0
APPID
  5
29C
330
9
100
AcDbSymbolTableRecord
100
AcDbRegAppTableRecord
  2
GENIUS_VERSION2
 70
     0
  0
APPID
  5
29D
330
9
100
AcDbSymbolTableRecord
100
AcDbRegAppTableRecord
  2
GENIUS_GENREC_14
 70
     0
  0
APPID
  5
29E
330
9
100
AcDbSymbolTableRecord
100
AcDbRegAppTableRecord
  2
GENIUS_GENOBJ-N-REC_13
 70
     0
  0
APPID
  5
29F
330
9
100
AcDbSymbolTableRecord
100
AcDbRegAppTableRecord
  2
GENIUS_GENTRA_14
 70
     0
  0
APPID
  5
2A0
330
9
100
AcDbSymbolTableRecord
100
AcDbRegAppTableRecord
  2
GENIUS_GENOBJ-N-TIT_13
 70
     0
  0
APPID
  5
2A1
330
9
100
AcDbSymbolTableRecord
100
AcDbRegAppTableRecord
  2
GENIUS_GENTITLE_13
 70
     0
  0
APPID
  5
2A2
330
9
100
AcDbSymbolTableRecord
100
AcDbRegAppTableRecord
  2
GENIUS_GENOBJ-N-FIL_13
 70
     0
  0
APPID
  5
710
330
9
100
AcDbSymbolTableRecord
100
AcDbRegAppTableRecord
  2
GENIUS_GENOBJ-N-ZOO_13
 70
     0
  0
APPID
  5
711
330
9
100
AcDbSymbolTableRecord
100
AcDbRegAppTableRecord
  2
GENIUS_GENZOO_17
 70
     0
  0
APPID
  5
774
330
9
100
AcDbSymbolTableRecord
100
AcDbRegAppTableRecord
  2
ACAD_EXEMPT_FROM_CAD_STANDARDS
 70
     0
  0
APPID
  5
7F3
330
9
100
AcDbSymbolTableRecord
100
AcDbRegAppTableRecord
  2
ACAD_DSTYLE_DIMINSPECT
 70
     0
  0
APPID
  5
801
330
9
100
AcDbSymbolTableRecord
100
AcDbRegAppTableRecord
  2
ACAD_DSTYLE_DIMANGULAR_EXTENSION
 70
     0
  0
APPID
  5
8DA
330
9
100
AcDbSymbolTableRecord
100
AcDbRegAppTableRecord
  2
ACAD_DSTYLE_DIMRADIAL_EXTENSION
 70
     0
  0
APPID
  5
F70
330
9
100
AcDbSymbolTableRecord
100
AcDbRegAppTableRecord
  2
GENIUS_GENDTOL_13
 70
     0
  0
APPID
  5
1981
330
9
100
AcDbSymbolTableRecord
100
AcDbRegAppTableRecord
  2
GENIUS_GENZOO_16
 70
     0
  0
ENDTAB
  0
TABLE
  2
DIMSTYLE
  5
A
330
0
100
AcDbSymbolTable
 70
    10
100
AcDbDimStyleTable
 71
     1
340
70
  0
DIMSTYLE
105
70
330
A
100
AcDbSymbolTableRecord
100
AcDbDimStyleTableRecord
  2
AM_DIN
 70
     0
  4
"
 41
2.5
 42
1.0
 43
10.0
 44
1.0
 47
0.1
 48
0.1
 73
     0
 74
     0
 77
     1
 78
     8
 79
     2
140
3.5
141
0.0
143
0.0393701
146
0.71
147
1.5
172
     1
176
   256
177
   256
178
     2
271
     2
272
     3
274
     4
283
     0
284
     8
340
11
371
    -1
372
    -1
1001
ACAD_DSTYLE_DIMJOGGED_JOGANGLE_SYMBOL
1070
   384
1040
1.570796326794896
  0
DIMSTYLE
105
71
102
{ACAD_REACTORS
330
14BC
102
}
330
A
100
AcDbSymbolTableRecord
100
AcDbDimStyleTableRecord
  2
AM_DIN$3
 70
     0
  4
"
 41
2.5
 42
1.0
 43
10.0
 44
1.0
 47
0.1
 48
0.1
 73
     0
 77
     1
 78
     8
 79
     2
140
3.5
141
0.0
143
0.0393701
146
0.71
147
1.5
176
   256
177
   256
178
     2
271
     2
272
     3
274
     4
283
     0
284
     8
288
     1
289
     0
340
11
371
    -1
372
    -1
1001
ACAD_DSTYLE_DIMJOGGED_JOGANGLE_SYMBOL
1070
   384
1040
1.570796326794896
  0
DIMSTYLE
105
72
330
A
100
AcDbSymbolTableRecord
100
AcDbDimStyleTableRecord
  2
AM_DIN$4
 70
     0
  4
"
 41
2.5
 42
1.0
 43
10.0
 44
1.0
 47
0.1
 48
0.1
 73
     0
 77
     1
 78
     8
 79
     2
140
3.5
141
0.0
143
0.0393701
146
0.71
147
1.5
176
   256
177
   256
178
     2
271
     2
272
     3
274
     4
283
     0
284
     8
288
     1
289
     0
340
11
371
    -1
372
    -1
1001
ACAD_DSTYLE_DIMJOGGED_JOGANGLE_SYMBOL
1070
   384
1040
1.570796326794896
  0
DIMSTYLE
105
73
330
A
100
AcDbSymbolTableRecord
100
AcDbDimStyleTableRecord
  2
AM_DIN$6
 70
     0
  4
"
 41
2.5
 42
1.0
 43
10.0
 44
1.0
 47
0.1
 48
0.1
 73
     0
 74
     0
 78
     8
 79
     2
140
3.5
141
0.0
143
0.0393701
146
0.71
147
1.5
172
     1
176
   256
177
   256
178
     2
271
     2
272
     3
274
     4
283
     0
284
     8
340
11
371
    -1
372
    -1
1001
ACAD_DSTYLE_DIMJOGGED_JOGANGLE_SYMBOL
1070
   384
1040
1.570796326794896
  0
DIMSTYLE
105
74
330
A
100
AcDbSymbolTableRecord
100
AcDbDimStyleTableRecord
  2
AM_DIN$7
 70
     0
  4
"
 41
2.5
 42
1.0
 43
10.0
 44
1.0
 47
0.1
 48
0.1
 73
     0
 74
     0
 77
     1
 78
     8
 79
     2
140
5.0
141
0.0
143
0.0393701
146
0.71
147
1.5
172
     1
176
   256
177
   256
178
     2
271
     2
272
     3
274
     4
283
     0
284
     8
340
11
371
    -1
372
    -1
1001
ACAD_DSTYLE_DIMJOGGED_JOGANGLE_SYMBOL
1070
   384
1040
1.570796326794896
  0
DIMSTYLE
105
75
330
A
100
AcDbSymbolTableRecord
100
AcDbDimStyleTableRecord
  2
AM_DIN$SF
 70
     0
  4
"
 41
2.5
 42
1.0
 43
10.0
 44
1.0
 47
0.1
 48
0.1
 73
     0
 74
     0
 75
     1
 76
     1
 77
     1
 78
     8
 79
     2
140
3.5
141
0.0
143
0.0393701
146
0.71
147
1.5
172
     1
176
   256
177
   256
178
     2
271
     2
272
     3
274
     4
283
     0
284
     8
340
11
371
    -1
372
    -1
1001
ACAD_DSTYLE_DIMJOGGED_JOGANGLE_SYMBOL
1070
   384
1040
1.570796326794896
  0
DIMSTYLE
105
7A
330
A
100
AcDbSymbolTableRecord
100
AcDbDimStyleTableRecord
  2
AM_DIN$SH
 70
     0
  4
"
 41
2.5
 42
1.0
 43
10.0
 44
1.0
 47
0.1
 48
0.1
 73
     0
 74
     0
 75
     1
 76
     1
 77
     1
 78
     8
 79
     2
140
3.5
141
0.0
143
0.0393701
144
2.0
146
0.71
147
1.5
172
     1
173
     1
176
   256
177
   256
178
     2
271
     2
272
     3
274
     4
283
     0
284
     8
340
11
343
76
371
    -1
372
    -1
1001
ACAD_DSTYLE_DIMJOGGED_JOGANGLE_SYMBOL
1070
   384
1040
1.570796326794896
  0
DIMSTYLE
105
28E
330
A
100
AcDbSymbolTableRecord
100
AcDbDimStyleTableRecord
  2
AM_ISO
 70
     0
  4
"
 41
2.5
 42
1.0
 43
10.0
 44
1.0
 47
0.1
 48
0.1
 73
     0
 74
     0
 77
     1
 78
     8
 79
     2
140
3.5
141
0.0
143
0.0393701
146
0.71
147
1.5
172
     1
176
   256
177
   256
178
     2
271
     2
272
     3
274
     4
283
     0
284
     8
340
11
371
    -1
372
    -1
1001
ACAD_DSTYLE_DIMJOGGED_JOGANGLE_SYMBOL
1070
   384
1040
0.7853981633974483
1001
ACAD_DSTYLE_DIMARC_LENGTH_SYMBOL
1070
   379
1070
     1
  0
DIMSTYLE
105
7D2
330
A
100
AcDbSymbolTableRecord
100
AcDbDimStyleTableRecord
  2
AM_DIN$2
 70
     0
  4
"
 41
2.5
 42
1.0
 43
10.0
 44
1.0
 47
0.1
 48
0.1
 73
     0
 74
     0
 77
     1
 78
     8
 79
     2
140
3.5
141
0.0
143
0.0393701
146
0.71
147
1.5
172
     1
176
   256
177
   256
178
     2
271
     2
272
     3
274
     4
283
     0
284
     8
340
11
371
    -1
372
    -1
1001
ACAD_DSTYLE_DIMJOGGED_JOGANGLE_SYMBOL
1070
   384
1040
1.570796326794896
  0
DIMSTYLE
105
818
102
{ACAD_REACTORS
330
1424
330
14BE
330
1718
102
}
330
A
100
AcDbSymbolTableRecord
100
AcDbDimStyleTableRecord
  2
AM_DIN$0
 70
     0
  4
"
 41
2.5
 42
1.0
 43
10.0
 44
1.0
 47
0.1
 48
0.1
 73
     0
 74
     0
 77
     1
 78
     8
 79
     2
140
3.5
141
0.0
143
0.0393701
146
0.71
147
1.5
172
     1
176
   256
177
   256
178
     2
271
     2
272
     3
274
     4
283
     0
284
     8
340
11
371
    -1
372
    -1
1001
ACAD_DSTYLE_DIMJOGGED_JOGANGLE_SYMBOL
1070
   384
1040
1.570796326794896
  0
ENDTAB
  0
TABLE
  2
BLOCK_RECORD
  5
1
330
0
100
AcDbSymbolTable
 70
    33
  0
BLOCK_RECORD
  5
1F
102
{ACAD_XDICTIONARY
360
81
102
}
330
1
100
AcDbSymbolTableRecord
100
AcDbBlockTableRecord
  2
*Model_Space
340
22
  0
BLOCK_RECORD
  5
1B
330
1
100
AcDbSymbolTableRecord
100
AcDbBlockTableRecord
  2
*Paper_Space
340
1E
  0
BLOCK_RECORD
  5
23
330
1
100
AcDbSymbolTableRecord
100
AcDbBlockTableRecord
  2
*Paper_Space0
340
26
  0
BLOCK_RECORD
  5
76
330
1
100
AcDbSymbolTableRecord
100
AcDbBlockTableRecord
  2
GENAXEH
340
0
  0
BLOCK_RECORD
  5
193
330
1
100
AcDbSymbolTableRecord
100
AcDbBlockTableRecord
  2
ACO_A2
340
0
102
{BLKREFS
331
144E
102
}
  0
BLOCK_RECORD
  5
1DB
102
{ACAD_XDICTIONARY
360
1DC
102
}
330
1
100
AcDbSymbolTableRecord
100
AcDbBlockTableRecord
  2
ACO-SF02-GR
340
0
102
{BLKREFS
331
144F
102
}
  0
BLOCK_RECORD
  5
709
330
1
100
AcDbSymbolTableRecord
100
AcDbBlockTableRecord
  2
GENZOOKU1MJL3
340
0
  0
BLOCK_RECORD
  5
7CC
330
1
100
AcDbSymbolTableRecord
100
AcDbBlockTableRecord
  2
GENZOORLAMJL3
340
0
  0
BLOCK_RECORD
  5
96F
330
1
100
AcDbSymbolTableRecord
100
AcDbBlockTableRecord
  2
GENZOOU7PMJL3
340
0
  0
BLOCK_RECORD
  5
B70
330
1
100
AcDbSymbolTableRecord
100
AcDbBlockTableRecord
  2
GENZOOLJTMKL3
340
0
  0
BLOCK_RECORD
  5
FD5
330
1
100
AcDbSymbolTableRecord
100
AcDbBlockTableRecord
  2
ACO_A3
340
0
102
{BLKREFS
331
13F0
102
}
  0
BLOCK_RECORD
  5
1018
330
1
100
AcDbSymbolTableRecord
100
AcDbBlockTableRecord
  2
GENZOOIHWJJL3
340
0
102
{BLKREFS
331
1495
102
}
  0
BLOCK_RECORD
  5
14CD
330
1
100
AcDbSymbolTableRecord
100
AcDbBlockTableRecord
  2
*D19
340
0
  0
BLOCK_RECORD
  5
15BF
330
1
100
AcDbSymbolTableRecord
100
AcDbBlockTableRecord
  2
*D20
340
0
  0
BLOCK_RECORD
  5
15D5
330
1
100
AcDbSymbolTableRecord
100
AcDbBlockTableRecord
  2
*D21
340
0
  0
BLOCK_RECORD
  5
1719
330
1
100
AcDbSymbolTableRecord
100
AcDbBlockTableRecord
  2
*D22
340
0
  0
BLOCK_RECORD
  5
1751
330
1
100
AcDbSymbolTableRecord
100
AcDbBlockTableRecord
  2
*D23
340
0
  0
BLOCK_RECORD
  5
175D
330
1
100
AcDbSymbolTableRecord
100
AcDbBlockTableRecord
  2
*D24
340
0
  0
BLOCK_RECORD
  5
1766
330
1
100
AcDbSymbolTableRecord
100
AcDbBlockTableRecord
  2
*D25
340
0
  0
BLOCK_RECORD
  5
1772
330
1
100
AcDbSymbolTableRecord
100
AcDbBlockTableRecord
  2
*D26
340
0
  0
BLOCK_RECORD
  5
177E
330
1
100
AcDbSymbolTableRecord
100
AcDbBlockTableRecord
  2
*D27
340
0
  0
BLOCK_RECORD
  5
1815
330
1
100
AcDbSymbolTableRecord
100
AcDbBlockTableRecord
  2
GENZOO7AR1R33
340
0
102
{BLKREFS
331
1818
102
}
  0
BLOCK_RECORD
  5
1982
330
1
100
AcDbSymbolTableRecord
100
AcDbBlockTableRecord
  2
*S29
340
0
  0
BLOCK_RECORD
  5
198A
330
1
100
AcDbSymbolTableRecord
100
AcDbBlockTableRecord
  2
*S30
340
0
  0
BLOCK_RECORD
  5
1991
330
1
100
AcDbSymbolTableRecord
100
AcDbBlockTableRecord
  2
*S31
340
0
  0
BLOCK_RECORD
  5
1998
330
1
100
AcDbSymbolTableRecord
100
AcDbBlockTableRecord
  2
*S32
340
0
  0
ENDTAB
  0
ENDSEC
  0
SECTION
  2
BLOCKS
  0
BLOCK
  5
20
330
1F
100
AcDbEntity
  8
0
100
AcDbBlockBegin
  2
*Model_Space
 70
     0
 10
0.0
 20
0.0
 30
0.0
  3
*Model_Space
  1

  0
ENDBLK
  5
21
330
1F
100
AcDbEntity
  8
0
100
AcDbBlockEnd
  0
BLOCK
  5
1C
330
1B
100
AcDbEntity
 67
     1
  8
0
100
AcDbBlockBegin
  2
*Paper_Space
 70
     0
 10
0.0
 20
0.0
 30
0.0
  3
*Paper_Space
  1

  0
ENDBLK
  5
1D
330
1B
100
AcDbEntity
 67
     1
  8
0
100
AcDbBlockEnd
  0
BLOCK
  5
24
330
23
100
AcDbEntity
 67
     1
  8
0
100
AcDbBlockBegin
  2
*Paper_Space0
 70
     0
 10
0.0
 20
0.0
 30
0.0
  3
*Paper_Space0
  1

  0
ENDBLK
  5
25
330
23
100
AcDbEntity
 67
     1
  8
0
100
AcDbBlockEnd
  0
BLOCK
  5
78
330
76
100
AcDbEntity
  8
0
100
AcDbBlockBegin
  2
GENAXEH
 70
     0
 10
0.0
 20
0.0
 30
0.0
  3
GENAXEH
  1

  0
LINE
  5
77
330
76
100
AcDbEntity
  8
0
100
AcDbLine
 10
-1.0
 20
0.0
 30
0.0
 11
1.0
 21
0.0
 31
0.0
  0
ENDBLK
  5
79
330
76
100
AcDbEntity
  8
0
100
AcDbBlockEnd
  0
BLOCK
  5
194
330
193
100
AcDbEntity
  8
0
100
AcDbBlockBegin
  2
ACO_A2
 70
     0
 10
0.0
 20
0.0
 30
0.0
  3
ACO_A2
  1

  0
LINE
  5
195
330
193
100
AcDbEntity
  8
AM_BOR
 62
     1
370
    25
100
AcDbLine
 10
10.00000000000002
 20
410.0
 30
0.0
 11
584.0
 21
410.0
 31
0.0
  0
LINE
  5
196
330
193
100
AcDbEntity
  8
0
100
AcDbLine
 10
5.0
 20
5.0
 30
0.0
 11
5.000000000000024
 21
415.0
 31
0.0
  0
TEXT
  5
197
330
193
100
AcDbEntity
  8
0
 60
     1
100
AcDbText
 10
583.9999999999998
 20
5.0
 30
0.0
 40
3.5
  1
!GENTITLE-INSERT
100
AcDbText
  0
TEXT
  5
198
330
193
100
AcDbEntity
  8
0
 60
     1
100
AcDbText
 10
10.0
 20
10.00000000000005
 30
0.0
 40
3.5
  1
!GENTITLE-LL
100
AcDbText
  0
TEXT
  5
199
330
193
100
AcDbEntity
  8
0
 60
     1
100
AcDbText
 10
584.0
 20
410.0
 30
0.0
 40
3.5
  1
!GENTITLE-RU
100
AcDbText
  0
TEXT
  5
19A
330
193
100
AcDbEntity
  8
0
 60
     1
100
AcDbText
 10
594.0
 20
420.0
 30
0.0
 40
3.5
  1
!GENTITLE-MAX
100
AcDbText
  0
LINE
  5
19B
330
193
100
AcDbEntity
  8
AM_BOR
 62
     1
370
    25
100
AcDbLine
 10
593.9999999999998
 20
0.0
 30
0.0
 11
401.9999999999998
 21
0.0
 31
0.0
  0
LINE
  5
19C
330
193
100
AcDbEntity
  8
AM_BOR
 62
     1
370
    25
100
AcDbLine
 10
331.1199999999999
 20
10.00000000000003
 30
0.0
 11
9.999999999999886
 21
10.00000000000007
 31
0.0
  0
LINE
  5
19D
330
193
100
AcDbEntity
  8
AM_BOR
 62
     1
370
    25
100
AcDbLine
 10
444.2499999999999
 20
415.0
 30
0.0
 11
444.2499999999999
 21
410.0
 31
0.0
  0
LINE
  5
19E
330
193
100
AcDbEntity
  8
AM_BOR
 62
     1
370
    25
100
AcDbLine
 10
516.6249999999998
 20
415.0
 30
0.0
 11
516.6249999999998
 21
410.0
 31
0.0
  0
TEXT
  5
19F
330
193
100
AcDbEntity
  8
AM_BOR
 62
     1
370
    25
100
AcDbText
 10
480.0
 20
410.5
 30
0.0
 40
4.0
  1
7
100
AcDbText
  0
TEXT
  5
1A0
330
193
100
AcDbEntity
  8
AM_BOR
 62
     1
370
    25
100
AcDbText
 10
552.5
 20
410.5
 30
0.0
 40
4.0
  1
8
100
AcDbText
  0
TEXT
  5
1A1
330
193
100
AcDbEntity
  8
AM_BOR
 62
     1
370
    25
100
AcDbText
 10
407.5
 20
410.5
 30
0.0
 40
4.0
  1
6
100
AcDbText
  0
LINE
  5
1A2
330
193
100
AcDbEntity
  8
AM_BOR
 62
     1
370
    25
100
AcDbLine
 10
371.8749999999999
 20
415.0
 30
0.0
 11
371.8749999999999
 21
410.0
 31
0.0
  0
TEXT
  5
1A3
330
193
100
AcDbEntity
  8
AM_BOR
 62
     1
370
    25
100
AcDbText
 10
335.0
 20
410.5
 30
0.0
 40
4.0
  1
5
100
AcDbText
  0
LINE
  5
1A4
330
193
100
AcDbEntity
  8
AM_BOR
 62
     1
370
    25
100
AcDbLine
 10
82.37499999999991
 20
415.0
 30
0.0
 11
82.37499999999991
 21
410.0
 31
0.0
  0
LINE
  5
1A5
330
193
100
AcDbEntity
  8
AM_BOR
 62
     1
370
    25
100
AcDbLine
 10
154.7499999999999
 20
415.0
 30
0.0
 11
154.7499999999999
 21
410.0
 31
0.0
  0
LINE
  5
1A6
330
193
100
AcDbEntity
  8
AM_BOR
 62
     1
370
    25
100
AcDbLine
 10
227.1249999999999
 20
415.0
 30
0.0
 11
227.1249999999999
 21
410.0
 31
0.0
  0
LINE
  5
1A7
330
193
100
AcDbEntity
  8
AM_BOR
 62
     1
370
    25
100
AcDbLine
 10
299.4999999999999
 20
415.0
 30
0.0
 11
299.4999999999999
 21
410.0
 31
0.0
  0
TEXT
  5
1A8
330
193
100
AcDbEntity
  8
AM_BOR
 62
     1
370
    25
100
AcDbText
 10
45.50000000000002
 20
410.5
 30
0.0
 40
4.0
  1
1
100
AcDbText
  0
TEXT
  5
1A9
330
193
100
AcDbEntity
  8
AM_BOR
 62
     1
370
    25
100
AcDbText
 10
117.5
 20
410.5
 30
0.0
 40
4.0
  1
2
100
AcDbText
  0
TEXT
  5
1AA
330
193
100
AcDbEntity
  8
AM_BOR
 62
     1
370
    25
100
AcDbText
 10
190.5
 20
410.5
 30
0.0
 40
4.0
  1
3
100
AcDbText
  0
TEXT
  5
1AB
330
193
100
AcDbEntity
  8
AM_BOR
 62
     1
370
    25
100
AcDbText
 10
263.0
 20
410.5
 30
0.0
 40
4.0
  1
4
100
AcDbText
  0
LINE
  5
1AC
330
193
100
AcDbEntity
  8
AM_BOR
 62
     1
370
    25
100
AcDbLine
 10
588.9831138758759
 20
76.71791910685186
 30
0.0
 11
584.0
 21
76.71791910685186
 31
0.0
  0
LINE
  5
1AD
330
193
100
AcDbEntity
  8
AM_BOR
 62
     1
370
    25
100
AcDbLine
 10
588.9831138758759
 20
143.3779191068518
 30
0.0
 11
584.0
 21
143.3779191068518
 31
0.0
  0
LINE
  5
1AE
330
193
100
AcDbEntity
  8
AM_BOR
 62
     1
370
    25
100
AcDbLine
 10
588.9831138758759
 20
210.0379191068519
 30
0.0
 11
584.0
 21
210.0379191068519
 31
0.0
  0
LINE
  5
1AF
330
193
100
AcDbEntity
  8
AM_BOR
 62
     1
370
    25
100
AcDbLine
 10
588.9831138758759
 20
276.6979191068519
 30
0.0
 11
584.0
 21
276.6979191068519
 31
0.0
  0
LINE
  5
1B0
330
193
100
AcDbEntity
  8
AM_BOR
 62
     1
370
    25
100
AcDbLine
 10
588.9831138758759
 20
343.3579191068519
 30
0.0
 11
584.0
 21
343.3579191068519
 31
0.0
  0
TEXT
  5
1B1
330
193
100
AcDbEntity
  8
AM_BOR
 62
     1
370
    25
100
AcDbText
 10
585.0
 20
43.0
 30
0.0
 40
4.0
  1
F
100
AcDbText
  0
TEXT
  5
1B2
330
193
100
AcDbEntity
  8
AM_BOR
 62
     1
370
    25
100
AcDbText
 10
585.0
 20
109.0
 30
0.0
 40
4.0
  1
E
100
AcDbText
  0
TEXT
  5
1B3
330
193
100
AcDbEntity
  8
AM_BOR
 62
     1
370
    25
100
AcDbText
 10
585.0
 20
176.0
 30
0.0
 40
4.0
  1
D
100
AcDbText
  0
TEXT
  5
1B4
330
193
100
AcDbEntity
  8
AM_BOR
 62
     1
370
    25
100
AcDbText
 10
585.0
 20
243.0
 30
0.0
 40
4.0
  1
C
100
AcDbText
  0
TEXT
  5
1B5
330
193
100
AcDbEntity
  8
AM_BOR
 62
     1
370
    25
100
AcDbText
 10
585.0
 20
310.0
 30
0.0
 40
4.0
  1
B
100
AcDbText
  0
TEXT
  5
1B6
330
193
100
AcDbEntity
  8
AM_BOR
 62
     1
370
    25
100
AcDbText
 10
585.0
 20
376.0
 30
0.0
 40
4.0
  1
A
100
AcDbText
  0
TEXT
  5
1B7
330
193
100
AcDbEntity
  8
AM_BOR
 62
     1
370
    25
100
AcDbText
 10
263.0
 20
5.5
 30
0.0
 40
4.0
  1
4
100
AcDbText
  0
TEXT
  5
1B8
330
193
100
AcDbEntity
  8
AM_BOR
 62
     1
370
    25
100
AcDbText
 10
190.5
 20
5.5
 30
0.0
 40
4.0
  1
3
100
AcDbText
  0
TEXT
  5
1B9
330
193
100
AcDbEntity
  8
AM_BOR
 62
     1
370
    25
100
AcDbText
 10
117.5
 20
5.5
 30
0.0
 40
4.0
  1
2
100
AcDbText
  0
TEXT
  5
1BA
330
193
100
AcDbEntity
  8
AM_BOR
 62
     1
370
    25
100
AcDbText
 10
45.49999999999999
 20
5.5
 30
0.0
 40
4.0
  1
1
100
AcDbText
  0
TEXT
  5
1BB
330
193
100
AcDbEntity
  8
AM_BOR
 62
     1
370
    25
100
AcDbText
 10
6.0
 20
376.0
 30
0.0
 40
4.0
  1
A
100
AcDbText
  0
TEXT
  5
1BC
330
193
100
AcDbEntity
  8
AM_BOR
 62
     1
370
    25
100
AcDbText
 10
6.0
 20
310.0
 30
0.0
 40
4.0
  1
B
100
AcDbText
  0
TEXT
  5
1BD
330
193
100
AcDbEntity
  8
AM_BOR
 62
     1
370
    25
100
AcDbText
 10
6.0
 20
243.0
 30
0.0
 40
4.0
  1
C
100
AcDbText
  0
TEXT
  5
1BE
330
193
100
AcDbEntity
  8
AM_BOR
 62
     1
370
    25
100
AcDbText
 10
6.0
 20
176.0
 30
0.0
 40
4.0
  1
D
100
AcDbText
  0
TEXT
  5
1BF
330
193
100
AcDbEntity
  8
AM_BOR
 62
     1
370
    25
100
AcDbText
 10
6.0
 20
109.0
 30
0.0
 40
4.0
  1
E
100
AcDbText
  0
TEXT
  5
1C0
330
193
100
AcDbEntity
  8
AM_BOR
 62
     1
370
    25
100
AcDbText
 10
6.0
 20
43.0
 30
0.0
 40
4.0
  1
F
100
AcDbText
  0
LINE
  5
1C1
330
193
100
AcDbEntity
  8
AM_BOR
 62
     1
370
    25
100
AcDbLine
 10
9.983113875875869
 20
343.3579191068519
 30
0.0
 11
5.0
 21
343.3579191068519
 31
0.0
  0
LINE
  5
1C2
330
193
100
AcDbEntity
  8
AM_BOR
 62
     1
370
    25
100
AcDbLine
 10
9.983113875875869
 20
276.6979191068519
 30
0.0
 11
5.0
 21
276.6979191068519
 31
0.0
  0
LINE
  5
1C3
330
193
100
AcDbEntity
  8
AM_BOR
 62
     1
370
    25
100
AcDbLine
 10
9.983113875875869
 20
210.0379191068519
 30
0.0
 11
5.0
 21
210.0379191068519
 31
0.0
  0
LINE
  5
1C4
330
193
100
AcDbEntity
  8
AM_BOR
 62
     1
370
    25
100
AcDbLine
 10
9.983113875875869
 20
143.3779191068518
 30
0.0
 11
5.0
 21
143.3779191068518
 31
0.0
  0
LINE
  5
1C5
330
193
100
AcDbEntity
  8
AM_BOR
 62
     1
370
    25
100
AcDbLine
 10
9.983113875875869
 20
76.71791910685186
 30
0.0
 11
5.0
 21
76.71791910685186
 31
0.0
  0
LINE
  5
1C6
330
193
100
AcDbEntity
  8
AM_BOR
 62
     1
370
    25
100
AcDbLine
 10
299.4999999999999
 20
10.00000000000007
 30
0.0
 11
299.4999999999999
 21
5.00000000000007
 31
0.0
  0
LINE
  5
1C7
330
193
100
AcDbEntity
  8
AM_BOR
 62
     1
370
    25
100
AcDbLine
 10
227.1249999999999
 20
10.00000000000007
 30
0.0
 11
227.1249999999999
 21
5.00000000000007
 31
0.0
  0
LINE
  5
1C8
330
193
100
AcDbEntity
  8
AM_BOR
 62
     1
370
    25
100
AcDbLine
 10
154.7499999999999
 20
10.00000000000007
 30
0.0
 11
154.7499999999999
 21
5.00000000000007
 31
0.0
  0
LINE
  5
1C9
330
193
100
AcDbEntity
  8
AM_BOR
 62
     1
370
    25
100
AcDbLine
 10
82.37499999999988
 20
10.00000000000007
 30
0.0
 11
82.37499999999988
 21
5.00000000000007
 31
0.0
  0
LINE
  5
1CA
330
193
100
AcDbEntity
  8
AM_BOR
 62
     1
370
    25
100
AcDbLine
 10
584.0
 20
410.0
 30
0.0
 11
583.9999999999998
 21
5.0
 31
0.0
  0
LINE
  5
1CB
330
193
100
AcDbEntity
  8
AM_BOR
 62
     1
370
    25
100
AcDbLine
 10
10.0
 20
10.0
 30
0.0
 11
10.00000000000002
 21
410.0
 31
0.0
  0
LINE
  5
1CC
330
193
100
AcDbEntity
  8
0
100
AcDbLine
 10
588.9999999999998
 20
5.0
 30
0.0
 11
4.999999999999886
 21
5.000000000000071
 31
0.0
  0
LINE
  5
1CD
330
193
100
AcDbEntity
  8
0
100
AcDbLine
 10
589.0
 20
415.0
 30
0.0
 11
588.9999999999998
 21
5.0
 31
0.0
  0
LINE
  5
1CE
330
193
100
AcDbEntity
  8
0
100
AcDbLine
 10
5.000000000000024
 20
415.0
 30
0.0
 11
589.0
 21
415.0
 31
0.0
  0
LINE
  5
1CF
330
193
100
AcDbEntity
  8
AM_BOR
 62
     1
370
    25
100
AcDbLine
 10
593.9999999999998
 20
0.0
 30
0.0
 11
-0.0000000000001137
 21
0.0000000000000727
 31
0.0
  0
LINE
  5
1D0
330
193
100
AcDbEntity
  8
AM_BOR
 62
     1
370
    25
100
AcDbLine
 10
0.0000000000000257
 20
420.0
 30
0.0
 11
594.0
 21
420.0
 31
0.0
  0
LINE
  5
1D1
330
193
100
AcDbEntity
  8
AM_BOR
 62
     1
370
    25
100
AcDbLine
 10
0.0
 20
0.0
 30
0.0
 11
0.0000000000000257
 21
420.0
 31
0.0
  0
LINE
  5
1D2
330
193
100
AcDbEntity
  8
AM_BOR
 62
     1
370
    25
100
AcDbLine
 10
210.0
 20
5.0
 30
0.0
 11
210.0
 21
0.0
 31
0.0
  0
LINE
  5
1D3
330
193
100
AcDbEntity
  8
AM_BOR
 62
     1
370
    25
100
AcDbLine
 10
0.0
 20
297.0
 30
0.0
 11
5.0
 21
297.0
 31
0.0
  0
LINE
  5
1D4
330
193
100
AcDbEntity
  8
AM_BOR
 62
     1
370
    25
100
AcDbLine
 10
105.0
 20
420.0
 30
0.0
 11
105.0
 21
415.0
 31
0.0
  0
LINE
  5
1D5
330
193
100
AcDbEntity
  8
AM_BOR
 62
     1
370
    25
100
AcDbLine
 10
594.0
 20
420.0
 30
0.0
 11
593.9999999999998
 21
0.0
 31
0.0
1001
GENIUS_VERSION2
1070
     2
  0
MTEXT
  5
1D6
330
193
100
AcDbEntity
  8
RAHM2
100
AcDbMText
 10
374.9022607207864
 20
9.282856166729633
 30
0.0
 40
2.5
 41
51.25
 71
     5
 72
     5
  1
{\f@Arial Unicode MS|b0|i0|c0|p34;\W0.9;ACO Passavant GmbH\f@Arial Unicode MS|b0|i1|c0|p34;\P\Fgeniso|c0;\H0.72x;\W1;Schutzvermerk nach DIN 34}
 73
     1
 44
1.0
1001
ACAD
1000
MTEXTBEGIN
1070
    73
1070
     1
1070
    44
1040
1.0
1070
    74
1070
     0
1000
MTEXTEND
  0
LWPOLYLINE
  5
1D7
330
193
100
AcDbEntity
  8
RAHM2
100
AcDbPolyline
 90
        4
 70
     1
 43
0.0
 10
401.1200012618344
 20
5.000000000000031
 10
331.1200012618344
 20
5.000000000000031
 10
331.1200012618344
 20
13.50000000000003
 10
401.1200012618344
 20
13.50000000000002
1001
GENIUS_GENREC_14
1002
{
1000
PXDIR
1011
331.1200012618344
1021
5.000000000000031
1031
0.0
1002
}
1002
{
1000
PORI
1011
401.1200012618344
1021
5.000000000000031
1031
0.0
1002
}
1002
{
1000
PINS
1011
401.1200012618344
1021
5.000000000000031
1031
0.0
1002
}
1002
{
1000
HVAL
1000
8.5
1002
}
1002
{
1000
H
1070
     2
1002
}
1002
{
1000
WVAL
1000
-70
1002
}
1002
{
1000
W
1070
     2
1002
}
1002
{
1000
C
1070
     1
1002
}
1001
GENIUS_GENODEF_13
1002
{
1000
HIER
1070
     0
1002
}
1002
{
1000
MANEDIT
1070
     0
1002
}
1002
{
1000
NOSEL
1070
     0
1002
}
1002
{
1000
BEHIND
1070
     0
1002
}
1002
{
1000
REACTOR
1002
}
1001
GENIUS_GENOBJ-N-REC_13
1002
{
1000
OWNER
1000
GEN
1002
}
  0
MTEXT
  5
1D8
102
{ACAD_XDICTIONARY
360
19AF
102
}
330
193
100
AcDbEntity
  8
RAHM2
100
AcDbMText
 10
332.8183538069351
 20
12.32474728438519
 30
0.0
 40
3.5
 41
4.301759591192151
 71
     1
 72
     5
  1
\fArial|b0|i0|c0|p32;\U+00A9
 73
     1
 44
1.0
1001
ACAD
1000
MTEXTBEGIN
1070
    73
1070
     1
1070
    44
1040
1.0
1070
    74
1070
     0
1000
MTEXTEND
  0
MTEXT
  5
1D9
330
193
100
AcDbEntity
  8
RAHM2
100
AcDbMText
 10
339.5515431528592
 20
11.24554815700972
 30
0.0
 40
2.0
 41
5.5175
 71
     1
 72
     5
  1
2004
 73
     1
 44
1.0
1001
ACAD
1000
MTEXTBEGIN
1070
    73
1070
     1
1070
    44
1040
1.0
1070
    74
1070
     0
1000
MTEXTEND
  0
ENDBLK
  5
1DA
330
193
100
AcDbEntity
  8
0
100
AcDbBlockEnd
  0
BLOCK
  5
1DD
330
1DB
100
AcDbEntity
  8
0
100
AcDbBlockBegin
  2
ACO-SF02-GR
 70
     2
 10
0.0
 20
0.0
 30
0.0
  3
ACO-SF02-GR
  1

  0
LINE
  5
1DE
330
1DB
100
AcDbEntity
  8
KOPF
 62
    12
100
AcDbLine
 10
0.0
 20
5.0
 30
0.0
 11
-83.0
 21
5.0
 31
0.0
  0
LWPOLYLINE
  5
1DF
330
1DB
100
AcDbEntity
  8
KOPF
 62
    12
100
AcDbPolyline
 90
        2
 70
     0
 43
0.5
 10
-83.0
 20
10.0
 10
0.0
 20
10.0
  0
LINE
  5
1E0
330
1DB
100
AcDbEntity
  8
KOPF
100
AcDbLine
 10
-83.0
 20
10.0
 30
0.0
 11
0.0
 21
10.0
 31
0.0
  0
LINE
  5
1E1
330
1DB
100
AcDbEntity
  8
KOPF
100
AcDbLine
 10
0.0
 20
5.0
 30
0.0
 11
-83.0
 21
5.0
 31
0.0
  0
LWPOLYLINE
  5
1E2
330
1DB
100
AcDbEntity
  8
KOPF
 62
    12
100
AcDbPolyline
 90
        2
 70
     0
 43
0.5
 10
0.0
 20
68.49999999999997
 10
-182.0
 20
68.49999999999997
  0
LWPOLYLINE
  5
1E3
330
1DB
100
AcDbEntity
  8
KOPF
 62
    12
100
AcDbPolyline
 90
        2
 70
     0
 43
0.5
 10
0.0
 20
46.99999999999997
 10
-182.0
 20
46.99999999999997
  0
LWPOLYLINE
  5
1E4
330
1DB
100
AcDbEntity
  8
KOPF
 62
    12
100
AcDbPolyline
 90
        2
 70
     0
 43
0.5
 10
-0.2154115848244373
 20
27.23910754630094
 10
-182.1882840408789
 20
27.23910754630094
  0
LINE
  5
1E5
330
1DB
100
AcDbEntity
  8
KOPF
 62
    12
100
AcDbLine
 10
0.0
 20
88.49999999999996
 30
0.0
 11
-182.0
 21
88.49999999999996
 31
0.0
  0
LINE
  5
1E6
330
1DB
100
AcDbEntity
  8
KOPF
 62
    12
100
AcDbLine
 10
-182.0
 20
83.49999999999997
 30
0.0
 11
0.0
 21
83.49999999999997
 31
0.0
  0
LINE
  5
1E7
330
1DB
100
AcDbEntity
  8
KOPF
 62
    12
100
AcDbLine
 10
0.0
 20
73.49999999999997
 30
0.0
 11
-182.0
 21
73.49999999999997
 31
0.0
  0
LINE
  5
1E8
330
1DB
100
AcDbEntity
  8
KOPF
 62
    12
100
AcDbLine
 10
-162.682677
 20
78.49999999999997
 30
0.0
 11
0.0
 21
78.49999999999997
 31
0.0
  0
LINE
  5
1E9
330
1DB
100
AcDbEntity
  8
KOPF
100
AcDbLine
 10
0.0
 20
68.49999999999997
 30
0.0
 11
-182.0
 21
68.49999999999997
 31
0.0
  0
LINE
  5
1EA
330
1DB
100
AcDbEntity
  8
KOPF
100
AcDbLine
 10
0.0
 20
88.49999999999996
 30
0.0
 11
-182.0
 21
88.49999999999996
 31
0.0
  0
LINE
  5
1EB
330
1DB
100
AcDbEntity
  8
KOPF
100
AcDbLine
 10
-182.0
 20
83.49999999999997
 30
0.0
 11
0.0
 21
83.49999999999997
 31
0.0
  0
LINE
  5
1EC
330
1DB
100
AcDbEntity
  8
KOPF
100
AcDbLine
 10
0.0
 20
73.49999999999997
 30
0.0
 11
-182.0
 21
73.49999999999997
 31
0.0
  0
LINE
  5
1ED
330
1DB
100
AcDbEntity
  8
KOPF
100
AcDbLine
 10
-162.682677
 20
78.49999999999997
 30
0.0
 11
0.0
 21
78.49999999999997
 31
0.0
  0
LINE
  5
1EE
330
1DB
100
AcDbEntity
  8
KOPF
 62
    12
100
AcDbLine
 10
-182.0
 20
57.74999999999997
 30
0.0
 11
-100.0
 21
57.74999999999997
 31
0.0
  0
LINE
  5
1EF
330
1DB
100
AcDbEntity
  8
KOPF
 62
    12
100
AcDbLine
 10
-182.0
 20
41.99999999999996
 30
0.0
 11
-113.4
 21
41.99999999999996
 31
0.0
  0
LINE
  5
1F0
330
1DB
100
AcDbEntity
  8
KOPF
100
AcDbLine
 10
-182.0
 20
57.74999999999997
 30
0.0
 11
-100.0
 21
57.74999999999997
 31
0.0
  0
LINE
  5
1F1
330
1DB
100
AcDbEntity
  8
KOPF
100
AcDbLine
 10
-182.0
 20
41.99999999999996
 30
0.0
 11
-113.4
 21
41.99999999999996
 31
0.0
  0
LINE
  5
1F2
330
1DB
100
AcDbEntity
  8
KOPF
 62
    12
100
AcDbLine
 10
-142.0
 20
68.49999999999997
 30
0.0
 11
-142.0
 21
46.99999999999997
 31
0.0
  0
LINE
  5
1F3
330
1DB
100
AcDbEntity
  8
KOPF
 62
    12
100
AcDbLine
 10
-142.0
 20
68.49999999999997
 30
0.0
 11
-142.0
 21
46.99999999999997
 31
0.0
  0
ATTDEF
  5
1F4
330
1DB
100
AcDbEntity
  8
TEXT35
100
AcDbText
 10
-140.2
 20
49.4
 30
0.0
 40
3.5
  1

 41
0.8
  7
TEXT35
100
AcDbAttributeDefinition
  3
Oberfläche:
  2
F63
 70
     0
  0
LWPOLYLINE
  5
1F5
330
1DB
100
AcDbEntity
  8
KOPF
 62
    12
100
AcDbPolyline
 90
        2
 70
     0
 43
0.7
 10
-182.0
 20
103.4999999999999
 10
-182.0
 20
0.0
  0
LINE
  5
1F6
330
1DB
100
AcDbEntity
  8
KOPF
100
AcDbLine
 10
-182.0
 20
103.4999999999999
 30
0.0
 11
-182.0
 21
0.0
 31
0.0
  0
TEXT
  5
1F7
330
1DB
100
AcDbEntity
  8
KOPF
100
AcDbText
 10
-179.738589
 20
38.32439403633659
 30
0.0
 40
2.0
  1
Gezeichnet:
 41
0.8
  7
TEXT20
100
AcDbText
  0
ATTDEF
  5
1F8
330
1DB
100
AcDbEntity
  8
TEXT35
100
AcDbText
 10
-176.6
 20
3.399999999999999
 30
0.0
 40
3.5
  1

 41
0.8
  7
TEXT35
100
AcDbAttributeDefinition
  3
Z-Titel 3
  2
F13
 70
     0
  0
ATTDEF
  5
1F9
330
1DB
100
AcDbEntity
  8
TEXT50
100
AcDbText
 10
-176.6
 20
10.63250279796295
 30
0.0
 40
5.0
  1

 41
0.8
  7
TEXT50
100
AcDbAttributeDefinition
  3
Z-Titel 2
  2
F3
 70
     0
  0
ATTDEF
  5
1FA
330
1DB
100
AcDbEntity
  8
TEXT50
100
AcDbText
 10
-176.6
 20
18.56318324460701
 30
0.0
 40
5.0
  1

 41
0.8
  7
TEXT50
100
AcDbAttributeDefinition
  3
Z-Titel 1
  2
F2
 70
     0
  0
TEXT
  5
1FB
330
1DB
100
AcDbEntity
  8
KOPF
100
AcDbText
 10
-179.738589
 20
28.52395361420514
 30
0.0
 40
2.0
  1
Update:
 41
0.8
  7
TEXT20
100
AcDbText
  0
TEXT
  5
1FC
330
1DB
100
AcDbEntity
  8
KOPF
100
AcDbText
 10
-179.738589
 20
33.43577642824449
 30
0.0
 40
2.0
  1
Geprüft
 41
0.8
  7
TEXT20
100
AcDbText
  0
LINE
  5
1FD
330
1DB
100
AcDbEntity
  8
KOPF
 62
    12
100
AcDbLine
 10
-163.0
 20
46.99999999999997
 30
0.0
 11
-163.0
 21
27.0
 31
0.0
  0
LINE
  5
1FE
330
1DB
100
AcDbEntity
  8
KOPF
100
AcDbLine
 10
-163.0
 20
46.99999999999997
 30
0.0
 11
-163.0
 21
27.0
 31
0.0
  0
ATTDEF
  5
1FF
330
1DB
100
AcDbEntity
  8
TEXT25
100
AcDbText
 10
-161.5009557098303
 20
28.32091209119023
 30
0.0
 40
2.0
  1

 41
0.8
  7
TEXT20
100
AcDbAttributeDefinition
  3
Update am:
  2
F53
 70
     0
  0
ATTDEF
  5
200
330
1DB
100
AcDbEntity
  8
TEXT25
100
AcDbText
 10
-161.5539333606331
 20
33.12227989587696
 30
0.0
 40
2.0
  1

 41
0.8
  7
TEXT20
100
AcDbAttributeDefinition
  3
Geprüft am:
  2
F22
 70
     0
  0
ATTDEF
  5
201
330
1DB
100
AcDbEntity
  8
TEXT25
100
AcDbText
 10
-161.5207141482394
 20
38.33983936444393
 30
0.0
 40
2.0
  1

 41
0.8
  7
TEXT20
100
AcDbAttributeDefinition
  3
Gezeichnet am:
  2
F9
 70
     0
  0
TEXT
  5
202
330
1DB
100
AcDbEntity
  8
KOPF
100
AcDbText
 10
-155.964455
 20
43.13467299999999
 30
0.0
 40
2.0
  1
Datum
 41
0.8
  7
TEXT20
100
AcDbText
  0
LINE
  5
203
330
1DB
100
AcDbEntity
  8
KOPF
 62
    12
100
AcDbLine
 10
-138.4
 20
46.99999999999997
 30
0.0
 11
-138.4
 21
27.0
 31
0.0
  0
LINE
  5
204
330
1DB
100
AcDbEntity
  8
KOPF
100
AcDbLine
 10
-138.4
 20
46.99999999999997
 30
0.0
 11
-138.4
 21
27.0
 31
0.0
  0
TEXT
  5
205
330
1DB
100
AcDbEntity
  8
KOPF
100
AcDbText
 10
-130.065072
 20
43.14125800000002
 30
0.0
 40
2.0
  1
Name
 41
0.8
  7
TEXT20
100
AcDbText
  0
ATTDEF
  5
206
330
1DB
100
AcDbEntity
  8
TEXT25
100
AcDbText
 10
-136.2746977811447
 20
33.28471223400234
 30
0.0
 40
2.0
  1

 41
0.8
  7
TEXT20
100
AcDbAttributeDefinition
  3
Geprüft von:
  2
F21
 70
     0
  0
ATTDEF
  5
207
330
1DB
100
AcDbEntity
  8
TEXT25
100
AcDbText
 10
-136.3996291720711
 20
28.23101841142455
 30
0.0
 40
2.0
  1

 41
0.8
  7
TEXT20
100
AcDbAttributeDefinition
  3
Update von:
  2
F52
 70
     0
  0
ATTDEF
  5
208
330
1DB
100
AcDbEntity
  8
TEXT25
100
AcDbText
 10
-136.1922113552417
 20
38.48172579575253
 30
0.0
 40
2.0
  1

 41
0.8
  7
TEXT20
100
AcDbAttributeDefinition
  3
Gezeichnet von
  2
F8
 70
     0
  0
TEXT
  5
209
330
1DB
100
AcDbEntity
  8
KOPF
100
AcDbText
 10
-174.6925639999999
 20
69.53813999999997
 30
0.0
 40
2.0
  1
Index
 41
0.8
  7
TEXT20
100
AcDbText
  0
LINE
  5
20A
330
1DB
100
AcDbEntity
  8
KOPF
100
AcDbLine
 10
-182.0
 20
78.49999999999997
 30
0.0
 11
-162.682677
 21
78.49999999999997
 31
0.0
  0
LINE
  5
20B
330
1DB
100
AcDbEntity
  8
KOPF
100
AcDbLine
 10
-182.0
 20
78.49999999999997
 30
0.0
 11
-162.682677
 21
78.49999999999997
 31
0.0
  0
TEXT
  5
20C
330
1DB
100
AcDbEntity
  8
KOPF
100
AcDbText
 10
-180.0
 20
65.166273
 30
0.0
 40
2.0
  1
Werkstoff:
 41
0.8
  7
TEXT20
100
AcDbText
  0
TEXT
  5
20D
330
1DB
100
AcDbEntity
  8
KOPF
100
AcDbText
 10
-181.0
 20
54.49999999999997
 30
0.0
 40
2.0
  1
zul. Abweich.:
 41
0.8
  7
TEXT20
100
AcDbText
  0
ATTDEF
  5
20E
330
1DB
100
AcDbEntity
  8
TEXT35
100
AcDbText
 10
-179.7
 20
59.6
 30
0.0
 40
3.5
  1

 41
0.8
  7
TEXT35
100
AcDbAttributeDefinition
  3
Werkstoff:
  2
F61
 70
     0
  0
ATTDEF
  5
20F
330
1DB
100
AcDbEntity
  8
TEXT35
100
AcDbText
 10
-179.7
 20
49.7
 30
0.0
 40
3.5
  1

 41
0.8
  7
TEXT35
100
AcDbAttributeDefinition
  3
zul. Abweichung
  2
F62
 70
     0
  0
ATTDEF
  5
210
330
1DB
100
AcDbEntity
  8
TEXT25
100
AcDbText
 10
-174.360415155955
 20
74.59999999999999
 30
0.0
 40
2.0
  1

 41
0.8
  7
TEXT20
100
AcDbAttributeDefinition
  3
Index vv.:
  2
F72
 70
     0
  0
ATTDEF
  5
211
330
1DB
100
AcDbEntity
  8
TEXT25
100
AcDbText
 10
-174.4435409453564
 20
79.47378932523601
 30
0.0
 40
2.0
  1

 41
0.8
  7
TEXT20
100
AcDbAttributeDefinition
  3
Index v.:
  2
F68
 70
     0
  0
ATTDEF
  5
212
330
1DB
100
AcDbEntity
  8
TEXT25
100
AcDbText
 10
-174.3700408782365
 20
84.63034186138365
 30
0.0
 40
2.0
  1

 41
0.8
  7
TEXT20
100
AcDbAttributeDefinition
  3
Index l.:
  2
F64
 70
     0
  0
LINE
  5
213
330
1DB
100
AcDbEntity
  8
KOPF
100
AcDbLine
 10
-162.682677
 20
88.49999999999996
 30
0.0
 11
-162.682677
 21
68.49999999999997
 31
0.0
  0
LINE
  5
214
330
1DB
100
AcDbEntity
  8
KOPF
100
AcDbLine
 10
-162.682677
 20
88.49999999999996
 30
0.0
 11
-162.682677
 21
68.49999999999997
 31
0.0
  0
TEXT
  5
215
330
1DB
100
AcDbEntity
  8
KOPF
100
AcDbText
 10
-156.706568
 20
69.53813999999997
 30
0.0
 40
2.0
  1
Datum
 41
0.8
  7
TEXT20
100
AcDbText
  0
ATTDEF
  5
216
330
1DB
100
AcDbEntity
  8
TEXT25
100
AcDbText
 10
-160.9
 20
75.09999999999999
 30
0.0
 40
2.0
  1

 41
0.8
  7
TEXT20
100
AcDbAttributeDefinition
  3
Datum vv.:
  2
F73
 70
     0
  0
ATTDEF
  5
217
330
1DB
100
AcDbEntity
  8
TEXT25
100
AcDbText
 10
-160.9
 20
79.40000000000001
 30
0.0
 40
2.0
  1

 41
0.8
  7
TEXT20
100
AcDbAttributeDefinition
  3
Datum v.:
  2
F69
 70
     0
  0
ATTDEF
  5
218
330
1DB
100
AcDbEntity
  8
TEXT25
100
AcDbText
 10
-160.6
 20
84.50000000000001
 30
0.0
 40
2.0
  1

 41
0.8
  7
TEXT20
100
AcDbAttributeDefinition
  3
Datum l.:
  2
F65
 70
     0
  0
LINE
  5
219
330
1DB
100
AcDbEntity
  8
KOPF
 62
    12
100
AcDbLine
 10
-142.0
 20
68.49999999999997
 30
0.0
 11
-142.0
 21
88.49999999999996
 31
0.0
  0
LINE
  5
21A
330
1DB
100
AcDbEntity
  8
KOPF
100
AcDbLine
 10
-142.0
 20
68.49999999999997
 30
0.0
 11
-142.0
 21
88.49999999999996
 31
0.0
  0
ATTDEF
  5
21B
330
1DB
100
AcDbEntity
  8
TEXT35
100
AcDbText
 10
-139.9
 20
59.29999999999999
 30
0.0
 40
3.5
  1

 41
0.8
  7
TEXT35
100
AcDbAttributeDefinition
  3
Gewicht:
  2
F60
 70
     0
  0
TEXT
  5
21C
330
1DB
100
AcDbEntity
  8
KOPF
100
AcDbText
 10
-140.387393
 20
54.54752599999996
 30
0.0
 40
2.0
  1
Oberfläche
 41
0.8
  7
TEXT20
100
AcDbText
  0
TEXT
  5
21D
330
1DB
100
AcDbEntity
  8
KOPF
100
AcDbText
 10
-140.1020469999999
 20
65.166273
 30
0.0
 40
2.0
  1
Gewicht:
 41
0.8
  7
TEXT20
100
AcDbText
  0
TEXT
  5
21E
330
1DB
100
AcDbEntity
  8
KOPF
100
AcDbText
 10
-140.1020469999999
 20
65.166273
 30
0.0
 40
2.0
  1
Gewicht:
 41
0.8
  7
TEXT20
100
AcDbText
  0
ATTDEF
  5
21F
330
1DB
100
AcDbEntity
  8
TEXT25
100
AcDbText
 10
-140.4
 20
74.59999999999999
 30
0.0
 40
2.0
  1

 41
0.8
  7
TEXT20
100
AcDbAttributeDefinition
  3
Bennenung vv.:
  2
F74
 70
     0
  0
ATTDEF
  5
220
330
1DB
100
AcDbEntity
  8
TEXT25
100
AcDbText
 10
-140.5063960262479
 20
79.64480359078786
 30
0.0
 40
2.0
  1

 41
0.8
  7
TEXT20
100
AcDbAttributeDefinition
  3
Benennung v.:
  2
F70
 70
     0
  0
ATTDEF
  5
221
330
1DB
100
AcDbEntity
  8
TEXT25
100
AcDbText
 10
-140.390233442385
 20
84.56120109651198
 30
0.0
 40
2.0
  1

 41
0.8
  7
TEXT20
100
AcDbAttributeDefinition
  3
Bennenung l.:
  2
F66
 70
     0
  0
LINE
  5
222
330
1DB
100
AcDbEntity
  8
KOPF
 62
    12
100
AcDbLine
 10
-100.0
 20
68.49999999999997
 30
0.0
 11
-100.0
 21
46.99999999999997
 31
0.0
  0
LWPOLYLINE
  5
223
330
1DB
100
AcDbEntity
  8
KOPF
 62
    12
100
AcDbPolyline
 90
        2
 70
     0
 43
0.5
 10
-83.0
 20
46.99999999999997
 10
-83.0
 20
0.0
  0
LINE
  5
224
330
1DB
100
AcDbEntity
  8
KOPF
100
AcDbLine
 10
-83.0
 20
46.99999999999997
 30
0.0
 11
-83.0
 21
0.0
 31
0.0
  0
TEXT
  5
225
330
1DB
100
AcDbEntity
  8
KOPF
100
AcDbText
 10
-81.0
 20
1.714285999999985
 30
0.0
 40
2.0
  1
Ersetzt durch:
 41
0.8
  7
TEXT20
100
AcDbText
  0
LINE
  5
226
330
1DB
100
AcDbEntity
  8
KOPF
 62
    12
100
AcDbLine
 10
-113.4
 20
27.0
 30
0.0
 11
-113.4
 21
46.99999999999997
 31
0.0
  0
LWPOLYLINE
  5
227
330
1DB
100
AcDbEntity
  8
KOPF
100
AcDbPolyline
 90
        2
 70
     0
 43
0.5
 10
-113.4
 20
27.0
 10
-113.4
 20
46.99999999999997
  0
LINE
  5
228
330
1DB
100
AcDbEntity
  8
KOPF
100
AcDbLine
 10
-113.4
 20
27.0
 30
0.0
 11
-113.4
 21
46.99999999999997
 31
0.0
  0
LINE
  5
229
330
1DB
100
AcDbEntity
  8
KOPF
100
AcDbLine
 10
-113.4
 20
27.0
 30
0.0
 11
-113.4
 21
46.99999999999997
 31
0.0
  0
ATTDEF
  5
22A
330
1DB
100
AcDbEntity
  8
TEXT35
100
AcDbText
 10
-104.4935632823758
 20
33.13408015176805
 30
0.0
 40
3.5
  1

 41
0.8
  7
TEXT35
100
AcDbAttributeDefinition
  3
Maßstab 2:
  2
F54
 70
     0
  0
ATTDEF
  5
22B
330
1DB
100
AcDbEntity
  8
TEXT35
100
AcDbText
 10
-104.487948258847
 20
28.6
 30
0.0
 40
3.5
  1

 41
0.8
  7
TEXT35
100
AcDbAttributeDefinition
  3
Maßstab 3:
  2
F55
 70
     0
  0
ATTDEF
  5
22C
330
1DB
100
AcDbEntity
  8
TEXT50
100
AcDbText
 10
-106.6
 20
37.8
 30
0.0
 40
5.0
  1

 41
0.8
  7
TEXT50
100
AcDbAttributeDefinition
  3
Maßstab 1:
  2
F25
 70
     0
  0
TEXT
  5
22D
330
1DB
100
AcDbEntity
  8
KOPF
100
AcDbText
 10
-112.263457
 20
43.88678899999999
 30
0.0
 40
2.0
  1
Massstab:
 41
0.8
  7
TEXT20
100
AcDbText
  0
LINE
  5
22E
330
1DB
100
AcDbEntity
  8
KOPF
 62
    12
100
AcDbLine
 10
-57.80813400000011
 20
27.0
 30
0.0
 11
-57.80813400000011
 21
46.99999999999997
 31
0.0
  0
LINE
  5
22F
330
1DB
100
AcDbEntity
  8
KOPF
100
AcDbLine
 10
-57.80813400000011
 20
27.0
 30
0.0
 11
-57.80813400000011
 21
46.99999999999997
 31
0.0
  0
TEXT
  5
230
330
1DB
100
AcDbEntity
  8
KOPF
100
AcDbText
 10
-81.59296000000006
 20
23.69783599999999
 30
0.0
 40
2.0
  1
Zeichnung Nr.:
 41
0.8
  7
TEXT20
100
AcDbText
  0
TEXT
  5
231
330
1DB
100
AcDbEntity
  8
KOPF
100
AcDbText
 10
-81.00375700000006
 20
5.924711999999997
 30
0.0
 40
2.0
  1
Ersatz für:
 41
0.8
  7
TEXT20
100
AcDbText
  0
TEXT
  5
232
330
1DB
100
AcDbEntity
  8
KOPF
100
AcDbText
 10
-81.59296000000006
 20
23.69783599999999
 30
0.0
 40
2.0
  1
Zeichnung Nr.:
 41
0.8
  7
TEXT20
100
AcDbText
  0
ATTDEF
  5
233
330
1DB
100
AcDbEntity
  8
TEXT50
100
AcDbText
 10
-78.29193986361122
 20
14.50587824180555
 30
0.0
 40
5.0
  1

 41
0.8
  7
TEXT50
100
AcDbAttributeDefinition
  3
Standart:
  2
F1
 70
     0
  0
TEXT
  5
234
330
1DB
100
AcDbEntity
  8
KOPF
100
AcDbText
 10
-81.48889200000008
 20
43.86057200000001
 30
0.0
 40
2.0
  1
Masseinheit:
 41
0.8
  7
TEXT20
100
AcDbText
  0
LINE
  5
235
330
1DB
100
AcDbEntity
  8
KOPF
 62
    12
100
AcDbLine
 10
-57.80813400000011
 20
36.213444
 30
0.0
 11
-83.0
 21
36.213444
 31
0.0
  0
LINE
  5
236
330
1DB
100
AcDbEntity
  8
KOPF
100
AcDbLine
 10
-57.80813400000011
 20
36.213444
 30
0.0
 11
-83.0
 21
36.213444
 31
0.0
  0
ATTDEF
  5
237
330
1DB
100
AcDbEntity
  8
TEXT35
100
AcDbText
 10
-79.40896486611496
 20
38.08722024605356
 30
0.0
 40
3.5
  1

 41
0.8
  7
TEXT35
100
AcDbAttributeDefinition
  3
Maßeinheit:
  2
F56
 70
     0
  0
TEXT
  5
238
330
1DB
100
AcDbEntity
  8
KOPF
100
AcDbText
 10
-33.57569784693112
 20
42.62823225872138
 30
0.0
 40
1.54
  1
Diese Zeichnung darf weder kopiert
 41
0.8
  7
TEXT20
100
AcDbText
  0
TEXT
  5
239
330
1DB
100
AcDbEntity
  8
KOPF
100
AcDbText
 10
-33.57569784693112
 20
40.26106040199917
 30
0.0
 40
1.54
  1
noch dritten Personen, insbesondere
 41
0.8
  7
TEXT20
100
AcDbText
1001
GENIUS_GENTRA_14
1002
{
1070
     1
1000
/
1000
noch dritten Personen, insbesondere
1000
DEU
1070
     0
1040
0.8
1070
     0
1002
}
  0
TEXT
  5
23A
330
1DB
100
AcDbEntity
  8
KOPF
100
AcDbText
 10
-33.57569784693112
 20
35.63814072439632
 30
0.0
 40
1.54
  1
mitgeteilt werden und bleibt unser
 41
0.8
  7
TEXT20
100
AcDbText
  0
TEXT
  5
23B
330
1DB
100
AcDbEntity
  8
KOPF
100
AcDbText
 10
-33.57569784693112
 20
33.37532604459598
 30
0.0
 40
1.54
  1
Eigentum.
 41
0.8
  7
TEXT20
100
AcDbText
  0
TEXT
  5
23C
330
1DB
100
AcDbEntity
  8
KOPF
100
AcDbText
 10
-33.57569784693112
 20
37.97994933403727
 30
0.0
 40
1.54
  1
zum Zweck anderweitiger Benutzung
 41
0.8
  7
TEXT20
100
AcDbText
  0
TEXT
  5
23D
330
1DB
100
AcDbEntity
  8
KOPF
100
AcDbText
 10
-33.7904806989385
 20
30.30982488917614
 30
0.0
 40
1.54
  1
Schutzvermerk nach DIN 34 beachten
 41
0.75
  7
TEXT20
100
AcDbText
  0
LINE
  5
23E
330
1DB
100
AcDbEntity
  8
KOPF
100
AcDbLine
 10
-34.94281200000012
 20
47.01203199999999
 30
0.0
 11
-34.94281200000012
 21
27.0
 31
0.0
  0
LINE
  5
23F
330
1DB
100
AcDbEntity
  8
KOPF
100
AcDbLine
 10
-34.94281200000012
 20
47.01203199999999
 30
0.0
 11
-34.94281200000012
 21
27.0
 31
0.0
  0
LINE
  5
240
330
1DB
100
AcDbEntity
  8
MITTE
100
AcDbLine
 10
-45.85521401410289
 20
36.04852954632858
 30
0.0
 11
-35.23444858652556
 21
36.04852954632858
 31
0.0
  0
LINE
  5
241
330
1DB
100
AcDbEntity
  8
TEXT50
100
AcDbLine
 10
-45.05865660703466
 20
32.02559619470341
 30
0.0
 11
-36.50894043783512
 21
34.06858135367652
 31
0.0
  0
LINE
  5
242
330
1DB
100
AcDbEntity
  8
TEXT50
100
AcDbLine
 10
-36.50894043783512
 20
38.02847773898061
 30
0.0
 11
-45.05865660703466
 21
40.07146289795374
 31
0.0
  0
TEXT
  5
243
330
1DB
100
AcDbEntity
  8
KOPF
100
AcDbText
 10
-57.12244047883302
 20
43.82431699999997
 30
0.0
 40
2.0
  1
Projektion: ISO-E
 41
0.8
  7
TEXT20
100
AcDbText
  0
LINE
  5
244
330
1DB
100
AcDbEntity
  8
TEXT50
100
AcDbLine
 10
-45.05865660703466
 20
40.07146289795374
 30
0.0
 11
-45.05865660703466
 21
32.02559619470346
 31
0.0
  0
LINE
  5
245
330
1DB
100
AcDbEntity
  8
MITTE
100
AcDbLine
 10
-51.4945506424383
 20
40.07146289795374
 30
0.0
 11
-51.4945506424383
 21
30.76413131482123
 31
0.0
  0
CIRCLE
  5
246
330
1DB
100
AcDbEntity
  8
TEXT50
100
AcDbCircle
 10
-51.4945506424383
 20
36.04852954632858
 30
0.0
 40
4.022933351625178
  0
CIRCLE
  5
247
330
1DB
100
AcDbEntity
  8
TEXT50
100
AcDbCircle
 10
-51.4945506424383
 20
36.04852954632858
 30
0.0
 40
1.979948192651899
  0
LINE
  5
248
330
1DB
100
AcDbEntity
  8
MITTE
100
AcDbLine
 10
-56.48631039339966
 20
36.04852954632858
 30
0.0
 11
-46.50279089147699
 21
36.04852954632858
 31
0.0
  0
LINE
  5
249
330
1DB
100
AcDbEntity
  8
TEXT50
100
AcDbLine
 10
-36.50894043783512
 20
38.02847773898061
 30
0.0
 11
-36.50894043783512
 21
34.06858135367652
 31
0.0
  0
LWPOLYLINE
  5
24A
330
1DB
100
AcDbEntity
  8
KOPF
 62
    12
100
AcDbPolyline
 90
        2
 70
     0
 43
0.5
 10
-12.0
 20
27.0
 10
-12.0
 20
10.0
  0
LINE
  5
24B
330
1DB
100
AcDbEntity
  8
KOPF
100
AcDbLine
 10
-12.0
 20
27.0
 30
0.0
 11
-12.0
 21
10.0
 31
0.0
  0
ATTDEF
  5
24C
330
1DB
100
AcDbEntity
  8
TEXT50
100
AcDbText
 10
-5.58570360403041
 20
17.00587824180555
 30
0.0
 40
5.0
  1

 41
0.8
  7
TEXT50
 72
     4
 11
-5.58570360403041
 21
17.00587824180555
 31
0.0
100
AcDbAttributeDefinition
  3
Index:
  2
F1B
 70
     0
  0
TEXT
  5
24D
330
1DB
100
AcDbEntity
  8
KOPF
100
AcDbText
 10
-8.353129999999964
 20
23.330072
 30
0.0
 40
2.0
  1
Index
 41
0.8
  7
TEXT20
100
AcDbText
  0
TEXT
  5
24E
330
1DB
100
AcDbEntity
  8
KOPF
100
AcDbText
 10
-94.40535829344497
 20
70.39773773357916
 30
0.0
 40
2.0
  1
Benennung
 41
0.8
  7
TEXT20
100
AcDbText
  0
LINE
  5
24F
330
1DB
100
AcDbEntity
  8
KOPF
100
AcDbLine
 10
-15.0
 20
88.49999999999996
 30
0.0
 11
-15.0
 21
68.49999999999997
 31
0.0
  0
LINE
  5
250
330
1DB
100
AcDbEntity
  8
KOPF
100
AcDbLine
 10
-15.0
 20
88.49999999999996
 30
0.0
 11
-15.0
 21
68.49999999999997
 31
0.0
  0
TEXT
  5
251
330
1DB
100
AcDbEntity
  8
KOPF
100
AcDbText
 10
-11.65833600000008
 20
69.53813999999997
 30
0.0
 40
2.0
  1
Name
 41
0.8
  7
TEXT20
100
AcDbText
  0
TEXT
  5
252
330
1DB
100
AcDbEntity
  8
KOPF
100
AcDbText
 10
-11.65833600000008
 20
69.53813999999997
 30
0.0
 40
2.0
  1
Name
 41
0.8
  7
TEXT20
100
AcDbText
  0
ATTDEF
  5
253
330
1DB
100
AcDbEntity
  8
TEXT25
100
AcDbText
 10
-13.39999999999998
 20
74.90000000000001
 30
0.0
 40
2.0
  1

 41
0.8
  7
TEXT20
100
AcDbAttributeDefinition
  3
Name vv.:
  2
F75
 70
     0
  0
ATTDEF
  5
254
330
1DB
100
AcDbEntity
  8
TEXT25
100
AcDbText
 10
-13.39999999999998
 20
79.7
 30
0.0
 40
2.0
  1

 41
0.8
  7
TEXT20
100
AcDbAttributeDefinition
  3
Name v.:
  2
F71
 70
     0
  0
ATTDEF
  5
255
330
1DB
100
AcDbEntity
  8
TEXT25
100
AcDbText
 10
-13.31006638105163
 20
84.29999999999999
 30
0.0
 40
2.0
  1

 41
0.8
  7
TEXT20
100
AcDbAttributeDefinition
  3
Name l.:
  2
F67
 70
     0
  0
LINE
  5
256
330
1DB
100
AcDbEntity
  8
KOPF
100
AcDbLine
 10
-182.0
 20
36.99999999999997
 30
0.0
 11
-113.4
 21
36.99999999999997
 31
0.0
  0
LINE
  5
257
330
1DB
100
AcDbEntity
  8
KOPF
100
AcDbLine
 10
-182.0
 20
31.99999999999997
 30
0.0
 11
-113.4
 21
31.99999999999997
 31
0.0
  0
MTEXT
  5
258
330
1DB
100
AcDbEntity
  8
Sperrlayer
 62
     1
100
AcDbMText
 10
-166.0749851709908
 20
9.027899370527848
 30
0.0
 40
10.0
 41
771.0
 71
     1
 72
     5
  1
VORABZUG - nicht FREIGEGEBEN !
  7
TEXT20
 11
0.8660254037844387
 21
0.5
 31
0.0
 73
     1
 44
1.0
1001
ACAD
1000
MTEXTBEGIN
1070
    73
1070
     1
1070
    44
1040
1.0
1070
    74
1070
     0
1000
MTEXTEND
  0
ATTDEF
  5
259
330
1DB
100
AcDbEntity
  8
AM_BOR
 62
     2
370
    35
100
AcDbText
 10
-100.7395275842899
 20
38.58583043117892
 30
0.0
 40
3.0
  1
-
 72
     1
 11
-99.68952758428997
 21
38.58583043117892
 31
0.0
100
AcDbAttributeDefinition
  3
Maßstab
  2
GEN-TITLE-SCA{5.42}
 70
     0
1001
GENIUS_GENTRA_14
1002
{
1070
     3
1000
GENTRAPR,%s,(GENMSG gendwg 83)
1000
Maßstab
1000
DEU
1070
     0
1070
     0
1002
}
  0
TEXT
  5
25A
330
1DB
100
AcDbEntity
  8
0N
100
AcDbText
 10
-180.0433753026868
 20
97.16012098886922
 30
0.0
 40
3.5
  1
Zeichnungen größer darstellenden Maßstabes bzw. Einzelteilzeichnungen
 41
0.9
100
AcDbText
  0
TEXT
  5
25B
330
1DB
100
AcDbEntity
  8
0N
100
AcDbText
 10
-180.0433753026868
 20
91.14471067045299
 30
0.0
 40
3.5
  1
haben vorrangige Gültigkeit
 41
0.9
100
AcDbText
  0
LINE
  5
25C
330
1DB
100
AcDbEntity
  8
KOPF
 62
    12
100
AcDbLine
 10
0.0
 20
103.4999999999999
 30
0.0
 11
-182.0
 21
103.4999999999999
 31
0.0
  0
LINE
  5
25D
330
1DB
100
AcDbEntity
  8
KOPF
100
AcDbLine
 10
0.0
 20
103.4999999999999
 30
0.0
 11
-182.0
 21
103.4999999999999
 31
0.0
  0
TEXT
  5
25E
330
1DB
100
AcDbEntity
  8
0N
100
AcDbText
 10
-50.10402338551751
 20
63.31558948216224
 30
0.0
 40
3.5
  1
ACO Haustechnik
  7
Anschrift
100
AcDbText
  0
TEXT
  5
25F
330
1DB
100
AcDbEntity
  8
KOPF
100
AcDbText
 10
-49.87580542490343
 20
59.20935299973598
 30
0.0
 40
2.0
  1
ACO Passavant GmbH
  7
Anschrift
100
AcDbText
  0
TEXT
  5
260
330
1DB
100
AcDbEntity
  8
KOPF
100
AcDbText
 10
-49.87580542490343
 20
55.94457150873341
 30
0.0
 40
2.0
  1
Ulsterstrasse 3
  7
Anschrift
100
AcDbText
  0
TEXT
  5
261
330
1DB
100
AcDbEntity
  8
KOPF
100
AcDbText
 10
-49.87580542490343
 20
52.67979001773084
 30
0.0
 40
2.0
  1
36269 Philippsthal
  7
Anschrift
100
AcDbText
  0
TEXT
  5
262
330
1DB
100
AcDbEntity
  8
KOPF
100
AcDbText
 10
-49.87580542490343
 20
49.41500852672827
 30
0.0
 40
2.0
  1
www.aco-haustechnik.de
  7
Anschrift
100
AcDbText
  0
IMAGE
  5
263
330
1DB
100
AcDbEntity
  8
0N
 92
      140
310
8C00000001000000840000000600000005000000D8E09288BC7856C020EE296E8D3848400000000000000000D8E09288BC7856C05505A7591AA950400000000000000000701116DB117C50C05505A7591AA950400000000000000000701116DB117C50C020EE296E8D3848400000000000000000D8E09288BC7856C020EE29
310
6E8D3848400000000000000000
100
AcDbRasterImage
 90
        0
 10
-89.88650717109283
 20
48.44181611106273
 30
0.0
 11
0.3193055645228697
 21
0.0
 31
0.0
 12
0.0
 22
0.3193055645228696
 32
0.0
 13
75.0
 23
57.0
340
461
 70
     7
280
     0
281
    50
282
    50
283
     0
360
264
 71
     1
 91
        2
 14
-0.5
 24
-0.5
 14
74.5
 24
56.5
  0
ENDBLK
  5
265
330
1DB
100
AcDbEntity
  8
0
100
AcDbBlockEnd
  0
BLOCK
  5
70A
330
709
100
AcDbEntity
  8
0
100
AcDbBlockBegin
  2
GENZOOKU1MJL3
 70
     0
 10
0.0
 20
0.0
 30
0.0
  3
GENZOOKU1MJL3
  1

  0
LINE
  5
6DF
330
709
100
AcDbEntity
  8
SICHTBAR
100
AcDbLine
 10
0.0
 20
-4.25
 30
0.0
 11
9.499999999999886
 21
-4.25
 31
0.0
  0
LINE
  5
6E0
330
709
100
AcDbEntity
  8
SICHTBAR
100
AcDbLine
 10
9.499999999999886
 20
-4.381872572203747
 30
0.0
 11
9.499999999999886
 21
-7.381872612203778
 31
0.0
  0
LINE
  5
706
330
709
100
AcDbEntity
  8
SICHTBAR
100
AcDbLine
 10
-4.499999999999772
 20
11.61812738779622
 30
0.0
 11
-4.499999999999786
 21
-12.20937700281411
 31
0.0
  0
LINE
  5
707
330
709
100
AcDbEntity
  8
Viditelná (ISO)
100
AcDbLine
 10
9.499999999999886
 20
-4.381872572203747
 30
0.0
 11
9.499999999999914
 21
-8.892068757991353
 31
0.0
  0
LINE
  5
6E3
330
709
100
AcDbEntity
  8
Viditelná (ISO)
100
AcDbLine
 10
-2.800000000000181
 20
11.61812738779622
 30
0.0
 11
-2.800000000000181
 21
8.96812738779613
 31
0.0
  0
LINE
  5
6E4
330
709
100
AcDbEntity
  8
Viditelná (ISO)
100
AcDbLine
 10
-2.800000000000181
 20
8.96812738779613
 30
0.0
 11
-0.2000000000002728
 21
8.96812738779613
 31
0.0
  0
LINE
  5
6E5
330
709
100
AcDbEntity
  8
Viditelná (ISO)
100
AcDbLine
 10
-0.2000000000002728
 20
8.96812738779613
 30
0.0
 11
-0.2000000000002728
 21
6.268127387796312
 31
0.0
  0
LINE
  5
6E6
330
709
100
AcDbEntity
  8
Viditelná (ISO)
100
AcDbLine
 10
-0.2000000000002728
 20
6.268127387796312
 30
0.0
 11
2.499999999999886
 21
6.268127387796312
 31
0.0
  0
LINE
  5
6E7
330
709
100
AcDbEntity
  8
Viditelná (ISO)
100
AcDbLine
 10
2.499999999999886
 20
6.268127387796312
 30
0.0
 11
2.499999999999886
 21
3.618127387796221
 31
0.0
  0
LINE
  5
6E8
330
709
100
AcDbEntity
  8
Viditelná (ISO)
100
AcDbLine
 10
2.499999999999886
 20
3.618127387796221
 30
0.0
 11
5.199999999999704
 21
3.618127387796221
 31
0.0
  0
LINE
  5
6E9
330
709
100
AcDbEntity
  8
Viditelná (ISO)
100
AcDbLine
 10
5.199999999999704
 20
3.618127387796221
 30
0.0
 11
5.199999999999704
 21
3.118127387796221
 31
0.0
  0
LINE
  5
6EA
330
709
100
AcDbEntity
  8
Viditelná (ISO)
100
AcDbLine
 10
2.499999999999886
 20
3.75
 30
0.0
 11
0.0
 21
3.75
 31
0.0
  0
LINE
  5
6EB
330
709
100
AcDbEntity
  8
Viditelná (ISO)
100
AcDbLine
 10
0.0
 20
3.75
 30
0.0
 11
0.0
 21
2.25
 31
0.0
  0
LINE
  5
6EC
330
709
100
AcDbEntity
  8
Viditelná (ISO)
100
AcDbLine
 10
0.0
 20
2.25
 30
0.0
 11
-2.5
 21
2.25
 31
0.0
  0
LINE
  5
6ED
330
709
100
AcDbEntity
  8
Viditelná (ISO)
100
AcDbLine
 10
-2.5
 20
2.25
 30
0.0
 11
-4.5
 21
4.25
 31
0.0
  0
LINE
  5
6EE
330
709
100
AcDbEntity
  8
Viditelná (ISO)
100
AcDbLine
 10
-4.5
 20
-4.75
 30
0.0
 11
-2.5
 21
-2.75
 31
0.0
  0
LINE
  5
6EF
330
709
100
AcDbEntity
  8
Viditelná (ISO)
100
AcDbLine
 10
-2.5
 20
-2.75
 30
0.0
 11
0.0
 21
-2.75
 31
0.0
  0
LINE
  5
6F0
330
709
100
AcDbEntity
  8
Viditelná (ISO)
100
AcDbLine
 10
0.0
 20
-2.75
 30
0.0
 11
0.0
 21
-4.25
 31
0.0
  0
LINE
  5
6F1
330
709
100
AcDbEntity
  8
Viditelná (ISO)
100
AcDbLine
 10
9.499999999999886
 20
-1.381872612203778
 30
0.0
 11
9.499999999999886
 21
-7.381872612203778
 31
0.0
  0
LINE
  5
6F2
330
709
100
AcDbEntity
  8
Viditelná (ISO)
100
AcDbLine
 10
-4.5
 20
3.618127387796221
 30
0.0
 11
-4.5
 21
-5.381872612203778
 31
0.0
  0
LINE
  5
6F3
330
709
100
AcDbEntity
  8
Viditelná (ISO)
100
AcDbLine
 10
9.499999999999886
 20
-7.381872612203324
 30
0.0
 11
-4.499999999989086
 21
-7.38187261220105
 31
0.0
  0
LINE
  5
6F4
330
709
100
AcDbEntity
  8
Viditelná (ISO)
100
AcDbLine
 10
0.0
 20
-3.381872612203778
 30
0.0
 11
0.0
 21
-2.881872612203778
 31
0.0
  0
LINE
  5
6F5
330
709
100
AcDbEntity
  8
Viditelná (ISO)
100
AcDbLine
 10
0.0
 20
2.25
 30
0.0
 11
0.0
 21
-2.25
 31
0.0
  0
LINE
  5
6F6
330
709
100
AcDbEntity
  8
0
100
AcDbLine
 10
5.199999999999704
 20
3.618127387796221
 30
0.0
 11
5.199999999999704
 21
1.118127387796221
 31
0.0
  0
LINE
  5
6F7
330
709
100
AcDbEntity
  8
0
100
AcDbLine
 10
7.46000000000015
 20
1.118127387796221
 30
0.0
 11
7.46000000000015
 21
-1.381872612203778
 31
0.0
  0
LINE
  5
6F8
330
709
100
AcDbEntity
  8
0
100
AcDbLine
 10
5.199999999999704
 20
1.118127387796221
 30
0.0
 11
7.46000000000015
 21
1.118127387796221
 31
0.0
  0
LINE
  5
6F9
330
709
100
AcDbEntity
  8
0
100
AcDbLine
 10
9.499999999999886
 20
-1.381872612203778
 30
0.0
 11
7.46000000000015
 21
-1.381872612203778
 31
0.0
  0
LINE
  5
6FA
330
709
100
AcDbEntity
  8
0
100
AcDbLine
 10
-2.5
 20
2.25
 30
0.0
 11
-2.5
 21
-2.75
 31
0.0
  0
LINE
  5
6FB
330
709
100
AcDbEntity
  8
AM_7
  6
AM_DIN_G_W050x2
100
AcDbLine
 10
-5.5
 20
-0.25
 30
0.0
 11
2.999999999999886
 21
-0.25
 31
0.0
1001
GENIUS_GENODEF_13
1002
{
1000
HIER
1070
     0
1002
}
1002
{
1000
MANEDIT
1070
     0
1002
}
1002
{
1000
NOSEL
1070
     0
1002
}
1002
{
1000
BEHIND
1070
     0
1002
}
1002
{
1000
OTHER
1070
     0
1002
}
1002
{
1000
REACTOR
1002
}
1001
GENIUS_GENOBJ-N-CEN_13
1002
{
1000
OWNER
1000
GEN
1002
}
1001
GENIUS_GENCEN_19
1002
{
1040
3.0
1002
}
  0
HATCH
  5
6FC
330
709
100
AcDbEntity
  8
AM_8
100
AcDbHatch
 10
0.0
 20
0.0
 30
0.0
210
0.0
220
0.0
230
1.0
  2
_U
 70
     0
 71
     0
 91
        1
 92
        1
 93
        8
 72
     1
 10
9.499999999999886
 20
-4.25
 11
-0.0000000000001137
 21
-4.25
 72
     1
 10
0.0
 20
-4.25
 11
0.0
 21
-2.75
 72
     1
 10
0.0
 20
-2.75
 11
-2.5
 21
-2.75
 72
     1
 10
-2.5
 20
-2.75
 11
-4.5
 21
-4.75
 72
     1
 10
-4.5
 20
-4.75
 11
-4.5
 21
-5.381872612203778
 72
     1
 10
-4.5
 20
-5.381872612203778
 11
-4.499999999989086
 21
-7.38187261220105
 72
     1
 10
-4.499999999989086
 20
-7.38187261220105
 11
9.5
 21
-7.381872612203324
 72
     1
 10
9.499999999999886
 20
-7.381872612203324
 11
9.499999999999886
 21
-4.25
 97
        0
 75
     0
 76
     0
 52
494.9999999999999
 41
2.82
 77
     0
 78
     1
 53
135.0
 43
-47.55419137267551
 44
-310.8821698678463
 45
-1.994041122946065
 46
-1.994041122946063
 79
     0
 98
        1
 10
-47.55419137267551
 20
-310.8821698678463
1001
ACAD
1010
0.0
1020
0.0
1030
0.0
1001
GENIUS_GENOBJ-N-HTC_13
1002
{
1000
OWNER
1000
GEN
1002
}
1001
GENIUS_GENODEF_13
1002
{
1000
HIER
1070
     0
1002
}
1002
{
1000
MANEDIT
1070
     0
1002
}
1002
{
1000
NOSEL
1070
     0
1002
}
1002
{
1000
BEHIND
1070
     0
1002
}
1002
{
1000
OTHER
1070
     0
1002
}
1002
{
1000
REACTOR
1002
}
1001
GENIUS_GENHATCH_13
1002
{
1000
DATA
1040
45.0
1042
2.5
1000
_U
1070
     0
1011
1.800975442862181
1021
-6.304056971662021
1031
0.0
1002
}
1002
{
1000
UCS
1010
0.0
1020
0.0
1030
0.0
1010
1.0
1020
0.0
1030
0.0
1010
0.0
1020
1.0
1030
0.0
1002
}
  0
HATCH
  5
6FD
330
709
100
AcDbEntity
  8
AM_8
100
AcDbHatch
 10
0.0
 20
0.0
 30
0.0
210
0.0
220
0.0
230
1.0
  2
_U
 70
     0
 71
     0
 91
        1
 92
        1
 93
       11
 72
     1
 10
-0.2000000000002728
 20
8.96812738779613
 11
-2.800000000000181
 21
8.96812738779613
 72
     1
 10
-2.800000000000181
 20
8.96812738779613
 11
-2.800000000000181
 21
11.61812738779622
 72
     1
 10
-2.800000000000181
 20
11.61812738779622
 11
-4.5
 21
11.61812738779622
 72
     1
 10
-4.5
 20
11.61812738779622
 11
-4.499999999999772
 21
4.249999999999772
 72
     1
 10
-4.499999999999772
 20
4.249999999999772
 11
-2.5
 21
2.25
 72
     1
 10
-2.5
 20
2.25
 11
0.0
 21
2.25
 72
     1
 10
0.0
 20
2.25
 11
0.0
 21
3.75
 72
     1
 10
0.0
 20
3.75
 11
2.5
 21
3.75
 72
     1
 10
2.499999999999886
 20
3.75
 11
2.499999999999886
 21
6.268127387796312
 72
     1
 10
2.499999999999886
 20
6.268127387796312
 11
-0.2000000000003865
 21
6.268127387796312
 72
     1
 10
-0.2000000000002728
 20
6.268127387796312
 11
-0.2000000000002728
 21
8.96812738779613
 97
        0
 75
     0
 76
     0
 52
494.9999999999999
 41
2.82
 77
     0
 78
     1
 53
135.0
 43
-47.55419137267551
 44
-310.8821698678463
 45
-1.994041122946065
 46
-1.994041122946063
 79
     0
 98
        1
 10
-47.55419137267551
 20
-310.8821698678463
1001
ACAD
1010
0.0
1020
0.0
1030
0.0
1001
GENIUS_GENOBJ-N-HTC_13
1002
{
1000
OWNER
1000
GEN
1002
}
1001
GENIUS_GENODEF_13
1002
{
1000
HIER
1070
     0
1002
}
1002
{
1000
MANEDIT
1070
     0
1002
}
1002
{
1000
NOSEL
1070
     0
1002
}
1002
{
1000
BEHIND
1070
     0
1002
}
1002
{
1000
OTHER
1070
     0
1002
}
1002
{
1000
REACTOR
1002
}
1001
GENIUS_GENHATCH_13
1002
{
1000
DATA
1040
45.0
1042
2.5
1000
_U
1070
     0
1011
-1.143795715534906
1021
5.344204458452622
1031
0.0
1002
}
1002
{
1000
UCS
1010
0.0
1020
0.0
1030
0.0
1010
1.0
1020
0.0
1030
0.0
1010
0.0
1020
1.0
1030
0.0
1002
}
  0
LINE
  5
708
330
709
100
AcDbEntity
  8
0
100
AcDbLine
 10
-2.5
 20
-12.76984286500209
 30
0.0
 11
-2.5
 21
-7.381872612201277
 31
0.0
  0
LINE
  5
6FF
330
709
100
AcDbEntity
  8
0
100
AcDbLine
 10
-0.20000000001437
 20
7.368127387796903
 30
0.0
 11
3.287639613456917
 21
9.032598409319689
 31
0.0
  0
LINE
  5
700
330
709
100
AcDbEntity
  8
0
100
AcDbLine
 10
3.59999999998638
 20
3.618127387797812
 30
0.0
 11
4.6873542981333
 21
7.88305937265477
 31
0.0
  0
ARC
  5
701
330
709
100
AcDbEntity
  8
0
100
AcDbCircle
 10
3.718351443425149
 20
8.13010889717816
 30
0.0
 40
1.0
100
AcDbArc
 50
345.6970133279291
 51
115.5127431426633
1001
GENIUS_GENOREF_13
1005
704
  0
LINE
  5
702
330
709
100
AcDbEntity
  8
0
100
AcDbLine
 10
-2.800000000000181
 20
11.61812738779622
 30
0.0
 11
-4.499999999999772
 21
11.61812738779622
 31
0.0
  0
HATCH
  5
703
330
709
100
AcDbEntity
  8
0
100
AcDbHatch
 10
0.0
 20
0.0
 30
0.0
210
0.0
220
0.0
230
1.0
  2
ANSI37
 70
     0
 71
     0
 91
        1
 92
        1
 93
        7
 72
     1
 10
3.287639613456917
 20
9.032598409319689
 11
-0.2000000000144837
 21
7.368127387796903
 72
     1
 10
-0.20000000001437
 20
7.368127387796903
 11
-0.2000000000002871
 21
6.268127387796312
 72
     1
 10
-0.2000000000002728
 20
6.268127387796312
 11
2.5
 21
6.268127387796312
 72
     1
 10
2.499999999999886
 20
6.268127387796312
 11
2.499999999999886
 21
3.618127387796221
 72
     1
 10
2.499999999999886
 20
3.618127387796221
 11
3.599999999986536
 21
3.618127387797812
 72
     1
 10
3.59999999998638
 20
3.618127387797812
 11
4.687354298133229
 21
7.88305937265477
 72
     2
 10
3.718351443425149
 20
8.13010889717816
 40
0.9999999999999964
 50
345.697013327929
 51
475.5127431426609
 73
     1
 97
        0
 75
     0
 76
     1
 52
270.0
 41
0.8
 77
     0
 78
     2
 53
315.0
 43
-6.326316193437833
 44
1101.57925175943
 45
1.79605122421383
 46
1.79605122421383
 79
     0
 53
44.99999999999999
 43
-6.326316193437833
 44
1101.57925175943
 45
-1.79605122421383
 46
1.79605122421383
 79
     0
 98
        1
 10
-6.326316193437833
 20
1101.57925175943
1001
GENIUS_GENODEF_13
1002
{
1000
HIER
1070
     0
1002
}
1002
{
1000
MANEDIT
1070
     0
1002
}
1002
{
1000
NOSEL
1070
     0
1002
}
1002
{
1000
BEHIND
1070
     0
1002
}
1002
{
1000
OTHER
1070
     0
1002
}
1002
{
1000
REACTOR
1002
}
1001
GENIUS_GENOBJ-N-HTC_13
1002
{
1000
OWNER
1000
GEN
1002
}
1001
GENIUS_GENHATCH_13
1002
{
1000
DATA
1040
0.0
1042
1.0
1000
ANSI37
1070
     0
1011
3.608526085554672
1021
6.290929084598019
1031
0.0
1002
}
1002
{
1000
UCS
1010
0.0
1020
0.0
1030
0.0
1010
1.0
1020
0.0
1030
0.0
1010
0.0
1020
1.0
1030
0.0
1002
}
  0
ENDBLK
  5
70B
330
709
100
AcDbEntity
  8
0
100
AcDbBlockEnd
  0
BLOCK
  5
7CD
330
7CC
100
AcDbEntity
  8
0
100
AcDbBlockBegin
  2
GENZOORLAMJL3
 70
     0
 10
0.0
 20
0.0
 30
0.0
  3
GENZOORLAMJL3
  1

  0
LINE
  5
7A1
330
7CC
100
AcDbEntity
  8
SICHTBAR
100
AcDbLine
 10
0.0
 20
-4.0
 30
0.0
 11
9.499999999999886
 21
-4.0
 31
0.0
  0
LINE
  5
7A2
330
7CC
100
AcDbEntity
  8
SICHTBAR
100
AcDbLine
 10
9.499999999999886
 20
-4.131872572203747
 30
0.0
 11
9.499999999999886
 21
-7.131872612203778
 31
0.0
  0
LINE
  5
7C8
330
7CC
100
AcDbEntity
  8
SICHTBAR
100
AcDbLine
 10
-4.499999999999772
 20
11.86812738779622
 30
0.0
 11
-4.499999999999786
 21
-12.73378801491805
 31
0.0
  0
LINE
  5
7C9
330
7CC
100
AcDbEntity
  8
Viditelná (ISO)
100
AcDbLine
 10
9.499999999999886
 20
-4.131872572203747
 30
0.0
 11
9.499999999999928
 21
-9.599445671957823
 31
0.0
  0
LINE
  5
7A5
330
7CC
100
AcDbEntity
  8
Viditelná (ISO)
100
AcDbLine
 10
-2.800000000000181
 20
11.86812738779622
 30
0.0
 11
-2.800000000000181
 21
9.21812738779613
 31
0.0
  0
LINE
  5
7A6
330
7CC
100
AcDbEntity
  8
Viditelná (ISO)
100
AcDbLine
 10
-2.800000000000181
 20
9.21812738779613
 30
0.0
 11
-0.2000000000002728
 21
9.21812738779613
 31
0.0
  0
LINE
  5
7A7
330
7CC
100
AcDbEntity
  8
Viditelná (ISO)
100
AcDbLine
 10
-0.2000000000002728
 20
9.21812738779613
 30
0.0
 11
-0.2000000000002728
 21
6.518127387796312
 31
0.0
  0
LINE
  5
7A8
330
7CC
100
AcDbEntity
  8
Viditelná (ISO)
100
AcDbLine
 10
-0.2000000000002728
 20
6.518127387796312
 30
0.0
 11
2.499999999999886
 21
6.518127387796312
 31
0.0
  0
LINE
  5
7A9
330
7CC
100
AcDbEntity
  8
Viditelná (ISO)
100
AcDbLine
 10
2.499999999999886
 20
6.518127387796312
 30
0.0
 11
2.499999999999886
 21
3.868127387796221
 31
0.0
  0
LINE
  5
7AA
330
7CC
100
AcDbEntity
  8
Viditelná (ISO)
100
AcDbLine
 10
2.499999999999886
 20
3.868127387796221
 30
0.0
 11
5.199999999999704
 21
3.868127387796221
 31
0.0
  0
LINE
  5
7AB
330
7CC
100
AcDbEntity
  8
Viditelná (ISO)
100
AcDbLine
 10
5.199999999999704
 20
3.868127387796221
 30
0.0
 11
5.199999999999704
 21
3.368127387796221
 31
0.0
  0
LINE
  5
7AC
330
7CC
100
AcDbEntity
  8
Viditelná (ISO)
100
AcDbLine
 10
2.499999999999886
 20
4.0
 30
0.0
 11
0.0
 21
4.0
 31
0.0
  0
LINE
  5
7AD
330
7CC
100
AcDbEntity
  8
Viditelná (ISO)
100
AcDbLine
 10
0.0
 20
4.0
 30
0.0
 11
0.0
 21
2.5
 31
0.0
  0
LINE
  5
7AE
330
7CC
100
AcDbEntity
  8
Viditelná (ISO)
100
AcDbLine
 10
0.0
 20
2.5
 30
0.0
 11
-2.5
 21
2.5
 31
0.0
  0
LINE
  5
7AF
330
7CC
100
AcDbEntity
  8
Viditelná (ISO)
100
AcDbLine
 10
-2.5
 20
2.5
 30
0.0
 11
-4.5
 21
4.5
 31
0.0
  0
LINE
  5
7B0
330
7CC
100
AcDbEntity
  8
Viditelná (ISO)
100
AcDbLine
 10
-4.5
 20
-4.5
 30
0.0
 11
-2.5
 21
-2.5
 31
0.0
  0
LINE
  5
7B1
330
7CC
100
AcDbEntity
  8
Viditelná (ISO)
100
AcDbLine
 10
-2.5
 20
-2.5
 30
0.0
 11
0.0
 21
-2.5
 31
0.0
  0
LINE
  5
7B2
330
7CC
100
AcDbEntity
  8
Viditelná (ISO)
100
AcDbLine
 10
0.0
 20
-2.5
 30
0.0
 11
0.0
 21
-4.0
 31
0.0
  0
LINE
  5
7B3
330
7CC
100
AcDbEntity
  8
Viditelná (ISO)
100
AcDbLine
 10
9.499999999999886
 20
-1.131872612203778
 30
0.0
 11
9.499999999999886
 21
-7.131872612203778
 31
0.0
  0
LINE
  5
7B4
330
7CC
100
AcDbEntity
  8
Viditelná (ISO)
100
AcDbLine
 10
-4.5
 20
3.868127387796221
 30
0.0
 11
-4.5
 21
-5.131872612203778
 31
0.0
  0
LINE
  5
7B5
330
7CC
100
AcDbEntity
  8
Viditelná (ISO)
100
AcDbLine
 10
9.499999999999886
 20
-7.131872612203324
 30
0.0
 11
-4.499999999989086
 21
-7.13187261220105
 31
0.0
  0
LINE
  5
7B6
330
7CC
100
AcDbEntity
  8
Viditelná (ISO)
100
AcDbLine
 10
0.0
 20
-3.131872612203778
 30
0.0
 11
0.0
 21
-2.631872612203778
 31
0.0
  0
LINE
  5
7B7
330
7CC
100
AcDbEntity
  8
Viditelná (ISO)
100
AcDbLine
 10
0.0
 20
2.5
 30
0.0
 11
0.0
 21
-2.0
 31
0.0
  0
LINE
  5
7B8
330
7CC
100
AcDbEntity
  8
0
100
AcDbLine
 10
5.199999999999704
 20
3.868127387796221
 30
0.0
 11
5.199999999999704
 21
1.368127387796221
 31
0.0
  0
LINE
  5
7B9
330
7CC
100
AcDbEntity
  8
0
100
AcDbLine
 10
7.46000000000015
 20
1.368127387796221
 30
0.0
 11
7.46000000000015
 21
-1.131872612203778
 31
0.0
  0
LINE
  5
7BA
330
7CC
100
AcDbEntity
  8
0
100
AcDbLine
 10
5.199999999999704
 20
1.368127387796221
 30
0.0
 11
7.46000000000015
 21
1.368127387796221
 31
0.0
  0
LINE
  5
7BB
330
7CC
100
AcDbEntity
  8
0
100
AcDbLine
 10
9.499999999999886
 20
-1.131872612203778
 30
0.0
 11
7.46000000000015
 21
-1.131872612203778
 31
0.0
  0
LINE
  5
7BC
330
7CC
100
AcDbEntity
  8
0
100
AcDbLine
 10
-2.5
 20
2.5
 30
0.0
 11
-2.5
 21
-2.5
 31
0.0
  0
LINE
  5
7BD
330
7CC
100
AcDbEntity
  8
AM_7
  6
AM_DIN_G_W050x2
100
AcDbLine
 10
-5.5
 20
0.0
 30
0.0
 11
2.999999999999886
 21
0.0
 31
0.0
1001
GENIUS_GENODEF_13
1002
{
1000
HIER
1070
     0
1002
}
1002
{
1000
MANEDIT
1070
     0
1002
}
1002
{
1000
NOSEL
1070
     0
1002
}
1002
{
1000
BEHIND
1070
     0
1002
}
1002
{
1000
OTHER
1070
     0
1002
}
1002
{
1000
REACTOR
1002
}
1001
GENIUS_GENOBJ-N-CEN_13
1002
{
1000
OWNER
1000
GEN
1002
}
1001
GENIUS_GENCEN_19
1002
{
1040
3.0
1002
}
  0
LINE
  5
7CA
330
7CC
100
AcDbEntity
  8
0
100
AcDbLine
 10
-2.5
 20
-12.95999915405218
 30
0.0
 11
-3.799707769794252
 21
-12.95999915405218
 31
0.0
  0
HATCH
  5
7BF
330
7CC
100
AcDbEntity
  8
AM_8
100
AcDbHatch
 10
0.0
 20
0.0
 30
0.0
210
0.0
220
0.0
230
1.0
  2
_U
 70
     0
 71
     0
 91
        1
 92
        1
 93
        8
 72
     1
 10
9.499999999999886
 20
-4.0
 11
-0.0000000000001137
 21
-4.0
 72
     1
 10
0.0
 20
-4.0
 11
0.0
 21
-2.5
 72
     1
 10
0.0
 20
-2.5
 11
-2.5
 21
-2.5
 72
     1
 10
-2.5
 20
-2.5
 11
-4.5
 21
-4.5
 72
     1
 10
-4.5
 20
-4.5
 11
-4.5
 21
-5.131872612203778
 72
     1
 10
-4.5
 20
-5.131872612203778
 11
-4.499999999989086
 21
-7.13187261220105
 72
     1
 10
-4.499999999989086
 20
-7.13187261220105
 11
9.5
 21
-7.131872612203324
 72
     1
 10
9.499999999999886
 20
-7.131872612203324
 11
9.499999999999886
 21
-4.0
 97
        0
 75
     0
 76
     0
 52
494.9999999999999
 41
2.82
 77
     0
 78
     1
 53
135.0
 43
-47.55419137267551
 44
-310.6321698678463
 45
-1.994041122946065
 46
-1.994041122946063
 79
     0
 98
        1
 10
-47.55419137267551
 20
-310.6321698678463
1001
ACAD
1010
0.0
1020
0.0
1030
0.0
1001
GENIUS_GENOBJ-N-HTC_13
1002
{
1000
OWNER
1000
GEN
1002
}
1001
GENIUS_GENODEF_13
1002
{
1000
HIER
1070
     0
1002
}
1002
{
1000
MANEDIT
1070
     0
1002
}
1002
{
1000
NOSEL
1070
     0
1002
}
1002
{
1000
BEHIND
1070
     0
1002
}
1002
{
1000
OTHER
1070
     0
1002
}
1002
{
1000
REACTOR
1002
}
1001
GENIUS_GENHATCH_13
1002
{
1000
DATA
1040
45.0
1042
2.5
1000
_U
1070
     0
1011
1.800975442862181
1021
-6.054056971662021
1031
0.0
1002
}
1002
{
1000
UCS
1010
0.0
1020
0.0
1030
0.0
1010
1.0
1020
0.0
1030
0.0
1010
0.0
1020
1.0
1030
0.0
1002
}
  0
HATCH
  5
7C0
330
7CC
100
AcDbEntity
  8
AM_8
100
AcDbHatch
 10
0.0
 20
0.0
 30
0.0
210
0.0
220
0.0
230
1.0
  2
_U
 70
     0
 71
     0
 91
        1
 92
        1
 93
       11
 72
     1
 10
-0.2000000000002728
 20
9.21812738779613
 11
-2.800000000000181
 21
9.21812738779613
 72
     1
 10
-2.800000000000181
 20
9.21812738779613
 11
-2.800000000000181
 21
11.86812738779622
 72
     1
 10
-2.800000000000181
 20
11.86812738779622
 11
-4.5
 21
11.86812738779622
 72
     1
 10
-4.5
 20
11.86812738779622
 11
-4.499999999999772
 21
4.499999999999772
 72
     1
 10
-4.499999999999772
 20
4.499999999999772
 11
-2.5
 21
2.5
 72
     1
 10
-2.5
 20
2.5
 11
0.0
 21
2.5
 72
     1
 10
0.0
 20
2.5
 11
0.0
 21
4.0
 72
     1
 10
0.0
 20
4.0
 11
2.5
 21
4.0
 72
     1
 10
2.499999999999886
 20
4.0
 11
2.499999999999886
 21
6.518127387796312
 72
     1
 10
2.499999999999886
 20
6.518127387796312
 11
-0.2000000000003865
 21
6.518127387796312
 72
     1
 10
-0.2000000000002728
 20
6.518127387796312
 11
-0.2000000000002728
 21
9.21812738779613
 97
        0
 75
     0
 76
     0
 52
494.9999999999999
 41
2.82
 77
     0
 78
     1
 53
135.0
 43
-47.55419137267551
 44
-310.6321698678463
 45
-1.994041122946065
 46
-1.994041122946063
 79
     0
 98
        1
 10
-47.55419137267551
 20
-310.6321698678463
1001
ACAD
1010
0.0
1020
0.0
1030
0.0
1001
GENIUS_GENOBJ-N-HTC_13
1002
{
1000
OWNER
1000
GEN
1002
}
1001
GENIUS_GENODEF_13
1002
{
1000
HIER
1070
     0
1002
}
1002
{
1000
MANEDIT
1070
     0
1002
}
1002
{
1000
NOSEL
1070
     0
1002
}
1002
{
1000
BEHIND
1070
     0
1002
}
1002
{
1000
OTHER
1070
     0
1002
}
1002
{
1000
REACTOR
1002
}
1001
GENIUS_GENHATCH_13
1002
{
1000
DATA
1040
45.0
1042
2.5
1000
_U
1070
     0
1011
-1.143795715534906
1021
5.594204458452622
1031
0.0
1002
}
1002
{
1000
UCS
1010
0.0
1020
0.0
1030
0.0
1010
1.0
1020
0.0
1030
0.0
1010
0.0
1020
1.0
1030
0.0
1002
}
  0
LINE
  5
7CB
330
7CC
100
AcDbEntity
  8
0
100
AcDbLine
 10
-2.5
 20
-13.27212707929169
 30
0.0
 11
-2.5
 21
-7.131872612201277
 31
0.0
  0
LINE
  5
7C2
330
7CC
100
AcDbEntity
  8
0
100
AcDbLine
 10
-2.800000000000181
 20
11.86812738779622
 30
0.0
 11
-4.499999999999772
 21
11.86812738779622
 31
0.0
  0
LINE
  5
7C3
330
7CC
100
AcDbEntity
  8
0
100
AcDbLine
 10
3.59999999998638
 20
3.868127387797812
 30
0.0
 11
5.28667929391932
 21
7.315349522593237
 31
0.0
  0
ARC
  5
7C4
330
7CC
100
AcDbEntity
  8
0
100
AcDbCircle
 10
4.388435908135477
 20
7.754847895622731
 30
0.0
 40
1.0
100
AcDbArc
 50
333.9281202533586
 51
104.2890678730749
1001
GENIUS_GENOREF_13
1005
7C7
  0
LINE
  5
7C5
330
7CC
100
AcDbEntity
  8
0
100
AcDbLine
 10
-0.2000000000002728
 20
7.61812738780361
 30
0.0
 11
4.141621789668434
 21
8.72391073719973
 31
0.0
  0
HATCH
  5
7C6
330
7CC
100
AcDbEntity
  8
0
100
AcDbHatch
 10
0.0
 20
0.0
 30
0.0
210
0.0
220
0.0
230
1.0
  2
ANSI37
 70
     0
 71
     0
 91
        1
 92
        1
 93
        7
 72
     1
 10
2.499999999999886
 20
3.868127387796221
 11
3.59999999998638
 21
3.868127387797812
 72
     1
 10
3.59999999998638
 20
3.868127387797812
 11
5.28667929391932
 21
7.315349522593237
 72
     2
 10
4.388435908135491
 20
7.754847895622731
 40
0.9999999999999841
 50
333.9281202533582
 51
464.2890678730757
 73
     1
 72
     1
 10
4.141621789668434
 20
8.72391073719973
 11
-0.2000000000002728
 21
7.61812738780361
 72
     1
 10
-0.2000000000002728
 20
7.61812738780361
 11
-0.2000000000002728
 21
6.518127387796312
 72
     1
 10
-0.2000000000002728
 20
6.518127387796312
 11
2.499999999999886
 21
6.518127387796312
 72
     1
 10
2.499999999999886
 20
6.518127387796312
 11
2.499999999999886
 21
3.868127387796221
 97
        0
 75
     0
 76
     1
 52
270.0
 41
0.8
 77
     0
 78
     2
 53
315.0
 43
-94.42160821468304
 44
-320.7896679757794
 45
1.796051224213831
 46
1.79605122421383
 79
     0
 53
45.0
 43
-94.42160821468304
 44
-320.7896679757794
 45
-1.79605122421383
 46
1.796051224213831
 79
     0
 98
        1
 10
-94.42160821468304
 20
-320.7896679757794
1001
ACAD
1010
0.0
1020
0.0
1030
0.0
1001
GENIUS_GENOBJ-N-HTC_13
1002
{
1000
OWNER
1000
GEN
1002
}
1001
GENIUS_GENODEF_13
1002
{
1000
HIER
1070
     0
1002
}
1002
{
1000
MANEDIT
1070
     0
1002
}
1002
{
1000
NOSEL
1070
     0
1002
}
1002
{
1000
BEHIND
1070
     0
1002
}
1002
{
1000
OTHER
1070
     0
1002
}
1002
{
1000
REACTOR
1002
}
1001
GENIUS_GENHATCH_13
1002
{
1000
DATA
1040
0.0
1042
1.0
1000
ANSI38
1070
     0
1011
3.696154450435301
1021
7.182193751941326
1031
0.0
1002
}
1002
{
1000
UCS
1010
0.0
1020
0.0
1030
0.0
1010
1.0
1020
0.0
1030
0.0
1010
0.0
1020
1.0
1030
0.0
1002
}
  0
ENDBLK
  5
7CE
330
7CC
100
AcDbEntity
  8
0
100
AcDbBlockEnd
  0
BLOCK
  5
970
330
96F
100
AcDbEntity
  8
0
100
AcDbBlockBegin
  2
GENZOOU7PMJL3
 70
     0
 10
0.0
 20
0.0
 30
0.0
  3
GENZOOU7PMJL3
  1

  0
LINE
  5
945
330
96F
100
AcDbEntity
  8
SICHTBAR
100
AcDbLine
 10
0.0
 20
-4.0
 30
0.0
 11
9.499999999999886
 21
-4.0
 31
0.0
  0
LINE
  5
946
330
96F
100
AcDbEntity
  8
SICHTBAR
100
AcDbLine
 10
9.499999999999886
 20
-4.131872572203747
 30
0.0
 11
9.499999999999886
 21
-7.131872612203778
 31
0.0
  0
LINE
  5
96C
330
96F
100
AcDbEntity
  8
SICHTBAR
100
AcDbLine
 10
-4.499999999999772
 20
11.86812738779622
 30
0.0
 11
-4.499999999999786
 21
-13.84381147499653
 31
0.0
  0
LINE
  5
96D
330
96F
100
AcDbEntity
  8
Viditelná (ISO)
100
AcDbLine
 10
9.499999999999886
 20
-4.131872572203747
 30
0.0
 11
9.499999999999943
 21
-11.02955648044133
 31
0.0
  0
LINE
  5
949
330
96F
100
AcDbEntity
  8
Viditelná (ISO)
100
AcDbLine
 10
-2.800000000000181
 20
11.86812738779622
 30
0.0
 11
-2.800000000000181
 21
9.21812738779613
 31
0.0
  0
LINE
  5
94A
330
96F
100
AcDbEntity
  8
Viditelná (ISO)
100
AcDbLine
 10
-2.800000000000181
 20
9.21812738779613
 30
0.0
 11
-0.2000000000002728
 21
9.21812738779613
 31
0.0
  0
LINE
  5
94B
330
96F
100
AcDbEntity
  8
Viditelná (ISO)
100
AcDbLine
 10
-0.2000000000002728
 20
9.21812738779613
 30
0.0
 11
-0.2000000000002728
 21
6.518127387796312
 31
0.0
  0
LINE
  5
94C
330
96F
100
AcDbEntity
  8
Viditelná (ISO)
100
AcDbLine
 10
-0.2000000000002728
 20
6.518127387796312
 30
0.0
 11
2.499999999999886
 21
6.518127387796312
 31
0.0
  0
LINE
  5
94D
330
96F
100
AcDbEntity
  8
Viditelná (ISO)
100
AcDbLine
 10
2.499999999999886
 20
6.518127387796312
 30
0.0
 11
2.499999999999886
 21
3.868127387796221
 31
0.0
  0
LINE
  5
94E
330
96F
100
AcDbEntity
  8
Viditelná (ISO)
100
AcDbLine
 10
2.499999999999886
 20
3.868127387796221
 30
0.0
 11
5.199999999999704
 21
3.868127387796221
 31
0.0
  0
LINE
  5
94F
330
96F
100
AcDbEntity
  8
Viditelná (ISO)
100
AcDbLine
 10
5.199999999999704
 20
3.868127387796221
 30
0.0
 11
5.199999999999704
 21
3.368127387796221
 31
0.0
  0
LINE
  5
950
330
96F
100
AcDbEntity
  8
Viditelná (ISO)
100
AcDbLine
 10
2.499999999999886
 20
4.0
 30
0.0
 11
0.0
 21
4.0
 31
0.0
  0
LINE
  5
951
330
96F
100
AcDbEntity
  8
Viditelná (ISO)
100
AcDbLine
 10
0.0
 20
4.0
 30
0.0
 11
0.0
 21
2.5
 31
0.0
  0
LINE
  5
952
330
96F
100
AcDbEntity
  8
Viditelná (ISO)
100
AcDbLine
 10
0.0
 20
2.5
 30
0.0
 11
-2.5
 21
2.5
 31
0.0
  0
LINE
  5
953
330
96F
100
AcDbEntity
  8
Viditelná (ISO)
100
AcDbLine
 10
-2.5
 20
2.5
 30
0.0
 11
-4.5
 21
4.5
 31
0.0
  0
LINE
  5
954
330
96F
100
AcDbEntity
  8
Viditelná (ISO)
100
AcDbLine
 10
-4.5
 20
-4.5
 30
0.0
 11
-2.5
 21
-2.5
 31
0.0
  0
LINE
  5
955
330
96F
100
AcDbEntity
  8
Viditelná (ISO)
100
AcDbLine
 10
-2.5
 20
-2.5
 30
0.0
 11
0.0
 21
-2.5
 31
0.0
  0
LINE
  5
956
330
96F
100
AcDbEntity
  8
Viditelná (ISO)
100
AcDbLine
 10
0.0
 20
-2.5
 30
0.0
 11
0.0
 21
-4.0
 31
0.0
  0
LINE
  5
957
330
96F
100
AcDbEntity
  8
Viditelná (ISO)
100
AcDbLine
 10
9.499999999999886
 20
-1.131872612203778
 30
0.0
 11
9.499999999999886
 21
-7.131872612203778
 31
0.0
  0
LINE
  5
958
330
96F
100
AcDbEntity
  8
Viditelná (ISO)
100
AcDbLine
 10
-4.5
 20
3.868127387796221
 30
0.0
 11
-4.5
 21
-5.131872612203778
 31
0.0
  0
LINE
  5
959
330
96F
100
AcDbEntity
  8
Viditelná (ISO)
100
AcDbLine
 10
9.499999999999886
 20
-7.131872612203324
 30
0.0
 11
-4.499999999989086
 21
-7.13187261220105
 31
0.0
  0
LINE
  5
95A
330
96F
100
AcDbEntity
  8
Viditelná (ISO)
100
AcDbLine
 10
0.0
 20
-3.131872612203778
 30
0.0
 11
0.0
 21
-2.631872612203778
 31
0.0
  0
LINE
  5
95B
330
96F
100
AcDbEntity
  8
Viditelná (ISO)
100
AcDbLine
 10
0.0
 20
2.5
 30
0.0
 11
0.0
 21
-2.0
 31
0.0
  0
LINE
  5
95C
330
96F
100
AcDbEntity
  8
0
100
AcDbLine
 10
5.199999999999704
 20
3.868127387796221
 30
0.0
 11
5.199999999999704
 21
1.368127387796221
 31
0.0
  0
LINE
  5
95D
330
96F
100
AcDbEntity
  8
0
100
AcDbLine
 10
7.46000000000015
 20
1.368127387796221
 30
0.0
 11
7.46000000000015
 21
-1.131872612203778
 31
0.0
  0
LINE
  5
95E
330
96F
100
AcDbEntity
  8
0
100
AcDbLine
 10
5.199999999999704
 20
1.368127387796221
 30
0.0
 11
7.46000000000015
 21
1.368127387796221
 31
0.0
  0
LINE
  5
95F
330
96F
100
AcDbEntity
  8
0
100
AcDbLine
 10
9.499999999999886
 20
-1.131872612203778
 30
0.0
 11
7.46000000000015
 21
-1.131872612203778
 31
0.0
  0
LINE
  5
960
330
96F
100
AcDbEntity
  8
0
100
AcDbLine
 10
-2.5
 20
2.5
 30
0.0
 11
-2.5
 21
-2.5
 31
0.0
  0
LINE
  5
961
330
96F
100
AcDbEntity
  8
AM_7
  6
AM_DIN_G_W050x2
100
AcDbLine
 10
-5.5
 20
0.0
 30
0.0
 11
2.999999999999886
 21
0.0
 31
0.0
1001
GENIUS_GENODEF_13
1002
{
1000
HIER
1070
     0
1002
}
1002
{
1000
MANEDIT
1070
     0
1002
}
1002
{
1000
NOSEL
1070
     0
1002
}
1002
{
1000
BEHIND
1070
     0
1002
}
1002
{
1000
OTHER
1070
     0
1002
}
1002
{
1000
REACTOR
1002
}
1001
GENIUS_GENOBJ-N-CEN_13
1002
{
1000
OWNER
1000
GEN
1002
}
1001
GENIUS_GENCEN_19
1002
{
1040
3.0
1002
}
  0
LINE
  5
962
330
96F
100
AcDbEntity
  8
0
100
AcDbLine
 10
-2.5
 20
-12.95999915405218
 30
0.0
 11
-4.499999999999772
 21
-12.95999915405218
 31
0.0
  0
HATCH
  5
963
330
96F
100
AcDbEntity
  8
AM_8
100
AcDbHatch
 10
0.0
 20
0.0
 30
0.0
210
0.0
220
0.0
230
1.0
  2
_U
 70
     0
 71
     0
 91
        1
 92
        1
 93
        8
 72
     1
 10
9.499999999999886
 20
-4.0
 11
-0.0000000000001137
 21
-4.0
 72
     1
 10
0.0
 20
-4.0
 11
0.0
 21
-2.5
 72
     1
 10
0.0
 20
-2.5
 11
-2.5
 21
-2.5
 72
     1
 10
-2.5
 20
-2.5
 11
-4.5
 21
-4.5
 72
     1
 10
-4.5
 20
-4.5
 11
-4.5
 21
-5.131872612203778
 72
     1
 10
-4.5
 20
-5.131872612203778
 11
-4.499999999989086
 21
-7.13187261220105
 72
     1
 10
-4.499999999989086
 20
-7.13187261220105
 11
9.5
 21
-7.131872612203324
 72
     1
 10
9.499999999999886
 20
-7.131872612203324
 11
9.499999999999886
 21
-4.0
 97
        0
 75
     0
 76
     0
 52
494.9999999999999
 41
2.82
 77
     0
 78
     1
 53
135.0
 43
-47.55419137267551
 44
-310.6321698678463
 45
-1.994041122946065
 46
-1.994041122946063
 79
     0
 98
        1
 10
-47.55419137267551
 20
-310.6321698678463
1001
ACAD
1010
0.0
1020
0.0
1030
0.0
1001
GENIUS_GENOBJ-N-HTC_13
1002
{
1000
OWNER
1000
GEN
1002
}
1001
GENIUS_GENODEF_13
1002
{
1000
HIER
1070
     0
1002
}
1002
{
1000
MANEDIT
1070
     0
1002
}
1002
{
1000
NOSEL
1070
     0
1002
}
1002
{
1000
BEHIND
1070
     0
1002
}
1002
{
1000
OTHER
1070
     0
1002
}
1002
{
1000
REACTOR
1002
}
1001
GENIUS_GENHATCH_13
1002
{
1000
DATA
1040
45.0
1042
2.5
1000
_U
1070
     0
1011
1.800975442862181
1021
-6.054056971662021
1031
0.0
1002
}
1002
{
1000
UCS
1010
0.0
1020
0.0
1030
0.0
1010
1.0
1020
0.0
1030
0.0
1010
0.0
1020
1.0
1030
0.0
1002
}
  0
HATCH
  5
964
330
96F
100
AcDbEntity
  8
AM_8
100
AcDbHatch
 10
0.0
 20
0.0
 30
0.0
210
0.0
220
0.0
230
1.0
  2
_U
 70
     0
 71
     0
 91
        1
 92
        1
 93
       11
 72
     1
 10
-0.2000000000002728
 20
9.21812738779613
 11
-2.800000000000181
 21
9.21812738779613
 72
     1
 10
-2.800000000000181
 20
9.21812738779613
 11
-2.800000000000181
 21
11.86812738779622
 72
     1
 10
-2.800000000000181
 20
11.86812738779622
 11
-4.5
 21
11.86812738779622
 72
     1
 10
-4.5
 20
11.86812738779622
 11
-4.499999999999772
 21
4.499999999999772
 72
     1
 10
-4.499999999999772
 20
4.499999999999772
 11
-2.5
 21
2.5
 72
     1
 10
-2.5
 20
2.5
 11
0.0
 21
2.5
 72
     1
 10
0.0
 20
2.5
 11
0.0
 21
4.0
 72
     1
 10
0.0
 20
4.0
 11
2.5
 21
4.0
 72
     1
 10
2.499999999999886
 20
4.0
 11
2.499999999999886
 21
6.518127387796312
 72
     1
 10
2.499999999999886
 20
6.518127387796312
 11
-0.2000000000003865
 21
6.518127387796312
 72
     1
 10
-0.2000000000002728
 20
6.518127387796312
 11
-0.2000000000002728
 21
9.21812738779613
 97
        0
 75
     0
 76
     0
 52
494.9999999999999
 41
2.82
 77
     0
 78
     1
 53
135.0
 43
-47.55419137267551
 44
-310.6321698678463
 45
-1.994041122946065
 46
-1.994041122946063
 79
     0
 98
        1
 10
-47.55419137267551
 20
-310.6321698678463
1001
ACAD
1010
0.0
1020
0.0
1030
0.0
1001
GENIUS_GENOBJ-N-HTC_13
1002
{
1000
OWNER
1000
GEN
1002
}
1001
GENIUS_GENODEF_13
1002
{
1000
HIER
1070
     0
1002
}
1002
{
1000
MANEDIT
1070
     0
1002
}
1002
{
1000
NOSEL
1070
     0
1002
}
1002
{
1000
BEHIND
1070
     0
1002
}
1002
{
1000
OTHER
1070
     0
1002
}
1002
{
1000
REACTOR
1002
}
1001
GENIUS_GENHATCH_13
1002
{
1000
DATA
1040
45.0
1042
2.5
1000
_U
1070
     0
1011
-1.143795715534906
1021
5.594204458452622
1031
0.0
1002
}
1002
{
1000
UCS
1010
0.0
1020
0.0
1030
0.0
1010
1.0
1020
0.0
1030
0.0
1010
0.0
1020
1.0
1030
0.0
1002
}
  0
LINE
  5
96E
330
96F
100
AcDbEntity
  8
0
100
AcDbLine
 10
-2.5
 20
-14.34054099939203
 30
0.0
 11
-2.5
 21
-7.131872612201277
 31
0.0
  0
LINE
  5
966
330
96F
100
AcDbEntity
  8
0
100
AcDbLine
 10
-2.800000000000181
 20
11.86812738779622
 30
0.0
 11
-4.499999999999772
 21
11.86812738779622
 31
0.0
  0
LINE
  5
967
330
96F
100
AcDbEntity
  8
0
100
AcDbLine
 10
3.59999999998638
 20
3.868127387797812
 30
0.0
 11
5.608565471541766
 21
7.909746736220427
 31
0.0
  0
ARC
  5
968
330
96F
100
AcDbEntity
  8
0
100
AcDbCircle
 10
4.713055724751797
 20
8.354788636949081
 30
0.0
 40
1.0
100
AcDbArc
 50
333.5739804067777
 51
110.1397358247927
1001
GENIUS_GENOREF_13
1005
96B
  0
LINE
  5
969
330
96F
100
AcDbEntity
  8
0
100
AcDbLine
 10
-0.2000000000002728
 20
7.61812738780361
 30
0.0
 11
4.368744831303573
 21
9.293644328018217
 31
0.0
  0
HATCH
  5
96A
330
96F
100
AcDbEntity
  8
0
100
AcDbHatch
 10
0.0
 20
0.0
 30
0.0
210
0.0
220
0.0
230
1.0
  2
ANSI37
 70
     0
 71
     0
 91
        1
 92
        1
 93
        7
 72
     1
 10
-0.2000000000002728
 20
6.518127387796312
 11
2.499999999999886
 21
6.518127387796312
 72
     1
 10
2.499999999999886
 20
6.518127387796312
 11
2.499999999999886
 21
3.868127387796221
 72
     1
 10
2.499999999999886
 20
3.868127387796221
 11
3.59999999998638
 21
3.868127387797812
 72
     1
 10
3.59999999998638
 20
3.868127387797812
 11
5.608565471541766
 21
7.909746736220427
 72
     2
 10
4.713055724751797
 20
8.354788636949081
 40
1.000000000000003
 50
333.5739804067777
 51
470.1397358247927
 73
     1
 72
     1
 10
4.368744831303573
 20
9.293644328018217
 11
-0.2000000000002728
 21
7.61812738780361
 72
     1
 10
-0.2000000000002728
 20
7.61812738780361
 11
-0.2000000000002728
 21
6.518127387796312
 97
        0
 75
     0
 76
     1
 52
270.0
 41
0.8
 77
     0
 78
     2
 53
315.0
 43
-94.42160821468304
 44
-320.7896679757794
 45
1.796051224213831
 46
1.79605122421383
 79
     0
 53
45.0
 43
-94.42160821468304
 44
-320.7896679757794
 45
-1.79605122421383
 46
1.796051224213831
 79
     0
 98
        1
 10
-94.42160821468304
 20
-320.7896679757794
1001
ACAD
1010
0.0
1020
0.0
1030
0.0
1001
GENIUS_GENOBJ-N-HTC_13
1002
{
1000
OWNER
1000
GEN
1002
}
1001
GENIUS_GENODEF_13
1002
{
1000
HIER
1070
     0
1002
}
1002
{
1000
MANEDIT
1070
     0
1002
}
1002
{
1000
NOSEL
1070
     0
1002
}
1002
{
1000
BEHIND
1070
     0
1002
}
1002
{
1000
OTHER
1070
     0
1002
}
1002
{
1000
REACTOR
1002
}
1001
GENIUS_GENHATCH_13
1002
{
1000
DATA
1040
135.0
1042
2.7
1000
_U
1070
     0
1011
3.654353477649351
1021
7.51988166030901
1031
0.0
1002
}
1002
{
1000
UCS
1010
0.0
1020
0.0
1030
0.0
1010
1.0
1020
0.0
1030
0.0
1010
0.0
1020
1.0
1030
0.0
1002
}
  0
ENDBLK
  5
971
330
96F
100
AcDbEntity
  8
0
100
AcDbBlockEnd
  0
BLOCK
  5
B71
330
B70
100
AcDbEntity
  8
0
100
AcDbBlockBegin
  2
GENZOOLJTMKL3
 70
     0
 10
0.0
 20
0.0
 30
0.0
  3
GENZOOLJTMKL3
  1

  0
LINE
  5
B67
330
B70
100
AcDbEntity
  8
SICHTBAR
100
AcDbLine
 10
-6.999999999999658
 20
5.157331274668422
 30
0.0
 11
-6.999999999999673
 21
-5.157331274668422
 31
0.0
  0
HATCH
  5
B68
330
B70
100
AcDbEntity
  8
AM_8
100
AcDbHatch
 10
0.0
 20
0.0
 30
0.0
210
0.0
220
0.0
230
1.0
  2
ANSI37
 70
     0
 71
     0
 91
        1
 92
        1
 93
        5
 72
     2
 10
2.585476185783335
 20
1.22041100263533
 40
0.4999999999999815
 50
324.2197599262953
 51
464.7435628364795
 73
     1
 72
     2
 10
5.386033953478374
 20
-15.81869226564538
 40
17.76555572145146
 50
99.48574978374255
 51
117.0747353768069
 73
     1
 72
     1
 10
-2.700000000000159
 20
0.0
 11
0.0
 21
0.0
 72
     1
 10
0.0
 20
0.0
 11
0.0
 21
-2.65000000000009
 72
     2
 10
-26.64443425795937
 20
22.6628138816663
 40
36.75138668859451
 50
316.4681210348241
 51
323.7436350994378
 73
     1
 97
        0
 75
     0
 76
     1
 52
0.0
 41
0.5
 77
     0
 78
     2
 53
45.0
 43
-96.92160821468291
 44
-327.3077953635757
 45
-1.122532015133643
 46
1.122532015133644
 79
     0
 53
135.0
 43
-96.92160821468291
 44
-327.3077953635757
 45
-1.122532015133644
 46
-1.122532015133643
 79
     0
 98
        2
 10
1.000400669414602
 20
-141.8933809902751
 10
1.335284359321349
 20
0.0617962978863034
1001
ACAD
1010
0.0
1020
0.0
1030
0.0
  0
LINE
  5
B4E
330
B70
100
AcDbEntity
  8
Viditelná (ISO)
100
AcDbLine
 10
-5.300000000000068
 20
5.349999999999909
 30
0.0
 11
-5.300000000000068
 21
2.699999999999818
 31
0.0
  0
LINE
  5
B4F
330
B70
100
AcDbEntity
  8
Viditelná (ISO)
100
AcDbLine
 10
-5.300000000000068
 20
2.699999999999818
 30
0.0
 11
-2.700000000000159
 21
2.699999999999818
 31
0.0
  0
LINE
  5
B50
330
B70
100
AcDbEntity
  8
Viditelná (ISO)
100
AcDbLine
 10
-2.700000000000159
 20
2.699999999999818
 30
0.0
 11
-2.700000000000159
 21
0.0
 31
0.0
  0
LINE
  5
B51
330
B70
100
AcDbEntity
  8
Viditelná (ISO)
100
AcDbLine
 10
-2.700000000000159
 20
0.0
 30
0.0
 11
0.0
 21
0.0
 31
0.0
  0
LINE
  5
B52
330
B70
100
AcDbEntity
  8
Viditelná (ISO)
100
AcDbLine
 10
0.0
 20
0.0
 30
0.0
 11
0.0
 21
-2.65000000000009
 31
0.0
  0
LINE
  5
B53
330
B70
100
AcDbEntity
  8
0
100
AcDbLine
 10
0.0
 20
-2.65000000000009
 30
0.0
 11
2.699999999999818
 21
-2.65000000000009
 31
0.0
  0
LINE
  5
B54
330
B70
100
AcDbEntity
  8
Viditelná (ISO)
100
AcDbLine
 10
2.699999999999818
 20
-2.65000000000009
 30
0.0
 11
2.699999999999818
 21
-3.15000000000009
 31
0.0
  0
LINE
  5
B55
330
B70
100
AcDbEntity
  8
Viditelná (ISO)
100
AcDbLine
 10
0.0
 20
-2.518127387796312
 30
0.0
 11
-2.499999999999886
 21
-2.518127387796312
 31
0.0
  0
LINE
  5
B56
330
B70
100
AcDbEntity
  8
Viditelná (ISO)
100
AcDbLine
 10
-2.499999999999886
 20
-2.518127387796312
 30
0.0
 11
-2.499999999999886
 21
-4.018127387796312
 31
0.0
  0
LINE
  5
B57
330
B70
100
AcDbEntity
  8
Viditelná (ISO)
100
AcDbLine
 10
-2.499999999999886
 20
-4.018127387796312
 30
0.0
 11
-4.999999999999886
 21
-4.018127387796312
 31
0.0
  0
LINE
  5
B58
330
B70
100
AcDbEntity
  8
Viditelná (ISO)
100
AcDbLine
 10
-4.999999999999886
 20
-4.018127387796312
 30
0.0
 11
-6.999999999999886
 21
-2.018127387796312
 31
0.0
  0
LINE
  5
B69
330
B70
100
AcDbEntity
  8
Viditelná (ISO)
100
AcDbLine
 10
-6.999999999999886
 20
-2.65000000000009
 30
0.0
 11
-6.999999999999886
 21
-5.157331274668138
 31
0.0
  0
LINE
  5
B6A
330
B70
100
AcDbEntity
  8
Viditelná (ISO)
100
AcDbLine
 10
-2.499999999999886
 20
-4.018127387796312
 30
0.0
 11
-2.499999999999886
 21
-8.327548611486406
 31
0.0
  0
LINE
  5
B5C
330
B70
100
AcDbEntity
  8
0
100
AcDbLine
 10
2.699999999999818
 20
-2.65000000000009
 30
0.0
 11
2.699999999999818
 21
-5.15000000000009
 31
0.0
  0
LINE
  5
B6B
330
B70
100
AcDbEntity
  8
0
100
AcDbLine
 10
4.960000000000263
 20
-5.15000000000009
 30
0.0
 11
4.960000000000263
 21
-7.141180986130052
 31
0.0
  0
LINE
  5
B5E
330
B70
100
AcDbEntity
  8
0
100
AcDbLine
 10
2.699999999999818
 20
-5.15000000000009
 30
0.0
 11
4.960000000000263
 21
-5.15000000000009
 31
0.0
  0
LINE
  5
B6C
330
B70
100
AcDbEntity
  8
0
100
AcDbLine
 10
-4.999999999999886
 20
-4.018127387796312
 30
0.0
 11
-4.999999999999886
 21
-7.113231746306951
 31
0.0
  0
LINE
  5
B6D
330
B70
100
AcDbEntity
  8
AM_7
  6
AM_DIN_G_W050x2
100
AcDbLine
 10
-5.754309796415896
 20
-6.518127387796312
 30
0.0
 11
0.5
 21
-6.518127387796312
 31
0.0
1001
GENIUS_GENOBJ-N-CEN_13
1002
{
1000
OWNER
1000
GEN
1002
}
1001
GENIUS_GENODEF_13
1002
{
1000
HIER
1070
     0
1002
}
1002
{
1000
MANEDIT
1070
     0
1002
}
1002
{
1000
NOSEL
1070
     0
1002
}
1002
{
1000
BEHIND
1070
     0
1002
}
1002
{
1000
OTHER
1070
     0
1002
}
1002
{
1000
REACTOR
1002
}
1001
GENIUS_GENCEN_19
1002
{
1040
3.0
1002
}
  0
HATCH
  5
B6E
330
B70
100
AcDbEntity
  8
AM_8
100
AcDbHatch
 10
0.0
 20
0.0
 30
0.0
210
0.0
220
0.0
230
1.0
  2
_U
 70
     0
 71
     0
 91
        1
 92
        1
 93
       12
 72
     1
 10
0.0
 20
-2.518127387796312
 11
0.0
 21
0.0
 72
     1
 10
0.0
 20
0.0
 11
-2.700000000000272
 21
0.0
 72
     1
 10
-2.700000000000159
 20
0.0
 11
-2.700000000000159
 21
2.699999999999818
 72
     1
 10
-2.700000000000159
 20
2.699999999999818
 11
-5.300000000000068
 21
2.699999999999818
 72
     1
 10
-5.300000000000068
 20
2.699999999999818
 11
-5.300000000000068
 21
5.349999999999909
 72
     1
 10
-5.300000000000068
 20
5.349999999999909
 11
-6.853872327135164
 21
5.349999999999909
 72
     2
 10
0.0
 20
0.0
 40
8.694714824344053
 50
142.0250911485052
 51
143.6186374054088
 73
     1
 72
     1
 10
-6.999999999999886
 20
5.157331274668138
 11
-6.999999999999658
 21
-2.018127387796539
 72
     1
 10
-6.999999999999658
 20
-2.018127387796539
 11
-4.999999999999886
 21
-4.018127387796312
 72
     1
 10
-4.999999999999886
 20
-4.018127387796312
 11
-2.499999999999886
 21
-4.018127387796312
 72
     1
 10
-2.499999999999886
 20
-4.018127387796312
 11
-2.499999999999886
 21
-2.518127387796312
 72
     1
 10
-2.499999999999886
 20
-2.518127387796312
 11
0.0000000000001137
 21
-2.518127387796312
 97
        0
 75
     0
 76
     0
 52
494.9999999999999
 41
2.82
 77
     0
 78
     1
 53
135.0
 43
-50.05419137267541
 44
-317.1502972556426
 45
-1.994041122946065
 46
-1.994041122946063
 79
     0
 98
        1
 10
-50.05419137267541
 20
-317.1502972556426
1001
GENIUS_GENHATCH_13
1002
{
1000
DATA
1040
45.0
1042
2.5
1000
_U
1070
     0
1011
-3.643795715534793
1021
-0.9239229293436892
1031
0.0
1002
}
1002
{
1000
UCS
1010
0.0
1020
0.0
1030
0.0
1010
1.0
1020
0.0
1030
0.0
1010
0.0
1020
1.0
1030
0.0
1002
}
1001
GENIUS_GENOBJ-N-HTC_13
1002
{
1000
OWNER
1000
GEN
1002
}
1001
ACAD
1010
0.0
1020
0.0
1030
0.0
1001
GENIUS_GENODEF_13
1002
{
1000
HIER
1070
     0
1002
}
1002
{
1000
MANEDIT
1070
     0
1002
}
1002
{
1000
NOSEL
1070
     0
1002
}
1002
{
1000
BEHIND
1070
     0
1002
}
1002
{
1000
OTHER
1070
     0
1002
}
1002
{
1000
REACTOR
1002
}
  0
LINE
  5
B6F
330
B70
100
AcDbEntity
  8
0
100
AcDbLine
 10
-5.300000000000068
 20
5.349999999999909
 30
0.0
 11
-6.853872327135164
 21
5.349999999999909
 31
0.0
  0
ARC
  5
B64
330
B70
100
AcDbEntity
  8
0
100
AcDbCircle
 10
2.585476185783264
 20
1.220411002635273
 30
0.0
 40
0.5
100
AcDbArc
 50
323.2543764540579
 51
104.74356283647
1001
GENIUS_GENOBJ-N-FIL_13
1002
{
1000
OWNER
1000
GEN
1002
}
1001
GENIUS_GENODEF_13
1002
{
1000
HIER
1070
     0
1002
}
1002
{
1000
MANEDIT
1070
     0
1002
}
1002
{
1000
NOSEL
1070
     0
1002
}
1002
{
1000
BEHIND
1070
     0
1002
}
1002
{
1000
OTHER
1070
     0
1002
}
1002
{
1000
REACTOR
1002
}
  0
ARC
  5
B65
330
B70
100
AcDbEntity
  8
0
100
AcDbCircle
 10
5.386033953478474
 20
-15.81869226564566
 30
0.0
 40
17.76555572145176
100
AcDbArc
 50
99.48574978374251
 51
117.0747353768064
  0
ARC
  5
B66
330
B70
100
AcDbEntity
  8
0
100
AcDbCircle
 10
-26.64443425795361
 20
22.66281388166141
 30
0.0
 40
36.75138668858696
100
AcDbArc
 50
316.4681210348247
 51
323.7305012813433
  0
ENDBLK
  5
B72
330
B70
100
AcDbEntity
  8
0
100
AcDbBlockEnd
  0
BLOCK
  5
FD6
330
FD5
100
AcDbEntity
  8
0
100
AcDbBlockBegin
  2
ACO_A3
 70
     0
 10
0.0
 20
0.0
 30
0.0
  3
ACO_A3
  1

  0
LINE
  5
FD7
330
FD5
100
AcDbEntity
  8
AM_BOR
 62
     1
370
    25
100
AcDbLine
 10
420.0
 20
297.0
 30
0.0
 11
419.9999999999999
 21
0.0
 31
0.0
  0
LINE
  5
FD8
330
FD5
100
AcDbEntity
  8
AM_BOR
 62
     1
370
    25
100
AcDbLine
 10
230.0
 20
5.00000000000005
 30
0.0
 11
230.0
 21
0.0000000000000233
 31
0.0
  0
LINE
  5
FD9
330
FD5
100
AcDbEntity
  8
AM_BOR
 62
     1
370
    25
100
AcDbLine
 10
157.12
 20
10.00000000000003
 30
0.0
 11
9.999999999999943
 21
10.00000000000005
 31
0.0
  0
TEXT
  5
FDA
330
FD5
100
AcDbEntity
  8
AM_BOR
 62
     1
370
    25
100
AcDbText
 10
411.0
 20
262.0
 30
0.0
 40
4.0
  1
A
100
AcDbText
  0
TEXT
  5
FDB
330
FD5
100
AcDbEntity
  8
AM_BOR
 62
     1
370
    25
100
AcDbText
 10
411.0
 20
216.0
 30
0.0
 40
4.0
  1
B
100
AcDbText
  0
TEXT
  5
FDC
330
FD5
100
AcDbEntity
  8
AM_BOR
 62
     1
370
    25
100
AcDbText
 10
411.0
 20
170.0
 30
0.0
 40
4.0
  1
C
100
AcDbText
  0
TEXT
  5
FDD
330
FD5
100
AcDbEntity
  8
AM_BOR
 62
     1
370
    25
100
AcDbText
 10
411.0
 20
123.0
 30
0.0
 40
4.0
  1
D
100
AcDbText
  0
TEXT
  5
FDE
330
FD5
100
AcDbEntity
  8
AM_BOR
 62
     1
370
    25
100
AcDbText
 10
411.0
 20
77.0
 30
0.0
 40
4.0
  1
E
100
AcDbText
  0
TEXT
  5
FDF
330
FD5
100
AcDbEntity
  8
AM_BOR
 62
     1
370
    25
100
AcDbText
 10
411.0
 20
31.0
 30
0.0
 40
4.0
  1
F
100
AcDbText
  0
LINE
  5
FE0
330
FD5
100
AcDbEntity
  8
AM_BOR
 62
     1
370
    25
100
AcDbLine
 10
415.0
 20
240.83
 30
0.0
 11
410.0
 21
240.83
 31
0.0
  0
LINE
  5
FE1
330
FD5
100
AcDbEntity
  8
AM_BOR
 62
     1
370
    25
100
AcDbLine
 10
415.0
 20
194.664
 30
0.0
 11
410.0
 21
194.664
 31
0.0
  0
LINE
  5
FE2
330
FD5
100
AcDbEntity
  8
AM_BOR
 62
     1
370
    25
100
AcDbLine
 10
415.0
 20
148.498
 30
0.0
 11
410.0
 21
148.498
 31
0.0
  0
LINE
  5
FE3
330
FD5
100
AcDbEntity
  8
AM_BOR
 62
     1
370
    25
100
AcDbLine
 10
415.0
 20
102.332
 30
0.0
 11
410.0
 21
102.332
 31
0.0
  0
LINE
  5
FE4
330
FD5
100
AcDbEntity
  8
AM_BOR
 62
     1
370
    25
100
AcDbLine
 10
415.0
 20
56.166
 30
0.0
 11
410.0
 21
56.166
 31
0.0
  0
LINE
  5
FE5
330
FD5
100
AcDbEntity
  8
AM_BOR
 62
     1
370
    25
100
AcDbLine
 10
60.0
 20
291.9999999999999
 30
0.0
 11
60.0
 21
287.0
 31
0.0
  0
LINE
  5
FE6
330
FD5
100
AcDbEntity
  8
AM_BOR
 62
     1
370
    25
100
AcDbLine
 10
110.0
 20
291.9999999999999
 30
0.0
 11
110.0
 21
287.0
 31
0.0
  0
LINE
  5
FE7
330
FD5
100
AcDbEntity
  8
AM_BOR
 62
     1
370
    25
100
AcDbLine
 10
160.0
 20
291.9999999999999
 30
0.0
 11
160.0
 21
287.0
 31
0.0
  0
LINE
  5
FE8
330
FD5
100
AcDbEntity
  8
AM_BOR
 62
     1
370
    25
100
AcDbLine
 10
210.0
 20
291.9999999999999
 30
0.0
 11
210.0
 21
287.0
 31
0.0
  0
LINE
  5
FE9
330
FD5
100
AcDbEntity
  8
AM_BOR
 62
     1
370
    25
100
AcDbLine
 10
260.0
 20
291.9999999999999
 30
0.0
 11
260.0
 21
287.0
 31
0.0
  0
LINE
  5
FEA
330
FD5
100
AcDbEntity
  8
AM_BOR
 62
     1
370
    25
100
AcDbLine
 10
310.0
 20
291.9999999999999
 30
0.0
 11
310.0
 21
287.0
 31
0.0
  0
LINE
  5
FEB
330
FD5
100
AcDbEntity
  8
AM_BOR
 62
     1
370
    25
100
AcDbLine
 10
360.0
 20
291.9999999999999
 30
0.0
 11
360.0
 21
287.0
 31
0.0
  0
TEXT
  5
FEC
330
FD5
100
AcDbEntity
  8
AM_BOR
 62
     1
370
    25
100
AcDbText
 10
384.0
 20
287.5
 30
0.0
 40
4.0
  1
8
100
AcDbText
  0
TEXT
  5
FED
330
FD5
100
AcDbEntity
  8
AM_BOR
 62
     1
370
    25
100
AcDbText
 10
334.0
 20
287.5
 30
0.0
 40
4.0
  1
7
100
AcDbText
  0
TEXT
  5
FEE
330
FD5
100
AcDbEntity
  8
AM_BOR
 62
     1
370
    25
100
AcDbText
 10
284.0
 20
287.5
 30
0.0
 40
4.0
  1
6
100
AcDbText
  0
TEXT
  5
FEF
330
FD5
100
AcDbEntity
  8
AM_BOR
 62
     1
370
    25
100
AcDbText
 10
233.5
 20
287.5
 30
0.0
 40
4.0
  1
5
100
AcDbText
  0
TEXT
  5
FF0
330
FD5
100
AcDbEntity
  8
AM_BOR
 62
     1
370
    25
100
AcDbText
 10
183.5
 20
287.5
 30
0.0
 40
4.0
  1
4
100
AcDbText
  0
TEXT
  5
FF1
330
FD5
100
AcDbEntity
  8
AM_BOR
 62
     1
370
    25
100
AcDbText
 10
133.5
 20
287.5
 30
0.0
 40
4.0
  1
3
100
AcDbText
  0
TEXT
  5
FF2
330
FD5
100
AcDbEntity
  8
AM_BOR
 62
     1
370
    25
100
AcDbText
 10
83.49999999999999
 20
287.5
 30
0.0
 40
4.0
  1
2
100
AcDbText
  0
TEXT
  5
FF3
330
FD5
100
AcDbEntity
  8
AM_BOR
 62
     1
370
    25
100
AcDbText
 10
33.5
 20
287.5
 30
0.0
 40
4.0
  1
1
100
AcDbText
  0
TEXT
  5
FF4
330
FD5
100
AcDbEntity
  8
AM_BOR
 62
     1
370
    25
100
AcDbText
 10
33.5
 20
5.5
 30
0.0
 40
4.0
  1
1
100
AcDbText
  0
TEXT
  5
FF5
330
FD5
100
AcDbEntity
  8
AM_BOR
 62
     1
370
    25
100
AcDbText
 10
83.49999999999999
 20
5.5
 30
0.0
 40
4.0
  1
2
100
AcDbText
  0
TEXT
  5
FF6
330
FD5
100
AcDbEntity
  8
AM_BOR
 62
     1
370
    25
100
AcDbText
 10
133.5
 20
5.5
 30
0.0
 40
4.0
  1
3
100
AcDbText
  0
TEXT
  5
FF7
330
FD5
100
AcDbEntity
  8
AM_BOR
 62
     1
370
    25
100
AcDbText
 10
6.0
 20
262.0
 30
0.0
 40
4.0
  1
A
100
AcDbText
  0
TEXT
  5
FF8
330
FD5
100
AcDbEntity
  8
AM_BOR
 62
     1
370
    25
100
AcDbText
 10
6.0
 20
216.0
 30
0.0
 40
4.0
  1
B
100
AcDbText
  0
TEXT
  5
FF9
330
FD5
100
AcDbEntity
  8
AM_BOR
 62
     1
370
    25
100
AcDbText
 10
6.0
 20
170.0
 30
0.0
 40
4.0
  1
C
100
AcDbText
  0
TEXT
  5
FFA
330
FD5
100
AcDbEntity
  8
AM_BOR
 62
     1
370
    25
100
AcDbText
 10
6.0
 20
123.0
 30
0.0
 40
4.0
  1
D
100
AcDbText
  0
TEXT
  5
FFB
330
FD5
100
AcDbEntity
  8
AM_BOR
 62
     1
370
    25
100
AcDbText
 10
6.0
 20
77.0
 30
0.0
 40
4.0
  1
E
100
AcDbText
  0
TEXT
  5
FFC
330
FD5
100
AcDbEntity
  8
AM_BOR
 62
     1
370
    25
100
AcDbText
 10
6.0
 20
31.0
 30
0.0
 40
4.0
  1
F
100
AcDbText
  0
LINE
  5
FFD
330
FD5
100
AcDbEntity
  8
AM_BOR
 62
     1
370
    25
100
AcDbLine
 10
110.0
 20
10.0
 30
0.0
 11
110.0
 21
5.0
 31
0.0
  0
LINE
  5
FFE
330
FD5
100
AcDbEntity
  8
AM_BOR
 62
     1
370
    25
100
AcDbLine
 10
60.0
 20
10.0
 30
0.0
 11
60.0
 21
5.0
 31
0.0
  0
LINE
  5
FFF
330
FD5
100
AcDbEntity
  8
AM_BOR
 62
     1
370
    25
100
AcDbLine
 10
10.0
 20
240.83
 30
0.0
 11
5.0
 21
240.83
 31
0.0
  0
LINE
  5
1000
330
FD5
100
AcDbEntity
  8
AM_BOR
 62
     1
370
    25
100
AcDbLine
 10
10.0
 20
194.664
 30
0.0
 11
5.0
 21
194.664
 31
0.0
  0
LINE
  5
1001
330
FD5
100
AcDbEntity
  8
AM_BOR
 62
     1
370
    25
100
AcDbLine
 10
10.0
 20
148.498
 30
0.0
 11
5.0
 21
148.498
 31
0.0
  0
LINE
  5
1002
330
FD5
100
AcDbEntity
  8
AM_BOR
 62
     1
370
    25
100
AcDbLine
 10
10.0
 20
102.332
 30
0.0
 11
5.0
 21
102.332
 31
0.0
  0
LINE
  5
1003
330
FD5
100
AcDbEntity
  8
AM_BOR
 62
     1
370
    25
100
AcDbLine
 10
10.0
 20
56.166
 30
0.0
 11
5.0
 21
56.166
 31
0.0
  0
LINE
  5
1004
330
FD5
100
AcDbEntity
  8
AM_BOR
 62
     1
370
    25
100
AcDbLine
 10
410.0
 20
287.0
 30
0.0
 11
409.9999999999999
 21
5.0
 31
0.0
  0
LINE
  5
1005
330
FD5
100
AcDbEntity
  8
AM_BOR
 62
     1
370
    25
100
AcDbLine
 10
10.00000000000001
 20
287.0
 30
0.0
 11
410.0
 21
287.0
 31
0.0
  0
LINE
  5
1006
330
FD5
100
AcDbEntity
  8
AM_BOR
 62
     1
370
    25
100
AcDbLine
 10
10.0
 20
10.0
 30
0.0
 11
10.00000000000001
 21
287.0
 31
0.0
  0
LINE
  5
1007
330
FD5
100
AcDbEntity
  8
0
100
AcDbLine
 10
414.9999999999999
 20
5.0
 30
0.0
 11
4.999999999999943
 21
5.00000000000005
 31
0.0
  0
LINE
  5
1008
330
FD5
100
AcDbEntity
  8
0
100
AcDbLine
 10
415.0
 20
292.0
 30
0.0
 11
414.9999999999999
 21
5.0
 31
0.0
  0
LINE
  5
1009
330
FD5
100
AcDbEntity
  8
0
100
AcDbLine
 10
5.000000000000017
 20
292.0
 30
0.0
 11
415.0
 21
292.0
 31
0.0
  0
LINE
  5
100A
330
FD5
100
AcDbEntity
  8
AM_BOR
 62
     1
370
    25
100
AcDbLine
 10
0.0000000000000182
 20
297.0
 30
0.0
 11
420.0
 21
297.0
 31
0.0
  0
LINE
  5
100B
330
FD5
100
AcDbEntity
  8
AM_BOR
 62
     1
370
    25
100
AcDbLine
 10
0.0
 20
0.0
 30
0.0
 11
0.0000000000000182
 21
297.0
 31
0.0
  0
LINE
  5
100C
330
FD5
100
AcDbEntity
  8
AM_BOR
 62
     1
370
    25
100
AcDbLine
 10
125.0
 20
0.0000000000000514
 30
0.0
 11
125.0
 21
5.000000000000035
 31
0.0
  0
TEXT
  5
100D
330
FD5
100
AcDbEntity
  8
0
 60
     1
100
AcDbText
 10
420.0
 20
297.0
 30
0.0
 40
2.0
  1
!GENTITLE-MAX
100
AcDbText
  0
TEXT
  5
100E
330
FD5
100
AcDbEntity
  8
0
 60
     1
100
AcDbText
 10
410.0
 20
287.0
 30
0.0
 40
2.0
  1
!GENTITLE-RU
100
AcDbText
  0
TEXT
  5
100F
330
FD5
100
AcDbEntity
  8
0
 60
     1
100
AcDbText
 10
409.9999999999999
 20
5.0
 30
0.0
 40
2.0
  1
!GENTITLE-INSERT
100
AcDbText
  0
TEXT
  5
1010
330
FD5
100
AcDbEntity
  8
0
 60
     1
100
AcDbText
 10
10.0
 20
10.00000000000005
 30
0.0
 40
2.0
  1
!GENTITLE-LL
100
AcDbText
  0
LINE
  5
1011
330
FD5
100
AcDbEntity
  8
0
100
AcDbLine
 10
5.0
 20
5.0
 30
0.0
 11
5.000000000000017
 21
292.0
 31
0.0
  0
LINE
  5
1012
330
FD5
100
AcDbEntity
  8
AM_BOR
 62
     1
370
    25
100
AcDbLine
 10
419.9999999999999
 20
0.0
 30
0.0
 11
-0.0000000000000568
 21
0.0000000000000514
 31
0.0
1001
GENIUS_VERSION2
1070
     2
  0
LWPOLYLINE
  5
1013
330
FD5
100
AcDbEntity
  8
RAHM2
100
AcDbPolyline
 90
        4
 70
     1
 43
0.0
 10
227.1200000000001
 20
5.000000000000031
 10
157.12
 20
5.000000000000031
 10
157.12
 20
13.50000000000003
 10
227.1200000000001
 20
13.50000000000002
1001
GENIUS_GENREC_14
1002
{
1000
PXDIR
1011
157.12
1021
5.000000000000031
1031
0.0
1002
}
1002
{
1000
PORI
1011
227.1200000000001
1021
5.000000000000031
1031
0.0
1002
}
1002
{
1000
PINS
1011
227.1200000000001
1021
5.000000000000031
1031
0.0
1002
}
1002
{
1000
HVAL
1000
8.5
1002
}
1002
{
1000
H
1070
     2
1002
}
1002
{
1000
WVAL
1000
-70
1002
}
1002
{
1000
W
1070
     2
1002
}
1002
{
1000
C
1070
     1
1002
}
1001
GENIUS_GENODEF_13
1002
{
1000
HIER
1070
     0
1002
}
1002
{
1000
MANEDIT
1070
     0
1002
}
1002
{
1000
NOSEL
1070
     0
1002
}
1002
{
1000
BEHIND
1070
     0
1002
}
1002
{
1000
REACTOR
1002
}
1001
GENIUS_GENOBJ-N-REC_13
1002
{
1000
OWNER
1000
GEN
1002
}
  0
MTEXT
  5
1014
102
{ACAD_XDICTIONARY
360
19B3
102
}
330
FD5
100
AcDbEntity
  8
RAHM2
100
AcDbMText
 10
158.8183525451007
 20
12.32474728438519
 30
0.0
 40
3.5
 41
4.301759591192151
 71
     1
 72
     5
  1
\fArial|b0|i0|c0|p32;\U+00A9
 73
     1
 44
1.0
1001
ACAD
1000
MTEXTBEGIN
1070
    73
1070
     1
1070
    44
1040
1.0
1070
    74
1070
     0
1000
MTEXTEND
  0
MTEXT
  5
1015
330
FD5
100
AcDbEntity
  8
RAHM2
100
AcDbMText
 10
200.9022594589521
 20
9.282856166729633
 30
0.0
 40
2.5
 41
51.25
 71
     5
 72
     5
  1
\fArial Black|b0|i0|c0|p34;ACO\Fgeniso.shx|c0; \fDutch801 Rm BT|b0|i1|c0|p18;passavant \P\Fgeniso.shx|c0;\H1.8;Schutzvermerk nach DIN 34
 73
     1
 44
1.0
1001
ACAD
1000
MTEXTBEGIN
1070
    73
1070
     1
1070
    44
1040
1.0
1070
    74
1070
     0
1000
MTEXTEND
  0
MTEXT
  5
1016
330
FD5
100
AcDbEntity
  8
RAHM2
100
AcDbMText
 10
165.5515418910248
 20
11.24554815700972
 30
0.0
 40
2.0
 41
5.5175
 71
     1
 72
     5
  1
2001
 73
     1
 44
1.0
1001
ACAD
1000
MTEXTBEGIN
1070
    73
1070
     1
1070
    44
1040
1.0
1070
    74
1070
     0
1000
MTEXTEND
  0
ENDBLK
  5
1017
330
FD5
100
AcDbEntity
  8
0
100
AcDbBlockEnd
  0
BLOCK
  5
1019
330
1018
100
AcDbEntity
  8
0
100
AcDbBlockBegin
  2
GENZOOIHWJJL3
 70
     0
 10
0.0
 20
0.0
 30
0.0
  3
GENZOOIHWJJL3
  1

  0
HATCH
  5
101A
330
1018
100
AcDbEntity
  8
AM_CL
100
AcDbHatch
 10
0.0
 20
0.0
 30
0.0
210
0.0
220
0.0
230
1.0
  2
ANSI31
 70
     0
 71
     0
 91
        1
 92
        7
 72
     1
 73
     1
 93
       36
 10
-0.4862947850206183
 20
14.68625115761239
 42
-0.3798766742610702
 10
-3.707637073651312
 20
14.85354719891217
 42
0.3793916018337843
 10
-4.5
 20
14.89537120923666
 42
0.0
 10
-4.5
 20
12.27437415779519
 42
0.0
 10
-2.999999999999545
 20
11.67437415779574
 42
0.0
 10
-3.0
 20
12.2743741577961
 42
0.0
 10
-1.5
 20
11.67437415779574
 42
0.0
 10
-1.5
 20
12.27437415779519
 42
0.0
 10
0.0000000000013642
 20
11.67437415779574
 42
0.0
 10
1.632917125150925
 20
11.67437415779574
 42
0.0
 10
1.632917125150925
 20
12.2743741577961
 42
0.0
 10
2.099999999999909
 20
12.06881161151438
 42
0.0
 10
2.099999999999909
 20
11.67437415779574
 42
0.0
 10
2.859656179306966
 20
11.67437415779483
 42
0.0
 10
3.600439528035622
 20
8.574374157796285
 42
0.0
 10
3.599560993223349
 20
8.574374157796739
 42
0.0
 10
2.859656179306057
 20
5.474374157795921
 42
0.0
 10
2.099999999999909
 20
5.474374157795921
 42
0.0
 10
2.099999999999909
 20
5.079936704077738
 42
0.0
 10
1.632917125150925
 20
4.874374157796012
 42
0.0
 10
1.632917125150925
 20
5.474374157796376
 42
0.0
 10
0.0000000000013642
 20
5.474374157795921
 42
0.0
 10
-1.499999999999545
 20
4.874374157796012
 42
0.0
 10
-1.5
 20
5.474374157795921
 42
0.0
 10
-3.0
 20
4.874374157795557
 42
0.0
 10
-2.999999999999545
 20
5.474374157795466
 42
0.0
 10
-4.5
 20
4.874374157796466
 42
0.0
 10
-4.5
 20
4.500000000000511
 42
0.0
 10
-4.495264814843267
 20
4.495264814843778
 42
-0.0523304143507142
 10
-3.053301921273487
 20
4.383603280893623
 42
0.1544950329724033
 10
-0.765839102676182
 20
4.79064326923941
 42
0.0940222996571786
 10
3.657827846707732
 20
5.010963435768246
 42
0.2594468572414608
 10
7.852283951696335
 20
6.042622357118091
 42
0.4073926096728484
 10
9.070437329017295
 20
8.477767661751897
 42
0.1102959662627192
 10
7.667527061371856
 20
10.49632412102124
 42
0.0254429737625929
 10
5.067165097983888
 20
13.38970683753774
 42
0.4852456614911282
 97
        0
 75
     0
 76
     1
 52
90.0
 41
0.25
 77
     0
 78
     1
 53
135.0
 43
2262.818492863275
 44
-2936.615856920289
 45
-0.5612660075668221
 46
-0.5612660075668221
 79
     0
 47
0.0356824882035898
 98
        1
 10
0.8257197597004051
 20
14.08045205199602
1001
ACAD
1010
0.0
1020
0.0
1030
0.0
  0
LINE
  5
101B
330
1018
100
AcDbEntity
  8
SICHTBAR
100
AcDbLine
 10
9.5
 20
2.867892948462895
 30
0.0
 11
9.5
 21
5.867892988462926
 31
0.0
  0
LINE
  5
101C
330
1018
100
AcDbEntity
  8
SICHTBAR
100
AcDbLine
 10
-4.5
 20
-13.13210701153707
 30
0.0
 11
-4.5
 21
15.60114063826191
 31
0.0
  0
LINE
  5
101D
330
1018
100
AcDbEntity
  8
SICHTBAR
100
AcDbLine
 10
-4.499999999999772
 20
15.60114063826197
 30
0.0
 11
-4.499999999999772
 21
-13.13210701153707
 31
0.0
  0
LINE
  5
101E
330
1018
100
AcDbEntity
  8
SICHTBAR
100
AcDbLine
 10
-4.5
 20
5.867892988462926
 30
0.0
 11
-4.5
 21
-13.13210701153707
 31
0.0
  0
LINE
  5
101F
330
1018
100
AcDbEntity
  8
SICHTBAR
100
AcDbLine
 10
-4.5
 20
3.9422671462587
 30
0.0
 11
-4.5
 21
11.9422671462587
 31
0.0
  0
HATCH
  5
1020
330
1018
100
AcDbEntity
  8
AM_CL
100
AcDbHatch
 10
0.0
 20
0.0
 30
0.0
210
0.0
220
0.0
230
1.0
  2
ANSI31
 70
     0
 71
     0
 91
        2
 92
        1
 93
       14
 72
     1
 10
2.099999999999909
 20
5.079936704076828
 11
2.099999999999909
 21
6.077155380629903
 72
     1
 10
2.099999999999909
 20
6.077155380630358
 11
2.099999999999909
 21
6.577155430936784
 72
     1
 10
2.099999999999909
 20
6.577155430936784
 11
-4.100144848536274
 21
6.57437415779583
 72
     1
 10
-4.100144848536274
 20
6.57437415779583
 11
-4.5
 21
6.074374157795375
 72
     1
 10
-4.5
 20
6.074374157795375
 11
-4.5
 21
6.07419473968099
 72
     1
 10
-4.500000000000454
 20
6.07419473968099
 11
-4.500000000000454
 21
4.874374157796466
 72
     1
 10
-4.500000000000454
 20
4.874374157796466
 11
-3.0
 21
5.474374157795466
 72
     1
 10
-3.0
 20
5.474374157795466
 11
-3.0
 21
4.874374157795557
 72
     1
 10
-3.0
 20
4.874374157795557
 11
-1.5
 21
5.474374157795466
 72
     1
 10
-1.5
 20
5.474374157795466
 11
-1.500000000000454
 21
4.874374157795557
 72
     1
 10
-1.500000000000454
 20
4.874374157795557
 11
0.0000000000009095
 21
5.474374157795921
 72
     1
 10
0.0000000000009095
 20
5.474374157795921
 11
1.632917125150925
 21
5.474374157795921
 72
     1
 10
1.632917125150925
 20
5.474374157795921
 11
1.632917125150925
 21
4.874374157796466
 72
     1
 10
1.632917125150925
 20
4.874374157796466
 11
2.099999999999909
 21
5.079936704076828
 97
        0
 92
        1
 93
       13
 72
     1
 10
2.099999999999909
 20
10.57437415779537
 11
2.100000000000363
 21
11.07437415779583
 72
     1
 10
2.099999999999909
 20
11.07437415779583
 11
2.099999999999454
 21
12.06881161151483
 72
     1
 10
2.099999999999454
 20
12.06881161151483
 11
1.632917125150925
 21
12.2743741577961
 72
     1
 10
1.632917125150925
 20
12.2743741577961
 11
1.632917125150925
 21
11.67437415779528
 72
     1
 10
1.632917125150925
 20
11.67437415779528
 11
0.0000000000013642
 21
11.67437415779528
 72
     1
 10
0.0000000000013642
 20
11.67437415779528
 11
-1.499999999999545
 21
12.27437415779565
 72
     1
 10
-1.499999999999545
 20
12.27437415779565
 11
-1.499999999999545
 21
11.67437415779528
 72
     1
 10
-1.499999999999545
 20
11.67437415779528
 11
-2.999999999999545
 21
12.27437415779519
 72
     1
 10
-2.999999999999545
 20
12.27437415779519
 11
-3.000000000000454
 21
11.67437415779574
 72
     1
 10
-3.000000000000454
 20
11.67437415779574
 11
-4.5
 21
12.27437415779565
 72
     1
 10
-4.5
 20
12.27437415779565
 11
-4.500000000000454
 21
11.07437415779628
 72
     1
 10
-4.500000000000454
 20
11.07437415779628
 11
-4.100144848537183
 21
10.57437415779583
 72
     1
 10
-4.100144848537183
 20
10.57437415779583
 11
2.099999999999909
 21
10.57437415779537
 97
        0
 75
     0
 76
     1
 52
180.0
 41
0.25
 77
     0
 78
     1
 53
225.0
 43
2262.818492863275
 44
-2936.615856920289
 45
0.5612660075668221
 46
-0.5612660075668221
 79
     0
 98
        4
 10
-0.9584094342999378
 20
11.72436665170613
 10
-1.529324636328055
 20
10.86761768657931
 10
-0.6729463510964706
 20
5.727077084562608
 10
-1.172499893966232
 20
6.298239940562837
1001
ACAD
1010
0.0
1020
0.0
1030
0.0
  0
LINE
  5
1021
330
1018
100
AcDbEntity
  8
SICHTBAR
100
AcDbLine
 10
-4.5
 20
11.9422671462587
 30
0.0
 11
-4.5
 21
8.142267146258973
 31
0.0
  0
LINE
  5
1022
330
1018
100
AcDbEntity
  8
SICHTBAR
100
AcDbLine
 10
-4.5
 20
7.742267146258882
 30
0.0
 11
-4.5
 21
3.9422671462587
 31
0.0
  0
LINE
  5
1023
330
1018
100
AcDbEntity
  8
Viditelná (ISO)
100
AcDbLine
 10
-2.800000000000181
 20
-13.13210701153707
 30
0.0
 11
-2.800000000000181
 21
-10.48210701153698
 31
0.0
  0
LINE
  5
1024
330
1018
100
AcDbEntity
  8
Viditelná (ISO)
100
AcDbLine
 10
-2.800000000000181
 20
-10.48210701153698
 30
0.0
 11
-0.2000000000002728
 21
-10.48210701153698
 31
0.0
  0
LINE
  5
1025
330
1018
100
AcDbEntity
  8
Viditelná (ISO)
100
AcDbLine
 10
-0.2000000000002728
 20
-10.48210701153698
 30
0.0
 11
-0.2000000000002728
 21
-7.782107011537163
 31
0.0
  0
LINE
  5
1026
330
1018
100
AcDbEntity
  8
Viditelná (ISO)
100
AcDbLine
 10
-0.2000000000002728
 20
-7.782107011537163
 30
0.0
 11
2.5
 21
-7.782107011537163
 31
0.0
  0
LINE
  5
1027
330
1018
100
AcDbEntity
  8
Viditelná (ISO)
100
AcDbLine
 10
2.5
 20
-7.782107011537163
 30
0.0
 11
2.5
 21
-5.132107011537073
 31
0.0
  0
LINE
  5
1028
330
1018
100
AcDbEntity
  8
Viditelná (ISO)
100
AcDbLine
 10
2.5
 20
-5.132107011537073
 30
0.0
 11
5.199999999999818
 21
-5.132107011537073
 31
0.0
  0
LINE
  5
1029
330
1018
100
AcDbEntity
  8
Viditelná (ISO)
100
AcDbLine
 10
5.199999999999818
 20
-5.132107011537073
 30
0.0
 11
5.199999999999818
 21
-4.632107011537073
 31
0.0
  0
LINE
  5
102A
330
1018
100
AcDbEntity
  8
Viditelná (ISO)
100
AcDbLine
 10
5.199999999999818
 20
-4.0
 30
0.0
 11
0.0
 21
-4.0
 31
0.0
  0
LINE
  5
102B
330
1018
100
AcDbEntity
  8
Viditelná (ISO)
100
AcDbLine
 10
0.0
 20
-4.0
 30
0.0
 11
0.0
 21
-2.5
 31
0.0
  0
LINE
  5
102C
330
1018
100
AcDbEntity
  8
Viditelná (ISO)
100
AcDbLine
 10
0.0
 20
-2.5
 30
0.0
 11
-2.5
 21
-2.5
 31
0.0
  0
LINE
  5
102D
330
1018
100
AcDbEntity
  8
Viditelná (ISO)
100
AcDbLine
 10
-2.5
 20
-2.5
 30
0.0
 11
-4.5
 21
-4.5
 31
0.0
  0
LINE
  5
102E
330
1018
100
AcDbEntity
  8
Viditelná (ISO)
100
AcDbLine
 10
-4.5
 20
-5.132107011537073
 30
0.0
 11
-4.5
 21
-13.13210701153707
 31
0.0
  0
LINE
  5
102F
330
1018
100
AcDbEntity
  8
Viditelná (ISO)
100
AcDbLine
 10
-4.5
 20
-13.13210701153707
 30
0.0
 11
-2.800000000000181
 21
-13.13210701153707
 31
0.0
  0
LINE
  5
1030
330
1018
100
AcDbEntity
  8
Viditelná (ISO)
100
AcDbLine
 10
-4.5
 20
4.5
 30
0.0
 11
-2.5
 21
2.5
 31
0.0
  0
LINE
  5
1031
330
1018
100
AcDbEntity
  8
Viditelná (ISO)
100
AcDbLine
 10
-2.5
 20
2.5
 30
0.0
 11
0.0
 21
2.5
 31
0.0
  0
LINE
  5
1032
330
1018
100
AcDbEntity
  8
Viditelná (ISO)
100
AcDbLine
 10
0.0
 20
2.5
 30
0.0
 11
0.0
 21
4.0
 31
0.0
  0
LINE
  5
1033
330
1018
100
AcDbEntity
  8
Viditelná (ISO)
100
AcDbLine
 10
0.0
 20
4.0
 30
0.0
 11
9.5
 21
4.0
 31
0.0
  0
LINE
  5
1034
330
1018
100
AcDbEntity
  8
Viditelná (ISO)
100
AcDbLine
 10
9.5
 20
3.367892988462926
 30
0.0
 11
9.5
 21
5.867892988462926
 31
0.0
  0
LINE
  5
1035
330
1018
100
AcDbEntity
  8
Viditelná (ISO)
100
AcDbLine
 10
-4.5
 20
5.867892988462926
 30
0.0
 11
-4.5
 21
3.867892988462926
 31
0.0
  0
LINE
  5
1036
330
1018
100
AcDbEntity
  8
Viditelná (ISO)
100
AcDbLine
 10
9.50000000000081
 20
13.16797589665213
 30
0.0
 11
9.500000000000909
 21
-0.132107011537073
 31
0.0
  0
LINE
  5
1037
330
1018
100
AcDbEntity
  8
Viditelná (ISO)
100
AcDbLine
 10
5.200000000000954
 20
-2.632107011537073
 30
0.0
 11
5.199999999999818
 21
-4.632107011537073
 31
0.0
  0
LINE
  5
1038
330
1018
100
AcDbEntity
  8
Viditelná (ISO)
100
AcDbLine
 10
-4.5
 20
-5.132107011537073
 30
0.0
 11
-4.5
 21
3.867892988462926
 31
0.0
  0
LINE
  5
1039
330
1018
100
AcDbEntity
  8
Viditelná (ISO)
100
AcDbLine
 10
0.0
 20
-3.132107011537073
 30
0.0
 11
0.0
 21
-2.632107011537073
 31
0.0
  0
LINE
  5
103A
330
1018
100
AcDbEntity
  8
Viditelná (ISO)
100
AcDbLine
 10
0.0
 20
2.5
 30
0.0
 11
0.0
 21
-2.5
 31
0.0
  0
LWPOLYLINE
  5
103B
330
1018
100
AcDbEntity
  8
DUENN
100
AcDbPolyline
 90
       11
 70
     0
 43
0.0
 10
-4.5
 20
4.495133975093779
 42
-0.0525018134126427
 10
-3.053301921273487
 20
4.383603280893623
 42
0.1544950329724033
 10
-0.765839102676182
 20
4.79064326923941
 42
0.0940222996571786
 10
3.657827846707732
 20
5.010963435768246
 42
0.2594468572414608
 10
7.852283951696335
 20
6.042622357118091
 42
0.4073926096728484
 10
9.070437329017295
 20
8.477767661751897
 42
0.1102959662627192
 10
7.667527061371856
 20
10.49632412102124
 42
0.0254429737625929
 10
5.067165097983888
 20
13.38970683753774
 42
0.4852456614911281
 10
-0.4862947850206183
 20
14.68625115761239
 42
-0.3798766742610704
 10
-3.707637073651312
 20
14.85354719891217
 42
0.3793916018337844
 10
-4.5
 20
14.89537120923666
 42
0.3793916018337844
  0
LINE
  5
103C
330
1018
100
AcDbEntity
  8
SICHTBAR
100
AcDbLine
 10
-3.0
 20
12.27437415779565
 30
0.0
 11
-3.0
 21
11.67437415779574
 31
0.0
  0
LINE
  5
103D
330
1018
100
AcDbEntity
  8
SICHTBAR
100
AcDbLine
 10
-3.0
 20
5.474374157795466
 30
0.0
 11
-3.0
 21
4.874374157796012
 31
0.0
  0
LINE
  5
103E
330
1018
100
AcDbEntity
  8
SICHTBAR
100
AcDbLine
 10
-1.5
 20
12.27437415779565
 30
0.0
 11
-1.5
 21
11.67437415779528
 31
0.0
  0
LINE
  5
103F
330
1018
100
AcDbEntity
  8
SICHTBAR
100
AcDbLine
 10
-1.5
 20
5.474374157795921
 30
0.0
 11
-1.5
 21
4.874374157796012
 31
0.0
  0
LINE
  5
1040
330
1018
100
AcDbEntity
  8
0
100
AcDbLine
 10
-4.5
 20
4.874374157796012
 30
0.0
 11
-3.0
 21
5.474374157795921
 31
0.0
  0
LINE
  5
1041
330
1018
100
AcDbEntity
  8
0
100
AcDbLine
 10
-3.0
 20
4.874374157796012
 30
0.0
 11
-1.5
 21
5.474374157795921
 31
0.0
  0
LINE
  5
1042
330
1018
100
AcDbEntity
  8
0
100
AcDbLine
 10
-1.5
 20
4.874374157796012
 30
0.0
 11
0.0
 21
5.474374157795921
 31
0.0
  0
LINE
  5
1043
330
1018
100
AcDbEntity
  8
0
100
AcDbLine
 10
-4.5
 20
12.27437415779565
 30
0.0
 11
-3.0
 21
11.67437415779574
 31
0.0
  0
LINE
  5
1044
330
1018
100
AcDbEntity
  8
0
100
AcDbLine
 10
-3.0
 20
12.27437415779565
 30
0.0
 11
-1.5
 21
11.67437415779574
 31
0.0
  0
LINE
  5
1045
330
1018
100
AcDbEntity
  8
0
100
AcDbLine
 10
-1.5
 20
12.27437415779565
 30
0.0
 11
0.0
 21
11.67437415779574
 31
0.0
  0
LINE
  5
1046
330
1018
100
AcDbEntity
  8
0
100
AcDbLine
 10
0.0
 20
5.474374157795921
 30
0.0
 11
1.632917125150925
 21
5.474374157795921
 31
0.0
  0
LINE
  5
1047
330
1018
100
AcDbEntity
  8
0
100
AcDbLine
 10
1.632917125150925
 20
5.474374157795921
 30
0.0
 11
1.632917125150925
 21
4.874374157796012
 31
0.0
  0
LINE
  5
1048
330
1018
100
AcDbEntity
  8
0
100
AcDbLine
 10
1.632917125150925
 20
4.874374157796012
 30
0.0
 11
2.099999999999909
 21
5.079936704077283
 31
0.0
  0
LINE
  5
1049
330
1018
100
AcDbEntity
  8
0
100
AcDbLine
 10
2.099999999999909
 20
5.079936704077283
 30
0.0
 11
2.099999999999909
 21
8.07437415779583
 31
0.0
  0
LINE
  5
104A
330
1018
100
AcDbEntity
  8
0
100
AcDbLine
 10
0.0
 20
11.67437415779574
 30
0.0
 11
1.632917125150925
 21
11.67437415779574
 31
0.0
  0
LINE
  5
104B
330
1018
100
AcDbEntity
  8
0
100
AcDbLine
 10
2.099999999999909
 20
12.07249024957588
 30
0.0
 11
2.099999999999909
 21
8.07437415779583
 31
0.0
  0
LINE
  5
104C
330
1018
100
AcDbEntity
  8
0
100
AcDbLine
 10
-4.5
 20
5.442267146258245
 30
0.0
 11
-4.100144848537183
 21
5.942267146258245
 31
0.0
  0
LINE
  5
104D
330
1018
100
AcDbEntity
  8
0
100
AcDbLine
 10
-4.100144848537183
 20
6.57437415779583
 30
0.0
 11
-4.100144848537183
 21
10.57437415779583
 31
0.0
  0
LINE
  5
104E
330
1018
100
AcDbEntity
  8
0
100
AcDbLine
 10
-4.100144848537183
 20
9.942267146258245
 30
0.0
 11
-4.5
 21
10.44226714625824
 31
0.0
  0
LINE
  5
104F
330
1018
100
AcDbEntity
  8
0
100
AcDbLine
 10
-4.100144848537183
 20
6.57437415779583
 30
0.0
 11
2.099999999999909
 21
6.577155430936329
 31
0.0
  0
LINE
  5
1050
330
1018
100
AcDbEntity
  8
AM_CL
100
AcDbLine
 10
-4.5
 20
6.07419473968099
 30
0.0
 11
2.100224290958522
 21
6.077155481242755
 31
0.0
  0
LINE
  5
1051
330
1018
100
AcDbEntity
  8
0
100
AcDbLine
 10
-4.100144848537183
 20
10.57437415779583
 30
0.0
 11
2.099999999999909
 21
10.57437415779583
 31
0.0
  0
LINE
  5
1052
330
1018
100
AcDbEntity
  8
AM_CL
100
AcDbLine
 10
-4.5
 20
11.07437415779583
 30
0.0
 11
2.099999999999909
 21
11.07437415779583
 31
0.0
  0
LINE
  5
1053
330
1018
100
AcDbEntity
  8
0
100
AcDbLine
 10
2.099999999999909
 20
5.474374157795921
 30
0.0
 11
2.859656179306512
 21
5.474374157795921
 31
0.0
  0
LINE
  5
1054
330
1018
100
AcDbEntity
  8
0
100
AcDbLine
 10
2.859656179306512
 20
5.474374157795921
 30
0.0
 11
3.599999999999909
 21
8.57621347682658
 31
0.0
  0
LINE
  5
1055
330
1018
100
AcDbEntity
  8
0
100
AcDbLine
 10
3.599999999999909
 20
8.57621347682658
 30
0.0
 11
2.859656179306512
 21
11.67437415779574
 31
0.0
  0
LINE
  5
1056
330
1018
100
AcDbEntity
  8
0
100
AcDbLine
 10
2.859656179306512
 20
5.474374157795921
 30
0.0
 11
2.859656179306512
 21
11.67437415779574
 31
0.0
  0
LINE
  5
1057
330
1018
100
AcDbEntity
  8
Viditelná (ISO)
100
AcDbLine
 10
9.500000000011141
 20
6.500000000002785
 30
0.0
 11
8.586522852148263
 21
6.500000000002472
 31
0.0
  0
LINE
  5
1058
330
1018
100
AcDbEntity
  8
0
100
AcDbLine
 10
7.460000000000263
 20
-2.632107011537073
 30
0.0
 11
5.200000000000954
 21
-2.632107011537073
 31
0.0
  0
LINE
  5
1059
330
1018
100
AcDbEntity
  8
0
100
AcDbLine
 10
7.460000000000263
 20
-2.632107011537073
 30
0.0
 11
7.460000000000263
 21
-0.132107011537073
 31
0.0
  0
LINE
  5
105A
330
1018
100
AcDbEntity
  8
0
100
AcDbLine
 10
7.460000000000263
 20
-0.132107011537073
 30
0.0
 11
9.500000000000909
 21
-0.132107011537073
 31
0.0
  0
LINE
  5
105B
330
1018
100
AcDbEntity
  8
0
100
AcDbLine
 10
-2.5
 20
2.5
 30
0.0
 11
-2.5
 21
-2.5
 31
0.0
  0
LINE
  5
105C
330
1018
100
AcDbEntity
  8
AM_7
  6
AM_DIN_G_W050x2
100
AcDbLine
 10
3.0
 20
0.0
 30
0.0
 11
-5.5
 21
0.0
 31
0.0
1001
GENIUS_GENODEF_13
1002
{
1000
HIER
1070
     0
1002
}
1002
{
1000
MANEDIT
1070
     0
1002
}
1002
{
1000
NOSEL
1070
     0
1002
}
1002
{
1000
BEHIND
1070
     0
1002
}
1002
{
1000
OTHER
1070
     0
1002
}
1002
{
1000
REACTOR
1002
}
1001
GENIUS_GENOBJ-N-CEN_13
1002
{
1000
OWNER
1000
GEN
1002
}
1001
GENIUS_GENCEN_19
1002
{
1040
3.0
1002
}
  0
LINE
  5
105D
330
1018
100
AcDbEntity
  8
0
100
AcDbLine
 10
4.681191872911966
 20
15.54773397842302
 30
0.0
 11
-4.5
 21
15.54773397842302
 31
0.0
  0
LINE
  5
105E
330
1018
100
AcDbEntity
  8
AM_CL
100
AcDbLine
 10
3.599999999999909
 20
8.57621347682658
 30
0.0
 11
-4.5
 21
8.576213476826609
 31
0.0
  0
HATCH
  5
105F
330
1018
100
AcDbEntity
  8
AM_8
100
AcDbHatch
 10
0.0
 20
0.0
 30
0.0
210
0.0
220
0.0
230
1.0
  2
_U
 70
     0
 71
     0
 91
        1
 92
        1
 93
       13
 72
     1
 10
-2.800000000000181
 20
-13.13210701153707
 11
-2.800000000000181
 21
-10.48210701153698
 72
     1
 10
-2.800000000000181
 20
-10.48210701153698
 11
-0.2000000000002728
 21
-10.48210701153698
 72
     1
 10
-0.2000000000002728
 20
-10.48210701153698
 11
-0.2000000000002728
 21
-7.782107011537163
 72
     1
 10
-0.2000000000002728
 20
-7.782107011537163
 11
2.5
 21
-7.782107011537163
 72
     1
 10
2.5
 20
-7.782107011537163
 11
2.5
 21
-5.132107011537073
 72
     1
 10
2.5
 20
-5.132107011537073
 11
5.199999999999818
 21
-5.132107011537073
 72
     1
 10
5.199999999999818
 20
-5.132107011537073
 11
5.199999999999818
 21
-4.0
 72
     1
 10
5.199999999999818
 20
-4.0
 11
0.0
 21
-4.0
 72
     1
 10
0.0
 20
-4.0
 11
0.0
 21
-2.5
 72
     1
 10
0.0
 20
-2.5
 11
-2.5
 21
-2.5
 72
     1
 10
-2.5
 20
-2.5
 11
-4.499999999999772
 21
-4.499999999999772
 72
     1
 10
-4.499999999999772
 20
-4.499999999999772
 11
-4.499999999999772
 21
-13.13210701153707
 72
     1
 10
-4.499999999999772
 20
-13.13210701153707
 11
-2.800000000000181
 21
-13.13210701153707
 97
        0
 75
     0
 76
     0
 52
135.0
 41
2.82
 77
     0
 78
     1
 53
135.0
 43
-47.55419137267534
 44
-182.6324042671798
 45
-1.994041122946064
 46
-1.994041122946064
 79
     0
 98
        1
 10
-47.55419137267534
 20
-182.6324042671798
1001
GENIUS_GENODEF_13
1002
{
1000
HIER
1070
     0
1002
}
1002
{
1000
MANEDIT
1070
     0
1002
}
1002
{
1000
NOSEL
1070
     0
1002
}
1002
{
1000
BEHIND
1070
     0
1002
}
1002
{
1000
OTHER
1070
     0
1002
}
1002
{
1000
REACTOR
1002
}
1001
GENIUS_GENOBJ-N-HTC_13
1002
{
1000
OWNER
1000
GEN
1002
}
1001
GENIUS_GENHATCH_13
1002
{
1000
DATA
1040
135.0
1042
4.7
1000
_U
1070
     0
1011
-2.132581274788378
1021
-5.717170846652606
1031
0.0
1002
}
1002
{
1000
UCS
1010
0.0
1020
0.0
1030
0.0
1010
1.0
1020
0.0
1030
0.0
1010
0.0
1020
1.0
1030
0.0
1002
}
  0
HATCH
  5
1060
330
1018
100
AcDbEntity
  8
AM_8
100
AcDbHatch
 10
0.0
 20
0.0
 30
0.0
210
0.0
220
0.0
230
1.0
  2
_U
 70
     0
 71
     0
 91
        1
 92
        1
 93
       11
 72
     1
 10
-2.5
 20
2.5
 11
0.0
 21
2.500000000000028
 72
     1
 10
0.0
 20
2.500000000000028
 11
0.0
 21
4.0
 72
     1
 10
0.0
 20
4.0
 11
9.5
 21
4.0
 72
     1
 10
9.5
 20
4.0
 11
9.500000000000859
 21
6.500000000002785
 72
     1
 10
9.500000000000859
 20
6.500000000002785
 11
8.586522852148256
 21
6.500000000002444
 72
     2
 10
7.215027703564651
 20
7.883658698985982
 40
1.948206954576738
 50
45.25294978523342
 51
70.90721842172325
 73
     0
 72
     2
 10
4.827876424696363
 20
9.296462820076413
 40
4.442355078982198
 50
47.09289148609565
 51
105.2709963958164
 73
     0
 72
     2
 10
0.8653542085439624
 20
16.5591038208768
 40
11.88097030439917
 50
76.40616632176662
 51
97.89132769498122
 73
     0
 72
     2
 10
-2.552511031063502
 20
8.200288010948895
 40
3.849399153680277
 50
62.34522310904535
 51
97.47513168456931
 73
     0
 72
     2
 10
-4.306267269379112
 20
-2.430443326595138
 40
6.928286464385163
 50
79.58085449822352
 51
91.56317225575927
 73
     1
 72
     1
 10
-4.495264814843601
 20
4.495264814843608
 11
-2.5
 21
2.5
 97
        0
 75
     0
 76
     0
 52
135.0
 41
2.256
 77
     0
 78
     1
 53
135.0
 43
-47.55419137267534
 44
-182.6324042671798
 45
-1.595232898356851
 46
-1.595232898356851
 79
     0
 98
        1
 10
-47.55419137267534
 20
-182.6324042671798
1001
GENIUS_GENOBJ-N-HTC_13
1002
{
1000
OWNER
1000
GEN
1002
}
1001
GENIUS_GENODEF_13
1002
{
1000
HIER
1070
     0
1002
}
1002
{
1000
MANEDIT
1070
     0
1002
}
1002
{
1000
NOSEL
1070
     0
1002
}
1002
{
1000
BEHIND
1070
     0
1002
}
1002
{
1000
OTHER
1070
     0
1002
}
1002
{
1000
REACTOR
1002
}
1001
GENIUS_GENHATCH_13
1002
{
1000
DATA
1040
135.0
1042
4.7
1000
_U
1070
     0
1011
8.249799197280992
1021
5.007490701781307
1031
0.0
1002
}
1002
{
1000
UCS
1010
0.0
1020
0.0
1030
0.0
1010
1.0
1020
0.0
1030
0.0
1010
0.0
1020
1.0
1030
0.0
1002
}
  0
LINE
  5
1061
330
1018
100
AcDbEntity
  8
0
100
AcDbLine
 10
2.099999999999909
 20
11.67805279585724
 30
0.0
 11
2.859656179306512
 21
11.67805279585724
 31
0.0
  0
LINE
  5
1062
330
1018
100
AcDbEntity
  8
0
100
AcDbLine
 10
1.632917125150925
 20
11.67805279585724
 30
0.0
 11
1.632917125150925
 21
12.27805279585715
 31
0.0
  0
LINE
  5
1063
330
1018
100
AcDbEntity
  8
0
100
AcDbLine
 10
1.632917125150925
 20
12.27805279585715
 30
0.0
 11
2.099999999999909
 21
12.07249024957588
 31
0.0
  0
ENDBLK
  5
1064
330
1018
100
AcDbEntity
  8
0
100
AcDbBlockEnd
  0
BLOCK
  5
14CE
330
14CD
100
AcDbEntity
  8
0
100
AcDbBlockBegin
  2
*D19
 70
     1
 10
0.0
 20
0.0
 30
0.0
  3
*D19
  1

  0
LINE
  5
18F6
330
14CD
100
AcDbEntity
  8
AM_5
100
AcDbLine
 10
161.4520691127713
 20
726.8165546962022
 30
0.0
 11
161.4520691127713
 21
664.8165546962021
 31
0.0
  0
LINE
  5
18F7
330
14CD
100
AcDbEntity
  8
AM_5
100
AcDbLine
 10
175.4520691127722
 20
739.8165546962021
 30
0.0
 11
175.4520691127722
 21
664.8165546962021
 31
0.0
  0
LINE
  5
18F8
330
14CD
100
AcDbEntity
  8
AM_5
100
AcDbLine
 10
163.9520691127713
 20
665.8165546962021
 30
0.0
 11
172.9520691127722
 21
665.8165546962021
 31
0.0
  0
SOLID
  5
18F9
330
14CD
100
AcDbEntity
  8
AM_5
100
AcDbTrace
 10
163.9520691127713
 20
666.2332213628688
 30
0.0
 11
163.9520691127713
 21
665.3998880295355
 31
0.0
 12
161.4520691127713
 22
665.8165546962021
 32
0.0
 13
161.4520691127713
 23
665.8165546962021
 33
0.0
  0
SOLID
  5
18FA
330
14CD
100
AcDbEntity
  8
AM_5
100
AcDbTrace
 10
172.9520691127722
 20
666.2332213628688
 30
0.0
 11
172.9520691127722
 21
665.3998880295355
 31
0.0
 12
175.4520691127722
 22
665.8165546962021
 32
0.0
 13
175.4520691127722
 23
665.8165546962021
 33
0.0
  0
MTEXT
  5
18FB
330
14CD
100
AcDbEntity
  8
AM_5
 62
     2
100
AcDbMText
 10
168.4520691127717
 20
669.0665546962021
 30
0.0
 40
3.5
 41
0.0
 71
     5
 72
     1
  1
14
 73
     1
 44
1.0
1001
ACAD
1000
MTEXTBEGIN
1070
    73
1070
     1
1070
    44
1040
1.0
1070
    74
1070
     0
1000
MTEXTEND
  0
POINT
  5
18FC
330
14CD
100
AcDbEntity
  8
Defpoints
 62
     0
100
AcDbPoint
 10
161.4520691127713
 20
727.8165546962021
 30
0.0
  0
POINT
  5
18FD
330
14CD
100
AcDbEntity
  8
Defpoints
 62
     0
100
AcDbPoint
 10
175.4520691127722
 20
740.8165546962021
 30
0.0
  0
POINT
  5
18FE
330
14CD
100
AcDbEntity
  8
Defpoints
 62
     0
100
AcDbPoint
 10
175.4520691127722
 20
665.8165546962021
 30
0.0
  0
ENDBLK
  5
14CF
330
14CD
100
AcDbEntity
  8
0
100
AcDbBlockEnd
  0
BLOCK
  5
15C0
330
15BF
100
AcDbEntity
  8
0
100
AcDbBlockBegin
  2
*D20
 70
     1
 10
0.0
 20
0.0
 30
0.0
  3
*D20
  1

  0
LINE
  5
1971
330
15BF
100
AcDbEntity
  8
AM_5
100
AcDbLine
 10
254.3761427586332
 20
782.4443561433043
 30
0.0
 11
354.7465812564797
 21
827.4529672721756
 31
0.0
  0
SOLID
  5
1972
330
15BF
100
AcDbEntity
  8
AM_5
100
AcDbTrace
 10
254.2056555952662
 20
782.8245471982204
 30
0.0
 11
254.5466299220001
 21
782.0641650883883
 31
0.0
 12
252.0949964291366
 22
781.4214331631029
 32
0.0
 13
252.0949964291366
 23
781.4214331631029
 33
0.0
  0
SOLID
  5
1973
330
15BF
100
AcDbEntity
  8
AM_5
100
AcDbTrace
 10
354.5760940931128
 20
827.8331583270917
 30
0.0
 11
354.9170684198466
 21
827.0727762172596
 31
0.0
 12
357.0277275859762
 22
828.4758902523773
 32
0.0
 13
357.0277275859762
 23
828.4758902523773
 33
0.0
  0
MTEXT
  5
1974
102
{ACAD_XDICTIONARY
360
19B5
102
}
330
15BF
100
AcDbEntity
  8
AM_5
 62
     2
100
AcDbMText
 10
332.2058426818959
 20
820.9069428959336
 30
0.0
 40
3.5
 41
0.0
 71
     5
 72
     1
  1
\U+2205115
 11
0.9124585317986069
 21
0.4091691920806485
 31
0.0
 73
     1
 44
1.0
1001
ACAD
1000
MTEXTBEGIN
1070
    73
1070
     1
1070
    44
1040
1.0
1070
    74
1070
     0
1000
MTEXTEND
  0
ARC
  5
1975
330
15BF
100
AcDbEntity
  8
AM_5
100
AcDbCircle
 10
304.5613620075564
 20
804.94866170774
 30
0.0
 40
57.49999999999983
100
AcDbArc
 50
267.9645569086174
 51
25.14910376595508
  0
POINT
  5
1976
330
15BF
100
AcDbEntity
  8
Defpoints
 62
     0
100
AcDbPoint
 10
357.0277275859762
 20
828.4758902523773
 30
0.0
  0
POINT
  5
1977
330
15BF
100
AcDbEntity
  8
Defpoints
 62
     0
100
AcDbPoint
 10
252.0949964291366
 20
781.4214331631029
 30
0.0
  0
ENDBLK
  5
15C1
330
15BF
100
AcDbEntity
  8
0
100
AcDbBlockEnd
  0
BLOCK
  5
15D6
330
15D5
100
AcDbEntity
  8
0
100
AcDbBlockBegin
  2
*D21
 70
     1
 10
0.0
 20
0.0
 30
0.0
  3
*D21
  1

  0
LINE
  5
1906
330
15D5
100
AcDbEntity
  8
AM_5
100
AcDbLine
 10
160.4520691127713
 20
880.8165546962021
 30
0.0
 11
124.3337276570873
 21
880.8165546962021
 31
0.0
  0
LINE
  5
1907
330
15D5
100
AcDbEntity
  8
AM_5
100
AcDbLine
 10
160.4520691127713
 20
727.8165546962021
 30
0.0
 11
124.3337276570872
 21
727.8165546962021
 31
0.0
  0
LINE
  5
1908
330
15D5
100
AcDbEntity
  8
AM_5
100
AcDbLine
 10
125.3337276570873
 20
878.3165546962022
 30
0.0
 11
125.3337276570872
 21
730.3165546962021
 31
0.0
  0
SOLID
  5
1909
330
15D5
100
AcDbEntity
  8
AM_5
100
AcDbTrace
 10
124.9170609904206
 20
878.3165546962022
 30
0.0
 11
125.7503943237539
 21
878.3165546962022
 31
0.0
 12
125.3337276570873
 22
880.8165546962021
 32
0.0
 13
125.3337276570873
 23
880.8165546962021
 33
0.0
  0
SOLID
  5
190A
330
15D5
100
AcDbEntity
  8
AM_5
100
AcDbTrace
 10
124.9170609904205
 20
730.3165546962021
 30
0.0
 11
125.7503943237539
 21
730.3165546962021
 31
0.0
 12
125.3337276570872
 22
727.8165546962021
 32
0.0
 13
125.3337276570872
 23
727.8165546962021
 33
0.0
  0
MTEXT
  5
190B
330
15D5
100
AcDbEntity
  8
AM_5
 62
     2
100
AcDbMText
 10
122.0837276570871
 20
804.3165546962022
 30
0.0
 40
3.5
 41
0.0
 71
     5
 72
     1
  1
%%c154
 11
0.0000000000000001
 21
1.0
 31
0.0
 73
     1
 44
1.0
1001
ACAD
1000
MTEXTBEGIN
1070
    73
1070
     1
1070
    44
1040
1.0
1070
    74
1070
     0
1000
MTEXTEND
  0
POINT
  5
190C
330
15D5
100
AcDbEntity
  8
Defpoints
 62
     0
100
AcDbPoint
 10
161.4520691127713
 20
880.8165546962021
 30
0.0
  0
POINT
  5
190D
330
15D5
100
AcDbEntity
  8
Defpoints
 62
     0
100
AcDbPoint
 10
161.4520691127713
 20
727.8165546962021
 30
0.0
  0
POINT
  5
190E
330
15D5
100
AcDbEntity
  8
Defpoints
 62
     0
100
AcDbPoint
 10
125.3337276570872
 20
727.8165546962021
 30
0.0
  0
ENDBLK
  5
15D7
330
15D5
100
AcDbEntity
  8
0
100
AcDbBlockEnd
  0
BLOCK
  5
171A
330
1719
100
AcDbEntity
  8
0
100
AcDbBlockBegin
  2
*D22
 70
     1
 10
0.0
 20
0.0
 30
0.0
  3
*D22
  1

  0
LINE
  5
190F
330
1719
100
AcDbEntity
  8
AM_5
100
AcDbLine
 10
172.4520691127709
 20
876.966554696202
 30
0.0
 11
188.452070112772
 21
876.966554696202
 31
0.0
  0
LINE
  5
1910
330
1719
100
AcDbEntity
  8
AM_5
100
AcDbLine
 10
172.4520691127473
 20
731.666554696206
 30
0.0
 11
188.4520701127719
 21
731.666554696206
 31
0.0
  0
LINE
  5
1911
330
1719
100
AcDbEntity
  8
AM_5
100
AcDbLine
 10
187.452070112772
 20
874.466554696202
 30
0.0
 11
187.452070112772
 21
734.166554696206
 31
0.0
  0
SOLID
  5
1912
330
1719
100
AcDbEntity
  8
AM_5
100
AcDbTrace
 10
187.0354034461053
 20
874.466554696202
 30
0.0
 11
187.8687367794386
 21
874.466554696202
 31
0.0
 12
187.452070112772
 22
876.966554696202
 32
0.0
 13
187.452070112772
 23
876.966554696202
 33
0.0
  0
SOLID
  5
1913
330
1719
100
AcDbEntity
  8
AM_5
100
AcDbTrace
 10
187.0354034461053
 20
734.166554696206
 30
0.0
 11
187.8687367794386
 21
734.166554696206
 31
0.0
 12
187.452070112772
 22
731.666554696206
 32
0.0
 13
187.452070112772
 23
731.666554696206
 33
0.0
  0
MTEXT
  5
1914
330
1719
100
AcDbEntity
  8
AM_5
 62
     2
100
AcDbMText
 10
184.0270701127718
 20
804.316554696204
 30
0.0
 40
3.5
 41
0.0
 71
     5
 72
     1
  1
(%%c145)
 11
0.0000000000000001
 21
1.0
 31
0.0
 73
     1
 44
1.0
1001
ACAD
1000
MTEXTBEGIN
1070
    73
1070
     1
1070
    44
1040
1.0
1070
    74
1070
     0
1000
MTEXTEND
  0
POINT
  5
1915
330
1719
100
AcDbEntity
  8
Defpoints
 62
     0
100
AcDbPoint
 10
171.4520691127709
 20
876.966554696202
 30
0.0
  0
POINT
  5
1916
330
1719
100
AcDbEntity
  8
Defpoints
 62
     0
100
AcDbPoint
 10
171.4520691127473
 20
731.666554696206
 30
0.0
  0
POINT
  5
1917
330
1719
100
AcDbEntity
  8
Defpoints
 62
     0
100
AcDbPoint
 10
187.452070112772
 20
731.666554696206
 30
0.0
  0
ENDBLK
  5
171B
330
1719
100
AcDbEntity
  8
0
100
AcDbBlockEnd
  0
BLOCK
  5
1752
330
1751
100
AcDbEntity
  8
0
100
AcDbBlockBegin
  2
*D23
 70
     1
 10
0.0
 20
0.0
 30
0.0
  3
*D23
  1

  0
LINE
  5
192A
330
1751
100
AcDbEntity
  8
AM_5
100
AcDbLine
 10
492.8833049454993
 20
874.6429494171817
 30
0.0
 11
492.8833049454993
 21
897.354902842283
 31
0.0
  0
LINE
  5
192B
330
1751
100
AcDbEntity
  8
AM_5
100
AcDbLine
 10
475.6833049455012
 20
874.3419043691089
 30
0.0
 11
475.6833049455012
 21
897.354902842283
 31
0.0
  0
LINE
  5
192C
330
1751
100
AcDbEntity
  8
AM_5
100
AcDbLine
 10
490.3833049454992
 20
896.354902842283
 30
0.0
 11
478.1833049455013
 21
896.354902842283
 31
0.0
  0
SOLID
  5
192D
330
1751
100
AcDbEntity
  8
AM_5
100
AcDbTrace
 10
490.3833049454992
 20
896.7715695089497
 30
0.0
 11
490.3833049454992
 21
895.9382361756164
 31
0.0
 12
492.8833049454993
 22
896.354902842283
 32
0.0
 13
492.8833049454993
 23
896.354902842283
 33
0.0
  0
SOLID
  5
192E
330
1751
100
AcDbEntity
  8
AM_5
100
AcDbTrace
 10
478.1833049455013
 20
896.7715695089497
 30
0.0
 11
478.1833049455013
 21
895.9382361756164
 31
0.0
 12
475.6833049455012
 22
896.354902842283
 32
0.0
 13
475.6833049455012
 23
896.354902842283
 33
0.0
  0
MTEXT
  5
192F
330
1751
100
AcDbEntity
  8
AM_5
 62
     2
100
AcDbMText
 10
484.2833049455002
 20
899.6049028422831
 30
0.0
 40
3.5
 41
0.0
 71
     5
 72
     1
  1
4.3
 73
     1
 44
1.0
1001
ACAD
1000
MTEXTBEGIN
1070
    73
1070
     1
1070
    44
1040
1.0
1070
    74
1070
     0
1000
MTEXTEND
  0
POINT
  5
1930
330
1751
100
AcDbEntity
  8
Defpoints
 62
     0
100
AcDbPoint
 10
492.8833049454993
 20
873.6429494171817
 30
0.0
  0
POINT
  5
1931
330
1751
100
AcDbEntity
  8
Defpoints
 62
     0
100
AcDbPoint
 10
475.6833049455012
 20
873.3419043691089
 30
0.0
  0
POINT
  5
1932
330
1751
100
AcDbEntity
  8
Defpoints
 62
     0
100
AcDbPoint
 10
475.6833049455012
 20
896.354902842283
 30
0.0
  0
ENDBLK
  5
1753
330
1751
100
AcDbEntity
  8
0
100
AcDbBlockEnd
  0
BLOCK
  5
175E
330
175D
100
AcDbEntity
  8
0
100
AcDbBlockBegin
  2
*D24
 70
     1
 10
0.0
 20
0.0
 30
0.0
  3
*D24
  1

  0
LINE
  5
1933
330
175D
100
AcDbEntity
  8
AM_5
100
AcDbLine
 10
517.8909340294808
 20
870.0281071178446
 30
0.0
 11
520.0385586632852
 21
871.3078369456898
 31
0.0
  0
LINE
  5
1934
330
175D
100
AcDbEntity
  8
AM_5
100
AcDbLine
 10
520.0385586632852
 20
871.3078369456898
 30
0.0
 11
529.3835334101157
 21
871.3078369456898
 31
0.0
  0
SOLID
  5
1935
330
175D
100
AcDbEntity
  8
AM_5
100
AcDbTrace
 10
517.67764572484
 20
870.3860445568121
 30
0.0
 11
518.1042223341217
 21
869.6701696788773
 31
0.0
 12
515.7433093956764
 22
868.7483772899994
 32
0.0
 13
515.7433093956764
 23
868.7483772899994
 33
0.0
  0
MTEXT
  5
1936
330
175D
100
AcDbEntity
  8
AM_5
 62
     2
100
AcDbMText
 10
525.4610460367005
 20
874.5578369456898
 30
0.0
 40
3.5
 41
0.0
 71
     5
 72
     1
  1
R0.5
 73
     1
 44
1.0
1001
ACAD
1000
MTEXTBEGIN
1070
    73
1070
     1
1070
    44
1040
1.0
1070
    74
1070
     0
1000
MTEXTEND
  0
POINT
  5
1937
330
175D
100
AcDbEntity
  8
Defpoints
 62
     0
100
AcDbPoint
 10
515.7433093956764
 20
868.7483772899994
 30
0.0
  0
POINT
  5
1938
330
175D
100
AcDbEntity
  8
Defpoints
 62
     0
100
AcDbPoint
 10
514.0252096886329
 20
867.7245934277234
 30
0.0
  0
ENDBLK
  5
175F
330
175D
100
AcDbEntity
  8
0
100
AcDbBlockEnd
  0
BLOCK
  5
1767
330
1766
100
AcDbEntity
  8
0
100
AcDbBlockBegin
  2
*D25
 70
     1
 10
0.0
 20
0.0
 30
0.0
  3
*D25
  1

  0
LINE
  5
1939
330
1766
100
AcDbEntity
  8
AM_5
100
AcDbLine
 10
503.0012578142339
 20
852.0391316473014
 30
0.0
 11
476.1287546744182
 21
823.2257527733288
 31
0.0
  0
LINE
  5
193A
330
1766
100
AcDbEntity
  8
AM_5
100
AcDbLine
 10
492.2012578142337
 20
862.1116411984869
 30
0.0
 11
465.328754674418
 21
833.2982623245143
 31
0.0
  0
LINE
  5
193B
330
1766
100
AcDbEntity
  8
AM_5
100
AcDbLine
 10
474.9825312589449
 20
825.6621788201895
 30
0.0
 11
467.8390723524231
 21
832.3244527150452
 31
0.0
  0
SOLID
  5
193C
330
1766
100
AcDbEntity
  8
AM_5
100
AcDbTrace
 10
475.2667175636392
 20
825.9668905779795
 30
0.0
 11
474.6983449542508
 21
825.3574670623997
 31
0.0
 12
476.8108018056842
 22
823.9570609920246
 32
0.0
 13
476.8108018056842
 23
823.9570609920246
 33
0.0
  0
SOLID
  5
193D
330
1766
100
AcDbEntity
  8
AM_5
100
AcDbTrace
 10
468.1232586571174
 20
832.6291644728351
 30
0.0
 11
467.554886047729
 21
832.0197409572553
 31
0.0
 12
466.0108018056839
 22
834.0295705432101
 32
0.0
 13
466.0108018056839
 23
834.0295705432101
 33
0.0
  0
MTEXT
  5
193E
330
1766
100
AcDbEntity
  8
AM_5
 62
     2
100
AcDbMText
 10
473.7468132302701
 20
831.4980464166501
 30
0.0
 40
3.5
 41
0.0
 71
     5
 72
     1
  1
(3.7)
 11
0.7313082186956813
 21
-0.6820471312659776
 31
0.0
 73
     1
 44
1.0
1001
ACAD
1000
MTEXTBEGIN
1070
    73
1070
     1
1070
    44
1040
1.0
1070
    74
1070
     0
1000
MTEXTEND
  0
POINT
  5
193F
330
1766
100
AcDbEntity
  8
Defpoints
 62
     0
100
AcDbPoint
 10
503.6833049454998
 20
852.770439865997
 30
0.0
  0
POINT
  5
1940
330
1766
100
AcDbEntity
  8
Defpoints
 62
     0
100
AcDbPoint
 10
492.8833049454997
 20
862.8429494171827
 30
0.0
  0
POINT
  5
1941
330
1766
100
AcDbEntity
  8
Defpoints
 62
     0
100
AcDbPoint
 10
466.0108018056839
 20
834.0295705432101
 30
0.0
  0
ENDBLK
  5
1768
330
1766
100
AcDbEntity
  8
0
100
AcDbBlockEnd
  0
BLOCK
  5
1773
330
1772
100
AcDbEntity
  8
0
100
AcDbBlockBegin
  2
*D26
 70
     1
 10
0.0
 20
0.0
 30
0.0
  3
*D26
  1

  0
LINE
  5
1918
330
1772
100
AcDbEntity
  8
AM_5
100
AcDbLine
 10
515.0252096886329
 20
867.7245934277236
 30
0.0
 11
528.6833049454992
 21
867.7245934277236
 31
0.0
  0
LINE
  5
1919
330
1772
100
AcDbEntity
  8
AM_5
100
AcDbLine
 10
515.4833049454992
 20
852.242949417182
 30
0.0
 11
528.6833049454992
 21
852.242949417182
 31
0.0
  0
LINE
  5
191A
330
1772
100
AcDbEntity
  8
AM_5
100
AcDbLine
 10
527.6833049454991
 20
865.2245934277235
 30
0.0
 11
527.6833049454991
 21
854.742949417182
 31
0.0
  0
SOLID
  5
191B
330
1772
100
AcDbEntity
  8
AM_5
100
AcDbTrace
 10
527.2666382788326
 20
865.2245934277235
 30
0.0
 11
528.0999716121658
 21
865.2245934277235
 31
0.0
 12
527.6833049454991
 22
867.7245934277236
 32
0.0
 13
527.6833049454991
 23
867.7245934277236
 33
0.0
  0
SOLID
  5
191C
330
1772
100
AcDbEntity
  8
AM_5
100
AcDbTrace
 10
527.2666382788326
 20
854.742949417182
 30
0.0
 11
528.0999716121658
 21
854.742949417182
 31
0.0
 12
527.6833049454991
 22
852.242949417182
 32
0.0
 13
527.6833049454991
 23
852.242949417182
 33
0.0
  0
MTEXT
  5
191D
330
1772
100
AcDbEntity
  8
AM_5
 62
     2
100
AcDbMText
 10
523.4287278621259
 20
859.9837714224529
 30
0.0
 40
3.5
 41
0.0
 71
     5
 72
     1
  1
3.9{}{\H0.71x;\C3;\S+0.5^ -0.5;}
 11
0.0000000000000001
 21
1.0
 31
0.0
 73
     1
 44
1.0
1001
ACAD
1000
MTEXTBEGIN
1070
    73
1070
     1
1070
    44
1040
1.0
1070
    74
1070
     0
1000
MTEXTEND
  0
POINT
  5
191E
330
1772
100
AcDbEntity
  8
Defpoints
 62
     0
100
AcDbPoint
 10
514.0252096886329
 20
867.7245934277236
 30
0.0
  0
POINT
  5
191F
330
1772
100
AcDbEntity
  8
Defpoints
 62
     0
100
AcDbPoint
 10
514.4833049454992
 20
852.242949417182
 30
0.0
  0
POINT
  5
1920
330
1772
100
AcDbEntity
  8
Defpoints
 62
     0
100
AcDbPoint
 10
527.6833049454991
 20
852.242949417182
 30
0.0
  0
ENDBLK
  5
1774
330
1772
100
AcDbEntity
  8
0
100
AcDbBlockEnd
  0
BLOCK
  5
177F
330
177E
100
AcDbEntity
  8
0
100
AcDbBlockBegin
  2
*D27
 70
     1
 10
0.0
 20
0.0
 30
0.0
  3
*D27
  1

  0
LINE
  5
1921
330
177E
100
AcDbEntity
  8
AM_5
100
AcDbLine
 10
514.0252096886329
 20
868.7245934277235
 30
0.0
 11
514.0252096886329
 21
881.8429494171819
 31
0.0
  0
LINE
  5
1922
330
177E
100
AcDbEntity
  8
AM_5
100
AcDbLine
 10
492.8833049454993
 20
863.8429494171825
 30
0.0
 11
492.8833049454993
 21
881.8429494171819
 31
0.0
  0
LINE
  5
1923
330
177E
100
AcDbEntity
  8
AM_5
100
AcDbLine
 10
511.5252096886329
 20
880.8429494171818
 30
0.0
 11
495.3833049454992
 21
880.8429494171818
 31
0.0
  0
SOLID
  5
1924
330
177E
100
AcDbEntity
  8
AM_5
100
AcDbTrace
 10
511.5252096886329
 20
881.2596160838484
 30
0.0
 11
511.5252096886329
 21
880.4262827505153
 31
0.0
 12
514.0252096886329
 22
880.8429494171818
 32
0.0
 13
514.0252096886329
 23
880.8429494171818
 33
0.0
  0
SOLID
  5
1925
330
177E
100
AcDbEntity
  8
AM_5
100
AcDbTrace
 10
495.3833049454992
 20
881.2596160838484
 30
0.0
 11
495.3833049454992
 21
880.4262827505153
 31
0.0
 12
492.8833049454993
 22
880.8429494171818
 32
0.0
 13
492.8833049454993
 23
880.8429494171818
 33
0.0
  0
MTEXT
  5
1926
330
177E
100
AcDbEntity
  8
AM_5
 62
     2
100
AcDbMText
 10
503.4542573170661
 20
885.0975265005549
 30
0.0
 40
3.5
 41
0.0
 71
     5
 72
     1
  1
5.3{}{\H0.71x;\C3;\S+0.5^ -0.5;}
 73
     1
 44
1.0
1001
ACAD
1000
MTEXTBEGIN
1070
    73
1070
     1
1070
    44
1040
1.0
1070
    74
1070
     0
1000
MTEXTEND
  0
POINT
  5
1927
330
177E
100
AcDbEntity
  8
Defpoints
 62
     0
100
AcDbPoint
 10
514.0252096886329
 20
867.7245934277236
 30
0.0
  0
POINT
  5
1928
330
177E
100
AcDbEntity
  8
Defpoints
 62
     0
100
AcDbPoint
 10
492.8833049454993
 20
862.8429494171824
 30
0.0
  0
POINT
  5
1929
330
177E
100
AcDbEntity
  8
Defpoints
 62
     0
100
AcDbPoint
 10
492.8833049454993
 20
880.8429494171818
 30
0.0
  0
ENDBLK
  5
1780
330
177E
100
AcDbEntity
  8
0
100
AcDbBlockEnd
  0
BLOCK
  5
1816
330
1815
100
AcDbEntity
  8
0
100
AcDbBlockBegin
  2
GENZOO7AR1R33
 70
     0
 10
0.0
 20
0.0
 30
0.0
  3
GENZOO7AR1R33
  1

  0
LINE
  5
180C
330
1815
100
AcDbEntity
  8
SICHTBAR
100
AcDbLine
 10
-6.999999999999658
 20
5.157331274668422
 30
0.0
 11
-6.999999999999658
 21
-5.157331274668422
 31
0.0
  0
LINE
  5
17F1
330
1815
100
AcDbEntity
  8
Viditelná (ISO)
100
AcDbLine
 10
-5.300000000000068
 20
5.349999999999909
 30
0.0
 11
-5.300000000000068
 21
2.699999999999818
 31
0.0
  0
LINE
  5
17F2
330
1815
100
AcDbEntity
  8
Viditelná (ISO)
100
AcDbLine
 10
-5.300000000000068
 20
2.699999999999818
 30
0.0
 11
-2.700000000000159
 21
2.699999999999818
 31
0.0
  0
LINE
  5
17F3
330
1815
100
AcDbEntity
  8
Viditelná (ISO)
100
AcDbLine
 10
-2.700000000000159
 20
2.699999999999818
 30
0.0
 11
-2.700000000000159
 21
0.0
 31
0.0
  0
LINE
  5
17F4
330
1815
100
AcDbEntity
  8
Viditelná (ISO)
100
AcDbLine
 10
-2.700000000000159
 20
0.0
 30
0.0
 11
0.0000000000001137
 21
0.0
 31
0.0
  0
LINE
  5
17F5
330
1815
100
AcDbEntity
  8
Viditelná (ISO)
100
AcDbLine
 10
0.0000000000001137
 20
0.0
 30
0.0
 11
0.0000000000001137
 21
-2.65000000000009
 31
0.0
  0
LINE
  5
17F6
330
1815
100
AcDbEntity
  8
Viditelná (ISO)
100
AcDbLine
 10
0.0000000000001137
 20
-2.65000000000009
 30
0.0
 11
2.699999999999931
 21
-2.65000000000009
 31
0.0
  0
LINE
  5
17F7
330
1815
100
AcDbEntity
  8
Viditelná (ISO)
100
AcDbLine
 10
2.699999999999931
 20
-2.65000000000009
 30
0.0
 11
2.699999999999931
 21
-3.15000000000009
 31
0.0
  0
LINE
  5
17F8
330
1815
100
AcDbEntity
  8
Viditelná (ISO)
100
AcDbLine
 10
0.0000000000001137
 20
-2.518127387796198
 30
0.0
 11
-2.499999999999886
 21
-2.518127387796198
 31
0.0
  0
LINE
  5
17F9
330
1815
100
AcDbEntity
  8
Viditelná (ISO)
100
AcDbLine
 10
-2.499999999999886
 20
-2.518127387796198
 30
0.0
 11
-2.499999999999886
 21
-4.018127387796198
 31
0.0
  0
LINE
  5
17FA
330
1815
100
AcDbEntity
  8
Viditelná (ISO)
100
AcDbLine
 10
-2.499999999999886
 20
-4.018127387796198
 30
0.0
 11
-4.999999999999886
 21
-4.018127387796198
 31
0.0
  0
LINE
  5
17FB
330
1815
100
AcDbEntity
  8
Viditelná (ISO)
100
AcDbLine
 10
-4.999999999999886
 20
-4.018127387796198
 30
0.0
 11
-6.999999999999886
 21
-2.018127387796198
 31
0.0
  0
LINE
  5
180D
330
1815
100
AcDbEntity
  8
Viditelná (ISO)
100
AcDbLine
 10
-6.853872327135178
 20
5.349999999999909
 30
0.0
 11
-5.300000000000068
 21
5.349999999999909
 31
0.0
  0
LINE
  5
180E
330
1815
100
AcDbEntity
  8
Viditelná (ISO)
100
AcDbLine
 10
-6.999999999999886
 20
-2.65000000000009
 30
0.0
 11
-6.999999999999886
 21
-5.157331274668081
 31
0.0
  0
LINE
  5
180F
330
1815
100
AcDbEntity
  8
Viditelná (ISO)
100
AcDbLine
 10
-2.499999999999886
 20
-4.018127387796198
 30
0.0
 11
-2.499999999999886
 21
-8.327548611486349
 31
0.0
  0
LINE
  5
1800
330
1815
100
AcDbEntity
  8
0
100
AcDbLine
 10
2.699999999999931
 20
-2.65000000000009
 30
0.0
 11
2.699999999999931
 21
-5.15000000000009
 31
0.0
  0
LINE
  5
1810
330
1815
100
AcDbEntity
  8
0
100
AcDbLine
 10
4.960000000000377
 20
-5.15000000000009
 30
0.0
 11
4.960000000000377
 21
-7.141180986129938
 31
0.0
  0
LINE
  5
1802
330
1815
100
AcDbEntity
  8
0
100
AcDbLine
 10
2.699999999999931
 20
-5.15000000000009
 30
0.0
 11
4.960000000000377
 21
-5.15000000000009
 31
0.0
  0
LINE
  5
1811
330
1815
100
AcDbEntity
  8
0
100
AcDbLine
 10
-4.999999999999886
 20
-4.018127387796198
 30
0.0
 11
-4.999999999999886
 21
-7.113231746306951
 31
0.0
  0
LINE
  5
1812
330
1815
100
AcDbEntity
  8
AM_7
  6
AM_DIN_G_W050x2
100
AcDbLine
 10
-5.754309796416009
 20
-6.518127387796198
 30
0.0
 11
0.5000000000001137
 21
-6.518127387796198
 31
0.0
1001
GENIUS_GENOBJ-N-CEN_13
1002
{
1000
OWNER
1000
GEN
1002
}
1001
GENIUS_GENODEF_13
1002
{
1000
HIER
1070
     0
1002
}
1002
{
1000
MANEDIT
1070
     0
1002
}
1002
{
1000
NOSEL
1070
     0
1002
}
1002
{
1000
BEHIND
1070
     0
1002
}
1002
{
1000
OTHER
1070
     0
1002
}
1002
{
1000
REACTOR
1002
}
1001
GENIUS_GENCEN_19
1002
{
1040
3.0
1002
}
  0
HATCH
  5
1813
330
1815
100
AcDbEntity
  8
AM_8
100
AcDbHatch
 10
0.0
 20
0.0
 30
0.0
210
0.0
220
0.0
230
1.0
  2
_U
 70
     0
 71
     0
 91
        1
 92
        1
 93
       12
 72
     1
 10
0.0000000000001137
 20
-2.518127387796198
 11
0.0000000000001137
 21
0.0000000000001137
 72
     1
 10
0.0000000000001137
 20
0.0
 11
-2.700000000000159
 21
0.0
 72
     1
 10
-2.700000000000159
 20
0.0
 11
-2.700000000000159
 21
2.699999999999818
 72
     1
 10
-2.700000000000159
 20
2.699999999999818
 11
-5.300000000000068
 21
2.699999999999818
 72
     1
 10
-5.300000000000068
 20
2.699999999999818
 11
-5.300000000000068
 21
5.349999999999909
 72
     1
 10
-5.300000000000068
 20
5.349999999999909
 11
-6.853872327135178
 21
5.349999999999909
 72
     2
 10
0.0
 20
0.0
 40
8.694714824344053
 50
142.0250911485052
 51
143.6186374054092
 73
     1
 72
     1
 10
-6.999999999999886
 20
5.157331274668081
 11
-6.999999999999658
 21
-2.018127387796425
 72
     1
 10
-6.999999999999658
 20
-2.018127387796425
 11
-4.999999999999886
 21
-4.018127387796198
 72
     1
 10
-4.999999999999886
 20
-4.018127387796198
 11
-2.499999999999886
 21
-4.018127387796198
 72
     1
 10
-2.499999999999886
 20
-4.018127387796198
 11
-2.499999999999886
 21
-2.518127387796198
 72
     1
 10
-2.499999999999886
 20
-2.518127387796198
 11
0.0000000000001137
 21
-2.518127387796198
 97
        0
 75
     0
 76
     0
 52
135.0
 41
2.82
 77
     0
 78
     1
 53
135.0
 43
-50.05419137267523
 44
-317.1502972556428
 45
-1.994041122946064
 46
-1.994041122946064
 79
     0
 98
        1
 10
-50.05419137267523
 20
-317.1502972556428
1001
GENIUS_GENHATCH_13
1002
{
1000
DATA
1040
45.0
1042
2.5
1000
_U
1070
     0
1011
-3.643795715534736
1021
-0.9239229293436892
1031
0.0
1002
}
1002
{
1000
UCS
1010
0.0
1020
0.0
1030
0.0
1010
1.0
1020
0.0
1030
0.0
1010
0.0
1020
1.0
1030
0.0
1002
}
1001
GENIUS_GENOBJ-N-HTC_13
1002
{
1000
OWNER
1000
GEN
1002
}
1001
ACAD
1010
0.0
1020
0.0
1030
0.0
1001
GENIUS_GENODEF_13
1002
{
1000
HIER
1070
     0
1002
}
1002
{
1000
MANEDIT
1070
     0
1002
}
1002
{
1000
NOSEL
1070
     0
1002
}
1002
{
1000
BEHIND
1070
     0
1002
}
1002
{
1000
OTHER
1070
     0
1002
}
1002
{
1000
REACTOR
1002
}
  0
HATCH
  5
1814
330
1815
100
AcDbEntity
  8
AM_8
100
AcDbHatch
 10
0.0
 20
0.0
 30
0.0
210
0.0
220
0.0
230
1.0
  2
ANSI37
 70
     0
 71
     0
 91
        1
 92
        1
 93
        5
 72
     2
 10
2.585476185783193
 20
1.22041100263516
 40
0.4999999999999828
 50
324.2197599263035
 51
464.743562836473
 73
     1
 72
     2
 10
5.386033953477721
 20
-15.81869226564322
 40
17.76555572144918
 50
99.48574978374201
 51
117.0747353768087
 73
     1
 72
     1
 10
-2.700000000000272
 20
-0.0000000000001137
 11
-0.0000000000001137
 21
-0.0000000000001137
 72
     1
 10
-0.0000000000001137
 20
-0.0000000000001137
 11
-0.0000000000001137
 21
-2.650000000000204
 72
     2
 10
-26.64443425796168
 20
22.66281388166806
 40
36.75138668859739
 50
316.4681210348244
 51
323.7436350994375
 73
     1
 97
        0
 75
     0
 76
     1
 52
0.0
 41
0.5
 77
     0
 78
     2
 53
45.0
 43
-96.92160821468304
 44
-327.3077953635758
 45
-1.122532015133643
 46
1.122532015133644
 79
     0
 53
135.0
 43
-96.92160821468304
 44
-327.3077953635758
 45
-1.122532015133644
 46
-1.122532015133643
 79
     0
 98
        2
 10
1.000400669414489
 20
-141.8933809902752
 10
1.335284359321235
 20
0.0617962978861897
1001
ACAD
1010
0.0
1020
0.0
1030
0.0
  0
ARC
  5
1808
330
1815
100
AcDbEntity
  8
0
100
AcDbCircle
 10
2.585476185783136
 20
1.22041100263516
 30
0.0
 40
0.5
100
AcDbArc
 50
323.2543764540614
 51
104.74356283647
1001
GENIUS_GENOBJ-N-FIL_13
1002
{
1000
OWNER
1000
GEN
1002
}
1001
GENIUS_GENODEF_13
1002
{
1000
HIER
1070
     0
1002
}
1002
{
1000
MANEDIT
1070
     0
1002
}
1002
{
1000
NOSEL
1070
     0
1002
}
1002
{
1000
BEHIND
1070
     0
1002
}
1002
{
1000
OTHER
1070
     0
1002
}
1002
{
1000
REACTOR
1002
}
  0
ARC
  5
1809
330
1815
100
AcDbEntity
  8
0
100
AcDbCircle
 10
5.386033953478374
 20
-15.81869226564583
 30
0.0
 40
17.76555572145176
100
AcDbArc
 50
99.48574978374171
 51
117.0747353768057
  0
ARC
  5
180A
330
1815
100
AcDbEntity
  8
0
100
AcDbCircle
 10
-26.64443425795372
 20
22.66281388166124
 30
0.0
 40
36.75138668858696
100
AcDbArc
 50
316.4681210348253
 51
323.7305012813469
  0
ENDBLK
  5
1817
330
1815
100
AcDbEntity
  8
0
100
AcDbBlockEnd
  0
BLOCK
  5
1986
330
1982
100
AcDbEntity
  8
0
100
AcDbBlockBegin
  2
*S29
 70
     1
 10
0.0
 20
0.0
 30
0.0
  3
*S29
  1

  0
MTEXT
  5
1983
330
1982
100
AcDbEntity
  8
AM_4
 62
     7
100
AcDbMText
 10
518.0555707393059
 20
794.7432791569022
 30
0.0
 40
5.0
 41
0.0
 71
     5
 72
     5
  1
Z 4:1
  7
ACDINTS
 73
     1
 44
1.0
1001
ACAD
1000
MTEXTBEGIN
1070
    73
1070
     1
1070
    44
1040
1.0
1070
    74
1070
     0
1000
MTEXTEND
  0
MTEXT
  5
1984
330
1982
100
AcDbEntity
  8
AM_4
 62
     7
100
AcDbMText
 10
150.2120823044088
 20
761.1283567581851
 30
0.0
 40
5.0
 41
0.0
 71
     5
 72
     5
  1
Z
  7
ACDINTS
 73
     1
 44
1.0
1001
ACAD
1000
MTEXTBEGIN
1070
    73
1070
     1
1070
    44
1040
1.0
1070
    74
1070
     0
1000
MTEXTEND
  0
CIRCLE
  5
1985
330
1982
100
AcDbEntity
  8
AM_4
  6
Continuous
100
AcDbCircle
 10
165.9520691127713
 20
740.9486617077392
 30
0.0
 40
16.23716690851045
  0
ENDBLK
  5
1987
330
1982
100
AcDbEntity
  8
0
100
AcDbBlockEnd
  0
BLOCK
  5
198E
330
198A
100
AcDbEntity
  8
0
100
AcDbBlockBegin
  2
*S30
 70
     1
 10
0.0
 20
0.0
 30
0.0
  3
*S30
  1

  0
MTEXT
  5
198B
330
198A
100
AcDbEntity
  8
AM_4
 62
     7
100
AcDbMText
 10
518.0555707393059
 20
794.7432791569022
 30
0.0
 40
5.0
 41
0.0
 71
     5
 72
     5
  1
Z 4:1
  7
ACDINTS
 73
     1
 44
1.0
1001
ACAD
1000
MTEXTBEGIN
1070
    73
1070
     1
1070
    44
1040
1.0
1070
    74
1070
     0
1000
MTEXTEND
  0
MTEXT
  5
198C
330
198A
100
AcDbEntity
  8
AM_4
 62
     7
100
AcDbMText
 10
150.2120823044088
 20
761.1283567581851
 30
0.0
 40
5.0
 41
0.0
 71
     5
 72
     5
  1
Z
  7
ACDINTS
 73
     1
 44
1.0
1001
ACAD
1000
MTEXTBEGIN
1070
    73
1070
     1
1070
    44
1040
1.0
1070
    74
1070
     0
1000
MTEXTEND
  0
CIRCLE
  5
198D
330
198A
100
AcDbEntity
  8
AM_4
  6
Continuous
100
AcDbCircle
 10
165.9520691127713
 20
740.9486617077392
 30
0.0
 40
16.23716690851045
  0
ENDBLK
  5
198F
330
198A
100
AcDbEntity
  8
0
100
AcDbBlockEnd
  0
BLOCK
  5
1995
330
1991
100
AcDbEntity
  8
0
100
AcDbBlockBegin
  2
*S31
 70
     1
 10
0.0
 20
0.0
 30
0.0
  3
*S31
  1

  0
MTEXT
  5
1992
330
1991
100
AcDbEntity
  8
AM_4
 62
     7
100
AcDbMText
 10
503.6833049454994
 20
902.6218087145583
 30
0.0
 40
5.0
 41
0.0
 71
     5
 72
     5
  1
Y 4:1
  7
ACDINTS
 73
     1
 44
1.0
1001
ACAD
1000
MTEXTBEGIN
1070
    73
1070
     1
1070
    44
1040
1.0
1070
    74
1070
     0
1000
MTEXTEND
  0
MTEXT
  5
1993
330
1991
100
AcDbEntity
  8
AM_4
 62
     7
100
AcDbMText
 10
168.4520691127712
 20
889.1612695205463
 30
0.0
 40
5.0
 41
0.0
 71
     5
 72
     5
  1
Y
  7
ACDINTS
 73
     1
 44
1.0
1001
ACAD
1000
MTEXTBEGIN
1070
    73
1070
     1
1070
    44
1040
1.0
1070
    74
1070
     0
1000
MTEXTEND
  0
CIRCLE
  5
1994
330
1991
100
AcDbEntity
  8
AM_4
  6
Continuous
100
AcDbCircle
 10
168.4520691127712
 20
875.4665546962023
 30
0.0
 40
8.694714824344053
  0
ENDBLK
  5
1996
330
1991
100
AcDbEntity
  8
0
100
AcDbBlockEnd
  0
BLOCK
  5
199C
330
1998
100
AcDbEntity
  8
0
100
AcDbBlockBegin
  2
*S32
 70
     1
 10
0.0
 20
0.0
 30
0.0
  3
*S32
  1

  0
MTEXT
  5
1999
330
1998
100
AcDbEntity
  8
AM_4
 62
     7
100
AcDbMText
 10
503.6833049454994
 20
902.6218087145583
 30
0.0
 40
5.0
 41
0.0
 71
     5
 72
     5
  1
Y 4:1
  7
ACDINTS
 73
     1
 44
1.0
1001
ACAD
1000
MTEXTBEGIN
1070
    73
1070
     1
1070
    44
1040
1.0
1070
    74
1070
     0
1000
MTEXTEND
  0
MTEXT
  5
199A
330
1998
100
AcDbEntity
  8
AM_4
 62
     7
100
AcDbMText
 10
168.4520691127712
 20
889.1612695205463
 30
0.0
 40
5.0
 41
0.0
 71
     5
 72
     5
  1
Y
  7
ACDINTS
 73
     1
 44
1.0
1001
ACAD
1000
MTEXTBEGIN
1070
    73
1070
     1
1070
    44
1040
1.0
1070
    74
1070
     0
1000
MTEXTEND
  0
CIRCLE
  5
199B
330
1998
100
AcDbEntity
  8
AM_4
  6
Continuous
100
AcDbCircle
 10
168.4520691127712
 20
875.4665546962023
 30
0.0
 40
8.694714824344053
  0
ENDBLK
  5
199D
330
1998
100
AcDbEntity
  8
0
100
AcDbBlockEnd
  0
ENDSEC
  0
SECTION
  2
ENTITIES
  0
POINT
  5
704
330
1F
100
AcDbEntity
  8
0
 60
     1
100
AcDbPoint
 10
-0.0000039170718082
 20
-0.0000004361595529
 30
0.0
1001
GENIUS_GENOBJ-N-FIL_13
1002
{
1000
OWNER
1000
GEN
1002
}
1001
GENIUS_GENODEF_13
1002
{
1000
HIER
1070
     1
1002
}
1002
{
1000
MANEDIT
1070
     0
1002
}
1002
{
1000
NOSEL
1070
     0
1002
}
1002
{
1000
BEHIND
1070
     0
1002
}
1002
{
1000
OTHER
1070
     0
1002
}
1002
{
1000
REACTOR
1002
}
1001
GENIUS_GENOLIS_13
1002
{
1000
ENT
1005
701
1002
}
1001
GENIUS_GENOENT_13
1002
{
1000
MYREF
1005
704
1002
}
1002
{
1000
GRP
1005
0
1002
}
  0
POINT
  5
7C7
330
1F
100
AcDbEntity
  8
0
 60
     1
100
AcDbPoint
 10
0.0
 20
0.0
 30
0.0
1001
GENIUS_GENODEF_13
1002
{
1000
HIER
1070
     1
1002
}
1002
{
1000
MANEDIT
1070
     0
1002
}
1002
{
1000
NOSEL
1070
     0
1002
}
1002
{
1000
BEHIND
1070
     0
1002
}
1002
{
1000
OTHER
1070
     0
1002
}
1002
{
1000
REACTOR
1002
}
1001
GENIUS_GENOLIS_13
1002
{
1000
ENT
1005
7C4
1002
}
1001
GENIUS_GENOBJ-N-FIL_13
1002
{
1000
OWNER
1000
GEN
1002
}
1001
GENIUS_GENOENT_13
1002
{
1000
MYREF
1005
7C7
1002
}
1002
{
1000
GRP
1005
0
1002
}
  0
POINT
  5
96B
330
1F
100
AcDbEntity
  8
0
 60
     1
100
AcDbPoint
 10
0.0
 20
0.0
 30
0.0
1001
GENIUS_GENOENT_13
1002
{
1000
MYREF
1005
96B
1002
}
1002
{
1000
GRP
1005
0
1002
}
1001
GENIUS_GENOLIS_13
1002
{
1000
ENT
1005
968
1002
}
1001
GENIUS_GENODEF_13
1002
{
1000
HIER
1070
     1
1002
}
1002
{
1000
MANEDIT
1070
     0
1002
}
1002
{
1000
NOSEL
1070
     0
1002
}
1002
{
1000
BEHIND
1070
     0
1002
}
1002
{
1000
OTHER
1070
     0
1002
}
1002
{
1000
REACTOR
1002
}
1001
GENIUS_GENOBJ-N-FIL_13
1002
{
1000
OWNER
1000
GEN
1002
}
  0
ARC
  5
1352
330
1F
100
AcDbEntity
  8
Viditelná (ISO)
100
AcDbCircle
 10
304.6265521067298
 20
804.9486617077391
 30
0.0
 40
57.49999999999996
100
AcDbArc
 50
273.0318914307407
 51
297.0159333312821
  0
ARC
  5
1353
330
1F
100
AcDbEntity
  8
Viditelná (ISO)
100
AcDbCircle
 10
304.6265521067298
 20
804.9486617077391
 30
0.0
 40
57.49999999999992
100
AcDbArc
 50
302.5791814756059
 51
326.968108569255
  0
ARC
  5
1354
330
1F
100
AcDbEntity
  8
Viditelná (ISO)
100
AcDbCircle
 10
304.6265521067298
 20
804.9486617077391
 30
0.0
 40
57.50000000000001
100
AcDbArc
 50
337.3724583808466
 51
22.62754161915343
  0
ARC
  5
1355
330
1F
100
AcDbEntity
  8
Viditelná (ISO)
100
AcDbCircle
 10
304.6265521067298
 20
804.9486617077391
 30
0.0
 40
57.5
100
AcDbArc
 50
33.03189143074493
 51
57.01593333127464
  0
ARC
  5
1356
330
1F
100
AcDbEntity
  8
Viditelná (ISO)
100
AcDbCircle
 10
304.6265521067295
 20
804.9486617077391
 30
0.0
 40
57.50000000000007
100
AcDbArc
 50
62.57918147560722
 51
86.96810856925932
  0
ARC
  5
1357
330
1F
100
AcDbEntity
  8
Viditelná (ISO)
100
AcDbCircle
 10
304.6265521067255
 20
740.9486617077392
 30
0.0
 40
4.499999999999993
100
AcDbArc
 50
270.0000000000521
 51
89.99999999993486
  0
ARC
  5
1358
330
1F
100
AcDbEntity
  8
Viditelná (ISO)
100
AcDbCircle
 10
304.6263177073922
 20
868.948427308406
 30
0.0
 40
4.500234405437675
100
AcDbArc
 50
269.1729727032899
 51
89.99701569039299
  0
CIRCLE
  5
1359
330
1F
100
AcDbEntity
  8
Viditelná (ISO)
100
AcDbCircle
 10
360.0521779489294
 20
772.9486617077392
 30
0.0
 40
4.499999999999996
  0
ARC
  5
135A
330
1F
100
AcDbEntity
  8
Viditelná (ISO)
100
AcDbCircle
 10
304.6265521067227
 20
804.9486617077443
 30
0.0
 40
57.50000000000564
100
AcDbArc
 50
297.0159333312821
 51
302.5791814756059
  0
ARC
  5
135B
330
1F
100
AcDbEntity
  8
Viditelná (ISO)
100
AcDbCircle
 10
304.6265521067243
 20
804.9486617077397
 30
0.0
 40
57.50000000000134
100
AcDbArc
 50
326.968108569255
 51
337.3724583808466
  0
ARC
  5
135C
330
1F
100
AcDbEntity
  8
Viditelná (ISO)
100
AcDbCircle
 10
304.6265521067243
 20
804.9486617077382
 30
0.0
 40
57.50000000000134
100
AcDbArc
 50
22.62754161915343
 51
33.03189143074493
  0
ARC
  5
135D
330
1F
100
AcDbEntity
  8
Viditelná (ISO)
100
AcDbCircle
 10
304.6265521067241
 20
804.948661707737
 30
0.0
 40
57.50000000000273
100
AcDbArc
 50
57.01593333127464
 51
62.57918147560722
  0
ARC
  5
135E
330
1F
100
AcDbEntity
  8
Viditelná (ISO)
100
AcDbCircle
 10
304.6265521067257
 20
804.9486617077411
 30
0.0
 40
57.50000000000202
100
AcDbArc
 50
270.0
 51
273.0318914307407
  0
ARC
  5
135F
330
1F
100
AcDbEntity
  8
Viditelná (ISO)
100
AcDbCircle
 10
304.6265521067257
 20
804.9486617077382
 30
0.0
 40
57.50000000000089
100
AcDbArc
 50
86.96810856925932
 51
90.0
  0
LINE
  5
1360
330
1F
100
AcDbEntity
  8
SICHTBAR
100
AcDbLine
 10
165.9520691127713
 20
864.9484273084061
 30
0.0
 11
175.4520691127713
 21
864.9484273084061
 31
0.0
  0
HATCH
  5
1361
330
1F
100
AcDbEntity
  8
AM_CL
100
AcDbHatch
 10
0.0
 20
0.0
 30
0.0
210
0.0
220
0.0
230
1.0
  2
ANSI31
 70
     0
 71
     0
 91
        1
 92
        7
 72
     1
 73
     1
 93
       36
 10
165.4657743277507
 20
755.6349128653517
 42
-0.3798766742610702
 10
162.24443203912
 20
755.8022089066514
 42
0.3793916018337843
 10
161.4520691127713
 20
755.8440329169759
 42
0.0
 10
161.4520691127713
 20
753.2230358655344
 42
0.0
 10
162.9520691127718
 20
752.623035865535
 42
0.0
 10
162.9520691127713
 20
753.2230358655354
 42
0.0
 10
164.4520691127713
 20
752.623035865535
 42
0.0
 10
164.4520691127713
 20
753.2230358655344
 42
0.0
 10
165.9520691127726
 20
752.623035865535
 42
0.0
 10
167.5849862379222
 20
752.623035865535
 42
0.0
 10
167.5849862379222
 20
753.2230358655354
 42
0.0
 10
168.0520691127712
 20
753.0174733192536
 42
0.0
 10
168.0520691127712
 20
752.623035865535
 42
0.0
 10
168.8117252920783
 20
752.623035865534
 42
0.0
 10
169.5525086408069
 20
749.5230358655355
 42
0.0
 10
169.5516301059946
 20
749.523035865536
 42
0.0
 10
168.8117252920774
 20
746.4230358655352
 42
0.0
 10
168.0520691127712
 20
746.4230358655352
 42
0.0
 10
168.0520691127712
 20
746.028598411817
 42
0.0
 10
167.5849862379222
 20
745.8230358655352
 42
0.0
 10
167.5849862379222
 20
746.4230358655356
 42
0.0
 10
165.9520691127726
 20
746.4230358655352
 42
0.0
 10
164.4520691127717
 20
745.8230358655352
 42
0.0
 10
164.4520691127713
 20
746.4230358655352
 42
0.0
 10
162.9520691127713
 20
745.8230358655348
 42
0.0
 10
162.9520691127718
 20
746.4230358655347
 42
0.0
 10
161.4520691127713
 20
745.8230358655357
 42
0.0
 10
161.4520691127713
 20
745.4486617077398
 42
0.0
 10
161.456804297928
 20
745.443926522583
 42
-0.0523304143507142
 10
162.8987671914978
 20
745.3322649886329
 42
0.1544950329724033
 10
165.1862300100951
 20
745.7393049769787
 42
0.0940222996571786
 10
169.609896959479
 20
745.9596251435075
 42
0.2594468572414608
 10
173.8043530644676
 20
746.9912840648573
 42
0.4073926096728484
 10
175.0225064417886
 20
749.4264293694912
 42
0.1102959662627192
 10
173.6195961741431
 20
751.4449858287605
 42
0.0254429737625929
 10
171.0192342107552
 20
754.338368545277
 42
0.4852456614911282
 97
        0
 75
     0
 76
     1
 52
90.0
 41
0.25
 77
     0
 78
     1
 53
135.0
 43
2428.770561976046
 44
-2195.667195212549
 45
-0.5612660075668221
 46
-0.5612660075668221
 79
     0
 47
0.0356824882035898
 98
        1
 10
166.7777888724717
 20
755.0291137597353
1001
ACAD
1010
0.0
1020
0.0
1030
0.0
  0
LINE
  5
1362
330
1F
100
AcDbEntity
  8
SICHTBAR
100
AcDbLine
 10
175.4520691127713
 20
743.8165546562021
 30
0.0
 11
175.4520691127713
 21
746.8165546962021
 31
0.0
  0
LINE
  5
1363
330
1F
100
AcDbEntity
  8
SICHTBAR
100
AcDbLine
 10
175.4520691127713
 20
864.8165547362022
 30
0.0
 11
175.4520691127713
 21
861.8165546962021
 31
0.0
  0
LINE
  5
1364
330
1F
100
AcDbEntity
  8
SICHTBAR
100
AcDbLine
 10
161.4520691127713
 20
727.8165546962021
 30
0.0
 11
161.4520691127713
 21
801.8165546962022
 31
0.0
  0
LINE
  5
1365
330
1F
100
AcDbEntity
  8
SICHTBAR
100
AcDbLine
 10
161.4520691127715
 20
880.8165546962021
 30
0.0
 11
161.4520691127715
 21
727.8165546962021
 31
0.0
  0
LINE
  5
1366
330
1F
100
AcDbEntity
  8
SICHTBAR
100
AcDbLine
 10
161.4520691127713
 20
746.8165546962021
 30
0.0
 11
161.4520691127713
 21
727.8165546962021
 31
0.0
  0
LINE
  5
1367
330
1F
100
AcDbEntity
  8
SICHTBAR
100
AcDbLine
 10
161.4520691127713
 20
744.8909288539979
 30
0.0
 11
161.4520691127713
 21
752.8909288539979
 31
0.0
  0
HATCH
  5
1368
330
1F
100
AcDbEntity
  8
AM_CL
100
AcDbHatch
 10
0.0
 20
0.0
 30
0.0
210
0.0
220
0.0
230
1.0
  2
ANSI31
 70
     0
 71
     0
 91
        4
 92
        7
 72
     0
 73
     1
 93
       11
 10
164.4520691127717
 20
753.2230358655349
 10
164.4520691127717
 20
752.6230358655346
 10
162.9520691127718
 20
753.2230358655344
 10
162.9520691127708
 20
752.623035865535
 10
161.4520691127713
 20
753.2230358655349
 10
161.4520691127708
 20
752.0230358655355
 10
168.0520691127712
 20
752.0230358655351
 10
168.0520691127707
 20
753.0174733192541
 10
167.5849862379222
 20
753.2230358655354
 10
167.5849862379222
 20
752.6230358655346
 10
165.9520691127726
 20
752.6230358655346
 97
        0
 92
        7
 72
     0
 73
     1
 93
        4
 10
161.4520691127708
 20
752.0230358655355
 10
161.8519242642341
 20
751.5230358655351
 10
168.0520691127712
 20
751.5230358655347
 10
168.0520691127717
 20
752.0230358655351
 97
        0
 92
        7
 72
     0
 73
     1
 93
       11
 10
161.4520691127708
 20
747.0228564474203
 10
161.4520691127708
 20
745.8230358655357
 10
162.9520691127713
 20
746.4230358655347
 10
162.9520691127713
 20
745.8230358655348
 10
164.4520691127713
 20
746.4230358655347
 10
164.4520691127708
 20
745.8230358655348
 10
165.9520691127722
 20
746.4230358655352
 10
167.5849862379222
 20
746.4230358655352
 10
167.5849862379222
 20
745.8230358655357
 10
168.0520691127712
 20
746.0285984118161
 10
168.0520691127712
 20
747.0258170883692
 97
        0
 92
        7
 72
     0
 73
     1
 93
        5
 10
161.851924264235
 20
747.5230358655351
 10
161.4520691127713
 20
747.0230358655347
 10
161.4520691127713
 20
747.0228564474203
 10
168.0520691127712
 20
747.0258170883696
 10
168.0520691127712
 20
747.525817138676
 97
        0
 75
     0
 76
     1
 52
180.0
 41
0.25
 77
     0
 78
     1
 53
225.0
 43
2428.770561976046
 44
-2195.667195212549
 45
0.5612660075668221
 46
-0.5612660075668221
 79
     0
 47
0.0356824882035898
 98
        4
 10
164.9936596784713
 20
752.6730283594454
 10
164.4227444764432
 20
751.8162793943186
 10
165.2791227616748
 20
746.6757387923019
 10
164.7795692188051
 20
747.2469016483021
1001
ACAD
1010
0.0
1020
0.0
1030
0.0
  0
LINE
  5
1369
330
1F
100
AcDbEntity
  8
SICHTBAR
100
AcDbLine
 10
161.4520691127713
 20
752.8909288539979
 30
0.0
 11
161.4520691127713
 21
749.0909288539982
 31
0.0
  0
LINE
  5
136A
330
1F
100
AcDbEntity
  8
SICHTBAR
100
AcDbLine
 10
161.4520691127713
 20
748.6909288539981
 30
0.0
 11
161.4520691127713
 21
744.8909288539979
 31
0.0
  0
LINE
  5
136B
330
1F
100
AcDbEntity
  8
Viditelná (ISO)
100
AcDbLine
 10
163.1520691127711
 20
727.8165546962021
 30
0.0
 11
163.1520691127711
 21
730.4665546962022
 31
0.0
  0
LINE
  5
136C
330
1F
100
AcDbEntity
  8
Viditelná (ISO)
100
AcDbLine
 10
163.1520691127711
 20
730.4665546962022
 30
0.0
 11
165.752069112771
 21
730.4665546962022
 31
0.0
  0
LINE
  5
136D
330
1F
100
AcDbEntity
  8
Viditelná (ISO)
100
AcDbLine
 10
165.752069112771
 20
730.4665546962022
 30
0.0
 11
165.752069112771
 21
733.166554696202
 31
0.0
  0
LINE
  5
136E
330
1F
100
AcDbEntity
  8
Viditelná (ISO)
100
AcDbLine
 10
165.752069112771
 20
733.166554696202
 30
0.0
 11
168.4520691127713
 21
733.166554696202
 31
0.0
  0
LINE
  5
136F
330
1F
100
AcDbEntity
  8
Viditelná (ISO)
100
AcDbLine
 10
168.4520691127713
 20
733.166554696202
 30
0.0
 11
168.4520691127713
 21
735.8165546962021
 31
0.0
  0
LINE
  5
1370
330
1F
100
AcDbEntity
  8
Viditelná (ISO)
100
AcDbLine
 10
168.4520691127713
 20
735.8165546962021
 30
0.0
 11
171.1520691127711
 21
735.8165546962021
 31
0.0
  0
LINE
  5
1371
330
1F
100
AcDbEntity
  8
Viditelná (ISO)
100
AcDbLine
 10
171.1520691127711
 20
735.8165546962021
 30
0.0
 11
171.1520691127711
 21
736.3165546962021
 31
0.0
  0
LINE
  5
1372
330
1F
100
AcDbEntity
  8
Viditelná (ISO)
100
AcDbLine
 10
171.1520691127711
 20
736.9486617077392
 30
0.0
 11
165.9520691127713
 21
736.9486617077392
 31
0.0
  0
LINE
  5
1373
330
1F
100
AcDbEntity
  8
Viditelná (ISO)
100
AcDbLine
 10
165.9520691127713
 20
736.9486617077392
 30
0.0
 11
165.9520691127713
 21
738.4486617077392
 31
0.0
  0
LINE
  5
1374
330
1F
100
AcDbEntity
  8
Viditelná (ISO)
100
AcDbLine
 10
165.9520691127713
 20
738.4486617077392
 30
0.0
 11
163.4520691127713
 21
738.4486617077392
 31
0.0
  0
LINE
  5
1375
330
1F
100
AcDbEntity
  8
Viditelná (ISO)
100
AcDbLine
 10
163.4520691127713
 20
738.4486617077392
 30
0.0
 11
161.4520691127713
 21
736.4486617077392
 31
0.0
  0
LINE
  5
1376
330
1F
100
AcDbEntity
  8
Viditelná (ISO)
100
AcDbLine
 10
161.4520691127713
 20
735.8165546962021
 30
0.0
 11
161.4520691127713
 21
727.8165546962021
 31
0.0
  0
LINE
  5
1377
102
{ACAD_REACTORS
330
1426
102
}
330
1F
100
AcDbEntity
  8
Viditelná (ISO)
100
AcDbLine
 10
161.4520691127713
 20
727.8165546962021
 30
0.0
 11
163.1520691127711
 21
727.8165546962021
 31
0.0
  0
LINE
  5
1378
330
1F
100
AcDbEntity
  8
Viditelná (ISO)
100
AcDbLine
 10
161.4520691127713
 20
745.4486617077392
 30
0.0
 11
163.4520691127713
 21
743.4486617077392
 31
0.0
  0
LINE
  5
1379
330
1F
100
AcDbEntity
  8
Viditelná (ISO)
100
AcDbLine
 10
163.4520691127713
 20
743.4486617077392
 30
0.0
 11
165.9520691127713
 21
743.4486617077392
 31
0.0
  0
LINE
  5
137A
330
1F
100
AcDbEntity
  8
Viditelná (ISO)
100
AcDbLine
 10
165.9520691127713
 20
743.4486617077392
 30
0.0
 11
165.9520691127713
 21
744.9486617077392
 31
0.0
  0
LINE
  5
137B
330
1F
100
AcDbEntity
  8
Viditelná (ISO)
100
AcDbLine
 10
165.9520691127713
 20
744.9486617077392
 30
0.0
 11
175.4520691127713
 21
744.9486617077392
 31
0.0
  0
LINE
  5
137C
330
1F
100
AcDbEntity
  8
Viditelná (ISO)
100
AcDbLine
 10
175.4520691127713
 20
744.3165546962021
 30
0.0
 11
175.4520691127713
 21
746.8165546962021
 31
0.0
  0
LINE
  5
137D
330
1F
100
AcDbEntity
  8
Viditelná (ISO)
100
AcDbLine
 10
161.4520691127713
 20
746.8165546962021
 30
0.0
 11
161.4520691127713
 21
744.8165546962021
 31
0.0
  0
LINE
  5
137E
330
1F
100
AcDbEntity
  8
Viditelná (ISO)
100
AcDbLine
 10
175.4520691127713
 20
864.8165547362022
 30
0.0
 11
175.4520691127722
 21
740.8165546962021
 31
0.0
  0
LINE
  5
137F
330
1F
100
AcDbEntity
  8
Viditelná (ISO)
100
AcDbLine
 10
171.1520691127723
 20
738.3165546962021
 30
0.0
 11
171.1520691127711
 21
736.3165546962021
 31
0.0
  0
LINE
  5
1380
330
1F
100
AcDbEntity
  8
Viditelná (ISO)
100
AcDbLine
 10
161.4520691127713
 20
735.8165546962021
 30
0.0
 11
161.4520691127713
 21
744.8165546962021
 31
0.0
  0
LINE
  5
1381
330
1F
100
AcDbEntity
  8
Viditelná (ISO)
100
AcDbLine
 10
163.1520691127711
 20
880.8165546962021
 30
0.0
 11
163.1520691127711
 21
878.166554696202
 31
0.0
  0
LINE
  5
1382
330
1F
100
AcDbEntity
  8
Viditelná (ISO)
100
AcDbLine
 10
163.1520691127711
 20
878.166554696202
 30
0.0
 11
165.752069112771
 21
878.166554696202
 31
0.0
  0
LINE
  5
1383
330
1F
100
AcDbEntity
  8
Viditelná (ISO)
100
AcDbLine
 10
165.752069112771
 20
878.166554696202
 30
0.0
 11
165.752069112771
 21
875.4665546962023
 31
0.0
  0
LINE
  5
1384
330
1F
100
AcDbEntity
  8
Viditelná (ISO)
100
AcDbLine
 10
165.752069112771
 20
875.4665546962023
 30
0.0
 11
168.4520691127713
 21
875.4665546962023
 31
0.0
  0
LINE
  5
1385
330
1F
100
AcDbEntity
  8
Viditelná (ISO)
100
AcDbLine
 10
168.4520691127713
 20
875.4665546962023
 30
0.0
 11
168.4520691127713
 21
872.8165546962021
 31
0.0
  0
LINE
  5
1386
330
1F
100
AcDbEntity
  8
Viditelná (ISO)
100
AcDbLine
 10
168.4520691127713
 20
872.8165546962021
 30
0.0
 11
171.1520691127711
 21
872.8165546962021
 31
0.0
  0
LINE
  5
1387
330
1F
100
AcDbEntity
  8
Viditelná (ISO)
100
AcDbLine
 10
171.1520691127711
 20
872.8165546962021
 30
0.0
 11
171.1520691127711
 21
872.3165546962022
 31
0.0
  0
LINE
  5
1388
330
1F
100
AcDbEntity
  8
Viditelná (ISO)
100
AcDbLine
 10
168.4520691127713
 20
872.9484273084061
 30
0.0
 11
165.9520691127713
 21
872.9484273084061
 31
0.0
  0
LINE
  5
1389
330
1F
100
AcDbEntity
  8
Viditelná (ISO)
100
AcDbLine
 10
165.9520691127713
 20
872.9484273084061
 30
0.0
 11
165.9520691127713
 21
871.448427308406
 31
0.0
  0
LINE
  5
138A
330
1F
100
AcDbEntity
  8
Viditelná (ISO)
100
AcDbLine
 10
165.9520691127713
 20
871.448427308406
 30
0.0
 11
163.4520691127713
 21
871.448427308406
 31
0.0
  0
LINE
  5
138B
330
1F
100
AcDbEntity
  8
Viditelná (ISO)
100
AcDbLine
 10
163.4520691127713
 20
871.448427308406
 30
0.0
 11
161.4520691127713
 21
873.448427308406
 31
0.0
  0
LINE
  5
138C
330
1F
100
AcDbEntity
  8
Viditelná (ISO)
100
AcDbLine
 10
161.4520691127713
 20
880.8165546962021
 30
0.0
 11
163.1520691127711
 21
880.8165546962021
 31
0.0
  0
LINE
  5
138D
330
1F
100
AcDbEntity
  8
Viditelná (ISO)
100
AcDbLine
 10
161.4520691127713
 20
864.448427308406
 30
0.0
 11
163.4520691127713
 21
866.448427308406
 31
0.0
  0
LINE
  5
138E
330
1F
100
AcDbEntity
  8
Viditelná (ISO)
100
AcDbLine
 10
163.4520691127713
 20
866.448427308406
 30
0.0
 11
165.9520691127713
 21
866.448427308406
 31
0.0
  0
LINE
  5
138F
330
1F
100
AcDbEntity
  8
Viditelná (ISO)
100
AcDbLine
 10
165.9520691127713
 20
866.448427308406
 30
0.0
 11
165.9520691127713
 21
864.9484273084061
 31
0.0
  0
LINE
  5
1390
330
1F
100
AcDbEntity
  8
Viditelná (ISO)
100
AcDbLine
 10
175.4520691127713
 20
867.8165546962022
 30
0.0
 11
175.4520691127713
 21
861.8165546962021
 31
0.0
  0
LINE
  5
1391
330
1F
100
AcDbEntity
  8
Viditelná (ISO)
100
AcDbLine
 10
161.4520691127713
 20
872.8165546962021
 30
0.0
 11
161.4520691127713
 21
863.8165546962021
 31
0.0
  0
LINE
  5
1392
330
1F
100
AcDbEntity
  8
Viditelná (ISO)
100
AcDbLine
 10
165.9520691127713
 20
737.8165546962021
 30
0.0
 11
165.9520691127713
 21
738.3165546962021
 31
0.0
  0
LINE
  5
1393
330
1F
100
AcDbEntity
  8
Viditelná (ISO)
100
AcDbLine
 10
165.9520691127713
 20
743.4486617077392
 30
0.0
 11
165.9520691127713
 21
738.4486617077392
 31
0.0
  0
LINE
  5
1394
330
1F
100
AcDbEntity
  8
Viditelná (ISO)
100
AcDbLine
 10
175.4520691127713
 20
861.8165546962027
 30
0.0
 11
161.4520691127822
 21
861.8165546962048
 31
0.0
  0
LINE
  5
1395
330
1F
100
AcDbEntity
  8
Viditelná (ISO)
100
AcDbLine
 10
165.9520691127713
 20
865.8165546962022
 30
0.0
 11
165.9520691127713
 21
866.3165546962021
 31
0.0
  0
LINE
  5
1396
330
1F
100
AcDbEntity
  8
Viditelná (ISO)
100
AcDbLine
 10
165.9520691127713
 20
871.448427308406
 30
0.0
 11
165.9520691127713
 21
866.948427308406
 31
0.0
  0
LWPOLYLINE
  5
1397
330
1F
100
AcDbEntity
  8
DUENN
100
AcDbPolyline
 90
       11
 70
     0
 43
0.0
 10
161.4520691127713
 20
745.443795682833
 42
-0.0525018134126427
 10
162.8987671914978
 20
745.3322649886329
 42
0.1544950329724033
 10
165.1862300100951
 20
745.7393049769787
 42
0.0940222996571786
 10
169.609896959479
 20
745.9596251435075
 42
0.2594468572414608
 10
173.8043530644676
 20
746.9912840648573
 42
0.4073926096728484
 10
175.0225064417886
 20
749.4264293694912
 42
0.1102959662627192
 10
173.6195961741431
 20
751.4449858287605
 42
0.0254429737625929
 10
171.0192342107552
 20
754.338368545277
 42
0.4852456614911281
 10
165.4657743277507
 20
755.6349128653517
 42
-0.3798766742610704
 10
162.24443203912
 20
755.8022089066514
 42
0.3793916018337844
 10
161.4520691127713
 20
755.8440329169759
 42
0.3793916018337844
  0
LINE
  5
1398
330
1F
100
AcDbEntity
  8
SICHTBAR
100
AcDbLine
 10
162.9520691127713
 20
753.2230358655349
 30
0.0
 11
162.9520691127713
 21
752.623035865535
 31
0.0
  0
LINE
  5
1399
330
1F
100
AcDbEntity
  8
SICHTBAR
100
AcDbLine
 10
162.9520691127713
 20
746.4230358655347
 30
0.0
 11
162.9520691127713
 21
745.8230358655352
 31
0.0
  0
LINE
  5
139A
330
1F
100
AcDbEntity
  8
SICHTBAR
100
AcDbLine
 10
164.4520691127713
 20
753.2230358655349
 30
0.0
 11
164.4520691127713
 21
752.6230358655346
 31
0.0
  0
LINE
  5
139B
330
1F
100
AcDbEntity
  8
SICHTBAR
100
AcDbLine
 10
164.4520691127713
 20
746.4230358655352
 30
0.0
 11
164.4520691127713
 21
745.8230358655352
 31
0.0
  0
LINE
  5
139C
330
1F
100
AcDbEntity
  8
0
100
AcDbLine
 10
161.4520691127713
 20
745.8230358655352
 30
0.0
 11
162.9520691127713
 21
746.4230358655352
 31
0.0
  0
LINE
  5
139D
330
1F
100
AcDbEntity
  8
0
100
AcDbLine
 10
162.9520691127713
 20
745.8230358655352
 30
0.0
 11
164.4520691127713
 21
746.4230358655352
 31
0.0
  0
LINE
  5
139E
330
1F
100
AcDbEntity
  8
0
100
AcDbLine
 10
164.4520691127713
 20
745.8230358655352
 30
0.0
 11
165.9520691127713
 21
746.4230358655352
 31
0.0
  0
LINE
  5
139F
330
1F
100
AcDbEntity
  8
0
100
AcDbLine
 10
161.4520691127713
 20
753.2230358655349
 30
0.0
 11
162.9520691127713
 21
752.623035865535
 31
0.0
  0
LINE
  5
13A0
330
1F
100
AcDbEntity
  8
0
100
AcDbLine
 10
162.9520691127713
 20
753.2230358655349
 30
0.0
 11
164.4520691127713
 21
752.623035865535
 31
0.0
  0
LINE
  5
13A1
330
1F
100
AcDbEntity
  8
0
100
AcDbLine
 10
164.4520691127713
 20
753.2230358655349
 30
0.0
 11
165.9520691127713
 21
752.623035865535
 31
0.0
  0
LINE
  5
13A2
330
1F
100
AcDbEntity
  8
0
100
AcDbLine
 10
165.9520691127713
 20
746.4230358655352
 30
0.0
 11
167.5849862379222
 21
746.4230358655352
 31
0.0
  0
LINE
  5
13A3
330
1F
100
AcDbEntity
  8
0
100
AcDbLine
 10
167.5849862379222
 20
746.4230358655352
 30
0.0
 11
167.5849862379222
 21
745.8230358655352
 31
0.0
  0
LINE
  5
13A4
330
1F
100
AcDbEntity
  8
0
100
AcDbLine
 10
167.5849862379222
 20
745.8230358655352
 30
0.0
 11
168.0520691127712
 21
746.0285984118165
 31
0.0
  0
LINE
  5
13A5
330
1F
100
AcDbEntity
  8
0
100
AcDbLine
 10
168.0520691127712
 20
746.0285984118165
 30
0.0
 11
168.0520691127712
 21
749.0230358655351
 31
0.0
  0
LINE
  5
13A6
330
1F
100
AcDbEntity
  8
0
100
AcDbLine
 10
165.9520691127713
 20
752.623035865535
 30
0.0
 11
167.5849862379222
 21
752.623035865535
 31
0.0
  0
LINE
  5
13A7
330
1F
100
AcDbEntity
  8
0
100
AcDbLine
 10
168.0520691127712
 20
753.0211519573152
 30
0.0
 11
168.0520691127712
 21
749.0230358655351
 31
0.0
  0
LINE
  5
13A8
330
1F
100
AcDbEntity
  8
0
100
AcDbLine
 10
161.4520691127713
 20
746.3909288539975
 30
0.0
 11
161.8519242642341
 21
746.8909288539975
 31
0.0
  0
LINE
  5
13A9
330
1F
100
AcDbEntity
  8
0
100
AcDbLine
 10
161.8519242642341
 20
747.5230358655351
 30
0.0
 11
161.8519242642341
 21
751.5230358655351
 31
0.0
  0
LINE
  5
13AA
330
1F
100
AcDbEntity
  8
0
100
AcDbLine
 10
161.8519242642341
 20
750.8909288539975
 30
0.0
 11
161.4520691127713
 21
751.3909288539974
 31
0.0
  0
LINE
  5
13AB
330
1F
100
AcDbEntity
  8
0
100
AcDbLine
 10
161.8519242642341
 20
747.5230358655351
 30
0.0
 11
168.0520691127712
 21
747.5258171386756
 31
0.0
  0
LINE
  5
13AC
330
1F
100
AcDbEntity
  8
AM_CL
100
AcDbLine
 10
161.4520691127713
 20
747.0228564474203
 30
0.0
 11
168.0522934037298
 21
747.025817188982
 31
0.0
  0
LINE
  5
13AD
330
1F
100
AcDbEntity
  8
0
100
AcDbLine
 10
161.8519242642341
 20
751.5230358655351
 30
0.0
 11
168.0520691127712
 21
751.5230358655351
 31
0.0
  0
LINE
  5
13AE
330
1F
100
AcDbEntity
  8
AM_CL
100
AcDbLine
 10
161.4520691127713
 20
752.0230358655351
 30
0.0
 11
168.0520691127712
 21
752.0230358655351
 31
0.0
  0
LINE
  5
13AF
330
1F
100
AcDbEntity
  8
0
100
AcDbLine
 10
168.0520691127712
 20
746.4230358655352
 30
0.0
 11
168.8117252920778
 21
746.4230358655352
 31
0.0
  0
LINE
  5
13B0
330
1F
100
AcDbEntity
  8
0
100
AcDbLine
 10
168.8117252920778
 20
746.4230358655352
 30
0.0
 11
169.5520691127712
 21
749.5248751845658
 31
0.0
  0
LINE
  5
13B1
330
1F
100
AcDbEntity
  8
0
100
AcDbLine
 10
169.5520691127712
 20
749.5248751845658
 30
0.0
 11
168.8117252920778
 21
752.623035865535
 31
0.0
  0
LINE
  5
13B2
330
1F
100
AcDbEntity
  8
0
100
AcDbLine
 10
168.8117252920778
 20
746.4230358655352
 30
0.0
 11
168.8117252920778
 21
752.623035865535
 31
0.0
  0
LINE
  5
13B3
330
1F
100
AcDbEntity
  8
Viditelná (ISO)
100
AcDbLine
 10
175.4520691127824
 20
747.448661707742
 30
0.0
 11
174.5385919649196
 21
747.4486617077417
 31
0.0
  0
ARC
  5
13B4
330
1F
100
AcDbEntity
  8
Viditelná (ISO)
100
AcDbCircle
 10
304.5613620075569
 20
804.9486617077391
 30
0.0
 40
57.49999999999996
100
AcDbArc
 50
242.984066668718
 51
266.9681085692593
  0
ARC
  5
13B5
330
1F
100
AcDbEntity
  8
Viditelná (ISO)
100
AcDbCircle
 10
304.5613620075569
 20
804.9486617077391
 30
0.0
 40
57.49999999999992
100
AcDbArc
 50
213.0318914307446
 51
237.4208185243941
  0
ARC
  5
13B6
330
1F
100
AcDbEntity
  8
Viditelná (ISO)
100
AcDbCircle
 10
304.5613620075569
 20
804.9486617077391
 30
0.0
 40
57.50000000000001
100
AcDbArc
 50
157.3724583808466
 51
202.6275416191534
  0
ARC
  5
13B7
330
1F
100
AcDbEntity
  8
Viditelná (ISO)
100
AcDbCircle
 10
304.5613620075569
 20
804.9486617077391
 30
0.0
 40
57.5
100
AcDbArc
 50
122.984066668733
 51
146.9681085692551
  0
ARC
  5
13B8
330
1F
100
AcDbEntity
  8
Viditelná (ISO)
100
AcDbCircle
 10
304.5613620075571
 20
804.9486617077391
 30
0.0
 40
57.50000000000007
100
AcDbArc
 50
93.03189143074069
 51
117.4208185243927
  0
ARC
  5
13B9
330
1F
100
AcDbEntity
  8
Viditelná (ISO)
100
AcDbCircle
 10
304.5613620075612
 20
740.9486617077392
 30
0.0
 40
4.499999999999993
100
AcDbArc
 50
90.00000000006512
 51
269.9999999999479
  0
ARC
  5
13BA
330
1F
100
AcDbEntity
  8
Viditelná (ISO)
100
AcDbCircle
 10
304.5613620075612
 20
868.9486617077392
 30
0.0
 40
4.499999999999999
100
AcDbArc
 50
90.00000000005213
 51
269.9999999999479
  0
CIRCLE
  5
13BB
330
1F
100
AcDbEntity
  8
Viditelná (ISO)
100
AcDbCircle
 10
249.135736165357
 20
836.9486617077392
 30
0.0
 40
4.499999999999993
  0
CIRCLE
  5
13BC
330
1F
100
AcDbEntity
  8
Viditelná (ISO)
100
AcDbCircle
 10
249.1357361653572
 20
772.9486617077392
 30
0.0
 40
4.499999999999996
  0
ARC
  5
13BD
330
1F
100
AcDbEntity
  8
Viditelná (ISO)
100
AcDbCircle
 10
304.5613620075639
 20
804.9486617077443
 30
0.0
 40
57.50000000000564
100
AcDbArc
 50
237.4208185243941
 51
242.984066668718
  0
ARC
  5
13BE
330
1F
100
AcDbEntity
  8
Viditelná (ISO)
100
AcDbCircle
 10
304.5613620075623
 20
804.9486617077397
 30
0.0
 40
57.50000000000134
100
AcDbArc
 50
202.6275416191534
 51
213.0318914307446
  0
ARC
  5
13BF
330
1F
100
AcDbEntity
  8
Viditelná (ISO)
100
AcDbCircle
 10
304.5613620075623
 20
804.9486617077382
 30
0.0
 40
57.50000000000134
100
AcDbArc
 50
146.9681085692551
 51
157.3724583808466
  0
ARC
  5
13C0
330
1F
100
AcDbEntity
  8
Viditelná (ISO)
100
AcDbCircle
 10
304.5613620075625
 20
804.948661707737
 30
0.0
 40
57.50000000000273
100
AcDbArc
 50
117.4208185243927
 51
122.984066668733
  0
ARC
  5
13C1
330
1F
100
AcDbEntity
  8
Viditelná (ISO)
100
AcDbCircle
 10
304.5613620075609
 20
804.9486617077411
 30
0.0
 40
57.50000000000202
100
AcDbArc
 50
266.9681085692593
 51
270.0
  0
ARC
  5
13C2
330
1F
100
AcDbEntity
  8
Viditelná (ISO)
100
AcDbCircle
 10
304.5613620075609
 20
804.9486617077382
 30
0.0
 40
57.50000000000089
100
AcDbArc
 50
90.0
 51
93.03189143074069
  0
ARC
  5
13C3
330
1F
100
AcDbEntity
  8
AM_CL
100
AcDbCircle
 10
272.561362007561
 20
749.5230358655355
 30
0.0
 40
2.499999999999999
100
AcDbArc
 50
59.99999999999915
 51
331.119129353533
  0
CIRCLE
  5
13C4
330
1F
100
AcDbEntity
  8
0
100
AcDbCircle
 10
368.5613620075631
 20
804.9486617077386
 30
0.0
 40
3.699999999999999
  0
CIRCLE
  5
13C5
330
1F
100
AcDbEntity
  8
0
100
AcDbCircle
 10
368.5613620075631
 20
804.9486617077386
 30
0.0
 40
1.999999999999999
  0
ARC
  5
13C6
330
1F
100
AcDbEntity
  8
AM_CL
100
AcDbCircle
 10
272.5613620075557
 20
860.374287549949
 30
0.0
 40
2.5
100
AcDbArc
 50
60.00000000000092
 51
331.119129353533
  0
CIRCLE
  5
13C7
330
1F
100
AcDbEntity
  8
0
100
AcDbCircle
 10
272.5613620075557
 20
860.374287549949
 30
0.0
 40
3.7
  0
CIRCLE
  5
13C8
330
1F
100
AcDbEntity
  8
0
100
AcDbCircle
 10
272.5613620075557
 20
860.374287549949
 30
0.0
 40
2.0
  0
LINE
  5
13C9
330
1F
100
AcDbEntity
  8
0
100
AcDbLine
 10
171.1520691127711
 20
872.8165546962021
 30
0.0
 11
171.1520691127711
 21
870.3165546962022
 31
0.0
  0
LINE
  5
13CA
330
1F
100
AcDbEntity
  8
0
100
AcDbLine
 10
173.4120691127716
 20
738.3165546962021
 30
0.0
 11
171.1520691127723
 21
738.3165546962021
 31
0.0
  0
LINE
  5
13CB
330
1F
100
AcDbEntity
  8
0
100
AcDbLine
 10
173.4120691127716
 20
738.3165546962021
 30
0.0
 11
173.4120691127716
 21
740.8165546962021
 31
0.0
  0
LINE
  5
13CC
102
{ACAD_REACTORS
330
1426
102
}
330
1F
100
AcDbEntity
  8
0
100
AcDbLine
 10
173.4120691127716
 20
740.8165546962021
 30
0.0
 11
175.4520691127722
 21
740.8165546962021
 31
0.0
  0
LINE
  5
13CD
330
1F
100
AcDbEntity
  8
0
100
AcDbLine
 10
173.4120691127716
 20
870.3165546962022
 30
0.0
 11
173.4120691127716
 21
867.8165546962022
 31
0.0
  0
LINE
  5
13CE
330
1F
100
AcDbEntity
  8
0
100
AcDbLine
 10
171.1520691127711
 20
870.3165546962022
 30
0.0
 11
173.4120691127716
 21
870.3165546962022
 31
0.0
  0
LINE
  5
13CF
330
1F
100
AcDbEntity
  8
0
100
AcDbLine
 10
175.4520691127713
 20
867.8165546962022
 30
0.0
 11
173.4120691127716
 21
867.8165546962022
 31
0.0
  0
LINE
  5
13D0
330
1F
100
AcDbEntity
  8
AM_7
100
AcDbLine
 10
304.5613620075609
 20
804.9486617077391
 30
0.0
 11
301.2391387557055
 21
804.9486617077391
 31
0.0
1001
GENIUS_GENOREF_13
1005
14CC
  0
LINE
  5
13D1
330
1F
100
AcDbEntity
  8
AM_7
100
AcDbLine
 10
304.5613620075609
 20
804.9486617077391
 30
0.0
 11
304.5613620075609
 21
801.6264384558837
 31
0.0
1001
GENIUS_GENOREF_13
1005
14CC
  0
LINE
  5
13D2
330
1F
100
AcDbEntity
  8
AM_7
100
AcDbLine
 10
304.5613620075609
 20
804.9486617077391
 30
0.0
 11
307.8835852594163
 21
804.9486617077391
 31
0.0
1001
GENIUS_GENOREF_13
1005
14CC
  0
ARC
  5
13D3
330
1F
100
AcDbEntity
  8
Verdeckt
100
AcDbCircle
 10
304.5613620075612
 20
804.9486617077391
 30
0.0
 40
62.7
100
AcDbArc
 50
151.9315317958394
 51
208.0684682041605
  0
ARC
  5
13D4
330
1F
100
AcDbEntity
  8
Verdeckt
100
AcDbCircle
 10
304.5613620075612
 20
804.9486617077391
 30
0.0
 40
62.7
100
AcDbArc
 50
211.9315317958414
 51
238.6252767353096
  0
ARC
  5
13D5
330
1F
100
AcDbEntity
  8
Verdeckt
100
AcDbCircle
 10
304.5613620075612
 20
804.9486617077391
 30
0.0
 40
62.7
100
AcDbArc
 50
241.3747232646901
 51
268.1268481811872
  0
ARC
  5
13D6
330
1F
100
AcDbEntity
  8
Verdeckt
100
AcDbCircle
 10
304.5613620075612
 20
804.9486617077391
 30
0.0
 40
62.7
100
AcDbArc
 50
271.9898742018286
 51
328.1304969210518
  0
ARC
  5
13D7
330
1F
100
AcDbEntity
  8
Verdeckt
100
AcDbCircle
 10
304.5613620075612
 20
804.9486617077391
 30
0.0
 40
62.7
100
AcDbArc
 50
331.927812848839
 51
358.625276735311
  0
ARC
  5
13D8
330
1F
100
AcDbEntity
  8
Verdeckt
100
AcDbCircle
 10
304.5613620075612
 20
804.9486617077391
 30
0.0
 40
62.7
100
AcDbArc
 50
1.374723264689003
 51
28.06846820416053
  0
ARC
  5
13D9
330
1F
100
AcDbEntity
  8
Verdeckt
100
AcDbCircle
 10
304.5613620075612
 20
804.9486617077391
 30
0.0
 40
62.7
100
AcDbArc
 50
31.93153179584142
 51
88.06846820416188
  0
ARC
  5
13DA
330
1F
100
AcDbEntity
  8
Verdeckt
100
AcDbCircle
 10
304.5613620075612
 20
804.9486617077391
 30
0.0
 40
62.7
100
AcDbArc
 50
91.93153179583813
 51
118.6252767353201
  0
ARC
  5
13DB
330
1F
100
AcDbEntity
  8
Verdeckt
100
AcDbCircle
 10
304.5613620075612
 20
804.9486617077391
 30
0.0
 40
62.7
100
AcDbArc
 50
121.3747232646847
 51
148.0684682041585
  0
ARC
  5
13DC
330
1F
100
AcDbEntity
  8
Verdeckt
100
AcDbCircle
 10
304.5613620075609
 20
804.9486617077391
 30
0.0
 40
65.3
100
AcDbArc
 50
151.8926844869517
 51
208.1073155130483
  0
ARC
  5
13DD
330
1F
100
AcDbEntity
  8
Verdeckt
100
AcDbCircle
 10
304.5613620075609
 20
804.9486617077391
 30
0.0
 40
65.3
100
AcDbArc
 50
211.8926844869546
 51
238.6529241591376
  0
ARC
  5
13DE
330
1F
100
AcDbEntity
  8
Verdeckt
100
AcDbCircle
 10
304.5613620075609
 20
804.9486617077391
 30
0.0
 40
65.3
100
AcDbArc
 50
241.3470758408614
 51
268.1656592794994
  0
ARC
  5
13DF
330
1F
100
AcDbEntity
  8
Verdeckt
100
AcDbCircle
 10
304.5613620075609
 20
804.9486617077391
 30
0.0
 40
65.3
100
AcDbArc
 50
271.9510631035099
 51
328.1077406342806
  0
ARC
  5
13E0
330
1F
100
AcDbEntity
  8
Verdeckt
100
AcDbCircle
 10
304.5613620075609
 20
804.9486617077391
 30
0.0
 40
65.3
100
AcDbArc
 50
331.9505691356102
 51
358.6529241591346
  0
ARC
  5
13E1
330
1F
100
AcDbEntity
  8
Verdeckt
100
AcDbCircle
 10
304.5613620075609
 20
804.9486617077391
 30
0.0
 40
65.3
100
AcDbArc
 50
1.347075840858896
 51
28.10731551304108
  0
ARC
  5
13E2
330
1F
100
AcDbEntity
  8
Verdeckt
100
AcDbCircle
 10
304.5613620075609
 20
804.9486617077391
 30
0.0
 40
65.3
100
AcDbArc
 50
31.89268448695457
 51
88.10731551304845
  0
ARC
  5
13E3
330
1F
100
AcDbEntity
  8
Verdeckt
100
AcDbCircle
 10
304.5613620075609
 20
804.9486617077391
 30
0.0
 40
65.3
100
AcDbArc
 50
91.89268448695155
 51
118.6529241591386
  0
ARC
  5
13E4
330
1F
100
AcDbEntity
  8
Verdeckt
100
AcDbCircle
 10
304.5613620075609
 20
804.9486617077391
 30
0.0
 40
65.3
100
AcDbArc
 50
121.3470758408717
 51
148.1073155130454
  0
ARC
  5
13E5
330
1F
100
AcDbEntity
  8
Verdeckt
100
AcDbCircle
 10
304.5613620075609
 20
804.9486617077391
 30
0.0
 40
73.3
100
AcDbArc
 50
228.4688462314496
 51
251.8184806720265
  0
ARC
  5
13E6
330
1F
100
AcDbEntity
  8
Verdeckt
100
AcDbCircle
 10
304.5613620075609
 20
804.9486617077391
 30
0.0
 40
73.3
100
AcDbArc
 50
258.103268603227
 51
295.8437093719777
  0
ARC
  5
13E7
330
1F
100
AcDbEntity
  8
Verdeckt
100
AcDbCircle
 10
304.5613620075609
 20
804.9486617077391
 30
0.0
 40
73.3
100
AcDbArc
 50
304.2019625194214
 51
341.7981501408698
  0
ARC
  5
13E8
330
1F
100
AcDbEntity
  8
Verdeckt
100
AcDbCircle
 10
304.5613620075609
 20
804.9486617077391
 30
0.0
 40
73.3
100
AcDbArc
 50
348.4688462314524
 51
11.81848067202363
  0
ARC
  5
13E9
330
1F
100
AcDbEntity
  8
Verdeckt
100
AcDbCircle
 10
304.5613620075609
 20
804.9486617077391
 30
0.0
 40
73.3
100
AcDbArc
 50
18.14753009841367
 51
55.81941227029698
  0
ARC
  5
13EA
330
1F
100
AcDbEntity
  8
Verdeckt
100
AcDbCircle
 10
304.5613620075609
 20
804.9486617077391
 30
0.0
 40
73.3
100
AcDbArc
 50
64.13200352670958
 51
101.8081901053308
  0
ARC
  5
13EB
330
1F
100
AcDbEntity
  8
Verdeckt
100
AcDbCircle
 10
304.5613620075615
 20
804.9486617077382
 30
0.0
 40
73.30000000000111
100
AcDbArc
 50
108.4688462314466
 51
138.1475300984137
  0
ARC
  5
13EC
330
1F
100
AcDbEntity
  8
Verdeckt
100
AcDbCircle
 10
304.5613620075609
 20
804.9486617077391
 30
0.0
 40
73.3
100
AcDbArc
 50
138.1475300984137
 51
175.8437093719724
  0
ARC
  5
13ED
330
1F
100
AcDbEntity
  8
Verdeckt
100
AcDbCircle
 10
304.5613620075609
 20
804.9486617077391
 30
0.0
 40
73.3
100
AcDbArc
 50
184.1562906280275
 51
221.8524699015863
  0
CIRCLE
  5
13EE
330
1F
100
AcDbEntity
  8
Verdeckt
100
AcDbCircle
 10
304.5613620075609
 20
804.9486617077391
 30
0.0
 40
70.59999999999999
  0
CIRCLE
  5
13EF
330
1F
100
AcDbEntity
  8
Verdeckt
100
AcDbCircle
 10
304.5613620075609
 20
804.9486617077391
 30
0.0
 40
68.0
  0
INSERT
  5
13F0
330
1F
100
AcDbEntity
  8
0
100
AcDbBlockReference
  2
ACO_A3
 10
118.3978777400959
 20
528.6204466418996
 30
0.0
 41
0.0010000000000048
 42
0.0009999999999764
 43
0.001
  0
ARC
  5
13F1
330
1F
100
AcDbEntity
  8
AM_CL
100
AcDbCircle
 10
368.5613620075631
 20
804.9486617077386
 30
0.0
 40
2.499999999999999
100
AcDbArc
 50
180.0
 51
91.11912935353061
  0
CIRCLE
  5
13F2
330
1F
100
AcDbEntity
  8
0
100
AcDbCircle
 10
272.561362007561
 20
749.5230358655355
 30
0.0
 40
3.699999999999999
  0
CIRCLE
  5
13F3
330
1F
100
AcDbEntity
  8
0
100
AcDbCircle
 10
272.561362007561
 20
749.5230358655355
 30
0.0
 40
1.999999999999999
  0
ARC
  5
13F4
330
1F
100
AcDbEntity
  8
Viditelná (ISO)
100
AcDbCircle
 10
359.9869878497673
 20
836.9486617077388
 30
0.0
 40
4.499999999999992
100
AcDbArc
 50
30.00000000005265
 51
209.9999999999333
  0
ARC
  5
13F5
330
1F
100
AcDbEntity
  8
Viditelná (ISO)
100
AcDbCircle
 10
360.0195828993495
 20
836.8922054257874
 30
0.0
 40
4.499999999999992
100
AcDbArc
 50
210.0000000000675
 51
29.99999999994742
  0
CIRCLE
  5
13F6
330
1F
100
AcDbEntity
  8
0
100
AcDbCircle
 10
249.1357361653572
 20
772.9486617077392
 30
0.0
 40
2.5
  0
CIRCLE
  5
13F7
330
1F
100
AcDbEntity
  8
0
100
AcDbCircle
 10
249.135736165357
 20
836.9486617077392
 30
0.0
 40
2.5
  0
CIRCLE
  5
13F8
330
1F
100
AcDbEntity
  8
0
100
AcDbCircle
 10
304.5613620075612
 20
868.9486617077392
 30
0.0
 40
2.5
  0
CIRCLE
  5
13F9
330
1F
100
AcDbEntity
  8
0
100
AcDbCircle
 10
359.9869878497673
 20
836.9486617077388
 30
0.0
 40
2.5
  0
CIRCLE
  5
13FA
330
1F
100
AcDbEntity
  8
0
100
AcDbCircle
 10
360.0521779489294
 20
772.9486617077392
 30
0.0
 40
2.5
  0
CIRCLE
  5
13FB
330
1F
100
AcDbEntity
  8
0
100
AcDbCircle
 10
304.6265521067255
 20
740.9486617077392
 30
0.0
 40
2.5
  0
ARC
  5
13FC
330
1F
100
AcDbEntity
  8
Verdeckt
100
AcDbCircle
 10
304.5613620075639
 20
804.9486617077443
 30
0.0
 40
73.29999999999465
100
AcDbArc
 50
101.8081901053308
 51
108.4688462314552
  0
ARC
  5
13FD
330
1F
100
AcDbEntity
  8
Viditelná (ISO)
100
AcDbCircle
 10
304.5613620075639
 20
804.9486617077443
 30
0.0
 40
73.29999999999465
100
AcDbArc
 50
178.0454674786654
 51
181.954532521341
  0
ARC
  5
13FE
330
1F
100
AcDbEntity
  8
Verdeckt
100
AcDbCircle
 10
304.5613620075639
 20
804.9486617077443
 30
0.0
 40
73.29999999999465
100
AcDbArc
 50
221.8524699015852
 51
228.4688462314562
  0
ARC
  5
13FF
330
1F
100
AcDbEntity
  8
Verdeckt
100
AcDbCircle
 10
304.5613620075639
 20
804.9486617077443
 30
0.0
 40
73.29999999999465
100
AcDbArc
 50
251.8184806720265
 51
258.1032686032354
  0
ARC
  5
1400
330
1F
100
AcDbEntity
  8
Verdeckt
100
AcDbCircle
 10
304.5613620075639
 20
804.9486617077443
 30
0.0
 40
73.29999999999465
100
AcDbArc
 50
295.8437093719632
 51
298.0896213404482
  0
ARC
  5
1401
330
1F
100
AcDbEntity
  8
Verdeckt
100
AcDbCircle
 10
304.5613620075639
 20
804.9486617077443
 30
0.0
 40
73.29999999999465
100
AcDbArc
 50
341.7981501408631
 51
348.4688462314458
  0
ARC
  5
1402
330
1F
100
AcDbEntity
  8
Verdeckt
100
AcDbCircle
 10
304.5613620075639
 20
804.9486617077443
 30
0.0
 40
73.29999999999465
100
AcDbArc
 50
11.81848067202363
 51
18.14753009841367
  0
ARC
  5
1403
330
1F
100
AcDbEntity
  8
Verdeckt
100
AcDbCircle
 10
304.5613620075639
 20
804.9486617077443
 30
0.0
 40
73.29999999999465
100
AcDbArc
 50
55.81941227029698
 51
58.00131245564674
  0
ARC
  5
1404
330
1F
100
AcDbEntity
  8
Verdeckt
100
AcDbCircle
 10
304.5613620075639
 20
804.9486617077443
 30
0.0
 40
73.29999999999465
100
AcDbArc
 50
61.91037865954611
 51
64.13200352670958
  0
LINE
  5
1405
330
1F
100
AcDbEntity
  8
AM_7
100
AcDbLine
 10
304.5613620075609
 20
804.9486617077391
 30
0.0
 11
304.5613620075609
 21
808.2708849595947
 31
0.0
1001
GENIUS_GENOREF_13
1005
14CC
  0
LINE
  5
1406
330
1F
100
AcDbEntity
  8
AM_7
100
AcDbLine
 10
304.5613620075609
 20
804.9486617077391
 30
0.0
 11
304.5613620075609
 21
827.5743809554596
 31
0.0
1001
GENIUS_GENOREF_13
1005
14CB
  0
LINE
  5
1407
330
1F
100
AcDbEntity
  8
AM_7
100
AcDbLine
 10
304.5613620075609
 20
804.9486617077391
 30
0.0
 11
275.7300211992847
 21
804.9486617077391
 31
0.0
1001
GENIUS_GENOREF_13
1005
14CB
  0
LINE
  5
1408
330
1F
100
AcDbEntity
  8
AM_7
100
AcDbLine
 10
304.5613620075609
 20
804.9486617077391
 30
0.0
 11
304.5613620075609
 21
777.4681316322116
 31
0.0
1001
GENIUS_GENOREF_13
1005
14CB
  0
LINE
  5
1409
330
1F
100
AcDbEntity
  8
AM_7
100
AcDbLine
 10
304.5613620075609
 20
804.9486617077391
 30
0.0
 11
329.5115503905843
 21
804.9486617077391
 31
0.0
1001
GENIUS_GENOREF_13
1005
14CB
  0
LINE
  5
140A
330
1F
100
AcDbEntity
  8
AM_7
  6
AM_DIN_G_W050x2
100
AcDbLine
 10
272.5613620075557
 20
860.374287549949
 30
0.0
 11
269.2113620075557
 21
866.1766577553047
 31
0.0
1001
GENIUS_GENOREF_13
1005
14CA
  0
LINE
  5
140B
330
1F
100
AcDbEntity
  8
AM_7
  6
AM_DIN_G_W050x2
100
AcDbLine
 10
272.5613620075557
 20
860.374287549949
 30
0.0
 11
266.7589918022
 21
857.0242875499488
 31
0.0
1001
GENIUS_GENOREF_13
1005
14CA
  0
LINE
  5
140C
330
1F
100
AcDbEntity
  8
AM_7
  6
AM_DIN_G_W050x2
100
AcDbLine
 10
272.5613620075557
 20
860.374287549949
 30
0.0
 11
275.9113620075557
 21
854.5719173445931
 31
0.0
1001
GENIUS_GENOREF_13
1005
14CA
  0
LINE
  5
140D
330
1F
100
AcDbEntity
  8
AM_7
  6
AM_DIN_G_W050x2
100
AcDbLine
 10
272.5613620075557
 20
860.374287549949
 30
0.0
 11
278.3637322129115
 21
863.724287549949
 31
0.0
1001
GENIUS_GENOREF_13
1005
14CA
  0
LINE
  5
140E
330
1F
100
AcDbEntity
  8
AM_7
  6
AM_DIN_G_W050x2
100
AcDbLine
 10
272.561362007561
 20
749.5230358655355
 30
0.0
 11
275.911362007561
 21
755.3254060708913
 31
0.0
1001
GENIUS_GENOREF_13
1005
14C9
  0
LINE
  5
140F
330
1F
100
AcDbEntity
  8
AM_7
  6
AM_DIN_G_W050x2
100
AcDbLine
 10
272.561362007561
 20
749.5230358655355
 30
0.0
 11
266.7589918022052
 21
752.8730358655354
 31
0.0
1001
GENIUS_GENOREF_13
1005
14C9
  0
LINE
  5
1410
330
1F
100
AcDbEntity
  8
AM_7
  6
AM_DIN_G_W050x2
100
AcDbLine
 10
272.561362007561
 20
749.5230358655355
 30
0.0
 11
269.211362007561
 21
743.7206656601797
 31
0.0
1001
GENIUS_GENOREF_13
1005
14C9
  0
LINE
  5
1411
330
1F
100
AcDbEntity
  8
AM_7
  6
AM_DIN_G_W050x2
100
AcDbLine
 10
272.561362007561
 20
749.5230358655355
 30
0.0
 11
278.3637322129168
 21
746.1730358655355
 31
0.0
1001
GENIUS_GENOREF_13
1005
14C9
  0
LINE
  5
1412
330
1F
100
AcDbEntity
  8
0
100
AcDbLine
 10
163.4520691127713
 20
743.4486617077392
 30
0.0
 11
163.4520691127713
 21
738.4486617077392
 31
0.0
  0
LINE
  5
1413
330
1F
100
AcDbEntity
  8
AM_7
  6
AM_DIN_G_W050x2
100
AcDbLine
 10
304.6263177073922
 20
868.948427308406
 30
0.0
 11
304.6263177073922
 21
876.4486617138436
 31
0.0
1001
GENIUS_GENOREF_13
1005
14C8
  0
LINE
  5
1414
330
1F
100
AcDbEntity
  8
AM_7
  6
AM_DIN_G_W050x2
100
AcDbLine
 10
304.6263177073922
 20
868.948427308406
 30
0.0
 11
297.1260833019546
 21
868.948427308406
 31
0.0
1001
GENIUS_GENOREF_13
1005
14C8
  0
LINE
  5
1415
330
1F
100
AcDbEntity
  8
AM_7
  6
AM_DIN_G_W050x2
100
AcDbLine
 10
304.6263177073922
 20
868.948427308406
 30
0.0
 11
304.6263177073922
 21
861.4481929029683
 31
0.0
1001
GENIUS_GENOREF_13
1005
14C8
  0
LINE
  5
1416
330
1F
100
AcDbEntity
  8
AM_7
  6
AM_DIN_G_W050x2
100
AcDbLine
 10
304.6263177073922
 20
868.948427308406
 30
0.0
 11
312.1265521128299
 21
868.948427308406
 31
0.0
1001
GENIUS_GENOREF_13
1005
14C8
  0
LINE
  5
1417
330
1F
100
AcDbEntity
  8
0
100
AcDbLine
 10
163.4520691127713
 20
871.448427308406
 30
0.0
 11
163.4520691127713
 21
866.448427308406
 31
0.0
  0
DIMENSION
  5
1424
102
{ACAD_XDICTIONARY
360
1425
102
}
102
{ACAD_REACTORS
330
1426
102
}
330
1F
100
AcDbEntity
  8
AM_5
100
AcDbDimension
  2
*D19
 10
175.4520691127722
 20
665.8165546962021
 30
0.0
 11
168.4520691127717
 21
669.0665546962021
 31
0.0
 70
    32
 71
     5
 42
14.00000000000091
  3
AM_DIN$0
100
AcDbAlignedDimension
 13
161.4520691127713
 23
727.8165546962021
 33
0.0
 14
175.4520691127722
 24
740.8165546962021
 34
0.0
 50
180.0
100
AcDbRotatedDimension
1001
ACAD_DSTYLE_DIMINSPECT
1070
   396
1000
100%
1070
   395
1000

1070
   394
1070
    33
1070
   393
1070
     0
  0
LINE
  5
1436
330
1F
100
AcDbEntity
  8
AM_7
  6
AM_DIN_G_W050x2
100
AcDbLine
 10
249.1357361653572
 20
772.9486617077392
 30
0.0
 11
255.6309266937405
 21
776.6986617077393
 31
0.0
1001
GENIUS_GENOREF_13
1005
14C7
  0
LINE
  5
1437
330
1F
100
AcDbEntity
  8
AM_7
  6
AM_DIN_G_W050x2
100
AcDbLine
 10
249.1357361653572
 20
772.9486617077392
 30
0.0
 11
245.3857361653572
 21
779.4438522361224
 31
0.0
1001
GENIUS_GENOREF_13
1005
14C7
  0
LINE
  5
1438
330
1F
100
AcDbEntity
  8
AM_7
  6
AM_DIN_G_W050x2
100
AcDbLine
 10
249.1357361653572
 20
772.9486617077392
 30
0.0
 11
242.6405456369739
 21
769.1986617077392
 31
0.0
1001
GENIUS_GENOREF_13
1005
14C7
  0
LINE
  5
1439
330
1F
100
AcDbEntity
  8
AM_7
  6
AM_DIN_G_W050x2
100
AcDbLine
 10
249.1357361653572
 20
772.9486617077392
 30
0.0
 11
252.8857361653572
 21
766.4534711793558
 31
0.0
1001
GENIUS_GENOREF_13
1005
14C7
  0
LINE
  5
143A
330
1F
100
AcDbEntity
  8
AM_7
  6
AM_DIN_G_W050x2
100
AcDbLine
 10
304.6265521067255
 20
740.9486617077392
 30
0.0
 11
304.6265521067255
 21
748.5138518069035
 31
0.0
1001
GENIUS_GENOREF_13
1005
14C6
  0
LINE
  5
143B
330
1F
100
AcDbEntity
  8
AM_7
  6
AM_DIN_G_W050x2
100
AcDbLine
 10
304.6265521067255
 20
740.9486617077392
 30
0.0
 11
297.0613620075612
 21
740.9486617077392
 31
0.0
1001
GENIUS_GENOREF_13
1005
14C6
  0
LINE
  5
143C
330
1F
100
AcDbEntity
  8
AM_7
  6
AM_DIN_G_W050x2
100
AcDbLine
 10
304.6265521067255
 20
740.9486617077392
 30
0.0
 11
304.6265521067255
 21
733.3834716085749
 31
0.0
1001
GENIUS_GENOREF_13
1005
14C6
  0
LINE
  5
143D
330
1F
100
AcDbEntity
  8
AM_7
  6
AM_DIN_G_W050x2
100
AcDbLine
 10
304.6265521067255
 20
740.9486617077392
 30
0.0
 11
312.1917422058897
 21
740.9486617077392
 31
0.0
1001
GENIUS_GENOREF_13
1005
14C6
  0
LINE
  5
143E
330
1F
100
AcDbEntity
  8
AM_7
  6
AM_DIN_G_W050x2
100
AcDbLine
 10
360.0521779489294
 20
772.9486617077392
 30
0.0
 11
353.5569874205462
 21
776.6986617077392
 31
0.0
1001
GENIUS_GENOREF_13
1005
14C5
  0
LINE
  5
143F
330
1F
100
AcDbEntity
  8
AM_7
  6
AM_DIN_G_W050x2
100
AcDbLine
 10
360.0521779489294
 20
772.9486617077392
 30
0.0
 11
356.3021779489294
 21
766.453471179356
 31
0.0
1001
GENIUS_GENOREF_13
1005
14C5
  0
LINE
  5
1440
330
1F
100
AcDbEntity
  8
AM_7
  6
AM_DIN_G_W050x2
100
AcDbLine
 10
360.0521779489294
 20
772.9486617077392
 30
0.0
 11
366.5473684773127
 21
769.1986617077392
 31
0.0
1001
GENIUS_GENOREF_13
1005
14C5
  0
LINE
  5
1441
330
1F
100
AcDbEntity
  8
AM_7
  6
AM_DIN_G_W050x2
100
AcDbLine
 10
360.0521779489294
 20
772.9486617077392
 30
0.0
 11
363.8021779489295
 21
779.4438522361225
 31
0.0
1001
GENIUS_GENOREF_13
1005
14C5
  0
LINE
  5
1442
330
1F
100
AcDbEntity
  8
AM_7
  6
AM_DIN_G_W050x2
100
AcDbLine
 10
368.5613620075631
 20
804.9486617077386
 30
0.0
 11
368.5613620075631
 21
811.6486617077384
 31
0.0
1001
GENIUS_GENOREF_13
1005
14C4
  0
LINE
  5
1443
330
1F
100
AcDbEntity
  8
AM_7
  6
AM_DIN_G_W050x2
100
AcDbLine
 10
368.5613620075631
 20
804.9486617077386
 30
0.0
 11
361.8613620075631
 21
804.9486617077386
 31
0.0
1001
GENIUS_GENOREF_13
1005
14C4
  0
LINE
  5
1444
330
1F
100
AcDbEntity
  8
AM_7
  6
AM_DIN_G_W050x2
100
AcDbLine
 10
368.5613620075631
 20
804.9486617077386
 30
0.0
 11
368.5613620075631
 21
798.2486617077386
 31
0.0
1001
GENIUS_GENOREF_13
1005
14C4
  0
LINE
  5
1445
330
1F
100
AcDbEntity
  8
AM_7
  6
AM_DIN_G_W050x2
100
AcDbLine
 10
368.5613620075631
 20
804.9486617077386
 30
0.0
 11
375.2613620075631
 21
804.9486617077386
 31
0.0
1001
GENIUS_GENOREF_13
1005
14C4
  0
LINE
  5
1446
330
1F
100
AcDbEntity
  8
DUENN
100
AcDbLine
 10
360.0521779489316
 20
836.9486617077388
 30
0.0
 11
366.5473684773148
 21
840.6986617077389
 31
0.0
1001
GENIUS_GENOREF_13
1005
14C3
  0
LINE
  5
1447
330
1F
100
AcDbEntity
  8
AM_7
  6
AM_DIN_G_W050x2
100
AcDbLine
 10
360.0521779489316
 20
836.9486617077388
 30
0.0
 11
356.3021779489316
 21
843.4438522361222
 31
0.0
1001
GENIUS_GENOREF_13
1005
14C3
  0
LINE
  5
1448
330
1F
100
AcDbEntity
  8
AM_7
  6
AM_DIN_G_W050x2
100
AcDbLine
 10
360.0521779489316
 20
836.9486617077388
 30
0.0
 11
353.5569874205483
 21
833.1986617077388
 31
0.0
1001
GENIUS_GENOREF_13
1005
14C3
  0
LINE
  5
1449
330
1F
100
AcDbEntity
  8
AM_7
  6
AM_DIN_G_W050x2
100
AcDbLine
 10
360.0521779489316
 20
836.9486617077388
 30
0.0
 11
363.8021779489315
 21
830.4534711793555
 31
0.0
1001
GENIUS_GENOREF_13
1005
14C3
  0
LINE
  5
144A
330
1F
100
AcDbEntity
  8
AM_7
  6
AM_DIN_G_W050x2
100
AcDbLine
 10
249.135736165357
 20
836.9486617077392
 30
0.0
 11
242.6405456369737
 21
840.6986617077393
 31
0.0
1001
GENIUS_GENOREF_13
1005
14C2
  0
LINE
  5
144B
330
1F
100
AcDbEntity
  8
AM_7
  6
AM_DIN_G_W050x2
100
AcDbLine
 10
249.135736165357
 20
836.9486617077392
 30
0.0
 11
245.3857361653569
 21
830.4534711793559
 31
0.0
1001
GENIUS_GENOREF_13
1005
14C2
  0
LINE
  5
144C
330
1F
100
AcDbEntity
  8
AM_7
  6
AM_DIN_G_W050x2
100
AcDbLine
 10
249.135736165357
 20
836.9486617077392
 30
0.0
 11
255.6309266937402
 21
833.1986617077392
 31
0.0
1001
GENIUS_GENOREF_13
1005
14C2
  0
LINE
  5
144D
330
1F
100
AcDbEntity
  8
AM_7
  6
AM_DIN_G_W050x2
100
AcDbLine
 10
249.135736165357
 20
836.9486617077392
 30
0.0
 11
252.885736165357
 21
843.4438522361224
 31
0.0
1001
GENIUS_GENOREF_13
1005
14C2
  0
INSERT
  5
144E
330
1F
100
AcDbEntity
  8
0
370
     0
100
AcDbBlockReference
  2
ACO_A2
 10
73.88495307024413
 20
528.6204466418996
 30
0.0
1001
GENIUS_GENOREF_13
1005
14C1
1001
GENIUS_GENOBJ-N-SDF_13
1002
{
1000
OWNER
1000
GEN
1002
}
1001
GENIUS_GENODEF_13
1002
{
1000
HIER
1070
     0
1002
}
1002
{
1000
MANEDIT
1070
     0
1002
}
1002
{
1000
NOSEL
1070
     0
1002
}
1002
{
1000
BEHIND
1070
     0
1002
}
1002
{
1000
OTHER
1070
     0
1002
}
1002
{
1000
REACTOR
1002
}
1001
GENIUS_GENSCREG_15
1040
1.0
1040
1.0
1011
73.88495307024403
1021
528.6204466418996
1031
0.0
1011
667.8849530702441
1021
948.6204466418996
1031
0.0
1070
     3
  0
INSERT
  5
144F
330
1F
100
AcDbEntity
  8
0
370
     0
100
AcDbBlockReference
 66
     1
  2
ACO-SF02-GR
 10
657.884953070244
 20
533.6204466418997
 30
0.0
1001
GENIUS_GENOREF_13
1005
14C1
  0
ATTRIB
  5
1450
330
144F
100
AcDbEntity
  8
TEXT35
100
AcDbText
 10
517.684953070244
 20
583.0204466418996
 30
0.0
 40
3.5
  1
 
 41
0.8
  7
TEXT35
100
AcDbAttribute
  2
F63
 70
     0
  0
ATTRIB
  5
1451
330
144F
100
AcDbEntity
  8
TEXT35
100
AcDbText
 10
481.284953070244
 20
537.0204466418996
 30
0.0
 40
3.5
  1
für PVC Noppenbeläge
 41
0.8
  7
TEXT35
100
AcDbAttribute
  2
F13
 70
     0
  0
ATTRIB
  5
1452
330
144F
100
AcDbEntity
  8
TEXT50
100
AcDbText
 10
481.284953070244
 20
544.2529494398626
 30
0.0
 40
5.0
  1
mit Gummidichtlippe
 41
0.8
  7
TEXT50
100
AcDbAttribute
  2
F3
 70
     0
  0
ATTRIB
  5
1453
330
144F
100
AcDbEntity
  8
TEXT50
100
AcDbText
 10
481.284953070244
 20
552.1836298865066
 30
0.0
 40
5.0
  1
Klemmring für PVC Aufsatzstücke
 41
0.8
  7
TEXT50
100
AcDbAttribute
  2
F2
 70
     0
  0
ATTRIB
  5
1454
330
144F
100
AcDbEntity
  8
TEXT25
100
AcDbText
 10
496.3839973604136
 20
561.9413587330898
 30
0.0
 40
2.0
  1
04.02.2011
 41
0.8
  7
TEXT20
100
AcDbAttribute
  2
F53
 70
     0
  0
ATTRIB
  5
1455
330
144F
100
AcDbEntity
  8
TEXT25
100
AcDbText
 10
496.3310197096109
 20
566.7427265377766
 30
0.0
 40
2.0
  1

 41
0.8
  7
TEXT20
100
AcDbAttribute
  2
F22
 70
     0
  0
ATTRIB
  5
1456
330
144F
100
AcDbEntity
  8
TEXT25
100
AcDbText
 10
496.3642389220045
 20
571.9602860063436
 30
0.0
 40
2.0
  1
20.10.2009
 41
0.8
  7
TEXT20
100
AcDbAttribute
  2
F9
 70
     0
  0
ATTRIB
  5
1457
330
144F
100
AcDbEntity
  8
TEXT25
100
AcDbText
 10
521.6102552890993
 20
566.9051588759019
 30
0.0
 40
2.0
  1

 41
0.8
  7
TEXT20
100
AcDbAttribute
  2
F21
 70
     0
  0
ATTRIB
  5
1458
330
144F
100
AcDbEntity
  8
TEXT25
100
AcDbText
 10
521.485323898173
 20
561.8514650533241
 30
0.0
 40
2.0
  1
atittmar
 41
0.8
  7
TEXT20
100
AcDbAttribute
  2
F52
 70
     0
  0
ATTRIB
  5
1459
330
144F
100
AcDbEntity
  8
TEXT25
100
AcDbText
 10
521.6927417150023
 20
572.1021724376521
 30
0.0
 40
2.0
  1
jamoeller
 41
0.8
  7
TEXT20
100
AcDbAttribute
  2
F8
 70
     0
  0
ATTRIB
  5
145A
330
144F
100
AcDbEntity
  8
TEXT35
100
AcDbText
 10
478.1849530702441
 20
593.2204466418997
 30
0.0
 40
3.5
  1
Kunststoff schwarz
 41
0.8
  7
TEXT35
100
AcDbAttribute
  2
F61
 70
     0
  0
ATTRIB
  5
145B
330
144F
100
AcDbEntity
  8
TEXT35
100
AcDbText
 10
478.1849530702441
 20
583.3204466418997
 30
0.0
 40
3.5
  1
 
 41
0.8
  7
TEXT35
100
AcDbAttribute
  2
F62
 70
     0
  0
ATTRIB
  5
145C
330
144F
100
AcDbEntity
  8
TEXT25
100
AcDbText
 10
483.5245379142889
 20
608.2204466418996
 30
0.0
 40
2.0
  1
001
 41
0.8
  7
TEXT20
100
AcDbAttribute
  2
F72
 70
     0
  0
ATTRIB
  5
145D
330
144F
100
AcDbEntity
  8
TEXT25
100
AcDbText
 10
483.4414121248876
 20
613.0942359671356
 30
0.0
 40
2.0
  1
002
 41
0.8
  7
TEXT20
100
AcDbAttribute
  2
F68
 70
     0
  0
ATTRIB
  5
145E
330
144F
100
AcDbEntity
  8
TEXT25
100
AcDbText
 10
483.5149121920074
 20
618.2507885032832
 30
0.0
 40
2.0
  1
 
 41
0.8
  7
TEXT20
100
AcDbAttribute
  2
F64
 70
     0
  0
ATTRIB
  5
145F
330
144F
100
AcDbEntity
  8
TEXT25
100
AcDbText
 10
496.984953070244
 20
608.7204466418996
 30
0.0
 40
2.0
  1
04.02.2011
 41
0.8
  7
TEXT20
100
AcDbAttribute
  2
F73
 70
     0
  0
ATTRIB
  5
1460
330
144F
100
AcDbEntity
  8
TEXT25
100
AcDbText
 10
496.984953070244
 20
613.0204466418996
 30
0.0
 40
2.0
  1
04.02.2011
 41
0.8
  7
TEXT20
100
AcDbAttribute
  2
F69
 70
     0
  0
ATTRIB
  5
1461
330
144F
100
AcDbEntity
  8
TEXT25
100
AcDbText
 10
497.284953070244
 20
618.1204466418996
 30
0.0
 40
2.0
  1
 
 41
0.8
  7
TEXT20
100
AcDbAttribute
  2
F65
 70
     0
  0
ATTRIB
  5
1462
330
144F
100
AcDbEntity
  8
TEXT35
100
AcDbText
 10
517.984953070244
 20
592.9204466418996
 30
0.0
 40
3.5
  1

 41
0.8
  7
TEXT35
100
AcDbAttribute
  2
F60
 70
     0
  0
ATTRIB
  5
1463
330
144F
100
AcDbEntity
  8
TEXT25
100
AcDbText
 10
517.484953070244
 20
608.2204466418996
 30
0.0
 40
2.0
  1
Kontur des Ringes angepasst 
 41
0.8
  7
TEXT20
100
AcDbAttribute
  2
F74
 70
     0
  0
ATTRIB
  5
1464
330
144F
100
AcDbEntity
  8
TEXT25
100
AcDbText
 10
517.3785570439961
 20
613.2652502326875
 30
0.0
 40
2.0
  1
Kontur des Ringes angepasst 
 41
0.8
  7
TEXT20
100
AcDbAttribute
  2
F70
 70
     0
  0
ATTRIB
  5
1465
330
144F
100
AcDbEntity
  8
TEXT25
100
AcDbText
 10
517.494719627859
 20
618.1816477384115
 30
0.0
 40
2.0
  1
 
 41
0.8
  7
TEXT20
100
AcDbAttribute
  2
F66
 70
     0
  0
ATTRIB
  5
1466
330
144F
100
AcDbEntity
  8
TEXT35
100
AcDbText
 10
553.3913897878682
 20
566.7545267936677
 30
0.0
 40
3.5
  1

 41
0.8
  7
TEXT35
100
AcDbAttribute
  2
F54
 70
     0
  0
ATTRIB
  5
1467
330
144F
100
AcDbEntity
  8
TEXT35
100
AcDbText
 10
553.3970048113969
 20
562.2204466418996
 30
0.0
 40
3.5
  1

 41
0.8
  7
TEXT35
100
AcDbAttribute
  2
F55
 70
     0
  0
ATTRIB
  5
1468
330
144F
100
AcDbEntity
  8
TEXT50
100
AcDbText
 10
551.284953070244
 20
571.4204466418996
 30
0.0
 40
5.0
  1

 41
0.8
  7
TEXT50
100
AcDbAttribute
  2
F25
 70
     0
  0
ATTRIB
  5
1469
330
144F
100
AcDbEntity
  8
TEXT50
100
AcDbText
 10
579.5930132066327
 20
548.1263248837052
 30
0.0
 40
5.0
  1
0150.26.19
 41
0.8
  7
TEXT50
100
AcDbAttribute
  2
F1
 70
     0
  0
ATTRIB
  5
146A
330
144F
100
AcDbEntity
  8
TEXT35
100
AcDbText
 10
578.475988204129
 20
571.7076668879532
 30
0.0
 40
3.5
  1
 
 41
0.8
  7
TEXT35
100
AcDbAttribute
  2
F56
 70
     0
  0
ATTRIB
  5
146B
330
144F
100
AcDbEntity
  8
TEXT50
100
AcDbText
 10
647.9807061591269
 20
548.0018170096895
 30
0.0
 40
5.0
  1
002
 41
0.8
  7
TEXT50
 72
     4
 11
652.2992494662136
 21
550.6263248837052
 31
0.0
100
AcDbAttribute
  2
F1B
 70
     0
  0
ATTRIB
  5
146C
330
144F
100
AcDbEntity
  8
TEXT25
100
AcDbText
 10
644.484953070244
 20
608.5204466418996
 30
0.0
 40
2.0
  1
atittmar
 41
0.8
  7
TEXT20
100
AcDbAttribute
  2
F75
 70
     0
  0
ATTRIB
  5
146D
330
144F
100
AcDbEntity
  8
TEXT25
100
AcDbText
 10
644.484953070244
 20
613.3204466418996
 30
0.0
 40
2.0
  1
atittmar
 41
0.8
  7
TEXT20
100
AcDbAttribute
  2
F71
 70
     0
  0
ATTRIB
  5
146E
330
144F
100
AcDbEntity
  8
TEXT25
100
AcDbText
 10
644.5748866891924
 20
617.9204466418996
 30
0.0
 40
2.0
  1
 
 41
0.8
  7
TEXT20
100
AcDbAttribute
  2
F67
 70
     0
  0
ATTRIB
  5
146F
330
144F
100
AcDbEntity
  8
AM_BOR
 62
     2
370
    35
100
AcDbText
 10
556.245425485954
 20
572.2062770730786
 30
0.0
 40
3.0
  1
1:1
 72
     1
 11
558.195425485954
 21
572.2062770730786
 31
0.0
100
AcDbAttribute
  2
GEN-TITLE-SCA{5.42}
 70
     0
  0
SEQEND
  5
1470
330
144F
100
AcDbEntity
  8
0
370
     0
  0
LINE
  5
1488
330
1F
100
AcDbEntity
  8
AM_7
  6
AM_DIN_G_W050x2
100
AcDbLine
 10
168.9520691127713
 20
740.9486617077392
 30
0.0
 11
160.4520691127713
 21
740.9486617077392
 31
0.0
1001
GENIUS_GENODEF_13
1002
{
1000
HIER
1070
     0
1002
}
1002
{
1000
MANEDIT
1070
     0
1002
}
1002
{
1000
NOSEL
1070
     0
1002
}
1002
{
1000
BEHIND
1070
     0
1002
}
1002
{
1000
OTHER
1070
     0
1002
}
1002
{
1000
REACTOR
1002
}
1001
GENIUS_GENOBJ-N-CEN_13
1002
{
1000
OWNER
1000
GEN
1002
}
1001
GENIUS_GENCEN_19
1002
{
1040
3.0
1002
}
  0
LINE
  5
1489
330
1F
100
AcDbEntity
  8
AM_7
  6
AM_DIN_G_W050x2
100
AcDbLine
 10
160.4520691127713
 20
868.948427308406
 30
0.0
 11
168.9520691127713
 21
868.948427308406
 31
0.0
1001
GENIUS_GENODEF_13
1002
{
1000
HIER
1070
     0
1002
}
1002
{
1000
MANEDIT
1070
     0
1002
}
1002
{
1000
NOSEL
1070
     0
1002
}
1002
{
1000
BEHIND
1070
     0
1002
}
1002
{
1000
OTHER
1070
     0
1002
}
1002
{
1000
REACTOR
1002
}
1001
GENIUS_GENOBJ-N-CEN_13
1002
{
1000
OWNER
1000
GEN
1002
}
1001
GENIUS_GENCEN_19
1002
{
1040
3.0
1002
}
  0
LINE
  5
148A
330
1F
100
AcDbEntity
  8
0
100
AcDbLine
 10
175.4520691127721
 20
756.4963956861622
 30
0.0
 11
161.4520691127713
 21
756.4963956861622
 31
0.0
  0
LINE
  5
148B
330
1F
100
AcDbEntity
  8
AM_CL
100
AcDbLine
 10
169.5520691127712
 20
749.5248751845658
 30
0.0
 11
161.4520691127713
 21
749.5248751845658
 31
0.0
  0
HATCH
  5
148C
330
1F
100
AcDbEntity
  8
AM_8
100
AcDbHatch
 10
0.0
 20
0.0
 30
0.0
210
0.0
220
0.0
230
1.0
  2
_U
 70
     0
 71
     0
 91
        1
 92
        1
 93
       13
 72
     1
 10
163.1520691127711
 20
727.8165546962021
 11
163.1520691127711
 21
730.4665546962022
 72
     1
 10
163.1520691127711
 20
730.4665546962022
 11
165.752069112771
 21
730.4665546962022
 72
     1
 10
165.752069112771
 20
730.4665546962022
 11
165.752069112771
 21
733.166554696202
 72
     1
 10
165.752069112771
 20
733.166554696202
 11
168.4520691127713
 21
733.166554696202
 72
     1
 10
168.4520691127713
 20
733.166554696202
 11
168.4520691127713
 21
735.8165546962021
 72
     1
 10
168.4520691127713
 20
735.8165546962021
 11
171.1520691127711
 21
735.8165546962021
 72
     1
 10
171.1520691127711
 20
735.8165546962021
 11
171.1520691127711
 21
736.9486617077392
 72
     1
 10
171.1520691127711
 20
736.9486617077392
 11
165.9520691127713
 21
736.9486617077392
 72
     1
 10
165.9520691127713
 20
736.9486617077392
 11
165.9520691127713
 21
738.4486617077392
 72
     1
 10
165.9520691127713
 20
738.4486617077392
 11
163.4520691127713
 21
738.4486617077392
 72
     1
 10
163.4520691127713
 20
738.4486617077392
 11
161.4520691127715
 21
736.4486617077394
 72
     1
 10
161.4520691127715
 20
736.4486617077394
 11
161.4520691127715
 21
727.8165546962021
 72
     1
 10
161.4520691127715
 20
727.8165546962021
 11
163.1520691127711
 21
727.8165546962021
 97
        0
 75
     0
 76
     0
 52
135.0
 41
2.82
 77
     0
 78
     1
 53
135.0
 43
118.3978777400959
 44
558.3162574405593
 45
-1.994041122946064
 46
-1.994041122946064
 79
     0
 98
        1
 10
118.3978777400959
 20
558.3162574405593
1001
GENIUS_GENODEF_13
1002
{
1000
HIER
1070
     0
1002
}
1002
{
1000
MANEDIT
1070
     0
1002
}
1002
{
1000
NOSEL
1070
     0
1002
}
1002
{
1000
BEHIND
1070
     0
1002
}
1002
{
1000
OTHER
1070
     0
1002
}
1002
{
1000
REACTOR
1002
}
1001
GENIUS_GENOBJ-N-HTC_13
1002
{
1000
OWNER
1000
GEN
1002
}
1001
GENIUS_GENHATCH_13
1002
{
1000
DATA
1040
135.0
1042
4.7
1000
_U
1070
     0
1011
163.8194878379829
1021
735.2314908610866
1031
0.0
1002
}
1002
{
1000
UCS
1010
0.0
1020
0.0
1030
0.0
1010
1.0
1020
0.0
1030
0.0
1010
0.0
1020
1.0
1030
0.0
1002
}
  0
HATCH
  5
148D
330
1F
100
AcDbEntity
  8
AM_8
100
AcDbHatch
 10
0.0
 20
0.0
 30
0.0
210
0.0
220
0.0
230
1.0
  2
_U
 70
     0
 71
     0
 91
        1
 92
        1
 93
       11
 72
     1
 10
163.4520691127713
 20
743.4486617077392
 11
165.9520691127713
 21
743.4486617077392
 72
     1
 10
165.9520691127713
 20
743.4486617077392
 11
165.9520691127713
 21
744.9486617077392
 72
     1
 10
165.9520691127713
 20
744.9486617077392
 11
175.4520691127713
 21
744.9486617077392
 72
     1
 10
175.4520691127713
 20
744.9486617077392
 11
175.4520691127721
 21
747.448661707742
 72
     1
 10
175.4520691127721
 20
747.448661707742
 11
174.5385919649195
 21
747.4486617077417
 72
     2
 10
173.1670968163359
 20
748.8323204067252
 40
1.948206954576738
 50
45.25294978523342
 51
70.90721842172325
 73
     0
 72
     2
 10
170.7799455374677
 20
750.2451245278156
 40
4.442355078982198
 50
47.09289148609565
 51
105.2709963958164
 73
     0
 72
     2
 10
166.8174233213153
 20
757.5077655286159
 40
11.88097030439917
 50
76.40616632176662
 51
97.89132769498122
 73
     0
 72
     2
 10
163.3995580817078
 20
749.148949718688
 40
3.849399153680277
 50
62.34522310904535
 51
97.47513168456931
 73
     0
 72
     2
 10
161.6458018433922
 20
738.5182183811441
 40
6.928286464385163
 50
79.58085449822352
 51
91.56317225575927
 73
     1
 72
     1
 10
161.4568042979277
 20
745.4439265225828
 11
163.4520691127713
 21
743.4486617077392
 97
        0
 75
     0
 76
     0
 52
135.0
 41
2.256
 77
     0
 78
     1
 53
135.0
 43
118.3978777400959
 44
558.3162574405593
 45
-1.595232898356851
 46
-1.595232898356851
 79
     0
 98
        1
 10
118.3978777400959
 20
558.3162574405593
1001
GENIUS_GENOBJ-N-HTC_13
1002
{
1000
OWNER
1000
GEN
1002
}
1001
GENIUS_GENODEF_13
1002
{
1000
HIER
1070
     0
1002
}
1002
{
1000
MANEDIT
1070
     0
1002
}
1002
{
1000
NOSEL
1070
     0
1002
}
1002
{
1000
BEHIND
1070
     0
1002
}
1002
{
1000
OTHER
1070
     0
1002
}
1002
{
1000
REACTOR
1002
}
1001
GENIUS_GENHATCH_13
1002
{
1000
DATA
1040
135.0
1042
4.7
1000
_U
1070
     0
1011
174.2018683100523
1021
745.9561524095205
1031
0.0
1002
}
1002
{
1000
UCS
1010
0.0
1020
0.0
1030
0.0
1010
1.0
1020
0.0
1030
0.0
1010
0.0
1020
1.0
1030
0.0
1002
}
  0
LINE
  5
148E
330
1F
100
AcDbEntity
  8
0
100
AcDbLine
 10
168.0520691127712
 20
752.6267145035965
 30
0.0
 11
168.8117252920778
 21
752.6267145035965
 31
0.0
  0
LINE
  5
148F
330
1F
100
AcDbEntity
  8
0
100
AcDbLine
 10
167.5849862379222
 20
752.6267145035965
 30
0.0
 11
167.5849862379222
 21
753.2267145035964
 31
0.0
  0
LINE
  5
1490
330
1F
100
AcDbEntity
  8
0
100
AcDbLine
 10
167.5849862379222
 20
753.2267145035964
 30
0.0
 11
168.0520691127712
 21
753.0211519573152
 31
0.0
  0
HATCH
  5
1491
330
1F
100
AcDbEntity
  8
AM_8
100
AcDbHatch
 10
0.0
 20
0.0
 30
0.0
210
0.0
220
0.0
230
1.0
  2
_U
 70
     0
 71
     0
 91
        1
 92
        1
 93
        8
 72
     1
 10
175.4520691127713
 20
864.9484273084061
 11
165.9520691127713
 21
864.9484273084061
 72
     1
 10
165.9520691127713
 20
864.9484273084061
 11
165.9520691127713
 21
866.448427308406
 72
     1
 10
165.9520691127713
 20
866.448427308406
 11
163.4520691127713
 21
866.448427308406
 72
     1
 10
163.4520691127713
 20
866.448427308406
 11
161.4520691127713
 21
864.448427308406
 72
     1
 10
161.4520691127713
 20
864.448427308406
 11
161.4520691127713
 21
863.8165546962023
 72
     1
 10
161.4520691127713
 20
863.8165546962021
 11
161.4520691127822
 21
861.8165546962048
 72
     1
 10
161.4520691127822
 20
861.8165546962048
 11
175.4520691127713
 21
861.8165546962027
 72
     1
 10
175.4520691127713
 20
861.8165546962027
 11
175.4520691127713
 21
864.9484273084061
 97
        0
 75
     0
 76
     0
 52
135.0
 41
2.82
 77
     0
 78
     1
 53
135.0
 43
118.3978777400959
 44
558.3162574405593
 45
-1.994041122946064
 46
-1.994041122946064
 79
     0
 98
        1
 10
118.3978777400959
 20
558.3162574405593
1001
GENIUS_GENOBJ-N-HTC_13
1002
{
1000
OWNER
1000
GEN
1002
}
1001
GENIUS_GENODEF_13
1002
{
1000
HIER
1070
     0
1002
}
1002
{
1000
MANEDIT
1070
     0
1002
}
1002
{
1000
NOSEL
1070
     0
1002
}
1002
{
1000
BEHIND
1070
     0
1002
}
1002
{
1000
OTHER
1070
     0
1002
}
1002
{
1000
REACTOR
1002
}
1001
GENIUS_GENHATCH_13
1002
{
1000
DATA
1040
45.0
1042
2.5
1000
_U
1070
     0
1011
167.7530445556335
1021
862.8943703367438
1031
0.0
1002
}
1002
{
1000
UCS
1010
0.0
1020
0.0
1030
0.0
1010
1.0
1020
0.0
1030
0.0
1010
0.0
1020
1.0
1030
0.0
1002
}
1001
ACAD
1010
0.0
1020
0.0
1030
0.0
  0
HATCH
  5
1492
330
1F
100
AcDbEntity
  8
AM_8
100
AcDbHatch
 10
0.0
 20
0.0
 30
0.0
210
0.0
220
0.0
230
1.0
  2
_U
 70
     0
 71
     0
 91
        1
 92
        1
 93
       11
 72
     1
 10
165.752069112771
 20
878.166554696202
 11
163.1520691127711
 21
878.166554696202
 72
     1
 10
163.1520691127711
 20
878.166554696202
 11
163.1520691127711
 21
880.8165546962021
 72
     1
 10
163.1520691127711
 20
880.8165546962021
 11
161.4520691127713
 21
880.8165546962021
 72
     1
 10
161.4520691127713
 20
880.8165546962021
 11
161.4520691127715
 21
873.4484273084058
 72
     1
 10
161.4520691127715
 20
873.4484273084058
 11
163.4520691127713
 21
871.448427308406
 72
     1
 10
163.4520691127713
 20
871.448427308406
 11
165.9520691127713
 21
871.448427308406
 72
     1
 10
165.9520691127713
 20
871.448427308406
 11
165.9520691127713
 21
872.9484273084061
 72
     1
 10
165.9520691127713
 20
872.9484273084061
 11
168.4520691127713
 21
872.9484273084061
 72
     1
 10
168.4520691127713
 20
872.9484273084061
 11
168.4520691127713
 21
875.4665546962023
 72
     1
 10
168.4520691127713
 20
875.4665546962023
 11
165.752069112771
 21
875.4665546962023
 72
     1
 10
165.752069112771
 20
875.4665546962023
 11
165.752069112771
 21
878.166554696202
 97
        0
 75
     0
 76
     0
 52
135.0
 41
2.82
 77
     0
 78
     1
 53
135.0
 43
118.3978777400959
 44
558.3162574405593
 45
-1.994041122946064
 46
-1.994041122946064
 79
     0
 98
        1
 10
118.3978777400959
 20
558.3162574405593
1001
GENIUS_GENOBJ-N-HTC_13
1002
{
1000
OWNER
1000
GEN
1002
}
1001
GENIUS_GENODEF_13
1002
{
1000
HIER
1070
     0
1002
}
1002
{
1000
MANEDIT
1070
     0
1002
}
1002
{
1000
NOSEL
1070
     0
1002
}
1002
{
1000
BEHIND
1070
     0
1002
}
1002
{
1000
OTHER
1070
     0
1002
}
1002
{
1000
REACTOR
1002
}
1001
GENIUS_GENHATCH_13
1002
{
1000
DATA
1040
45.0
1042
2.5
1000
_U
1070
     0
1011
164.8082733972364
1021
874.5426317668586
1031
0.0
1002
}
1002
{
1000
UCS
1010
0.0
1020
0.0
1030
0.0
1010
1.0
1020
0.0
1030
0.0
1010
0.0
1020
1.0
1030
0.0
1002
}
1001
ACAD
1010
0.0
1020
0.0
1030
0.0
  0
INSERT
  5
1493
330
1F
100
AcDbEntity
  8
AM_4
100
AcDbBlockReference
  2
*S29
 10
0.0
 20
0.0
 30
0.0
1001
GENIUS_GENOBJ-N-ZOO_13
1002
{
1000
OWNER
1000
GEN
1002
}
1001
GENIUS_GENODEF_13
1002
{
1000
HIER
1070
     0
1002
}
1002
{
1000
MANEDIT
1070
     0
1002
}
1002
{
1000
NOSEL
1070
     0
1002
}
1002
{
1000
BEHIND
1070
     0
1002
}
1002
{
1000
OTHER
1070
     0
1002
}
1002
{
1000
REACTOR
1002
}
1001
GENIUS_GENZOO_16
1002
{
1000
TYP
1070
     1
1002
}
1002
{
1000
OBJ
1005
1495
1002
}
1002
{
1000
SSYM
1005
1493
1002
}
1002
{
1000
DSYM
1005
1494
1002
}
1002
{
1000
SIZE
1040
828.2670462286526
1002
}
1002
{
1000
ORIGIN
1010
165.9520691127713
1020
740.9486617077392
1030
0.0
1002
}
  0
INSERT
  5
1494
330
1F
100
AcDbEntity
  8
AM_4
100
AcDbBlockReference
  2
*S30
 10
0.0
 20
0.0
 30
0.0
1001
GENIUS_GENOBJ-N-SDF_13
1002
{
1000
OWNER
1000
GEN
1002
}
1001
GENIUS_GENOBJ-N-ZOO_13
1002
{
1000
OWNER
1000
GEN
1002
}
1001
GENIUS_GENODEF_13
1002
{
1000
HIER
1070
     0
1002
}
1002
{
1000
MANEDIT
1070
     0
1002
}
1002
{
1000
NOSEL
1070
     0
1002
}
1002
{
1000
BEHIND
1070
     0
1002
}
1002
{
1000
OTHER
1070
     0
1002
}
1002
{
1000
REACTOR
1002
}
1001
GENIUS_GENSCREG_15
1040
1.0
1040
0.25
1011
453.106903095264
1021
640.9891527169754
1031
-0.00000001
1011
583.0042383833478
1021
770.886488005059
1031
0.00000001
1070
     2
  0
INSERT
  5
1495
330
1F
100
AcDbEntity
  8
AM_0
100
AcDbBlockReference
  2
GENZOOIHWJJL3
 10
518.0555707393059
 20
705.9378203610172
 30
0.0
 41
4.0
 42
4.0
 43
4.0
  0
SPLINE
  5
1496
330
1F
100
AcDbEntity
  8
0
100
AcDbSpline
210
0.0
220
0.0
230
1.0
 70
     8
 71
     3
 72
     9
 73
     5
 74
     3
 42
0.0000000001
 43
0.0000000001
 44
0.00001
 40
0.0
 40
0.0
 40
0.0
 40
0.0
 40
9.290960633737578
 40
22.00145310009634
 40
22.00145310009634
 40
22.00145310009634
 40
22.00145310009634
 10
556.0555707393091
 20
758.6097239476258
 30
0.0
 10
553.8404341501945
 20
760.8768180267887
 30
0.0
 10
548.5948814353612
 20
766.2454086410986
 30
0.0
 10
541.106476104891
 20
767.4391298213976
 30
0.0
 10
536.7803382309538
 20
768.1287562747094
 30
0.0
 11
556.0555707393091
 21
758.6097239476258
 31
0.0
 11
549.0101984983893
 21
764.66651183268
 31
0.0
 11
536.7803382309538
 21
768.1287562747094
 31
0.0
  0
MTEXT
  5
1497
330
1F
100
AcDbEntity
  8
0
100
AcDbMText
 10
415.3600088643127
 20
776.9861989949762
 30
0.0
 40
5.0
 41
74.44119066258759
 71
     1
 72
     5
  1
Messing Gewindeeinsatz mit Innengewinde M4 \P(3 Stück im Umfang verteilt) 
 73
     1
 44
1.0
1001
ACAD
1000
MTEXTBEGIN
1070
    73
1070
     1
1070
    44
1040
1.0
1070
    74
1070
     0
1000
MTEXTEND
  0
LINE
  5
14A1
330
1F
100
AcDbEntity
  8
0
100
AcDbLine
 10
478.1522099747987
 20
761.913851299618
 30
0.0
 11
506.0555707393059
 21
742.9873165219038
 31
0.0
  0
LINE
  5
14A2
330
1F
100
AcDbEntity
  8
0
100
AcDbLine
 10
161.452069112757
 20
758.8595763743763
 30
0.0
 11
175.4520691127569
 21
758.8595763743717
 31
0.0
  0
ARC
  5
14A3
330
1F
100
AcDbEntity
  8
0
100
AcDbCircle
 10
304.664020936977
 20
805.0135595782551
 30
0.0
 40
76.60724863971018
100
AcDbArc
 50
184.3341072722986
 51
295.6658918020036
  0
ARC
  5
14A4
330
1F
100
AcDbEntity
  8
0
100
AcDbCircle
 10
304.4797015045619
 20
804.9486617713867
 30
0.0
 40
76.64783172728707
100
AcDbArc
 50
304.3784963779862
 51
55.62150357429461
  0
ARC
  5
14A5
330
1F
100
AcDbEntity
  8
0
100
AcDbCircle
 10
304.6999775146462
 20
804.8214853462905
 30
0.0
 40
76.64783192694745
100
AcDbArc
 50
64.37849827846332
 51
175.6215026949462
  0
ARC
  5
14A6
330
1F
100
AcDbEntity
  8
0
100
AcDbCircle
 10
231.2674332003262
 20
799.4486617077392
 30
0.0
 40
3.0
100
AcDbArc
 50
90.0
 51
184.2914506654356
  0
ARC
  5
14A7
330
1F
100
AcDbEntity
  8
0
100
AcDbCircle
 10
231.2674332003262
 20
810.4486617077393
 30
0.0
 40
3.0
100
AcDbArc
 50
175.7085493345644
 51
270.0
  0
LINE
  5
14A8
330
1F
100
AcDbEntity
  8
Viditelná (ISO)
100
AcDbLine
 10
231.2674332003262
 20
807.4486617077392
 30
0.0
 11
247.1157355421766
 21
807.4486617077392
 31
0.0
  0
LINE
  5
14A9
330
1F
100
AcDbEntity
  8
Viditelná (ISO)
100
AcDbLine
 10
231.2674332003262
 20
802.4486617077393
 30
0.0
 11
247.1157355421766
 21
802.4486617077393
 31
0.0
  0
ARC
  5
14AA
330
1F
100
AcDbEntity
  8
Viditelná (ISO)
100
AcDbCircle
 10
304.659146081577
 20
804.8922048661211
 30
0.0
 40
73.29999999999464
100
AcDbArc
 50
298.0454674786646
 51
301.9545325213413
  0
ARC
  5
14AB
330
1F
100
AcDbEntity
  8
0
100
AcDbCircle
 10
346.0692502060145
 20
744.1678005758876
 30
0.0
 40
2.999999999999999
100
AcDbArc
 50
210.0000000000003
 51
304.2914506654366
  0
ARC
  5
14AC
330
1F
100
AcDbEntity
  8
0
100
AcDbCircle
 10
336.5429707643857
 20
738.6678005758876
 30
0.0
 40
2.999999999999999
100
AcDbArc
 50
295.7085493345608
 51
30.00000000000025
  0
LINE
  5
14AD
330
1F
100
AcDbEntity
  8
Viditelná (ISO)
100
AcDbLine
 10
339.141046975739
 20
740.1678005758876
 30
0.0
 11
331.2168958048138
 21
753.8928330107864
 31
0.0
  0
LINE
  5
14AE
330
1F
100
AcDbEntity
  8
Viditelná (ISO)
100
AcDbLine
 10
343.4711739946612
 20
742.6678005758876
 30
0.0
 11
335.547022823736
 21
756.3928330107865
 31
0.0
  0
ARC
  5
14AF
330
1F
100
AcDbEntity
  8
Viditelná (ISO)
100
AcDbCircle
 10
304.6591461342692
 20
805.005118640603
 30
0.0
 40
73.29999999999465
100
AcDbArc
 50
58.04546747866439
 51
61.95453252134381
  0
ARC
  5
14B0
330
1F
100
AcDbEntity
  8
0
100
AcDbCircle
 10
336.5429708170693
 20
871.2295229308415
 30
0.0
 40
3.0
100
AcDbArc
 50
329.9999999999998
 51
64.29145066543549
  0
ARC
  5
14B1
330
1F
100
AcDbEntity
  8
0
100
AcDbCircle
 10
346.0692502586982
 20
865.7295229308415
 30
0.0
 40
3.0
100
AcDbArc
 50
55.70854933456058
 51
149.9999999999997
  0
LINE
  5
14B2
330
1F
100
AcDbEntity
  8
Viditelná (ISO)
100
AcDbLine
 10
343.4711740473448
 20
867.2295229308414
 30
0.0
 11
335.5470228764196
 21
853.5044904959425
 31
0.0
  0
LINE
  5
14B3
330
1F
100
AcDbEntity
  8
Viditelná (ISO)
100
AcDbLine
 10
339.1410470284226
 20
869.7295229308414
 30
0.0
 11
331.2168958574974
 21
856.0044904959426
 31
0.0
  0
LINE
  5
14B5
330
1F
100
AcDbEntity
  8
0
100
AcDbLine
 10
161.4520691127715
 20
807.4486617077392
 30
0.0
 11
163.4520691127715
 21
807.4486617077392
 31
0.0
  0
LINE
  5
14B6
330
1F
100
AcDbEntity
  8
0
100
AcDbLine
 10
161.4520691127715
 20
802.4486617077393
 30
0.0
 11
163.4520691127715
 21
802.4486617077393
 31
0.0
  0
LINE
  5
14B7
330
1F
100
AcDbEntity
  8
AM_7
  6
AM_DIN_G_W050x2
100
AcDbLine
 10
178.452069112762
 20
804.9486617077388
 30
0.0
 11
158.4520691127729
 21
804.948661707742
 31
0.0
1001
GENIUS_GENODEF_13
1002
{
1000
HIER
1070
     0
1002
}
1002
{
1000
MANEDIT
1070
     0
1002
}
1002
{
1000
NOSEL
1070
     0
1002
}
1002
{
1000
BEHIND
1070
     0
1002
}
1002
{
1000
OTHER
1070
     0
1002
}
1002
{
1000
REACTOR
1002
}
1001
GENIUS_GENOBJ-N-CEN_13
1002
{
1000
OWNER
1000
GEN
1002
}
1001
GENIUS_GENCEN_19
1002
{
1040
3.0
1002
}
  0
LINE
  5
14B8
330
1F
100
AcDbEntity
  8
0
100
AcDbLine
 10
163.4520691127715
 20
807.4486617077392
 30
0.0
 11
163.4520691127715
 21
802.4486617077393
 31
0.0
  0
DIMENSION
  5
14BC
330
1F
100
AcDbEntity
  8
AM_5
100
AcDbDimension
  2
*D20
 10
252.0949964291366
 20
781.4214331631029
 30
0.0
 11
333.5356425561579
 21
817.9414526675882
 31
0.0
 70
   163
  1
<>
 71
     5
 42
114.9999999999996
  3
AM_DIN$3
100
AcDbDiametricDimension
 15
357.0277275859762
 25
828.4758902523773
 35
0.0
 40
0.0
1001
ACAD_DSTYLE_DIMRADIAL_EXTENSION
1070
   387
1070
     1
1070
   388
1040
4.240871993254553
1070
   390
1040
4.659472492355263
1001
ACAD
1000
DSTYLE
1002
{
1070
   286
1070
     0
1070
   284
1070
     8
1070
   274
1070
     4
1070
   272
1070
     3
1070
    47
1040
1.0
1070
    48
1040
1.0
1002
}
1001
ACAD_DSTYLE_DIMINSPECT
1070
   396
1000
100%
1070
   395
1000

1070
   394
1070
    33
1070
   393
1070
     0
  0
DIMENSION
  5
14BE
330
1F
100
AcDbEntity
  8
AM_5
100
AcDbDimension
  2
*D21
 10
125.3337276570872
 20
727.8165546962021
 30
0.0
 11
122.0837276570871
 21
804.3165546962022
 31
0.0
 70
    32
  1
%%c154
 71
     5
 42
153.0
  3
AM_DIN$0
100
AcDbAlignedDimension
 13
161.4520691127713
 23
880.8165546962021
 33
0.0
 14
161.4520691127713
 24
727.8165546962021
 34
0.0
 50
90.0
100
AcDbRotatedDimension
1001
ACAD
1000
DSTYLE
1002
{
1070
   286
1070
     0
1070
   284
1070
     8
1070
   274
1070
     4
1070
   272
1070
     3
1070
    47
1040
1.0
1070
    48
1040
1.0
1002
}
1001
ACAD_DSTYLE_DIMINSPECT
1070
   396
1000
100%
1070
   395
1000

1070
   394
1070
    33
1070
   393
1070
     0
  0
POINT
  5
14C1
330
1F
100
AcDbEntity
  8
0
 60
     1
100
AcDbPoint
 10
118.3978777400959
 20
528.6204466418996
 30
0.0
1001
GENIUS_GENODEF_13
1002
{
1000
HIER
1070
     1
1002
}
1002
{
1000
MANEDIT
1070
     0
1002
}
1002
{
1000
NOSEL
1070
     0
1002
}
1002
{
1000
BEHIND
1070
     0
1002
}
1002
{
1000
OTHER
1070
     0
1002
}
1002
{
1000
REACTOR
1002
}
1001
GENIUS_GENOBJ-N-TIT_13
1002
{
1000
OWNER
1000
GEN
1002
}
1001
GENIUS_GENOENT_13
1002
{
1000
MYREF
1005
14C1
1002
}
1002
{
1000
GRP
1005
0
1002
}
1001
GENIUS_GENOLIS_13
1002
{
1000
ENT
1005
144F
1005
144E
1002
}
1001
GENIUS_GENTITLE_13
1002
{
1000
BORDER
1000
L:\calink52\templates\ac\06\ACO_A2
1002
}
1002
{
1000
TITLE
1000
L:\calink52\templates\ac\06\ACO-SF02-GR
1002
}
1002
{
1000
ADDITIONAL1
1000

1002
}
1002
{
1000
ADDITIONAL2
1000

1002
}
1002
{
1000
SCALE
1000
1:1
1002
}
1002
{
1000
TITLESTD
1000
DIN
1002
}
1002
{
1000
HRA
1005
144E
1002
}
1002
{
1000
HTIT
1005
144F
1002
}
1002
{
1000
GENIUSID
1005
14C1
1002
}
1002
{
1000
INVTXTID
1005
0
1002
}
1002
{
1000
UNCHG
1002
{
1000
GEN-TITLE-SIZ
1000
GEN-TITLE-SCA
1002
}
1002
}
  0
POINT
  5
14C2
330
1F
100
AcDbEntity
  8
0
 60
     1
100
AcDbPoint
 10
118.3978777400959
 20
528.6204466418996
 30
0.0
1001
GENIUS_GENODEF_13
1002
{
1000
HIER
1070
    10
1002
}
1002
{
1000
MANEDIT
1070
     0
1002
}
1002
{
1000
NOSEL
1070
     0
1002
}
1002
{
1000
BEHIND
1070
     0
1002
}
1002
{
1000
OTHER
1070
     0
1002
}
1002
{
1000
REACTOR
1002
}
1001
GENIUS_GENOLIS_13
1002
{
1000
ENT
1005
144D
1005
144C
1005
144B
1005
144A
1002
}
1001
GENIUS_GENOBJ-N-CRS_13
1002
{
1000
OWNER
1000
GEN
1002
}
1001
GENIUS_GENOENT_13
1002
{
1000
MYREF
1005
14C2
1002
}
1002
{
1000
GRP
1005
0
1002
}
  0
POINT
  5
14C3
330
1F
100
AcDbEntity
  8
0
 60
     1
100
AcDbPoint
 10
118.3978777400959
 20
528.6204466418996
 30
0.0
1001
GENIUS_GENOLIS_13
1002
{
1000
ENT
1005
1449
1005
1448
1005
1447
1005
1446
1002
}
1001
GENIUS_GENOENT_13
1002
{
1000
MYREF
1005
14C3
1002
}
1002
{
1000
GRP
1005
0
1002
}
1001
GENIUS_GENOBJ-N-CRS_13
1002
{
1000
OWNER
1000
GEN
1002
}
1001
GENIUS_GENODEF_13
1002
{
1000
HIER
1070
    10
1002
}
1002
{
1000
MANEDIT
1070
     0
1002
}
1002
{
1000
NOSEL
1070
     0
1002
}
1002
{
1000
BEHIND
1070
     0
1002
}
1002
{
1000
OTHER
1070
     0
1002
}
1002
{
1000
REACTOR
1002
}
  0
POINT
  5
14C4
330
1F
100
AcDbEntity
  8
0
 60
     1
100
AcDbPoint
 10
118.3978777400959
 20
528.6204466418996
 30
0.0
1001
GENIUS_GENOLIS_13
1002
{
1000
ENT
1005
1445
1005
1444
1005
1443
1005
1442
1002
}
1001
GENIUS_GENOENT_13
1002
{
1000
MYREF
1005
14C4
1002
}
1002
{
1000
GRP
1005
0
1002
}
1001
GENIUS_GENOBJ-N-CRS_13
1002
{
1000
OWNER
1000
GEN
1002
}
1001
GENIUS_GENODEF_13
1002
{
1000
HIER
1070
    10
1002
}
1002
{
1000
MANEDIT
1070
     0
1002
}
1002
{
1000
NOSEL
1070
     0
1002
}
1002
{
1000
BEHIND
1070
     0
1002
}
1002
{
1000
OTHER
1070
     0
1002
}
1002
{
1000
REACTOR
1002
}
  0
POINT
  5
14C5
330
1F
100
AcDbEntity
  8
0
 60
     1
100
AcDbPoint
 10
118.3978777400959
 20
528.6204466418996
 30
0.0
1001
GENIUS_GENOLIS_13
1002
{
1000
ENT
1005
1441
1005
1440
1005
143F
1005
143E
1002
}
1001
GENIUS_GENOBJ-N-CRS_13
1002
{
1000
OWNER
1000
GEN
1002
}
1001
GENIUS_GENOENT_13
1002
{
1000
MYREF
1005
14C5
1002
}
1002
{
1000
GRP
1005
0
1002
}
1001
GENIUS_GENODEF_13
1002
{
1000
HIER
1070
    10
1002
}
1002
{
1000
MANEDIT
1070
     0
1002
}
1002
{
1000
NOSEL
1070
     0
1002
}
1002
{
1000
BEHIND
1070
     0
1002
}
1002
{
1000
OTHER
1070
     0
1002
}
1002
{
1000
REACTOR
1002
}
  0
POINT
  5
14C6
330
1F
100
AcDbEntity
  8
0
 60
     1
100
AcDbPoint
 10
118.3978777400959
 20
528.6204466418996
 30
0.0
1001
GENIUS_GENODEF_13
1002
{
1000
HIER
1070
    10
1002
}
1002
{
1000
MANEDIT
1070
     0
1002
}
1002
{
1000
NOSEL
1070
     0
1002
}
1002
{
1000
BEHIND
1070
     0
1002
}
1002
{
1000
OTHER
1070
     0
1002
}
1002
{
1000
REACTOR
1002
}
1001
GENIUS_GENOLIS_13
1002
{
1000
ENT
1005
143D
1005
143C
1005
143B
1005
143A
1002
}
1001
GENIUS_GENOENT_13
1002
{
1000
MYREF
1005
14C6
1002
}
1002
{
1000
GRP
1005
0
1002
}
1001
GENIUS_GENOBJ-N-CRS_13
1002
{
1000
OWNER
1000
GEN
1002
}
  0
POINT
  5
14C7
330
1F
100
AcDbEntity
  8
0
 60
     1
100
AcDbPoint
 10
118.3978777400959
 20
528.6204466418996
 30
0.0
1001
GENIUS_GENOLIS_13
1002
{
1000
ENT
1005
1439
1005
1438
1005
1437
1005
1436
1002
}
1001
GENIUS_GENOBJ-N-CRS_13
1002
{
1000
OWNER
1000
GEN
1002
}
1001
GENIUS_GENOENT_13
1002
{
1000
MYREF
1005
14C7
1002
}
1002
{
1000
GRP
1005
0
1002
}
1001
GENIUS_GENODEF_13
1002
{
1000
HIER
1070
    10
1002
}
1002
{
1000
MANEDIT
1070
     0
1002
}
1002
{
1000
NOSEL
1070
     0
1002
}
1002
{
1000
BEHIND
1070
     0
1002
}
1002
{
1000
OTHER
1070
     0
1002
}
1002
{
1000
REACTOR
1002
}
  0
POINT
  5
14C8
330
1F
100
AcDbEntity
  8
0
 60
     1
100
AcDbPoint
 10
118.3978777400959
 20
528.6204466418996
 30
0.0
1001
GENIUS_GENOENT_13
1002
{
1000
MYREF
1005
14C8
1002
}
1002
{
1000
GRP
1005
0
1002
}
1001
GENIUS_GENODEF_13
1002
{
1000
HIER
1070
    10
1002
}
1002
{
1000
MANEDIT
1070
     0
1002
}
1002
{
1000
NOSEL
1070
     0
1002
}
1002
{
1000
BEHIND
1070
     0
1002
}
1002
{
1000
OTHER
1070
     0
1002
}
1002
{
1000
REACTOR
1002
}
1001
GENIUS_GENOBJ-N-CRS_13
1002
{
1000
OWNER
1000
GEN
1002
}
1001
GENIUS_GENOLIS_13
1002
{
1000
ENT
1005
1416
1005
1415
1005
1414
1005
1413
1002
}
  0
POINT
  5
14C9
330
1F
100
AcDbEntity
  8
0
 60
     1
100
AcDbPoint
 10
118.3978777400959
 20
528.6204466418996
 30
0.0
1001
GENIUS_GENODEF_13
1002
{
1000
HIER
1070
    10
1002
}
1002
{
1000
MANEDIT
1070
     0
1002
}
1002
{
1000
NOSEL
1070
     0
1002
}
1002
{
1000
BEHIND
1070
     0
1002
}
1002
{
1000
OTHER
1070
     0
1002
}
1002
{
1000
REACTOR
1002
}
1001
GENIUS_GENOLIS_13
1002
{
1000
ENT
1005
1411
1005
1410
1005
140F
1005
140E
1002
}
1001
GENIUS_GENOBJ-N-CRS_13
1002
{
1000
OWNER
1000
GEN
1002
}
1001
GENIUS_GENOENT_13
1002
{
1000
MYREF
1005
14C9
1002
}
1002
{
1000
GRP
1005
0
1002
}
  0
POINT
  5
14CA
330
1F
100
AcDbEntity
  8
0
 60
     1
100
AcDbPoint
 10
118.3978777400959
 20
528.6204466418996
 30
0.0
1001
GENIUS_GENOLIS_13
1002
{
1000
ENT
1005
140D
1005
140C
1005
140B
1005
140A
1002
}
1001
GENIUS_GENODEF_13
1002
{
1000
HIER
1070
    10
1002
}
1002
{
1000
MANEDIT
1070
     0
1002
}
1002
{
1000
NOSEL
1070
     0
1002
}
1002
{
1000
BEHIND
1070
     0
1002
}
1002
{
1000
OTHER
1070
     0
1002
}
1002
{
1000
REACTOR
1002
}
1001
GENIUS_GENOBJ-N-CRS_13
1002
{
1000
OWNER
1000
GEN
1002
}
1001
GENIUS_GENOENT_13
1002
{
1000
MYREF
1005
14CA
1002
}
1002
{
1000
GRP
1005
0
1002
}
  0
POINT
  5
14CB
330
1F
100
AcDbEntity
  8
0
 60
     1
100
AcDbPoint
 10
118.3978777400959
 20
528.6204466418996
 30
0.0
1001
GENIUS_GENODEF_13
1002
{
1000
HIER
1070
    10
1002
}
1002
{
1000
MANEDIT
1070
     0
1002
}
1002
{
1000
NOSEL
1070
     0
1002
}
1002
{
1000
BEHIND
1070
     0
1002
}
1002
{
1000
OTHER
1070
     0
1002
}
1002
{
1000
REACTOR
1002
}
1001
GENIUS_GENOBJ-N-CRS_13
1002
{
1000
OWNER
1000
GEN
1002
}
1001
GENIUS_GENOENT_13
1002
{
1000
MYREF
1005
14CB
1002
}
1002
{
1000
GRP
1005
0
1002
}
1001
GENIUS_GENOLIS_13
1002
{
1000
ENT
1005
1409
1005
1408
1005
1407
1005
1406
1002
}
  0
POINT
  5
14CC
330
1F
100
AcDbEntity
  8
0
 60
     1
100
AcDbPoint
 10
118.3978777400959
 20
528.6204466418996
 30
0.0
1001
GENIUS_GENOBJ-N-CRS_13
1002
{
1000
OWNER
1000
GEN
1002
}
1001
GENIUS_GENOENT_13
1002
{
1000
MYREF
1005
14CC
1002
}
1002
{
1000
GRP
1005
0
1002
}
1001
GENIUS_GENODEF_13
1002
{
1000
HIER
1070
    10
1002
}
1002
{
1000
MANEDIT
1070
     1
1002
}
1002
{
1000
NOSEL
1070
     0
1002
}
1002
{
1000
BEHIND
1070
     0
1002
}
1002
{
1000
OTHER
1070
     0
1002
}
1002
{
1000
REACTOR
1002
}
1001
GENIUS_GENOLIS_13
1002
{
1000
ENT
1005
13D2
1005
13D1
1005
13D0
1005
1405
1002
}
1001
GENIUS_GENCEN_19
1002
{
1040
3.0
1002
}
  0
HATCH
  5
1711
330
1F
100
AcDbEntity
  8
AM_8
100
AcDbHatch
 10
0.0
 20
0.0
 30
0.0
210
0.0
220
0.0
230
1.0
  2
ANSI37
 70
     0
 71
     0
 91
        2
 92
        7
 72
     1
 73
     1
 93
        5
 10
168.4520691127711
 20
735.816554696202
 42
0.0
 10
168.4520691127711
 20
733.166554696202
 42
0.0
 10
165.7520691127708
 20
733.166554696202
 42
0.0768974627021492
 10
170.9102986488908
 20
731.4626064249395
 42
0.7099355480175611
 10
171.4381950547811
 20
732.2452753916848
 42
0.0316987223658312
 97
        0
 92
        7
 72
     1
 73
     1
 93
        5
 10
171.4431780527956
 20
876.3946267368657
 42
0.7036190947793016
 10
170.9102986489145
 20
877.1705029674688
 42
0.076897462702488
 10
165.7520691127709
 20
875.4665546962021
 42
0.0
 10
168.4520691127711
 20
875.4665546962021
 42
0.0
 10
168.4520691127711
 20
872.8165546962021
 42
0.0317560871451846
 97
        0
 75
     0
 76
     1
 52
0.0
 41
0.5
 77
     0
 78
     2
 53
45.0
 43
71.53046089808817
 44
548.1587593326264
 45
-1.122532015133643
 46
1.122532015133644
 79
     0
 53
135.0
 43
71.53046089808817
 44
548.1587593326264
 45
-1.122532015133644
 46
-1.122532015133643
 79
     0
 47
0.0228249444123154
 98
        2
 10
169.4524697821857
 20
733.573173705927
 10
169.7873534720924
 20
875.5283509940884
1001
ACAD
1010
0.0
1020
0.0
1030
0.0
  0
ARC
  5
1712
330
1F
100
AcDbEntity
  8
0
100
AcDbCircle
 10
171.0375452985543
 20
876.6869656988374
 30
0.0
 40
0.5
100
AcDbArc
 50
323.2543764540605
 51
104.74356283647
1001
GENIUS_GENOBJ-N-FIL_13
1002
{
1000
OWNER
1000
GEN
1002
}
1001
GENIUS_GENODEF_13
1002
{
1000
HIER
1070
     0
1002
}
1002
{
1000
MANEDIT
1070
     0
1002
}
1002
{
1000
NOSEL
1070
     0
1002
}
1002
{
1000
BEHIND
1070
     0
1002
}
1002
{
1000
OTHER
1070
     0
1002
}
1002
{
1000
REACTOR
1002
}
  0
ARC
  5
1713
330
1F
100
AcDbEntity
  8
0
100
AcDbCircle
 10
173.8381030662496
 20
859.6478624305564
 30
0.0
 40
17.76555572145176
100
AcDbArc
 50
99.48574978374251
 51
117.0747353768064
  0
ARC
  5
1714
330
1F
100
AcDbEntity
  8
0
100
AcDbCircle
 10
141.8076348548175
 20
898.1293685778634
 30
0.0
 40
36.75138668858696
100
AcDbArc
 50
316.4681210348247
 51
323.7305012813459
  0
ARC
  5
1715
330
1F
100
AcDbEntity
  8
0
100
AcDbCircle
 10
171.0375452985308
 20
731.9461436935707
 30
0.0
 40
0.5
100
AcDbArc
 50
255.2564371635118
 51
36.74562354592225
1001
GENIUS_GENOBJ-N-FIL_13
1002
{
1000
OWNER
1000
GEN
1002
}
1001
GENIUS_GENODEF_13
1002
{
1000
HIER
1070
     0
1002
}
1002
{
1000
MANEDIT
1070
     0
1002
}
1002
{
1000
NOSEL
1070
     0
1002
}
1002
{
1000
BEHIND
1070
     0
1002
}
1002
{
1000
OTHER
1070
     0
1002
}
1002
{
1000
REACTOR
1002
}
  0
ARC
  5
1716
330
1F
100
AcDbEntity
  8
0
100
AcDbCircle
 10
173.8381030662315
 20
748.9852469618508
 30
0.0
 40
17.76555572145176
100
AcDbArc
 50
242.9252646231761
 51
260.5142502162379
  0
ARC
  5
1717
330
1F
100
AcDbEntity
  8
0
100
AcDbCircle
 10
141.807634854787
 20
710.5037408145542
 30
0.0
 40
36.75138668858696
100
AcDbArc
 50
36.26949871863679
 51
43.53187896515686
  0
DIMENSION
  5
1718
330
1F
100
AcDbEntity
  8
AM_5
100
AcDbDimension
  2
*D22
 10
187.452070112772
 20
731.666554696206
 30
0.0
 11
184.0270701127718
 21
804.316554696204
 31
0.0
 70
    32
  1
(%%c<>)
 71
     5
 42
145.299999999996
  3
AM_DIN$0
100
AcDbAlignedDimension
 13
171.4520691127709
 23
876.966554696202
 33
0.0
 14
171.4520691127473
 24
731.666554696206
 34
0.0
 50
90.0
100
AcDbRotatedDimension
1001
ACAD
1000
DSTYLE
1002
{
1070
   271
1070
     0
1002
}
1001
ACAD_DSTYLE_DIMINSPECT
1070
   396
1000
100%
1070
   395
1000

1070
   394
1070
    33
1070
   393
1070
     0
  0
INSERT
  5
1740
330
1F
100
AcDbEntity
  8
AM_4
100
AcDbBlockReference
  2
*S31
 10
0.0
 20
0.0
 30
0.0
1001
GENIUS_GENOBJ-N-ZOO_13
1002
{
1000
OWNER
1000
GEN
1002
}
1001
GENIUS_GENODEF_13
1002
{
1000
HIER
1070
     0
1002
}
1002
{
1000
MANEDIT
1070
     0
1002
}
1002
{
1000
NOSEL
1070
     0
1002
}
1002
{
1000
BEHIND
1070
     0
1002
}
1002
{
1000
OTHER
1070
     0
1002
}
1002
{
1000
REACTOR
1002
}
1001
GENIUS_GENZOO_16
1002
{
1000
TYP
1070
     1
1002
}
1002
{
1000
OBJ
1005
1818
1002
}
1002
{
1000
SSYM
1005
1740
1002
}
1002
{
1000
DSYM
1005
1819
1002
}
1002
{
1000
SIZE
1040
237.4983283837382
1002
}
1002
{
1000
ORIGIN
1010
168.4520691127712
1020
875.4665546962023
1030
0.0
1002
}
  0
SPLINE
  5
1743
330
1F
100
AcDbEntity
  8
0
100
AcDbSpline
210
0.0
220
0.0
230
1.0
 70
     8
 71
     3
 72
    10
 73
     6
 74
     4
 42
0.0000000001
 43
0.0000000001
 44
0.00001
 40
0.0
 40
0.0
 40
0.0
 40
0.0
 40
11.18967141962973
 40
22.30691240761538
 40
52.52189363018004
 40
52.52189363018004
 40
52.52189363018004
 40
52.52189363018004
 10
475.6833049455012
 20
842.2136243185088
 30
0.0
 10
478.1827966821567
 20
839.4292178751346
 30
0.0
 10
483.1656010150273
 20
833.8784283737922
 30
0.0
 10
499.590533509906
 20
825.7647555886475
 30
0.0
 10
513.4162957986454
 20
830.6829160777276
 30
0.0
 10
523.5233049455009
 20
834.2782254726623
 30
0.0
 11
475.6833049455012
 21
842.2136243185088
 31
0.0
 11
483.6833049455004
 21
834.3900224319547
 31
0.0
 11
493.6833049455003
 21
829.5327549712368
 31
0.0
 11
523.5233049455009
 21
834.2782254726623
 31
0.0
  0
MTEXT
  5
1748
330
1F
100
AcDbEntity
  8
0
100
AcDbMText
 10
532.9452894826934
 20
923.287004870651
 30
0.0
 40
5.0
 41
92.36373552488476
 71
     1
 72
     5
  1
Dichtlippe aus PU\PShorehärte 50 +/-5
 73
     1
 44
1.0
1001
ACAD
1000
MTEXTBEGIN
1070
    73
1070
     1
1070
    44
1040
1.0
1070
    74
1070
     0
1000
MTEXTEND
  0
LINE
  5
1749
330
1F
100
AcDbEntity
  8
0
100
AcDbLine
 10
513.5162230900736
 20
867.7245934277236
 30
0.0
 11
549.4842478688963
 21
906.2482840543882
 31
0.0
  0
INSERT
  5
1818
330
1F
100
AcDbEntity
  8
AM_0
100
AcDbBlockReference
  2
GENZOO7AR1R33
 10
503.6833049454994
 20
862.842949417182
 30
0.0
 41
4.0
 42
4.0
 43
4.0
  0
INSERT
  5
1819
330
1F
100
AcDbEntity
  8
AM_4
100
AcDbBlockReference
  2
*S32
 10
0.0
 20
0.0
 30
0.0
1001
GENIUS_GENOBJ-N-SDF_13
1002
{
1000
OWNER
1000
GEN
1002
}
1001
GENIUS_GENOBJ-N-ZOO_13
1002
{
1000
OWNER
1000
GEN
1002
}
1001
GENIUS_GENODEF_13
1002
{
1000
HIER
1070
     0
1002
}
1002
{
1000
MANEDIT
1070
     0
1002
}
1002
{
1000
NOSEL
1070
     0
1002
}
1002
{
1000
BEHIND
1070
     0
1002
}
1002
{
1000
OTHER
1070
     0
1002
}
1002
{
1000
REACTOR
1002
}
1001
GENIUS_GENSCREG_15
1040
1.0
1040
0.25
1011
468.9044456381232
1021
828.0640901098056
1031
-0.00000001
1011
538.4621642528757
1021
897.6218087245582
1031
0.00000001
1070
     2
  0
ELLIPSE
  5
18A5
330
1F
100
AcDbEntity
  8
0
100
AcDbEllipse
 10
488.2594084717086
 20
726.3541354914757
 30
0.0
 11
-103.1859749857319
 21
2.287012753499197
 31
0.0
210
0.0
220
0.0
230
1.0
 40
0.7736196677666919
 41
0.0
 42
6.283185307179586
  0
ELLIPSE
  5
18A6
330
1F
100
AcDbEntity
  8
0
100
AcDbEllipse
 10
524.322384374896
 20
873.0260382064287
 30
0.0
 11
96.52974185675988
 21
-2.309617903818735
 31
0.0
210
0.0
220
0.0
230
1.0
 40
0.6546439878220697
 41
0.0
 42
6.283185307179586
  0
ENDSEC
  0
SECTION
  2
OBJECTS
  0
DICTIONARY
  5
C
330
0
100
AcDbDictionary
281
     1
  3
ACAD_2007HEADERVARS_RT
350
19A3
  3
ACAD_COLOR
350
9B
  3
ACAD_GROUP
350
D
  3
ACAD_IMAGE_DICT
350
460
  3
ACAD_IMAGE_VARS
350
474
  3
ACAD_LAYOUT
350
1A
  3
ACAD_MATERIAL
350
9A
  3
ACAD_MLEADERSTYLE
350
15D
  3
ACAD_MLINESTYLE
350
17
  3
ACAD_PLOTSETTINGS
350
19
  3
ACAD_PLOTSTYLENAME
350
E
  3
ACAD_SCALELIST
350
13B
  3
ACAD_TABLESTYLE
350
9C
  3
ACAD_VISUALSTYLE
350
12A
  3
ACDB_RECOMPOSE_DATA
350
169
  3
AcDbVariableDictionary
350
34
  3
AcmDictionary
350
47
  3
AEC_PROPERTY_SET_DEFS
350
465
  3
AMG
350
2B
  3
AMGSNAPSETTINGS
350
467
  3
DWGPROPS
350
19A2
  0
DICTIONARY
  5
2A3
330
2
100
AcDbDictionary
280
     1
281
     1
  3
ACAD_LAYERSTATES
360
2A4
  3
AMLAYER_GROUPCOLORS
360
70E
  0
DICTIONARY
  5
165
330
10
100
AcDbDictionary
280
     1
281
     1
  3
ADSK_XREC_LAYER_RECONCILED
360
166
  0
DICTIONARY
  5
26B
330
26A
100
AcDbDictionary
280
     1
281
     1
  0
DICTIONARY
  5
26D
330
26C
100
AcDbDictionary
280
     1
281
     1
  0
DICTIONARY
  5
26F
330
26E
100
AcDbDictionary
280
     1
281
     1
  0
DICTIONARY
  5
271
330
270
100
AcDbDictionary
280
     1
281
     1
  0
DICTIONARY
  5
273
330
272
100
AcDbDictionary
280
     1
281
     1
  0
DICTIONARY
  5
275
330
274
100
AcDbDictionary
280
     1
281
     1
  0
DICTIONARY
  5
277
330
276
100
AcDbDictionary
280
     1
281
     1
  0
DICTIONARY
  5
279
330
278
100
AcDbDictionary
280
     1
281
     1
  0
DICTIONARY
  5
27B
330
27A
100
AcDbDictionary
280
     1
281
     1
  0
DICTIONARY
  5
27E
330
27D
100
AcDbDictionary
280
     1
281
     1
  0
DICTIONARY
  5
280
330
27F
100
AcDbDictionary
280
     1
281
     1
  0
DICTIONARY
  5
282
330
281
100
AcDbDictionary
280
     1
281
     1
  0
DICTIONARY
  5
284
330
283
100
AcDbDictionary
280
     1
281
     1
  0
DICTIONARY
  5
286
330
285
100
AcDbDictionary
280
     1
281
     1
  0
DICTIONARY
  5
288
330
287
100
AcDbDictionary
280
     1
281
     1
  0
DICTIONARY
  5
81
330
1F
100
AcDbDictionary
280
     1
281
     1
  3
ACAD_SORTENTS
360
77D
  0
DICTIONARY
  5
1DC
330
1DB
100
AcDbDictionary
280
     1
281
     1
  0
DICTIONARY
  5
19AF
330
1D8
100
AcDbDictionary
280
     1
281
     1
  3
ACAD_MTEXT_RT
360
19B0
  0
IMAGEDEF_REACTOR
  5
264
330
263
100
AcDbRasterImageDefReactor
 90
        2
330
263
  0
DICTIONARY
  5
19B3
330
1014
100
AcDbDictionary
280
     1
281
     1
  3
ACAD_MTEXT_RT
360
19B4
  0
DICTIONARY
  5
19B5
330
1974
100
AcDbDictionary
280
     1
281
     1
  3
ACAD_MTEXT_RT
360
19B6
  0
DICTIONARY
  5
1425
330
1424
100
AcDbDictionary
280
     1
281
     1
  3
ACAD_DIMASSOC
360
1426
  0
DICTIONARY
  5
19A3
102
{ACAD_REACTORS
330
C
102
}
330
C
100
AcDbDictionary
281
     1
  3
DIMJOGANG
350
19A4
  0
DICTIONARY
  5
9B
102
{ACAD_REACTORS
330
C
102
}
330
C
100
AcDbDictionary
281
     1
  0
DICTIONARY
  5
D
102
{ACAD_REACTORS
330
C
102
}
330
C
100
AcDbDictionary
281
     1
  0
DICTIONARY
  5
460
102
{ACAD_REACTORS
330
C
102
}
330
C
100
AcDbDictionary
281
     1
  3
ACO-Logo
350
461
  0
RASTERVARIABLES
  5
474
102
{ACAD_REACTORS
330
C
102
}
330
C
100
AcDbRasterVariables
 90
        0
 70
     1
 71
     1
 72
     1
  0
DICTIONARY
  5
1A
102
{ACAD_REACTORS
330
C
102
}
330
C
100
AcDbDictionary
281
     1
  3
Layout1
350
1E
  3
Layout2
350
26
  3
Model
350
22
  0
DICTIONARY
  5
9A
102
{ACAD_REACTORS
330
C
102
}
330
C
100
AcDbDictionary
281
     1
  3
ByBlock
350
11A
  3
ByLayer
350
112
  3
Global
350
122
  0
DICTIONARY
  5
15D
102
{ACAD_REACTORS
330
C
102
}
330
C
100
AcDbDictionary
281
     1
  3
Standard
350
15E
  0
DICTIONARY
  5
17
102
{ACAD_REACTORS
330
C
102
}
330
C
100
AcDbDictionary
281
     1
  3
Standard
350
18
  0
DICTIONARY
  5
19
102
{ACAD_REACTORS
330
C
102
}
330
C
100
AcDbDictionary
281
     1
  0
ACDBDICTIONARYWDFLT
  5
E
102
{ACAD_REACTORS
330
C
102
}
330
C
100
AcDbDictionary
281
     1
  3
Normal
350
F
100
AcDbDictionaryWithDefault
340
F
  0
DICTIONARY
  5
13B
102
{ACAD_REACTORS
330
C
102
}
330
C
100
AcDbDictionary
281
     1
  3
A0
350
13C
  3
A1
350
13D
  3
A2
350
13E
  3
A3
350
13F
  3
A4
350
140
  3
A5
350
141
  3
A6
350
142
  3
A7
350
143
  3
A8
350
144
  3
A9
350
145
  3
B0
350
146
  3
B1
350
147
  3
B2
350
148
  3
B3
350
149
  3
B4
350
14A
  3
B5
350
14B
  3
B6
350
14C
  3
B7
350
14D
  3
B8
350
14E
  3
B9
350
14F
  3
C0
350
150
  3
C1
350
151
  3
C2
350
152
  3
C3
350
153
  3
C4
350
154
  3
C5
350
155
  3
C6
350
156
  3
C7
350
157
  3
C8
350
158
  3
C9
350
159
  3
D0
350
15A
  3
D1
350
15B
  3
D2
350
15C
  0
DICTIONARY
  5
9C
102
{ACAD_REACTORS
330
C
102
}
330
C
100
AcDbDictionary
281
     1
  3
Standard
350
9D
  0
DICTIONARY
  5
12A
102
{ACAD_REACTORS
330
C
102
}
330
C
100
AcDbDictionary
281
     1
  3
2dWireframe
350
130
  3
3D Hidden
350
132
  3
3dWireframe
350
131
  3
Basic
350
12F
  3
Brighten
350
136
  3
ColorChange
350
13A
  3
Conceptual
350
133
  3
Dim
350
135
  3
Facepattern
350
139
  3
Flat
350
12B
  3
FlatWithEdges
350
12C
  3
Gouraud
350
12D
  3
GouraudWithEdges
350
12E
  3
Linepattern
350
138
  3
Realistic
350
134
  3
Thicken
350
137
  0
XRECORD
  5
169
102
{ACAD_REACTORS
330
C
102
}
330
C
100
AcDbXrecord
280
     1
 90
        1
330
9D
  0
DICTIONARY
  5
34
102
{ACAD_REACTORS
330
C
102
}
330
C
100
AcDbDictionary
281
     1
  3
CANNOSCALE
350
16C
  3
CMLEADERSTYLE
350
16A
  3
CTABLESTYLE
350
10F
  3
DIMASSOC
350
19A0
  3
INDEXCTL
350
35
  3
LAYEREVAL
350
AB8
  3
LAYERNOTIFY
350
AB9
  3
LIGHTINGUNITS
350
16D
  3
MSLTSCALE
350
16B
  3
SORTENTS
350
199F
  0
DICTIONARY
  5
47
102
{ACAD_REACTORS
330
C
102
}
330
C
100
AcDbDictionary
281
     1
  3
AcmStdDictionary
350
4C
  3
AMDTSECTSYM_ARROWCOLOR
350
F5
  0
DICTIONARY
  5
465
102
{ACAD_REACTORS
330
C
102
}
330
C
100
AcDbDictionary
281
     1
  0
DICTIONARY
  5
2B
102
{ACAD_REACTORS
330
C
102
}
330
C
100
AcDbDictionary
281
     1
  0
DICTIONARY
  5
467
102
{ACAD_REACTORS
330
C
102
}
330
C
100
AcDbDictionary
281
     1
  0
XRECORD
  5
19A2
102
{ACAD_REACTORS
330
C
102
}
330
C
100
AcDbXrecord
280
     1
  1
DWGPROPS COOKIE
  2

  3

  4

  6

  7

  8
atittmar
  9

300
AmdtFileType=84
301
=
302
=
303
=
304
=
305
=
306
=
307
=
308
=
309
=
 40
0.2269420138888889
 41
2452702.515835023
 42
2455597.647514283
  1

 90
        1
  0
DICTIONARY
  5
2A4
102
{ACAD_REACTORS
330
2A3
102
}
330
2A3
100
AcDbDictionary
281
     1
  0
DICTIONARY
  5
70E
102
{ACAD_REACTORS
330
2A3
102
}
330
2A3
100
AcDbDictionary
280
     1
281
     1
  0
XRECORD
  5
166
102
{ACAD_REACTORS
330
165
102
}
330
165
100
AcDbXrecord
280
     1
290
     1
  0
SORTENTSTABLE
  5
77D
102
{ACAD_REACTORS
330
81
102
}
330
81
100
AcDbSortentsTable
330
1F
  0
XRECORD
  5
19B0
102
{ACAD_REACTORS
330
19AF
102
}
330
19AF
100
AcDbXrecord
280
     1
 40
30543.0
  1
\fArial|b0|i0|c0|p32;©
  0
XRECORD
  5
19B4
102
{ACAD_REACTORS
330
19B3
102
}
330
19B3
100
AcDbXrecord
280
     1
 40
30543.0
  1
\fArial|b0|i0|c0|p32;©
  0
XRECORD
  5
19B6
102
{ACAD_REACTORS
330
19B5
102
}
330
19B5
100
AcDbXrecord
280
     1
 40
2863.0
  1
\U+2205115
  0
DIMASSOC
  5
1426
102
{ACAD_REACTORS
330
1425
102
}
330
1425
100
AcDbDimAssoc
330
1424
 90
        3
 70
     0
 71
     0
  1
AcDbOsnapPointRef
 72
    13
331
1377
 73
     0
 91
        0
 40
0.0
 10
0.0
 20
0.0
 30
2.000000000000000E+50
 75
     0
  1
AcDbOsnapPointRef
 72
     1
331
13CC
 73
     0
 91
        0
 40
0.0
 10
0.0
 20
0.0
 30
2.000000000000000E+50
 75
     0
  0
XRECORD
  5
19A4
102
{ACAD_REACTORS
330
19A3
102
}
330
19A3
100
AcDbXrecord
280
     1
 40
1.570796326794896
  0
IMAGEDEF
  5
461
102
{ACAD_REACTORS
330
460
330
264
102
}
330
460
100
AcDbRasterImageDef
 90
        0
  1
L:\calink52\templates\ACO-Logo.jpg
 10
75.0
 20
57.0
 11
0.3527777777777778
 21
0.3527777777777778
280
     1
281
     5
  0
LAYOUT
  5
1E
102
{ACAD_XDICTIONARY
360
19A5
102
}
102
{ACAD_REACTORS
330
1A
102
}
330
1A
100
AcDbPlotSettings
  1

  2
C:\Programme\Acadm 2000i\plotters\PH36.pc3
  4

  6

 40
0.0
 41
0.0
 42
0.0
 43
0.0
 44
0.0
 45
0.0
 46
0.0
 47
0.0
 48
0.0
 49
0.0
140
0.0
141
0.0
142
1.0
143
1.0
 70
   688
 72
     0
 73
     0
 74
     5
  7
monochrome.ctb
 75
    16
147
1.0
148
0.0
149
0.0
100
AcDbLayout
  1
Layout1
 70
     1
 71
     1
 10
0.0
 20
0.0
 11
420.0
 21
297.0
 12
0.0
 22
0.0
 32
0.0
 14
1.000000000000000E+20
 24
1.000000000000000E+20
 34
1.000000000000000E+20
 15
-1.000000000000000E+20
 25
-1.000000000000000E+20
 35
-1.000000000000000E+20
146
0.0
 13
0.0
 23
0.0
 33
0.0
 16
1.0
 26
0.0
 36
0.0
 17
0.0
 27
1.0
 37
0.0
 76
     0
330
1B
  0
LAYOUT
  5
26
102
{ACAD_XDICTIONARY
360
19A9
102
}
102
{ACAD_REACTORS
330
1A
102
}
330
1A
100
AcDbPlotSettings
  1

  2
C:\Programme\Acadm 2000i\plotters\PH36.pc3
  4

  6

 40
0.0
 41
0.0
 42
0.0
 43
0.0
 44
0.0
 45
0.0
 46
0.0
 47
0.0
 48
0.0
 49
0.0
140
0.0
141
0.0
142
1.0
143
1.0
 70
   688
 72
     0
 73
     0
 74
     5
  7
monochrome.ctb
 75
    16
147
1.0
148
0.0
149
0.0
100
AcDbLayout
  1
Layout2
 70
     1
 71
     2
 10
0.0
 20
0.0
 11
12.0
 21
9.0
 12
0.0
 22
0.0
 32
0.0
 14
0.0
 24
0.0
 34
0.0
 15
0.0
 25
0.0
 35
0.0
146
0.0
 13
0.0
 23
0.0
 33
0.0
 16
1.0
 26
0.0
 36
0.0
 17
0.0
 27
1.0
 37
0.0
 76
     0
330
23
  0
LAYOUT
  5
22
102
{ACAD_XDICTIONARY
360
19A7
102
}
102
{ACAD_REACTORS
330
1A
102
}
330
1A
100
AcDbPlotSettings
  1

  2
\\rd-sr-230\ST-PR-055
  4
A3
  6

 40
7.143749713897705
 41
6.80507469177246
 42
6.932098388671875
 43
5.70440673828125
 44
296.9683227539062
 45
419.9889831542968
 46
0.0
 47
0.0
 48
-0.0000039170717825
 49
-0.0000004361595529
140
593.9999960829281
141
419.9999995638404
142
1.0
143
1.484663035019392
 70
 11952
 72
     1
 73
     1
 74
     4
  7
monochrome.ctb
 75
     0
147
0.6735535110746112
148
0.0000039170717825
149
0.0000004361595529
100
AcDbLayout
  1
Model
 70
     1
 71
     0
 10
0.0
 20
0.0
 11
12.0
 21
9.0
 12
0.0
 22
0.0
 32
0.0
 14
0.0
 24
0.0
 34
0.0
 15
0.0
 25
0.0
 35
0.0
146
0.0
 13
0.0
 23
0.0
 33
0.0
 16
1.0
 26
0.0
 36
0.0
 17
0.0
 27
1.0
 37
0.0
 76
     0
330
1F
331
110
1001
ACAD_PSEXT
1000
\\rd-sr-230\ST-PR-055
1000
Xerox Document Centre 440
1000
ST
1000

1070
     0
  0
MATERIAL
  5
11A
102
{ACAD_XDICTIONARY
360
11B
102
}
102
{ACAD_REACTORS
330
9A
102
}
330
9A
100
AcDbMaterial
  1
ByBlock
 72
     0
 43
0.0008202099737533
 43
0.0
 43
0.0
 43
0.0
 43
0.0
 43
0.0008202099737533
 43
0.0
 43
0.0
 43
0.0
 43
0.0
 43
1.0
 43
0.0
 43
0.0
 43
0.0
 43
0.0
 43
1.0
 77
     0
 47
0.0008202099737533
 47
0.0
 47
0.0
 47
0.0
 47
0.0
 47
0.0008202099737533
 47
0.0
 47
0.0
 47
0.0
 47
0.0
 47
1.0
 47
0.0
 47
0.0
 47
0.0
 47
0.0
 47
1.0
171
     0
 49
0.0008202099737533
 49
0.0
 49
0.0
 49
0.0
 49
0.0
 49
0.0008202099737533
 49
0.0
 49
0.0
 49
0.0
 49
0.0
 49
1.0
 49
0.0
 49
0.0
 49
0.0
 49
0.0
 49
1.0
175
     0
142
0.0008202099737533
142
0.0
142
0.0
142
0.0
142
0.0
142
0.0008202099737533
142
0.0
142
0.0
142
0.0
142
0.0
142
1.0
142
0.0
142
0.0
142
0.0
142
0.0
142
1.0
179
     0
144
0.0008202099737533
144
0.0
144
0.0
144
0.0
144
0.0
144
0.0008202099737533
144
0.0
144
0.0
144
0.0
144
0.0
144
1.0
144
0.0
144
0.0
144
0.0
144
0.0
144
1.0
147
0.0008202099737533
147
0.0
147
0.0
147
0.0
147
0.0
147
0.0008202099737533
147
0.0
147
0.0
147
0.0
147
0.0
147
1.0
147
0.0
147
0.0
147
0.0
147
0.0
147
1.0
  0
MATERIAL
  5
112
102
{ACAD_XDICTIONARY
360
113
102
}
102
{ACAD_REACTORS
330
9A
102
}
330
9A
100
AcDbMaterial
  1
ByLayer
 72
     0
 43
0.0008202099737533
 43
0.0
 43
0.0
 43
0.0
 43
0.0
 43
0.0008202099737533
 43
0.0
 43
0.0
 43
0.0
 43
0.0
 43
1.0
 43
0.0
 43
0.0
 43
0.0
 43
0.0
 43
1.0
 77
     0
 47
0.0008202099737533
 47
0.0
 47
0.0
 47
0.0
 47
0.0
 47
0.0008202099737533
 47
0.0
 47
0.0
 47
0.0
 47
0.0
 47
1.0
 47
0.0
 47
0.0
 47
0.0
 47
0.0
 47
1.0
171
     0
 49
0.0008202099737533
 49
0.0
 49
0.0
 49
0.0
 49
0.0
 49
0.0008202099737533
 49
0.0
 49
0.0
 49
0.0
 49
0.0
 49
1.0
 49
0.0
 49
0.0
 49
0.0
 49
0.0
 49
1.0
175
     0
142
0.0008202099737533
142
0.0
142
0.0
142
0.0
142
0.0
142
0.0008202099737533
142
0.0
142
0.0
142
0.0
142
0.0
142
1.0
142
0.0
142
0.0
142
0.0
142
0.0
142
1.0
179
     0
144
0.0008202099737533
144
0.0
144
0.0
144
0.0
144
0.0
144
0.0008202099737533
144
0.0
144
0.0
144
0.0
144
0.0
144
1.0
144
0.0
144
0.0
144
0.0
144
0.0
144
1.0
147
0.0008202099737533
147
0.0
147
0.0
147
0.0
147
0.0
147
0.0008202099737533
147
0.0
147
0.0
147
0.0
147
0.0
147
1.0
147
0.0
147
0.0
147
0.0
147
0.0
147
1.0
  0
MATERIAL
  5
122
102
{ACAD_XDICTIONARY
360
123
102
}
102
{ACAD_REACTORS
330
9A
102
}
330
9A
100
AcDbMaterial
  1
Global
 72
     0
 43
0.0008202099737533
 43
0.0
 43
0.0
 43
0.0
 43
0.0
 43
0.0008202099737533
 43
0.0
 43
0.0
 43
0.0
 43
0.0
 43
1.0
 43
0.0
 43
0.0
 43
0.0
 43
0.0
 43
1.0
 77
     0
 47
0.0008202099737533
 47
0.0
 47
0.0
 47
0.0
 47
0.0
 47
0.0008202099737533
 47
0.0
 47
0.0
 47
0.0
 47
0.0
 47
1.0
 47
0.0
 47
0.0
 47
0.0
 47
0.0
 47
1.0
171
     0
 49
0.0008202099737533
 49
0.0
 49
0.0
 49
0.0
 49
0.0
 49
0.0008202099737533
 49
0.0
 49
0.0
 49
0.0
 49
0.0
 49
1.0
 49
0.0
 49
0.0
 49
0.0
 49
0.0
 49
1.0
175
     0
142
0.0008202099737533
142
0.0
142
0.0
142
0.0
142
0.0
142
0.0008202099737533
142
0.0
142
0.0
142
0.0
142
0.0
142
1.0
142
0.0
142
0.0
142
0.0
142
0.0
142
1.0
179
     0
144
0.0008202099737533
144
0.0
144
0.0
144
0.0
144
0.0
144
0.0008202099737533
144
0.0
144
0.0
144
0.0
144
0.0
144
1.0
144
0.0
144
0.0
144
0.0
144
0.0
144
1.0
147
0.0008202099737533
147
0.0
147
0.0
147
0.0
147
0.0
147
0.0008202099737533
147
0.0
147
0.0
147
0.0
147
0.0
147
1.0
147
0.0
147
0.0
147
0.0
147
0.0
147
1.0
  0
MLEADERSTYLE
  5
15E
102
{ACAD_REACTORS
330
15D
102
}
330
15D
100
AcDbMLeaderStyle
170
     2
171
     1
172
     0
 90
        2
 40
0.0
 41
0.0
173
     1
 91
-1056964608
340
14
 92
       -2
290
     1
 42
2.0
291
     1
 43
0.36
  3
Standard
 44
4.0
300

342
11
174
     1
178
     6
175
     1
176
     0
 93
-1056964608
 45
4.0
292
     0
297
     0
 46
4.0
 94
-1056964608
 47
1.0
 49
1.0
140
1.0
293
     1
141
0.0
294
     1
177
     0
142
1.0
295
     0
296
     0
143
0.125
1001
ACAD_MLEADERVER
1070
     2
  0
MLINESTYLE
  5
18
102
{ACAD_REACTORS
330
17
102
}
330
17
100
AcDbMlineStyle
  2
STANDARD
 70
     0
  3

 62
   256
 51
90.0
 52
90.0
 71
     2
 49
0.5
 62
   256
  6
BYLAYER
 49
-0.5
 62
   256
  6
BYLAYER
  0
ACDBPLACEHOLDER
  5
F
102
{ACAD_REACTORS
330
E
102
}
330
E
  0
SCALE
  5
13C
102
{ACAD_REACTORS
330
13B
102
}
330
13B
100
AcDbScale
 70
     0
300
1:1
140
1.0
141
1.0
290
     1
  0
SCALE
  5
13D
102
{ACAD_REACTORS
330
13B
102
}
330
13B
100
AcDbScale
 70
     0
300
1:2
140
1.0
141
2.0
290
     0
  0
SCALE
  5
13E
102
{ACAD_REACTORS
330
13B
102
}
330
13B
100
AcDbScale
 70
     0
300
1:4
140
1.0
141
4.0
290
     0
  0
SCALE
  5
13F
102
{ACAD_REACTORS
330
13B
102
}
330
13B
100
AcDbScale
 70
     0
300
1:5
140
1.0
141
5.0
290
     0
  0
SCALE
  5
140
102
{ACAD_REACTORS
330
13B
102
}
330
13B
100
AcDbScale
 70
     0
300
1:8
140
1.0
141
8.0
290
     0
  0
SCALE
  5
141
102
{ACAD_REACTORS
330
13B
102
}
330
13B
100
AcDbScale
 70
     0
300
1:10
140
1.0
141
10.0
290
     0
  0
SCALE
  5
142
102
{ACAD_REACTORS
330
13B
102
}
330
13B
100
AcDbScale
 70
     0
300
1:16
140
1.0
141
16.0
290
     0
  0
SCALE
  5
143
102
{ACAD_REACTORS
330
13B
102
}
330
13B
100
AcDbScale
 70
     0
300
1:20
140
1.0
141
20.0
290
     0
  0
SCALE
  5
144
102
{ACAD_REACTORS
330
13B
102
}
330
13B
100
AcDbScale
 70
     0
300
1:30
140
1.0
141
30.0
290
     0
  0
SCALE
  5
145
102
{ACAD_REACTORS
330
13B
102
}
330
13B
100
AcDbScale
 70
     0
300
1:40
140
1.0
141
40.0
290
     0
  0
SCALE
  5
146
102
{ACAD_REACTORS
330
13B
102
}
330
13B
100
AcDbScale
 70
     0
300
1:50
140
1.0
141
50.0
290
     0
  0
SCALE
  5
147
102
{ACAD_REACTORS
330
13B
102
}
330
13B
100
AcDbScale
 70
     0
300
1:100
140
1.0
141
100.0
290
     0
  0
SCALE
  5
148
102
{ACAD_REACTORS
330
13B
102
}
330
13B
100
AcDbScale
 70
     0
300
2:1
140
2.0
141
1.0
290
     0
  0
SCALE
  5
149
102
{ACAD_REACTORS
330
13B
102
}
330
13B
100
AcDbScale
 70
     0
300
4:1
140
4.0
141
1.0
290
     0
  0
SCALE
  5
14A
102
{ACAD_REACTORS
330
13B
102
}
330
13B
100
AcDbScale
 70
     0
300
8:1
140
8.0
141
1.0
290
     0
  0
SCALE
  5
14B
102
{ACAD_REACTORS
330
13B
102
}
330
13B
100
AcDbScale
 70
     0
300
10:1
140
10.0
141
1.0
290
     0
  0
SCALE
  5
14C
102
{ACAD_REACTORS
330
13B
102
}
330
13B
100
AcDbScale
 70
     0
300
100:1
140
100.0
141
1.0
290
     0
  0
SCALE
  5
14D
102
{ACAD_REACTORS
330
13B
102
}
330
13B
100
AcDbScale
 70
     0
300
1/128" = 1'-0"
140
0.0078125
141
12.0
290
     0
  0
SCALE
  5
14E
102
{ACAD_REACTORS
330
13B
102
}
330
13B
100
AcDbScale
 70
     0
300
1/64" = 1'-0"
140
0.015625
141
12.0
290
     0
  0
SCALE
  5
14F
102
{ACAD_REACTORS
330
13B
102
}
330
13B
100
AcDbScale
 70
     0
300
1/32" = 1'-0"
140
0.03125
141
12.0
290
     0
  0
SCALE
  5
150
102
{ACAD_REACTORS
330
13B
102
}
330
13B
100
AcDbScale
 70
     0
300
1/16" = 1'-0"
140
0.0625
141
12.0
290
     0
  0
SCALE
  5
151
102
{ACAD_REACTORS
330
13B
102
}
330
13B
100
AcDbScale
 70
     0
300
3/32" = 1'-0"
140
0.09375
141
12.0
290
     0
  0
SCALE
  5
152
102
{ACAD_REACTORS
330
13B
102
}
330
13B
100
AcDbScale
 70
     0
300
1/8" = 1'-0"
140
0.125
141
12.0
290
     0
  0
SCALE
  5
153
102
{ACAD_REACTORS
330
13B
102
}
330
13B
100
AcDbScale
 70
     0
300
3/16" = 1'-0"
140
0.1875
141
12.0
290
     0
  0
SCALE
  5
154
102
{ACAD_REACTORS
330
13B
102
}
330
13B
100
AcDbScale
 70
     0
300
1/4" = 1'-0"
140
0.25
141
12.0
290
     0
  0
SCALE
  5
155
102
{ACAD_REACTORS
330
13B
102
}
330
13B
100
AcDbScale
 70
     0
300
3/8" = 1'-0"
140
0.375
141
12.0
290
     0
  0
SCALE
  5
156
102
{ACAD_REACTORS
330
13B
102
}
330
13B
100
AcDbScale
 70
     0
300
1/2" = 1'-0"
140
0.5
141
12.0
290
     0
  0
SCALE
  5
157
102
{ACAD_REACTORS
330
13B
102
}
330
13B
100
AcDbScale
 70
     0
300
3/4" = 1'-0"
140
0.75
141
12.0
290
     0
  0
SCALE
  5
158
102
{ACAD_REACTORS
330
13B
102
}
330
13B
100
AcDbScale
 70
     0
300
1" = 1'-0"
140
1.0
141
12.0
290
     0
  0
SCALE
  5
159
102
{ACAD_REACTORS
330
13B
102
}
330
13B
100
AcDbScale
 70
     0
300
1-1/2" = 1'-0"
140
1.5
141
12.0
290
     0
  0
SCALE
  5
15A
102
{ACAD_REACTORS
330
13B
102
}
330
13B
100
AcDbScale
 70
     0
300
3" = 1'-0"
140
3.0
141
12.0
290
     0
  0
SCALE
  5
15B
102
{ACAD_REACTORS
330
13B
102
}
330
13B
100
AcDbScale
 70
     0
300
6" = 1'-0"
140
6.0
141
12.0
290
     0
  0
SCALE
  5
15C
102
{ACAD_REACTORS
330
13B
102
}
330
13B
100
AcDbScale
 70
     0
300
1'-0" = 1'-0"
140
12.0
141
12.0
290
     0
  0
TABLESTYLE
  5
9D
102
{ACAD_XDICTIONARY
360
167
102
}
102
{ACAD_REACTORS
330
9C
102
}
330
9C
100
AcDbTableStyle
  3
Standard
 70
     0
 71
     0
 40
1.5
 41
1.5
280
     0
281
     0
  7
STANDARD
140
4.5
170
     2
 62
     0
 63
     7
283
     0
274
    -2
284
     1
 64
     0
275
    -2
285
     1
 65
     0
276
    -2
286
     1
 66
     0
277
    -2
287
     1
 67
     0
278
    -2
288
     1
 68
     0
279
    -2
289
     1
 69
     0
  7
STANDARD
140
6.0
170
     5
 62
     0
 63
     7
283
     0
274
    -2
284
     1
 64
     0
275
    -2
285
     1
 65
     0
276
    -2
286
     1
 66
     0
277
    -2
287
     1
 67
     0
278
    -2
288
     1
 68
     0
279
    -2
289
     1
 69
     0
  7
STANDARD
140
4.5
170
     5
 62
     0
 63
     7
283
     0
274
    -2
284
     1
 64
     0
275
    -2
285
     1
 65
     0
276
    -2
286
     1
 66
     0
277
    -2
287
     1
 67
     0
278
    -2
288
     1
 68
     0
279
    -2
289
     1
 69
     0
  0
VISUALSTYLE
  5
130
102
{ACAD_REACTORS
330
12A
102
}
330
12A
100
AcDbVisualStyle
  2
2dWireframe
 70
     4
 71
     0
 72
     2
 73
     0
 90
        0
 40
-0.6
 41
-30.0
 62
     5
 63
     7
 74
     1
 91
        4
 64
     7
 65
   257
 75
     1
175
     1
 42
1.0
 92
        0
 66
   257
 43
1.0
 76
     1
 77
     6
 78
     2
 67
     7
 79
     5
170
     0
171
     0
290
     0
174
     0
 93
        1
 44
0.0
173
     0
291
     0
 45
0.0
1001
ACAD
1000
AcDbSavedByObjectVersion
1070
     0
  0
VISUALSTYLE
  5
132
102
{ACAD_REACTORS
330
12A
102
}
330
12A
100
AcDbVisualStyle
  2
3D Hidden
 70
     6
 71
     1
 72
     2
 73
     2
 90
        0
 40
-0.6
 41
-30.0
 62
     5
 63
     7
 74
     2
 91
        2
 64
     7
 65
   257
 75
     2
175
     1
 42
40.0
 92
        0
 66
   257
 43
1.0
 76
     1
 77
     6
 78
     2
 67
     7
 79
     3
170
     0
171
     0
290
     0
174
     0
 93
        1
 44
0.0
173
     0
291
     0
 45
0.0
1001
ACAD
1000
AcDbSavedByObjectVersion
1070
     0
  0
VISUALSTYLE
  5
131
102
{ACAD_REACTORS
330
12A
102
}
330
12A
100
AcDbVisualStyle
  2
3dWireframe
 70
     5
 71
     0
 72
     2
 73
     0
 90
        0
 40
-0.6
 41
-30.0
 62
     5
 63
     7
 74
     1
 91
        4
 64
     7
 65
   257
 75
     1
175
     1
 42
1.0
 92
        0
 66
   257
 43
1.0
 76
     1
 77
     6
 78
     2
 67
     7
 79
     5
170
     0
171
     0
290
     0
174
     0
 93
        1
 44
0.0
173
     0
291
     0
 45
0.0
1001
ACAD
1000
AcDbSavedByObjectVersion
1070
     0
  0
VISUALSTYLE
  5
12F
102
{ACAD_REACTORS
330
12A
102
}
330
12A
100
AcDbVisualStyle
  2
Basic
 70
     7
 71
     1
 72
     0
 73
     1
 90
        0
 40
-0.6
 41
-30.0
 62
     5
 63
     7
 74
     0
 91
        4
 64
     7
 65
   257
 75
     1
175
     1
 42
1.0
 92
        8
 66
     7
 43
1.0
 76
     1
 77
     6
 78
     2
 67
     7
 79
     5
170
     0
171
     0
290
     0
174
     0
 93
        1
 44
0.0
173
     0
291
     1
 45
0.0
1001
ACAD
1000
AcDbSavedByObjectVersion
1070
     0
  0
VISUALSTYLE
  5
136
102
{ACAD_REACTORS
330
12A
102
}
330
12A
100
AcDbVisualStyle
  2
Brighten
 70
    12
 71
     2
 72
     2
 73
     0
 90
        0
 40
-0.6
 41
-30.0
 62
     5
 63
     7
 74
     1
 91
        4
 64
     7
 65
   257
 75
     1
175
     1
 42
1.0
 92
        8
 66
     7
 43
1.0
 76
     1
 77
     6
 78
     2
 67
     7
 79
     5
170
     0
171
     0
290
     0
174
     0
 93
        1
 44
50.0
173
     0
291
     1
 45
0.0
1001
ACAD
1000
AcDbSavedByObjectVersion
1070
     0
  0
VISUALSTYLE
  5
13A
102
{ACAD_REACTORS
330
12A
102
}
330
12A
100
AcDbVisualStyle
  2
ColorChange
 70
    16
 71
     2
 72
     2
 73
     3
 90
        0
 40
-0.6
 41
-30.0
 62
     5
 63
     8
 74
     1
 91
        4
 64
     7
 65
   257
 75
     1
175
     1
 42
1.0
 92
        8
 66
     8
 43
1.0
 76
     1
 77
     6
 78
     2
 67
     7
 79
     5
170
     0
171
     0
290
     0
174
     0
 93
        1
 44
0.0
173
     0
291
     1
 45
0.0
1001
ACAD
1000
AcDbSavedByObjectVersion
1070
     0
  0
VISUALSTYLE
  5
133
102
{ACAD_REACTORS
330
12A
102
}
330
12A
100
AcDbVisualStyle
  2
Conceptual
 70
     9
 71
     3
 72
     2
 73
     0
 90
        0
 40
-0.6
 41
-30.0
 62
     5
 63
     7
 74
     2
 91
        2
 64
     7
 65
   257
 75
     1
175
     1
 42
40.0
 92
        8
 66
     7
 43
1.0
 76
     1
 77
     6
 78
     2
 67
     7
 79
     3
170
     0
171
     0
290
     0
174
     0
 93
        1
 44
0.0
173
     0
291
     0
 45
0.0
1001
ACAD
1000
AcDbSavedByObjectVersion
1070
     0
  0
VISUALSTYLE
  5
135
102
{ACAD_REACTORS
330
12A
102
}
330
12A
100
AcDbVisualStyle
  2
Dim
 70
    11
 71
     2
 72
     2
 73
     0
 90
        0
 40
-0.6
 41
-30.0
 62
     5
 63
     7
 74
     1
 91
        4
 64
     7
 65
   257
 75
     1
175
     1
 42
1.0
 92
        8
 66
     7
 43
1.0
 76
     1
 77
     6
 78
     2
 67
     7
 79
     5
170
     0
171
     0
290
     0
174
     0
 93
        1
 44
-50.0
173
     0
291
     1
 45
0.0
1001
ACAD
1000
AcDbSavedByObjectVersion
1070
     0
  0
VISUALSTYLE
  5
139
102
{ACAD_REACTORS
330
12A
102
}
330
12A
100
AcDbVisualStyle
  2
Facepattern
 70
    15
 71
     2
 72
     2
 73
     0
 90
        0
 40
-0.6
 41
-30.0
 62
     5
 63
     7
 74
     1
 91
        4
 64
     7
 65
   257
 75
     1
175
     1
 42
1.0
 92
        8
 66
     7
 43
1.0
 76
     1
 77
     6
 78
     2
 67
     7
 79
     5
170
     0
171
     0
290
     0
174
     0
 93
        1
 44
0.0
173
     0
291
     1
 45
0.0
1001
ACAD
1000
AcDbSavedByObjectVersion
1070
     0
  0
VISUALSTYLE
  5
12B
102
{ACAD_REACTORS
330
12A
102
}
330
12A
100
AcDbVisualStyle
  2
Flat
 70
     0
 71
     2
 72
     1
 73
     1
 90
        2
 40
-0.6
 41
30.0
 62
     5
 63
     7
 74
     0
 91
        4
 64
     7
 65
   257
 75
     1
175
     1
 42
1.0
 92
        8
 66
     7
 43
1.0
 76
     1
 77
     6
 78
     2
 67
     7
 79
     5
170
     0
171
     0
290
     0
174
     0
 93
       13
 44
0.0
173
     0
291
     1
 45
0.0
1001
ACAD
1000
AcDbSavedByObjectVersion
1070
     0
  0
VISUALSTYLE
  5
12C
102
{ACAD_REACTORS
330
12A
102
}
330
12A
100
AcDbVisualStyle
  2
FlatWithEdges
 70
     1
 71
     2
 72
     1
 73
     1
 90
        2
 40
-0.6
 41
30.0
 62
     5
 63
     7
 74
     1
 91
        4
 64
     7
 65
   257
 75
     1
175
     1
 42
1.0
 92
        0
 66
   257
 43
1.0
 76
     1
 77
     6
 78
     2
 67
     7
 79
     5
170
     0
171
     0
290
     0
174
     0
 93
       13
 44
0.0
173
     0
291
     1
 45
0.0
1001
ACAD
1000
AcDbSavedByObjectVersion
1070
     0
  0
VISUALSTYLE
  5
12D
102
{ACAD_REACTORS
330
12A
102
}
330
12A
100
AcDbVisualStyle
  2
Gouraud
 70
     2
 71
     2
 72
     2
 73
     1
 90
        2
 40
-0.6
 41
30.0
 62
     5
 63
     7
 74
     0
 91
        4
 64
     7
 65
   257
 75
     1
175
     1
 42
1.0
 92
        0
 66
     7
 43
1.0
 76
     1
 77
     6
 78
     2
 67
     7
 79
     5
170
     0
171
     0
290
     0
174
     0
 93
       13
 44
0.0
173
     0
291
     1
 45
0.0
1001
ACAD
1000
AcDbSavedByObjectVersion
1070
     0
  0
VISUALSTYLE
  5
12E
102
{ACAD_REACTORS
330
12A
102
}
330
12A
100
AcDbVisualStyle
  2
GouraudWithEdges
 70
     3
 71
     2
 72
     2
 73
     1
 90
        2
 40
-0.6
 41
30.0
 62
     5
 63
     7
 74
     1
 91
        4
 64
     7
 65
   257
 75
     1
175
     1
 42
1.0
 92
        0
 66
   257
 43
1.0
 76
     1
 77
     6
 78
     2
 67
     7
 79
     5
170
     0
171
     0
290
     0
174
     0
 93
       13
 44
0.0
173
     0
291
     1
 45
0.0
1001
ACAD
1000
AcDbSavedByObjectVersion
1070
     0
  0
VISUALSTYLE
  5
138
102
{ACAD_REACTORS
330
12A
102
}
330
12A
100
AcDbVisualStyle
  2
Linepattern
 70
    14
 71
     2
 72
     2
 73
     0
 90
        0
 40
-0.6
 41
-30.0
 62
     5
 63
     7
 74
     1
 91
        4
 64
     7
 65
   257
 75
     7
175
     7
 42
1.0
 92
        8
 66
     7
 43
1.0
 76
     1
 77
     6
 78
     2
 67
     7
 79
     5
170
     0
171
     0
290
     0
174
     0
 93
        1
 44
0.0
173
     0
291
     1
 45
0.0
1001
ACAD
1000
AcDbSavedByObjectVersion
1070
     0
  0
VISUALSTYLE
  5
134
102
{ACAD_REACTORS
330
12A
102
}
330
12A
100
AcDbVisualStyle
  2
Realistic
 70
     8
 71
     2
 72
     2
 73
     0
 90
        0
 40
-0.6
 41
-30.0
 62
     5
 63
     7
 74
     1
 91
        0
 64
     7
 65
   257
 75
     1
175
     1
 42
1.0
 92
        8
 66
     8
 43
1.0
 76
     1
 77
     6
 78
     2
 67
     7
 79
     5
170
     0
171
     0
290
     0
174
     0
 93
       13
 44
0.0
173
     0
291
     0
 45
0.0
1001
ACAD
1000
AcDbSavedByObjectVersion
1070
     0
  0
VISUALSTYLE
  5
137
102
{ACAD_REACTORS
330
12A
102
}
330
12A
100
AcDbVisualStyle
  2
Thicken
 70
    13
 71
     2
 72
     2
 73
     0
 90
        0
 40
-0.6
 41
-30.0
 62
     5
 63
     7
 74
     1
 91
        4
 64
     7
 65
   257
 75
     1
175
     1
 42
1.0
 92
       12
 66
     7
 43
1.0
 76
     1
 77
     6
 78
     2
 67
     7
 79
     5
170
     0
171
     0
290
     0
174
     0
 93
        1
 44
0.0
173
     0
291
     1
 45
0.0
1001
ACAD
1000
AcDbSavedByObjectVersion
1070
     0
  0
DICTIONARYVAR
  5
16C
102
{ACAD_REACTORS
330
34
102
}
330
34
100
DictionaryVariables
280
     0
  1
1:1
  0
DICTIONARYVAR
  5
16A
102
{ACAD_REACTORS
330
34
102
}
330
34
100
DictionaryVariables
280
     0
  1
STANDARD
  0
DICTIONARYVAR
  5
10F
102
{ACAD_REACTORS
330
34
102
}
330
34
100
DictionaryVariables
280
     0
  1
STANDARD
  0
DICTIONARYVAR
  5
19A0
102
{ACAD_REACTORS
330
34
102
}
330
34
100
DictionaryVariables
280
     0
  1
1
  0
DICTIONARYVAR
  5
35
102
{ACAD_REACTORS
330
34
102
}
330
34
100
DictionaryVariables
280
     0
  1
0
  0
DICTIONARYVAR
  5
AB8
102
{ACAD_REACTORS
330
34
102
}
330
34
100
DictionaryVariables
280
     0
  1
1
  0
DICTIONARYVAR
  5
AB9
102
{ACAD_REACTORS
330
34
102
}
330
34
100
DictionaryVariables
280
     0
  1
15
  0
DICTIONARYVAR
  5
16D
102
{ACAD_REACTORS
330
34
102
}
330
34
100
DictionaryVariables
280
     0
  1
0
  0
DICTIONARYVAR
  5
16B
102
{ACAD_REACTORS
330
34
102
}
330
34
100
DictionaryVariables
280
     0
  1
0
  0
DICTIONARYVAR
  5
199F
102
{ACAD_REACTORS
330
34
102
}
330
34
100
DictionaryVariables
280
     0
  1
127
  0
DICTIONARY
  5
4C
102
{ACAD_REACTORS
330
47
102
}
330
47
100
AcDbDictionary
281
     1
  0
XRECORD
  5
F5
102
{ACAD_REACTORS
330
47
102
}
330
47
100
AcDbXrecord
280
     1
 90
-1023410169
  0
DICTIONARY
  5
19A5
330
1E
100
AcDbDictionary
280
     1
281
     1
  3
ACAD_XREC_ROUNDTRIP
360
19A6
  0
DICTIONARY
  5
19A9
330
26
100
AcDbDictionary
280
     1
281
     1
  3
ACAD_XREC_ROUNDTRIP
360
19AA
  0
DICTIONARY
  5
19A7
330
22
100
AcDbDictionary
280
     1
281
     1
  3
ACAD_XREC_ROUNDTRIP
360
19A8
  0
DICTIONARY
  5
11B
330
11A
100
AcDbDictionary
280
     1
281
     1
  3
ACAD_XREC_ROUNDTRIP
360
19AD
  3
BUMPTILE
360
11D
  3
DIFFUSETILE
360
11C
  3
OPACITYTILE
360
120
  3
REFLECTIONTILE
360
11F
  3
REFRACTIONTILE
360
121
  3
SPECULARTILE
360
11E
  0
DICTIONARY
  5
113
330
112
100
AcDbDictionary
280
     1
281
     1
  3
ACAD_XREC_ROUNDTRIP
360
19AC
  3
BUMPTILE
360
115
  3
DIFFUSETILE
360
114
  3
OPACITYTILE
360
118
  3
REFLECTIONTILE
360
117
  3
REFRACTIONTILE
360
119
  3
SPECULARTILE
360
116
  0
DICTIONARY
  5
123
330
122
100
AcDbDictionary
280
     1
281
     1
  3
ACAD_XREC_ROUNDTRIP
360
19AE
  3
BUMPTILE
360
125
  3
DIFFUSETILE
360
124
  3
OPACITYTILE
360
128
  3
REFLECTIONTILE
360
127
  3
REFRACTIONTILE
360
129
  3
SPECULARTILE
360
126
  0
DICTIONARY
  5
167
330
9D
100
AcDbDictionary
280
     1
281
     1
  3
ACAD_ROUNDTRIP_2008_TABLESTYLE_CELLSTYLEMAP
360
19A1
  3
ACAD_XREC_ROUNDTRIP
360
19AB
  0
XRECORD
  5
19A6
102
{ACAD_REACTORS
330
19A5
102
}
330
19A5
100
AcDbXrecord
280
     1
102
SHADEPLOT
 70
     0
102
SHADEPLOTRESLEVEL
 70
     2
102
SHADEPLOTCUSTOMDPI
 70
   300
  0
XRECORD
  5
19AA
102
{ACAD_REACTORS
330
19A9
102
}
330
19A9
100
AcDbXrecord
280
     1
102
SHADEPLOT
 70
     0
102
SHADEPLOTRESLEVEL
 70
     2
102
SHADEPLOTCUSTOMDPI
 70
   300
  0
XRECORD
  5
19A8
102
{ACAD_REACTORS
330
19A7
102
}
330
19A7
100
AcDbXrecord
280
     1
102
SHADEPLOT
 70
     0
102
SHADEPLOTRESLEVEL
 70
     2
102
SHADEPLOTCUSTOMDPI
 70
   300
  0
XRECORD
  5
19AD
102
{ACAD_REACTORS
330
11B
102
}
330
11B
100
AcDbXrecord
280
     1
102
MATERIAL
148
0.0
149
0.0
149
0.0
 93
        0
 94
      127
282
     0
 72
     0
 77
     0
171
     0
175
     0
179
     0
273
     0
  0
XRECORD
  5
11D
102
{ACAD_REACTORS
330
11B
102
}
330
11B
100
AcDbXrecord
280
     1
270
     1
271
     1
  0
XRECORD
  5
11C
102
{ACAD_REACTORS
330
11B
102
}
330
11B
100
AcDbXrecord
280
     1
270
     1
271
     1
  0
XRECORD
  5
120
102
{ACAD_REACTORS
330
11B
102
}
330
11B
100
AcDbXrecord
280
     1
270
     1
271
     1
  0
XRECORD
  5
11F
102
{ACAD_REACTORS
330
11B
102
}
330
11B
100
AcDbXrecord
280
     1
270
     1
271
     1
  0
XRECORD
  5
121
102
{ACAD_REACTORS
330
11B
102
}
330
11B
100
AcDbXrecord
280
     1
270
     1
271
     1
  0
XRECORD
  5
11E
102
{ACAD_REACTORS
330
11B
102
}
330
11B
100
AcDbXrecord
280
     1
270
     1
271
     1
  0
XRECORD
  5
19AC
102
{ACAD_REACTORS
330
113
102
}
330
113
100
AcDbXrecord
280
     1
102
MATERIAL
148
0.0
149
0.0
149
0.0
 93
        0
 94
      127
282
     0
 72
     0
 77
     0
171
     0
175
     0
179
     0
273
     0
  0
XRECORD
  5
115
102
{ACAD_REACTORS
330
113
102
}
330
113
100
AcDbXrecord
280
     1
270
     1
271
     1
  0
XRECORD
  5
114
102
{ACAD_REACTORS
330
113
102
}
330
113
100
AcDbXrecord
280
     1
270
     1
271
     1
  0
XRECORD
  5
118
102
{ACAD_REACTORS
330
113
102
}
330
113
100
AcDbXrecord
280
     1
270
     1
271
     1
  0
XRECORD
  5
117
102
{ACAD_REACTORS
330
113
102
}
330
113
100
AcDbXrecord
280
     1
270
     1
271
     1
  0
XRECORD
  5
119
102
{ACAD_REACTORS
330
113
102
}
330
113
100
AcDbXrecord
280
     1
270
     1
271
     1
  0
XRECORD
  5
116
102
{ACAD_REACTORS
330
113
102
}
330
113
100
AcDbXrecord
280
     1
270
     1
271
     1
  0
XRECORD
  5
19AE
102
{ACAD_REACTORS
330
123
102
}
330
123
100
AcDbXrecord
280
     1
102
MATERIAL
148
0.0
149
0.0
149
0.0
 93
        0
 94
      127
282
     0
 72
     0
 77
     0
171
     0
175
     0
179
     0
273
     0
  0
XRECORD
  5
125
102
{ACAD_REACTORS
330
123
102
}
330
123
100
AcDbXrecord
280
     1
270
     1
271
     1
  0
XRECORD
  5
124
102
{ACAD_REACTORS
330
123
102
}
330
123
100
AcDbXrecord
280
     1
270
     1
271
     1
  0
XRECORD
  5
128
102
{ACAD_REACTORS
330
123
102
}
330
123
100
AcDbXrecord
280
     1
270
     1
271
     1
  0
XRECORD
  5
127
102
{ACAD_REACTORS
330
123
102
}
330
123
100
AcDbXrecord
280
     1
270
     1
271
     1
  0
XRECORD
  5
129
102
{ACAD_REACTORS
330
123
102
}
330
123
100
AcDbXrecord
280
     1
270
     1
271
     1
  0
XRECORD
  5
126
102
{ACAD_REACTORS
330
123
102
}
330
123
100
AcDbXrecord
280
     1
270
     1
271
     1
  0
CELLSTYLEMAP
  5
19A1
102
{ACAD_REACTORS
330
167
102
}
330
167
100
AcDbCellStyleMap
 90
        3
300
CELLSTYLE
  1
TABLEFORMAT_BEGIN
 90
        5
170
     1
 91
        0
 92
    32768
 62
   257
 93
        1
300
CONTENTFORMAT
  1
CONTENTFORMAT_BEGIN
 90
        0
 91
        0
 92
        4
 93
        0
300

 40
0.0
140
1.0
 94
        5
 62
     0
340
11
144
6.0
309
CONTENTFORMAT_END
171
     1
301
MARGIN
  1
CELLMARGIN_BEGIN
 40
1.5
 40
1.5
 40
1.5
 40
1.5
 40
0.18
 40
0.18
309
CELLMARGIN_END
 94
        6
 95
        1
302
GRIDFORMAT
  1
GRIDFORMAT_BEGIN
 90
        0
 91
        1
 62
     0
 92
       -2
340
0
 93
        0
 40
0.045
309
GRIDFORMAT_END
 95
        2
302
GRIDFORMAT
  1
GRIDFORMAT_BEGIN
 90
        0
 91
        1
 62
     0
 92
       -2
340
0
 93
        0
 40
0.045
309
GRIDFORMAT_END
 95
        4
302
GRIDFORMAT
  1
GRIDFORMAT_BEGIN
 90
        0
 91
        1
 62
     0
 92
       -2
340
0
 93
        0
 40
0.045
309
GRIDFORMAT_END
 95
        8
302
GRIDFORMAT
  1
GRIDFORMAT_BEGIN
 90
        0
 91
        1
 62
     0
 92
       -2
340
0
 93
        0
 40
0.045
309
GRIDFORMAT_END
 95
       16
302
GRIDFORMAT
  1
GRIDFORMAT_BEGIN
 90
        0
 91
        1
 62
     0
 92
       -2
340
0
 93
        0
 40
0.045
309
GRIDFORMAT_END
 95
       32
302
GRIDFORMAT
  1
GRIDFORMAT_BEGIN
 90
        0
 91
        1
 62
     0
 92
       -2
340
0
 93
        0
 40
0.045
309
GRIDFORMAT_END
309
TABLEFORMAT_END
  1
CELLSTYLE_BEGIN
 90
        1
 91
        1
300
_TITLE
309
CELLSTYLE_END
300
CELLSTYLE
  1
TABLEFORMAT_BEGIN
 90
        5
170
     1
 91
        0
 92
        0
 62
   257
 93
        1
300
CONTENTFORMAT
  1
CONTENTFORMAT_BEGIN
 90
        0
 91
        0
 92
        4
 93
        0
300

 40
0.0
140
1.0
 94
        5
 62
     0
340
11
144
4.5
309
CONTENTFORMAT_END
171
     1
301
MARGIN
  1
CELLMARGIN_BEGIN
 40
1.5
 40
1.5
 40
1.5
 40
1.5
 40
0.18
 40
0.18
309
CELLMARGIN_END
 94
        6
 95
        1
302
GRIDFORMAT
  1
GRIDFORMAT_BEGIN
 90
        0
 91
        1
 62
     0
 92
       -2
340
0
 93
        0
 40
0.045
309
GRIDFORMAT_END
 95
        2
302
GRIDFORMAT
  1
GRIDFORMAT_BEGIN
 90
        0
 91
        1
 62
     0
 92
       -2
340
0
 93
        0
 40
0.045
309
GRIDFORMAT_END
 95
        4
302
GRIDFORMAT
  1
GRIDFORMAT_BEGIN
 90
        0
 91
        1
 62
     0
 92
       -2
340
0
 93
        0
 40
0.045
309
GRIDFORMAT_END
 95
        8
302
GRIDFORMAT
  1
GRIDFORMAT_BEGIN
 90
        0
 91
        1
 62
     0
 92
       -2
340
0
 93
        0
 40
0.045
309
GRIDFORMAT_END
 95
       16
302
GRIDFORMAT
  1
GRIDFORMAT_BEGIN
 90
        0
 91
        1
 62
     0
 92
       -2
340
0
 93
        0
 40
0.045
309
GRIDFORMAT_END
 95
       32
302
GRIDFORMAT
  1
GRIDFORMAT_BEGIN
 90
        0
 91
        1
 62
     0
 92
       -2
340
0
 93
        0
 40
0.045
309
GRIDFORMAT_END
309
TABLEFORMAT_END
  1
CELLSTYLE_BEGIN
 90
        2
 91
        1
300
_HEADER
309
CELLSTYLE_END
300
CELLSTYLE
  1
TABLEFORMAT_BEGIN
 90
        5
170
     1
 91
        0
 92
        0
 62
   257
 93
        1
300
CONTENTFORMAT
  1
CONTENTFORMAT_BEGIN
 90
        0
 91
        0
 92
        4
 93
        0
300

 40
0.0
140
1.0
 94
        2
 62
     0
340
11
144
4.5
309
CONTENTFORMAT_END
171
     1
301
MARGIN
  1
CELLMARGIN_BEGIN
 40
1.5
 40
1.5
 40
1.5
 40
1.5
 40
0.18
 40
0.18
309
CELLMARGIN_END
 94
        6
 95
        1
302
GRIDFORMAT
  1
GRIDFORMAT_BEGIN
 90
        0
 91
        1
 62
     0
 92
       -2
340
0
 93
        0
 40
0.045
309
GRIDFORMAT_END
 95
        2
302
GRIDFORMAT
  1
GRIDFORMAT_BEGIN
 90
        0
 91
        1
 62
     0
 92
       -2
340
0
 93
        0
 40
0.045
309
GRIDFORMAT_END
 95
        4
302
GRIDFORMAT
  1
GRIDFORMAT_BEGIN
 90
        0
 91
        1
 62
     0
 92
       -2
340
0
 93
        0
 40
0.045
309
GRIDFORMAT_END
 95
        8
302
GRIDFORMAT
  1
GRIDFORMAT_BEGIN
 90
        0
 91
        1
 62
     0
 92
       -2
340
0
 93
        0
 40
0.045
309
GRIDFORMAT_END
 95
       16
302
GRIDFORMAT
  1
GRIDFORMAT_BEGIN
 90
        0
 91
        1
 62
     0
 92
       -2
340
0
 93
        0
 40
0.045
309
GRIDFORMAT_END
 95
       32
302
GRIDFORMAT
  1
GRIDFORMAT_BEGIN
 90
        0
 91
        1
 62
     0
 92
       -2
340
0
 93
        0
 40
0.045
309
GRIDFORMAT_END
309
TABLEFORMAT_END
  1
CELLSTYLE_BEGIN
 90
        3
 91
        2
300
_DATA
309
CELLSTYLE_END
  0
XRECORD
  5
19AB
102
{ACAD_REACTORS
330
167
102
}
330
167
100
AcDbXrecord
280
     1
102
ACAD_ROUNDTRIP_PRE2007_TABLESTYLE
 90
        4
 91
        0
  1

 92
        4
 93
        0
  2

 94
        4
 95
        0
  3

  0
ENDSEC
  0
EOF
