  0
SECTION
  2
HEADER
  9
$ACADVER
  1
AC1018
  9
$ACADMAINTVER
 70
   104
  9
$DWGCODEPAGE
  3
ANSI_1250
  9
$AUTHOR
  1
tmrtka
  9
$LASTSAVEDBY
  1
onovak
  9
$REVISIONNUMBER
  1
000
  9
$CUSTOMPROPERTYTAG
  1
Vedoucí
  9
$CUSTOMPROPERTY
  1

  9
$CUSTOMPROPERTYTAG
  1
Společnost
  9
$CUSTOMPROPERTY
  1

  9
$CUSTOMPROPERTYTAG
  1
Kategorie
  9
$CUSTOMPROPERTY
  1

  9
$CUSTOMPROPERTYTAG
  1
Číslo součásti
  9
$CUSTOMPROPERTY
  1
408048
  9
$CUSTOMPROPERTYTAG
  1
Popis
  9
$CUSTOMPROPERTY
  1

  9
$CUSTOMPROPERTYTAG
  1
Projekt
  9
$CUSTOMPROPERTY
  1

  9
$CUSTOMPROPERTYTAG
  1
Kreslil
  9
$CUSTOMPROPERTY
  1
tmrtka
  9
$CUSTOMPROPERTYTAG
  1
Schválil
  9
$CUSTOMPROPERTY
  1

  9
$CUSTOMPROPERTYTAG
  1
Zodpovídá
  9
$CUSTOMPROPERTY
  1

  9
$CUSTOMPROPERTYTAG
  1
Nákladové středisko
  9
$CUSTOMPROPERTY
  1

  9
$CUSTOMPROPERTYTAG
  1
Dodavatel
  9
$CUSTOMPROPERTY
  1

  9
$CUSTOMPROPERTYTAG
  1
Uživatelský stav
  9
$CUSTOMPROPERTY
  1

  9
$CUSTOMPROPERTYTAG
  1
Stav návrhu
  9
$CUSTOMPROPERTY
  1
Rozpracováno
  9
$CUSTOMPROPERTYTAG
  1
Zkontroloval
  9
$CUSTOMPROPERTY
  1

  9
$CUSTOMPROPERTYTAG
  1
Techn. kontr. schválil
  9
$CUSTOMPROPERTY
  1

  9
$CUSTOMPROPERTYTAG
  1
Výrobu schválil
  9
$CUSTOMPROPERTY
  1

  9
$CUSTOMPROPERTYTAG
  1
VS_First
  9
$CUSTOMPROPERTY
  1

  9
$CUSTOMPROPERTYTAG
  1
VS_All
  9
$CUSTOMPROPERTY
  1
1:1,
  9
$CUSTOMPROPERTYTAG
  1
Model_Mass_Value
  9
$CUSTOMPROPERTY
  1
,0
  9
$CUSTOMPROPERTYTAG
  1
Model_Mass_Units
  9
$CUSTOMPROPERTY
  1
kg
  9
$CUSTOMPROPERTYTAG
  1
Model_Area_Value
  9
$CUSTOMPROPERTY
  1
2694,0
  9
$CUSTOMPROPERTYTAG
  1
Model_Area_Units
  9
$CUSTOMPROPERTY
  1
mm˛
  9
$CUSTOMPROPERTYTAG
  1
Model_Volume_Value
  9
$CUSTOMPROPERTY
  1
5471,0
  9
$CUSTOMPROPERTYTAG
  1
Model_Volume_Units
  9
$CUSTOMPROPERTY
  1
mmł
  9
$CUSTOMPROPERTYTAG
  1
Model_CogX_Value
  9
$CUSTOMPROPERTY
  1
,0
  9
$CUSTOMPROPERTYTAG
  1
Model_CogY_Value
  9
$CUSTOMPROPERTY
  1
,0
  9
$CUSTOMPROPERTYTAG
  1
Model_CogZ_Value
  9
$CUSTOMPROPERTY
  1
,0
  9
$CUSTOMPROPERTYTAG
  1
Model_Cog_Units
  9
$CUSTOMPROPERTY
  1
mm
  9
$CUSTOMPROPERTYTAG
  1
Model_Ixx_Value
  9
$CUSTOMPROPERTY
  1
,0
  9
$CUSTOMPROPERTYTAG
  1
Model_Iyy_Value
  9
$CUSTOMPROPERTY
  1
,0
  9
$CUSTOMPROPERTYTAG
  1
Model_Izz_Value
  9
$CUSTOMPROPERTY
  1
,0
  9
$CUSTOMPROPERTYTAG
  1
Model_Ixy_Value
  9
$CUSTOMPROPERTY
  1
,0
  9
$CUSTOMPROPERTYTAG
  1
Model_Iyz_Value
  9
$CUSTOMPROPERTY
  1
,0
  9
$CUSTOMPROPERTYTAG
  1
Model_Ixz_Value
  9
$CUSTOMPROPERTY
  1
,0
  9
$CUSTOMPROPERTYTAG
  1
Model_MassMom_Units
  9
$CUSTOMPROPERTY
  1
kg mm˛
  9
$CUSTOMPROPERTYTAG
  1
FirstViewScale
  9
$CUSTOMPROPERTY
  1

  9
$CUSTOMPROPERTYTAG
  1
AllViewScales
  9
$CUSTOMPROPERTY
  1

  9
$CUSTOMPROPERTYTAG
  1
SaveDate
  9
$CUSTOMPROPERTY
  1
09/12/2007
  9
$CUSTOMPROPERTYTAG
  1
SaveTime
  9
$CUSTOMPROPERTY
  1
10:32
  9
$CUSTOMPROPERTYTAG
  1
PaperSize
  9
$CUSTOMPROPERTY
  1
A3
  9
$CUSTOMPROPERTYTAG
  1
DateSaved
  9
$CUSTOMPROPERTY
  1
12.09.2007
  9
$CUSTOMPROPERTYTAG
  1
TimeSaved
  9
$CUSTOMPROPERTY
  1
10:32 dop.
  9
$INSBASE
 10
0.0
 20
0.0
 30
0.0
  9
$EXTMIN
 10
89.22780064031007
 20
14.97711330067477
 30
-0.0000000000112498
  9
$EXTMAX
 10
308.8644117972167
 20
554.2204298454107
 30
0.0000000000002956
  9
$LIMMIN
 10
0.0
 20
0.0
  9
$LIMMAX
 10
891.0
 20
630.0
  9
$ORTHOMODE
 70
     1
  9
$REGENMODE
 70
     1
  9
$FILLMODE
 70
     1
  9
$QTEXTMODE
 70
     0
  9
$MIRRTEXT
 70
     0
  9
$LTSCALE
 40
1.5
  9
$ATTMODE
 70
     1
  9
$TEXTSIZE
 40
0.2
  9
$TRACEWID
 40
0.05
  9
$TEXTSTYLE
  7
Standard
  9
$CLAYER
  8
0
  9
$CELTYPE
  6
ByLayer
  9
$CECOLOR
 62
   256
  9
$CELTSCALE
 40
1.0
  9
$DISPSILH
 70
     0
  9
$DIMSCALE
 40
1.0
  9
$DIMASZ
 40
1.799999999999999
  9
$DIMEXO
 40
0.0625
  9
$DIMDLI
 40
0.38
  9
$DIMRND
 40
0.0
  9
$DIMDLE
 40
0.0
  9
$DIMEXE
 40
0.18
  9
$DIMTP
 40
0.0
  9
$DIMTM
 40
0.0
  9
$DIMTXT
 40
0.3499999940395355
  9
$DIMCEN
 40
0.09
  9
$DIMTSZ
 40
0.0
  9
$DIMTOL
 70
     0
  9
$DIMLIM
 70
     0
  9
$DIMTIH
 70
     1
  9
$DIMTOH
 70
     1
  9
$DIMSE1
 70
     0
  9
$DIMSE2
 70
     0
  9
$DIMTAD
 70
     0
  9
$DIMZIN
 70
     0
  9
$DIMBLK
  1

  9
$DIMASO
 70
     1
  9
$DIMSHO
 70
     1
  9
$DIMPOST
  1

  9
$DIMAPOST
  1

  9
$DIMALT
 70
     0
  9
$DIMALTD
 70
     2
  9
$DIMALTF
 40
25.4
  9
$DIMLFAC
 40
1.0
  9
$DIMTOFL
 70
     0
  9
$DIMTVP
 40
0.0
  9
$DIMTIX
 70
     0
  9
$DIMSOXD
 70
     0
  9
$DIMSAH
 70
     0
  9
$DIMBLK1
  1

  9
$DIMBLK2
  1

  9
$DIMSTYLE
  2
Standard
  9
$DIMCLRD
 70
     0
  9
$DIMCLRE
 70
     0
  9
$DIMCLRT
 70
     0
  9
$DIMTFAC
 40
1.0
  9
$DIMGAP
 40
0.09
  9
$DIMJUST
 70
     0
  9
$DIMSD1
 70
     0
  9
$DIMSD2
 70
     0
  9
$DIMTOLJ
 70
     1
  9
$DIMTZIN
 70
     0
  9
$DIMALTZ
 70
     0
  9
$DIMALTTZ
 70
     0
  9
$DIMUPT
 70
     0
  9
$DIMDEC
 70
     4
  9
$DIMTDEC
 70
     4
  9
$DIMALTU
 70
     2
  9
$DIMALTTD
 70
     2
  9
$DIMTXSTY
  7
Standard
  9
$DIMAUNIT
 70
     0
  9
$DIMADEC
 70
     0
  9
$DIMALTRND
 40
0.0
  9
$DIMAZIN
 70
     0
  9
$DIMDSEP
 70
    46
  9
$DIMATFIT
 70
     3
  9
$DIMFRAC
 70
     0
  9
$DIMLDRBLK
  1

  9
$DIMLUNIT
 70
     2
  9
$DIMLWD
 70
    -2
  9
$DIMLWE
 70
    -2
  9
$DIMTMOVE
 70
     0
  9
$LUNITS
 70
     2
  9
$LUPREC
 70
     2
  9
$SKETCHINC
 40
0.1
  9
$FILLETRAD
 40
0.0
  9
$AUNITS
 70
     0
  9
$AUPREC
 70
     0
  9
$MENU
  1
.
  9
$ELEVATION
 40
0.0
  9
$PELEVATION
 40
0.0
  9
$THICKNESS
 40
0.0
  9
$LIMCHECK
 70
     0
  9
$CHAMFERA
 40
0.0
  9
$CHAMFERB
 40
0.0
  9
$CHAMFERC
 40
0.0
  9
$CHAMFERD
 40
0.0
  9
$SKPOLY
 70
     0
  9
$TDCREATE
 40
2456105.527563403
  9
$TDUCREATE
 40
2456105.444230070
  9
$TDUPDATE
 40
2456113.320351181
  9
$TDUUPDATE
 40
2456113.237017847
  9
$TDINDWG
 40
0.0121190162
  9
$TDUSRTIMER
 40
0.0121190162
  9
$USRTIMER
 70
     1
  9
$ANGBASE
 50
0.0
  9
$ANGDIR
 70
     0
  9
$PDMODE
 70
     0
  9
$PDSIZE
 40
0.0
  9
$PLINEWID
 40
0.0
  9
$SPLFRAME
 70
     0
  9
$SPLINETYPE
 70
     6
  9
$SPLINESEGS
 70
     8
  9
$HANDSEED
  5
273E
  9
$SURFTAB1
 70
     6
  9
$SURFTAB2
 70
     6
  9
$SURFTYPE
 70
     6
  9
$SURFU
 70
     6
  9
$SURFV
 70
     6
  9
$UCSBASE
  2

  9
$UCSNAME
  2

  9
$UCSORG
 10
0.0
 20
0.0
 30
0.0
  9
$UCSXDIR
 10
1.0
 20
0.0
 30
0.0
  9
$UCSYDIR
 10
0.0
 20
1.0
 30
0.0
  9
$UCSORTHOREF
  2

  9
$UCSORTHOVIEW
 70
     0
  9
$UCSORGTOP
 10
0.0
 20
0.0
 30
0.0
  9
$UCSORGBOTTOM
 10
0.0
 20
0.0
 30
0.0
  9
$UCSORGLEFT
 10
0.0
 20
0.0
 30
0.0
  9
$UCSORGRIGHT
 10
0.0
 20
0.0
 30
0.0
  9
$UCSORGFRONT
 10
0.0
 20
0.0
 30
0.0
  9
$UCSORGBACK
 10
0.0
 20
0.0
 30
0.0
  9
$PUCSBASE
  2

  9
$PUCSNAME
  2

  9
$PUCSORG
 10
0.0
 20
0.0
 30
0.0
  9
$PUCSXDIR
 10
1.0
 20
0.0
 30
0.0
  9
$PUCSYDIR
 10
0.0
 20
1.0
 30
0.0
  9
$PUCSORTHOREF
  2

  9
$PUCSORTHOVIEW
 70
     0
  9
$PUCSORGTOP
 10
0.0
 20
0.0
 30
0.0
  9
$PUCSORGBOTTOM
 10
0.0
 20
0.0
 30
0.0
  9
$PUCSORGLEFT
 10
0.0
 20
0.0
 30
0.0
  9
$PUCSORGRIGHT
 10
0.0
 20
0.0
 30
0.0
  9
$PUCSORGFRONT
 10
0.0
 20
0.0
 30
0.0
  9
$PUCSORGBACK
 10
0.0
 20
0.0
 30
0.0
  9
$USERI1
 70
     0
  9
$USERI2
 70
     0
  9
$USERI3
 70
     0
  9
$USERI4
 70
     0
  9
$USERI5
 70
     0
  9
$USERR1
 40
0.0
  9
$USERR2
 40
0.0
  9
$USERR3
 40
0.0
  9
$USERR4
 40
0.0
  9
$USERR5
 40
0.0
  9
$WORLDVIEW
 70
     1
  9
$SHADEDGE
 70
     3
  9
$SHADEDIF
 70
    70
  9
$TILEMODE
 70
     1
  9
$MAXACTVP
 70
    64
  9
$PINSBASE
 10
0.0
 20
0.0
 30
0.0
  9
$PLIMCHECK
 70
     0
  9
$PEXTMIN
 10
0.0
 20
0.0
 30
0.0
  9
$PEXTMAX
 10
891.0
 20
630.0
 30
0.0
  9
$PLIMMIN
 10
0.0
 20
0.0
  9
$PLIMMAX
 10
891.0
 20
630.0
  9
$UNITMODE
 70
     0
  9
$VISRETAIN
 70
     1
  9
$PLINEGEN
 70
     0
  9
$PSLTSCALE
 70
     1
  9
$TREEDEPTH
 70
  3020
  9
$CMLSTYLE
  2
Standard
  9
$CMLJUST
 70
     0
  9
$CMLSCALE
 40
1.0
  9
$PROXYGRAPHICS
 70
     1
  9
$MEASUREMENT
 70
     1
  9
$CELWEIGHT
370
    -1
  9
$ENDCAPS
280
     0
  9
$JOINSTYLE
280
     0
  9
$LWDISPLAY
290
     0
  9
$INSUNITS
 70
     4
  9
$HYPERLINKBASE
  1

  9
$STYLESHEET
  1

  9
$XEDIT
290
     1
  9
$CEPSNTYPE
380
     0
  9
$PSTYLEMODE
290
     1
  9
$FINGERPRINTGUID
  2
{A304E343-D2FE-4647-8058-85AEBA7927D7}
  9
$VERSIONGUID
  2
{C5ECB755-02FA-4BD8-A108-7FF1DFD3588F}
  9
$EXTNAMES
290
     1
  9
$PSVPSCALE
 40
0.0
  9
$OLESTARTUP
290
     0
  9
$SORTENTS
280
   127
  9
$INDEXCTL
280
     0
  9
$HIDETEXT
280
     1
  9
$XCLIPFRAME
290
     0
  9
$HALOGAP
280
     0
  9
$OBSCOLOR
 70
   257
  9
$OBSLTYPE
280
     0
  9
$INTERSECTIONDISPLAY
280
     0
  9
$INTERSECTIONCOLOR
 70
   257
  9
$DIMASSOC
280
     1
  9
$PROJECTNAME
  1

  0
ENDSEC
  0
SECTION
  2
CLASSES
  0
CLASS
  1
ACDBDICTIONARYWDFLT
  2
AcDbDictionaryWithDefault
  3
ObjectDBX Classes
 90
        0
 91
        1
280
     0
281
     0
  0
CLASS
  1
MATERIAL
  2
AcDbMaterial
  3
ObjectDBX Classes
 90
     1153
 91
        3
280
     0
281
     0
  0
CLASS
  1
VISUALSTYLE
  2
AcDbVisualStyle
  3
ObjectDBX Classes
 90
     4095
 91
       26
280
     0
281
     0
  0
CLASS
  1
SCALE
  2
AcDbScale
  3
ObjectDBX Classes
 90
     1153
 91
       17
280
     0
281
     0
  0
CLASS
  1
TABLESTYLE
  2
AcDbTableStyle
  3
ObjectDBX Classes
 90
     4095
 91
        1
280
     0
281
     0
  0
CLASS
  1
MLEADERSTYLE
  2
AcDbMLeaderStyle
  3
ACDB_MLEADERSTYLE_CLASS
 90
     4095
 91
        1
280
     0
281
     0
  0
CLASS
  1
DICTIONARYVAR
  2
AcDbDictionaryVar
  3
ObjectDBX Classes
 90
        0
 91
       11
280
     0
281
     0
  0
CLASS
  1
ACME_DOCUMENT
  2
AcMeDbDoc
  3
AcMeServices
 90
     1024
 91
        1
280
     0
281
     0
  0
CLASS
  1
AMGSETTINGSOBJ
  2
AmgSettingsObj
  3
"AcadM|Product Description: AutoCAD Mechanical|Company: Autodesk, Inc."
 90
     1024
 91
        2
280
     0
281
     0
  0
CLASS
  1
ACMESCOPE
  2
AcMeScope
  3
AcMeServices
 90
     1024
 91
        1
280
     0
281
     0
  0
CLASS
  1
ACMECOMMANDHISTORY
  2
AcMeCommandHistory
  3
AcMeServices
 90
     1024
 91
        1
280
     0
281
     0
  0
CLASS
  1
ACIMSYSVARMAN
  2
AcImSysVarManager
  3
AcMeServices
 90
     1024
 91
        5
280
     0
281
     0
  0
CLASS
  1
ACIMINTSYSVAR
  2
AcImIntSysVar
  3
AcMeServices
 90
     1024
 91
       27
280
     0
281
     0
  0
CLASS
  1
ACMEDRAWINGMAN
  2
AcMeDrawingMan
  3
AcMeServices
 90
     1024
 91
        1
280
     0
281
     0
  0
CLASS
  1
ACMEVIEW
  2
AcMeView
  3
AcMeServices
 90
     1024
 91
        1
280
     0
281
     0
  0
CLASS
  1
ACDBENTITYCACHE
  2
AcMeEntityCache
  3
AcMeServices
 90
     1024
 91
        1
280
     0
281
     0
  0
CLASS
  1
ACMESTATEMGR
  2
AcMeStateMgr
  3
AcMeServices
 90
     1024
 91
        1
280
     0
281
     0
  0
CLASS
  1
ACGREFMASTER
  2
AcGrefMaster
  3
AcAttribServices
 90
     1024
 91
        1
280
     0
281
     0
  0
CLASS
  1
AM_DRAWING_MGR
  2
AcDmDwgMgr
  3
AcMechDwgViewMgmt
 90
     1024
 91
        1
280
     0
281
     0
  0
CLASS
  1
AM_DWG_DOCUMENT
  2
AcDmDwgDocument
  3
AcMechDwgViewMgmt
 90
     1024
 91
        1
280
     0
281
     0
  0
CLASS
  1
AM_DWG_SHEET
  2
AcDmSheet
  3
AcMechDwgViewMgmt
 90
     1024
 91
        2
280
     0
281
     0
  0
CLASS
  1
AM_VIEWDIMPARMAP
  2
AcDmViewDimParMap
  3
AcMechDwgViewMgmt
 90
     1024
 91
        2
280
     0
281
     0
  0
CLASS
  1
AMDTINTERNALREACTOR
  2
AmdtInternalReactor
  3
AcMeServices
 90
     1024
 91
        1
280
     0
281
     0
  0
CLASS
  1
ACIMREALSYSVAR
  2
AcImRealSysVar
  3
AcMeServices
 90
     1024
 91
        1
280
     0
281
     0
  0
CLASS
  1
AM_DWGMGR_NAME
  2
AcDmDwgMgrName
  3
AcMechDwgViewMgmt
 90
     1024
 91
        1
280
     0
281
     0
  0
CLASS
  1
ACME_DATABASE
  2
AcMeDbDatabase
  3
AcMeServices
 90
     1024
 91
        1
280
     0
281
     0
  0
CLASS
  1
ACRFINSADJUSTERMGR
  2
AcRfInsAdjusterMgr
  3
AcMeServices
 90
     1024
 91
        1
280
     0
281
     0
  0
CLASS
  1
ACGREFACADMASTER
  2
AcGrefacadMaster
  3
AcGrefServices
 90
     1024
 91
        1
280
     0
281
     0
  0
CLASS
  1
AMDTMENUSTATEMGR
  2
AmdtMenuStateMgr
  3
McadcomServices
 90
     1024
 91
        1
280
     0
281
     0
  0
CLASS
  1
AMDTMCOMMENUSTATE
  2
AmdtMcomMenuState
  3
McadcomServices
 90
     1024
 91
        1
280
     0
281
     0
  0
CLASS
  1
AMIMASTER
  2
AmiMaster
  3
AmiServices
 90
     1024
 91
        1
280
     0
281
     0
  0
CLASS
  1
MAPIAMMOUDLE
  2
MApiAmModule
  3
MApiAmServices
 90
     1024
 91
        1
280
     0
281
     0
  0
CLASS
  1
ACIMSTRSYSVAR
  2
AcImStrSysVar
  3
AcMeServices
 90
     1024
 91
        5
280
     0
281
     0
  0
CLASS
  1
AMDTADMENUSTATE
  2
AmdtAdMenuState
  3
DesignerServices
 90
     1024
 91
        1
280
     0
281
     0
  0
CLASS
  1
ADAPPL
  2
AcAdAppl
  3
DesignerServices
 90
     1024
 91
        1
280
     0
281
     0
  0
CLASS
  1
DEPMGR
  2
AcAdDepMgr
  3
DesignerServices
 90
     1024
 91
        1
280
     0
281
     0
  0
CLASS
  1
PARAMMGR
  2
AcAdParamMgr
  3
DesignerServices
 90
     1024
 91
        1
280
     0
281
     0
  0
CLASS
  1
PARAMSCOPE
  2
AcAdParamScope
  3
DesignerServices
 90
     1024
 91
        1
280
     0
281
     0
  0
CLASS
  1
NAMEDAPPL
  2
AcAdNamedAppl
  3
DesignerServices
 90
     1024
 91
        1
280
     0
281
     0
  0
CLASS
  1
AMDTDMMENUSTATE
  2
AmdtDmMenuState
  3
AcMechDwgViewMgmt
 90
     1024
 91
        1
280
     0
281
     0
  0
CLASS
  1
AMDTAMMENUSTATE
  2
AmdtAmMenuState
  3
DesignerAssemblies
 90
     1024
 91
        1
280
     0
281
     0
  0
CLASS
  1
ACAMPROJECT
  2
AcAmProject
  3
DesignerAssemblies
 90
     1024
 91
        1
280
     0
281
     0
  0
CLASS
  1
ACAMGRCOMPDEF
  2
AcAmGrCompDef
  3
DesignerAssemblies
 90
     1024
 91
        1
280
     0
281
     0
  0
CLASS
  1
ACAMCOMPDEF
  2
AcAmCompDef
  3
DesignerAssemblies
 90
     1024
 91
        1
280
     0
281
     0
  0
CLASS
  1
ACAMCOMPDEFMGR
  2
AcAmCompDefMgr
  3
DesignerAssemblies
 90
     1024
 91
        1
280
     0
281
     0
  0
CLASS
  1
AMCONTEXTMGR
  2
AcAmContextMgr
  3
DesignerAssemblies
 90
     1024
 91
        1
280
     0
281
     0
  0
CLASS
  1
ACAMCONTEXTMODELER
  2
AcAmContextModeler
  3
DesignerAssemblies
 90
     1024
 91
        1
280
     0
281
     0
  0
CLASS
  1
ACMDATADICTIONARY
  2
AcmDataDictionary
  3
"AcmSymBB|Product Description: AutoCAD Mechanical|Company: Autodesk, Inc."
 90
     1024
 91
        1
280
     0
281
     0
  0
CLASS
  1
CATALOGSTATE
  2
AcAmCatalogState
  3
DesignerAssemblies
 90
     1024
 91
        1
280
     0
281
     0
  0
CLASS
  1
ACAMGRCOMPDEFSET
  2
AcAmGrCompDefSet
  3
DesignerAssemblies
 90
     1024
 91
        1
280
     0
281
     0
  0
CLASS
  1
AMDTBROWSERDBTAB
  2
AmdtBrowserDbTab
  3
McadcomServices
 90
     1024
 91
        1
280
     0
281
     0
  0
CLASS
  1
CBROWSERAPPOBJECT
  2
CBrowserAppObject
  3
McadcomServices
 90
     1024
 91
        2
280
     0
281
     0
  0
CLASS
  1
DM_PLACEHOLDER
  2
AcDmSelsetPlaceholder
  3
AcMechDwgViewMgmt
 90
     1024
 91
        1
280
     0
281
     0
  0
CLASS
  1
ACMSTANDARDISO
  2
AcmStandardISO
  3
"Amdt_StdImp|Product Description: AutoCAD Mechanical|Company: Autodesk, Inc."
 90
     1024
 91
        1
280
     0
281
     0
  0
CLASS
  1
AMDTEDGESTANDARDISO13715
  2
AmdtEdgeStdISO13715
  3
"Amdt_StdImp|Product Description: AutoCAD Mechanical|Company: Autodesk, Inc."
 90
     1024
 91
        1
280
     0
281
     0
  0
CLASS
  1
ACMSURFSTANDARDISO2002
  2
AcmSurfTextStdISO2002
  3
"Amdt_StdImp|Product Description: AutoCAD Mechanical|Company: Autodesk, Inc."
 90
     1024
 91
        1
280
     0
281
     0
  0
CLASS
  1
ACMFCFSTANDARDISO
  2
AcmFCFStdISO
  3
"Amdt_StdImp|Product Description: AutoCAD Mechanical|Company: Autodesk, Inc."
 90
     1024
 91
        1
280
     0
281
     0
  0
CLASS
  1
ACMWELDSTANDARDISO
  2
AcmWeldingStdISO
  3
"Amdt_StdImp|Product Description: AutoCAD Mechanical|Company: Autodesk, Inc."
 90
     1024
 91
        1
280
     0
281
     0
  0
CLASS
  1
ACMIDSTANDARDISO
  2
AcmIdStdISO
  3
"Amdt_StdImp|Product Description: AutoCAD Mechanical|Company: Autodesk, Inc."
 90
     1024
 91
        1
280
     0
281
     0
  0
CLASS
  1
ACMDATUMSTANDARDISO
  2
AcmDatumStdISO
  3
"Amdt_StdImp|Product Description: AutoCAD Mechanical|Company: Autodesk, Inc."
 90
     1024
 91
        1
280
     0
281
     0
  0
CLASS
  1
ACMBOMSTANDARDISO
  2
AcmBOMStdISO
  3
"Amdt_StdImp|Product Description: AutoCAD Mechanical|Company: Autodesk, Inc."
 90
     1024
 91
        1
280
     0
281
     0
  0
CLASS
  1
ACMDETAILSTANDARDISO
  2
AmdtDetailSymStdISO
  3
"Amdt_StdImp|Product Description: AutoCAD Mechanical|Company: Autodesk, Inc."
 90
     1024
 91
        1
280
     0
281
     0
  0
CLASS
  1
ACMSECTIONSTANDARDISO2001
  2
AmdtSectionSymStdISO2001
  3
"Amdt_StdImp|Product Description: AutoCAD Mechanical|Company: Autodesk, Inc."
 90
     1024
 91
        1
280
     0
281
     0
  0
CLASS
  1
ACMCENTERLINESTANDARDISO
  2
AmdtCenterLineStdISO
  3
"Amdt_StdImp|Product Description: AutoCAD Mechanical|Company: Autodesk, Inc."
 90
     1024
 91
        1
280
     0
281
     0
  0
CLASS
  1
ACMTHREADLINESTANDARDISO
  2
AmdtThreadLineStdISO
  3
"Amdt_StdImp|Product Description: AutoCAD Mechanical|Company: Autodesk, Inc."
 90
     1024
 91
        1
280
     0
281
     0
  0
CLASS
  1
ACMNOTESTANDARDISO
  2
AmdtNoteStdISO
  3
"Amdt_StdImp|Product Description: AutoCAD Mechanical|Company: Autodesk, Inc."
 90
     1024
 91
        1
280
     0
281
     0
  0
CLASS
  1
ACMTAPERSTANDARDISO
  2
AcmTaperStdISO
  3
"Amdt_StdImp|Product Description: AutoCAD Mechanical|Company: Autodesk, Inc."
 90
     1024
 91
        1
280
     0
281
     0
  0
CLASS
  1
ACMANOOTATIONVIEWSTANDARDISO
  2
AmdtAnViewStdISO
  3
"Amdt_StdImp|Product Description: AutoCAD Mechanical|Company: Autodesk, Inc."
 90
     1024
 91
        1
280
     0
281
     0
  0
CLASS
  1
ACAMGLAYSTD
  2
AcAmgLayStd
  3
"AmgLay|Product Description: AutoCAD Mechanical|Company: Autodesk, Inc."
 90
     1024
 91
        1
280
     0
281
     0
  0
CLASS
  1
ACAMGDIMSTD
  2
AcAmgDimStd
  3
"AmgDim|Product Description: AutoCAD Mechanical|Company: Autodesk, Inc."
 90
     1024
 91
        1
280
     0
281
     0
  0
CLASS
  1
AMGOBJPROPCFG
  2
AmgObjPropCfg
  3
"AmgLay|Product Description: AutoCAD Mechanical|Company: Autodesk, Inc."
 90
     1025
 91
        1
280
     0
281
     0
  0
CLASS
  1
ACAMGHOLECHARTSTDISO
  2
AcAmgHoleChartStdISO
  3
AmgDim|Product Description: AutoCAD Mechanical|Company: Autodesk, Inc.
 90
     1024
 91
        1
280
     0
281
     0
  0
CLASS
  1
ACAMGTITLESTD
  2
AcAmgTitleStd
  3
"AmgTitle|Product Description: AutoCAD Mechanical|Company: Autodesk, Inc."
 90
     4095
 91
        1
280
     0
281
     0
  0
CLASS
  1
AMDTNOTETEMPLATEDB
  2
AmdtNoteTemplateDB
  3
AcmSymBB|Product Description: AutoCAD Mechanical|Company: Autodesk, Inc.
 90
     1024
 91
        6
280
     0
281
     0
  0
CLASS
  1
ACAMGFILTERDAT
  2
AcAmgFilterDat
  3
"AcadM|Product Description: AutoCAD Mechanical|Company: Autodesk, Inc."
 90
     1024
 91
        0
280
     0
281
     0
  0
CLASS
  1
AEC_REFEDIT_STATUS_TRACKER
  2
AecDbRefEditStatusTracker
  3
AecArchBase60|Product Desc: Autodesk Architectural Desktop 2007 |Company: Autodesk,Inc. |WEB Address: www.autodesk.com
 90
      129
 91
        0
280
     0
281
     0
  0
CLASS
  1
NPOCOLLECTION
  2
AcDbImpNonPersistentObjectsCollection
  3
ObjectDBX Classes
 90
     1153
 91
        0
280
     0
281
     0
  0
CLASS
  1
CELLSTYLEMAP
  2
AcDbCellStyleMap
  3
ObjectDBX Classes
 90
     1152
 91
        3
280
     0
281
     0
  0
ENDSEC
  0
SECTION
  2
TABLES
  0
TABLE
  2
VPORT
  5
8
330
0
100
AcDbSymbolTable
 70
     1
  0
VPORT
  5
57
330
8
100
AcDbSymbolTableRecord
100
AcDbViewportTableRecord
  2
*Active
 70
     0
 10
0.0
 20
0.0
 11
1.0
 21
1.0
 12
199.0461062187634
 22
284.5987715730428
 13
0.0
 23
0.0
 14
1.0
 24
1.0
 15
0.0
 25
0.0
 16
0.0
 26
0.0
 36
1.0
 17
0.0
 27
0.0
 37
0.0
 40
542.7037014637396
 41
1.576017130620984
 42
50.0
 43
0.0
 44
0.0
 50
0.0
 51
0.0
 71
     0
 72
   100
 73
     1
 74
     1
 75
     0
 76
     0
 77
     0
 78
     0
281
     0
 65
     0
110
0.0
120
0.0
130
0.0
111
1.0
121
0.0
131
0.0
112
0.0
122
1.0
132
0.0
 79
     0
146
0.0
  0
ENDTAB
  0
TABLE
  2
LTYPE
  5
5
330
0
100
AcDbSymbolTable
 70
    15
  0
LTYPE
  5
5B
330
5
100
AcDbSymbolTableRecord
100
AcDbLinetypeTableRecord
  2
ByBlock
 70
     0
  3

 72
    65
 73
     0
 40
0.0
  0
LTYPE
  5
5C
330
5
100
AcDbSymbolTableRecord
100
AcDbLinetypeTableRecord
  2
ByLayer
 70
     0
  3

 72
    65
 73
     0
 40
0.0
  0
LTYPE
  5
5D
330
5
100
AcDbSymbolTableRecord
100
AcDbLinetypeTableRecord
  2
Continuous
 70
     0
  3
Solid line
 72
    65
 73
     0
 40
0.0
  0
LTYPE
  5
20A1
330
5
100
AcDbSymbolTableRecord
100
AcDbLinetypeTableRecord
  2
HIDDEN
 70
     0
  3
Skrytá __ __ __ __ __ __ __ __ __ __ __ __ __ __
 72
    65
 73
     2
 40
9.525
 49
6.349999999999997
 74
     0
 49
-3.174999999999998
 74
     0
  0
LTYPE
  5
20A2
330
5
100
AcDbSymbolTableRecord
100
AcDbLinetypeTableRecord
  2
PHANTOM2
 70
     0
  3
Sdružená (.5x) ___ _ _ ___ _ _ ___ _ _ ___ _ _
 72
    65
 73
     6
 40
31.75
 49
15.875
 74
     0
 49
-3.174999999999998
 74
     0
 49
3.174999999999998
 74
     0
 49
-3.174999999999998
 74
     0
 49
3.174999999999998
 74
     0
 49
-3.174999999999998
 74
     0
  0
LTYPE
  5
20A3
330
5
100
AcDbSymbolTableRecord
100
AcDbLinetypeTableRecord
  2
CENTER
 70
     0
  3
Středová ____ _ ____ _ ____ _ ____ _ ____ _ ____
 72
    65
 73
     4
 40
50.8
 49
31.75
 74
     0
 49
-6.349999999999997
 74
     0
 49
6.349999999999997
 74
     0
 49
-6.349999999999997
 74
     0
  0
LTYPE
  5
20E9
330
5
100
AcDbSymbolTableRecord
100
AcDbLinetypeTableRecord
  2
AM_ISO02W050
 70
     0
  3
__ __ __ __ __ __ __ __ __ __ __ __ __ __ __
 72
    65
 73
     2
 40
7.5
 49
6.0
 74
     0
 49
-1.5
 74
     0
  0
LTYPE
  5
20EA
330
5
100
AcDbSymbolTableRecord
100
AcDbLinetypeTableRecord
  2
AM_ISO08W050
 70
     0
  3
____ . ____ . ____ . ____ . ____ . ____ . ____
 72
    65
 73
     4
 40
18.0
 49
12.0
 74
     0
 49
-1.5
 74
     0
 49
3.0
 74
     0
 49
-1.5
 74
     0
  0
LTYPE
  5
20EB
330
5
100
AcDbSymbolTableRecord
100
AcDbLinetypeTableRecord
  2
AM_ISO09W050
 70
     0
  3
_____ . . _____ . . _____ . . ____ .. ____
 72
    65
 73
     6
 40
22.5
 49
12.0
 74
     0
 49
-1.5
 74
     0
 49
3.0
 74
     0
 49
-1.5
 74
     0
 49
3.0
 74
     0
 49
-1.5
 74
     0
  0
LTYPE
  5
20EC
330
5
100
AcDbSymbolTableRecord
100
AcDbLinetypeTableRecord
  2
Amconstr
 70
     0
  3
_______________________
 72
    65
 73
     2
 40
9999.0
 49
9999.0
 74
     0
 49
0.0
 74
     0
  0
LTYPE
  5
20ED
330
5
100
AcDbSymbolTableRecord
100
AcDbLinetypeTableRecord
  2
AM_ISO08W050x2
 70
     0
  3
__ . __ . __ . __ . __ . __
 72
    65
 73
     4
 40
9.0
 49
6.0
 74
     0
 49
-0.75
 74
     0
 49
1.5
 74
     0
 49
-0.75
 74
     0
  0
LTYPE
  5
20EE
330
5
100
AcDbSymbolTableRecord
100
AcDbLinetypeTableRecord
  2
AM_ISO02W050x2
 70
     0
  3
 _ _ _ _ _ _ _ _ _ _ _ _
 72
    65
 73
     2
 40
3.75
 49
3.0
 74
     0
 49
-0.75
 74
     0
  0
LTYPE
  5
20F1
330
5
100
AcDbSymbolTableRecord
100
AcDbLinetypeTableRecord
  2
Amzigzag
 70
     0
  3
/\/-/\/-/\/-/\/-/\/-/\/
 72
    65
 73
     2
 40
11.0001
 49
0.0001
 74
     4
 75
   136
340
20F0
 46
0.04
 50
0.0
 44
0.0
 45
0.0
 49
-11.0
 74
     0
  0
LTYPE
  5
2100
330
5
100
AcDbSymbolTableRecord
100
AcDbLinetypeTableRecord
  2
ACISOWELD
 70
     0
  3
_ _ _ _ _
 72
    65
 73
     2
 40
2.0
 49
2.0
 74
     0
 49
-1.0
 74
     0
  0
LTYPE
  5
2101
330
5
100
AcDbSymbolTableRecord
100
AcDbLinetypeTableRecord
  2
ACISOTGB
 70
     0
  3
__ . . __ . .
 72
    65
 73
     6
 40
9.0
 49
4.0
 74
     0
 49
-1.0
 74
     0
 49
1.0
 74
     0
 49
-1.0
 74
     0
 49
1.0
 74
     0
 49
-1.0
 74
     0
  0
LTYPE
  5
2102
330
5
100
AcDbSymbolTableRecord
100
AcDbLinetypeTableRecord
  2
ACISOTGL
 70
     0
  3
_ _ _ _ _
 72
    65
 73
     2
 40
3.0
 49
2.0
 74
     0
 49
-1.0
 74
     0
  0
LTYPE
  5
214D
330
5
100
AcDbSymbolTableRecord
100
AcDbLinetypeTableRecord
  2
GEN7
 70
     0
  3
____ . ____ . ____ . ____ . ____ . ____ . ____
 72
    65
 73
     4
 40
13.75
 49
10.0
 74
     0
 49
-1.25
 74
     0
 49
1.25
 74
     0
 49
-1.25
 74
     0
  0
ENDTAB
  0
TABLE
  2
LAYER
  5
2
102
{ACAD_XDICTIONARY
360
2155
102
}
330
0
100
AcDbSymbolTable
 70
    18
  0
LAYER
  5
54
330
2
100
AcDbSymbolTableRecord
100
AcDbLayerTableRecord
  2
0
 70
     0
 62
     7
  6
Continuous
370
    -3
390
F
  0
LAYER
  5
78
330
2
100
AcDbSymbolTableRecord
100
AcDbLayerTableRecord
  2
Geometrie náčrtu (ISO)
 70
     0
 62
     7
  6
Continuous
370
     9
390
F
  0
LAYER
  5
79
330
2
100
AcDbSymbolTableRecord
100
AcDbLayerTableRecord
  2
KOPF
 70
     0
 62
     8
420
  8421504
  6
Continuous
370
     9
390
F
  0
LAYER
  5
7A
330
2
100
AcDbSymbolTableRecord
100
AcDbLayerTableRecord
  2
Kóta (ISO)
 70
     0
 62
     5
420
      255
  6
Continuous
370
     9
390
F
  0
LAYER
  5
7B
330
2
100
AcDbSymbolTableRecord
100
AcDbLayerTableRecord
  2
Nadpis (ISO)
 70
     0
 62
     7
  6
Continuous
370
    18
390
F
  0
LAYER
  5
7D
330
2
100
AcDbSymbolTableRecord
100
AcDbLayerTableRecord
  2
Osa (ISO)
 70
     0
 62
     1
420
 16711680
  6
Continuous
370
     9
390
F
  0
LAYER
  5
85
330
2
100
AcDbSymbolTableRecord
100
AcDbLayerTableRecord
  2
Rámeček (ISO)
 70
     0
 62
     7
  6
Continuous
370
    35
390
F
  0
LAYER
  5
88
330
2
100
AcDbSymbolTableRecord
100
AcDbLayerTableRecord
  2
Skrytá (ISO)
 70
     0
 62
   142
420
    32960
  6
Continuous
370
     9
390
F
  0
LAYER
  5
89
330
2
100
AcDbSymbolTableRecord
100
AcDbLayerTableRecord
  2
Středová značka (ISO)
 70
     0
 62
     1
420
 16711680
  6
Continuous
370
     9
390
F
  0
LAYER
  5
8B
330
2
100
AcDbSymbolTableRecord
100
AcDbLayerTableRecord
  2
TEXT35
 70
     0
 62
    12
420
 13369344
  6
Continuous
370
    20
390
F
  0
LAYER
  5
8C
330
2
100
AcDbSymbolTableRecord
100
AcDbLayerTableRecord
  2
TEXT50
 70
     0
 62
     7
  6
Continuous
370
    20
390
F
  0
LAYER
  5
8D
330
2
100
AcDbSymbolTableRecord
100
AcDbLayerTableRecord
  2
Viditelná (ISO)
 70
     0
 62
     7
  6
Continuous
370
    35
390
F
  0
LAYER
  5
8E
330
2
100
AcDbSymbolTableRecord
100
AcDbLayerTableRecord
  2
Viditelná tenká (ISO)
 70
     0
 62
     7
  6
Continuous
370
     9
390
F
  0
LAYER
  5
8F
330
2
100
AcDbSymbolTableRecord
100
AcDbLayerTableRecord
  2
Značka (ISO)
 70
     0
 62
     5
420
      255
  6
Continuous
370
     9
390
F
  0
LAYER
  5
19AB
330
2
100
AcDbSymbolTableRecord
100
AcDbLayerTableRecord
  2
Defpoints
 70
     0
 62
     7
  6
Continuous
290
     0
370
    -3
390
F
  0
LAYER
  5
214E
102
{ACAD_XDICTIONARY
360
214F
102
}
330
2
100
AcDbSymbolTableRecord
100
AcDbLayerTableRecord
  2
7
 70
     0
 62
     4
  6
GEN7
370
    -3
390
F
  0
LAYER
  5
2150
102
{ACAD_XDICTIONARY
360
2151
102
}
330
2
100
AcDbSymbolTableRecord
100
AcDbLayerTableRecord
  2
5
 70
     0
 62
     3
  6
Continuous
370
    -3
390
F
  0
LAYER
  5
2318
330
2
100
AcDbSymbolTableRecord
100
AcDbLayerTableRecord
  2
AM_5
 70
     0
 62
    92
  6
Continuous
370
    25
390
F
1001
AcAecLayerStandard
1000

1000

  0
ENDTAB
  0
TABLE
  2
STYLE
  5
3
330
0
100
AcDbSymbolTable
 70
    21
  0
STYLE
  5
55
330
3
100
AcDbSymbolTableRecord
100
AcDbTextStyleTableRecord
  2
Standard
 70
     0
 40
0.0
 41
1.0
 50
0.0
 71
     0
 42
0.2
  3
TAHOMA.TTF
  4

1001
ACAD
1000
Tahoma
1071
      256
  0
STYLE
  5
5A
330
3
100
AcDbSymbolTableRecord
100
AcDbTextStyleTableRecord
  2
Annotative
 70
     0
 40
0.0
 41
1.0
 50
0.0
 71
     0
 42
0.2
  3
txt
  4

1001
AcadAnnotative
1000
AnnotativeData
1002
{
1070
     1
1070
     1
1002
}
  0
STYLE
  5
90
330
3
100
AcDbSymbolTableRecord
100
AcDbTextStyleTableRecord
  2
ITALICC8_57
 70
     0
 40
0.0
 41
1.0
 50
0.0
 71
     0
 42
0.2
  3
TAHOMA.TTF
  4

1001
ACAD
1000
Tahoma
1071
      256
  0
STYLE
  5
91
330
3
100
AcDbSymbolTableRecord
100
AcDbTextStyleTableRecord
  2
kusovnik
 70
     0
 40
0.0
 41
1.0
 50
0.0
 71
     0
 42
0.2
  3
ARIAL.TTF
  4

1001
ACAD
1000
Arial
1071
      256
  0
STYLE
  5
92
330
3
100
AcDbSymbolTableRecord
100
AcDbTextStyleTableRecord
  2
ROMANS8_69
 70
     0
 40
0.0
 41
1.0
 50
0.0
 71
     0
 42
0.2
  3
TAHOMA.TTF
  4

1001
ACAD
1000
Tahoma
1071
      256
  0
STYLE
  5
93
330
3
100
AcDbSymbolTableRecord
100
AcDbTextStyleTableRecord
  2
Text popisu (ISO)
 70
     0
 40
0.0
 41
1.0
 50
0.0
 71
     0
 42
0.2
  3
TAHOMA.TTF
  4

1001
ACAD
1000
Tahoma
1071
      256
  0
STYLE
  5
94
330
3
100
AcDbSymbolTableRecord
100
AcDbTextStyleTableRecord
  2
Text poznámky (DIN)
 70
     0
 40
0.0
 41
1.0
 50
0.0
 71
     0
 42
0.2
  3
isocpeur.ttf
  4

1001
ACAD
1000
ISOCPEUR
1071
      256
  0
STYLE
  5
95
330
3
100
AcDbSymbolTableRecord
100
AcDbTextStyleTableRecord
  2
Text poznámky (ISO)
 70
     0
 40
0.0
 41
1.0
 50
0.0
 71
     0
 42
0.2
  3
TAHOMA.TTF
  4

1001
ACAD
1000
Tahoma
1071
      256
  0
STYLE
  5
96
330
3
100
AcDbSymbolTableRecord
100
AcDbTextStyleTableRecord
  2
TEXT20_41
 70
     0
 40
0.0
 41
1.0
 50
0.0
 71
     0
 42
0.2
  3
TAHOMA.TTF
  4

1001
ACAD
1000
Tahoma
1071
      256
  0
STYLE
  5
97
330
3
100
AcDbSymbolTableRecord
100
AcDbTextStyleTableRecord
  2
TEXT20_59
 70
     0
 40
0.0
 41
1.0
 50
0.0
 71
     0
 42
0.2
  3
TAHOMA.TTF
  4

1001
ACAD
1000
Tahoma
1071
      256
  0
STYLE
  5
1C2
330
3
100
AcDbSymbolTableRecord
100
AcDbTextStyleTableRecord
  2
Styl textu62
 70
     0
 40
0.0
 41
0.8000000119209289
 50
0.0
 71
     0
 42
0.2
  3
TAHOMA.TTF
  4

1001
ACAD
1000
Tahoma
1071
      256
  0
STYLE
  5
1C9
330
3
100
AcDbSymbolTableRecord
100
AcDbTextStyleTableRecord
  2
Styl textu58
 70
     0
 40
0.0
 41
0.8000000119209289
 50
0.0
 71
     0
 42
0.2
  3
TAHOMA.TTF
  4

1001
ACAD
1000
Tahoma
1071
      256
  0
STYLE
  5
1CB
330
3
100
AcDbSymbolTableRecord
100
AcDbTextStyleTableRecord
  2
Styl textu63
 70
     0
 40
0.0
 41
0.75
 50
0.0
 71
     0
 42
0.2
  3
TAHOMA.TTF
  4

1001
ACAD
1000
Tahoma
1071
      256
  0
STYLE
  5
1CE
330
3
100
AcDbSymbolTableRecord
100
AcDbTextStyleTableRecord
  2
Styl textu72
 70
     0
 40
0.0
 41
0.6999999880790711
 50
0.0
 71
     0
 42
0.2
  3
TAHOMA.TTF
  4

1001
ACAD
1000
Tahoma
1071
      256
  0
STYLE
  5
1D1
330
3
100
AcDbSymbolTableRecord
100
AcDbTextStyleTableRecord
  2
Styl textu75
 70
     0
 40
0.0
 41
0.8000000119209289
 50
0.0
 71
     0
 42
0.2
  3
TAHOMA.TTF
  4

1001
ACAD
1000
Tahoma
1071
      256
  0
STYLE
  5
1E8
330
3
100
AcDbSymbolTableRecord
100
AcDbTextStyleTableRecord
  2
Styl textu9
 70
     0
 40
0.0
 41
1.0
 50
0.0
 71
     0
 42
0.2
  3
ARIAL.TTF
  4

1001
ACAD
1000
Arial
1071
      256
  0
STYLE
  5
1EC
330
3
100
AcDbSymbolTableRecord
100
AcDbTextStyleTableRecord
  2
Styl textu40
 70
     0
 40
0.0
 41
1.0
 50
0.0
 71
     0
 42
0.2
  3
ARIAL.TTF
  4

1001
ACAD
1000
Arial
1071
      256
  0
STYLE
  5
1F1
330
3
100
AcDbSymbolTableRecord
100
AcDbTextStyleTableRecord
  2
Styl textu94
 70
     0
 40
0.0
 41
1.0
 50
0.0
 71
     0
 42
0.2
  3
TAHOMA.TTF
  4

1001
ACAD
1000
Tahoma
1071
      256
  0
STYLE
  5
20F0
330
3
100
AcDbSymbolTableRecord
100
AcDbTextStyleTableRecord
  2

 70
     1
 40
0.0
 41
1.0
 50
0.0
 71
     0
 42
0.2
  3
genltshp.shx
  4

  0
STYLE
  5
20FE
330
3
100
AcDbSymbolTableRecord
100
AcDbTextStyleTableRecord
  2
ACISOTS
 70
     0
 40
1.0
 41
1.0
 50
0.0
 71
     0
 42
0.2
  3
isocp.shx
  4

  0
STYLE
  5
20FF
330
3
100
AcDbSymbolTableRecord
100
AcDbTextStyleTableRecord
  2
ACISOGDT
 70
     0
 40
0.0
 41
1.0
 50
0.0
 71
     0
 42
0.2
  3
amgdt.shx
  4

  0
ENDTAB
  0
TABLE
  2
VIEW
  5
6
330
0
100
AcDbSymbolTable
 70
     0
  0
ENDTAB
  0
TABLE
  2
UCS
  5
7
330
0
100
AcDbSymbolTable
 70
     0
  0
ENDTAB
  0
TABLE
  2
APPID
  5
9
330
0
100
AcDbSymbolTable
 70
    21
  0
APPID
  5
56
330
9
100
AcDbSymbolTableRecord
100
AcDbRegAppTableRecord
  2
ACAD
 70
     0
  0
APPID
  5
5E
330
9
100
AcDbSymbolTableRecord
100
AcDbRegAppTableRecord
  2
AcadAnnotative
 70
     0
  0
APPID
  5
1EB
330
9
100
AcDbSymbolTableRecord
100
AcDbRegAppTableRecord
  2
AcadAnnoPO
 70
     0
  0
APPID
  5
2074
330
9
100
AcDbSymbolTableRecord
100
AcDbRegAppTableRecord
  2
MCAD_NO_VIS
 70
     0
  0
APPID
  5
2075
330
9
100
AcDbSymbolTableRecord
100
AcDbRegAppTableRecord
  2
ACAD_TEMP_GRAPHIC
 70
     0
  0
APPID
  5
20A5
330
9
100
AcDbSymbolTableRecord
100
AcDbRegAppTableRecord
  2
AD_DRAW
 70
     0
  0
APPID
  5
20A8
330
9
100
AcDbSymbolTableRecord
100
AcDbRegAppTableRecord
  2
ACATTRIBSERVICES
 70
     0
  0
APPID
  5
20C8
330
9
100
AcDbSymbolTableRecord
100
AcDbRegAppTableRecord
  2
DESIGNERASSEMBLIES
 70
     0
  0
APPID
  5
20CE
330
9
100
AcDbSymbolTableRecord
100
AcDbRegAppTableRecord
  2
ACADM_DIM_EDIT
 70
     0
  0
APPID
  5
20CF
330
9
100
AcDbSymbolTableRecord
100
AcDbRegAppTableRecord
  2
AMDT_DM_ADJ
 70
     0
  0
APPID
  5
20E6
330
9
100
AcDbSymbolTableRecord
100
AcDbRegAppTableRecord
  2
ACAD_DSTYLE_DIMJAG
 70
     0
  0
APPID
  5
20E7
330
9
100
AcDbSymbolTableRecord
100
AcDbRegAppTableRecord
  2
ACAD_DSTYLE_DIMBREAK
 70
     0
  0
APPID
  5
2153
330
9
100
AcDbSymbolTableRecord
100
AcDbRegAppTableRecord
  2
ACAD_DSTYLE_DIMINSPECT
 70
     0
  0
APPID
  5
2154
330
9
100
AcDbSymbolTableRecord
100
AcDbRegAppTableRecord
  2
ACAD_DSTYLE_DIMTALN
 70
     0
  0
APPID
  5
228D
330
9
100
AcDbSymbolTableRecord
100
AcDbRegAppTableRecord
  2
ACAD_EXEMPT_FROM_CAD_STANDARDS
 70
     0
  0
APPID
  5
2319
330
9
100
AcDbSymbolTableRecord
100
AcDbRegAppTableRecord
  2
AcAecLayerStandard
 70
     0
  0
APPID
  5
2496
330
9
100
AcDbSymbolTableRecord
100
AcDbRegAppTableRecord
  2
ACAD_MLEADERVER
 70
     0
  0
APPID
  5
24BD
330
9
100
AcDbSymbolTableRecord
100
AcDbRegAppTableRecord
  2
ACAD_DSTYLE_DIMARC_LENGTH_SYMBOL
 70
     0
  0
APPID
  5
24BE
330
9
100
AcDbSymbolTableRecord
100
AcDbRegAppTableRecord
  2
ACAD_DSTYLE_DIM_LINETYPE
 70
     0
  0
APPID
  5
24BF
330
9
100
AcDbSymbolTableRecord
100
AcDbRegAppTableRecord
  2
ACAD_DSTYLE_DIM_EXT1_LINETYPE
 70
     0
  0
APPID
  5
24C0
330
9
100
AcDbSymbolTableRecord
100
AcDbRegAppTableRecord
  2
ACAD_DSTYLE_DIM_EXT2_LINETYPE
 70
     0
  0
ENDTAB
  0
TABLE
  2
DIMSTYLE
  5
A
330
0
100
AcDbSymbolTable
 70
    25
100
AcDbDimStyleTable
 71
     3
340
2152
340
58
340
B1
  0
DIMSTYLE
105
58
330
A
100
AcDbSymbolTableRecord
100
AcDbDimStyleTableRecord
  2
Standard
 70
     0
340
55
  0
DIMSTYLE
105
59
330
A
100
AcDbSymbolTableRecord
100
AcDbDimStyleTableRecord
  2
Annotative
 70
     0
340
55
1001
AcadAnnotative
1000
AnnotativeData
1002
{
1070
     1
1070
     1
1002
}
  0
DIMSTYLE
105
A7
330
A
100
AcDbSymbolTableRecord
100
AcDbDimStyleTableRecord
  2
Různé objekty (ISO)
 70
     0
 40
1.5
 41
2.5
 42
0.0
 43
5.999999999999999
 44
1.0
 45
0.00000001
 46
10.0
 73
     0
 74
     0
 77
     1
 78
     8
 79
     2
140
5.25
143
0.03937
146
0.6676571709769112
147
0.762
171
     3
172
     1
176
   256
177
   256
178
   256
179
     2
271
     2
272
     2
274
     3
278
    44
284
     8
340
93
341
98
371
    -1
372
    -1
  0
DIMSTYLE
105
A8
330
A
100
AcDbSymbolTableRecord
100
AcDbDimStyleTableRecord
  2
Různé objekty (ISO)$7
 70
     0
 40
1.5
 41
5.0
 42
0.0
 43
5.999999999999999
 44
1.0
 45
0.00000001
 46
10.0
 73
     0
 74
     0
 77
     1
 78
     8
 79
     2
140
5.25
143
0.03937
146
0.6676571709769112
147
0.762
171
     3
172
     1
176
   256
177
   256
178
   256
179
     2
271
     2
272
     2
274
     3
278
    44
284
     8
340
93
341
98
371
    25
372
    -1
  0
DIMSTYLE
105
A9
330
A
100
AcDbSymbolTableRecord
100
AcDbDimStyleTableRecord
  2
Výchozí - Metoda 1b (ISO)
 70
     0
 40
1.5
 41
2.5
 42
0.0
 43
5.999999999999999
 44
1.0
 45
0.00000001
 46
10.0
 73
     0
 77
     1
 78
     8
 79
     2
140
3.5
143
0.03937
147
0.762
171
     3
172
     1
176
   256
177
   256
178
   256
179
     2
271
     2
272
     2
274
     3
278
    44
284
     8
286
     8
340
95
371
    -1
372
    -1
  0
DIMSTYLE
105
AA
330
A
100
AcDbSymbolTableRecord
100
AcDbDimStyleTableRecord
  2
Výchozí - Metoda 1b (ISO)$7
 70
     0
 40
1.5
 41
2.5
 42
0.0
 43
5.999999999999999
 44
1.0
 45
0.00000001
 46
10.0
 73
     0
 77
     1
 78
     8
 79
     2
140
3.5
143
0.03937
147
0.762
171
     3
172
     1
176
   256
177
   256
178
   256
179
     2
271
     2
272
     2
274
     3
278
    44
284
     8
286
     8
340
95
371
    -1
372
    -1
  0
DIMSTYLE
105
AB
330
A
100
AcDbSymbolTableRecord
100
AcDbDimStyleTableRecord
  2
Výchozí - Metoda 2a (ISO)
 70
     0
 40
1.5
 41
2.5
 42
0.0
 43
5.999999999999999
 44
1.0
 45
0.00000001
 46
10.0
 77
     1
 78
     8
 79
     2
140
3.5
143
0.03937
147
0.762
171
     3
172
     1
176
   256
177
   256
178
   256
179
     2
271
     2
272
     2
274
     3
278
    44
284
     8
286
     8
340
95
371
    -1
372
    -1
  0
DIMSTYLE
105
AC
330
A
100
AcDbSymbolTableRecord
100
AcDbDimStyleTableRecord
  2
Výchozí - Metoda 2a (ISO)$7
 70
     0
 40
1.5
 41
2.5
 42
0.0
 43
5.999999999999999
 44
1.0
 45
0.00000001
 46
10.0
 77
     1
 78
     8
 79
     2
140
3.5
143
0.03937
147
0.762
171
     3
172
     1
176
   256
177
   256
178
   256
179
     2
271
     2
272
     2
274
     3
278
    44
284
     8
286
     8
340
95
371
    -1
372
    -1
  0
DIMSTYLE
105
AD
330
A
100
AcDbSymbolTableRecord
100
AcDbDimStyleTableRecord
  2
Výchozí - Metoda 2b (ISO)
 70
     0
 40
1.5
 41
2.5
 42
0.0
 43
5.999999999999999
 44
1.0
 45
0.00000001
 46
10.0
 77
     1
 78
     8
 79
     2
140
3.5
143
0.03937
147
0.762
171
     3
172
     1
176
   256
177
   256
178
   256
179
     2
271
     2
272
     2
274
     3
278
    44
284
     8
286
     8
340
95
371
    -1
372
    -1
  0
DIMSTYLE
105
AE
330
A
100
AcDbSymbolTableRecord
100
AcDbDimStyleTableRecord
  2
Výchozí - Metoda 2b (ISO)$7
 70
     0
 40
1.5
 41
2.5
 42
0.0
 43
5.999999999999999
 44
1.0
 45
0.00000001
 46
10.0
 77
     1
 78
     8
 79
     2
140
3.5
143
0.03937
147
0.762
171
     3
172
     1
176
   256
177
   256
178
   256
179
     2
271
     2
272
     2
274
     3
278
    44
284
     8
286
     8
340
95
371
    -1
372
    -1
  0
DIMSTYLE
105
AF
330
A
100
AcDbSymbolTableRecord
100
AcDbDimStyleTableRecord
  2
Výchozí - mm [palce] (ISO)
 70
     0
  4
 in
 40
1.5
 41
2.5
 42
0.0
 43
5.999999999999999
 44
3.174999999999998
 45
0.00000001
 46
10.0
 73
     0
 74
     0
 77
     1
 78
     8
 79
     2
140
3.5
143
0.03937
147
0.762
170
     1
171
     3
172
     1
176
   256
177
   256
178
   256
179
     3
271
     3
272
     2
274
     3
275
     1
278
    44
284
     8
285
     8
286
     8
340
95
371
    -1
372
    -1
  0
DIMSTYLE
105
B0
330
A
100
AcDbSymbolTableRecord
100
AcDbDimStyleTableRecord
  2
Výchozí - mm [palce] (ISO)$7
 70
     0
  4
 in
 40
1.5
 41
2.5
 42
0.0
 43
5.999999999999999
 44
3.174999999999998
 45
0.00000001
 46
10.0
 73
     0
 74
     0
 77
     1
 78
     8
 79
     2
140
3.5
143
0.03937
147
0.762
170
     1
171
     3
172
     1
176
   256
177
   256
178
   256
179
     3
271
     3
272
     2
274
     3
275
     1
278
    44
284
     8
285
     8
286
     8
340
95
371
    -1
372
    -1
  0
DIMSTYLE
105
B1
330
A
100
AcDbSymbolTableRecord
100
AcDbDimStyleTableRecord
  2
Výchozí (ISO)
 70
     0
 40
1.5
 41
2.5
 42
0.0
 43
5.999999999999999
 44
1.0
 45
0.00000001
 46
10.0
 73
     0
 74
     0
 77
     1
 78
     8
 79
     2
140
3.5
143
0.03937
146
1.001485756465366
147
0.762
171
     3
172
     1
176
   256
177
   256
178
   256
179
     2
271
     2
272
     2
274
     3
278
    44
284
     8
340
95
371
    -1
372
    -1
  0
DIMSTYLE
105
B2
330
A
100
AcDbSymbolTableRecord
100
AcDbDimStyleTableRecord
  2
Výchozí (ISO)$7
 70
     0
 40
1.5
 41
2.5
 42
0.0
 43
5.999999999999999
 44
1.0
 45
0.00000001
 46
10.0
 73
     0
 74
     0
 77
     1
 78
     8
 79
     2
140
3.5
143
0.03937
146
1.001485756465366
147
0.762
171
     3
172
     1
176
   256
177
   256
178
   256
179
     2
271
     2
272
     2
274
     3
278
    44
284
     8
340
95
371
    -1
372
    -1
  0
DIMSTYLE
105
B3
330
A
100
AcDbSymbolTableRecord
100
AcDbDimStyleTableRecord
  2
Alternativní (ISO)
 70
     0
 40
1.5
 41
2.5
340
55
342
B4
  0
DIMSTYLE
105
C5
330
A
100
AcDbSymbolTableRecord
100
AcDbDimStyleTableRecord
  2
Základny (ISO)
 70
     0
 40
1.5
 41
2.5
340
55
342
B4
  0
DIMSTYLE
105
20E5
102
{ACAD_REACTORS
330
2619
102
}
330
A
100
AcDbSymbolTableRecord
100
AcDbDimStyleTableRecord
  2
AM_ISO
 70
     0
  4
"
 41
3.5
 42
1.0
 43
10.0
 44
1.0
 47
0.1
 48
0.1
 73
     0
 74
     0
 77
     1
 78
     8
 79
     2
140
3.5
141
0.0
143
0.0393701
146
0.71
147
1.5
172
     1
176
   256
177
   256
178
   140
271
     2
272
     3
274
     4
283
     0
284
     8
340
55
371
    -1
372
    -1
1001
ACAD_DSTYLE_DIMJAG
1070
   388
1040
1.5
1001
ACAD_DSTYLE_DIMBREAK
1070
   391
1040
3.75
1001
ACAD_DSTYLE_DIMARC_LENGTH_SYMBOL
1070
   379
1070
     1
1001
ACAD_DSTYLE_DIM_LINETYPE
1070
   380
1005
5B
1001
ACAD_DSTYLE_DIM_EXT1_LINETYPE
1070
   381
1005
5B
1001
ACAD_DSTYLE_DIM_EXT2_LINETYPE
1070
   382
1005
5B
  0
DIMSTYLE
105
20F2
330
A
100
AcDbSymbolTableRecord
100
AcDbDimStyleTableRecord
  2
AM_ISO$3
 70
     0
  4
"
 41
3.5
 42
1.0
 43
10.0
 44
1.0
 47
0.1
 48
0.1
 73
     0
 77
     1
 78
     8
 79
     2
140
3.5
141
0.0
143
0.0393701
146
0.71
147
1.5
176
   256
177
   256
178
   140
271
     2
272
     3
274
     4
283
     0
284
     8
288
     1
289
     0
340
55
371
    -1
372
    -1
1001
ACAD_DSTYLE_DIMBREAK
1070
   391
1040
3.75
1001
ACAD_DSTYLE_DIMJAG
1070
   388
1040
1.5
1001
ACAD_DSTYLE_DIMARC_LENGTH_SYMBOL
1070
   379
1070
     1
1001
ACAD_DSTYLE_DIM_LINETYPE
1070
   380
1005
5B
1001
ACAD_DSTYLE_DIM_EXT1_LINETYPE
1070
   381
1005
5B
1001
ACAD_DSTYLE_DIM_EXT2_LINETYPE
1070
   382
1005
5B
  0
DIMSTYLE
105
20F3
330
A
100
AcDbSymbolTableRecord
100
AcDbDimStyleTableRecord
  2
AM_ISO$4
 70
     0
  4
"
 41
3.5
 42
1.0
 43
10.0
 44
1.0
 47
0.1
 48
0.1
 73
     0
 77
     1
 78
     8
 79
     2
140
3.5
141
0.0
143
0.0393701
146
0.71
147
1.5
176
   256
177
   256
178
   140
271
     2
272
     3
274
     4
283
     0
284
     8
288
     1
289
     0
340
55
371
    -1
372
    -1
1001
ACAD_DSTYLE_DIMBREAK
1070
   391
1040
3.75
1001
ACAD_DSTYLE_DIMJAG
1070
   388
1040
1.5
1001
ACAD_DSTYLE_DIMARC_LENGTH_SYMBOL
1070
   379
1070
     1
1001
ACAD_DSTYLE_DIM_LINETYPE
1070
   380
1005
5B
1001
ACAD_DSTYLE_DIM_EXT1_LINETYPE
1070
   381
1005
5B
1001
ACAD_DSTYLE_DIM_EXT2_LINETYPE
1070
   382
1005
5B
  0
DIMSTYLE
105
20F4
330
A
100
AcDbSymbolTableRecord
100
AcDbDimStyleTableRecord
  2
AM_ISO$6
 70
     0
  4
"
 41
3.5
 42
1.0
 43
10.0
 44
1.0
 47
0.1
 48
0.1
 73
     0
 74
     0
 78
     8
 79
     2
140
3.5
141
0.0
143
0.0393701
146
0.71
147
1.5
172
     1
176
   256
177
   256
178
   140
271
     2
272
     3
274
     4
283
     0
284
     8
340
55
371
    -1
372
    -1
1001
ACAD_DSTYLE_DIMBREAK
1070
   391
1040
3.75
1001
ACAD_DSTYLE_DIMJAG
1070
   388
1040
1.5
1001
ACAD_DSTYLE_DIMARC_LENGTH_SYMBOL
1070
   379
1070
     1
1001
ACAD_DSTYLE_DIM_LINETYPE
1070
   380
1005
5B
1001
ACAD_DSTYLE_DIM_EXT1_LINETYPE
1070
   381
1005
5B
1001
ACAD_DSTYLE_DIM_EXT2_LINETYPE
1070
   382
1005
5B
  0
DIMSTYLE
105
20F5
330
A
100
AcDbSymbolTableRecord
100
AcDbDimStyleTableRecord
  2
AM_ISO$7
 70
     0
  4
"
 41
3.5
 42
1.0
 43
10.0
 44
1.0
 47
0.1
 48
0.1
 73
     0
 74
     0
 77
     1
 78
     8
 79
     2
140
3.5
141
0.0
143
0.0393701
146
0.71
147
1.5
172
     1
176
   256
177
   256
178
   140
271
     2
272
     3
274
     4
283
     0
284
     8
340
55
371
    -1
372
    -1
1001
ACAD_DSTYLE_DIMBREAK
1070
   391
1040
3.75
1001
ACAD_DSTYLE_DIMJAG
1070
   388
1040
1.5
1001
ACAD_DSTYLE_DIMARC_LENGTH_SYMBOL
1070
   379
1070
     1
1001
ACAD_DSTYLE_DIM_LINETYPE
1070
   380
1005
5B
1001
ACAD_DSTYLE_DIM_EXT1_LINETYPE
1070
   381
1005
5B
1001
ACAD_DSTYLE_DIM_EXT2_LINETYPE
1070
   382
1005
5B
  0
DIMSTYLE
105
20F6
330
A
100
AcDbSymbolTableRecord
100
AcDbDimStyleTableRecord
  2
AM_ISO$SF
 70
     0
  4
"
 41
3.5
 42
1.0
 43
10.0
 44
1.0
 47
0.1
 48
0.1
 73
     0
 74
     0
 75
     1
 76
     1
 77
     1
 78
     8
 79
     2
140
3.5
141
0.0
143
0.0393701
146
0.71
147
1.5
172
     1
176
   256
177
   256
178
   140
271
     2
272
     3
274
     4
283
     0
284
     8
340
55
371
    -1
372
    -1
1001
ACAD_DSTYLE_DIMBREAK
1070
   391
1040
3.75
1001
ACAD_DSTYLE_DIMJAG
1070
   388
1040
1.5
1001
ACAD_DSTYLE_DIMARC_LENGTH_SYMBOL
1070
   379
1070
     1
1001
ACAD_DSTYLE_DIM_LINETYPE
1070
   380
1005
5B
1001
ACAD_DSTYLE_DIM_EXT1_LINETYPE
1070
   381
1005
5B
1001
ACAD_DSTYLE_DIM_EXT2_LINETYPE
1070
   382
1005
5B
  0
DIMSTYLE
105
20FB
330
A
100
AcDbSymbolTableRecord
100
AcDbDimStyleTableRecord
  2
AM_ISO$SH
 70
     0
  4
"
 41
3.5
 42
1.0
 43
10.0
 44
1.0
 47
0.1
 48
0.1
 73
     0
 74
     0
 75
     1
 76
     1
 77
     1
 78
     8
 79
     2
140
3.5
141
0.0
143
0.0393701
144
2.0
146
0.71
147
1.5
172
     1
173
     1
176
   256
177
   256
178
   140
271
     2
272
     3
274
     4
283
     0
284
     8
340
55
343
20F7
371
    -1
372
    -1
1001
ACAD_DSTYLE_DIMBREAK
1070
   391
1040
3.75
1001
ACAD_DSTYLE_DIMJAG
1070
   388
1040
1.5
1001
ACAD_DSTYLE_DIMARC_LENGTH_SYMBOL
1070
   379
1070
     1
1001
ACAD_DSTYLE_DIM_LINETYPE
1070
   380
1005
5B
1001
ACAD_DSTYLE_DIM_EXT1_LINETYPE
1070
   381
1005
5B
1001
ACAD_DSTYLE_DIM_EXT2_LINETYPE
1070
   382
1005
5B
  0
DIMSTYLE
105
2152
102
{ACAD_REACTORS
330
23AE
330
238C
330
236A
330
231C
330
2348
102
}
330
A
100
AcDbSymbolTableRecord
100
AcDbDimStyleTableRecord
  2
GEN-ISO
 70
     0
  3
<>
  4
"
 40
2.0
 41
2.5
 42
1.0
 43
7.0
 44
1.0
 47
0.1
 48
0.1
 73
     0
 74
     0
 77
     1
 78
     8
140
7.0
141
0.0
143
0.0393701
146
0.71
147
0.6
172
     1
176
   256
177
   256
178
     7
271
     2
272
     2
283
     0
340
55
1001
ACAD_DSTYLE_DIMJAG
1070
   388
1040
1.5
1001
ACAD_DSTYLE_DIMTALN
1070
   392
1070
     0
  0
DIMSTYLE
105
231A
330
A
100
AcDbSymbolTableRecord
100
AcDbDimStyleTableRecord
  2
Standard$0
 70
     0
340
55
1001
ACAD_DSTYLE_DIMBREAK
1070
   391
1040
3.75
1001
ACAD_DSTYLE_DIMJAG
1070
   388
1040
1.5
  0
ENDTAB
  0
TABLE
  2
BLOCK_RECORD
  5
1
330
0
100
AcDbSymbolTable
 70
    46
  0
BLOCK_RECORD
  5
6C
330
1
100
AcDbSymbolTableRecord
100
AcDbBlockTableRecord
  2
*Model_Space
340
6F
  0
BLOCK_RECORD
  5
68
330
1
100
AcDbSymbolTableRecord
100
AcDbBlockTableRecord
  2
*Paper_Space
340
6B
  0
BLOCK_RECORD
  5
70
330
1
100
AcDbSymbolTableRecord
100
AcDbBlockTableRecord
  2
*Paper_Space0
340
73
  0
BLOCK_RECORD
  5
98
330
1
100
AcDbSymbolTableRecord
100
AcDbBlockTableRecord
  2
Filled-1
340
0
  0
BLOCK_RECORD
  5
B4
330
1
100
AcDbSymbolTableRecord
100
AcDbBlockTableRecord
  2
_Closed
340
0
  0
BLOCK_RECORD
  5
BB
330
1
100
AcDbSymbolTableRecord
100
AcDbBlockTableRecord
  2
DatumFilled45
340
0
  0
BLOCK_RECORD
  5
C6
330
1
100
AcDbSymbolTableRecord
100
AcDbBlockTableRecord
  2
WIG-svarovani
340
0
  0
BLOCK_RECORD
  5
CB
330
1
100
AcDbSymbolTableRecord
100
AcDbBlockTableRecord
  2
Popis kotvy_srouby
340
0
  0
BLOCK_RECORD
  5
CF
330
1
100
AcDbSymbolTableRecord
100
AcDbBlockTableRecord
  2
Mater. provedeni Art.
340
0
  0
BLOCK_RECORD
  5
F1
330
1
100
AcDbSymbolTableRecord
100
AcDbBlockTableRecord
  2
Art. s popisy
340
0
  0
BLOCK_RECORD
  5
113
330
1
100
AcDbSymbolTableRecord
100
AcDbBlockTableRecord
  2
Tryskat
340
0
  0
BLOCK_RECORD
  5
117
330
1
100
AcDbSymbolTableRecord
100
AcDbBlockTableRecord
  2
Morit
340
0
  0
BLOCK_RECORD
  5
11B
330
1
100
AcDbSymbolTableRecord
100
AcDbBlockTableRecord
  2
zinkovat
340
0
  0
BLOCK_RECORD
  5
11F
330
1
100
AcDbSymbolTableRecord
100
AcDbBlockTableRecord
  2
Nater
340
0
  0
BLOCK_RECORD
  5
123
330
1
100
AcDbSymbolTableRecord
100
AcDbBlockTableRecord
  2
Brus
340
0
  0
BLOCK_RECORD
  5
127
330
1
100
AcDbSymbolTableRecord
100
AcDbBlockTableRecord
  2
Elektroliticky lestit
340
0
  0
BLOCK_RECORD
  5
12C
330
1
100
AcDbSymbolTableRecord
100
AcDbBlockTableRecord
  2
Rámečky Default Border
340
0
  0
BLOCK_RECORD
  5
183
330
1
100
AcDbSymbolTableRecord
100
AcDbBlockTableRecord
  2
Rohová razítka ACO-razitko
340
0
  0
BLOCK_RECORD
  5
195A
330
1
100
AcDbSymbolTableRecord
100
AcDbBlockTableRecord
  2
KUSOVNÍK
340
0
  0
BLOCK_RECORD
  5
19AC
330
1
100
AcDbSymbolTableRecord
100
AcDbBlockTableRecord
  2
*D17
340
0
  0
BLOCK_RECORD
  5
1A8E
330
1
100
AcDbSymbolTableRecord
100
AcDbBlockTableRecord
  2
*D18
340
0
  0
BLOCK_RECORD
  5
1B70
330
1
100
AcDbSymbolTableRecord
100
AcDbBlockTableRecord
  2
*D19
340
0
  0
BLOCK_RECORD
  5
1C52
330
1
100
AcDbSymbolTableRecord
100
AcDbBlockTableRecord
  2
Pozice1
340
0
  0
BLOCK_RECORD
  5
1C64
330
1
100
AcDbSymbolTableRecord
100
AcDbBlockTableRecord
  2
Pozice2
340
0
  0
BLOCK_RECORD
  5
1C77
330
1
100
AcDbSymbolTableRecord
100
AcDbBlockTableRecord
  2
*D22
340
0
  0
BLOCK_RECORD
  5
1D54
330
1
100
AcDbSymbolTableRecord
100
AcDbBlockTableRecord
  2
*D23
340
0
  0
BLOCK_RECORD
  5
1E26
330
1
100
AcDbSymbolTableRecord
100
AcDbBlockTableRecord
  2
Pozice3
340
0
  0
BLOCK_RECORD
  5
1E3B
330
1
100
AcDbSymbolTableRecord
100
AcDbBlockTableRecord
  2
*D25
340
0
  0
BLOCK_RECORD
  5
1F17
330
1
100
AcDbSymbolTableRecord
100
AcDbBlockTableRecord
  2
*D26
340
0
  0
BLOCK_RECORD
  5
1FFC
330
1
100
AcDbSymbolTableRecord
100
AcDbBlockTableRecord
  2
Pozice4
340
0
  0
BLOCK_RECORD
  5
200E
330
1
100
AcDbSymbolTableRecord
100
AcDbBlockTableRecord
  2
Pozice5
340
0
  0
BLOCK_RECORD
  5
20F7
330
1
100
AcDbSymbolTableRecord
100
AcDbBlockTableRecord
  2
GENAXEH
340
0
  0
BLOCK_RECORD
  5
2111
330
1
100
AcDbSymbolTableRecord
100
AcDbBlockTableRecord
  2
*D30
340
0
  0
BLOCK_RECORD
  5
211D
330
1
100
AcDbSymbolTableRecord
100
AcDbBlockTableRecord
  2
*D31
340
0
  0
BLOCK_RECORD
  5
2129
330
1
100
AcDbSymbolTableRecord
100
AcDbBlockTableRecord
  2
*D32
340
0
  0
BLOCK_RECORD
  5
2135
330
1
100
AcDbSymbolTableRecord
100
AcDbBlockTableRecord
  2
*D33
340
0
  0
BLOCK_RECORD
  5
2141
330
1
100
AcDbSymbolTableRecord
100
AcDbBlockTableRecord
  2
*D34
340
0
  0
BLOCK_RECORD
  5
2224
330
1
100
AcDbSymbolTableRecord
100
AcDbBlockTableRecord
  2
*D35
340
0
  0
BLOCK_RECORD
  5
2230
330
1
100
AcDbSymbolTableRecord
100
AcDbBlockTableRecord
  2
*D36
340
0
  0
BLOCK_RECORD
  5
223C
330
1
100
AcDbSymbolTableRecord
100
AcDbBlockTableRecord
  2
*D37
340
0
  0
BLOCK_RECORD
  5
2248
330
1
100
AcDbSymbolTableRecord
100
AcDbBlockTableRecord
  2
*D38
340
0
  0
BLOCK_RECORD
  5
2254
330
1
100
AcDbSymbolTableRecord
100
AcDbBlockTableRecord
  2
*D39
340
0
  0
BLOCK_RECORD
  5
231D
330
1
100
AcDbSymbolTableRecord
100
AcDbBlockTableRecord
  2
*D40
340
0
  0
BLOCK_RECORD
  5
2349
330
1
100
AcDbSymbolTableRecord
100
AcDbBlockTableRecord
  2
*D41
340
0
  0
BLOCK_RECORD
  5
236B
330
1
100
AcDbSymbolTableRecord
100
AcDbBlockTableRecord
  2
*D42
340
0
  0
BLOCK_RECORD
  5
238D
330
1
100
AcDbSymbolTableRecord
100
AcDbBlockTableRecord
  2
*D43
340
0
  0
BLOCK_RECORD
  5
23AF
330
1
100
AcDbSymbolTableRecord
100
AcDbBlockTableRecord
  2
*D44
340
0
  0
ENDTAB
  0
ENDSEC
  0
SECTION
  2
BLOCKS
  0
BLOCK
  5
6D
330
6C
100
AcDbEntity
  8
0
100
AcDbBlockBegin
  2
*Model_Space
 70
     0
 10
0.0
 20
0.0
 30
0.0
  3
*Model_Space
  1

  0
ENDBLK
  5
6E
330
6C
100
AcDbEntity
  8
0
100
AcDbBlockEnd
  0
BLOCK
  5
69
330
68
100
AcDbEntity
 67
     1
  8
0
100
AcDbBlockBegin
  2
*Paper_Space
 70
     0
 10
0.0
 20
0.0
 30
0.0
  3
*Paper_Space
  1

  0
ENDBLK
  5
6A
330
68
100
AcDbEntity
 67
     1
  8
0
100
AcDbBlockEnd
  0
BLOCK
  5
71
330
70
100
AcDbEntity
 67
     1
  8
0
100
AcDbBlockBegin
  2
*Paper_Space0
 70
     0
 10
0.0
 20
0.0
 30
0.0
  3
*Paper_Space0
  1

  0
ENDBLK
  5
72
330
70
100
AcDbEntity
 67
     1
  8
0
100
AcDbBlockEnd
  0
BLOCK
  5
99
330
98
100
AcDbEntity
  8
0
100
AcDbBlockBegin
  2
Filled-1
 70
     0
 10
0.0
 20
0.0
 30
0.0
  3
Filled-1
  1

  0
LINE
  5
9B
330
98
100
AcDbEntity
  8
0
 62
     0
100
AcDbLine
 10
-1.0
 20
0.0
 30
0.0
 11
0.0
 21
0.0
 31
0.0
  0
POLYLINE
  5
9D
330
98
100
AcDbEntity
  8
0
 62
     0
100
AcDb2dPolyline
 66
     1
 10
0.0
 20
0.0
 30
0.0
 70
   128
  0
VERTEX
  5
9E
330
9D
100
AcDbEntity
  8
0
 62
     0
100
AcDbVertex
100
AcDb2dVertex
 10
-1.0
 20
-0.1
 30
0.0
  0
VERTEX
  5
9F
330
9D
100
AcDbEntity
  8
0
 62
     0
100
AcDbVertex
100
AcDb2dVertex
 10
0.0
 20
0.0
 30
0.0
  0
VERTEX
  5
A1
330
9D
100
AcDbEntity
  8
0
 62
     0
100
AcDbVertex
100
AcDb2dVertex
 10
-1.0
 20
0.1
 30
0.0
  0
VERTEX
  5
A2
330
9D
100
AcDbEntity
  8
0
 62
     0
100
AcDbVertex
100
AcDb2dVertex
 10
-1.0
 20
-0.1
 30
0.0
  0
SEQEND
  5
A0
330
9D
100
AcDbEntity
  8
0
 62
     0
  0
SOLID
  5
A3
330
98
100
AcDbEntity
  8
0
 62
     0
100
AcDbTrace
 10
-1.0
 20
-0.1
 30
0.0
 11
0.0
 21
0.0
 31
0.0
 12
-1.0
 22
0.1
 32
0.0
 13
-1.0
 23
-0.1
 33
0.0
  0
LINE
  5
A4
330
98
100
AcDbEntity
  8
0
 62
     0
100
AcDbLine
 10
-1.0
 20
-0.1
 30
0.0
 11
0.0
 21
0.0
 31
0.0
  0
LINE
  5
A5
330
98
100
AcDbEntity
  8
0
 62
     0
100
AcDbLine
 10
0.0
 20
0.0
 30
0.0
 11
-1.0
 21
0.1
 31
0.0
  0
LINE
  5
A6
330
98
100
AcDbEntity
  8
0
 62
     0
100
AcDbLine
 10
-1.0
 20
0.1
 30
0.0
 11
-1.0
 21
-0.1
 31
0.0
  0
ENDBLK
  5
9A
330
98
100
AcDbEntity
  8
0
100
AcDbBlockEnd
  0
BLOCK
  5
B9
330
B4
100
AcDbEntity
  8
0
100
AcDbBlockBegin
  2
_Closed
 70
     0
 10
0.0
 20
0.0
 30
0.0
  3
_Closed
  1

  0
LINE
  5
B5
330
B4
100
AcDbEntity
  8
0
  6
ByBlock
 62
     0
370
    -2
100
AcDbLine
 10
-1.0
 20
0.1666666666666666
 30
0.0
 11
0.0
 21
0.0
 31
0.0
  0
LINE
  5
B6
330
B4
100
AcDbEntity
  8
0
  6
ByBlock
 62
     0
370
    -2
100
AcDbLine
 10
0.0
 20
0.0
 30
0.0
 11
-1.0
 21
-0.1666666666666666
 31
0.0
  0
LINE
  5
B7
330
B4
100
AcDbEntity
  8
0
  6
ByBlock
 62
     0
370
    -2
100
AcDbLine
 10
-1.0
 20
0.1666666666666666
 30
0.0
 11
-1.0
 21
-0.1666666666666666
 31
0.0
  0
LINE
  5
B8
330
B4
100
AcDbEntity
  8
0
  6
ByBlock
 62
     0
370
    -2
100
AcDbLine
 10
0.0
 20
0.0
 30
0.0
 11
-1.0
 21
0.0
 31
0.0
  0
ENDBLK
  5
BA
330
B4
100
AcDbEntity
  8
0
100
AcDbBlockEnd
  0
BLOCK
  5
BC
330
BB
100
AcDbEntity
  8
0
100
AcDbBlockBegin
  2
DatumFilled45
 70
     0
 10
0.0
 20
0.0
 30
0.0
  3
DatumFilled45
  1

  0
POLYLINE
  5
BE
330
BB
100
AcDbEntity
  8
0
 62
     0
100
AcDb2dPolyline
 66
     1
 10
0.0
 20
0.0
 30
0.0
 70
   128
  0
VERTEX
  5
BF
330
BE
100
AcDbEntity
  8
0
 62
     0
100
AcDbVertex
100
AcDb2dVertex
 10
0.0
 20
1.0
 30
0.0
  0
VERTEX
  5
C0
330
BE
100
AcDbEntity
  8
0
 62
     0
100
AcDbVertex
100
AcDb2dVertex
 10
0.0
 20
-1.0
 30
0.0
  0
VERTEX
  5
C2
330
BE
100
AcDbEntity
  8
0
 62
     0
100
AcDbVertex
100
AcDb2dVertex
 10
-1.0
 20
0.0
 30
0.0
  0
VERTEX
  5
C3
330
BE
100
AcDbEntity
  8
0
 62
     0
100
AcDbVertex
100
AcDb2dVertex
 10
0.0
 20
1.0
 30
0.0
  0
SEQEND
  5
C1
330
BE
100
AcDbEntity
  8
0
 62
     0
  0
SOLID
  5
C4
330
BB
100
AcDbEntity
  8
0
 62
     0
100
AcDbTrace
 10
0.0
 20
1.0
 30
0.0
 11
0.0
 21
-1.0
 31
0.0
 12
-1.0
 22
0.0
 32
0.0
 13
0.0
 23
1.0
 33
0.0
  0
ENDBLK
  5
BD
330
BB
100
AcDbEntity
  8
0
100
AcDbBlockEnd
  0
BLOCK
  5
C7
330
C6
100
AcDbEntity
  8
0
100
AcDbBlockBegin
  2
WIG-svarovani
 70
     0
 10
0.0
 20
0.0
 30
0.0
  3
WIG-svarovani
  1

  0
MTEXT
  5
C9
102
{ACAD_XDICTIONARY
360
26CD
102
}
330
C6
100
AcDbEntity
  8
Značka (ISO)
100
AcDbMText
 10
-57.87338256835937
 20
16.31795931607484
 30
0.0
 40
3.499999940395355
 41
115.7467651367187
 71
     1
 72
     1
  1
WIG Schweisung, Nahte sauber geschliffen und poliert\PSichtstege geschliffen mit 240 Korn und abgeklebt.\P{\H0.85714x; \P\H1.1667x;WIG svarovani- svary dle potreby zabrousit.\PPohledove plochy brousit (vel. brusnych zrn 240)\Pa polepit paskou}
  7
Text poznámky (ISO)
 73
     1
 44
0.9596589207649227
  0
ENDBLK
  5
C8
330
C6
100
AcDbEntity
  8
0
100
AcDbBlockEnd
  0
BLOCK
  5
CC
330
CB
100
AcDbEntity
  8
0
100
AcDbBlockBegin
  2
Popis kotvy_srouby
 70
     0
 10
0.0
 20
0.0
 30
0.0
  3
Popis kotvy_srouby
  1

  0
MTEXT
  5
CE
330
CB
100
AcDbEntity
  8
Značka (ISO)
100
AcDbMText
 10
-39.79761123657226
 20
21.84130281209946
 30
0.0
 40
3.499999940395355
 41
0.0
 71
     1
 72
     1
  1
Vzdalenost nivel. sroubu ca. 1500\PVzdalenost kotev ca. 400\PVzdalenost dist. koliku ca. 250\P\PAbstand der Nivellieschraben ca.1500\PAbstand der Maueranker ca.400\PAbstand der Distanzstege ca.250\P
  7
Text poznámky (ISO)
 73
     2
 44
0.9878841638565063
  0
ENDBLK
  5
CD
330
CB
100
AcDbEntity
  8
0
100
AcDbBlockEnd
  0
BLOCK
  5
D0
330
CF
100
AcDbEntity
  8
0
100
AcDbBlockBegin
  2
Mater. provedeni Art.
 70
     0
 10
0.0
 20
0.0
 30
0.0
  3
Mater. provedeni Art.
  1

  0
LINE
  5
D2
330
CF
100
AcDbEntity
  8
Geometrie náčrtu (ISO)
100
AcDbLine
 10
-35.0
 20
-22.5
 30
0.0
 11
35.0
 21
-22.5
 31
0.0
  0
LINE
  5
D3
330
CF
100
AcDbEntity
  8
Geometrie náčrtu (ISO)
100
AcDbLine
 10
35.0
 20
-22.5
 30
0.0
 11
34.99999999999996
 21
-13.49999999999998
 31
0.0
  0
LINE
  5
D4
330
CF
100
AcDbEntity
  8
Geometrie náčrtu (ISO)
100
AcDbLine
 10
34.99999999999996
 20
-13.49999999999998
 30
0.0
 11
-35.00000000000003
 21
-13.49999999999998
 31
0.0
  0
LINE
  5
D5
330
CF
100
AcDbEntity
  8
Geometrie náčrtu (ISO)
100
AcDbLine
 10
-35.00000000000003
 20
-13.49999999999998
 30
0.0
 11
-35.0
 21
-22.5
 31
0.0
  0
LINE
  5
D6
330
CF
100
AcDbEntity
  8
Geometrie náčrtu (ISO)
100
AcDbLine
 10
-35.00000000000003
 20
-13.49999999999998
 30
0.0
 11
34.99999999999996
 21
-13.49999999999998
 31
0.0
  0
LINE
  5
D7
330
CF
100
AcDbEntity
  8
Geometrie náčrtu (ISO)
100
AcDbLine
 10
34.99999999999996
 20
-13.49999999999998
 30
0.0
 11
34.99999999999996
 21
-4.499999999999992
 31
0.0
  0
LINE
  5
D8
330
CF
100
AcDbEntity
  8
Geometrie náčrtu (ISO)
100
AcDbLine
 10
34.99999999999996
 20
-4.499999999999992
 30
0.0
 11
-35.00000000000003
 21
-4.499999999999992
 31
0.0
  0
LINE
  5
D9
330
CF
100
AcDbEntity
  8
Geometrie náčrtu (ISO)
100
AcDbLine
 10
-35.00000000000003
 20
-4.499999999999992
 30
0.0
 11
-35.00000000000003
 21
-13.49999999999998
 31
0.0
  0
LINE
  5
DA
330
CF
100
AcDbEntity
  8
Geometrie náčrtu (ISO)
100
AcDbLine
 10
-35.00000000000003
 20
-4.499999999999992
 30
0.0
 11
34.99999999999996
 21
-4.499999999999992
 31
0.0
  0
LINE
  5
DB
330
CF
100
AcDbEntity
  8
Geometrie náčrtu (ISO)
100
AcDbLine
 10
34.99999999999996
 20
-4.499999999999992
 30
0.0
 11
34.99999999999996
 21
4.499999999999992
 31
0.0
  0
LINE
  5
DC
330
CF
100
AcDbEntity
  8
Geometrie náčrtu (ISO)
100
AcDbLine
 10
34.99999999999996
 20
4.499999999999992
 30
0.0
 11
-35.00000000000003
 21
4.499999999999992
 31
0.0
  0
LINE
  5
DD
330
CF
100
AcDbEntity
  8
Geometrie náčrtu (ISO)
100
AcDbLine
 10
-35.00000000000003
 20
4.499999999999992
 30
0.0
 11
-35.00000000000003
 21
-4.499999999999992
 31
0.0
  0
LINE
  5
DE
330
CF
100
AcDbEntity
  8
Geometrie náčrtu (ISO)
100
AcDbLine
 10
-35.00000000000003
 20
4.499999999999992
 30
0.0
 11
34.99999999999996
 21
4.499999999999992
 31
0.0
  0
LINE
  5
DF
330
CF
100
AcDbEntity
  8
Geometrie náčrtu (ISO)
100
AcDbLine
 10
34.99999999999996
 20
4.499999999999992
 30
0.0
 11
34.99999999999996
 21
13.50000000000001
 31
0.0
  0
LINE
  5
E0
330
CF
100
AcDbEntity
  8
Geometrie náčrtu (ISO)
100
AcDbLine
 10
34.99999999999996
 20
13.50000000000001
 30
0.0
 11
-35.00000000000003
 21
13.50000000000001
 31
0.0
  0
LINE
  5
E1
330
CF
100
AcDbEntity
  8
Geometrie náčrtu (ISO)
100
AcDbLine
 10
-35.00000000000003
 20
13.50000000000001
 30
0.0
 11
-35.00000000000003
 21
4.499999999999992
 31
0.0
  0
LINE
  5
E2
330
CF
100
AcDbEntity
  8
Geometrie náčrtu (ISO)
100
AcDbLine
 10
-35.00000000000003
 20
13.50000000000001
 30
0.0
 11
34.99999999999996
 21
13.50000000000001
 31
0.0
  0
LINE
  5
E3
330
CF
100
AcDbEntity
  8
Geometrie náčrtu (ISO)
100
AcDbLine
 10
34.99999999999996
 20
13.50000000000001
 30
0.0
 11
34.99999999999996
 21
22.5
 31
0.0
  0
LINE
  5
E4
330
CF
100
AcDbEntity
  8
Geometrie náčrtu (ISO)
100
AcDbLine
 10
34.99999999999996
 20
22.5
 30
0.0
 11
-35.00000000000003
 21
22.5
 31
0.0
  0
LINE
  5
E5
330
CF
100
AcDbEntity
  8
Geometrie náčrtu (ISO)
100
AcDbLine
 10
-35.00000000000003
 20
22.5
 30
0.0
 11
-35.00000000000003
 21
13.50000000000001
 31
0.0
  0
LINE
  5
E6
330
CF
100
AcDbEntity
  8
Geometrie náčrtu (ISO)
100
AcDbLine
 10
-6.999999999999992
 20
22.5
 30
0.0
 11
-6.999999999999992
 21
-22.5
 31
0.0
  0
MTEXT
  5
E7
330
CF
100
AcDbEntity
  8
Značka (ISO)
100
AcDbMText
 10
-5.126613448311374
 20
11.7684641726084
 30
0.0
 40
5.0
 41
0.0
 71
     1
 72
     1
  1
\fTahoma|b0|i0;\H5.0000;xxxxxxxxxxx
  7
Text poznámky (ISO)
 73
     1
 44
1.0
  0
MTEXT
  5
E8
330
CF
100
AcDbEntity
  8
Značka (ISO)
100
AcDbMText
 10
-33.0130165251342
 20
11.7684641726084
 30
0.0
 40
5.0
 41
20.42139291763306
 71
     1
 72
     1
  1
\fTahoma|b0|i0;\H5.0000;xxxxxx
  7
Text poznámky (ISO)
 73
     1
 44
1.0
  0
MTEXT
  5
E9
330
CF
100
AcDbEntity
  8
Značka (ISO)
100
AcDbMText
 10
-32.07756235018873
 20
20.30710993714994
 30
0.0
 40
5.0
 41
13.92583036716939
 71
     1
 72
     1
  1
\fTahoma|b0|i0;\H5.0000;Art.
  7
Text poznámky (ISO)
 73
     1
 44
1.0
  0
MTEXT
  5
EA
330
CF
100
AcDbEntity
  8
Značka (ISO)
100
AcDbMText
 10
4.291672002492318
 20
20.30710993714994
 30
0.0
 40
5.0
 41
0.0
 71
     1
 72
     1
  1
\fTahoma|b0|i0;\H5.0000;Mat.
  7
Text poznámky (ISO)
 73
     1
 44
1.0
  0
MTEXT
  5
EB
330
CF
100
AcDbEntity
  8
Značka (ISO)
100
AcDbMText
 10
-33.0130165251342
 20
2.473781856899818
 30
0.0
 40
5.0
 41
20.42139291763306
 71
     1
 72
     1
  1
\fTahoma|b0|i0;\H5.0000;xxxxxx
  7
Text poznámky (ISO)
 73
     1
 44
1.0
  0
MTEXT
  5
EC
330
CF
100
AcDbEntity
  8
Značka (ISO)
100
AcDbMText
 10
-5.126613448311374
 20
2.473781856899818
 30
0.0
 40
5.0
 41
0.0
 71
     1
 72
     1
  1
\fTahoma|b0|i0;\H5.0000;xxxxxxxxxxx
  7
Text poznámky (ISO)
 73
     1
 44
1.0
  0
MTEXT
  5
ED
330
CF
100
AcDbEntity
  8
Značka (ISO)
100
AcDbMText
 10
-33.0130165251342
 20
-6.862452441171491
 30
0.0
 40
5.0
 41
20.42139291763306
 71
     1
 72
     1
  1
\fTahoma|b0|i0;\H5.0000;xxxxxx
  7
Text poznámky (ISO)
 73
     1
 44
1.0
  0
MTEXT
  5
EE
330
CF
100
AcDbEntity
  8
Značka (ISO)
100
AcDbMText
 10
-5.126613448311374
 20
-6.862452441171491
 30
0.0
 40
5.0
 41
0.0
 71
     1
 72
     1
  1
\fTahoma|b0|i0;\H5.0000;xxxxxxxxxxx
  7
Text poznámky (ISO)
 73
     1
 44
1.0
  0
MTEXT
  5
EF
330
CF
100
AcDbEntity
  8
Značka (ISO)
100
AcDbMText
 10
-33.0130165251342
 20
-15.52177565039578
 30
0.0
 40
5.0
 41
20.42139291763306
 71
     1
 72
     1
  1
\fTahoma|b0|i0;\H5.0000;xxxxxx
  7
Text poznámky (ISO)
 73
     1
 44
1.0
  0
MTEXT
  5
F0
330
CF
100
AcDbEntity
  8
Značka (ISO)
100
AcDbMText
 10
-5.126613448311374
 20
-15.52177565039578
 30
0.0
 40
5.0
 41
0.0
 71
     1
 72
     1
  1
\fTahoma|b0|i0;\H5.0000;xxxxxxxxxxx
  7
Text poznámky (ISO)
 73
     1
 44
1.0
  0
ENDBLK
  5
D1
330
CF
100
AcDbEntity
  8
0
100
AcDbBlockEnd
  0
BLOCK
  5
F2
330
F1
100
AcDbEntity
  8
0
100
AcDbBlockBegin
  2
Art. s popisy
 70
     0
 10
0.0
 20
0.0
 30
0.0
  3
Art. s popisy
  1

  0
LINE
  5
F4
330
F1
100
AcDbEntity
  8
Geometrie náčrtu (ISO)
100
AcDbLine
 10
-60.00000000000081
 20
-22.5
 30
0.0
 11
59.99999999999911
 21
-22.5
 31
0.0
  0
LINE
  5
F5
330
F1
100
AcDbEntity
  8
Geometrie náčrtu (ISO)
100
AcDbLine
 10
59.99999999999911
 20
-22.5
 30
0.0
 11
60.00000000000081
 21
-13.50000000000001
 31
0.0
  0
LINE
  5
F6
330
F1
100
AcDbEntity
  8
Geometrie náčrtu (ISO)
100
AcDbLine
 10
60.00000000000081
 20
-13.50000000000001
 30
0.0
 11
-60.00000000000081
 21
-13.49999999999998
 31
0.0
  0
LINE
  5
F7
330
F1
100
AcDbEntity
  8
Geometrie náčrtu (ISO)
100
AcDbLine
 10
-60.00000000000081
 20
-13.49999999999998
 30
0.0
 11
-60.00000000000081
 21
-22.5
 31
0.0
  0
LINE
  5
F8
330
F1
100
AcDbEntity
  8
Geometrie náčrtu (ISO)
100
AcDbLine
 10
-60.00000000000081
 20
-13.49999999999998
 30
0.0
 11
60.00000000000081
 21
-13.50000000000001
 31
0.0
  0
LINE
  5
F9
330
F1
100
AcDbEntity
  8
Geometrie náčrtu (ISO)
100
AcDbLine
 10
60.00000000000081
 20
-13.50000000000001
 30
0.0
 11
59.99999999999911
 21
-4.500000000000028
 31
0.0
  0
LINE
  5
FA
330
F1
100
AcDbEntity
  8
Geometrie náčrtu (ISO)
100
AcDbLine
 10
59.99999999999911
 20
-4.500000000000028
 30
0.0
 11
-60.00000000000081
 21
-4.499999999999992
 31
0.0
  0
LINE
  5
FB
330
F1
100
AcDbEntity
  8
Geometrie náčrtu (ISO)
100
AcDbLine
 10
-60.00000000000081
 20
-4.499999999999992
 30
0.0
 11
-60.00000000000081
 21
-13.49999999999998
 31
0.0
  0
LINE
  5
FC
330
F1
100
AcDbEntity
  8
Geometrie náčrtu (ISO)
100
AcDbLine
 10
-60.00000000000081
 20
-4.499999999999992
 30
0.0
 11
59.99999999999911
 21
-4.500000000000028
 31
0.0
  0
LINE
  5
FD
330
F1
100
AcDbEntity
  8
Geometrie náčrtu (ISO)
100
AcDbLine
 10
59.99999999999911
 20
-4.500000000000028
 30
0.0
 11
59.99999999999911
 21
4.499999999999957
 31
0.0
  0
LINE
  5
FE
330
F1
100
AcDbEntity
  8
Geometrie náčrtu (ISO)
100
AcDbLine
 10
59.99999999999911
 20
4.499999999999957
 30
0.0
 11
-60.00000000000081
 21
4.499999999999992
 31
0.0
  0
LINE
  5
FF
330
F1
100
AcDbEntity
  8
Geometrie náčrtu (ISO)
100
AcDbLine
 10
-60.00000000000081
 20
4.499999999999992
 30
0.0
 11
-60.00000000000081
 21
-4.499999999999992
 31
0.0
  0
LINE
  5
100
330
F1
100
AcDbEntity
  8
Geometrie náčrtu (ISO)
100
AcDbLine
 10
-60.00000000000081
 20
4.499999999999992
 30
0.0
 11
59.99999999999911
 21
4.499999999999957
 31
0.0
  0
LINE
  5
101
330
F1
100
AcDbEntity
  8
Geometrie náčrtu (ISO)
100
AcDbLine
 10
59.99999999999911
 20
4.499999999999957
 30
0.0
 11
59.99999999999911
 21
13.49999999999998
 31
0.0
  0
LINE
  5
102
330
F1
100
AcDbEntity
  8
Geometrie náčrtu (ISO)
100
AcDbLine
 10
59.99999999999911
 20
13.49999999999998
 30
0.0
 11
-60.00000000000081
 21
13.50000000000001
 31
0.0
  0
LINE
  5
103
330
F1
100
AcDbEntity
  8
Geometrie náčrtu (ISO)
100
AcDbLine
 10
-60.00000000000081
 20
13.50000000000001
 30
0.0
 11
-60.00000000000081
 21
4.499999999999992
 31
0.0
  0
LINE
  5
104
330
F1
100
AcDbEntity
  8
Geometrie náčrtu (ISO)
100
AcDbLine
 10
-60.00000000000081
 20
13.50000000000001
 30
0.0
 11
59.99999999999911
 21
13.49999999999998
 31
0.0
  0
LINE
  5
105
330
F1
100
AcDbEntity
  8
Geometrie náčrtu (ISO)
100
AcDbLine
 10
59.99999999999911
 20
13.49999999999998
 30
0.0
 11
59.99999999999911
 21
22.49999999999996
 31
0.0
  0
LINE
  5
106
330
F1
100
AcDbEntity
  8
Geometrie náčrtu (ISO)
100
AcDbLine
 10
59.99999999999911
 20
22.49999999999996
 30
0.0
 11
-60.00000000000081
 21
22.5
 31
0.0
  0
LINE
  5
107
330
F1
100
AcDbEntity
  8
Geometrie náčrtu (ISO)
100
AcDbLine
 10
-60.00000000000081
 20
22.5
 30
0.0
 11
-60.00000000000081
 21
13.50000000000001
 31
0.0
  0
LINE
  5
108
330
F1
100
AcDbEntity
  8
Geometrie náčrtu (ISO)
100
AcDbLine
 10
-32.00000000000081
 20
22.5
 30
0.0
 11
-32.00000000000081
 21
-22.5
 31
0.0
  0
MTEXT
  5
109
330
F1
100
AcDbEntity
  8
Značka (ISO)
100
AcDbMText
 10
-27.63552601875791
 20
11.7684641726084
 30
0.0
 40
5.0
 41
0.0
 71
     1
 72
     1
  1
\fTahoma|b0|i0;\H5.0000;xxxxxxxxxxx
  7
Text poznámky (ISO)
 73
     1
 44
1.0
  0
MTEXT
  5
10A
330
F1
100
AcDbEntity
  8
Značka (ISO)
100
AcDbMText
 10
-55.52192909558073
 20
11.7684641726084
 30
0.0
 40
5.0
 41
20.42139291763306
 71
     1
 72
     1
  1
\fTahoma|b0|i0;\H5.0000;xxxxxx
  7
Text poznámky (ISO)
 73
     1
 44
1.0
  0
MTEXT
  5
10B
330
F1
100
AcDbEntity
  8
Značka (ISO)
100
AcDbMText
 10
-54.58647492063526
 20
20.30710993714994
 30
0.0
 40
5.0
 41
13.92583036716939
 71
     1
 72
     1
  1
\fTahoma|b0|i0;\H5.0000;Art.
  7
Text poznámky (ISO)
 73
     1
 44
1.0
  0
MTEXT
  5
10C
330
F1
100
AcDbEntity
  8
Značka (ISO)
100
AcDbMText
 10
-18.21724056795421
 20
20.30710993714994
 30
0.0
 40
5.0
 41
0.0
 71
     1
 72
     1
  1
\fTahoma|b0|i0;\H5.0000;Popis.
  7
Text poznámky (ISO)
 73
     1
 44
1.0
  0
MTEXT
  5
10D
330
F1
100
AcDbEntity
  8
Značka (ISO)
100
AcDbMText
 10
-55.52192909558073
 20
2.473781856899818
 30
0.0
 40
5.0
 41
20.42139291763306
 71
     1
 72
     1
  1
\fTahoma|b0|i0;\H5.0000;xxxxxx
  7
Text poznámky (ISO)
 73
     1
 44
1.0
  0
MTEXT
  5
10E
330
F1
100
AcDbEntity
  8
Značka (ISO)
100
AcDbMText
 10
-27.63552601875791
 20
2.473781856899818
 30
0.0
 40
5.0
 41
0.0
 71
     1
 72
     1
  1
\fTahoma|b0|i0;\H5.0000;xxxxxxxxxxx
  7
Text poznámky (ISO)
 73
     1
 44
1.0
  0
MTEXT
  5
10F
330
F1
100
AcDbEntity
  8
Značka (ISO)
100
AcDbMText
 10
-55.52192909558073
 20
-6.862452441171491
 30
0.0
 40
5.0
 41
20.42139291763306
 71
     1
 72
     1
  1
\fTahoma|b0|i0;\H5.0000;xxxxxx
  7
Text poznámky (ISO)
 73
     1
 44
1.0
  0
MTEXT
  5
110
330
F1
100
AcDbEntity
  8
Značka (ISO)
100
AcDbMText
 10
-27.63552601875791
 20
-6.862452441171491
 30
0.0
 40
5.0
 41
0.0
 71
     1
 72
     1
  1
\fTahoma|b0|i0;\H5.0000;xxxxxxxxxxx
  7
Text poznámky (ISO)
 73
     1
 44
1.0
  0
MTEXT
  5
111
330
F1
100
AcDbEntity
  8
Značka (ISO)
100
AcDbMText
 10
-55.52192909558073
 20
-15.52177565039578
 30
0.0
 40
5.0
 41
20.42139291763306
 71
     1
 72
     1
  1
\fTahoma|b0|i0;\H5.0000;xxxxxx
  7
Text poznámky (ISO)
 73
     1
 44
1.0
  0
MTEXT
  5
112
330
F1
100
AcDbEntity
  8
Značka (ISO)
100
AcDbMText
 10
-27.63552601875791
 20
-15.52177565039578
 30
0.0
 40
5.0
 41
0.0
 71
     1
 72
     1
  1
\fTahoma|b0|i0;\H5.0000;xxxxxxxxxxx
  7
Text poznámky (ISO)
 73
     1
 44
1.0
  0
ENDBLK
  5
F3
330
F1
100
AcDbEntity
  8
0
100
AcDbBlockEnd
  0
BLOCK
  5
114
330
113
100
AcDbEntity
  8
0
100
AcDbBlockBegin
  2
Tryskat
 70
     0
 10
0.0
 20
0.0
 30
0.0
  3
Tryskat
  1

  0
MTEXT
  5
116
330
113
100
AcDbEntity
  8
Značka (ISO)
100
AcDbMText
 10
-30.20239114761352
 20
5.036920197308063
 30
0.0
 40
3.499999940395355
 41
0.0
 71
     1
 72
     1
  1
Tryskat \P( Blasted , Glasperlstrahken)
  7
Text poznámky (ISO)
 73
     2
 44
0.9878841638565063
  0
ENDBLK
  5
115
330
113
100
AcDbEntity
  8
0
100
AcDbBlockEnd
  0
BLOCK
  5
118
330
117
100
AcDbEntity
  8
0
100
AcDbBlockBegin
  2
Morit
 70
     0
 10
0.0
 20
0.0
 30
0.0
  3
Morit
  1

  0
MTEXT
  5
11A
330
117
100
AcDbEntity
  8
Značka (ISO)
100
AcDbMText
 10
-19.08124089241028
 20
5.11633675545454
 30
0.0
 40
3.499999940395355
 41
0.0
 71
     1
 72
     1
  1
Morit a pasivovat\P(Pickled, gebeitzt)
  7
Text poznámky (ISO)
 73
     2
 44
0.9878841638565063
  0
ENDBLK
  5
119
330
117
100
AcDbEntity
  8
0
100
AcDbBlockEnd
  0
BLOCK
  5
11C
330
11B
100
AcDbEntity
  8
0
100
AcDbBlockBegin
  2
zinkovat
 70
     0
 10
0.0
 20
0.0
 30
0.0
  3
zinkovat
  1

  0
MTEXT
  5
11E
330
11B
100
AcDbEntity
  8
Značka (ISO)
100
AcDbMText
 10
-27.74189710617065
 20
5.049683563411233
 30
0.0
 40
3.499999940395355
 41
0.0
 71
     1
 72
     1
  1
Zarove zinkovat\P(hot galvanized, verzinkt )
  7
Text poznámky (ISO)
 73
     2
 44
0.9878841638565063
  0
ENDBLK
  5
11D
330
11B
100
AcDbEntity
  8
0
100
AcDbBlockEnd
  0
BLOCK
  5
120
330
11F
100
AcDbEntity
  8
0
100
AcDbBlockBegin
  2
Nater
 70
     0
 10
0.0
 20
0.0
 30
0.0
  3
Nater
  1

  0
MTEXT
  5
122
330
11F
100
AcDbEntity
  8
Značka (ISO)
100
AcDbMText
 10
-25.88411808013916
 20
1.864870421122757
 30
0.0
 40
3.499999940395355
 41
0.0
 71
     1
 72
     1
  1
Lackiert Farbe RAL 5002
  7
Text poznámky (ISO)
 73
     1
 44
1.0
  0
ENDBLK
  5
121
330
11F
100
AcDbEntity
  8
0
100
AcDbBlockEnd
  0
BLOCK
  5
124
330
123
100
AcDbEntity
  8
0
100
AcDbBlockBegin
  2
Brus
 70
     0
 10
0.0
 20
0.0
 30
0.0
  3
Brus
  1

  0
MTEXT
  5
126
330
123
100
AcDbEntity
  8
Značka (ISO)
100
AcDbMText
 10
-23.46616744995117
 20
5.11633675545454
 30
0.0
 40
3.499999940395355
 41
0.0
 71
     1
 72
     1
  1
Brousit\P(geburstet , brushed )
  7
Text poznámky (ISO)
 73
     2
 44
0.9878841638565063
  0
ENDBLK
  5
125
330
123
100
AcDbEntity
  8
0
100
AcDbBlockEnd
  0
BLOCK
  5
128
330
127
100
AcDbEntity
  8
0
100
AcDbBlockBegin
  2
Elektroliticky lestit
 70
     0
 10
0.0
 20
0.0
 30
0.0
  3
Elektroliticky lestit
  1

  0
MTEXT
  5
12A
330
127
100
AcDbEntity
  8
Značka (ISO)
100
AcDbMText
 10
-18.68841171264648
 20
5.036920197308063
 30
0.0
 40
3.499999940395355
 41
0.0
 71
     1
 72
     1
  1
Elektrolit. lestit\P(Elektropolished )
  7
Text poznámky (ISO)
 73
     2
 44
0.9878841638565063
  0
ENDBLK
  5
129
330
127
100
AcDbEntity
  8
0
100
AcDbBlockEnd
  0
BLOCK
  5
12D
330
12C
100
AcDbEntity
  8
0
100
AcDbBlockBegin
  2
Rámečky Default Border
 70
     0
 10
0.0
 20
0.0
 30
0.0
  3
Rámečky Default Border
  1

  0
POLYLINE
  5
12F
330
12C
100
AcDbEntity
  8
Rámeček (ISO)
100
AcDb2dPolyline
 66
     1
 10
0.0
 20
0.0
 30
0.0
 70
   128
  0
VERTEX
  5
130
330
12F
100
AcDbEntity
  8
Rámeček (ISO)
100
AcDbVertex
100
AcDb2dVertex
 10
10.0
 20
10.0
 30
0.0
  0
VERTEX
  5
131
330
12F
100
AcDbEntity
  8
Rámeček (ISO)
100
AcDbVertex
100
AcDb2dVertex
 10
10.0
 20
410.0
 30
0.0
  0
VERTEX
  5
133
330
12F
100
AcDbEntity
  8
Rámeček (ISO)
100
AcDbVertex
100
AcDb2dVertex
 10
584.0000152587889
 20
410.0
 30
0.0
  0
VERTEX
  5
134
330
12F
100
AcDbEntity
  8
Rámeček (ISO)
100
AcDbVertex
100
AcDb2dVertex
 10
584.0000152587889
 20
10.0
 30
0.0
  0
VERTEX
  5
135
330
12F
100
AcDbEntity
  8
Rámeček (ISO)
100
AcDbVertex
100
AcDb2dVertex
 10
10.0
 20
10.0
 30
0.0
  0
SEQEND
  5
132
330
12F
100
AcDbEntity
  8
Rámeček (ISO)
  0
POLYLINE
  5
136
330
12C
100
AcDbEntity
  8
Rámeček (ISO)
100
AcDb2dPolyline
 66
     1
 10
0.0
 20
0.0
 30
0.0
 70
   128
  0
VERTEX
  5
137
330
136
100
AcDbEntity
  8
Rámeček (ISO)
100
AcDbVertex
100
AcDb2dVertex
 10
297.0000076293946
 20
0.0
 30
0.0
  0
VERTEX
  5
138
330
136
100
AcDbEntity
  8
Rámeček (ISO)
100
AcDbVertex
100
AcDb2dVertex
 10
297.0000076293946
 20
10.0
 30
0.0
  0
VERTEX
  5
13A
330
136
100
AcDbEntity
  8
Rámeček (ISO)
100
AcDbVertex
100
AcDb2dVertex
 10
294.1132545471191
 20
5.0
 30
0.0
  0
VERTEX
  5
13B
330
136
100
AcDbEntity
  8
Rámeček (ISO)
100
AcDbVertex
100
AcDb2dVertex
 10
299.8867607116699
 20
5.0
 30
0.0
  0
VERTEX
  5
13C
330
136
100
AcDbEntity
  8
Rámeček (ISO)
100
AcDbVertex
100
AcDb2dVertex
 10
297.0000076293946
 20
10.0
 30
0.0
  0
SEQEND
  5
139
330
136
100
AcDbEntity
  8
Rámeček (ISO)
  0
POLYLINE
  5
13D
330
12C
100
AcDbEntity
  8
Rámeček (ISO)
100
AcDb2dPolyline
 66
     1
 10
0.0
 20
0.0
 30
0.0
 70
   128
  0
VERTEX
  5
13E
330
13D
100
AcDbEntity
  8
Rámeček (ISO)
100
AcDbVertex
100
AcDb2dVertex
 10
297.0000076293946
 20
420.0
 30
0.0
  0
VERTEX
  5
13F
330
13D
100
AcDbEntity
  8
Rámeček (ISO)
100
AcDbVertex
100
AcDb2dVertex
 10
297.0000076293946
 20
410.0
 30
0.0
  0
VERTEX
  5
141
330
13D
100
AcDbEntity
  8
Rámeček (ISO)
100
AcDbVertex
100
AcDb2dVertex
 10
294.1132545471191
 20
415.0
 30
0.0
  0
VERTEX
  5
142
330
13D
100
AcDbEntity
  8
Rámeček (ISO)
100
AcDbVertex
100
AcDb2dVertex
 10
299.8867607116699
 20
415.0
 30
0.0
  0
VERTEX
  5
143
330
13D
100
AcDbEntity
  8
Rámeček (ISO)
100
AcDbVertex
100
AcDb2dVertex
 10
297.0000076293946
 20
410.0
 30
0.0
  0
SEQEND
  5
140
330
13D
100
AcDbEntity
  8
Rámeček (ISO)
  0
POLYLINE
  5
144
330
12C
100
AcDbEntity
  8
Rámeček (ISO)
100
AcDb2dPolyline
 66
     1
 10
0.0
 20
0.0
 30
0.0
 70
   128
  0
VERTEX
  5
145
330
144
100
AcDbEntity
  8
Rámeček (ISO)
100
AcDbVertex
100
AcDb2dVertex
 10
0.0
 20
210.0
 30
0.0
  0
VERTEX
  5
146
330
144
100
AcDbEntity
  8
Rámeček (ISO)
100
AcDbVertex
100
AcDb2dVertex
 10
10.0
 20
210.0
 30
0.0
  0
VERTEX
  5
148
330
144
100
AcDbEntity
  8
Rámeček (ISO)
100
AcDbVertex
100
AcDb2dVertex
 10
5.0
 20
212.8867530822754
 30
0.0
  0
VERTEX
  5
149
330
144
100
AcDbEntity
  8
Rámeček (ISO)
100
AcDbVertex
100
AcDb2dVertex
 10
5.0
 20
207.1132469177246
 30
0.0
  0
VERTEX
  5
14A
330
144
100
AcDbEntity
  8
Rámeček (ISO)
100
AcDbVertex
100
AcDb2dVertex
 10
10.0
 20
210.0
 30
0.0
  0
SEQEND
  5
147
330
144
100
AcDbEntity
  8
Rámeček (ISO)
  0
POLYLINE
  5
14B
330
12C
100
AcDbEntity
  8
Rámeček (ISO)
100
AcDb2dPolyline
 66
     1
 10
0.0
 20
0.0
 30
0.0
 70
   128
  0
VERTEX
  5
14C
330
14B
100
AcDbEntity
  8
Rámeček (ISO)
100
AcDbVertex
100
AcDb2dVertex
 10
594.0000152587892
 20
210.0
 30
0.0
  0
VERTEX
  5
14D
330
14B
100
AcDbEntity
  8
Rámeček (ISO)
100
AcDbVertex
100
AcDb2dVertex
 10
584.0000152587889
 20
210.0
 30
0.0
  0
VERTEX
  5
14F
330
14B
100
AcDbEntity
  8
Rámeček (ISO)
100
AcDbVertex
100
AcDb2dVertex
 10
589.0000152587889
 20
212.8867530822754
 30
0.0
  0
VERTEX
  5
150
330
14B
100
AcDbEntity
  8
Rámeček (ISO)
100
AcDbVertex
100
AcDb2dVertex
 10
589.0000152587889
 20
207.1132469177246
 30
0.0
  0
VERTEX
  5
151
330
14B
100
AcDbEntity
  8
Rámeček (ISO)
100
AcDbVertex
100
AcDb2dVertex
 10
584.0000152587889
 20
210.0
 30
0.0
  0
SEQEND
  5
14E
330
14B
100
AcDbEntity
  8
Rámeček (ISO)
  0
LINE
  5
152
330
12C
100
AcDbEntity
  8
Rámeček (ISO)
100
AcDbLine
 10
74.25000190734862
 20
10.0
 30
0.0
 11
74.25000190734862
 21
6.100000143051147
 31
0.0
  0
LINE
  5
153
330
12C
100
AcDbEntity
  8
Rámeček (ISO)
100
AcDbLine
 10
74.25000190734862
 20
410.0
 30
0.0
 11
74.25000190734862
 21
413.8999938964841
 31
0.0
  0
LINE
  5
154
330
12C
100
AcDbEntity
  8
Rámeček (ISO)
100
AcDbLine
 10
148.5000038146973
 20
10.0
 30
0.0
 11
148.5000038146973
 21
6.100000143051147
 31
0.0
  0
LINE
  5
155
330
12C
100
AcDbEntity
  8
Rámeček (ISO)
100
AcDbLine
 10
148.5000038146973
 20
410.0
 30
0.0
 11
148.5000038146973
 21
413.8999938964841
 31
0.0
  0
LINE
  5
156
330
12C
100
AcDbEntity
  8
Rámeček (ISO)
100
AcDbLine
 10
222.7499961853027
 20
10.0
 30
0.0
 11
222.7499961853027
 21
6.100000143051147
 31
0.0
  0
LINE
  5
157
330
12C
100
AcDbEntity
  8
Rámeček (ISO)
100
AcDbLine
 10
222.7499961853027
 20
410.0
 30
0.0
 11
222.7499961853027
 21
413.8999938964841
 31
0.0
  0
LINE
  5
158
330
12C
100
AcDbEntity
  8
Rámeček (ISO)
100
AcDbLine
 10
371.25
 20
10.0
 30
0.0
 11
371.25
 21
6.100000143051147
 31
0.0
  0
LINE
  5
159
330
12C
100
AcDbEntity
  8
Rámeček (ISO)
100
AcDbLine
 10
371.25
 20
410.0
 30
0.0
 11
371.25
 21
413.8999938964841
 31
0.0
  0
LINE
  5
15A
330
12C
100
AcDbEntity
  8
Rámeček (ISO)
100
AcDbLine
 10
445.4999923706052
 20
10.0
 30
0.0
 11
445.4999923706052
 21
6.100000143051147
 31
0.0
  0
LINE
  5
15B
330
12C
100
AcDbEntity
  8
Rámeček (ISO)
100
AcDbLine
 10
445.4999923706052
 20
410.0
 30
0.0
 11
445.4999923706052
 21
413.8999938964841
 31
0.0
  0
LINE
  5
15C
330
12C
100
AcDbEntity
  8
Rámeček (ISO)
100
AcDbLine
 10
519.7499847412108
 20
10.0
 30
0.0
 11
519.7499847412108
 21
6.100000143051147
 31
0.0
  0
LINE
  5
15D
330
12C
100
AcDbEntity
  8
Rámeček (ISO)
100
AcDbLine
 10
519.7499847412108
 20
410.0
 30
0.0
 11
519.7499847412108
 21
413.8999938964841
 31
0.0
  0
MTEXT
  5
15E
330
12C
100
AcDbEntity
  8
Rámeček (ISO)
100
AcDbMText
 10
556.0853922448459
 20
410.4
 30
0.0
 40
3.499999940395355
 41
0.0
 71
     7
 72
     1
  1
1
  7
Text poznámky (ISO)
 73
     1
 44
1.0
  0
MTEXT
  5
15F
330
12C
100
AcDbEntity
  8
Rámeček (ISO)
100
AcDbMText
 10
556.0853922448459
 20
6.100000059604642
 30
0.0
 40
3.499999940395355
 41
0.0
 71
     7
 72
     1
  1
1
  7
Text poznámky (ISO)
 73
     1
 44
1.0
  0
MTEXT
  5
160
330
12C
100
AcDbEntity
  8
Rámeček (ISO)
100
AcDbMText
 10
481.5637915541735
 20
410.4
 30
0.0
 40
3.499999940395355
 41
0.0
 71
     7
 72
     1
  1
2
  7
Text poznámky (ISO)
 73
     1
 44
1.0
  0
MTEXT
  5
161
330
12C
100
AcDbEntity
  8
Rámeček (ISO)
100
AcDbMText
 10
481.5637915541735
 20
6.100000059604642
 30
0.0
 40
3.499999940395355
 41
0.0
 71
     7
 72
     1
  1
2
  7
Text poznámky (ISO)
 73
     1
 44
1.0
  0
MTEXT
  5
162
330
12C
100
AcDbEntity
  8
Rámeček (ISO)
100
AcDbMText
 10
407.2857914829701
 20
410.3262560764327
 30
0.0
 40
3.499999940395355
 41
0.0
 71
     7
 72
     1
  1
3
  7
Text poznámky (ISO)
 73
     1
 44
1.0
  0
MTEXT
  5
163
330
12C
100
AcDbEntity
  8
Rámeček (ISO)
100
AcDbMText
 10
407.2857914829701
 20
6.026256136037407
 30
0.0
 40
3.499999940395355
 41
0.0
 71
     7
 72
     1
  1
3
  7
Text poznámky (ISO)
 73
     1
 44
1.0
  0
MTEXT
  5
164
330
12C
100
AcDbEntity
  8
Rámeček (ISO)
100
AcDbMText
 10
332.9041911483145
 20
410.4
 30
0.0
 40
3.499999940395355
 41
0.0
 71
     7
 72
     1
  1
4
  7
Text poznámky (ISO)
 73
     1
 44
1.0
  0
MTEXT
  5
165
330
12C
100
AcDbEntity
  8
Rámeček (ISO)
100
AcDbMText
 10
332.9041911483145
 20
6.100000059604642
 30
0.0
 40
3.499999940395355
 41
0.0
 71
     7
 72
     1
  1
4
  7
Text poznámky (ISO)
 73
     1
 44
1.0
  0
MTEXT
  5
166
330
12C
100
AcDbEntity
  8
Rámeček (ISO)
100
AcDbMText
 10
258.8501916467381
 20
410.3262560764327
 30
0.0
 40
3.499999940395355
 41
0.0
 71
     7
 72
     1
  1
5
  7
Text poznámky (ISO)
 73
     1
 44
1.0
  0
MTEXT
  5
167
330
12C
100
AcDbEntity
  8
Rámeček (ISO)
100
AcDbMText
 10
258.8501916467381
 20
6.026256136037407
 30
0.0
 40
3.499999940395355
 41
0.0
 71
     7
 72
     1
  1
5
  7
Text poznámky (ISO)
 73
     1
 44
1.0
  0
MTEXT
  5
168
330
12C
100
AcDbEntity
  8
Rámeček (ISO)
100
AcDbMText
 10
184.5077914117669
 20
410.3262560764327
 30
0.0
 40
3.499999940395355
 41
0.0
 71
     7
 72
     1
  1
6
  7
Text poznámky (ISO)
 73
     1
 44
1.0
  0
MTEXT
  5
169
330
12C
100
AcDbEntity
  8
Rámeček (ISO)
100
AcDbMText
 10
184.5077914117669
 20
6.026256136037407
 30
0.0
 40
3.499999940395355
 41
0.0
 71
     7
 72
     1
  1
6
  7
Text poznámky (ISO)
 73
     1
 44
1.0
  0
MTEXT
  5
16A
330
12C
100
AcDbEntity
  8
Rámeček (ISO)
100
AcDbMText
 10
110.2913914972109
 20
410.4
 30
0.0
 40
3.499999940395355
 41
0.0
 71
     7
 72
     1
  1
7
  7
Text poznámky (ISO)
 73
     1
 44
1.0
  0
MTEXT
  5
16B
330
12C
100
AcDbEntity
  8
Rámeček (ISO)
100
AcDbMText
 10
110.2913914972109
 20
6.100000059604642
 30
0.0
 40
3.499999940395355
 41
0.0
 71
     7
 72
     1
  1
7
  7
Text poznámky (ISO)
 73
     1
 44
1.0
  0
MTEXT
  5
16C
330
12C
100
AcDbEntity
  8
Rámeček (ISO)
100
AcDbMText
 10
35.9825913476839
 20
410.3205834697932
 30
0.0
 40
3.499999940395355
 41
0.0
 71
     7
 72
     1
  1
8
  7
Text poznámky (ISO)
 73
     1
 44
1.0
  0
MTEXT
  5
16D
330
12C
100
AcDbEntity
  8
Rámeček (ISO)
100
AcDbMText
 10
35.9825913476839
 20
6.020583529397844
 30
0.0
 40
3.499999940395355
 41
0.0
 71
     7
 72
     1
  1
8
  7
Text poznámky (ISO)
 73
     1
 44
1.0
  0
LINE
  5
16E
330
12C
100
AcDbEntity
  8
Rámeček (ISO)
100
AcDbLine
 10
10.0
 20
70.0
 30
0.0
 11
6.100000143051147
 21
70.0
 31
0.0
  0
LINE
  5
16F
330
12C
100
AcDbEntity
  8
Rámeček (ISO)
100
AcDbLine
 10
584.0000152587889
 20
70.0
 30
0.0
 11
587.9000091552732
 21
70.0
 31
0.0
  0
LINE
  5
170
330
12C
100
AcDbEntity
  8
Rámeček (ISO)
100
AcDbLine
 10
10.0
 20
140.0
 30
0.0
 11
6.100000143051147
 21
140.0
 31
0.0
  0
LINE
  5
171
330
12C
100
AcDbEntity
  8
Rámeček (ISO)
100
AcDbLine
 10
584.0000152587889
 20
140.0
 30
0.0
 11
587.9000091552732
 21
140.0
 31
0.0
  0
LINE
  5
172
330
12C
100
AcDbEntity
  8
Rámeček (ISO)
100
AcDbLine
 10
10.0
 20
280.0
 30
0.0
 11
6.100000143051147
 21
280.0
 31
0.0
  0
LINE
  5
173
330
12C
100
AcDbEntity
  8
Rámeček (ISO)
100
AcDbLine
 10
584.0000152587889
 20
280.0
 30
0.0
 11
587.9000091552732
 21
280.0
 31
0.0
  0
LINE
  5
174
330
12C
100
AcDbEntity
  8
Rámeček (ISO)
100
AcDbLine
 10
10.0
 20
350.0
 30
0.0
 11
6.100000143051147
 21
350.0
 31
0.0
  0
LINE
  5
175
330
12C
100
AcDbEntity
  8
Rámeček (ISO)
100
AcDbLine
 10
584.0000152587889
 20
350.0
 30
0.0
 11
587.9000091552732
 21
350.0
 31
0.0
  0
MTEXT
  5
176
330
12C
100
AcDbEntity
  8
Rámeček (ISO)
100
AcDbMText
 10
6.361230343933396
 20
33.25000002980232
 30
0.0
 40
3.499999940395355
 41
0.0
 71
     7
 72
     1
  1
A
  7
Text poznámky (ISO)
 73
     1
 44
1.0
  0
MTEXT
  5
177
330
12C
100
AcDbEntity
  8
Rámeček (ISO)
100
AcDbMText
 10
584.6612302843287
 20
33.25000002980232
 30
0.0
 40
3.499999940395355
 41
0.0
 71
     7
 72
     1
  1
A
  7
Text poznámky (ISO)
 73
     1
 44
1.0
  0
MTEXT
  5
178
330
12C
100
AcDbEntity
  8
Rámeček (ISO)
100
AcDbMText
 10
6.781848468328937
 20
103.2500000298023
 30
0.0
 40
3.499999940395355
 41
0.0
 71
     7
 72
     1
  1
B
  7
Text poznámky (ISO)
 73
     1
 44
1.0
  0
MTEXT
  5
179
330
12C
100
AcDbEntity
  8
Rámeček (ISO)
100
AcDbMText
 10
585.0818484087242
 20
103.2500000298023
 30
0.0
 40
3.499999940395355
 41
0.0
 71
     7
 72
     1
  1
B
  7
Text poznámky (ISO)
 73
     1
 44
1.0
  0
MTEXT
  5
17A
330
12C
100
AcDbEntity
  8
Rámeček (ISO)
100
AcDbMText
 10
6.558903094188357
 20
173.1876013241708
 30
0.0
 40
3.499999940395355
 41
0.0
 71
     7
 72
     1
  1
C
  7
Text poznámky (ISO)
 73
     1
 44
1.0
  0
MTEXT
  5
17B
330
12C
100
AcDbEntity
  8
Rámeček (ISO)
100
AcDbMText
 10
584.8589030345837
 20
173.1876013241708
 30
0.0
 40
3.499999940395355
 41
0.0
 71
     7
 72
     1
  1
C
  7
Text poznámky (ISO)
 73
     1
 44
1.0
  0
MTEXT
  5
17C
330
12C
100
AcDbEntity
  8
Rámeček (ISO)
100
AcDbMText
 10
6.56770745709084
 20
243.2500000298023
 30
0.0
 40
3.499999940395355
 41
0.0
 71
     7
 72
     1
  1
D
  7
Text poznámky (ISO)
 73
     1
 44
1.0
  0
MTEXT
  5
17D
330
12C
100
AcDbEntity
  8
Rámeček (ISO)
100
AcDbMText
 10
584.8677073974861
 20
243.2500000298023
 30
0.0
 40
3.499999940395355
 41
0.0
 71
     7
 72
     1
  1
D
  7
Text poznámky (ISO)
 73
     1
 44
1.0
  0
MTEXT
  5
17E
330
12C
100
AcDbEntity
  8
Rámeček (ISO)
100
AcDbMText
 10
6.849919803883061
 20
313.2500000298023
 30
0.0
 40
3.499999940395355
 41
0.0
 71
     7
 72
     1
  1
E
  7
Text poznámky (ISO)
 73
     1
 44
1.0
  0
MTEXT
  5
17F
330
12C
100
AcDbEntity
  8
Rámeček (ISO)
100
AcDbMText
 10
585.1499197442782
 20
313.2500000298023
 30
0.0
 40
3.499999940395355
 41
0.0
 71
     7
 72
     1
  1
E
  7
Text poznámky (ISO)
 73
     1
 44
1.0
  0
MTEXT
  5
180
330
12C
100
AcDbEntity
  8
Rámeček (ISO)
100
AcDbMText
 10
6.944936015154347
 20
383.2500000298023
 30
0.0
 40
3.499999940395355
 41
0.0
 71
     7
 72
     1
  1
F
  7
Text poznámky (ISO)
 73
     1
 44
1.0
  0
MTEXT
  5
181
330
12C
100
AcDbEntity
  8
Rámeček (ISO)
100
AcDbMText
 10
585.2449359555496
 20
383.2500000298023
 30
0.0
 40
3.499999940395355
 41
0.0
 71
     7
 72
     1
  1
F
  7
Text poznámky (ISO)
 73
     1
 44
1.0
  0
ENDBLK
  5
12E
330
12C
100
AcDbEntity
  8
0
100
AcDbBlockEnd
  0
BLOCK
  5
184
330
183
100
AcDbEntity
  8
0
100
AcDbBlockBegin
  2
Rohová razítka ACO-razitko
 70
     2
 10
0.0
 20
0.0
 30
0.0
  3
Rohová razítka ACO-razitko
  1

  0
LINE
  5
186
330
183
100
AcDbEntity
  8
KOPF
  6
Continuous
370
    25
100
AcDbLine
 10
264.0
 20
94.01203200000001
 30
0.0
 11
264.0
 21
74.00000000000003
 31
0.0
  0
LINE
  5
187
330
183
100
AcDbEntity
  8
KOPF
  6
Continuous
370
    25
100
AcDbLine
 10
264.0
 20
94.01203200000001
 30
0.0
 11
264.0
 21
74.00000000000003
 31
0.0
  0
CIRCLE
  5
188
330
183
100
AcDbEntity
  8
TEXT50
  6
Continuous
370
    25
100
AcDbCircle
 10
247.5054493575618
 20
83.04852954632861
 30
0.0
 40
1.979948192651899
  0
LINE
  5
189
330
183
100
AcDbEntity
  8
TEXT50
  6
Continuous
370
    25
100
AcDbLine
 10
262.4910595621649
 20
85.02847773898061
 30
0.0
 11
262.4910595621649
 21
81.06858135367653
 31
0.0
  0
LINE
  5
18A
330
183
100
AcDbEntity
  8
TEXT50
  6
Continuous
370
    25
100
AcDbLine
 10
253.9413433929653
 20
87.07146289795376
 30
0.0
 11
253.9413433929653
 21
79.02559619470344
 31
0.0
  0
LINE
  5
18B
330
183
100
AcDbEntity
  8
TEXT50
  6
Continuous
370
    25
100
AcDbLine
 10
262.4910595621649
 20
85.02847773898061
 30
0.0
 11
253.9413433929653
 21
87.07146289795376
 31
0.0
  0
CIRCLE
  5
18C
330
183
100
AcDbEntity
  8
TEXT50
  6
Continuous
370
    25
100
AcDbCircle
 10
247.5054493575618
 20
83.04852954632861
 30
0.0
 40
4.022933351625178
  0
LINE
  5
18D
330
183
100
AcDbEntity
  8
TEXT50
  6
Continuous
370
    25
100
AcDbLine
 10
253.9413433929653
 20
79.02559619470344
 30
0.0
 11
262.4910595621649
 21
81.06858135367653
 31
0.0
  0
CIRCLE
  5
18E
330
183
100
AcDbEntity
  8
TEXT35
  6
Continuous
370
    25
100
AcDbCircle
 10
221.0936673107637
 20
101.9131972309053
 30
0.0
 40
2.281499999999998
  0
CIRCLE
  5
18F
330
183
100
AcDbEntity
  8
TEXT35
  6
Continuous
370
    25
100
AcDbCircle
 10
221.0936673107637
 20
101.9131972309053
 30
0.0
 40
1.579499999999999
  0
ARC
  5
190
330
183
100
AcDbEntity
  8
TEXT35
  6
Continuous
370
    25
100
AcDbCircle
 10
214.6291610736662
 20
101.9131972309054
 30
0.0
 40
1.57950000000007
100
AcDbArc
 50
31.05580049908738
 51
329.9999999999987
  0
LINE
  5
191
330
183
100
AcDbEntity
  8
TEXT35
  6
Continuous
370
    25
100
AcDbLine
 10
215.9822639109751
 20
102.7280180465864
 30
0.0
 11
216.5902852082589
 21
103.0790593062462
 31
0.0
  0
ARC
  5
192
330
183
100
AcDbEntity
  8
TEXT35
  6
Continuous
370
    25
100
AcDbCircle
 10
214.6291610736662
 20
101.9131972309052
 30
0.0
 40
2.281500000000015
100
AcDbArc
 50
30.73091726592628
 51
330.0000000000017
  0
LINE
  5
193
330
183
100
AcDbEntity
  8
TEXT35
  6
Continuous
370
    25
100
AcDbLine
 10
216.6049980324005
 20
100.7724472309053
 30
0.0
 11
215.9970481989438
 21
101.1234472309053
 31
0.0
  0
LINE
  5
194
330
183
100
AcDbEntity
  8
TEXT35
  6
Continuous
370
    25
100
AcDbLine
 10
211.8347763192409
 20
111.6789659312995
 30
0.0
 11
211.8347763192409
 21
98.44416361029551
 31
0.0
  0
LINE
  5
195
330
183
100
AcDbEntity
  8
TEXT35
  6
Continuous
370
    25
100
AcDbLine
 10
211.8347763192409
 20
98.44416361029551
 30
0.0
 11
217.4235458280916
 21
98.44416361029551
 31
0.0
  0
LINE
  5
196
330
183
100
AcDbEntity
  8
TEXT35
  6
Continuous
370
    25
100
AcDbLine
 10
217.4235458280916
 20
98.44416361029551
 30
0.0
 11
217.4235458280916
 21
111.6789659312995
 31
0.0
  0
LINE
  5
197
330
183
100
AcDbEntity
  8
TEXT35
  6
Continuous
370
    25
100
AcDbLine
 10
217.4235458280916
 20
111.6789659312995
 30
0.0
 11
211.8347763192409
 21
111.6789659312995
 31
0.0
  0
LINE
  5
198
330
183
100
AcDbEntity
  8
TEXT35
  6
Continuous
370
    25
100
AcDbLine
 10
223.888052065189
 20
111.6789659312995
 30
0.0
 11
223.888052065189
 21
98.44416361029551
 31
0.0
  0
LINE
  5
199
330
183
100
AcDbEntity
  8
TEXT35
  6
Continuous
370
    25
100
AcDbLine
 10
223.888052065189
 20
98.44416361029551
 30
0.0
 11
218.2992825563384
 21
98.44416361029551
 31
0.0
  0
LINE
  5
19A
330
183
100
AcDbEntity
  8
TEXT35
  6
Continuous
370
    25
100
AcDbLine
 10
218.2992825563384
 20
98.44416361029551
 30
0.0
 11
218.2992825563384
 21
111.6789659312995
 31
0.0
  0
LINE
  5
19B
330
183
100
AcDbEntity
  8
TEXT35
  6
Continuous
370
    25
100
AcDbLine
 10
218.2992825563384
 20
111.6789659312995
 30
0.0
 11
223.888052065189
 21
111.6789659312995
 31
0.0
  0
ARC
  5
19C
330
183
100
AcDbEntity
  8
TEXT35
  6
Continuous
370
    25
100
AcDbCircle
 10
211.499154836569
 20
99.57623034270234
 30
0.0
 40
4.914000000000251
100
AcDbArc
 50
172.305837035409
 51
179.7113029220757
  0
LINE
  5
19D
330
183
100
AcDbEntity
  8
TEXT35
  6
Continuous
370
    25
100
AcDbLine
 10
206.6293963427935
 20
100.2341423522474
 30
0.0
 11
209.6999133303443
 21
100.2341423522474
 31
0.0
  0
ARC
  5
19E
330
183
100
AcDbEntity
  8
TEXT35
  6
Continuous
370
    25
100
AcDbCircle
 10
204.8301548365688
 20
99.57623034270323
 30
0.0
 40
4.914000000000132
100
AcDbArc
 50
0.2886970779141535
 51
7.694162964580896
  0
LINE
  5
19F
330
183
100
AcDbEntity
  8
TEXT35
  6
Continuous
370
    25
100
AcDbLine
 10
209.7440924568018
 20
99.60099048123304
 30
0.0
 11
210.4461002543538
 21
99.60099048123304
 31
0.0
  0
ARC
  5
1A0
330
183
100
AcDbEntity
  8
TEXT35
  6
Continuous
370
    25
100
AcDbCircle
 10
204.8301548365688
 20
99.5762303427033
 30
0.0
 40
5.616000000000016
100
AcDbArc
 50
0.2526096926473688
 51
53.57642635766914
  0
ARC
  5
1A1
330
183
100
AcDbEntity
  8
TEXT35
  6
Continuous
370
    25
100
AcDbCircle
 10
211.4991548365688
 20
99.57623034270323
 30
0.0
 40
5.616000000000023
100
AcDbArc
 50
126.4235736423304
 51
179.7473903073512
  0
LINE
  5
1A2
330
183
100
AcDbEntity
  8
TEXT35
  6
Continuous
370
    25
100
AcDbLine
 10
205.8832094187838
 20
99.60099048123304
 30
0.0
 11
206.5852172163358
 21
99.60099048123304
 31
0.0
  0
LINE
  5
1A3
330
183
100
AcDbEntity
  8
TEXT35
  6
Continuous
370
    25
100
AcDbLine
 10
205.3702700821435
 20
111.6789659312995
 30
0.0
 11
205.3702700821435
 21
98.44416361029551
 31
0.0
  0
LINE
  5
1A4
330
183
100
AcDbEntity
  8
TEXT35
  6
Continuous
370
    25
100
AcDbLine
 10
205.3702700821435
 20
98.44416361029551
 30
0.0
 11
210.9590395909941
 21
98.44416361029551
 31
0.0
  0
LINE
  5
1A5
330
183
100
AcDbEntity
  8
TEXT35
  6
Continuous
370
    25
100
AcDbLine
 10
210.9590395909941
 20
98.44416361029551
 30
0.0
 11
210.9590395909941
 21
111.6789659312995
 31
0.0
  0
LINE
  5
1A6
330
183
100
AcDbEntity
  8
TEXT35
  6
Continuous
370
    25
100
AcDbLine
 10
210.9590395909941
 20
111.6789659312995
 30
0.0
 11
205.3702700821435
 21
111.6789659312995
 31
0.0
  0
ARC
  5
1A7
330
183
100
AcDbEntity
  8
TEXT35
  6
Continuous
370
    25
100
AcDbCircle
 10
204.830154836569
 20
99.57623034270341
 30
0.0
 40
4.913999999999818
100
AcDbArc
 50
16.0658750272321
 51
47.26788995739759
  0
LINE
  5
1A8
330
183
100
AcDbEntity
  8
TEXT35
  6
Continuous
370
    25
100
AcDbLine
 10
209.5522343918387
 20
100.9361423522474
 30
0.0
 11
206.7770752812989
 21
100.9361423522474
 31
0.0
  0
ARC
  5
1A9
330
183
100
AcDbEntity
  8
TEXT35
  6
Continuous
370
    25
100
AcDbCircle
 10
211.4991548365683
 20
99.57623034270341
 30
0.0
 40
4.913999999999566
100
AcDbArc
 50
132.7321100425983
 51
163.9341249727667
  0
LINE
  5
1AA
330
183
100
AcDbEntity
  8
Nadpis (ISO)
100
AcDbLine
 10
299.0
 20
114.0
 30
0.0
 11
299.0
 21
45.0
 31
0.0
  0
LINE
  5
1AB
330
183
100
AcDbEntity
  8
Nadpis (ISO)
100
AcDbLine
 10
299.0
 20
45.0
 30
0.0
 11
117.0
 21
44.99999999999999
 31
0.0
  0
LINE
  5
1AC
330
183
100
AcDbEntity
  8
Nadpis (ISO)
100
AcDbLine
 10
117.0
 20
44.99999999999999
 30
0.0
 11
117.0
 21
114.0
 31
0.0
  0
LINE
  5
1AD
330
183
100
AcDbEntity
  8
Nadpis (ISO)
100
AcDbLine
 10
117.0
 20
114.0
 30
0.0
 11
299.0
 21
114.0
 31
0.0
  0
LINE
  5
1AE
330
183
100
AcDbEntity
  8
Nadpis (ISO)
100
AcDbLine
 10
199.0
 20
114.0
 30
0.0
 11
199.0
 21
93.99999999999998
 31
0.0
  0
LINE
  5
1AF
330
183
100
AcDbEntity
  8
KOPF
100
AcDbLine
 10
199.0
 20
104.0
 30
0.0
 11
117.0
 21
104.0
 31
0.0
  0
LINE
  5
1B0
330
183
100
AcDbEntity
  8
Nadpis (ISO)
100
AcDbLine
 10
199.0
 20
93.99999999999998
 30
0.0
 11
117.0
 21
93.99999999999996
 31
0.0
  0
LINE
  5
1B1
330
183
100
AcDbEntity
  8
KOPF
100
AcDbLine
 10
158.0
 20
93.99999999999998
 30
0.0
 11
158.0
 21
114.0
 31
0.0
  0
LINE
  5
1B2
330
183
100
AcDbEntity
  8
Nadpis (ISO)
100
AcDbLine
 10
199.0
 20
93.99999999999998
 30
0.0
 11
299.0
 21
93.99999999999998
 31
0.0
  0
LINE
  5
1B3
330
183
100
AcDbEntity
  8
Nadpis (ISO)
100
AcDbLine
 10
216.0
 20
94.00000000000003
 30
0.0
 11
216.0
 21
44.99999999999999
 31
0.0
  0
LINE
  5
1B4
330
183
100
AcDbEntity
  8
Nadpis (ISO)
100
AcDbLine
 10
299.0
 20
74.00000000000004
 30
0.0
 11
117.0
 21
73.99999999999998
 31
0.0
  0
LINE
  5
1B5
330
183
100
AcDbEntity
  8
Nadpis (ISO)
100
AcDbLine
 10
186.0
 20
94.0
 30
0.0
 11
186.0
 21
74.00000000000002
 31
0.0
  0
LINE
  5
1B6
330
183
100
AcDbEntity
  8
KOPF
100
AcDbLine
 10
137.0
 20
93.99999999999998
 30
0.0
 11
137.0
 21
74.0
 31
0.0
  0
LINE
  5
1B7
330
183
100
AcDbEntity
  8
KOPF
100
AcDbLine
 10
162.0
 20
93.99999999999998
 30
0.0
 11
162.0
 21
74.0
 31
0.0
  0
LINE
  5
1B8
330
183
100
AcDbEntity
  8
KOPF
100
AcDbLine
 10
186.0
 20
84.0
 30
0.0
 11
117.0
 21
83.99999999999996
 31
0.0
  0
LINE
  5
1B9
330
183
100
AcDbEntity
  8
KOPF
100
AcDbLine
 10
186.0
 20
79.0
 30
0.0
 11
117.0
 21
78.99999999999997
 31
0.0
  0
LINE
  5
1BA
330
183
100
AcDbEntity
  8
KOPF
100
AcDbLine
 10
186.0
 20
89.0
 30
0.0
 11
117.0
 21
88.99999999999996
 31
0.0
  0
LINE
  5
1BB
330
183
100
AcDbEntity
  8
KOPF
100
AcDbLine
 10
216.0
 20
50.0
 30
0.0
 11
299.0
 21
50.0
 31
0.0
  0
LINE
  5
1BC
330
183
100
AcDbEntity
  8
Nadpis (ISO)
100
AcDbLine
 10
216.0
 20
55.0
 30
0.0
 11
299.0
 21
55.0
 31
0.0
  0
LINE
  5
1BD
330
183
100
AcDbEntity
  8
KOPF
100
AcDbLine
 10
238.0000000000001
 20
93.99999999999998
 30
0.0
 11
238.0000000000001
 21
74.00000000000003
 31
0.0
  0
LINE
  5
1BE
330
183
100
AcDbEntity
  8
KOPF
100
AcDbLine
 10
238.0000000000001
 20
84.00000000000003
 30
0.0
 11
216.0
 21
84.00000000000003
 31
0.0
  0
LINE
  5
1BF
330
183
100
AcDbEntity
  8
Nadpis (ISO)
100
AcDbLine
 10
287.0
 20
74.00000000000004
 30
0.0
 11
287.0
 21
55.0
 31
0.0
  0
LINE
  5
1C0
330
183
100
AcDbEntity
  8
KOPF
100
AcDbLine
 10
289.0
 20
50.0
 30
0.0
 11
289.0
 21
45.0
 31
0.0
  0
LINE
  5
1C1
330
183
100
AcDbEntity
  8
Nadpis (ISO)
100
AcDbLine
 10
260.9160465310349
 20
50.0
 30
0.0
 11
260.9160465310349
 21
45.0
 31
0.0
  0
TEXT
  5
1C3
330
183
100
AcDbEntity
  8
Viditelná tenká (ISO)
100
AcDbText
 10
266.0
 20
84.97994933403729
 30
0.0
 40
1.539999991655349
  1
zum Zweck anderweitiger Benutzung
 41
0.7999999523162842
  7
Styl textu62
100
AcDbText
  0
TEXT
  5
1C5
330
183
100
AcDbEntity
  8
Viditelná tenká (ISO)
100
AcDbText
 10
266.0
 20
82.63814072439631
 30
0.0
 40
1.539999991655349
  1
mitgeteilt werden und bleibt unser
 41
0.7999999523162842
  7
Styl textu62
100
AcDbText
  0
TEXT
  5
1C6
330
183
100
AcDbEntity
  8
Viditelná tenká (ISO)
100
AcDbText
 10
266.0
 20
87.26106040199921
 30
0.0
 40
1.539999991655349
  1
noch dritten Personen, insbesondere
 41
0.7999999523162842
  7
Styl textu62
100
AcDbText
  0
TEXT
  5
1C7
330
183
100
AcDbEntity
  8
Viditelná tenká (ISO)
100
AcDbText
 10
266.0
 20
89.6282322587214
 30
0.0
 40
1.539999991655349
  1
Diese Zeichnung darf weder kopiert
 41
0.7999999523162842
  7
Styl textu62
100
AcDbText
  0
TEXT
  5
1C8
330
183
100
AcDbEntity
  8
Viditelná tenká (ISO)
100
AcDbText
 10
266.0
 20
80.37532604459597
 30
0.0
 40
1.539999991655349
  1
Eigentum.
 41
0.7999999523162842
  7
Styl textu62
100
AcDbText
  0
TEXT
  5
1CA
330
183
100
AcDbEntity
  8
Viditelná tenká (ISO)
100
AcDbText
 10
241.877559521167
 20
90.82431699999998
 30
0.0
 40
2.000000029802321
  1
Projektion: ISO-E
 41
0.7999999523162842
  7
Styl textu58
100
AcDbText
  0
TEXT
  5
1CC
330
183
100
AcDbEntity
  8
Viditelná tenká (ISO)
100
AcDbText
 10
266.0
 20
77.30982488917627
 30
0.0
 40
1.539999991655349
  1
Schutzvermerk nach DIN 34 beachten
 41
0.75
  7
Styl textu63
100
AcDbText
  0
TEXT
  5
1CD
330
183
100
AcDbEntity
  8
Viditelná tenká (ISO)
100
AcDbText
 10
236.2487793316645
 20
99.38243367792949
 30
0.0
 40
2.000000029802321
  1
582 22 Přibyslav
 41
0.7999999523162842
  7
Styl textu58
100
AcDbText
  0
TEXT
  5
1CF
330
183
100
AcDbEntity
  8
Viditelná tenká (ISO)
100
AcDbText
 10
261.6984261202779
 20
99.57784645000472
 30
0.0
 40
2.099999934434889
  1
Fax: 0451 / 482529
 41
0.7000000476837159
  7
Styl textu72
100
AcDbText
  0
TEXT
  5
1D0
330
183
100
AcDbEntity
  8
Viditelná tenká (ISO)
100
AcDbText
 10
236.5351154208068
 20
103.0087314099309
 30
0.0
 40
2.000000029802321
  1
Havličkova 260
 41
0.7999999523162842
  7
Styl textu58
100
AcDbText
  0
TEXT
  5
1D2
330
183
100
AcDbEntity
  8
TEXT35
100
AcDbText
 10
235.9801354774567
 20
108.2018007493417
 30
0.0
 40
3.000000119209288
  1
ACO Stavebni prvky k.s
 41
0.7999999523162842
  7
Styl textu75
100
AcDbText
  0
TEXT
  5
1D3
330
183
100
AcDbEntity
  8
Viditelná tenká (ISO)
100
AcDbText
 10
261.6456899832647
 20
102.9064533471121
 30
0.0
 40
2.099999934434889
  1
Tel.: 0451 / 491660
 41
0.7000000476837159
  7
Styl textu72
100
AcDbText
  0
MTEXT
  5
1D4
330
183
100
AcDbEntity
  8
Viditelná tenká (ISO)
100
AcDbMText
 10
217.3570092483237
 20
73.27889989032858
 30
0.0
 40
2.000000029802321
 41
0.0
 71
     1
 72
     1
  1
\fArial|b0|i0;\H2.0000;Zeichnung Nr.
  7
Text poznámky (ISO)
 73
     1
 44
1.0
  0
MTEXT
  5
1D5
330
183
100
AcDbEntity
  8
Viditelná tenká (ISO)
100
AcDbMText
 10
287.9433731401013
 20
72.84063462326732
 30
0.0
 40
2.000000029802321
 41
0.0
 71
     1
 72
     1
  1
\fArial|b0|i0;\H2.0000;Index
  7
Text poznámky (ISO)
 73
     1
 44
1.0
  0
MTEXT
  5
1D6
330
183
100
AcDbEntity
  8
Viditelná tenká (ISO)
100
AcDbMText
 10
217.1230582952341
 20
52.63510416823109
 30
0.0
 40
2.000000029802321
 41
0.0
 71
     1
 72
     1
  1
\fArial|b0|i0;\H2.0000;Ersatz fur\PErsatz durch
  7
Text poznámky (ISO)
 73
     2
 44
0.9442214369773862
  0
MTEXT
  5
1D7
330
183
100
AcDbEntity
  8
Viditelná tenká (ISO)
100
AcDbMText
 10
188.9161081342839
 20
93.0
 30
0.0
 40
2.000000029802321
 41
0.0
 71
     1
 72
     1
  1
\fArial|b0|i0;\H2.0000;Massstab
  7
Text poznámky (ISO)
 73
     1
 44
1.0
  0
MTEXT
  5
1D8
330
183
100
AcDbEntity
  8
Viditelná tenká (ISO)
100
AcDbMText
 10
217.0
 20
93.0
 30
0.0
 40
2.000000029802321
 41
0.0
 71
     1
 72
     1
  1
\fArial|b0|i0;\H2.0000;Masseinheit
  7
Text poznámky (ISO)
 73
     1
 44
1.0
  0
MTEXT
  5
1D9
330
183
100
AcDbEntity
  8
Viditelná tenká (ISO)
100
AcDbMText
 10
118.0
 20
113.0
 30
0.0
 40
2.000000029802321
 41
0.0
 71
     1
 72
     1
  1
\fArial|b0|i0;\H2.0000;Werkstoff.
  7
Text poznámky (ISO)
 73
     1
 44
1.0
  0
MTEXT
  5
1DA
330
183
100
AcDbEntity
  8
Viditelná tenká (ISO)
100
AcDbMText
 10
159.0
 20
113.0
 30
0.0
 40
2.000000029802321
 41
0.0
 71
     1
 72
     1
  1
\fArial|b0|i0;\H2.0000;Hmotnost
  7
Text poznámky (ISO)
 73
     1
 44
1.0
  0
MTEXT
  5
1DB
330
183
100
AcDbEntity
  8
Viditelná tenká (ISO)
100
AcDbMText
 10
118.0
 20
103.0
 30
0.0
 40
2.000000029802321
 41
0.0
 71
     1
 72
     1
  1
\fArial|b0|i0;\H2.0000;zul.Abweich.
  7
Text poznámky (ISO)
 73
     1
 44
1.0
  0
MTEXT
  5
1DC
330
183
100
AcDbEntity
  8
Viditelná tenká (ISO)
100
AcDbMText
 10
159.0
 20
103.0
 30
0.0
 40
2.000000029802321
 41
0.0
 71
     1
 72
     1
  1
\fArial|b0|i0;\H2.0000;Oberflache
  7
Text poznámky (ISO)
 73
     1
 44
1.0
  0
MTEXT
  5
1DD
330
183
100
AcDbEntity
  8
Viditelná tenká (ISO)
100
AcDbMText
 10
118.2064366962235
 20
87.52498463872976
 30
0.0
 40
2.000000029802321
 41
0.0
 71
     1
 72
     1
  1
\fArial|b0|i0;\H2.0000;Gezeichnet
  7
Text poznámky (ISO)
 73
     1
 44
1.0
  0
MTEXT
  5
1DE
330
183
100
AcDbEntity
  8
Viditelná tenká (ISO)
100
AcDbMText
 10
118.2064366962235
 20
82.79398756785594
 30
0.0
 40
2.000000029802321
 41
0.0
 71
     1
 72
     1
  1
\fArial|b0|i0;\H2.0000;Gepruft
  7
Text poznámky (ISO)
 73
     1
 44
1.0
  0
MTEXT
  5
1DF
330
183
100
AcDbEntity
  8
Viditelná tenká (ISO)
100
AcDbMText
 10
118.2064366962235
 20
77.59713566222233
 30
0.0
 40
2.000000029802321
 41
0.0
 71
     1
 72
     1
  1
\fArial|b0|i0;\H2.0000;Update
  7
Text poznámky (ISO)
 73
     1
 44
1.0
  0
MTEXT
  5
1E0
330
183
100
AcDbEntity
  8
Viditelná tenká (ISO)
100
AcDbMText
 10
143.0
 20
93.0
 30
0.0
 40
2.000000029802321
 41
0.0
 71
     1
 72
     1
  1
\fArial|b0|i0;\H2.0000;Datum
  7
Text poznámky (ISO)
 73
     1
 44
1.0
  0
MTEXT
  5
1E1
330
183
100
AcDbEntity
  8
Viditelná tenká (ISO)
100
AcDbMText
 10
170.0
 20
93.0
 30
0.0
 40
2.000000029802321
 41
0.0
 71
     1
 72
     1
  1
\fArial|b0|i0;\H2.0000;Name
  7
Text poznámky (ISO)
 73
     1
 44
1.0
  0
MTEXT
  5
1E2
102
{ACAD_XDICTIONARY
360
2718
102
}
330
183
100
AcDbEntity
  8
Nadpis (ISO)
100
AcDbMText
 10
118.0
 20
71.0
 30
0.0
 40
3.499999940395355
 41
0.0
 71
     1
 72
     1
  1
Effidrain dvoud\U+00EDln\U+00E1  157/DN70 svisl\U+00E1 12mm p\U+0159\U+00EDruba bez ZU
  7
Text poznámky (ISO)
 73
     1
 44
1.0
  0
MTEXT
  5
1E3
330
183
100
AcDbEntity
  8
Nadpis (ISO)
100
AcDbMText
 10
138.6542642016321
 20
87.78242706242744
 30
0.0
 40
2.000000029802321
 41
0.0
 71
     1
 72
     1
  1
\fTahoma|b0|i0;\H2.0000;11.8.2009
  7
Text poznámky (ISO)
 73
     1
 44
1.0
  0
MTEXT
  5
1E4
330
183
100
AcDbEntity
  8
Nadpis (ISO)
100
AcDbMText
 10
118.9147684950603
 20
98.79632878646518
 30
0.0
 40
3.499999940395355
 41
0.0
 71
     1
 72
     1
  1
ISO 2768-m
  7
Text poznámky (ISO)
 73
     1
 44
1.0
  0
MTEXT
  5
1E5
330
183
100
AcDbEntity
  8
Nadpis (ISO)
100
AcDbMText
 10
162.5831033854
 20
99.20167780246003
 30
0.0
 40
3.499999940395355
 41
0.0
 71
     1
 72
     1
  1
DIN ISO 1302
  7
Text poznámky (ISO)
 73
     1
 44
1.0
  0
MTEXT
  5
1E6
330
183
100
AcDbEntity
  8
Nadpis (ISO)
100
AcDbMText
 10
262.4743825961981
 20
49.17778241269704
 30
0.0
 40
3.499999940395355
 41
0.0
 71
     1
 72
     1
  1
\fArial|b0|i0;\H3.5000;List:\fArial|b0|i0;\H3.5000;1 \fArial|b0|i0;\H3.5000;/\fArial|b0|i0;\H3.5000;1 
  7
Text poznámky (ISO)
 73
     1
 44
1.0
  0
MTEXT
  5
1E7
102
{ACAD_XDICTIONARY
360
271A
102
}
330
183
100
AcDbEntity
  8
Nadpis (ISO)
100
AcDbMText
 10
159.4396788094336
 20
109.2360383310952
 30
0.0
 40
3.499999940395355
 41
29.10098367733216
 71
     1
 72
     1
  1
Nen\U+00ED k dispozici
  7
Text poznámky (ISO)
 73
     2
 44
0.9878841638565063
  0
ATTDEF
  5
1E9
102
{ACAD_XDICTIONARY
360
2026
102
}
330
183
100
AcDbEntity
  8
Nadpis (ISO)
100
AcDbText
 10
287.4393862219839
 20
62.4856753668063
 30
0.0
 40
3.499999940395355
  1
000
  7
Styl textu9
100
AcDbAttributeDefinition
  3
ČÍSLO REVIZE
  2
ČÍSLO_REVIZE_001
 70
     0
  0
ATTDEF
  5
1ED
102
{ACAD_XDICTIONARY
360
2029
102
}
330
183
100
AcDbEntity
  8
Nadpis (ISO)
100
AcDbText
 10
289.7753402652471
 20
46.32882590415592
 30
0.0
 40
2.000000029802321
  1
A2
  7
Styl textu40
100
AcDbAttributeDefinition
  3
Sheet Size
  2
Sheet_Size_001
 70
     0
  0
ATTDEF
  5
1EE
102
{ACAD_XDICTIONARY
360
202C
102
}
330
183
100
AcDbEntity
  8
Nadpis (ISO)
100
AcDbText
 10
230.1305737493188
 20
51.10091360311345
 30
0.0
 40
2.000000029802321
  1
C:\Inventor_DATA\Projekty\Guly\Effidrain\Effidrain sestava dvoudílná  157 svislá\408048.iam
  7
Styl textu40
100
AcDbAttributeDefinition
  3
FILENAME AND PATH
  2
FILENAME_AND_PATH_001
 70
     0
  0
ATTDEF
  5
1EF
102
{ACAD_XDICTIONARY
360
202F
102
}
330
183
100
AcDbEntity
  8
Nadpis (ISO)
100
AcDbText
 10
217.9059771674843
 20
62.42008065196634
 30
0.0
 40
3.499999940395355
  1
408048
  7
Text poznámky (ISO)
100
AcDbAttributeDefinition
  3
PART NUMBER
  2
PART_NUMBER_001
 70
     0
  0
ATTDEF
  5
1F0
102
{ACAD_XDICTIONARY
360
2032
102
}
330
183
100
AcDbEntity
  8
Nadpis (ISO)
100
AcDbText
 10
118.0
 20
56.50000005960464
 30
0.0
 40
3.499999940395355
  1

  7
Text poznámky (ISO)
 11
118.0
 21
60.0
 31
0.0
100
AcDbAttributeDefinition
  3
PROJECT
  2
PROJECT
 70
     0
 74
     3
  0
ATTDEF
  5
1F2
102
{ACAD_XDICTIONARY
360
2035
102
}
330
183
100
AcDbEntity
  8
Nadpis (ISO)
100
AcDbText
 10
117.8119543349687
 20
47.73407435882505
 30
0.0
 40
6.99999988079071
  1
408048
  7
Styl textu94
100
AcDbAttributeDefinition
  3
SKLADOVÉ ČÍSLO
  2
SKLADOVÉ_ČÍSLO_001
 70
     0
  0
ATTDEF
  5
1F3
102
{ACAD_XDICTIONARY
360
2038
102
}
330
183
100
AcDbEntity
  8
Nadpis (ISO)
100
AcDbText
 10
117.5939056808251
 20
105.1756658592857
 30
0.0
 40
3.499999940395355
  1

  7
Text poznámky (ISO)
 11
117.5939056808251
 21
108.6756657996811
 31
0.0
100
AcDbAttributeDefinition
  3
MATERIAL
  2
MATERIAL
 70
     0
 74
     3
  0
ATTDEF
  5
1F4
102
{ACAD_XDICTIONARY
360
203B
102
}
330
183
100
AcDbEntity
  8
Nadpis (ISO)
100
AcDbText
 10
165.0470513532835
 20
85.78242703262512
 30
0.0
 40
2.000000029802321
  1
pklepetko
  7
Styl textu40
100
AcDbAttributeDefinition
  3
AUTHOR
  2
AUTHOR_001
 70
     0
  0
ATTDEF
  5
1F5
102
{ACAD_XDICTIONARY
360
203E
102
}
330
183
100
AcDbEntity
  8
Nadpis (ISO)
100
AcDbText
 10
189.1855699863978
 20
82.50038826992808
 30
0.0
 40
3.499999940395355
  1

  7
Text poznámky (ISO)
 11
189.1855699863978
 21
86.00038821032343
 31
0.0
100
AcDbAttributeDefinition
  3
VS_First
  2
VS_First
 70
     0
 74
     3
  0
ENDBLK
  5
185
330
183
100
AcDbEntity
  8
0
100
AcDbBlockEnd
  0
BLOCK
  5
195B
330
195A
100
AcDbEntity
  8
0
100
AcDbBlockBegin
  2
KUSOVNÍK
 70
     0
 10
0.0
 20
0.0
 30
0.0
  3
KUSOVNÍK
  1

  0
LINE
  5
195D
330
195A
100
AcDbEntity
  8
Značka (ISO)
100
AcDbLine
 10
584.0
 20
136.1383107721806
 30
0.0
 11
348.4078945028656
 21
136.1383107721806
 31
0.0
  0
LINE
  5
195E
330
195A
100
AcDbEntity
  8
Značka (ISO)
100
AcDbLine
 10
584.0
 20
136.1383107721806
 30
0.0
 11
584.0
 21
129.7896095752717
 31
0.0
  0
LINE
  5
195F
330
195A
100
AcDbEntity
  8
Značka (ISO)
100
AcDbLine
 10
348.4078945028656
 20
136.1383107721806
 30
0.0
 11
348.4078945028656
 21
129.7896095752717
 31
0.0
  0
MTEXT
  5
1960
102
{ACAD_XDICTIONARY
360
271C
102
}
330
195A
100
AcDbEntity
  8
Značka (ISO)
100
AcDbMText
 10
455.6605688399021
 20
130.5142848223448
 30
0.0
 40
3.499999940395355
 41
0.0
 71
     7
 72
     1
  1
KUSOVN\U+00CDK
  7
Text poznámky (DIN)
 73
     1
 44
1.0
  0
LINE
  5
1962
330
195A
100
AcDbEntity
  8
Značka (ISO)
100
AcDbLine
 10
584.0
 20
129.7896095752717
 30
0.0
 11
348.4078945028656
 21
129.7896095752717
 31
0.0
  0
LINE
  5
1963
330
195A
100
AcDbEntity
  8
Značka (ISO)
100
AcDbLine
 10
584.0
 20
129.7896095752717
 30
0.0
 11
584.0
 21
123.4409083783627
 31
0.0
  0
MTEXT
  5
1964
102
{ACAD_XDICTIONARY
360
271E
102
}
330
195A
100
AcDbEntity
  8
Značka (ISO)
100
AcDbMText
 10
547.1327667580442
 20
124.1655836254359
 30
0.0
 40
3.499999940395355
 41
0.0
 71
     7
 72
     1
  1
MATERI\U+00C1L
  7
Text poznámky (DIN)
 73
     1
 44
1.0
  0
LINE
  5
1965
330
195A
100
AcDbEntity
  8
Značka (ISO)
100
AcDbLine
 10
530.6509916254661
 20
129.7896095752717
 30
0.0
 11
530.6509916254661
 21
123.4409083783627
 31
0.0
  0
MTEXT
  5
1966
330
195A
100
AcDbEntity
  8
Značka (ISO)
100
AcDbMText
 10
506.8832628091961
 20
124.8652590066195
 30
0.0
 40
3.499999940395355
 41
0.0
 71
     7
 72
     1
  1
HMOTNOST
  7
Text poznámky (DIN)
 73
     1
 44
1.0
  0
LINE
  5
1967
330
195A
100
AcDbEntity
  8
Značka (ISO)
100
AcDbLine
 10
505.2509916254662
 20
129.7896095752717
 30
0.0
 11
505.2509916254662
 21
123.4409083783627
 31
0.0
  0
MTEXT
  5
1968
102
{ACAD_XDICTIONARY
360
2720
102
}
330
195A
100
AcDbEntity
  8
Značka (ISO)
100
AcDbMText
 10
481.6585874876172
 20
124.1655836254359
 30
0.0
 40
3.499999940395355
 41
0.0
 71
     7
 72
     1
  1
SKLADOV\U+00C9
  7
Text poznámky (DIN)
 73
     1
 44
1.0
  0
LINE
  5
1969
330
195A
100
AcDbEntity
  8
Značka (ISO)
100
AcDbLine
 10
479.8509916254661
 20
129.7896095752717
 30
0.0
 11
479.8509916254661
 21
123.4409083783627
 31
0.0
  0
MTEXT
  5
196A
330
195A
100
AcDbEntity
  8
Značka (ISO)
100
AcDbMText
 10
420.0792464653984
 20
124.8652590066195
 30
0.0
 40
3.499999940395355
 41
0.0
 71
     7
 72
     1
  1
POPIS
  7
Text poznámky (DIN)
 73
     1
 44
1.0
  0
LINE
  5
196B
330
195A
100
AcDbEntity
  8
Značka (ISO)
100
AcDbLine
 10
371.9462054836623
 20
129.7896095752717
 30
0.0
 11
371.9462054836623
 21
123.4409083783627
 31
0.0
  0
MTEXT
  5
196C
330
195A
100
AcDbEntity
  8
Značka (ISO)
100
AcDbMText
 10
365.751203799236
 20
124.8652590066195
 30
0.0
 40
3.499999940395355
 41
0.0
 71
     7
 72
     1
  1
KS
  7
Text poznámky (DIN)
 73
     1
 44
1.0
  0
LINE
  5
196D
330
195A
100
AcDbEntity
  8
Značka (ISO)
100
AcDbLine
 10
364.5488030302398
 20
129.7896095752717
 30
0.0
 11
364.5488030302398
 21
123.4409083783627
 31
0.0
  0
MTEXT
  5
196E
330
195A
100
AcDbEntity
  8
Značka (ISO)
100
AcDbMText
 10
349.6102952718617
 20
124.8652590066195
 30
0.0
 40
3.499999940395355
 41
0.0
 71
     7
 72
     1
  1
POZICE
  7
Text poznámky (DIN)
 73
     1
 44
1.0
  0
LINE
  5
196F
330
195A
100
AcDbEntity
  8
Značka (ISO)
100
AcDbLine
 10
348.4078945028656
 20
129.7896095752717
 30
0.0
 11
348.4078945028656
 21
123.4409083783627
 31
0.0
  0
MTEXT
  5
1970
330
195A
100
AcDbEntity
  8
Značka (ISO)
100
AcDbMText
 10
531.8533923944621
 20
118.5165578097105
 30
0.0
 40
3.499999940395355
 41
0.0
 71
     7
 72
     1
  1
AISI 304
  7
Text poznámky (DIN)
 73
     1
 44
1.0
  0
MTEXT
  5
1971
330
195A
100
AcDbEntity
  8
Značka (ISO)
100
AcDbMText
 10
506.450592387342
 20
117.4678565531969
 30
0.0
 40
3.499999940395355
 41
0.0
 71
     7
 72
     1
  1
1,384 kg
  7
Text poznámky (DIN)
 73
     1
 44
1.0
  0
MTEXT
  5
1972
330
195A
100
AcDbEntity
  8
Značka (ISO)
100
AcDbMText
 10
481.0533923944622
 20
118.5165578097105
 30
0.0
 40
3.499999940395355
 41
0.0
 71
     7
 72
     1
  1
E23590
  7
Text poznámky (DIN)
 73
     1
 44
1.0
  0
MTEXT
  5
1973
102
{ACAD_XDICTIONARY
360
2722
102
}
330
195A
100
AcDbEntity
  8
Značka (ISO)
100
AcDbMText
 10
373.1486062526585
 20
118.34285646379
 30
0.0
 40
3.499999940395355
 41
0.0
 71
     7
 72
     1
  1
Effidrai dvoud\U+00EDln\U+00E1  157 svisl\U+00E1
  7
Text poznámky (DIN)
 73
     1
 44
1.0
  0
MTEXT
  5
1974
330
195A
100
AcDbEntity
  8
Značka (ISO)
100
AcDbMText
 10
367.6721050337281
 20
118.5165578097105
 30
0.0
 40
3.499999940395355
 41
0.0
 71
     7
 72
     1
  1
1
  7
Text poznámky (DIN)
 73
     1
 44
1.0
  0
MTEXT
  5
1975
330
195A
100
AcDbEntity
  8
Značka (ISO)
100
AcDbMText
 10
355.9029495433297
 20
118.5165578097105
 30
0.0
 40
3.499999940395355
 41
0.0
 71
     7
 72
     1
  1
1
  7
Text poznámky (DIN)
 73
     1
 44
1.0
  0
LINE
  5
1976
330
195A
100
AcDbEntity
  8
Značka (ISO)
100
AcDbLine
 10
584.0
 20
123.4409083783627
 30
0.0
 11
348.4078945028656
 21
123.4409083783627
 31
0.0
  0
MTEXT
  5
1977
330
195A
100
AcDbEntity
  8
Značka (ISO)
100
AcDbMText
 10
531.5509916254661
 20
112.1678566128016
 30
0.0
 40
3.499999940395355
 41
0.0
 71
     7
 72
     1
  1
 
  7
Text poznámky (DIN)
 73
     1
 44
1.0
  0
MTEXT
  5
1978
330
195A
100
AcDbEntity
  8
Značka (ISO)
100
AcDbMText
 10
506.4533923944622
 20
111.119155356288
 30
0.0
 40
3.499999940395355
 41
0.0
 71
     7
 72
     1
  1
0,476 kg
  7
Text poznámky (DIN)
 73
     1
 44
1.0
  0
MTEXT
  5
1979
330
195A
100
AcDbEntity
  8
Značka (ISO)
100
AcDbMText
 10
481.0533923944622
 20
112.1678566128016
 30
0.0
 40
3.499999940395355
 41
0.0
 71
     7
 72
     1
  1
408205
  7
Text poznámky (DIN)
 73
     1
 44
1.0
  0
MTEXT
  5
197A
102
{ACAD_XDICTIONARY
360
2724
102
}
330
195A
100
AcDbEntity
  8
Značka (ISO)
100
AcDbMText
 10
373.1486062526585
 20
110.9454540103674
 30
0.0
 40
3.499999940395355
 41
0.0
 71
     7
 72
     1
  1
Effidrain dren\U+00E1\U+017En\U+00ED krou\U+017Eek komplet 157 + karton
  7
Text poznámky (DIN)
 73
     1
 44
1.0
  0
MTEXT
  5
197B
330
195A
100
AcDbEntity
  8
Značka (ISO)
100
AcDbMText
 10
367.6721050337281
 20
112.1678566128016
 30
0.0
 40
3.499999940395355
 41
0.0
 71
     7
 72
     1
  1
1
  7
Text poznámky (DIN)
 73
     1
 44
1.0
  0
MTEXT
  5
197C
330
195A
100
AcDbEntity
  8
Značka (ISO)
100
AcDbMText
 10
355.5567236006142
 20
112.1678566128016
 30
0.0
 40
3.499999940395355
 41
0.0
 71
     7
 72
     1
  1
2
  7
Text poznámky (DIN)
 73
     1
 44
1.0
  0
LINE
  5
197D
330
195A
100
AcDbEntity
  8
Značka (ISO)
100
AcDbLine
 10
584.0
 20
117.0922071814537
 30
0.0
 11
348.4078945028656
 21
117.0922071814537
 31
0.0
  0
MTEXT
  5
197E
330
195A
100
AcDbEntity
  8
Značka (ISO)
100
AcDbMText
 10
531.8533923944621
 20
105.8191554158926
 30
0.0
 40
3.499999940395355
 41
0.0
 71
     7
 72
     1
  1
PVC-U
  7
Text poznámky (DIN)
 73
     1
 44
1.0
  0
MTEXT
  5
197F
330
195A
100
AcDbEntity
  8
Značka (ISO)
100
AcDbMText
 10
506.4533923944622
 20
104.770454159379
 30
0.0
 40
3.499999940395355
 41
0.0
 71
     7
 72
     1
  1
0,042 kg
  7
Text poznámky (DIN)
 73
     1
 44
1.0
  0
MTEXT
  5
1980
330
195A
100
AcDbEntity
  8
Značka (ISO)
100
AcDbMText
 10
481.0533923944622
 20
105.8191554158926
 30
0.0
 40
3.499999940395355
 41
0.0
 71
     7
 72
     1
  1
NM 6701
  7
Text poznámky (DIN)
 73
     1
 44
1.0
  0
MTEXT
  5
1981
102
{ACAD_XDICTIONARY
360
2726
102
}
330
195A
100
AcDbEntity
  8
Značka (ISO)
100
AcDbMText
 10
373.1486062526585
 20
104.5967528134585
 30
0.0
 40
3.499999940395355
 41
0.0
 71
     7
 72
     1
  1
n\U+00E1vlek sunap-DN70
  7
Text poznámky (DIN)
 73
     1
 44
1.0
  0
MTEXT
  5
1982
330
195A
100
AcDbEntity
  8
Značka (ISO)
100
AcDbMText
 10
367.6721050337281
 20
105.8191554158926
 30
0.0
 40
3.499999940395355
 41
0.0
 71
     7
 72
     1
  1
1
  7
Text poznámky (DIN)
 73
     1
 44
1.0
  0
MTEXT
  5
1983
330
195A
100
AcDbEntity
  8
Značka (ISO)
100
AcDbMText
 10
355.5567236006142
 20
105.8191554158926
 30
0.0
 40
3.499999940395355
 41
0.0
 71
     7
 72
     1
  1
3
  7
Text poznámky (DIN)
 73
     1
 44
1.0
  0
LINE
  5
1984
330
195A
100
AcDbEntity
  8
Značka (ISO)
100
AcDbLine
 10
584.0
 20
110.7435059845448
 30
0.0
 11
348.4078945028656
 21
110.7435059845448
 31
0.0
  0
MTEXT
  5
1985
102
{ACAD_XDICTIONARY
360
2728
102
}
330
195A
100
AcDbEntity
  8
Značka (ISO)
100
AcDbMText
 10
531.8533923944621
 20
98.24805161654957
 30
0.0
 40
3.499999940395355
 41
0.0
 71
     7
 72
     1
  1
Pap\U+00EDr
  7
Text poznámky (DIN)
 73
     1
 44
1.0
  0
MTEXT
  5
1986
330
195A
100
AcDbEntity
  8
Značka (ISO)
100
AcDbMText
 10
506.4533923944622
 20
98.76915550529965
 30
0.0
 40
3.499999940395355
 41
0.0
 71
     7
 72
     1
  1
0,001
  7
Text poznámky (DIN)
 73
     1
 44
1.0
  0
MTEXT
  5
1987
330
195A
100
AcDbEntity
  8
Značka (ISO)
100
AcDbMText
 10
481.0533923944622
 20
99.47045421898373
 30
0.0
 40
3.499999940395355
 41
0.0
 71
     7
 72
     1
  1
91018
  7
Text poznámky (DIN)
 73
     1
 44
1.0
  0
MTEXT
  5
1988
102
{ACAD_XDICTIONARY
360
272A
102
}
330
195A
100
AcDbEntity
  8
Značka (ISO)
100
AcDbMText
 10
373.1486062526585
 20
98.24805161654957
 30
0.0
 40
3.499999940395355
 41
0.0
 71
     7
 72
     1
  1
Etiketa samolep\U+00EDc\U+00ED 80 x 17 st\U+0159\U+00EDbrn\U+00E1/\U+010Derven\U+00E1
  7
Text poznámky (DIN)
 73
     1
 44
1.0
  0
MTEXT
  5
1989
330
195A
100
AcDbEntity
  8
Značka (ISO)
100
AcDbMText
 10
367.1971795934313
 20
99.47045421898373
 30
0.0
 40
3.499999940395355
 41
0.0
 71
     7
 72
     1
  1
 
  7
Text poznámky (DIN)
 73
     1
 44
1.0
  0
MTEXT
  5
198A
330
195A
100
AcDbEntity
  8
Značka (ISO)
100
AcDbMText
 10
355.3813989221932
 20
99.47045421898373
 30
0.0
 40
3.499999940395355
 41
0.0
 71
     7
 72
     1
  1
4
  7
Text poznámky (DIN)
 73
     1
 44
1.0
  0
LINE
  5
198B
330
195A
100
AcDbEntity
  8
Značka (ISO)
100
AcDbLine
 10
584.0
 20
104.3948047876358
 30
0.0
 11
348.4078945028656
 21
104.3948047876358
 31
0.0
  0
MTEXT
  5
198C
330
195A
100
AcDbEntity
  8
Značka (ISO)
100
AcDbMText
 10
531.8533923944621
 20
93.12175302207476
 30
0.0
 40
3.499999940395355
 41
0.0
 71
     7
 72
     1
  1
Mosaz
  7
Text poznámky (DIN)
 73
     1
 44
1.0
  0
MTEXT
  5
198D
330
195A
100
AcDbEntity
  8
Značka (ISO)
100
AcDbMText
 10
506.4533923944622
 20
92.07305176556117
 30
0.0
 40
3.499999940395355
 41
0.0
 71
     7
 72
     1
  1
0,005 kg
  7
Text poznámky (DIN)
 73
     1
 44
1.0
  0
MTEXT
  5
198E
330
195A
100
AcDbEntity
  8
Značka (ISO)
100
AcDbMText
 10
481.0533923944622
 20
93.12175302207476
 30
0.0
 40
3.499999940395355
 41
0.0
 71
     7
 72
     1
  1
90678
  7
Text poznámky (DIN)
 73
     1
 44
1.0
  0
MTEXT
  5
198F
330
195A
100
AcDbEntity
  8
Značka (ISO)
100
AcDbMText
 10
373.1486062526585
 20
93.12175302207476
 30
0.0
 40
3.499999940395355
 41
0.0
 71
     7
 72
     1
  1
Matice M8 mosaz DIN 934
  7
Text poznámky (DIN)
 73
     1
 44
1.0
  0
MTEXT
  5
1990
330
195A
100
AcDbEntity
  8
Značka (ISO)
100
AcDbMText
 10
367.6721050337281
 20
93.12175302207476
 30
0.0
 40
3.499999940395355
 41
0.0
 71
     7
 72
     1
  1
1
  7
Text poznámky (DIN)
 73
     1
 44
1.0
  0
MTEXT
  5
1991
330
195A
100
AcDbEntity
  8
Značka (ISO)
100
AcDbMText
 10
355.5567236006142
 20
93.12175302207476
 30
0.0
 40
3.499999940395355
 41
0.0
 71
     7
 72
     1
  1
5
  7
Text poznámky (DIN)
 73
     1
 44
1.0
  0
LINE
  5
1992
330
195A
100
AcDbEntity
  8
Značka (ISO)
100
AcDbLine
 10
584.0
 20
98.04610359072693
 30
0.0
 11
348.4078945028656
 21
98.04610359072693
 31
0.0
  0
MTEXT
  5
1993
330
195A
100
AcDbEntity
  8
Značka (ISO)
100
AcDbMText
 10
531.8533923944621
 20
86.77305182516581
 30
0.0
 40
3.499999940395355
 41
0.0
 71
     7
 72
     1
  1
Plast ABS
  7
Text poznámky (DIN)
 73
     1
 44
1.0
  0
MTEXT
  5
1994
330
195A
100
AcDbEntity
  8
Značka (ISO)
100
AcDbMText
 10
506.4533923944622
 20
85.72435056865222
 30
0.0
 40
3.499999940395355
 41
0.0
 71
     7
 72
     1
  1
0,002 kg
  7
Text poznámky (DIN)
 73
     1
 44
1.0
  0
MTEXT
  5
1995
330
195A
100
AcDbEntity
  8
Značka (ISO)
100
AcDbMText
 10
481.0533923944622
 20
86.77305182516581
 30
0.0
 40
3.499999940395355
 41
0.0
 71
     7
 72
     1
  1
91024
  7
Text poznámky (DIN)
 73
     1
 44
1.0
  0
MTEXT
  5
1996
102
{ACAD_XDICTIONARY
360
272C
102
}
330
195A
100
AcDbEntity
  8
Značka (ISO)
100
AcDbMText
 10
373.1486062526585
 20
85.55064922273166
 30
0.0
 40
3.499999940395355
 41
0.0
 71
     7
 72
     1
  1
krytka zem\U+00E1ku
  7
Text poznámky (DIN)
 73
     1
 44
1.0
  0
MTEXT
  5
1997
330
195A
100
AcDbEntity
  8
Značka (ISO)
100
AcDbMText
 10
367.6721050337281
 20
86.77305182516581
 30
0.0
 40
3.499999940395355
 41
0.0
 71
     7
 72
     1
  1
1
  7
Text poznámky (DIN)
 73
     1
 44
1.0
  0
MTEXT
  5
1998
330
195A
100
AcDbEntity
  8
Značka (ISO)
100
AcDbMText
 10
355.5567236006142
 20
86.77305182516581
 30
0.0
 40
3.499999940395355
 41
0.0
 71
     7
 72
     1
  1
6
  7
Text poznámky (DIN)
 73
     1
 44
1.0
  0
LINE
  5
1999
330
195A
100
AcDbEntity
  8
Značka (ISO)
100
AcDbLine
 10
584.0
 20
91.69740239381795
 30
0.0
 11
348.4078945028656
 21
91.69740239381795
 31
0.0
  0
MTEXT
  5
199A
102
{ACAD_XDICTIONARY
360
272E
102
}
330
195A
100
AcDbEntity
  8
Značka (ISO)
100
AcDbMText
 10
531.8533923944621
 20
79.20194802582272
 30
0.0
 40
3.499999940395355
 41
0.0
 71
     7
 72
     1
  1
Polykarbon\U+00E1t, kou\U+0159ov\U+00FD
  7
Text poznámky (DIN)
 73
     1
 44
1.0
  0
MTEXT
  5
199B
330
195A
100
AcDbEntity
  8
Značka (ISO)
100
AcDbMText
 10
506.4533923944622
 20
79.37564937174328
 30
0.0
 40
3.499999940395355
 41
0.0
 71
     7
 72
     1
  1
0,020 kg
  7
Text poznámky (DIN)
 73
     1
 44
1.0
  0
MTEXT
  5
199C
330
195A
100
AcDbEntity
  8
Značka (ISO)
100
AcDbMText
 10
481.0533923944622
 20
80.42435062825687
 30
0.0
 40
3.499999940395355
 41
0.0
 71
     7
 72
     1
  1
E29863
  7
Text poznámky (DIN)
 73
     1
 44
1.0
  0
MTEXT
  5
199D
102
{ACAD_XDICTIONARY
360
2730
102
}
330
195A
100
AcDbEntity
  8
Značka (ISO)
100
AcDbMText
 10
373.1486062526585
 20
79.20194802582272
 30
0.0
 40
3.499999940395355
 41
0.0
 71
     7
 72
     1
  1
Effidrain kryt plastov\U+00FD 157 pro balen\U+00ED PP 12mm
  7
Text poznámky (DIN)
 73
     1
 44
1.0
  0
MTEXT
  5
199E
330
195A
100
AcDbEntity
  8
Značka (ISO)
100
AcDbMText
 10
367.6721050337281
 20
80.42435062825687
 30
0.0
 40
3.499999940395355
 41
0.0
 71
     7
 72
     1
  1
1
  7
Text poznámky (DIN)
 73
     1
 44
1.0
  0
MTEXT
  5
199F
330
195A
100
AcDbEntity
  8
Značka (ISO)
100
AcDbMText
 10
355.5539235934939
 20
80.42435062825687
 30
0.0
 40
3.499999940395355
 41
0.0
 71
     7
 72
     1
  1
7
  7
Text poznámky (DIN)
 73
     1
 44
1.0
  0
LINE
  5
19A0
330
195A
100
AcDbEntity
  8
Značka (ISO)
100
AcDbLine
 10
584.0
 20
85.34870119690902
 30
0.0
 11
348.4078945028656
 21
85.34870119690902
 31
0.0
  0
LINE
  5
19A1
330
195A
100
AcDbEntity
  8
Značka (ISO)
100
AcDbLine
 10
584.0
 20
79.00000000000007
 30
0.0
 11
348.4078945028656
 21
79.00000000000007
 31
0.0
  0
LINE
  5
19A2
330
195A
100
AcDbEntity
  8
Značka (ISO)
100
AcDbLine
 10
584.0
 20
123.4409083783627
 30
0.0
 11
584.0
 21
79.00000000000007
 31
0.0
  0
LINE
  5
19A3
330
195A
100
AcDbEntity
  8
Značka (ISO)
100
AcDbLine
 10
530.6509916254661
 20
123.4409083783627
 30
0.0
 11
530.6509916254661
 21
79.00000000000007
 31
0.0
  0
LINE
  5
19A4
330
195A
100
AcDbEntity
  8
Značka (ISO)
100
AcDbLine
 10
505.2509916254662
 20
123.4409083783627
 30
0.0
 11
505.2509916254662
 21
79.00000000000007
 31
0.0
  0
LINE
  5
19A5
330
195A
100
AcDbEntity
  8
Značka (ISO)
100
AcDbLine
 10
479.8509916254661
 20
123.4409083783627
 30
0.0
 11
479.8509916254661
 21
79.00000000000007
 31
0.0
  0
LINE
  5
19A6
330
195A
100
AcDbEntity
  8
Značka (ISO)
100
AcDbLine
 10
371.9462054836623
 20
123.4409083783627
 30
0.0
 11
371.9462054836623
 21
79.00000000000007
 31
0.0
  0
LINE
  5
19A7
330
195A
100
AcDbEntity
  8
Značka (ISO)
100
AcDbLine
 10
364.5488030302398
 20
123.4409083783627
 30
0.0
 11
364.5488030302398
 21
79.00000000000007
 31
0.0
  0
LINE
  5
19A8
330
195A
100
AcDbEntity
  8
Značka (ISO)
100
AcDbLine
 10
348.4078945028656
 20
123.4409083783627
 30
0.0
 11
348.4078945028656
 21
79.00000000000007
 31
0.0
  0
ENDBLK
  5
195C
330
195A
100
AcDbEntity
  8
0
100
AcDbBlockEnd
  0
BLOCK
  5
19AD
330
19AC
100
AcDbEntity
  8
0
100
AcDbBlockBegin
  2
*D17
 70
     1
 10
0.0
 20
0.0
 30
0.0
  3
*D17
  1

  0
LINE
  5
1A84
330
19AC
100
AcDbEntity
  8
Kóta (ISO)
440
 16777216
100
AcDbLine
 10
219.4966229609601
 20
248.7343171171999
 30
0.0
 11
403.434422644013
 21
248.7343171171999
 31
0.0
  0
LINE
  5
1A85
330
19AC
100
AcDbEntity
  8
Kóta (ISO)
440
 16777216
100
AcDbLine
 10
274.9966229609603
 20
509.7733171171993
 30
0.0
 11
403.4344226440131
 21
509.7733171171993
 31
0.0
  0
LINE
  5
1A86
330
19AC
100
AcDbEntity
  8
Kóta (ISO)
440
 16777216
100
AcDbLine
 10
401.934422644013
 20
252.4843171171999
 30
0.0
 11
401.934422644013
 21
506.0233171171994
 31
0.0
  0
SOLID
  5
1A87
330
19AC
100
AcDbEntity
  8
Kóta (ISO)
440
 16777216
100
AcDbTrace
 10
401.309422644013
 20
252.4843171171999
 30
0.0
 11
402.559422644013
 21
252.4843171171999
 31
0.0
 12
401.934422644013
 22
248.7343171171999
 32
0.0
 13
401.934422644013
 23
248.7343171171999
 33
0.0
  0
SOLID
  5
1A88
330
19AC
100
AcDbEntity
  8
Kóta (ISO)
440
 16777216
100
AcDbTrace
 10
401.3094226440131
 20
506.0233171171994
 30
0.0
 11
402.5594226440131
 21
506.0233171171994
 31
0.0
 12
401.934422644013
 22
509.7733171171993
 32
0.0
 13
401.934422644013
 23
509.7733171171993
 33
0.0
  0
MTEXT
  5
1A89
102
{ACAD_XDICTIONARY
360
2732
102
}
330
19AC
100
AcDbEntity
  8
Kóta (ISO)
440
 16777216
100
AcDbMText
 10
395.3228195546913
 20
368.2216486820083
 30
0.0
 40
5.25
 41
0.0
 71
     1
 72
     1
  1
\A1;261{\H5.257800;\U+00B11}
  7
Text poznámky (ISO)
 11
0.0000000000000001
 21
1.0
 31
0.0
 73
     1
 44
1.0
  0
POINT
  5
1A8A
330
19AC
100
AcDbEntity
  8
Defpoints
 62
     0
440
 16777216
100
AcDbPoint
 10
219.4966229609601
 20
248.7343171171999
 30
0.0
  0
POINT
  5
1A8B
330
19AC
100
AcDbEntity
  8
Defpoints
 62
     0
440
 16777216
100
AcDbPoint
 10
274.9966229609603
 20
509.7733171171993
 30
0.0
  0
POINT
  5
1A8C
330
19AC
100
AcDbEntity
  8
Defpoints
 62
     0
440
 16777216
100
AcDbPoint
 10
401.934422644013
 20
509.7733171171993
 30
0.0
  0
ENDBLK
  5
19AE
330
19AC
100
AcDbEntity
  8
0
100
AcDbBlockEnd
  0
BLOCK
  5
1A8F
330
1A8E
100
AcDbEntity
  8
0
100
AcDbBlockBegin
  2
*D18
 70
     1
 10
0.0
 20
0.0
 30
0.0
  3
*D18
  1

  0
LINE
  5
1B66
330
1A8E
100
AcDbEntity
  8
Kóta (ISO)
440
 16777216
100
AcDbLine
 10
146.4966229609605
 20
256.7250287226872
 30
0.0
 11
146.4966229609605
 21
227.2505607297626
 31
0.0
  0
LINE
  5
1B67
330
1A8E
100
AcDbEntity
  8
Kóta (ISO)
440
 16777216
100
AcDbLine
 10
221.4966229609605
 20
256.7250287226872
 30
0.0
 11
221.4966229609605
 21
227.2505607297626
 31
0.0
  0
LINE
  5
1B68
330
1A8E
100
AcDbEntity
  8
Kóta (ISO)
440
 16777216
100
AcDbLine
 10
150.2466229609605
 20
228.7505607297626
 30
0.0
 11
217.7466229609605
 21
228.7505607297626
 31
0.0
  0
SOLID
  5
1B69
330
1A8E
100
AcDbEntity
  8
Kóta (ISO)
440
 16777216
100
AcDbTrace
 10
150.2466229609605
 20
229.3755607297626
 30
0.0
 11
150.2466229609605
 21
228.1255607297626
 31
0.0
 12
146.4966229609605
 22
228.7505607297626
 32
0.0
 13
146.4966229609605
 23
228.7505607297626
 33
0.0
  0
SOLID
  5
1B6A
330
1A8E
100
AcDbEntity
  8
Kóta (ISO)
440
 16777216
100
AcDbTrace
 10
217.7466229609605
 20
229.3755607297626
 30
0.0
 11
217.7466229609605
 21
228.1255607297626
 31
0.0
 12
221.4966229609605
 22
228.7505607297626
 32
0.0
 13
221.4966229609605
 23
228.7505607297626
 33
0.0
  0
MTEXT
  5
1B6B
102
{ACAD_XDICTIONARY
360
2734
102
}
330
1A8E
100
AcDbEntity
  8
Kóta (ISO)
440
 16777216
100
AcDbMText
 10
175.0142667014191
 20
235.8769388358741
 30
0.0
 40
5.25
 41
0.0
 71
     1
 72
     1
  1
\A1;{\U+00D8}75
  7
Text poznámky (ISO)
 73
     1
 44
1.0
  0
POINT
  5
1B6C
330
1A8E
100
AcDbEntity
  8
Defpoints
 62
     0
440
 16777216
100
AcDbPoint
 10
146.4966229609605
 20
256.7250287226872
 30
0.0
  0
POINT
  5
1B6D
330
1A8E
100
AcDbEntity
  8
Defpoints
 62
     0
440
 16777216
100
AcDbPoint
 10
221.4966229609605
 20
256.7250287226872
 30
0.0
  0
POINT
  5
1B6E
330
1A8E
100
AcDbEntity
  8
Defpoints
 62
     0
440
 16777216
100
AcDbPoint
 10
221.4966229609605
 20
228.7505607297626
 30
0.0
  0
ENDBLK
  5
1A90
330
1A8E
100
AcDbEntity
  8
0
100
AcDbBlockEnd
  0
BLOCK
  5
1B71
330
1B70
100
AcDbEntity
  8
0
100
AcDbBlockBegin
  2
*D19
 70
     1
 10
0.0
 20
0.0
 30
0.0
  3
*D19
  1

  0
LINE
  5
1C48
330
1B70
100
AcDbEntity
  8
Kóta (ISO)
440
 16777216
100
AcDbLine
 10
148.4966229609606
 20
248.7343171171999
 30
0.0
 11
60.49662296096037
 21
248.7343171171999
 31
0.0
  0
LINE
  5
1C49
330
1B70
100
AcDbEntity
  8
Kóta (ISO)
440
 16777216
100
AcDbLine
 10
121.9966229609603
 20
339.7343171171996
 30
0.0
 11
60.49662296096038
 21
339.7343171171996
 31
0.0
  0
LINE
  5
1C4A
330
1B70
100
AcDbEntity
  8
Kóta (ISO)
440
 16777216
100
AcDbLine
 10
61.99662296096036
 20
252.4843171171999
 30
0.0
 11
61.99662296096038
 21
335.9843171171996
 31
0.0
  0
SOLID
  5
1C4B
330
1B70
100
AcDbEntity
  8
Kóta (ISO)
440
 16777216
100
AcDbTrace
 10
61.37162296096036
 20
252.4843171171999
 30
0.0
 11
62.62162296096036
 21
252.4843171171999
 31
0.0
 12
61.99662296096036
 22
248.7343171171999
 32
0.0
 13
61.99662296096036
 23
248.7343171171999
 33
0.0
  0
SOLID
  5
1C4C
330
1B70
100
AcDbEntity
  8
Kóta (ISO)
440
 16777216
100
AcDbTrace
 10
61.37162296096038
 20
335.9843171171996
 30
0.0
 11
62.62162296096038
 21
335.9843171171996
 31
0.0
 12
61.99662296096039
 22
339.7343171171996
 32
0.0
 13
61.99662296096039
 23
339.7343171171996
 33
0.0
  0
MTEXT
  5
1C4D
330
1B70
100
AcDbEntity
  8
Kóta (ISO)
440
 16777216
100
AcDbMText
 10
55.39559744047679
 20
288.0520827469027
 30
0.0
 40
5.25
 41
0.0
 71
     1
 72
     1
  1
\A1;91
  7
Text poznámky (ISO)
 11
0.0000000000000001
 21
1.0
 31
0.0
 73
     1
 44
1.0
  0
POINT
  5
1C4E
330
1B70
100
AcDbEntity
  8
Defpoints
 62
     0
440
 16777216
100
AcDbPoint
 10
148.4966229609606
 20
248.7343171171999
 30
0.0
  0
POINT
  5
1C4F
330
1B70
100
AcDbEntity
  8
Defpoints
 62
     0
440
 16777216
100
AcDbPoint
 10
121.9966229609603
 20
339.7343171171996
 30
0.0
  0
POINT
  5
1C50
330
1B70
100
AcDbEntity
  8
Defpoints
 62
     0
440
 16777216
100
AcDbPoint
 10
61.99662296096039
 20
339.7343171171996
 30
0.0
  0
ENDBLK
  5
1B72
330
1B70
100
AcDbEntity
  8
0
100
AcDbBlockEnd
  0
BLOCK
  5
1C53
330
1C52
100
AcDbEntity
  8
0
100
AcDbBlockBegin
  2
Pozice1
 70
     0
 10
0.0
 20
0.0
 30
0.0
  3
Pozice1
  1

  0
LINE
  5
1C55
330
1C52
100
AcDbEntity
  8
Značka (ISO)
100
AcDbLine
 10
64.86303889484964
 20
387.2372478299253
 30
0.0
 11
67.20489953681163
 21
386.3622114114663
 31
0.0
  0
POLYLINE
  5
1C56
330
1C52
100
AcDbEntity
  8
Značka (ISO)
100
AcDb2dPolyline
 66
     1
 10
0.0
 20
0.0
 30
0.0
 70
   128
  0
VERTEX
  5
1C57
330
1C56
100
AcDbEntity
  8
Značka (ISO)
100
AcDbVertex
100
AcDb2dVertex
 10
64.6880292892456
 20
386.7688751220703
 30
0.0
  0
VERTEX
  5
1C58
330
1C56
100
AcDbEntity
  8
Značka (ISO)
100
AcDbVertex
100
AcDb2dVertex
 10
67.20489978790283
 20
386.3622283935547
 30
0.0
  0
VERTEX
  5
1C5A
330
1C56
100
AcDbEntity
  8
Značka (ISO)
100
AcDbVertex
100
AcDb2dVertex
 10
65.03804683685302
 20
387.7056121826172
 30
0.0
  0
VERTEX
  5
1C5B
330
1C56
100
AcDbEntity
  8
Značka (ISO)
100
AcDbVertex
100
AcDb2dVertex
 10
64.6880292892456
 20
386.7688751220703
 30
0.0
  0
SEQEND
  5
1C59
330
1C56
100
AcDbEntity
  8
Značka (ISO)
  0
SOLID
  5
1C5C
330
1C52
100
AcDbEntity
  8
Značka (ISO)
100
AcDbTrace
 10
64.6880292892456
 20
386.7688751220703
 30
0.0
 11
67.20489978790283
 21
386.3622283935547
 31
0.0
 12
65.03804683685302
 22
387.7056121826172
 32
0.0
 13
64.6880292892456
 23
386.7688751220703
 33
0.0
  0
LINE
  5
1C5D
330
1C52
100
AcDbEntity
  8
Značka (ISO)
100
AcDbLine
 10
64.68803161115788
 20
386.7688757015329
 30
0.0
 11
67.20489953681163
 21
386.3622114114663
 31
0.0
  0
LINE
  5
1C5E
330
1C52
100
AcDbEntity
  8
Značka (ISO)
100
AcDbLine
 10
67.20489953681163
 20
386.3622114114663
 30
0.0
 11
65.03804617854147
 21
387.7056199583177
 31
0.0
  0
LINE
  5
1C5F
330
1C52
100
AcDbEntity
  8
Značka (ISO)
100
AcDbLine
 10
65.03804617854147
 20
387.7056199583177
 30
0.0
 11
64.68803161115788
 21
386.7688757015329
 31
0.0
  0
LINE
  5
1C60
330
1C52
100
AcDbEntity
  8
Značka (ISO)
100
AcDbLine
 10
64.86303889484964
 20
387.2372478299253
 30
0.0
 11
53.15166342380215
 21
391.6132042227996
 31
0.0
  0
MTEXT
  5
1C61
330
1C52
100
AcDbEntity
  8
Značka (ISO)
100
AcDbMText
 10
45.27666378143002
 20
398.2310116707099
 30
0.0
 40
5.24999976158142
 41
0.0
 71
     5
 72
     1
  1
2
  7
Text popisu (ISO)
 73
     1
 44
1.0
  0
LINE
  5
1C62
330
1C52
100
AcDbEntity
  8
Značka (ISO)
100
AcDbLine
 10
53.15166342380215
 20
391.6132042227996
 30
0.0
 11
37.40166413905789
 21
391.6132042227996
 31
0.0
  0
ENDBLK
  5
1C54
330
1C52
100
AcDbEntity
  8
0
100
AcDbBlockEnd
  0
BLOCK
  5
1C65
330
1C64
100
AcDbEntity
  8
0
100
AcDbBlockBegin
  2
Pozice2
 70
     0
 10
0.0
 20
0.0
 30
0.0
  3
Pozice2
  1

  0
LINE
  5
1C67
330
1C64
100
AcDbEntity
  8
Značka (ISO)
100
AcDbLine
 10
150.5759120358353
 20
181.6462754177537
 30
0.0
 11
148.9977486406402
 21
183.5851927182249
 31
0.0
  0
POLYLINE
  5
1C68
330
1C64
100
AcDbEntity
  8
Značka (ISO)
100
AcDb2dPolyline
 66
     1
 10
0.0
 20
0.0
 30
0.0
 70
   128
  0
VERTEX
  5
1C69
330
1C68
100
AcDbEntity
  8
Značka (ISO)
100
AcDbVertex
100
AcDb2dVertex
 10
150.9636974334717
 20
181.9618988037109
 30
0.0
  0
VERTEX
  5
1C6A
330
1C68
100
AcDbEntity
  8
Značka (ISO)
100
AcDbVertex
100
AcDb2dVertex
 10
148.9977455139159
 20
183.5851860046386
 30
0.0
  0
VERTEX
  5
1C6C
330
1C68
100
AcDbEntity
  8
Značka (ISO)
100
AcDbVertex
100
AcDb2dVertex
 10
150.1881313323974
 20
181.3306427001953
 30
0.0
  0
VERTEX
  5
1C6D
330
1C68
100
AcDbEntity
  8
Značka (ISO)
100
AcDbVertex
100
AcDb2dVertex
 10
150.9636974334717
 20
181.9618988037109
 30
0.0
  0
SEQEND
  5
1C6B
330
1C68
100
AcDbEntity
  8
Značka (ISO)
  0
SOLID
  5
1C6E
330
1C64
100
AcDbEntity
  8
Značka (ISO)
100
AcDbTrace
 10
150.9636974334717
 20
181.9618988037109
 30
0.0
 11
148.9977455139159
 21
183.5851860046386
 31
0.0
 12
150.1881313323974
 22
181.3306427001953
 32
0.0
 13
150.9636974334717
 23
181.9618988037109
 33
0.0
  0
LINE
  5
1C6F
330
1C64
100
AcDbEntity
  8
Značka (ISO)
100
AcDbLine
 10
150.9636954959295
 20
181.9619080967927
 30
0.0
 11
148.9977486406402
 21
183.5851927182249
 31
0.0
  0
LINE
  5
1C70
330
1C64
100
AcDbEntity
  8
Značka (ISO)
100
AcDbLine
 10
148.9977486406402
 20
183.5851927182249
 30
0.0
 11
150.1881285757411
 21
181.3306427387147
 31
0.0
  0
LINE
  5
1C71
330
1C64
100
AcDbEntity
  8
Značka (ISO)
100
AcDbLine
 10
150.1881285757411
 20
181.3306427387147
 30
0.0
 11
150.9636954959295
 21
181.9619080967927
 31
0.0
  0
LINE
  5
1C72
330
1C64
100
AcDbEntity
  8
Značka (ISO)
100
AcDbLine
 10
150.5759120358353
 20
181.6462754177537
 30
0.0
 11
156.3117323470648
 21
174.5992983634788
 31
0.0
  0
MTEXT
  5
1C73
330
1C64
100
AcDbEntity
  8
Značka (ISO)
100
AcDbMText
 10
164.1867319894369
 20
181.3830296219531
 30
0.0
 40
5.24999976158142
 41
0.0
 71
     5
 72
     1
  1
3
  7
Text popisu (ISO)
 73
     1
 44
1.0
  0
LINE
  5
1C74
330
1C64
100
AcDbEntity
  8
Značka (ISO)
100
AcDbLine
 10
156.3117323470648
 20
174.5992983634788
 30
0.0
 11
172.0617316318091
 21
174.5992983634788
 31
0.0
  0
ENDBLK
  5
1C66
330
1C64
100
AcDbEntity
  8
0
100
AcDbBlockEnd
  0
BLOCK
  5
1C78
330
1C77
100
AcDbEntity
  8
0
100
AcDbBlockBegin
  2
*D22
 70
     1
 10
0.0
 20
0.0
 30
0.0
  3
*D22
  1

  0
LINE
  5
1D4A
330
1C77
100
AcDbEntity
  8
Kóta (ISO)
440
 16777216
100
AcDbLine
 10
92.99662296096036
 20
509.7733171171993
 30
0.0
 11
92.99662296096036
 21
201.1226707608789
 31
0.0
  0
LINE
  5
1D4B
330
1C77
100
AcDbEntity
  8
Kóta (ISO)
440
 16777216
100
AcDbLine
 10
274.9966229609604
 20
509.7733171171993
 30
0.0
 11
274.9966229609604
 21
201.1226707608789
 31
0.0
  0
LINE
  5
1D4C
330
1C77
100
AcDbEntity
  8
Kóta (ISO)
440
 16777216
100
AcDbLine
 10
96.74662296096036
 20
202.6226707608788
 30
0.0
 11
271.2466229609604
 21
202.6226707608788
 31
0.0
  0
SOLID
  5
1D4D
330
1C77
100
AcDbEntity
  8
Kóta (ISO)
440
 16777216
100
AcDbTrace
 10
96.74662296096036
 20
203.2476707608788
 30
0.0
 11
96.74662296096036
 21
201.9976707608788
 31
0.0
 12
92.99662296096036
 22
202.6226707608788
 32
0.0
 13
92.99662296096036
 23
202.6226707608788
 33
0.0
  0
SOLID
  5
1D4E
330
1C77
100
AcDbEntity
  8
Kóta (ISO)
440
 16777216
100
AcDbTrace
 10
271.2466229609604
 20
203.2476707608788
 30
0.0
 11
271.2466229609604
 21
201.9976707608788
 31
0.0
 12
274.9966229609604
 22
202.6226707608788
 32
0.0
 13
274.9966229609604
 23
202.6226707608788
 33
0.0
  0
MTEXT
  5
1D4F
330
1C77
100
AcDbEntity
  8
Kóta (ISO)
440
 16777216
100
AcDbMText
 10
177.1432907231304
 20
211.6648166215884
 30
0.0
 40
5.25
 41
0.0
 71
     1
 72
     1
  1
\A1;{\fAIGDT|b0|i0;\H5.2500;\ln\fTahoma|b0|i0;\H5.2500;}182
  7
Text poznámky (ISO)
 73
     1
 44
1.0
  0
POINT
  5
1D50
330
1C77
100
AcDbEntity
  8
Defpoints
 62
     0
440
 16777216
100
AcDbPoint
 10
92.99662296096036
 20
509.7733171171993
 30
0.0
  0
POINT
  5
1D51
330
1C77
100
AcDbEntity
  8
Defpoints
 62
     0
440
 16777216
100
AcDbPoint
 10
274.9966229609604
 20
509.7733171171993
 30
0.0
  0
POINT
  5
1D52
330
1C77
100
AcDbEntity
  8
Defpoints
 62
     0
440
 16777216
100
AcDbPoint
 10
274.9966229609604
 20
202.6226707608788
 30
0.0
  0
ENDBLK
  5
1C79
330
1C77
100
AcDbEntity
  8
0
100
AcDbBlockEnd
  0
BLOCK
  5
1D55
330
1D54
100
AcDbEntity
  8
0
100
AcDbBlockBegin
  2
*D23
 70
     1
 10
0.0
 20
0.0
 30
0.0
  3
*D23
  1

  0
LINE
  5
1E1D
330
1D54
100
AcDbEntity
  8
Kóta (ISO)
440
 16777216
100
AcDbLine
 10
109.2466229609603
 20
487.2441323853887
 30
0.0
 11
258.7466229609603
 21
487.2441323853887
 31
0.0
  0
SOLID
  5
1E1E
330
1D54
100
AcDbEntity
  8
Kóta (ISO)
440
 16777216
100
AcDbTrace
 10
109.2466229609603
 20
487.8691323853886
 30
0.0
 11
109.2466229609603
 21
486.6191323853887
 31
0.0
 12
105.4966229609603
 22
487.2441323853887
 32
0.0
 13
105.4966229609603
 23
487.2441323853887
 33
0.0
  0
SOLID
  5
1E1F
330
1D54
100
AcDbEntity
  8
Kóta (ISO)
440
 16777216
100
AcDbTrace
 10
258.7466229609603
 20
487.8691323853886
 30
0.0
 11
258.7466229609603
 21
486.6191323853887
 31
0.0
 12
262.4966229609603
 22
487.2441323853887
 32
0.0
 13
262.4966229609603
 23
487.2441323853887
 33
0.0
  0
MTEXT
  5
1E20
330
1D54
100
AcDbEntity
  8
Kóta (ISO)
440
 16777216
100
AcDbMText
 10
175.3788047337329
 20
496.2862782460983
 30
0.0
 40
5.25
 41
0.0
 71
     1
 72
     1
  1
\A1;{\fAIGDT|b0|i0;\H5.2500;n\fTahoma|b0|i0;\H5.2500;}157
  7
Text poznámky (ISO)
 73
     1
 44
1.0
  0
POINT
  5
1E21
330
1D54
100
AcDbEntity
  8
Defpoints
 62
     0
440
 16777216
100
AcDbPoint
 10
105.4966229609603
 20
506.2733171171996
 30
0.0
  0
POINT
  5
1E22
330
1D54
100
AcDbEntity
  8
Defpoints
 62
     0
440
 16777216
100
AcDbPoint
 10
262.4966229609603
 20
506.2733171171996
 30
0.0
  0
POINT
  5
1E23
330
1D54
100
AcDbEntity
  8
Defpoints
 62
     0
440
 16777216
100
AcDbPoint
 10
262.4966229609603
 20
487.2441323853887
 30
0.0
  0
ENDBLK
  5
1D56
330
1D54
100
AcDbEntity
  8
0
100
AcDbBlockEnd
  0
BLOCK
  5
1E27
330
1E26
100
AcDbEntity
  8
0
100
AcDbBlockBegin
  2
Pozice3
 70
     0
 10
0.0
 20
0.0
 30
0.0
  3
Pozice3
  1

  0
LINE
  5
1E29
330
1E26
100
AcDbEntity
  8
Značka (ISO)
100
AcDbLine
 10
175.7655155936068
 20
275.6573709650622
 30
0.0
 11
173.9977486406402
 21
277.4251379180283
 31
0.0
  0
POLYLINE
  5
1E2A
330
1E26
100
AcDbEntity
  8
Značka (ISO)
100
AcDb2dPolyline
 66
     1
 10
0.0
 20
0.0
 30
0.0
 70
   128
  0
VERTEX
  5
1E2B
330
1E2A
100
AcDbEntity
  8
Značka (ISO)
100
AcDbVertex
100
AcDb2dVertex
 10
176.1190605163574
 20
276.0109329223634
 30
0.0
  0
VERTEX
  5
1E2C
330
1E2A
100
AcDbEntity
  8
Značka (ISO)
100
AcDbVertex
100
AcDb2dVertex
 10
173.997745513916
 20
277.4251365661621
 30
0.0
  0
VERTEX
  5
1E2E
330
1E2A
100
AcDbEntity
  8
Značka (ISO)
100
AcDbVertex
100
AcDb2dVertex
 10
175.4119682312011
 20
275.3038215637207
 30
0.0
  0
VERTEX
  5
1E2F
330
1E2A
100
AcDbEntity
  8
Značka (ISO)
100
AcDbVertex
100
AcDb2dVertex
 10
176.1190605163574
 20
276.0109329223634
 30
0.0
  0
SEQEND
  5
1E2D
330
1E2A
100
AcDbEntity
  8
Značka (ISO)
  0
SOLID
  5
1E30
330
1E26
100
AcDbEntity
  8
Značka (ISO)
100
AcDbTrace
 10
176.1190605163574
 20
276.0109329223634
 30
0.0
 11
173.997745513916
 21
277.4251365661621
 31
0.0
 12
175.4119682312011
 22
275.3038215637207
 32
0.0
 13
176.1190605163574
 23
276.0109329223634
 33
0.0
  0
LINE
  5
1E31
330
1E26
100
AcDbEntity
  8
Značka (ISO)
100
AcDbLine
 10
176.1190689842
 20
276.0109243556554
 30
0.0
 11
173.9977486406402
 21
277.4251379180283
 31
0.0
  0
LINE
  5
1E32
330
1E26
100
AcDbEntity
  8
Značka (ISO)
100
AcDbLine
 10
173.9977486406402
 20
277.4251379180283
 30
0.0
 11
175.4119622030136
 21
275.3038175744688
 31
0.0
  0
LINE
  5
1E33
330
1E26
100
AcDbEntity
  8
Značka (ISO)
100
AcDbLine
 10
175.4119622030136
 20
275.3038175744688
 30
0.0
 11
176.1190689842
 21
276.0109243556554
 31
0.0
  0
LINE
  5
1E34
330
1E26
100
AcDbEntity
  8
Značka (ISO)
100
AcDbLine
 10
175.7655155936068
 20
275.6573709650622
 30
0.0
 11
209.7663167267548
 21
241.6565698319243
 31
0.0
  0
MTEXT
  5
1E35
330
1E26
100
AcDbEntity
  8
Značka (ISO)
100
AcDbMText
 10
217.641316369127
 20
248.227578394966
 30
0.0
 40
5.24999976158142
 41
0.0
 71
     5
 72
     1
  1
1
  7
Text popisu (ISO)
 73
     1
 44
1.0
  0
LINE
  5
1E36
330
1E26
100
AcDbEntity
  8
Značka (ISO)
100
AcDbLine
 10
209.7663167267548
 20
241.6565698319243
 30
0.0
 11
225.5163160114991
 21
241.6565698319243
 31
0.0
  0
ENDBLK
  5
1E28
330
1E26
100
AcDbEntity
  8
0
100
AcDbBlockEnd
  0
BLOCK
  5
1E3C
330
1E3B
100
AcDbEntity
  8
0
100
AcDbBlockBegin
  2
*D25
 70
     1
 10
0.0
 20
0.0
 30
0.0
  3
*D25
  1

  0
LINE
  5
1F0D
330
1E3B
100
AcDbEntity
  8
Kóta (ISO)
440
 16777216
100
AcDbLine
 10
105.4966229609603
 20
356.2343171171996
 30
0.0
 11
105.4966229609603
 21
218.0440442604517
 31
0.0
  0
LINE
  5
1F0E
330
1E3B
100
AcDbEntity
  8
Kóta (ISO)
440
 16777216
100
AcDbLine
 10
262.4966229609603
 20
356.2343171171996
 30
0.0
 11
262.4966229609603
 21
218.0440442604517
 31
0.0
  0
LINE
  5
1F0F
330
1E3B
100
AcDbEntity
  8
Kóta (ISO)
440
 16777216
100
AcDbLine
 10
109.2466229609603
 20
219.5440442604517
 30
0.0
 11
258.7466229609603
 21
219.5440442604517
 31
0.0
  0
SOLID
  5
1F10
330
1E3B
100
AcDbEntity
  8
Kóta (ISO)
440
 16777216
100
AcDbTrace
 10
109.2466229609603
 20
220.1690442604518
 30
0.0
 11
109.2466229609603
 21
218.9190442604517
 31
0.0
 12
105.4966229609603
 22
219.5440442604517
 32
0.0
 13
105.4966229609603
 23
219.5440442604517
 33
0.0
  0
SOLID
  5
1F11
330
1E3B
100
AcDbEntity
  8
Kóta (ISO)
440
 16777216
100
AcDbTrace
 10
258.7466229609603
 20
220.1690442604518
 30
0.0
 11
258.7466229609603
 21
218.9190442604517
 31
0.0
 12
262.4966229609603
 22
219.5440442604517
 32
0.0
 13
262.4966229609603
 23
219.5440442604517
 33
0.0
  0
MTEXT
  5
1F12
102
{ACAD_XDICTIONARY
360
2736
102
}
330
1E3B
100
AcDbEntity
  8
Kóta (ISO)
440
 16777216
100
AcDbMText
 10
175.7760890455809
 20
226.6704223665632
 30
0.0
 40
5.25
 41
0.0
 71
     1
 72
     1
  1
\A1;{\U+00D8}157
  7
Text poznámky (ISO)
 73
     1
 44
1.0
  0
POINT
  5
1F13
330
1E3B
100
AcDbEntity
  8
Defpoints
 62
     0
440
 16777216
100
AcDbPoint
 10
105.4966229609603
 20
356.2343171171996
 30
0.0
  0
POINT
  5
1F14
330
1E3B
100
AcDbEntity
  8
Defpoints
 62
     0
440
 16777216
100
AcDbPoint
 10
262.4966229609603
 20
356.2343171171996
 30
0.0
  0
POINT
  5
1F15
330
1E3B
100
AcDbEntity
  8
Defpoints
 62
     0
440
 16777216
100
AcDbPoint
 10
262.4966229609603
 20
219.5440442604517
 30
0.0
  0
ENDBLK
  5
1E3D
330
1E3B
100
AcDbEntity
  8
0
100
AcDbBlockEnd
  0
BLOCK
  5
1F18
330
1F17
100
AcDbEntity
  8
0
100
AcDbBlockBegin
  2
*D26
 70
     1
 10
0.0
 20
0.0
 30
0.0
  3
*D26
  1

  0
LINE
  5
1FF3
330
1F17
100
AcDbEntity
  8
Kóta (ISO)
440
 16777216
100
AcDbLine
 10
92.99662296096036
 20
509.7733171171993
 30
0.0
 11
60.49662296096046
 21
509.7733171171993
 31
0.0
  0
LINE
  5
1FF4
330
1F17
100
AcDbEntity
  8
Kóta (ISO)
440
 16777216
100
AcDbLine
 10
121.9966229609603
 20
339.7343171171996
 30
0.0
 11
60.49662296096043
 21
339.7343171171996
 31
0.0
  0
LINE
  5
1FF5
330
1F17
100
AcDbEntity
  8
Kóta (ISO)
440
 16777216
100
AcDbLine
 10
61.99662296096047
 20
506.0233171171995
 30
0.0
 11
61.99662296096043
 21
343.4843171171996
 31
0.0
  0
SOLID
  5
1FF6
330
1F17
100
AcDbEntity
  8
Kóta (ISO)
440
 16777216
100
AcDbTrace
 10
61.37162296096047
 20
506.0233171171995
 30
0.0
 11
62.62162296096047
 21
506.0233171171995
 31
0.0
 12
61.99662296096047
 22
509.7733171171993
 32
0.0
 13
61.99662296096047
 23
509.7733171171993
 33
0.0
  0
SOLID
  5
1FF7
330
1F17
100
AcDbEntity
  8
Kóta (ISO)
440
 16777216
100
AcDbTrace
 10
61.37162296096043
 20
343.4843171171996
 30
0.0
 11
62.62162296096043
 21
343.4843171171996
 31
0.0
 12
61.99662296096043
 22
339.7343171171996
 32
0.0
 13
61.99662296096043
 23
339.7343171171996
 33
0.0
  0
MTEXT
  5
1FF8
102
{ACAD_XDICTIONARY
360
2738
102
}
330
1F17
100
AcDbEntity
  8
Kóta (ISO)
440
 16777216
100
AcDbMText
 10
55.38854572791807
 20
414.927911274352
 30
0.0
 40
5.25
 41
0.0
 71
     1
 72
     1
  1
\A1;170{\H5.257800;\U+00B11}
  7
Text poznámky (ISO)
 11
0.0000000000000001
 21
1.0
 31
0.0
 73
     1
 44
1.0
  0
POINT
  5
1FF9
330
1F17
100
AcDbEntity
  8
Defpoints
 62
     0
440
 16777216
100
AcDbPoint
 10
92.99662296096036
 20
509.7733171171993
 30
0.0
  0
POINT
  5
1FFA
330
1F17
100
AcDbEntity
  8
Defpoints
 62
     0
440
 16777216
100
AcDbPoint
 10
121.9966229609603
 20
339.7343171171996
 30
0.0
  0
POINT
  5
1FFB
330
1F17
100
AcDbEntity
  8
Defpoints
 62
     0
440
 16777216
100
AcDbPoint
 10
61.99662296096043
 20
339.7343171171996
 30
0.0
  0
ENDBLK
  5
1F19
330
1F17
100
AcDbEntity
  8
0
100
AcDbBlockEnd
  0
BLOCK
  5
1FFD
330
1FFC
100
AcDbEntity
  8
0
100
AcDbBlockBegin
  2
Pozice4
 70
     0
 10
0.0
 20
0.0
 30
0.0
  3
Pozice4
  1

  0
LINE
  5
1FFF
330
1FFC
100
AcDbEntity
  8
Značka (ISO)
100
AcDbLine
 10
190.1090728273225
 20
407.5959468347575
 30
0.0
 11
187.6644153073069
 21
408.1190621278151
 31
0.0
  0
POLYLINE
  5
2000
330
1FFC
100
AcDbEntity
  8
Značka (ISO)
100
AcDb2dPolyline
 66
     1
 10
0.0
 20
0.0
 30
0.0
 70
   128
  0
VERTEX
  5
2001
330
2000
100
AcDbEntity
  8
Značka (ISO)
100
AcDbVertex
100
AcDb2dVertex
 10
190.2136993408203
 20
408.0848693847656
 30
0.0
  0
VERTEX
  5
2002
330
2000
100
AcDbEntity
  8
Značka (ISO)
100
AcDbVertex
100
AcDb2dVertex
 10
187.6644134521484
 20
408.1190490722656
 30
0.0
  0
VERTEX
  5
2004
330
2000
100
AcDbEntity
  8
Značka (ISO)
100
AcDbVertex
100
AcDb2dVertex
 10
190.0044441223144
 20
407.1070098876953
 30
0.0
  0
VERTEX
  5
2005
330
2000
100
AcDbEntity
  8
Značka (ISO)
100
AcDbVertex
100
AcDb2dVertex
 10
190.2136993408203
 20
408.0848693847656
 30
0.0
  0
SEQEND
  5
2003
330
2000
100
AcDbEntity
  8
Značka (ISO)
  0
SOLID
  5
2006
330
1FFC
100
AcDbEntity
  8
Značka (ISO)
100
AcDbTrace
 10
190.2136993408203
 20
408.0848693847656
 30
0.0
 11
187.6644134521484
 21
408.1190490722656
 31
0.0
 12
190.0044441223144
 22
407.1070098876953
 32
0.0
 13
190.2136993408203
 23
408.0848693847656
 33
0.0
  0
LINE
  5
2007
330
1FFC
100
AcDbEntity
  8
Značka (ISO)
100
AcDbLine
 10
190.2136958859341
 20
408.0848783387606
 30
0.0
 11
187.6644153073069
 21
408.1190621278151
 31
0.0
  0
LINE
  5
2008
330
1FFC
100
AcDbEntity
  8
Značka (ISO)
100
AcDbLine
 10
187.6644153073069
 20
408.1190621278151
 30
0.0
 11
190.004449768711
 21
407.1070153307544
 31
0.0
  0
LINE
  5
2009
330
1FFC
100
AcDbEntity
  8
Značka (ISO)
100
AcDbLine
 10
190.004449768711
 20
407.1070153307544
 30
0.0
 11
190.2136958859341
 21
408.0848783387606
 31
0.0
  0
LINE
  5
200A
330
1FFC
100
AcDbEntity
  8
Značka (ISO)
100
AcDbLine
 10
190.1090728273225
 20
407.5959468347575
 30
0.0
 11
211.8389706131848
 21
402.9461168461814
 31
0.0
  0
MTEXT
  5
200B
330
1FFC
100
AcDbEntity
  8
Značka (ISO)
100
AcDbMText
 10
219.7139702555569
 20
409.5086165481583
 30
0.0
 40
5.24999976158142
 41
0.0
 71
     5
 72
     1
  1
7
  7
Text popisu (ISO)
 73
     1
 44
1.0
  0
LINE
  5
200C
330
1FFC
100
AcDbEntity
  8
Značka (ISO)
100
AcDbLine
 10
211.8389706131848
 20
402.9461168461814
 30
0.0
 11
227.5889698979291
 21
402.9461168461814
 31
0.0
  0
ENDBLK
  5
1FFE
330
1FFC
100
AcDbEntity
  8
0
100
AcDbBlockEnd
  0
BLOCK
  5
200F
330
200E
100
AcDbEntity
  8
0
100
AcDbBlockBegin
  2
Pozice5
 70
     0
 10
0.0
 20
0.0
 30
0.0
  3
Pozice5
  1

  0
LINE
  5
2011
330
200E
100
AcDbEntity
  8
Značka (ISO)
100
AcDbLine
 10
187.1392992389413
 20
341.41284244974
 30
0.0
 11
184.7881494353855
 21
340.5630809530598
 31
0.0
  0
POLYLINE
  5
2012
330
200E
100
AcDbEntity
  8
Značka (ISO)
100
AcDb2dPolyline
 66
     1
 10
0.0
 20
0.0
 30
0.0
 70
   128
  0
VERTEX
  5
2013
330
2012
100
AcDbEntity
  8
Značka (ISO)
100
AcDbVertex
100
AcDb2dVertex
 10
186.9693374633789
 20
341.8830871582031
 30
0.0
  0
VERTEX
  5
2014
330
2012
100
AcDbEntity
  8
Značka (ISO)
100
AcDbVertex
100
AcDb2dVertex
 10
184.7881507873535
 20
340.5630874633788
 30
0.0
  0
VERTEX
  5
2016
330
2012
100
AcDbEntity
  8
Značka (ISO)
100
AcDbVertex
100
AcDb2dVertex
 10
187.3092460632324
 20
340.9426116943359
 30
0.0
  0
VERTEX
  5
2017
330
2012
100
AcDbEntity
  8
Značka (ISO)
100
AcDbVertex
100
AcDb2dVertex
 10
186.9693374633789
 20
341.8830871582031
 30
0.0
  0
SEQEND
  5
2015
330
2012
100
AcDbEntity
  8
Značka (ISO)
  0
SOLID
  5
2018
330
200E
100
AcDbEntity
  8
Značka (ISO)
100
AcDbTrace
 10
186.9693374633789
 20
341.8830871582031
 30
0.0
 11
184.7881507873535
 21
340.5630874633788
 31
0.0
 12
187.3092460632324
 22
340.9426116943359
 32
0.0
 13
186.9693374633789
 23
341.8830871582031
 33
0.0
  0
LINE
  5
2019
330
200E
100
AcDbEntity
  8
Značka (ISO)
100
AcDbLine
 10
186.9693469396053
 20
341.8830724104512
 30
0.0
 11
184.7881494353855
 21
340.5630809530598
 31
0.0
  0
LINE
  5
201A
330
200E
100
AcDbEntity
  8
Značka (ISO)
100
AcDbLine
 10
184.7881494353855
 20
340.5630809530598
 30
0.0
 11
187.3092515382774
 21
340.9426124890289
 31
0.0
  0
LINE
  5
201B
330
200E
100
AcDbEntity
  8
Značka (ISO)
100
AcDbLine
 10
187.3092515382774
 20
340.9426124890289
 30
0.0
 11
186.9693469396053
 21
341.8830724104512
 31
0.0
  0
LINE
  5
201C
330
200E
100
AcDbEntity
  8
Značka (ISO)
100
AcDbLine
 10
187.1392992389413
 20
341.41284244974
 30
0.0
 11
209.8991161806126
 21
349.6387819791024
 31
0.0
  0
MTEXT
  5
201D
330
200E
100
AcDbEntity
  8
Značka (ISO)
100
AcDbMText
 10
217.7741158229847
 20
356.3672054916432
 30
0.0
 40
5.24999976158142
 41
0.0
 71
     5
 72
     1
  1
5
  7
Text popisu (ISO)
 73
     1
 44
1.0
  0
LINE
  5
201E
330
200E
100
AcDbEntity
  8
Značka (ISO)
100
AcDbLine
 10
209.8991161806126
 20
349.6387819791024
 30
0.0
 11
225.6491154653569
 21
349.6387819791024
 31
0.0
  0
ENDBLK
  5
2010
330
200E
100
AcDbEntity
  8
0
100
AcDbBlockEnd
  0
BLOCK
  5
20F9
330
20F7
100
AcDbEntity
  8
0
100
AcDbBlockBegin
  2
GENAXEH
 70
     0
 10
0.0
 20
0.0
 30
0.0
  3
GENAXEH
  1

  0
LINE
  5
20F8
330
20F7
100
AcDbEntity
  8
0
100
AcDbLine
 10
-1.0
 20
0.0
 30
0.0
 11
1.0
 21
0.0
 31
0.0
  0
ENDBLK
  5
20FA
330
20F7
100
AcDbEntity
  8
0
100
AcDbBlockEnd
  0
BLOCK
  5
2112
330
2111
100
AcDbEntity
  8
0
100
AcDbBlockBegin
  2
*D30
 70
     1
 10
0.0
 20
0.0
 30
0.0
  3
*D30
  1

  0
LINE
  5
2113
330
2111
100
AcDbEntity
  8
5
370
    -2
100
AcDbLine
 10
252.7569769013546
 20
272.4029948038035
 30
0.0
 11
252.7569769013546
 21
241.7024233447844
 31
0.0
  0
LINE
  5
2114
330
2111
100
AcDbEntity
  8
5
370
    -2
100
AcDbLine
 10
327.7569769013546
 20
272.4029948038035
 30
0.0
 11
327.7569769013546
 21
241.7024233447844
 31
0.0
  0
LINE
  5
2115
330
2111
100
AcDbEntity
  8
5
370
    -2
100
AcDbLine
 10
257.7569769013546
 20
243.7024233447844
 30
0.0
 11
322.7569769013546
 21
243.7024233447844
 31
0.0
  0
SOLID
  5
2116
330
2111
100
AcDbEntity
  8
5
100
AcDbTrace
 10
257.7569769013546
 20
244.5357566781177
 30
0.0
 11
257.7569769013546
 21
242.869090011451
 31
0.0
 12
252.7569769013546
 22
243.7024233447844
 32
0.0
 13
252.7569769013546
 23
243.7024233447844
 33
0.0
  0
SOLID
  5
2117
330
2111
100
AcDbEntity
  8
5
100
AcDbTrace
 10
322.7569769013546
 20
244.5357566781177
 30
0.0
 11
322.7569769013546
 21
242.869090011451
 31
0.0
 12
327.7569769013546
 22
243.7024233447844
 32
0.0
 13
327.7569769013546
 23
243.7024233447844
 33
0.0
  0
MTEXT
  5
2118
330
2111
100
AcDbEntity
  8
5
 62
     7
100
AcDbMText
 10
273.7465672304345
 20
260.858098294415
 30
0.0
 40
14.0
 41
0.0
 71
     1
 72
     1
  1
%%c75
 73
     1
 44
1.0
  0
POINT
  5
2119
330
2111
100
AcDbEntity
  8
Defpoints
 62
     0
100
AcDbPoint
 10
252.7569769013546
 20
274.4029948038035
 30
0.0
  0
POINT
  5
211A
330
2111
100
AcDbEntity
  8
Defpoints
 62
     0
100
AcDbPoint
 10
327.7569769013546
 20
274.4029948038035
 30
0.0
  0
POINT
  5
211B
330
2111
100
AcDbEntity
  8
Defpoints
 62
     0
100
AcDbPoint
 10
327.7569769013546
 20
243.7024233447844
 30
0.0
  0
ENDBLK
  5
211C
330
2111
100
AcDbEntity
  8
0
100
AcDbBlockEnd
  0
BLOCK
  5
211E
330
211D
100
AcDbEntity
  8
0
100
AcDbBlockBegin
  2
*D31
 70
     1
 10
0.0
 20
0.0
 30
0.0
  3
*D31
  1

  0
LINE
  5
211F
330
211D
100
AcDbEntity
  8
5
370
    -2
100
AcDbLine
 10
219.0069769013547
 20
376.5053903858484
 30
0.0
 11
219.0069769013547
 21
222.2646601514528
 31
0.0
  0
LINE
  5
2120
330
211D
100
AcDbEntity
  8
5
370
    -2
100
AcDbLine
 10
361.5069769013548
 20
376.5053903858484
 30
0.0
 11
361.5069769013548
 21
222.2646601514528
 31
0.0
  0
LINE
  5
2121
330
211D
100
AcDbEntity
  8
5
370
    -2
100
AcDbLine
 10
224.0069769013547
 20
224.2646601514528
 30
0.0
 11
356.5069769013549
 21
224.2646601514528
 31
0.0
  0
SOLID
  5
2122
330
211D
100
AcDbEntity
  8
5
100
AcDbTrace
 10
224.0069769013547
 20
225.0979934847862
 30
0.0
 11
224.0069769013547
 21
223.4313268181195
 31
0.0
 12
219.0069769013547
 22
224.2646601514528
 32
0.0
 13
219.0069769013547
 23
224.2646601514528
 33
0.0
  0
SOLID
  5
2123
330
211D
100
AcDbEntity
  8
5
100
AcDbTrace
 10
356.5069769013549
 20
225.0979934847862
 30
0.0
 11
356.5069769013549
 21
223.4313268181195
 31
0.0
 12
361.5069769013548
 22
224.2646601514528
 32
0.0
 13
361.5069769013548
 23
224.2646601514528
 33
0.0
  0
MTEXT
  5
2124
330
211D
100
AcDbEntity
  8
5
 62
     7
100
AcDbMText
 10
290.2569769013547
 20
233.4424976262681
 30
0.0
 40
14.0
 41
0.0
 71
     5
 72
     1
  1
%%c142
 73
     1
 44
1.0
  0
POINT
  5
2125
330
211D
100
AcDbEntity
  8
Defpoints
 62
     0
100
AcDbPoint
 10
219.0069769013547
 20
378.5053903858484
 30
0.0
  0
POINT
  5
2126
330
211D
100
AcDbEntity
  8
Defpoints
 62
     0
100
AcDbPoint
 10
361.5069769013548
 20
378.5053903858484
 30
0.0
  0
POINT
  5
2127
330
211D
100
AcDbEntity
  8
Defpoints
 62
     0
100
AcDbPoint
 10
361.5069769013548
 20
224.2646601514528
 30
0.0
  0
ENDBLK
  5
2128
330
211D
100
AcDbEntity
  8
0
100
AcDbBlockEnd
  0
BLOCK
  5
212A
330
2129
100
AcDbEntity
  8
0
100
AcDbBlockBegin
  2
*D32
 70
     1
 10
0.0
 20
0.0
 30
0.0
  3
*D32
  1

  0
LINE
  5
212B
330
2129
100
AcDbEntity
  8
5
370
    -2
100
AcDbLine
 10
374.2569769013547
 20
469.1875016676816
 30
0.0
 11
422.5879142054312
 21
469.1875016676816
 31
0.0
  0
LINE
  5
212C
330
2129
100
AcDbEntity
  8
5
370
    -2
100
AcDbLine
 10
327.7569769013547
 20
264.6390627813033
 30
0.0
 11
422.5879142054311
 21
264.6390627813033
 31
0.0
  0
LINE
  5
212D
330
2129
100
AcDbEntity
  8
5
370
    -2
100
AcDbLine
 10
420.5879142054312
 20
464.1875016676817
 30
0.0
 11
420.5879142054311
 21
269.6390627813033
 31
0.0
  0
SOLID
  5
212E
330
2129
100
AcDbEntity
  8
5
100
AcDbTrace
 10
419.7545808720978
 20
464.1875016676817
 30
0.0
 11
421.4212475387643
 21
464.1875016676817
 31
0.0
 12
420.5879142054312
 22
469.1875016676816
 32
0.0
 13
420.5879142054312
 23
469.1875016676816
 33
0.0
  0
SOLID
  5
212F
330
2129
100
AcDbEntity
  8
5
100
AcDbTrace
 10
419.7545808720978
 20
269.6390627813033
 30
0.0
 11
421.4212475387643
 21
269.6390627813033
 31
0.0
 12
420.5879142054311
 22
264.6390627813033
 32
0.0
 13
420.5879142054311
 23
264.6390627813033
 33
0.0
  0
MTEXT
  5
2130
330
2129
100
AcDbEntity
  8
5
 62
     7
100
AcDbMText
 10
412.0964434196688
 20
366.9132822244927
 30
0.0
 40
14.0
 41
0.0
 71
     5
 72
     1
  1
205
 11
0.0000000000000001
 21
1.0
 31
0.0
 73
     1
 44
1.0
  0
POINT
  5
2131
330
2129
100
AcDbEntity
  8
Defpoints
 62
     0
100
AcDbPoint
 10
372.2569769013547
 20
469.1875016676816
 30
0.0
  0
POINT
  5
2132
330
2129
100
AcDbEntity
  8
Defpoints
 62
     0
100
AcDbPoint
 10
325.7569769013547
 20
264.6390627813033
 30
0.0
  0
POINT
  5
2133
330
2129
100
AcDbEntity
  8
Defpoints
 62
     0
100
AcDbPoint
 10
420.5879142054311
 20
264.6390627813033
 30
0.0
  0
ENDBLK
  5
2134
330
2129
100
AcDbEntity
  8
0
100
AcDbBlockEnd
  0
BLOCK
  5
2136
330
2135
100
AcDbEntity
  8
0
100
AcDbBlockBegin
  2
*D33
 70
     1
 10
0.0
 20
0.0
 30
0.0
  3
*D33
  1

  0
LINE
  5
2137
330
2135
100
AcDbEntity
  8
5
370
    -2
100
AcDbLine
 10
374.2569769013547
 20
469.1875016676816
 30
0.0
 11
397.5025707523855
 21
469.1875016676816
 31
0.0
  0
LINE
  5
2138
330
2135
100
AcDbEntity
  8
5
370
    -2
100
AcDbLine
 10
343.6324245199145
 20
360.4108204577655
 30
0.0
 11
397.5025707523855
 21
360.4108204577654
 31
0.0
  0
LINE
  5
2139
330
2135
100
AcDbEntity
  8
5
370
    -2
100
AcDbLine
 10
395.5025707523856
 20
464.1875016676817
 30
0.0
 11
395.5025707523855
 21
365.4108204577655
 31
0.0
  0
SOLID
  5
213A
330
2135
100
AcDbEntity
  8
5
100
AcDbTrace
 10
394.6692374190523
 20
464.1875016676817
 30
0.0
 11
396.3359040857188
 21
464.1875016676817
 31
0.0
 12
395.5025707523856
 22
469.1875016676816
 32
0.0
 13
395.5025707523856
 23
469.1875016676816
 33
0.0
  0
SOLID
  5
213B
330
2135
100
AcDbEntity
  8
5
100
AcDbTrace
 10
394.6692374190522
 20
365.4108204577655
 30
0.0
 11
396.3359040857188
 21
365.4108204577655
 31
0.0
 12
395.5025707523855
 22
360.4108204577654
 32
0.0
 13
395.5025707523855
 23
360.4108204577654
 33
0.0
  0
MTEXT
  5
213C
330
2135
100
AcDbEntity
  8
5
 62
     7
100
AcDbMText
 10
387.015801108329
 20
414.7991610627236
 30
0.0
 40
14.0
 41
0.0
 71
     5
 72
     1
  1
109
 11
0.0000000000000001
 21
1.0
 31
0.0
 73
     1
 44
1.0
  0
POINT
  5
213D
330
2135
100
AcDbEntity
  8
Defpoints
 62
     0
100
AcDbPoint
 10
372.2569769013547
 20
469.1875016676816
 30
0.0
  0
POINT
  5
213E
330
2135
100
AcDbEntity
  8
Defpoints
 62
     0
100
AcDbPoint
 10
341.6324245199145
 20
360.4108204577655
 30
0.0
  0
POINT
  5
213F
330
2135
100
AcDbEntity
  8
Defpoints
 62
     0
100
AcDbPoint
 10
395.5025707523855
 20
360.4108204577654
 30
0.0
  0
ENDBLK
  5
2140
330
2135
100
AcDbEntity
  8
0
100
AcDbBlockEnd
  0
BLOCK
  5
2142
330
2141
100
AcDbEntity
  8
0
100
AcDbBlockBegin
  2
*D34
 70
     1
 10
0.0
 20
0.0
 30
0.0
  3
*D34
  1

  0
LINE
  5
2143
330
2141
100
AcDbEntity
  8
5
370
    -2
100
AcDbLine
 10
208.2569769013548
 20
471.1875016676818
 30
0.0
 11
208.2569769013548
 21
483.1875016676818
 31
0.0
  0
LINE
  5
2144
330
2141
100
AcDbEntity
  8
5
370
    -2
100
AcDbLine
 10
372.2569769013547
 20
471.1875016676818
 30
0.0
 11
372.2569769013547
 21
483.1875016676818
 31
0.0
  0
LINE
  5
2145
330
2141
100
AcDbEntity
  8
5
370
    -2
100
AcDbLine
 10
213.2569769013548
 20
481.1875016676818
 30
0.0
 11
367.2569769013547
 21
481.1875016676818
 31
0.0
  0
SOLID
  5
2146
330
2141
100
AcDbEntity
  8
5
100
AcDbTrace
 10
213.2569769013548
 20
482.020835001015
 30
0.0
 11
213.2569769013548
 21
480.3541683343484
 31
0.0
 12
208.2569769013548
 22
481.1875016676818
 32
0.0
 13
208.2569769013548
 23
481.1875016676818
 33
0.0
  0
SOLID
  5
2147
330
2141
100
AcDbEntity
  8
5
100
AcDbTrace
 10
367.2569769013547
 20
482.020835001015
 30
0.0
 11
367.2569769013547
 21
480.3541683343484
 31
0.0
 12
372.2569769013547
 22
481.1875016676818
 32
0.0
 13
372.2569769013547
 23
481.1875016676818
 33
0.0
  0
MTEXT
  5
2148
330
2141
100
AcDbEntity
  8
5
 62
     7
100
AcDbMText
 10
290.2569769013547
 20
490.365339142497
 30
0.0
 40
14.0
 41
0.0
 71
     5
 72
     1
  1
%%c164
 73
     1
 44
1.0
  0
POINT
  5
2149
330
2141
100
AcDbEntity
  8
Defpoints
 62
     0
100
AcDbPoint
 10
208.2569769013548
 20
469.1875016676816
 30
0.0
  0
POINT
  5
214A
330
2141
100
AcDbEntity
  8
Defpoints
 62
     0
100
AcDbPoint
 10
372.2569769013547
 20
469.1875016676816
 30
0.0
  0
POINT
  5
214B
330
2141
100
AcDbEntity
  8
Defpoints
 62
     0
100
AcDbPoint
 10
372.2569769013547
 20
481.1875016676818
 30
0.0
  0
ENDBLK
  5
214C
330
2141
100
AcDbEntity
  8
0
100
AcDbBlockEnd
  0
BLOCK
  5
2225
330
2224
100
AcDbEntity
  8
0
100
AcDbBlockBegin
  2
*D35
 70
     1
 10
0.0
 20
0.0
 30
0.0
  3
*D35
  1

  0
LINE
  5
2260
330
2224
100
AcDbEntity
  8
5
370
    -2
100
AcDbLine
 10
561.2253553880787
 20
310.2715555828309
 30
0.0
 11
561.2253553880787
 21
279.5709841238117
 31
0.0
  0
LINE
  5
2261
330
2224
100
AcDbEntity
  8
5
370
    -2
100
AcDbLine
 10
636.2253553880788
 20
310.2715555828309
 30
0.0
 11
636.2253553880788
 21
279.5709841238117
 31
0.0
  0
LINE
  5
2262
330
2224
100
AcDbEntity
  8
5
370
    -2
100
AcDbLine
 10
566.2253553880788
 20
281.5709841238117
 30
0.0
 11
631.2253553880785
 21
281.5709841238117
 31
0.0
  0
SOLID
  5
2263
330
2224
100
AcDbEntity
  8
5
100
AcDbTrace
 10
566.2253553880788
 20
282.4043174571451
 30
0.0
 11
566.2253553880788
 21
280.7376507904784
 31
0.0
 12
561.2253553880787
 22
281.5709841238117
 32
0.0
 13
561.2253553880787
 23
281.5709841238117
 33
0.0
  0
SOLID
  5
2264
330
2224
100
AcDbEntity
  8
5
100
AcDbTrace
 10
631.2253553880785
 20
282.4043174571451
 30
0.0
 11
631.2253553880785
 21
280.7376507904784
 31
0.0
 12
636.2253553880788
 22
281.5709841238117
 32
0.0
 13
636.2253553880788
 23
281.5709841238117
 33
0.0
  0
MTEXT
  5
2265
330
2224
100
AcDbEntity
  8
5
 62
     7
100
AcDbMText
 10
598.7253553880788
 20
290.7488215986271
 30
0.0
 40
14.0
 41
0.0
 71
     5
 72
     1
  1
%%c75
 73
     1
 44
1.0
  0
POINT
  5
2266
330
2224
100
AcDbEntity
  8
Defpoints
 62
     0
100
AcDbPoint
 10
561.2253553880787
 20
312.2715555828309
 30
0.0
  0
POINT
  5
2267
330
2224
100
AcDbEntity
  8
Defpoints
 62
     0
100
AcDbPoint
 10
636.2253553880788
 20
312.2715555828309
 30
0.0
  0
POINT
  5
2268
330
2224
100
AcDbEntity
  8
Defpoints
 62
     0
100
AcDbPoint
 10
636.2253553880788
 20
281.5709841238117
 30
0.0
  0
ENDBLK
  5
2226
330
2224
100
AcDbEntity
  8
0
100
AcDbBlockEnd
  0
BLOCK
  5
2231
330
2230
100
AcDbEntity
  8
0
100
AcDbBlockBegin
  2
*D36
 70
     1
 10
0.0
 20
0.0
 30
0.0
  3
*D36
  1

  0
LINE
  5
2269
330
2230
100
AcDbEntity
  8
5
370
    -2
100
AcDbLine
 10
527.4753553880787
 20
414.3739511648757
 30
0.0
 11
527.4753553880787
 21
260.1332209304802
 31
0.0
  0
LINE
  5
226A
330
2230
100
AcDbEntity
  8
5
370
    -2
100
AcDbLine
 10
669.9753553880788
 20
414.3739511648757
 30
0.0
 11
669.9753553880788
 21
260.1332209304802
 31
0.0
  0
LINE
  5
226B
330
2230
100
AcDbEntity
  8
5
370
    -2
100
AcDbLine
 10
532.4753553880785
 20
262.1332209304802
 30
0.0
 11
664.9753553880787
 21
262.1332209304802
 31
0.0
  0
SOLID
  5
226C
330
2230
100
AcDbEntity
  8
5
100
AcDbTrace
 10
532.4753553880785
 20
262.9665542638135
 30
0.0
 11
532.4753553880785
 21
261.2998875971469
 31
0.0
 12
527.4753553880787
 22
262.1332209304802
 32
0.0
 13
527.4753553880787
 23
262.1332209304802
 33
0.0
  0
SOLID
  5
226D
330
2230
100
AcDbEntity
  8
5
100
AcDbTrace
 10
664.9753553880787
 20
262.9665542638135
 30
0.0
 11
664.9753553880787
 21
261.2998875971469
 31
0.0
 12
669.9753553880788
 22
262.1332209304802
 32
0.0
 13
669.9753553880788
 23
262.1332209304802
 33
0.0
  0
MTEXT
  5
226E
330
2230
100
AcDbEntity
  8
5
 62
     7
100
AcDbMText
 10
598.7253553880788
 20
271.3110584052955
 30
0.0
 40
14.0
 41
0.0
 71
     5
 72
     1
  1
%%c142
 73
     1
 44
1.0
  0
POINT
  5
226F
330
2230
100
AcDbEntity
  8
Defpoints
 62
     0
100
AcDbPoint
 10
527.4753553880787
 20
416.3739511648757
 30
0.0
  0
POINT
  5
2270
330
2230
100
AcDbEntity
  8
Defpoints
 62
     0
100
AcDbPoint
 10
669.9753553880788
 20
416.3739511648757
 30
0.0
  0
POINT
  5
2271
330
2230
100
AcDbEntity
  8
Defpoints
 62
     0
100
AcDbPoint
 10
669.9753553880788
 20
262.1332209304802
 30
0.0
  0
ENDBLK
  5
2232
330
2230
100
AcDbEntity
  8
0
100
AcDbBlockEnd
  0
BLOCK
  5
223D
330
223C
100
AcDbEntity
  8
0
100
AcDbBlockBegin
  2
*D37
 70
     1
 10
0.0
 20
0.0
 30
0.0
  3
*D37
  1

  0
LINE
  5
2272
330
223C
100
AcDbEntity
  8
5
370
    -2
100
AcDbLine
 10
682.7253553880788
 20
507.0560624467089
 30
0.0
 11
731.0562926921553
 21
507.0560624467089
 31
0.0
  0
LINE
  5
2273
330
223C
100
AcDbEntity
  8
5
370
    -2
100
AcDbLine
 10
636.2253553880788
 20
302.5076235603307
 30
0.0
 11
731.0562926921553
 21
302.5076235603306
 31
0.0
  0
LINE
  5
2274
330
223C
100
AcDbEntity
  8
5
370
    -2
100
AcDbLine
 10
729.0562926921553
 20
502.056062446709
 30
0.0
 11
729.0562926921553
 21
307.5076235603306
 31
0.0
  0
SOLID
  5
2275
330
223C
100
AcDbEntity
  8
5
100
AcDbTrace
 10
728.2229593588217
 20
502.056062446709
 30
0.0
 11
729.8896260254886
 21
502.056062446709
 31
0.0
 12
729.0562926921553
 22
507.0560624467089
 32
0.0
 13
729.0562926921553
 23
507.0560624467089
 33
0.0
  0
SOLID
  5
2276
330
223C
100
AcDbEntity
  8
5
100
AcDbTrace
 10
728.2229593588217
 20
307.5076235603306
 30
0.0
 11
729.8896260254886
 21
307.5076235603306
 31
0.0
 12
729.0562926921553
 22
302.5076235603306
 32
0.0
 13
729.0562926921553
 23
302.5076235603306
 33
0.0
  0
MTEXT
  5
2277
330
223C
100
AcDbEntity
  8
5
 62
     7
100
AcDbMText
 10
720.5648219063927
 20
404.7818430035198
 30
0.0
 40
14.0
 41
0.0
 71
     5
 72
     1
  1
205
 11
0.0000000000000001
 21
1.0
 31
0.0
 73
     1
 44
1.0
  0
POINT
  5
2278
330
223C
100
AcDbEntity
  8
Defpoints
 62
     0
100
AcDbPoint
 10
680.7253553880785
 20
507.0560624467089
 30
0.0
  0
POINT
  5
2279
330
223C
100
AcDbEntity
  8
Defpoints
 62
     0
100
AcDbPoint
 10
634.2253553880786
 20
302.5076235603307
 30
0.0
  0
POINT
  5
227A
330
223C
100
AcDbEntity
  8
Defpoints
 62
     0
100
AcDbPoint
 10
729.0562926921553
 20
302.5076235603306
 30
0.0
  0
ENDBLK
  5
223E
330
223C
100
AcDbEntity
  8
0
100
AcDbBlockEnd
  0
BLOCK
  5
2249
330
2248
100
AcDbEntity
  8
0
100
AcDbBlockBegin
  2
*D38
 70
     1
 10
0.0
 20
0.0
 30
0.0
  3
*D38
  1

  0
LINE
  5
227B
330
2248
100
AcDbEntity
  8
5
370
    -2
100
AcDbLine
 10
682.7253553880788
 20
507.0560624467089
 30
0.0
 11
705.9709492391093
 21
507.0560624467089
 31
0.0
  0
LINE
  5
227C
330
2248
100
AcDbEntity
  8
5
370
    -2
100
AcDbLine
 10
652.1008030066386
 20
398.2793812367928
 30
0.0
 11
705.9709492391093
 21
398.2793812367928
 31
0.0
  0
LINE
  5
227D
330
2248
100
AcDbEntity
  8
5
370
    -2
100
AcDbLine
 10
703.9709492391097
 20
502.056062446709
 30
0.0
 11
703.9709492391097
 21
403.2793812367928
 31
0.0
  0
SOLID
  5
227E
330
2248
100
AcDbEntity
  8
5
100
AcDbTrace
 10
703.1376159057762
 20
502.056062446709
 30
0.0
 11
704.8042825724429
 21
502.056062446709
 31
0.0
 12
703.9709492391097
 22
507.0560624467089
 32
0.0
 13
703.9709492391097
 23
507.0560624467089
 33
0.0
  0
SOLID
  5
227F
330
2248
100
AcDbEntity
  8
5
100
AcDbTrace
 10
703.1376159057762
 20
403.2793812367928
 30
0.0
 11
704.8042825724429
 21
403.2793812367928
 31
0.0
 12
703.9709492391097
 22
398.2793812367928
 32
0.0
 13
703.9709492391097
 23
398.2793812367928
 33
0.0
  0
MTEXT
  5
2280
330
2248
100
AcDbEntity
  8
5
 62
     7
100
AcDbMText
 10
695.4841795950531
 20
452.6677218417511
 30
0.0
 40
14.0
 41
0.0
 71
     5
 72
     1
  1
109
 11
0.0000000000000001
 21
1.0
 31
0.0
 73
     1
 44
1.0
  0
POINT
  5
2281
330
2248
100
AcDbEntity
  8
Defpoints
 62
     0
100
AcDbPoint
 10
680.7253553880785
 20
507.0560624467089
 30
0.0
  0
POINT
  5
2282
330
2248
100
AcDbEntity
  8
Defpoints
 62
     0
100
AcDbPoint
 10
650.1008030066387
 20
398.2793812367928
 30
0.0
  0
POINT
  5
2283
330
2248
100
AcDbEntity
  8
Defpoints
 62
     0
100
AcDbPoint
 10
703.9709492391097
 20
398.2793812367928
 30
0.0
  0
ENDBLK
  5
224A
330
2248
100
AcDbEntity
  8
0
100
AcDbBlockEnd
  0
BLOCK
  5
2255
330
2254
100
AcDbEntity
  8
0
100
AcDbBlockBegin
  2
*D39
 70
     1
 10
0.0
 20
0.0
 30
0.0
  3
*D39
  1

  0
LINE
  5
2284
330
2254
100
AcDbEntity
  8
5
370
    -2
100
AcDbLine
 10
516.7253553880787
 20
509.056062446709
 30
0.0
 11
516.7253553880787
 21
521.0560624467091
 31
0.0
  0
LINE
  5
2285
330
2254
100
AcDbEntity
  8
5
370
    -2
100
AcDbLine
 10
680.7253553880785
 20
509.056062446709
 30
0.0
 11
680.7253553880785
 21
521.0560624467091
 31
0.0
  0
LINE
  5
2286
330
2254
100
AcDbEntity
  8
5
370
    -2
100
AcDbLine
 10
521.7253553880786
 20
519.056062446709
 30
0.0
 11
675.7253553880786
 21
519.056062446709
 31
0.0
  0
SOLID
  5
2287
330
2254
100
AcDbEntity
  8
5
100
AcDbTrace
 10
521.7253553880786
 20
519.8893957800423
 30
0.0
 11
521.7253553880786
 21
518.2227291133757
 31
0.0
 12
516.7253553880787
 22
519.056062446709
 32
0.0
 13
516.7253553880787
 23
519.056062446709
 33
0.0
  0
SOLID
  5
2288
330
2254
100
AcDbEntity
  8
5
100
AcDbTrace
 10
675.7253553880786
 20
519.8893957800423
 30
0.0
 11
675.7253553880786
 21
518.2227291133757
 31
0.0
 12
680.7253553880785
 22
519.056062446709
 32
0.0
 13
680.7253553880785
 23
519.056062446709
 33
0.0
  0
MTEXT
  5
2289
330
2254
100
AcDbEntity
  8
5
 62
     7
100
AcDbMText
 10
598.7253553880788
 20
528.2338999215243
 30
0.0
 40
14.0
 41
0.0
 71
     5
 72
     1
  1
%%c164
 73
     1
 44
1.0
  0
POINT
  5
228A
330
2254
100
AcDbEntity
  8
Defpoints
 62
     0
100
AcDbPoint
 10
516.7253553880787
 20
507.0560624467089
 30
0.0
  0
POINT
  5
228B
330
2254
100
AcDbEntity
  8
Defpoints
 62
     0
100
AcDbPoint
 10
680.7253553880785
 20
507.0560624467089
 30
0.0
  0
POINT
  5
228C
330
2254
100
AcDbEntity
  8
Defpoints
 62
     0
100
AcDbPoint
 10
680.7253553880785
 20
519.056062446709
 30
0.0
  0
ENDBLK
  5
2256
330
2254
100
AcDbEntity
  8
0
100
AcDbBlockEnd
  0
BLOCK
  5
231E
330
231D
100
AcDbEntity
  8
0
100
AcDbBlockBegin
  2
*D40
 70
     1
 10
0.0
 20
0.0
 30
0.0
  3
*D40
  1

  0
LINE
  5
2645
330
231D
100
AcDbEntity
  8
5
370
    -2
100
AcDbLine
 10
146.4966229609605
 20
254.7250287226872
 30
0.0
 11
146.4966229609605
 21
225.1478762774623
 31
0.0
  0
LINE
  5
2646
330
231D
100
AcDbEntity
  8
5
370
    -2
100
AcDbLine
 10
221.49662296096
 20
254.7250287226872
 30
0.0
 11
221.49662296096
 21
225.1478762774623
 31
0.0
  0
LINE
  5
2647
330
231D
100
AcDbEntity
  8
5
370
    -2
100
AcDbLine
 10
151.4966229609605
 20
227.1478762774623
 30
0.0
 11
216.49662296096
 21
227.1478762774623
 31
0.0
  0
SOLID
  5
2648
330
231D
100
AcDbEntity
  8
5
100
AcDbTrace
 10
151.4966229609605
 20
227.9812096107956
 30
0.0
 11
151.4966229609605
 21
226.3145429441289
 31
0.0
 12
146.4966229609605
 22
227.1478762774623
 32
0.0
 13
146.4966229609605
 23
227.1478762774623
 33
0.0
  0
SOLID
  5
2649
330
231D
100
AcDbEntity
  8
5
100
AcDbTrace
 10
216.49662296096
 20
227.9812096107956
 30
0.0
 11
216.49662296096
 21
226.3145429441289
 31
0.0
 12
221.49662296096
 22
227.1478762774623
 32
0.0
 13
221.49662296096
 23
227.1478762774623
 33
0.0
  0
MTEXT
  5
264A
330
231D
100
AcDbEntity
  8
5
 62
     7
100
AcDbMText
 10
183.9966229609603
 20
236.3257137522776
 30
0.0
 40
14.0
 41
0.0
 71
     5
 72
     1
  1
%%c75
 73
     1
 44
1.0
  0
POINT
  5
264B
330
231D
100
AcDbEntity
  8
Defpoints
 62
     0
100
AcDbPoint
 10
146.4966229609605
 20
256.7250287226872
 30
0.0
  0
POINT
  5
264C
330
231D
100
AcDbEntity
  8
Defpoints
 62
     0
100
AcDbPoint
 10
221.49662296096
 20
256.7250287226872
 30
0.0
  0
POINT
  5
264D
330
231D
100
AcDbEntity
  8
Defpoints
 62
     0
100
AcDbPoint
 10
221.49662296096
 20
227.1478762774623
 30
0.0
  0
ENDBLK
  5
231F
330
231D
100
AcDbEntity
  8
0
100
AcDbBlockEnd
  0
BLOCK
  5
234A
330
2349
100
AcDbEntity
  8
0
100
AcDbBlockBegin
  2
*D41
 70
     1
 10
0.0
 20
0.0
 30
0.0
  3
*D41
  1

  0
LINE
  5
263C
330
2349
100
AcDbEntity
  8
5
370
    -2
100
AcDbLine
 10
105.4966229609603
 20
354.2343171171996
 30
0.0
 11
105.4966229609602
 21
206.1462648398533
 31
0.0
  0
LINE
  5
263D
330
2349
100
AcDbEntity
  8
5
370
    -2
100
AcDbLine
 10
262.4966229609603
 20
354.2343171171996
 30
0.0
 11
262.4966229609603
 21
206.1462648398533
 31
0.0
  0
LINE
  5
263E
330
2349
100
AcDbEntity
  8
5
370
    -2
100
AcDbLine
 10
110.4966229609603
 20
208.1462648398533
 30
0.0
 11
257.4966229609604
 21
208.1462648398533
 31
0.0
  0
SOLID
  5
263F
330
2349
100
AcDbEntity
  8
5
100
AcDbTrace
 10
110.4966229609603
 20
208.9795981731866
 30
0.0
 11
110.4966229609603
 21
207.3129315065199
 31
0.0
 12
105.4966229609602
 22
208.1462648398533
 32
0.0
 13
105.4966229609602
 23
208.1462648398533
 33
0.0
  0
SOLID
  5
2640
330
2349
100
AcDbEntity
  8
5
100
AcDbTrace
 10
257.4966229609604
 20
208.9795981731866
 30
0.0
 11
257.4966229609604
 21
207.3129315065199
 31
0.0
 12
262.4966229609603
 22
208.1462648398533
 32
0.0
 13
262.4966229609603
 23
208.1462648398533
 33
0.0
  0
MTEXT
  5
2641
330
2349
100
AcDbEntity
  8
5
 62
     7
100
AcDbMText
 10
183.9966229609603
 20
217.3241023146686
 30
0.0
 40
14.0
 41
0.0
 71
     5
 72
     1
  1
%%c157
 73
     1
 44
1.0
  0
POINT
  5
2642
330
2349
100
AcDbEntity
  8
Defpoints
 62
     0
100
AcDbPoint
 10
105.4966229609603
 20
356.2343171171996
 30
0.0
  0
POINT
  5
2643
330
2349
100
AcDbEntity
  8
Defpoints
 62
     0
100
AcDbPoint
 10
262.4966229609603
 20
356.2343171171996
 30
0.0
  0
POINT
  5
2644
330
2349
100
AcDbEntity
  8
Defpoints
 62
     0
100
AcDbPoint
 10
262.4966229609603
 20
208.1462648398533
 30
0.0
  0
ENDBLK
  5
234B
330
2349
100
AcDbEntity
  8
0
100
AcDbBlockEnd
  0
BLOCK
  5
236C
330
236B
100
AcDbEntity
  8
0
100
AcDbBlockBegin
  2
*D42
 70
     1
 10
0.0
 20
0.0
 30
0.0
  3
*D42
  1

  0
LINE
  5
2418
330
236B
100
AcDbEntity
  8
5
370
    -2
100
AcDbLine
 10
274.9966229609604
 20
511.7733171171995
 30
0.0
 11
274.9966229609604
 21
534.6377896034518
 31
0.0
  0
LINE
  5
2419
330
236B
100
AcDbEntity
  8
5
370
    -2
100
AcDbLine
 10
92.99662296096036
 20
511.7733171171995
 30
0.0
 11
92.99662296096036
 21
534.6377896034518
 31
0.0
  0
LINE
  5
241A
330
236B
100
AcDbEntity
  8
5
370
    -2
100
AcDbLine
 10
269.9966229609604
 20
532.6377896034519
 30
0.0
 11
97.99662296096036
 21
532.6377896034519
 31
0.0
  0
SOLID
  5
241B
330
236B
100
AcDbEntity
  8
5
100
AcDbTrace
 10
269.9966229609604
 20
533.4711229367853
 30
0.0
 11
269.9966229609604
 21
531.8044562701185
 31
0.0
 12
274.9966229609604
 22
532.6377896034519
 32
0.0
 13
274.9966229609604
 23
532.6377896034519
 33
0.0
  0
SOLID
  5
241C
330
236B
100
AcDbEntity
  8
5
100
AcDbTrace
 10
97.99662296096036
 20
533.4711229367853
 30
0.0
 11
97.99662296096036
 21
531.8044562701185
 31
0.0
 12
92.99662296096036
 22
532.6377896034519
 32
0.0
 13
92.99662296096036
 23
532.6377896034519
 33
0.0
  0
MTEXT
  5
241D
330
236B
100
AcDbEntity
  8
5
 62
     7
100
AcDbMText
 10
183.9966229609603
 20
541.8156270782672
 30
0.0
 40
14.0
 41
0.0
 71
     5
 72
     1
  1
%%c182
 73
     1
 44
1.0
  0
POINT
  5
241E
330
236B
100
AcDbEntity
  8
Defpoints
 62
     0
100
AcDbPoint
 10
274.9966229609604
 20
509.7733171171996
 30
0.0
  0
POINT
  5
241F
330
236B
100
AcDbEntity
  8
Defpoints
 62
     0
100
AcDbPoint
 10
92.99662296096036
 20
509.7733171171996
 30
0.0
  0
POINT
  5
2420
330
236B
100
AcDbEntity
  8
Defpoints
 62
     0
100
AcDbPoint
 10
92.99662296096036
 20
532.6377896034519
 30
0.0
  0
ENDBLK
  5
236D
330
236B
100
AcDbEntity
  8
0
100
AcDbBlockEnd
  0
BLOCK
  5
238E
330
238D
100
AcDbEntity
  8
0
100
AcDbBlockBegin
  2
*D43
 70
     1
 10
0.0
 20
0.0
 30
0.0
  3
*D43
  1

  0
LINE
  5
264E
330
238D
100
AcDbEntity
  8
5
370
    -2
100
AcDbLine
 10
221.4966229609601
 20
248.7343171171999
 30
0.0
 11
308.3676236909185
 21
248.7343171171999
 31
0.0
  0
LINE
  5
264F
330
238D
100
AcDbEntity
  8
5
370
    -2
100
AcDbLine
 10
276.9966229609604
 20
509.7733171171996
 30
0.0
 11
308.3676236909186
 21
509.7733171171996
 31
0.0
  0
LINE
  5
2650
330
238D
100
AcDbEntity
  8
5
370
    -2
100
AcDbLine
 10
306.3676236909185
 20
253.7343171171999
 30
0.0
 11
306.3676236909186
 21
504.7733171171996
 31
0.0
  0
SOLID
  5
2651
330
238D
100
AcDbEntity
  8
5
100
AcDbTrace
 10
305.5342903575852
 20
253.7343171171999
 30
0.0
 11
307.2009570242518
 21
253.7343171171999
 31
0.0
 12
306.3676236909185
 22
248.7343171171999
 32
0.0
 13
306.3676236909185
 23
248.7343171171999
 33
0.0
  0
SOLID
  5
2652
330
238D
100
AcDbEntity
  8
5
100
AcDbTrace
 10
305.5342903575852
 20
504.7733171171996
 30
0.0
 11
307.2009570242518
 21
504.7733171171996
 31
0.0
 12
306.3676236909186
 22
509.7733171171996
 32
0.0
 13
306.3676236909186
 23
509.7733171171996
 33
0.0
  0
MTEXT
  5
2653
330
238D
100
AcDbEntity
  8
5
 62
     7
100
AcDbMText
 10
297.8761529051562
 20
379.2538171171998
 30
0.0
 40
14.0
 41
0.0
 71
     5
 72
     1
  1
261
 11
0.0000000000000001
 21
1.0
 31
0.0
 73
     1
 44
1.0
  0
POINT
  5
2654
330
238D
100
AcDbEntity
  8
Defpoints
 62
     0
100
AcDbPoint
 10
219.4966229609601
 20
248.7343171171999
 30
0.0
  0
POINT
  5
2655
330
238D
100
AcDbEntity
  8
Defpoints
 62
     0
100
AcDbPoint
 10
274.9966229609604
 20
509.7733171171996
 30
0.0
  0
POINT
  5
2656
330
238D
100
AcDbEntity
  8
Defpoints
 62
     0
100
AcDbPoint
 10
306.3676236909186
 20
509.7733171171996
 30
0.0
  0
ENDBLK
  5
238F
330
238D
100
AcDbEntity
  8
0
100
AcDbBlockEnd
  0
BLOCK
  5
23B0
330
23AF
100
AcDbEntity
  8
0
100
AcDbBlockBegin
  2
*D44
 70
     1
 10
0.0
 20
0.0
 30
0.0
  3
*D44
  1

  0
LINE
  5
23D0
330
23AF
100
AcDbEntity
  8
5
370
    -2
100
AcDbLine
 10
247.9966229609603
 20
339.7343171171996
 30
0.0
 11
288.9966229609603
 21
339.7343171171996
 31
0.0
  0
LINE
  5
23D1
330
23AF
100
AcDbEntity
  8
5
370
    -2
100
AcDbLine
 10
276.9966229609604
 20
509.7733171171996
 30
0.0
 11
288.9966229609604
 21
509.7733171171996
 31
0.0
  0
LINE
  5
23D2
330
23AF
100
AcDbEntity
  8
5
370
    -2
100
AcDbLine
 10
286.9966229609604
 20
344.7343171171996
 30
0.0
 11
286.9966229609604
 21
504.7733171171996
 31
0.0
  0
SOLID
  5
23D3
330
23AF
100
AcDbEntity
  8
5
100
AcDbTrace
 10
286.163289627627
 20
344.7343171171996
 30
0.0
 11
287.8299562942936
 21
344.7343171171996
 31
0.0
 12
286.9966229609604
 22
339.7343171171996
 32
0.0
 13
286.9966229609604
 23
339.7343171171996
 33
0.0
  0
SOLID
  5
23D4
330
23AF
100
AcDbEntity
  8
5
100
AcDbTrace
 10
286.1632896276272
 20
504.7733171171996
 30
0.0
 11
287.8299562942936
 21
504.7733171171996
 31
0.0
 12
286.9966229609604
 22
509.7733171171996
 32
0.0
 13
286.9966229609604
 23
509.7733171171996
 33
0.0
  0
MTEXT
  5
23D5
330
23AF
100
AcDbEntity
  8
5
 62
     7
100
AcDbMText
 10
278.5098533169038
 20
424.7538171171997
 30
0.0
 40
14.0
 41
0.0
 71
     5
 72
     1
  1
170
 11
0.0000000000000001
 21
1.0
 31
0.0
 73
     1
 44
1.0
  0
POINT
  5
23D6
330
23AF
100
AcDbEntity
  8
Defpoints
 62
     0
100
AcDbPoint
 10
245.9966229609603
 20
339.7343171171996
 30
0.0
  0
POINT
  5
23D7
330
23AF
100
AcDbEntity
  8
Defpoints
 62
     0
100
AcDbPoint
 10
274.9966229609604
 20
509.7733171171996
 30
0.0
  0
POINT
  5
23D8
330
23AF
100
AcDbEntity
  8
Defpoints
 62
     0
100
AcDbPoint
 10
286.9966229609604
 20
509.7733171171996
 30
0.0
  0
ENDBLK
  5
23B1
330
23AF
100
AcDbEntity
  8
0
100
AcDbBlockEnd
  0
ENDSEC
  0
SECTION
  2
ENTITIES
  0
LINE
  5
217
330
6C
100
AcDbEntity
  8
0
100
AcDbLine
 10
219.4966229609601
 20
248.7343171171999
 30
0.0
 11
148.4966229609606
 21
248.7343171171999
 31
0.0
  0
ARC
  5
218
330
6C
100
AcDbEntity
  8
0
100
AcDbCircle
 10
217.4966229609601
 20
256.7250287226872
 30
0.0
 40
3.999999999999912
100
AcDbArc
 50
345.0000000000002
 51
0.0
  0
ARC
  5
219
330
6C
100
AcDbEntity
  8
0
100
AcDbCircle
 10
150.4966229609605
 20
256.7250287226872
 30
0.0
 40
3.999999999999912
100
AcDbArc
 50
180.0
 51
194.9999999999997
  0
LINE
  5
21A
330
6C
100
AcDbEntity
  8
0
100
AcDbLine
 10
146.4966229609605
 20
256.7250287226872
 30
0.0
 11
146.4966229609605
 21
278.7343171172
 31
0.0
  0
LINE
  5
21B
330
6C
100
AcDbEntity
  8
0
100
AcDbLine
 10
221.4966229609601
 20
256.7250287226872
 30
0.0
 11
221.4966229609601
 21
278.7343171171999
 31
0.0
  0
LINE
  5
21E
330
6C
100
AcDbEntity
  8
0
100
AcDbLine
 10
148.4966229609605
 20
248.7343171172
 30
0.0
 11
146.6329196558042
 21
255.6897525422772
 31
0.0
  0
LINE
  5
21F
330
6C
100
AcDbEntity
  8
0
100
AcDbLine
 10
219.4966229609601
 20
248.7343171172
 30
0.0
 11
221.3603262661163
 21
255.6897525422772
 31
0.0
  0
LINE
  5
220
330
6C
100
AcDbEntity
  8
0
100
AcDbLine
 10
146.4966229609605
 20
278.7343171172
 30
0.0
 11
146.4966229609605
 21
298.5426658015544
 31
0.0
  0
LINE
  5
221
330
6C
100
AcDbEntity
  8
0
100
AcDbLine
 10
221.4966229609601
 20
278.7343171171999
 30
0.0
 11
221.4966229609601
 21
298.5426658015544
 31
0.0
  0
ARC
  5
222
330
6C
100
AcDbEntity
  8
0
100
AcDbCircle
 10
220.4966229609601
 20
298.5426658015544
 30
0.0
 40
0.9999999999999955
100
AcDbArc
 50
0.0
 51
21.69851248984965
  0
ARC
  5
223
330
6C
100
AcDbEntity
  8
0
100
AcDbCircle
 10
147.4966229609605
 20
298.5426658015544
 30
0.0
 40
0.9999999999999964
100
AcDbArc
 50
158.3014875101503
 51
180.0
  0
LINE
  5
224
330
6C
100
AcDbEntity
  8
0
100
AcDbLine
 10
220.2820518756763
 20
301.786630141849
 30
0.0
 11
221.4257651315277
 21
298.9123884366105
 31
0.0
  0
LINE
  5
225
330
6C
100
AcDbEntity
  8
0
100
AcDbLine
 10
147.7111940462443
 20
301.786630141849
 30
0.0
 11
146.5674807903929
 21
298.9123884366105
 31
0.0
  0
ARC
  5
226
330
6C
100
AcDbEntity
  8
0
100
AcDbCircle
 10
220.7466229609601
 20
301.9714914593771
 30
0.0
 40
0.4999999999999963
100
AcDbArc
 50
180.0
 51
201.6985124898531
  0
ARC
  5
227
330
6C
100
AcDbEntity
  8
0
100
AcDbCircle
 10
147.2466229609605
 20
301.9714914593771
 30
0.0
 40
0.4999999999999967
100
AcDbArc
 50
338.301487510147
 51
0.0
  0
LINE
  5
228
330
6C
100
AcDbEntity
  8
0
100
AcDbLine
 10
147.7466229609605
 20
301.9714914593771
 30
0.0
 11
147.7466229609605
 21
331.1054914593769
 31
0.0
  0
LINE
  5
229
330
6C
100
AcDbEntity
  8
0
100
AcDbLine
 10
220.2466229609601
 20
301.9714914593771
 30
0.0
 11
220.2466229609601
 21
331.1054914593769
 31
0.0
  0
ARC
  5
22A
330
6C
100
AcDbEntity
  8
0
100
AcDbCircle
 10
220.7466229609601
 20
331.1054914593769
 30
0.0
 40
0.4999999999999984
100
AcDbArc
 50
158.301487510148
 51
180.0
  0
ARC
  5
22B
330
6C
100
AcDbEntity
  8
0
100
AcDbCircle
 10
147.2466229609605
 20
331.1054914593769
 30
0.0
 40
0.4999999999999983
100
AcDbArc
 50
0.0
 51
21.69851248985192
  0
LINE
  5
22C
330
6C
100
AcDbEntity
  8
0
100
AcDbLine
 10
147.7111940462443
 20
331.290352776905
 30
0.0
 11
146.5674807903929
 21
334.1645944821435
 31
0.0
  0
LINE
  5
22D
330
6C
100
AcDbEntity
  8
0
100
AcDbLine
 10
220.2820518756763
 20
331.290352776905
 30
0.0
 11
221.4257651315277
 21
334.1645944821435
 31
0.0
  0
ARC
  5
22E
330
6C
100
AcDbEntity
  8
0
100
AcDbCircle
 10
220.4966229609601
 20
334.5343171171996
 30
0.0
 40
0.9999999999999964
100
AcDbArc
 50
338.3014875101475
 51
0.0
  0
ARC
  5
22F
330
6C
100
AcDbEntity
  8
0
100
AcDbCircle
 10
147.4966229609605
 20
334.5343171171996
 30
0.0
 40
0.999999999999996
100
AcDbArc
 50
180.0
 51
201.6985124898525
  0
LINE
  5
230
330
6C
100
AcDbEntity
  8
0
100
AcDbLine
 10
146.4966229609605
 20
334.5343171171996
 30
0.0
 11
146.4966229609605
 21
334.7343171171996
 31
0.0
  0
LINE
  5
231
330
6C
100
AcDbEntity
  8
0
100
AcDbLine
 10
221.4966229609601
 20
334.5343171171996
 30
0.0
 11
221.4966229609601
 21
334.7343171171996
 31
0.0
  0
LINE
  5
232
330
6C
100
AcDbEntity
  8
0
100
AcDbLine
 10
274.9051143402706
 20
509.7733171171996
 30
0.0
 11
92.99662296096036
 21
509.7733171171996
 31
0.0
  0
LINE
  5
233
330
6C
100
AcDbEntity
  8
0
100
AcDbLine
 10
274.9966229609603
 20
508.2733171171994
 30
0.0
 11
92.99662296096036
 21
508.2733171171994
 31
0.0
  0
LINE
  5
234
330
6C
100
AcDbEntity
  8
0
100
AcDbLine
 10
92.99662296096036
 20
508.2733171171994
 30
0.0
 11
92.99662296096036
 21
509.7733171171996
 31
0.0
  0
LINE
  5
235
330
6C
100
AcDbEntity
  8
0
100
AcDbLine
 10
274.9966229609604
 20
508.2733171171994
 30
0.0
 11
274.9966229609604
 21
509.7733171171996
 31
0.0
  0
LINE
  5
249
330
6C
100
AcDbEntity
  8
0
100
AcDbLine
 10
221.9966229609603
 20
334.7343171171996
 30
0.0
 11
145.9966229609603
 21
334.7343171171996
 31
0.0
  0
LINE
  5
24A
330
6C
100
AcDbEntity
  8
0
100
AcDbLine
 10
245.9966229609603
 20
339.7343171171996
 30
0.0
 11
121.9966229609603
 21
339.7343171171996
 31
0.0
  0
LINE
  5
24B
330
6C
100
AcDbEntity
  8
0
100
AcDbLine
 10
105.4966229609603
 20
450.831135959842
 30
0.0
 11
105.4966229609603
 21
506.2733171171996
 31
0.0
  0
LINE
  5
24C
330
6C
100
AcDbEntity
  8
0
100
AcDbLine
 10
262.4966229609603
 20
450.831135959842
 30
0.0
 11
262.4966229609603
 21
506.2733171171996
 31
0.0
  0
ARC
  5
24D
330
6C
100
AcDbEntity
  8
0
100
AcDbCircle
 10
227.91270274406
 20
333.7343171171996
 30
0.0
 40
5.999999999999986
100
AcDbArc
 50
90.0
 51
170.4059317731396
  0
ARC
  5
24E
330
6C
100
AcDbEntity
  8
0
100
AcDbCircle
 10
140.0805431778607
 20
333.7343171171996
 30
0.0
 40
5.999999999999986
100
AcDbArc
 50
9.594068226860418
 51
90.0
  0
ARC
  5
24F
330
6C
100
AcDbEntity
  8
0
100
AcDbCircle
 10
245.9966229609603
 20
356.2343171171996
 30
0.0
 40
16.5
100
AcDbArc
 50
270.0
 51
0.0
  0
ARC
  5
250
330
6C
100
AcDbEntity
  8
0
100
AcDbCircle
 10
121.9966229609603
 20
356.2343171171996
 30
0.0
 40
16.5
100
AcDbArc
 50
180.0
 51
270.0
  0
LINE
  5
251
330
6C
100
AcDbEntity
  8
0
100
AcDbLine
 10
105.4966229609603
 20
356.2343171171996
 30
0.0
 11
105.4966229609603
 21
438.6374982745571
 31
0.0
  0
LINE
  5
252
330
6C
100
AcDbEntity
  8
0
100
AcDbLine
 10
262.4966229609603
 20
356.2343171171996
 30
0.0
 11
262.4966229609603
 21
438.6374982745571
 31
0.0
  0
ARC
  5
253
330
6C
100
AcDbEntity
  8
0
100
AcDbCircle
 10
258.9966229609603
 20
438.6374982745571
 30
0.0
 40
3.5
100
AcDbArc
 50
0.0
 51
59.99999999999975
  0
ARC
  5
254
330
6C
100
AcDbEntity
  8
0
100
AcDbCircle
 10
108.9966229609603
 20
438.6374982745571
 30
0.0
 40
3.5
100
AcDbArc
 50
120.0
 51
180.0
  0
LINE
  5
255
330
6C
100
AcDbEntity
  8
0
100
AcDbLine
 10
259.1866229609603
 20
442.5692536077383
 30
0.0
 11
260.7466229609603
 21
441.6685871878026
 31
0.0
  0
LINE
  5
256
330
6C
100
AcDbEntity
  8
0
100
AcDbLine
 10
108.8066229609603
 20
442.5692536077383
 30
0.0
 11
107.2466229609603
 21
441.6685871878026
 31
0.0
  0
ARC
  5
257
330
6C
100
AcDbEntity
  8
0
100
AcDbCircle
 10
260.4366229609604
 20
444.7343171171993
 30
0.0
 40
2.5
100
AcDbArc
 50
119.9999999999998
 51
240.0000000000002
  0
ARC
  5
258
330
6C
100
AcDbEntity
  8
0
100
AcDbCircle
 10
107.5566229609603
 20
444.7343171171993
 30
0.0
 40
2.5
100
AcDbArc
 50
300.0000000000003
 51
59.99999999999992
  0
LINE
  5
259
330
6C
100
AcDbEntity
  8
0
100
AcDbLine
 10
108.8066229609603
 20
446.8993806266606
 30
0.0
 11
107.2466229609603
 21
447.8000470465963
 31
0.0
  0
LINE
  5
25A
330
6C
100
AcDbEntity
  8
0
100
AcDbLine
 10
259.1866229609603
 20
446.8993806266606
 30
0.0
 11
260.7466229609603
 21
447.8000470465963
 31
0.0
  0
ARC
  5
25B
330
6C
100
AcDbEntity
  8
0
100
AcDbCircle
 10
258.9966229609603
 20
450.831135959842
 30
0.0
 40
3.5
100
AcDbArc
 50
300.0000000000002
 51
0.0
  0
ARC
  5
25C
330
6C
100
AcDbEntity
  8
0
100
AcDbCircle
 10
108.9966229609603
 20
450.831135959842
 30
0.0
 40
3.5
100
AcDbArc
 50
180.0
 51
239.9999999999996
  0
ARC
  5
25F
330
6C
100
AcDbEntity
  8
0
100
AcDbCircle
 10
264.4966229609603
 20
506.2733171171996
 30
0.0
 40
2.0
100
AcDbArc
 50
90.0
 51
180.0
  0
ARC
  5
260
330
6C
100
AcDbEntity
  8
0
100
AcDbCircle
 10
103.4966229609603
 20
506.2733171171996
 30
0.0
 40
2.0
100
AcDbArc
 50
0.0
 51
90.0
  0
LINE
  5
261
330
6C
100
AcDbEntity
  8
0
100
AcDbLine
 10
267.4966229609605
 20
527.7733171171994
 30
0.0
 11
274.4966229609604
 21
527.7733171171994
 31
0.0
  0
LINE
  5
262
330
6C
100
AcDbEntity
  8
0
100
AcDbLine
 10
274.9966229609604
 20
527.2733171171994
 30
0.0
 11
266.9966229609604
 21
527.2733171171994
 31
0.0
  0
LINE
  5
263
330
6C
100
AcDbEntity
  8
0
100
AcDbLine
 10
274.4966229609604
 20
527.7733171171994
 30
0.0
 11
274.9966229609604
 21
527.2733171171994
 31
0.0
  0
LINE
  5
264
330
6C
100
AcDbEntity
  8
0
100
AcDbLine
 10
267.4966229609605
 20
527.7733171171994
 30
0.0
 11
266.9966229609605
 21
527.2733171171994
 31
0.0
  0
LINE
  5
265
330
6C
100
AcDbEntity
  8
0
100
AcDbLine
 10
274.9966229609604
 20
527.2733171171994
 30
0.0
 11
274.9966229609604
 21
516.2733171171994
 31
0.0
  0
LINE
  5
266
330
6C
100
AcDbEntity
  8
0
100
AcDbLine
 10
266.9966229609605
 20
527.2733171171994
 30
0.0
 11
266.9966229609604
 21
516.2733171171996
 31
0.0
  0
LINE
  5
921
330
6C
100
AcDbEntity
  8
0
100
AcDbLine
 10
146.4966229609603
 20
262.9703850946997
 30
0.0
 11
146.4966229609603
 21
266.4982491397001
 31
0.0
  0
LINE
  5
922
330
6C
100
AcDbEntity
  8
0
100
AcDbLine
 10
221.4966229609603
 20
262.9703850946997
 30
0.0
 11
221.4966229609603
 21
266.4982491397001
 31
0.0
  0
LINE
  5
933
330
6C
100
AcDbEntity
  8
0
100
AcDbLine
 10
276.6466229609604
 20
516.2733171171994
 30
0.0
 11
265.3466229609604
 21
516.2733171171994
 31
0.0
  0
LINE
  5
934
330
6C
100
AcDbEntity
  8
0
100
AcDbLine
 10
274.9051143402707
 20
509.7733171171996
 30
0.0
 11
276.6466229609604
 21
509.7733171171996
 31
0.0
  0
POLYLINE
  5
935
330
6C
100
AcDbEntity
  8
0
100
AcDb2dPolyline
 66
     1
 10
0.0
 20
0.0
 30
0.0
 70
   128
  0
VERTEX
  5
936
330
935
100
AcDbEntity
  8
0
100
AcDbVertex
100
AcDb2dVertex
 10
277.7709655749402
 20
515.2020128108116
 30
0.0
  0
VERTEX
  5
937
330
935
100
AcDbEntity
  8
0
100
AcDbVertex
100
AcDb2dVertex
 10
277.7431416089481
 20
515.3006939626785
 30
0.0
  0
VERTEX
  5
939
330
935
100
AcDbEntity
  8
0
100
AcDbVertex
100
AcDb2dVertex
 10
277.716239802648
 20
515.3887137807461
 30
0.0
  0
VERTEX
  5
93A
330
935
100
AcDbEntity
  8
0
100
AcDbVertex
100
AcDb2dVertex
 10
277.6901461455242
 20
515.4666957295986
 30
0.0
  0
VERTEX
  5
93B
330
935
100
AcDbEntity
  8
0
100
AcDbVertex
100
AcDb2dVertex
 10
277.6647562233939
 20
515.5351753569695
 30
0.0
  0
VERTEX
  5
93C
330
935
100
AcDbEntity
  8
0
100
AcDbVertex
100
AcDb2dVertex
 10
277.6399738742195
 20
515.5946103520248
 30
0.0
  0
VERTEX
  5
93D
330
935
100
AcDbEntity
  8
0
100
AcDbVertex
100
AcDb2dVertex
 10
277.615709727035
 20
515.6453884429785
 30
0.0
  0
VERTEX
  5
93E
330
935
100
AcDbEntity
  8
0
100
AcDbVertex
100
AcDb2dVertex
 10
277.5918800564637
 20
515.6878339536042
 30
0.0
  0
VERTEX
  5
93F
330
935
100
AcDbEntity
  8
0
100
AcDbVertex
100
AcDb2dVertex
 10
277.5684058184093
 20
515.7222129441353
 30
0.0
  0
VERTEX
  5
940
330
935
100
AcDbEntity
  8
0
100
AcDbVertex
100
AcDb2dVertex
 10
277.5452116389932
 20
515.7487379051302
 30
0.0
  0
VERTEX
  5
941
330
935
100
AcDbEntity
  8
0
100
AcDbVertex
100
AcDb2dVertex
 10
277.5222250781735
 20
515.7675707377048
 30
0.0
  0
VERTEX
  5
942
330
935
100
AcDbEntity
  8
0
100
AcDbVertex
100
AcDb2dVertex
 10
277.4993757691715
 20
515.7788253239842
 30
0.0
  0
VERTEX
  5
943
330
935
100
AcDbEntity
  8
0
100
AcDbVertex
100
AcDb2dVertex
 10
277.4765947478399
 20
515.7825693897458
 30
0.0
  0
VERTEX
  5
944
330
935
100
AcDbEntity
  8
0
100
AcDbVertex
100
AcDb2dVertex
 10
277.4538137265083
 20
515.7788253239842
 30
0.0
  0
VERTEX
  5
945
330
935
100
AcDbEntity
  8
0
100
AcDbVertex
100
AcDb2dVertex
 10
277.4309644175062
 20
515.7675707377048
 30
0.0
  0
VERTEX
  5
946
330
935
100
AcDbEntity
  8
0
100
AcDbVertex
100
AcDb2dVertex
 10
277.4079778566865
 20
515.7487379051302
 30
0.0
  0
VERTEX
  5
947
330
935
100
AcDbEntity
  8
0
100
AcDbVertex
100
AcDb2dVertex
 10
277.3847836772706
 20
515.7222129441353
 30
0.0
  0
VERTEX
  5
948
330
935
100
AcDbEntity
  8
0
100
AcDbVertex
100
AcDb2dVertex
 10
277.3613094392161
 20
515.6878339536042
 30
0.0
  0
VERTEX
  5
949
330
935
100
AcDbEntity
  8
0
100
AcDbVertex
100
AcDb2dVertex
 10
277.3374797686448
 20
515.6453884429785
 30
0.0
  0
VERTEX
  5
94A
330
935
100
AcDbEntity
  8
0
100
AcDbVertex
100
AcDb2dVertex
 10
277.3132156214602
 20
515.5946103520248
 30
0.0
  0
VERTEX
  5
94B
330
935
100
AcDbEntity
  8
0
100
AcDbVertex
100
AcDb2dVertex
 10
277.2884332722859
 20
515.5351753569695
 30
0.0
  0
VERTEX
  5
94C
330
935
100
AcDbEntity
  8
0
100
AcDbVertex
100
AcDb2dVertex
 10
277.2630433501556
 20
515.4666957295986
 30
0.0
  0
VERTEX
  5
94D
330
935
100
AcDbEntity
  8
0
100
AcDbVertex
100
AcDb2dVertex
 10
277.2369496930317
 20
515.3887137807461
 30
0.0
  0
VERTEX
  5
94E
330
935
100
AcDbEntity
  8
0
100
AcDbVertex
100
AcDb2dVertex
 10
277.2100478867317
 20
515.3006939626785
 30
0.0
  0
VERTEX
  5
94F
330
935
100
AcDbEntity
  8
0
100
AcDbVertex
100
AcDb2dVertex
 10
277.1822239207396
 20
515.2020128108116
 30
0.0
  0
SEQEND
  5
938
330
935
100
AcDbEntity
  8
0
  0
POLYLINE
  5
950
330
6C
100
AcDbEntity
  8
0
100
AcDb2dPolyline
 66
     1
 10
0.0
 20
0.0
 30
0.0
 70
   128
  0
VERTEX
  5
951
330
950
100
AcDbEntity
  8
0
100
AcDbVertex
100
AcDb2dVertex
 10
264.2222803469806
 20
515.2020128108116
 30
0.0
  0
VERTEX
  5
952
330
950
100
AcDbEntity
  8
0
100
AcDbVertex
100
AcDb2dVertex
 10
264.2342734023167
 20
515.2454680986259
 30
0.0
  0
VERTEX
  5
954
330
950
100
AcDbEntity
  8
0
100
AcDbVertex
100
AcDb2dVertex
 10
264.2460859156775
 20
515.2869104630801
 30
0.0
  0
VERTEX
  5
955
330
950
100
AcDbEntity
  8
0
100
AcDbVertex
100
AcDb2dVertex
 10
264.2577274483303
 20
515.3263948894593
 30
0.0
  0
VERTEX
  5
956
330
950
100
AcDbEntity
  8
0
100
AcDbVertex
100
AcDb2dVertex
 10
264.2692072108848
 20
515.3639728612753
 30
0.0
  0
VERTEX
  5
957
330
950
100
AcDbEntity
  8
0
100
AcDbVertex
100
AcDb2dVertex
 10
264.2805340866701
 20
515.3996927327963
 30
0.0
  0
VERTEX
  5
958
330
950
100
AcDbEntity
  8
0
100
AcDbVertex
100
AcDb2dVertex
 10
264.2917165849802
 20
515.4335999525637
 30
0.0
  0
VERTEX
  5
959
330
950
100
AcDbEntity
  8
0
100
AcDbVertex
100
AcDb2dVertex
 10
264.3027628644519
 20
515.4657370633931
 30
0.0
  0
VERTEX
  5
95A
330
950
100
AcDbEntity
  8
0
100
AcDbVertex
100
AcDb2dVertex
 10
264.3136808967039
 20
515.4961438513846
 30
0.0
  0
VERTEX
  5
95B
330
950
100
AcDbEntity
  8
0
100
AcDbVertex
100
AcDb2dVertex
 10
264.3244782793205
 20
515.5248574949356
 30
0.0
  0
VERTEX
  5
95C
330
950
100
AcDbEntity
  8
0
100
AcDbVertex
100
AcDb2dVertex
 10
264.3351624345569
 20
515.5519128627629
 30
0.0
  0
VERTEX
  5
95D
330
950
100
AcDbEntity
  8
0
100
AcDbVertex
100
AcDb2dVertex
 10
264.3457404924534
 20
515.5773422903869
 30
0.0
  0
VERTEX
  5
95E
330
950
100
AcDbEntity
  8
0
100
AcDbVertex
100
AcDb2dVertex
 10
264.3562194194104
 20
515.6011760271641
 30
0.0
  0
VERTEX
  5
95F
330
950
100
AcDbEntity
  8
0
100
AcDbVertex
100
AcDb2dVertex
 10
264.3666059480561
 20
515.6234420127722
 30
0.0
  0
VERTEX
  5
960
330
950
100
AcDbEntity
  8
0
100
AcDbVertex
100
AcDb2dVertex
 10
264.3769066356902
 20
515.6441661752316
 30
0.0
  0
VERTEX
  5
961
330
950
100
AcDbEntity
  8
0
100
AcDbVertex
100
AcDb2dVertex
 10
264.3871278993489
 20
515.6633725799175
 30
0.0
  0
VERTEX
  5
962
330
950
100
AcDbEntity
  8
0
100
AcDbVertex
100
AcDb2dVertex
 10
264.3972759573627
 20
515.6810831315371
 30
0.0
  0
VERTEX
  5
963
330
950
100
AcDbEntity
  8
0
100
AcDbVertex
100
AcDb2dVertex
 10
264.4073569228647
 20
515.6973179839106
 30
0.0
  0
VERTEX
  5
964
330
950
100
AcDbEntity
  8
0
100
AcDbVertex
100
AcDb2dVertex
 10
264.4173767453474
 20
515.7120955399724
 30
0.0
  0
VERTEX
  5
965
330
950
100
AcDbEntity
  8
0
100
AcDbVertex
100
AcDb2dVertex
 10
264.4273413100167
 20
515.7254324145172
 30
0.0
  0
VERTEX
  5
966
330
950
100
AcDbEntity
  8
0
100
AcDbVertex
100
AcDb2dVertex
 10
264.4372563501262
 20
515.7373434714528
 30
0.0
  0
VERTEX
  5
967
330
950
100
AcDbEntity
  8
0
100
AcDbVertex
100
AcDb2dVertex
 10
264.447127522954
 20
515.7478419728131
 30
0.0
  0
VERTEX
  5
968
330
950
100
AcDbEntity
  8
0
100
AcDbVertex
100
AcDb2dVertex
 10
264.4569604214908
 20
515.7569395787568
 30
0.0
  0
VERTEX
  5
969
330
950
100
AcDbEntity
  8
0
100
AcDbVertex
100
AcDb2dVertex
 10
264.4667605335302
 20
515.764646235809
 30
0.0
  0
VERTEX
  5
96A
330
950
100
AcDbEntity
  8
0
100
AcDbVertex
100
AcDb2dVertex
 10
264.476533320566
 20
515.7709704748842
 30
0.0
  0
SEQEND
  5
953
330
950
100
AcDbEntity
  8
0
  0
POLYLINE
  5
96B
330
6C
100
AcDbEntity
  8
0
100
AcDb2dPolyline
 66
     1
 10
0.0
 20
0.0
 30
0.0
 70
   128
  0
VERTEX
  5
96C
330
96B
100
AcDbEntity
  8
0
100
AcDbVertex
100
AcDb2dVertex
 10
270.4078813067598
 20
515.2020128108116
 30
0.0
  0
VERTEX
  5
96D
330
96B
100
AcDbEntity
  8
0
100
AcDbVertex
100
AcDb2dVertex
 10
270.1155493880398
 20
515.3006939626785
 30
0.0
  0
VERTEX
  5
96F
330
96B
100
AcDbEntity
  8
0
100
AcDbVertex
100
AcDb2dVertex
 10
269.8329061787716
 20
515.3887137807461
 30
0.0
  0
VERTEX
  5
970
330
96B
100
AcDbEntity
  8
0
100
AcDbVertex
100
AcDb2dVertex
 10
269.5587536000951
 20
515.4666957295986
 30
0.0
  0
VERTEX
  5
971
330
96B
100
AcDbEntity
  8
0
100
AcDbVertex
100
AcDb2dVertex
 10
269.2919950825569
 20
515.5351753569695
 30
0.0
  0
VERTEX
  5
972
330
96B
100
AcDbEntity
  8
0
100
AcDbVertex
100
AcDb2dVertex
 10
269.0316199933032
 20
515.5946103520248
 30
0.0
  0
VERTEX
  5
973
330
96B
100
AcDbEntity
  8
0
100
AcDbVertex
100
AcDb2dVertex
 10
268.7766891664747
 20
515.6453884429785
 30
0.0
  0
VERTEX
  5
974
330
96B
100
AcDbEntity
  8
0
100
AcDbVertex
100
AcDb2dVertex
 10
268.5263233200944
 20
515.6878339536042
 30
0.0
  0
VERTEX
  5
975
330
96B
100
AcDbEntity
  8
0
100
AcDbVertex
100
AcDb2dVertex
 10
268.2796915926581
 20
515.7222129441353
 30
0.0
  0
VERTEX
  5
976
330
96B
100
AcDbEntity
  8
0
100
AcDbVertex
100
AcDb2dVertex
 10
268.0360025968292
 20
515.7487379051302
 30
0.0
  0
VERTEX
  5
977
330
96B
100
AcDbEntity
  8
0
100
AcDbVertex
100
AcDb2dVertex
 10
267.7944948404579
 20
515.7675707377048
 30
0.0
  0
VERTEX
  5
978
330
96B
100
AcDbEntity
  8
0
100
AcDbVertex
100
AcDb2dVertex
 10
267.5544290787821
 20
515.7788253239842
 30
0.0
  0
VERTEX
  5
979
330
96B
100
AcDbEntity
  8
0
100
AcDbVertex
100
AcDb2dVertex
 10
267.3150808151816
 20
515.7825693897458
 30
0.0
  0
VERTEX
  5
97A
330
96B
100
AcDbEntity
  8
0
100
AcDbVertex
100
AcDb2dVertex
 10
267.0757323012304
 20
515.7788253239842
 30
0.0
  0
VERTEX
  5
97B
330
96B
100
AcDbEntity
  8
0
100
AcDbVertex
100
AcDb2dVertex
 10
266.8356664928003
 20
515.7675707377048
 30
0.0
  0
VERTEX
  5
97C
330
96B
100
AcDbEntity
  8
0
100
AcDbVertex
100
AcDb2dVertex
 10
266.5941588849814
 20
515.7487379051302
 30
0.0
  0
VERTEX
  5
97D
330
96B
100
AcDbEntity
  8
0
100
AcDbVertex
100
AcDb2dVertex
 10
266.3504697406002
 20
515.7222129441353
 30
0.0
  0
VERTEX
  5
97E
330
96B
100
AcDbEntity
  8
0
100
AcDbVertex
100
AcDb2dVertex
 10
266.1038381617164
 20
515.6878339536042
 30
0.0
  0
VERTEX
  5
97F
330
96B
100
AcDbEntity
  8
0
100
AcDbVertex
100
AcDb2dVertex
 10
265.853472315336
 20
515.6453884429785
 30
0.0
  0
VERTEX
  5
980
330
96B
100
AcDbEntity
  8
0
100
AcDbVertex
100
AcDb2dVertex
 10
265.5985415118848
 20
515.5946103520248
 30
0.0
  0
VERTEX
  5
981
330
96B
100
AcDbEntity
  8
0
100
AcDbVertex
100
AcDb2dVertex
 10
265.3381665711835
 20
515.5351753569695
 30
0.0
  0
VERTEX
  5
982
330
96B
100
AcDbEntity
  8
0
100
AcDbVertex
100
AcDb2dVertex
 10
265.0714075846106
 20
515.4666957295986
 30
0.0
  0
VERTEX
  5
983
330
96B
100
AcDbEntity
  8
0
100
AcDbVertex
100
AcDb2dVertex
 10
264.7972549454189
 20
515.3887137807461
 30
0.0
  0
VERTEX
  5
984
330
96B
100
AcDbEntity
  8
0
100
AcDbVertex
100
AcDb2dVertex
 10
264.5146122471315
 20
515.3006939626785
 30
0.0
  0
VERTEX
  5
985
330
96B
100
AcDbEntity
  8
0
100
AcDbVertex
100
AcDb2dVertex
 10
264.2222803469806
 20
515.2020128108116
 30
0.0
  0
SEQEND
  5
96E
330
96B
100
AcDbEntity
  8
0
  0
POLYLINE
  5
986
330
6C
100
AcDbEntity
  8
0
100
AcDb2dPolyline
 66
     1
 10
0.0
 20
0.0
 30
0.0
 70
   128
  0
VERTEX
  5
987
330
986
100
AcDbEntity
  8
0
100
AcDbVertex
100
AcDb2dVertex
 10
277.1822239207396
 20
515.2020128108116
 30
0.0
  0
VERTEX
  5
988
330
986
100
AcDbEntity
  8
0
100
AcDbVertex
100
AcDb2dVertex
 10
276.8620680312193
 20
515.3006939626785
 30
0.0
  0
VERTEX
  5
98A
330
986
100
AcDbEntity
  8
0
100
AcDbVertex
100
AcDb2dVertex
 10
276.552523526632
 20
515.3887137807461
 30
0.0
  0
VERTEX
  5
98B
330
986
100
AcDbEntity
  8
0
100
AcDbVertex
100
AcDb2dVertex
 10
276.2522772303165
 20
515.4666957295986
 30
0.0
  0
VERTEX
  5
98C
330
986
100
AcDbEntity
  8
0
100
AcDbVertex
100
AcDb2dVertex
 10
275.9601283333017
 20
515.5351753569695
 30
0.0
  0
VERTEX
  5
98D
330
986
100
AcDbEntity
  8
0
100
AcDbVertex
100
AcDb2dVertex
 10
275.6749710551147
 20
515.5946103520248
 30
0.0
  0
VERTEX
  5
98E
330
986
100
AcDbEntity
  8
0
100
AcDbVertex
100
AcDb2dVertex
 10
275.3957760927905
 20
515.6453884429785
 30
0.0
  0
VERTEX
  5
98F
330
986
100
AcDbEntity
  8
0
100
AcDbVertex
100
AcDb2dVertex
 10
275.1215805758387
 20
515.6878339536042
 30
0.0
  0
VERTEX
  5
990
330
986
100
AcDbEntity
  8
0
100
AcDbVertex
100
AcDb2dVertex
 10
274.8514747530562
 20
515.7222129441353
 30
0.0
  0
VERTEX
  5
991
330
986
100
AcDbEntity
  8
0
100
AcDbVertex
100
AcDb2dVertex
 10
274.5845914234146
 20
515.7487379051302
 30
0.0
  0
VERTEX
  5
992
330
986
100
AcDbEntity
  8
0
100
AcDbVertex
100
AcDb2dVertex
 10
274.3200972197103
 20
515.7675707377048
 30
0.0
  0
VERTEX
  5
993
330
986
100
AcDbEntity
  8
0
100
AcDbVertex
100
AcDb2dVertex
 10
274.057182179715
 20
515.7788253239842
 30
0.0
  0
VERTEX
  5
994
330
986
100
AcDbEntity
  8
0
100
AcDbVertex
100
AcDb2dVertex
 10
273.7950526020611
 20
515.7825693897458
 30
0.0
  0
VERTEX
  5
995
330
986
100
AcDbEntity
  8
0
100
AcDbVertex
100
AcDb2dVertex
 10
273.5329233682664
 20
515.7788253239842
 30
0.0
  0
VERTEX
  5
996
330
986
100
AcDbEntity
  8
0
100
AcDbVertex
100
AcDb2dVertex
 10
273.2700082815169
 20
515.7675707377048
 30
0.0
  0
VERTEX
  5
997
330
986
100
AcDbEntity
  8
0
100
AcDbVertex
100
AcDb2dVertex
 10
273.0055139292601
 20
515.7487379051302
 30
0.0
  0
VERTEX
  5
998
330
986
100
AcDbEntity
  8
0
100
AcDbVertex
100
AcDb2dVertex
 10
272.738630748171
 20
515.7222129441353
 30
0.0
  0
VERTEX
  5
999
330
986
100
AcDbEntity
  8
0
100
AcDbVertex
100
AcDb2dVertex
 10
272.468524776836
 20
515.6878339536042
 30
0.0
  0
VERTEX
  5
99A
330
986
100
AcDbEntity
  8
0
100
AcDbVertex
100
AcDb2dVertex
 10
272.1943292598842
 20
515.6453884429785
 30
0.0
  0
VERTEX
  5
99B
330
986
100
AcDbEntity
  8
0
100
AcDbVertex
100
AcDb2dVertex
 10
271.9151343209371
 20
515.5946103520248
 30
0.0
  0
VERTEX
  5
99C
330
986
100
AcDbEntity
  8
0
100
AcDbVertex
100
AcDb2dVertex
 10
271.6299768941976
 20
515.5351753569695
 30
0.0
  0
VERTEX
  5
99D
330
986
100
AcDbEntity
  8
0
100
AcDbVertex
100
AcDb2dVertex
 10
271.3378284194632
 20
515.4666957295986
 30
0.0
  0
VERTEX
  5
99E
330
986
100
AcDbEntity
  8
0
100
AcDbVertex
100
AcDb2dVertex
 10
271.0375821369086
 20
515.3887137807461
 30
0.0
  0
VERTEX
  5
99F
330
986
100
AcDbEntity
  8
0
100
AcDbVertex
100
AcDb2dVertex
 10
270.7280372148491
 20
515.3006939626785
 30
0.0
  0
VERTEX
  5
9A0
330
986
100
AcDbEntity
  8
0
100
AcDbVertex
100
AcDb2dVertex
 10
270.4078813067598
 20
515.2020128108116
 30
0.0
  0
SEQEND
  5
989
330
986
100
AcDbEntity
  8
0
  0
POLYLINE
  5
9A1
330
6C
100
AcDbEntity
  8
0
100
AcDb2dPolyline
 66
     1
 10
0.0
 20
0.0
 30
0.0
 70
   128
  0
VERTEX
  5
9A2
330
9A1
100
AcDbEntity
  8
0
100
AcDbVertex
100
AcDb2dVertex
 10
277.1822239207396
 20
510.8446214384886
 30
0.0
  0
VERTEX
  5
9A3
330
9A1
100
AcDbEntity
  8
0
100
AcDbVertex
100
AcDb2dVertex
 10
277.2100478867317
 20
510.7459399885985
 30
0.0
  0
VERTEX
  5
9A5
330
9A1
100
AcDbEntity
  8
0
100
AcDbVertex
100
AcDb2dVertex
 10
277.2369496930317
 20
510.6579206175658
 30
0.0
  0
VERTEX
  5
9A6
330
9A1
100
AcDbEntity
  8
0
100
AcDbVertex
100
AcDb2dVertex
 10
277.2630433501556
 20
510.5799386687131
 30
0.0
  0
VERTEX
  5
9A7
330
9A1
100
AcDbEntity
  8
0
100
AcDbVertex
100
AcDb2dVertex
 10
277.2884332722859
 20
510.5114588923306
 30
0.0
  0
VERTEX
  5
9A8
330
9A1
100
AcDbEntity
  8
0
100
AcDbVertex
100
AcDb2dVertex
 10
277.3132156214602
 20
510.452024120793
 30
0.0
  0
VERTEX
  5
9A9
330
9A1
100
AcDbEntity
  8
0
100
AcDbVertex
100
AcDb2dVertex
 10
277.3374797686448
 20
510.401245731816
 30
0.0
  0
VERTEX
  5
9AA
330
9A1
100
AcDbEntity
  8
0
100
AcDbVertex
100
AcDb2dVertex
 10
277.3613094392161
 20
510.3588000721783
 30
0.0
  0
VERTEX
  5
9AB
330
9A1
100
AcDbEntity
  8
0
100
AcDbVertex
100
AcDb2dVertex
 10
277.3847836772706
 20
510.3244213051649
 30
0.0
  0
VERTEX
  5
9AC
330
9A1
100
AcDbEntity
  8
0
100
AcDbVertex
100
AcDb2dVertex
 10
277.4079778566865
 20
510.2978960461468
 30
0.0
  0
VERTEX
  5
9AD
330
9A1
100
AcDbEntity
  8
0
100
AcDbVertex
100
AcDb2dVertex
 10
277.4309644175063
 20
510.2790633625835
 30
0.0
  0
VERTEX
  5
9AE
330
9A1
100
AcDbEntity
  8
0
100
AcDbVertex
100
AcDb2dVertex
 10
277.4538137265083
 20
510.2678088135572
 30
0.0
  0
VERTEX
  5
9AF
330
9A1
100
AcDbEntity
  8
0
100
AcDbVertex
100
AcDb2dVertex
 10
277.4765947478399
 20
510.264065045819
 30
0.0
  0
VERTEX
  5
9B0
330
9A1
100
AcDbEntity
  8
0
100
AcDbVertex
100
AcDb2dVertex
 10
277.4993757691715
 20
510.2678088135572
 30
0.0
  0
VERTEX
  5
9B1
330
9A1
100
AcDbEntity
  8
0
100
AcDbVertex
100
AcDb2dVertex
 10
277.5222250781735
 20
510.2790633625835
 30
0.0
  0
VERTEX
  5
9B2
330
9A1
100
AcDbEntity
  8
0
100
AcDbVertex
100
AcDb2dVertex
 10
277.5452116389932
 20
510.2978960461468
 30
0.0
  0
VERTEX
  5
9B3
330
9A1
100
AcDbEntity
  8
0
100
AcDbVertex
100
AcDb2dVertex
 10
277.5684058184093
 20
510.3244213051649
 30
0.0
  0
VERTEX
  5
9B4
330
9A1
100
AcDbEntity
  8
0
100
AcDbVertex
100
AcDb2dVertex
 10
277.5918800564637
 20
510.3588000721783
 30
0.0
  0
VERTEX
  5
9B5
330
9A1
100
AcDbEntity
  8
0
100
AcDbVertex
100
AcDb2dVertex
 10
277.6157097270351
 20
510.401245731816
 30
0.0
  0
VERTEX
  5
9B6
330
9A1
100
AcDbEntity
  8
0
100
AcDbVertex
100
AcDb2dVertex
 10
277.6399738742195
 20
510.452024120793
 30
0.0
  0
VERTEX
  5
9B7
330
9A1
100
AcDbEntity
  8
0
100
AcDbVertex
100
AcDb2dVertex
 10
277.6647562233939
 20
510.5114588923306
 30
0.0
  0
VERTEX
  5
9B8
330
9A1
100
AcDbEntity
  8
0
100
AcDbVertex
100
AcDb2dVertex
 10
277.6901461455242
 20
510.5799386687131
 30
0.0
  0
VERTEX
  5
9B9
330
9A1
100
AcDbEntity
  8
0
100
AcDbVertex
100
AcDb2dVertex
 10
277.716239802648
 20
510.6579206175658
 30
0.0
  0
VERTEX
  5
9BA
330
9A1
100
AcDbEntity
  8
0
100
AcDbVertex
100
AcDb2dVertex
 10
277.7431416089481
 20
510.7459399885985
 30
0.0
  0
VERTEX
  5
9BB
330
9A1
100
AcDbEntity
  8
0
100
AcDbVertex
100
AcDb2dVertex
 10
277.7709655749402
 20
510.8446214384886
 30
0.0
  0
SEQEND
  5
9A4
330
9A1
100
AcDbEntity
  8
0
  0
POLYLINE
  5
9BC
330
6C
100
AcDbEntity
  8
0
100
AcDb2dPolyline
 66
     1
 10
0.0
 20
0.0
 30
0.0
 70
   128
  0
VERTEX
  5
9BD
330
9BC
100
AcDbEntity
  8
0
100
AcDbVertex
100
AcDb2dVertex
 10
270.4078813067598
 20
510.8446214384886
 30
0.0
  0
VERTEX
  5
9BE
330
9BC
100
AcDbEntity
  8
0
100
AcDbVertex
100
AcDb2dVertex
 10
270.7280372148491
 20
510.7459399885985
 30
0.0
  0
VERTEX
  5
9C0
330
9BC
100
AcDbEntity
  8
0
100
AcDbVertex
100
AcDb2dVertex
 10
271.0375821369086
 20
510.6579206175658
 30
0.0
  0
VERTEX
  5
9C1
330
9BC
100
AcDbEntity
  8
0
100
AcDbVertex
100
AcDb2dVertex
 10
271.3378284194632
 20
510.5799386687131
 30
0.0
  0
VERTEX
  5
9C2
330
9BC
100
AcDbEntity
  8
0
100
AcDbVertex
100
AcDb2dVertex
 10
271.6299768941976
 20
510.5114588923306
 30
0.0
  0
VERTEX
  5
9C3
330
9BC
100
AcDbEntity
  8
0
100
AcDbVertex
100
AcDb2dVertex
 10
271.9151343209371
 20
510.452024120793
 30
0.0
  0
VERTEX
  5
9C4
330
9BC
100
AcDbEntity
  8
0
100
AcDbVertex
100
AcDb2dVertex
 10
272.1943292598842
 20
510.401245731816
 30
0.0
  0
VERTEX
  5
9C5
330
9BC
100
AcDbEntity
  8
0
100
AcDbVertex
100
AcDb2dVertex
 10
272.468524776836
 20
510.3588000721783
 30
0.0
  0
VERTEX
  5
9C6
330
9BC
100
AcDbEntity
  8
0
100
AcDbVertex
100
AcDb2dVertex
 10
272.738630748171
 20
510.3244213051649
 30
0.0
  0
VERTEX
  5
9C7
330
9BC
100
AcDbEntity
  8
0
100
AcDbVertex
100
AcDb2dVertex
 10
273.0055139292601
 20
510.2978960461468
 30
0.0
  0
VERTEX
  5
9C8
330
9BC
100
AcDbEntity
  8
0
100
AcDbVertex
100
AcDb2dVertex
 10
273.2700082815169
 20
510.2790633625835
 30
0.0
  0
VERTEX
  5
9C9
330
9BC
100
AcDbEntity
  8
0
100
AcDbVertex
100
AcDb2dVertex
 10
273.5329233682664
 20
510.2678088135572
 30
0.0
  0
VERTEX
  5
9CA
330
9BC
100
AcDbEntity
  8
0
100
AcDbVertex
100
AcDb2dVertex
 10
273.7950526020611
 20
510.264065045819
 30
0.0
  0
VERTEX
  5
9CB
330
9BC
100
AcDbEntity
  8
0
100
AcDbVertex
100
AcDb2dVertex
 10
274.0571821797151
 20
510.2678088135572
 30
0.0
  0
VERTEX
  5
9CC
330
9BC
100
AcDbEntity
  8
0
100
AcDbVertex
100
AcDb2dVertex
 10
274.3200972197103
 20
510.2790633625835
 30
0.0
  0
VERTEX
  5
9CD
330
9BC
100
AcDbEntity
  8
0
100
AcDbVertex
100
AcDb2dVertex
 10
274.5845914234146
 20
510.2978960461468
 30
0.0
  0
VERTEX
  5
9CE
330
9BC
100
AcDbEntity
  8
0
100
AcDbVertex
100
AcDb2dVertex
 10
274.8514747530562
 20
510.3244213051649
 30
0.0
  0
VERTEX
  5
9CF
330
9BC
100
AcDbEntity
  8
0
100
AcDbVertex
100
AcDb2dVertex
 10
275.1215805758387
 20
510.3588000721783
 30
0.0
  0
VERTEX
  5
9D0
330
9BC
100
AcDbEntity
  8
0
100
AcDbVertex
100
AcDb2dVertex
 10
275.3957760927905
 20
510.401245731816
 30
0.0
  0
VERTEX
  5
9D1
330
9BC
100
AcDbEntity
  8
0
100
AcDbVertex
100
AcDb2dVertex
 10
275.6749710551147
 20
510.452024120793
 30
0.0
  0
VERTEX
  5
9D2
330
9BC
100
AcDbEntity
  8
0
100
AcDbVertex
100
AcDb2dVertex
 10
275.9601283333017
 20
510.5114588923306
 30
0.0
  0
VERTEX
  5
9D3
330
9BC
100
AcDbEntity
  8
0
100
AcDbVertex
100
AcDb2dVertex
 10
276.2522772303165
 20
510.5799386687131
 30
0.0
  0
VERTEX
  5
9D4
330
9BC
100
AcDbEntity
  8
0
100
AcDbVertex
100
AcDb2dVertex
 10
276.552523526632
 20
510.6579206175658
 30
0.0
  0
VERTEX
  5
9D5
330
9BC
100
AcDbEntity
  8
0
100
AcDbVertex
100
AcDb2dVertex
 10
276.8620680312194
 20
510.7459399885985
 30
0.0
  0
VERTEX
  5
9D6
330
9BC
100
AcDbEntity
  8
0
100
AcDbVertex
100
AcDb2dVertex
 10
277.1822239207396
 20
510.8446214384886
 30
0.0
  0
SEQEND
  5
9BF
330
9BC
100
AcDbEntity
  8
0
  0
POLYLINE
  5
9D7
330
6C
100
AcDbEntity
  8
0
100
AcDb2dPolyline
 66
     1
 10
0.0
 20
0.0
 30
0.0
 70
   128
  0
VERTEX
  5
9D8
330
9D7
100
AcDbEntity
  8
0
100
AcDbVertex
100
AcDb2dVertex
 10
264.2222803469806
 20
510.8446214384886
 30
0.0
  0
VERTEX
  5
9D9
330
9D7
100
AcDbEntity
  8
0
100
AcDbVertex
100
AcDb2dVertex
 10
264.5146122471315
 20
510.7459399885985
 30
0.0
  0
VERTEX
  5
9DB
330
9D7
100
AcDbEntity
  8
0
100
AcDbVertex
100
AcDb2dVertex
 10
264.7972549454189
 20
510.6579206175658
 30
0.0
  0
VERTEX
  5
9DC
330
9D7
100
AcDbEntity
  8
0
100
AcDbVertex
100
AcDb2dVertex
 10
265.0714075846106
 20
510.5799386687131
 30
0.0
  0
VERTEX
  5
9DD
330
9D7
100
AcDbEntity
  8
0
100
AcDbVertex
100
AcDb2dVertex
 10
265.3381665711835
 20
510.5114588923306
 30
0.0
  0
VERTEX
  5
9DE
330
9D7
100
AcDbEntity
  8
0
100
AcDbVertex
100
AcDb2dVertex
 10
265.5985415118848
 20
510.452024120793
 30
0.0
  0
VERTEX
  5
9DF
330
9D7
100
AcDbEntity
  8
0
100
AcDbVertex
100
AcDb2dVertex
 10
265.853472315336
 20
510.401245731816
 30
0.0
  0
VERTEX
  5
9E0
330
9D7
100
AcDbEntity
  8
0
100
AcDbVertex
100
AcDb2dVertex
 10
266.1038381617164
 20
510.3588000721783
 30
0.0
  0
VERTEX
  5
9E1
330
9D7
100
AcDbEntity
  8
0
100
AcDbVertex
100
AcDb2dVertex
 10
266.3504697406002
 20
510.3244213051649
 30
0.0
  0
VERTEX
  5
9E2
330
9D7
100
AcDbEntity
  8
0
100
AcDbVertex
100
AcDb2dVertex
 10
266.5941588849814
 20
510.2978960461468
 30
0.0
  0
VERTEX
  5
9E3
330
9D7
100
AcDbEntity
  8
0
100
AcDbVertex
100
AcDb2dVertex
 10
266.8356664928003
 20
510.2790633625835
 30
0.0
  0
VERTEX
  5
9E4
330
9D7
100
AcDbEntity
  8
0
100
AcDbVertex
100
AcDb2dVertex
 10
267.0757323012304
 20
510.2678088135572
 30
0.0
  0
VERTEX
  5
9E5
330
9D7
100
AcDbEntity
  8
0
100
AcDbVertex
100
AcDb2dVertex
 10
267.3150808151816
 20
510.264065045819
 30
0.0
  0
VERTEX
  5
9E6
330
9D7
100
AcDbEntity
  8
0
100
AcDbVertex
100
AcDb2dVertex
 10
267.5544290787822
 20
510.2678088135572
 30
0.0
  0
VERTEX
  5
9E7
330
9D7
100
AcDbEntity
  8
0
100
AcDbVertex
100
AcDb2dVertex
 10
267.7944948404579
 20
510.2790633625835
 30
0.0
  0
VERTEX
  5
9E8
330
9D7
100
AcDbEntity
  8
0
100
AcDbVertex
100
AcDb2dVertex
 10
268.0360025968292
 20
510.2978960461468
 30
0.0
  0
VERTEX
  5
9E9
330
9D7
100
AcDbEntity
  8
0
100
AcDbVertex
100
AcDb2dVertex
 10
268.2796915926581
 20
510.3244213051649
 30
0.0
  0
VERTEX
  5
9EA
330
9D7
100
AcDbEntity
  8
0
100
AcDbVertex
100
AcDb2dVertex
 10
268.5263233200944
 20
510.3588000721783
 30
0.0
  0
VERTEX
  5
9EB
330
9D7
100
AcDbEntity
  8
0
100
AcDbVertex
100
AcDb2dVertex
 10
268.7766891664747
 20
510.401245731816
 30
0.0
  0
VERTEX
  5
9EC
330
9D7
100
AcDbEntity
  8
0
100
AcDbVertex
100
AcDb2dVertex
 10
269.0316199933032
 20
510.452024120793
 30
0.0
  0
VERTEX
  5
9ED
330
9D7
100
AcDbEntity
  8
0
100
AcDbVertex
100
AcDb2dVertex
 10
269.2919950825569
 20
510.5114588923306
 30
0.0
  0
VERTEX
  5
9EE
330
9D7
100
AcDbEntity
  8
0
100
AcDbVertex
100
AcDb2dVertex
 10
269.5587536000952
 20
510.5799386687131
 30
0.0
  0
VERTEX
  5
9EF
330
9D7
100
AcDbEntity
  8
0
100
AcDbVertex
100
AcDb2dVertex
 10
269.8329061787716
 20
510.6579206175658
 30
0.0
  0
VERTEX
  5
9F0
330
9D7
100
AcDbEntity
  8
0
100
AcDbVertex
100
AcDb2dVertex
 10
270.1155493880398
 20
510.7459399885985
 30
0.0
  0
VERTEX
  5
9F1
330
9D7
100
AcDbEntity
  8
0
100
AcDbVertex
100
AcDb2dVertex
 10
270.4078813067598
 20
510.8446214384886
 30
0.0
  0
SEQEND
  5
9DA
330
9D7
100
AcDbEntity
  8
0
  0
POLYLINE
  5
9F2
330
6C
100
AcDbEntity
  8
0
100
AcDb2dPolyline
 66
     1
 10
0.0
 20
0.0
 30
0.0
 70
   128
  0
VERTEX
  5
9F3
330
9F2
100
AcDbEntity
  8
0
100
AcDbVertex
100
AcDb2dVertex
 10
264.476533320566
 20
510.2756635136457
 30
0.0
  0
VERTEX
  5
9F4
330
9F2
100
AcDbEntity
  8
0
100
AcDbVertex
100
AcDb2dVertex
 10
264.4667605335302
 20
510.2819881625029
 30
0.0
  0
VERTEX
  5
9F6
330
9F2
100
AcDbEntity
  8
0
100
AcDbVertex
100
AcDb2dVertex
 10
264.4569604214908
 20
510.2896944470258
 30
0.0
  0
VERTEX
  5
9F7
330
9F2
100
AcDbEntity
  8
0
100
AcDbVertex
100
AcDb2dVertex
 10
264.447127522954
 20
510.2987925000045
 30
0.0
  0
VERTEX
  5
9F8
330
9F2
100
AcDbEntity
  8
0
100
AcDbVertex
100
AcDb2dVertex
 10
264.4372563501262
 20
510.3092906660886
 30
0.0
  0
VERTEX
  5
9F9
330
9F2
100
AcDbEntity
  8
0
100
AcDbVertex
100
AcDb2dVertex
 10
264.4273413100167
 20
510.3212020583006
 30
0.0
  0
VERTEX
  5
9FA
330
9F2
100
AcDbEntity
  8
0
100
AcDbVertex
100
AcDb2dVertex
 10
264.4173767453474
 20
510.3345385975691
 30
0.0
  0
VERTEX
  5
9FB
330
9F2
100
AcDbEntity
  8
0
100
AcDbVertex
100
AcDb2dVertex
 10
264.4073569228647
 20
510.3493163771481
 30
0.0
  0
VERTEX
  5
9FC
330
9F2
100
AcDbEntity
  8
0
100
AcDbVertex
100
AcDb2dVertex
 10
264.3972759573627
 20
510.3655508942458
 30
0.0
  0
VERTEX
  5
9FD
330
9F2
100
AcDbEntity
  8
0
100
AcDbVertex
100
AcDb2dVertex
 10
264.3871278993489
 20
510.3832618183941
 30
0.0
  0
VERTEX
  5
9FE
330
9F2
100
AcDbEntity
  8
0
100
AcDbVertex
100
AcDb2dVertex
 10
264.3769066356902
 20
510.4024682230803
 30
0.0
  0
VERTEX
  5
9FF
330
9F2
100
AcDbEntity
  8
0
100
AcDbVertex
100
AcDb2dVertex
 10
264.3666059480561
 20
510.4231921620222
 30
0.0
  0
VERTEX
  5
A00
330
9F2
100
AcDbEntity
  8
0
100
AcDbVertex
100
AcDb2dVertex
 10
264.3562194194104
 20
510.4454580731244
 30
0.0
  0
VERTEX
  5
A01
330
9F2
100
AcDbEntity
  8
0
100
AcDbVertex
100
AcDb2dVertex
 10
264.3457404924534
 20
510.4692921824308
 30
0.0
  0
VERTEX
  5
A02
330
9F2
100
AcDbEntity
  8
0
100
AcDbVertex
100
AcDb2dVertex
 10
264.3351624345569
 20
510.4947213120314
 30
0.0
  0
VERTEX
  5
A03
330
9F2
100
AcDbEntity
  8
0
100
AcDbVertex
100
AcDb2dVertex
 10
264.3244782793205
 20
510.5217764563414
 30
0.0
  0
VERTEX
  5
A04
330
9F2
100
AcDbEntity
  8
0
100
AcDbVertex
100
AcDb2dVertex
 10
264.3136808967039
 20
510.5504903979155
 30
0.0
  0
VERTEX
  5
A05
330
9F2
100
AcDbEntity
  8
0
100
AcDbVertex
100
AcDb2dVertex
 10
264.3027628644519
 20
510.5808971114011
 30
0.0
  0
VERTEX
  5
A06
330
9F2
100
AcDbEntity
  8
0
100
AcDbVertex
100
AcDb2dVertex
 10
264.2917165849802
 20
510.6130341477245
 30
0.0
  0
VERTEX
  5
A07
330
9F2
100
AcDbEntity
  8
0
100
AcDbVertex
100
AcDb2dVertex
 10
264.2805340866701
 20
510.6469414419982
 30
0.0
  0
VERTEX
  5
A08
330
9F2
100
AcDbEntity
  8
0
100
AcDbVertex
100
AcDb2dVertex
 10
264.2692072108848
 20
510.6826613135192
 30
0.0
  0
VERTEX
  5
A09
330
9F2
100
AcDbEntity
  8
0
100
AcDbVertex
100
AcDb2dVertex
 10
264.2577274483303
 20
510.7202396578641
 30
0.0
  0
VERTEX
  5
A0A
330
9F2
100
AcDbEntity
  8
0
100
AcDbVertex
100
AcDb2dVertex
 10
264.2460859156775
 20
510.7597235627028
 30
0.0
  0
VERTEX
  5
A0B
330
9F2
100
AcDbEntity
  8
0
100
AcDbVertex
100
AcDb2dVertex
 10
264.2342734023167
 20
510.8011660761686
 30
0.0
  0
VERTEX
  5
A0C
330
9F2
100
AcDbEntity
  8
0
100
AcDbVertex
100
AcDb2dVertex
 10
264.2222803469806
 20
510.8446214384886
 30
0.0
  0
SEQEND
  5
9F5
330
9F2
100
AcDbEntity
  8
0
  0
LINE
  5
A0D
330
6C
100
AcDbEntity
  8
0
100
AcDbLine
 10
276.6466229609604
 20
516.2733171171994
 30
0.0
 11
277.5167128378679
 21
515.7709704925479
 31
0.0
  0
LINE
  5
A0E
330
6C
100
AcDbEntity
  8
0
100
AcDbLine
 10
265.3466229609604
 20
516.2733171171994
 30
0.0
 11
264.4765330840529
 21
515.7709704925479
 31
0.0
  0
LINE
  5
A0F
330
6C
100
AcDbEntity
  8
0
100
AcDbLine
 10
265.3466229609604
 20
509.7733171171993
 30
0.0
 11
264.4765330840529
 21
510.2756637418512
 31
0.0
  0
LINE
  5
A10
330
6C
100
AcDbEntity
  8
0
100
AcDbLine
 10
276.6466229609604
 20
509.7733171171993
 30
0.0
 11
277.5167128378679
 21
510.2756637418512
 31
0.0
  0
LINE
  5
AB5
330
6C
100
AcDbEntity
  8
0
100
AcDbLine
 10
264.2222801040132
 20
515.2020128047876
 30
0.0
 11
264.2222801040132
 21
510.8446214296114
 31
0.0
  0
LINE
  5
AB6
330
6C
100
AcDbEntity
  8
0
100
AcDbLine
 10
277.7709658179076
 20
515.2020128047876
 30
0.0
 11
277.7709658179076
 21
510.8446214296114
 31
0.0
  0
LINE
  5
AB7
330
6C
100
AcDbEntity
  8
0
100
AcDbLine
 10
277.1822241531401
 20
515.2020128047873
 30
0.0
 11
277.1822241531401
 21
510.8446214296114
 31
0.0
  0
LINE
  5
AB8
330
6C
100
AcDbEntity
  8
0
100
AcDbLine
 10
270.4078812961929
 20
515.2020128047876
 30
0.0
 11
270.4078812961929
 21
510.8446214296114
 31
0.0
  0
ARC
  5
FA1
330
6C
100
AcDbEntity
  8
0
100
AcDbCircle
 10
276.1623372463665
 20
100.8128459263115
 30
0.0
 40
0.1000000000000675
100
AcDbArc
 50
117.5131325472648
 51
174.4487627545372
  0
ARC
  5
FA2
330
6C
100
AcDbEntity
  8
0
100
AcDbCircle
 10
276.1623372463665
 20
118.7283264059505
 30
0.0
 40
0.0999999999999612
100
AcDbArc
 50
185.5512372454504
 51
242.4868674527375
  0
CIRCLE
  5
FA3
330
6C
100
AcDbEntity
  8
0
100
AcDbCircle
 10
271.4966229606524
 20
109.7705861661338
 30
0.0
 40
9.999999999999994
  0
ARC
  5
FA6
330
6C
100
AcDbEntity
  8
0
100
AcDbCircle
 10
183.9966229606523
 20
109.770586166131
 30
0.0
 40
92.49999999999996
100
AcDbArc
 50
5.551237245476356
 51
354.4487627545236
  0
LINE
  5
1C51
330
6C
100
AcDbEntity
  8
7
  6
Continuous
100
AcDbLine
 10
183.9966229609603
 20
244.9843171171998
 30
0.0
 11
183.9966229609603
 21
506.8153339983616
 31
0.0
  0
LINE
  5
1E38
330
6C
100
AcDbEntity
  8
7
  6
Continuous
100
AcDbLine
 10
278.7466229606524
 20
109.770586166103
 30
0.0
 11
89.24662296065234
 21
109.770586166103
 31
0.0
  0
LINE
  5
1E39
330
6C
100
AcDbEntity
  8
7
  6
Continuous
100
AcDbLine
 10
183.9966229606523
 20
204.5205861661031
 30
0.0
 11
183.9966229606523
 21
15.02058616610306
 31
0.0
  0
CIRCLE
  5
2298
330
6C
100
AcDbEntity
  8
0
100
AcDbCircle
 10
183.9966229606523
 20
109.770586166103
 30
0.0
 40
36.24999999969182
  0
CIRCLE
  5
2299
330
6C
100
AcDbEntity
  8
0
100
AcDbCircle
 10
183.9966229606523
 20
109.770586166103
 30
0.0
 40
35.24999999969182
  0
CIRCLE
  5
229A
330
6C
100
AcDbEntity
  8
0
100
AcDbCircle
 10
183.9966229606523
 20
109.770586166103
 30
0.0
 40
76.999999999692
  0
CIRCLE
  5
229B
330
6C
100
AcDbEntity
  8
0
100
AcDbCircle
 10
183.9966229606523
 20
109.770586166103
 30
0.0
 40
72.43999999969201
  0
DIMENSION
  5
231C
330
6C
100
AcDbEntity
  8
5
100
AcDbDimension
  2
*D40
 10
221.49662296096
 20
227.1478762774623
 30
0.0
 11
183.9966229609603
 21
227.1478762774623
 31
0.0
 70
   160
  1
%%c<>
 71
     5
 42
74.99999999999949
  3
GEN-ISO
100
AcDbAlignedDimension
 13
146.4966229609605
 23
256.7250287226872
 33
0.0
 14
221.49662296096
 24
256.7250287226872
 34
0.0
 50
0.0000000000001132
100
AcDbRotatedDimension
1001
ACAD
1000
DSTYLE
1002
{
1070
     3
1000

1070
   271
1070
     0
1002
}
1001
ACAD_DSTYLE_DIMINSPECT
1070
   396
1000
100%
1070
   395
1000

1070
   394
1070
    33
1070
   393
1070
     0
  0
DIMENSION
  5
2348
330
6C
100
AcDbEntity
  8
5
100
AcDbDimension
  2
*D41
 10
262.4966229609603
 20
208.1462648398533
 30
0.0
 11
183.9966229609603
 21
208.1462648398533
 31
0.0
 70
   160
  1
%%c<>
 71
     5
 42
157.0
  3
GEN-ISO
100
AcDbAlignedDimension
 13
105.4966229609603
 23
356.2343171171996
 33
0.0
 14
262.4966229609603
 24
356.2343171171996
 34
0.0
 50
0.0000000000001132
100
AcDbRotatedDimension
1001
ACAD
1000
DSTYLE
1002
{
1070
     3
1000

1070
   271
1070
     0
1002
}
1001
ACAD_DSTYLE_DIMINSPECT
1070
   396
1000
100%
1070
   395
1000

1070
   394
1070
    33
1070
   393
1070
     0
  0
DIMENSION
  5
236A
330
6C
100
AcDbEntity
  8
5
100
AcDbDimension
  2
*D42
 10
92.99662296096036
 20
532.6377896034519
 30
0.0
 11
183.9966229609603
 21
541.8156270782672
 31
0.0
 70
    32
  1
%%c<>
 71
     5
 42
182.0
  3
GEN-ISO
100
AcDbAlignedDimension
 13
274.9966229609604
 23
509.7733171171996
 33
0.0
 14
92.99662296096036
 24
509.7733171171996
 34
0.0
 50
0.0000000000000114
100
AcDbRotatedDimension
1001
ACAD
1000
DSTYLE
1002
{
1070
     3
1000

1070
   271
1070
     0
1002
}
1001
ACAD_DSTYLE_DIMINSPECT
1070
   396
1000
100%
1070
   395
1000

1070
   394
1070
    33
1070
   393
1070
     0
  0
DIMENSION
  5
238C
330
6C
100
AcDbEntity
  8
5
100
AcDbDimension
  2
*D43
 10
306.3676236909186
 20
509.7733171171996
 30
0.0
 11
306.3676236909184
 21
379.2538171171998
 31
0.0
 70
   160
 71
     5
 42
261.0389999999997
  3
GEN-ISO
100
AcDbAlignedDimension
 13
219.4966229609601
 23
248.7343171171999
 33
0.0
 14
274.9966229609604
 24
509.7733171171996
 34
0.0
 50
90.00000000000005
100
AcDbRotatedDimension
1001
ACAD_DSTYLE_DIMINSPECT
1070
   396
1000
100%
1070
   395
1000

1070
   394
1070
    33
1070
   393
1070
     0
1001
ACAD
1000
DSTYLE
1002
{
1070
     3
1000

1070
   271
1070
     0
1002
}
  0
DIMENSION
  5
23AE
330
6C
100
AcDbEntity
  8
5
100
AcDbDimension
  2
*D44
 10
286.9966229609604
 20
509.7733171171996
 30
0.0
 11
278.5098533169038
 21
424.7538171171997
 31
0.0
 70
    32
 71
     5
 42
170.039
  3
GEN-ISO
100
AcDbAlignedDimension
 13
245.9966229609603
 23
339.7343171171996
 33
0.0
 14
274.9966229609604
 24
509.7733171171996
 34
0.0
 50
90.00000000000005
100
AcDbRotatedDimension
1001
ACAD_DSTYLE_DIMINSPECT
1070
   396
1000
100%
1070
   395
1000

1070
   394
1070
    33
1070
   393
1070
     0
1001
ACAD
1000
DSTYLE
1002
{
1070
     3
1000

1070
   271
1070
     0
1002
}
  0
ENDSEC
  0
SECTION
  2
OBJECTS
  0
DICTIONARY
  5
C
330
0
100
AcDbDictionary
281
     1
  3
ACAD_2007HEADERVARS_RT
350
26E2
  3
ACAD_CIP_PREVIOUS_PRODUCT_INFO
350
2021
  3
ACAD_COLOR
350
63
  3
ACAD_GROUP
350
D
  3
ACAD_LAYOUT
350
62
  3
ACAD_MATERIAL
350
10
  3
ACAD_MLEADERSTYLE
350
66
  3
ACAD_MLINESTYLE
350
5F
  3
ACAD_PLOTSETTINGS
350
61
  3
ACAD_PLOTSTYLENAME
350
E
  3
ACAD_SCALELIST
350
42
  3
ACAD_TABLESTYLE
350
64
  3
ACAD_VISUALSTYLE
350
29
  3
ACDB_RECOMPOSE_DATA
350
26E1
  3
AcDbVariableDictionary
350
205D
  3
AcmDictionary
350
20C9
  3
AEC_PROPERTY_SET_DEFS
350
21BC
  3
AMG
350
206F
  3
AMGSNAPSETTINGS
350
2109
  0
DICTIONARY
  5
2155
330
2
100
AcDbDictionary
280
     1
281
     1
  3
ACAD_LAYERSTATES
360
2156
  0
DICTIONARY
  5
214F
330
214E
100
AcDbDictionary
280
     1
281
     1
  0
DICTIONARY
  5
2151
330
2150
100
AcDbDictionary
280
     1
281
     1
  0
DICTIONARY
  5
26CD
330
C9
100
AcDbDictionary
280
     1
281
     1
  3
ACAD_MTEXT_2008_RT
360
26CE
  0
DICTIONARY
  5
2718
330
1E2
100
AcDbDictionary
280
     1
281
     1
  3
ACAD_MTEXT_2008_RT
360
2719
  0
DICTIONARY
  5
271A
330
1E7
100
AcDbDictionary
280
     1
281
     1
  3
ACAD_MTEXT_2008_RT
360
271B
  0
DICTIONARY
  5
2026
330
1E9
100
AcDbDictionary
280
     1
281
     1
  3
ACAD_MLATT
360
26D0
  3
ACAD_XREC_ROUNDTRIP
360
26CF
  0
DICTIONARY
  5
2029
330
1ED
100
AcDbDictionary
280
     1
281
     1
  3
ACAD_MLATT
360
26D2
  3
ACAD_XREC_ROUNDTRIP
360
26D1
  0
DICTIONARY
  5
202C
330
1EE
100
AcDbDictionary
280
     1
281
     1
  3
ACAD_MLATT
360
26D4
  3
ACAD_XREC_ROUNDTRIP
360
26D3
  0
DICTIONARY
  5
202F
330
1EF
100
AcDbDictionary
280
     1
281
     1
  3
ACAD_MLATT
360
26D6
  3
ACAD_XREC_ROUNDTRIP
360
26D5
  0
DICTIONARY
  5
2032
330
1F0
100
AcDbDictionary
280
     1
281
     1
  3
ACAD_MLATT
360
26D8
  3
ACAD_XREC_ROUNDTRIP
360
26D7
  0
DICTIONARY
  5
2035
330
1F2
100
AcDbDictionary
280
     1
281
     1
  3
ACAD_MLATT
360
26DA
  3
ACAD_XREC_ROUNDTRIP
360
26D9
  0
DICTIONARY
  5
2038
330
1F3
100
AcDbDictionary
280
     1
281
     1
  3
ACAD_MLATT
360
26DC
  3
ACAD_XREC_ROUNDTRIP
360
26DB
  0
DICTIONARY
  5
203B
330
1F4
100
AcDbDictionary
280
     1
281
     1
  3
ACAD_MLATT
360
26DE
  3
ACAD_XREC_ROUNDTRIP
360
26DD
  0
DICTIONARY
  5
203E
330
1F5
100
AcDbDictionary
280
     1
281
     1
  3
ACAD_MLATT
360
26E0
  3
ACAD_XREC_ROUNDTRIP
360
26DF
  0
DICTIONARY
  5
271C
330
1960
100
AcDbDictionary
280
     1
281
     1
  3
ACAD_MTEXT_2008_RT
360
271D
  0
DICTIONARY
  5
271E
330
1964
100
AcDbDictionary
280
     1
281
     1
  3
ACAD_MTEXT_2008_RT
360
271F
  0
DICTIONARY
  5
2720
330
1968
100
AcDbDictionary
280
     1
281
     1
  3
ACAD_MTEXT_2008_RT
360
2721
  0
DICTIONARY
  5
2722
330
1973
100
AcDbDictionary
280
     1
281
     1
  3
ACAD_MTEXT_2008_RT
360
2723
  0
DICTIONARY
  5
2724
330
197A
100
AcDbDictionary
280
     1
281
     1
  3
ACAD_MTEXT_2008_RT
360
2725
  0
DICTIONARY
  5
2726
330
1981
100
AcDbDictionary
280
     1
281
     1
  3
ACAD_MTEXT_2008_RT
360
2727
  0
DICTIONARY
  5
2728
330
1985
100
AcDbDictionary
280
     1
281
     1
  3
ACAD_MTEXT_2008_RT
360
2729
  0
DICTIONARY
  5
272A
330
1988
100
AcDbDictionary
280
     1
281
     1
  3
ACAD_MTEXT_2008_RT
360
272B
  0
DICTIONARY
  5
272C
330
1996
100
AcDbDictionary
280
     1
281
     1
  3
ACAD_MTEXT_2008_RT
360
272D
  0
DICTIONARY
  5
272E
330
199A
100
AcDbDictionary
280
     1
281
     1
  3
ACAD_MTEXT_2008_RT
360
272F
  0
DICTIONARY
  5
2730
330
199D
100
AcDbDictionary
280
     1
281
     1
  3
ACAD_MTEXT_2008_RT
360
2731
  0
DICTIONARY
  5
2732
330
1A89
100
AcDbDictionary
280
     1
281
     1
  3
ACAD_MTEXT_2008_RT
360
2733
  0
DICTIONARY
  5
2734
330
1B6B
100
AcDbDictionary
280
     1
281
     1
  3
ACAD_MTEXT_2008_RT
360
2735
  0
DICTIONARY
  5
2736
330
1F12
100
AcDbDictionary
280
     1
281
     1
  3
ACAD_MTEXT_2008_RT
360
2737
  0
DICTIONARY
  5
2738
330
1FF8
100
AcDbDictionary
280
     1
281
     1
  3
ACAD_MTEXT_2008_RT
360
2739
  0
DICTIONARY
  5
26E2
102
{ACAD_REACTORS
330
C
102
}
330
C
100
AcDbDictionary
281
     1
  3
DIMARCSYM
350
26E3
  3
DIMLTEX1
350
26E5
  3
DIMLTEX2
350
26E6
  3
DIMLTYPE
350
26E4
  0
XRECORD
  5
2021
102
{ACAD_REACTORS
330
C
102
}
330
C
100
AcDbXrecord
280
     1
300
INVNTOR
300
2012
300
PDSP_F_S
  0
DICTIONARY
  5
63
102
{ACAD_REACTORS
330
C
102
}
330
C
100
AcDbDictionary
281
     1
  0
DICTIONARY
  5
D
102
{ACAD_REACTORS
330
C
102
}
330
C
100
AcDbDictionary
281
     1
  0
DICTIONARY
  5
62
102
{ACAD_REACTORS
330
C
102
}
330
C
100
AcDbDictionary
281
     1
  3
Layout1
350
6B
  3
Layout2
350
73
  3
Model
350
6F
  0
DICTIONARY
  5
10
102
{ACAD_REACTORS
330
C
102
}
330
C
100
AcDbDictionary
281
     1
  3
ByBlock
350
19
  3
ByLayer
350
11
  3
Global
350
21
  0
DICTIONARY
  5
66
102
{ACAD_REACTORS
330
C
102
}
330
C
100
AcDbDictionary
281
     1
  3
Standard
350
67
  0
DICTIONARY
  5
5F
102
{ACAD_REACTORS
330
C
102
}
330
C
100
AcDbDictionary
281
     1
  3
Standard
350
60
  0
DICTIONARY
  5
61
102
{ACAD_REACTORS
330
C
102
}
330
C
100
AcDbDictionary
281
     1
  0
ACDBDICTIONARYWDFLT
  5
E
102
{ACAD_REACTORS
330
C
102
}
330
C
100
AcDbDictionary
281
     1
  3
Normal
350
F
100
AcDbDictionaryWithDefault
340
F
  0
DICTIONARY
  5
42
102
{ACAD_REACTORS
330
C
102
}
330
C
100
AcDbDictionary
281
     1
  3
A0
350
43
  3
A1
350
44
  3
A2
350
45
  3
A3
350
46
  3
A4
350
47
  3
A5
350
48
  3
A6
350
49
  3
A7
350
4A
  3
A8
350
4B
  3
A9
350
4C
  3
B0
350
4D
  3
B1
350
4E
  3
B2
350
4F
  3
B3
350
50
  3
B4
350
51
  3
B5
350
52
  3
B6
350
53
  0
DICTIONARY
  5
64
102
{ACAD_REACTORS
330
C
102
}
330
C
100
AcDbDictionary
281
     1
  3
Standard
350
65
  0
DICTIONARY
  5
29
102
{ACAD_REACTORS
330
C
102
}
330
C
100
AcDbDictionary
281
     1
  3
2dWireframe
350
2F
  3
3D Hidden
350
2063
  3
3dWireframe
350
2062
  3
Basic
350
2E
  3
Brighten
350
35
  3
ColorChange
350
39
  3
Conceptual
350
32
  3
Dim
350
34
  3
EdgeColorOff
350
41
  3
Facepattern
350
38
  3
Flat
350
2A
  3
FlatWithEdges
350
2B
  3
Gouraud
350
2C
  3
GouraudWithEdges
350
2D
  3
Hidden
350
31
  3
JitterOff
350
3F
  3
Linepattern
350
37
  3
OverhangOff
350
40
  3
Realistic
350
33
  3
Shaded
350
3E
  3
Shaded with edges
350
3D
  3
Shades of Gray
350
3A
  3
Sketchy
350
3B
  3
Thicken
350
36
  3
Wireframe
350
30
  3
X-Ray
350
3C
  0
XRECORD
  5
26E1
102
{ACAD_REACTORS
330
C
102
}
330
C
100
AcDbXrecord
280
     1
 90
        1
330
65
330
C9
330
1E9
330
1ED
330
1EE
330
1EF
330
1F0
330
1F2
330
1F3
330
1F4
330
1F5
  0
DICTIONARY
  5
205D
102
{ACAD_REACTORS
330
C
102
}
330
C
100
AcDbDictionary
281
     1
  3
CANNOSCALE
350
2060
  3
CMLEADERSTYLE
350
205F
  3
CTABLESTYLE
350
205E
  3
LAYEREVAL
350
2447
  3
LAYERNOTIFY
350
2448
  3
LIGHTINGUNITS
350
2446
  3
MSLTSCALE
350
2445
  3
SOLIDHIST
350
2449
  3
XCLIPFRAME
350
26CB
  0
DICTIONARY
  5
20C9
102
{ACAD_REACTORS
330
C
102
}
330
C
100
AcDbDictionary
281
     1
  3
AcmStdDictionary
350
20D3
  0
DICTIONARY
  5
21BC
102
{ACAD_REACTORS
330
C
102
}
330
C
100
AcDbDictionary
281
     1
  0
DICTIONARY
  5
206F
102
{ACAD_REACTORS
330
C
102
}
330
C
100
AcDbDictionary
281
     1
  0
DICTIONARY
  5
2109
102
{ACAD_REACTORS
330
C
102
}
330
C
100
AcDbDictionary
281
     1
  0
DICTIONARY
  5
2156
102
{ACAD_REACTORS
330
2155
102
}
330
2155
100
AcDbDictionary
281
     1
  0
XRECORD
  5
26CE
102
{ACAD_REACTORS
330
26CD
102
}
330
26CD
100
AcDbXrecord
280
     1
 40
2697178.0
  1
\pxsm0.94;WIG Schweisung, Nahte sauber geschliffen und poliert\PSichtstege geschliffen mit 240 Korn und abgeklebt.\P\fTahoma|b0|i0;\H3.0000; \P\fTahoma|b0|i0;\H3.5000;WIG svarovani- svary dle potreby zabrousit.\PPohledove plochy brousit (vel. brusnyc
  1
h zrn 240)\Pa polepit paskou
  0
XRECORD
  5
2719
102
{ACAD_REACTORS
330
2718
102
}
330
2718
100
AcDbXrecord
280
     1
 40
273903.0
  1
Effidrain dvoudílná  157/DN70 svislá 12mm příruba bez ZU
  0
XRECORD
  5
271B
102
{ACAD_REACTORS
330
271A
102
}
330
271A
100
AcDbXrecord
280
     1
 40
23258.0
  1
Není k dispozici
  0
XRECORD
  5
26D0
102
{ACAD_REACTORS
330
2026
102
}
330
2026
100
AcDbXrecord
280
     1
 70
     4
 70
     0
 70
     0
 40
1.0
  2
ČÍSLO_REVIZE
  1
Embedded Object
 10
287.6423193699604
 20
66.0
 30
0.0
 40
3.499999940395355
 41
0.0
 46
0.0
 71
     1
 72
     5
  1
000
  7
Styl textu9
 73
     1
 44
1.0
  0
XRECORD
  5
26CF
102
{ACAD_REACTORS
330
2026
102
}
330
2026
100
AcDbXrecord
280
     1
102
ACAD_MATT_HEIGHT
140
3.499999940395355
  0
XRECORD
  5
26D2
102
{ACAD_REACTORS
330
2029
102
}
330
2029
100
AcDbXrecord
280
     1
 70
     4
 70
     0
 70
     0
 40
1.0
  2
Sheet_Size
  1
Embedded Object
 10
289.7753402652471
 20
48.33701147296152
 30
0.0
 40
2.000000029802321
 41
0.0
 46
0.0
 71
     1
 72
     5
  1
A2
  7
Styl textu40
 73
     1
 44
1.0
  0
XRECORD
  5
26D1
102
{ACAD_REACTORS
330
2029
102
}
330
2029
100
AcDbXrecord
280
     1
102
ACAD_MATT_HEIGHT
140
2.000000029802321
  0
XRECORD
  5
26D4
102
{ACAD_REACTORS
330
202C
102
}
330
202C
100
AcDbXrecord
280
     1
 70
     4
 70
     0
 70
     0
 40
1.0
  2
FILENAME_AND_PATH
  1
Embedded Object
 10
230.2697279123746
 20
53.13502004542946
 30
0.0
 40
2.000000029802321
 41
0.0
 46
0.0
 71
     1
 72
     5
  1
C:\\Inventor_DATA\\Projekty\\Guly\\Effidrain\\Effidrain sestava dvoudílná  157 svislá\\408048.iam
  7
Styl textu40
 73
     1
 44
1.0
  0
XRECORD
  5
26D3
102
{ACAD_REACTORS
330
202C
102
}
330
202C
100
AcDbXrecord
280
     1
102
ACAD_MATT_HEIGHT
140
2.000000029802321
  0
XRECORD
  5
26D6
102
{ACAD_REACTORS
330
202F
102
}
330
202F
100
AcDbXrecord
280
     1
 70
     4
 70
     0
 70
     0
 40
1.0
  2
PART_NUMBER
  1
Embedded Object
 10
218.0
 20
66.0
 30
0.0
 40
3.499999940395355
 41
0.0
 46
0.0
 71
     1
 72
     5
  1
408048
  7
Text poznámky (ISO)
 73
     1
 44
1.0
  0
XRECORD
  5
26D5
102
{ACAD_REACTORS
330
202F
102
}
330
202F
100
AcDbXrecord
280
     1
102
ACAD_MATT_HEIGHT
140
3.499999940395355
  0
XRECORD
  5
26D8
102
{ACAD_REACTORS
330
2032
102
}
330
2032
100
AcDbXrecord
280
     1
 70
     4
 70
     0
 70
     0
 40
1.0
  2
PROJECT
  1
Embedded Object
 10
118.0
 20
60.0
 30
0.0
 40
3.499999940395355
 41
0.0
 46
0.0
 71
     1
 72
     5
  1

  7
Text poznámky (ISO)
 73
     1
 44
1.0
  0
XRECORD
  5
26D7
102
{ACAD_REACTORS
330
2032
102
}
330
2032
100
AcDbXrecord
280
     1
102
ACAD_MATT_HEIGHT
140
3.499999940395355
  0
XRECORD
  5
26DA
102
{ACAD_REACTORS
330
2035
102
}
330
2035
100
AcDbXrecord
280
     1
 70
     4
 70
     0
 70
     0
 40
1.0
  2
SKLADOVÉ_ČÍSLO
  1
Embedded Object
 10
118.0
 20
54.89391305489238
 30
0.0
 40
6.99999988079071
 41
153.2966041564941
 46
0.0
 71
     1
 72
     5
  1
408048
  7
Styl textu94
 73
     1
 44
1.0
  0
XRECORD
  5
26D9
102
{ACAD_REACTORS
330
2035
102
}
330
2035
100
AcDbXrecord
280
     1
102
ACAD_MATT_HEIGHT
140
6.99999988079071
  0
XRECORD
  5
26DC
102
{ACAD_REACTORS
330
2038
102
}
330
2038
100
AcDbXrecord
280
     1
 70
     4
 70
     0
 70
     0
 40
1.0
  2
MATERIAL
  1
Embedded Object
 10
117.5939056808251
 20
108.6756657996811
 30
0.0
 40
3.499999940395355
 41
0.0
 46
0.0
 71
     1
 72
     5
  1

  7
Text poznámky (ISO)
 73
     1
 44
1.0
  0
XRECORD
  5
26DB
102
{ACAD_REACTORS
330
2038
102
}
330
2038
100
AcDbXrecord
280
     1
102
ACAD_MATT_HEIGHT
140
3.499999940395355
  0
XRECORD
  5
26DE
102
{ACAD_REACTORS
330
203B
102
}
330
203B
100
AcDbXrecord
280
     1
 70
     4
 70
     0
 70
     0
 40
1.0
  2
AUTHOR
  1
Embedded Object
 10
165.2312259808574
 20
87.78242706242744
 30
0.0
 40
2.000000029802321
 41
15.06250023841858
 46
0.0
 71
     1
 72
     5
  1
pklepetko
  7
Styl textu40
 73
     1
 44
1.0
  0
XRECORD
  5
26DD
102
{ACAD_REACTORS
330
203B
102
}
330
203B
100
AcDbXrecord
280
     1
102
ACAD_MATT_HEIGHT
140
2.000000029802321
  0
XRECORD
  5
26E0
102
{ACAD_REACTORS
330
203E
102
}
330
203E
100
AcDbXrecord
280
     1
 70
     4
 70
     0
 70
     0
 40
1.0
  2
VS_First
  1
Embedded Object
 10
189.1855699863978
 20
86.00038821032343
 30
0.0
 40
3.499999940395355
 41
24.15597186978378
 46
0.0
 71
     1
 72
     5
  1

  7
Text poznámky (ISO)
 73
     1
 44
1.0
  0
XRECORD
  5
26DF
102
{ACAD_REACTORS
330
203E
102
}
330
203E
100
AcDbXrecord
280
     1
102
ACAD_MATT_HEIGHT
140
3.499999940395355
  0
XRECORD
  5
271D
102
{ACAD_REACTORS
330
271C
102
}
330
271C
100
AcDbXrecord
280
     1
 40
7165.0
  1
KUSOVNÍK
  0
XRECORD
  5
271F
102
{ACAD_REACTORS
330
271E
102
}
330
271E
100
AcDbXrecord
280
     1
 40
6807.0
  1
MATERIÁL
  0
XRECORD
  5
2721
102
{ACAD_REACTORS
330
2720
102
}
330
2720
100
AcDbXrecord
280
     1
 40
6841.0
  1
SKLADOVÉ
  0
XRECORD
  5
2723
102
{ACAD_REACTORS
330
2722
102
}
330
2722
100
AcDbXrecord
280
     1
 40
84812.0
  1
Effidrai dvoudílná  157 svislá
  0
XRECORD
  5
2725
102
{ACAD_REACTORS
330
2724
102
}
330
2724
100
AcDbXrecord
280
     1
 40
202759.0
  1
Effidrain drenážní kroužek komplet 157 + karton
  0
XRECORD
  5
2727
102
{ACAD_REACTORS
330
2726
102
}
330
2726
100
AcDbXrecord
280
     1
 40
22034.0
  1
návlek sunap-DN70
  0
XRECORD
  5
2729
102
{ACAD_REACTORS
330
2728
102
}
330
2728
100
AcDbXrecord
280
     1
 40
4936.0
  1
Papír
  0
XRECORD
  5
272B
102
{ACAD_REACTORS
330
272A
102
}
330
272A
100
AcDbXrecord
280
     1
 40
258126.0
  1
Etiketa samolepící 80 x 17 stříbrná/červená
  0
XRECORD
  5
272D
102
{ACAD_REACTORS
330
272C
102
}
330
272C
100
AcDbXrecord
280
     1
 40
15547.0
  1
krytka zemáku
  0
XRECORD
  5
272F
102
{ACAD_REACTORS
330
272E
102
}
330
272E
100
AcDbXrecord
280
     1
 40
57602.0
  1
Polykarbonát, kouřový
  0
XRECORD
  5
2731
102
{ACAD_REACTORS
330
2730
102
}
330
2730
100
AcDbXrecord
280
     1
 40
130256.0
  1
Effidrain kryt plastový 157 pro balení PP 12mm
  0
XRECORD
  5
2733
102
{ACAD_REACTORS
330
2732
102
}
330
2732
100
AcDbXrecord
280
     1
 40
25677.0
  1
\A1;261{\H5.257800;±1}
  0
XRECORD
  5
2735
102
{ACAD_REACTORS
330
2734
102
}
330
2734
100
AcDbXrecord
280
     1
 40
8233.0
  1
\A1;{\U+00D8}75
  0
XRECORD
  5
2737
102
{ACAD_REACTORS
330
2736
102
}
330
2736
100
AcDbXrecord
280
     1
 40
9029.0
  1
\A1;{\U+00D8}157
  0
XRECORD
  5
2739
102
{ACAD_REACTORS
330
2738
102
}
330
2738
100
AcDbXrecord
280
     1
 40
25671.0
  1
\A1;170{\H5.257800;±1}
  0
XRECORD
  5
26E3
102
{ACAD_REACTORS
330
26E2
102
}
330
26E2
100
AcDbXrecord
280
     1
 70
     1
  0
XRECORD
  5
26E5
102
{ACAD_REACTORS
330
26E2
102
}
330
26E2
100
AcDbXrecord
280
     1
340
5B
  0
XRECORD
  5
26E6
102
{ACAD_REACTORS
330
26E2
102
}
330
26E2
100
AcDbXrecord
280
     1
340
5B
  0
XRECORD
  5
26E4
102
{ACAD_REACTORS
330
26E2
102
}
330
26E2
100
AcDbXrecord
280
     1
340
5B
  0
LAYOUT
  5
6B
102
{ACAD_REACTORS
330
62
102
}
330
62
100
AcDbPlotSettings
  1

  2

  4

  6

 40
0.0
 41
0.0
 42
0.0
 43
0.0
 44
0.0
 45
0.0
 46
0.0
 47
0.0
 48
0.0
 49
0.0
140
0.0
141
0.0
142
1.0
143
1.0
 70
   688
 72
     0
 73
     0
 74
     5
  7

 75
    16
147
1.0
 76
     0
 77
     2
 78
   300
148
0.0
149
0.0
100
AcDbLayout
  1
Layout1
 70
     1
 71
     1
 10
0.0
 20
0.0
 11
891.0
 21
630.0
 12
0.0
 22
0.0
 32
0.0
 14
0.0
 24
0.0
 34
0.0
 15
891.0
 25
630.0
 35
0.0
146
0.0
 13
0.0
 23
0.0
 33
0.0
 16
1.0
 26
0.0
 36
0.0
 17
0.0
 27
1.0
 37
0.0
 76
     0
330
68
  0
LAYOUT
  5
73
102
{ACAD_REACTORS
330
62
102
}
330
62
100
AcDbPlotSettings
  1

  2

  4

  6

 40
0.0
 41
0.0
 42
0.0
 43
0.0
 44
0.0
 45
0.0
 46
0.0
 47
0.0
 48
0.0
 49
0.0
140
0.0
141
0.0
142
1.0
143
1.0
 70
   688
 72
     0
 73
     0
 74
     5
  7

 75
    16
147
1.0
 76
     0
 77
     2
 78
   300
148
0.0
149
0.0
100
AcDbLayout
  1
Layout2
 70
     1
 71
     2
 10
0.0
 20
0.0
 11
12.0
 21
9.0
 12
0.0
 22
0.0
 32
0.0
 14
0.0
 24
0.0
 34
0.0
 15
0.0
 25
0.0
 35
0.0
146
0.0
 13
0.0
 23
0.0
 33
0.0
 16
1.0
 26
0.0
 36
0.0
 17
0.0
 27
1.0
 37
0.0
 76
     0
330
70
  0
LAYOUT
  5
6F
102
{ACAD_REACTORS
330
62
102
}
330
62
100
AcDbPlotSettings
  1

  2

  4

  6

 40
0.0
 41
0.0
 42
0.0
 43
0.0
 44
0.0
 45
0.0
 46
0.0
 47
0.0
 48
0.0
 49
0.0
140
0.0
141
0.0
142
1.0
143
1.0
 70
  1712
 72
     0
 73
     0
 74
     0
  7

 75
     0
147
1.0
 76
     0
 77
     2
 78
   300
148
0.0
149
0.0
100
AcDbLayout
  1
Model
 70
     1
 71
     0
 10
0.0
 20
0.0
 11
12.0
 21
9.0
 12
0.0
 22
0.0
 32
0.0
 14
0.0
 24
0.0
 34
0.0
 15
0.0
 25
0.0
 35
0.0
146
0.0
 13
0.0
 23
0.0
 33
0.0
 16
1.0
 26
0.0
 36
0.0
 17
0.0
 27
1.0
 37
0.0
 76
     0
330
6C
331
57
  0
MATERIAL
  5
19
102
{ACAD_XDICTIONARY
360
1A
102
}
102
{ACAD_REACTORS
330
10
102
}
330
10
100
AcDbMaterial
  1
ByBlock
 72
     0
 43
0.0208333333333333
 43
0.0
 43
0.0
 43
0.0
 43
0.0
 43
0.0208333333333333
 43
0.0
 43
0.0
 43
0.0
 43
0.0
 43
1.0
 43
0.0
 43
0.0
 43
0.0
 43
0.0
 43
1.0
 77
     0
 47
0.0208333333333333
 47
0.0
 47
0.0
 47
0.0
 47
0.0
 47
0.0208333333333333
 47
0.0
 47
0.0
 47
0.0
 47
0.0
 47
1.0
 47
0.0
 47
0.0
 47
0.0
 47
0.0
 47
1.0
171
     0
 49
0.0208333333333333
 49
0.0
 49
0.0
 49
0.0
 49
0.0
 49
0.0208333333333333
 49
0.0
 49
0.0
 49
0.0
 49
0.0
 49
1.0
 49
0.0
 49
0.0
 49
0.0
 49
0.0
 49
1.0
175
     0
142
0.0208333333333333
142
0.0
142
0.0
142
0.0
142
0.0
142
0.0208333333333333
142
0.0
142
0.0
142
0.0
142
0.0
142
1.0
142
0.0
142
0.0
142
0.0
142
0.0
142
1.0
179
     0
144
0.0208333333333333
144
0.0
144
0.0
144
0.0
144
0.0
144
0.0208333333333333
144
0.0
144
0.0
144
0.0
144
0.0
144
1.0
144
0.0
144
0.0
144
0.0
144
0.0
144
1.0
147
0.0208333333333333
147
0.0
147
0.0
147
0.0
147
0.0
147
0.0208333333333333
147
0.0
147
0.0
147
0.0
147
0.0
147
1.0
147
0.0
147
0.0
147
0.0
147
0.0
147
1.0
  0
MATERIAL
  5
11
102
{ACAD_XDICTIONARY
360
12
102
}
102
{ACAD_REACTORS
330
10
102
}
330
10
100
AcDbMaterial
  1
ByLayer
 72
     0
 43
0.0208333333333333
 43
0.0
 43
0.0
 43
0.0
 43
0.0
 43
0.0208333333333333
 43
0.0
 43
0.0
 43
0.0
 43
0.0
 43
1.0
 43
0.0
 43
0.0
 43
0.0
 43
0.0
 43
1.0
 77
     0
 47
0.0208333333333333
 47
0.0
 47
0.0
 47
0.0
 47
0.0
 47
0.0208333333333333
 47
0.0
 47
0.0
 47
0.0
 47
0.0
 47
1.0
 47
0.0
 47
0.0
 47
0.0
 47
0.0
 47
1.0
171
     0
 49
0.0208333333333333
 49
0.0
 49
0.0
 49
0.0
 49
0.0
 49
0.0208333333333333
 49
0.0
 49
0.0
 49
0.0
 49
0.0
 49
1.0
 49
0.0
 49
0.0
 49
0.0
 49
0.0
 49
1.0
175
     0
142
0.0208333333333333
142
0.0
142
0.0
142
0.0
142
0.0
142
0.0208333333333333
142
0.0
142
0.0
142
0.0
142
0.0
142
1.0
142
0.0
142
0.0
142
0.0
142
0.0
142
1.0
179
     0
144
0.0208333333333333
144
0.0
144
0.0
144
0.0
144
0.0
144
0.0208333333333333
144
0.0
144
0.0
144
0.0
144
0.0
144
1.0
144
0.0
144
0.0
144
0.0
144
0.0
144
1.0
147
0.0208333333333333
147
0.0
147
0.0
147
0.0
147
0.0
147
0.0208333333333333
147
0.0
147
0.0
147
0.0
147
0.0
147
1.0
147
0.0
147
0.0
147
0.0
147
0.0
147
1.0
  0
MATERIAL
  5
21
102
{ACAD_XDICTIONARY
360
22
102
}
102
{ACAD_REACTORS
330
10
102
}
330
10
100
AcDbMaterial
  1
Global
 72
     0
 43
0.0208333333333333
 43
0.0
 43
0.0
 43
0.0
 43
0.0
 43
0.0208333333333333
 43
0.0
 43
0.0
 43
0.0
 43
0.0
 43
1.0
 43
0.0
 43
0.0
 43
0.0
 43
0.0
 43
1.0
 77
     0
 47
0.0208333333333333
 47
0.0
 47
0.0
 47
0.0
 47
0.0
 47
0.0208333333333333
 47
0.0
 47
0.0
 47
0.0
 47
0.0
 47
1.0
 47
0.0
 47
0.0
 47
0.0
 47
0.0
 47
1.0
171
     0
 49
0.0208333333333333
 49
0.0
 49
0.0
 49
0.0
 49
0.0
 49
0.0208333333333333
 49
0.0
 49
0.0
 49
0.0
 49
0.0
 49
1.0
 49
0.0
 49
0.0
 49
0.0
 49
0.0
 49
1.0
175
     0
142
0.0208333333333333
142
0.0
142
0.0
142
0.0
142
0.0
142
0.0208333333333333
142
0.0
142
0.0
142
0.0
142
0.0
142
1.0
142
0.0
142
0.0
142
0.0
142
0.0
142
1.0
179
     0
144
0.0208333333333333
144
0.0
144
0.0
144
0.0
144
0.0
144
0.0208333333333333
144
0.0
144
0.0
144
0.0
144
0.0
144
1.0
144
0.0
144
0.0
144
0.0
144
0.0
144
1.0
147
0.0208333333333333
147
0.0
147
0.0
147
0.0
147
0.0
147
0.0208333333333333
147
0.0
147
0.0
147
0.0
147
0.0
147
1.0
147
0.0
147
0.0
147
0.0
147
0.0
147
1.0
  0
MLEADERSTYLE
  5
67
102
{ACAD_XDICTIONARY
360
2022
102
}
102
{ACAD_REACTORS
330
66
102
}
330
66
100
AcDbMLeaderStyle
170
     2
171
     1
172
     0
 90
        2
 40
0.0
 41
0.0
173
     1
 91
-1056964608
340
5B
 92
       -2
290
     1
 42
0.09
291
     1
 43
0.36
  3
Standard
 44
0.18
300

342
55
174
     1
178
     6
175
     1
176
     0
 93
-1056964608
 45
0.18
292
     0
297
     0
 46
0.18
 94
-1056964608
 47
1.0
 49
1.0
140
1.0
293
     1
141
0.0
294
     1
177
     0
142
1.0
295
     0
296
     0
143
0.125
1001
ACAD_MLEADERVER
1070
     2
  0
MLINESTYLE
  5
60
102
{ACAD_REACTORS
330
5F
102
}
330
5F
100
AcDbMlineStyle
  2
STANDARD
 70
     0
  3

 62
   256
 51
90.0
 52
90.0
 71
     2
 49
0.5
 62
   256
  6
BYLAYER
 49
-0.5
 62
   256
  6
BYLAYER
  0
ACDBPLACEHOLDER
  5
F
102
{ACAD_REACTORS
330
E
102
}
330
E
  0
SCALE
  5
43
102
{ACAD_REACTORS
330
42
102
}
330
42
100
AcDbScale
 70
     0
300
1:1
140
1.0
141
1.0
290
     1
  0
SCALE
  5
44
102
{ACAD_REACTORS
330
42
102
}
330
42
100
AcDbScale
 70
     0
300
1/128" = 1'-0"
140
0.0078125
141
12.0
290
     0
  0
SCALE
  5
45
102
{ACAD_REACTORS
330
42
102
}
330
42
100
AcDbScale
 70
     0
300
1/64" = 1'-0"
140
0.015625
141
12.0
290
     0
  0
SCALE
  5
46
102
{ACAD_REACTORS
330
42
102
}
330
42
100
AcDbScale
 70
     0
300
1/32" = 1'-0"
140
0.03125
141
12.0
290
     0
  0
SCALE
  5
47
102
{ACAD_REACTORS
330
42
102
}
330
42
100
AcDbScale
 70
     0
300
1/16" = 1'-0"
140
0.0625
141
12.0
290
     0
  0
SCALE
  5
48
102
{ACAD_REACTORS
330
42
102
}
330
42
100
AcDbScale
 70
     0
300
3/32" = 1'-0"
140
0.09375
141
12.0
290
     0
  0
SCALE
  5
49
102
{ACAD_REACTORS
330
42
102
}
330
42
100
AcDbScale
 70
     0
300
1/8" = 1'-0"
140
0.125
141
12.0
290
     0
  0
SCALE
  5
4A
102
{ACAD_REACTORS
330
42
102
}
330
42
100
AcDbScale
 70
     0
300
3/16" = 1'-0"
140
0.1875
141
12.0
290
     0
  0
SCALE
  5
4B
102
{ACAD_REACTORS
330
42
102
}
330
42
100
AcDbScale
 70
     0
300
1/4" = 1'-0"
140
0.25
141
12.0
290
     0
  0
SCALE
  5
4C
102
{ACAD_REACTORS
330
42
102
}
330
42
100
AcDbScale
 70
     0
300
3/8" = 1'-0"
140
0.375
141
12.0
290
     0
  0
SCALE
  5
4D
102
{ACAD_REACTORS
330
42
102
}
330
42
100
AcDbScale
 70
     0
300
1/2" = 1'-0"
140
0.5
141
12.0
290
     0
  0
SCALE
  5
4E
102
{ACAD_REACTORS
330
42
102
}
330
42
100
AcDbScale
 70
     0
300
3/4" = 1'-0"
140
0.75
141
12.0
290
     0
  0
SCALE
  5
4F
102
{ACAD_REACTORS
330
42
102
}
330
42
100
AcDbScale
 70
     0
300
1" = 1'-0"
140
1.0
141
12.0
290
     0
  0
SCALE
  5
50
102
{ACAD_REACTORS
330
42
102
}
330
42
100
AcDbScale
 70
     0
300
1-1/2" = 1'-0"
140
1.5
141
12.0
290
     0
  0
SCALE
  5
51
102
{ACAD_REACTORS
330
42
102
}
330
42
100
AcDbScale
 70
     0
300
3" = 1'-0"
140
3.0
141
12.0
290
     0
  0
SCALE
  5
52
102
{ACAD_REACTORS
330
42
102
}
330
42
100
AcDbScale
 70
     0
300
6" = 1'-0"
140
6.0
141
12.0
290
     0
  0
SCALE
  5
53
102
{ACAD_REACTORS
330
42
102
}
330
42
100
AcDbScale
 70
     0
300
1'-0" = 1'-0"
140
12.0
141
12.0
290
     0
  0
TABLESTYLE
  5
65
102
{ACAD_XDICTIONARY
360
244B
102
}
102
{ACAD_REACTORS
330
64
102
}
330
64
100
AcDbTableStyle
  3
Standard
 70
     0
 71
     0
 40
0.06
 41
0.06
280
     0
281
     0
  7
Standard
140
0.18
170
     2
 62
     0
 63
     7
283
     0
274
    -2
284
     1
 64
     0
275
    -2
285
     1
 65
     0
276
    -2
286
     1
 66
     0
277
    -2
287
     1
 67
     0
278
    -2
288
     1
 68
     0
279
    -2
289
     1
 69
     0
  7
Standard
140
0.25
170
     5
 62
     0
 63
     7
283
     0
274
    -2
284
     1
 64
     0
275
    -2
285
     1
 65
     0
276
    -2
286
     1
 66
     0
277
    -2
287
     1
 67
     0
278
    -2
288
     1
 68
     0
279
    -2
289
     1
 69
     0
  7
Standard
140
0.18
170
     5
 62
     0
 63
     7
283
     0
274
    -2
284
     1
 64
     0
275
    -2
285
     1
 65
     0
276
    -2
286
     1
 66
     0
277
    -2
287
     1
 67
     0
278
    -2
288
     1
 68
     0
279
    -2
289
     1
 69
     0
  0
VISUALSTYLE
  5
2F
102
{ACAD_XDICTIONARY
360
26F1
102
}
102
{ACAD_REACTORS
330
29
102
}
330
29
100
AcDbVisualStyle
  2

 70
     4
 71
     0
 72
     2
 73
     0
 90
        0
 40
-0.6
 41
-30.0
 62
     5
 63
     7
421
 16777215
 74
     1
 91
        4
 64
     7
 65
   257
 75
     1
175
     1
 42
1.0
 92
        0
 66
   257
 43
1.0
 76
     1
 77
     6
 78
     2
 67
     7
 79
     5
170
     0
171
     0
290
     0
174
     0
 93
        1
 44
0.0
173
     0
291
     0
 45
0.0
1001
ACAD
1000
AcDbSavedByObjectVersion
1070
     0
  0
VISUALSTYLE
  5
2063
102
{ACAD_XDICTIONARY
360
273C
102
}
102
{ACAD_REACTORS
330
29
102
}
330
29
100
AcDbVisualStyle
  2

 70
     6
 71
     1
 72
     2
 73
     2
 90
        0
 40
-0.6
 41
-30.0
 62
     5
 63
     7
421
 16777215
 74
     2
 91
        2
 64
     7
 65
   257
 75
     2
175
     1
 42
179.0
 92
        0
 66
   257
 43
1.0
 76
     1
 77
     6
 78
     2
 67
     7
 79
     3
170
     0
171
     0
290
     0
174
     0
 93
        1
 44
0.0
173
     0
291
     0
 45
0.0
1001
ACAD
1000
AcDbSavedByObjectVersion
1070
     0
  0
VISUALSTYLE
  5
2062
102
{ACAD_XDICTIONARY
360
273A
102
}
102
{ACAD_REACTORS
330
29
102
}
330
29
100
AcDbVisualStyle
  2

 70
     5
 71
     0
 72
     2
 73
     0
 90
        0
 40
-0.6
 41
-30.0
 62
     5
 63
     7
421
 16777215
 74
     1
 91
        4
 64
     7
 65
   257
 75
     1
175
     1
 42
1.0
 92
        0
 66
   257
 43
1.0
 76
     1
 77
     6
 78
     2
 67
     7
 79
     5
170
     0
171
     0
290
     0
174
     0
 93
        1
 44
0.0
173
     0
291
     0
 45
0.0
1001
ACAD
1000
AcDbSavedByObjectVersion
1070
     0
  0
VISUALSTYLE
  5
2E
102
{ACAD_XDICTIONARY
360
26EF
102
}
102
{ACAD_REACTORS
330
29
102
}
330
29
100
AcDbVisualStyle
  2

 70
     7
 71
     1
 72
     0
 73
     1
 90
        0
 40
-0.6
 41
-30.0
 62
     5
 63
     7
421
 16777215
 74
     0
 91
        4
 64
     7
 65
   257
 75
     1
175
     1
 42
1.0
 92
        8
 66
     7
 43
1.0
 76
     1
 77
     6
 78
     2
 67
     7
 79
     5
170
     0
171
     0
290
     0
174
     0
 93
        1
 44
0.0
173
     0
291
     1
 45
0.0
1001
ACAD
1000
AcDbSavedByObjectVersion
1070
     0
  0
VISUALSTYLE
  5
35
102
{ACAD_XDICTIONARY
360
26FD
102
}
102
{ACAD_REACTORS
330
29
102
}
330
29
100
AcDbVisualStyle
  2

 70
    12
 71
     2
 72
     2
 73
     0
 90
        0
 40
-0.6
 41
-30.0
 62
     5
 63
     7
421
 16777215
 74
     1
 91
        4
 64
     7
 65
   257
 75
     1
175
     1
 42
1.0
 92
        8
 66
     7
 43
1.0
 76
     1
 77
     6
 78
     2
 67
     7
 79
     5
170
     0
171
     0
290
     0
174
     0
 93
        1
 44
50.0
173
     0
291
     1
 45
0.0
1001
ACAD
1000
AcDbSavedByObjectVersion
1070
     0
  0
VISUALSTYLE
  5
39
102
{ACAD_XDICTIONARY
360
2705
102
}
102
{ACAD_REACTORS
330
29
102
}
330
29
100
AcDbVisualStyle
  2

 70
    16
 71
     2
 72
     2
 73
     3
 90
        0
 40
-0.6
 41
-30.0
 62
     5
 63
     8
421
  8421504
 74
     1
 91
        4
 64
     7
 65
   257
 75
     1
175
     1
 42
1.0
 92
        8
 66
     8
424
  8421504
 43
1.0
 76
     1
 77
     6
 78
     2
 67
     7
 79
     5
170
     0
171
     0
290
     0
174
     0
 93
        1
 44
0.0
173
     0
291
     1
 45
0.0
1001
ACAD
1000
AcDbSavedByObjectVersion
1070
     0
  0
VISUALSTYLE
  5
32
102
{ACAD_XDICTIONARY
360
26F7
102
}
102
{ACAD_REACTORS
330
29
102
}
330
29
100
AcDbVisualStyle
  2

 70
     9
 71
     3
 72
     2
 73
     0
 90
        0
 40
-0.6
 41
-30.0
 62
     5
 63
     7
421
 16777215
 74
     2
 91
        2
 64
     7
 65
   257
 75
     1
175
     1
 42
179.0
 92
        8
 66
     7
 43
1.0
 76
     1
 77
     6
 78
     2
 67
     7
 79
     3
170
     0
171
     0
290
     0
174
     0
 93
        1
 44
0.0
173
     0
291
     0
 45
0.0
1001
ACAD
1000
AcDbSavedByObjectVersion
1070
     0
  0
VISUALSTYLE
  5
34
102
{ACAD_XDICTIONARY
360
26FB
102
}
102
{ACAD_REACTORS
330
29
102
}
330
29
100
AcDbVisualStyle
  2

 70
    11
 71
     2
 72
     2
 73
     0
 90
        0
 40
-0.6
 41
-30.0
 62
     5
 63
     7
421
 16777215
 74
     1
 91
        4
 64
     7
 65
   257
 75
     1
175
     1
 42
1.0
 92
        8
 66
     7
 43
1.0
 76
     1
 77
     6
 78
     2
 67
     7
 79
     5
170
     0
171
     0
290
     0
174
     0
 93
        1
 44
-50.0
173
     0
291
     1
 45
0.0
1001
ACAD
1000
AcDbSavedByObjectVersion
1070
     0
  0
VISUALSTYLE
  5
41
102
{ACAD_XDICTIONARY
360
2715
102
}
102
{ACAD_REACTORS
330
29
102
}
330
29
100
AcDbVisualStyle
  2

 70
    22
 71
     2
 72
     2
 73
     0
 90
        0
 40
-0.6
 41
-30.0
 62
     5
 63
     7
421
 16777215
 74
     1
 91
        4
 64
     7
 65
   257
 75
     1
175
     1
 42
1.0
 92
        8
 66
     7
 43
1.0
 76
     1
 77
     6
 78
     2
 67
     7
 79
     5
170
     0
171
     0
290
     0
174
     0
 93
        1
 44
0.0
173
     0
291
     1
 45
0.0
1001
ACAD
1000
AcDbSavedByObjectVersion
1070
     0
  0
VISUALSTYLE
  5
38
102
{ACAD_XDICTIONARY
360
2703
102
}
102
{ACAD_REACTORS
330
29
102
}
330
29
100
AcDbVisualStyle
  2

 70
    15
 71
     2
 72
     2
 73
     0
 90
        0
 40
-0.6
 41
-30.0
 62
     5
 63
     7
421
 16777215
 74
     1
 91
        4
 64
     7
 65
   257
 75
     1
175
     1
 42
1.0
 92
        8
 66
     7
 43
1.0
 76
     1
 77
     6
 78
     2
 67
     7
 79
     5
170
     0
171
     0
290
     0
174
     0
 93
        1
 44
0.0
173
     0
291
     1
 45
0.0
1001
ACAD
1000
AcDbSavedByObjectVersion
1070
     0
  0
VISUALSTYLE
  5
2A
102
{ACAD_XDICTIONARY
360
26E7
102
}
102
{ACAD_REACTORS
330
29
102
}
330
29
100
AcDbVisualStyle
  2

 70
     0
 71
     2
 72
     1
 73
     1
 90
        2
 40
-0.6
 41
30.0
 62
     5
 63
     7
421
 16777215
 74
     0
 91
        0
 64
     7
 65
   257
 75
     1
175
     1
 42
1.0
 92
        8
 66
     7
 43
1.0
 76
     1
 77
     6
 78
     2
 67
     7
 79
     5
170
     0
171
     0
290
     0
174
     0
 93
       13
 44
0.0
173
     0
291
     1
 45
0.0
1001
ACAD
1000
AcDbSavedByObjectVersion
1070
     0
  0
VISUALSTYLE
  5
2B
102
{ACAD_XDICTIONARY
360
26E9
102
}
102
{ACAD_REACTORS
330
29
102
}
330
29
100
AcDbVisualStyle
  2

 70
     1
 71
     2
 72
     1
 73
     1
 90
        2
 40
-0.6
 41
30.0
 62
     5
 63
     7
421
 16777215
 74
     1
 91
        0
 64
     7
 65
   257
 75
     1
175
     1
 42
1.0
 92
        0
 66
   257
 43
1.0
 76
     1
 77
     6
 78
     2
 67
     7
 79
     5
170
     0
171
     0
290
     0
174
     0
 93
       13
 44
0.0
173
     0
291
     1
 45
0.0
1001
ACAD
1000
AcDbSavedByObjectVersion
1070
     0
  0
VISUALSTYLE
  5
2C
102
{ACAD_XDICTIONARY
360
26EB
102
}
102
{ACAD_REACTORS
330
29
102
}
330
29
100
AcDbVisualStyle
  2

 70
     2
 71
     2
 72
     2
 73
     1
 90
        2
 40
-0.6
 41
30.0
 62
     5
 63
     7
421
 16777215
 74
     0
 91
        0
 64
     7
 65
   257
 75
     1
175
     1
 42
1.0
 92
        0
 66
     7
 43
1.0
 76
     1
 77
     6
 78
     2
 67
     7
 79
     5
170
     0
171
     0
290
     0
174
     0
 93
       13
 44
0.0
173
     0
291
     1
 45
0.0
1001
ACAD
1000
AcDbSavedByObjectVersion
1070
     0
  0
VISUALSTYLE
  5
2D
102
{ACAD_XDICTIONARY
360
26ED
102
}
102
{ACAD_REACTORS
330
29
102
}
330
29
100
AcDbVisualStyle
  2

 70
     3
 71
     2
 72
     2
 73
     1
 90
        2
 40
-0.6
 41
30.0
 62
     5
 63
     7
421
 16777215
 74
     1
 91
        0
 64
     7
 65
   257
 75
     1
175
     1
 42
1.0
 92
        0
 66
   257
 43
1.0
 76
     1
 77
     6
 78
     2
 67
     7
 79
     5
170
     0
171
     0
290
     0
174
     0
 93
       13
 44
0.0
173
     0
291
     1
 45
0.0
1001
ACAD
1000
AcDbSavedByObjectVersion
1070
     0
  0
VISUALSTYLE
  5
31
102
{ACAD_XDICTIONARY
360
26F5
102
}
102
{ACAD_REACTORS
330
29
102
}
330
29
100
AcDbVisualStyle
  2

 70
     6
 71
     1
 72
     2
 73
     2
 90
        0
 40
-0.6
 41
-30.0
 62
     5
 63
     7
421
 16777215
 74
     2
 91
        2
 64
     7
 65
   257
 75
     2
175
     1
 42
40.0
 92
        0
 66
   257
 43
1.0
 76
     1
 77
     6
 78
     2
 67
     7
 79
     3
170
     0
171
     0
290
     0
174
     0
 93
        1
 44
0.0
173
     0
291
     0
 45
0.0
1001
ACAD
1000
AcDbSavedByObjectVersion
1070
     0
  0
VISUALSTYLE
  5
3F
102
{ACAD_XDICTIONARY
360
2711
102
}
102
{ACAD_REACTORS
330
29
102
}
330
29
100
AcDbVisualStyle
  2

 70
    20
 71
     2
 72
     2
 73
     0
 90
        0
 40
-0.6
 41
-30.0
 62
     5
 63
     7
421
 16777215
 74
     1
 91
        4
 64
     7
 65
   257
 75
     1
175
     1
 42
1.0
 92
       10
 66
     7
 43
1.0
 76
     1
 77
     6
 78
     2
 67
     7
 79
     5
170
     0
171
     0
290
     0
174
     0
 93
        1
 44
0.0
173
     0
291
     1
 45
0.0
1001
ACAD
1000
AcDbSavedByObjectVersion
1070
     0
  0
VISUALSTYLE
  5
37
102
{ACAD_XDICTIONARY
360
2701
102
}
102
{ACAD_REACTORS
330
29
102
}
330
29
100
AcDbVisualStyle
  2

 70
    14
 71
     2
 72
     2
 73
     0
 90
        0
 40
-0.6
 41
-30.0
 62
     5
 63
     7
421
 16777215
 74
     1
 91
        4
 64
     7
 65
   257
 75
     7
175
     7
 42
1.0
 92
        8
 66
     7
 43
1.0
 76
     1
 77
     6
 78
     2
 67
     7
 79
     5
170
     0
171
     0
290
     0
174
     0
 93
        1
 44
0.0
173
     0
291
     1
 45
0.0
1001
ACAD
1000
AcDbSavedByObjectVersion
1070
     0
  0
VISUALSTYLE
  5
40
102
{ACAD_XDICTIONARY
360
2713
102
}
102
{ACAD_REACTORS
330
29
102
}
330
29
100
AcDbVisualStyle
  2

 70
    21
 71
     2
 72
     2
 73
     0
 90
        0
 40
-0.6
 41
-30.0
 62
     5
 63
     7
421
 16777215
 74
     1
 91
        4
 64
     7
 65
   257
 75
     1
175
     1
 42
1.0
 92
        9
 66
     7
 43
1.0
 76
     1
 77
     6
 78
     2
 67
     7
 79
     5
170
     0
171
     0
290
     0
174
     0
 93
        1
 44
0.0
173
     0
291
     1
 45
0.0
1001
ACAD
1000
AcDbSavedByObjectVersion
1070
     0
  0
VISUALSTYLE
  5
33
102
{ACAD_XDICTIONARY
360
26F9
102
}
102
{ACAD_REACTORS
330
29
102
}
330
29
100
AcDbVisualStyle
  2

 70
     8
 71
     2
 72
     3
 73
     0
 90
        2
 40
-0.6
 41
30.0
 62
     5
 63
     7
421
 16777215
 74
     0
 91
        0
 64
     7
 65
   257
 75
     1
175
     1
 42
1.0
 92
        8
 66
   257
 43
1.0
 76
     1
 77
     6
 78
     2
 67
     7
 79
     3
170
     0
171
     0
290
     0
174
     0
 93
       13
 44
0.0
173
     0
291
     0
 45
0.0
1001
ACAD
1000
AcDbSavedByObjectVersion
1070
     0
  0
VISUALSTYLE
  5
3E
102
{ACAD_XDICTIONARY
360
270F
102
}
102
{ACAD_REACTORS
330
29
102
}
330
29
100
AcDbVisualStyle
  2

 70
    27
 71
     2
 72
     2
 73
     1
 90
        2
 40
-0.6
 41
30.0
 62
     5
 63
     7
421
 16777215
 74
     0
 91
        4
 64
     7
 65
   257
 75
     1
175
     1
 42
1.0
 92
        8
 66
   257
 43
1.0
 76
     1
 77
     6
 78
     2
 67
     8
425
  7895160
 79
     3
170
     0
171
     0
290
     0
174
     0
 93
        5
 44
0.0
173
     0
291
     0
 45
0.0
1001
ACAD
1000
AcDbSavedByObjectVersion
1070
     0
  0
VISUALSTYLE
  5
3D
102
{ACAD_XDICTIONARY
360
270D
102
}
102
{ACAD_REACTORS
330
29
102
}
330
29
100
AcDbVisualStyle
  2

 70
    26
 71
     2
 72
     2
 73
     1
 90
        2
 40
-0.6
 41
30.0
 62
     5
 63
     7
421
 16777215
 74
     1
 91
       10
 64
     7
 65
   257
 75
     2
175
     1
 42
1.0
 92
        8
 66
   257
 43
1.0
 76
     1
 77
     6
 78
     2
 67
     7
 79
     3
170
     0
171
     0
290
     0
174
     0
 93
        5
 44
0.0
173
     0
291
     0
 45
0.0
1001
ACAD
1000
AcDbSavedByObjectVersion
1070
     0
  0
VISUALSTYLE
  5
3A
102
{ACAD_XDICTIONARY
360
2707
102
}
102
{ACAD_REACTORS
330
29
102
}
330
29
100
AcDbVisualStyle
  2

 70
    23
 71
     2
 72
     2
 73
     3
 90
        0
 40
-0.6
 41
-30.0
 62
     5
 63
     7
421
 16777215
 74
     2
 91
        2
 64
     7
 65
     7
 75
     1
175
     1
 42
40.0
 92
        8
 66
     7
 43
1.0
 76
     1
 77
     6
 78
     2
 67
     7
 79
     3
170
     0
171
     0
290
     0
174
     0
 93
        1
 44
0.0
173
     0
291
     0
 45
0.0
1001
ACAD
1000
AcDbSavedByObjectVersion
1070
     0
  0
VISUALSTYLE
  5
3B
102
{ACAD_XDICTIONARY
360
2709
102
}
102
{ACAD_REACTORS
330
29
102
}
330
29
100
AcDbVisualStyle
  2

 70
    24
 71
     1
 72
     2
 73
     2
 90
        0
 40
-0.6
 41
-30.0
 62
     5
 63
     7
421
 16777215
 74
     2
 91
        2
 64
     7
 65
     7
 75
     1
175
     1
 42
40.0
 92
       11
 66
     7
 43
1.0
 76
     1
 77
     6
 78
     2
 67
     7
 79
     6
170
     0
171
     0
290
     0
174
     0
 93
        1
 44
0.0
173
     0
291
     0
 45
0.0
1001
ACAD
1000
AcDbSavedByObjectVersion
1070
     0
  0
VISUALSTYLE
  5
36
102
{ACAD_XDICTIONARY
360
26FF
102
}
102
{ACAD_REACTORS
330
29
102
}
330
29
100
AcDbVisualStyle
  2

 70
    13
 71
     2
 72
     2
 73
     0
 90
        0
 40
-0.6
 41
-30.0
 62
     5
 63
     7
421
 16777215
 74
     1
 91
        4
 64
     7
 65
   257
 75
     1
175
     1
 42
1.0
 92
       12
 66
     7
 43
1.0
 76
     1
 77
     6
 78
     2
 67
     7
 79
     5
170
     0
171
     0
290
     0
174
     0
 93
        1
 44
0.0
173
     0
291
     1
 45
0.0
1001
ACAD
1000
AcDbSavedByObjectVersion
1070
     0
  0
VISUALSTYLE
  5
30
102
{ACAD_XDICTIONARY
360
26F3
102
}
102
{ACAD_REACTORS
330
29
102
}
330
29
100
AcDbVisualStyle
  2

 70
     5
 71
     0
 72
     2
 73
     0
 90
        0
 40
-0.6
 41
-30.0
 62
     5
 63
     7
421
 16777215
 74
     1
 91
        4
 64
     7
 65
   257
 75
     1
175
     1
 42
1.0
 92
        0
 66
   257
 43
1.0
 76
     1
 77
     6
 78
     2
 67
     7
 79
     3
170
     0
171
     0
290
     0
174
     0
 93
        1
 44
0.0
173
     0
291
     0
 45
0.0
1001
ACAD
1000
AcDbSavedByObjectVersion
1070
     0
  0
VISUALSTYLE
  5
3C
102
{ACAD_XDICTIONARY
360
270B
102
}
102
{ACAD_REACTORS
330
29
102
}
330
29
100
AcDbVisualStyle
  2

 70
    25
 71
     2
 72
     2
 73
     1
 90
        1
 40
0.5
 41
-30.0
 62
     5
 63
     7
421
 16777215
 74
     1
 91
        0
 64
     7
 65
   257
 75
     1
175
     1
 42
1.0
 92
        8
 66
     7
 43
1.0
 76
     1
 77
     6
 78
     2
 67
     7
 79
     3
170
     0
171
     0
290
     0
174
     0
 93
       13
 44
0.0
173
     0
291
     0
 45
0.0
1001
ACAD
1000
AcDbSavedByObjectVersion
1070
     0
  0
DICTIONARYVAR
  5
2060
102
{ACAD_REACTORS
330
205D
102
}
330
205D
100
DictionaryVariables
280
     0
  1
1:1
  0
DICTIONARYVAR
  5
205F
102
{ACAD_REACTORS
330
205D
102
}
330
205D
100
DictionaryVariables
280
     0
  1
STANDARD
  0
DICTIONARYVAR
  5
205E
102
{ACAD_REACTORS
330
205D
102
}
330
205D
100
DictionaryVariables
280
     0
  1
STANDARD
  0
DICTIONARYVAR
  5
2447
102
{ACAD_REACTORS
330
205D
102
}
330
205D
100
DictionaryVariables
280
     0
  1
0
  0
DICTIONARYVAR
  5
2448
102
{ACAD_REACTORS
330
205D
102
}
330
205D
100
DictionaryVariables
280
     0
  1
0
  0
DICTIONARYVAR
  5
2446
102
{ACAD_REACTORS
330
205D
102
}
330
205D
100
DictionaryVariables
280
     0
  1
2
  0
DICTIONARYVAR
  5
2445
102
{ACAD_REACTORS
330
205D
102
}
330
205D
100
DictionaryVariables
280
     0
  1
1
  0
DICTIONARYVAR
  5
2449
102
{ACAD_REACTORS
330
205D
102
}
330
205D
100
DictionaryVariables
280
     0
  1
0
  0
DICTIONARYVAR
  5
26CB
102
{ACAD_REACTORS
330
205D
102
}
330
205D
100
DictionaryVariables
280
     0
  1
2
  0
DICTIONARY
  5
20D3
102
{ACAD_REACTORS
330
20C9
102
}
330
20C9
100
AcDbDictionary
281
     1
  0
DICTIONARY
  5
1A
330
19
100
AcDbDictionary
280
     1
281
     1
  3
ACAD_XREC_ROUNDTRIP
360
2463
  3
BUMPTILE
360
1C
  3
DIFFUSETILE
360
1B
  3
OPACITYTILE
360
1F
  3
REFLECTIONTILE
360
1E
  3
REFRACTIONTILE
360
20
  3
SPECULARTILE
360
1D
  0
DICTIONARY
  5
12
330
11
100
AcDbDictionary
280
     1
281
     1
  3
ACAD_XREC_ROUNDTRIP
360
2462
  3
BUMPTILE
360
14
  3
DIFFUSETILE
360
13
  3
FBXASSET
360
9C
  3
OPACITYTILE
360
17
  3
REFLECTIONTILE
360
16
  3
REFRACTIONTILE
360
18
  3
SPECULARTILE
360
15
  0
DICTIONARY
  5
22
330
21
100
AcDbDictionary
280
     1
281
     1
  3
ACAD_XREC_ROUNDTRIP
360
2464
  3
BUMPTILE
360
24
  3
DIFFUSETILE
360
23
  3
OPACITYTILE
360
27
  3
REFLECTIONTILE
360
26
  3
REFRACTIONTILE
360
28
  3
SPECULARTILE
360
25
  0
DICTIONARY
  5
2022
330
67
100
AcDbDictionary
280
     1
281
     1
  3
ACAD_XREC_ROUNDTRIP
360
2023
  0
DICTIONARY
  5
244B
330
65
100
AcDbDictionary
280
     1
281
     1
  3
ACAD_ROUNDTRIP_2008_TABLESTYLE_CELLSTYLEMAP
360
26CC
  3
ACAD_XREC_ROUNDTRIP
360
2717
  0
DICTIONARY
  5
26F1
330
2F
100
AcDbDictionary
280
     1
281
     1
  3
ACAD_XREC_ROUNDTRIP
360
26F2
  0
DICTIONARY
  5
273C
330
2063
100
AcDbDictionary
280
     1
281
     1
  3
ACAD_XREC_ROUNDTRIP
360
273D
  0
DICTIONARY
  5
273A
330
2062
100
AcDbDictionary
280
     1
281
     1
  3
ACAD_XREC_ROUNDTRIP
360
273B
  0
DICTIONARY
  5
26EF
330
2E
100
AcDbDictionary
280
     1
281
     1
  3
ACAD_XREC_ROUNDTRIP
360
26F0
  0
DICTIONARY
  5
26FD
330
35
100
AcDbDictionary
280
     1
281
     1
  3
ACAD_XREC_ROUNDTRIP
360
26FE
  0
DICTIONARY
  5
2705
330
39
100
AcDbDictionary
280
     1
281
     1
  3
ACAD_XREC_ROUNDTRIP
360
2706
  0
DICTIONARY
  5
26F7
330
32
100
AcDbDictionary
280
     1
281
     1
  3
ACAD_XREC_ROUNDTRIP
360
26F8
  0
DICTIONARY
  5
26FB
330
34
100
AcDbDictionary
280
     1
281
     1
  3
ACAD_XREC_ROUNDTRIP
360
26FC
  0
DICTIONARY
  5
2715
330
41
100
AcDbDictionary
280
     1
281
     1
  3
ACAD_XREC_ROUNDTRIP
360
2716
  0
DICTIONARY
  5
2703
330
38
100
AcDbDictionary
280
     1
281
     1
  3
ACAD_XREC_ROUNDTRIP
360
2704
  0
DICTIONARY
  5
26E7
330
2A
100
AcDbDictionary
280
     1
281
     1
  3
ACAD_XREC_ROUNDTRIP
360
26E8
  0
DICTIONARY
  5
26E9
330
2B
100
AcDbDictionary
280
     1
281
     1
  3
ACAD_XREC_ROUNDTRIP
360
26EA
  0
DICTIONARY
  5
26EB
330
2C
100
AcDbDictionary
280
     1
281
     1
  3
ACAD_XREC_ROUNDTRIP
360
26EC
  0
DICTIONARY
  5
26ED
330
2D
100
AcDbDictionary
280
     1
281
     1
  3
ACAD_XREC_ROUNDTRIP
360
26EE
  0
DICTIONARY
  5
26F5
330
31
100
AcDbDictionary
280
     1
281
     1
  3
ACAD_XREC_ROUNDTRIP
360
26F6
  0
DICTIONARY
  5
2711
330
3F
100
AcDbDictionary
280
     1
281
     1
  3
ACAD_XREC_ROUNDTRIP
360
2712
  0
DICTIONARY
  5
2701
330
37
100
AcDbDictionary
280
     1
281
     1
  3
ACAD_XREC_ROUNDTRIP
360
2702
  0
DICTIONARY
  5
2713
330
40
100
AcDbDictionary
280
     1
281
     1
  3
ACAD_XREC_ROUNDTRIP
360
2714
  0
DICTIONARY
  5
26F9
330
33
100
AcDbDictionary
280
     1
281
     1
  3
ACAD_XREC_ROUNDTRIP
360
26FA
  0
DICTIONARY
  5
270F
330
3E
100
AcDbDictionary
280
     1
281
     1
  3
ACAD_XREC_ROUNDTRIP
360
2710
  0
DICTIONARY
  5
270D
330
3D
100
AcDbDictionary
280
     1
281
     1
  3
ACAD_XREC_ROUNDTRIP
360
270E
  0
DICTIONARY
  5
2707
330
3A
100
AcDbDictionary
280
     1
281
     1
  3
ACAD_XREC_ROUNDTRIP
360
2708
  0
DICTIONARY
  5
2709
330
3B
100
AcDbDictionary
280
     1
281
     1
  3
ACAD_XREC_ROUNDTRIP
360
270A
  0
DICTIONARY
  5
26FF
330
36
100
AcDbDictionary
280
     1
281
     1
  3
ACAD_XREC_ROUNDTRIP
360
2700
  0
DICTIONARY
  5
26F3
330
30
100
AcDbDictionary
280
     1
281
     1
  3
ACAD_XREC_ROUNDTRIP
360
26F4
  0
DICTIONARY
  5
270B
330
3C
100
AcDbDictionary
280
     1
281
     1
  3
ACAD_XREC_ROUNDTRIP
360
270C
  0
XRECORD
  5
2463
102
{ACAD_REACTORS
330
1A
102
}
330
1A
100
AcDbXrecord
280
     1
102
MATERIAL
148
0.0
149
0.0
149
0.0
 93
        0
 94
      127
282
     0
 72
     0
 77
     0
171
     0
175
     0
179
     0
273
     0
  0
XRECORD
  5
1C
102
{ACAD_REACTORS
330
1A
102
}
330
1A
100
AcDbXrecord
280
     1
270
     1
271
     1
  0
XRECORD
  5
1B
102
{ACAD_REACTORS
330
1A
102
}
330
1A
100
AcDbXrecord
280
     1
270
     1
271
     1
  0
XRECORD
  5
1F
102
{ACAD_REACTORS
330
1A
102
}
330
1A
100
AcDbXrecord
280
     1
270
     1
271
     1
  0
XRECORD
  5
1E
102
{ACAD_REACTORS
330
1A
102
}
330
1A
100
AcDbXrecord
280
     1
270
     1
271
     1
  0
XRECORD
  5
20
102
{ACAD_REACTORS
330
1A
102
}
330
1A
100
AcDbXrecord
280
     1
270
     1
271
     1
  0
XRECORD
  5
1D
102
{ACAD_REACTORS
330
1A
102
}
330
1A
100
AcDbXrecord
280
     1
270
     1
271
     1
  0
XRECORD
  5
2462
102
{ACAD_REACTORS
330
12
102
}
330
12
100
AcDbXrecord
280
     1
102
MATERIAL
148
0.0
149
0.0
149
0.0
 93
        0
 94
      127
282
     0
 72
     0
 77
     0
171
     0
175
     0
179
     0
273
     0
  0
XRECORD
  5
14
102
{ACAD_REACTORS
330
12
102
}
330
12
100
AcDbXrecord
280
     1
270
     1
271
     1
  0
XRECORD
  5
13
102
{ACAD_REACTORS
330
12
102
}
330
12
100
AcDbXrecord
280
     1
270
     1
271
     1
  0
XRECORD
  5
9C
102
{ACAD_REACTORS
330
12
102
}
330
12
100
AcDbXrecord
280
     1
 70
     1
 90
1959938040
 71
     1
  1
60AE0352-17C1-45BB-913A-D3C4D0AFF217
311
504B03040A0000080000F664DA403DEE336E79000000790000001B0000006175746F6465736B2D64657369676E2D7061636B6167652E786D6C3C3F786D6C2076657273696F6E3D22312E302220656E636F64696E673D227574662D3822203F3E3C666F726D6174733E3C666F726D61743E687474703A2F2F736368656D612E
311
6175746F6465736B2E636F6D2F64657369676E2D7061636B6167652F323030393C2F666F726D61743E3C2F666F726D6174733E504B0304140006080800F664DA40D486FD9CA0000000F4000000130000005B436F6E74656E745F54797065735D2E786D6C7D8EC10E82300C865F65E91D8A1E8C310C0EEA1BF002731658846E
311
D98AC1B77784ABF1D8FE5FBFBF75BBCE937A534CCEB38643598122B6FEE978D0B0485F9C41B54DDD7D022595594E1A469170414C76A4D9A4D207E29CF43ECE46F218070CC6BECC4078ACAA135ACF422C856C0E68EA1BF5669944DDD7BCDE7B1F8E415D77AECB980613C2E4AC91FC167A2B244592486606FC29C8FD7F045B9A
311
EF7053A7E60B504B0304140006080800F664DA401218B620EC0000007C01000008000000636F72652E786D6C8D904D6EC3201085AF82665B610376FD274C14A7E9097A0184898B128365A0EAF18B13476A775DCDE8CDFB66468F1FBEE71BFAD2AB37CEF6403302485BE54663A71E62B8E006D041F0D5B9F0CB06C8CA59F7B0
311
C920F8B4BAB8EC927236681B926ADDA877517AAF0320754B4D0F5E7DEA59663286E4F0D76C91EA2A279DD16797E018CD881E47CC98F6998BD12B88810EF4DC0CEFB8ACCB132E8FA4C66D4D0BDCBC36AC2D8ED5F9F456F07C83050F667EDE57AB96418F2018A10C930AB3EA83B2AE68BBB27C21B42384E79BFD0F1497F19F50
311
3436146C7FF7817910343D721F089E6F59A4720F2AD52D37F103504B0304140006080800F664DA4055019EA25F0000007C00000007000000636E782E786D6C4DCB3B0E80201045D1AD90E915ED2CF8AC45050C11660C8261F98AB1B07AC9C97D42D718D865D3E909258CFD00CCE24AC6E326A164D74DC0B4128928FF326038
311
472BA13128B1252AC747C6BAB984FC68F0B87FE8960A5C09FE86CFB69FBA01504B0304140006080800F664DA402346E8F469010000020300000C0000006662782F636F72652E786D6C8D52ED8E8230107C95A67F2FD0163845536AD4F39EE05EA042E588D092D2121FFF960FC37931E642529A999DDDD901BEBB3535EA95ED
311
2AA333CC428A91D2B9292A5D66D8BB4B9062B413DC1AE37E9561A465A3323CC058F0D21ADFCE506EB453DA01AA4DA16650769D7218E5355C32DCE5DFAA91A1F40E2ABA6BD8CAFC2A4B15B21068A813BC73160CA069C870627139DF389970C1BDAF8A99AD0A98565D2A65B138B0033BA587CF205927C720D9D375B059B33848
311
DFD36813EF57A7E347CCC92016DC55CDDD5D6E9574AAC022A22C0AE82A88565F2CDAC69B6D92BC51B6A59493A1FC41E4DBE29F225F691747B3DD49D661C1C0C848FCD9162272A8933DF82182932144788D093F060D8140C84E9EEBFB1E57807A953B6313600AE317AA97B5573095A2F1E16462A1F3D800367BDA277AD1E775
311
0FF8805297604D3AB89EBD1BA6F369EA1C45AB6CD0BB1BD2C636B25ECC4D16977319F4549E9BDAD8FFA8C9BC2A99C324C3DF2B7E00504B0304140006080800F664DA40005E2F2A7D0000009D0000000B0000006662782F636E782E786D6C4DCCD10A83201886E15B91FFDCDA9C94821A2CF33E6259C84C87D3D8E5AF46073B
311
FAE0E1E315DD67F568B3E9ED629070AD2E806C78C4C9854542C93366803A25528CF9EF06288CAB95703028B1A4585E274D761E8BCFBB7A179E276AC68831DA60628601534209BEF79463D6921B6F5AD3379A43AD44FD2BED7B84D517504B0304140006080800F664DA40B2277A6E2E01000015020000310000006662782F44
311
383832464644462D324645452D343234322D424334392D3837323339363746433644392F636F72652E786D6C8D515B6EC32010BC0AE22B55651B88EDD811265293F804BD8003C44589C1E251E5F885DA91DABFFCB068766676B44B0F8FE90EBEA575CAE80EE21C4120353742E9B183C15FB3068203A3D618FF8706811E26D9
311
C1044346476BC2BC42DC682FB58FA83642AEE0E09CF410F07BFC74D0F12F390DF9107C64B85B3E0FFC368C32C7796C471EA3CEDB18002C43D20BD9A96948DF9FFA8CF4E773569292641FC7B2CD9A1DD9B6F5AE3FD6A796168B90D1109458E54AC438EAAAA47DD5248919F56A7AC6E7560E5E0AC808C224437546EA4F4CF6DB
311
765F96EF08EF11A245A2FF138559BC280A4AFB2D59E32E320719A6C5D260549870B93FC3C8C76CAC0769DEC649FE0619CA11AAAA0AE3AAA2C5C28D1B88A675B99A3A6F6CDCF0E67689741C59C9B92E192DD29162F9BD60ACE9A0EC07504B0304140006080800F664DA40B0BB297C4E01000033030000300000006662782F44
311
383832464644462D324645452D343234322D424334392D3837323339363746433644392F636E782E786D6CD593BD6E032110845F05D146F7EBD329B1382CA5C813A4488B616D137370E2278ADF3E8B8D1D372E52A641A7D96166F589639BEFD9902FF0413B3BD1AE6E29012B9DD2763FD11477D533251BCEBC73F1CE468915
311
334C34CB94B3BD77692992829D4826A26AB43D16D14370C94B0828E79BC438290C0680AD128A306F412950E466C4AF1D785C05C5ED89C40390B7D70FE2B69F2063604D4EE1ACC91D9CE5B334DD992891468430D1200F308B5AA4E8148463AD441475575FBB1EECF49B44F2856B65F29AE4F289E693F2B2518D1C598343CE42
311
F448AF98E26901CAC5B2182D4544C8CDD978F17096B48DE350BC1AC17B7477E36A1830EC3CE32CEA198A437A101114E57DDBF5553B56FDF8DEF5EBD5CB7A189EDA6EDDB6ACC976CEB6CE99720963C0BB85486723D84879C79A3C7E84AFF888D21E593B7FFA034804505A2F746E19FF994F737EDF88CBE35FC07F00504B0304
311
140006080800F664DA40988B4BFA9A0500007B100000340000006662782F44383832464644462D324645452D343234322D424334392D3837323339363746433644392F6F626A656374732E786D6CAD575D8F9B3814FD2B887D0E8424D376560C553E3A55D49DB66AD46A1F468A1C308C778C41B69966FAEBF7180C81349966
311
577D016CECEB7BCF3DF7C3E1DB7DCE9D272A152BC48D1B7863D7A1222E1226B21BB7D2E9E88DEBBC8D425914BAB7CC7504C9E98D6BA6DD28CC645195762AA129A9B83E9ABD5DFCEDA8980AEA3A31274ADDB82A7EA039F148A58B84AA472F219A7859BAF702AF5938149B49523E1C092D89A4424353CC0B48711AA582E170EC
311
FA51E89BFF51689E76D5F4FC2ABFB667783E134A1311FF74D8919869305BBD9B5C5D8FAE66B3E968F66A128C16B78BD528783D1D2F5F2D97D7F377D7385869094956134953377A0F6C248B43BFF9158515137A3AB14BAC837C499F98F1941B4D9C20F49B359D75D6C853EAC7851034AEB1021AB57D5674424B2A12F89C5105
311
CD7A088D87C3C0E0D8FB3D35637B647FFA3204FA3B7A825ADDDB775FD362F70F4C509730482A6A18D860690D6DB83A3E20BC2B0A6EFF31E5E44453C9087738DB49229FDD084BCD92281C88314C96261A8C056E042F34BF87744118FD9AE7A7B44C2BCE0D8DDDA88E822D62856A556BC67E5079D0BE8F0C7482AF0C1BDE5883
311
F47349DDE8BAA1C89B233635403A2927195C0E33CDCEE9E4C8D0A589D3F5CA8D3EDCEEF61B13BBA70F2F655152A90D7D40ADD671EDDBA064750A2EF29CD9E01EA97200E50B90FF88503FA802BF49B69FED67F6142D8950692173F8C6193BA3311E6327A89FE6BBF715FADDE6A1F7CEE109671BA87E039E431BFABEECC11985
311
4F207C21A7D6B44D4C38D2C61D1300C890C4E105A69087D3DDDE8DD6C872C8CAD8457814C064A8FB84CFD0B7629028EA937A6F012C8FD2E205091AB0D58C841A0DF9AD82073FFD94CEEA83EDB273F05EFD16BACE579B0F9B4AA624A67736A6573465826994B8036FFA0A0D301F58F4489FBF173281A13FE3BDE9E39DDBA314
311
D036981BE0B336A79BC1E1E4C10131F665854937E12F4E8011A6B0F6E4DF311553CE89A045D59EFB62FD40D9682036C16E98DC1598436101699A3F473188221D4B561A10BB6AD5254DEF8C755FD71FC148375A3CFF459EFBD96B77C8BD71C10BB9DD3D6F9BB47412EA6F436E5B0C7C230574AF83A48D7F0BFA3661695A2924
311
C113B87E5B2FFBBE33690129A295DA44CB0CF623B888B4A46DE5A25A4B824A5A882D43DD44DC9D3CA02F1F905A06D402CF69AC284FB78CF32ADFA68CA31A6D73529E81E3FFEBBFABF2724BF2A212FA8CEC81EAA80E43DD07EC55DF898E1FDC6853BF470BE4DE842667C8606AC909AC06AE7D359EBF1B4FAF26689896C16876
311
B5588CAE83E97CB49A2E67ABF1FCF67612BC6EFDD46812856DA9E94734BC84D216569259F77D5D237E6C1270A33BA2D5FDFB263CDBF7D7B5875E38F4B107F5B2DB384F9ED0F7D1E4D7020E2B4F0A5AE725A739159A9818BA331FFC0B419F3150A6995FE724A31748F9F47E73640C662ED8F7D9C43BFD7EB4D7CE2E4D409E14
311
A21FAA7C2708E3471BB30649AF1499C5AFF549F76E0A4D3B3423EB1874A6AAE02C411E4C9C8C1639D5C886171421995305EAF57BFAC4DE3D2ED8FDD474889AEC386D3579206892B94258805A55AC87F3CE1F68EA4C5F75E3A2DC7A8F78D84CE13AE0CC8D8B265DB3982A6F87026D5AA15A38B8D4EFE4D1F8139171F4DACDA6
311
6EDCED32D80C4A72B7E492FEC9DAD5A4706B00D24889BE010D11BC532B1385B56EF67FFC9F0C6FD57188C6E7AED29D2D8789CE98FA1884686394BD2DA08979B447EF11A82F9B1578F59A012217DDB25E24412375A489CCEA9B82D1CFAA345F7DF6D1A138EB4F4EC9AB0CBEBC5CD2485290B932010E16811556664934A8BAFC
311
F3FEB32C7093CD9D5B060ADC2F8B3C2F841DCCED4DD8D93CE05E9BDC232D50732151F7937130B9AF2F02F66EB2DD11453D92A8474CC0A79275100F1C0F4636B74554A0E647B7CE374E38E2E67AE5D8923683504B947E5635B0A0E510D441F498CBA48995FE82F2C5BB805F2F850A125D7CF42F504B0304140006080000F664
311
DA40000000000000000000000000350000006662782F44383832464644462D324645452D343234322D424334392D3837323339363746433644392F76657274696365732E62696E504B0304140006080800F664DA40F270F1330600000004000000360000006662782F44383832464644462D324645452D343234322D424334
311
392D3837323339363746433644392F747269616E676C65732E62696E636660600000504B0304140006080000F664DA40000000000000000000000000370000006662782F44383832464644462D324645452D343234322D424334392D3837323339363746433644392F617474726962757465732E62696E504B030414000608
311
0800F664DA40D5987DFC8F00000041010000360000006662782F44383832464644462D324645452D343234322D424334392D3837323339363746433644392F6469726563746F72792E786D6C858F410EC2201045AF4266AF15DDB800BA74E7C21B903225242D6328188F2FA5C4183471359997F9FF81E89FF3C41E1816475E
311
02DF1F80A11FC8386F25A438EECEC07A250251FC3803E6F58C12560C4AD840E95E91C151A72936F496F35732D860FE635F62C8F2DA16B505C545B74125BAA2FA9E05D7CC053D063734D5C7665FD55B6B8D15D5E9BFEAFD8490FFA45E504B0304140006080800F664DA407AF2EB11FE000000A00100003B0000006662782F44
311
383832464644462D324645452D343234322D424334392D3837323339363746433644392F7265736F75726365732F636F72652E786D6C8D504B6E833010BD0A9A6D65B00D4D20328E429A1BF4029699502BC18EFCA97AFC9A40A576D7CDCCE87D344F4F1CBFE67BF1893E18677B60258502AD76A3B1530F295E490BC5510AEF
311
5CFC2583C2AA197B58609062F22E3D36483B1BD1C68C5A37E206AA103042A1EFF9E821E80F9C55A952CC8A702B1F4ADFD484252B339D755284E87380627DB24C901E834B5E6310D5CA4A919219378D19F34F7335E8410E6C609776B89066DF9C4973A27BD2ED594DDAD79677F5697739BFD5A25ACC524433FF64D41E55C411
311
24A78C13BA237CF7CEF8A1EE0E4DF342D98152512DF23FA6F418FF694AC6C69A6F71575B00C97290272145B5F495D7B3CCBC976EE537504B010214000A0000080000F664DA403DEE336E79000000790000001B00000000000000000000000000000000006175746F6465736B2D64657369676E2D7061636B6167652E786D6C
311
504B01021400140006080800F664DA40D486FD9CA0000000F40000001300000000000000000000000000B20000005B436F6E74656E745F54797065735D2E786D6C504B01021400140006080800F664DA401218B620EC0000007C010000080000000000000000000000000083010000636F72652E786D6C504B010214001400
311
06080800F664DA4055019EA25F0000007C000000070000000000000000000000000095020000636E782E786D6C504B01021400140006080800F664DA402346E8F469010000020300000C00000000000000000000000000190300006662782F636F72652E786D6C504B01021400140006080800F664DA40005E2F2A7D000000
311
9D0000000B00000000000000000000000000AC0400006662782F636E782E786D6C504B01021400140006080800F664DA40B2277A6E2E010000150200003100000000000000000000000000520500006662782F44383832464644462D324645452D343234322D424334392D3837323339363746433644392F636F72652E786D
311
6C504B01021400140006080800F664DA40B0BB297C4E010000330300003000000000000000000000000000CF0600006662782F44383832464644462D324645452D343234322D424334392D3837323339363746433644392F636E782E786D6C504B01021400140006080800F664DA40988B4BFA9A0500007B10000034000000
311
000000000000000000006B0800006662782F44383832464644462D324645452D343234322D424334392D3837323339363746433644392F6F626A656374732E786D6C504B01021400140006080000F664DA400000000000000000000000003500000000000000000000000000570E00006662782F44383832464644462D3246
311
45452D343234322D424334392D3837323339363746433644392F76657274696365732E62696E504B01021400140006080800F664DA40F270F13306000000040000003600000000000000000000000000AA0E00006662782F44383832464644462D324645452D343234322D424334392D3837323339363746433644392F7472
311
69616E676C65732E62696E504B01021400140006080000F664DA400000000000000000000000003700000000000000000000000000040F00006662782F44383832464644462D324645452D343234322D424334392D3837323339363746433644392F617474726962757465732E62696E504B01021400140006080800F664DA
311
40D5987DFC8F000000410100003600000000000000000000000000590F00006662782F44383832464644462D324645452D343234322D424334392D3837323339363746433644392F6469726563746F72792E786D6C504B01021400140006080800F664DA407AF2EB11FE000000A00100003B00000000000000000000000000
311
3C1000006662782F44383832464644462D324645452D343234322D424334392D3837323339363746433644392F7265736F75726365732F636F72652E786D6C504B0506000000000E000E0080040000931100000000
310
504B03040A0000080000F664DA403DEE336E79000000790000001B0000006175746F6465736B2D64657369676E2D7061636B6167652E786D6C3C3F786D6C2076657273696F6E3D22312E302220656E636F64696E673D227574662D3822203F3E3C666F726D6174733E3C666F726D61743E687474703A2F2F736368656D612E
310
6175746F6465736B2E636F6D2F64657369676E2D7061636B6167652F323030393C2F666F726D61743E3C2F666F726D6174733E504B0304140006080800F664DA40D486FD9CA0000000F4000000130000005B436F6E74656E745F54797065735D2E786D6C7D8EC10E82300C865F65E91D8A1E8C310C0EEA1BF002731658846E
310
D98AC1B77784ABF1D8FE5FBFBF75BBCE937A534CCEB38643598122B6FEE978D0B0485F9C41B54DDD7D022595594E1A469170414C76A4D9A4D207E29CF43ECE46F218070CC6BECC4078ACAA135ACF422C856C0E68EA1BF5669944DDD7BCDE7B1F8E415D77AECB980613C2E4AC91FC167A2B244592486606FC29C8FD7F045B9A
310
EF7053A7E60B504B0304140006080800F664DA4069AF51B7E90000007C01000008000000636F72652E786D6C8D90416EC3201045AF82665BE100A6AE6D61A2D6ED0D7A0104C44189C13250F5F8C58923B5BBAE66F4E7BF99D117C7EFF98ABEEC1A5DF003D08A00B25E07E3FC34404E27DC023A4AB186907ED9007935DB0136
310
19A498D690975DD2C127EB53517D307617558C3601D2D7D20C10F5D9CEAA52391547BC548BD21735D98A3EBA02E7EC0CBA1F71A6EC73276757909CBF8E75C71AFCFCC15F30EFDE39EEE85B87C7B1E10D6DDB9AD7441C36588AE4E6C77DBD5A95AC01C90865983498359F94F575D773FE44684F0AB4D9FF407931FF84B2F3A9
310
66FBBB772C82A4E591DB408AC3964529B7A04ADD72933F504B0304140006080800F664DA4055019EA25F0000007C00000007000000636E782E786D6C4DCB3B0E80201045D1AD90E915ED2CF8AC45050C11660C8261F98AB1B07AC9C97D42D718D865D3E909258CFD00CCE24AC6E326A164D74DC0B4128928FF326038472BA1
310
3128B1252AC747C6BAB984FC68F0B87FE8960A5C09FE86CFB69FBA01504B0304140006080800F664DA40455BA58266010000020300000C0000006662782F636F72652E786D6C8D525B6E833010BC8AE5DF0ACCC3A521328EDAB437E8051CE3502B602363A31CBFCB234A5345518464AC999DDDD901B63B772D1A951BB43515
310
4EE3042365A4ADB5692A1CFC31DA60B4E3CC59EBFF94616444A72A3CC198B3C6D9D0AF90B4C62BE30135B6562B288641798C640B970A0FF247752216C143C5708A7B214FA251711A030D759C0DDE8101B40C994ECC8F8733230BCE5908BA5E595DC3347DD4CA614EE9FB3E2FB3227AFDA26F112D3F6954A61F65B4DF17B448
310
379B9CE60923939833AFBB8B3BE994F0AAC63C4BD22C4A8A282BBED36C9B975B4A5F92749B80682ABF1185BE7E5214B4F179B6DA5D6403E6291899897FDB42441E0D62043F8433328508AF39E1DBA0211008D98B437BD9E304D0A8A4B78E0253DB70A546D106055313343F8C2C2C749E1BC06677FB640FFA3CEE011F509806
310
AC090FD743F0D374B64C5DA3E8958B467F46C6BA4EB457738BC5EB791D74572E6D6BDD336AB2AE4AD630C9F4F7F25F504B0304140006080800F664DA40328A22607E0000009D0000000B0000006662782F636E782E786D6C4DCCD10A83201886E15B91FFDC355756821AA1751FB12C64A6C3E9D8E5AF46073BFAE0E1E3E5DD
310
6773E86DE2CB062F805CAE808CBF87D9FA55404E0B6E017592C710D2DF0D909F3623E060907C8D213F4F9ACD3265977675D63F4EEC2961E3A0192ECBE1862B3DF6986945715B2955EB86D29A3450485EFC4AFB1E61F905504B0304140006080800F664DA40721436F72D01000015020000310000006662782F413531394645
310
44392D333345322D344446412D394443352D3834434336443735353631372F636F72652E786D6C8D51DB8EC22014FC958627371B5AE805ADA11863F50BF6072AA0122D345C367EFEC2B626BB6FBE70C89C99399373E8EE393EB26F699D32BA03384720939A1BA1F4B503C15FE006643B46AD31FE0F0D647A186507120C18BD
310
5A13A605E2467BA97D44B511720107E7A407197FC44F071CBFC971C887E023C3DDF369E0F7E12A739CC776E431EABC8D01B279487A01DB37B83D1DFB1656D5B184757FDAC3B63F3470531F0EA45F370DC16B5ACC4246435062912B11E3A88B92F65D932466D4ABF1159F5B397829002B112E2122B0245FB8DC56EDB6AE3F11
310
DE22448B44FF270A9378531494F655B9C49D650E304C8BB9C1A830E1FC788591CFC9589FA5792B27F90760284788AC49839A0D2D666EDC403425F562EABCB171C3ABFB39D2ABC599D48C16E948B1FC5E30D67450F603504B0304140006080800F664DA40D61CE66B5501000033030000300000006662782F41353139464544
310
392D333345322D344446412D394443352D3834434336443735353631372F636E782E786D6CBD93CD6EC32010845F0571ADFC1BCB4A234CA41EFA043DF48A6193D060B00057CDDB7749489A4B0E95AA5E90353BCCAC3E61B6FD9A0CF9041FB4B3036DCA9A12B0D2296DF7035DE2AE5853B2E5CC3B17EF6C945831C140934C39
310
DB7BB7CC5952B0138B89A81A6D8F59F410DCE2250494D34D629C140603C0160B8A308DA014287233E2D70E3CAE82E27822F100E4F5E59DB8F103640CAC4A299C55A983B374E6A63B1325D28810061AE40126518A253A05E1582A1145D994D7AE073BFD249174E15AB9784D52F940D34979DEA8448EACC22167217AA4974DF1
310
3403E5629E8D962222E4EA6CBC78385BB48D7D97BD1AC17B74AFDA7EBDC6B0F38CB3A827C80EE941445094B775D316755FB4FD5BD36E56CF9BAE7BAA9B4D5DB32AD9391B9D33F912C680773391CE46B091F2865569FC085FF611A53DB276FEF40B900820B75EE8DC32FE924FD3AFBAEE1FF954E7F78DB83CFE05FC1B504B03
310
04140006080800F664DA4041C2D2F359070000941B0000340000006662782F41353139464544392D333345322D344446412D394443352D3834434336443735353631372F6F626A656374732E786D6CED59DD739B3810FF5718EED9D8D84EDADC103A89DD643CBDB49DFADAB987CC3032C8441721184924F1FDF5B7FA000331
310
09BEE6DEFA6003425AEDFEF6534BF0E129A3CE03E682E4ECDCF5BD89EB6016E70961E9B95BCAEDE8BDEB7C08039EE7B231CD7518CAF0B9AB86DD3048795E167628C15B5452D919BDBAFCCB113166D875628A843877457C8733E4A152E60916F75E8224F2D2ED93E77B66629B6CCA5171D7215A208E99044E619C0115C730E5
310
B71F27EE380CC6EA7D18A87F3B6B3668D6BC7FD6584BDDE6923021118B9FB1D421331BC4D2CC9F2F3F4E4FCE4627F3F96C343F9DFAA3CBABCBE5C87F379B2C4E178BB38B8F67C0DE26CFA99529C1056609E86FE7867E30566F6AD12D0287B88E73C670AC8104A8B4585D82040BD8AA01DFA4FDE82B891AAFB5848DE7B97A6F
310
59680CCFDA54FA660D03A2451704B1DB551257D7A67CF9E66F105C0C314A2EB0046E85E4A05D0B0F07AF70C3493036A361B0D9EB82082743127382A843C986230E4A81A96A4A189805968C720E0EA41C2581D69C79DDB62DF0CCD75DE71097DB9252E5196EA81D2B02F7C35268CEC83F98EFB96F22033C81B42561F2BDE552
310
EE0AEC8667C1580F8681BACCA6F6A501D2D952940A8D8879DB1174A15C7FB574C34F579BA7B50A0787372F785E602E95D1293D6ABEC090ED55A164B7F507694E2D00610CA876E51E946F80FC67881E7B56406F9C3CCD9FE676AEE488896DCE33D08D33714613F89B38BEFE57F78DBB605C2F6E6BAF0F4F705305D5FB9FC7B3
310
2D83C6CAF2DF80330C1EC0E0733EB3AFD631A260CF37840140CA481C9AC31084F6EDE6C90D57103821D0C32A44431F4406761FE036185B327BAD54EE65BD8E01A2768FD91025016CDA22818D1E3D5D43F6E024DEABA929621FBC276F62AE17CBF5A775C9B728C637D6A797784B189190350F33D4C2BC25D13DDE3DE63C0141
310
9FE3BD6EE29DD9AD04A0AD3057C0A71508EA61BF736B8318D6A5B90A37C12B3B80102A5737E8DF1011634A11C37959ED5B473765A8B5C7DB9AC10DA706E2D9B463C21C3F10555580D3EC67B41885BC1F73522810DDF0DA4856074DAF47BAEFABCF6091F5FC9E592B06A19721FAA70E5A077068597685B405A21678B30FE771
310
4E731E6D769189742ED412C046DB5B7EB48842AC374A5254C083B4DF55212535D24609D96E4B0171F5008B3F568BA6394CBC997FE234FF3BCE3887680BBE8BB8F5BBCE1E11C9508AA32D4AFAB66BEE56D3169A640F698EB714E4220F44EE2224A34982D363A0398AF8D99B524F692E04615840BE3A087E138D890781C468B3
310
625969B5033411518625A2C720A0C8F480ABD38EAE7163281D5EE7B1B6DE9734D624FA3F590447504BE62C22508A420E799571DF3B8118D246D7A0DCC117ACADA2ADC5A0259410F12E7AC424BD93C7A06EC8F7E01EC391A494515EA018CC7A00D967BEA294DAE17D83E27B953FA2B8A46F652002D36D44282DB3087E84C1C9
310
63886BD781E945141AC44DEC933883A20CC9920FD9E4F464F26C1F533374436063A32DA110B6A30C153DA8B702A2AE479C1A7C4BBD47A99B322B2294E5251B6428DEACEB4D967C57AD8AEC407E55A908656345D8120C03C2649D55AB980DA6AE032BB8910E54BB48A0ACA0E614F64AE2F16B6FD2947B37E0D64FDF76830C0A
310
BF1EED3523EABC82C1F2D82A0CC42392F19D1BAEF5757409F57782937DAAAF6ACD66050888A9485E726255F47D05E58DADD1DCF00649717B6DB26E75FDBEF2A0FB118C610DD42EF5C295023AC34C225599DCA81BFA0D41086ED130E32B95538FA1729124BA6A44F48AF4A9B35546B436CD8857DC619667F063B784C5B44CF0
310
2D4AC47D742369B4268A752BA597910AE31705FC72BDEEC003230344FAAA0A3CFCD8596B4717AA5C3A4844DE95D986210241B0255A6A74E3152CB51AA9B45C5FD59902EA2E3030ABE2F9AF9345B31DF1EB64915AC3F8A993C5E5EE0FB46BF6451AE93C56767DD431A0CE4F8ACA5B1C0374DBA1A65A671193CCADFCD6992208
310
8A55941F5C8D5541C310ECE3F83F67EDBE2C68B6EBF07F5CD6F69F551C476595D664D5A53A50B9AE9A39EC7472F171323B99424776E18FE6279797A3337F76315ACE16F3E5E4E2EA6AEABFABD1D48E1A067530D3B90B9E4D50AB86D593C500BAB222A72481D37CE2A41862BE8433FD80F639CFB080E4D96C7627B6293F60F5
310
83E9734AB4A1B8E2E40E4183980A48EB805119CBF6B8F31BB426251CB4CF5D681A79F7F067ADD27520F39CBBD02A9024C6C2DB409B4935F4347148B93AF75B62800F62A94A896651FD5CAF52D8B4C27F3D65481AB072B57A1850B815D0FD6A7528346F96A7F828C12B761C24E176534AA8D68C2CFB815A18BDCD5EFD46364A
310
D8BDDDFA095CF765B17C4FCF692132E893C18B4660A88E24E2A9EE772BC62C4B17CBAF63E8B339AB2F4E41CB1474399CD2886330E6521554604560159666812498EAE2F7DBAF3C874F3C99A3ABA2DB459E6539B30F17701E4BE01391B3BE830F3EC92D940D58B5D5C5ED74E24F6F753BDB76D8A30D12D853F5100C54658412
310
A1636C6091CF5A53B67139564AE84C5F2D1D1B3EA10D602CE85977D77CDE72C07BD48714E52BDAC32B395FEC688FF554B0060EBDE8F05F504B0304140006080000F664DA40000000000000000000000000350000006662782F41353139464544392D333345322D344446412D394443352D3834434336443735353631372F76
310
657274696365732E62696E504B0304140006080800F664DA40F270F1330600000004000000360000006662782F41353139464544392D333345322D344446412D394443352D3834434336443735353631372F747269616E676C65732E62696E636660600000504B0304140006080000F664DA40000000000000000000000000
310
370000006662782F41353139464544392D333345322D344446412D394443352D3834434336443735353631372F617474726962757465732E62696E504B0304140006080800F664DA40D5987DFC8F00000041010000360000006662782F41353139464544392D333345322D344446412D394443352D38344343364437353536
310
31372F6469726563746F72792E786D6C858F410EC2201045AF4266AF15DDB800BA74E7C21B903225242D6328188F2FA5C4183471359997F9FF81E89FF3C41E1816475E02DF1F80A11FC8386F25A438EECEC07A250251FC3803E6F58C12560C4AD840E95E91C151A72936F496F35732D860FE635F62C8F2DA16B505C545B741
310
25BAA2FA9E05D7CC053D063734D5C7665FD55B6B8D15D5E9BFEAFD8490FFA45E504B0304140006080800F664DA4001450C86FC000000A00100003B0000006662782F41353139464544392D333345322D344446412D394443352D3834434336443735353631372F7265736F75726365732F636F72652E786D6C8D504B6E8330
310
10BD0A9A6D65C0E05040C6514B7B835EC032136225D8C89FAAC7AF09546A77DDCC8CDE47F3F4F8F96BB9679FE8BCB666009A9790A15176D2661E20860B69213B0BEEAC0DBF649019B9E0001B0C82CFCEC6F5809435014D48A8B1131EA0F41E0364EA9E8E01BCBAE22273194352F85BBE4A759333E6344F74D209EE834B01B2
310
FDC9364138F4363A859E173B2B788C7A3A347A4A3FF545A303C1D8CB5877D5899CDED93361DD1B231D7DEDC83836ACA16D5BB3BAE4C566163CE8E527A37228034E20AA9256A46C48D57CD0AAAFBB9EB1A792F665326DF23FA6B84EFF34456D425D1D71779B07415390072178B1F595D6A3CCB4B76EC537504B010214000A00
310
00080000F664DA403DEE336E79000000790000001B00000000000000000000000000000000006175746F6465736B2D64657369676E2D7061636B6167652E786D6C504B01021400140006080800F664DA40D486FD9CA0000000F40000001300000000000000000000000000B20000005B436F6E74656E745F54797065735D2E
310
786D6C504B01021400140006080800F664DA4069AF51B7E90000007C010000080000000000000000000000000083010000636F72652E786D6C504B01021400140006080800F664DA4055019EA25F0000007C000000070000000000000000000000000092020000636E782E786D6C504B01021400140006080800F664DA4045
310
5BA58266010000020300000C00000000000000000000000000160300006662782F636F72652E786D6C504B01021400140006080800F664DA40328A22607E0000009D0000000B00000000000000000000000000A60400006662782F636E782E786D6C504B01021400140006080800F664DA40721436F72D0100001502000031
310
000000000000000000000000004D0500006662782F41353139464544392D333345322D344446412D394443352D3834434336443735353631372F636F72652E786D6C504B01021400140006080800F664DA40D61CE66B55010000330300003000000000000000000000000000C90600006662782F41353139464544392D3333
310
45322D344446412D394443352D3834434336443735353631372F636E782E786D6C504B01021400140006080800F664DA4041C2D2F359070000941B000034000000000000000000000000006C0800006662782F41353139464544392D333345322D344446412D394443352D3834434336443735353631372F6F626A65637473
310
2E786D6C504B01021400140006080000F664DA400000000000000000000000003500000000000000000000000000171000006662782F41353139464544392D333345322D344446412D394443352D3834434336443735353631372F76657274696365732E62696E504B01021400140006080800F664DA40F270F13306000000
310
0400000036000000000000000000000000006A1000006662782F41353139464544392D333345322D344446412D394443352D3834434336443735353631372F747269616E676C65732E62696E504B01021400140006080000F664DA400000000000000000000000003700000000000000000000000000C41000006662782F41
310
353139464544392D333345322D344446412D394443352D3834434336443735353631372F617474726962757465732E62696E504B01021400140006080800F664DA40D5987DFC8F000000410100003600000000000000000000000000191100006662782F41353139464544392D333345322D344446412D394443352D383443
310
4336443735353631372F6469726563746F72792E786D6C504B01021400140006080800F664DA4001450C86FC000000A00100003B00000000000000000000000000FC1100006662782F41353139464544392D333345322D344446412D394443352D3834434336443735353631372F7265736F75726365732F636F72652E786D
310
6C504B0506000000000E000E0080040000511300000000
  0
XRECORD
  5
17
102
{ACAD_REACTORS
330
12
102
}
330
12
100
AcDbXrecord
280
     1
270
     1
271
     1
  0
XRECORD
  5
16
102
{ACAD_REACTORS
330
12
102
}
330
12
100
AcDbXrecord
280
     1
270
     1
271
     1
  0
XRECORD
  5
18
102
{ACAD_REACTORS
330
12
102
}
330
12
100
AcDbXrecord
280
     1
270
     1
271
     1
  0
XRECORD
  5
15
102
{ACAD_REACTORS
330
12
102
}
330
12
100
AcDbXrecord
280
     1
270
     1
271
     1
  0
XRECORD
  5
2464
102
{ACAD_REACTORS
330
22
102
}
330
22
100
AcDbXrecord
280
     1
102
MATERIAL
148
0.0
149
0.0
149
0.0
 93
        0
 94
      127
282
     0
 72
     0
 77
     0
171
     0
175
     0
179
     0
273
     0
  0
XRECORD
  5
24
102
{ACAD_REACTORS
330
22
102
}
330
22
100
AcDbXrecord
280
     1
270
     1
271
     1
  0
XRECORD
  5
23
102
{ACAD_REACTORS
330
22
102
}
330
22
100
AcDbXrecord
280
     1
270
     1
271
     1
  0
XRECORD
  5
27
102
{ACAD_REACTORS
330
22
102
}
330
22
100
AcDbXrecord
280
     1
270
     1
271
     1
  0
XRECORD
  5
26
102
{ACAD_REACTORS
330
22
102
}
330
22
100
AcDbXrecord
280
     1
270
     1
271
     1
  0
XRECORD
  5
28
102
{ACAD_REACTORS
330
22
102
}
330
22
100
AcDbXrecord
280
     1
270
     1
271
     1
  0
XRECORD
  5
25
102
{ACAD_REACTORS
330
22
102
}
330
22
100
AcDbXrecord
280
     1
270
     1
271
     1
  0
XRECORD
  5
2023
102
{ACAD_REACTORS
330
2022
102
}
330
2022
100
AcDbXrecord
280
     1
102
ACAD_ROUNDTRIP_2012_MLEADER_STYLE
298
     1
  0
CELLSTYLEMAP
  5
26CC
102
{ACAD_REACTORS
330
244B
102
}
330
244B
100
AcDbCellStyleMap
 90
        3
300
CELLSTYLE
  1
TABLEFORMAT_BEGIN
 90
        5
170
     1
 91
        0
 92
    32768
 62
   257
 93
        1
300
CONTENTFORMAT
  1
CONTENTFORMAT_BEGIN
 90
        0
 91
        0
 92
      512
 93
        0
300

 40
0.0
140
1.0
 94
        5
 62
     0
340
55
144
0.25
309
CONTENTFORMAT_END
171
     1
301
MARGIN
  1
CELLMARGIN_BEGIN
 40
0.06
 40
0.06
 40
0.06
 40
0.06
 40
0.18
 40
0.18
309
CELLMARGIN_END
 94
        6
 95
        1
302
GRIDFORMAT
  1
GRIDFORMAT_BEGIN
 90
        0
 91
        1
 62
     0
 92
       -2
340
0
 93
        0
 40
0.045
309
GRIDFORMAT_END
 95
        2
302
GRIDFORMAT
  1
GRIDFORMAT_BEGIN
 90
        0
 91
        1
 62
     0
 92
       -2
340
0
 93
        0
 40
0.045
309
GRIDFORMAT_END
 95
        4
302
GRIDFORMAT
  1
GRIDFORMAT_BEGIN
 90
        0
 91
        1
 62
     0
 92
       -2
340
0
 93
        0
 40
0.045
309
GRIDFORMAT_END
 95
        8
302
GRIDFORMAT
  1
GRIDFORMAT_BEGIN
 90
        0
 91
        1
 62
     0
 92
       -2
340
0
 93
        0
 40
0.045
309
GRIDFORMAT_END
 95
       16
302
GRIDFORMAT
  1
GRIDFORMAT_BEGIN
 90
        0
 91
        1
 62
     0
 92
       -2
340
0
 93
        0
 40
0.045
309
GRIDFORMAT_END
 95
       32
302
GRIDFORMAT
  1
GRIDFORMAT_BEGIN
 90
        0
 91
        1
 62
     0
 92
       -2
340
0
 93
        0
 40
0.045
309
GRIDFORMAT_END
309
TABLEFORMAT_END
  1
CELLSTYLE_BEGIN
 90
        1
 91
        1
300
_TITLE
309
CELLSTYLE_END
300
CELLSTYLE
  1
TABLEFORMAT_BEGIN
 90
        5
170
     1
 91
        0
 92
        0
 62
   257
 93
        1
300
CONTENTFORMAT
  1
CONTENTFORMAT_BEGIN
 90
        0
 91
        0
 92
      512
 93
        0
300

 40
0.0
140
1.0
 94
        5
 62
     0
340
55
144
0.18
309
CONTENTFORMAT_END
171
     1
301
MARGIN
  1
CELLMARGIN_BEGIN
 40
0.06
 40
0.06
 40
0.06
 40
0.06
 40
0.18
 40
0.18
309
CELLMARGIN_END
 94
        6
 95
        1
302
GRIDFORMAT
  1
GRIDFORMAT_BEGIN
 90
        0
 91
        1
 62
     0
 92
       -2
340
0
 93
        0
 40
0.045
309
GRIDFORMAT_END
 95
        2
302
GRIDFORMAT
  1
GRIDFORMAT_BEGIN
 90
        0
 91
        1
 62
     0
 92
       -2
340
0
 93
        0
 40
0.045
309
GRIDFORMAT_END
 95
        4
302
GRIDFORMAT
  1
GRIDFORMAT_BEGIN
 90
        0
 91
        1
 62
     0
 92
       -2
340
0
 93
        0
 40
0.045
309
GRIDFORMAT_END
 95
        8
302
GRIDFORMAT
  1
GRIDFORMAT_BEGIN
 90
        0
 91
        1
 62
     0
 92
       -2
340
0
 93
        0
 40
0.045
309
GRIDFORMAT_END
 95
       16
302
GRIDFORMAT
  1
GRIDFORMAT_BEGIN
 90
        0
 91
        1
 62
     0
 92
       -2
340
0
 93
        0
 40
0.045
309
GRIDFORMAT_END
 95
       32
302
GRIDFORMAT
  1
GRIDFORMAT_BEGIN
 90
        0
 91
        1
 62
     0
 92
       -2
340
0
 93
        0
 40
0.045
309
GRIDFORMAT_END
309
TABLEFORMAT_END
  1
CELLSTYLE_BEGIN
 90
        2
 91
        1
300
_HEADER
309
CELLSTYLE_END
300
CELLSTYLE
  1
TABLEFORMAT_BEGIN
 90
        5
170
     1
 91
        0
 92
        0
 62
   257
 93
        1
300
CONTENTFORMAT
  1
CONTENTFORMAT_BEGIN
 90
        0
 91
        0
 92
      512
 93
        0
300

 40
0.0
140
1.0
 94
        2
 62
     0
340
55
144
0.18
309
CONTENTFORMAT_END
171
     1
301
MARGIN
  1
CELLMARGIN_BEGIN
 40
0.06
 40
0.06
 40
0.06
 40
0.06
 40
0.18
 40
0.18
309
CELLMARGIN_END
 94
        6
 95
        1
302
GRIDFORMAT
  1
GRIDFORMAT_BEGIN
 90
        0
 91
        1
 62
     0
 92
       -2
340
0
 93
        0
 40
0.045
309
GRIDFORMAT_END
 95
        2
302
GRIDFORMAT
  1
GRIDFORMAT_BEGIN
 90
        0
 91
        1
 62
     0
 92
       -2
340
0
 93
        0
 40
0.045
309
GRIDFORMAT_END
 95
        4
302
GRIDFORMAT
  1
GRIDFORMAT_BEGIN
 90
        0
 91
        1
 62
     0
 92
       -2
340
0
 93
        0
 40
0.045
309
GRIDFORMAT_END
 95
        8
302
GRIDFORMAT
  1
GRIDFORMAT_BEGIN
 90
        0
 91
        1
 62
     0
 92
       -2
340
0
 93
        0
 40
0.045
309
GRIDFORMAT_END
 95
       16
302
GRIDFORMAT
  1
GRIDFORMAT_BEGIN
 90
        0
 91
        1
 62
     0
 92
       -2
340
0
 93
        0
 40
0.045
309
GRIDFORMAT_END
 95
       32
302
GRIDFORMAT
  1
GRIDFORMAT_BEGIN
 90
        0
 91
        1
 62
     0
 92
       -2
340
0
 93
        0
 40
0.045
309
GRIDFORMAT_END
309
TABLEFORMAT_END
  1
CELLSTYLE_BEGIN
 90
        3
 91
        2
300
_DATA
309
CELLSTYLE_END
  0
XRECORD
  5
2717
102
{ACAD_REACTORS
330
244B
102
}
330
244B
100
AcDbXrecord
280
     1
102
ACAD_ROUNDTRIP_PRE2007_TABLESTYLE
 90
      512
 91
        0
  1

 92
      512
 93
        0
  2

 94
      512
 95
        0
  3

  0
XRECORD
  5
26F2
102
{ACAD_REACTORS
330
26F1
102
}
330
26F1
100
AcDbXrecord
280
     1
102
RTVSPropertyOp0
 70
     1
102
RTVSPropertyOp1
 70
     1
102
RTVSPropertyOp2
 70
     1
102
RTVSPropertyOp3
 70
     1
102
RTVSPropertyOp4
 70
     1
102
RTVSPropertyOp5
 70
     1
102
RTVSPropertyOp6
 70
     1
102
RTVSPropertyOp7
 70
     1
102
RTVSPropertyOp8
 70
     1
102
RTVSPropertyOp9
 70
     1
102
RTVSPropertyOp10
 70
     1
102
RTVSPropertyOp11
 70
     1
102
RTVSPropertyOp12
 70
     1
102
RTVSPropertyOp13
 70
     1
102
RTVSPropertyOp14
 70
     1
102
RTVSPropertyOp15
 70
     1
102
RTVSPropertyOp16
 70
     1
102
RTVSPropertyOp17
 70
     1
102
RTVSPropertyOp18
 70
     1
102
RTVSPropertyOp19
 70
     1
102
RTVSPropertyOp20
 70
     1
102
RTVSPropertyOp21
 70
     1
102
RTVSPropertyOp22
 70
     1
102
RTVSPropertyOp23
 70
     1
102
RTVSPropertyOp24
 70
     1
102
RTVSPropertyOp25
 70
     1
102
RTVSPropertyOp26
 70
     1
102
RTVSPropertyOp27
 70
     1
  0
XRECORD
  5
273D
102
{ACAD_REACTORS
330
273C
102
}
330
273C
100
AcDbXrecord
280
     1
102
RTVSPropertyOp0
 70
     1
102
RTVSPropertyOp1
 70
     1
102
RTVSPropertyOp2
 70
     1
102
RTVSPropertyOp3
 70
     1
102
RTVSPropertyOp4
 70
     1
102
RTVSPropertyOp5
 70
     1
102
RTVSPropertyOp6
 70
     1
102
RTVSPropertyOp7
 70
     1
102
RTVSPropertyOp8
 70
     1
102
RTVSPropertyOp9
 70
     1
102
RTVSPropertyOp10
 70
     1
102
RTVSPropertyOp11
 70
     1
102
RTVSPropertyOp12
 70
     1
102
RTVSPropertyOp13
 70
     1
102
RTVSPropertyOp14
 70
     1
102
RTVSPropertyOp15
 70
     1
102
RTVSPropertyOp16
 70
     1
102
RTVSPropertyOp17
 70
     1
102
RTVSPropertyOp18
 70
     1
102
RTVSPropertyOp19
 70
     1
102
RTVSPropertyOp20
 70
     1
102
RTVSPropertyOp21
 70
     1
102
RTVSPropertyOp22
 70
     1
102
RTVSPropertyOp23
 70
     1
102
RTVSPropertyOp24
 70
     1
102
RTVSPropertyOp25
 70
     1
102
RTVSPropertyOp26
 70
     1
102
RTVSPropertyOp27
 70
     1
  0
XRECORD
  5
273B
102
{ACAD_REACTORS
330
273A
102
}
330
273A
100
AcDbXrecord
280
     1
102
RTVSPropertyOp0
 70
     1
102
RTVSPropertyOp1
 70
     1
102
RTVSPropertyOp2
 70
     1
102
RTVSPropertyOp3
 70
     1
102
RTVSPropertyOp4
 70
     1
102
RTVSPropertyOp5
 70
     1
102
RTVSPropertyOp6
 70
     1
102
RTVSPropertyOp7
 70
     1
102
RTVSPropertyOp8
 70
     1
102
RTVSPropertyOp9
 70
     1
102
RTVSPropertyOp10
 70
     1
102
RTVSPropertyOp11
 70
     1
102
RTVSPropertyOp12
 70
     1
102
RTVSPropertyOp13
 70
     1
102
RTVSPropertyOp14
 70
     1
102
RTVSPropertyOp15
 70
     1
102
RTVSPropertyOp16
 70
     1
102
RTVSPropertyOp17
 70
     1
102
RTVSPropertyOp18
 70
     1
102
RTVSPropertyOp19
 70
     1
102
RTVSPropertyOp20
 70
     1
102
RTVSPropertyOp21
 70
     1
102
RTVSPropertyOp22
 70
     1
102
RTVSPropertyOp23
 70
     1
102
RTVSPropertyOp24
 70
     1
102
RTVSPropertyOp25
 70
     1
102
RTVSPropertyOp26
 70
     1
102
RTVSPropertyOp27
 70
     1
  0
XRECORD
  5
26F0
102
{ACAD_REACTORS
330
26EF
102
}
330
26EF
100
AcDbXrecord
280
     1
102
RTVSPropertyOp0
 70
     1
102
RTVSPropertyOp1
 70
     1
102
RTVSPropertyOp2
 70
     1
102
RTVSPropertyOp3
 70
     1
102
RTVSPropertyOp4
 70
     1
102
RTVSPropertyOp5
 70
     1
102
RTVSPropertyOp6
 70
     1
102
RTVSPropertyOp7
 70
     1
102
RTVSPropertyOp8
 70
     1
102
RTVSPropertyOp9
 70
     1
102
RTVSPropertyOp10
 70
     1
102
RTVSPropertyOp11
 70
     1
102
RTVSPropertyOp12
 70
     1
102
RTVSPropertyOp13
 70
     1
102
RTVSPropertyOp14
 70
     1
102
RTVSPropertyOp15
 70
     1
102
RTVSPropertyOp16
 70
     1
102
RTVSPropertyOp17
 70
     1
102
RTVSPropertyOp18
 70
     1
102
RTVSPropertyOp19
 70
     1
102
RTVSPropertyOp20
 70
     1
102
RTVSPropertyOp21
 70
     1
102
RTVSPropertyOp22
 70
     1
102
RTVSPropertyOp23
 70
     1
102
RTVSPropertyOp24
 70
     1
102
RTVSPropertyOp25
 70
     1
102
RTVSPropertyOp26
 70
     1
102
RTVSPropertyOp27
 70
     1
  0
XRECORD
  5
26FE
102
{ACAD_REACTORS
330
26FD
102
}
330
26FD
100
AcDbXrecord
280
     1
102
RTVSPropertyOp0
 70
     1
102
RTVSPropertyOp1
 70
     1
102
RTVSPropertyOp2
 70
     1
102
RTVSPropertyOp3
 70
     1
102
RTVSPropertyOp4
 70
     1
102
RTVSPropertyOp5
 70
     1
102
RTVSPropertyOp6
 70
     1
102
RTVSPropertyOp7
 70
     1
102
RTVSPropertyOp8
 70
     1
102
RTVSPropertyOp9
 70
     1
102
RTVSPropertyOp10
 70
     1
102
RTVSPropertyOp11
 70
     1
102
RTVSPropertyOp12
 70
     1
102
RTVSPropertyOp13
 70
     1
102
RTVSPropertyOp14
 70
     1
102
RTVSPropertyOp15
 70
     1
102
RTVSPropertyOp16
 70
     1
102
RTVSPropertyOp17
 70
     1
102
RTVSPropertyOp18
 70
     1
102
RTVSPropertyOp19
 70
     1
102
RTVSPropertyOp20
 70
     1
102
RTVSPropertyOp21
 70
     1
102
RTVSPropertyOp22
 70
     1
102
RTVSPropertyOp23
 70
     1
102
RTVSPropertyOp24
 70
     1
102
RTVSPropertyOp25
 70
     1
102
RTVSPropertyOp26
 70
     1
102
RTVSPropertyOp27
 70
     1
  0
XRECORD
  5
2706
102
{ACAD_REACTORS
330
2705
102
}
330
2705
100
AcDbXrecord
280
     1
102
RTVSPropertyOp0
 70
     1
102
RTVSPropertyOp1
 70
     1
102
RTVSPropertyOp2
 70
     1
102
RTVSPropertyOp3
 70
     1
102
RTVSPropertyOp4
 70
     1
102
RTVSPropertyOp5
 70
     1
102
RTVSPropertyOp6
 70
     1
102
RTVSPropertyOp7
 70
     1
102
RTVSPropertyOp8
 70
     1
102
RTVSPropertyOp9
 70
     1
102
RTVSPropertyOp10
 70
     1
102
RTVSPropertyOp11
 70
     1
102
RTVSPropertyOp12
 70
     1
102
RTVSPropertyOp13
 70
     1
102
RTVSPropertyOp14
 70
     1
102
RTVSPropertyOp15
 70
     1
102
RTVSPropertyOp16
 70
     1
102
RTVSPropertyOp17
 70
     1
102
RTVSPropertyOp18
 70
     1
102
RTVSPropertyOp19
 70
     1
102
RTVSPropertyOp20
 70
     1
102
RTVSPropertyOp21
 70
     1
102
RTVSPropertyOp22
 70
     1
102
RTVSPropertyOp23
 70
     1
102
RTVSPropertyOp24
 70
     1
102
RTVSPropertyOp25
 70
     1
102
RTVSPropertyOp26
 70
     1
102
RTVSPropertyOp27
 70
     1
  0
XRECORD
  5
26F8
102
{ACAD_REACTORS
330
26F7
102
}
330
26F7
100
AcDbXrecord
280
     1
102
RTVSPropertyOp0
 70
     1
102
RTVSPropertyOp1
 70
     1
102
RTVSPropertyOp2
 70
     1
102
RTVSPropertyOp3
 70
     1
102
RTVSPropertyOp4
 70
     1
102
RTVSPropertyOp5
 70
     1
102
RTVSPropertyOp6
 70
     1
102
RTVSPropertyOp7
 70
     1
102
RTVSPropertyOp8
 70
     1
102
RTVSPropertyOp9
 70
     1
102
RTVSPropertyOp10
 70
     1
102
RTVSPropertyOp11
 70
     1
102
RTVSPropertyOp12
 70
     1
102
RTVSPropertyOp13
 70
     1
102
RTVSPropertyOp14
 70
     1
102
RTVSPropertyOp15
 70
     1
102
RTVSPropertyOp16
 70
     1
102
RTVSPropertyOp17
 70
     1
102
RTVSPropertyOp18
 70
     1
102
RTVSPropertyOp19
 70
     1
102
RTVSPropertyOp20
 70
     1
102
RTVSPropertyOp21
 70
     1
102
RTVSPropertyOp22
 70
     1
102
RTVSPropertyOp23
 70
     1
102
RTVSPropertyOp24
 70
     1
102
RTVSPropertyOp25
 70
     1
102
RTVSPropertyOp26
 70
     1
102
RTVSPropertyOp27
 70
     1
  0
XRECORD
  5
26FC
102
{ACAD_REACTORS
330
26FB
102
}
330
26FB
100
AcDbXrecord
280
     1
102
RTVSPropertyOp0
 70
     1
102
RTVSPropertyOp1
 70
     1
102
RTVSPropertyOp2
 70
     1
102
RTVSPropertyOp3
 70
     1
102
RTVSPropertyOp4
 70
     1
102
RTVSPropertyOp5
 70
     1
102
RTVSPropertyOp6
 70
     1
102
RTVSPropertyOp7
 70
     1
102
RTVSPropertyOp8
 70
     1
102
RTVSPropertyOp9
 70
     1
102
RTVSPropertyOp10
 70
     1
102
RTVSPropertyOp11
 70
     1
102
RTVSPropertyOp12
 70
     1
102
RTVSPropertyOp13
 70
     1
102
RTVSPropertyOp14
 70
     1
102
RTVSPropertyOp15
 70
     1
102
RTVSPropertyOp16
 70
     1
102
RTVSPropertyOp17
 70
     1
102
RTVSPropertyOp18
 70
     1
102
RTVSPropertyOp19
 70
     1
102
RTVSPropertyOp20
 70
     1
102
RTVSPropertyOp21
 70
     1
102
RTVSPropertyOp22
 70
     1
102
RTVSPropertyOp23
 70
     1
102
RTVSPropertyOp24
 70
     1
102
RTVSPropertyOp25
 70
     1
102
RTVSPropertyOp26
 70
     1
102
RTVSPropertyOp27
 70
     1
  0
XRECORD
  5
2716
102
{ACAD_REACTORS
330
2715
102
}
330
2715
100
AcDbXrecord
280
     1
102
RTVSPropertyOp0
 70
     0
102
RTVSPropertyOp1
 70
     0
102
RTVSPropertyOp2
 70
     0
102
RTVSPropertyOp3
 70
     0
102
RTVSPropertyOp4
 70
     0
102
RTVSPropertyOp5
 70
     0
102
RTVSPropertyOp6
 70
     0
102
RTVSPropertyOp7
 70
     0
102
RTVSPropertyOp8
 70
     0
102
RTVSPropertyOp9
 70
     0
102
RTVSPropertyOp10
 70
     0
102
RTVSPropertyOp11
 70
     0
102
RTVSPropertyOp12
 70
     0
102
RTVSPropertyOp13
 70
     0
102
RTVSPropertyOp14
 70
     2
102
RTVSPropertyOp15
 70
     0
102
RTVSPropertyOp16
 70
     0
102
RTVSPropertyOp17
 70
     0
102
RTVSPropertyOp18
 70
     0
102
RTVSPropertyOp19
 70
     0
102
RTVSPropertyOp20
 70
     0
102
RTVSPropertyOp21
 70
     0
102
RTVSPropertyOp22
 70
     0
102
RTVSPropertyOp23
 70
     0
102
RTVSPropertyOp24
 70
     0
102
RTVSPropertyOp25
 70
     0
102
RTVSPropertyOp26
 70
     0
102
RTVSPropertyOp27
 70
     0
  0
XRECORD
  5
2704
102
{ACAD_REACTORS
330
2703
102
}
330
2703
100
AcDbXrecord
280
     1
102
RTVSPropertyOp0
 70
     1
102
RTVSPropertyOp1
 70
     1
102
RTVSPropertyOp2
 70
     1
102
RTVSPropertyOp3
 70
     1
102
RTVSPropertyOp4
 70
     1
102
RTVSPropertyOp5
 70
     1
102
RTVSPropertyOp6
 70
     1
102
RTVSPropertyOp7
 70
     1
102
RTVSPropertyOp8
 70
     1
102
RTVSPropertyOp9
 70
     1
102
RTVSPropertyOp10
 70
     1
102
RTVSPropertyOp11
 70
     1
102
RTVSPropertyOp12
 70
     1
102
RTVSPropertyOp13
 70
     1
102
RTVSPropertyOp14
 70
     1
102
RTVSPropertyOp15
 70
     1
102
RTVSPropertyOp16
 70
     1
102
RTVSPropertyOp17
 70
     1
102
RTVSPropertyOp18
 70
     1
102
RTVSPropertyOp19
 70
     1
102
RTVSPropertyOp20
 70
     1
102
RTVSPropertyOp21
 70
     1
102
RTVSPropertyOp22
 70
     1
102
RTVSPropertyOp23
 70
     1
102
RTVSPropertyOp24
 70
     1
102
RTVSPropertyOp25
 70
     1
102
RTVSPropertyOp26
 70
     1
102
RTVSPropertyOp27
 70
     1
  0
XRECORD
  5
26E8
102
{ACAD_REACTORS
330
26E7
102
}
330
26E7
100
AcDbXrecord
280
     1
102
RTVSPropertyOp0
 70
     1
102
RTVSPropertyOp1
 70
     1
102
RTVSPropertyOp2
 70
     1
102
RTVSPropertyOp3
 70
     1
102
RTVSPropertyOp4
 70
     1
102
RTVSPropertyOp5
 70
     1
102
RTVSPropertyOp6
 70
     1
102
RTVSPropertyOp7
 70
     1
102
RTVSPropertyOp8
 70
     1
102
RTVSPropertyOp9
 70
     1
102
RTVSPropertyOp10
 70
     1
102
RTVSPropertyOp11
 70
     1
102
RTVSPropertyOp12
 70
     1
102
RTVSPropertyOp13
 70
     1
102
RTVSPropertyOp14
 70
     1
102
RTVSPropertyOp15
 70
     1
102
RTVSPropertyOp16
 70
     1
102
RTVSPropertyOp17
 70
     1
102
RTVSPropertyOp18
 70
     1
102
RTVSPropertyOp19
 70
     1
102
RTVSPropertyOp20
 70
     1
102
RTVSPropertyOp21
 70
     1
102
RTVSPropertyOp22
 70
     1
102
RTVSPropertyOp23
 70
     1
102
RTVSPropertyOp24
 70
     1
102
RTVSPropertyOp25
 70
     1
102
RTVSPropertyOp26
 70
     1
102
RTVSPropertyOp27
 70
     1
  0
XRECORD
  5
26EA
102
{ACAD_REACTORS
330
26E9
102
}
330
26E9
100
AcDbXrecord
280
     1
102
RTVSPropertyOp0
 70
     1
102
RTVSPropertyOp1
 70
     1
102
RTVSPropertyOp2
 70
     1
102
RTVSPropertyOp3
 70
     1
102
RTVSPropertyOp4
 70
     1
102
RTVSPropertyOp5
 70
     1
102
RTVSPropertyOp6
 70
     1
102
RTVSPropertyOp7
 70
     1
102
RTVSPropertyOp8
 70
     1
102
RTVSPropertyOp9
 70
     1
102
RTVSPropertyOp10
 70
     1
102
RTVSPropertyOp11
 70
     1
102
RTVSPropertyOp12
 70
     1
102
RTVSPropertyOp13
 70
     1
102
RTVSPropertyOp14
 70
     1
102
RTVSPropertyOp15
 70
     1
102
RTVSPropertyOp16
 70
     1
102
RTVSPropertyOp17
 70
     1
102
RTVSPropertyOp18
 70
     1
102
RTVSPropertyOp19
 70
     1
102
RTVSPropertyOp20
 70
     1
102
RTVSPropertyOp21
 70
     1
102
RTVSPropertyOp22
 70
     1
102
RTVSPropertyOp23
 70
     1
102
RTVSPropertyOp24
 70
     1
102
RTVSPropertyOp25
 70
     1
102
RTVSPropertyOp26
 70
     1
102
RTVSPropertyOp27
 70
     1
  0
XRECORD
  5
26EC
102
{ACAD_REACTORS
330
26EB
102
}
330
26EB
100
AcDbXrecord
280
     1
102
RTVSPropertyOp0
 70
     1
102
RTVSPropertyOp1
 70
     1
102
RTVSPropertyOp2
 70
     1
102
RTVSPropertyOp3
 70
     1
102
RTVSPropertyOp4
 70
     1
102
RTVSPropertyOp5
 70
     1
102
RTVSPropertyOp6
 70
     1
102
RTVSPropertyOp7
 70
     1
102
RTVSPropertyOp8
 70
     1
102
RTVSPropertyOp9
 70
     1
102
RTVSPropertyOp10
 70
     1
102
RTVSPropertyOp11
 70
     1
102
RTVSPropertyOp12
 70
     1
102
RTVSPropertyOp13
 70
     1
102
RTVSPropertyOp14
 70
     1
102
RTVSPropertyOp15
 70
     1
102
RTVSPropertyOp16
 70
     1
102
RTVSPropertyOp17
 70
     1
102
RTVSPropertyOp18
 70
     1
102
RTVSPropertyOp19
 70
     1
102
RTVSPropertyOp20
 70
     1
102
RTVSPropertyOp21
 70
     1
102
RTVSPropertyOp22
 70
     1
102
RTVSPropertyOp23
 70
     1
102
RTVSPropertyOp24
 70
     1
102
RTVSPropertyOp25
 70
     1
102
RTVSPropertyOp26
 70
     1
102
RTVSPropertyOp27
 70
     1
  0
XRECORD
  5
26EE
102
{ACAD_REACTORS
330
26ED
102
}
330
26ED
100
AcDbXrecord
280
     1
102
RTVSPropertyOp0
 70
     1
102
RTVSPropertyOp1
 70
     1
102
RTVSPropertyOp2
 70
     1
102
RTVSPropertyOp3
 70
     1
102
RTVSPropertyOp4
 70
     1
102
RTVSPropertyOp5
 70
     1
102
RTVSPropertyOp6
 70
     1
102
RTVSPropertyOp7
 70
     1
102
RTVSPropertyOp8
 70
     1
102
RTVSPropertyOp9
 70
     1
102
RTVSPropertyOp10
 70
     1
102
RTVSPropertyOp11
 70
     1
102
RTVSPropertyOp12
 70
     1
102
RTVSPropertyOp13
 70
     1
102
RTVSPropertyOp14
 70
     1
102
RTVSPropertyOp15
 70
     1
102
RTVSPropertyOp16
 70
     1
102
RTVSPropertyOp17
 70
     1
102
RTVSPropertyOp18
 70
     1
102
RTVSPropertyOp19
 70
     1
102
RTVSPropertyOp20
 70
     1
102
RTVSPropertyOp21
 70
     1
102
RTVSPropertyOp22
 70
     1
102
RTVSPropertyOp23
 70
     1
102
RTVSPropertyOp24
 70
     1
102
RTVSPropertyOp25
 70
     1
102
RTVSPropertyOp26
 70
     1
102
RTVSPropertyOp27
 70
     1
  0
XRECORD
  5
26F6
102
{ACAD_REACTORS
330
26F5
102
}
330
26F5
100
AcDbXrecord
280
     1
102
RTVSPropertyOp0
 70
     1
102
RTVSPropertyOp1
 70
     1
102
RTVSPropertyOp2
 70
     1
102
RTVSPropertyOp3
 70
     1
102
RTVSPropertyOp4
 70
     1
102
RTVSPropertyOp5
 70
     1
102
RTVSPropertyOp6
 70
     1
102
RTVSPropertyOp7
 70
     1
102
RTVSPropertyOp8
 70
     1
102
RTVSPropertyOp9
 70
     1
102
RTVSPropertyOp10
 70
     1
102
RTVSPropertyOp11
 70
     1
102
RTVSPropertyOp12
 70
     1
102
RTVSPropertyOp13
 70
     1
102
RTVSPropertyOp14
 70
     1
102
RTVSPropertyOp15
 70
     1
102
RTVSPropertyOp16
 70
     1
102
RTVSPropertyOp17
 70
     1
102
RTVSPropertyOp18
 70
     1
102
RTVSPropertyOp19
 70
     1
102
RTVSPropertyOp20
 70
     1
102
RTVSPropertyOp21
 70
     1
102
RTVSPropertyOp22
 70
     1
102
RTVSPropertyOp23
 70
     1
102
RTVSPropertyOp24
 70
     1
102
RTVSPropertyOp25
 70
     1
102
RTVSPropertyOp26
 70
     1
102
RTVSPropertyOp27
 70
     1
  0
XRECORD
  5
2712
102
{ACAD_REACTORS
330
2711
102
}
330
2711
100
AcDbXrecord
280
     1
102
RTVSPropertyOp0
 70
     0
102
RTVSPropertyOp1
 70
     0
102
RTVSPropertyOp2
 70
     0
102
RTVSPropertyOp3
 70
     0
102
RTVSPropertyOp4
 70
     0
102
RTVSPropertyOp5
 70
     0
102
RTVSPropertyOp6
 70
     0
102
RTVSPropertyOp7
 70
     0
102
RTVSPropertyOp8
 70
     0
102
RTVSPropertyOp9
 70
     0
102
RTVSPropertyOp10
 70
     0
102
RTVSPropertyOp11
 70
     0
102
RTVSPropertyOp12
 70
     0
102
RTVSPropertyOp13
 70
     0
102
RTVSPropertyOp14
 70
     2
102
RTVSPropertyOp15
 70
     0
102
RTVSPropertyOp16
 70
     0
102
RTVSPropertyOp17
 70
     0
102
RTVSPropertyOp18
 70
     0
102
RTVSPropertyOp19
 70
     0
102
RTVSPropertyOp20
 70
     0
102
RTVSPropertyOp21
 70
     0
102
RTVSPropertyOp22
 70
     0
102
RTVSPropertyOp23
 70
     0
102
RTVSPropertyOp24
 70
     0
102
RTVSPropertyOp25
 70
     0
102
RTVSPropertyOp26
 70
     0
102
RTVSPropertyOp27
 70
     0
  0
XRECORD
  5
2702
102
{ACAD_REACTORS
330
2701
102
}
330
2701
100
AcDbXrecord
280
     1
102
RTVSPropertyOp0
 70
     1
102
RTVSPropertyOp1
 70
     1
102
RTVSPropertyOp2
 70
     1
102
RTVSPropertyOp3
 70
     1
102
RTVSPropertyOp4
 70
     1
102
RTVSPropertyOp5
 70
     1
102
RTVSPropertyOp6
 70
     1
102
RTVSPropertyOp7
 70
     1
102
RTVSPropertyOp8
 70
     1
102
RTVSPropertyOp9
 70
     1
102
RTVSPropertyOp10
 70
     1
102
RTVSPropertyOp11
 70
     1
102
RTVSPropertyOp12
 70
     1
102
RTVSPropertyOp13
 70
     1
102
RTVSPropertyOp14
 70
     1
102
RTVSPropertyOp15
 70
     1
102
RTVSPropertyOp16
 70
     1
102
RTVSPropertyOp17
 70
     1
102
RTVSPropertyOp18
 70
     1
102
RTVSPropertyOp19
 70
     1
102
RTVSPropertyOp20
 70
     1
102
RTVSPropertyOp21
 70
     1
102
RTVSPropertyOp22
 70
     1
102
RTVSPropertyOp23
 70
     1
102
RTVSPropertyOp24
 70
     1
102
RTVSPropertyOp25
 70
     1
102
RTVSPropertyOp26
 70
     1
102
RTVSPropertyOp27
 70
     1
  0
XRECORD
  5
2714
102
{ACAD_REACTORS
330
2713
102
}
330
2713
100
AcDbXrecord
280
     1
102
RTVSPropertyOp0
 70
     0
102
RTVSPropertyOp1
 70
     0
102
RTVSPropertyOp2
 70
     0
102
RTVSPropertyOp3
 70
     0
102
RTVSPropertyOp4
 70
     0
102
RTVSPropertyOp5
 70
     0
102
RTVSPropertyOp6
 70
     0
102
RTVSPropertyOp7
 70
     0
102
RTVSPropertyOp8
 70
     0
102
RTVSPropertyOp9
 70
     0
102
RTVSPropertyOp10
 70
     0
102
RTVSPropertyOp11
 70
     0
102
RTVSPropertyOp12
 70
     0
102
RTVSPropertyOp13
 70
     0
102
RTVSPropertyOp14
 70
     2
102
RTVSPropertyOp15
 70
     0
102
RTVSPropertyOp16
 70
     0
102
RTVSPropertyOp17
 70
     0
102
RTVSPropertyOp18
 70
     0
102
RTVSPropertyOp19
 70
     0
102
RTVSPropertyOp20
 70
     0
102
RTVSPropertyOp21
 70
     0
102
RTVSPropertyOp22
 70
     0
102
RTVSPropertyOp23
 70
     0
102
RTVSPropertyOp24
 70
     0
102
RTVSPropertyOp25
 70
     0
102
RTVSPropertyOp26
 70
     0
102
RTVSPropertyOp27
 70
     0
  0
XRECORD
  5
26FA
102
{ACAD_REACTORS
330
26F9
102
}
330
26F9
100
AcDbXrecord
280
     1
102
RTVSPropertyOp0
 70
     1
102
RTVSPropertyOp1
 70
     1
102
RTVSPropertyOp2
 70
     1
102
RTVSPropertyOp3
 70
     1
102
RTVSPropertyOp4
 70
     1
102
RTVSPropertyOp5
 70
     1
102
RTVSPropertyOp6
 70
     1
102
RTVSPropertyOp7
 70
     1
102
RTVSPropertyOp8
 70
     1
102
RTVSPropertyOp9
 70
     1
102
RTVSPropertyOp10
 70
     1
102
RTVSPropertyOp11
 70
     1
102
RTVSPropertyOp12
 70
     1
102
RTVSPropertyOp13
 70
     1
102
RTVSPropertyOp14
 70
     1
102
RTVSPropertyOp15
 70
     1
102
RTVSPropertyOp16
 70
     1
102
RTVSPropertyOp17
 70
     1
102
RTVSPropertyOp18
 70
     1
102
RTVSPropertyOp19
 70
     1
102
RTVSPropertyOp20
 70
     1
102
RTVSPropertyOp21
 70
     1
102
RTVSPropertyOp22
 70
     1
102
RTVSPropertyOp23
 70
     1
102
RTVSPropertyOp24
 70
     1
102
RTVSPropertyOp25
 70
     1
102
RTVSPropertyOp26
 70
     1
102
RTVSPropertyOp27
 70
     1
  0
XRECORD
  5
2710
102
{ACAD_REACTORS
330
270F
102
}
330
270F
100
AcDbXrecord
280
     1
102
RTVSPropertyOp0
 70
     1
102
RTVSPropertyOp1
 70
     1
102
RTVSPropertyOp2
 70
     1
102
RTVSPropertyOp3
 70
     1
102
RTVSPropertyOp4
 70
     1
102
RTVSPropertyOp5
 70
     1
102
RTVSPropertyOp6
 70
     1
102
RTVSPropertyOp7
 70
     1
102
RTVSPropertyOp8
 70
     1
102
RTVSPropertyOp9
 70
     1
102
RTVSPropertyOp10
 70
     1
102
RTVSPropertyOp11
 70
     1
102
RTVSPropertyOp12
 70
     1
102
RTVSPropertyOp13
 70
     1
102
RTVSPropertyOp14
 70
     1
102
RTVSPropertyOp15
 70
     1
102
RTVSPropertyOp16
 70
     1
102
RTVSPropertyOp17
 70
     1
102
RTVSPropertyOp18
 70
     1
102
RTVSPropertyOp19
 70
     1
102
RTVSPropertyOp20
 70
     1
102
RTVSPropertyOp21
 70
     1
102
RTVSPropertyOp22
 70
     1
102
RTVSPropertyOp23
 70
     1
102
RTVSPropertyOp24
 70
     1
102
RTVSPropertyOp25
 70
     1
102
RTVSPropertyOp26
 70
     1
102
RTVSPropertyOp27
 70
     1
  0
XRECORD
  5
270E
102
{ACAD_REACTORS
330
270D
102
}
330
270D
100
AcDbXrecord
280
     1
102
RTVSPropertyOp0
 70
     1
102
RTVSPropertyOp1
 70
     1
102
RTVSPropertyOp2
 70
     1
102
RTVSPropertyOp3
 70
     1
102
RTVSPropertyOp4
 70
     1
102
RTVSPropertyOp5
 70
     1
102
RTVSPropertyOp6
 70
     1
102
RTVSPropertyOp7
 70
     1
102
RTVSPropertyOp8
 70
     1
102
RTVSPropertyOp9
 70
     1
102
RTVSPropertyOp10
 70
     1
102
RTVSPropertyOp11
 70
     1
102
RTVSPropertyOp12
 70
     1
102
RTVSPropertyOp13
 70
     1
102
RTVSPropertyOp14
 70
     1
102
RTVSPropertyOp15
 70
     1
102
RTVSPropertyOp16
 70
     1
102
RTVSPropertyOp17
 70
     1
102
RTVSPropertyOp18
 70
     1
102
RTVSPropertyOp19
 70
     1
102
RTVSPropertyOp20
 70
     1
102
RTVSPropertyOp21
 70
     1
102
RTVSPropertyOp22
 70
     1
102
RTVSPropertyOp23
 70
     1
102
RTVSPropertyOp24
 70
     1
102
RTVSPropertyOp25
 70
     1
102
RTVSPropertyOp26
 70
     1
102
RTVSPropertyOp27
 70
     1
  0
XRECORD
  5
2708
102
{ACAD_REACTORS
330
2707
102
}
330
2707
100
AcDbXrecord
280
     1
102
RTVSPropertyOp0
 70
     1
102
RTVSPropertyOp1
 70
     1
102
RTVSPropertyOp2
 70
     1
102
RTVSPropertyOp3
 70
     1
102
RTVSPropertyOp4
 70
     1
102
RTVSPropertyOp5
 70
     1
102
RTVSPropertyOp6
 70
     1
102
RTVSPropertyOp7
 70
     1
102
RTVSPropertyOp8
 70
     1
102
RTVSPropertyOp9
 70
     1
102
RTVSPropertyOp10
 70
     1
102
RTVSPropertyOp11
 70
     1
102
RTVSPropertyOp12
 70
     1
102
RTVSPropertyOp13
 70
     1
102
RTVSPropertyOp14
 70
     1
102
RTVSPropertyOp15
 70
     1
102
RTVSPropertyOp16
 70
     1
102
RTVSPropertyOp17
 70
     1
102
RTVSPropertyOp18
 70
     1
102
RTVSPropertyOp19
 70
     1
102
RTVSPropertyOp20
 70
     1
102
RTVSPropertyOp21
 70
     1
102
RTVSPropertyOp22
 70
     1
102
RTVSPropertyOp23
 70
     1
102
RTVSPropertyOp24
 70
     1
102
RTVSPropertyOp25
 70
     1
102
RTVSPropertyOp26
 70
     1
102
RTVSPropertyOp27
 70
     1
  0
XRECORD
  5
270A
102
{ACAD_REACTORS
330
2709
102
}
330
2709
100
AcDbXrecord
280
     1
102
RTVSPropertyOp0
 70
     1
102
RTVSPropertyOp1
 70
     1
102
RTVSPropertyOp2
 70
     1
102
RTVSPropertyOp3
 70
     1
102
RTVSPropertyOp4
 70
     1
102
RTVSPropertyOp5
 70
     1
102
RTVSPropertyOp6
 70
     1
102
RTVSPropertyOp7
 70
     1
102
RTVSPropertyOp8
 70
     1
102
RTVSPropertyOp9
 70
     1
102
RTVSPropertyOp10
 70
     1
102
RTVSPropertyOp11
 70
     1
102
RTVSPropertyOp12
 70
     1
102
RTVSPropertyOp13
 70
     1
102
RTVSPropertyOp14
 70
     1
102
RTVSPropertyOp15
 70
     1
102
RTVSPropertyOp16
 70
     1
102
RTVSPropertyOp17
 70
     1
102
RTVSPropertyOp18
 70
     1
102
RTVSPropertyOp19
 70
     1
102
RTVSPropertyOp20
 70
     1
102
RTVSPropertyOp21
 70
     1
102
RTVSPropertyOp22
 70
     1
102
RTVSPropertyOp23
 70
     1
102
RTVSPropertyOp24
 70
     1
102
RTVSPropertyOp25
 70
     1
102
RTVSPropertyOp26
 70
     1
102
RTVSPropertyOp27
 70
     1
  0
XRECORD
  5
2700
102
{ACAD_REACTORS
330
26FF
102
}
330
26FF
100
AcDbXrecord
280
     1
102
RTVSPropertyOp0
 70
     1
102
RTVSPropertyOp1
 70
     1
102
RTVSPropertyOp2
 70
     1
102
RTVSPropertyOp3
 70
     1
102
RTVSPropertyOp4
 70
     1
102
RTVSPropertyOp5
 70
     1
102
RTVSPropertyOp6
 70
     1
102
RTVSPropertyOp7
 70
     1
102
RTVSPropertyOp8
 70
     1
102
RTVSPropertyOp9
 70
     1
102
RTVSPropertyOp10
 70
     1
102
RTVSPropertyOp11
 70
     1
102
RTVSPropertyOp12
 70
     1
102
RTVSPropertyOp13
 70
     1
102
RTVSPropertyOp14
 70
     1
102
RTVSPropertyOp15
 70
     1
102
RTVSPropertyOp16
 70
     1
102
RTVSPropertyOp17
 70
     1
102
RTVSPropertyOp18
 70
     1
102
RTVSPropertyOp19
 70
     1
102
RTVSPropertyOp20
 70
     1
102
RTVSPropertyOp21
 70
     1
102
RTVSPropertyOp22
 70
     1
102
RTVSPropertyOp23
 70
     1
102
RTVSPropertyOp24
 70
     1
102
RTVSPropertyOp25
 70
     1
102
RTVSPropertyOp26
 70
     1
102
RTVSPropertyOp27
 70
     1
  0
XRECORD
  5
26F4
102
{ACAD_REACTORS
330
26F3
102
}
330
26F3
100
AcDbXrecord
280
     1
102
RTVSPropertyOp0
 70
     1
102
RTVSPropertyOp1
 70
     1
102
RTVSPropertyOp2
 70
     1
102
RTVSPropertyOp3
 70
     1
102
RTVSPropertyOp4
 70
     1
102
RTVSPropertyOp5
 70
     1
102
RTVSPropertyOp6
 70
     1
102
RTVSPropertyOp7
 70
     1
102
RTVSPropertyOp8
 70
     1
102
RTVSPropertyOp9
 70
     1
102
RTVSPropertyOp10
 70
     1
102
RTVSPropertyOp11
 70
     1
102
RTVSPropertyOp12
 70
     1
102
RTVSPropertyOp13
 70
     1
102
RTVSPropertyOp14
 70
     1
102
RTVSPropertyOp15
 70
     1
102
RTVSPropertyOp16
 70
     1
102
RTVSPropertyOp17
 70
     1
102
RTVSPropertyOp18
 70
     1
102
RTVSPropertyOp19
 70
     1
102
RTVSPropertyOp20
 70
     1
102
RTVSPropertyOp21
 70
     1
102
RTVSPropertyOp22
 70
     1
102
RTVSPropertyOp23
 70
     1
102
RTVSPropertyOp24
 70
     1
102
RTVSPropertyOp25
 70
     1
102
RTVSPropertyOp26
 70
     1
102
RTVSPropertyOp27
 70
     1
  0
XRECORD
  5
270C
102
{ACAD_REACTORS
330
270B
102
}
330
270B
100
AcDbXrecord
280
     1
102
RTVSPropertyOp0
 70
     1
102
RTVSPropertyOp1
 70
     1
102
RTVSPropertyOp2
 70
     1
102
RTVSPropertyOp3
 70
     1
102
RTVSPropertyOp4
 70
     1
102
RTVSPropertyOp5
 70
     1
102
RTVSPropertyOp6
 70
     1
102
RTVSPropertyOp7
 70
     1
102
RTVSPropertyOp8
 70
     1
102
RTVSPropertyOp9
 70
     1
102
RTVSPropertyOp10
 70
     1
102
RTVSPropertyOp11
 70
     1
102
RTVSPropertyOp12
 70
     1
102
RTVSPropertyOp13
 70
     1
102
RTVSPropertyOp14
 70
     1
102
RTVSPropertyOp15
 70
     1
102
RTVSPropertyOp16
 70
     1
102
RTVSPropertyOp17
 70
     1
102
RTVSPropertyOp18
 70
     1
102
RTVSPropertyOp19
 70
     1
102
RTVSPropertyOp20
 70
     1
102
RTVSPropertyOp21
 70
     1
102
RTVSPropertyOp22
 70
     1
102
RTVSPropertyOp23
 70
     1
102
RTVSPropertyOp24
 70
     1
102
RTVSPropertyOp25
 70
     1
102
RTVSPropertyOp26
 70
     1
102
RTVSPropertyOp27
 70
     1
  0
ENDSEC
  0
EOF
