  0
SECTION
  2
HEADER
  9
$ACADVER
  1
AC1018
  9
$ACADMAINTVER
 70
   104
  9
$DWGCODEPAGE
  3
ANSI_1250
  9
$AUTHOR
  1
pmacoun
  9
$LASTSAVEDBY
  1
onovak
  9
$REVISIONNUMBER
  1
000
  9
$CUSTOMPROPERTYTAG
  1
Vedoucí
  9
$CUSTOMPROPERTY
  1

  9
$CUSTOMPROPERTYTAG
  1
Společnost
  9
$CUSTOMPROPERTY
  1

  9
$CUSTOMPROPERTYTAG
  1
Kategorie
  9
$CUSTOMPROPERTY
  1

  9
$CUSTOMPROPERTYTAG
  1
Číslo součásti
  9
$CUSTOMPROPERTY
  1
408047
  9
$CUSTOMPROPERTYTAG
  1
Popis
  9
$CUSTOMPROPERTY
  1

  9
$CUSTOMPROPERTYTAG
  1
Projekt
  9
$CUSTOMPROPERTY
  1

  9
$CUSTOMPROPERTYTAG
  1
Kreslil
  9
$CUSTOMPROPERTY
  1
pmacoun
  9
$CUSTOMPROPERTYTAG
  1
Schválil
  9
$CUSTOMPROPERTY
  1

  9
$CUSTOMPROPERTYTAG
  1
Zodpovídá
  9
$CUSTOMPROPERTY
  1

  9
$CUSTOMPROPERTYTAG
  1
Nákladové středisko
  9
$CUSTOMPROPERTY
  1

  9
$CUSTOMPROPERTYTAG
  1
Dodavatel
  9
$CUSTOMPROPERTY
  1

  9
$CUSTOMPROPERTYTAG
  1
Uživatelský stav
  9
$CUSTOMPROPERTY
  1

  9
$CUSTOMPROPERTYTAG
  1
Stav návrhu
  9
$CUSTOMPROPERTY
  1
Rozpracováno
  9
$CUSTOMPROPERTYTAG
  1
Zkontroloval
  9
$CUSTOMPROPERTY
  1

  9
$CUSTOMPROPERTYTAG
  1
Techn. kontr. schválil
  9
$CUSTOMPROPERTY
  1

  9
$CUSTOMPROPERTYTAG
  1
Výrobu schválil
  9
$CUSTOMPROPERTY
  1

  9
$CUSTOMPROPERTYTAG
  1
VS_First
  9
$CUSTOMPROPERTY
  1

  9
$CUSTOMPROPERTYTAG
  1
VS_All
  9
$CUSTOMPROPERTY
  1
1:1,
  9
$CUSTOMPROPERTYTAG
  1
Model_Mass_Value
  9
$CUSTOMPROPERTY
  1
,0
  9
$CUSTOMPROPERTYTAG
  1
Model_Mass_Units
  9
$CUSTOMPROPERTY
  1
kg
  9
$CUSTOMPROPERTYTAG
  1
Model_Area_Value
  9
$CUSTOMPROPERTY
  1
2694,0
  9
$CUSTOMPROPERTYTAG
  1
Model_Area_Units
  9
$CUSTOMPROPERTY
  1
mm˛
  9
$CUSTOMPROPERTYTAG
  1
Model_Volume_Value
  9
$CUSTOMPROPERTY
  1
5471,0
  9
$CUSTOMPROPERTYTAG
  1
Model_Volume_Units
  9
$CUSTOMPROPERTY
  1
mmł
  9
$CUSTOMPROPERTYTAG
  1
Model_CogX_Value
  9
$CUSTOMPROPERTY
  1
,0
  9
$CUSTOMPROPERTYTAG
  1
Model_CogY_Value
  9
$CUSTOMPROPERTY
  1
,0
  9
$CUSTOMPROPERTYTAG
  1
Model_CogZ_Value
  9
$CUSTOMPROPERTY
  1
,0
  9
$CUSTOMPROPERTYTAG
  1
Model_Cog_Units
  9
$CUSTOMPROPERTY
  1
mm
  9
$CUSTOMPROPERTYTAG
  1
Model_Ixx_Value
  9
$CUSTOMPROPERTY
  1
,0
  9
$CUSTOMPROPERTYTAG
  1
Model_Iyy_Value
  9
$CUSTOMPROPERTY
  1
,0
  9
$CUSTOMPROPERTYTAG
  1
Model_Izz_Value
  9
$CUSTOMPROPERTY
  1
,0
  9
$CUSTOMPROPERTYTAG
  1
Model_Ixy_Value
  9
$CUSTOMPROPERTY
  1
,0
  9
$CUSTOMPROPERTYTAG
  1
Model_Iyz_Value
  9
$CUSTOMPROPERTY
  1
,0
  9
$CUSTOMPROPERTYTAG
  1
Model_Ixz_Value
  9
$CUSTOMPROPERTY
  1
,0
  9
$CUSTOMPROPERTYTAG
  1
Model_MassMom_Units
  9
$CUSTOMPROPERTY
  1
kg mm˛
  9
$CUSTOMPROPERTYTAG
  1
FirstViewScale
  9
$CUSTOMPROPERTY
  1

  9
$CUSTOMPROPERTYTAG
  1
AllViewScales
  9
$CUSTOMPROPERTY
  1

  9
$CUSTOMPROPERTYTAG
  1
SaveDate
  9
$CUSTOMPROPERTY
  1
09/12/2007
  9
$CUSTOMPROPERTYTAG
  1
SaveTime
  9
$CUSTOMPROPERTY
  1
10:32
  9
$CUSTOMPROPERTYTAG
  1
PaperSize
  9
$CUSTOMPROPERTY
  1
A3
  9
$CUSTOMPROPERTYTAG
  1
DateSaved
  9
$CUSTOMPROPERTY
  1
12.09.2007
  9
$CUSTOMPROPERTYTAG
  1
TimeSaved
  9
$CUSTOMPROPERTY
  1
10:32 dop.
  9
$INSBASE
 10
0.0
 20
0.0
 30
0.0
  9
$EXTMIN
 10
156.9987512670909
 20
10.92682049019117
 30
-0.0000000000112498
  9
$EXTMAX
 10
511.6923540431221
 20
696.9238297512333
 30
0.0000000000002956
  9
$LIMMIN
 10
0.0
 20
0.0
  9
$LIMMAX
 10
990.0
 20
700.0
  9
$ORTHOMODE
 70
     0
  9
$REGENMODE
 70
     1
  9
$FILLMODE
 70
     1
  9
$QTEXTMODE
 70
     0
  9
$MIRRTEXT
 70
     0
  9
$LTSCALE
 40
1.666666666666666
  9
$ATTMODE
 70
     1
  9
$TEXTSIZE
 40
0.2
  9
$TRACEWID
 40
0.05
  9
$TEXTSTYLE
  7
Standard
  9
$CLAYER
  8
0
  9
$CELTYPE
  6
ByLayer
  9
$CECOLOR
 62
   256
  9
$CELTSCALE
 40
1.0
  9
$DISPSILH
 70
     0
  9
$DIMSCALE
 40
1.0
  9
$DIMASZ
 40
1.799999999999999
  9
$DIMEXO
 40
0.0625
  9
$DIMDLI
 40
0.38
  9
$DIMRND
 40
0.0
  9
$DIMDLE
 40
0.0
  9
$DIMEXE
 40
0.18
  9
$DIMTP
 40
0.0
  9
$DIMTM
 40
0.0
  9
$DIMTXT
 40
0.3499999940395355
  9
$DIMCEN
 40
0.09
  9
$DIMTSZ
 40
0.0
  9
$DIMTOL
 70
     0
  9
$DIMLIM
 70
     0
  9
$DIMTIH
 70
     1
  9
$DIMTOH
 70
     1
  9
$DIMSE1
 70
     0
  9
$DIMSE2
 70
     0
  9
$DIMTAD
 70
     0
  9
$DIMZIN
 70
     0
  9
$DIMBLK
  1

  9
$DIMASO
 70
     1
  9
$DIMSHO
 70
     1
  9
$DIMPOST
  1

  9
$DIMAPOST
  1

  9
$DIMALT
 70
     0
  9
$DIMALTD
 70
     2
  9
$DIMALTF
 40
25.4
  9
$DIMLFAC
 40
1.0
  9
$DIMTOFL
 70
     0
  9
$DIMTVP
 40
0.0
  9
$DIMTIX
 70
     0
  9
$DIMSOXD
 70
     0
  9
$DIMSAH
 70
     0
  9
$DIMBLK1
  1

  9
$DIMBLK2
  1

  9
$DIMSTYLE
  2
Standard
  9
$DIMCLRD
 70
     0
  9
$DIMCLRE
 70
     0
  9
$DIMCLRT
 70
     0
  9
$DIMTFAC
 40
1.0
  9
$DIMGAP
 40
0.09
  9
$DIMJUST
 70
     0
  9
$DIMSD1
 70
     0
  9
$DIMSD2
 70
     0
  9
$DIMTOLJ
 70
     1
  9
$DIMTZIN
 70
     0
  9
$DIMALTZ
 70
     0
  9
$DIMALTTZ
 70
     0
  9
$DIMUPT
 70
     0
  9
$DIMDEC
 70
     4
  9
$DIMTDEC
 70
     4
  9
$DIMALTU
 70
     2
  9
$DIMALTTD
 70
     2
  9
$DIMTXSTY
  7
Standard
  9
$DIMAUNIT
 70
     0
  9
$DIMADEC
 70
     0
  9
$DIMALTRND
 40
0.0
  9
$DIMAZIN
 70
     0
  9
$DIMDSEP
 70
    46
  9
$DIMATFIT
 70
     3
  9
$DIMFRAC
 70
     0
  9
$DIMLDRBLK
  1

  9
$DIMLUNIT
 70
     2
  9
$DIMLWD
 70
    -2
  9
$DIMLWE
 70
    -2
  9
$DIMTMOVE
 70
     0
  9
$LUNITS
 70
     2
  9
$LUPREC
 70
     2
  9
$SKETCHINC
 40
0.1
  9
$FILLETRAD
 40
0.0
  9
$AUNITS
 70
     0
  9
$AUPREC
 70
     0
  9
$MENU
  1
.
  9
$ELEVATION
 40
0.0
  9
$PELEVATION
 40
0.0
  9
$THICKNESS
 40
0.0
  9
$LIMCHECK
 70
     0
  9
$CHAMFERA
 40
0.0
  9
$CHAMFERB
 40
0.0
  9
$CHAMFERC
 40
0.0
  9
$CHAMFERD
 40
0.0
  9
$SKPOLY
 70
     0
  9
$TDCREATE
 40
2456105.489533773
  9
$TDUCREATE
 40
2456105.406200440
  9
$TDUPDATE
 40
2456113.317146227
  9
$TDUUPDATE
 40
2456113.233812894
  9
$TDINDWG
 40
0.0172033681
  9
$TDUSRTIMER
 40
0.0172031829
  9
$USRTIMER
 70
     1
  9
$ANGBASE
 50
0.0
  9
$ANGDIR
 70
     0
  9
$PDMODE
 70
     0
  9
$PDSIZE
 40
0.0
  9
$PLINEWID
 40
0.0
  9
$SPLFRAME
 70
     0
  9
$SPLINETYPE
 70
     6
  9
$SPLINESEGS
 70
     8
  9
$HANDSEED
  5
1DEC
  9
$SURFTAB1
 70
     6
  9
$SURFTAB2
 70
     6
  9
$SURFTYPE
 70
     6
  9
$SURFU
 70
     6
  9
$SURFV
 70
     6
  9
$UCSBASE
  2

  9
$UCSNAME
  2

  9
$UCSORG
 10
0.0
 20
0.0
 30
0.0
  9
$UCSXDIR
 10
1.0
 20
0.0
 30
0.0
  9
$UCSYDIR
 10
0.0
 20
1.0
 30
0.0
  9
$UCSORTHOREF
  2

  9
$UCSORTHOVIEW
 70
     0
  9
$UCSORGTOP
 10
0.0
 20
0.0
 30
0.0
  9
$UCSORGBOTTOM
 10
0.0
 20
0.0
 30
0.0
  9
$UCSORGLEFT
 10
0.0
 20
0.0
 30
0.0
  9
$UCSORGRIGHT
 10
0.0
 20
0.0
 30
0.0
  9
$UCSORGFRONT
 10
0.0
 20
0.0
 30
0.0
  9
$UCSORGBACK
 10
0.0
 20
0.0
 30
0.0
  9
$PUCSBASE
  2

  9
$PUCSNAME
  2

  9
$PUCSORG
 10
0.0
 20
0.0
 30
0.0
  9
$PUCSXDIR
 10
1.0
 20
0.0
 30
0.0
  9
$PUCSYDIR
 10
0.0
 20
1.0
 30
0.0
  9
$PUCSORTHOREF
  2

  9
$PUCSORTHOVIEW
 70
     0
  9
$PUCSORGTOP
 10
0.0
 20
0.0
 30
0.0
  9
$PUCSORGBOTTOM
 10
0.0
 20
0.0
 30
0.0
  9
$PUCSORGLEFT
 10
0.0
 20
0.0
 30
0.0
  9
$PUCSORGRIGHT
 10
0.0
 20
0.0
 30
0.0
  9
$PUCSORGFRONT
 10
0.0
 20
0.0
 30
0.0
  9
$PUCSORGBACK
 10
0.0
 20
0.0
 30
0.0
  9
$USERI1
 70
     0
  9
$USERI2
 70
     0
  9
$USERI3
 70
     0
  9
$USERI4
 70
     0
  9
$USERI5
 70
     0
  9
$USERR1
 40
0.0
  9
$USERR2
 40
0.0
  9
$USERR3
 40
0.0
  9
$USERR4
 40
0.0
  9
$USERR5
 40
0.0
  9
$WORLDVIEW
 70
     1
  9
$SHADEDGE
 70
     3
  9
$SHADEDIF
 70
    70
  9
$TILEMODE
 70
     1
  9
$MAXACTVP
 70
    64
  9
$PINSBASE
 10
0.0
 20
0.0
 30
0.0
  9
$PLIMCHECK
 70
     0
  9
$PEXTMIN
 10
0.0
 20
0.0
 30
0.0
  9
$PEXTMAX
 10
990.0
 20
700.0
 30
0.0
  9
$PLIMMIN
 10
0.0
 20
0.0
  9
$PLIMMAX
 10
990.0
 20
700.0
  9
$UNITMODE
 70
     0
  9
$VISRETAIN
 70
     1
  9
$PLINEGEN
 70
     0
  9
$PSLTSCALE
 70
     1
  9
$TREEDEPTH
 70
  3020
  9
$CMLSTYLE
  2
Standard
  9
$CMLJUST
 70
     0
  9
$CMLSCALE
 40
1.0
  9
$PROXYGRAPHICS
 70
     1
  9
$MEASUREMENT
 70
     1
  9
$CELWEIGHT
370
    -1
  9
$ENDCAPS
280
     0
  9
$JOINSTYLE
280
     0
  9
$LWDISPLAY
290
     0
  9
$INSUNITS
 70
     4
  9
$HYPERLINKBASE
  1

  9
$STYLESHEET
  1

  9
$XEDIT
290
     1
  9
$CEPSNTYPE
380
     0
  9
$PSTYLEMODE
290
     1
  9
$FINGERPRINTGUID
  2
{E686A56A-6024-4377-92DD-03E14679AF66}
  9
$VERSIONGUID
  2
{9E5C4E95-17B7-4326-811C-05C3B7690821}
  9
$EXTNAMES
290
     1
  9
$PSVPSCALE
 40
0.0
  9
$OLESTARTUP
290
     0
  9
$SORTENTS
280
   127
  9
$INDEXCTL
280
     0
  9
$HIDETEXT
280
     1
  9
$XCLIPFRAME
290
     0
  9
$HALOGAP
280
     0
  9
$OBSCOLOR
 70
   257
  9
$OBSLTYPE
280
     0
  9
$INTERSECTIONDISPLAY
280
     0
  9
$INTERSECTIONCOLOR
 70
   257
  9
$DIMASSOC
280
     1
  9
$PROJECTNAME
  1

  0
ENDSEC
  0
SECTION
  2
CLASSES
  0
CLASS
  1
ACDBDICTIONARYWDFLT
  2
AcDbDictionaryWithDefault
  3
ObjectDBX Classes
 90
        0
 91
        1
280
     0
281
     0
  0
CLASS
  1
MATERIAL
  2
AcDbMaterial
  3
ObjectDBX Classes
 90
     1153
 91
        3
280
     0
281
     0
  0
CLASS
  1
VISUALSTYLE
  2
AcDbVisualStyle
  3
ObjectDBX Classes
 90
     4095
 91
       26
280
     0
281
     0
  0
CLASS
  1
SCALE
  2
AcDbScale
  3
ObjectDBX Classes
 90
     1153
 91
       17
280
     0
281
     0
  0
CLASS
  1
TABLESTYLE
  2
AcDbTableStyle
  3
ObjectDBX Classes
 90
     4095
 91
        1
280
     0
281
     0
  0
CLASS
  1
MLEADERSTYLE
  2
AcDbMLeaderStyle
  3
ACDB_MLEADERSTYLE_CLASS
 90
     4095
 91
        1
280
     0
281
     0
  0
CLASS
  1
DICTIONARYVAR
  2
AcDbDictionaryVar
  3
ObjectDBX Classes
 90
        0
 91
       10
280
     0
281
     0
  0
CLASS
  1
ACME_DOCUMENT
  2
AcMeDbDoc
  3
AcMeServices
 90
     1024
 91
        1
280
     0
281
     0
  0
CLASS
  1
AMGSETTINGSOBJ
  2
AmgSettingsObj
  3
"AcadM|Product Description: AutoCAD Mechanical|Company: Autodesk, Inc."
 90
     1024
 91
        2
280
     0
281
     0
  0
CLASS
  1
ACMESCOPE
  2
AcMeScope
  3
AcMeServices
 90
     1024
 91
        1
280
     0
281
     0
  0
CLASS
  1
ACMECOMMANDHISTORY
  2
AcMeCommandHistory
  3
AcMeServices
 90
     1024
 91
        1
280
     0
281
     0
  0
CLASS
  1
ACIMSYSVARMAN
  2
AcImSysVarManager
  3
AcMeServices
 90
     1024
 91
        5
280
     0
281
     0
  0
CLASS
  1
ACIMINTSYSVAR
  2
AcImIntSysVar
  3
AcMeServices
 90
     1024
 91
       27
280
     0
281
     0
  0
CLASS
  1
ACMEDRAWINGMAN
  2
AcMeDrawingMan
  3
AcMeServices
 90
     1024
 91
        1
280
     0
281
     0
  0
CLASS
  1
ACMEVIEW
  2
AcMeView
  3
AcMeServices
 90
     1024
 91
        1
280
     0
281
     0
  0
CLASS
  1
ACDBENTITYCACHE
  2
AcMeEntityCache
  3
AcMeServices
 90
     1024
 91
        1
280
     0
281
     0
  0
CLASS
  1
ACMESTATEMGR
  2
AcMeStateMgr
  3
AcMeServices
 90
     1024
 91
        1
280
     0
281
     0
  0
CLASS
  1
ACGREFMASTER
  2
AcGrefMaster
  3
AcAttribServices
 90
     1024
 91
        1
280
     0
281
     0
  0
CLASS
  1
AM_DRAWING_MGR
  2
AcDmDwgMgr
  3
AcMechDwgViewMgmt
 90
     1024
 91
        1
280
     0
281
     0
  0
CLASS
  1
AM_DWG_DOCUMENT
  2
AcDmDwgDocument
  3
AcMechDwgViewMgmt
 90
     1024
 91
        1
280
     0
281
     0
  0
CLASS
  1
AM_DWG_SHEET
  2
AcDmSheet
  3
AcMechDwgViewMgmt
 90
     1024
 91
        2
280
     0
281
     0
  0
CLASS
  1
AM_VIEWDIMPARMAP
  2
AcDmViewDimParMap
  3
AcMechDwgViewMgmt
 90
     1024
 91
        2
280
     0
281
     0
  0
CLASS
  1
AMDTINTERNALREACTOR
  2
AmdtInternalReactor
  3
AcMeServices
 90
     1024
 91
        1
280
     0
281
     0
  0
CLASS
  1
ACIMREALSYSVAR
  2
AcImRealSysVar
  3
AcMeServices
 90
     1024
 91
        1
280
     0
281
     0
  0
CLASS
  1
AM_DWGMGR_NAME
  2
AcDmDwgMgrName
  3
AcMechDwgViewMgmt
 90
     1024
 91
        1
280
     0
281
     0
  0
CLASS
  1
ACME_DATABASE
  2
AcMeDbDatabase
  3
AcMeServices
 90
     1024
 91
        1
280
     0
281
     0
  0
CLASS
  1
ACRFINSADJUSTERMGR
  2
AcRfInsAdjusterMgr
  3
AcMeServices
 90
     1024
 91
        1
280
     0
281
     0
  0
CLASS
  1
ACGREFACADMASTER
  2
AcGrefacadMaster
  3
AcGrefServices
 90
     1024
 91
        1
280
     0
281
     0
  0
CLASS
  1
AMDTMENUSTATEMGR
  2
AmdtMenuStateMgr
  3
McadcomServices
 90
     1024
 91
        1
280
     0
281
     0
  0
CLASS
  1
AMDTMCOMMENUSTATE
  2
AmdtMcomMenuState
  3
McadcomServices
 90
     1024
 91
        1
280
     0
281
     0
  0
CLASS
  1
AMIMASTER
  2
AmiMaster
  3
AmiServices
 90
     1024
 91
        1
280
     0
281
     0
  0
CLASS
  1
MAPIAMMOUDLE
  2
MApiAmModule
  3
MApiAmServices
 90
     1024
 91
        1
280
     0
281
     0
  0
CLASS
  1
ACIMSTRSYSVAR
  2
AcImStrSysVar
  3
AcMeServices
 90
     1024
 91
        5
280
     0
281
     0
  0
CLASS
  1
AMDTADMENUSTATE
  2
AmdtAdMenuState
  3
DesignerServices
 90
     1024
 91
        1
280
     0
281
     0
  0
CLASS
  1
ADAPPL
  2
AcAdAppl
  3
DesignerServices
 90
     1024
 91
        1
280
     0
281
     0
  0
CLASS
  1
DEPMGR
  2
AcAdDepMgr
  3
DesignerServices
 90
     1024
 91
        1
280
     0
281
     0
  0
CLASS
  1
PARAMMGR
  2
AcAdParamMgr
  3
DesignerServices
 90
     1024
 91
        1
280
     0
281
     0
  0
CLASS
  1
PARAMSCOPE
  2
AcAdParamScope
  3
DesignerServices
 90
     1024
 91
        1
280
     0
281
     0
  0
CLASS
  1
NAMEDAPPL
  2
AcAdNamedAppl
  3
DesignerServices
 90
     1024
 91
        1
280
     0
281
     0
  0
CLASS
  1
AMDTDMMENUSTATE
  2
AmdtDmMenuState
  3
AcMechDwgViewMgmt
 90
     1024
 91
        1
280
     0
281
     0
  0
CLASS
  1
AMDTAMMENUSTATE
  2
AmdtAmMenuState
  3
DesignerAssemblies
 90
     1024
 91
        1
280
     0
281
     0
  0
CLASS
  1
ACAMPROJECT
  2
AcAmProject
  3
DesignerAssemblies
 90
     1024
 91
        1
280
     0
281
     0
  0
CLASS
  1
ACAMGRCOMPDEF
  2
AcAmGrCompDef
  3
DesignerAssemblies
 90
     1024
 91
        1
280
     0
281
     0
  0
CLASS
  1
ACAMCOMPDEF
  2
AcAmCompDef
  3
DesignerAssemblies
 90
     1024
 91
        1
280
     0
281
     0
  0
CLASS
  1
ACAMCOMPDEFMGR
  2
AcAmCompDefMgr
  3
DesignerAssemblies
 90
     1024
 91
        1
280
     0
281
     0
  0
CLASS
  1
AMCONTEXTMGR
  2
AcAmContextMgr
  3
DesignerAssemblies
 90
     1024
 91
        1
280
     0
281
     0
  0
CLASS
  1
ACAMCONTEXTMODELER
  2
AcAmContextModeler
  3
DesignerAssemblies
 90
     1024
 91
        1
280
     0
281
     0
  0
CLASS
  1
ACMDATADICTIONARY
  2
AcmDataDictionary
  3
"AcmSymBB|Product Description: AutoCAD Mechanical|Company: Autodesk, Inc."
 90
     1024
 91
        1
280
     0
281
     0
  0
CLASS
  1
CATALOGSTATE
  2
AcAmCatalogState
  3
DesignerAssemblies
 90
     1024
 91
        1
280
     0
281
     0
  0
CLASS
  1
ACAMGRCOMPDEFSET
  2
AcAmGrCompDefSet
  3
DesignerAssemblies
 90
     1024
 91
        1
280
     0
281
     0
  0
CLASS
  1
AMDTBROWSERDBTAB
  2
AmdtBrowserDbTab
  3
McadcomServices
 90
     1024
 91
        1
280
     0
281
     0
  0
CLASS
  1
CBROWSERAPPOBJECT
  2
CBrowserAppObject
  3
McadcomServices
 90
     1024
 91
        2
280
     0
281
     0
  0
CLASS
  1
DM_PLACEHOLDER
  2
AcDmSelsetPlaceholder
  3
AcMechDwgViewMgmt
 90
     1024
 91
        1
280
     0
281
     0
  0
CLASS
  1
ACMSTANDARDISO
  2
AcmStandardISO
  3
"Amdt_StdImp|Product Description: AutoCAD Mechanical|Company: Autodesk, Inc."
 90
     1024
 91
        1
280
     0
281
     0
  0
CLASS
  1
AMDTEDGESTANDARDISO13715
  2
AmdtEdgeStdISO13715
  3
"Amdt_StdImp|Product Description: AutoCAD Mechanical|Company: Autodesk, Inc."
 90
     1024
 91
        1
280
     0
281
     0
  0
CLASS
  1
ACMSURFSTANDARDISO2002
  2
AcmSurfTextStdISO2002
  3
"Amdt_StdImp|Product Description: AutoCAD Mechanical|Company: Autodesk, Inc."
 90
     1024
 91
        1
280
     0
281
     0
  0
CLASS
  1
ACMFCFSTANDARDISO
  2
AcmFCFStdISO
  3
"Amdt_StdImp|Product Description: AutoCAD Mechanical|Company: Autodesk, Inc."
 90
     1024
 91
        1
280
     0
281
     0
  0
CLASS
  1
ACMWELDSTANDARDISO
  2
AcmWeldingStdISO
  3
"Amdt_StdImp|Product Description: AutoCAD Mechanical|Company: Autodesk, Inc."
 90
     1024
 91
        1
280
     0
281
     0
  0
CLASS
  1
ACMIDSTANDARDISO
  2
AcmIdStdISO
  3
"Amdt_StdImp|Product Description: AutoCAD Mechanical|Company: Autodesk, Inc."
 90
     1024
 91
        1
280
     0
281
     0
  0
CLASS
  1
ACMDATUMSTANDARDISO
  2
AcmDatumStdISO
  3
"Amdt_StdImp|Product Description: AutoCAD Mechanical|Company: Autodesk, Inc."
 90
     1024
 91
        1
280
     0
281
     0
  0
CLASS
  1
ACMBOMSTANDARDISO
  2
AcmBOMStdISO
  3
"Amdt_StdImp|Product Description: AutoCAD Mechanical|Company: Autodesk, Inc."
 90
     1024
 91
        1
280
     0
281
     0
  0
CLASS
  1
ACMDETAILSTANDARDISO
  2
AmdtDetailSymStdISO
  3
"Amdt_StdImp|Product Description: AutoCAD Mechanical|Company: Autodesk, Inc."
 90
     1024
 91
        1
280
     0
281
     0
  0
CLASS
  1
ACMSECTIONSTANDARDISO2001
  2
AmdtSectionSymStdISO2001
  3
"Amdt_StdImp|Product Description: AutoCAD Mechanical|Company: Autodesk, Inc."
 90
     1024
 91
        1
280
     0
281
     0
  0
CLASS
  1
ACMCENTERLINESTANDARDISO
  2
AmdtCenterLineStdISO
  3
"Amdt_StdImp|Product Description: AutoCAD Mechanical|Company: Autodesk, Inc."
 90
     1024
 91
        1
280
     0
281
     0
  0
CLASS
  1
ACMTHREADLINESTANDARDISO
  2
AmdtThreadLineStdISO
  3
"Amdt_StdImp|Product Description: AutoCAD Mechanical|Company: Autodesk, Inc."
 90
     1024
 91
        1
280
     0
281
     0
  0
CLASS
  1
ACMNOTESTANDARDISO
  2
AmdtNoteStdISO
  3
"Amdt_StdImp|Product Description: AutoCAD Mechanical|Company: Autodesk, Inc."
 90
     1024
 91
        1
280
     0
281
     0
  0
CLASS
  1
ACMTAPERSTANDARDISO
  2
AcmTaperStdISO
  3
"Amdt_StdImp|Product Description: AutoCAD Mechanical|Company: Autodesk, Inc."
 90
     1024
 91
        1
280
     0
281
     0
  0
CLASS
  1
ACMANOOTATIONVIEWSTANDARDISO
  2
AmdtAnViewStdISO
  3
"Amdt_StdImp|Product Description: AutoCAD Mechanical|Company: Autodesk, Inc."
 90
     1024
 91
        1
280
     0
281
     0
  0
CLASS
  1
ACAMGLAYSTD
  2
AcAmgLayStd
  3
"AmgLay|Product Description: AutoCAD Mechanical|Company: Autodesk, Inc."
 90
     1024
 91
        1
280
     0
281
     0
  0
CLASS
  1
ACAMGDIMSTD
  2
AcAmgDimStd
  3
"AmgDim|Product Description: AutoCAD Mechanical|Company: Autodesk, Inc."
 90
     1024
 91
        1
280
     0
281
     0
  0
CLASS
  1
AMGOBJPROPCFG
  2
AmgObjPropCfg
  3
"AmgLay|Product Description: AutoCAD Mechanical|Company: Autodesk, Inc."
 90
     1025
 91
        1
280
     0
281
     0
  0
CLASS
  1
ACAMGHOLECHARTSTDISO
  2
AcAmgHoleChartStdISO
  3
AmgDim|Product Description: AutoCAD Mechanical|Company: Autodesk, Inc.
 90
     1024
 91
        1
280
     0
281
     0
  0
CLASS
  1
ACAMGTITLESTD
  2
AcAmgTitleStd
  3
"AmgTitle|Product Description: AutoCAD Mechanical|Company: Autodesk, Inc."
 90
     4095
 91
        1
280
     0
281
     0
  0
CLASS
  1
AMDTNOTETEMPLATEDB
  2
AmdtNoteTemplateDB
  3
AcmSymBB|Product Description: AutoCAD Mechanical|Company: Autodesk, Inc.
 90
     1024
 91
        6
280
     0
281
     0
  0
CLASS
  1
ACAMGFILTERDAT
  2
AcAmgFilterDat
  3
"AcadM|Product Description: AutoCAD Mechanical|Company: Autodesk, Inc."
 90
     1024
 91
        0
280
     0
281
     0
  0
CLASS
  1
AEC_REFEDIT_STATUS_TRACKER
  2
AecDbRefEditStatusTracker
  3
AecArchBase60|Product Desc: Autodesk Architectural Desktop 2007 |Company: Autodesk,Inc. |WEB Address: www.autodesk.com
 90
      129
 91
        0
280
     0
281
     0
  0
CLASS
  1
NPOCOLLECTION
  2
AcDbImpNonPersistentObjectsCollection
  3
ObjectDBX Classes
 90
     1153
 91
        0
280
     0
281
     0
  0
CLASS
  1
CAMSSTRUCTBTNSTATE
  2
StructBtnState
  3
DesignerAssemblies
 90
     1024
 91
        0
280
     0
281
     0
  0
CLASS
  1
CELLSTYLEMAP
  2
AcDbCellStyleMap
  3
ObjectDBX Classes
 90
     1152
 91
        2
280
     0
281
     0
  0
ENDSEC
  0
SECTION
  2
TABLES
  0
TABLE
  2
VPORT
  5
8
330
0
100
AcDbSymbolTable
 70
     1
  0
VPORT
  5
57
330
8
100
AcDbSymbolTableRecord
100
AcDbViewportTableRecord
  2
*Active
 70
     0
 10
0.0
 20
0.0
 11
1.0
 21
1.0
 12
334.3455526551065
 22
353.9253251207123
 13
0.0
 23
0.0
 14
1.0
 24
1.0
 15
0.0
 25
0.0
 16
0.0
 26
0.0
 36
1.0
 17
0.0
 27
0.0
 37
0.0
 40
690.3991291065676
 41
1.576017130620984
 42
50.0
 43
0.0
 44
0.0
 50
0.0
 51
0.0
 71
     0
 72
   100
 73
     1
 74
     1
 75
     0
 76
     0
 77
     0
 78
     0
281
     0
 65
     0
110
0.0
120
0.0
130
0.0
111
1.0
121
0.0
131
0.0
112
0.0
122
1.0
132
0.0
 79
     0
146
0.0
  0
ENDTAB
  0
TABLE
  2
LTYPE
  5
5
330
0
100
AcDbSymbolTable
 70
    15
  0
LTYPE
  5
5B
330
5
100
AcDbSymbolTableRecord
100
AcDbLinetypeTableRecord
  2
ByBlock
 70
     0
  3

 72
    65
 73
     0
 40
0.0
  0
LTYPE
  5
5C
330
5
100
AcDbSymbolTableRecord
100
AcDbLinetypeTableRecord
  2
ByLayer
 70
     0
  3

 72
    65
 73
     0
 40
0.0
  0
LTYPE
  5
5D
330
5
100
AcDbSymbolTableRecord
100
AcDbLinetypeTableRecord
  2
Continuous
 70
     0
  3
Solid line
 72
    65
 73
     0
 40
0.0
  0
LTYPE
  5
E8C
330
5
100
AcDbSymbolTableRecord
100
AcDbLinetypeTableRecord
  2
HIDDEN
 70
     0
  3
Skrytá __ __ __ __ __ __ __ __ __ __ __ __ __ __
 72
    65
 73
     2
 40
9.525
 49
6.349999999999997
 74
     0
 49
-3.174999999999998
 74
     0
  0
LTYPE
  5
E8D
330
5
100
AcDbSymbolTableRecord
100
AcDbLinetypeTableRecord
  2
PHANTOM2
 70
     0
  3
Sdružená (.5x) ___ _ _ ___ _ _ ___ _ _ ___ _ _
 72
    65
 73
     6
 40
31.75
 49
15.875
 74
     0
 49
-3.174999999999998
 74
     0
 49
3.174999999999998
 74
     0
 49
-3.174999999999998
 74
     0
 49
3.174999999999998
 74
     0
 49
-3.174999999999998
 74
     0
  0
LTYPE
  5
E8E
330
5
100
AcDbSymbolTableRecord
100
AcDbLinetypeTableRecord
  2
CENTER
 70
     0
  3
Středová ____ _ ____ _ ____ _ ____ _ ____ _ ____
 72
    65
 73
     4
 40
50.8
 49
31.75
 74
     0
 49
-6.349999999999997
 74
     0
 49
6.349999999999997
 74
     0
 49
-6.349999999999997
 74
     0
  0
LTYPE
  5
ED4
330
5
100
AcDbSymbolTableRecord
100
AcDbLinetypeTableRecord
  2
AM_ISO02W050
 70
     0
  3
__ __ __ __ __ __ __ __ __ __ __ __ __ __ __
 72
    65
 73
     2
 40
7.5
 49
6.0
 74
     0
 49
-1.5
 74
     0
  0
LTYPE
  5
ED5
330
5
100
AcDbSymbolTableRecord
100
AcDbLinetypeTableRecord
  2
AM_ISO08W050
 70
     0
  3
____ . ____ . ____ . ____ . ____ . ____ . ____
 72
    65
 73
     4
 40
18.0
 49
12.0
 74
     0
 49
-1.5
 74
     0
 49
3.0
 74
     0
 49
-1.5
 74
     0
  0
LTYPE
  5
ED6
330
5
100
AcDbSymbolTableRecord
100
AcDbLinetypeTableRecord
  2
AM_ISO09W050
 70
     0
  3
_____ . . _____ . . _____ . . ____ .. ____
 72
    65
 73
     6
 40
22.5
 49
12.0
 74
     0
 49
-1.5
 74
     0
 49
3.0
 74
     0
 49
-1.5
 74
     0
 49
3.0
 74
     0
 49
-1.5
 74
     0
  0
LTYPE
  5
ED7
330
5
100
AcDbSymbolTableRecord
100
AcDbLinetypeTableRecord
  2
Amconstr
 70
     0
  3
_______________________
 72
    65
 73
     2
 40
9999.0
 49
9999.0
 74
     0
 49
0.0
 74
     0
  0
LTYPE
  5
ED8
330
5
100
AcDbSymbolTableRecord
100
AcDbLinetypeTableRecord
  2
AM_ISO08W050x2
 70
     0
  3
__ . __ . __ . __ . __ . __
 72
    65
 73
     4
 40
9.0
 49
6.0
 74
     0
 49
-0.75
 74
     0
 49
1.5
 74
     0
 49
-0.75
 74
     0
  0
LTYPE
  5
ED9
330
5
100
AcDbSymbolTableRecord
100
AcDbLinetypeTableRecord
  2
AM_ISO02W050x2
 70
     0
  3
 _ _ _ _ _ _ _ _ _ _ _ _
 72
    65
 73
     2
 40
3.75
 49
3.0
 74
     0
 49
-0.75
 74
     0
  0
LTYPE
  5
EDC
330
5
100
AcDbSymbolTableRecord
100
AcDbLinetypeTableRecord
  2
Amzigzag
 70
     0
  3
/\/-/\/-/\/-/\/-/\/-/\/
 72
    65
 73
     2
 40
11.0001
 49
0.0001
 74
     4
 75
   136
340
EDB
 46
0.04
 50
0.0
 44
0.0
 45
0.0
 49
-11.0
 74
     0
  0
LTYPE
  5
EEB
330
5
100
AcDbSymbolTableRecord
100
AcDbLinetypeTableRecord
  2
ACISOWELD
 70
     0
  3
_ _ _ _ _
 72
    65
 73
     2
 40
2.0
 49
2.0
 74
     0
 49
-1.0
 74
     0
  0
LTYPE
  5
EEC
330
5
100
AcDbSymbolTableRecord
100
AcDbLinetypeTableRecord
  2
ACISOTGB
 70
     0
  3
__ . . __ . .
 72
    65
 73
     6
 40
9.0
 49
4.0
 74
     0
 49
-1.0
 74
     0
 49
1.0
 74
     0
 49
-1.0
 74
     0
 49
1.0
 74
     0
 49
-1.0
 74
     0
  0
LTYPE
  5
EED
330
5
100
AcDbSymbolTableRecord
100
AcDbLinetypeTableRecord
  2
ACISOTGL
 70
     0
  3
_ _ _ _ _
 72
    65
 73
     2
 40
3.0
 49
2.0
 74
     0
 49
-1.0
 74
     0
  0
LTYPE
  5
F44
330
5
100
AcDbSymbolTableRecord
100
AcDbLinetypeTableRecord
  2
GEN7
 70
     0
  3
____ . ____ . ____ . ____ . ____ . ____ . ____
 72
    65
 73
     4
 40
13.75
 49
10.0
 74
     0
 49
-1.25
 74
     0
 49
1.25
 74
     0
 49
-1.25
 74
     0
  0
ENDTAB
  0
TABLE
  2
LAYER
  5
2
102
{ACAD_XDICTIONARY
360
F4C
102
}
330
0
100
AcDbSymbolTable
 70
    16
  0
LAYER
  5
54
330
2
100
AcDbSymbolTableRecord
100
AcDbLayerTableRecord
  2
0
 70
     0
 62
     7
  6
Continuous
370
    -3
390
F
  0
LAYER
  5
78
330
2
100
AcDbSymbolTableRecord
100
AcDbLayerTableRecord
  2
Geometrie náčrtu (ISO)
 70
     0
 62
     7
  6
Continuous
370
     9
390
F
  0
LAYER
  5
79
330
2
100
AcDbSymbolTableRecord
100
AcDbLayerTableRecord
  2
KOPF
 70
     0
 62
     8
420
  8421504
  6
Continuous
370
     9
390
F
  0
LAYER
  5
7A
330
2
100
AcDbSymbolTableRecord
100
AcDbLayerTableRecord
  2
Kóta (ISO)
 70
     0
 62
     5
420
      255
  6
Continuous
370
     9
390
F
  0
LAYER
  5
7B
330
2
100
AcDbSymbolTableRecord
100
AcDbLayerTableRecord
  2
Nadpis (ISO)
 70
     0
 62
     7
  6
Continuous
370
    18
390
F
  0
LAYER
  5
85
330
2
100
AcDbSymbolTableRecord
100
AcDbLayerTableRecord
  2
Rámeček (ISO)
 70
     0
 62
     7
  6
Continuous
370
    35
390
F
  0
LAYER
  5
88
330
2
100
AcDbSymbolTableRecord
100
AcDbLayerTableRecord
  2
Skrytá (ISO)
 70
     0
 62
   142
420
    32960
  6
Continuous
370
     9
390
F
  0
LAYER
  5
8B
330
2
100
AcDbSymbolTableRecord
100
AcDbLayerTableRecord
  2
TEXT35
 70
     0
 62
    12
420
 13369344
  6
Continuous
370
    20
390
F
  0
LAYER
  5
8C
330
2
100
AcDbSymbolTableRecord
100
AcDbLayerTableRecord
  2
TEXT50
 70
     0
 62
     7
  6
Continuous
370
    20
390
F
  0
LAYER
  5
8D
330
2
100
AcDbSymbolTableRecord
100
AcDbLayerTableRecord
  2
Viditelná (ISO)
 70
     0
 62
     7
  6
Continuous
370
    35
390
F
  0
LAYER
  5
8E
330
2
100
AcDbSymbolTableRecord
100
AcDbLayerTableRecord
  2
Viditelná tenká (ISO)
 70
     0
 62
     7
  6
Continuous
370
     9
390
F
  0
LAYER
  5
8F
330
2
100
AcDbSymbolTableRecord
100
AcDbLayerTableRecord
  2
Značka (ISO)
 70
     0
 62
     5
420
      255
  6
Continuous
370
     9
390
F
  0
LAYER
  5
63C
330
2
100
AcDbSymbolTableRecord
100
AcDbLayerTableRecord
  2
Defpoints
 70
     0
 62
     7
  6
Continuous
290
     0
370
    -3
390
F
  0
LAYER
  5
F45
102
{ACAD_XDICTIONARY
360
F46
102
}
330
2
100
AcDbSymbolTableRecord
100
AcDbLayerTableRecord
  2
7
 70
     0
 62
     4
  6
GEN7
370
    -3
390
F
  0
LAYER
  5
F47
102
{ACAD_XDICTIONARY
360
F48
102
}
330
2
100
AcDbSymbolTableRecord
100
AcDbLayerTableRecord
  2
5
 70
     0
 62
     3
  6
Continuous
370
    -3
390
F
  0
LAYER
  5
1953
330
2
100
AcDbSymbolTableRecord
100
AcDbLayerTableRecord
  2
AM_5
 70
     0
 62
    92
  6
Continuous
370
    25
390
F
1001
AcAecLayerStandard
1000

1000

  0
ENDTAB
  0
TABLE
  2
STYLE
  5
3
330
0
100
AcDbSymbolTable
 70
    21
  0
STYLE
  5
55
330
3
100
AcDbSymbolTableRecord
100
AcDbTextStyleTableRecord
  2
Standard
 70
     0
 40
0.0
 41
1.0
 50
0.0
 71
     0
 42
0.2
  3
TAHOMA.TTF
  4

1001
ACAD
1000
Tahoma
1071
      256
  0
STYLE
  5
5A
330
3
100
AcDbSymbolTableRecord
100
AcDbTextStyleTableRecord
  2
Annotative
 70
     0
 40
0.0
 41
1.0
 50
0.0
 71
     0
 42
0.2
  3
txt
  4

1001
AcadAnnotative
1000
AnnotativeData
1002
{
1070
     1
1070
     1
1002
}
  0
STYLE
  5
90
330
3
100
AcDbSymbolTableRecord
100
AcDbTextStyleTableRecord
  2
ITALICC8_57
 70
     0
 40
0.0
 41
1.0
 50
0.0
 71
     0
 42
0.2
  3
TAHOMA.TTF
  4

1001
ACAD
1000
Tahoma
1071
      256
  0
STYLE
  5
91
330
3
100
AcDbSymbolTableRecord
100
AcDbTextStyleTableRecord
  2
kusovnik
 70
     0
 40
0.0
 41
1.0
 50
0.0
 71
     0
 42
0.2
  3
ARIAL.TTF
  4

1001
ACAD
1000
Arial
1071
      256
  0
STYLE
  5
92
330
3
100
AcDbSymbolTableRecord
100
AcDbTextStyleTableRecord
  2
ROMANS8_69
 70
     0
 40
0.0
 41
1.0
 50
0.0
 71
     0
 42
0.2
  3
TAHOMA.TTF
  4

1001
ACAD
1000
Tahoma
1071
      256
  0
STYLE
  5
93
330
3
100
AcDbSymbolTableRecord
100
AcDbTextStyleTableRecord
  2
Text popisu (ISO)
 70
     0
 40
0.0
 41
1.0
 50
0.0
 71
     0
 42
0.2
  3
TAHOMA.TTF
  4

1001
ACAD
1000
Tahoma
1071
      256
  0
STYLE
  5
94
330
3
100
AcDbSymbolTableRecord
100
AcDbTextStyleTableRecord
  2
Text poznámky (DIN)
 70
     0
 40
0.0
 41
1.0
 50
0.0
 71
     0
 42
0.2
  3
isocpeur.ttf
  4

1001
ACAD
1000
ISOCPEUR
1071
      256
  0
STYLE
  5
95
330
3
100
AcDbSymbolTableRecord
100
AcDbTextStyleTableRecord
  2
Text poznámky (ISO)
 70
     0
 40
0.0
 41
1.0
 50
0.0
 71
     0
 42
0.2
  3
TAHOMA.TTF
  4

1001
ACAD
1000
Tahoma
1071
      256
  0
STYLE
  5
96
330
3
100
AcDbSymbolTableRecord
100
AcDbTextStyleTableRecord
  2
TEXT20_41
 70
     0
 40
0.0
 41
1.0
 50
0.0
 71
     0
 42
0.2
  3
TAHOMA.TTF
  4

1001
ACAD
1000
Tahoma
1071
      256
  0
STYLE
  5
97
330
3
100
AcDbSymbolTableRecord
100
AcDbTextStyleTableRecord
  2
TEXT20_59
 70
     0
 40
0.0
 41
1.0
 50
0.0
 71
     0
 42
0.2
  3
TAHOMA.TTF
  4

1001
ACAD
1000
Tahoma
1071
      256
  0
STYLE
  5
1E9
330
3
100
AcDbSymbolTableRecord
100
AcDbTextStyleTableRecord
  2
Styl textu62
 70
     0
 40
0.0
 41
0.8000000119209289
 50
0.0
 71
     0
 42
0.2
  3
TAHOMA.TTF
  4

1001
ACAD
1000
Tahoma
1071
      256
  0
STYLE
  5
1F0
330
3
100
AcDbSymbolTableRecord
100
AcDbTextStyleTableRecord
  2
Styl textu58
 70
     0
 40
0.0
 41
0.8000000119209289
 50
0.0
 71
     0
 42
0.2
  3
TAHOMA.TTF
  4

1001
ACAD
1000
Tahoma
1071
      256
  0
STYLE
  5
1F2
330
3
100
AcDbSymbolTableRecord
100
AcDbTextStyleTableRecord
  2
Styl textu63
 70
     0
 40
0.0
 41
0.75
 50
0.0
 71
     0
 42
0.2
  3
TAHOMA.TTF
  4

1001
ACAD
1000
Tahoma
1071
      256
  0
STYLE
  5
1F5
330
3
100
AcDbSymbolTableRecord
100
AcDbTextStyleTableRecord
  2
Styl textu72
 70
     0
 40
0.0
 41
0.6999999880790711
 50
0.0
 71
     0
 42
0.2
  3
TAHOMA.TTF
  4

1001
ACAD
1000
Tahoma
1071
      256
  0
STYLE
  5
1F8
330
3
100
AcDbSymbolTableRecord
100
AcDbTextStyleTableRecord
  2
Styl textu75
 70
     0
 40
0.0
 41
0.8000000119209289
 50
0.0
 71
     0
 42
0.2
  3
TAHOMA.TTF
  4

1001
ACAD
1000
Tahoma
1071
      256
  0
STYLE
  5
20F
330
3
100
AcDbSymbolTableRecord
100
AcDbTextStyleTableRecord
  2
Styl textu9
 70
     0
 40
0.0
 41
1.0
 50
0.0
 71
     0
 42
0.2
  3
ARIAL.TTF
  4

1001
ACAD
1000
Arial
1071
      256
  0
STYLE
  5
213
330
3
100
AcDbSymbolTableRecord
100
AcDbTextStyleTableRecord
  2
Styl textu40
 70
     0
 40
0.0
 41
1.0
 50
0.0
 71
     0
 42
0.2
  3
ARIAL.TTF
  4

1001
ACAD
1000
Arial
1071
      256
  0
STYLE
  5
218
330
3
100
AcDbSymbolTableRecord
100
AcDbTextStyleTableRecord
  2
Styl textu94
 70
     0
 40
0.0
 41
1.0
 50
0.0
 71
     0
 42
0.2
  3
TAHOMA.TTF
  4

1001
ACAD
1000
Tahoma
1071
      256
  0
STYLE
  5
EDB
330
3
100
AcDbSymbolTableRecord
100
AcDbTextStyleTableRecord
  2

 70
     1
 40
0.0
 41
1.0
 50
0.0
 71
     0
 42
0.2
  3
genltshp.shx
  4

  0
STYLE
  5
EE9
330
3
100
AcDbSymbolTableRecord
100
AcDbTextStyleTableRecord
  2
ACISOTS
 70
     0
 40
1.0
 41
1.0
 50
0.0
 71
     0
 42
0.2
  3
isocp.shx
  4

  0
STYLE
  5
EEA
330
3
100
AcDbSymbolTableRecord
100
AcDbTextStyleTableRecord
  2
ACISOGDT
 70
     0
 40
0.0
 41
1.0
 50
0.0
 71
     0
 42
0.2
  3
amgdt.shx
  4

  0
ENDTAB
  0
TABLE
  2
VIEW
  5
6
330
0
100
AcDbSymbolTable
 70
     0
  0
ENDTAB
  0
TABLE
  2
UCS
  5
7
330
0
100
AcDbSymbolTable
 70
     0
  0
ENDTAB
  0
TABLE
  2
APPID
  5
9
330
0
100
AcDbSymbolTable
 70
    20
  0
APPID
  5
56
330
9
100
AcDbSymbolTableRecord
100
AcDbRegAppTableRecord
  2
ACAD
 70
     0
  0
APPID
  5
5E
330
9
100
AcDbSymbolTableRecord
100
AcDbRegAppTableRecord
  2
AcadAnnotative
 70
     0
  0
APPID
  5
212
330
9
100
AcDbSymbolTableRecord
100
AcDbRegAppTableRecord
  2
AcadAnnoPO
 70
     0
  0
APPID
  5
E5F
330
9
100
AcDbSymbolTableRecord
100
AcDbRegAppTableRecord
  2
MCAD_NO_VIS
 70
     0
  0
APPID
  5
E60
330
9
100
AcDbSymbolTableRecord
100
AcDbRegAppTableRecord
  2
ACAD_TEMP_GRAPHIC
 70
     0
  0
APPID
  5
E90
330
9
100
AcDbSymbolTableRecord
100
AcDbRegAppTableRecord
  2
AD_DRAW
 70
     0
  0
APPID
  5
E93
330
9
100
AcDbSymbolTableRecord
100
AcDbRegAppTableRecord
  2
ACATTRIBSERVICES
 70
     0
  0
APPID
  5
EB3
330
9
100
AcDbSymbolTableRecord
100
AcDbRegAppTableRecord
  2
DESIGNERASSEMBLIES
 70
     0
  0
APPID
  5
EB9
330
9
100
AcDbSymbolTableRecord
100
AcDbRegAppTableRecord
  2
ACADM_DIM_EDIT
 70
     0
  0
APPID
  5
EBA
330
9
100
AcDbSymbolTableRecord
100
AcDbRegAppTableRecord
  2
AMDT_DM_ADJ
 70
     0
  0
APPID
  5
ED1
330
9
100
AcDbSymbolTableRecord
100
AcDbRegAppTableRecord
  2
ACAD_DSTYLE_DIMJAG
 70
     0
  0
APPID
  5
ED2
330
9
100
AcDbSymbolTableRecord
100
AcDbRegAppTableRecord
  2
ACAD_DSTYLE_DIMBREAK
 70
     0
  0
APPID
  5
F4A
330
9
100
AcDbSymbolTableRecord
100
AcDbRegAppTableRecord
  2
ACAD_DSTYLE_DIMINSPECT
 70
     0
  0
APPID
  5
F4B
330
9
100
AcDbSymbolTableRecord
100
AcDbRegAppTableRecord
  2
ACAD_DSTYLE_DIMTALN
 70
     0
  0
APPID
  5
1954
330
9
100
AcDbSymbolTableRecord
100
AcDbRegAppTableRecord
  2
AcAecLayerStandard
 70
     0
  0
APPID
  5
1B99
330
9
100
AcDbSymbolTableRecord
100
AcDbRegAppTableRecord
  2
ACAD_MLEADERVER
 70
     0
  0
APPID
  5
1BD6
330
9
100
AcDbSymbolTableRecord
100
AcDbRegAppTableRecord
  2
ACAD_DSTYLE_DIMARC_LENGTH_SYMBOL
 70
     0
  0
APPID
  5
1BD7
330
9
100
AcDbSymbolTableRecord
100
AcDbRegAppTableRecord
  2
ACAD_DSTYLE_DIM_LINETYPE
 70
     0
  0
APPID
  5
1BD8
330
9
100
AcDbSymbolTableRecord
100
AcDbRegAppTableRecord
  2
ACAD_DSTYLE_DIM_EXT1_LINETYPE
 70
     0
  0
APPID
  5
1BD9
330
9
100
AcDbSymbolTableRecord
100
AcDbRegAppTableRecord
  2
ACAD_DSTYLE_DIM_EXT2_LINETYPE
 70
     0
  0
ENDTAB
  0
TABLE
  2
DIMSTYLE
  5
A
330
0
100
AcDbSymbolTable
 70
    25
100
AcDbDimStyleTable
 71
     3
340
F49
340
58
340
B1
  0
DIMSTYLE
105
58
330
A
100
AcDbSymbolTableRecord
100
AcDbDimStyleTableRecord
  2
Standard
 70
     0
340
55
  0
DIMSTYLE
105
59
330
A
100
AcDbSymbolTableRecord
100
AcDbDimStyleTableRecord
  2
Annotative
 70
     0
340
55
1001
AcadAnnotative
1000
AnnotativeData
1002
{
1070
     1
1070
     1
1002
}
  0
DIMSTYLE
105
A7
330
A
100
AcDbSymbolTableRecord
100
AcDbDimStyleTableRecord
  2
Různé objekty (ISO)
 70
     0
 40
1.666666666666666
 41
2.5
 42
0.0
 43
5.999999999999999
 44
1.0
 45
0.00000001
 46
10.0
 73
     0
 74
     0
 77
     1
 78
     8
 79
     2
140
5.25
143
0.03937
146
0.6676571709769112
147
0.762
171
     3
172
     1
176
   256
177
   256
178
   256
179
     2
271
     2
272
     2
274
     3
278
    44
284
     8
340
93
341
98
371
    -1
372
    -1
  0
DIMSTYLE
105
A8
330
A
100
AcDbSymbolTableRecord
100
AcDbDimStyleTableRecord
  2
Různé objekty (ISO)$7
 70
     0
 40
1.666666666666666
 41
5.0
 42
0.0
 43
5.999999999999999
 44
1.0
 45
0.00000001
 46
10.0
 73
     0
 74
     0
 77
     1
 78
     8
 79
     2
140
5.25
143
0.03937
146
0.6676571709769112
147
0.762
171
     3
172
     1
176
   256
177
   256
178
   256
179
     2
271
     2
272
     2
274
     3
278
    44
284
     8
340
93
341
98
371
    25
372
    -1
  0
DIMSTYLE
105
A9
330
A
100
AcDbSymbolTableRecord
100
AcDbDimStyleTableRecord
  2
Výchozí - Metoda 1b (ISO)
 70
     0
 40
1.666666666666666
 41
2.5
 42
0.0
 43
5.999999999999999
 44
1.0
 45
0.00000001
 46
10.0
 73
     0
 77
     1
 78
     8
 79
     2
140
3.5
143
0.03937
147
0.762
171
     3
172
     1
176
   256
177
   256
178
   256
179
     2
271
     2
272
     2
274
     3
278
    44
284
     8
286
     8
340
95
371
    -1
372
    -1
  0
DIMSTYLE
105
AA
330
A
100
AcDbSymbolTableRecord
100
AcDbDimStyleTableRecord
  2
Výchozí - Metoda 1b (ISO)$7
 70
     0
 40
1.666666666666666
 41
2.5
 42
0.0
 43
5.999999999999999
 44
1.0
 45
0.00000001
 46
10.0
 73
     0
 77
     1
 78
     8
 79
     2
140
3.5
143
0.03937
147
0.762
171
     3
172
     1
176
   256
177
   256
178
   256
179
     2
271
     2
272
     2
274
     3
278
    44
284
     8
286
     8
340
95
371
    -1
372
    -1
  0
DIMSTYLE
105
AB
330
A
100
AcDbSymbolTableRecord
100
AcDbDimStyleTableRecord
  2
Výchozí - Metoda 2a (ISO)
 70
     0
 40
1.666666666666666
 41
2.5
 42
0.0
 43
5.999999999999999
 44
1.0
 45
0.00000001
 46
10.0
 77
     1
 78
     8
 79
     2
140
3.5
143
0.03937
147
0.762
171
     3
172
     1
176
   256
177
   256
178
   256
179
     2
271
     2
272
     2
274
     3
278
    44
284
     8
286
     8
340
95
371
    -1
372
    -1
  0
DIMSTYLE
105
AC
330
A
100
AcDbSymbolTableRecord
100
AcDbDimStyleTableRecord
  2
Výchozí - Metoda 2a (ISO)$7
 70
     0
 40
1.666666666666666
 41
2.5
 42
0.0
 43
5.999999999999999
 44
1.0
 45
0.00000001
 46
10.0
 77
     1
 78
     8
 79
     2
140
3.5
143
0.03937
147
0.762
171
     3
172
     1
176
   256
177
   256
178
   256
179
     2
271
     2
272
     2
274
     3
278
    44
284
     8
286
     8
340
95
371
    -1
372
    -1
  0
DIMSTYLE
105
AD
330
A
100
AcDbSymbolTableRecord
100
AcDbDimStyleTableRecord
  2
Výchozí - Metoda 2b (ISO)
 70
     0
 40
1.666666666666666
 41
2.5
 42
0.0
 43
5.999999999999999
 44
1.0
 45
0.00000001
 46
10.0
 77
     1
 78
     8
 79
     2
140
3.5
143
0.03937
147
0.762
171
     3
172
     1
176
   256
177
   256
178
   256
179
     2
271
     2
272
     2
274
     3
278
    44
284
     8
286
     8
340
95
371
    -1
372
    -1
  0
DIMSTYLE
105
AE
330
A
100
AcDbSymbolTableRecord
100
AcDbDimStyleTableRecord
  2
Výchozí - Metoda 2b (ISO)$7
 70
     0
 40
1.666666666666666
 41
2.5
 42
0.0
 43
5.999999999999999
 44
1.0
 45
0.00000001
 46
10.0
 77
     1
 78
     8
 79
     2
140
3.5
143
0.03937
147
0.762
171
     3
172
     1
176
   256
177
   256
178
   256
179
     2
271
     2
272
     2
274
     3
278
    44
284
     8
286
     8
340
95
371
    -1
372
    -1
  0
DIMSTYLE
105
AF
330
A
100
AcDbSymbolTableRecord
100
AcDbDimStyleTableRecord
  2
Výchozí - mm [palce] (ISO)
 70
     0
  4
 in
 40
1.666666666666666
 41
2.5
 42
0.0
 43
5.999999999999999
 44
3.174999999999998
 45
0.00000001
 46
10.0
 73
     0
 74
     0
 77
     1
 78
     8
 79
     2
140
3.5
143
0.03937
147
0.762
170
     1
171
     3
172
     1
176
   256
177
   256
178
   256
179
     3
271
     3
272
     2
274
     3
275
     1
278
    44
284
     8
285
     8
286
     8
340
95
371
    -1
372
    -1
  0
DIMSTYLE
105
B0
330
A
100
AcDbSymbolTableRecord
100
AcDbDimStyleTableRecord
  2
Výchozí - mm [palce] (ISO)$7
 70
     0
  4
 in
 40
1.666666666666666
 41
2.5
 42
0.0
 43
5.999999999999999
 44
3.174999999999998
 45
0.00000001
 46
10.0
 73
     0
 74
     0
 77
     1
 78
     8
 79
     2
140
3.5
143
0.03937
147
0.762
170
     1
171
     3
172
     1
176
   256
177
   256
178
   256
179
     3
271
     3
272
     2
274
     3
275
     1
278
    44
284
     8
285
     8
286
     8
340
95
371
    -1
372
    -1
  0
DIMSTYLE
105
B1
330
A
100
AcDbSymbolTableRecord
100
AcDbDimStyleTableRecord
  2
Výchozí (ISO)
 70
     0
 40
1.666666666666666
 41
2.5
 42
0.0
 43
5.999999999999999
 44
1.0
 45
0.00000001
 46
10.0
 73
     0
 74
     0
 77
     1
 78
     8
 79
     2
140
3.5
143
0.03937
146
1.001485756465366
147
0.762
171
     3
172
     1
176
   256
177
   256
178
   256
179
     2
271
     2
272
     2
274
     3
278
    44
284
     8
340
95
371
    -1
372
    -1
  0
DIMSTYLE
105
B2
330
A
100
AcDbSymbolTableRecord
100
AcDbDimStyleTableRecord
  2
Výchozí (ISO)$7
 70
     0
 40
1.666666666666666
 41
2.5
 42
0.0
 43
5.999999999999999
 44
1.0
 45
0.00000001
 46
10.0
 73
     0
 74
     0
 77
     1
 78
     8
 79
     2
140
3.5
143
0.03937
146
1.001485756465366
147
0.762
171
     3
172
     1
176
   256
177
   256
178
   256
179
     2
271
     2
272
     2
274
     3
278
    44
284
     8
340
95
371
    -1
372
    -1
  0
DIMSTYLE
105
B3
330
A
100
AcDbSymbolTableRecord
100
AcDbDimStyleTableRecord
  2
Alternativní (ISO)
 70
     0
 40
1.666666666666666
 41
2.5
340
55
342
B4
  0
DIMSTYLE
105
C5
330
A
100
AcDbSymbolTableRecord
100
AcDbDimStyleTableRecord
  2
Základny (ISO)
 70
     0
 40
1.666666666666666
 41
2.5
340
55
342
B4
  0
DIMSTYLE
105
ED0
102
{ACAD_REACTORS
330
1D48
102
}
330
A
100
AcDbSymbolTableRecord
100
AcDbDimStyleTableRecord
  2
AM_ISO
 70
     0
  4
"
 41
3.5
 42
1.0
 43
10.0
 44
1.0
 47
0.1
 48
0.1
 73
     0
 74
     0
 77
     1
 78
     8
 79
     2
140
3.5
141
0.0
143
0.0393701
146
0.71
147
1.5
172
     1
176
   256
177
   256
178
   140
271
     2
272
     3
274
     4
283
     0
284
     8
340
55
371
    -1
372
    -1
1001
ACAD_DSTYLE_DIMJAG
1070
   388
1040
1.5
1001
ACAD_DSTYLE_DIMBREAK
1070
   391
1040
3.75
1001
ACAD_DSTYLE_DIMARC_LENGTH_SYMBOL
1070
   379
1070
     1
1001
ACAD_DSTYLE_DIM_LINETYPE
1070
   380
1005
5B
1001
ACAD_DSTYLE_DIM_EXT1_LINETYPE
1070
   381
1005
5B
1001
ACAD_DSTYLE_DIM_EXT2_LINETYPE
1070
   382
1005
5B
  0
DIMSTYLE
105
EDD
330
A
100
AcDbSymbolTableRecord
100
AcDbDimStyleTableRecord
  2
AM_ISO$3
 70
     0
  4
"
 41
3.5
 42
1.0
 43
10.0
 44
1.0
 47
0.1
 48
0.1
 73
     0
 77
     1
 78
     8
 79
     2
140
3.5
141
0.0
143
0.0393701
146
0.71
147
1.5
176
   256
177
   256
178
   140
271
     2
272
     3
274
     4
283
     0
284
     8
288
     1
289
     0
340
55
371
    -1
372
    -1
1001
ACAD_DSTYLE_DIMBREAK
1070
   391
1040
3.75
1001
ACAD_DSTYLE_DIMJAG
1070
   388
1040
1.5
1001
ACAD_DSTYLE_DIMARC_LENGTH_SYMBOL
1070
   379
1070
     1
1001
ACAD_DSTYLE_DIM_LINETYPE
1070
   380
1005
5B
1001
ACAD_DSTYLE_DIM_EXT1_LINETYPE
1070
   381
1005
5B
1001
ACAD_DSTYLE_DIM_EXT2_LINETYPE
1070
   382
1005
5B
  0
DIMSTYLE
105
EDE
330
A
100
AcDbSymbolTableRecord
100
AcDbDimStyleTableRecord
  2
AM_ISO$4
 70
     0
  4
"
 41
3.5
 42
1.0
 43
10.0
 44
1.0
 47
0.1
 48
0.1
 73
     0
 77
     1
 78
     8
 79
     2
140
3.5
141
0.0
143
0.0393701
146
0.71
147
1.5
176
   256
177
   256
178
   140
271
     2
272
     3
274
     4
283
     0
284
     8
288
     1
289
     0
340
55
371
    -1
372
    -1
1001
ACAD_DSTYLE_DIMBREAK
1070
   391
1040
3.75
1001
ACAD_DSTYLE_DIMJAG
1070
   388
1040
1.5
1001
ACAD_DSTYLE_DIMARC_LENGTH_SYMBOL
1070
   379
1070
     1
1001
ACAD_DSTYLE_DIM_LINETYPE
1070
   380
1005
5B
1001
ACAD_DSTYLE_DIM_EXT1_LINETYPE
1070
   381
1005
5B
1001
ACAD_DSTYLE_DIM_EXT2_LINETYPE
1070
   382
1005
5B
  0
DIMSTYLE
105
EDF
330
A
100
AcDbSymbolTableRecord
100
AcDbDimStyleTableRecord
  2
AM_ISO$6
 70
     0
  4
"
 41
3.5
 42
1.0
 43
10.0
 44
1.0
 47
0.1
 48
0.1
 73
     0
 74
     0
 78
     8
 79
     2
140
3.5
141
0.0
143
0.0393701
146
0.71
147
1.5
172
     1
176
   256
177
   256
178
   140
271
     2
272
     3
274
     4
283
     0
284
     8
340
55
371
    -1
372
    -1
1001
ACAD_DSTYLE_DIMBREAK
1070
   391
1040
3.75
1001
ACAD_DSTYLE_DIMJAG
1070
   388
1040
1.5
1001
ACAD_DSTYLE_DIMARC_LENGTH_SYMBOL
1070
   379
1070
     1
1001
ACAD_DSTYLE_DIM_LINETYPE
1070
   380
1005
5B
1001
ACAD_DSTYLE_DIM_EXT1_LINETYPE
1070
   381
1005
5B
1001
ACAD_DSTYLE_DIM_EXT2_LINETYPE
1070
   382
1005
5B
  0
DIMSTYLE
105
EE0
330
A
100
AcDbSymbolTableRecord
100
AcDbDimStyleTableRecord
  2
AM_ISO$7
 70
     0
  4
"
 41
3.5
 42
1.0
 43
10.0
 44
1.0
 47
0.1
 48
0.1
 73
     0
 74
     0
 77
     1
 78
     8
 79
     2
140
3.5
141
0.0
143
0.0393701
146
0.71
147
1.5
172
     1
176
   256
177
   256
178
   140
271
     2
272
     3
274
     4
283
     0
284
     8
340
55
371
    -1
372
    -1
1001
ACAD_DSTYLE_DIMBREAK
1070
   391
1040
3.75
1001
ACAD_DSTYLE_DIMJAG
1070
   388
1040
1.5
1001
ACAD_DSTYLE_DIMARC_LENGTH_SYMBOL
1070
   379
1070
     1
1001
ACAD_DSTYLE_DIM_LINETYPE
1070
   380
1005
5B
1001
ACAD_DSTYLE_DIM_EXT1_LINETYPE
1070
   381
1005
5B
1001
ACAD_DSTYLE_DIM_EXT2_LINETYPE
1070
   382
1005
5B
  0
DIMSTYLE
105
EE1
330
A
100
AcDbSymbolTableRecord
100
AcDbDimStyleTableRecord
  2
AM_ISO$SF
 70
     0
  4
"
 41
3.5
 42
1.0
 43
10.0
 44
1.0
 47
0.1
 48
0.1
 73
     0
 74
     0
 75
     1
 76
     1
 77
     1
 78
     8
 79
     2
140
3.5
141
0.0
143
0.0393701
146
0.71
147
1.5
172
     1
176
   256
177
   256
178
   140
271
     2
272
     3
274
     4
283
     0
284
     8
340
55
371
    -1
372
    -1
1001
ACAD_DSTYLE_DIMBREAK
1070
   391
1040
3.75
1001
ACAD_DSTYLE_DIMJAG
1070
   388
1040
1.5
1001
ACAD_DSTYLE_DIMARC_LENGTH_SYMBOL
1070
   379
1070
     1
1001
ACAD_DSTYLE_DIM_LINETYPE
1070
   380
1005
5B
1001
ACAD_DSTYLE_DIM_EXT1_LINETYPE
1070
   381
1005
5B
1001
ACAD_DSTYLE_DIM_EXT2_LINETYPE
1070
   382
1005
5B
  0
DIMSTYLE
105
EE6
330
A
100
AcDbSymbolTableRecord
100
AcDbDimStyleTableRecord
  2
AM_ISO$SH
 70
     0
  4
"
 41
3.5
 42
1.0
 43
10.0
 44
1.0
 47
0.1
 48
0.1
 73
     0
 74
     0
 75
     1
 76
     1
 77
     1
 78
     8
 79
     2
140
3.5
141
0.0
143
0.0393701
144
2.0
146
0.71
147
1.5
172
     1
173
     1
176
   256
177
   256
178
   140
271
     2
272
     3
274
     4
283
     0
284
     8
340
55
343
EE2
371
    -1
372
    -1
1001
ACAD_DSTYLE_DIMBREAK
1070
   391
1040
3.75
1001
ACAD_DSTYLE_DIMJAG
1070
   388
1040
1.5
1001
ACAD_DSTYLE_DIMARC_LENGTH_SYMBOL
1070
   379
1070
     1
1001
ACAD_DSTYLE_DIM_LINETYPE
1070
   380
1005
5B
1001
ACAD_DSTYLE_DIM_EXT1_LINETYPE
1070
   381
1005
5B
1001
ACAD_DSTYLE_DIM_EXT2_LINETYPE
1070
   382
1005
5B
  0
DIMSTYLE
105
F49
102
{ACAD_REACTORS
330
1A0B
330
19E9
330
19C7
330
19A5
330
1983
330
1957
330
1AF8
102
}
330
A
100
AcDbSymbolTableRecord
100
AcDbDimStyleTableRecord
  2
GEN-ISO
 70
     0
  3
<>
  4
"
 40
2.0
 41
2.5
 42
1.0
 43
7.0
 44
1.0
 47
0.1
 48
0.1
 73
     0
 74
     0
 77
     1
 78
     8
140
7.0
141
0.0
143
0.0393701
146
0.71
147
0.6
172
     1
176
   256
177
   256
178
     7
271
     2
272
     2
283
     0
340
55
1001
ACAD_DSTYLE_DIMJAG
1070
   388
1040
1.5
1001
ACAD_DSTYLE_DIMTALN
1070
   392
1070
     0
  0
DIMSTYLE
105
1955
330
A
100
AcDbSymbolTableRecord
100
AcDbDimStyleTableRecord
  2
Standard$0
 70
     0
340
55
1001
ACAD_DSTYLE_DIMBREAK
1070
   391
1040
3.75
1001
ACAD_DSTYLE_DIMJAG
1070
   388
1040
1.5
  0
ENDTAB
  0
TABLE
  2
BLOCK_RECORD
  5
1
330
0
100
AcDbSymbolTable
 70
    64
  0
BLOCK_RECORD
  5
6C
330
1
100
AcDbSymbolTableRecord
100
AcDbBlockTableRecord
  2
*Model_Space
340
6F
  0
BLOCK_RECORD
  5
68
330
1
100
AcDbSymbolTableRecord
100
AcDbBlockTableRecord
  2
*Paper_Space
340
6B
  0
BLOCK_RECORD
  5
70
330
1
100
AcDbSymbolTableRecord
100
AcDbBlockTableRecord
  2
*Paper_Space0
340
73
  0
BLOCK_RECORD
  5
98
330
1
100
AcDbSymbolTableRecord
100
AcDbBlockTableRecord
  2
Filled-1
340
0
  0
BLOCK_RECORD
  5
B4
330
1
100
AcDbSymbolTableRecord
100
AcDbBlockTableRecord
  2
_Closed
340
0
  0
BLOCK_RECORD
  5
BB
330
1
100
AcDbSymbolTableRecord
100
AcDbBlockTableRecord
  2
DatumFilled45
340
0
  0
BLOCK_RECORD
  5
C6
330
1
100
AcDbSymbolTableRecord
100
AcDbBlockTableRecord
  2
WIG-svarovani
340
0
  0
BLOCK_RECORD
  5
CB
330
1
100
AcDbSymbolTableRecord
100
AcDbBlockTableRecord
  2
Popis kotvy_srouby
340
0
  0
BLOCK_RECORD
  5
CF
330
1
100
AcDbSymbolTableRecord
100
AcDbBlockTableRecord
  2
Mater. provedeni Art.
340
0
  0
BLOCK_RECORD
  5
F1
330
1
100
AcDbSymbolTableRecord
100
AcDbBlockTableRecord
  2
Art. s popisy
340
0
  0
BLOCK_RECORD
  5
113
330
1
100
AcDbSymbolTableRecord
100
AcDbBlockTableRecord
  2
Tryskat
340
0
  0
BLOCK_RECORD
  5
117
330
1
100
AcDbSymbolTableRecord
100
AcDbBlockTableRecord
  2
Morit
340
0
  0
BLOCK_RECORD
  5
11B
330
1
100
AcDbSymbolTableRecord
100
AcDbBlockTableRecord
  2
zinkovat
340
0
  0
BLOCK_RECORD
  5
11F
330
1
100
AcDbSymbolTableRecord
100
AcDbBlockTableRecord
  2
Nater
340
0
  0
BLOCK_RECORD
  5
123
330
1
100
AcDbSymbolTableRecord
100
AcDbBlockTableRecord
  2
Brus
340
0
  0
BLOCK_RECORD
  5
127
330
1
100
AcDbSymbolTableRecord
100
AcDbBlockTableRecord
  2
Elektroliticky lestit
340
0
  0
BLOCK_RECORD
  5
12B
330
1
100
AcDbSymbolTableRecord
100
AcDbBlockTableRecord
  2
Mořit de.
340
0
  0
BLOCK_RECORD
  5
12F
330
1
100
AcDbSymbolTableRecord
100
AcDbBlockTableRecord
  2
Žlab bez spádu De.
340
0
  0
BLOCK_RECORD
  5
133
330
1
100
AcDbSymbolTableRecord
100
AcDbBlockTableRecord
  2
Žlab bez spádu Ang.
340
0
  0
BLOCK_RECORD
  5
137
330
1
100
AcDbSymbolTableRecord
100
AcDbBlockTableRecord
  2
Aschl Nirotec-tryskání
340
0
  0
BLOCK_RECORD
  5
13B
330
1
100
AcDbSymbolTableRecord
100
AcDbBlockTableRecord
  2
Popis šrouby_kotvy Ang.
340
0
  0
BLOCK_RECORD
  5
13F
330
1
100
AcDbSymbolTableRecord
100
AcDbBlockTableRecord
  2
Spád žlabu Ang.
340
0
  0
BLOCK_RECORD
  5
143
330
1
100
AcDbSymbolTableRecord
100
AcDbBlockTableRecord
  2
Spád žlabu De.
340
0
  0
BLOCK_RECORD
  5
147
330
1
100
AcDbSymbolTableRecord
100
AcDbBlockTableRecord
  2
Kartáč + folie
340
0
  0
BLOCK_RECORD
  5
14B
330
1
100
AcDbSymbolTableRecord
100
AcDbBlockTableRecord
  2
Komplet tryskat De.
340
0
  0
BLOCK_RECORD
  5
14F
330
1
100
AcDbSymbolTableRecord
100
AcDbBlockTableRecord
  2
Mořit Ang.
340
0
  0
BLOCK_RECORD
  5
153
330
1
100
AcDbSymbolTableRecord
100
AcDbBlockTableRecord
  2
Rámečky Default Border
340
0
  0
BLOCK_RECORD
  5
1AA
330
1
100
AcDbSymbolTableRecord
100
AcDbBlockTableRecord
  2
Rohová razítka ACO-razitko
340
0
  0
BLOCK_RECORD
  5
63D
330
1
100
AcDbSymbolTableRecord
100
AcDbBlockTableRecord
  2
*D26
340
0
  0
BLOCK_RECORD
  5
71F
330
1
100
AcDbSymbolTableRecord
100
AcDbBlockTableRecord
  2
*D27
340
0
  0
BLOCK_RECORD
  5
7FB
330
1
100
AcDbSymbolTableRecord
100
AcDbBlockTableRecord
  2
*D28
340
0
  0
BLOCK_RECORD
  5
8D7
330
1
100
AcDbSymbolTableRecord
100
AcDbBlockTableRecord
  2
*D29
340
0
  0
BLOCK_RECORD
  5
9B5
330
1
100
AcDbSymbolTableRecord
100
AcDbBlockTableRecord
  2
*D30
340
0
  0
BLOCK_RECORD
  5
A8E
330
1
100
AcDbSymbolTableRecord
100
AcDbBlockTableRecord
  2
*D31
340
0
  0
BLOCK_RECORD
  5
B64
330
1
100
AcDbSymbolTableRecord
100
AcDbBlockTableRecord
  2
*D32
340
0
  0
BLOCK_RECORD
  5
C3A
330
1
100
AcDbSymbolTableRecord
100
AcDbBlockTableRecord
  2
*D33
340
0
  0
BLOCK_RECORD
  5
D14
330
1
100
AcDbSymbolTableRecord
100
AcDbBlockTableRecord
  2
KUSOVNÍK
340
0
  0
BLOCK_RECORD
  5
D79
330
1
100
AcDbSymbolTableRecord
100
AcDbBlockTableRecord
  2
Pozice1
340
0
  0
BLOCK_RECORD
  5
D8B
330
1
100
AcDbSymbolTableRecord
100
AcDbBlockTableRecord
  2
Pozice2
340
0
  0
BLOCK_RECORD
  5
D9D
330
1
100
AcDbSymbolTableRecord
100
AcDbBlockTableRecord
  2
Pozice3
340
0
  0
BLOCK_RECORD
  5
DB2
330
1
100
AcDbSymbolTableRecord
100
AcDbBlockTableRecord
  2
Pozice4
340
0
  0
BLOCK_RECORD
  5
DC4
330
1
100
AcDbSymbolTableRecord
100
AcDbBlockTableRecord
  2
Pozice5
340
0
  0
BLOCK_RECORD
  5
DD6
330
1
100
AcDbSymbolTableRecord
100
AcDbBlockTableRecord
  2
Pozice6
340
0
  0
BLOCK_RECORD
  5
DE8
330
1
100
AcDbSymbolTableRecord
100
AcDbBlockTableRecord
  2
Pozice7
340
0
  0
BLOCK_RECORD
  5
DFA
330
1
100
AcDbSymbolTableRecord
100
AcDbBlockTableRecord
  2
Pozice8
340
0
  0
BLOCK_RECORD
  5
EE2
330
1
100
AcDbSymbolTableRecord
100
AcDbBlockTableRecord
  2
GENAXEH
340
0
  0
BLOCK_RECORD
  5
EFC
330
1
100
AcDbSymbolTableRecord
100
AcDbBlockTableRecord
  2
*D44
340
0
  0
BLOCK_RECORD
  5
F08
330
1
100
AcDbSymbolTableRecord
100
AcDbBlockTableRecord
  2
*D45
340
0
  0
BLOCK_RECORD
  5
F14
330
1
100
AcDbSymbolTableRecord
100
AcDbBlockTableRecord
  2
*D46
340
0
  0
BLOCK_RECORD
  5
F20
330
1
100
AcDbSymbolTableRecord
100
AcDbBlockTableRecord
  2
*D47
340
0
  0
BLOCK_RECORD
  5
F2C
330
1
100
AcDbSymbolTableRecord
100
AcDbBlockTableRecord
  2
*D48
340
0
  0
BLOCK_RECORD
  5
F38
330
1
100
AcDbSymbolTableRecord
100
AcDbBlockTableRecord
  2
*D49
340
0
  0
BLOCK_RECORD
  5
18C3
330
1
100
AcDbSymbolTableRecord
100
AcDbBlockTableRecord
  2
*D50
340
0
  0
BLOCK_RECORD
  5
18CF
330
1
100
AcDbSymbolTableRecord
100
AcDbBlockTableRecord
  2
*D51
340
0
  0
BLOCK_RECORD
  5
18DB
330
1
100
AcDbSymbolTableRecord
100
AcDbBlockTableRecord
  2
*D52
340
0
  0
BLOCK_RECORD
  5
18E7
330
1
100
AcDbSymbolTableRecord
100
AcDbBlockTableRecord
  2
*D53
340
0
  0
BLOCK_RECORD
  5
18F3
330
1
100
AcDbSymbolTableRecord
100
AcDbBlockTableRecord
  2
*D54
340
0
  0
BLOCK_RECORD
  5
18FF
330
1
100
AcDbSymbolTableRecord
100
AcDbBlockTableRecord
  2
*D55
340
0
  0
BLOCK_RECORD
  5
1958
330
1
100
AcDbSymbolTableRecord
100
AcDbBlockTableRecord
  2
*D56
340
0
  0
BLOCK_RECORD
  5
1984
330
1
100
AcDbSymbolTableRecord
100
AcDbBlockTableRecord
  2
*D57
340
0
  0
BLOCK_RECORD
  5
19A6
330
1
100
AcDbSymbolTableRecord
100
AcDbBlockTableRecord
  2
*D58
340
0
  0
BLOCK_RECORD
  5
19C8
330
1
100
AcDbSymbolTableRecord
100
AcDbBlockTableRecord
  2
*D59
340
0
  0
BLOCK_RECORD
  5
19EA
330
1
100
AcDbSymbolTableRecord
100
AcDbBlockTableRecord
  2
*D60
340
0
  0
BLOCK_RECORD
  5
1A0C
330
1
100
AcDbSymbolTableRecord
100
AcDbBlockTableRecord
  2
*D61
340
0
  0
BLOCK_RECORD
  5
1AF9
330
1
100
AcDbSymbolTableRecord
100
AcDbBlockTableRecord
  2
*D62
340
0
  0
ENDTAB
  0
ENDSEC
  0
SECTION
  2
BLOCKS
  0
BLOCK
  5
6D
330
6C
100
AcDbEntity
  8
0
100
AcDbBlockBegin
  2
*Model_Space
 70
     0
 10
0.0
 20
0.0
 30
0.0
  3
*Model_Space
  1

  0
ENDBLK
  5
6E
330
6C
100
AcDbEntity
  8
0
100
AcDbBlockEnd
  0
BLOCK
  5
69
330
68
100
AcDbEntity
 67
     1
  8
0
100
AcDbBlockBegin
  2
*Paper_Space
 70
     0
 10
0.0
 20
0.0
 30
0.0
  3
*Paper_Space
  1

  0
ENDBLK
  5
6A
330
68
100
AcDbEntity
 67
     1
  8
0
100
AcDbBlockEnd
  0
BLOCK
  5
71
330
70
100
AcDbEntity
 67
     1
  8
0
100
AcDbBlockBegin
  2
*Paper_Space0
 70
     0
 10
0.0
 20
0.0
 30
0.0
  3
*Paper_Space0
  1

  0
ENDBLK
  5
72
330
70
100
AcDbEntity
 67
     1
  8
0
100
AcDbBlockEnd
  0
BLOCK
  5
99
330
98
100
AcDbEntity
  8
0
100
AcDbBlockBegin
  2
Filled-1
 70
     0
 10
0.0
 20
0.0
 30
0.0
  3
Filled-1
  1

  0
LINE
  5
9B
330
98
100
AcDbEntity
  8
0
 62
     0
100
AcDbLine
 10
-1.0
 20
0.0
 30
0.0
 11
0.0
 21
0.0
 31
0.0
  0
POLYLINE
  5
9D
330
98
100
AcDbEntity
  8
0
 62
     0
100
AcDb2dPolyline
 66
     1
 10
0.0
 20
0.0
 30
0.0
 70
   128
  0
VERTEX
  5
9E
330
9D
100
AcDbEntity
  8
0
 62
     0
100
AcDbVertex
100
AcDb2dVertex
 10
-1.0
 20
-0.1
 30
0.0
  0
VERTEX
  5
9F
330
9D
100
AcDbEntity
  8
0
 62
     0
100
AcDbVertex
100
AcDb2dVertex
 10
0.0
 20
0.0
 30
0.0
  0
VERTEX
  5
A1
330
9D
100
AcDbEntity
  8
0
 62
     0
100
AcDbVertex
100
AcDb2dVertex
 10
-1.0
 20
0.1
 30
0.0
  0
VERTEX
  5
A2
330
9D
100
AcDbEntity
  8
0
 62
     0
100
AcDbVertex
100
AcDb2dVertex
 10
-1.0
 20
-0.1
 30
0.0
  0
SEQEND
  5
A0
330
9D
100
AcDbEntity
  8
0
 62
     0
  0
SOLID
  5
A3
330
98
100
AcDbEntity
  8
0
 62
     0
100
AcDbTrace
 10
-1.0
 20
-0.1
 30
0.0
 11
0.0
 21
0.0
 31
0.0
 12
-1.0
 22
0.1
 32
0.0
 13
-1.0
 23
-0.1
 33
0.0
  0
LINE
  5
A4
330
98
100
AcDbEntity
  8
0
 62
     0
100
AcDbLine
 10
-1.0
 20
-0.1
 30
0.0
 11
0.0
 21
0.0
 31
0.0
  0
LINE
  5
A5
330
98
100
AcDbEntity
  8
0
 62
     0
100
AcDbLine
 10
0.0
 20
0.0
 30
0.0
 11
-1.0
 21
0.1
 31
0.0
  0
LINE
  5
A6
330
98
100
AcDbEntity
  8
0
 62
     0
100
AcDbLine
 10
-1.0
 20
0.1
 30
0.0
 11
-1.0
 21
-0.1
 31
0.0
  0
ENDBLK
  5
9A
330
98
100
AcDbEntity
  8
0
100
AcDbBlockEnd
  0
BLOCK
  5
B9
330
B4
100
AcDbEntity
  8
0
100
AcDbBlockBegin
  2
_Closed
 70
     0
 10
0.0
 20
0.0
 30
0.0
  3
_Closed
  1

  0
LINE
  5
B5
330
B4
100
AcDbEntity
  8
0
  6
ByBlock
 62
     0
370
    -2
100
AcDbLine
 10
-1.0
 20
0.1666666666666666
 30
0.0
 11
0.0
 21
0.0
 31
0.0
  0
LINE
  5
B6
330
B4
100
AcDbEntity
  8
0
  6
ByBlock
 62
     0
370
    -2
100
AcDbLine
 10
0.0
 20
0.0
 30
0.0
 11
-1.0
 21
-0.1666666666666666
 31
0.0
  0
LINE
  5
B7
330
B4
100
AcDbEntity
  8
0
  6
ByBlock
 62
     0
370
    -2
100
AcDbLine
 10
-1.0
 20
0.1666666666666666
 30
0.0
 11
-1.0
 21
-0.1666666666666666
 31
0.0
  0
LINE
  5
B8
330
B4
100
AcDbEntity
  8
0
  6
ByBlock
 62
     0
370
    -2
100
AcDbLine
 10
0.0
 20
0.0
 30
0.0
 11
-1.0
 21
0.0
 31
0.0
  0
ENDBLK
  5
BA
330
B4
100
AcDbEntity
  8
0
100
AcDbBlockEnd
  0
BLOCK
  5
BC
330
BB
100
AcDbEntity
  8
0
100
AcDbBlockBegin
  2
DatumFilled45
 70
     0
 10
0.0
 20
0.0
 30
0.0
  3
DatumFilled45
  1

  0
POLYLINE
  5
BE
330
BB
100
AcDbEntity
  8
0
 62
     0
100
AcDb2dPolyline
 66
     1
 10
0.0
 20
0.0
 30
0.0
 70
   128
  0
VERTEX
  5
BF
330
BE
100
AcDbEntity
  8
0
 62
     0
100
AcDbVertex
100
AcDb2dVertex
 10
0.0
 20
1.0
 30
0.0
  0
VERTEX
  5
C0
330
BE
100
AcDbEntity
  8
0
 62
     0
100
AcDbVertex
100
AcDb2dVertex
 10
0.0
 20
-1.0
 30
0.0
  0
VERTEX
  5
C2
330
BE
100
AcDbEntity
  8
0
 62
     0
100
AcDbVertex
100
AcDb2dVertex
 10
-1.0
 20
0.0
 30
0.0
  0
VERTEX
  5
C3
330
BE
100
AcDbEntity
  8
0
 62
     0
100
AcDbVertex
100
AcDb2dVertex
 10
0.0
 20
1.0
 30
0.0
  0
SEQEND
  5
C1
330
BE
100
AcDbEntity
  8
0
 62
     0
  0
SOLID
  5
C4
330
BB
100
AcDbEntity
  8
0
 62
     0
100
AcDbTrace
 10
0.0
 20
1.0
 30
0.0
 11
0.0
 21
-1.0
 31
0.0
 12
-1.0
 22
0.0
 32
0.0
 13
0.0
 23
1.0
 33
0.0
  0
ENDBLK
  5
BD
330
BB
100
AcDbEntity
  8
0
100
AcDbBlockEnd
  0
BLOCK
  5
C7
330
C6
100
AcDbEntity
  8
0
100
AcDbBlockBegin
  2
WIG-svarovani
 70
     0
 10
0.0
 20
0.0
 30
0.0
  3
WIG-svarovani
  1

  0
MTEXT
  5
C9
102
{ACAD_XDICTIONARY
360
1D64
102
}
330
C6
100
AcDbEntity
  8
Značka (ISO)
100
AcDbMText
 10
-57.87338256835937
 20
16.31795931607484
 30
0.0
 40
3.499999940395355
 41
115.7467651367187
 71
     1
 72
     1
  1
WIG Schweisung, Nahte sauber geschliffen und poliert\PSichtstege geschliffen mit 240 Korn und abgeklebt.\P{\H0.85714x; \P\H1.1667x;WIG svarovani- svary dle potreby zabrousit.\PPohledove plochy brousit (vel. brusnych zrn 240)\Pa polepit paskou}
  7
Text poznámky (ISO)
 73
     1
 44
0.9596589207649227
  0
ENDBLK
  5
C8
330
C6
100
AcDbEntity
  8
0
100
AcDbBlockEnd
  0
BLOCK
  5
CC
330
CB
100
AcDbEntity
  8
0
100
AcDbBlockBegin
  2
Popis kotvy_srouby
 70
     0
 10
0.0
 20
0.0
 30
0.0
  3
Popis kotvy_srouby
  1

  0
MTEXT
  5
CE
330
CB
100
AcDbEntity
  8
Značka (ISO)
100
AcDbMText
 10
-39.79761123657226
 20
21.84130281209946
 30
0.0
 40
3.499999940395355
 41
0.0
 71
     1
 72
     1
  1
Vzdalenost nivel. sroubu ca. 1500\PVzdalenost kotev ca. 400\PVzdalenost dist. koliku ca. 250\P\PAbstand der Nivellieschraben ca.1500\PAbstand der Maueranker ca.400\PAbstand der Distanzstege ca.250\P
  7
Text poznámky (ISO)
 73
     2
 44
0.9878841638565063
  0
ENDBLK
  5
CD
330
CB
100
AcDbEntity
  8
0
100
AcDbBlockEnd
  0
BLOCK
  5
D0
330
CF
100
AcDbEntity
  8
0
100
AcDbBlockBegin
  2
Mater. provedeni Art.
 70
     0
 10
0.0
 20
0.0
 30
0.0
  3
Mater. provedeni Art.
  1

  0
LINE
  5
D2
330
CF
100
AcDbEntity
  8
Geometrie náčrtu (ISO)
100
AcDbLine
 10
-35.0
 20
-22.5
 30
0.0
 11
35.0
 21
-22.5
 31
0.0
  0
LINE
  5
D3
330
CF
100
AcDbEntity
  8
Geometrie náčrtu (ISO)
100
AcDbLine
 10
35.0
 20
-22.5
 30
0.0
 11
34.99999999999996
 21
-13.49999999999998
 31
0.0
  0
LINE
  5
D4
330
CF
100
AcDbEntity
  8
Geometrie náčrtu (ISO)
100
AcDbLine
 10
34.99999999999996
 20
-13.49999999999998
 30
0.0
 11
-35.00000000000003
 21
-13.49999999999998
 31
0.0
  0
LINE
  5
D5
330
CF
100
AcDbEntity
  8
Geometrie náčrtu (ISO)
100
AcDbLine
 10
-35.00000000000003
 20
-13.49999999999998
 30
0.0
 11
-35.0
 21
-22.5
 31
0.0
  0
LINE
  5
D6
330
CF
100
AcDbEntity
  8
Geometrie náčrtu (ISO)
100
AcDbLine
 10
-35.00000000000003
 20
-13.49999999999998
 30
0.0
 11
34.99999999999996
 21
-13.49999999999998
 31
0.0
  0
LINE
  5
D7
330
CF
100
AcDbEntity
  8
Geometrie náčrtu (ISO)
100
AcDbLine
 10
34.99999999999996
 20
-13.49999999999998
 30
0.0
 11
34.99999999999996
 21
-4.499999999999992
 31
0.0
  0
LINE
  5
D8
330
CF
100
AcDbEntity
  8
Geometrie náčrtu (ISO)
100
AcDbLine
 10
34.99999999999996
 20
-4.499999999999992
 30
0.0
 11
-35.00000000000003
 21
-4.499999999999992
 31
0.0
  0
LINE
  5
D9
330
CF
100
AcDbEntity
  8
Geometrie náčrtu (ISO)
100
AcDbLine
 10
-35.00000000000003
 20
-4.499999999999992
 30
0.0
 11
-35.00000000000003
 21
-13.49999999999998
 31
0.0
  0
LINE
  5
DA
330
CF
100
AcDbEntity
  8
Geometrie náčrtu (ISO)
100
AcDbLine
 10
-35.00000000000003
 20
-4.499999999999992
 30
0.0
 11
34.99999999999996
 21
-4.499999999999992
 31
0.0
  0
LINE
  5
DB
330
CF
100
AcDbEntity
  8
Geometrie náčrtu (ISO)
100
AcDbLine
 10
34.99999999999996
 20
-4.499999999999992
 30
0.0
 11
34.99999999999996
 21
4.499999999999992
 31
0.0
  0
LINE
  5
DC
330
CF
100
AcDbEntity
  8
Geometrie náčrtu (ISO)
100
AcDbLine
 10
34.99999999999996
 20
4.499999999999992
 30
0.0
 11
-35.00000000000003
 21
4.499999999999992
 31
0.0
  0
LINE
  5
DD
330
CF
100
AcDbEntity
  8
Geometrie náčrtu (ISO)
100
AcDbLine
 10
-35.00000000000003
 20
4.499999999999992
 30
0.0
 11
-35.00000000000003
 21
-4.499999999999992
 31
0.0
  0
LINE
  5
DE
330
CF
100
AcDbEntity
  8
Geometrie náčrtu (ISO)
100
AcDbLine
 10
-35.00000000000003
 20
4.499999999999992
 30
0.0
 11
34.99999999999996
 21
4.499999999999992
 31
0.0
  0
LINE
  5
DF
330
CF
100
AcDbEntity
  8
Geometrie náčrtu (ISO)
100
AcDbLine
 10
34.99999999999996
 20
4.499999999999992
 30
0.0
 11
34.99999999999996
 21
13.50000000000001
 31
0.0
  0
LINE
  5
E0
330
CF
100
AcDbEntity
  8
Geometrie náčrtu (ISO)
100
AcDbLine
 10
34.99999999999996
 20
13.50000000000001
 30
0.0
 11
-35.00000000000003
 21
13.50000000000001
 31
0.0
  0
LINE
  5
E1
330
CF
100
AcDbEntity
  8
Geometrie náčrtu (ISO)
100
AcDbLine
 10
-35.00000000000003
 20
13.50000000000001
 30
0.0
 11
-35.00000000000003
 21
4.499999999999992
 31
0.0
  0
LINE
  5
E2
330
CF
100
AcDbEntity
  8
Geometrie náčrtu (ISO)
100
AcDbLine
 10
-35.00000000000003
 20
13.50000000000001
 30
0.0
 11
34.99999999999996
 21
13.50000000000001
 31
0.0
  0
LINE
  5
E3
330
CF
100
AcDbEntity
  8
Geometrie náčrtu (ISO)
100
AcDbLine
 10
34.99999999999996
 20
13.50000000000001
 30
0.0
 11
34.99999999999996
 21
22.5
 31
0.0
  0
LINE
  5
E4
330
CF
100
AcDbEntity
  8
Geometrie náčrtu (ISO)
100
AcDbLine
 10
34.99999999999996
 20
22.5
 30
0.0
 11
-35.00000000000003
 21
22.5
 31
0.0
  0
LINE
  5
E5
330
CF
100
AcDbEntity
  8
Geometrie náčrtu (ISO)
100
AcDbLine
 10
-35.00000000000003
 20
22.5
 30
0.0
 11
-35.00000000000003
 21
13.50000000000001
 31
0.0
  0
LINE
  5
E6
330
CF
100
AcDbEntity
  8
Geometrie náčrtu (ISO)
100
AcDbLine
 10
-6.999999999999992
 20
22.5
 30
0.0
 11
-6.999999999999992
 21
-22.5
 31
0.0
  0
MTEXT
  5
E7
330
CF
100
AcDbEntity
  8
Značka (ISO)
100
AcDbMText
 10
-5.126613448311374
 20
11.7684641726084
 30
0.0
 40
5.0
 41
0.0
 71
     1
 72
     1
  1
\fTahoma|b0|i0;\H5.0000;xxxxxxxxxxx
  7
Text poznámky (ISO)
 73
     1
 44
1.0
  0
MTEXT
  5
E8
330
CF
100
AcDbEntity
  8
Značka (ISO)
100
AcDbMText
 10
-33.0130165251342
 20
11.7684641726084
 30
0.0
 40
5.0
 41
20.42139291763306
 71
     1
 72
     1
  1
\fTahoma|b0|i0;\H5.0000;xxxxxx
  7
Text poznámky (ISO)
 73
     1
 44
1.0
  0
MTEXT
  5
E9
330
CF
100
AcDbEntity
  8
Značka (ISO)
100
AcDbMText
 10
-32.07756235018873
 20
20.30710993714994
 30
0.0
 40
5.0
 41
13.92583036716939
 71
     1
 72
     1
  1
\fTahoma|b0|i0;\H5.0000;Art.
  7
Text poznámky (ISO)
 73
     1
 44
1.0
  0
MTEXT
  5
EA
330
CF
100
AcDbEntity
  8
Značka (ISO)
100
AcDbMText
 10
4.291672002492318
 20
20.30710993714994
 30
0.0
 40
5.0
 41
0.0
 71
     1
 72
     1
  1
\fTahoma|b0|i0;\H5.0000;Mat.
  7
Text poznámky (ISO)
 73
     1
 44
1.0
  0
MTEXT
  5
EB
330
CF
100
AcDbEntity
  8
Značka (ISO)
100
AcDbMText
 10
-33.0130165251342
 20
2.473781856899818
 30
0.0
 40
5.0
 41
20.42139291763306
 71
     1
 72
     1
  1
\fTahoma|b0|i0;\H5.0000;xxxxxx
  7
Text poznámky (ISO)
 73
     1
 44
1.0
  0
MTEXT
  5
EC
330
CF
100
AcDbEntity
  8
Značka (ISO)
100
AcDbMText
 10
-5.126613448311374
 20
2.473781856899818
 30
0.0
 40
5.0
 41
0.0
 71
     1
 72
     1
  1
\fTahoma|b0|i0;\H5.0000;xxxxxxxxxxx
  7
Text poznámky (ISO)
 73
     1
 44
1.0
  0
MTEXT
  5
ED
330
CF
100
AcDbEntity
  8
Značka (ISO)
100
AcDbMText
 10
-33.0130165251342
 20
-6.862452441171491
 30
0.0
 40
5.0
 41
20.42139291763306
 71
     1
 72
     1
  1
\fTahoma|b0|i0;\H5.0000;xxxxxx
  7
Text poznámky (ISO)
 73
     1
 44
1.0
  0
MTEXT
  5
EE
330
CF
100
AcDbEntity
  8
Značka (ISO)
100
AcDbMText
 10
-5.126613448311374
 20
-6.862452441171491
 30
0.0
 40
5.0
 41
0.0
 71
     1
 72
     1
  1
\fTahoma|b0|i0;\H5.0000;xxxxxxxxxxx
  7
Text poznámky (ISO)
 73
     1
 44
1.0
  0
MTEXT
  5
EF
330
CF
100
AcDbEntity
  8
Značka (ISO)
100
AcDbMText
 10
-33.0130165251342
 20
-15.52177565039578
 30
0.0
 40
5.0
 41
20.42139291763306
 71
     1
 72
     1
  1
\fTahoma|b0|i0;\H5.0000;xxxxxx
  7
Text poznámky (ISO)
 73
     1
 44
1.0
  0
MTEXT
  5
F0
330
CF
100
AcDbEntity
  8
Značka (ISO)
100
AcDbMText
 10
-5.126613448311374
 20
-15.52177565039578
 30
0.0
 40
5.0
 41
0.0
 71
     1
 72
     1
  1
\fTahoma|b0|i0;\H5.0000;xxxxxxxxxxx
  7
Text poznámky (ISO)
 73
     1
 44
1.0
  0
ENDBLK
  5
D1
330
CF
100
AcDbEntity
  8
0
100
AcDbBlockEnd
  0
BLOCK
  5
F2
330
F1
100
AcDbEntity
  8
0
100
AcDbBlockBegin
  2
Art. s popisy
 70
     0
 10
0.0
 20
0.0
 30
0.0
  3
Art. s popisy
  1

  0
LINE
  5
F4
330
F1
100
AcDbEntity
  8
Geometrie náčrtu (ISO)
100
AcDbLine
 10
-60.00000000000081
 20
-22.5
 30
0.0
 11
59.99999999999911
 21
-22.5
 31
0.0
  0
LINE
  5
F5
330
F1
100
AcDbEntity
  8
Geometrie náčrtu (ISO)
100
AcDbLine
 10
59.99999999999911
 20
-22.5
 30
0.0
 11
60.00000000000081
 21
-13.50000000000001
 31
0.0
  0
LINE
  5
F6
330
F1
100
AcDbEntity
  8
Geometrie náčrtu (ISO)
100
AcDbLine
 10
60.00000000000081
 20
-13.50000000000001
 30
0.0
 11
-60.00000000000081
 21
-13.49999999999998
 31
0.0
  0
LINE
  5
F7
330
F1
100
AcDbEntity
  8
Geometrie náčrtu (ISO)
100
AcDbLine
 10
-60.00000000000081
 20
-13.49999999999998
 30
0.0
 11
-60.00000000000081
 21
-22.5
 31
0.0
  0
LINE
  5
F8
330
F1
100
AcDbEntity
  8
Geometrie náčrtu (ISO)
100
AcDbLine
 10
-60.00000000000081
 20
-13.49999999999998
 30
0.0
 11
60.00000000000081
 21
-13.50000000000001
 31
0.0
  0
LINE
  5
F9
330
F1
100
AcDbEntity
  8
Geometrie náčrtu (ISO)
100
AcDbLine
 10
60.00000000000081
 20
-13.50000000000001
 30
0.0
 11
59.99999999999911
 21
-4.500000000000028
 31
0.0
  0
LINE
  5
FA
330
F1
100
AcDbEntity
  8
Geometrie náčrtu (ISO)
100
AcDbLine
 10
59.99999999999911
 20
-4.500000000000028
 30
0.0
 11
-60.00000000000081
 21
-4.499999999999992
 31
0.0
  0
LINE
  5
FB
330
F1
100
AcDbEntity
  8
Geometrie náčrtu (ISO)
100
AcDbLine
 10
-60.00000000000081
 20
-4.499999999999992
 30
0.0
 11
-60.00000000000081
 21
-13.49999999999998
 31
0.0
  0
LINE
  5
FC
330
F1
100
AcDbEntity
  8
Geometrie náčrtu (ISO)
100
AcDbLine
 10
-60.00000000000081
 20
-4.499999999999992
 30
0.0
 11
59.99999999999911
 21
-4.500000000000028
 31
0.0
  0
LINE
  5
FD
330
F1
100
AcDbEntity
  8
Geometrie náčrtu (ISO)
100
AcDbLine
 10
59.99999999999911
 20
-4.500000000000028
 30
0.0
 11
59.99999999999911
 21
4.499999999999957
 31
0.0
  0
LINE
  5
FE
330
F1
100
AcDbEntity
  8
Geometrie náčrtu (ISO)
100
AcDbLine
 10
59.99999999999911
 20
4.499999999999957
 30
0.0
 11
-60.00000000000081
 21
4.499999999999992
 31
0.0
  0
LINE
  5
FF
330
F1
100
AcDbEntity
  8
Geometrie náčrtu (ISO)
100
AcDbLine
 10
-60.00000000000081
 20
4.499999999999992
 30
0.0
 11
-60.00000000000081
 21
-4.499999999999992
 31
0.0
  0
LINE
  5
100
330
F1
100
AcDbEntity
  8
Geometrie náčrtu (ISO)
100
AcDbLine
 10
-60.00000000000081
 20
4.499999999999992
 30
0.0
 11
59.99999999999911
 21
4.499999999999957
 31
0.0
  0
LINE
  5
101
330
F1
100
AcDbEntity
  8
Geometrie náčrtu (ISO)
100
AcDbLine
 10
59.99999999999911
 20
4.499999999999957
 30
0.0
 11
59.99999999999911
 21
13.49999999999998
 31
0.0
  0
LINE
  5
102
330
F1
100
AcDbEntity
  8
Geometrie náčrtu (ISO)
100
AcDbLine
 10
59.99999999999911
 20
13.49999999999998
 30
0.0
 11
-60.00000000000081
 21
13.50000000000001
 31
0.0
  0
LINE
  5
103
330
F1
100
AcDbEntity
  8
Geometrie náčrtu (ISO)
100
AcDbLine
 10
-60.00000000000081
 20
13.50000000000001
 30
0.0
 11
-60.00000000000081
 21
4.499999999999992
 31
0.0
  0
LINE
  5
104
330
F1
100
AcDbEntity
  8
Geometrie náčrtu (ISO)
100
AcDbLine
 10
-60.00000000000081
 20
13.50000000000001
 30
0.0
 11
59.99999999999911
 21
13.49999999999998
 31
0.0
  0
LINE
  5
105
330
F1
100
AcDbEntity
  8
Geometrie náčrtu (ISO)
100
AcDbLine
 10
59.99999999999911
 20
13.49999999999998
 30
0.0
 11
59.99999999999911
 21
22.49999999999996
 31
0.0
  0
LINE
  5
106
330
F1
100
AcDbEntity
  8
Geometrie náčrtu (ISO)
100
AcDbLine
 10
59.99999999999911
 20
22.49999999999996
 30
0.0
 11
-60.00000000000081
 21
22.5
 31
0.0
  0
LINE
  5
107
330
F1
100
AcDbEntity
  8
Geometrie náčrtu (ISO)
100
AcDbLine
 10
-60.00000000000081
 20
22.5
 30
0.0
 11
-60.00000000000081
 21
13.50000000000001
 31
0.0
  0
LINE
  5
108
330
F1
100
AcDbEntity
  8
Geometrie náčrtu (ISO)
100
AcDbLine
 10
-32.00000000000081
 20
22.5
 30
0.0
 11
-32.00000000000081
 21
-22.5
 31
0.0
  0
MTEXT
  5
109
330
F1
100
AcDbEntity
  8
Značka (ISO)
100
AcDbMText
 10
-27.63552601875791
 20
11.7684641726084
 30
0.0
 40
5.0
 41
0.0
 71
     1
 72
     1
  1
\fTahoma|b0|i0;\H5.0000;xxxxxxxxxxx
  7
Text poznámky (ISO)
 73
     1
 44
1.0
  0
MTEXT
  5
10A
330
F1
100
AcDbEntity
  8
Značka (ISO)
100
AcDbMText
 10
-55.52192909558073
 20
11.7684641726084
 30
0.0
 40
5.0
 41
20.42139291763306
 71
     1
 72
     1
  1
\fTahoma|b0|i0;\H5.0000;xxxxxx
  7
Text poznámky (ISO)
 73
     1
 44
1.0
  0
MTEXT
  5
10B
330
F1
100
AcDbEntity
  8
Značka (ISO)
100
AcDbMText
 10
-54.58647492063526
 20
20.30710993714994
 30
0.0
 40
5.0
 41
13.92583036716939
 71
     1
 72
     1
  1
\fTahoma|b0|i0;\H5.0000;Art.
  7
Text poznámky (ISO)
 73
     1
 44
1.0
  0
MTEXT
  5
10C
330
F1
100
AcDbEntity
  8
Značka (ISO)
100
AcDbMText
 10
-18.21724056795421
 20
20.30710993714994
 30
0.0
 40
5.0
 41
0.0
 71
     1
 72
     1
  1
\fTahoma|b0|i0;\H5.0000;Popis.
  7
Text poznámky (ISO)
 73
     1
 44
1.0
  0
MTEXT
  5
10D
330
F1
100
AcDbEntity
  8
Značka (ISO)
100
AcDbMText
 10
-55.52192909558073
 20
2.473781856899818
 30
0.0
 40
5.0
 41
20.42139291763306
 71
     1
 72
     1
  1
\fTahoma|b0|i0;\H5.0000;xxxxxx
  7
Text poznámky (ISO)
 73
     1
 44
1.0
  0
MTEXT
  5
10E
330
F1
100
AcDbEntity
  8
Značka (ISO)
100
AcDbMText
 10
-27.63552601875791
 20
2.473781856899818
 30
0.0
 40
5.0
 41
0.0
 71
     1
 72
     1
  1
\fTahoma|b0|i0;\H5.0000;xxxxxxxxxxx
  7
Text poznámky (ISO)
 73
     1
 44
1.0
  0
MTEXT
  5
10F
330
F1
100
AcDbEntity
  8
Značka (ISO)
100
AcDbMText
 10
-55.52192909558073
 20
-6.862452441171491
 30
0.0
 40
5.0
 41
20.42139291763306
 71
     1
 72
     1
  1
\fTahoma|b0|i0;\H5.0000;xxxxxx
  7
Text poznámky (ISO)
 73
     1
 44
1.0
  0
MTEXT
  5
110
330
F1
100
AcDbEntity
  8
Značka (ISO)
100
AcDbMText
 10
-27.63552601875791
 20
-6.862452441171491
 30
0.0
 40
5.0
 41
0.0
 71
     1
 72
     1
  1
\fTahoma|b0|i0;\H5.0000;xxxxxxxxxxx
  7
Text poznámky (ISO)
 73
     1
 44
1.0
  0
MTEXT
  5
111
330
F1
100
AcDbEntity
  8
Značka (ISO)
100
AcDbMText
 10
-55.52192909558073
 20
-15.52177565039578
 30
0.0
 40
5.0
 41
20.42139291763306
 71
     1
 72
     1
  1
\fTahoma|b0|i0;\H5.0000;xxxxxx
  7
Text poznámky (ISO)
 73
     1
 44
1.0
  0
MTEXT
  5
112
330
F1
100
AcDbEntity
  8
Značka (ISO)
100
AcDbMText
 10
-27.63552601875791
 20
-15.52177565039578
 30
0.0
 40
5.0
 41
0.0
 71
     1
 72
     1
  1
\fTahoma|b0|i0;\H5.0000;xxxxxxxxxxx
  7
Text poznámky (ISO)
 73
     1
 44
1.0
  0
ENDBLK
  5
F3
330
F1
100
AcDbEntity
  8
0
100
AcDbBlockEnd
  0
BLOCK
  5
114
330
113
100
AcDbEntity
  8
0
100
AcDbBlockBegin
  2
Tryskat
 70
     0
 10
0.0
 20
0.0
 30
0.0
  3
Tryskat
  1

  0
MTEXT
  5
116
330
113
100
AcDbEntity
  8
Značka (ISO)
100
AcDbMText
 10
-30.20239114761352
 20
5.036920197308063
 30
0.0
 40
3.499999940395355
 41
0.0
 71
     1
 72
     1
  1
Tryskat \P( Blasted , Glasperlstrahken)
  7
Text poznámky (ISO)
 73
     2
 44
0.9878841638565063
  0
ENDBLK
  5
115
330
113
100
AcDbEntity
  8
0
100
AcDbBlockEnd
  0
BLOCK
  5
118
330
117
100
AcDbEntity
  8
0
100
AcDbBlockBegin
  2
Morit
 70
     0
 10
0.0
 20
0.0
 30
0.0
  3
Morit
  1

  0
MTEXT
  5
11A
330
117
100
AcDbEntity
  8
Značka (ISO)
100
AcDbMText
 10
-19.08124089241028
 20
5.11633675545454
 30
0.0
 40
3.499999940395355
 41
0.0
 71
     1
 72
     1
  1
Morit a pasivovat\P(Pickled, gebeitzt)
  7
Text poznámky (ISO)
 73
     2
 44
0.9878841638565063
  0
ENDBLK
  5
119
330
117
100
AcDbEntity
  8
0
100
AcDbBlockEnd
  0
BLOCK
  5
11C
330
11B
100
AcDbEntity
  8
0
100
AcDbBlockBegin
  2
zinkovat
 70
     0
 10
0.0
 20
0.0
 30
0.0
  3
zinkovat
  1

  0
MTEXT
  5
11E
330
11B
100
AcDbEntity
  8
Značka (ISO)
100
AcDbMText
 10
-27.74189710617065
 20
5.049683563411233
 30
0.0
 40
3.499999940395355
 41
0.0
 71
     1
 72
     1
  1
Zarove zinkovat\P(hot galvanized, verzinkt )
  7
Text poznámky (ISO)
 73
     2
 44
0.9878841638565063
  0
ENDBLK
  5
11D
330
11B
100
AcDbEntity
  8
0
100
AcDbBlockEnd
  0
BLOCK
  5
120
330
11F
100
AcDbEntity
  8
0
100
AcDbBlockBegin
  2
Nater
 70
     0
 10
0.0
 20
0.0
 30
0.0
  3
Nater
  1

  0
MTEXT
  5
122
330
11F
100
AcDbEntity
  8
Značka (ISO)
100
AcDbMText
 10
-25.88411808013916
 20
1.864870421122757
 30
0.0
 40
3.499999940395355
 41
0.0
 71
     1
 72
     1
  1
Lackiert Farbe RAL 5002
  7
Text poznámky (ISO)
 73
     1
 44
1.0
  0
ENDBLK
  5
121
330
11F
100
AcDbEntity
  8
0
100
AcDbBlockEnd
  0
BLOCK
  5
124
330
123
100
AcDbEntity
  8
0
100
AcDbBlockBegin
  2
Brus
 70
     0
 10
0.0
 20
0.0
 30
0.0
  3
Brus
  1

  0
MTEXT
  5
126
330
123
100
AcDbEntity
  8
Značka (ISO)
100
AcDbMText
 10
-23.46616744995117
 20
5.11633675545454
 30
0.0
 40
3.499999940395355
 41
0.0
 71
     1
 72
     1
  1
Brousit\P(geburstet , brushed )
  7
Text poznámky (ISO)
 73
     2
 44
0.9878841638565063
  0
ENDBLK
  5
125
330
123
100
AcDbEntity
  8
0
100
AcDbBlockEnd
  0
BLOCK
  5
128
330
127
100
AcDbEntity
  8
0
100
AcDbBlockBegin
  2
Elektroliticky lestit
 70
     0
 10
0.0
 20
0.0
 30
0.0
  3
Elektroliticky lestit
  1

  0
MTEXT
  5
12A
330
127
100
AcDbEntity
  8
Značka (ISO)
100
AcDbMText
 10
-18.68841171264648
 20
5.036920197308063
 30
0.0
 40
3.499999940395355
 41
0.0
 71
     1
 72
     1
  1
Elektrolit. lestit\P(Elektropolished )
  7
Text poznámky (ISO)
 73
     2
 44
0.9878841638565063
  0
ENDBLK
  5
129
330
127
100
AcDbEntity
  8
0
100
AcDbBlockEnd
  0
BLOCK
  5
12C
330
12B
100
AcDbEntity
  8
0
100
AcDbBlockBegin
  2
Mořit de.
 70
     0
 10
0.0
 20
0.0
 30
0.0
  3
Mořit de.
  1

  0
MTEXT
  5
12E
102
{ACAD_XDICTIONARY
360
1DB0
102
}
330
12B
100
AcDbEntity
  8
Značka (ISO)
100
AcDbMText
 10
-21.33184909820557
 20
4.448386959265915
 30
0.0
 40
3.499999940395355
 41
0.0
 71
     1
 72
     1
  1
Mo\U+0159it a opl\U+00E1chnout\PBeizen und Pasiviert
  7
Text poznámky (ISO)
 73
     2
 44
0.9878841638565063
  0
ENDBLK
  5
12D
330
12B
100
AcDbEntity
  8
0
100
AcDbBlockEnd
  0
BLOCK
  5
130
330
12F
100
AcDbEntity
  8
0
100
AcDbBlockBegin
  2
Žlab bez spádu De.
 70
     0
 10
0.0
 20
0.0
 30
0.0
  3
Žlab bez spádu De.
  1

  0
MTEXT
  5
132
102
{ACAD_XDICTIONARY
360
1DB2
102
}
330
12F
100
AcDbEntity
  8
Značka (ISO)
100
AcDbMText
 10
-20.81989526748657
 20
4.01017793221399
 30
0.0
 40
3.499999940395355
 41
0.0
 71
     1
 72
     1
  1
\U+017Dlab bez sp\U+00E1du!\PRinne ohne Gef\U+00E4lle!
  7
Text poznámky (ISO)
 73
     2
 44
0.9878841638565063
  0
ENDBLK
  5
131
330
12F
100
AcDbEntity
  8
0
100
AcDbBlockEnd
  0
BLOCK
  5
134
330
133
100
AcDbEntity
  8
0
100
AcDbBlockBegin
  2
Žlab bez spádu Ang.
 70
     0
 10
0.0
 20
0.0
 30
0.0
  3
Žlab bez spádu Ang.
  1

  0
MTEXT
  5
136
102
{ACAD_XDICTIONARY
360
1DB4
102
}
330
133
100
AcDbEntity
  8
Značka (ISO)
100
AcDbMText
 10
-24.31422233581541
 20
4.456895925104618
 30
0.0
 40
3.499999940395355
 41
0.0
 71
     1
 72
     1
  1
\U+017Dlab bez sp\U+00E1du!\PChannel without slope!
  7
Text poznámky (ISO)
 73
     2
 44
0.9878841638565063
  0
ENDBLK
  5
135
330
133
100
AcDbEntity
  8
0
100
AcDbBlockEnd
  0
BLOCK
  5
138
330
137
100
AcDbEntity
  8
0
100
AcDbBlockBegin
  2
Aschl Nirotec-tryskání
 70
     0
 10
0.0
 20
0.0
 30
0.0
  3
Aschl Nirotec-tryskání
  1

  0
MTEXT
  5
13A
102
{ACAD_XDICTIONARY
360
1DB6
102
}
330
137
100
AcDbEntity
  8
Značka (ISO)
100
AcDbMText
 10
-58.85332584381103
 20
10.67052584141493
 30
0.0
 40
3.499999940395355
 41
0.0
 71
     1
 72
     1
  1
Povrchov\U+00E1 \U+00FAprava/Oberfl\U+00E4che:\PTryskat pouze vnit\U+0159ek \U+017Elabu, v\U+010Detn\U+011B pohledov\U+00FDch ploch!\PP\U+0159\U+00EDruby proti trysk\U+00E1n\U+00ED chr\U+00E1nit!\PFlansches per strahlung beh\U+00FCtent!
  7
Text poznámky (ISO)
 73
     2
 44
0.9878841638565063
  0
ENDBLK
  5
139
330
137
100
AcDbEntity
  8
0
100
AcDbBlockEnd
  0
BLOCK
  5
13C
330
13B
100
AcDbEntity
  8
0
100
AcDbBlockBegin
  2
Popis šrouby_kotvy Ang.
 70
     0
 10
0.0
 20
0.0
 30
0.0
  3
Popis šrouby_kotvy Ang.
  1

  0
MTEXT
  5
13E
102
{ACAD_XDICTIONARY
360
1DB8
102
}
330
13B
100
AcDbEntity
  8
Značka (ISO)
100
AcDbMText
 10
-62.9617118835449
 20
22.19584088772535
 30
0.0
 40
3.499999940395355
 41
0.0
 71
     1
 72
     1
  3
Vzd\U+00E1lenost nivela\U+010Dn\U+00EDch \U+0161roubu ca. 1500mm.\PVzd\U+00E1lenost kotev ca. 400mm.\PPohledov\U+00E9 plochy brousit(vel.brusn\U+00FDch zrn 240)\Pa polepit p\U+00E1skou.\P\PDistance of leveling feets ca. 1500 mm.\PDistance of fixing t
  1
angs ca. 400 mm.\PVisible surfaces to be grinded and covered by protectiv foil.
  7
Text poznámky (ISO)
 73
     2
 44
0.9878841638565063
  0
ENDBLK
  5
13D
330
13B
100
AcDbEntity
  8
0
100
AcDbBlockEnd
  0
BLOCK
  5
140
330
13F
100
AcDbEntity
  8
0
100
AcDbBlockBegin
  2
Spád žlabu Ang.
 70
     0
 10
0.0
 20
0.0
 30
0.0
  3
Spád žlabu Ang.
  1

  0
MTEXT
  5
142
102
{ACAD_XDICTIONARY
360
1DBA
102
}
330
13F
100
AcDbEntity
  8
Značka (ISO)
100
AcDbMText
 10
-61.18476867675779
 20
16.15664371056482
 30
0.0
 40
3.499999940395355
 41
0.0
 71
     1
 72
     1
  1
POZOR:\PSp\U+00E1d \U+017Elabu je men\U+0161\U+00ED ne\U+017E 1% - nebezpe\U+010D\U+00ED vzniku prohlubn\U+00ED\Pse stojatou vodou.\PAUTENTION:\PThe gradient of the bottom is minor then 1%.\PThat can be reason of slack water.
  7
Text poznámky (ISO)
 73
     2
 44
0.9878841638565063
  0
ENDBLK
  5
141
330
13F
100
AcDbEntity
  8
0
100
AcDbBlockEnd
  0
BLOCK
  5
144
330
143
100
AcDbEntity
  8
0
100
AcDbBlockBegin
  2
Spád žlabu De.
 70
     0
 10
0.0
 20
0.0
 30
0.0
  3
Spád žlabu De.
  1

  0
MTEXT
  5
146
102
{ACAD_XDICTIONARY
360
1DBC
102
}
330
143
100
AcDbEntity
  8
Značka (ISO)
100
AcDbMText
 10
-61.18476867675779
 20
16.61612506955862
 30
0.0
 40
3.499999940395355
 41
0.0
 71
     1
 72
     1
  1
POZOR:\PSp\U+00E1d \U+017Elabu je men\U+0161\U+00ED ne\U+017E 1% - nebezpe\U+010D\U+00ED vzniku prohlubn\U+00ED\Pse stojatou vodou.\PACHTUNG:\PDas Bodengef\U+00E4lle ist kleiner als 1%. Das Gefahr der\PSenkungsentstehung mit dem stehenden Wasser.
  7
Text poznámky (ISO)
 73
     2
 44
0.9878841638565063
  0
ENDBLK
  5
145
330
143
100
AcDbEntity
  8
0
100
AcDbBlockEnd
  0
BLOCK
  5
148
330
147
100
AcDbEntity
  8
0
100
AcDbBlockBegin
  2
Kartáč + folie
 70
     0
 10
0.0
 20
0.0
 30
0.0
  3
Kartáč + folie
  1

  0
MTEXT
  5
14A
102
{ACAD_XDICTIONARY
360
1DBE
102
}
330
147
100
AcDbEntity
  8
Značka (ISO)
100
AcDbMText
 10
-39.86001014709473
 20
4.448386959265915
 30
0.0
 40
3.499999940395355
 41
0.0
 71
     1
 72
     1
  1
Kart\U+00E1\U+010Dov\U+00E1no + folie\PGeburstet mit abziehbarer Schutzfolie
  7
Text poznámky (ISO)
 73
     2
 44
0.9878841638565063
  0
ENDBLK
  5
149
330
147
100
AcDbEntity
  8
0
100
AcDbBlockEnd
  0
BLOCK
  5
14C
330
14B
100
AcDbEntity
  8
0
100
AcDbBlockBegin
  2
Komplet tryskat De.
 70
     0
 10
0.0
 20
0.0
 30
0.0
  3
Komplet tryskat De.
  1

  0
MTEXT
  5
14E
330
14B
100
AcDbEntity
  8
Značka (ISO)
100
AcDbMText
 10
-37.33711719512939
 20
7.475785464048382
 30
0.0
 40
3.499999940395355
 41
0.0
 71
     1
 72
     1
  1
KOMPLETT GLASPER GESTRAHLT !\PKOMPLET ZHORA TRYSKAT ! \P
  7
Text poznámky (ISO)
 73
     2
 44
0.9878841638565063
  0
ENDBLK
  5
14D
330
14B
100
AcDbEntity
  8
0
100
AcDbBlockEnd
  0
BLOCK
  5
150
330
14F
100
AcDbEntity
  8
0
100
AcDbBlockBegin
  2
Mořit Ang.
 70
     0
 10
0.0
 20
0.0
 30
0.0
  3
Mořit Ang.
  1

  0
MTEXT
  5
152
102
{ACAD_XDICTIONARY
360
1DC0
102
}
330
14F
100
AcDbEntity
  8
Značka (ISO)
100
AcDbMText
 10
-19.84846115112304
 20
4.448386959265915
 30
0.0
 40
3.499999940395355
 41
0.0
 71
     1
 72
     1
  1
Mo\U+0159it a opl\U+00E1chnout\PPickled and wash
  7
Text poznámky (ISO)
 73
     2
 44
0.9878841638565063
  0
ENDBLK
  5
151
330
14F
100
AcDbEntity
  8
0
100
AcDbBlockEnd
  0
BLOCK
  5
154
330
153
100
AcDbEntity
  8
0
100
AcDbBlockBegin
  2
Rámečky Default Border
 70
     0
 10
0.0
 20
0.0
 30
0.0
  3
Rámečky Default Border
  1

  0
POLYLINE
  5
156
330
153
100
AcDbEntity
  8
Rámeček (ISO)
100
AcDb2dPolyline
 66
     1
 10
0.0
 20
0.0
 30
0.0
 70
   128
  0
VERTEX
  5
157
330
156
100
AcDbEntity
  8
Rámeček (ISO)
100
AcDbVertex
100
AcDb2dVertex
 10
10.0
 20
10.0
 30
0.0
  0
VERTEX
  5
158
330
156
100
AcDbEntity
  8
Rámeček (ISO)
100
AcDbVertex
100
AcDb2dVertex
 10
10.0
 20
410.0
 30
0.0
  0
VERTEX
  5
15A
330
156
100
AcDbEntity
  8
Rámeček (ISO)
100
AcDbVertex
100
AcDb2dVertex
 10
584.0000152587889
 20
410.0
 30
0.0
  0
VERTEX
  5
15B
330
156
100
AcDbEntity
  8
Rámeček (ISO)
100
AcDbVertex
100
AcDb2dVertex
 10
584.0000152587889
 20
10.0
 30
0.0
  0
VERTEX
  5
15C
330
156
100
AcDbEntity
  8
Rámeček (ISO)
100
AcDbVertex
100
AcDb2dVertex
 10
10.0
 20
10.0
 30
0.0
  0
SEQEND
  5
159
330
156
100
AcDbEntity
  8
Rámeček (ISO)
  0
POLYLINE
  5
15D
330
153
100
AcDbEntity
  8
Rámeček (ISO)
100
AcDb2dPolyline
 66
     1
 10
0.0
 20
0.0
 30
0.0
 70
   128
  0
VERTEX
  5
15E
330
15D
100
AcDbEntity
  8
Rámeček (ISO)
100
AcDbVertex
100
AcDb2dVertex
 10
297.0000076293946
 20
0.0
 30
0.0
  0
VERTEX
  5
15F
330
15D
100
AcDbEntity
  8
Rámeček (ISO)
100
AcDbVertex
100
AcDb2dVertex
 10
297.0000076293946
 20
10.0
 30
0.0
  0
VERTEX
  5
161
330
15D
100
AcDbEntity
  8
Rámeček (ISO)
100
AcDbVertex
100
AcDb2dVertex
 10
294.1132545471191
 20
5.0
 30
0.0
  0
VERTEX
  5
162
330
15D
100
AcDbEntity
  8
Rámeček (ISO)
100
AcDbVertex
100
AcDb2dVertex
 10
299.8867607116699
 20
5.0
 30
0.0
  0
VERTEX
  5
163
330
15D
100
AcDbEntity
  8
Rámeček (ISO)
100
AcDbVertex
100
AcDb2dVertex
 10
297.0000076293946
 20
10.0
 30
0.0
  0
SEQEND
  5
160
330
15D
100
AcDbEntity
  8
Rámeček (ISO)
  0
POLYLINE
  5
164
330
153
100
AcDbEntity
  8
Rámeček (ISO)
100
AcDb2dPolyline
 66
     1
 10
0.0
 20
0.0
 30
0.0
 70
   128
  0
VERTEX
  5
165
330
164
100
AcDbEntity
  8
Rámeček (ISO)
100
AcDbVertex
100
AcDb2dVertex
 10
297.0000076293946
 20
420.0
 30
0.0
  0
VERTEX
  5
166
330
164
100
AcDbEntity
  8
Rámeček (ISO)
100
AcDbVertex
100
AcDb2dVertex
 10
297.0000076293946
 20
410.0
 30
0.0
  0
VERTEX
  5
168
330
164
100
AcDbEntity
  8
Rámeček (ISO)
100
AcDbVertex
100
AcDb2dVertex
 10
294.1132545471191
 20
415.0
 30
0.0
  0
VERTEX
  5
169
330
164
100
AcDbEntity
  8
Rámeček (ISO)
100
AcDbVertex
100
AcDb2dVertex
 10
299.8867607116699
 20
415.0
 30
0.0
  0
VERTEX
  5
16A
330
164
100
AcDbEntity
  8
Rámeček (ISO)
100
AcDbVertex
100
AcDb2dVertex
 10
297.0000076293946
 20
410.0
 30
0.0
  0
SEQEND
  5
167
330
164
100
AcDbEntity
  8
Rámeček (ISO)
  0
POLYLINE
  5
16B
330
153
100
AcDbEntity
  8
Rámeček (ISO)
100
AcDb2dPolyline
 66
     1
 10
0.0
 20
0.0
 30
0.0
 70
   128
  0
VERTEX
  5
16C
330
16B
100
AcDbEntity
  8
Rámeček (ISO)
100
AcDbVertex
100
AcDb2dVertex
 10
0.0
 20
210.0
 30
0.0
  0
VERTEX
  5
16D
330
16B
100
AcDbEntity
  8
Rámeček (ISO)
100
AcDbVertex
100
AcDb2dVertex
 10
10.0
 20
210.0
 30
0.0
  0
VERTEX
  5
16F
330
16B
100
AcDbEntity
  8
Rámeček (ISO)
100
AcDbVertex
100
AcDb2dVertex
 10
5.0
 20
212.8867530822754
 30
0.0
  0
VERTEX
  5
170
330
16B
100
AcDbEntity
  8
Rámeček (ISO)
100
AcDbVertex
100
AcDb2dVertex
 10
5.0
 20
207.1132469177246
 30
0.0
  0
VERTEX
  5
171
330
16B
100
AcDbEntity
  8
Rámeček (ISO)
100
AcDbVertex
100
AcDb2dVertex
 10
10.0
 20
210.0
 30
0.0
  0
SEQEND
  5
16E
330
16B
100
AcDbEntity
  8
Rámeček (ISO)
  0
POLYLINE
  5
172
330
153
100
AcDbEntity
  8
Rámeček (ISO)
100
AcDb2dPolyline
 66
     1
 10
0.0
 20
0.0
 30
0.0
 70
   128
  0
VERTEX
  5
173
330
172
100
AcDbEntity
  8
Rámeček (ISO)
100
AcDbVertex
100
AcDb2dVertex
 10
594.0000152587892
 20
210.0
 30
0.0
  0
VERTEX
  5
174
330
172
100
AcDbEntity
  8
Rámeček (ISO)
100
AcDbVertex
100
AcDb2dVertex
 10
584.0000152587889
 20
210.0
 30
0.0
  0
VERTEX
  5
176
330
172
100
AcDbEntity
  8
Rámeček (ISO)
100
AcDbVertex
100
AcDb2dVertex
 10
589.0000152587889
 20
212.8867530822754
 30
0.0
  0
VERTEX
  5
177
330
172
100
AcDbEntity
  8
Rámeček (ISO)
100
AcDbVertex
100
AcDb2dVertex
 10
589.0000152587889
 20
207.1132469177246
 30
0.0
  0
VERTEX
  5
178
330
172
100
AcDbEntity
  8
Rámeček (ISO)
100
AcDbVertex
100
AcDb2dVertex
 10
584.0000152587889
 20
210.0
 30
0.0
  0
SEQEND
  5
175
330
172
100
AcDbEntity
  8
Rámeček (ISO)
  0
LINE
  5
179
330
153
100
AcDbEntity
  8
Rámeček (ISO)
100
AcDbLine
 10
74.25000190734862
 20
10.0
 30
0.0
 11
74.25000190734862
 21
6.100000143051147
 31
0.0
  0
LINE
  5
17A
330
153
100
AcDbEntity
  8
Rámeček (ISO)
100
AcDbLine
 10
74.25000190734862
 20
410.0
 30
0.0
 11
74.25000190734862
 21
413.8999938964841
 31
0.0
  0
LINE
  5
17B
330
153
100
AcDbEntity
  8
Rámeček (ISO)
100
AcDbLine
 10
148.5000038146973
 20
10.0
 30
0.0
 11
148.5000038146973
 21
6.100000143051147
 31
0.0
  0
LINE
  5
17C
330
153
100
AcDbEntity
  8
Rámeček (ISO)
100
AcDbLine
 10
148.5000038146973
 20
410.0
 30
0.0
 11
148.5000038146973
 21
413.8999938964841
 31
0.0
  0
LINE
  5
17D
330
153
100
AcDbEntity
  8
Rámeček (ISO)
100
AcDbLine
 10
222.7499961853027
 20
10.0
 30
0.0
 11
222.7499961853027
 21
6.100000143051147
 31
0.0
  0
LINE
  5
17E
330
153
100
AcDbEntity
  8
Rámeček (ISO)
100
AcDbLine
 10
222.7499961853027
 20
410.0
 30
0.0
 11
222.7499961853027
 21
413.8999938964841
 31
0.0
  0
LINE
  5
17F
330
153
100
AcDbEntity
  8
Rámeček (ISO)
100
AcDbLine
 10
371.25
 20
10.0
 30
0.0
 11
371.25
 21
6.100000143051147
 31
0.0
  0
LINE
  5
180
330
153
100
AcDbEntity
  8
Rámeček (ISO)
100
AcDbLine
 10
371.25
 20
410.0
 30
0.0
 11
371.25
 21
413.8999938964841
 31
0.0
  0
LINE
  5
181
330
153
100
AcDbEntity
  8
Rámeček (ISO)
100
AcDbLine
 10
445.4999923706052
 20
10.0
 30
0.0
 11
445.4999923706052
 21
6.100000143051147
 31
0.0
  0
LINE
  5
182
330
153
100
AcDbEntity
  8
Rámeček (ISO)
100
AcDbLine
 10
445.4999923706052
 20
410.0
 30
0.0
 11
445.4999923706052
 21
413.8999938964841
 31
0.0
  0
LINE
  5
183
330
153
100
AcDbEntity
  8
Rámeček (ISO)
100
AcDbLine
 10
519.7499847412108
 20
10.0
 30
0.0
 11
519.7499847412108
 21
6.100000143051147
 31
0.0
  0
LINE
  5
184
330
153
100
AcDbEntity
  8
Rámeček (ISO)
100
AcDbLine
 10
519.7499847412108
 20
410.0
 30
0.0
 11
519.7499847412108
 21
413.8999938964841
 31
0.0
  0
MTEXT
  5
185
330
153
100
AcDbEntity
  8
Rámeček (ISO)
100
AcDbMText
 10
556.0853922448459
 20
410.4
 30
0.0
 40
3.499999940395355
 41
0.0
 71
     7
 72
     1
  1
1
  7
Text poznámky (ISO)
 73
     1
 44
1.0
  0
MTEXT
  5
186
330
153
100
AcDbEntity
  8
Rámeček (ISO)
100
AcDbMText
 10
556.0853922448459
 20
6.100000059604642
 30
0.0
 40
3.499999940395355
 41
0.0
 71
     7
 72
     1
  1
1
  7
Text poznámky (ISO)
 73
     1
 44
1.0
  0
MTEXT
  5
187
330
153
100
AcDbEntity
  8
Rámeček (ISO)
100
AcDbMText
 10
481.5637915541735
 20
410.4
 30
0.0
 40
3.499999940395355
 41
0.0
 71
     7
 72
     1
  1
2
  7
Text poznámky (ISO)
 73
     1
 44
1.0
  0
MTEXT
  5
188
330
153
100
AcDbEntity
  8
Rámeček (ISO)
100
AcDbMText
 10
481.5637915541735
 20
6.100000059604642
 30
0.0
 40
3.499999940395355
 41
0.0
 71
     7
 72
     1
  1
2
  7
Text poznámky (ISO)
 73
     1
 44
1.0
  0
MTEXT
  5
189
330
153
100
AcDbEntity
  8
Rámeček (ISO)
100
AcDbMText
 10
407.2857914829701
 20
410.3262560764327
 30
0.0
 40
3.499999940395355
 41
0.0
 71
     7
 72
     1
  1
3
  7
Text poznámky (ISO)
 73
     1
 44
1.0
  0
MTEXT
  5
18A
330
153
100
AcDbEntity
  8
Rámeček (ISO)
100
AcDbMText
 10
407.2857914829701
 20
6.026256136037407
 30
0.0
 40
3.499999940395355
 41
0.0
 71
     7
 72
     1
  1
3
  7
Text poznámky (ISO)
 73
     1
 44
1.0
  0
MTEXT
  5
18B
330
153
100
AcDbEntity
  8
Rámeček (ISO)
100
AcDbMText
 10
332.9041911483145
 20
410.4
 30
0.0
 40
3.499999940395355
 41
0.0
 71
     7
 72
     1
  1
4
  7
Text poznámky (ISO)
 73
     1
 44
1.0
  0
MTEXT
  5
18C
330
153
100
AcDbEntity
  8
Rámeček (ISO)
100
AcDbMText
 10
332.9041911483145
 20
6.100000059604642
 30
0.0
 40
3.499999940395355
 41
0.0
 71
     7
 72
     1
  1
4
  7
Text poznámky (ISO)
 73
     1
 44
1.0
  0
MTEXT
  5
18D
330
153
100
AcDbEntity
  8
Rámeček (ISO)
100
AcDbMText
 10
258.8501916467381
 20
410.3262560764327
 30
0.0
 40
3.499999940395355
 41
0.0
 71
     7
 72
     1
  1
5
  7
Text poznámky (ISO)
 73
     1
 44
1.0
  0
MTEXT
  5
18E
330
153
100
AcDbEntity
  8
Rámeček (ISO)
100
AcDbMText
 10
258.8501916467381
 20
6.026256136037407
 30
0.0
 40
3.499999940395355
 41
0.0
 71
     7
 72
     1
  1
5
  7
Text poznámky (ISO)
 73
     1
 44
1.0
  0
MTEXT
  5
18F
330
153
100
AcDbEntity
  8
Rámeček (ISO)
100
AcDbMText
 10
184.5077914117669
 20
410.3262560764327
 30
0.0
 40
3.499999940395355
 41
0.0
 71
     7
 72
     1
  1
6
  7
Text poznámky (ISO)
 73
     1
 44
1.0
  0
MTEXT
  5
190
330
153
100
AcDbEntity
  8
Rámeček (ISO)
100
AcDbMText
 10
184.5077914117669
 20
6.026256136037407
 30
0.0
 40
3.499999940395355
 41
0.0
 71
     7
 72
     1
  1
6
  7
Text poznámky (ISO)
 73
     1
 44
1.0
  0
MTEXT
  5
191
330
153
100
AcDbEntity
  8
Rámeček (ISO)
100
AcDbMText
 10
110.2913914972109
 20
410.4
 30
0.0
 40
3.499999940395355
 41
0.0
 71
     7
 72
     1
  1
7
  7
Text poznámky (ISO)
 73
     1
 44
1.0
  0
MTEXT
  5
192
330
153
100
AcDbEntity
  8
Rámeček (ISO)
100
AcDbMText
 10
110.2913914972109
 20
6.100000059604642
 30
0.0
 40
3.499999940395355
 41
0.0
 71
     7
 72
     1
  1
7
  7
Text poznámky (ISO)
 73
     1
 44
1.0
  0
MTEXT
  5
193
330
153
100
AcDbEntity
  8
Rámeček (ISO)
100
AcDbMText
 10
35.9825913476839
 20
410.3205834697932
 30
0.0
 40
3.499999940395355
 41
0.0
 71
     7
 72
     1
  1
8
  7
Text poznámky (ISO)
 73
     1
 44
1.0
  0
MTEXT
  5
194
330
153
100
AcDbEntity
  8
Rámeček (ISO)
100
AcDbMText
 10
35.9825913476839
 20
6.020583529397844
 30
0.0
 40
3.499999940395355
 41
0.0
 71
     7
 72
     1
  1
8
  7
Text poznámky (ISO)
 73
     1
 44
1.0
  0
LINE
  5
195
330
153
100
AcDbEntity
  8
Rámeček (ISO)
100
AcDbLine
 10
10.0
 20
70.0
 30
0.0
 11
6.100000143051147
 21
70.0
 31
0.0
  0
LINE
  5
196
330
153
100
AcDbEntity
  8
Rámeček (ISO)
100
AcDbLine
 10
584.0000152587889
 20
70.0
 30
0.0
 11
587.9000091552732
 21
70.0
 31
0.0
  0
LINE
  5
197
330
153
100
AcDbEntity
  8
Rámeček (ISO)
100
AcDbLine
 10
10.0
 20
140.0
 30
0.0
 11
6.100000143051147
 21
140.0
 31
0.0
  0
LINE
  5
198
330
153
100
AcDbEntity
  8
Rámeček (ISO)
100
AcDbLine
 10
584.0000152587889
 20
140.0
 30
0.0
 11
587.9000091552732
 21
140.0
 31
0.0
  0
LINE
  5
199
330
153
100
AcDbEntity
  8
Rámeček (ISO)
100
AcDbLine
 10
10.0
 20
280.0
 30
0.0
 11
6.100000143051147
 21
280.0
 31
0.0
  0
LINE
  5
19A
330
153
100
AcDbEntity
  8
Rámeček (ISO)
100
AcDbLine
 10
584.0000152587889
 20
280.0
 30
0.0
 11
587.9000091552732
 21
280.0
 31
0.0
  0
LINE
  5
19B
330
153
100
AcDbEntity
  8
Rámeček (ISO)
100
AcDbLine
 10
10.0
 20
350.0
 30
0.0
 11
6.100000143051147
 21
350.0
 31
0.0
  0
LINE
  5
19C
330
153
100
AcDbEntity
  8
Rámeček (ISO)
100
AcDbLine
 10
584.0000152587889
 20
350.0
 30
0.0
 11
587.9000091552732
 21
350.0
 31
0.0
  0
MTEXT
  5
19D
330
153
100
AcDbEntity
  8
Rámeček (ISO)
100
AcDbMText
 10
6.361230343933396
 20
33.25000002980232
 30
0.0
 40
3.499999940395355
 41
0.0
 71
     7
 72
     1
  1
A
  7
Text poznámky (ISO)
 73
     1
 44
1.0
  0
MTEXT
  5
19E
330
153
100
AcDbEntity
  8
Rámeček (ISO)
100
AcDbMText
 10
584.6612302843287
 20
33.25000002980232
 30
0.0
 40
3.499999940395355
 41
0.0
 71
     7
 72
     1
  1
A
  7
Text poznámky (ISO)
 73
     1
 44
1.0
  0
MTEXT
  5
19F
330
153
100
AcDbEntity
  8
Rámeček (ISO)
100
AcDbMText
 10
6.781848468328937
 20
103.2500000298023
 30
0.0
 40
3.499999940395355
 41
0.0
 71
     7
 72
     1
  1
B
  7
Text poznámky (ISO)
 73
     1
 44
1.0
  0
MTEXT
  5
1A0
330
153
100
AcDbEntity
  8
Rámeček (ISO)
100
AcDbMText
 10
585.0818484087242
 20
103.2500000298023
 30
0.0
 40
3.499999940395355
 41
0.0
 71
     7
 72
     1
  1
B
  7
Text poznámky (ISO)
 73
     1
 44
1.0
  0
MTEXT
  5
1A1
330
153
100
AcDbEntity
  8
Rámeček (ISO)
100
AcDbMText
 10
6.558903094188357
 20
173.1876013241708
 30
0.0
 40
3.499999940395355
 41
0.0
 71
     7
 72
     1
  1
C
  7
Text poznámky (ISO)
 73
     1
 44
1.0
  0
MTEXT
  5
1A2
330
153
100
AcDbEntity
  8
Rámeček (ISO)
100
AcDbMText
 10
584.8589030345837
 20
173.1876013241708
 30
0.0
 40
3.499999940395355
 41
0.0
 71
     7
 72
     1
  1
C
  7
Text poznámky (ISO)
 73
     1
 44
1.0
  0
MTEXT
  5
1A3
330
153
100
AcDbEntity
  8
Rámeček (ISO)
100
AcDbMText
 10
6.56770745709084
 20
243.2500000298023
 30
0.0
 40
3.499999940395355
 41
0.0
 71
     7
 72
     1
  1
D
  7
Text poznámky (ISO)
 73
     1
 44
1.0
  0
MTEXT
  5
1A4
330
153
100
AcDbEntity
  8
Rámeček (ISO)
100
AcDbMText
 10
584.8677073974861
 20
243.2500000298023
 30
0.0
 40
3.499999940395355
 41
0.0
 71
     7
 72
     1
  1
D
  7
Text poznámky (ISO)
 73
     1
 44
1.0
  0
MTEXT
  5
1A5
330
153
100
AcDbEntity
  8
Rámeček (ISO)
100
AcDbMText
 10
6.849919803883061
 20
313.2500000298023
 30
0.0
 40
3.499999940395355
 41
0.0
 71
     7
 72
     1
  1
E
  7
Text poznámky (ISO)
 73
     1
 44
1.0
  0
MTEXT
  5
1A6
330
153
100
AcDbEntity
  8
Rámeček (ISO)
100
AcDbMText
 10
585.1499197442782
 20
313.2500000298023
 30
0.0
 40
3.499999940395355
 41
0.0
 71
     7
 72
     1
  1
E
  7
Text poznámky (ISO)
 73
     1
 44
1.0
  0
MTEXT
  5
1A7
330
153
100
AcDbEntity
  8
Rámeček (ISO)
100
AcDbMText
 10
6.944936015154347
 20
383.2500000298023
 30
0.0
 40
3.499999940395355
 41
0.0
 71
     7
 72
     1
  1
F
  7
Text poznámky (ISO)
 73
     1
 44
1.0
  0
MTEXT
  5
1A8
330
153
100
AcDbEntity
  8
Rámeček (ISO)
100
AcDbMText
 10
585.2449359555496
 20
383.2500000298023
 30
0.0
 40
3.499999940395355
 41
0.0
 71
     7
 72
     1
  1
F
  7
Text poznámky (ISO)
 73
     1
 44
1.0
  0
ENDBLK
  5
155
330
153
100
AcDbEntity
  8
0
100
AcDbBlockEnd
  0
BLOCK
  5
1AB
330
1AA
100
AcDbEntity
  8
0
100
AcDbBlockBegin
  2
Rohová razítka ACO-razitko
 70
     2
 10
0.0
 20
0.0
 30
0.0
  3
Rohová razítka ACO-razitko
  1

  0
LINE
  5
1AD
330
1AA
100
AcDbEntity
  8
KOPF
  6
Continuous
370
    25
100
AcDbLine
 10
264.0
 20
94.01203200000001
 30
0.0
 11
264.0
 21
74.00000000000003
 31
0.0
  0
LINE
  5
1AE
330
1AA
100
AcDbEntity
  8
KOPF
  6
Continuous
370
    25
100
AcDbLine
 10
264.0
 20
94.01203200000001
 30
0.0
 11
264.0
 21
74.00000000000003
 31
0.0
  0
CIRCLE
  5
1AF
330
1AA
100
AcDbEntity
  8
TEXT50
  6
Continuous
370
    25
100
AcDbCircle
 10
247.5054493575618
 20
83.04852954632861
 30
0.0
 40
1.979948192651899
  0
LINE
  5
1B0
330
1AA
100
AcDbEntity
  8
TEXT50
  6
Continuous
370
    25
100
AcDbLine
 10
262.4910595621649
 20
85.02847773898061
 30
0.0
 11
262.4910595621649
 21
81.06858135367653
 31
0.0
  0
LINE
  5
1B1
330
1AA
100
AcDbEntity
  8
TEXT50
  6
Continuous
370
    25
100
AcDbLine
 10
253.9413433929653
 20
87.07146289795376
 30
0.0
 11
253.9413433929653
 21
79.02559619470344
 31
0.0
  0
LINE
  5
1B2
330
1AA
100
AcDbEntity
  8
TEXT50
  6
Continuous
370
    25
100
AcDbLine
 10
262.4910595621649
 20
85.02847773898061
 30
0.0
 11
253.9413433929653
 21
87.07146289795376
 31
0.0
  0
CIRCLE
  5
1B3
330
1AA
100
AcDbEntity
  8
TEXT50
  6
Continuous
370
    25
100
AcDbCircle
 10
247.5054493575618
 20
83.04852954632861
 30
0.0
 40
4.022933351625178
  0
LINE
  5
1B4
330
1AA
100
AcDbEntity
  8
TEXT50
  6
Continuous
370
    25
100
AcDbLine
 10
253.9413433929653
 20
79.02559619470344
 30
0.0
 11
262.4910595621649
 21
81.06858135367653
 31
0.0
  0
CIRCLE
  5
1B5
330
1AA
100
AcDbEntity
  8
TEXT35
  6
Continuous
370
    25
100
AcDbCircle
 10
221.0936673107637
 20
101.9131972309053
 30
0.0
 40
2.281499999999998
  0
CIRCLE
  5
1B6
330
1AA
100
AcDbEntity
  8
TEXT35
  6
Continuous
370
    25
100
AcDbCircle
 10
221.0936673107637
 20
101.9131972309053
 30
0.0
 40
1.579499999999999
  0
ARC
  5
1B7
330
1AA
100
AcDbEntity
  8
TEXT35
  6
Continuous
370
    25
100
AcDbCircle
 10
214.6291610736662
 20
101.9131972309054
 30
0.0
 40
1.57950000000007
100
AcDbArc
 50
31.05580049908738
 51
329.9999999999987
  0
LINE
  5
1B8
330
1AA
100
AcDbEntity
  8
TEXT35
  6
Continuous
370
    25
100
AcDbLine
 10
215.9822639109751
 20
102.7280180465864
 30
0.0
 11
216.5902852082589
 21
103.0790593062462
 31
0.0
  0
ARC
  5
1B9
330
1AA
100
AcDbEntity
  8
TEXT35
  6
Continuous
370
    25
100
AcDbCircle
 10
214.6291610736662
 20
101.9131972309052
 30
0.0
 40
2.281500000000015
100
AcDbArc
 50
30.73091726592628
 51
330.0000000000017
  0
LINE
  5
1BA
330
1AA
100
AcDbEntity
  8
TEXT35
  6
Continuous
370
    25
100
AcDbLine
 10
216.6049980324005
 20
100.7724472309053
 30
0.0
 11
215.9970481989438
 21
101.1234472309053
 31
0.0
  0
LINE
  5
1BB
330
1AA
100
AcDbEntity
  8
TEXT35
  6
Continuous
370
    25
100
AcDbLine
 10
211.8347763192409
 20
111.6789659312995
 30
0.0
 11
211.8347763192409
 21
98.44416361029551
 31
0.0
  0
LINE
  5
1BC
330
1AA
100
AcDbEntity
  8
TEXT35
  6
Continuous
370
    25
100
AcDbLine
 10
211.8347763192409
 20
98.44416361029551
 30
0.0
 11
217.4235458280916
 21
98.44416361029551
 31
0.0
  0
LINE
  5
1BD
330
1AA
100
AcDbEntity
  8
TEXT35
  6
Continuous
370
    25
100
AcDbLine
 10
217.4235458280916
 20
98.44416361029551
 30
0.0
 11
217.4235458280916
 21
111.6789659312995
 31
0.0
  0
LINE
  5
1BE
330
1AA
100
AcDbEntity
  8
TEXT35
  6
Continuous
370
    25
100
AcDbLine
 10
217.4235458280916
 20
111.6789659312995
 30
0.0
 11
211.8347763192409
 21
111.6789659312995
 31
0.0
  0
LINE
  5
1BF
330
1AA
100
AcDbEntity
  8
TEXT35
  6
Continuous
370
    25
100
AcDbLine
 10
223.888052065189
 20
111.6789659312995
 30
0.0
 11
223.888052065189
 21
98.44416361029551
 31
0.0
  0
LINE
  5
1C0
330
1AA
100
AcDbEntity
  8
TEXT35
  6
Continuous
370
    25
100
AcDbLine
 10
223.888052065189
 20
98.44416361029551
 30
0.0
 11
218.2992825563384
 21
98.44416361029551
 31
0.0
  0
LINE
  5
1C1
330
1AA
100
AcDbEntity
  8
TEXT35
  6
Continuous
370
    25
100
AcDbLine
 10
218.2992825563384
 20
98.44416361029551
 30
0.0
 11
218.2992825563384
 21
111.6789659312995
 31
0.0
  0
LINE
  5
1C2
330
1AA
100
AcDbEntity
  8
TEXT35
  6
Continuous
370
    25
100
AcDbLine
 10
218.2992825563384
 20
111.6789659312995
 30
0.0
 11
223.888052065189
 21
111.6789659312995
 31
0.0
  0
ARC
  5
1C3
330
1AA
100
AcDbEntity
  8
TEXT35
  6
Continuous
370
    25
100
AcDbCircle
 10
211.499154836569
 20
99.57623034270234
 30
0.0
 40
4.914000000000251
100
AcDbArc
 50
172.305837035409
 51
179.7113029220757
  0
LINE
  5
1C4
330
1AA
100
AcDbEntity
  8
TEXT35
  6
Continuous
370
    25
100
AcDbLine
 10
206.6293963427935
 20
100.2341423522474
 30
0.0
 11
209.6999133303443
 21
100.2341423522474
 31
0.0
  0
ARC
  5
1C5
330
1AA
100
AcDbEntity
  8
TEXT35
  6
Continuous
370
    25
100
AcDbCircle
 10
204.8301548365688
 20
99.57623034270323
 30
0.0
 40
4.914000000000132
100
AcDbArc
 50
0.2886970779141535
 51
7.694162964580896
  0
LINE
  5
1C6
330
1AA
100
AcDbEntity
  8
TEXT35
  6
Continuous
370
    25
100
AcDbLine
 10
209.7440924568018
 20
99.60099048123304
 30
0.0
 11
210.4461002543538
 21
99.60099048123304
 31
0.0
  0
ARC
  5
1C7
330
1AA
100
AcDbEntity
  8
TEXT35
  6
Continuous
370
    25
100
AcDbCircle
 10
204.8301548365688
 20
99.5762303427033
 30
0.0
 40
5.616000000000016
100
AcDbArc
 50
0.2526096926473688
 51
53.57642635766914
  0
ARC
  5
1C8
330
1AA
100
AcDbEntity
  8
TEXT35
  6
Continuous
370
    25
100
AcDbCircle
 10
211.4991548365688
 20
99.57623034270323
 30
0.0
 40
5.616000000000023
100
AcDbArc
 50
126.4235736423304
 51
179.7473903073512
  0
LINE
  5
1C9
330
1AA
100
AcDbEntity
  8
TEXT35
  6
Continuous
370
    25
100
AcDbLine
 10
205.8832094187838
 20
99.60099048123304
 30
0.0
 11
206.5852172163358
 21
99.60099048123304
 31
0.0
  0
LINE
  5
1CA
330
1AA
100
AcDbEntity
  8
TEXT35
  6
Continuous
370
    25
100
AcDbLine
 10
205.3702700821435
 20
111.6789659312995
 30
0.0
 11
205.3702700821435
 21
98.44416361029551
 31
0.0
  0
LINE
  5
1CB
330
1AA
100
AcDbEntity
  8
TEXT35
  6
Continuous
370
    25
100
AcDbLine
 10
205.3702700821435
 20
98.44416361029551
 30
0.0
 11
210.9590395909941
 21
98.44416361029551
 31
0.0
  0
LINE
  5
1CC
330
1AA
100
AcDbEntity
  8
TEXT35
  6
Continuous
370
    25
100
AcDbLine
 10
210.9590395909941
 20
98.44416361029551
 30
0.0
 11
210.9590395909941
 21
111.6789659312995
 31
0.0
  0
LINE
  5
1CD
330
1AA
100
AcDbEntity
  8
TEXT35
  6
Continuous
370
    25
100
AcDbLine
 10
210.9590395909941
 20
111.6789659312995
 30
0.0
 11
205.3702700821435
 21
111.6789659312995
 31
0.0
  0
ARC
  5
1CE
330
1AA
100
AcDbEntity
  8
TEXT35
  6
Continuous
370
    25
100
AcDbCircle
 10
204.830154836569
 20
99.57623034270341
 30
0.0
 40
4.913999999999818
100
AcDbArc
 50
16.0658750272321
 51
47.26788995739759
  0
LINE
  5
1CF
330
1AA
100
AcDbEntity
  8
TEXT35
  6
Continuous
370
    25
100
AcDbLine
 10
209.5522343918387
 20
100.9361423522474
 30
0.0
 11
206.7770752812989
 21
100.9361423522474
 31
0.0
  0
ARC
  5
1D0
330
1AA
100
AcDbEntity
  8
TEXT35
  6
Continuous
370
    25
100
AcDbCircle
 10
211.4991548365683
 20
99.57623034270341
 30
0.0
 40
4.913999999999566
100
AcDbArc
 50
132.7321100425983
 51
163.9341249727667
  0
LINE
  5
1D1
330
1AA
100
AcDbEntity
  8
Nadpis (ISO)
100
AcDbLine
 10
299.0
 20
114.0
 30
0.0
 11
299.0
 21
45.0
 31
0.0
  0
LINE
  5
1D2
330
1AA
100
AcDbEntity
  8
Nadpis (ISO)
100
AcDbLine
 10
299.0
 20
45.0
 30
0.0
 11
117.0
 21
44.99999999999999
 31
0.0
  0
LINE
  5
1D3
330
1AA
100
AcDbEntity
  8
Nadpis (ISO)
100
AcDbLine
 10
117.0
 20
44.99999999999999
 30
0.0
 11
117.0
 21
114.0
 31
0.0
  0
LINE
  5
1D4
330
1AA
100
AcDbEntity
  8
Nadpis (ISO)
100
AcDbLine
 10
117.0
 20
114.0
 30
0.0
 11
299.0
 21
114.0
 31
0.0
  0
LINE
  5
1D5
330
1AA
100
AcDbEntity
  8
Nadpis (ISO)
100
AcDbLine
 10
199.0
 20
114.0
 30
0.0
 11
199.0
 21
93.99999999999998
 31
0.0
  0
LINE
  5
1D6
330
1AA
100
AcDbEntity
  8
KOPF
100
AcDbLine
 10
199.0
 20
104.0
 30
0.0
 11
117.0
 21
104.0
 31
0.0
  0
LINE
  5
1D7
330
1AA
100
AcDbEntity
  8
Nadpis (ISO)
100
AcDbLine
 10
199.0
 20
93.99999999999998
 30
0.0
 11
117.0
 21
93.99999999999996
 31
0.0
  0
LINE
  5
1D8
330
1AA
100
AcDbEntity
  8
KOPF
100
AcDbLine
 10
158.0
 20
93.99999999999998
 30
0.0
 11
158.0
 21
114.0
 31
0.0
  0
LINE
  5
1D9
330
1AA
100
AcDbEntity
  8
Nadpis (ISO)
100
AcDbLine
 10
199.0
 20
93.99999999999998
 30
0.0
 11
299.0
 21
93.99999999999998
 31
0.0
  0
LINE
  5
1DA
330
1AA
100
AcDbEntity
  8
Nadpis (ISO)
100
AcDbLine
 10
216.0
 20
94.00000000000003
 30
0.0
 11
216.0
 21
44.99999999999999
 31
0.0
  0
LINE
  5
1DB
330
1AA
100
AcDbEntity
  8
Nadpis (ISO)
100
AcDbLine
 10
299.0
 20
74.00000000000004
 30
0.0
 11
117.0
 21
73.99999999999998
 31
0.0
  0
LINE
  5
1DC
330
1AA
100
AcDbEntity
  8
Nadpis (ISO)
100
AcDbLine
 10
186.0
 20
94.0
 30
0.0
 11
186.0
 21
74.00000000000002
 31
0.0
  0
LINE
  5
1DD
330
1AA
100
AcDbEntity
  8
KOPF
100
AcDbLine
 10
137.0
 20
93.99999999999998
 30
0.0
 11
137.0
 21
74.0
 31
0.0
  0
LINE
  5
1DE
330
1AA
100
AcDbEntity
  8
KOPF
100
AcDbLine
 10
162.0
 20
93.99999999999998
 30
0.0
 11
162.0
 21
74.0
 31
0.0
  0
LINE
  5
1DF
330
1AA
100
AcDbEntity
  8
KOPF
100
AcDbLine
 10
186.0
 20
84.0
 30
0.0
 11
117.0
 21
83.99999999999996
 31
0.0
  0
LINE
  5
1E0
330
1AA
100
AcDbEntity
  8
KOPF
100
AcDbLine
 10
186.0
 20
79.0
 30
0.0
 11
117.0
 21
78.99999999999997
 31
0.0
  0
LINE
  5
1E1
330
1AA
100
AcDbEntity
  8
KOPF
100
AcDbLine
 10
186.0
 20
89.0
 30
0.0
 11
117.0
 21
88.99999999999996
 31
0.0
  0
LINE
  5
1E2
330
1AA
100
AcDbEntity
  8
KOPF
100
AcDbLine
 10
216.0
 20
50.0
 30
0.0
 11
299.0
 21
50.0
 31
0.0
  0
LINE
  5
1E3
330
1AA
100
AcDbEntity
  8
Nadpis (ISO)
100
AcDbLine
 10
216.0
 20
55.0
 30
0.0
 11
299.0
 21
55.0
 31
0.0
  0
LINE
  5
1E4
330
1AA
100
AcDbEntity
  8
KOPF
100
AcDbLine
 10
238.0000000000001
 20
93.99999999999998
 30
0.0
 11
238.0000000000001
 21
74.00000000000003
 31
0.0
  0
LINE
  5
1E5
330
1AA
100
AcDbEntity
  8
KOPF
100
AcDbLine
 10
238.0000000000001
 20
84.00000000000003
 30
0.0
 11
216.0
 21
84.00000000000003
 31
0.0
  0
LINE
  5
1E6
330
1AA
100
AcDbEntity
  8
Nadpis (ISO)
100
AcDbLine
 10
287.0
 20
74.00000000000004
 30
0.0
 11
287.0
 21
55.0
 31
0.0
  0
LINE
  5
1E7
330
1AA
100
AcDbEntity
  8
KOPF
100
AcDbLine
 10
289.0
 20
50.0
 30
0.0
 11
289.0
 21
45.0
 31
0.0
  0
LINE
  5
1E8
330
1AA
100
AcDbEntity
  8
Nadpis (ISO)
100
AcDbLine
 10
260.9160465310349
 20
50.0
 30
0.0
 11
260.9160465310349
 21
45.0
 31
0.0
  0
TEXT
  5
1EA
330
1AA
100
AcDbEntity
  8
Viditelná tenká (ISO)
100
AcDbText
 10
266.0
 20
84.97994933403729
 30
0.0
 40
1.539999991655349
  1
zum Zweck anderweitiger Benutzung
 41
0.7999999523162842
  7
Styl textu62
100
AcDbText
  0
TEXT
  5
1EC
330
1AA
100
AcDbEntity
  8
Viditelná tenká (ISO)
100
AcDbText
 10
266.0
 20
82.63814072439631
 30
0.0
 40
1.539999991655349
  1
mitgeteilt werden und bleibt unser
 41
0.7999999523162842
  7
Styl textu62
100
AcDbText
  0
TEXT
  5
1ED
330
1AA
100
AcDbEntity
  8
Viditelná tenká (ISO)
100
AcDbText
 10
266.0
 20
87.26106040199921
 30
0.0
 40
1.539999991655349
  1
noch dritten Personen, insbesondere
 41
0.7999999523162842
  7
Styl textu62
100
AcDbText
  0
TEXT
  5
1EE
330
1AA
100
AcDbEntity
  8
Viditelná tenká (ISO)
100
AcDbText
 10
266.0
 20
89.6282322587214
 30
0.0
 40
1.539999991655349
  1
Diese Zeichnung darf weder kopiert
 41
0.7999999523162842
  7
Styl textu62
100
AcDbText
  0
TEXT
  5
1EF
330
1AA
100
AcDbEntity
  8
Viditelná tenká (ISO)
100
AcDbText
 10
266.0
 20
80.37532604459597
 30
0.0
 40
1.539999991655349
  1
Eigentum.
 41
0.7999999523162842
  7
Styl textu62
100
AcDbText
  0
TEXT
  5
1F1
330
1AA
100
AcDbEntity
  8
Viditelná tenká (ISO)
100
AcDbText
 10
241.877559521167
 20
90.82431699999998
 30
0.0
 40
2.000000029802321
  1
Projektion: ISO-E
 41
0.7999999523162842
  7
Styl textu58
100
AcDbText
  0
TEXT
  5
1F3
330
1AA
100
AcDbEntity
  8
Viditelná tenká (ISO)
100
AcDbText
 10
266.0
 20
77.30982488917627
 30
0.0
 40
1.539999991655349
  1
Schutzvermerk nach DIN 34 beachten
 41
0.75
  7
Styl textu63
100
AcDbText
  0
TEXT
  5
1F4
330
1AA
100
AcDbEntity
  8
Viditelná tenká (ISO)
100
AcDbText
 10
236.2487793316645
 20
99.38243367792949
 30
0.0
 40
2.000000029802321
  1
582 22 Přibyslav
 41
0.7999999523162842
  7
Styl textu58
100
AcDbText
  0
TEXT
  5
1F6
330
1AA
100
AcDbEntity
  8
Viditelná tenká (ISO)
100
AcDbText
 10
261.6984261202779
 20
99.57784645000472
 30
0.0
 40
2.099999934434889
  1
Fax: 0451 / 482529
 41
0.7000000476837159
  7
Styl textu72
100
AcDbText
  0
TEXT
  5
1F7
330
1AA
100
AcDbEntity
  8
Viditelná tenká (ISO)
100
AcDbText
 10
236.5351154208068
 20
103.0087314099309
 30
0.0
 40
2.000000029802321
  1
Havličkova 260
 41
0.7999999523162842
  7
Styl textu58
100
AcDbText
  0
TEXT
  5
1F9
330
1AA
100
AcDbEntity
  8
TEXT35
100
AcDbText
 10
235.9801354774567
 20
108.2018007493417
 30
0.0
 40
3.000000119209288
  1
ACO Industries
 41
0.7999999523162842
  7
Styl textu75
100
AcDbText
  0
TEXT
  5
1FA
330
1AA
100
AcDbEntity
  8
Viditelná tenká (ISO)
100
AcDbText
 10
261.6456899832647
 20
102.9064533471121
 30
0.0
 40
2.099999934434889
  1
Tel.: 0451 / 491660
 41
0.7000000476837159
  7
Styl textu72
100
AcDbText
  0
MTEXT
  5
1FB
330
1AA
100
AcDbEntity
  8
Viditelná tenká (ISO)
100
AcDbMText
 10
217.3570092483237
 20
73.27889989032858
 30
0.0
 40
2.000000029802321
 41
0.0
 71
     1
 72
     1
  1
\fArial|b0|i0;\H2.0000;Zeichnung Nr.
  7
Text poznámky (ISO)
 73
     1
 44
1.0
  0
MTEXT
  5
1FC
330
1AA
100
AcDbEntity
  8
Viditelná tenká (ISO)
100
AcDbMText
 10
287.9433731401013
 20
72.84063462326732
 30
0.0
 40
2.000000029802321
 41
0.0
 71
     1
 72
     1
  1
\fArial|b0|i0;\H2.0000;Index
  7
Text poznámky (ISO)
 73
     1
 44
1.0
  0
MTEXT
  5
1FD
330
1AA
100
AcDbEntity
  8
Viditelná tenká (ISO)
100
AcDbMText
 10
217.1230582952341
 20
52.63510416823109
 30
0.0
 40
2.000000029802321
 41
0.0
 71
     1
 72
     1
  1
\fArial|b0|i0;\H2.0000;Ersatz fur\PErsatz durch
  7
Text poznámky (ISO)
 73
     2
 44
0.9442214369773862
  0
MTEXT
  5
1FE
330
1AA
100
AcDbEntity
  8
Viditelná tenká (ISO)
100
AcDbMText
 10
188.9161081342839
 20
93.0
 30
0.0
 40
2.000000029802321
 41
0.0
 71
     1
 72
     1
  1
\fArial|b0|i0;\H2.0000;Massstab
  7
Text poznámky (ISO)
 73
     1
 44
1.0
  0
MTEXT
  5
1FF
330
1AA
100
AcDbEntity
  8
Viditelná tenká (ISO)
100
AcDbMText
 10
217.0
 20
93.0
 30
0.0
 40
2.000000029802321
 41
0.0
 71
     1
 72
     1
  1
\fArial|b0|i0;\H2.0000;Masseinheit
  7
Text poznámky (ISO)
 73
     1
 44
1.0
  0
MTEXT
  5
200
330
1AA
100
AcDbEntity
  8
Viditelná tenká (ISO)
100
AcDbMText
 10
118.0
 20
113.0
 30
0.0
 40
2.000000029802321
 41
0.0
 71
     1
 72
     1
  1
\fArial|b0|i0;\H2.0000;Werkstoff.
  7
Text poznámky (ISO)
 73
     1
 44
1.0
  0
MTEXT
  5
201
330
1AA
100
AcDbEntity
  8
Viditelná tenká (ISO)
100
AcDbMText
 10
159.0
 20
113.0
 30
0.0
 40
2.000000029802321
 41
0.0
 71
     1
 72
     1
  1
\fArial|b0|i0;\H2.0000;Hmotnost
  7
Text poznámky (ISO)
 73
     1
 44
1.0
  0
MTEXT
  5
202
330
1AA
100
AcDbEntity
  8
Viditelná tenká (ISO)
100
AcDbMText
 10
118.0
 20
103.0
 30
0.0
 40
2.000000029802321
 41
0.0
 71
     1
 72
     1
  1
\fArial|b0|i0;\H2.0000;zul.Abweich.
  7
Text poznámky (ISO)
 73
     1
 44
1.0
  0
MTEXT
  5
203
330
1AA
100
AcDbEntity
  8
Viditelná tenká (ISO)
100
AcDbMText
 10
159.0
 20
103.0
 30
0.0
 40
2.000000029802321
 41
0.0
 71
     1
 72
     1
  1
\fArial|b0|i0;\H2.0000;Oberflache
  7
Text poznámky (ISO)
 73
     1
 44
1.0
  0
MTEXT
  5
204
330
1AA
100
AcDbEntity
  8
Viditelná tenká (ISO)
100
AcDbMText
 10
118.2064366962235
 20
87.52498463872976
 30
0.0
 40
2.000000029802321
 41
0.0
 71
     1
 72
     1
  1
\fArial|b0|i0;\H2.0000;Gezeichnet
  7
Text poznámky (ISO)
 73
     1
 44
1.0
  0
MTEXT
  5
205
330
1AA
100
AcDbEntity
  8
Viditelná tenká (ISO)
100
AcDbMText
 10
118.2064366962235
 20
82.79398756785594
 30
0.0
 40
2.000000029802321
 41
0.0
 71
     1
 72
     1
  1
\fArial|b0|i0;\H2.0000;Gepruft
  7
Text poznámky (ISO)
 73
     1
 44
1.0
  0
MTEXT
  5
206
330
1AA
100
AcDbEntity
  8
Viditelná tenká (ISO)
100
AcDbMText
 10
118.2064366962235
 20
77.59713566222233
 30
0.0
 40
2.000000029802321
 41
0.0
 71
     1
 72
     1
  1
\fArial|b0|i0;\H2.0000;Update
  7
Text poznámky (ISO)
 73
     1
 44
1.0
  0
MTEXT
  5
207
330
1AA
100
AcDbEntity
  8
Viditelná tenká (ISO)
100
AcDbMText
 10
143.0
 20
93.0
 30
0.0
 40
2.000000029802321
 41
0.0
 71
     1
 72
     1
  1
\fArial|b0|i0;\H2.0000;Datum
  7
Text poznámky (ISO)
 73
     1
 44
1.0
  0
MTEXT
  5
208
330
1AA
100
AcDbEntity
  8
Viditelná tenká (ISO)
100
AcDbMText
 10
170.0
 20
93.0
 30
0.0
 40
2.000000029802321
 41
0.0
 71
     1
 72
     1
  1
\fArial|b0|i0;\H2.0000;Name
  7
Text poznámky (ISO)
 73
     1
 44
1.0
  0
MTEXT
  5
209
102
{ACAD_XDICTIONARY
360
1DC2
102
}
330
1AA
100
AcDbEntity
  8
Nadpis (ISO)
100
AcDbMText
 10
118.0
 20
71.0
 30
0.0
 40
3.499999940395355
 41
0.0
 71
     1
 72
     1
  1
Effidrain sestava jednod\U+00EDln\U+00E1 svisl\U+00E1 p\U+0159\U+00EDruba 157_DN70 V2A
  7
Text poznámky (ISO)
 73
     1
 44
1.0
  0
MTEXT
  5
20A
330
1AA
100
AcDbEntity
  8
Nadpis (ISO)
100
AcDbMText
 10
138.6542642016321
 20
87.78242706242744
 30
0.0
 40
2.000000029802321
 41
0.0
 71
     1
 72
     1
  1
\fTahoma|b0|i0;\H2.0000;8.8.2011
  7
Text poznámky (ISO)
 73
     1
 44
1.0
  0
MTEXT
  5
20B
330
1AA
100
AcDbEntity
  8
Nadpis (ISO)
100
AcDbMText
 10
118.9147684950603
 20
98.79632878646518
 30
0.0
 40
3.499999940395355
 41
0.0
 71
     1
 72
     1
  1
ISO 2768-m
  7
Text poznámky (ISO)
 73
     1
 44
1.0
  0
MTEXT
  5
20C
330
1AA
100
AcDbEntity
  8
Nadpis (ISO)
100
AcDbMText
 10
162.5831033854
 20
99.20167780246003
 30
0.0
 40
3.499999940395355
 41
0.0
 71
     1
 72
     1
  1
DIN ISO 1302
  7
Text poznámky (ISO)
 73
     1
 44
1.0
  0
MTEXT
  5
20D
330
1AA
100
AcDbEntity
  8
Nadpis (ISO)
100
AcDbMText
 10
262.4743825961981
 20
49.17778241269704
 30
0.0
 40
3.499999940395355
 41
0.0
 71
     1
 72
     1
  1
\fArial|b0|i0;\H3.5000;List:\fArial|b0|i0;\H3.5000;1 \fArial|b0|i0;\H3.5000;/\fArial|b0|i0;\H3.5000;1 
  7
Text poznámky (ISO)
 73
     1
 44
1.0
  0
MTEXT
  5
20E
102
{ACAD_XDICTIONARY
360
1DC4
102
}
330
1AA
100
AcDbEntity
  8
Nadpis (ISO)
100
AcDbMText
 10
159.4396788094336
 20
109.2360383310952
 30
0.0
 40
3.499999940395355
 41
29.10098367733216
 71
     1
 72
     1
  1
Nen\U+00ED k dispozici
  7
Text poznámky (ISO)
 73
     2
 44
0.9878841638565063
  0
ATTDEF
  5
210
102
{ACAD_XDICTIONARY
360
E11
102
}
330
1AA
100
AcDbEntity
  8
Nadpis (ISO)
100
AcDbText
 10
287.4393862219839
 20
62.4856753668063
 30
0.0
 40
3.499999940395355
  1
000
  7
Styl textu9
100
AcDbAttributeDefinition
  3
ČÍSLO REVIZE
  2
ČÍSLO_REVIZE_001
 70
     0
  0
ATTDEF
  5
214
102
{ACAD_XDICTIONARY
360
E14
102
}
330
1AA
100
AcDbEntity
  8
Nadpis (ISO)
100
AcDbText
 10
289.7753402652471
 20
46.32882590415592
 30
0.0
 40
2.000000029802321
  1
A2
  7
Styl textu40
100
AcDbAttributeDefinition
  3
Sheet Size
  2
Sheet_Size_001
 70
     0
  0
ATTDEF
  5
215
102
{ACAD_XDICTIONARY
360
E17
102
}
330
1AA
100
AcDbEntity
  8
Nadpis (ISO)
100
AcDbText
 10
230.1305737493188
 20
51.10091360311345
 30
0.0
 40
2.000000029802321
  1
C:\Inventor_DATA\Projekty\Guly\Effidrain\Effidrain sestava jednodílná svislá příruba čtverec\408047.iam
  7
Styl textu40
100
AcDbAttributeDefinition
  3
FILENAME AND PATH
  2
FILENAME_AND_PATH_001
 70
     0
  0
ATTDEF
  5
216
102
{ACAD_XDICTIONARY
360
E1A
102
}
330
1AA
100
AcDbEntity
  8
Nadpis (ISO)
100
AcDbText
 10
217.9059771674843
 20
62.42008065196634
 30
0.0
 40
3.499999940395355
  1
408047
  7
Text poznámky (ISO)
100
AcDbAttributeDefinition
  3
PART NUMBER
  2
PART_NUMBER_001
 70
     0
  0
ATTDEF
  5
217
102
{ACAD_XDICTIONARY
360
E1D
102
}
330
1AA
100
AcDbEntity
  8
Nadpis (ISO)
100
AcDbText
 10
118.0
 20
56.50000005960464
 30
0.0
 40
3.499999940395355
  1

  7
Text poznámky (ISO)
 11
118.0
 21
60.0
 31
0.0
100
AcDbAttributeDefinition
  3
PROJECT
  2
PROJECT
 70
     0
 74
     3
  0
ATTDEF
  5
219
102
{ACAD_XDICTIONARY
360
E20
102
}
330
1AA
100
AcDbEntity
  8
Nadpis (ISO)
100
AcDbText
 10
117.8119543349687
 20
47.73407435882505
 30
0.0
 40
6.99999988079071
  1
408047
  7
Styl textu94
100
AcDbAttributeDefinition
  3
SKLADOVÉ ČÍSLO
  2
SKLADOVÉ_ČÍSLO_001
 70
     0
  0
ATTDEF
  5
21A
102
{ACAD_XDICTIONARY
360
E23
102
}
330
1AA
100
AcDbEntity
  8
Nadpis (ISO)
100
AcDbText
 10
117.5939056808251
 20
105.1756658592857
 30
0.0
 40
3.499999940395355
  1

  7
Text poznámky (ISO)
 11
117.5939056808251
 21
108.6756657996811
 31
0.0
100
AcDbAttributeDefinition
  3
MATERIAL
  2
MATERIAL
 70
     0
 74
     3
  0
ATTDEF
  5
21B
102
{ACAD_XDICTIONARY
360
E26
102
}
330
1AA
100
AcDbEntity
  8
Nadpis (ISO)
100
AcDbText
 10
165.0470513532835
 20
85.78242703262512
 30
0.0
 40
2.000000029802321
  1
pmacoun
  7
Styl textu40
100
AcDbAttributeDefinition
  3
AUTHOR
  2
AUTHOR_001
 70
     0
  0
ATTDEF
  5
21C
102
{ACAD_XDICTIONARY
360
E29
102
}
330
1AA
100
AcDbEntity
  8
Nadpis (ISO)
100
AcDbText
 10
189.1855699863978
 20
82.50038826992808
 30
0.0
 40
3.499999940395355
  1

  7
Text poznámky (ISO)
 11
189.1855699863978
 21
86.00038821032343
 31
0.0
100
AcDbAttributeDefinition
  3
VS_First
  2
VS_First
 70
     0
 74
     3
  0
ENDBLK
  5
1AC
330
1AA
100
AcDbEntity
  8
0
100
AcDbBlockEnd
  0
BLOCK
  5
63E
330
63D
100
AcDbEntity
  8
0
100
AcDbBlockBegin
  2
*D26
 70
     1
 10
0.0
 20
0.0
 30
0.0
  3
*D26
  1

  0
LINE
  5
715
330
63D
100
AcDbEntity
  8
Kóta (ISO)
440
 16777216
100
AcDbLine
 10
159.0425497510961
 20
624.7703258864393
 30
0.0
 11
140.7092164177629
 21
624.7703258864393
 31
0.0
  0
LINE
  5
716
330
63D
100
AcDbEntity
  8
Kóta (ISO)
440
 16777216
100
AcDbLine
 10
245.0425497511788
 20
451.2703258864394
 30
0.0
 11
140.7092164177629
 21
451.2703258864394
 31
0.0
  0
LINE
  5
717
330
63D
100
AcDbEntity
  8
Kóta (ISO)
440
 16777216
100
AcDbLine
 10
142.3758830844295
 20
620.6036592197726
 30
0.0
 11
142.3758830844295
 21
455.4369925531061
 31
0.0
  0
SOLID
  5
718
330
63D
100
AcDbEntity
  8
Kóta (ISO)
440
 16777216
100
AcDbTrace
 10
141.6814386399851
 20
620.6036592197726
 30
0.0
 11
143.070327528874
 21
620.6036592197726
 31
0.0
 12
142.3758830844295
 22
624.7703258864393
 32
0.0
 13
142.3758830844295
 23
624.7703258864393
 33
0.0
  0
SOLID
  5
719
330
63D
100
AcDbEntity
  8
Kóta (ISO)
440
 16777216
100
AcDbTrace
 10
141.6814386399851
 20
455.4369925531061
 30
0.0
 11
143.070327528874
 21
455.4369925531061
 31
0.0
 12
142.3758830844295
 22
451.2703258864394
 32
0.0
 13
142.3758830844295
 23
451.2703258864394
 33
0.0
  0
MTEXT
  5
71A
330
63D
100
AcDbEntity
  8
Kóta (ISO)
440
 16777216
100
AcDbMText
 10
133.701584897727
 20
528.6983536455618
 30
0.0
 40
5.833333333333332
 41
0.0
 71
     1
 72
     1
  1
\A1;173,5
  7
Text poznámky (ISO)
 11
0.0000000000000001
 21
1.0
 31
0.0
 73
     1
 44
1.0
  0
POINT
  5
71B
330
63D
100
AcDbEntity
  8
Defpoints
 62
     0
440
 16777216
100
AcDbPoint
 10
159.0425497510961
 20
624.7703258864393
 30
0.0
  0
POINT
  5
71C
330
63D
100
AcDbEntity
  8
Defpoints
 62
     0
440
 16777216
100
AcDbPoint
 10
245.0425497511788
 20
451.2703258864394
 30
0.0
  0
POINT
  5
71D
330
63D
100
AcDbEntity
  8
Defpoints
 62
     0
440
 16777216
100
AcDbPoint
 10
142.3758830844295
 20
451.2703258864394
 30
0.0
  0
ENDBLK
  5
63F
330
63D
100
AcDbEntity
  8
0
100
AcDbBlockEnd
  0
BLOCK
  5
720
330
71F
100
AcDbEntity
  8
0
100
AcDbBlockBegin
  2
*D27
 70
     1
 10
0.0
 20
0.0
 30
0.0
  3
*D27
  1

  0
LINE
  5
7F1
330
71F
100
AcDbEntity
  8
Kóta (ISO)
440
 16777216
100
AcDbLine
 10
245.0425497511788
 20
451.2703258864394
 30
0.0
 11
96.70921641784559
 21
451.2703258864395
 31
0.0
  0
LINE
  5
7F2
330
71F
100
AcDbEntity
  8
Kóta (ISO)
440
 16777216
100
AcDbLine
 10
208.992039494045
 20
644.7703258864393
 30
0.0
 11
96.70921641784559
 21
644.7703258864393
 31
0.0
  0
LINE
  5
7F3
330
71F
100
AcDbEntity
  8
Kóta (ISO)
440
 16777216
100
AcDbLine
 10
98.37588308451223
 20
455.4369925531061
 30
0.0
 11
98.37588308451227
 21
640.6036592197726
 31
0.0
  0
SOLID
  5
7F4
330
71F
100
AcDbEntity
  8
Kóta (ISO)
440
 16777216
100
AcDbTrace
 10
97.68143864006781
 20
455.4369925531061
 30
0.0
 11
99.07032752895666
 21
455.4369925531061
 31
0.0
 12
98.37588308451223
 22
451.2703258864395
 32
0.0
 13
98.37588308451223
 23
451.2703258864395
 33
0.0
  0
SOLID
  5
7F5
330
71F
100
AcDbEntity
  8
Kóta (ISO)
440
 16777216
100
AcDbTrace
 10
97.68143864006781
 20
640.6036592197726
 30
0.0
 11
99.07032752895673
 21
640.6036592197726
 31
0.0
 12
98.37588308451227
 22
644.7703258864393
 32
0.0
 13
98.37588308451227
 23
644.7703258864393
 33
0.0
  0
MTEXT
  5
7F6
330
71F
100
AcDbEntity
  8
Kóta (ISO)
440
 16777216
100
AcDbMText
 10
89.70158489780969
 20
538.6983536455619
 30
0.0
 40
5.833333333333332
 41
0.0
 71
     1
 72
     1
  1
\A1;193,5
  7
Text poznámky (ISO)
 11
0.0000000000000001
 21
1.0
 31
0.0
 73
     1
 44
1.0
  0
POINT
  5
7F7
330
71F
100
AcDbEntity
  8
Defpoints
 62
     0
440
 16777216
100
AcDbPoint
 10
245.0425497511788
 20
451.2703258864394
 30
0.0
  0
POINT
  5
7F8
330
71F
100
AcDbEntity
  8
Defpoints
 62
     0
440
 16777216
100
AcDbPoint
 10
208.992039494045
 20
644.7703258864393
 30
0.0
  0
POINT
  5
7F9
330
71F
100
AcDbEntity
  8
Defpoints
 62
     0
440
 16777216
100
AcDbPoint
 10
98.37588308451227
 20
644.7703258864393
 30
0.0
  0
ENDBLK
  5
721
330
71F
100
AcDbEntity
  8
0
100
AcDbBlockEnd
  0
BLOCK
  5
7FC
330
7FB
100
AcDbEntity
  8
0
100
AcDbBlockBegin
  2
*D28
 70
     1
 10
0.0
 20
0.0
 30
0.0
  3
*D28
  1

  0
LINE
  5
8CD
330
7FB
100
AcDbEntity
  8
Kóta (ISO)
440
 16777216
100
AcDbLine
 10
271.5425497511788
 20
360.2703258864394
 30
0.0
 11
60.65870616071168
 21
360.2703258864394
 31
0.0
  0
LINE
  5
8CE
330
7FB
100
AcDbEntity
  8
Kóta (ISO)
440
 16777216
100
AcDbLine
 10
208.992039494045
 20
644.7703258864393
 30
0.0
 11
60.65870616071174
 21
644.7703258864393
 31
0.0
  0
LINE
  5
8CF
330
7FB
100
AcDbEntity
  8
Kóta (ISO)
440
 16777216
100
AcDbLine
 10
62.32537282737835
 20
364.4369925531062
 30
0.0
 11
62.3253728273784
 21
640.6036592197726
 31
0.0
  0
SOLID
  5
8D0
330
7FB
100
AcDbEntity
  8
Kóta (ISO)
440
 16777216
100
AcDbTrace
 10
61.6309283829339
 20
364.4369925531062
 30
0.0
 11
63.0198172718228
 21
364.4369925531062
 31
0.0
 12
62.32537282737835
 22
360.2703258864394
 32
0.0
 13
62.32537282737835
 23
360.2703258864394
 33
0.0
  0
SOLID
  5
8D1
330
7FB
100
AcDbEntity
  8
Kóta (ISO)
440
 16777216
100
AcDbTrace
 10
61.63092838293398
 20
640.6036592197726
 30
0.0
 11
63.01981727182286
 21
640.6036592197726
 31
0.0
 12
62.3253728273784
 22
644.7703258864393
 32
0.0
 13
62.3253728273784
 23
644.7703258864393
 33
0.0
  0
MTEXT
  5
8D2
330
7FB
100
AcDbEntity
  8
Kóta (ISO)
440
 16777216
100
AcDbMText
 10
53.63932178641121
 20
492.9691729874019
 30
0.0
 40
5.833333333333332
 41
0.0
 71
     1
 72
     1
  1
\A1;284,5
  7
Text poznámky (ISO)
 11
0.0000000000000001
 21
1.0
 31
0.0
 73
     1
 44
1.0
  0
POINT
  5
8D3
330
7FB
100
AcDbEntity
  8
Defpoints
 62
     0
440
 16777216
100
AcDbPoint
 10
271.5425497511788
 20
360.2703258864394
 30
0.0
  0
POINT
  5
8D4
330
7FB
100
AcDbEntity
  8
Defpoints
 62
     0
440
 16777216
100
AcDbPoint
 10
208.992039494045
 20
644.7703258864393
 30
0.0
  0
POINT
  5
8D5
330
7FB
100
AcDbEntity
  8
Defpoints
 62
     0
440
 16777216
100
AcDbPoint
 10
62.3253728273784
 20
644.7703258864393
 30
0.0
  0
ENDBLK
  5
7FD
330
7FB
100
AcDbEntity
  8
0
100
AcDbBlockEnd
  0
BLOCK
  5
8D8
330
8D7
100
AcDbEntity
  8
0
100
AcDbBlockBegin
  2
*D29
 70
     1
 10
0.0
 20
0.0
 30
0.0
  3
*D29
  1

  0
LINE
  5
9AC
330
8D7
100
AcDbEntity
  8
Kóta (ISO)
440
 16777216
100
AcDbLine
 10
405.0930600084782
 20
644.7703258864393
 30
0.0
 11
426.6752836022251
 21
644.7703258864393
 31
0.0
  0
LINE
  5
9AD
330
8D7
100
AcDbEntity
  8
Kóta (ISO)
440
 16777216
100
AcDbLine
 10
425.0086169355586
 20
640.6036592197726
 30
0.0
 11
425.0086169355584
 21
628.9369925531063
 31
0.0
  0
SOLID
  5
9AE
330
8D7
100
AcDbEntity
  8
Kóta (ISO)
440
 16777216
100
AcDbTrace
 10
424.3141724911141
 20
640.6036592197726
 30
0.0
 11
425.7030613800028
 21
640.6036592197726
 31
0.0
 12
425.0086169355586
 22
644.7703258864393
 32
0.0
 13
425.0086169355586
 23
644.7703258864393
 33
0.0
  0
SOLID
  5
9AF
330
8D7
100
AcDbEntity
  8
Kóta (ISO)
440
 16777216
100
AcDbTrace
 10
424.3141724911138
 20
628.9369925531063
 30
0.0
 11
425.7030613800028
 21
628.9369925531063
 31
0.0
 12
425.0086169355584
 22
624.7703258864395
 32
0.0
 13
425.0086169355584
 23
624.7703258864395
 33
0.0
  0
MTEXT
  5
9B0
330
8D7
100
AcDbEntity
  8
Kóta (ISO)
440
 16777216
100
AcDbMText
 10
417.6623912807565
 20
630.7665202002964
 30
0.0
 40
5.833333333333332
 41
0.0
 71
     1
 72
     1
  1
\A1;20
  7
Text poznámky (ISO)
 11
0.0000000000000001
 21
1.0
 31
0.0
 73
     1
 44
1.0
  0
POINT
  5
9B1
330
8D7
100
AcDbEntity
  8
Defpoints
 62
     0
440
 16777216
100
AcDbPoint
 10
405.0930600084782
 20
644.7703258864393
 30
0.0
  0
POINT
  5
9B2
330
8D7
100
AcDbEntity
  8
Defpoints
 62
     0
440
 16777216
100
AcDbPoint
 10
425.0086169355584
 20
624.7703258864395
 30
0.0
  0
POINT
  5
9B3
330
8D7
100
AcDbEntity
  8
Defpoints
 62
     0
440
 16777216
100
AcDbPoint
 10
425.0086169355584
 20
624.7703258864395
 30
0.0
  0
ENDBLK
  5
8D9
330
8D7
100
AcDbEntity
  8
0
100
AcDbBlockEnd
  0
BLOCK
  5
9B6
330
9B5
100
AcDbEntity
  8
0
100
AcDbBlockBegin
  2
*D30
 70
     1
 10
0.0
 20
0.0
 30
0.0
  3
*D30
  1

  0
LINE
  5
A86
330
9B5
100
AcDbEntity
  8
Kóta (ISO)
440
 16777216
100
AcDbLine
 10
273.7092164178454
 20
404.4624546041786
 30
0.0
 11
340.375883084512
 21
404.4624546041786
 31
0.0
  0
SOLID
  5
A87
330
9B5
100
AcDbEntity
  8
Kóta (ISO)
440
 16777216
100
AcDbTrace
 10
273.7092164178454
 20
405.1568990486229
 30
0.0
 11
273.7092164178454
 21
403.7680101597342
 31
0.0
 12
269.5425497511787
 22
404.4624546041786
 32
0.0
 13
269.5425497511787
 23
404.4624546041786
 33
0.0
  0
SOLID
  5
A88
330
9B5
100
AcDbEntity
  8
Kóta (ISO)
440
 16777216
100
AcDbTrace
 10
340.375883084512
 20
405.1568990486229
 30
0.0
 11
340.375883084512
 21
403.7680101597342
 31
0.0
 12
344.5425497511787
 22
404.4624546041786
 32
0.0
 13
344.5425497511787
 23
404.4624546041786
 33
0.0
  0
MTEXT
  5
A89
102
{ACAD_XDICTIONARY
360
1DC6
102
}
330
9B5
100
AcDbEntity
  8
Kóta (ISO)
440
 16777216
100
AcDbMText
 10
300.1632123882954
 20
412.3806524998578
 30
0.0
 40
5.833333333333332
 41
0.0
 71
     1
 72
     1
  1
\A1;{\U+00D8}75
  7
Text poznámky (ISO)
 73
     1
 44
1.0
  0
POINT
  5
A8A
330
9B5
100
AcDbEntity
  8
Defpoints
 62
     0
440
 16777216
100
AcDbPoint
 10
269.5425497511787
 20
404.4624546041786
 30
0.0
  0
POINT
  5
A8B
330
9B5
100
AcDbEntity
  8
Defpoints
 62
     0
440
 16777216
100
AcDbPoint
 10
344.5425497511787
 20
404.4624546041786
 30
0.0
  0
POINT
  5
A8C
330
9B5
100
AcDbEntity
  8
Defpoints
 62
     0
440
 16777216
100
AcDbPoint
 10
344.5425497511787
 20
404.4624546041786
 30
0.0
  0
ENDBLK
  5
9B7
330
9B5
100
AcDbEntity
  8
0
100
AcDbBlockEnd
  0
BLOCK
  5
A8F
330
A8E
100
AcDbEntity
  8
0
100
AcDbBlockBegin
  2
*D31
 70
     1
 10
0.0
 20
0.0
 30
0.0
  3
*D31
  1

  0
LINE
  5
B5A
330
A8E
100
AcDbEntity
  8
Kóta (ISO)
440
 16777216
100
AcDbLine
 10
157.042549750999
 20
322.7907708413122
 30
0.0
 11
157.042549750999
 21
341.1241041746456
 31
0.0
  0
LINE
  5
B5B
330
A8E
100
AcDbEntity
  8
Kóta (ISO)
440
 16777216
100
AcDbLine
 10
457.0425497509985
 20
322.7907708413122
 30
0.0
 11
457.0425497509985
 21
341.1241041746456
 31
0.0
  0
LINE
  5
B5C
330
A8E
100
AcDbEntity
  8
Kóta (ISO)
440
 16777216
100
AcDbLine
 10
161.2092164176656
 20
339.4574375079788
 30
0.0
 11
452.8758830843318
 21
339.4574375079788
 31
0.0
  0
SOLID
  5
B5D
330
A8E
100
AcDbEntity
  8
Kóta (ISO)
440
 16777216
100
AcDbTrace
 10
161.2092164176656
 20
340.1518819524233
 30
0.0
 11
161.2092164176656
 21
338.7629930635344
 31
0.0
 12
157.042549750999
 22
339.4574375079788
 32
0.0
 13
157.042549750999
 23
339.4574375079788
 33
0.0
  0
SOLID
  5
B5E
330
A8E
100
AcDbEntity
  8
Kóta (ISO)
440
 16777216
100
AcDbTrace
 10
452.8758830843318
 20
340.1518819524233
 30
0.0
 11
452.8758830843318
 21
338.7629930635344
 31
0.0
 12
457.0425497509985
 22
339.4574375079788
 32
0.0
 13
457.0425497509985
 23
339.4574375079788
 33
0.0
  0
MTEXT
  5
B5F
330
A8E
100
AcDbEntity
  8
Kóta (ISO)
440
 16777216
100
AcDbMText
 10
300.8252898450215
 20
346.8036631627807
 30
0.0
 40
5.833333333333332
 41
0.0
 71
     1
 72
     1
  1
\A1;300
  7
Text poznámky (ISO)
 73
     1
 44
1.0
  0
POINT
  5
B60
330
A8E
100
AcDbEntity
  8
Defpoints
 62
     0
440
 16777216
100
AcDbPoint
 10
157.042549750999
 20
322.7907708413122
 30
0.0
  0
POINT
  5
B61
330
A8E
100
AcDbEntity
  8
Defpoints
 62
     0
440
 16777216
100
AcDbPoint
 10
457.0425497509985
 20
322.7907708413122
 30
0.0
  0
POINT
  5
B62
330
A8E
100
AcDbEntity
  8
Defpoints
 62
     0
440
 16777216
100
AcDbPoint
 10
457.0425497509985
 20
339.4574375079788
 30
0.0
  0
ENDBLK
  5
A90
330
A8E
100
AcDbEntity
  8
0
100
AcDbBlockEnd
  0
BLOCK
  5
B65
330
B64
100
AcDbEntity
  8
0
100
AcDbBlockBegin
  2
*D32
 70
     1
 10
0.0
 20
0.0
 30
0.0
  3
*D32
  1

  0
LINE
  5
C30
330
B64
100
AcDbEntity
  8
Kóta (ISO)
440
 16777216
100
AcDbLine
 10
455.0425497509985
 20
324.7907708413122
 30
0.0
 11
503.375883084332
 21
324.7907708413122
 31
0.0
  0
LINE
  5
C31
330
B64
100
AcDbEntity
  8
Kóta (ISO)
440
 16777216
100
AcDbLine
 10
455.0425497509985
 20
24.79077084131264
 30
0.0
 11
503.3758830843319
 21
24.79077084131262
 31
0.0
  0
LINE
  5
C32
330
B64
100
AcDbEntity
  8
Kóta (ISO)
440
 16777216
100
AcDbLine
 10
501.7092164176651
 20
320.6241041746455
 30
0.0
 11
501.7092164176651
 21
28.95743750797929
 31
0.0
  0
SOLID
  5
C33
330
B64
100
AcDbEntity
  8
Kóta (ISO)
440
 16777216
100
AcDbTrace
 10
501.0147719732208
 20
320.6241041746455
 30
0.0
 11
502.4036608621097
 21
320.6241041746455
 31
0.0
 12
501.7092164176651
 22
324.7907708413122
 32
0.0
 13
501.7092164176651
 23
324.7907708413122
 33
0.0
  0
SOLID
  5
C34
330
B64
100
AcDbEntity
  8
Kóta (ISO)
440
 16777216
100
AcDbTrace
 10
501.0147719732207
 20
28.95743750797929
 30
0.0
 11
502.4036608621097
 21
28.95743750797929
 31
0.0
 12
501.7092164176651
 22
24.79077084131262
 32
0.0
 13
501.7092164176651
 23
24.79077084131262
 33
0.0
  0
MTEXT
  5
C35
330
B64
100
AcDbEntity
  8
Kóta (ISO)
440
 16777216
100
AcDbMText
 10
494.3629907628634
 20
168.5735109353353
 30
0.0
 40
5.833333333333332
 41
0.0
 71
     1
 72
     1
  1
\A1;300
  7
Text poznámky (ISO)
 11
0.0000000000000001
 21
1.0
 31
0.0
 73
     1
 44
1.0
  0
POINT
  5
C36
330
B64
100
AcDbEntity
  8
Defpoints
 62
     0
440
 16777216
100
AcDbPoint
 10
455.0425497509985
 20
324.7907708413122
 30
0.0
  0
POINT
  5
C37
330
B64
100
AcDbEntity
  8
Defpoints
 62
     0
440
 16777216
100
AcDbPoint
 10
455.0425497509985
 20
24.79077084131264
 30
0.0
  0
POINT
  5
C38
330
B64
100
AcDbEntity
  8
Defpoints
 62
     0
440
 16777216
100
AcDbPoint
 10
501.7092164176651
 20
24.79077084131262
 30
0.0
  0
ENDBLK
  5
B66
330
B64
100
AcDbEntity
  8
0
100
AcDbBlockEnd
  0
BLOCK
  5
C3B
330
C3A
100
AcDbEntity
  8
0
100
AcDbBlockBegin
  2
*D33
 70
     1
 10
0.0
 20
0.0
 30
0.0
  3
*D33
  1

  0
LINE
  5
D09
330
C3A
100
AcDbEntity
  8
Kóta (ISO)
440
 16777216
100
AcDbLine
 10
207.0425497510815
 20
273.3407708412349
 30
0.0
 11
207.0425497510815
 21
295.2354078138732
 31
0.0
  0
LINE
  5
D0A
330
C3A
100
AcDbEntity
  8
Kóta (ISO)
440
 16777216
100
AcDbLine
 10
407.0425497510818
 20
273.340770841235
 30
0.0
 11
407.0425497510818
 21
295.2354078138732
 31
0.0
  0
LINE
  5
D0B
330
C3A
100
AcDbEntity
  8
Kóta (ISO)
440
 16777216
100
AcDbLine
 10
211.2092164177482
 20
293.5687411472064
 30
0.0
 11
402.8758830844151
 21
293.5687411472064
 31
0.0
  0
SOLID
  5
D0C
330
C3A
100
AcDbEntity
  8
Kóta (ISO)
440
 16777216
100
AcDbTrace
 10
211.2092164177482
 20
294.2631855916508
 30
0.0
 11
211.2092164177482
 21
292.8742967027618
 31
0.0
 12
207.0425497510815
 22
293.5687411472064
 32
0.0
 13
207.0425497510815
 23
293.5687411472064
 33
0.0
  0
SOLID
  5
D0D
330
C3A
100
AcDbEntity
  8
Kóta (ISO)
440
 16777216
100
AcDbTrace
 10
402.8758830844151
 20
294.2631855916508
 30
0.0
 11
402.8758830844151
 21
292.8742967027618
 31
0.0
 12
407.0425497510818
 22
293.5687411472064
 32
0.0
 13
407.0425497510818
 23
293.5687411472064
 33
0.0
  0
MTEXT
  5
D0E
330
C3A
100
AcDbEntity
  8
Kóta (ISO)
440
 16777216
100
AcDbMText
 10
297.4120230156584
 20
300.9149668020082
 30
0.0
 40
5.833333333333332
 41
0.0
 71
     1
 72
     1
  1
\A1;{\fAIGDT|b0|i0;\H5.8333;o\fTahoma|b0|i0;\H5.8333;}200
  7
Text poznámky (ISO)
 73
     1
 44
1.0
  0
POINT
  5
D0F
330
C3A
100
AcDbEntity
  8
Defpoints
 62
     0
440
 16777216
100
AcDbPoint
 10
207.0425497510815
 20
273.3407708412349
 30
0.0
  0
POINT
  5
D10
330
C3A
100
AcDbEntity
  8
Defpoints
 62
     0
440
 16777216
100
AcDbPoint
 10
407.0425497510818
 20
273.340770841235
 30
0.0
  0
POINT
  5
D11
330
C3A
100
AcDbEntity
  8
Defpoints
 62
     0
440
 16777216
100
AcDbPoint
 10
407.0425497510818
 20
293.5687411472064
 30
0.0
  0
ENDBLK
  5
C3C
330
C3A
100
AcDbEntity
  8
0
100
AcDbBlockEnd
  0
BLOCK
  5
D15
330
D14
100
AcDbEntity
  8
0
100
AcDbBlockBegin
  2
KUSOVNÍK
 70
     0
 10
0.0
 20
0.0
 30
0.0
  3
KUSOVNÍK
  1

  0
LINE
  5
D17
330
D14
100
AcDbEntity
  8
Značka (ISO)
100
AcDbLine
 10
584.0
 20
186.9279203474522
 30
0.0
 11
332.7598135934716
 21
186.9279203474522
 31
0.0
  0
LINE
  5
D18
330
D14
100
AcDbEntity
  8
Značka (ISO)
100
AcDbLine
 10
584.0
 20
186.9279203474522
 30
0.0
 11
584.0
 21
180.5792191505432
 31
0.0
  0
LINE
  5
D19
330
D14
100
AcDbEntity
  8
Značka (ISO)
100
AcDbLine
 10
332.7598135934716
 20
186.9279203474522
 30
0.0
 11
332.7598135934716
 21
180.5792191505432
 31
0.0
  0
MTEXT
  5
D1A
102
{ACAD_XDICTIONARY
360
1DC8
102
}
330
D14
100
AcDbEntity
  8
Značka (ISO)
100
AcDbMText
 10
447.8365283852051
 20
181.3038943976164
 30
0.0
 40
3.499999940395355
 41
0.0
 71
     7
 72
     1
  1
KUSOVN\U+00CDK
  7
Text poznámky (DIN)
 73
     1
 44
1.0
  0
LINE
  5
D1C
330
D14
100
AcDbEntity
  8
Značka (ISO)
100
AcDbLine
 10
584.0
 20
180.5792191505432
 30
0.0
 11
332.7598135934716
 21
180.5792191505432
 31
0.0
  0
LINE
  5
D1D
330
D14
100
AcDbEntity
  8
Značka (ISO)
100
AcDbLine
 10
584.0
 20
180.5792191505432
 30
0.0
 11
584.0
 21
174.2305179536342
 31
0.0
  0
MTEXT
  5
D1E
102
{ACAD_XDICTIONARY
360
1DCA
102
}
330
D14
100
AcDbEntity
  8
Značka (ISO)
100
AcDbMText
 10
557.1192460114049
 20
174.9551932007074
 30
0.0
 40
3.499999940395355
 41
0.0
 71
     7
 72
     1
  1
MATERI\U+00C1L
  7
Text poznámky (DIN)
 73
     1
 44
1.0
  0
LINE
  5
D1F
330
D14
100
AcDbEntity
  8
Značka (ISO)
100
AcDbLine
 10
550.6239501321871
 20
180.5792191505432
 30
0.0
 11
550.6239501321871
 21
174.2305179536342
 31
0.0
  0
MTEXT
  5
D20
330
D14
100
AcDbEntity
  8
Značka (ISO)
100
AcDbMText
 10
522.8681963820106
 20
175.654868581891
 30
0.0
 40
3.499999940395355
 41
0.0
 71
     7
 72
     1
  1
HMOTNOST
  7
Text poznámky (DIN)
 73
     1
 44
1.0
  0
LINE
  5
D21
330
D14
100
AcDbEntity
  8
Značka (ISO)
100
AcDbLine
 10
517.2479002643743
 20
180.5792191505432
 30
0.0
 11
517.2479002643743
 21
174.2305179536342
 31
0.0
  0
MTEXT
  5
D22
102
{ACAD_XDICTIONARY
360
1DCC
102
}
330
D14
100
AcDbEntity
  8
Značka (ISO)
100
AcDbMText
 10
485.1187701447214
 20
174.9551932007074
 30
0.0
 40
3.499999940395355
 41
0.0
 71
     7
 72
     1
  1
SKLADOV\U+00C9 \U+010C\U+00CDS
  7
Text poznámky (DIN)
 73
     1
 44
1.0
  0
LINE
  5
D23
330
D14
100
AcDbEntity
  8
Značka (ISO)
100
AcDbLine
 10
483.8718503965613
 20
180.5792191505432
 30
0.0
 11
483.8718503965613
 21
174.2305179536342
 31
0.0
  0
MTEXT
  5
D24
330
D14
100
AcDbEntity
  8
Značka (ISO)
100
AcDbMText
 10
441.9170112457871
 20
175.654868581891
 30
0.0
 40
3.499999940395355
 41
0.0
 71
     7
 72
     1
  1
POPIS
  7
Text poznámky (DIN)
 73
     1
 44
1.0
  0
LINE
  5
D25
330
D14
100
AcDbEntity
  8
Značka (ISO)
100
AcDbLine
 10
411.6008762733446
 20
180.5792191505432
 30
0.0
 11
411.6008762733446
 21
174.2305179536342
 31
0.0
  0
MTEXT
  5
D26
330
D14
100
AcDbEntity
  8
Značka (ISO)
100
AcDbMText
 10
392.6793544239893
 20
175.654868581891
 30
0.0
 40
3.499999940395355
 41
0.0
 71
     7
 72
     1
  1
KS
  7
Text poznámky (DIN)
 73
     1
 44
1.0
  0
LINE
  5
D27
330
D14
100
AcDbEntity
  8
Značka (ISO)
100
AcDbLine
 10
378.7504334900642
 20
180.5792191505432
 30
0.0
 11
378.7504334900642
 21
174.2305179536342
 31
0.0
  0
MTEXT
  5
D28
330
D14
100
AcDbEntity
  8
Značka (ISO)
100
AcDbMText
 10
348.8870700470769
 20
175.654868581891
 30
0.0
 40
3.499999940395355
 41
0.0
 71
     7
 72
     1
  1
POZICE
  7
Text poznámky (DIN)
 73
     1
 44
1.0
  0
LINE
  5
D29
330
D14
100
AcDbEntity
  8
Značka (ISO)
100
AcDbLine
 10
332.7598135934716
 20
180.5792191505432
 30
0.0
 11
332.7598135934716
 21
174.2305179536342
 31
0.0
  0
MTEXT
  5
D2A
330
D14
100
AcDbEntity
  8
Značka (ISO)
100
AcDbMText
 10
551.5239501321871
 20
169.3061673849821
 30
0.0
 40
3.499999940395355
 41
0.0
 71
     7
 72
     1
  1
 
  7
Text poznámky (DIN)
 73
     1
 44
1.0
  0
MTEXT
  5
D2B
330
D14
100
AcDbEntity
  8
Značka (ISO)
100
AcDbMText
 10
518.4503010333702
 20
168.2574661284685
 30
0.0
 40
3.499999940395355
 41
0.0
 71
     7
 72
     1
  1
2,658 kg
  7
Text poznámky (DIN)
 73
     1
 44
1.0
  0
MTEXT
  5
D2C
330
D14
100
AcDbEntity
  8
Značka (ISO)
100
AcDbMText
 10
485.0742511655575
 20
169.3061673849821
 30
0.0
 40
3.499999940395355
 41
0.0
 71
     7
 72
     1
  1
E55590
  7
Text poznámky (DIN)
 73
     1
 44
1.0
  0
MTEXT
  5
D2D
102
{ACAD_XDICTIONARY
360
1DCE
102
}
330
D14
100
AcDbEntity
  8
Značka (ISO)
100
AcDbMText
 10
412.8032770423406
 20
168.083764782548
 30
0.0
 40
3.499999940395355
 41
0.0
 71
     7
 72
     1
  1
Effidrain jednod\U+00EDln\U+00E1 157/DN70 
  7
Text poznámky (DIN)
 73
     1
 44
1.0
  0
MTEXT
  5
D2E
102
{ACAD_XDICTIONARY
360
1DD0
102
}
330
D14
100
AcDbEntity
  8
Značka (ISO)
100
AcDbMText
 10
412.8032770423406
 20
161.735063663125
 30
0.0
 40
3.499999940395355
 41
0.0
 71
     7
 72
     1
  1
svisl\U+00E1 p\U+0159\U+00EDruba sva\U+0159enec AISI 
  7
Text poznámky (DIN)
 73
     1
 44
1.0
  0
MTEXT
  5
D2F
330
D14
100
AcDbEntity
  8
Značka (ISO)
100
AcDbMText
 10
412.8032770423406
 20
156.4350638002157
 30
0.0
 40
3.499999940395355
 41
0.0
 71
     7
 72
     1
  1
304
  7
Text poznámky (DIN)
 73
     1
 44
1.0
  0
MTEXT
  5
D30
330
D14
100
AcDbEntity
  8
Značka (ISO)
100
AcDbMText
 10
394.6002556584813
 20
169.3061673849821
 30
0.0
 40
3.499999940395355
 41
0.0
 71
     7
 72
     1
  1
1
  7
Text poznámky (DIN)
 73
     1
 44
1.0
  0
MTEXT
  5
D31
330
D14
100
AcDbEntity
  8
Značka (ISO)
100
AcDbMText
 10
355.1797243185449
 20
169.3061673849821
 30
0.0
 40
3.499999940395355
 41
0.0
 71
     7
 72
     1
  1
1
  7
Text poznámky (DIN)
 73
     1
 44
1.0
  0
LINE
  5
D32
330
D14
100
AcDbEntity
  8
Značka (ISO)
100
AcDbLine
 10
584.0
 20
174.2305179536342
 30
0.0
 11
332.7598135934716
 21
174.2305179536342
 31
0.0
  0
MTEXT
  5
D33
330
D14
100
AcDbEntity
  8
Značka (ISO)
100
AcDbMText
 10
551.8263509011831
 20
150.2600637942552
 30
0.0
 40
3.499999940395355
 41
0.0
 71
     7
 72
     1
  1
PVC-U
  7
Text poznámky (DIN)
 73
     1
 44
1.0
  0
MTEXT
  5
D34
330
D14
100
AcDbEntity
  8
Značka (ISO)
100
AcDbMText
 10
518.4503010333702
 20
149.2113625377417
 30
0.0
 40
3.499999940395355
 41
0.0
 71
     7
 72
     1
  1
0,042 kg
  7
Text poznámky (DIN)
 73
     1
 44
1.0
  0
MTEXT
  5
D35
330
D14
100
AcDbEntity
  8
Značka (ISO)
100
AcDbMText
 10
485.0742511655575
 20
150.2600637942552
 30
0.0
 40
3.499999940395355
 41
0.0
 71
     7
 72
     1
  1
NM 6701
  7
Text poznámky (DIN)
 73
     1
 44
1.0
  0
MTEXT
  5
D36
102
{ACAD_XDICTIONARY
360
1DD2
102
}
330
D14
100
AcDbEntity
  8
Značka (ISO)
100
AcDbMText
 10
412.8032770423406
 20
149.0376611918211
 30
0.0
 40
3.499999940395355
 41
0.0
 71
     7
 72
     1
  1
n\U+00E1vlek sunap-DN70
  7
Text poznámky (DIN)
 73
     1
 44
1.0
  0
MTEXT
  5
D37
330
D14
100
AcDbEntity
  8
Značka (ISO)
100
AcDbMText
 10
394.6002556584813
 20
150.2600637942552
 30
0.0
 40
3.499999940395355
 41
0.0
 71
     7
 72
     1
  1
1
  7
Text poznámky (DIN)
 73
     1
 44
1.0
  0
MTEXT
  5
D38
330
D14
100
AcDbEntity
  8
Značka (ISO)
100
AcDbMText
 10
354.8334983758294
 20
150.2600637942552
 30
0.0
 40
3.499999940395355
 41
0.0
 71
     7
 72
     1
  1
5
  7
Text poznámky (DIN)
 73
     1
 44
1.0
  0
LINE
  5
D39
330
D14
100
AcDbEntity
  8
Značka (ISO)
100
AcDbLine
 10
584.0
 20
155.1844143629074
 30
0.0
 11
332.7598135934716
 21
155.1844143629074
 31
0.0
  0
MTEXT
  5
D3A
330
D14
100
AcDbEntity
  8
Značka (ISO)
100
AcDbMText
 10
551.8263509011831
 20
143.9113625973463
 30
0.0
 40
3.499999940395355
 41
0.0
 71
     7
 72
     1
  1
Guma
  7
Text poznámky (DIN)
 73
     1
 44
1.0
  0
MTEXT
  5
D3B
330
D14
100
AcDbEntity
  8
Značka (ISO)
100
AcDbMText
 10
518.4503010333702
 20
142.8626613408327
 30
0.0
 40
3.499999940395355
 41
0.0
 71
     7
 72
     1
  1
0,108 kg
  7
Text poznámky (DIN)
 73
     1
 44
1.0
  0
MTEXT
  5
D3C
330
D14
100
AcDbEntity
  8
Značka (ISO)
100
AcDbMText
 10
485.0742511655575
 20
143.9113625973463
 30
0.0
 40
3.499999940395355
 41
0.0
 71
     7
 72
     1
  1
408201
  7
Text poznámky (DIN)
 73
     1
 44
1.0
  0
MTEXT
  5
D3D
330
D14
100
AcDbEntity
  8
Značka (ISO)
100
AcDbMText
 10
412.8032770423406
 20
143.9113625973463
 30
0.0
 40
3.499999940395355
 41
0.0
 71
     7
 72
     1
  1
Effidrain drzak sifonu - tesneni
  7
Text poznámky (DIN)
 73
     1
 44
1.0
  0
MTEXT
  5
D3E
330
D14
100
AcDbEntity
  8
Značka (ISO)
100
AcDbMText
 10
394.6002556584813
 20
143.9113625973463
 30
0.0
 40
3.499999940395355
 41
0.0
 71
     7
 72
     1
  1
1
  7
Text poznámky (DIN)
 73
     1
 44
1.0
  0
MTEXT
  5
D3F
330
D14
100
AcDbEntity
  8
Značka (ISO)
100
AcDbMText
 10
354.8306983687091
 20
143.9113625973463
 30
0.0
 40
3.499999940395355
 41
0.0
 71
     7
 72
     1
  1
7
  7
Text poznámky (DIN)
 73
     1
 44
1.0
  0
LINE
  5
D40
330
D14
100
AcDbEntity
  8
Značka (ISO)
100
AcDbLine
 10
584.0
 20
148.8357131659984
 30
0.0
 11
332.7598135934716
 21
148.8357131659984
 31
0.0
  0
MTEXT
  5
D41
330
D14
100
AcDbEntity
  8
Značka (ISO)
100
AcDbMText
 10
551.5239501321871
 20
137.5626614004374
 30
0.0
 40
3.499999940395355
 41
0.0
 71
     7
 72
     1
  1
 
  7
Text poznámky (DIN)
 73
     1
 44
1.0
  0
MTEXT
  5
D42
330
D14
100
AcDbEntity
  8
Značka (ISO)
100
AcDbMText
 10
518.4503010333702
 20
136.5139601439238
 30
0.0
 40
3.499999940395355
 41
0.0
 71
     7
 72
     1
  1
0,707 kg
  7
Text poznámky (DIN)
 73
     1
 44
1.0
  0
MTEXT
  5
D43
330
D14
100
AcDbEntity
  8
Značka (ISO)
100
AcDbMText
 10
485.0742511655575
 20
137.5626614004374
 30
0.0
 40
3.499999940395355
 41
0.0
 71
     7
 72
     1
  1
E53905
  7
Text poznámky (DIN)
 73
     1
 44
1.0
  0
MTEXT
  5
D44
330
D14
100
AcDbEntity
  8
Značka (ISO)
100
AcDbMText
 10
412.8032770423406
 20
137.5626614004374
 30
0.0
 40
3.499999940395355
 41
0.0
 71
     7
 72
     1
  1
Effidrain sifon 157 AISI 304
  7
Text poznámky (DIN)
 73
     1
 44
1.0
  0
MTEXT
  5
D45
330
D14
100
AcDbEntity
  8
Značka (ISO)
100
AcDbMText
 10
394.6002556584813
 20
137.5626614004374
 30
0.0
 40
3.499999940395355
 41
0.0
 71
     7
 72
     1
  1
1
  7
Text poznámky (DIN)
 73
     1
 44
1.0
  0
MTEXT
  5
D46
330
D14
100
AcDbEntity
  8
Značka (ISO)
100
AcDbMText
 10
354.8334983758294
 20
137.5626614004374
 30
0.0
 40
3.499999940395355
 41
0.0
 71
     7
 72
     1
  1
8
  7
Text poznámky (DIN)
 73
     1
 44
1.0
  0
LINE
  5
D47
330
D14
100
AcDbEntity
  8
Značka (ISO)
100
AcDbLine
 10
584.0
 20
142.4870119690895
 30
0.0
 11
332.7598135934716
 21
142.4870119690895
 31
0.0
  0
MTEXT
  5
D48
330
D14
100
AcDbEntity
  8
Značka (ISO)
100
AcDbMText
 10
551.8263509011831
 20
130.6896095007658
 30
0.0
 40
3.499999940395355
 41
0.0
 71
     7
 72
     1
  1
Mosaz (leskle 
  7
Text poznámky (DIN)
 73
     1
 44
1.0
  0
MTEXT
  5
D49
102
{ACAD_XDICTIONARY
360
1DD4
102
}
330
D14
100
AcDbEntity
  8
Značka (ISO)
100
AcDbMText
 10
551.8263509011831
 20
124.3409083813429
 30
0.0
 40
3.499999940395355
 41
0.0
 71
     7
 72
     1
  1
\U+017Elut\U+00E1)
  7
Text poznámky (DIN)
 73
     1
 44
1.0
  0
MTEXT
  5
D4A
330
D14
100
AcDbEntity
  8
Značka (ISO)
100
AcDbMText
 10
518.4503010333702
 20
130.1652589470148
 30
0.0
 40
3.499999940395355
 41
0.0
 71
     7
 72
     1
  1
0,006 kg
  7
Text poznámky (DIN)
 73
     1
 44
1.0
  0
MTEXT
  5
D4B
330
D14
100
AcDbEntity
  8
Značka (ISO)
100
AcDbMText
 10
485.0742511655575
 20
131.2139602035284
 30
0.0
 40
3.499999940395355
 41
0.0
 71
     7
 72
     1
  1
90678
  7
Text poznámky (DIN)
 73
     1
 44
1.0
  0
MTEXT
  5
D4C
102
{ACAD_XDICTIONARY
360
1DD6
102
}
330
D14
100
AcDbEntity
  8
Značka (ISO)
100
AcDbMText
 10
412.8032770423406
 20
129.4655835658312
 30
0.0
 40
3.499999940395355
 41
0.0
 71
     7
 72
     1
  1
\U+0160estihrann\U+00E1 matice_mosaz M8
  7
Text poznámky (DIN)
 73
     1
 44
1.0
  0
MTEXT
  5
D4D
330
D14
100
AcDbEntity
  8
Značka (ISO)
100
AcDbMText
 10
394.6002556584813
 20
131.2139602035284
 30
0.0
 40
3.499999940395355
 41
0.0
 71
     7
 72
     1
  1
1
  7
Text poznámky (DIN)
 73
     1
 44
1.0
  0
MTEXT
  5
D4E
330
D14
100
AcDbEntity
  8
Značka (ISO)
100
AcDbMText
 10
353.9556983091046
 20
131.2139602035284
 30
0.0
 40
3.499999940395355
 41
0.0
 71
     7
 72
     1
  1
10
  7
Text poznámky (DIN)
 73
     1
 44
1.0
  0
LINE
  5
D4F
330
D14
100
AcDbEntity
  8
Značka (ISO)
100
AcDbLine
 10
584.0
 20
136.1383107721806
 30
0.0
 11
332.7598135934716
 21
136.1383107721806
 31
0.0
  0
MTEXT
  5
D50
330
D14
100
AcDbEntity
  8
Značka (ISO)
100
AcDbMText
 10
551.8263509011831
 20
118.5165578097105
 30
0.0
 40
3.499999940395355
 41
0.0
 71
     7
 72
     1
  1
Plast ABS
  7
Text poznámky (DIN)
 73
     1
 44
1.0
  0
MTEXT
  5
D51
330
D14
100
AcDbEntity
  8
Značka (ISO)
100
AcDbMText
 10
518.4503010333702
 20
117.4678565531969
 30
0.0
 40
3.499999940395355
 41
0.0
 71
     7
 72
     1
  1
0,002 kg
  7
Text poznámky (DIN)
 73
     1
 44
1.0
  0
MTEXT
  5
D52
330
D14
100
AcDbEntity
  8
Značka (ISO)
100
AcDbMText
 10
485.0742511655575
 20
118.5165578097105
 30
0.0
 40
3.499999940395355
 41
0.0
 71
     7
 72
     1
  1
91024
  7
Text poznámky (DIN)
 73
     1
 44
1.0
  0
MTEXT
  5
D53
330
D14
100
AcDbEntity
  8
Značka (ISO)
100
AcDbMText
 10
412.8032770423406
 20
117.4678565531969
 30
0.0
 40
3.499999940395355
 41
0.0
 71
     7
 72
     1
  1
Krytka  matic 130-034-148 
  7
Text poznámky (DIN)
 73
     1
 44
1.0
  0
MTEXT
  5
D54
102
{ACAD_XDICTIONARY
360
1DD8
102
}
330
D14
100
AcDbEntity
  8
Značka (ISO)
100
AcDbMText
 10
412.8032770423406
 20
111.4665579766035
 30
0.0
 40
3.499999940395355
 41
0.0
 71
     7
 72
     1
  1
\U+0161estihrann\U+00E1, \U+010Dern\U+00E1
  7
Text poznámky (DIN)
 73
     1
 44
1.0
  0
MTEXT
  5
D55
330
D14
100
AcDbEntity
  8
Značka (ISO)
100
AcDbMText
 10
394.6002556584813
 20
118.5165578097105
 30
0.0
 40
3.499999940395355
 41
0.0
 71
     7
 72
     1
  1
1
  7
Text poznámky (DIN)
 73
     1
 44
1.0
  0
MTEXT
  5
D56
330
D14
100
AcDbEntity
  8
Značka (ISO)
100
AcDbMText
 10
354.3047243334461
 20
118.5165578097105
 30
0.0
 40
3.499999940395355
 41
0.0
 71
     7
 72
     1
  1
11
  7
Text poznámky (DIN)
 73
     1
 44
1.0
  0
LINE
  5
D57
330
D14
100
AcDbEntity
  8
Značka (ISO)
100
AcDbLine
 10
584.0
 20
123.4409083783627
 30
0.0
 11
332.7598135934716
 21
123.4409083783627
 31
0.0
  0
MTEXT
  5
D58
330
D14
100
AcDbEntity
  8
Značka (ISO)
100
AcDbMText
 10
551.8263509011831
 20
105.8191554158926
 30
0.0
 40
3.499999940395355
 41
0.0
 71
     7
 72
     1
  1
Guma
  7
Text poznámky (DIN)
 73
     1
 44
1.0
  0
MTEXT
  5
D59
330
D14
100
AcDbEntity
  8
Značka (ISO)
100
AcDbMText
 10
518.4503010333702
 20
104.770454159379
 30
0.0
 40
3.499999940395355
 41
0.0
 71
     7
 72
     1
  1
0,073 kg
  7
Text poznámky (DIN)
 73
     1
 44
1.0
  0
MTEXT
  5
D5A
330
D14
100
AcDbEntity
  8
Značka (ISO)
100
AcDbMText
 10
485.0742511655575
 20
105.8191554158926
 30
0.0
 40
3.499999940395355
 41
0.0
 71
     7
 72
     1
  1
408204
  7
Text poznámky (DIN)
 73
     1
 44
1.0
  0
MTEXT
  5
D5B
102
{ACAD_XDICTIONARY
360
1DDA
102
}
330
D14
100
AcDbEntity
  8
Značka (ISO)
100
AcDbMText
 10
412.8032770423406
 20
104.5967528134585
 30
0.0
 40
3.499999940395355
 41
0.0
 71
     7
 72
     1
  1
Effidrain v\U+00FDpl\U+0148 rostov\U+00E1 
  7
Text poznámky (DIN)
 73
     1
 44
1.0
  0
MTEXT
  5
D5C
102
{ACAD_XDICTIONARY
360
1DDC
102
}
330
D14
100
AcDbEntity
  8
Značka (ISO)
100
AcDbMText
 10
412.8032770423406
 20
99.29675295054918
 30
0.0
 40
3.499999940395355
 41
0.0
 71
     7
 72
     1
  1
n\U+00E1stavba 200x200
  7
Text poznámky (DIN)
 73
     1
 44
1.0
  0
MTEXT
  5
D5D
330
D14
100
AcDbEntity
  8
Značka (ISO)
100
AcDbMText
 10
394.6002556584813
 20
105.8191554158926
 30
0.0
 40
3.499999940395355
 41
0.0
 71
     7
 72
     1
  1
1
  7
Text poznámky (DIN)
 73
     1
 44
1.0
  0
MTEXT
  5
D5E
330
D14
100
AcDbEntity
  8
Značka (ISO)
100
AcDbMText
 10
353.9556983091046
 20
105.8191554158926
 30
0.0
 40
3.499999940395355
 41
0.0
 71
     7
 72
     1
  1
12
  7
Text poznámky (DIN)
 73
     1
 44
1.0
  0
LINE
  5
D5F
330
D14
100
AcDbEntity
  8
Značka (ISO)
100
AcDbLine
 10
584.0
 20
110.7435059845448
 30
0.0
 11
332.7598135934716
 21
110.7435059845448
 31
0.0
  0
MTEXT
  5
D60
102
{ACAD_XDICTIONARY
360
1DDE
102
}
330
D14
100
AcDbEntity
  8
Značka (ISO)
100
AcDbMText
 10
551.8263509011831
 20
91.8993504196406
 30
0.0
 40
3.499999940395355
 41
0.0
 71
     7
 72
     1
  1
Polykarbon\U+00E1t, 
  7
Text poznámky (DIN)
 73
     1
 44
1.0
  0
MTEXT
  5
D61
102
{ACAD_XDICTIONARY
360
1DE0
102
}
330
D14
100
AcDbEntity
  8
Značka (ISO)
100
AcDbMText
 10
551.8263509011831
 20
85.55064930021769
 30
0.0
 40
3.499999940395355
 41
0.0
 71
     7
 72
     1
  1
kou\U+0159ov\U+00FD
  7
Text poznámky (DIN)
 73
     1
 44
1.0
  0
MTEXT
  5
D62
330
D14
100
AcDbEntity
  8
Značka (ISO)
100
AcDbMText
 10
518.4503010333702
 20
92.07305176556117
 30
0.0
 40
3.499999940395355
 41
0.0
 71
     7
 72
     1
  1
0,039 kg
  7
Text poznámky (DIN)
 73
     1
 44
1.0
  0
MTEXT
  5
D63
330
D14
100
AcDbEntity
  8
Značka (ISO)
100
AcDbMText
 10
485.0742511655575
 20
93.12175302207476
 30
0.0
 40
3.499999940395355
 41
0.0
 71
     7
 72
     1
  1
E53832
  7
Text poznámky (DIN)
 73
     1
 44
1.0
  0
MTEXT
  5
D64
102
{ACAD_XDICTIONARY
360
1DE2
102
}
330
D14
100
AcDbEntity
  8
Značka (ISO)
100
AcDbMText
 10
412.8032770423406
 20
91.8993504196406
 30
0.0
 40
3.499999940395355
 41
0.0
 71
     7
 72
     1
  1
Effidrain kryt plastov\U+00FD pro 
  7
Text poznámky (DIN)
 73
     1
 44
1.0
  0
MTEXT
  5
D65
102
{ACAD_XDICTIONARY
360
1DE4
102
}
330
D14
100
AcDbEntity
  8
Značka (ISO)
100
AcDbMText
 10
412.8032770423406
 20
86.59935055673129
 30
0.0
 40
3.499999940395355
 41
0.0
 71
     7
 72
     1
  1
balen\U+00ED PP kruh 200x200
  7
Text poznámky (DIN)
 73
     1
 44
1.0
  0
MTEXT
  5
D66
330
D14
100
AcDbEntity
  8
Značka (ISO)
100
AcDbMText
 10
394.6002556584813
 20
93.12175302207476
 30
0.0
 40
3.499999940395355
 41
0.0
 71
     7
 72
     1
  1
1
  7
Text poznámky (DIN)
 73
     1
 44
1.0
  0
MTEXT
  5
D67
330
D14
100
AcDbEntity
  8
Značka (ISO)
100
AcDbMText
 10
353.9556983091046
 20
93.12175302207476
 30
0.0
 40
3.499999940395355
 41
0.0
 71
     7
 72
     1
  1
13
  7
Text poznámky (DIN)
 73
     1
 44
1.0
  0
LINE
  5
D68
330
D14
100
AcDbEntity
  8
Značka (ISO)
100
AcDbLine
 10
584.0
 20
98.04610359072693
 30
0.0
 11
332.7598135934716
 21
98.04610359072693
 31
0.0
  0
MTEXT
  5
D69
102
{ACAD_XDICTIONARY
360
1DE6
102
}
330
D14
100
AcDbEntity
  8
Značka (ISO)
100
AcDbMText
 10
551.8263509011831
 20
79.2019480258227
 30
0.0
 40
3.499999940395355
 41
0.0
 71
     7
 72
     1
  1
pap\U+00EDr
  7
Text poznámky (DIN)
 73
     1
 44
1.0
  0
MTEXT
  5
D6A
330
D14
100
AcDbEntity
  8
Značka (ISO)
100
AcDbMText
 10
518.4503010333702
 20
79.37564937174326
 30
0.0
 40
3.499999940395355
 41
0.0
 71
     7
 72
     1
  1
0,001 kg
  7
Text poznámky (DIN)
 73
     1
 44
1.0
  0
MTEXT
  5
D6B
330
D14
100
AcDbEntity
  8
Značka (ISO)
100
AcDbMText
 10
485.0742511655575
 20
80.42435062825687
 30
0.0
 40
3.499999940395355
 41
0.0
 71
     7
 72
     1
  1
91018
  7
Text poznámky (DIN)
 73
     1
 44
1.0
  0
MTEXT
  5
D6C
330
D14
100
AcDbEntity
  8
Značka (ISO)
100
AcDbMText
 10
412.8032770423406
 20
80.42435062825687
 30
0.0
 40
3.499999940395355
 41
0.0
 71
     7
 72
     1
  1
Etiketa
  7
Text poznámky (DIN)
 73
     1
 44
1.0
  0
MTEXT
  5
D6D
330
D14
100
AcDbEntity
  8
Značka (ISO)
100
AcDbMText
 10
394.6002556584813
 20
80.42435062825687
 30
0.0
 40
3.499999940395355
 41
0.0
 71
     7
 72
     1
  1
1
  7
Text poznámky (DIN)
 73
     1
 44
1.0
  0
MTEXT
  5
D6E
330
D14
100
AcDbEntity
  8
Značka (ISO)
100
AcDbMText
 10
353.7803736306835
 20
80.42435062825687
 30
0.0
 40
3.499999940395355
 41
0.0
 71
     7
 72
     1
  1
14
  7
Text poznámky (DIN)
 73
     1
 44
1.0
  0
LINE
  5
D6F
330
D14
100
AcDbEntity
  8
Značka (ISO)
100
AcDbLine
 10
584.0
 20
85.348701196909
 30
0.0
 11
332.7598135934716
 21
85.348701196909
 31
0.0
  0
LINE
  5
D70
330
D14
100
AcDbEntity
  8
Značka (ISO)
100
AcDbLine
 10
584.0
 20
79.00000000000004
 30
0.0
 11
332.7598135934716
 21
79.00000000000004
 31
0.0
  0
LINE
  5
D71
330
D14
100
AcDbEntity
  8
Značka (ISO)
100
AcDbLine
 10
584.0
 20
174.2305179536342
 30
0.0
 11
584.0
 21
79.00000000000004
 31
0.0
  0
LINE
  5
D72
330
D14
100
AcDbEntity
  8
Značka (ISO)
100
AcDbLine
 10
550.6239501321871
 20
174.2305179536342
 30
0.0
 11
550.6239501321871
 21
79.00000000000004
 31
0.0
  0
LINE
  5
D73
330
D14
100
AcDbEntity
  8
Značka (ISO)
100
AcDbLine
 10
517.2479002643743
 20
174.2305179536342
 30
0.0
 11
517.2479002643743
 21
79.00000000000004
 31
0.0
  0
LINE
  5
D74
330
D14
100
AcDbEntity
  8
Značka (ISO)
100
AcDbLine
 10
483.8718503965613
 20
174.2305179536342
 30
0.0
 11
483.8718503965613
 21
79.00000000000004
 31
0.0
  0
LINE
  5
D75
330
D14
100
AcDbEntity
  8
Značka (ISO)
100
AcDbLine
 10
411.6008762733446
 20
174.2305179536342
 30
0.0
 11
411.6008762733446
 21
79.00000000000004
 31
0.0
  0
LINE
  5
D76
330
D14
100
AcDbEntity
  8
Značka (ISO)
100
AcDbLine
 10
378.7504334900642
 20
174.2305179536342
 30
0.0
 11
378.7504334900642
 21
79.00000000000004
 31
0.0
  0
LINE
  5
D77
330
D14
100
AcDbEntity
  8
Značka (ISO)
100
AcDbLine
 10
332.7598135934716
 20
174.2305179536342
 30
0.0
 11
332.7598135934716
 21
79.00000000000004
 31
0.0
  0
ENDBLK
  5
D16
330
D14
100
AcDbEntity
  8
0
100
AcDbBlockEnd
  0
BLOCK
  5
D7A
330
D79
100
AcDbEntity
  8
0
100
AcDbBlockBegin
  2
Pozice1
 70
     0
 10
0.0
 20
0.0
 30
0.0
  3
Pozice1
  1

  0
LINE
  5
D7C
330
D79
100
AcDbEntity
  8
Značka (ISO)
100
AcDbLine
 10
122.1828851340563
 20
384.7035846401682
 30
0.0
 11
124.2255298507071
 21
383.2621955318637
 31
0.0
  0
POLYLINE
  5
D7D
330
D79
100
AcDbEntity
  8
Značka (ISO)
100
AcDb2dPolyline
 66
     1
 10
0.0
 20
0.0
 30
0.0
 70
   128
  0
VERTEX
  5
D7E
330
D7D
100
AcDbEntity
  8
Značka (ISO)
100
AcDbVertex
100
AcDb2dVertex
 10
121.8946075439453
 20
384.2950439453125
 30
0.0
  0
VERTEX
  5
D7F
330
D7D
100
AcDbEntity
  8
Značka (ISO)
100
AcDbVertex
100
AcDb2dVertex
 10
124.2255306243896
 20
383.2621765136719
 30
0.0
  0
VERTEX
  5
D81
330
D7D
100
AcDbEntity
  8
Značka (ISO)
100
AcDbVertex
100
AcDb2dVertex
 10
122.4711608886718
 20
385.1121139526367
 30
0.0
  0
VERTEX
  5
D82
330
D7D
100
AcDbEntity
  8
Značka (ISO)
100
AcDbVertex
100
AcDb2dVertex
 10
121.8946075439453
 20
384.2950439453125
 30
0.0
  0
SEQEND
  5
D80
330
D7D
100
AcDbEntity
  8
Značka (ISO)
  0
SOLID
  5
D83
330
D79
100
AcDbEntity
  8
Značka (ISO)
100
AcDbTrace
 10
121.8946075439453
 20
384.2950439453125
 30
0.0
 11
124.2255306243896
 21
383.2621765136719
 31
0.0
 12
122.4711608886718
 22
385.1121139526367
 32
0.0
 13
121.8946075439453
 23
384.2950439453125
 33
0.0
  0
LINE
  5
D84
330
D79
100
AcDbEntity
  8
Značka (ISO)
100
AcDbLine
 10
121.8946073123954
 20
384.2950556968379
 30
0.0
 11
124.2255298507071
 21
383.2621955318637
 31
0.0
  0
LINE
  5
D85
330
D79
100
AcDbEntity
  8
Značka (ISO)
100
AcDbLine
 10
124.2255298507071
 20
383.2621955318637
 30
0.0
 11
122.4711629557172
 21
385.1121135834982
 31
0.0
  0
LINE
  5
D86
330
D79
100
AcDbEntity
  8
Značka (ISO)
100
AcDbLine
 10
122.4711629557172
 20
385.1121135834982
 30
0.0
 11
121.8946073123954
 21
384.2950556968379
 31
0.0
  0
LINE
  5
D87
330
D79
100
AcDbEntity
  8
Značka (ISO)
100
AcDbLine
 10
122.1828851340563
 20
384.7035846401682
 30
0.0
 11
108.7309510284483
 21
394.1959212895113
 31
0.0
  0
MTEXT
  5
D88
330
D79
100
AcDbEntity
  8
Značka (ISO)
100
AcDbMText
 10
100.8559513860762
 20
400.7669298525527
 30
0.0
 40
5.24999976158142
 41
0.0
 71
     5
 72
     1
  1
1
  7
Text popisu (ISO)
 73
     1
 44
1.0
  0
LINE
  5
D89
330
D79
100
AcDbEntity
  8
Značka (ISO)
100
AcDbLine
 10
108.7309510284483
 20
394.1959212895113
 30
0.0
 11
92.98095174370407
 21
394.1959212895113
 31
0.0
  0
ENDBLK
  5
D7B
330
D79
100
AcDbEntity
  8
0
100
AcDbBlockEnd
  0
BLOCK
  5
D8C
330
D8B
100
AcDbEntity
  8
0
100
AcDbBlockBegin
  2
Pozice2
 70
     0
 10
0.0
 20
0.0
 30
0.0
  3
Pozice2
  1

  0
LINE
  5
D8E
330
D8B
100
AcDbEntity
  8
Značka (ISO)
100
AcDbLine
 10
244.6904926744801
 20
387.3678743513849
 30
0.0
 11
243.0247875337592
 21
385.5036248015188
 31
0.0
  0
POLYLINE
  5
D8F
330
D8B
100
AcDbEntity
  8
Značka (ISO)
100
AcDb2dPolyline
 66
     1
 10
0.0
 20
0.0
 30
0.0
 70
   128
  0
VERTEX
  5
D90
330
D8F
100
AcDbEntity
  8
Značka (ISO)
100
AcDbVertex
100
AcDb2dVertex
 10
244.3176460266113
 20
387.7009963989258
 30
0.0
  0
VERTEX
  5
D91
330
D8F
100
AcDbEntity
  8
Značka (ISO)
100
AcDbVertex
100
AcDb2dVertex
 10
243.024787902832
 20
385.5036163330078
 30
0.0
  0
VERTEX
  5
D93
330
D8F
100
AcDbEntity
  8
Značka (ISO)
100
AcDbVertex
100
AcDb2dVertex
 10
245.0633430480957
 20
387.0347213745117
 30
0.0
  0
VERTEX
  5
D94
330
D8F
100
AcDbEntity
  8
Značka (ISO)
100
AcDbVertex
100
AcDb2dVertex
 10
244.3176460266113
 20
387.7009963989258
 30
0.0
  0
SEQEND
  5
D92
330
D8F
100
AcDbEntity
  8
Značka (ISO)
  0
SOLID
  5
D95
330
D8B
100
AcDbEntity
  8
Značka (ISO)
100
AcDbTrace
 10
244.3176460266113
 20
387.7009963989258
 30
0.0
 11
243.024787902832
 21
385.5036163330078
 31
0.0
 12
245.0633430480957
 22
387.0347213745117
 32
0.0
 13
244.3176460266113
 23
387.7009963989258
 33
0.0
  0
LINE
  5
D96
330
D8B
100
AcDbEntity
  8
Značka (ISO)
100
AcDbLine
 10
244.3176427645069
 20
387.7010153795291
 30
0.0
 11
243.0247875337592
 21
385.5036248015188
 31
0.0
  0
LINE
  5
D97
330
D8B
100
AcDbEntity
  8
Značka (ISO)
100
AcDbLine
 10
243.0247875337592
 20
385.5036248015188
 30
0.0
 11
245.0633425844534
 21
387.0347333232407
 31
0.0
  0
LINE
  5
D98
330
D8B
100
AcDbEntity
  8
Značka (ISO)
100
AcDbLine
 10
245.0633425844534
 20
387.0347333232407
 30
0.0
 11
244.3176427645069
 21
387.7010153795291
 31
0.0
  0
LINE
  5
D99
330
D8B
100
AcDbEntity
  8
Značka (ISO)
100
AcDbLine
 10
244.6904926744801
 20
387.3678743513849
 30
0.0
 11
250.4503505038293
 21
393.8142808030147
 31
0.0
  0
MTEXT
  5
D9A
330
D8B
100
AcDbEntity
  8
Značka (ISO)
100
AcDbMText
 10
258.3253501462014
 20
400.432088250925
 30
0.0
 40
5.24999976158142
 41
0.0
 71
     5
 72
     1
  1
12
  7
Text popisu (ISO)
 73
     1
 44
1.0
  0
LINE
  5
D9B
330
D8B
100
AcDbEntity
  8
Značka (ISO)
100
AcDbLine
 10
250.4503505038293
 20
393.8142808030147
 30
0.0
 11
266.2003497885735
 21
393.8142808030147
 31
0.0
  0
ENDBLK
  5
D8D
330
D8B
100
AcDbEntity
  8
0
100
AcDbBlockEnd
  0
BLOCK
  5
D9E
330
D9D
100
AcDbEntity
  8
0
100
AcDbBlockBegin
  2
Pozice3
 70
     0
 10
0.0
 20
0.0
 30
0.0
  3
Pozice3
  1

  0
LINE
  5
DA0
330
D9D
100
AcDbEntity
  8
Značka (ISO)
100
AcDbLine
 10
238.5945871199128
 20
359.498662906956
 30
0.0
 11
236.7828041023319
 21
361.2212894762407
 31
0.0
  0
POLYLINE
  5
DA1
330
D9D
100
AcDbEntity
  8
Značka (ISO)
100
AcDb2dPolyline
 66
     1
 10
0.0
 20
0.0
 30
0.0
 70
   128
  0
VERTEX
  5
DA2
330
DA1
100
AcDbEntity
  8
Značka (ISO)
100
AcDbVertex
100
AcDb2dVertex
 10
238.9391136169434
 20
359.8610305786133
 30
0.0
  0
VERTEX
  5
DA3
330
DA1
100
AcDbEntity
  8
Značka (ISO)
100
AcDbVertex
100
AcDb2dVertex
 10
236.7827987670898
 20
361.2212753295898
 30
0.0
  0
VERTEX
  5
DA5
330
DA1
100
AcDbEntity
  8
Značka (ISO)
100
AcDbVertex
100
AcDb2dVertex
 10
238.2500648498535
 20
359.1363143920899
 30
0.0
  0
VERTEX
  5
DA6
330
DA1
100
AcDbEntity
  8
Značka (ISO)
100
AcDbVertex
100
AcDb2dVertex
 10
238.9391136169434
 20
359.8610305786133
 30
0.0
  0
SEQEND
  5
DA4
330
DA1
100
AcDbEntity
  8
Značka (ISO)
  0
SOLID
  5
DA7
330
D9D
100
AcDbEntity
  8
Značka (ISO)
100
AcDbTrace
 10
238.9391136169434
 20
359.8610305786133
 30
0.0
 11
236.7827987670898
 21
361.2212753295898
 31
0.0
 12
238.2500648498535
 22
359.1363143920899
 32
0.0
 13
238.9391136169434
 23
359.8610305786133
 33
0.0
  0
LINE
  5
DA8
330
D9D
100
AcDbEntity
  8
Značka (ISO)
100
AcDbLine
 10
238.9391124337697
 20
359.8610195104722
 30
0.0
 11
236.7828041023319
 21
361.2212894762407
 31
0.0
  0
LINE
  5
DA9
330
D9D
100
AcDbEntity
  8
Značka (ISO)
100
AcDbLine
 10
236.7828041023319
 20
361.2212894762407
 30
0.0
 11
238.2500618060559
 21
359.1363063034398
 31
0.0
  0
LINE
  5
DAA
330
D9D
100
AcDbEntity
  8
Značka (ISO)
100
AcDbLine
 10
238.2500618060559
 20
359.1363063034398
 30
0.0
 11
238.9391124337697
 21
359.8610195104722
 31
0.0
  0
LINE
  5
DAB
330
D9D
100
AcDbEntity
  8
Značka (ISO)
100
AcDbLine
 10
238.5945871199128
 20
359.498662906956
 30
0.0
 11
250.4503505038293
 21
348.2263125172519
 31
0.0
  0
MTEXT
  5
DAC
330
D9D
100
AcDbEntity
  8
Značka (ISO)
100
AcDbMText
 10
258.3253501462014
 20
355.0079167839773
 30
0.0
 40
5.24999976158142
 41
0.0
 71
     5
 72
     1
  1
10
  7
Text popisu (ISO)
 73
     1
 44
1.0
  0
LINE
  5
DAD
330
D9D
100
AcDbEntity
  8
Značka (ISO)
100
AcDbLine
 10
250.4503505038293
 20
348.2263125172519
 30
0.0
 11
266.2003497885735
 21
348.2263125172519
 31
0.0
  0
MTEXT
  5
DAE
330
D9D
100
AcDbEntity
  8
Značka (ISO)
100
AcDbMText
 10
258.3253501462014
 20
339.0473217955494
 30
0.0
 40
5.24999976158142
 41
0.0
 71
     5
 72
     1
  1
11
  7
Text popisu (ISO)
 73
     1
 44
1.0
  0
LINE
  5
DAF
330
D9D
100
AcDbEntity
  8
Značka (ISO)
100
AcDbLine
 10
250.4503505038293
 20
332.4763132325077
 30
0.0
 11
250.4503505038293
 21
348.2263125172519
 31
0.0
  0
LINE
  5
DB0
330
D9D
100
AcDbEntity
  8
Značka (ISO)
100
AcDbLine
 10
250.4503505038293
 20
332.4763132325077
 30
0.0
 11
266.2003497885735
 21
332.4763132325077
 31
0.0
  0
ENDBLK
  5
D9F
330
D9D
100
AcDbEntity
  8
0
100
AcDbBlockEnd
  0
BLOCK
  5
DB3
330
DB2
100
AcDbEntity
  8
0
100
AcDbBlockBegin
  2
Pozice4
 70
     0
 10
0.0
 20
0.0
 30
0.0
  3
Pozice4
  1

  0
LINE
  5
DB5
330
DB2
100
AcDbEntity
  8
Značka (ISO)
100
AcDbLine
 10
230.3452531944138
 20
326.427902360349
 30
0.0
 11
228.1801896849525
 21
327.6779023603489
 31
0.0
  0
POLYLINE
  5
DB6
330
DB2
100
AcDbEntity
  8
Značka (ISO)
100
AcDb2dPolyline
 66
     1
 10
0.0
 20
0.0
 30
0.0
 70
   128
  0
VERTEX
  5
DB7
330
DB6
100
AcDbEntity
  8
Značka (ISO)
100
AcDbVertex
100
AcDb2dVertex
 10
230.5952453613281
 20
326.8609237670899
 30
0.0
  0
VERTEX
  5
DB8
330
DB6
100
AcDbEntity
  8
Značka (ISO)
100
AcDbVertex
100
AcDb2dVertex
 10
228.1801986694336
 20
327.6779174804687
 30
0.0
  0
VERTEX
  5
DBA
330
DB6
100
AcDbEntity
  8
Značka (ISO)
100
AcDbVertex
100
AcDb2dVertex
 10
230.0952529907227
 20
325.994873046875
 30
0.0
  0
VERTEX
  5
DBB
330
DB6
100
AcDbEntity
  8
Značka (ISO)
100
AcDbVertex
100
AcDb2dVertex
 10
230.5952453613281
 20
326.8609237670899
 30
0.0
  0
SEQEND
  5
DB9
330
DB6
100
AcDbEntity
  8
Značka (ISO)
  0
SOLID
  5
DBC
330
DB2
100
AcDbEntity
  8
Značka (ISO)
100
AcDbTrace
 10
230.5952453613281
 20
326.8609237670899
 30
0.0
 11
228.1801986694336
 21
327.6779174804687
 31
0.0
 12
230.0952529907227
 22
325.994873046875
 32
0.0
 13
230.5952453613281
 23
326.8609237670899
 33
0.0
  0
LINE
  5
DBD
330
DB2
100
AcDbEntity
  8
Značka (ISO)
100
AcDbLine
 10
230.5952531944137
 20
326.8609150622413
 30
0.0
 11
228.1801896849525
 21
327.6779023603489
 31
0.0
  0
LINE
  5
DBE
330
DB2
100
AcDbEntity
  8
Značka (ISO)
100
AcDbLine
 10
228.1801896849525
 20
327.6779023603489
 30
0.0
 11
230.0952531944138
 21
325.9948896584568
 31
0.0
  0
LINE
  5
DBF
330
DB2
100
AcDbEntity
  8
Značka (ISO)
100
AcDbLine
 10
230.0952531944138
 20
325.9948896584568
 30
0.0
 11
230.5952531944137
 21
326.8609150622413
 31
0.0
  0
LINE
  5
DC0
330
DB2
100
AcDbEntity
  8
Značka (ISO)
100
AcDbLine
 10
230.3452531944138
 20
326.427902360349
 30
0.0
 11
252.2785833584185
 21
313.7646882859388
 31
0.0
  0
MTEXT
  5
DC1
330
DB2
100
AcDbEntity
  8
Značka (ISO)
100
AcDbMText
 10
260.1535830007906
 20
320.3271879879157
 30
0.0
 40
5.24999976158142
 41
0.0
 71
     5
 72
     1
  1
7
  7
Text popisu (ISO)
 73
     1
 44
1.0
  0
LINE
  5
DC2
330
DB2
100
AcDbEntity
  8
Značka (ISO)
100
AcDbLine
 10
252.2785833584185
 20
313.7646882859388
 30
0.0
 11
268.0285826431628
 21
313.7646882859388
 31
0.0
  0
ENDBLK
  5
DB4
330
DB2
100
AcDbEntity
  8
0
100
AcDbBlockEnd
  0
BLOCK
  5
DC5
330
DC4
100
AcDbEntity
  8
0
100
AcDbBlockBegin
  2
Pozice5
 70
     0
 10
0.0
 20
0.0
 30
0.0
  3
Pozice5
  1

  0
LINE
  5
DC7
330
DC4
100
AcDbEntity
  8
Značka (ISO)
100
AcDbLine
 10
233.399941422732
 20
312.7427386465203
 30
0.0
 11
231.3255298507073
 21
314.1380223559679
 31
0.0
  0
POLYLINE
  5
DC8
330
DC4
100
AcDbEntity
  8
Značka (ISO)
100
AcDb2dPolyline
 66
     1
 10
0.0
 20
0.0
 30
0.0
 70
   128
  0
VERTEX
  5
DC9
330
DC8
100
AcDbEntity
  8
Značka (ISO)
100
AcDbVertex
100
AcDb2dVertex
 10
233.6789894104004
 20
313.1576156616211
 30
0.0
  0
VERTEX
  5
DCA
330
DC8
100
AcDbEntity
  8
Značka (ISO)
100
AcDbVertex
100
AcDb2dVertex
 10
231.3255310058594
 20
314.1380310058594
 30
0.0
  0
VERTEX
  5
DCC
330
DC8
100
AcDbEntity
  8
Značka (ISO)
100
AcDbVertex
100
AcDb2dVertex
 10
233.1208801269531
 20
312.3278617858887
 30
0.0
  0
VERTEX
  5
DCD
330
DC8
100
AcDbEntity
  8
Značka (ISO)
100
AcDbVertex
100
AcDb2dVertex
 10
233.6789894104004
 20
313.1576156616211
 30
0.0
  0
SEQEND
  5
DCB
330
DC8
100
AcDbEntity
  8
Značka (ISO)
  0
SOLID
  5
DCE
330
DC4
100
AcDbEntity
  8
Značka (ISO)
100
AcDbTrace
 10
233.6789894104004
 20
313.1576156616211
 30
0.0
 11
231.3255310058594
 21
314.1380310058594
 31
0.0
 12
233.1208801269531
 22
312.3278617858887
 32
0.0
 13
233.6789894104004
 23
313.1576156616211
 33
0.0
  0
LINE
  5
DCF
330
DC4
100
AcDbEntity
  8
Značka (ISO)
100
AcDbLine
 10
233.6789981646215
 20
313.1576209609253
 30
0.0
 11
231.3255298507073
 21
314.1380223559679
 31
0.0
  0
LINE
  5
DD0
330
DC4
100
AcDbEntity
  8
Značka (ISO)
100
AcDbLine
 10
231.3255298507073
 20
314.1380223559679
 30
0.0
 11
233.1208846808425
 21
312.3278563321154
 31
0.0
  0
LINE
  5
DD1
330
DC4
100
AcDbEntity
  8
Značka (ISO)
100
AcDbLine
 10
233.1208846808425
 20
312.3278563321154
 30
0.0
 11
233.6789981646215
 21
313.1576209609253
 31
0.0
  0
LINE
  5
DD2
330
DC4
100
AcDbEntity
  8
Značka (ISO)
100
AcDbLine
 10
233.399941422732
 20
312.7427386465203
 30
0.0
 11
252.2785833584279
 21
300.0446502321464
 31
0.0
  0
MTEXT
  5
DD3
330
DC4
100
AcDbEntity
  8
Značka (ISO)
100
AcDbMText
 10
260.1535830008
 20
306.615658795188
 30
0.0
 40
5.24999976158142
 41
0.0
 71
     5
 72
     1
  1
1
  7
Text popisu (ISO)
 73
     1
 44
1.0
  0
LINE
  5
DD4
330
DC4
100
AcDbEntity
  8
Značka (ISO)
100
AcDbLine
 10
252.2785833584279
 20
300.0446502321464
 30
0.0
 11
268.0285826431722
 21
300.0446502321464
 31
0.0
  0
ENDBLK
  5
DC6
330
DC4
100
AcDbEntity
  8
0
100
AcDbBlockEnd
  0
BLOCK
  5
DD7
330
DD6
100
AcDbEntity
  8
0
100
AcDbBlockBegin
  2
Pozice6
 70
     0
 10
0.0
 20
0.0
 30
0.0
  3
Pozice6
  1

  0
LINE
  5
DD9
330
DD6
100
AcDbEntity
  8
Značka (ISO)
100
AcDbLine
 10
208.6951211141196
 20
322.3474648676995
 30
0.0
 11
207.0255298507071
 21
324.2082348731373
 31
0.0
  0
POLYLINE
  5
DDA
330
DD6
100
AcDbEntity
  8
Značka (ISO)
100
AcDb2dPolyline
 66
     1
 10
0.0
 20
0.0
 30
0.0
 70
   128
  0
VERTEX
  5
DDB
330
DDA
100
AcDbEntity
  8
Značka (ISO)
100
AcDbVertex
100
AcDb2dVertex
 10
209.067268371582
 20
322.6813888549805
 30
0.0
  0
VERTEX
  5
DDC
330
DDA
100
AcDbEntity
  8
Značka (ISO)
100
AcDbVertex
100
AcDb2dVertex
 10
207.0255279541016
 20
324.2082214355469
 30
0.0
  0
VERTEX
  5
DDE
330
DDA
100
AcDbEntity
  8
Značka (ISO)
100
AcDbVertex
100
AcDb2dVertex
 10
208.3229637145996
 20
322.0135498046875
 30
0.0
  0
VERTEX
  5
DDF
330
DDA
100
AcDbEntity
  8
Značka (ISO)
100
AcDbVertex
100
AcDb2dVertex
 10
209.067268371582
 20
322.6813888549805
 30
0.0
  0
SEQEND
  5
DDD
330
DDA
100
AcDbEntity
  8
Značka (ISO)
  0
SOLID
  5
DE0
330
DD6
100
AcDbEntity
  8
Značka (ISO)
100
AcDbTrace
 10
209.067268371582
 20
322.6813888549805
 30
0.0
 11
207.0255279541016
 21
324.2082214355469
 31
0.0
 12
208.3229637145996
 22
322.0135498046875
 32
0.0
 13
209.067268371582
 23
322.6813888549805
 33
0.0
  0
LINE
  5
DE1
330
DD6
100
AcDbEntity
  8
Značka (ISO)
100
AcDbLine
 10
209.0672751152072
 20
322.6813831203819
 30
0.0
 11
207.0255298507071
 21
324.2082348731373
 31
0.0
  0
LINE
  5
DE2
330
DD6
100
AcDbEntity
  8
Značka (ISO)
100
AcDbLine
 10
207.0255298507071
 20
324.2082348731373
 30
0.0
 11
208.3229671130321
 21
322.0135466150169
 31
0.0
  0
LINE
  5
DE3
330
DD6
100
AcDbEntity
  8
Značka (ISO)
100
AcDbLine
 10
208.3229671130321
 20
322.0135466150169
 30
0.0
 11
209.0672751152072
 21
322.6813831203819
 31
0.0
  0
LINE
  5
DE4
330
DD6
100
AcDbEntity
  8
Značka (ISO)
100
AcDbLine
 10
208.6951211141196
 20
322.3474648676995
 30
0.0
 11
252.2785833584279
 21
273.7734209956772
 31
0.0
  0
MTEXT
  5
DE5
330
DD6
100
AcDbEntity
  8
Značka (ISO)
100
AcDbMText
 10
260.1535830008
 20
280.574170209112
 30
0.0
 40
5.24999976158142
 41
0.0
 71
     5
 72
     1
  1
8
  7
Text popisu (ISO)
 73
     1
 44
1.0
  0
LINE
  5
DE6
330
DD6
100
AcDbEntity
  8
Značka (ISO)
100
AcDbLine
 10
252.2785833584279
 20
273.7734209956772
 30
0.0
 11
268.0285826431722
 21
273.7734209956772
 31
0.0
  0
ENDBLK
  5
DD8
330
DD6
100
AcDbEntity
  8
0
100
AcDbBlockEnd
  0
BLOCK
  5
DE9
330
DE8
100
AcDbEntity
  8
0
100
AcDbBlockBegin
  2
Pozice7
 70
     0
 10
0.0
 20
0.0
 30
0.0
  3
Pozice7
  1

  0
LINE
  5
DEB
330
DE8
100
AcDbEntity
  8
Značka (ISO)
100
AcDbLine
 10
210.2802152444644
 20
231.3302766228341
 30
0.0
 11
207.9255298507074
 21
230.4903619269113
 31
0.0
  0
POLYLINE
  5
DEC
330
DE8
100
AcDbEntity
  8
Značka (ISO)
100
AcDb2dPolyline
 66
     1
 10
0.0
 20
0.0
 30
0.0
 70
   128
  0
VERTEX
  5
DED
330
DEC
100
AcDbEntity
  8
Značka (ISO)
100
AcDbVertex
100
AcDb2dVertex
 10
210.1122283935547
 20
231.8012046813965
 30
0.0
  0
VERTEX
  5
DEE
330
DEC
100
AcDbEntity
  8
Značka (ISO)
100
AcDbVertex
100
AcDb2dVertex
 10
207.9255294799805
 20
230.4903602600098
 30
0.0
  0
VERTEX
  5
DF0
330
DEC
100
AcDbEntity
  8
Značka (ISO)
100
AcDbVertex
100
AcDb2dVertex
 10
210.4481887817383
 20
230.8593368530273
 30
0.0
  0
VERTEX
  5
DF1
330
DEC
100
AcDbEntity
  8
Značka (ISO)
100
AcDbVertex
100
AcDb2dVertex
 10
210.1122283935547
 20
231.8012046813965
 30
0.0
  0
SEQEND
  5
DEF
330
DEC
100
AcDbEntity
  8
Značka (ISO)
  0
SOLID
  5
DF2
330
DE8
100
AcDbEntity
  8
Značka (ISO)
100
AcDbTrace
 10
210.1122283935547
 20
231.8012046813965
 30
0.0
 11
207.9255294799805
 21
230.4903602600098
 31
0.0
 12
210.4481887817383
 22
230.8593368530273
 32
0.0
 13
210.1122283935547
 23
231.8012046813965
 33
0.0
  0
LINE
  5
DF3
330
DE8
100
AcDbEntity
  8
Značka (ISO)
100
AcDbLine
 10
210.1122323052798
 20
231.8012137015855
 30
0.0
 11
207.9255298507074
 21
230.4903619269113
 31
0.0
  0
LINE
  5
DF4
330
DE8
100
AcDbEntity
  8
Značka (ISO)
100
AcDbLine
 10
207.9255298507074
 20
230.4903619269113
 30
0.0
 11
210.4481981836489
 21
230.8593395440826
 31
0.0
  0
LINE
  5
DF5
330
DE8
100
AcDbEntity
  8
Značka (ISO)
100
AcDbLine
 10
210.4481981836489
 20
230.8593395440826
 30
0.0
 11
210.1122323052798
 21
231.8012137015855
 31
0.0
  0
LINE
  5
DF6
330
DE8
100
AcDbEntity
  8
Značka (ISO)
100
AcDbLine
 10
210.2802152444644
 20
231.3302766228341
 30
0.0
 11
252.2785833584279
 21
246.3110662761843
 31
0.0
  0
MTEXT
  5
DF7
330
DE8
100
AcDbEntity
  8
Značka (ISO)
100
AcDbMText
 10
260.1535830008
 20
253.0394897887251
 30
0.0
 40
5.24999976158142
 41
0.0
 71
     5
 72
     1
  1
5
  7
Text popisu (ISO)
 73
     1
 44
1.0
  0
LINE
  5
DF8
330
DE8
100
AcDbEntity
  8
Značka (ISO)
100
AcDbLine
 10
252.2785833584279
 20
246.3110662761843
 30
0.0
 11
268.0285826431722
 21
246.3110662761843
 31
0.0
  0
ENDBLK
  5
DEA
330
DE8
100
AcDbEntity
  8
0
100
AcDbBlockEnd
  0
BLOCK
  5
DFB
330
DFA
100
AcDbEntity
  8
0
100
AcDbBlockBegin
  2
Pozice8
 70
     0
 10
0.0
 20
0.0
 30
0.0
  3
Pozice8
  1

  0
LINE
  5
DFD
330
DFA
100
AcDbEntity
  8
Značka (ISO)
100
AcDbLine
 10
245.1543641424531
 20
166.7183603059063
 30
0.0
 11
243.9043641424527
 21
164.5532967964454
 31
0.0
  0
POLYLINE
  5
DFE
330
DFA
100
AcDbEntity
  8
Značka (ISO)
100
AcDb2dPolyline
 66
     1
 10
0.0
 20
0.0
 30
0.0
 70
   128
  0
VERTEX
  5
DFF
330
DFE
100
AcDbEntity
  8
Značka (ISO)
100
AcDbVertex
100
AcDb2dVertex
 10
244.7213554382324
 20
166.9683647155761
 30
0.0
  0
VERTEX
  5
E00
330
DFE
100
AcDbEntity
  8
Značka (ISO)
100
AcDbVertex
100
AcDb2dVertex
 10
243.9043617248535
 20
164.5532989501953
 30
0.0
  0
VERTEX
  5
E02
330
DFE
100
AcDbEntity
  8
Značka (ISO)
100
AcDbVertex
100
AcDb2dVertex
 10
245.5873680114746
 20
166.4683532714843
 30
0.0
  0
VERTEX
  5
E03
330
DFE
100
AcDbEntity
  8
Značka (ISO)
100
AcDbVertex
100
AcDb2dVertex
 10
244.7213554382324
 20
166.9683647155761
 30
0.0
  0
SEQEND
  5
E01
330
DFE
100
AcDbEntity
  8
Značka (ISO)
  0
SOLID
  5
E04
330
DFA
100
AcDbEntity
  8
Značka (ISO)
100
AcDbTrace
 10
244.7213554382324
 20
166.9683647155761
 30
0.0
 11
243.9043617248535
 21
164.5532989501953
 31
0.0
 12
245.5873680114746
 22
166.4683532714843
 32
0.0
 13
244.7213554382324
 23
166.9683647155761
 33
0.0
  0
LINE
  5
E05
330
DFA
100
AcDbEntity
  8
Značka (ISO)
100
AcDbLine
 10
244.7213514405609
 20
166.9683603059064
 30
0.0
 11
243.9043641424527
 21
164.5532967964454
 31
0.0
  0
LINE
  5
E06
330
DFA
100
AcDbEntity
  8
Značka (ISO)
100
AcDbLine
 10
243.9043641424527
 20
164.5532967964454
 30
0.0
 11
245.5873768443453
 21
166.4683603059061
 31
0.0
  0
LINE
  5
E07
330
DFA
100
AcDbEntity
  8
Značka (ISO)
100
AcDbLine
 10
245.5873768443453
 20
166.4683603059061
 30
0.0
 11
244.7213514405609
 21
166.9683603059064
 31
0.0
  0
LINE
  5
E08
330
DFA
100
AcDbEntity
  8
Značka (ISO)
100
AcDbLine
 10
245.1543641424531
 20
166.7183603059063
 30
0.0
 11
251.5851319932787
 21
177.8567769552118
 31
0.0
  0
MTEXT
  5
E09
330
DFA
100
AcDbEntity
  8
Značka (ISO)
100
AcDbMText
 10
259.4601316356508
 20
184.6405082136861
 30
0.0
 40
5.24999976158142
 41
0.0
 71
     5
 72
     1
  1
13
  7
Text popisu (ISO)
 73
     1
 44
1.0
  0
LINE
  5
E0A
330
DFA
100
AcDbEntity
  8
Značka (ISO)
100
AcDbLine
 10
251.5851319932787
 20
177.8567769552118
 30
0.0
 11
267.335131278023
 21
177.8567769552118
 31
0.0
  0
ENDBLK
  5
DFC
330
DFA
100
AcDbEntity
  8
0
100
AcDbBlockEnd
  0
BLOCK
  5
EE4
330
EE2
100
AcDbEntity
  8
0
100
AcDbBlockBegin
  2
GENAXEH
 70
     0
 10
0.0
 20
0.0
 30
0.0
  3
GENAXEH
  1

  0
LINE
  5
EE3
330
EE2
100
AcDbEntity
  8
0
100
AcDbLine
 10
-1.0
 20
0.0
 30
0.0
 11
1.0
 21
0.0
 31
0.0
  0
ENDBLK
  5
EE5
330
EE2
100
AcDbEntity
  8
0
100
AcDbBlockEnd
  0
BLOCK
  5
EFD
330
EFC
100
AcDbEntity
  8
0
100
AcDbBlockBegin
  2
*D44
 70
     1
 10
0.0
 20
0.0
 30
0.0
  3
*D44
  1

  0
LINE
  5
EFE
330
EFC
100
AcDbEntity
  8
5
370
    -2
100
AcDbLine
 10
256.6744539195217
 20
480.5708457336216
 30
0.0
 11
256.6744539195217
 21
448.5728489954396
 31
0.0
  0
LINE
  5
EFF
330
EFC
100
AcDbEntity
  8
5
370
    -2
100
AcDbLine
 10
366.6744539195217
 20
480.5708457336216
 30
0.0
 11
366.6744539195217
 21
448.5728489954396
 31
0.0
  0
LINE
  5
F00
330
EFC
100
AcDbEntity
  8
5
370
    -2
100
AcDbLine
 10
261.6744539195217
 20
450.5728489954395
 30
0.0
 11
361.6744539195217
 21
450.5728489954395
 31
0.0
  0
SOLID
  5
F01
330
EFC
100
AcDbEntity
  8
5
100
AcDbTrace
 10
261.6744539195217
 20
451.4061823287729
 30
0.0
 11
261.6744539195217
 21
449.7395156621061
 31
0.0
 12
256.6744539195217
 22
450.5728489954395
 32
0.0
 13
256.6744539195217
 23
450.5728489954395
 33
0.0
  0
SOLID
  5
F02
330
EFC
100
AcDbEntity
  8
5
100
AcDbTrace
 10
361.6744539195217
 20
451.4061823287729
 30
0.0
 11
361.6744539195217
 21
449.7395156621061
 31
0.0
 12
366.6744539195217
 22
450.5728489954395
 32
0.0
 13
366.6744539195217
 23
450.5728489954395
 33
0.0
  0
MTEXT
  5
F03
330
EFC
100
AcDbEntity
  8
5
 62
     7
100
AcDbMText
 10
311.6744539195217
 20
459.7506864702548
 30
0.0
 40
14.0
 41
0.0
 71
     5
 72
     1
  1
%%c110
 73
     1
 44
1.0
  0
POINT
  5
F04
330
EFC
100
AcDbEntity
  8
Defpoints
 62
     0
100
AcDbPoint
 10
256.6744539195217
 20
482.5708457336218
 30
0.0
  0
POINT
  5
F05
330
EFC
100
AcDbEntity
  8
Defpoints
 62
     0
100
AcDbPoint
 10
366.6744539195217
 20
482.5708457336218
 30
0.0
  0
POINT
  5
F06
330
EFC
100
AcDbEntity
  8
Defpoints
 62
     0
100
AcDbPoint
 10
366.6744539195217
 20
450.5728489954395
 30
0.0
  0
ENDBLK
  5
F07
330
EFC
100
AcDbEntity
  8
0
100
AcDbBlockEnd
  0
BLOCK
  5
F09
330
F08
100
AcDbEntity
  8
0
100
AcDbBlockBegin
  2
*D45
 70
     1
 10
0.0
 20
0.0
 30
0.0
  3
*D45
  1

  0
LINE
  5
F0A
330
F08
100
AcDbEntity
  8
5
370
    -2
100
AcDbLine
 10
233.1744539195216
 20
588.0801341281344
 30
0.0
 11
233.1744539195216
 21
424.8106947105916
 31
0.0
  0
LINE
  5
F0B
330
F08
100
AcDbEntity
  8
5
370
    -2
100
AcDbLine
 10
390.1744539195218
 20
588.0801341281344
 30
0.0
 11
390.1744539195218
 21
424.8106947105916
 31
0.0
  0
LINE
  5
F0C
330
F08
100
AcDbEntity
  8
5
370
    -2
100
AcDbLine
 10
238.1744539195216
 20
426.8106947105916
 30
0.0
 11
385.1744539195218
 21
426.8106947105916
 31
0.0
  0
SOLID
  5
F0D
330
F08
100
AcDbEntity
  8
5
100
AcDbTrace
 10
238.1744539195216
 20
427.6440280439247
 30
0.0
 11
238.1744539195216
 21
425.9773613772583
 31
0.0
 12
233.1744539195216
 22
426.8106947105916
 32
0.0
 13
233.1744539195216
 23
426.8106947105916
 33
0.0
  0
SOLID
  5
F0E
330
F08
100
AcDbEntity
  8
5
100
AcDbTrace
 10
385.1744539195218
 20
427.6440280439247
 30
0.0
 11
385.1744539195218
 21
425.9773613772583
 31
0.0
 12
390.1744539195218
 22
426.8106947105916
 32
0.0
 13
390.1744539195218
 23
426.8106947105916
 33
0.0
  0
MTEXT
  5
F0F
330
F08
100
AcDbEntity
  8
5
 62
     7
100
AcDbMText
 10
311.6744539195217
 20
435.9885321854068
 30
0.0
 40
14.0
 41
0.0
 71
     5
 72
     1
  1
%%c157
 73
     1
 44
1.0
  0
POINT
  5
F10
330
F08
100
AcDbEntity
  8
Defpoints
 62
     0
100
AcDbPoint
 10
233.1744539195216
 20
590.0801341281344
 30
0.0
  0
POINT
  5
F11
330
F08
100
AcDbEntity
  8
Defpoints
 62
     0
100
AcDbPoint
 10
390.1744539195218
 20
590.0801341281344
 30
0.0
  0
POINT
  5
F12
330
F08
100
AcDbEntity
  8
Defpoints
 62
     0
100
AcDbPoint
 10
390.1744539195218
 20
426.8106947105916
 30
0.0
  0
ENDBLK
  5
F13
330
F08
100
AcDbEntity
  8
0
100
AcDbBlockEnd
  0
BLOCK
  5
F15
330
F14
100
AcDbEntity
  8
0
100
AcDbBlockBegin
  2
*D46
 70
     1
 10
0.0
 20
0.0
 30
0.0
  3
*D46
  1

  0
LINE
  5
F16
330
F14
100
AcDbEntity
  8
5
370
    -2
100
AcDbLine
 10
436.7249641768212
 20
772.0301341281343
 30
0.0
 11
455.3505052821016
 21
772.0301341281343
 31
0.0
  0
LINE
  5
F17
330
F14
100
AcDbEntity
  8
5
370
    -2
100
AcDbLine
 10
424.6165766882204
 20
742.0301341281343
 30
0.0
 11
455.3505052821016
 21
742.0301341281343
 31
0.0
  0
LINE
  5
F18
330
F14
100
AcDbEntity
  8
5
370
    -2
100
AcDbLine
 10
453.3505052821015
 20
767.0301341281343
 30
0.0
 11
453.3505052821015
 21
747.0301341281343
 31
0.0
  0
SOLID
  5
F19
330
F14
100
AcDbEntity
  8
5
100
AcDbTrace
 10
452.5171719487683
 20
767.0301341281343
 30
0.0
 11
454.1838386154347
 21
767.0301341281343
 31
0.0
 12
453.3505052821015
 22
772.0301341281343
 32
0.0
 13
453.3505052821015
 23
772.0301341281343
 33
0.0
  0
SOLID
  5
F1A
330
F14
100
AcDbEntity
  8
5
100
AcDbTrace
 10
452.5171719487683
 20
747.0301341281343
 30
0.0
 11
454.1838386154347
 21
747.0301341281343
 31
0.0
 12
453.3505052821015
 22
742.0301341281343
 32
0.0
 13
453.3505052821015
 23
742.0301341281343
 33
0.0
  0
MTEXT
  5
F1B
330
F14
100
AcDbEntity
  8
5
 62
     7
100
AcDbMText
 10
444.8590344963391
 20
757.0301341281345
 30
0.0
 40
14.0
 41
0.0
 71
     5
 72
     1
  1
30
 11
0.0000000000000001
 21
1.0
 31
0.0
 73
     1
 44
1.0
  0
POINT
  5
F1C
330
F14
100
AcDbEntity
  8
Defpoints
 62
     0
100
AcDbPoint
 10
434.7249641768213
 20
772.0301341281343
 30
0.0
  0
POINT
  5
F1D
330
F14
100
AcDbEntity
  8
Defpoints
 62
     0
100
AcDbPoint
 10
422.6165766882203
 20
742.0301341281343
 30
0.0
  0
POINT
  5
F1E
330
F14
100
AcDbEntity
  8
Defpoints
 62
     0
100
AcDbPoint
 10
453.3505052821015
 20
742.0301341281343
 30
0.0
  0
ENDBLK
  5
F1F
330
F14
100
AcDbEntity
  8
0
100
AcDbBlockEnd
  0
BLOCK
  5
F21
330
F20
100
AcDbEntity
  8
0
100
AcDbBlockBegin
  2
*D47
 70
     1
 10
0.0
 20
0.0
 30
0.0
  3
*D47
  1

  0
LINE
  5
F22
330
F20
100
AcDbEntity
  8
5
370
    -2
100
AcDbLine
 10
436.7874641768213
 20
772.0301341281343
 30
0.0
 11
474.5777326490757
 21
772.0301341281343
 31
0.0
  0
LINE
  5
F23
330
F20
100
AcDbEntity
  8
5
370
    -2
100
AcDbLine
 10
375.6744539195218
 20
573.5801341281342
 30
0.0
 11
474.5777326490757
 21
573.5801341281342
 31
0.0
  0
LINE
  5
F24
330
F20
100
AcDbEntity
  8
5
370
    -2
100
AcDbLine
 10
472.5777326490756
 20
767.0301341281343
 30
0.0
 11
472.5777326490756
 21
578.5801341281342
 31
0.0
  0
SOLID
  5
F25
330
F20
100
AcDbEntity
  8
5
100
AcDbTrace
 10
471.7443993157423
 20
767.0301341281343
 30
0.0
 11
473.4110659824088
 21
767.0301341281343
 31
0.0
 12
472.5777326490756
 22
772.0301341281343
 32
0.0
 13
472.5777326490756
 23
772.0301341281343
 33
0.0
  0
SOLID
  5
F26
330
F20
100
AcDbEntity
  8
5
100
AcDbTrace
 10
471.7443993157423
 20
578.5801341281342
 30
0.0
 11
473.4110659824088
 21
578.5801341281342
 31
0.0
 12
472.5777326490756
 22
573.5801341281342
 32
0.0
 13
472.5777326490756
 23
573.5801341281342
 33
0.0
  0
MTEXT
  5
F27
330
F20
100
AcDbEntity
  8
5
 62
     7
100
AcDbMText
 10
464.0580550130783
 20
672.8051341281342
 30
0.0
 40
14.0
 41
0.0
 71
     5
 72
     1
  1
198
 11
0.0000000000000001
 21
1.0
 31
0.0
 73
     1
 44
1.0
  0
POINT
  5
F28
330
F20
100
AcDbEntity
  8
Defpoints
 62
     0
100
AcDbPoint
 10
434.7874641768212
 20
772.0301341281343
 30
0.0
  0
POINT
  5
F29
330
F20
100
AcDbEntity
  8
Defpoints
 62
     0
100
AcDbPoint
 10
373.6744539195218
 20
573.5801341281342
 30
0.0
  0
POINT
  5
F2A
330
F20
100
AcDbEntity
  8
Defpoints
 62
     0
100
AcDbPoint
 10
472.5777326490756
 20
573.5801341281342
 30
0.0
  0
ENDBLK
  5
F2B
330
F20
100
AcDbEntity
  8
0
100
AcDbBlockEnd
  0
BLOCK
  5
F2D
330
F2C
100
AcDbEntity
  8
0
100
AcDbBlockBegin
  2
*D48
 70
     1
 10
0.0
 20
0.0
 30
0.0
  3
*D48
  1

  0
LINE
  5
F2E
330
F2C
100
AcDbEntity
  8
5
370
    -2
100
AcDbLine
 10
366.6744539195217
 20
474.5801341281346
 30
0.0
 11
506.2038936570046
 21
474.5801341281346
 31
0.0
  0
LINE
  5
F2F
330
F2C
100
AcDbEntity
  8
5
370
    -2
100
AcDbLine
 10
436.8499641768212
 20
772.0301341281343
 30
0.0
 11
506.2038936570046
 21
772.0301341281343
 31
0.0
  0
LINE
  5
F30
330
F2C
100
AcDbEntity
  8
5
370
    -2
100
AcDbLine
 10
504.2038936570047
 20
479.5801341281346
 30
0.0
 11
504.2038936570047
 21
767.0301341281343
 31
0.0
  0
SOLID
  5
F31
330
F2C
100
AcDbEntity
  8
5
100
AcDbTrace
 10
503.3705603236715
 20
479.5801341281346
 30
0.0
 11
505.0372269903381
 21
479.5801341281346
 31
0.0
 12
504.2038936570047
 22
474.5801341281346
 32
0.0
 13
504.2038936570047
 23
474.5801341281346
 33
0.0
  0
SOLID
  5
F32
330
F2C
100
AcDbEntity
  8
5
100
AcDbTrace
 10
503.3705603236716
 20
767.0301341281343
 30
0.0
 11
505.0372269903381
 21
767.0301341281343
 31
0.0
 12
504.2038936570047
 22
772.0301341281343
 32
0.0
 13
504.2038936570047
 23
772.0301341281343
 33
0.0
  0
MTEXT
  5
F33
330
F2C
100
AcDbEntity
  8
5
 62
     7
100
AcDbMText
 10
495.7218251546541
 20
623.3051341281345
 30
0.0
 40
14.0
 41
0.0
 71
     5
 72
     1
  1
297
 11
0.0000000000000001
 21
1.0
 31
0.0
 73
     1
 44
1.0
  0
POINT
  5
F34
330
F2C
100
AcDbEntity
  8
Defpoints
 62
     0
100
AcDbPoint
 10
364.6744539195217
 20
474.5801341281346
 30
0.0
  0
POINT
  5
F35
330
F2C
100
AcDbEntity
  8
Defpoints
 62
     0
100
AcDbPoint
 10
434.8499641768213
 20
772.0301341281343
 30
0.0
  0
POINT
  5
F36
330
F2C
100
AcDbEntity
  8
Defpoints
 62
     0
100
AcDbPoint
 10
504.2038936570047
 20
772.0301341281343
 30
0.0
  0
ENDBLK
  5
F37
330
F2C
100
AcDbEntity
  8
0
100
AcDbBlockEnd
  0
BLOCK
  5
F39
330
F38
100
AcDbEntity
  8
0
100
AcDbBlockBegin
  2
*D49
 70
     1
 10
0.0
 20
0.0
 30
0.0
  3
*D49
  1

  0
LINE
  5
F3A
330
F38
100
AcDbEntity
  8
5
370
    -2
100
AcDbLine
 10
186.6744539195214
 20
772.0301341281343
 30
0.0
 11
186.6744539195214
 21
784.0301341281343
 31
0.0
  0
LINE
  5
F3B
330
F38
100
AcDbEntity
  8
5
370
    -2
100
AcDbLine
 10
436.6744539195217
 20
772.0301341281343
 30
0.0
 11
436.6744539195217
 21
784.0301341281343
 31
0.0
  0
LINE
  5
F3C
330
F38
100
AcDbEntity
  8
5
370
    -2
100
AcDbLine
 10
191.6744539195214
 20
782.0301341281344
 30
0.0
 11
431.6744539195218
 21
782.0301341281344
 31
0.0
  0
SOLID
  5
F3D
330
F38
100
AcDbEntity
  8
5
100
AcDbTrace
 10
191.6744539195214
 20
782.8634674614677
 30
0.0
 11
191.6744539195214
 21
781.196800794801
 31
0.0
 12
186.6744539195214
 22
782.0301341281344
 32
0.0
 13
186.6744539195214
 23
782.0301341281344
 33
0.0
  0
SOLID
  5
F3E
330
F38
100
AcDbEntity
  8
5
100
AcDbTrace
 10
431.6744539195218
 20
782.8634674614677
 30
0.0
 11
431.6744539195218
 21
781.196800794801
 31
0.0
 12
436.6744539195217
 22
782.0301341281344
 32
0.0
 13
436.6744539195217
 23
782.0301341281344
 33
0.0
  0
MTEXT
  5
F3F
330
F38
100
AcDbEntity
  8
5
 62
     7
100
AcDbMText
 10
311.6744539195216
 20
790.5216049138966
 30
0.0
 40
14.0
 41
0.0
 71
     5
 72
     1
  1
{\Famgdt;o}250
 73
     1
 44
1.0
  0
POINT
  5
F40
330
F38
100
AcDbEntity
  8
Defpoints
 62
     0
100
AcDbPoint
 10
186.6744539195214
 20
770.0301341281344
 30
0.0
  0
POINT
  5
F41
330
F38
100
AcDbEntity
  8
Defpoints
 62
     0
100
AcDbPoint
 10
436.6744539195217
 20
770.0301341281344
 30
0.0
  0
POINT
  5
F42
330
F38
100
AcDbEntity
  8
Defpoints
 62
     0
100
AcDbPoint
 10
436.6744539195217
 20
782.0301341281344
 30
0.0
  0
ENDBLK
  5
F43
330
F38
100
AcDbEntity
  8
0
100
AcDbBlockEnd
  0
BLOCK
  5
18C4
330
18C3
100
AcDbEntity
  8
0
100
AcDbBlockBegin
  2
*D50
 70
     1
 10
0.0
 20
0.0
 30
0.0
  3
*D50
  1

  0
LINE
  5
190B
330
18C3
100
AcDbEntity
  8
5
370
    -2
100
AcDbLine
 10
744.8121540303402
 20
317.8750814062415
 30
0.0
 11
744.8121540303402
 21
285.8770846680592
 31
0.0
  0
LINE
  5
190C
330
18C3
100
AcDbEntity
  8
5
370
    -2
100
AcDbLine
 10
854.8121540303402
 20
317.8750814062415
 30
0.0
 11
854.8121540303402
 21
285.8770846680592
 31
0.0
  0
LINE
  5
190D
330
18C3
100
AcDbEntity
  8
5
370
    -2
100
AcDbLine
 10
749.8121540303402
 20
287.8770846680592
 30
0.0
 11
849.8121540303403
 21
287.8770846680592
 31
0.0
  0
SOLID
  5
190E
330
18C3
100
AcDbEntity
  8
5
100
AcDbTrace
 10
749.8121540303402
 20
288.7104180013925
 30
0.0
 11
749.8121540303402
 21
287.0437513347259
 31
0.0
 12
744.8121540303402
 22
287.8770846680592
 32
0.0
 13
744.8121540303402
 23
287.8770846680592
 33
0.0
  0
SOLID
  5
190F
330
18C3
100
AcDbEntity
  8
5
100
AcDbTrace
 10
849.8121540303403
 20
288.7104180013925
 30
0.0
 11
849.8121540303403
 21
287.0437513347259
 31
0.0
 12
854.8121540303402
 22
287.8770846680592
 32
0.0
 13
854.8121540303402
 23
287.8770846680592
 33
0.0
  0
MTEXT
  5
1910
330
18C3
100
AcDbEntity
  8
5
 62
     7
100
AcDbMText
 10
799.8121540303402
 20
297.0549221428745
 30
0.0
 40
14.0
 41
0.0
 71
     5
 72
     1
  1
%%c110
 73
     1
 44
1.0
  0
POINT
  5
1911
330
18C3
100
AcDbEntity
  8
Defpoints
 62
     0
100
AcDbPoint
 10
744.8121540303402
 20
319.8750814062415
 30
0.0
  0
POINT
  5
1912
330
18C3
100
AcDbEntity
  8
Defpoints
 62
     0
100
AcDbPoint
 10
854.8121540303402
 20
319.8750814062415
 30
0.0
  0
POINT
  5
1913
330
18C3
100
AcDbEntity
  8
Defpoints
 62
     0
100
AcDbPoint
 10
854.8121540303402
 20
287.8770846680592
 30
0.0
  0
ENDBLK
  5
18C5
330
18C3
100
AcDbEntity
  8
0
100
AcDbBlockEnd
  0
BLOCK
  5
18D0
330
18CF
100
AcDbEntity
  8
0
100
AcDbBlockBegin
  2
*D51
 70
     1
 10
0.0
 20
0.0
 30
0.0
  3
*D51
  1

  0
LINE
  5
1914
330
18CF
100
AcDbEntity
  8
5
370
    -2
100
AcDbLine
 10
721.3121540303401
 20
425.384369800754
 30
0.0
 11
721.3121540303401
 21
262.1149303832112
 31
0.0
  0
LINE
  5
1915
330
18CF
100
AcDbEntity
  8
5
370
    -2
100
AcDbLine
 10
878.3121540303403
 20
425.384369800754
 30
0.0
 11
878.3121540303403
 21
262.1149303832112
 31
0.0
  0
LINE
  5
1916
330
18CF
100
AcDbEntity
  8
5
370
    -2
100
AcDbLine
 10
726.3121540303401
 20
264.1149303832112
 30
0.0
 11
873.3121540303402
 21
264.1149303832112
 31
0.0
  0
SOLID
  5
1917
330
18CF
100
AcDbEntity
  8
5
100
AcDbTrace
 10
726.3121540303401
 20
264.9482637165446
 30
0.0
 11
726.3121540303401
 21
263.2815970498779
 31
0.0
 12
721.3121540303401
 22
264.1149303832112
 32
0.0
 13
721.3121540303401
 23
264.1149303832112
 33
0.0
  0
SOLID
  5
1918
330
18CF
100
AcDbEntity
  8
5
100
AcDbTrace
 10
873.3121540303402
 20
264.9482637165446
 30
0.0
 11
873.3121540303402
 21
263.2815970498779
 31
0.0
 12
878.3121540303403
 22
264.1149303832112
 32
0.0
 13
878.3121540303403
 23
264.1149303832112
 33
0.0
  0
MTEXT
  5
1919
330
18CF
100
AcDbEntity
  8
5
 62
     7
100
AcDbMText
 10
799.8121540303402
 20
273.2927678580265
 30
0.0
 40
14.0
 41
0.0
 71
     5
 72
     1
  1
%%c157
 73
     1
 44
1.0
  0
POINT
  5
191A
330
18CF
100
AcDbEntity
  8
Defpoints
 62
     0
100
AcDbPoint
 10
721.3121540303401
 20
427.384369800754
 30
0.0
  0
POINT
  5
191B
330
18CF
100
AcDbEntity
  8
Defpoints
 62
     0
100
AcDbPoint
 10
878.3121540303403
 20
427.384369800754
 30
0.0
  0
POINT
  5
191C
330
18CF
100
AcDbEntity
  8
Defpoints
 62
     0
100
AcDbPoint
 10
878.3121540303403
 20
264.1149303832112
 30
0.0
  0
ENDBLK
  5
18D1
330
18CF
100
AcDbEntity
  8
0
100
AcDbBlockEnd
  0
BLOCK
  5
18DC
330
18DB
100
AcDbEntity
  8
0
100
AcDbBlockBegin
  2
*D52
 70
     1
 10
0.0
 20
0.0
 30
0.0
  3
*D52
  1

  0
LINE
  5
1AC2
330
18DB
100
AcDbEntity
  8
5
370
    -2
100
AcDbLine
 10
924.8626642876397
 20
609.3343698007537
 30
0.0
 11
950.4899314693671
 21
609.3343698007537
 31
0.0
  0
LINE
  5
1AC3
330
18DB
100
AcDbEntity
  8
5
370
    -2
100
AcDbLine
 10
912.7542767990387
 20
579.3343698007539
 30
0.0
 11
950.4899314693671
 21
579.3343698007539
 31
0.0
  0
LINE
  5
1AC4
330
18DB
100
AcDbEntity
  8
5
370
    -2
100
AcDbLine
 10
948.4899314693672
 20
604.3343698007539
 30
0.0
 11
948.4899314693672
 21
584.3343698007537
 31
0.0
  0
SOLID
  5
1AC5
330
18DB
100
AcDbEntity
  8
5
100
AcDbTrace
 10
947.6565981360336
 20
604.3343698007539
 30
0.0
 11
949.3232648027003
 21
604.3343698007539
 31
0.0
 12
948.4899314693672
 22
609.3343698007537
 32
0.0
 13
948.4899314693672
 23
609.3343698007537
 33
0.0
  0
SOLID
  5
1AC6
330
18DB
100
AcDbEntity
  8
5
100
AcDbTrace
 10
947.6565981360336
 20
584.3343698007537
 30
0.0
 11
949.3232648027003
 21
584.3343698007537
 31
0.0
 12
948.4899314693672
 22
579.3343698007539
 32
0.0
 13
948.4899314693672
 23
579.3343698007539
 33
0.0
  0
MTEXT
  5
1AC7
330
18DB
100
AcDbEntity
  8
5
 62
     7
100
AcDbMText
 10
939.9984606836047
 20
594.3343698007541
 30
0.0
 40
14.0
 41
0.0
 71
     5
 72
     1
  1
30
 11
0.0000000000000001
 21
1.0
 31
0.0
 73
     1
 44
1.0
  0
POINT
  5
1AC8
330
18DB
100
AcDbEntity
  8
Defpoints
 62
     0
100
AcDbPoint
 10
922.8626642876395
 20
609.3343698007537
 30
0.0
  0
POINT
  5
1AC9
330
18DB
100
AcDbEntity
  8
Defpoints
 62
     0
100
AcDbPoint
 10
910.7542767990388
 20
579.3343698007539
 30
0.0
  0
POINT
  5
1ACA
330
18DB
100
AcDbEntity
  8
Defpoints
 62
     0
100
AcDbPoint
 10
948.4899314693672
 20
579.3343698007539
 30
0.0
  0
ENDBLK
  5
18DD
330
18DB
100
AcDbEntity
  8
0
100
AcDbBlockEnd
  0
BLOCK
  5
18E8
330
18E7
100
AcDbEntity
  8
0
100
AcDbBlockBegin
  2
*D53
 70
     1
 10
0.0
 20
0.0
 30
0.0
  3
*D53
  1

  0
LINE
  5
1926
330
18E7
100
AcDbEntity
  8
5
370
    -2
100
AcDbLine
 10
924.9251642876398
 20
609.3343698007537
 30
0.0
 11
962.7154327598942
 21
609.3343698007537
 31
0.0
  0
LINE
  5
1927
330
18E7
100
AcDbEntity
  8
5
370
    -2
100
AcDbLine
 10
863.8121540303401
 20
410.8843698007538
 30
0.0
 11
962.7154327598942
 21
410.8843698007537
 31
0.0
  0
LINE
  5
1928
330
18E7
100
AcDbEntity
  8
5
370
    -2
100
AcDbLine
 10
960.7154327598944
 20
604.3343698007539
 30
0.0
 11
960.7154327598944
 21
415.8843698007537
 31
0.0
  0
SOLID
  5
1929
330
18E7
100
AcDbEntity
  8
5
100
AcDbTrace
 10
959.8820994265608
 20
604.3343698007539
 30
0.0
 11
961.5487660932275
 21
604.3343698007539
 31
0.0
 12
960.7154327598944
 22
609.3343698007537
 32
0.0
 13
960.7154327598944
 23
609.3343698007537
 33
0.0
  0
SOLID
  5
192A
330
18E7
100
AcDbEntity
  8
5
100
AcDbTrace
 10
959.8820994265608
 20
415.8843698007537
 30
0.0
 11
961.5487660932275
 21
415.8843698007537
 31
0.0
 12
960.7154327598944
 22
410.8843698007537
 32
0.0
 13
960.7154327598944
 23
410.8843698007537
 33
0.0
  0
MTEXT
  5
192B
330
18E7
100
AcDbEntity
  8
5
 62
     7
100
AcDbMText
 10
952.1957551238967
 20
510.1093698007537
 30
0.0
 40
14.0
 41
0.0
 71
     5
 72
     1
  1
198
 11
0.0000000000000001
 21
1.0
 31
0.0
 73
     1
 44
1.0
  0
POINT
  5
192C
330
18E7
100
AcDbEntity
  8
Defpoints
 62
     0
100
AcDbPoint
 10
922.9251642876397
 20
609.3343698007537
 30
0.0
  0
POINT
  5
192D
330
18E7
100
AcDbEntity
  8
Defpoints
 62
     0
100
AcDbPoint
 10
861.8121540303402
 20
410.8843698007538
 30
0.0
  0
POINT
  5
192E
330
18E7
100
AcDbEntity
  8
Defpoints
 62
     0
100
AcDbPoint
 10
960.7154327598944
 20
410.8843698007537
 30
0.0
  0
ENDBLK
  5
18E9
330
18E7
100
AcDbEntity
  8
0
100
AcDbBlockEnd
  0
BLOCK
  5
18F4
330
18F3
100
AcDbEntity
  8
0
100
AcDbBlockBegin
  2
*D54
 70
     1
 10
0.0
 20
0.0
 30
0.0
  3
*D54
  1

  0
LINE
  5
192F
330
18F3
100
AcDbEntity
  8
5
370
    -2
100
AcDbLine
 10
854.8121540303402
 20
311.8843698007542
 30
0.0
 11
994.3415937678231
 21
311.8843698007542
 31
0.0
  0
LINE
  5
1930
330
18F3
100
AcDbEntity
  8
5
370
    -2
100
AcDbLine
 10
924.9876642876396
 20
609.3343698007537
 30
0.0
 11
994.3415937678231
 21
609.3343698007537
 31
0.0
  0
LINE
  5
1931
330
18F3
100
AcDbEntity
  8
5
370
    -2
100
AcDbLine
 10
992.3415937678234
 20
316.8843698007542
 30
0.0
 11
992.3415937678234
 21
604.3343698007539
 31
0.0
  0
SOLID
  5
1932
330
18F3
100
AcDbEntity
  8
5
100
AcDbTrace
 10
991.5082604344901
 20
316.8843698007542
 30
0.0
 11
993.1749271011566
 21
316.8843698007542
 31
0.0
 12
992.3415937678234
 22
311.8843698007542
 32
0.0
 13
992.3415937678234
 23
311.8843698007542
 33
0.0
  0
SOLID
  5
1933
330
18F3
100
AcDbEntity
  8
5
100
AcDbTrace
 10
991.5082604344901
 20
604.3343698007539
 30
0.0
 11
993.1749271011566
 21
604.3343698007539
 31
0.0
 12
992.3415937678234
 22
609.3343698007537
 32
0.0
 13
992.3415937678234
 23
609.3343698007537
 33
0.0
  0
MTEXT
  5
1934
330
18F3
100
AcDbEntity
  8
5
 62
     7
100
AcDbMText
 10
983.8595252654727
 20
460.6093698007541
 30
0.0
 40
14.0
 41
0.0
 71
     5
 72
     1
  1
297
 11
0.0000000000000001
 21
1.0
 31
0.0
 73
     1
 44
1.0
  0
POINT
  5
1935
330
18F3
100
AcDbEntity
  8
Defpoints
 62
     0
100
AcDbPoint
 10
852.8121540303402
 20
311.8843698007542
 30
0.0
  0
POINT
  5
1936
330
18F3
100
AcDbEntity
  8
Defpoints
 62
     0
100
AcDbPoint
 10
922.9876642876398
 20
609.3343698007537
 30
0.0
  0
POINT
  5
1937
330
18F3
100
AcDbEntity
  8
Defpoints
 62
     0
100
AcDbPoint
 10
992.3415937678234
 20
609.3343698007537
 30
0.0
  0
ENDBLK
  5
18F5
330
18F3
100
AcDbEntity
  8
0
100
AcDbBlockEnd
  0
BLOCK
  5
1900
330
18FF
100
AcDbEntity
  8
0
100
AcDbBlockBegin
  2
*D55
 70
     1
 10
0.0
 20
0.0
 30
0.0
  3
*D55
  1

  0
LINE
  5
1938
330
18FF
100
AcDbEntity
  8
5
370
    -2
100
AcDbLine
 10
674.8121540303399
 20
609.3343698007537
 30
0.0
 11
674.8121540303399
 21
621.3343698007537
 31
0.0
  0
LINE
  5
1939
330
18FF
100
AcDbEntity
  8
5
370
    -2
100
AcDbLine
 10
924.8121540303404
 20
609.3343698007537
 30
0.0
 11
924.8121540303404
 21
621.3343698007537
 31
0.0
  0
LINE
  5
193A
330
18FF
100
AcDbEntity
  8
5
370
    -2
100
AcDbLine
 10
679.8121540303399
 20
619.3343698007537
 30
0.0
 11
919.8121540303402
 21
619.3343698007537
 31
0.0
  0
SOLID
  5
193B
330
18FF
100
AcDbEntity
  8
5
100
AcDbTrace
 10
679.8121540303399
 20
620.1677031340872
 30
0.0
 11
679.8121540303399
 21
618.5010364674203
 31
0.0
 12
674.8121540303399
 22
619.3343698007537
 32
0.0
 13
674.8121540303399
 23
619.3343698007537
 33
0.0
  0
SOLID
  5
193C
330
18FF
100
AcDbEntity
  8
5
100
AcDbTrace
 10
919.8121540303402
 20
620.1677031340872
 30
0.0
 11
919.8121540303402
 21
618.5010364674203
 31
0.0
 12
924.8121540303404
 22
619.3343698007537
 32
0.0
 13
924.8121540303404
 23
619.3343698007537
 33
0.0
  0
MTEXT
  5
193D
330
18FF
100
AcDbEntity
  8
5
 62
     7
100
AcDbMText
 10
799.8121540303397
 20
627.8258405865162
 30
0.0
 40
14.0
 41
0.0
 71
     5
 72
     1
  1
{\Famgdt;o}250
 73
     1
 44
1.0
  0
POINT
  5
193E
330
18FF
100
AcDbEntity
  8
Defpoints
 62
     0
100
AcDbPoint
 10
674.8121540303399
 20
607.334369800754
 30
0.0
  0
POINT
  5
193F
330
18FF
100
AcDbEntity
  8
Defpoints
 62
     0
100
AcDbPoint
 10
924.8121540303404
 20
607.334369800754
 30
0.0
  0
POINT
  5
1940
330
18FF
100
AcDbEntity
  8
Defpoints
 62
     0
100
AcDbPoint
 10
924.8121540303404
 20
619.3343698007537
 30
0.0
  0
ENDBLK
  5
1901
330
18FF
100
AcDbEntity
  8
0
100
AcDbBlockEnd
  0
BLOCK
  5
1959
330
1958
100
AcDbEntity
  8
0
100
AcDbBlockBegin
  2
*D56
 70
     1
 10
0.0
 20
0.0
 30
0.0
  3
*D56
  1

  0
LINE
  5
1AD4
330
1958
100
AcDbEntity
  8
5
370
    -2
100
AcDbLine
 10
269.5767703056836
 20
365.7389327230467
 30
0.0
 11
269.5767703056836
 21
337.1266917010089
 31
0.0
  0
LINE
  5
1AD5
330
1958
100
AcDbEntity
  8
5
370
    -2
100
AcDbLine
 10
344.5425497511788
 20
366.2610374919268
 30
0.0
 11
344.5425497511788
 21
337.1266917010089
 31
0.0
  0
LINE
  5
1AD6
330
1958
100
AcDbEntity
  8
5
370
    -2
100
AcDbLine
 10
274.5767703056836
 20
339.1266917010089
 30
0.0
 11
339.5425497511788
 21
339.1266917010089
 31
0.0
  0
SOLID
  5
1AD7
330
1958
100
AcDbEntity
  8
5
100
AcDbTrace
 10
274.5767703056836
 20
339.9600250343422
 30
0.0
 11
274.5767703056836
 21
338.2933583676756
 31
0.0
 12
269.5767703056836
 22
339.1266917010089
 32
0.0
 13
269.5767703056836
 23
339.1266917010089
 33
0.0
  0
SOLID
  5
1AD8
330
1958
100
AcDbEntity
  8
5
100
AcDbTrace
 10
339.5425497511788
 20
339.9600250343422
 30
0.0
 11
339.5425497511788
 21
338.2933583676756
 31
0.0
 12
344.5425497511788
 22
339.1266917010089
 32
0.0
 13
344.5425497511788
 23
339.1266917010089
 33
0.0
  0
MTEXT
  5
1AD9
330
1958
100
AcDbEntity
  8
5
 62
     7
100
AcDbMText
 10
307.0425497511788
 20
348.3045291758242
 30
0.0
 40
14.0
 41
0.0
 71
     5
 72
     1
  1
%%c75
 73
     1
 44
1.0
  0
POINT
  5
1ADA
330
1958
100
AcDbEntity
  8
Defpoints
 62
     0
100
AcDbPoint
 10
269.5767703056836
 20
367.7389327230467
 30
0.0
  0
POINT
  5
1ADB
330
1958
100
AcDbEntity
  8
Defpoints
 62
     0
100
AcDbPoint
 10
344.5425497511788
 20
368.2610374919268
 30
0.0
  0
POINT
  5
1ADC
330
1958
100
AcDbEntity
  8
Defpoints
 62
     0
100
AcDbPoint
 10
344.5425497511788
 20
339.1266917010089
 30
0.0
  0
ENDBLK
  5
195A
330
1958
100
AcDbEntity
  8
0
100
AcDbBlockEnd
  0
BLOCK
  5
1985
330
1984
100
AcDbEntity
  8
0
100
AcDbBlockBegin
  2
*D57
 70
     1
 10
0.0
 20
0.0
 30
0.0
  3
*D57
  1

  0
LINE
  5
1AE6
330
1984
100
AcDbEntity
  8
5
370
    -2
100
AcDbLine
 10
228.5425497511787
 20
465.7703258864393
 30
0.0
 11
228.5425497511787
 21
317.1206420251362
 31
0.0
  0
LINE
  5
1AE7
330
1984
100
AcDbEntity
  8
5
370
    -2
100
AcDbLine
 10
385.5425497511788
 20
465.7703258864393
 30
0.0
 11
385.5425497511788
 21
317.1206420251362
 31
0.0
  0
LINE
  5
1AE8
330
1984
100
AcDbEntity
  8
5
370
    -2
100
AcDbLine
 10
233.5425497511788
 20
319.1206420251362
 30
0.0
 11
380.5425497511787
 21
319.1206420251362
 31
0.0
  0
SOLID
  5
1AE9
330
1984
100
AcDbEntity
  8
5
100
AcDbTrace
 10
233.5425497511788
 20
319.9539753584696
 30
0.0
 11
233.5425497511788
 21
318.2873086918029
 31
0.0
 12
228.5425497511787
 22
319.1206420251362
 32
0.0
 13
228.5425497511787
 23
319.1206420251362
 33
0.0
  0
SOLID
  5
1AEA
330
1984
100
AcDbEntity
  8
5
100
AcDbTrace
 10
380.5425497511787
 20
319.9539753584696
 30
0.0
 11
380.5425497511787
 21
318.2873086918029
 31
0.0
 12
385.5425497511788
 22
319.1206420251362
 32
0.0
 13
385.5425497511788
 23
319.1206420251362
 33
0.0
  0
MTEXT
  5
1AEB
330
1984
100
AcDbEntity
  8
5
 62
     7
100
AcDbMText
 10
307.0425497511787
 20
328.2984794999515
 30
0.0
 40
14.0
 41
0.0
 71
     5
 72
     1
  1
%%c157
 73
     1
 44
1.0
  0
POINT
  5
1AEC
330
1984
100
AcDbEntity
  8
Defpoints
 62
     0
100
AcDbPoint
 10
228.5425497511787
 20
467.7703258864394
 30
0.0
  0
POINT
  5
1AED
330
1984
100
AcDbEntity
  8
Defpoints
 62
     0
100
AcDbPoint
 10
385.5425497511788
 20
467.7703258864394
 30
0.0
  0
POINT
  5
1AEE
330
1984
100
AcDbEntity
  8
Defpoints
 62
     0
100
AcDbPoint
 10
385.5425497511788
 20
319.1206420251362
 30
0.0
  0
ENDBLK
  5
1986
330
1984
100
AcDbEntity
  8
0
100
AcDbBlockEnd
  0
BLOCK
  5
19A7
330
19A6
100
AcDbEntity
  8
0
100
AcDbBlockBegin
  2
*D58
 70
     1
 10
0.0
 20
0.0
 30
0.0
  3
*D58
  1

  0
LINE
  5
1AB9
330
19A6
100
AcDbEntity
  8
5
370
    -2
100
AcDbLine
 10
207.0425497511787
 20
644.7703258864393
 30
0.0
 11
207.0425497511787
 21
656.7703258864392
 31
0.0
  0
LINE
  5
1ABA
330
19A6
100
AcDbEntity
  8
5
370
    -2
100
AcDbLine
 10
407.0425497511789
 20
644.7703258864393
 30
0.0
 11
407.0425497511789
 21
656.7703258864392
 31
0.0
  0
LINE
  5
1ABB
330
19A6
100
AcDbEntity
  8
5
370
    -2
100
AcDbLine
 10
212.0425497511786
 20
654.7703258864393
 30
0.0
 11
402.0425497511789
 21
654.7703258864393
 31
0.0
  0
SOLID
  5
1ABC
330
19A6
100
AcDbEntity
  8
5
100
AcDbTrace
 10
212.0425497511786
 20
655.6036592197727
 30
0.0
 11
212.0425497511786
 21
653.936992553106
 31
0.0
 12
207.0425497511787
 22
654.7703258864393
 32
0.0
 13
207.0425497511787
 23
654.7703258864393
 33
0.0
  0
SOLID
  5
1ABD
330
19A6
100
AcDbEntity
  8
5
100
AcDbTrace
 10
402.0425497511789
 20
655.6036592197727
 30
0.0
 11
402.0425497511789
 21
653.936992553106
 31
0.0
 12
407.0425497511789
 22
654.7703258864393
 32
0.0
 13
407.0425497511789
 23
654.7703258864393
 33
0.0
  0
MTEXT
  5
1ABE
330
19A6
100
AcDbEntity
  8
5
 62
     7
100
AcDbMText
 10
307.0425497511788
 20
663.2617966722015
 30
0.0
 40
14.0
 41
0.0
 71
     5
 72
     1
  1
{\Famgdt;o}200
 73
     1
 44
1.0
  0
POINT
  5
1ABF
330
19A6
100
AcDbEntity
  8
Defpoints
 62
     0
100
AcDbPoint
 10
207.0425497511787
 20
642.7703258864393
 30
0.0
  0
POINT
  5
1AC0
330
19A6
100
AcDbEntity
  8
Defpoints
 62
     0
100
AcDbPoint
 10
407.0425497511789
 20
642.7703258864393
 30
0.0
  0
POINT
  5
1AC1
330
19A6
100
AcDbEntity
  8
Defpoints
 62
     0
100
AcDbPoint
 10
407.0425497511789
 20
654.7703258864393
 30
0.0
  0
ENDBLK
  5
19A8
330
19A6
100
AcDbEntity
  8
0
100
AcDbBlockEnd
  0
BLOCK
  5
19C9
330
19C8
100
AcDbEntity
  8
0
100
AcDbBlockBegin
  2
*D59
 70
     1
 10
0.0
 20
0.0
 30
0.0
  3
*D59
  1

  0
LINE
  5
1AEF
330
19C8
100
AcDbEntity
  8
5
370
    -2
100
AcDbLine
 10
407.0930600084784
 20
644.7703258864393
 30
0.0
 11
481.7578249502527
 21
644.7703258864393
 31
0.0
  0
LINE
  5
1AF0
330
19C8
100
AcDbEntity
  8
5
370
    -2
100
AcDbLine
 10
395.3539556815931
 20
619.7703258864393
 30
0.0
 11
481.7578249502526
 21
619.7703258864393
 31
0.0
  0
LINE
  5
1AF1
330
19C8
100
AcDbEntity
  8
5
370
    -2
100
AcDbLine
 10
479.7578249502525
 20
639.7703258864392
 30
0.0
 11
479.7578249502525
 21
624.7703258864393
 31
0.0
  0
SOLID
  5
1AF2
330
19C8
100
AcDbEntity
  8
5
100
AcDbTrace
 10
478.9244916169193
 20
639.7703258864392
 30
0.0
 11
480.5911582835859
 21
639.7703258864392
 31
0.0
 12
479.7578249502527
 22
644.7703258864393
 32
0.0
 13
479.7578249502527
 23
644.7703258864393
 33
0.0
  0
SOLID
  5
1AF3
330
19C8
100
AcDbEntity
  8
5
100
AcDbTrace
 10
478.9244916169193
 20
624.7703258864393
 30
0.0
 11
480.5911582835859
 21
624.7703258864393
 31
0.0
 12
479.7578249502525
 22
619.7703258864393
 32
0.0
 13
479.7578249502525
 23
619.7703258864393
 33
0.0
  0
MTEXT
  5
1AF4
330
19C8
100
AcDbEntity
  8
5
 62
     7
100
AcDbMText
 10
471.2663541644903
 20
630.8553426581031
 30
0.0
 40
14.0
 41
0.0
 71
     5
 72
     1
  1
25
 11
0.0000000000000001
 21
1.0
 31
0.0
 73
     1
 44
1.0
  0
POINT
  5
1AF5
330
19C8
100
AcDbEntity
  8
Defpoints
 62
     0
100
AcDbPoint
 10
405.0930600084782
 20
644.7703258864393
 30
0.0
  0
POINT
  5
1AF6
330
19C8
100
AcDbEntity
  8
Defpoints
 62
     0
100
AcDbPoint
 10
393.3539556815931
 20
619.7703258864393
 30
0.0
  0
POINT
  5
1AF7
330
19C8
100
AcDbEntity
  8
Defpoints
 62
     0
100
AcDbPoint
 10
479.7578249502525
 20
619.7703258864393
 30
0.0
  0
ENDBLK
  5
19CA
330
19C8
100
AcDbEntity
  8
0
100
AcDbBlockEnd
  0
BLOCK
  5
19EB
330
19EA
100
AcDbEntity
  8
0
100
AcDbBlockBegin
  2
*D60
 70
     1
 10
0.0
 20
0.0
 30
0.0
  3
*D60
  1

  0
LINE
  5
1A9E
330
19EA
100
AcDbEntity
  8
5
370
    -2
100
AcDbLine
 10
407.0425497511789
 20
644.7703258864393
 30
0.0
 11
489.9478403246877
 21
644.7703258864393
 31
0.0
  0
LINE
  5
1A9F
330
19EA
100
AcDbEntity
  8
5
370
    -2
100
AcDbLine
 10
371.0425497511788
 20
451.2703258864394
 30
0.0
 11
489.9478403246877
 21
451.2703258864394
 31
0.0
  0
LINE
  5
1AA0
330
19EA
100
AcDbEntity
  8
5
370
    -2
100
AcDbLine
 10
487.9478403246876
 20
639.7703258864392
 30
0.0
 11
487.9478403246876
 21
456.2703258864392
 31
0.0
  0
SOLID
  5
1AA1
330
19EA
100
AcDbEntity
  8
5
100
AcDbTrace
 10
487.1145069913542
 20
639.7703258864392
 30
0.0
 11
488.781173658021
 21
639.7703258864392
 31
0.0
 12
487.9478403246876
 22
644.7703258864393
 32
0.0
 13
487.9478403246876
 23
644.7703258864393
 33
0.0
  0
SOLID
  5
1AA2
330
19EA
100
AcDbEntity
  8
5
100
AcDbTrace
 10
487.1145069913542
 20
456.2703258864392
 30
0.0
 11
488.781173658021
 21
456.2703258864392
 31
0.0
 12
487.9478403246876
 22
451.2703258864394
 32
0.0
 13
487.9478403246876
 23
451.2703258864394
 33
0.0
  0
MTEXT
  5
1AA3
330
19EA
100
AcDbEntity
  8
5
 62
     7
100
AcDbMText
 10
479.4704729640428
 20
548.0203258864395
 30
0.0
 40
14.0
 41
0.0
 71
     5
 72
     1
  1
194
 11
0.0000000000000001
 21
1.0
 31
0.0
 73
     1
 44
1.0
  0
POINT
  5
1AA4
330
19EA
100
AcDbEntity
  8
Defpoints
 62
     0
100
AcDbPoint
 10
405.0425497511787
 20
644.7703258864393
 30
0.0
  0
POINT
  5
1AA5
330
19EA
100
AcDbEntity
  8
Defpoints
 62
     0
100
AcDbPoint
 10
369.0425497511788
 20
451.2703258864394
 30
0.0
  0
POINT
  5
1AA6
330
19EA
100
AcDbEntity
  8
Defpoints
 62
     0
100
AcDbPoint
 10
487.9478403246876
 20
451.2703258864394
 30
0.0
  0
ENDBLK
  5
19EC
330
19EA
100
AcDbEntity
  8
0
100
AcDbBlockEnd
  0
BLOCK
  5
1A0D
330
1A0C
100
AcDbEntity
  8
0
100
AcDbBlockBegin
  2
*D61
 70
     1
 10
0.0
 20
0.0
 30
0.0
  3
*D61
  1

  0
LINE
  5
1A37
330
1A0C
100
AcDbEntity
  8
5
370
    -2
100
AcDbLine
 10
407.0425497511789
 20
644.7703258864393
 30
0.0
 11
511.2290413300893
 21
644.7703258864393
 31
0.0
  0
LINE
  5
1A38
330
1A0C
100
AcDbEntity
  8
5
370
    -2
100
AcDbLine
 10
344.5425497511788
 20
360.2703258864394
 30
0.0
 11
511.2290413300891
 21
360.2703258864393
 31
0.0
  0
LINE
  5
1A39
330
1A0C
100
AcDbEntity
  8
5
370
    -2
100
AcDbLine
 10
509.2290413300893
 20
639.7703258864392
 30
0.0
 11
509.2290413300893
 21
365.2703258864393
 31
0.0
  0
SOLID
  5
1A3A
330
1A0C
100
AcDbEntity
  8
5
100
AcDbTrace
 10
508.3957079967559
 20
639.7703258864392
 30
0.0
 11
510.0623746634226
 21
639.7703258864392
 31
0.0
 12
509.2290413300893
 22
644.7703258864393
 32
0.0
 13
509.2290413300893
 23
644.7703258864393
 33
0.0
  0
SOLID
  5
1A3B
330
1A0C
100
AcDbEntity
  8
5
100
AcDbTrace
 10
508.3957079967559
 20
365.2703258864393
 30
0.0
 11
510.0623746634226
 21
365.2703258864393
 31
0.0
 12
509.2290413300893
 22
360.2703258864393
 32
0.0
 13
509.2290413300893
 23
360.2703258864393
 33
0.0
  0
MTEXT
  5
1A3C
330
1A0C
100
AcDbEntity
  8
5
 62
     7
100
AcDbMText
 10
500.7093636940918
 20
502.5203258864393
 30
0.0
 40
14.0
 41
0.0
 71
     5
 72
     1
  1
285
 11
0.0000000000000001
 21
1.0
 31
0.0
 73
     1
 44
1.0
  0
POINT
  5
1A3D
330
1A0C
100
AcDbEntity
  8
Defpoints
 62
     0
100
AcDbPoint
 10
405.0425497511787
 20
644.7703258864393
 30
0.0
  0
POINT
  5
1A3E
330
1A0C
100
AcDbEntity
  8
Defpoints
 62
     0
100
AcDbPoint
 10
342.5425497511789
 20
360.2703258864394
 30
0.0
  0
POINT
  5
1A3F
330
1A0C
100
AcDbEntity
  8
Defpoints
 62
     0
100
AcDbPoint
 10
509.2290413300893
 20
360.2703258864393
 30
0.0
  0
ENDBLK
  5
1A0E
330
1A0C
100
AcDbEntity
  8
0
100
AcDbBlockEnd
  0
BLOCK
  5
1AFA
330
1AF9
100
AcDbEntity
  8
0
100
AcDbBlockBegin
  2
*D62
 70
     1
 10
0.0
 20
0.0
 30
0.0
  3
*D62
  1

  0
LINE
  5
1B3F
330
1AF9
100
AcDbEntity
  8
5
370
    -2
100
AcDbLine
 10
457.0425497510956
 20
626.7703258864395
 30
0.0
 11
457.0425497510956
 21
678.1262552823196
 31
0.0
  0
LINE
  5
1B40
330
1AF9
100
AcDbEntity
  8
5
370
    -2
100
AcDbLine
 10
157.0425497510962
 20
626.7703258864395
 30
0.0
 11
157.0425497510962
 21
678.1262552823196
 31
0.0
  0
LINE
  5
1B41
330
1AF9
100
AcDbEntity
  8
5
370
    -2
100
AcDbLine
 10
452.0425497510956
 20
676.1262552823197
 30
0.0
 11
162.0425497510962
 21
676.1262552823197
 31
0.0
  0
SOLID
  5
1B42
330
1AF9
100
AcDbEntity
  8
5
100
AcDbTrace
 10
452.0425497510956
 20
676.9595886156531
 30
0.0
 11
452.0425497510956
 21
675.2929219489863
 31
0.0
 12
457.0425497510956
 22
676.1262552823197
 32
0.0
 13
457.0425497510956
 23
676.1262552823197
 33
0.0
  0
SOLID
  5
1B43
330
1AF9
100
AcDbEntity
  8
5
100
AcDbTrace
 10
162.0425497510962
 20
676.9595886156531
 30
0.0
 11
162.0425497510962
 21
675.2929219489863
 31
0.0
 12
157.0425497510962
 22
676.1262552823197
 32
0.0
 13
157.0425497510962
 23
676.1262552823197
 33
0.0
  0
MTEXT
  5
1B44
330
1AF9
100
AcDbEntity
  8
5
 62
     7
100
AcDbMText
 10
307.042549751096
 20
684.6177260680819
 30
0.0
 40
14.0
 41
0.0
 71
     5
 72
     1
  1
{\Famgdt;o}300
 73
     1
 44
1.0
  0
POINT
  5
1B45
330
1AF9
100
AcDbEntity
  8
Defpoints
 62
     0
100
AcDbPoint
 10
457.0425497510956
 20
624.7703258864395
 30
0.0
  0
POINT
  5
1B46
330
1AF9
100
AcDbEntity
  8
Defpoints
 62
     0
100
AcDbPoint
 10
157.0425497510962
 20
624.7703258864395
 30
0.0
  0
POINT
  5
1B47
330
1AF9
100
AcDbEntity
  8
Defpoints
 62
     0
100
AcDbPoint
 10
157.0425497510962
 20
676.1262552823197
 30
0.0
  0
ENDBLK
  5
1AFB
330
1AF9
100
AcDbEntity
  8
0
100
AcDbBlockEnd
  0
ENDSEC
  0
SECTION
  2
ENTITIES
  0
LINE
  5
23C
330
6C
100
AcDbEntity
  8
0
100
AcDbLine
 10
345.0425497511787
 20
446.2703258864395
 30
0.0
 11
269.0425497511788
 21
446.2703258864395
 31
0.0
  0
LINE
  5
23D
330
6C
100
AcDbEntity
  8
0
100
AcDbLine
 10
369.0425497511788
 20
451.2703258864394
 30
0.0
 11
245.0425497511788
 21
451.2703258864394
 31
0.0
  0
LINE
  5
23E
330
6C
100
AcDbEntity
  8
0
100
AcDbLine
 10
385.0425497511787
 20
609.2703258864395
 30
0.0
 11
228.5425497511787
 21
609.2703258864395
 31
0.0
  0
ARC
  5
23F
330
6C
100
AcDbEntity
  8
0
100
AcDbCircle
 10
350.9586295342784
 20
445.2703258864393
 30
0.0
 40
5.999999999999986
100
AcDbArc
 50
90.00000000000055
 51
170.4059317731397
  0
ARC
  5
240
330
6C
100
AcDbEntity
  8
0
100
AcDbCircle
 10
263.1264699680791
 20
445.2703258864393
 30
0.0
 40
5.999999999999986
100
AcDbArc
 50
9.594068226860263
 51
90.0
  0
ARC
  5
241
330
6C
100
AcDbEntity
  8
0
100
AcDbCircle
 10
369.0425497511788
 20
467.7703258864394
 30
0.0
 40
16.5
100
AcDbArc
 50
270.0
 51
0.0
  0
ARC
  5
242
330
6C
100
AcDbEntity
  8
0
100
AcDbCircle
 10
245.0425497511788
 20
467.7703258864394
 30
0.0
 40
16.5
100
AcDbArc
 50
180.0
 51
270.0
  0
LINE
  5
243
330
6C
100
AcDbEntity
  8
0
100
AcDbLine
 10
228.5425497511787
 20
467.7703258864394
 30
0.0
 11
228.5425497511787
 21
550.1735070437968
 31
0.0
  0
LINE
  5
244
330
6C
100
AcDbEntity
  8
0
100
AcDbLine
 10
385.5425497511788
 20
467.7703258864394
 30
0.0
 11
385.5425497511788
 21
550.1735070437968
 31
0.0
  0
ARC
  5
245
330
6C
100
AcDbEntity
  8
0
100
AcDbCircle
 10
382.0425497511788
 20
550.1735070437968
 30
0.0
 40
3.500000000000001
100
AcDbArc
 50
0.0
 51
59.99999999999944
  0
ARC
  5
246
330
6C
100
AcDbEntity
  8
0
100
AcDbCircle
 10
232.0425497511787
 20
550.1735070437968
 30
0.0
 40
3.5
100
AcDbArc
 50
120.0000000000005
 51
180.0
  0
LINE
  5
247
330
6C
100
AcDbEntity
  8
0
100
AcDbLine
 10
382.2325497511787
 20
554.1052623769783
 30
0.0
 11
383.7925497511788
 21
553.2045959570424
 31
0.0
  0
LINE
  5
248
330
6C
100
AcDbEntity
  8
0
100
AcDbLine
 10
231.8525497511787
 20
554.1052623769783
 30
0.0
 11
230.2925497511787
 21
553.2045959570424
 31
0.0
  0
ARC
  5
249
330
6C
100
AcDbEntity
  8
0
100
AcDbCircle
 10
383.4825497511787
 20
556.2703258864395
 30
0.0
 40
2.5
100
AcDbArc
 50
120.0000000000017
 51
240.0000000000019
  0
ARC
  5
24A
330
6C
100
AcDbEntity
  8
0
100
AcDbCircle
 10
230.6025497511787
 20
556.2703258864392
 30
0.0
 40
2.5
100
AcDbArc
 50
299.9999999999998
 51
60.00000000000138
  0
LINE
  5
24B
330
6C
100
AcDbEntity
  8
0
100
AcDbLine
 10
231.8525497511787
 20
558.4353893959005
 30
0.0
 11
230.2925497511787
 21
559.336055815836
 31
0.0
  0
LINE
  5
24C
330
6C
100
AcDbEntity
  8
0
100
AcDbLine
 10
382.2325497511787
 20
558.4353893959005
 30
0.0
 11
383.7925497511788
 21
559.3360558158364
 31
0.0
  0
ARC
  5
24D
330
6C
100
AcDbEntity
  8
0
100
AcDbCircle
 10
382.0425497511788
 20
562.3671447290819
 30
0.0
 40
3.5
100
AcDbArc
 50
300.0000000000005
 51
0.0
  0
ARC
  5
24E
330
6C
100
AcDbEntity
  8
0
100
AcDbCircle
 10
232.0425497511787
 20
562.3671447290819
 30
0.0
 40
3.5
100
AcDbArc
 50
180.0
 51
239.999999999999
  0
LINE
  5
24F
330
6C
100
AcDbEntity
  8
0
100
AcDbLine
 10
228.5425497511787
 20
562.3671447290819
 30
0.0
 11
228.5425497511787
 21
609.2703258864395
 31
0.0
  0
LINE
  5
250
330
6C
100
AcDbEntity
  8
0
100
AcDbLine
 10
385.5425497511788
 20
562.3671447290819
 30
0.0
 11
385.5425497511788
 21
600.5203258864392
 31
0.0
  0
ARC
  5
254
330
6C
100
AcDbEntity
  8
0
100
AcDbCircle
 10
405.0425497511787
 20
642.7703258864393
 30
0.0
 40
1.999999999999998
100
AcDbArc
 50
0.0
 51
48.59037789070121
  0
ARC
  5
255
330
6C
100
AcDbEntity
  8
0
100
AcDbCircle
 10
405.0425497511787
 20
642.7703258864393
 30
0.0
 40
1.999999999999998
100
AcDbArc
 50
48.59037789070121
 51
90.0
  0
LINE
  5
258
330
6C
100
AcDbEntity
  8
0
100
AcDbLine
 10
407.0425497511788
 20
634.7703258864393
 30
0.0
 11
405.7925497511789
 21
634.7703258864393
 31
0.0
  0
LINE
  5
259
330
6C
100
AcDbEntity
  8
0
100
AcDbLine
 10
407.0425497511788
 20
642.7703258864393
 30
0.0
 11
407.0425497511788
 21
634.7703258864393
 31
0.0
  0
LINE
  5
25B
330
6C
100
AcDbEntity
  8
0
100
AcDbLine
 10
208.4925497511787
 20
634.7703258864393
 30
0.0
 11
405.5925497511789
 21
634.7703258864393
 31
0.0
  0
ARC
  5
25C
330
6C
100
AcDbEntity
  8
0
100
AcDbCircle
 10
209.0425497511786
 20
642.7703258864393
 30
0.0
 40
1.999999999999998
100
AcDbArc
 50
90.0
 51
131.4096221092796
  0
ARC
  5
25D
330
6C
100
AcDbEntity
  8
0
100
AcDbCircle
 10
209.0425497511786
 20
642.7703258864393
 30
0.0
 40
1.999999999999998
100
AcDbArc
 50
131.4096221092796
 51
180.0
  0
LINE
  5
261
330
6C
100
AcDbEntity
  8
0
100
AcDbLine
 10
207.0425497511787
 20
634.7703258864393
 30
0.0
 11
207.0425497511787
 21
642.7703258864393
 31
0.0
  0
LINE
  5
262
330
6C
100
AcDbEntity
  8
0
100
AcDbLine
 10
208.2925497511786
 20
634.7703258864393
 30
0.0
 11
207.0425497511787
 21
634.7703258864393
 31
0.0
  0
LINE
  5
26A
330
6C
100
AcDbEntity
  8
0
100
AcDbLine
 10
393.2925497512615
 20
624.7703258864395
 30
0.0
 11
393.2925497512615
 21
634.7703258864393
 31
0.0
  0
LINE
  5
26B
330
6C
100
AcDbEntity
  8
0
100
AcDbLine
 10
220.792549751096
 20
634.7703258864393
 30
0.0
 11
220.792549751096
 21
624.7703258864393
 31
0.0
  0
SPLINE
  5
26C
330
6C
100
AcDbEntity
  8
0
100
AcDbSpline
210
0.0
220
0.0
230
1.0
 70
    24
 71
     3
 72
    14
 73
    10
 74
     0
 42
0.0000000001
 43
0.0000000001
 40
8.224297513320324
 40
8.224297513320324
 40
8.224297513320324
 40
8.224297513342687
 40
10.28037189165041
 40
10.28037189165041
 40
10.28037189165041
 40
13.57009089697854
 40
13.57009089697854
 40
13.57009089697854
 40
13.97232755294477
 40
13.97232755294477
 40
13.97232755294477
 40
13.97232755294477
 10
393.2925497512615
 20
622.2227900814626
 30
0.0
 10
393.2925497512615
 20
622.2227900814622
 30
0.0
 10
393.2925497512615
 20
622.2925487134432
 30
0.0
 10
393.2925497512615
 20
622.3758688008337
 30
0.0
 10
393.2925497512615
 20
622.5091809406599
 30
0.0
 10
393.2925497512615
 20
622.6479286574329
 30
0.0
 10
393.2925497512615
 20
622.7385386028802
 30
0.0
 10
393.2925497512615
 20
622.7496175556402
 30
0.0
 10
393.2925497512615
 20
622.7602020111662
 30
0.0
 10
393.2925497512615
 20
622.7703256066067
 30
0.0
  0
SPLINE
  5
26D
330
6C
100
AcDbEntity
  8
0
100
AcDbSpline
210
0.0
220
0.0
230
1.0
 70
    24
 71
     3
 72
    17
 73
    13
 74
     0
 42
0.0000000001
 43
0.0000000001
 40
2.476267473689201
 40
2.476267473689201
 40
2.476267473689201
 40
2.476267473689201
 40
2.919625617228718
 40
2.919625617228718
 40
2.919625617228718
 40
5.55140082149122
 40
5.55140082149122
 40
5.55140082149122
 40
7.196260324155286
 40
7.196260324155286
 40
7.196260324155286
 40
8.224297513299234
 40
8.224297513320324
 40
8.224297513320324
 40
8.224297513320324
 10
220.792549751096
 20
622.7703247994202
 30
0.0
 10
220.792549751096
 20
622.7591664234274
 30
0.0
 10
220.792549751096
 20
622.7474482417654
 30
0.0
 10
220.792549751096
 20
622.7351252430212
 30
0.0
 10
220.792549751096
 20
622.6619758873376
 30
0.0
 10
220.792549751096
 20
622.5626727507771
 30
0.0
 10
220.792549751096
 20
622.4526465633631
 30
0.0
 10
220.792549751096
 20
622.3838801962292
 30
0.0
 10
220.792549751096
 20
622.312086949243
 30
0.0
 10
220.792549751096
 20
622.2672502925957
 30
0.0
 10
220.792549751096
 20
622.2392273821917
 30
0.0
 10
220.792549751096
 20
622.2227900814622
 30
0.0
 10
220.792549751096
 20
622.2227900814624
 30
0.0
  0
ARC
  5
26E
330
6C
100
AcDbEntity
  8
0
100
AcDbCircle
 10
389.0425497512615
 20
622.2227900814626
 30
0.0
 40
4.250000000000006
100
AcDbArc
 50
284.4702940999178
 51
0.0
  0
ARC
  5
26F
330
6C
100
AcDbEntity
  8
0
100
AcDbCircle
 10
225.042549751096
 20
622.2227900814624
 30
0.0
 40
4.250000000000006
100
AcDbArc
 50
180.0
 51
255.5297059000826
  0
LINE
  5
28C
330
6C
100
AcDbEntity
  8
0
100
AcDbLine
 10
385.0425497511789
 20
609.2703258864395
 30
0.0
 11
228.5425497511786
 21
609.2703258864395
 31
0.0
  0
LINE
  5
28D
330
6C
100
AcDbEntity
  8
0
100
AcDbLine
 10
228.5425497511786
 20
615.5746053355474
 30
0.0
 11
228.5425497511786
 21
609.2703258864395
 31
0.0
  0
LINE
  5
28E
330
6C
100
AcDbEntity
  8
0
100
AcDbLine
 10
390.1045313320933
 20
618.107611455695
 30
0.0
 11
388.7975497512139
 21
617.7703258864393
 31
0.0
  0
LINE
  5
28F
330
6C
100
AcDbEntity
  8
0
100
AcDbLine
 10
227.2298362844624
 20
617.2690906520401
 30
0.0
 11
223.9805681702641
 21
618.107611455695
 31
0.0
  0
ARC
  5
292
330
6C
100
AcDbEntity
  8
0
100
AcDbCircle
 10
226.7925497511786
 20
615.5746053355474
 30
0.0
 40
1.75
100
AcDbArc
 50
0.0
 51
75.5297059000811
  0
LINE
  5
2A7
330
6C
100
AcDbEntity
  8
0
100
AcDbLine
 10
342.5425497511788
 20
360.2703258864394
 30
0.0
 11
271.5425497511788
 21
360.2703258864394
 31
0.0
  0
ARC
  5
2A8
330
6C
100
AcDbEntity
  8
0
100
AcDbCircle
 10
340.5425497511789
 20
368.2610374919268
 30
0.0
 40
3.99999999999993
100
AcDbArc
 50
345.0000000000003
 51
0.0
  0
ARC
  5
2A9
330
6C
100
AcDbEntity
  8
0
100
AcDbCircle
 10
273.5425497511788
 20
368.2610374919268
 30
0.0
 40
3.99999999999993
100
AcDbArc
 50
180.0
 51
194.9999999999997
  0
LINE
  5
2AA
330
6C
100
AcDbEntity
  8
0
100
AcDbLine
 10
269.5425497511788
 20
368.2610374919268
 30
0.0
 11
269.5425497511788
 21
398.5291449315419
 31
0.0
  0
LINE
  5
2AB
330
6C
100
AcDbEntity
  8
0
100
AcDbLine
 10
344.5425497511788
 20
368.2610374919268
 30
0.0
 11
344.5425497511788
 21
398.529144931542
 31
0.0
  0
LINE
  5
2AE
330
6C
100
AcDbEntity
  8
0
100
AcDbLine
 10
271.5425497511788
 20
360.2703258864394
 30
0.0
 11
269.6788464460225
 21
367.2257613115168
 31
0.0
  0
LINE
  5
2AF
330
6C
100
AcDbEntity
  8
0
100
AcDbLine
 10
342.5425497511789
 20
360.2703258864394
 30
0.0
 11
344.4062530563351
 21
367.2257613115168
 31
0.0
  0
LINE
  5
2B0
330
6C
100
AcDbEntity
  8
0
100
AcDbLine
 10
269.5425497511788
 20
398.5291449315419
 30
0.0
 11
269.5425497511788
 21
410.078674570794
 31
0.0
  0
LINE
  5
2B1
330
6C
100
AcDbEntity
  8
0
100
AcDbLine
 10
344.5425497511788
 20
398.529144931542
 30
0.0
 11
344.5425497511788
 21
410.078674570794
 31
0.0
  0
ARC
  5
2B2
330
6C
100
AcDbEntity
  8
0
100
AcDbCircle
 10
343.5425497511789
 20
410.078674570794
 30
0.0
 40
1.0
100
AcDbArc
 50
0.0
 51
21.69851248985192
  0
ARC
  5
2B3
330
6C
100
AcDbEntity
  8
0
100
AcDbCircle
 10
270.5425497511788
 20
410.078674570794
 30
0.0
 40
1.0
100
AcDbArc
 50
158.301487510148
 51
180.0
  0
LINE
  5
2B4
330
6C
100
AcDbEntity
  8
0
100
AcDbLine
 10
343.3279786658951
 20
413.3226389110887
 30
0.0
 11
344.4716919217465
 21
410.4483972058502
 31
0.0
  0
LINE
  5
2B5
330
6C
100
AcDbEntity
  8
0
100
AcDbLine
 10
270.7571208364626
 20
413.3226389110887
 30
0.0
 11
269.613407580611
 21
410.4483972058502
 31
0.0
  0
ARC
  5
2B6
330
6C
100
AcDbEntity
  8
0
100
AcDbCircle
 10
343.7925497511788
 20
413.5075002286168
 30
0.0
 40
0.4999999999999988
100
AcDbArc
 50
180.0
 51
201.6985124898476
  0
ARC
  5
2B7
330
6C
100
AcDbEntity
  8
0
100
AcDbCircle
 10
270.2925497511789
 20
413.5075002286167
 30
0.0
 40
0.4999999999999986
100
AcDbArc
 50
338.3014875101525
 51
0.0
  0
LINE
  5
2B8
330
6C
100
AcDbEntity
  8
0
100
AcDbLine
 10
270.7925497511788
 20
413.5075002286167
 30
0.0
 11
270.7925497511788
 21
442.6415002286167
 31
0.0
  0
LINE
  5
2B9
330
6C
100
AcDbEntity
  8
0
100
AcDbLine
 10
343.2925497511788
 20
413.5075002286168
 30
0.0
 11
343.2925497511788
 21
442.6415002286168
 31
0.0
  0
ARC
  5
2BA
330
6C
100
AcDbEntity
  8
0
100
AcDbCircle
 10
343.7925497511788
 20
442.6415002286168
 30
0.0
 40
0.5000000000000006
100
AcDbArc
 50
158.3014875101524
 51
180.0
  0
ARC
  5
2BB
330
6C
100
AcDbEntity
  8
0
100
AcDbCircle
 10
270.2925497511789
 20
442.6415002286168
 30
0.0
 40
0.5000000000000006
100
AcDbArc
 50
0.0
 51
21.69851248984754
  0
LINE
  5
2BC
330
6C
100
AcDbEntity
  8
0
100
AcDbLine
 10
270.7571208364626
 20
442.8263615461447
 30
0.0
 11
269.613407580611
 21
445.7006032513833
 31
0.0
  0
LINE
  5
2BD
330
6C
100
AcDbEntity
  8
0
100
AcDbLine
 10
343.3279786658951
 20
442.8263615461447
 30
0.0
 11
344.4716919217465
 21
445.7006032513834
 31
0.0
  0
ARC
  5
2BE
330
6C
100
AcDbEntity
  8
0
100
AcDbCircle
 10
343.5425497511789
 20
446.0703258864392
 30
0.0
 40
1.0
100
AcDbArc
 50
338.3014875101482
 51
0.0
  0
ARC
  5
2BF
330
6C
100
AcDbEntity
  8
0
100
AcDbCircle
 10
270.5425497511788
 20
446.0703258864391
 30
0.0
 40
1.0
100
AcDbArc
 50
180.0
 51
201.6985124898519
  0
LINE
  5
2C0
330
6C
100
AcDbEntity
  8
0
100
AcDbLine
 10
269.5425497511788
 20
446.0703258864391
 30
0.0
 11
269.5425497511788
 21
446.2703258864393
 31
0.0
  0
LINE
  5
2C1
330
6C
100
AcDbEntity
  8
0
100
AcDbLine
 10
344.5425497511788
 20
446.0703258864392
 30
0.0
 11
344.5425497511788
 21
446.2703258864395
 31
0.0
  0
LINE
  5
2C4
330
6C
100
AcDbEntity
  8
0
100
AcDbLine
 10
455.0425497510956
 20
624.7703258864395
 30
0.0
 11
159.0425497510962
 21
624.7703258864393
 31
0.0
  0
LINE
  5
2C5
330
6C
100
AcDbEntity
  8
0
100
AcDbLine
 10
159.0425497510961
 20
622.7703258864393
 30
0.0
 11
159.0425497510961
 21
624.7703258864393
 31
0.0
  0
LINE
  5
2C6
330
6C
100
AcDbEntity
  8
0
100
AcDbLine
 10
455.0425497510956
 20
622.7703258864393
 30
0.0
 11
159.0425497510962
 21
622.7703258864393
 31
0.0
  0
LINE
  5
2C7
330
6C
100
AcDbEntity
  8
0
100
AcDbLine
 10
455.0425497510956
 20
622.7703258864393
 30
0.0
 11
455.0425497510956
 21
624.7703258864395
 31
0.0
  0
LINE
  5
2C8
330
6C
100
AcDbEntity
  8
0
100
AcDbLine
 10
159.0425497510961
 20
624.7703258864393
 30
0.0
 11
157.0425497510962
 21
624.7703258864393
 31
0.0
  0
LINE
  5
2C9
330
6C
100
AcDbEntity
  8
0
100
AcDbLine
 10
157.0425497510962
 20
622.7703258864393
 30
0.0
 11
157.0425497510962
 21
624.7703258864393
 31
0.0
  0
LINE
  5
2CA
330
6C
100
AcDbEntity
  8
0
100
AcDbLine
 10
159.0425497510961
 20
622.7703258864393
 30
0.0
 11
157.0425497510962
 21
622.7703258864393
 31
0.0
  0
LINE
  5
2CB
330
6C
100
AcDbEntity
  8
0
100
AcDbLine
 10
457.0425497510956
 20
622.7703258864393
 30
0.0
 11
457.0425497510956
 21
624.7703258864395
 31
0.0
  0
LINE
  5
2CC
330
6C
100
AcDbEntity
  8
0
100
AcDbLine
 10
457.0425497510956
 20
624.7703258864395
 30
0.0
 11
455.0425497510956
 21
624.7703258864395
 31
0.0
  0
LINE
  5
2CD
330
6C
100
AcDbEntity
  8
0
100
AcDbLine
 10
457.0425497510956
 20
622.7703258864393
 30
0.0
 11
455.0425497510956
 21
622.7703258864393
 31
0.0
  0
LINE
  5
3EE
330
6C
100
AcDbEntity
  8
0
100
AcDbLine
 10
269.5425497511788
 20
372.7652129090419
 30
0.0
 11
269.5425497511788
 21
378.2930769540421
 31
0.0
  0
LINE
  5
3EF
330
6C
100
AcDbEntity
  8
0
100
AcDbLine
 10
344.5425497511788
 20
372.7652129090419
 30
0.0
 11
344.5425497511788
 21
378.2930769540421
 31
0.0
  0
LINE
  5
417
330
6C
100
AcDbEntity
  8
0
100
AcDbLine
 10
385.0425497511787
 20
607.6120134912615
 30
0.0
 11
385.0425497511787
 21
610.9286382816172
 31
0.0
  0
LINE
  5
418
330
6C
100
AcDbEntity
  8
0
100
AcDbLine
 10
386.0425497511787
 20
600.7703258864395
 30
0.0
 11
386.0425497511787
 21
616.8795516964086
 31
0.0
  0
LINE
  5
419
330
6C
100
AcDbEntity
  8
0
100
AcDbLine
 10
403.0425497511785
 20
600.7703258864395
 30
0.0
 11
403.0425497511785
 21
617.7703258864393
 31
0.0
  0
LINE
  5
41A
330
6C
100
AcDbEntity
  8
0
100
AcDbLine
 10
405.0425497511787
 20
601.7703258864393
 30
0.0
 11
405.0425497511787
 21
616.7703258864395
 31
0.0
  0
LINE
  5
41B
330
6C
100
AcDbEntity
  8
0
100
AcDbLine
 10
386.0425497511787
 20
600.7703258864395
 30
0.0
 11
385.5425497511788
 21
600.5203258864395
 31
0.0
  0
LINE
  5
41C
330
6C
100
AcDbEntity
  8
0
100
AcDbLine
 10
388.7975497512137
 20
617.7703258864393
 30
0.0
 11
403.0425497511785
 21
617.7703258864393
 31
0.0
  0
LINE
  5
41D
330
6C
100
AcDbEntity
  8
0
100
AcDbLine
 10
386.0425497511787
 20
600.7703258864395
 30
0.0
 11
403.0425497511788
 21
600.7703258864395
 31
0.0
  0
LINE
  5
41E
330
6C
100
AcDbEntity
  8
0
100
AcDbLine
 10
405.0425497511787
 20
601.7703258864393
 30
0.0
 11
403.0425497511785
 21
600.7703258864395
 31
0.0
  0
LINE
  5
41F
330
6C
100
AcDbEntity
  8
0
100
AcDbLine
 10
405.0425497511787
 20
616.7703258864395
 30
0.0
 11
403.0425497511785
 21
617.7703258864395
 31
0.0
  0
LINE
  5
426
330
6C
100
AcDbEntity
  8
0
100
AcDbLine
 10
208.292549751096
 20
634.7703258864393
 30
0.0
 11
208.4925497511787
 21
634.7703258864393
 31
0.0
  0
LINE
  5
427
330
6C
100
AcDbEntity
  8
0
100
AcDbLine
 10
405.5925497511785
 20
634.7703258864393
 30
0.0
 11
405.7925497510957
 21
634.7703258864393
 31
0.0
  0
LINE
  5
433
330
6C
100
AcDbEntity
  8
0
100
AcDbLine
 10
405.0930600084782
 20
644.7703258864393
 30
0.0
 11
208.992039494045
 21
644.7703258864393
 31
0.0
  0
SPLINE
  5
458
330
6C
100
AcDbEntity
  8
0
100
AcDbSpline
210
0.0
220
0.0
230
1.0
 70
     8
 71
     3
 72
    16
 73
    12
 74
     0
 42
0.0000000001
 43
0.0000000001
 40
0.0
 40
0.0
 40
0.0
 40
0.0
 40
0.039064447338693
 40
0.039064447338693
 40
0.0781288946773862
 40
0.0781288946773862
 40
0.117193342016081
 40
0.117193342016081
 40
0.1373373782309075
 40
0.1373373782309075
 40
0.157481414445736
 40
0.157481414445736
 40
0.157481414445736
 40
0.157481414445736
 10
406.0425497510818
 20
60.97289541514182
 30
0.0
 10
406.1727645755442
 20
60.97289541514182
 30
0.0
 10
406.3017344753121
 20
60.99832926590645
 30
0.0
 10
406.5426657675941
 20
61.09720147857635
 30
0.0
 10
406.6523237256366
 20
61.16969456823897
 30
0.0
 10
406.8376796302421
 20
61.3526338769369
 30
0.0
 10
406.9116054733305
 20
61.46133109647143
 30
0.0
 10
406.9889234191586
 20
61.64291727734142
 30
0.0
 10
407.0089394827721
 20
61.70718960500693
 30
0.0
 10
407.0357867144982
 20
61.83877224205279
 30
0.0
 10
407.0425497510818
 20
61.90574862775907
 30
0.0
 10
407.0425497510818
 20
61.97289541514184
 30
0.0
  0
LINE
  5
459
330
6C
100
AcDbEntity
  8
0
100
AcDbLine
 10
407.0425497510818
 20
61.97289541514187
 30
0.0
 11
407.0425497510818
 21
62.42289541514185
 31
0.0
  0
LINE
  5
45A
330
6C
100
AcDbEntity
  8
0
100
AcDbLine
 10
405.5925497510818
 20
60.97289541514185
 30
0.0
 11
406.0425497510818
 21
60.97289541514185
 31
0.0
  0
LINE
  5
45F
330
6C
100
AcDbEntity
  8
0
100
AcDbLine
 10
407.0425497510818
 20
62.42289541514185
 30
0.0
 11
407.0425497510818
 21
62.47574241122414
 31
0.0
  0
LINE
  5
460
330
6C
100
AcDbEntity
  8
0
100
AcDbLine
 10
407.0425497510815
 20
259.4700484188942
 30
0.0
 11
407.0425497510815
 21
259.5228954151419
 31
0.0
  0
LINE
  5
461
330
6C
100
AcDbEntity
  8
0
100
AcDbLine
 10
207.0425497510815
 20
259.5228954151418
 30
0.0
 11
207.0425497510815
 21
259.47004841817
 31
0.0
  0
LINE
  5
462
330
6C
100
AcDbEntity
  8
0
100
AcDbLine
 10
207.0425497510816
 20
62.47574241194796
 30
0.0
 11
207.0425497510816
 21
62.42289541514175
 31
0.0
  0
LINE
  5
463
330
6C
100
AcDbEntity
  8
0
100
AcDbLine
 10
208.4925497510816
 20
60.97289541514175
 30
0.0
 11
208.5453967473304
 21
60.97289541514175
 31
0.0
  0
LINE
  5
464
330
6C
100
AcDbEntity
  8
0
100
AcDbLine
 10
405.5397027549989
 20
60.97289541514182
 30
0.0
 11
405.5925497510818
 21
60.97289541514185
 31
0.0
  0
LINE
  5
465
330
6C
100
AcDbEntity
  8
0
100
AcDbLine
 10
405.5925497510818
 20
260.9728954151419
 30
0.0
 11
405.5397027542766
 21
260.9728954151419
 31
0.0
  0
LINE
  5
466
330
6C
100
AcDbEntity
  8
0
100
AcDbLine
 10
208.5453967480526
 20
260.9728954151418
 30
0.0
 11
208.4925497510815
 21
260.9728954151418
 31
0.0
  0
LINE
  5
46B
330
6C
100
AcDbEntity
  8
0
100
AcDbLine
 10
407.0425497510815
 20
259.5228954151419
 30
0.0
 11
407.0425497510815
 21
259.9728954151419
 31
0.0
  0
LINE
  5
46C
330
6C
100
AcDbEntity
  8
0
100
AcDbLine
 10
406.0425497510818
 20
260.9728954151419
 30
0.0
 11
405.5925497510818
 21
260.9728954151419
 31
0.0
  0
SPLINE
  5
479
330
6C
100
AcDbEntity
  8
0
100
AcDbSpline
210
0.0
220
0.0
230
1.0
 70
     8
 71
     3
 72
    16
 73
    12
 74
     0
 42
0.0000000001
 43
0.0000000001
 40
0.0
 40
0.0
 40
0.0
 40
0.0
 40
0.0390644473386915
 40
0.0390644473386915
 40
0.0781288946773805
 40
0.0781288946773805
 40
0.1171933420160711
 40
0.1171933420160711
 40
0.137337378230898
 40
0.137337378230898
 40
0.1574814144457246
 40
0.1574814144457246
 40
0.1574814144457246
 40
0.1574814144457246
 10
208.0425497510815
 20
260.9728954151418
 30
0.0
 10
207.9123349266192
 20
260.9728954151418
 30
0.0
 10
207.7833650268513
 20
260.9474615643772
 30
0.0
 10
207.5424337345692
 20
260.8485893517072
 30
0.0
 10
207.4327757765268
 20
260.7760962620446
 30
0.0
 10
207.2474198719215
 20
260.5931569533467
 30
0.0
 10
207.173494028833
 20
260.4844597338122
 30
0.0
 10
207.0961760830046
 20
260.3028735529422
 30
0.0
 10
207.0761600193913
 20
260.2386012252767
 30
0.0
 10
207.0493127876653
 20
260.1070185882309
 30
0.0
 10
207.0425497510816
 20
260.0400422025245
 30
0.0
 10
207.0425497510816
 20
259.9728954151418
 30
0.0
  0
LINE
  5
47A
330
6C
100
AcDbEntity
  8
0
100
AcDbLine
 10
207.0425497510815
 20
259.9728954151418
 30
0.0
 11
207.0425497510815
 21
259.5228954151418
 31
0.0
  0
LINE
  5
47B
330
6C
100
AcDbEntity
  8
0
100
AcDbLine
 10
207.0425497510816
 20
62.42289541514175
 30
0.0
 11
207.0425497510816
 21
61.97289541514177
 31
0.0
  0
LINE
  5
47C
330
6C
100
AcDbEntity
  8
0
100
AcDbLine
 10
208.4925497510815
 20
260.9728954151418
 30
0.0
 11
208.0425497510816
 21
260.9728954151418
 31
0.0
  0
LINE
  5
47D
330
6C
100
AcDbEntity
  8
0
100
AcDbLine
 10
208.0425497510816
 20
60.97289541514175
 30
0.0
 11
208.4925497510816
 21
60.97289541514175
 31
0.0
  0
SPLINE
  5
486
330
6C
100
AcDbEntity
  8
0
100
AcDbSpline
210
0.0
220
0.0
230
1.0
 70
     8
 71
     3
 72
    16
 73
    12
 74
     0
 42
0.0000000001
 43
0.0000000001
 40
0.0
 40
0.0
 40
0.0
 40
0.0
 40
0.0390644473386933
 40
0.0390644473386933
 40
0.0781288946773843
 40
0.0781288946773843
 40
0.1171933420160773
 40
0.1171933420160773
 40
0.1373373782309079
 40
0.1373373782309079
 40
0.1574814144457362
 40
0.1574814144457362
 40
0.1574814144457362
 40
0.1574814144457362
 10
207.0425497510816
 20
61.97289541514177
 30
0.0
 10
207.0425497510816
 20
61.84268059067946
 30
0.0
 10
207.0679836018462
 20
61.71371069091157
 30
0.0
 10
207.1668558145161
 20
61.4727793986294
 30
0.0
 10
207.2393489041787
 20
61.36312144058702
 30
0.0
 10
207.4222882128767
 20
61.17776553598151
 30
0.0
 10
207.5309854324112
 20
61.10383969289317
 30
0.0
 10
207.7125716132812
 20
61.02652174706471
 30
0.0
 10
207.7768439409466
 20
61.00650568345151
 30
0.0
 10
207.9084265779925
 20
60.9796584517255
 30
0.0
 10
207.9754029636988
 20
60.97289541514175
 30
0.0
 10
208.0425497510816
 20
60.97289541514175
 30
0.0
  0
SPLINE
  5
487
330
6C
100
AcDbEntity
  8
0
100
AcDbSpline
210
0.0
220
0.0
230
1.0
 70
     8
 71
     3
 72
    16
 73
    12
 74
     0
 42
0.0000000001
 43
0.0000000001
 40
0.0
 40
0.0
 40
0.0
 40
0.0
 40
0.0390644473386912
 40
0.0390644473386912
 40
0.0781288946773848
 40
0.0781288946773848
 40
0.1171933420160769
 40
0.1171933420160769
 40
0.1373373782309036
 40
0.1373373782309036
 40
0.15748141444573
 40
0.15748141444573
 40
0.15748141444573
 40
0.15748141444573
 10
407.0425497510815
 20
259.9728954151419
 30
0.0
 10
407.0425497510815
 20
260.1031102396042
 30
0.0
 10
407.0171159003171
 20
260.2320801393721
 30
0.0
 10
406.9182436876472
 20
260.4730114316542
 30
0.0
 10
406.8457505979846
 20
260.5826693896966
 30
0.0
 10
406.6628112892866
 20
260.7680252943022
 30
0.0
 10
406.5541140697521
 20
260.8419511373905
 30
0.0
 10
406.3725278888822
 20
260.9192690832189
 30
0.0
 10
406.3082555612166
 20
260.9392851468322
 30
0.0
 10
406.1766729241708
 20
260.9661323785581
 30
0.0
 10
406.1096965384646
 20
260.9728954151419
 30
0.0
 10
406.0425497510818
 20
260.9728954151419
 30
0.0
  0
LINE
  5
4BA
330
6C
100
AcDbEntity
  8
0
100
AcDbLine
 10
455.0425497509985
 20
10.97289541521952
 30
0.0
 11
159.0425497509992
 21
10.97289541521946
 31
0.0
  0
LINE
  5
4BB
330
6C
100
AcDbEntity
  8
0
100
AcDbLine
 10
159.0425497509991
 20
10.97289541521949
 30
0.0
 11
157.0425497509991
 21
12.97289541521948
 31
0.0
  0
LINE
  5
4BC
330
6C
100
AcDbEntity
  8
0
100
AcDbLine
 10
157.0425497509991
 20
12.97289541521948
 30
0.0
 11
157.042549750999
 21
308.972895415219
 31
0.0
  0
LINE
  5
4BD
330
6C
100
AcDbEntity
  8
0
100
AcDbLine
 10
157.042549750999
 20
308.9728954152189
 30
0.0
 11
159.042549750999
 21
310.972895415219
 31
0.0
  0
LINE
  5
4BE
330
6C
100
AcDbEntity
  8
0
100
AcDbLine
 10
159.042549750999
 20
310.972895415219
 30
0.0
 11
455.0425497509985
 21
310.9728954152191
 31
0.0
  0
LINE
  5
4BF
330
6C
100
AcDbEntity
  8
0
100
AcDbLine
 10
455.0425497509985
 20
310.9728954152191
 30
0.0
 11
457.0425497509985
 21
308.9728954152191
 31
0.0
  0
LINE
  5
4C0
330
6C
100
AcDbEntity
  8
0
100
AcDbLine
 10
457.0425497509985
 20
308.9728954152191
 30
0.0
 11
457.0425497509986
 21
12.97289541521954
 31
0.0
  0
LINE
  5
4C1
330
6C
100
AcDbEntity
  8
0
100
AcDbLine
 10
457.0425497509986
 20
12.97289541521951
 30
0.0
 11
455.0425497509985
 21
10.97289541521952
 31
0.0
  0
LINE
  5
58F
330
6C
100
AcDbEntity
  8
0
100
AcDbLine
 10
405.0930600083813
 20
261.0234056722763
 30
0.0
 11
208.9920394939479
 21
261.0234056722762
 31
0.0
  0
LINE
  5
590
330
6C
100
AcDbEntity
  8
0
100
AcDbLine
 10
206.9920394939479
 20
259.0234056722763
 30
0.0
 11
206.9920394939479
 21
62.92238515784281
 31
0.0
  0
LINE
  5
591
330
6C
100
AcDbEntity
  8
0
100
AcDbLine
 10
208.9920394939479
 20
60.9223851578428
 30
0.0
 11
405.0930600083813
 21
60.92238515784281
 31
0.0
  0
LINE
  5
592
330
6C
100
AcDbEntity
  8
0
100
AcDbLine
 10
407.0930600083813
 20
62.92238515784281
 30
0.0
 11
407.0930600083813
 21
259.0234056722763
 31
0.0
  0
ARC
  5
593
330
6C
100
AcDbEntity
  8
0
100
AcDbCircle
 10
208.9920394939479
 20
259.0234056722763
 30
0.0
 40
1.999999999999935
100
AcDbArc
 50
89.99999999999833
 51
180.0
  0
ARC
  5
594
330
6C
100
AcDbEntity
  8
0
100
AcDbCircle
 10
208.9920394939479
 20
62.92238515784278
 30
0.0
 40
1.999999999999991
100
AcDbArc
 50
180.0
 51
270.0
  0
ARC
  5
595
330
6C
100
AcDbEntity
  8
0
100
AcDbCircle
 10
405.0930600083813
 20
62.92238515784281
 30
0.0
 40
1.999999999999991
100
AcDbArc
 50
270.0
 51
0.0
  0
ARC
  5
596
330
6C
100
AcDbEntity
  8
0
100
AcDbCircle
 10
405.0930600083813
 20
259.0234056722763
 30
0.0
 40
1.999999999999973
100
AcDbArc
 50
0.0
 51
89.99999999999833
  0
LINE
  5
59F
330
6C
100
AcDbEntity
  8
0
100
AcDbLine
 10
391.5425497511645
 20
87.97289541505945
 30
0.0
 11
391.5425497511644
 21
233.9728954150594
 31
0.0
  0
LINE
  5
5A0
330
6C
100
AcDbEntity
  8
0
100
AcDbLine
 10
222.5425497511647
 20
233.9728954150593
 30
0.0
 11
222.5425497511647
 21
87.97289541505945
 31
0.0
  0
ARC
  5
5A2
330
6C
100
AcDbEntity
  8
0
100
AcDbCircle
 10
234.0425497511647
 20
87.97289541505945
 30
0.0
 40
11.49999999999999
100
AcDbArc
 50
180.0
 51
270.0
  0
LINE
  5
5A3
330
6C
100
AcDbEntity
  8
0
100
AcDbLine
 10
234.0425497511647
 20
76.47289541505942
 30
0.0
 11
380.0425497511645
 21
76.47289541505945
 31
0.0
  0
ARC
  5
5A4
330
6C
100
AcDbEntity
  8
0
100
AcDbCircle
 10
234.0425497511647
 20
233.9728954150593
 30
0.0
 40
11.5
100
AcDbArc
 50
90.00000000000017
 51
180.0
  0
LINE
  5
5A5
330
6C
100
AcDbEntity
  8
0
100
AcDbLine
 10
380.0425497511645
 20
245.4728954150594
 30
0.0
 11
234.0425497511646
 21
245.4728954150593
 31
0.0
  0
ARC
  5
5A6
330
6C
100
AcDbEntity
  8
0
100
AcDbCircle
 10
380.0425497511647
 20
87.97289541505941
 30
0.0
 40
11.49999999999996
100
AcDbArc
 50
270.0
 51
0.0
  0
ARC
  5
5A7
330
6C
100
AcDbEntity
  8
0
100
AcDbCircle
 10
380.0425497511645
 20
233.9728954150594
 30
0.0
 40
11.49999999999999
100
AcDbArc
 50
0.0
 51
90.0
  0
LINE
  5
194B
330
6C
100
AcDbEntity
  8
7
100
AcDbLine
 10
307.0425497511788
 20
359.0388249457246
 30
0.0
 11
307.0425497511788
 21
614.4382683927561
 31
0.0
  0
LINE
  5
194C
330
6C
100
AcDbEntity
  8
7
100
AcDbLine
 10
307.0425497511646
 20
81.32972755127468
 30
0.0
 11
307.0425497511646
 21
242.7964253982494
 31
0.0
  0
LINE
  5
194D
330
6C
100
AcDbEntity
  8
7
100
AcDbLine
 10
231.292695981303
 20
160.9728954150592
 30
0.0
 11
385.5580198785046
 21
160.9728954150592
 31
0.0
  0
CIRCLE
  5
194E
330
6C
100
AcDbEntity
  8
0
100
AcDbCircle
 10
307.0425497511646
 20
160.9728954150592
 30
0.0
 40
35.24999999998573
  0
CIRCLE
  5
194F
330
6C
100
AcDbEntity
  8
0
100
AcDbCircle
 10
307.0425497511646
 20
160.9728954150592
 30
0.0
 40
36.24999999998579
  0
CIRCLE
  5
1950
330
6C
100
AcDbEntity
  8
0
100
AcDbCircle
 10
307.0425497511646
 20
160.9728954150592
 30
0.0
 40
72.43999999998587
  0
CIRCLE
  5
1951
330
6C
100
AcDbEntity
  8
0
100
AcDbCircle
 10
307.0425497511646
 20
160.9728954150592
 30
0.0
 40
76.99999999998587
  0
DIMENSION
  5
1957
330
6C
100
AcDbEntity
  8
5
100
AcDbDimension
  2
*D56
 10
344.5425497511788
 20
339.1266917010089
 30
0.0
 11
307.0425497511788
 21
339.1266917010089
 31
0.0
 70
   160
  1
%%c<>
 71
     5
 42
74.96577944549517
  3
GEN-ISO
100
AcDbAlignedDimension
 13
269.5767703056836
 23
367.7389327230467
 33
0.0
 14
344.5425497511788
 24
368.2610374919268
 34
0.0
 50
0.0000000000001132
100
AcDbRotatedDimension
1001
ACAD
1000
DSTYLE
1002
{
1070
     3
1000

1070
   271
1070
     0
1002
}
1001
ACAD_DSTYLE_DIMINSPECT
1070
   396
1000
100%
1070
   395
1000

1070
   394
1070
    33
1070
   393
1070
     0
  0
DIMENSION
  5
1983
330
6C
100
AcDbEntity
  8
5
100
AcDbDimension
  2
*D57
 10
385.5425497511788
 20
319.1206420251362
 30
0.0
 11
307.0425497511787
 21
319.1206420251362
 31
0.0
 70
   160
  1
%%c<>
 71
     5
 42
157.0
  3
GEN-ISO
100
AcDbAlignedDimension
 13
228.5425497511787
 23
467.7703258864394
 33
0.0
 14
385.5425497511788
 24
467.7703258864394
 34
0.0
 50
0.0000000000001132
100
AcDbRotatedDimension
1001
ACAD
1000
DSTYLE
1002
{
1070
     3
1000

1070
   271
1070
     0
1002
}
1001
ACAD_DSTYLE_DIMINSPECT
1070
   396
1000
100%
1070
   395
1000

1070
   394
1070
    33
1070
   393
1070
     0
  0
DIMENSION
  5
19A5
330
6C
100
AcDbEntity
  8
5
100
AcDbDimension
  2
*D58
 10
407.0425497511789
 20
654.7703258864393
 30
0.0
 11
307.0425497511788
 21
663.2617966722015
 31
0.0
 70
    32
  1
{\Famgdt;o}<>
 71
     5
 42
200.0000000000003
  3
GEN-ISO
100
AcDbAlignedDimension
 13
207.0425497511787
 23
642.7703258864393
 33
0.0
 14
407.0425497511789
 24
642.7703258864393
 34
0.0
100
AcDbRotatedDimension
1001
ACAD
1000
DSTYLE
1002
{
1070
     3
1000

1070
   271
1070
     0
1002
}
1001
ACAD_DSTYLE_DIMINSPECT
1070
   396
1000
100%
1070
   395
1000

1070
   394
1070
    33
1070
   393
1070
     0
  0
DIMENSION
  5
19C7
330
6C
100
AcDbEntity
  8
5
100
AcDbDimension
  2
*D59
 10
479.7578249502525
 20
619.7703258864393
 30
0.0
 11
479.7578249502525
 21
630.8553426581031
 31
0.0
 70
   160
 71
     5
 42
25.0
  3
GEN-ISO
100
AcDbAlignedDimension
 13
405.0930600084782
 23
644.7703258864393
 33
0.0
 14
393.3539556815931
 24
619.7703258864393
 34
0.0
 50
90.00000000000005
100
AcDbRotatedDimension
1001
ACAD_DSTYLE_DIMINSPECT
1070
   396
1000
100%
1070
   395
1000

1070
   394
1070
    33
1070
   393
1070
     0
1001
ACAD
1000
DSTYLE
1002
{
1070
     3
1000

1070
   271
1070
     0
1002
}
  0
DIMENSION
  5
19E9
330
6C
100
AcDbEntity
  8
5
100
AcDbDimension
  2
*D60
 10
487.9478403246876
 20
451.2703258864394
 30
0.0
 11
487.9478403246876
 21
548.0203258864395
 31
0.0
 70
   160
 71
     5
 42
193.5
  3
GEN-ISO
100
AcDbAlignedDimension
 13
405.0425497511787
 23
644.7703258864393
 33
0.0
 14
369.0425497511788
 24
451.2703258864394
 34
0.0
 50
90.00000000000005
100
AcDbRotatedDimension
1001
ACAD_DSTYLE_DIMINSPECT
1070
   396
1000
100%
1070
   395
1000

1070
   394
1070
    33
1070
   393
1070
     0
1001
ACAD
1000
DSTYLE
1002
{
1070
     3
1000

1070
   271
1070
     0
1002
}
  0
DIMENSION
  5
1A0B
330
6C
100
AcDbEntity
  8
5
100
AcDbDimension
  2
*D61
 10
509.2290413300893
 20
360.2703258864393
 30
0.0
 11
500.7093636940918
 21
502.5203258864393
 31
0.0
 70
    32
 71
     5
 42
284.5000000000001
  3
GEN-ISO
100
AcDbAlignedDimension
 13
405.0425497511787
 23
644.7703258864393
 33
0.0
 14
342.5425497511789
 24
360.2703258864394
 34
0.0
 50
90.00000000000005
100
AcDbRotatedDimension
1001
ACAD_DSTYLE_DIMINSPECT
1070
   396
1000
100%
1070
   395
1000

1070
   394
1070
    33
1070
   393
1070
     0
1001
ACAD
1000
DSTYLE
1002
{
1070
     3
1000

1070
   271
1070
     0
1002
}
  0
DIMENSION
  5
1AF8
330
6C
100
AcDbEntity
  8
5
100
AcDbDimension
  2
*D62
 10
157.0425497510962
 20
676.1262552823197
 30
0.0
 11
307.042549751096
 21
676.1262552823197
 31
0.0
 70
   160
  1
{\Famgdt;o}<>
 71
     5
 42
299.9999999999996
  3
GEN-ISO
100
AcDbAlignedDimension
 13
457.0425497510956
 23
624.7703258864395
 33
0.0
 14
157.0425497510962
 24
624.7703258864395
 34
0.0
 50
0.0000000000000114
100
AcDbRotatedDimension
1001
ACAD
1000
DSTYLE
1002
{
1070
     3
1000

1070
   271
1070
     0
1002
}
1001
ACAD_DSTYLE_DIMINSPECT
1070
   396
1000
100%
1070
   395
1000

1070
   394
1070
    33
1070
   393
1070
     0
  0
ENDSEC
  0
SECTION
  2
OBJECTS
  0
DICTIONARY
  5
C
330
0
100
AcDbDictionary
281
     1
  3
ACAD_2007HEADERVARS_RT
350
1D7A
  3
ACAD_CIP_PREVIOUS_PRODUCT_INFO
350
E0C
  3
ACAD_COLOR
350
63
  3
ACAD_GROUP
350
D
  3
ACAD_LAYOUT
350
62
  3
ACAD_MATERIAL
350
10
  3
ACAD_MLEADERSTYLE
350
66
  3
ACAD_MLINESTYLE
350
5F
  3
ACAD_PLOTSETTINGS
350
61
  3
ACAD_PLOTSTYLENAME
350
E
  3
ACAD_SCALELIST
350
42
  3
ACAD_TABLESTYLE
350
64
  3
ACAD_VISUALSTYLE
350
29
  3
ACDB_RECOMPOSE_DATA
350
1D79
  3
AcDbVariableDictionary
350
E48
  3
AcmDictionary
350
EB4
  3
AEC_PROPERTY_SET_DEFS
350
1407
  3
AMG
350
E5A
  3
AMGSNAPSETTINGS
350
EF4
  0
DICTIONARY
  5
F4C
330
2
100
AcDbDictionary
280
     1
281
     1
  3
ACAD_LAYERSTATES
360
F4D
  0
DICTIONARY
  5
F46
330
F45
100
AcDbDictionary
280
     1
281
     1
  0
DICTIONARY
  5
F48
330
F47
100
AcDbDictionary
280
     1
281
     1
  0
DICTIONARY
  5
1D64
330
C9
100
AcDbDictionary
280
     1
281
     1
  3
ACAD_MTEXT_2008_RT
360
1D65
  0
DICTIONARY
  5
1DB0
330
12E
100
AcDbDictionary
280
     1
281
     1
  3
ACAD_MTEXT_2008_RT
360
1DB1
  0
DICTIONARY
  5
1DB2
330
132
100
AcDbDictionary
280
     1
281
     1
  3
ACAD_MTEXT_2008_RT
360
1DB3
  0
DICTIONARY
  5
1DB4
330
136
100
AcDbDictionary
280
     1
281
     1
  3
ACAD_MTEXT_2008_RT
360
1DB5
  0
DICTIONARY
  5
1DB6
330
13A
100
AcDbDictionary
280
     1
281
     1
  3
ACAD_MTEXT_2008_RT
360
1DB7
  0
DICTIONARY
  5
1DB8
330
13E
100
AcDbDictionary
280
     1
281
     1
  3
ACAD_MTEXT_2008_RT
360
1DB9
  0
DICTIONARY
  5
1DBA
330
142
100
AcDbDictionary
280
     1
281
     1
  3
ACAD_MTEXT_2008_RT
360
1DBB
  0
DICTIONARY
  5
1DBC
330
146
100
AcDbDictionary
280
     1
281
     1
  3
ACAD_MTEXT_2008_RT
360
1DBD
  0
DICTIONARY
  5
1DBE
330
14A
100
AcDbDictionary
280
     1
281
     1
  3
ACAD_MTEXT_2008_RT
360
1DBF
  0
DICTIONARY
  5
1DC0
330
152
100
AcDbDictionary
280
     1
281
     1
  3
ACAD_MTEXT_2008_RT
360
1DC1
  0
DICTIONARY
  5
1DC2
330
209
100
AcDbDictionary
280
     1
281
     1
  3
ACAD_MTEXT_2008_RT
360
1DC3
  0
DICTIONARY
  5
1DC4
330
20E
100
AcDbDictionary
280
     1
281
     1
  3
ACAD_MTEXT_2008_RT
360
1DC5
  0
DICTIONARY
  5
E11
330
210
100
AcDbDictionary
280
     1
281
     1
  3
ACAD_MLATT
360
1D67
  3
ACAD_XREC_ROUNDTRIP
360
1D66
  0
DICTIONARY
  5
E14
330
214
100
AcDbDictionary
280
     1
281
     1
  3
ACAD_MLATT
360
1D69
  3
ACAD_XREC_ROUNDTRIP
360
1D68
  0
DICTIONARY
  5
E17
330
215
100
AcDbDictionary
280
     1
281
     1
  3
ACAD_MLATT
360
1D6B
  3
ACAD_XREC_ROUNDTRIP
360
1D6A
  0
DICTIONARY
  5
E1A
330
216
100
AcDbDictionary
280
     1
281
     1
  3
ACAD_MLATT
360
1D6D
  3
ACAD_XREC_ROUNDTRIP
360
1D6C
  0
DICTIONARY
  5
E1D
330
217
100
AcDbDictionary
280
     1
281
     1
  3
ACAD_MLATT
360
1D6F
  3
ACAD_XREC_ROUNDTRIP
360
1D6E
  0
DICTIONARY
  5
E20
330
219
100
AcDbDictionary
280
     1
281
     1
  3
ACAD_MLATT
360
1D71
  3
ACAD_XREC_ROUNDTRIP
360
1D70
  0
DICTIONARY
  5
E23
330
21A
100
AcDbDictionary
280
     1
281
     1
  3
ACAD_MLATT
360
1D73
  3
ACAD_XREC_ROUNDTRIP
360
1D72
  0
DICTIONARY
  5
E26
330
21B
100
AcDbDictionary
280
     1
281
     1
  3
ACAD_MLATT
360
1D75
  3
ACAD_XREC_ROUNDTRIP
360
1D74
  0
DICTIONARY
  5
E29
330
21C
100
AcDbDictionary
280
     1
281
     1
  3
ACAD_MLATT
360
1D77
  3
ACAD_XREC_ROUNDTRIP
360
1D76
  0
DICTIONARY
  5
1DC6
330
A89
100
AcDbDictionary
280
     1
281
     1
  3
ACAD_MTEXT_2008_RT
360
1DC7
  0
DICTIONARY
  5
1DC8
330
D1A
100
AcDbDictionary
280
     1
281
     1
  3
ACAD_MTEXT_2008_RT
360
1DC9
  0
DICTIONARY
  5
1DCA
330
D1E
100
AcDbDictionary
280
     1
281
     1
  3
ACAD_MTEXT_2008_RT
360
1DCB
  0
DICTIONARY
  5
1DCC
330
D22
100
AcDbDictionary
280
     1
281
     1
  3
ACAD_MTEXT_2008_RT
360
1DCD
  0
DICTIONARY
  5
1DCE
330
D2D
100
AcDbDictionary
280
     1
281
     1
  3
ACAD_MTEXT_2008_RT
360
1DCF
  0
DICTIONARY
  5
1DD0
330
D2E
100
AcDbDictionary
280
     1
281
     1
  3
ACAD_MTEXT_2008_RT
360
1DD1
  0
DICTIONARY
  5
1DD2
330
D36
100
AcDbDictionary
280
     1
281
     1
  3
ACAD_MTEXT_2008_RT
360
1DD3
  0
DICTIONARY
  5
1DD4
330
D49
100
AcDbDictionary
280
     1
281
     1
  3
ACAD_MTEXT_2008_RT
360
1DD5
  0
DICTIONARY
  5
1DD6
330
D4C
100
AcDbDictionary
280
     1
281
     1
  3
ACAD_MTEXT_2008_RT
360
1DD7
  0
DICTIONARY
  5
1DD8
330
D54
100
AcDbDictionary
280
     1
281
     1
  3
ACAD_MTEXT_2008_RT
360
1DD9
  0
DICTIONARY
  5
1DDA
330
D5B
100
AcDbDictionary
280
     1
281
     1
  3
ACAD_MTEXT_2008_RT
360
1DDB
  0
DICTIONARY
  5
1DDC
330
D5C
100
AcDbDictionary
280
     1
281
     1
  3
ACAD_MTEXT_2008_RT
360
1DDD
  0
DICTIONARY
  5
1DDE
330
D60
100
AcDbDictionary
280
     1
281
     1
  3
ACAD_MTEXT_2008_RT
360
1DDF
  0
DICTIONARY
  5
1DE0
330
D61
100
AcDbDictionary
280
     1
281
     1
  3
ACAD_MTEXT_2008_RT
360
1DE1
  0
DICTIONARY
  5
1DE2
330
D64
100
AcDbDictionary
280
     1
281
     1
  3
ACAD_MTEXT_2008_RT
360
1DE3
  0
DICTIONARY
  5
1DE4
330
D65
100
AcDbDictionary
280
     1
281
     1
  3
ACAD_MTEXT_2008_RT
360
1DE5
  0
DICTIONARY
  5
1DE6
330
D69
100
AcDbDictionary
280
     1
281
     1
  3
ACAD_MTEXT_2008_RT
360
1DE7
  0
DICTIONARY
  5
1D7A
102
{ACAD_REACTORS
330
C
102
}
330
C
100
AcDbDictionary
281
     1
  3
DIMARCSYM
350
1D7B
  3
DIMLTEX1
350
1D7D
  3
DIMLTEX2
350
1D7E
  3
DIMLTYPE
350
1D7C
  0
XRECORD
  5
E0C
102
{ACAD_REACTORS
330
C
102
}
330
C
100
AcDbXrecord
280
     1
300
INVNTOR
300
2012
300
PDSP_F_S
  0
DICTIONARY
  5
63
102
{ACAD_REACTORS
330
C
102
}
330
C
100
AcDbDictionary
281
     1
  0
DICTIONARY
  5
D
102
{ACAD_REACTORS
330
C
102
}
330
C
100
AcDbDictionary
281
     1
  0
DICTIONARY
  5
62
102
{ACAD_REACTORS
330
C
102
}
330
C
100
AcDbDictionary
281
     1
  3
Layout1
350
6B
  3
Layout2
350
73
  3
Model
350
6F
  0
DICTIONARY
  5
10
102
{ACAD_REACTORS
330
C
102
}
330
C
100
AcDbDictionary
281
     1
  3
ByBlock
350
19
  3
ByLayer
350
11
  3
Global
350
21
  0
DICTIONARY
  5
66
102
{ACAD_REACTORS
330
C
102
}
330
C
100
AcDbDictionary
281
     1
  3
Standard
350
67
  0
DICTIONARY
  5
5F
102
{ACAD_REACTORS
330
C
102
}
330
C
100
AcDbDictionary
281
     1
  3
Standard
350
60
  0
DICTIONARY
  5
61
102
{ACAD_REACTORS
330
C
102
}
330
C
100
AcDbDictionary
281
     1
  0
ACDBDICTIONARYWDFLT
  5
E
102
{ACAD_REACTORS
330
C
102
}
330
C
100
AcDbDictionary
281
     1
  3
Normal
350
F
100
AcDbDictionaryWithDefault
340
F
  0
DICTIONARY
  5
42
102
{ACAD_REACTORS
330
C
102
}
330
C
100
AcDbDictionary
281
     1
  3
A0
350
43
  3
A1
350
44
  3
A2
350
45
  3
A3
350
46
  3
A4
350
47
  3
A5
350
48
  3
A6
350
49
  3
A7
350
4A
  3
A8
350
4B
  3
A9
350
4C
  3
B0
350
4D
  3
B1
350
4E
  3
B2
350
4F
  3
B3
350
50
  3
B4
350
51
  3
B5
350
52
  3
B6
350
53
  0
DICTIONARY
  5
64
102
{ACAD_REACTORS
330
C
102
}
330
C
100
AcDbDictionary
281
     1
  3
Standard
350
65
  0
DICTIONARY
  5
29
102
{ACAD_REACTORS
330
C
102
}
330
C
100
AcDbDictionary
281
     1
  3
2dWireframe
350
2F
  3
3D Hidden
350
E4E
  3
3dWireframe
350
E4D
  3
Basic
350
2E
  3
Brighten
350
35
  3
ColorChange
350
39
  3
Conceptual
350
32
  3
Dim
350
34
  3
EdgeColorOff
350
41
  3
Facepattern
350
38
  3
Flat
350
2A
  3
FlatWithEdges
350
2B
  3
Gouraud
350
2C
  3
GouraudWithEdges
350
2D
  3
Hidden
350
31
  3
JitterOff
350
3F
  3
Linepattern
350
37
  3
OverhangOff
350
40
  3
Realistic
350
33
  3
Shaded
350
3E
  3
Shaded with edges
350
3D
  3
Shades of Gray
350
3A
  3
Sketchy
350
3B
  3
Thicken
350
36
  3
Wireframe
350
30
  3
X-Ray
350
3C
  0
XRECORD
  5
1D79
102
{ACAD_REACTORS
330
C
102
}
330
C
100
AcDbXrecord
280
     1
 90
        1
330
65
330
C9
330
210
330
214
330
215
330
216
330
217
330
219
330
21A
330
21B
330
21C
  0
DICTIONARY
  5
E48
102
{ACAD_REACTORS
330
C
102
}
330
C
100
AcDbDictionary
281
     1
  3
CANNOSCALE
350
E4B
  3
CMLEADERSTYLE
350
E4A
  3
CTABLESTYLE
350
E49
  3
LAYEREVAL
350
1B4A
  3
LAYERNOTIFY
350
1B4B
  3
LIGHTINGUNITS
350
1B49
  3
MSLTSCALE
350
1B48
  3
SOLIDHIST
350
1B4C
  3
XCLIPFRAME
350
1D62
  0
DICTIONARY
  5
EB4
102
{ACAD_REACTORS
330
C
102
}
330
C
100
AcDbDictionary
281
     1
  3
AcmStdDictionary
350
EBE
  0
DICTIONARY
  5
1407
102
{ACAD_REACTORS
330
C
102
}
330
C
100
AcDbDictionary
281
     1
  0
DICTIONARY
  5
E5A
102
{ACAD_REACTORS
330
C
102
}
330
C
100
AcDbDictionary
281
     1
  0
DICTIONARY
  5
EF4
102
{ACAD_REACTORS
330
C
102
}
330
C
100
AcDbDictionary
281
     1
  0
DICTIONARY
  5
F4D
102
{ACAD_REACTORS
330
F4C
102
}
330
F4C
100
AcDbDictionary
281
     1
  0
XRECORD
  5
1D65
102
{ACAD_REACTORS
330
1D64
102
}
330
1D64
100
AcDbXrecord
280
     1
 40
2697178.0
  1
\pxsm0.94;WIG Schweisung, Nahte sauber geschliffen und poliert\PSichtstege geschliffen mit 240 Korn und abgeklebt.\P\fTahoma|b0|i0;\H3.0000; \P\fTahoma|b0|i0;\H3.5000;WIG svarovani- svary dle potreby zabrousit.\PPohledove plochy brousit (vel. brusnyc
  1
h zrn 240)\Pa polepit paskou
  0
XRECORD
  5
1DB1
102
{ACAD_REACTORS
330
1DB0
102
}
330
1DB0
100
AcDbXrecord
280
     1
 40
128335.0
  1
Mořit a opláchnout\PBeizen und Pasiviert
  0
XRECORD
  5
1DB3
102
{ACAD_REACTORS
330
1DB2
102
}
330
1DB2
100
AcDbXrecord
280
     1
 40
118263.0
  1
Žlab bez spádu!\PRinne ohne Gefälle!
  0
XRECORD
  5
1DB5
102
{ACAD_REACTORS
330
1DB4
102
}
330
1DB4
100
AcDbXrecord
280
     1
 40
119399.0
  1
Žlab bez spádu!\PChannel without slope!
  0
XRECORD
  5
1DB7
102
{ACAD_REACTORS
330
1DB6
102
}
330
1DB6
100
AcDbXrecord
280
     1
 40
2320136.0
  1
Povrchová úprava/Oberfläche:\PTryskat pouze vnitřek žlabu, včetně pohledových ploch!\PPříruby proti tryskání chránit!\PFlansches per strahlung behütent!
  0
XRECORD
  5
1DB9
102
{ACAD_REACTORS
330
1DB8
102
}
330
1DB8
100
AcDbXrecord
280
     1
 40
4745921.0
  1
Vzdálenost nivelačních šroubu ca. 1500mm.\PVzdálenost kotev ca. 400mm.\PPohledové plochy brousit(vel.brusných zrn 240)\Pa polepit páskou.\P\PDistance of leveling feets ca. 1500 mm.\PDistance of fixing tangs ca. 400 mm.\PVisible surfaces to be grinded
  1
 and covered by protectiv foil.
  0
XRECORD
  5
1DBB
102
{ACAD_REACTORS
330
1DBA
102
}
330
1DBA
100
AcDbXrecord
280
     1
 40
2193518.0
  1
POZOR:\PSpád žlabu je menší než 1% - nebezpečí vzniku prohlubní\Pse stojatou vodou.\PAUTENTION:\PThe gradient of the bottom is minor then 1%.\PThat can be reason of slack water.
  0
XRECORD
  5
1DBD
102
{ACAD_REACTORS
330
1DBC
102
}
330
1DBC
100
AcDbXrecord
280
     1
 40
2672228.0
  1
POZOR:\PSpád žlabu je menší než 1% - nebezpečí vzniku prohlubní\Pse stojatou vodou.\PACHTUNG:\PDas Bodengefälle ist kleiner als 1%. Das Gefahr der\PSenkungsentstehung mit dem stehenden Wasser.
  0
XRECORD
  5
1DBF
102
{ACAD_REACTORS
330
1DBE
102
}
330
1DBE
100
AcDbXrecord
280
     1
 40
275286.0
  1
Kartáčováno + folie\PGeburstet mit abziehbarer Schutzfolie
  0
XRECORD
  5
1DC1
102
{ACAD_REACTORS
330
1DC0
102
}
330
1DC0
100
AcDbXrecord
280
     1
 40
105970.0
  1
Mořit a opláchnout\PPickled and wash
  0
XRECORD
  5
1DC3
102
{ACAD_REACTORS
330
1DC2
102
}
330
1DC2
100
AcDbXrecord
280
     1
 40
267359.0
  1
Effidrain sestava jednodílná svislá příruba 157_DN70 V2A
  0
XRECORD
  5
1DC5
102
{ACAD_REACTORS
330
1DC4
102
}
330
1DC4
100
AcDbXrecord
280
     1
 40
23258.0
  1
Není k dispozici
  0
XRECORD
  5
1D67
102
{ACAD_REACTORS
330
E11
102
}
330
E11
100
AcDbXrecord
280
     1
 70
     4
 70
     0
 70
     0
 40
1.0
  2
ČÍSLO_REVIZE
  1
Embedded Object
 10
287.6423193699604
 20
66.0
 30
0.0
 40
3.499999940395355
 41
0.0
 46
0.0
 71
     1
 72
     5
  1
000
  7
Styl textu9
 73
     1
 44
1.0
  0
XRECORD
  5
1D66
102
{ACAD_REACTORS
330
E11
102
}
330
E11
100
AcDbXrecord
280
     1
102
ACAD_MATT_HEIGHT
140
3.499999940395355
  0
XRECORD
  5
1D69
102
{ACAD_REACTORS
330
E14
102
}
330
E14
100
AcDbXrecord
280
     1
 70
     4
 70
     0
 70
     0
 40
1.0
  2
Sheet_Size
  1
Embedded Object
 10
289.7753402652471
 20
48.33701147296152
 30
0.0
 40
2.000000029802321
 41
0.0
 46
0.0
 71
     1
 72
     5
  1
A2
  7
Styl textu40
 73
     1
 44
1.0
  0
XRECORD
  5
1D68
102
{ACAD_REACTORS
330
E14
102
}
330
E14
100
AcDbXrecord
280
     1
102
ACAD_MATT_HEIGHT
140
2.000000029802321
  0
XRECORD
  5
1D6B
102
{ACAD_REACTORS
330
E17
102
}
330
E17
100
AcDbXrecord
280
     1
 70
     4
 70
     0
 70
     0
 40
1.0
  2
FILENAME_AND_PATH
  1
Embedded Object
 10
230.2697279123746
 20
53.13502004542946
 30
0.0
 40
2.000000029802321
 41
0.0
 46
0.0
 71
     1
 72
     5
  1
C:\\Inventor_DATA\\Projekty\\Guly\\Effidrain\\Effidrain sestava jednodílná svislá příruba čtverec\\408047.iam
  7
Styl textu40
 73
     1
 44
1.0
  0
XRECORD
  5
1D6A
102
{ACAD_REACTORS
330
E17
102
}
330
E17
100
AcDbXrecord
280
     1
102
ACAD_MATT_HEIGHT
140
2.000000029802321
  0
XRECORD
  5
1D6D
102
{ACAD_REACTORS
330
E1A
102
}
330
E1A
100
AcDbXrecord
280
     1
 70
     4
 70
     0
 70
     0
 40
1.0
  2
PART_NUMBER
  1
Embedded Object
 10
218.0
 20
66.0
 30
0.0
 40
3.499999940395355
 41
0.0
 46
0.0
 71
     1
 72
     5
  1
408047
  7
Text poznámky (ISO)
 73
     1
 44
1.0
  0
XRECORD
  5
1D6C
102
{ACAD_REACTORS
330
E1A
102
}
330
E1A
100
AcDbXrecord
280
     1
102
ACAD_MATT_HEIGHT
140
3.499999940395355
  0
XRECORD
  5
1D6F
102
{ACAD_REACTORS
330
E1D
102
}
330
E1D
100
AcDbXrecord
280
     1
 70
     4
 70
     0
 70
     0
 40
1.0
  2
PROJECT
  1
Embedded Object
 10
118.0
 20
60.0
 30
0.0
 40
3.499999940395355
 41
0.0
 46
0.0
 71
     1
 72
     5
  1

  7
Text poznámky (ISO)
 73
     1
 44
1.0
  0
XRECORD
  5
1D6E
102
{ACAD_REACTORS
330
E1D
102
}
330
E1D
100
AcDbXrecord
280
     1
102
ACAD_MATT_HEIGHT
140
3.499999940395355
  0
XRECORD
  5
1D71
102
{ACAD_REACTORS
330
E20
102
}
330
E20
100
AcDbXrecord
280
     1
 70
     4
 70
     0
 70
     0
 40
1.0
  2
SKLADOVÉ_ČÍSLO
  1
Embedded Object
 10
118.0
 20
54.89391305489238
 30
0.0
 40
6.99999988079071
 41
153.2966041564941
 46
0.0
 71
     1
 72
     5
  1
408047
  7
Styl textu94
 73
     1
 44
1.0
  0
XRECORD
  5
1D70
102
{ACAD_REACTORS
330
E20
102
}
330
E20
100
AcDbXrecord
280
     1
102
ACAD_MATT_HEIGHT
140
6.99999988079071
  0
XRECORD
  5
1D73
102
{ACAD_REACTORS
330
E23
102
}
330
E23
100
AcDbXrecord
280
     1
 70
     4
 70
     0
 70
     0
 40
1.0
  2
MATERIAL
  1
Embedded Object
 10
117.5939056808251
 20
108.6756657996811
 30
0.0
 40
3.499999940395355
 41
0.0
 46
0.0
 71
     1
 72
     5
  1

  7
Text poznámky (ISO)
 73
     1
 44
1.0
  0
XRECORD
  5
1D72
102
{ACAD_REACTORS
330
E23
102
}
330
E23
100
AcDbXrecord
280
     1
102
ACAD_MATT_HEIGHT
140
3.499999940395355
  0
XRECORD
  5
1D75
102
{ACAD_REACTORS
330
E26
102
}
330
E26
100
AcDbXrecord
280
     1
 70
     4
 70
     0
 70
     0
 40
1.0
  2
AUTHOR
  1
Embedded Object
 10
165.2312259808574
 20
87.78242706242744
 30
0.0
 40
2.000000029802321
 41
15.06250023841858
 46
0.0
 71
     1
 72
     5
  1
pmacoun
  7
Styl textu40
 73
     1
 44
1.0
  0
XRECORD
  5
1D74
102
{ACAD_REACTORS
330
E26
102
}
330
E26
100
AcDbXrecord
280
     1
102
ACAD_MATT_HEIGHT
140
2.000000029802321
  0
XRECORD
  5
1D77
102
{ACAD_REACTORS
330
E29
102
}
330
E29
100
AcDbXrecord
280
     1
 70
     4
 70
     0
 70
     0
 40
1.0
  2
VS_First
  1
Embedded Object
 10
189.1855699863978
 20
86.00038821032343
 30
0.0
 40
3.499999940395355
 41
24.15597186978378
 46
0.0
 71
     1
 72
     5
  1

  7
Text poznámky (ISO)
 73
     1
 44
1.0
  0
XRECORD
  5
1D76
102
{ACAD_REACTORS
330
E29
102
}
330
E29
100
AcDbXrecord
280
     1
102
ACAD_MATT_HEIGHT
140
3.499999940395355
  0
XRECORD
  5
1DC7
102
{ACAD_REACTORS
330
1DC6
102
}
330
1DC6
100
AcDbXrecord
280
     1
 40
8233.0
  1
\A1;{\U+00D8}75
  0
XRECORD
  5
1DC9
102
{ACAD_REACTORS
330
1DC8
102
}
330
1DC8
100
AcDbXrecord
280
     1
 40
7165.0
  1
KUSOVNÍK
  0
XRECORD
  5
1DCB
102
{ACAD_REACTORS
330
1DCA
102
}
330
1DCA
100
AcDbXrecord
280
     1
 40
6807.0
  1
MATERIÁL
  0
XRECORD
  5
1DCD
102
{ACAD_REACTORS
330
1DCC
102
}
330
1DCC
100
AcDbXrecord
280
     1
 40
29499.0
  1
SKLADOVÉ ČÍS
  0
XRECORD
  5
1DCF
102
{ACAD_REACTORS
330
1DCE
102
}
330
1DCE
100
AcDbXrecord
280
     1
 40
59662.0
  1
Effidrain jednodílná 157/DN70 
  0
XRECORD
  5
1DD1
102
{ACAD_REACTORS
330
1DD0
102
}
330
1DD0
100
AcDbXrecord
280
     1
 40
105401.0
  1
svislá příruba svařenec AISI 
  0
XRECORD
  5
1DD3
102
{ACAD_REACTORS
330
1DD2
102
}
330
1DD2
100
AcDbXrecord
280
     1
 40
22034.0
  1
návlek sunap-DN70
  0
XRECORD
  5
1DD5
102
{ACAD_REACTORS
330
1DD4
102
}
330
1DD4
100
AcDbXrecord
280
     1
 40
11376.0
  1
žlutá)
  0
XRECORD
  5
1DD7
102
{ACAD_REACTORS
330
1DD6
102
}
330
1DD6
100
AcDbXrecord
280
     1
 40
67743.0
  1
Šestihranná matice_mosaz M8
  0
XRECORD
  5
1DD9
102
{ACAD_REACTORS
330
1DD8
102
}
330
1DD8
100
AcDbXrecord
280
     1
 40
63777.0
  1
šestihranná, černá
  0
XRECORD
  5
1DDB
102
{ACAD_REACTORS
330
1DDA
102
}
330
1DDA
100
AcDbXrecord
280
     1
 40
67507.0
  1
Effidrain výplň rostová 
  0
XRECORD
  5
1DDD
102
{ACAD_REACTORS
330
1DDC
102
}
330
1DDC
100
AcDbXrecord
280
     1
 40
17738.0
  1
nástavba 200x200
  0
XRECORD
  5
1DDF
102
{ACAD_REACTORS
330
1DDE
102
}
330
1DDE
100
AcDbXrecord
280
     1
 40
15392.0
  1
Polykarbonát, 
  0
XRECORD
  5
1DE1
102
{ACAD_REACTORS
330
1DE0
102
}
330
1DE0
100
AcDbXrecord
280
     1
 40
13310.0
  1
kouřový
  0
XRECORD
  5
1DE3
102
{ACAD_REACTORS
330
1DE2
102
}
330
1DE2
100
AcDbXrecord
280
     1
 40
50578.0
  1
Effidrain kryt plastový pro 
  0
XRECORD
  5
1DE5
102
{ACAD_REACTORS
330
1DE4
102
}
330
1DE4
100
AcDbXrecord
280
     1
 40
27938.0
  1
balení PP kruh 200x200
  0
XRECORD
  5
1DE7
102
{ACAD_REACTORS
330
1DE6
102
}
330
1DE6
100
AcDbXrecord
280
     1
 40
4968.0
  1
papír
  0
XRECORD
  5
1D7B
102
{ACAD_REACTORS
330
1D7A
102
}
330
1D7A
100
AcDbXrecord
280
     1
 70
     1
  0
XRECORD
  5
1D7D
102
{ACAD_REACTORS
330
1D7A
102
}
330
1D7A
100
AcDbXrecord
280
     1
340
5B
  0
XRECORD
  5
1D7E
102
{ACAD_REACTORS
330
1D7A
102
}
330
1D7A
100
AcDbXrecord
280
     1
340
5B
  0
XRECORD
  5
1D7C
102
{ACAD_REACTORS
330
1D7A
102
}
330
1D7A
100
AcDbXrecord
280
     1
340
5B
  0
LAYOUT
  5
6B
102
{ACAD_REACTORS
330
62
102
}
330
62
100
AcDbPlotSettings
  1

  2

  4

  6

 40
0.0
 41
0.0
 42
0.0
 43
0.0
 44
0.0
 45
0.0
 46
0.0
 47
0.0
 48
0.0
 49
0.0
140
0.0
141
0.0
142
1.0
143
1.0
 70
   688
 72
     0
 73
     0
 74
     5
  7

 75
    16
147
1.0
 76
     0
 77
     2
 78
   300
148
0.0
149
0.0
100
AcDbLayout
  1
Layout1
 70
     1
 71
     1
 10
0.0
 20
0.0
 11
990.0
 21
700.0
 12
0.0
 22
0.0
 32
0.0
 14
0.0
 24
0.0
 34
0.0
 15
990.0
 25
700.0
 35
0.0
146
0.0
 13
0.0
 23
0.0
 33
0.0
 16
1.0
 26
0.0
 36
0.0
 17
0.0
 27
1.0
 37
0.0
 76
     0
330
68
  0
LAYOUT
  5
73
102
{ACAD_REACTORS
330
62
102
}
330
62
100
AcDbPlotSettings
  1

  2

  4

  6

 40
0.0
 41
0.0
 42
0.0
 43
0.0
 44
0.0
 45
0.0
 46
0.0
 47
0.0
 48
0.0
 49
0.0
140
0.0
141
0.0
142
1.0
143
1.0
 70
   688
 72
     0
 73
     0
 74
     5
  7

 75
    16
147
1.0
 76
     0
 77
     2
 78
   300
148
0.0
149
0.0
100
AcDbLayout
  1
Layout2
 70
     1
 71
     2
 10
0.0
 20
0.0
 11
12.0
 21
9.0
 12
0.0
 22
0.0
 32
0.0
 14
0.0
 24
0.0
 34
0.0
 15
0.0
 25
0.0
 35
0.0
146
0.0
 13
0.0
 23
0.0
 33
0.0
 16
1.0
 26
0.0
 36
0.0
 17
0.0
 27
1.0
 37
0.0
 76
     0
330
70
  0
LAYOUT
  5
6F
102
{ACAD_REACTORS
330
62
102
}
330
62
100
AcDbPlotSettings
  1

  2

  4

  6

 40
0.0
 41
0.0
 42
0.0
 43
0.0
 44
0.0
 45
0.0
 46
0.0
 47
0.0
 48
0.0
 49
0.0
140
0.0
141
0.0
142
1.0
143
1.0
 70
  1712
 72
     0
 73
     0
 74
     0
  7

 75
     0
147
1.0
 76
     0
 77
     2
 78
   300
148
0.0
149
0.0
100
AcDbLayout
  1
Model
 70
     1
 71
     0
 10
0.0
 20
0.0
 11
12.0
 21
9.0
 12
0.0
 22
0.0
 32
0.0
 14
0.0
 24
0.0
 34
0.0
 15
0.0
 25
0.0
 35
0.0
146
0.0
 13
0.0
 23
0.0
 33
0.0
 16
1.0
 26
0.0
 36
0.0
 17
0.0
 27
1.0
 37
0.0
 76
     0
330
6C
331
57
  0
MATERIAL
  5
19
102
{ACAD_XDICTIONARY
360
1A
102
}
102
{ACAD_REACTORS
330
10
102
}
330
10
100
AcDbMaterial
  1
ByBlock
 72
     0
 43
0.0208333333333333
 43
0.0
 43
0.0
 43
0.0
 43
0.0
 43
0.0208333333333333
 43
0.0
 43
0.0
 43
0.0
 43
0.0
 43
1.0
 43
0.0
 43
0.0
 43
0.0
 43
0.0
 43
1.0
 77
     0
 47
0.0208333333333333
 47
0.0
 47
0.0
 47
0.0
 47
0.0
 47
0.0208333333333333
 47
0.0
 47
0.0
 47
0.0
 47
0.0
 47
1.0
 47
0.0
 47
0.0
 47
0.0
 47
0.0
 47
1.0
171
     0
 49
0.0208333333333333
 49
0.0
 49
0.0
 49
0.0
 49
0.0
 49
0.0208333333333333
 49
0.0
 49
0.0
 49
0.0
 49
0.0
 49
1.0
 49
0.0
 49
0.0
 49
0.0
 49
0.0
 49
1.0
175
     0
142
0.0208333333333333
142
0.0
142
0.0
142
0.0
142
0.0
142
0.0208333333333333
142
0.0
142
0.0
142
0.0
142
0.0
142
1.0
142
0.0
142
0.0
142
0.0
142
0.0
142
1.0
179
     0
144
0.0208333333333333
144
0.0
144
0.0
144
0.0
144
0.0
144
0.0208333333333333
144
0.0
144
0.0
144
0.0
144
0.0
144
1.0
144
0.0
144
0.0
144
0.0
144
0.0
144
1.0
147
0.0208333333333333
147
0.0
147
0.0
147
0.0
147
0.0
147
0.0208333333333333
147
0.0
147
0.0
147
0.0
147
0.0
147
1.0
147
0.0
147
0.0
147
0.0
147
0.0
147
1.0
  0
MATERIAL
  5
11
102
{ACAD_XDICTIONARY
360
12
102
}
102
{ACAD_REACTORS
330
10
102
}
330
10
100
AcDbMaterial
  1
ByLayer
 72
     0
 43
0.0208333333333333
 43
0.0
 43
0.0
 43
0.0
 43
0.0
 43
0.0208333333333333
 43
0.0
 43
0.0
 43
0.0
 43
0.0
 43
1.0
 43
0.0
 43
0.0
 43
0.0
 43
0.0
 43
1.0
 77
     0
 47
0.0208333333333333
 47
0.0
 47
0.0
 47
0.0
 47
0.0
 47
0.0208333333333333
 47
0.0
 47
0.0
 47
0.0
 47
0.0
 47
1.0
 47
0.0
 47
0.0
 47
0.0
 47
0.0
 47
1.0
171
     0
 49
0.0208333333333333
 49
0.0
 49
0.0
 49
0.0
 49
0.0
 49
0.0208333333333333
 49
0.0
 49
0.0
 49
0.0
 49
0.0
 49
1.0
 49
0.0
 49
0.0
 49
0.0
 49
0.0
 49
1.0
175
     0
142
0.0208333333333333
142
0.0
142
0.0
142
0.0
142
0.0
142
0.0208333333333333
142
0.0
142
0.0
142
0.0
142
0.0
142
1.0
142
0.0
142
0.0
142
0.0
142
0.0
142
1.0
179
     0
144
0.0208333333333333
144
0.0
144
0.0
144
0.0
144
0.0
144
0.0208333333333333
144
0.0
144
0.0
144
0.0
144
0.0
144
1.0
144
0.0
144
0.0
144
0.0
144
0.0
144
1.0
147
0.0208333333333333
147
0.0
147
0.0
147
0.0
147
0.0
147
0.0208333333333333
147
0.0
147
0.0
147
0.0
147
0.0
147
1.0
147
0.0
147
0.0
147
0.0
147
0.0
147
1.0
  0
MATERIAL
  5
21
102
{ACAD_XDICTIONARY
360
22
102
}
102
{ACAD_REACTORS
330
10
102
}
330
10
100
AcDbMaterial
  1
Global
 72
     0
 43
0.0208333333333333
 43
0.0
 43
0.0
 43
0.0
 43
0.0
 43
0.0208333333333333
 43
0.0
 43
0.0
 43
0.0
 43
0.0
 43
1.0
 43
0.0
 43
0.0
 43
0.0
 43
0.0
 43
1.0
 77
     0
 47
0.0208333333333333
 47
0.0
 47
0.0
 47
0.0
 47
0.0
 47
0.0208333333333333
 47
0.0
 47
0.0
 47
0.0
 47
0.0
 47
1.0
 47
0.0
 47
0.0
 47
0.0
 47
0.0
 47
1.0
171
     0
 49
0.0208333333333333
 49
0.0
 49
0.0
 49
0.0
 49
0.0
 49
0.0208333333333333
 49
0.0
 49
0.0
 49
0.0
 49
0.0
 49
1.0
 49
0.0
 49
0.0
 49
0.0
 49
0.0
 49
1.0
175
     0
142
0.0208333333333333
142
0.0
142
0.0
142
0.0
142
0.0
142
0.0208333333333333
142
0.0
142
0.0
142
0.0
142
0.0
142
1.0
142
0.0
142
0.0
142
0.0
142
0.0
142
1.0
179
     0
144
0.0208333333333333
144
0.0
144
0.0
144
0.0
144
0.0
144
0.0208333333333333
144
0.0
144
0.0
144
0.0
144
0.0
144
1.0
144
0.0
144
0.0
144
0.0
144
0.0
144
1.0
147
0.0208333333333333
147
0.0
147
0.0
147
0.0
147
0.0
147
0.0208333333333333
147
0.0
147
0.0
147
0.0
147
0.0
147
1.0
147
0.0
147
0.0
147
0.0
147
0.0
147
1.0
  0
MLEADERSTYLE
  5
67
102
{ACAD_XDICTIONARY
360
E0D
102
}
102
{ACAD_REACTORS
330
66
102
}
330
66
100
AcDbMLeaderStyle
170
     2
171
     1
172
     0
 90
        2
 40
0.0
 41
0.0
173
     1
 91
-1056964608
340
5B
 92
       -2
290
     1
 42
0.09
291
     1
 43
0.36
  3
Standard
 44
0.18
300

342
55
174
     1
178
     6
175
     1
176
     0
 93
-1056964608
 45
0.18
292
     0
297
     0
 46
0.18
 94
-1056964608
 47
1.0
 49
1.0
140
1.0
293
     1
141
0.0
294
     1
177
     0
142
1.0
295
     0
296
     0
143
0.125
1001
ACAD_MLEADERVER
1070
     2
  0
MLINESTYLE
  5
60
102
{ACAD_REACTORS
330
5F
102
}
330
5F
100
AcDbMlineStyle
  2
STANDARD
 70
     0
  3

 62
   256
 51
90.0
 52
90.0
 71
     2
 49
0.5
 62
   256
  6
BYLAYER
 49
-0.5
 62
   256
  6
BYLAYER
  0
ACDBPLACEHOLDER
  5
F
102
{ACAD_REACTORS
330
E
102
}
330
E
  0
SCALE
  5
43
102
{ACAD_REACTORS
330
42
102
}
330
42
100
AcDbScale
 70
     0
300
1:1
140
1.0
141
1.0
290
     1
  0
SCALE
  5
44
102
{ACAD_REACTORS
330
42
102
}
330
42
100
AcDbScale
 70
     0
300
1/128" = 1'-0"
140
0.0078125
141
12.0
290
     0
  0
SCALE
  5
45
102
{ACAD_REACTORS
330
42
102
}
330
42
100
AcDbScale
 70
     0
300
1/64" = 1'-0"
140
0.015625
141
12.0
290
     0
  0
SCALE
  5
46
102
{ACAD_REACTORS
330
42
102
}
330
42
100
AcDbScale
 70
     0
300
1/32" = 1'-0"
140
0.03125
141
12.0
290
     0
  0
SCALE
  5
47
102
{ACAD_REACTORS
330
42
102
}
330
42
100
AcDbScale
 70
     0
300
1/16" = 1'-0"
140
0.0625
141
12.0
290
     0
  0
SCALE
  5
48
102
{ACAD_REACTORS
330
42
102
}
330
42
100
AcDbScale
 70
     0
300
3/32" = 1'-0"
140
0.09375
141
12.0
290
     0
  0
SCALE
  5
49
102
{ACAD_REACTORS
330
42
102
}
330
42
100
AcDbScale
 70
     0
300
1/8" = 1'-0"
140
0.125
141
12.0
290
     0
  0
SCALE
  5
4A
102
{ACAD_REACTORS
330
42
102
}
330
42
100
AcDbScale
 70
     0
300
3/16" = 1'-0"
140
0.1875
141
12.0
290
     0
  0
SCALE
  5
4B
102
{ACAD_REACTORS
330
42
102
}
330
42
100
AcDbScale
 70
     0
300
1/4" = 1'-0"
140
0.25
141
12.0
290
     0
  0
SCALE
  5
4C
102
{ACAD_REACTORS
330
42
102
}
330
42
100
AcDbScale
 70
     0
300
3/8" = 1'-0"
140
0.375
141
12.0
290
     0
  0
SCALE
  5
4D
102
{ACAD_REACTORS
330
42
102
}
330
42
100
AcDbScale
 70
     0
300
1/2" = 1'-0"
140
0.5
141
12.0
290
     0
  0
SCALE
  5
4E
102
{ACAD_REACTORS
330
42
102
}
330
42
100
AcDbScale
 70
     0
300
3/4" = 1'-0"
140
0.75
141
12.0
290
     0
  0
SCALE
  5
4F
102
{ACAD_REACTORS
330
42
102
}
330
42
100
AcDbScale
 70
     0
300
1" = 1'-0"
140
1.0
141
12.0
290
     0
  0
SCALE
  5
50
102
{ACAD_REACTORS
330
42
102
}
330
42
100
AcDbScale
 70
     0
300
1-1/2" = 1'-0"
140
1.5
141
12.0
290
     0
  0
SCALE
  5
51
102
{ACAD_REACTORS
330
42
102
}
330
42
100
AcDbScale
 70
     0
300
3" = 1'-0"
140
3.0
141
12.0
290
     0
  0
SCALE
  5
52
102
{ACAD_REACTORS
330
42
102
}
330
42
100
AcDbScale
 70
     0
300
6" = 1'-0"
140
6.0
141
12.0
290
     0
  0
SCALE
  5
53
102
{ACAD_REACTORS
330
42
102
}
330
42
100
AcDbScale
 70
     0
300
1'-0" = 1'-0"
140
12.0
141
12.0
290
     0
  0
TABLESTYLE
  5
65
102
{ACAD_XDICTIONARY
360
1B4E
102
}
102
{ACAD_REACTORS
330
64
102
}
330
64
100
AcDbTableStyle
  3
Standard
 70
     0
 71
     0
 40
0.06
 41
0.06
280
     0
281
     0
  7
Standard
140
0.18
170
     2
 62
     0
 63
     7
283
     0
274
    -2
284
     1
 64
     0
275
    -2
285
     1
 65
     0
276
    -2
286
     1
 66
     0
277
    -2
287
     1
 67
     0
278
    -2
288
     1
 68
     0
279
    -2
289
     1
 69
     0
  7
Standard
140
0.25
170
     5
 62
     0
 63
     7
283
     0
274
    -2
284
     1
 64
     0
275
    -2
285
     1
 65
     0
276
    -2
286
     1
 66
     0
277
    -2
287
     1
 67
     0
278
    -2
288
     1
 68
     0
279
    -2
289
     1
 69
     0
  7
Standard
140
0.18
170
     5
 62
     0
 63
     7
283
     0
274
    -2
284
     1
 64
     0
275
    -2
285
     1
 65
     0
276
    -2
286
     1
 66
     0
277
    -2
287
     1
 67
     0
278
    -2
288
     1
 68
     0
279
    -2
289
     1
 69
     0
  0
VISUALSTYLE
  5
2F
102
{ACAD_XDICTIONARY
360
1D89
102
}
102
{ACAD_REACTORS
330
29
102
}
330
29
100
AcDbVisualStyle
  2

 70
     4
 71
     0
 72
     2
 73
     0
 90
        0
 40
-0.6
 41
-30.0
 62
     5
 63
     7
421
 16777215
 74
     1
 91
        4
 64
     7
 65
   257
 75
     1
175
     1
 42
1.0
 92
        0
 66
   257
 43
1.0
 76
     1
 77
     6
 78
     2
 67
     7
 79
     5
170
     0
171
     0
290
     0
174
     0
 93
        1
 44
0.0
173
     0
291
     0
 45
0.0
1001
ACAD
1000
AcDbSavedByObjectVersion
1070
     0
  0
VISUALSTYLE
  5
E4E
102
{ACAD_XDICTIONARY
360
1DEA
102
}
102
{ACAD_REACTORS
330
29
102
}
330
29
100
AcDbVisualStyle
  2

 70
     6
 71
     1
 72
     2
 73
     2
 90
        0
 40
-0.6
 41
-30.0
 62
     5
 63
     7
421
 16777215
 74
     2
 91
        2
 64
     7
 65
   257
 75
     2
175
     1
 42
179.0
 92
        0
 66
   257
 43
1.0
 76
     1
 77
     6
 78
     2
 67
     7
 79
     3
170
     0
171
     0
290
     0
174
     0
 93
        1
 44
0.0
173
     0
291
     0
 45
0.0
1001
ACAD
1000
AcDbSavedByObjectVersion
1070
     0
  0
VISUALSTYLE
  5
E4D
102
{ACAD_XDICTIONARY
360
1DE8
102
}
102
{ACAD_REACTORS
330
29
102
}
330
29
100
AcDbVisualStyle
  2

 70
     5
 71
     0
 72
     2
 73
     0
 90
        0
 40
-0.6
 41
-30.0
 62
     5
 63
     7
421
 16777215
 74
     1
 91
        4
 64
     7
 65
   257
 75
     1
175
     1
 42
1.0
 92
        0
 66
   257
 43
1.0
 76
     1
 77
     6
 78
     2
 67
     7
 79
     5
170
     0
171
     0
290
     0
174
     0
 93
        1
 44
0.0
173
     0
291
     0
 45
0.0
1001
ACAD
1000
AcDbSavedByObjectVersion
1070
     0
  0
VISUALSTYLE
  5
2E
102
{ACAD_XDICTIONARY
360
1D87
102
}
102
{ACAD_REACTORS
330
29
102
}
330
29
100
AcDbVisualStyle
  2

 70
     7
 71
     1
 72
     0
 73
     1
 90
        0
 40
-0.6
 41
-30.0
 62
     5
 63
     7
421
 16777215
 74
     0
 91
        4
 64
     7
 65
   257
 75
     1
175
     1
 42
1.0
 92
        8
 66
     7
 43
1.0
 76
     1
 77
     6
 78
     2
 67
     7
 79
     5
170
     0
171
     0
290
     0
174
     0
 93
        1
 44
0.0
173
     0
291
     1
 45
0.0
1001
ACAD
1000
AcDbSavedByObjectVersion
1070
     0
  0
VISUALSTYLE
  5
35
102
{ACAD_XDICTIONARY
360
1D95
102
}
102
{ACAD_REACTORS
330
29
102
}
330
29
100
AcDbVisualStyle
  2

 70
    12
 71
     2
 72
     2
 73
     0
 90
        0
 40
-0.6
 41
-30.0
 62
     5
 63
     7
421
 16777215
 74
     1
 91
        4
 64
     7
 65
   257
 75
     1
175
     1
 42
1.0
 92
        8
 66
     7
 43
1.0
 76
     1
 77
     6
 78
     2
 67
     7
 79
     5
170
     0
171
     0
290
     0
174
     0
 93
        1
 44
50.0
173
     0
291
     1
 45
0.0
1001
ACAD
1000
AcDbSavedByObjectVersion
1070
     0
  0
VISUALSTYLE
  5
39
102
{ACAD_XDICTIONARY
360
1D9D
102
}
102
{ACAD_REACTORS
330
29
102
}
330
29
100
AcDbVisualStyle
  2

 70
    16
 71
     2
 72
     2
 73
     3
 90
        0
 40
-0.6
 41
-30.0
 62
     5
 63
     8
421
  8421504
 74
     1
 91
        4
 64
     7
 65
   257
 75
     1
175
     1
 42
1.0
 92
        8
 66
     8
424
  8421504
 43
1.0
 76
     1
 77
     6
 78
     2
 67
     7
 79
     5
170
     0
171
     0
290
     0
174
     0
 93
        1
 44
0.0
173
     0
291
     1
 45
0.0
1001
ACAD
1000
AcDbSavedByObjectVersion
1070
     0
  0
VISUALSTYLE
  5
32
102
{ACAD_XDICTIONARY
360
1D8F
102
}
102
{ACAD_REACTORS
330
29
102
}
330
29
100
AcDbVisualStyle
  2

 70
     9
 71
     3
 72
     2
 73
     0
 90
        0
 40
-0.6
 41
-30.0
 62
     5
 63
     7
421
 16777215
 74
     2
 91
        2
 64
     7
 65
   257
 75
     1
175
     1
 42
179.0
 92
        8
 66
     7
 43
1.0
 76
     1
 77
     6
 78
     2
 67
     7
 79
     3
170
     0
171
     0
290
     0
174
     0
 93
        1
 44
0.0
173
     0
291
     0
 45
0.0
1001
ACAD
1000
AcDbSavedByObjectVersion
1070
     0
  0
VISUALSTYLE
  5
34
102
{ACAD_XDICTIONARY
360
1D93
102
}
102
{ACAD_REACTORS
330
29
102
}
330
29
100
AcDbVisualStyle
  2

 70
    11
 71
     2
 72
     2
 73
     0
 90
        0
 40
-0.6
 41
-30.0
 62
     5
 63
     7
421
 16777215
 74
     1
 91
        4
 64
     7
 65
   257
 75
     1
175
     1
 42
1.0
 92
        8
 66
     7
 43
1.0
 76
     1
 77
     6
 78
     2
 67
     7
 79
     5
170
     0
171
     0
290
     0
174
     0
 93
        1
 44
-50.0
173
     0
291
     1
 45
0.0
1001
ACAD
1000
AcDbSavedByObjectVersion
1070
     0
  0
VISUALSTYLE
  5
41
102
{ACAD_XDICTIONARY
360
1DAD
102
}
102
{ACAD_REACTORS
330
29
102
}
330
29
100
AcDbVisualStyle
  2

 70
    22
 71
     2
 72
     2
 73
     0
 90
        0
 40
-0.6
 41
-30.0
 62
     5
 63
     7
421
 16777215
 74
     1
 91
        4
 64
     7
 65
   257
 75
     1
175
     1
 42
1.0
 92
        8
 66
     7
 43
1.0
 76
     1
 77
     6
 78
     2
 67
     7
 79
     5
170
     0
171
     0
290
     0
174
     0
 93
        1
 44
0.0
173
     0
291
     1
 45
0.0
1001
ACAD
1000
AcDbSavedByObjectVersion
1070
     0
  0
VISUALSTYLE
  5
38
102
{ACAD_XDICTIONARY
360
1D9B
102
}
102
{ACAD_REACTORS
330
29
102
}
330
29
100
AcDbVisualStyle
  2

 70
    15
 71
     2
 72
     2
 73
     0
 90
        0
 40
-0.6
 41
-30.0
 62
     5
 63
     7
421
 16777215
 74
     1
 91
        4
 64
     7
 65
   257
 75
     1
175
     1
 42
1.0
 92
        8
 66
     7
 43
1.0
 76
     1
 77
     6
 78
     2
 67
     7
 79
     5
170
     0
171
     0
290
     0
174
     0
 93
        1
 44
0.0
173
     0
291
     1
 45
0.0
1001
ACAD
1000
AcDbSavedByObjectVersion
1070
     0
  0
VISUALSTYLE
  5
2A
102
{ACAD_XDICTIONARY
360
1D7F
102
}
102
{ACAD_REACTORS
330
29
102
}
330
29
100
AcDbVisualStyle
  2

 70
     0
 71
     2
 72
     1
 73
     1
 90
        2
 40
-0.6
 41
30.0
 62
     5
 63
     7
421
 16777215
 74
     0
 91
        0
 64
     7
 65
   257
 75
     1
175
     1
 42
1.0
 92
        8
 66
     7
 43
1.0
 76
     1
 77
     6
 78
     2
 67
     7
 79
     5
170
     0
171
     0
290
     0
174
     0
 93
       13
 44
0.0
173
     0
291
     1
 45
0.0
1001
ACAD
1000
AcDbSavedByObjectVersion
1070
     0
  0
VISUALSTYLE
  5
2B
102
{ACAD_XDICTIONARY
360
1D81
102
}
102
{ACAD_REACTORS
330
29
102
}
330
29
100
AcDbVisualStyle
  2

 70
     1
 71
     2
 72
     1
 73
     1
 90
        2
 40
-0.6
 41
30.0
 62
     5
 63
     7
421
 16777215
 74
     1
 91
        0
 64
     7
 65
   257
 75
     1
175
     1
 42
1.0
 92
        0
 66
   257
 43
1.0
 76
     1
 77
     6
 78
     2
 67
     7
 79
     5
170
     0
171
     0
290
     0
174
     0
 93
       13
 44
0.0
173
     0
291
     1
 45
0.0
1001
ACAD
1000
AcDbSavedByObjectVersion
1070
     0
  0
VISUALSTYLE
  5
2C
102
{ACAD_XDICTIONARY
360
1D83
102
}
102
{ACAD_REACTORS
330
29
102
}
330
29
100
AcDbVisualStyle
  2

 70
     2
 71
     2
 72
     2
 73
     1
 90
        2
 40
-0.6
 41
30.0
 62
     5
 63
     7
421
 16777215
 74
     0
 91
        0
 64
     7
 65
   257
 75
     1
175
     1
 42
1.0
 92
        0
 66
     7
 43
1.0
 76
     1
 77
     6
 78
     2
 67
     7
 79
     5
170
     0
171
     0
290
     0
174
     0
 93
       13
 44
0.0
173
     0
291
     1
 45
0.0
1001
ACAD
1000
AcDbSavedByObjectVersion
1070
     0
  0
VISUALSTYLE
  5
2D
102
{ACAD_XDICTIONARY
360
1D85
102
}
102
{ACAD_REACTORS
330
29
102
}
330
29
100
AcDbVisualStyle
  2

 70
     3
 71
     2
 72
     2
 73
     1
 90
        2
 40
-0.6
 41
30.0
 62
     5
 63
     7
421
 16777215
 74
     1
 91
        0
 64
     7
 65
   257
 75
     1
175
     1
 42
1.0
 92
        0
 66
   257
 43
1.0
 76
     1
 77
     6
 78
     2
 67
     7
 79
     5
170
     0
171
     0
290
     0
174
     0
 93
       13
 44
0.0
173
     0
291
     1
 45
0.0
1001
ACAD
1000
AcDbSavedByObjectVersion
1070
     0
  0
VISUALSTYLE
  5
31
102
{ACAD_XDICTIONARY
360
1D8D
102
}
102
{ACAD_REACTORS
330
29
102
}
330
29
100
AcDbVisualStyle
  2

 70
     6
 71
     1
 72
     2
 73
     2
 90
        0
 40
-0.6
 41
-30.0
 62
     5
 63
     7
421
 16777215
 74
     2
 91
        2
 64
     7
 65
   257
 75
     2
175
     1
 42
40.0
 92
        0
 66
   257
 43
1.0
 76
     1
 77
     6
 78
     2
 67
     7
 79
     3
170
     0
171
     0
290
     0
174
     0
 93
        1
 44
0.0
173
     0
291
     0
 45
0.0
1001
ACAD
1000
AcDbSavedByObjectVersion
1070
     0
  0
VISUALSTYLE
  5
3F
102
{ACAD_XDICTIONARY
360
1DA9
102
}
102
{ACAD_REACTORS
330
29
102
}
330
29
100
AcDbVisualStyle
  2

 70
    20
 71
     2
 72
     2
 73
     0
 90
        0
 40
-0.6
 41
-30.0
 62
     5
 63
     7
421
 16777215
 74
     1
 91
        4
 64
     7
 65
   257
 75
     1
175
     1
 42
1.0
 92
       10
 66
     7
 43
1.0
 76
     1
 77
     6
 78
     2
 67
     7
 79
     5
170
     0
171
     0
290
     0
174
     0
 93
        1
 44
0.0
173
     0
291
     1
 45
0.0
1001
ACAD
1000
AcDbSavedByObjectVersion
1070
     0
  0
VISUALSTYLE
  5
37
102
{ACAD_XDICTIONARY
360
1D99
102
}
102
{ACAD_REACTORS
330
29
102
}
330
29
100
AcDbVisualStyle
  2

 70
    14
 71
     2
 72
     2
 73
     0
 90
        0
 40
-0.6
 41
-30.0
 62
     5
 63
     7
421
 16777215
 74
     1
 91
        4
 64
     7
 65
   257
 75
     7
175
     7
 42
1.0
 92
        8
 66
     7
 43
1.0
 76
     1
 77
     6
 78
     2
 67
     7
 79
     5
170
     0
171
     0
290
     0
174
     0
 93
        1
 44
0.0
173
     0
291
     1
 45
0.0
1001
ACAD
1000
AcDbSavedByObjectVersion
1070
     0
  0
VISUALSTYLE
  5
40
102
{ACAD_XDICTIONARY
360
1DAB
102
}
102
{ACAD_REACTORS
330
29
102
}
330
29
100
AcDbVisualStyle
  2

 70
    21
 71
     2
 72
     2
 73
     0
 90
        0
 40
-0.6
 41
-30.0
 62
     5
 63
     7
421
 16777215
 74
     1
 91
        4
 64
     7
 65
   257
 75
     1
175
     1
 42
1.0
 92
        9
 66
     7
 43
1.0
 76
     1
 77
     6
 78
     2
 67
     7
 79
     5
170
     0
171
     0
290
     0
174
     0
 93
        1
 44
0.0
173
     0
291
     1
 45
0.0
1001
ACAD
1000
AcDbSavedByObjectVersion
1070
     0
  0
VISUALSTYLE
  5
33
102
{ACAD_XDICTIONARY
360
1D91
102
}
102
{ACAD_REACTORS
330
29
102
}
330
29
100
AcDbVisualStyle
  2

 70
     8
 71
     2
 72
     3
 73
     0
 90
        2
 40
-0.6
 41
30.0
 62
     5
 63
     7
421
 16777215
 74
     0
 91
        0
 64
     7
 65
   257
 75
     1
175
     1
 42
1.0
 92
        8
 66
   257
 43
1.0
 76
     1
 77
     6
 78
     2
 67
     7
 79
     3
170
     0
171
     0
290
     0
174
     0
 93
       13
 44
0.0
173
     0
291
     0
 45
0.0
1001
ACAD
1000
AcDbSavedByObjectVersion
1070
     0
  0
VISUALSTYLE
  5
3E
102
{ACAD_XDICTIONARY
360
1DA7
102
}
102
{ACAD_REACTORS
330
29
102
}
330
29
100
AcDbVisualStyle
  2

 70
    27
 71
     2
 72
     2
 73
     1
 90
        2
 40
-0.6
 41
30.0
 62
     5
 63
     7
421
 16777215
 74
     0
 91
        4
 64
     7
 65
   257
 75
     1
175
     1
 42
1.0
 92
        8
 66
   257
 43
1.0
 76
     1
 77
     6
 78
     2
 67
     8
425
  7895160
 79
     3
170
     0
171
     0
290
     0
174
     0
 93
        5
 44
0.0
173
     0
291
     0
 45
0.0
1001
ACAD
1000
AcDbSavedByObjectVersion
1070
     0
  0
VISUALSTYLE
  5
3D
102
{ACAD_XDICTIONARY
360
1DA5
102
}
102
{ACAD_REACTORS
330
29
102
}
330
29
100
AcDbVisualStyle
  2

 70
    26
 71
     2
 72
     2
 73
     1
 90
        2
 40
-0.6
 41
30.0
 62
     5
 63
     7
421
 16777215
 74
     1
 91
       10
 64
     7
 65
   257
 75
     2
175
     1
 42
1.0
 92
        8
 66
   257
 43
1.0
 76
     1
 77
     6
 78
     2
 67
     7
 79
     3
170
     0
171
     0
290
     0
174
     0
 93
        5
 44
0.0
173
     0
291
     0
 45
0.0
1001
ACAD
1000
AcDbSavedByObjectVersion
1070
     0
  0
VISUALSTYLE
  5
3A
102
{ACAD_XDICTIONARY
360
1D9F
102
}
102
{ACAD_REACTORS
330
29
102
}
330
29
100
AcDbVisualStyle
  2

 70
    23
 71
     2
 72
     2
 73
     3
 90
        0
 40
-0.6
 41
-30.0
 62
     5
 63
     7
421
 16777215
 74
     2
 91
        2
 64
     7
 65
     7
 75
     1
175
     1
 42
40.0
 92
        8
 66
     7
 43
1.0
 76
     1
 77
     6
 78
     2
 67
     7
 79
     3
170
     0
171
     0
290
     0
174
     0
 93
        1
 44
0.0
173
     0
291
     0
 45
0.0
1001
ACAD
1000
AcDbSavedByObjectVersion
1070
     0
  0
VISUALSTYLE
  5
3B
102
{ACAD_XDICTIONARY
360
1DA1
102
}
102
{ACAD_REACTORS
330
29
102
}
330
29
100
AcDbVisualStyle
  2

 70
    24
 71
     1
 72
     2
 73
     2
 90
        0
 40
-0.6
 41
-30.0
 62
     5
 63
     7
421
 16777215
 74
     2
 91
        2
 64
     7
 65
     7
 75
     1
175
     1
 42
40.0
 92
       11
 66
     7
 43
1.0
 76
     1
 77
     6
 78
     2
 67
     7
 79
     6
170
     0
171
     0
290
     0
174
     0
 93
        1
 44
0.0
173
     0
291
     0
 45
0.0
1001
ACAD
1000
AcDbSavedByObjectVersion
1070
     0
  0
VISUALSTYLE
  5
36
102
{ACAD_XDICTIONARY
360
1D97
102
}
102
{ACAD_REACTORS
330
29
102
}
330
29
100
AcDbVisualStyle
  2

 70
    13
 71
     2
 72
     2
 73
     0
 90
        0
 40
-0.6
 41
-30.0
 62
     5
 63
     7
421
 16777215
 74
     1
 91
        4
 64
     7
 65
   257
 75
     1
175
     1
 42
1.0
 92
       12
 66
     7
 43
1.0
 76
     1
 77
     6
 78
     2
 67
     7
 79
     5
170
     0
171
     0
290
     0
174
     0
 93
        1
 44
0.0
173
     0
291
     1
 45
0.0
1001
ACAD
1000
AcDbSavedByObjectVersion
1070
     0
  0
VISUALSTYLE
  5
30
102
{ACAD_XDICTIONARY
360
1D8B
102
}
102
{ACAD_REACTORS
330
29
102
}
330
29
100
AcDbVisualStyle
  2

 70
     5
 71
     0
 72
     2
 73
     0
 90
        0
 40
-0.6
 41
-30.0
 62
     5
 63
     7
421
 16777215
 74
     1
 91
        4
 64
     7
 65
   257
 75
     1
175
     1
 42
1.0
 92
        0
 66
   257
 43
1.0
 76
     1
 77
     6
 78
     2
 67
     7
 79
     3
170
     0
171
     0
290
     0
174
     0
 93
        1
 44
0.0
173
     0
291
     0
 45
0.0
1001
ACAD
1000
AcDbSavedByObjectVersion
1070
     0
  0
VISUALSTYLE
  5
3C
102
{ACAD_XDICTIONARY
360
1DA3
102
}
102
{ACAD_REACTORS
330
29
102
}
330
29
100
AcDbVisualStyle
  2

 70
    25
 71
     2
 72
     2
 73
     1
 90
        1
 40
0.5
 41
-30.0
 62
     5
 63
     7
421
 16777215
 74
     1
 91
        0
 64
     7
 65
   257
 75
     1
175
     1
 42
1.0
 92
        8
 66
     7
 43
1.0
 76
     1
 77
     6
 78
     2
 67
     7
 79
     3
170
     0
171
     0
290
     0
174
     0
 93
       13
 44
0.0
173
     0
291
     0
 45
0.0
1001
ACAD
1000
AcDbSavedByObjectVersion
1070
     0
  0
DICTIONARYVAR
  5
E4B
102
{ACAD_REACTORS
330
E48
102
}
330
E48
100
DictionaryVariables
280
     0
  1
1:1
  0
DICTIONARYVAR
  5
E4A
102
{ACAD_REACTORS
330
E48
102
}
330
E48
100
DictionaryVariables
280
     0
  1
STANDARD
  0
DICTIONARYVAR
  5
E49
102
{ACAD_REACTORS
330
E48
102
}
330
E48
100
DictionaryVariables
280
     0
  1
STANDARD
  0
DICTIONARYVAR
  5
1B4A
102
{ACAD_REACTORS
330
E48
102
}
330
E48
100
DictionaryVariables
280
     0
  1
0
  0
DICTIONARYVAR
  5
1B4B
102
{ACAD_REACTORS
330
E48
102
}
330
E48
100
DictionaryVariables
280
     0
  1
0
  0
DICTIONARYVAR
  5
1B49
102
{ACAD_REACTORS
330
E48
102
}
330
E48
100
DictionaryVariables
280
     0
  1
2
  0
DICTIONARYVAR
  5
1B48
102
{ACAD_REACTORS
330
E48
102
}
330
E48
100
DictionaryVariables
280
     0
  1
1
  0
DICTIONARYVAR
  5
1B4C
102
{ACAD_REACTORS
330
E48
102
}
330
E48
100
DictionaryVariables
280
     0
  1
0
  0
DICTIONARYVAR
  5
1D62
102
{ACAD_REACTORS
330
E48
102
}
330
E48
100
DictionaryVariables
280
     0
  1
2
  0
DICTIONARY
  5
EBE
102
{ACAD_REACTORS
330
EB4
102
}
330
EB4
100
AcDbDictionary
281
     1
  0
DICTIONARY
  5
1A
330
19
100
AcDbDictionary
280
     1
281
     1
  3
ACAD_XREC_ROUNDTRIP
360
1B66
  3
BUMPTILE
360
1C
  3
DIFFUSETILE
360
1B
  3
OPACITYTILE
360
1F
  3
REFLECTIONTILE
360
1E
  3
REFRACTIONTILE
360
20
  3
SPECULARTILE
360
1D
  0
DICTIONARY
  5
12
330
11
100
AcDbDictionary
280
     1
281
     1
  3
ACAD_XREC_ROUNDTRIP
360
1B65
  3
BUMPTILE
360
14
  3
DIFFUSETILE
360
13
  3
FBXASSET
360
9C
  3
OPACITYTILE
360
17
  3
REFLECTIONTILE
360
16
  3
REFRACTIONTILE
360
18
  3
SPECULARTILE
360
15
  0
DICTIONARY
  5
22
330
21
100
AcDbDictionary
280
     1
281
     1
  3
ACAD_XREC_ROUNDTRIP
360
1B67
  3
BUMPTILE
360
24
  3
DIFFUSETILE
360
23
  3
OPACITYTILE
360
27
  3
REFLECTIONTILE
360
26
  3
REFRACTIONTILE
360
28
  3
SPECULARTILE
360
25
  0
DICTIONARY
  5
E0D
330
67
100
AcDbDictionary
280
     1
281
     1
  3
ACAD_XREC_ROUNDTRIP
360
E0E
  0
DICTIONARY
  5
1B4E
330
65
100
AcDbDictionary
280
     1
281
     1
  3
ACAD_ROUNDTRIP_2008_TABLESTYLE_CELLSTYLEMAP
360
1D63
  3
ACAD_XREC_ROUNDTRIP
360
1DAF
  0
DICTIONARY
  5
1D89
330
2F
100
AcDbDictionary
280
     1
281
     1
  3
ACAD_XREC_ROUNDTRIP
360
1D8A
  0
DICTIONARY
  5
1DEA
330
E4E
100
AcDbDictionary
280
     1
281
     1
  3
ACAD_XREC_ROUNDTRIP
360
1DEB
  0
DICTIONARY
  5
1DE8
330
E4D
100
AcDbDictionary
280
     1
281
     1
  3
ACAD_XREC_ROUNDTRIP
360
1DE9
  0
DICTIONARY
  5
1D87
330
2E
100
AcDbDictionary
280
     1
281
     1
  3
ACAD_XREC_ROUNDTRIP
360
1D88
  0
DICTIONARY
  5
1D95
330
35
100
AcDbDictionary
280
     1
281
     1
  3
ACAD_XREC_ROUNDTRIP
360
1D96
  0
DICTIONARY
  5
1D9D
330
39
100
AcDbDictionary
280
     1
281
     1
  3
ACAD_XREC_ROUNDTRIP
360
1D9E
  0
DICTIONARY
  5
1D8F
330
32
100
AcDbDictionary
280
     1
281
     1
  3
ACAD_XREC_ROUNDTRIP
360
1D90
  0
DICTIONARY
  5
1D93
330
34
100
AcDbDictionary
280
     1
281
     1
  3
ACAD_XREC_ROUNDTRIP
360
1D94
  0
DICTIONARY
  5
1DAD
330
41
100
AcDbDictionary
280
     1
281
     1
  3
ACAD_XREC_ROUNDTRIP
360
1DAE
  0
DICTIONARY
  5
1D9B
330
38
100
AcDbDictionary
280
     1
281
     1
  3
ACAD_XREC_ROUNDTRIP
360
1D9C
  0
DICTIONARY
  5
1D7F
330
2A
100
AcDbDictionary
280
     1
281
     1
  3
ACAD_XREC_ROUNDTRIP
360
1D80
  0
DICTIONARY
  5
1D81
330
2B
100
AcDbDictionary
280
     1
281
     1
  3
ACAD_XREC_ROUNDTRIP
360
1D82
  0
DICTIONARY
  5
1D83
330
2C
100
AcDbDictionary
280
     1
281
     1
  3
ACAD_XREC_ROUNDTRIP
360
1D84
  0
DICTIONARY
  5
1D85
330
2D
100
AcDbDictionary
280
     1
281
     1
  3
ACAD_XREC_ROUNDTRIP
360
1D86
  0
DICTIONARY
  5
1D8D
330
31
100
AcDbDictionary
280
     1
281
     1
  3
ACAD_XREC_ROUNDTRIP
360
1D8E
  0
DICTIONARY
  5
1DA9
330
3F
100
AcDbDictionary
280
     1
281
     1
  3
ACAD_XREC_ROUNDTRIP
360
1DAA
  0
DICTIONARY
  5
1D99
330
37
100
AcDbDictionary
280
     1
281
     1
  3
ACAD_XREC_ROUNDTRIP
360
1D9A
  0
DICTIONARY
  5
1DAB
330
40
100
AcDbDictionary
280
     1
281
     1
  3
ACAD_XREC_ROUNDTRIP
360
1DAC
  0
DICTIONARY
  5
1D91
330
33
100
AcDbDictionary
280
     1
281
     1
  3
ACAD_XREC_ROUNDTRIP
360
1D92
  0
DICTIONARY
  5
1DA7
330
3E
100
AcDbDictionary
280
     1
281
     1
  3
ACAD_XREC_ROUNDTRIP
360
1DA8
  0
DICTIONARY
  5
1DA5
330
3D
100
AcDbDictionary
280
     1
281
     1
  3
ACAD_XREC_ROUNDTRIP
360
1DA6
  0
DICTIONARY
  5
1D9F
330
3A
100
AcDbDictionary
280
     1
281
     1
  3
ACAD_XREC_ROUNDTRIP
360
1DA0
  0
DICTIONARY
  5
1DA1
330
3B
100
AcDbDictionary
280
     1
281
     1
  3
ACAD_XREC_ROUNDTRIP
360
1DA2
  0
DICTIONARY
  5
1D97
330
36
100
AcDbDictionary
280
     1
281
     1
  3
ACAD_XREC_ROUNDTRIP
360
1D98
  0
DICTIONARY
  5
1D8B
330
30
100
AcDbDictionary
280
     1
281
     1
  3
ACAD_XREC_ROUNDTRIP
360
1D8C
  0
DICTIONARY
  5
1DA3
330
3C
100
AcDbDictionary
280
     1
281
     1
  3
ACAD_XREC_ROUNDTRIP
360
1DA4
  0
XRECORD
  5
1B66
102
{ACAD_REACTORS
330
1A
102
}
330
1A
100
AcDbXrecord
280
     1
102
MATERIAL
148
0.0
149
0.0
149
0.0
 93
        0
 94
      127
282
     0
 72
     0
 77
     0
171
     0
175
     0
179
     0
273
     0
  0
XRECORD
  5
1C
102
{ACAD_REACTORS
330
1A
102
}
330
1A
100
AcDbXrecord
280
     1
270
     1
271
     1
  0
XRECORD
  5
1B
102
{ACAD_REACTORS
330
1A
102
}
330
1A
100
AcDbXrecord
280
     1
270
     1
271
     1
  0
XRECORD
  5
1F
102
{ACAD_REACTORS
330
1A
102
}
330
1A
100
AcDbXrecord
280
     1
270
     1
271
     1
  0
XRECORD
  5
1E
102
{ACAD_REACTORS
330
1A
102
}
330
1A
100
AcDbXrecord
280
     1
270
     1
271
     1
  0
XRECORD
  5
20
102
{ACAD_REACTORS
330
1A
102
}
330
1A
100
AcDbXrecord
280
     1
270
     1
271
     1
  0
XRECORD
  5
1D
102
{ACAD_REACTORS
330
1A
102
}
330
1A
100
AcDbXrecord
280
     1
270
     1
271
     1
  0
XRECORD
  5
1B65
102
{ACAD_REACTORS
330
12
102
}
330
12
100
AcDbXrecord
280
     1
102
MATERIAL
148
0.0
149
0.0
149
0.0
 93
        0
 94
      127
282
     0
 72
     0
 77
     0
171
     0
175
     0
179
     0
273
     0
  0
XRECORD
  5
14
102
{ACAD_REACTORS
330
12
102
}
330
12
100
AcDbXrecord
280
     1
270
     1
271
     1
  0
XRECORD
  5
13
102
{ACAD_REACTORS
330
12
102
}
330
12
100
AcDbXrecord
280
     1
270
     1
271
     1
  0
XRECORD
  5
9C
102
{ACAD_REACTORS
330
12
102
}
330
12
100
AcDbXrecord
280
     1
 70
     1
 90
1959938040
 71
     1
  1
2230EC64-2F56-4650-83CD-3605EAD62630
311
504B03040A00000800009D5DDA403DEE336E79000000790000001B0000006175746F6465736B2D64657369676E2D7061636B6167652E786D6C3C3F786D6C2076657273696F6E3D22312E302220656E636F64696E673D227574662D3822203F3E3C666F726D6174733E3C666F726D61743E687474703A2F2F736368656D612E
311
6175746F6465736B2E636F6D2F64657369676E2D7061636B6167652F323030393C2F666F726D61743E3C2F666F726D6174733E504B03041400060808009D5DDA40D486FD9CA0000000F4000000130000005B436F6E74656E745F54797065735D2E786D6C7D8EC10E82300C865F65E91D8A1E8C310C0EEA1BF002731658846E
311
D98AC1B77784ABF1D8FE5FBFBF75BBCE937A534CCEB38643598122B6FEE978D0B0485F9C41B54DDD7D022595594E1A469170414C76A4D9A4D207E29CF43ECE46F218070CC6BECC4078ACAA135ACF422C856C0E68EA1BF5669944DDD7BCDE7B1F8E415D77AECB980613C2E4AC91FC167A2B244592486606FC29C8FD7F045B9A
311
EF7053A7E60B504B03041400060808009D5DDA40E31D070BEC0000007C01000008000000636F72652E786D6C8D90DD8EC22010855F85CCED86166A7FB4A118B5EB13EC0B10C02ED1425360E3E34BB526BB777B359333E79B991CB6BF8F37F4A3676F9CED80660490B6D22963870E62B8E02DA03D67B373E1970D9015A3EE60
311
9181B36176715A25E96CD03624D53AA5575178AF0320794B4D075E7EEB51642286E4F0D76C12F22A069DD17797E0188D42AF2346A57DE662F40CBC6F36A4391C2B7C3A361497F44CF0E1D4F7B8FAECCF64BB2B7A5AD72C5F60CE8219DFF7E5AC45D00A78416881498D8BFA8BD2B62CDB6AF741684B08CB17FB1F284EEA9F50
311
34366C8AF5DD17E681D3F4C873C059BE6491CA33A85497DCF803504B03041400060808009D5DDA4055019EA25F0000007C00000007000000636E782E786D6C4DCB3B0E80201045D1AD90E915ED2CF8AC45050C11660C8261F98AB1B07AC9C97D42D718D865D3E909258CFD00CCE24AC6E326A164D74DC0B4128928FF326038
311
472BA13128B1252AC747C6BAB984FC68F0B87FE8960A5C09FE86CFB69FBA01504B03041400060808009D5DDA40612B510368010000020300000C0000006662782F636F72652E786D6C8D52ED8E8230107C95A67F2FD016113F526A54CE27B817A8503922B4A4B4C4C7BFE5C3785E2EC69094666667777680EF6E4D8D7A65BB
311
CAE814B39062A4746E8A4A9729F6EE12AC31DA096E8D71BFCA30D2B251291E602C78698D6F672837DA29ED00D5A6503328BB4E398CF21A2E29EEF26FD5C8507A0715DD356C657E95A50A590834D409DE390B06D0346438B1B89C6F9C4CB8E0DE57C5CC56054CAB2E95B25864AB055DED0FCBE07858B12066271AEC8F59162C
311
3FB3135D6FA28C25092783587057357777B955D2A9028B88B228A04910255F8C6DE378BBDC7C50B6A59493A1FC49E4DBE24D91AFB45B44B3DD49D661C1C0C848FCD9162272A8933DF82182932144788D093F070D8140C84E9EEBFB1E57807A953B6363600AE31F542F6BAF602A45E3C3C9C442E7B1016CF66F9FE8459FD73D
311
E0034A5D8235E9E07AF66E98CEA7A97314ADB241EF6E481BDBC8FA616EB2F8381F83FE95E7A636F61D35995725739864F87BC50F504B03041400060808009D5DDA40F219E55B7E0000009D0000000B0000006662782F636E782E786D6C4DCCD10A83201886E15B91FFDC5553A7811A91DB7DC4B290990EA76397BF1A1DECE8
311
83878F57769FD5A3B74D2F178382E65403B2E11E2717160525CF5800EAB44C31E6BF1BA030AE56C1CEA0E59262791E34D9792C3E6FEA5D781C48B919487B26B8163DC3F4C60CEE39A1985D8C6838A57CB8B6506959FD4ADBEE61FD05504B03041400060808009D5DDA40548AFF762C01000015020000310000006662782F34
311
374443333932332D303841352D344635442D413733342D3536443831373434374345392F636F72652E786D6C8D515B6EC32010BC0AE22B55850D367E24C24451D29EA0177031495162B07854397ED7B523B57FF961D1ECCCEC6857ECEFE30D7D6B1F8CB31D6619C5485BE506632F1D4EF14C5A8CF65278E7E21F1A46B61F75
311
8767184B71F12E4D2BA49C8DDA4640AD1BF40AF621E88891BAC1A7C3417DE9B1CFFA148111AED9D4AB6B7FD119CBA00D3C2942F410002D43E6174BDE9C8EE5B628096D0F15E1EFD5891C9A9293AA3EB5ACE1BC39BE6D45BE08A548C90CABDC0C10C79C8DF6CF9ACC6229A2191FF195D77DD40396056505A13529EA0FC6769C
311
EFAAED2B653B4A453ED3FF89D2343C294AC6C6B258E32EB2802513F9D2906270E9F3F608A3EF93F311CDF33641AB172C69466955B525BC225FB8B00130ADF96A1AA2F3B0E1CDF513E8AC5A9C6B2E453E1F09CAEF05A1CE07953F504B03041400060808009D5DDA40C3364A824E01000033030000300000006662782F343744
311
43333932332D303841352D344635442D413733342D3536443831373434374345392F636E782E786D6CD593CD6EC32010845F0571ADFC43EA5A6D8489D4439FA0875E316C121A0C16E0AA79FB2E094973C9A1C75E90353BCCAC3E61BEF99E2CF982108D770365754B0938E5B571BB812E695B3D53B2113C789F6E6C943839C1
311
40B34C05DF05BFCC45D2B0958B4DA85AE30E450C10FD12144494F34D62BD921603C0550B8A308DA035687235E2D71602AE82E27824690FE4EDF583F8F113548ABCC9298237B943F07C96A61B1325CACA18071AD51E2659CB25790DF1506B9964CDEA4BD79D9D7E9348BE70A95C8221B97CA0F9A4A26C542347DEE050F09802
311
D22BA6749C810A39CFD62899107273329E3D822FC6A5BE2B5E83E003BA59FFD87518769A099ECC04C5A102C8049A8A55CB5655DB57ABFE9DB175D7AD9F5E1E5AB66E5BDE64BBE0A3F7B65CC218087E26CABB042E51C17893C7F7F0151FD126206B1F8E7F0089004AEB99CE35E33FF3694EEF1B7105FC0BC40F504B03041400
311
060808009D5DDA403DFB28459A0500007B100000340000006662782F34374443333932332D303841352D344635442D413733342D3536443831373434374345392F6F626A656374732E786D6CAD575D739B3814FD2B0CFB6C30B6E34D76089DC44E3A9E6EDA4E3DEDEC43663C3208A28D108C2452677FFD1E81C0E0DAA977A7
311
2F80847475EFB9E77E287CB7CBB9F342A56285B876036FEC3A54C445C24476ED563A1D5DBACEBB289445A17BCB5C47909C5EBB66DA8DC24C165569A7129A928AEB83D9FBDBBF1C1553415D27E644A96B57C54F34271EA9749150F5EC2544132F4B775EE0350B87623349CAA703A125915468688A7901294EA354301C8E5D3F
311
0A7DF33F0ACDD3AE9A9E5EE5D7F60CCF67426922E21F0E3B10330D66CBBBC9C5D5E862369B8E66F34930BABDBF5D8E82DFA7E3C57CB1B8BAB9BBC2C14A4B48B29A489ABAD17B6023591CFACDAF28AC98D0D3895D621DE44BFAC28CA7DC68E204A1DFACE9ACB3461E533F2E84A0718D15D0A8EDB3A2135A5291C0E78C2A68D6
311
43683C1C0606C7DEEFA919DB23FBD3E721D0DFD113D4EADEBEFB9A16DBBF61823A87415251C3C0064B6B68C3D5F11EE16D5170FB8F2927279A4A46B8C3D95612F9EA46586A9644E1408C61B234D1602C702378A1F93DA40BC2E8E73C3FA6655A716E68EC4675146C102B54AB5A33F60F957BEDFBC84027F8CAB0E1D21AA45F
311
4BEA46570D452E0FD8D400E9A49C647039CC343BA793034317264E574B37FA70BFDDAD4DEC1E3FBC944549A536F401B55AC7B56F8392D52938CB7366837BA0CA1E942F40FE23427DAF0AFC26D96EB69BD953B42442A585CCE11B67EC8CC6788C9DA07E9AEFDE57E8779B87DE3B85279C6DA0FA05780E6DE8FBB2076714BE80
311
F0859C5AD3D631E1481B0F4C00204312871798421E4EB73B375A21CB212B6317E1510093A1EE0B3E43DF8A41A2A84FEABD05B03C488B672468C05633126A34E4B70AEEFDF4433AAB0FB6CB4EC17BF14BE87AB35C7F58573225317DB031BDA429134CA3C4ED79D3576880F9C0A267FAFABD90090CFD11EF751FEFDC1EA580B6
311
C1DC009FB539DD0CF6270F0E88B12F2B4CBA097F72028C3085B527FF81A998724E042DAAF6DC37EB07CA4603B10976C3E4AEC0EC0B0B48D3FC39884114E958B2D280D855AB2E697A27ACFBBAFA0846BAD1EDEB9FE4B59FBDB6FBDC1B17BC909BEDEBA6494B47A1FE36E4B6C5C0375240F73A48DAF8B7A06F1296A69542123C
311
82EBB7D5A2EF3B931690225AA94DB4CC603F828B484BDA562EAAB524A8A485D830D44DC4DDD103FAF201A965402DF094C68AF274C338AFF24DCA38AAD12627E50938FEBFFEDB2A2F37242F2AA14FC81EA88EEA30D47DC05EF59DE8F8C98DD6F57B748BDC9BD0E404194C2D3982D5C0B593C9747CB798CF4693FB8B39FAA78B
311
F1E872BA588EA6F3F1C5DDCD723E994FF71AD54D5414B6A5A61FD1F0124A5B584966DDF77585F8B149C08D1E88568FEF9BF06CDF5F571E7AE1D0C71ED4CB6EE34DF282BE8F263F17B05F7954D02A2F39CDA9D0C4C4D083F9E05F08FA8C8132CDFC2A27193D43CAA7F7EB03633073C6BECF26DEE9F783BD76766102F2A810FD
311
54E55B41183FD89835487AA5C82C7EAD4FBA775368DAA11959C7A03355056709F260E264B4C8A946363CA308C99C2A50AFDFD327F6EE71C6EE97A643D464CB69ABC9134193CC15C20224AF623D9C777E435367FAAA6B17E5D67BC6C3660AD70167AE5D34E99AC554795B1468D30AD5C2C1A57E270FCE129171F4DACDA66EDC
311
ED32D80C4A72B7E49CFEC9DAD5A4706B00D24889BE010D11BC532B1385B56EF67FFC9F0C6FD57188C6E7B6D29D2DFB89CE98FA1884686394BD2DA08979B647EF10A86F9B1578F59A012267DDB2DE24412375A489CCEA9B82D1CFAA74B3FCECA34371569F9C9257197C79BEA491A4207365021C2C022BACCC92685075F1C7E3
311
6759E0269B3BF70C14785C14795E083BB8B1376167FD847B6DF288B440CD85443D4EC6C1E4B1BE08D8BBC9664B14F548A29E31019F4AD6413C703C18D9DC1651819A1FDD3ADF38E1809BABA5634BDA0C422D51FA59D5C08296435007D1632E932656FA0BCA37EF027EBD142A4874F1D1BF504B03041400060800009D5DDA40
311
000000000000000000000000350000006662782F34374443333932332D303841352D344635442D413733342D3536443831373434374345392F76657274696365732E62696E504B03041400060808009D5DDA40F270F1330600000004000000360000006662782F34374443333932332D303841352D344635442D413733342D
311
3536443831373434374345392F747269616E676C65732E62696E636660600000504B03041400060800009D5DDA40000000000000000000000000370000006662782F34374443333932332D303841352D344635442D413733342D3536443831373434374345392F617474726962757465732E62696E504B0304140006080800
311
9D5DDA40D5987DFC8F00000041010000360000006662782F34374443333932332D303841352D344635442D413733342D3536443831373434374345392F6469726563746F72792E786D6C858F410EC2201045AF4266AF15DDB800BA74E7C21B903225242D6328188F2FA5C4183471359997F9FF81E89FF3C41E1816475E02DF
311
1F80A11FC8386F25A438EECEC07A250251FC3803E6F58C12560C4AD840E95E91C151A72936F496F35732D860FE635F62C8F2DA16B505C545B74125BAA2FA9E05D7CC053D063734D5C7665FD55B6B8D15D5E9BFEAFD8490FFA45E504B03041400060808009D5DDA40F0B62993FE000000A00100003B0000006662782F343744
311
43333932332D303841352D344635442D413733342D3536443831373434374345392F7265736F75726365732F636F72652E786D6C8D504B6E833010BD0A9A6D65B0092109328E92D09CA017B0CC84580936F2A7EAF16B0295DA5D3733A3F7D13C3D7EFC1A9FD9273AAFAD6981E5143234CAF6DA0C2DC470237BC88E823B6BC3
311
2F1964468ED8C20C83E083B3715A21654D4013126A6C8F2B28BDC700997AA6A305AFEE38CA5CC69014FE914F523DE48039CB139D7482FBE052806C79324F100EBD8D4EA1E7C5C20A1EA3EE578DEED34F7DD3E84074BB0DDD9DCE15B99C778C54EC4AC9E9D27564FBDE5DE9FE5076ACAE79319B050F7AFCC9A81CCA803D8892
311
B292D09A94F507634D5535DBC31B650DA5BC98E57F4C71EAFF698ADA844DB9C65D6C1E044B415E84E0C5DC575AAF32D39EBB15DF504B010214000A00000800009D5DDA403DEE336E79000000790000001B00000000000000000000000000000000006175746F6465736B2D64657369676E2D7061636B6167652E786D6C504B
311
010214001400060808009D5DDA40D486FD9CA0000000F40000001300000000000000000000000000B20000005B436F6E74656E745F54797065735D2E786D6C504B010214001400060808009D5DDA40E31D070BEC0000007C010000080000000000000000000000000083010000636F72652E786D6C504B0102140014000608
311
08009D5DDA4055019EA25F0000007C000000070000000000000000000000000095020000636E782E786D6C504B010214001400060808009D5DDA40612B510368010000020300000C00000000000000000000000000190300006662782F636F72652E786D6C504B010214001400060808009D5DDA40F219E55B7E0000009D00
311
00000B00000000000000000000000000AB0400006662782F636E782E786D6C504B010214001400060808009D5DDA40548AFF762C010000150200003100000000000000000000000000520500006662782F34374443333932332D303841352D344635442D413733342D3536443831373434374345392F636F72652E786D6C50
311
4B010214001400060808009D5DDA40C3364A824E010000330300003000000000000000000000000000CD0600006662782F34374443333932332D303841352D344635442D413733342D3536443831373434374345392F636E782E786D6C504B010214001400060808009D5DDA403DFB28459A0500007B100000340000000000
311
0000000000000000690800006662782F34374443333932332D303841352D344635442D413733342D3536443831373434374345392F6F626A656374732E786D6C504B010214001400060800009D5DDA400000000000000000000000003500000000000000000000000000550E00006662782F34374443333932332D30384135
311
2D344635442D413733342D3536443831373434374345392F76657274696365732E62696E504B010214001400060808009D5DDA40F270F13306000000040000003600000000000000000000000000A80E00006662782F34374443333932332D303841352D344635442D413733342D3536443831373434374345392F74726961
311
6E676C65732E62696E504B010214001400060800009D5DDA400000000000000000000000003700000000000000000000000000020F00006662782F34374443333932332D303841352D344635442D413733342D3536443831373434374345392F617474726962757465732E62696E504B010214001400060808009D5DDA40D5
311
987DFC8F000000410100003600000000000000000000000000570F00006662782F34374443333932332D303841352D344635442D413733342D3536443831373434374345392F6469726563746F72792E786D6C504B010214001400060808009D5DDA40F0B62993FE000000A00100003B000000000000000000000000003A10
311
00006662782F34374443333932332D303841352D344635442D413733342D3536443831373434374345392F7265736F75726365732F636F72652E786D6C504B0506000000000E000E0080040000911100000000
310
504B03040A00000800009D5DDA403DEE336E79000000790000001B0000006175746F6465736B2D64657369676E2D7061636B6167652E786D6C3C3F786D6C2076657273696F6E3D22312E302220656E636F64696E673D227574662D3822203F3E3C666F726D6174733E3C666F726D61743E687474703A2F2F736368656D612E
310
6175746F6465736B2E636F6D2F64657369676E2D7061636B6167652F323030393C2F666F726D61743E3C2F666F726D6174733E504B03041400060808009D5DDA40D486FD9CA0000000F4000000130000005B436F6E74656E745F54797065735D2E786D6C7D8EC10E82300C865F65E91D8A1E8C310C0EEA1BF002731658846E
310
D98AC1B77784ABF1D8FE5FBFBF75BBCE937A534CCEB38643598122B6FEE978D0B0485F9C41B54DDD7D022595594E1A469170414C76A4D9A4D207E29CF43ECE46F218070CC6BECC4078ACAA135ACF422C856C0E68EA1BF5669944DDD7BCDE7B1F8E415D77AECB980613C2E4AC91FC167A2B244592486606FC29C8FD7F045B9A
310
EF7053A7E60B504B03041400060808009D5DDA4075677DBBEB0000007C01000008000000636F72652E786D6C8D90D18E832010457FC5CCEB0605AAB51AA431DA3FD81F20402D690523B0D9CF5F6C6DB2FBB64F33B973CFCCE4B2F3F7FCC8BEF4EA8DB31D901C43A6AD74CAD8A98318AEE804D999B3D5B9F0CB069915B3EE60
310
9381B3697571D925E96CD03624D53AA5775178AF0364F2919A0EBCBCE959E42286E4F0F77C11F22E269D937797E0188DCA5E478C4AFBCCD5E815785D1F9A92F418D1BAB9A0B2A203EAC77144E3404EF538F497B2AF58B1C19C0533BFEFCB558BA015708A0945F888E8F19390B62CDBAAF9C0A4C598159BFD0F1417F54F281A
310
1B0E747FF78579E0243DF21C70566C59A4F20C2AD52D37FE03504B03041400060808009D5DDA4055019EA25F0000007C00000007000000636E782E786D6C4DCB3B0E80201045D1AD90E915ED2CF8AC45050C11660C8261F98AB1B07AC9C97D42D718D865D3E909258CFD00CCE24AC6E326A164D74DC0B4128928FF32603847
310
2BA13128B1252AC747C6BAB984FC68F0B87FE8960A5C09FE86CFB69FBA01504B03041400060808009D5DDA402A81970A66010000020300000C0000006662782F636F72652E786D6C8D52ED8E8320107C15C2DF8B22D67E06694CED1BDC0B50A51EA98241307DFC5B3F1AAF97A6694C90CCECECCE8EB2E3BDA9512F6DA78C4E
310
310D238CA42E4CA9749562EFAEC10EA32367D618F7A70C232D1A99E201C69C55D6F876860AA39DD40E506D4A3983A2EBA4C3A8A8E192E2AEF8918D08857750D1DDC256143751C9908640431D679DB360004D438613F3EBE5CEC88473E6BD2A675695304D5D95B4986FB7AB7D42B32888B7FB7390ACE35390E5791EE427BADB
310
E6A7EC9C646B460631674E350F778595C2C912F338A271106D8278F34DE921490EEBFD57440F51C4C850FE24F26DF9A1C82BED56F16C7792759853303212FFB685881CEA440F7E08676408115E63C2CF41432010B21397FAB1C70DA05E16CED80498D2F885EA45ED254C8DD0F83032B1D0796C009BBDEC13BFE9F3BE077C40
310
A12BB0261C5C2FDE0DD3D934758EA29536E8DD1D69631B512FE6268BCBB90C7A292F4C6DEC276A32AF4AE630C9F0F7F25F504B03041400060808009D5DDA4069A9EFE87D0000009D0000000B0000006662782F636E782E786D6C4DCCD10A83201886E15B91FFDC9568E0811A96791FB12C64A6C3E9D8E5AF46073BFAE0E1E3
310
15FD670FE8EDF2CBA72881DC5A402EDED3E2E326A196157340BD1239A5F2770314E7DD49381994D872AACF8B16B7CE359443838F8F0BEDC007433A8A99B116B36934587346B125BA1B0D6D8DD613344A34BFD2B167587D01504B03041400060808009D5DDA409AB10A7F2E01000015020000310000006662782F4642384244
310
3135332D344446462D344543442D413834332D4631413543443330444141452F636F72652E786D6C8D515B6EC23010BC8AE52FAA2A899D98409163140839412F1012432D881DF95171FCAE9B20B57FFC78ADD999D9D12EDF3FC63BFA96D629A32B4C538291D4BD1994BE5638F84BB2C5682FB835C6FFA161A4BB515638C258
310
F0AB35615AA0DE682FB507549B412E60E79CF418F577F854D8F55F72ECD22E7860B85B3A75FDADBBCA94A6D0069EE0CE5B0880E621F1C5A23D6C0F0D5D17096BDA3661A76393D45B56242DADD7C7A6204D5D9F78360B050F410D8B5C0D10475D94B4AF9A44B1E05E8DCFF8BD959D97031639A17942CA242F3F29DD31B65B7F
310
BC13BA23846791FE4F14A6E1455150DA17F9127796392C28CFE686E08309E7FB338C7C4CC67A14E7AD9CECDFB0202921E566B3290868662E6C004C4BB6983A6F2C6C78753B03BD0056742E99E0593C1294DF0B428D07153F504B03041400060808009D5DDA40A59185955601000033030000300000006662782F4642384244
310
3135332D344446462D344543442D413834332D4631413543443330444141452F636E782E786D6CBD93CD6EC32010845F0571ADFC83E35A698489D4439FA0875E316C1A1A1B2CC055F3F65D1292E69243A5AA1764CD0E33AB4F986FBFA6917C820FC6D99EB2B2A604AC72DAD8F79E2E7157AC29D90AEE9D8B37364AAC9CA0A7
310
49A682BF7BB7CC59D2B093CB18511D8D3D64D143708B5710504E37C9E8941C31006CB1A008D3005A832657237EEDC0E32A280E4712F7405E9EDF881B3E40C5C0AB942278953A044F676EBA3151A24619424F83DAC3244BB944A7211C4A2DA32C5979E9BAB3D34F1249172E958B372495F7349D54E48D4AE4C82B1C0A1EA247
310
7AD9148F335021E779344A46845C9D8C678FE08BB1B16BB3D720788FEE55D3ADD718769A091ECD04D9A13CC8089A8AA6664D517745D3BD32B669DBCDE3D343CD3675CDAB64177C706ECC973006BC9B897236828D54305EA5F13D7CD947B4F1C8DAF9E32F402280DC7AA673CDF84B3EAC5BB5ED3FF2A94EEF1B7179FC0BC437
310
504B03041400060808009D5DDA40405FF9F559070000941B0000340000006662782F46423842443135332D344446462D344543442D413834332D4631413543443330444141452F6F626A656374732E786D6CED595B739B3814FE2B0CFB6C6C7CC9363B844E62371DCF6EDA4EBDEDEC4366181964A28D108C2492787FFD1E5D
310
C0404C82B7D9B73ED880908ECEF9CE5587E0FD53469D07CC05C9D985EB7B13D7C12CCE13C2D20BB794BBD13BD7791F063CCF65639AEB3094E10B570DBB6190F2BC2CEC508277A8A4B2337A7DF5972362CCB0EBC4140971E18AF80E67C843A5CC132CEEBD0449E4A5BB27CFF7CCC436D994A3E2AE43B4401C33099CC238032A
310
8E61CA6F3F4EDC71188CD5FB3050FF76D66CD0AC79FFACB196BACD25614222163F63A943663688A5993F5F7D982ECE478BF97C369A9F4DFDD1D5F5D56AE4FF3A9B2CCF96CBF3CB0FE7C0DE36CFA99529C1056609E86FEF867E30566F6AD12D02C7B88E73C670AC8104A8B4585D82040BD8AA01DFA4FDE82B891AAFB5848DE7
310
B97A6F59680CCFDA54FA660D03A2451704B1DB551257D7A67CF9F66F105C0C314A2EB0046E85E4A05D0B0F07AF70C3493036A361B03DE882082743127382A843C996230E4A81A96A4A189805968C720E0EA41C2581D69C79DDB62DF0CCD75DE71897BB9252E5196EA81D2B02F7C35268CEC83F981FB86F22033C81B42561F2
310
9DE552EE0BEC86E7C1580F8681BACCA6F6A501D2D951940A8D8879DB1174A95C7FBD72C3DFAFB74F1B150E8E6F5EF0BCC05C2AA3537AD47C8121DBAB42C96EEB0FD29C5A00C21850EDCA03285F01F94F103D0EAC80DE38799A3FCDED5CC91113BB9C67A01B67E28C26F037717CFDAFEE1B77C1B85EDCD65E1F9EE0A60AAA77
310
3F8E675B068D95E5BF0167183C80C1E77C665F6D6244C19E6F08038094913834872108EDBBED931BAE217042A0875588863E880CEC3EC06D30B6640E5AA9DCCB7A1D0344ED1EB3214A02D8B445021B3D7AFA08D98393F8A0A6A6887DF02EDEC45C2F579BDF3725DFA118DF589F5EE11D614442D63CCE500BF39644F778FF98
310
F304047D8EF7A6897766B71280B6C25C019F5620A887C3CEAD0D625897E62ADC04AFEC0042A85CDDA07F43448C29450CE765B56F1DDD94A1D61E6F6B06379C1A8867D38E0973FC405455014E7398D16214F27ECC49A14074C38F46B23A687A3DD27D5B7F028BACE7F7CC5A3308BD0CD13F75D03A8243CBB22BA42D10B5C0DB
310
43388F739AF368BB8F4CA473A1960036DADEF2BD451462BD5192A2021EA4FDAE0A29A991364AC86E570A88AB4758FCBE5E36CD61E2CDFC85D3FCEF38E31CA22DF82EE2D6EF3A7B442443298E7628E9DBAEB95B4D5B68923DA439DE51908B3C10B98F908C26094E4F81E624E2E76F4A3DA5B910846101F9EA28F84D34261E04
310
12A3CD8A65A5D50ED044441996889E828022D303AE4E3BBAC68DA174789DC7DA7A5FD25893E8FF64111C412D99B38840290A39E455C67D6F0131A48DAE41B9832F585B455B8B414B2821E27DF488497A274F41DD90EFC13D86234929A3BC403198F500B2CF7C4529B5C3FB16C5F72A7F447149DFCA4004A6BB88505A6611FC
310
088393C710D7AE03D38B2834889BD8277106451992251FB2C9D962F26C1F533374436063A31DA110B6A30C153DA8B702A2AE479C1A7C4BBD47A9DB322B2294E5251B6428DEACEB4D967C57AD8AEC407E55A908656345D8120C03C2649D55AB980DA6AE032BB8910E54FB48A0ACA0E614F64AE2F16B6FD2947B37E0D64FDF76
310
830C0ABF1EED3523EABC82C1F2D82A0CC42392F19D1B6EF4757405F577829343AAAF6ACD66050888A9485E726255F46D0DE58DADD1DCF0064971FBD164DDEAFA6DED41F72318C31AA85DEA856B0574869944AA32B95137F42B8210DCA261C6D72AA79E42E5324974D588E835E95367AB8C686D9A11AFB8C32CCFE0C76E098B
310
6999E05B9488FBE846D2684314EB564A2F2315C62F0AF8F9E3A6030F8C0C10E98B2AF0F06367AD1D5DAA72E928117957665B860804C19668A9D18D57B0D46AA4D2727D55670AA8BBC0C0AC8AE73F4F16CD76C4CF93456A0DE3874E1657FB3FD0BED91769A4F358D9F549C7803A3F292A6F710CD06D879A6A9D454C32B7F25B
310
678A202856517E703556050D43B08FE3FF9CB5FBB2A0D9AEC3FF6959DB7F56719C94555A935597EA48E5BA6EE6B0E97436F9B03C9B8FA6D78B3368D02E26A377B3E56A343B9B2C3E5CAECEA667B30347DA51C3A00E663A77C1B3096AD5B07AB218405756E49424709A4F9C1443CC9770A61FD03EE71916903C9BCDEEC436E5
310
07AC7E307D4E89B614579CDC2168105301691D302A63D91E777E81D6A48483F6850B4D23EF1EFEAC55BA0E649E0B175A0592C458785B6833A9869E260E2957E77E4B0CF0412C5529D12CAA9FEB550A9B56F8AFA70C490356AE560F030AB702BA5FAD0E85E6CDF2149F2478C58E8324DC6E4B09D59A91E530500BA3B739A8DF
310
C84609BBB75B3F81EBBE2C96EFE9392D44067D3278D1080CD591443CD5FD6EC59865E972F5650C7D3667FDD9296899822E87531A710CC65CAA820AAC08ACC2D22C9004535DFE76FB85E7F0892773745574BBCCB32C67F6E112CE63097C22723677F0C127B985B201ABB6BAB89D4EFCE9AD6E67DB0E7BB445027BAA1E8281AA
310
8C5022748C0D2CF2596BCA362EC74A099DE9EB9563C327B4018C053DEBEE9ACF5B0E788FFA90A27C457B7825E78B1DEDB19E0AD6C0A1171DFE0B504B03041400060800009D5DDA40000000000000000000000000350000006662782F46423842443135332D344446462D344543442D413834332D4631413543443330444141
310
452F76657274696365732E62696E504B03041400060808009D5DDA40F270F1330600000004000000360000006662782F46423842443135332D344446462D344543442D413834332D4631413543443330444141452F747269616E676C65732E62696E636660600000504B03041400060800009D5DDA40000000000000000000
310
000000370000006662782F46423842443135332D344446462D344543442D413834332D4631413543443330444141452F617474726962757465732E62696E504B03041400060808009D5DDA40D5987DFC8F00000041010000360000006662782F46423842443135332D344446462D344543442D413834332D46314135434433
310
30444141452F6469726563746F72792E786D6C858F410EC2201045AF4266AF15DDB800BA74E7C21B903225242D6328188F2FA5C4183471359997F9FF81E89FF3C41E1816475E02DF1F80A11FC8386F25A438EECEC07A250251FC3803E6F58C12560C4AD840E95E91C151A72936F496F35732D860FE635F62C8F2DA16B505C5
310
45B74125BAA2FA9E05D7CC053D063734D5C7665FD55B6B8D15D5E9BFEAFD8490FFA45E504B03041400060808009D5DDA407C49942DFE000000A00100003B0000006662782F46423842443135332D344446462D344543442D413834332D4631413543443330444141452F7265736F75726365732F636F72652E786D6C8D504B
310
6E833010BD0A9A6D65C0044240C61182F404BD806526C44AB0913F558F5F9350A9DD7533337A1FCDD363E7AFE5917CA275CAE80E689A43825A9A49E9B983E0AFE404C999336B8CFF2583448B053BD860E06CB626AC3B248DF6A87D44B59970078573E821918F7874E0E40D17918AE0A3C2DDD355C8BB9831A569A4A38E33E7
310
6D0C90BC9E6C13B845678295E858F662390B414DBB464DF1A7BA2AB4C0EBFAD094B4792745DD5C48591503E9C77124E3404FF538F497B2AF58B69939F36AF9C9282D0A8F13F022A705C98FA4387E50DA96655B356F396DF39C659BFC8F29ACD33F4D41697F28F6B82F9B034E639027C159B6F515D7B3CCB8B76EF937504B01
310
0214000A00000800009D5DDA403DEE336E79000000790000001B00000000000000000000000000000000006175746F6465736B2D64657369676E2D7061636B6167652E786D6C504B010214001400060808009D5DDA40D486FD9CA0000000F40000001300000000000000000000000000B20000005B436F6E74656E745F5479
310
7065735D2E786D6C504B010214001400060808009D5DDA4075677DBBEB0000007C010000080000000000000000000000000083010000636F72652E786D6C504B010214001400060808009D5DDA4055019EA25F0000007C000000070000000000000000000000000094020000636E782E786D6C504B01021400140006080800
310
9D5DDA402A81970A66010000020300000C00000000000000000000000000180300006662782F636F72652E786D6C504B010214001400060808009D5DDA4069A9EFE87D0000009D0000000B00000000000000000000000000A80400006662782F636E782E786D6C504B010214001400060808009D5DDA409AB10A7F2E010000
310
1502000031000000000000000000000000004E0500006662782F46423842443135332D344446462D344543442D413834332D4631413543443330444141452F636F72652E786D6C504B010214001400060808009D5DDA40A591859556010000330300003000000000000000000000000000CB0600006662782F464238424431
310
35332D344446462D344543442D413834332D4631413543443330444141452F636E782E786D6C504B010214001400060808009D5DDA40405FF9F559070000941B000034000000000000000000000000006F0800006662782F46423842443135332D344446462D344543442D413834332D4631413543443330444141452F6F62
310
6A656374732E786D6C504B010214001400060800009D5DDA4000000000000000000000000035000000000000000000000000001A1000006662782F46423842443135332D344446462D344543442D413834332D4631413543443330444141452F76657274696365732E62696E504B010214001400060808009D5DDA40F270F1
310
33060000000400000036000000000000000000000000006D1000006662782F46423842443135332D344446462D344543442D413834332D4631413543443330444141452F747269616E676C65732E62696E504B010214001400060800009D5DDA400000000000000000000000003700000000000000000000000000C7100000
310
6662782F46423842443135332D344446462D344543442D413834332D4631413543443330444141452F617474726962757465732E62696E504B010214001400060808009D5DDA40D5987DFC8F0000004101000036000000000000000000000000001C1100006662782F46423842443135332D344446462D344543442D413834
310
332D4631413543443330444141452F6469726563746F72792E786D6C504B010214001400060808009D5DDA407C49942DFE000000A00100003B00000000000000000000000000FF1100006662782F46423842443135332D344446462D344543442D413834332D4631413543443330444141452F7265736F75726365732F636F
310
72652E786D6C504B0506000000000E000E0080040000561300000000
  0
XRECORD
  5
17
102
{ACAD_REACTORS
330
12
102
}
330
12
100
AcDbXrecord
280
     1
270
     1
271
     1
  0
XRECORD
  5
16
102
{ACAD_REACTORS
330
12
102
}
330
12
100
AcDbXrecord
280
     1
270
     1
271
     1
  0
XRECORD
  5
18
102
{ACAD_REACTORS
330
12
102
}
330
12
100
AcDbXrecord
280
     1
270
     1
271
     1
  0
XRECORD
  5
15
102
{ACAD_REACTORS
330
12
102
}
330
12
100
AcDbXrecord
280
     1
270
     1
271
     1
  0
XRECORD
  5
1B67
102
{ACAD_REACTORS
330
22
102
}
330
22
100
AcDbXrecord
280
     1
102
MATERIAL
148
0.0
149
0.0
149
0.0
 93
        0
 94
      127
282
     0
 72
     0
 77
     0
171
     0
175
     0
179
     0
273
     0
  0
XRECORD
  5
24
102
{ACAD_REACTORS
330
22
102
}
330
22
100
AcDbXrecord
280
     1
270
     1
271
     1
  0
XRECORD
  5
23
102
{ACAD_REACTORS
330
22
102
}
330
22
100
AcDbXrecord
280
     1
270
     1
271
     1
  0
XRECORD
  5
27
102
{ACAD_REACTORS
330
22
102
}
330
22
100
AcDbXrecord
280
     1
270
     1
271
     1
  0
XRECORD
  5
26
102
{ACAD_REACTORS
330
22
102
}
330
22
100
AcDbXrecord
280
     1
270
     1
271
     1
  0
XRECORD
  5
28
102
{ACAD_REACTORS
330
22
102
}
330
22
100
AcDbXrecord
280
     1
270
     1
271
     1
  0
XRECORD
  5
25
102
{ACAD_REACTORS
330
22
102
}
330
22
100
AcDbXrecord
280
     1
270
     1
271
     1
  0
XRECORD
  5
E0E
102
{ACAD_REACTORS
330
E0D
102
}
330
E0D
100
AcDbXrecord
280
     1
102
ACAD_ROUNDTRIP_2012_MLEADER_STYLE
298
     1
  0
CELLSTYLEMAP
  5
1D63
102
{ACAD_REACTORS
330
1B4E
102
}
330
1B4E
100
AcDbCellStyleMap
 90
        3
300
CELLSTYLE
  1
TABLEFORMAT_BEGIN
 90
        5
170
     1
 91
        0
 92
    32768
 62
   257
 93
        1
300
CONTENTFORMAT
  1
CONTENTFORMAT_BEGIN
 90
        0
 91
        0
 92
      512
 93
        0
300

 40
0.0
140
1.0
 94
        5
 62
     0
340
55
144
0.25
309
CONTENTFORMAT_END
171
     1
301
MARGIN
  1
CELLMARGIN_BEGIN
 40
0.06
 40
0.06
 40
0.06
 40
0.06
 40
0.18
 40
0.18
309
CELLMARGIN_END
 94
        6
 95
        1
302
GRIDFORMAT
  1
GRIDFORMAT_BEGIN
 90
        0
 91
        1
 62
     0
 92
       -2
340
0
 93
        0
 40
0.045
309
GRIDFORMAT_END
 95
        2
302
GRIDFORMAT
  1
GRIDFORMAT_BEGIN
 90
        0
 91
        1
 62
     0
 92
       -2
340
0
 93
        0
 40
0.045
309
GRIDFORMAT_END
 95
        4
302
GRIDFORMAT
  1
GRIDFORMAT_BEGIN
 90
        0
 91
        1
 62
     0
 92
       -2
340
0
 93
        0
 40
0.045
309
GRIDFORMAT_END
 95
        8
302
GRIDFORMAT
  1
GRIDFORMAT_BEGIN
 90
        0
 91
        1
 62
     0
 92
       -2
340
0
 93
        0
 40
0.045
309
GRIDFORMAT_END
 95
       16
302
GRIDFORMAT
  1
GRIDFORMAT_BEGIN
 90
        0
 91
        1
 62
     0
 92
       -2
340
0
 93
        0
 40
0.045
309
GRIDFORMAT_END
 95
       32
302
GRIDFORMAT
  1
GRIDFORMAT_BEGIN
 90
        0
 91
        1
 62
     0
 92
       -2
340
0
 93
        0
 40
0.045
309
GRIDFORMAT_END
309
TABLEFORMAT_END
  1
CELLSTYLE_BEGIN
 90
        1
 91
        1
300
_TITLE
309
CELLSTYLE_END
300
CELLSTYLE
  1
TABLEFORMAT_BEGIN
 90
        5
170
     1
 91
        0
 92
        0
 62
   257
 93
        1
300
CONTENTFORMAT
  1
CONTENTFORMAT_BEGIN
 90
        0
 91
        0
 92
      512
 93
        0
300

 40
0.0
140
1.0
 94
        5
 62
     0
340
55
144
0.18
309
CONTENTFORMAT_END
171
     1
301
MARGIN
  1
CELLMARGIN_BEGIN
 40
0.06
 40
0.06
 40
0.06
 40
0.06
 40
0.18
 40
0.18
309
CELLMARGIN_END
 94
        6
 95
        1
302
GRIDFORMAT
  1
GRIDFORMAT_BEGIN
 90
        0
 91
        1
 62
     0
 92
       -2
340
0
 93
        0
 40
0.045
309
GRIDFORMAT_END
 95
        2
302
GRIDFORMAT
  1
GRIDFORMAT_BEGIN
 90
        0
 91
        1
 62
     0
 92
       -2
340
0
 93
        0
 40
0.045
309
GRIDFORMAT_END
 95
        4
302
GRIDFORMAT
  1
GRIDFORMAT_BEGIN
 90
        0
 91
        1
 62
     0
 92
       -2
340
0
 93
        0
 40
0.045
309
GRIDFORMAT_END
 95
        8
302
GRIDFORMAT
  1
GRIDFORMAT_BEGIN
 90
        0
 91
        1
 62
     0
 92
       -2
340
0
 93
        0
 40
0.045
309
GRIDFORMAT_END
 95
       16
302
GRIDFORMAT
  1
GRIDFORMAT_BEGIN
 90
        0
 91
        1
 62
     0
 92
       -2
340
0
 93
        0
 40
0.045
309
GRIDFORMAT_END
 95
       32
302
GRIDFORMAT
  1
GRIDFORMAT_BEGIN
 90
        0
 91
        1
 62
     0
 92
       -2
340
0
 93
        0
 40
0.045
309
GRIDFORMAT_END
309
TABLEFORMAT_END
  1
CELLSTYLE_BEGIN
 90
        2
 91
        1
300
_HEADER
309
CELLSTYLE_END
300
CELLSTYLE
  1
TABLEFORMAT_BEGIN
 90
        5
170
     1
 91
        0
 92
        0
 62
   257
 93
        1
300
CONTENTFORMAT
  1
CONTENTFORMAT_BEGIN
 90
        0
 91
        0
 92
      512
 93
        0
300

 40
0.0
140
1.0
 94
        2
 62
     0
340
55
144
0.18
309
CONTENTFORMAT_END
171
     1
301
MARGIN
  1
CELLMARGIN_BEGIN
 40
0.06
 40
0.06
 40
0.06
 40
0.06
 40
0.18
 40
0.18
309
CELLMARGIN_END
 94
        6
 95
        1
302
GRIDFORMAT
  1
GRIDFORMAT_BEGIN
 90
        0
 91
        1
 62
     0
 92
       -2
340
0
 93
        0
 40
0.045
309
GRIDFORMAT_END
 95
        2
302
GRIDFORMAT
  1
GRIDFORMAT_BEGIN
 90
        0
 91
        1
 62
     0
 92
       -2
340
0
 93
        0
 40
0.045
309
GRIDFORMAT_END
 95
        4
302
GRIDFORMAT
  1
GRIDFORMAT_BEGIN
 90
        0
 91
        1
 62
     0
 92
       -2
340
0
 93
        0
 40
0.045
309
GRIDFORMAT_END
 95
        8
302
GRIDFORMAT
  1
GRIDFORMAT_BEGIN
 90
        0
 91
        1
 62
     0
 92
       -2
340
0
 93
        0
 40
0.045
309
GRIDFORMAT_END
 95
       16
302
GRIDFORMAT
  1
GRIDFORMAT_BEGIN
 90
        0
 91
        1
 62
     0
 92
       -2
340
0
 93
        0
 40
0.045
309
GRIDFORMAT_END
 95
       32
302
GRIDFORMAT
  1
GRIDFORMAT_BEGIN
 90
        0
 91
        1
 62
     0
 92
       -2
340
0
 93
        0
 40
0.045
309
GRIDFORMAT_END
309
TABLEFORMAT_END
  1
CELLSTYLE_BEGIN
 90
        3
 91
        2
300
_DATA
309
CELLSTYLE_END
  0
XRECORD
  5
1DAF
102
{ACAD_REACTORS
330
1B4E
102
}
330
1B4E
100
AcDbXrecord
280
     1
102
ACAD_ROUNDTRIP_PRE2007_TABLESTYLE
 90
      512
 91
        0
  1

 92
      512
 93
        0
  2

 94
      512
 95
        0
  3

  0
XRECORD
  5
1D8A
102
{ACAD_REACTORS
330
1D89
102
}
330
1D89
100
AcDbXrecord
280
     1
102
RTVSPropertyOp0
 70
     1
102
RTVSPropertyOp1
 70
     1
102
RTVSPropertyOp2
 70
     1
102
RTVSPropertyOp3
 70
     1
102
RTVSPropertyOp4
 70
     1
102
RTVSPropertyOp5
 70
     1
102
RTVSPropertyOp6
 70
     1
102
RTVSPropertyOp7
 70
     1
102
RTVSPropertyOp8
 70
     1
102
RTVSPropertyOp9
 70
     1
102
RTVSPropertyOp10
 70
     1
102
RTVSPropertyOp11
 70
     1
102
RTVSPropertyOp12
 70
     1
102
RTVSPropertyOp13
 70
     1
102
RTVSPropertyOp14
 70
     1
102
RTVSPropertyOp15
 70
     1
102
RTVSPropertyOp16
 70
     1
102
RTVSPropertyOp17
 70
     1
102
RTVSPropertyOp18
 70
     1
102
RTVSPropertyOp19
 70
     1
102
RTVSPropertyOp20
 70
     1
102
RTVSPropertyOp21
 70
     1
102
RTVSPropertyOp22
 70
     1
102
RTVSPropertyOp23
 70
     1
102
RTVSPropertyOp24
 70
     1
102
RTVSPropertyOp25
 70
     1
102
RTVSPropertyOp26
 70
     1
102
RTVSPropertyOp27
 70
     1
  0
XRECORD
  5
1DEB
102
{ACAD_REACTORS
330
1DEA
102
}
330
1DEA
100
AcDbXrecord
280
     1
102
RTVSPropertyOp0
 70
     1
102
RTVSPropertyOp1
 70
     1
102
RTVSPropertyOp2
 70
     1
102
RTVSPropertyOp3
 70
     1
102
RTVSPropertyOp4
 70
     1
102
RTVSPropertyOp5
 70
     1
102
RTVSPropertyOp6
 70
     1
102
RTVSPropertyOp7
 70
     1
102
RTVSPropertyOp8
 70
     1
102
RTVSPropertyOp9
 70
     1
102
RTVSPropertyOp10
 70
     1
102
RTVSPropertyOp11
 70
     1
102
RTVSPropertyOp12
 70
     1
102
RTVSPropertyOp13
 70
     1
102
RTVSPropertyOp14
 70
     1
102
RTVSPropertyOp15
 70
     1
102
RTVSPropertyOp16
 70
     1
102
RTVSPropertyOp17
 70
     1
102
RTVSPropertyOp18
 70
     1
102
RTVSPropertyOp19
 70
     1
102
RTVSPropertyOp20
 70
     1
102
RTVSPropertyOp21
 70
     1
102
RTVSPropertyOp22
 70
     1
102
RTVSPropertyOp23
 70
     1
102
RTVSPropertyOp24
 70
     1
102
RTVSPropertyOp25
 70
     1
102
RTVSPropertyOp26
 70
     1
102
RTVSPropertyOp27
 70
     1
  0
XRECORD
  5
1DE9
102
{ACAD_REACTORS
330
1DE8
102
}
330
1DE8
100
AcDbXrecord
280
     1
102
RTVSPropertyOp0
 70
     1
102
RTVSPropertyOp1
 70
     1
102
RTVSPropertyOp2
 70
     1
102
RTVSPropertyOp3
 70
     1
102
RTVSPropertyOp4
 70
     1
102
RTVSPropertyOp5
 70
     1
102
RTVSPropertyOp6
 70
     1
102
RTVSPropertyOp7
 70
     1
102
RTVSPropertyOp8
 70
     1
102
RTVSPropertyOp9
 70
     1
102
RTVSPropertyOp10
 70
     1
102
RTVSPropertyOp11
 70
     1
102
RTVSPropertyOp12
 70
     1
102
RTVSPropertyOp13
 70
     1
102
RTVSPropertyOp14
 70
     1
102
RTVSPropertyOp15
 70
     1
102
RTVSPropertyOp16
 70
     1
102
RTVSPropertyOp17
 70
     1
102
RTVSPropertyOp18
 70
     1
102
RTVSPropertyOp19
 70
     1
102
RTVSPropertyOp20
 70
     1
102
RTVSPropertyOp21
 70
     1
102
RTVSPropertyOp22
 70
     1
102
RTVSPropertyOp23
 70
     1
102
RTVSPropertyOp24
 70
     1
102
RTVSPropertyOp25
 70
     1
102
RTVSPropertyOp26
 70
     1
102
RTVSPropertyOp27
 70
     1
  0
XRECORD
  5
1D88
102
{ACAD_REACTORS
330
1D87
102
}
330
1D87
100
AcDbXrecord
280
     1
102
RTVSPropertyOp0
 70
     1
102
RTVSPropertyOp1
 70
     1
102
RTVSPropertyOp2
 70
     1
102
RTVSPropertyOp3
 70
     1
102
RTVSPropertyOp4
 70
     1
102
RTVSPropertyOp5
 70
     1
102
RTVSPropertyOp6
 70
     1
102
RTVSPropertyOp7
 70
     1
102
RTVSPropertyOp8
 70
     1
102
RTVSPropertyOp9
 70
     1
102
RTVSPropertyOp10
 70
     1
102
RTVSPropertyOp11
 70
     1
102
RTVSPropertyOp12
 70
     1
102
RTVSPropertyOp13
 70
     1
102
RTVSPropertyOp14
 70
     1
102
RTVSPropertyOp15
 70
     1
102
RTVSPropertyOp16
 70
     1
102
RTVSPropertyOp17
 70
     1
102
RTVSPropertyOp18
 70
     1
102
RTVSPropertyOp19
 70
     1
102
RTVSPropertyOp20
 70
     1
102
RTVSPropertyOp21
 70
     1
102
RTVSPropertyOp22
 70
     1
102
RTVSPropertyOp23
 70
     1
102
RTVSPropertyOp24
 70
     1
102
RTVSPropertyOp25
 70
     1
102
RTVSPropertyOp26
 70
     1
102
RTVSPropertyOp27
 70
     1
  0
XRECORD
  5
1D96
102
{ACAD_REACTORS
330
1D95
102
}
330
1D95
100
AcDbXrecord
280
     1
102
RTVSPropertyOp0
 70
     1
102
RTVSPropertyOp1
 70
     1
102
RTVSPropertyOp2
 70
     1
102
RTVSPropertyOp3
 70
     1
102
RTVSPropertyOp4
 70
     1
102
RTVSPropertyOp5
 70
     1
102
RTVSPropertyOp6
 70
     1
102
RTVSPropertyOp7
 70
     1
102
RTVSPropertyOp8
 70
     1
102
RTVSPropertyOp9
 70
     1
102
RTVSPropertyOp10
 70
     1
102
RTVSPropertyOp11
 70
     1
102
RTVSPropertyOp12
 70
     1
102
RTVSPropertyOp13
 70
     1
102
RTVSPropertyOp14
 70
     1
102
RTVSPropertyOp15
 70
     1
102
RTVSPropertyOp16
 70
     1
102
RTVSPropertyOp17
 70
     1
102
RTVSPropertyOp18
 70
     1
102
RTVSPropertyOp19
 70
     1
102
RTVSPropertyOp20
 70
     1
102
RTVSPropertyOp21
 70
     1
102
RTVSPropertyOp22
 70
     1
102
RTVSPropertyOp23
 70
     1
102
RTVSPropertyOp24
 70
     1
102
RTVSPropertyOp25
 70
     1
102
RTVSPropertyOp26
 70
     1
102
RTVSPropertyOp27
 70
     1
  0
XRECORD
  5
1D9E
102
{ACAD_REACTORS
330
1D9D
102
}
330
1D9D
100
AcDbXrecord
280
     1
102
RTVSPropertyOp0
 70
     1
102
RTVSPropertyOp1
 70
     1
102
RTVSPropertyOp2
 70
     1
102
RTVSPropertyOp3
 70
     1
102
RTVSPropertyOp4
 70
     1
102
RTVSPropertyOp5
 70
     1
102
RTVSPropertyOp6
 70
     1
102
RTVSPropertyOp7
 70
     1
102
RTVSPropertyOp8
 70
     1
102
RTVSPropertyOp9
 70
     1
102
RTVSPropertyOp10
 70
     1
102
RTVSPropertyOp11
 70
     1
102
RTVSPropertyOp12
 70
     1
102
RTVSPropertyOp13
 70
     1
102
RTVSPropertyOp14
 70
     1
102
RTVSPropertyOp15
 70
     1
102
RTVSPropertyOp16
 70
     1
102
RTVSPropertyOp17
 70
     1
102
RTVSPropertyOp18
 70
     1
102
RTVSPropertyOp19
 70
     1
102
RTVSPropertyOp20
 70
     1
102
RTVSPropertyOp21
 70
     1
102
RTVSPropertyOp22
 70
     1
102
RTVSPropertyOp23
 70
     1
102
RTVSPropertyOp24
 70
     1
102
RTVSPropertyOp25
 70
     1
102
RTVSPropertyOp26
 70
     1
102
RTVSPropertyOp27
 70
     1
  0
XRECORD
  5
1D90
102
{ACAD_REACTORS
330
1D8F
102
}
330
1D8F
100
AcDbXrecord
280
     1
102
RTVSPropertyOp0
 70
     1
102
RTVSPropertyOp1
 70
     1
102
RTVSPropertyOp2
 70
     1
102
RTVSPropertyOp3
 70
     1
102
RTVSPropertyOp4
 70
     1
102
RTVSPropertyOp5
 70
     1
102
RTVSPropertyOp6
 70
     1
102
RTVSPropertyOp7
 70
     1
102
RTVSPropertyOp8
 70
     1
102
RTVSPropertyOp9
 70
     1
102
RTVSPropertyOp10
 70
     1
102
RTVSPropertyOp11
 70
     1
102
RTVSPropertyOp12
 70
     1
102
RTVSPropertyOp13
 70
     1
102
RTVSPropertyOp14
 70
     1
102
RTVSPropertyOp15
 70
     1
102
RTVSPropertyOp16
 70
     1
102
RTVSPropertyOp17
 70
     1
102
RTVSPropertyOp18
 70
     1
102
RTVSPropertyOp19
 70
     1
102
RTVSPropertyOp20
 70
     1
102
RTVSPropertyOp21
 70
     1
102
RTVSPropertyOp22
 70
     1
102
RTVSPropertyOp23
 70
     1
102
RTVSPropertyOp24
 70
     1
102
RTVSPropertyOp25
 70
     1
102
RTVSPropertyOp26
 70
     1
102
RTVSPropertyOp27
 70
     1
  0
XRECORD
  5
1D94
102
{ACAD_REACTORS
330
1D93
102
}
330
1D93
100
AcDbXrecord
280
     1
102
RTVSPropertyOp0
 70
     1
102
RTVSPropertyOp1
 70
     1
102
RTVSPropertyOp2
 70
     1
102
RTVSPropertyOp3
 70
     1
102
RTVSPropertyOp4
 70
     1
102
RTVSPropertyOp5
 70
     1
102
RTVSPropertyOp6
 70
     1
102
RTVSPropertyOp7
 70
     1
102
RTVSPropertyOp8
 70
     1
102
RTVSPropertyOp9
 70
     1
102
RTVSPropertyOp10
 70
     1
102
RTVSPropertyOp11
 70
     1
102
RTVSPropertyOp12
 70
     1
102
RTVSPropertyOp13
 70
     1
102
RTVSPropertyOp14
 70
     1
102
RTVSPropertyOp15
 70
     1
102
RTVSPropertyOp16
 70
     1
102
RTVSPropertyOp17
 70
     1
102
RTVSPropertyOp18
 70
     1
102
RTVSPropertyOp19
 70
     1
102
RTVSPropertyOp20
 70
     1
102
RTVSPropertyOp21
 70
     1
102
RTVSPropertyOp22
 70
     1
102
RTVSPropertyOp23
 70
     1
102
RTVSPropertyOp24
 70
     1
102
RTVSPropertyOp25
 70
     1
102
RTVSPropertyOp26
 70
     1
102
RTVSPropertyOp27
 70
     1
  0
XRECORD
  5
1DAE
102
{ACAD_REACTORS
330
1DAD
102
}
330
1DAD
100
AcDbXrecord
280
     1
102
RTVSPropertyOp0
 70
     0
102
RTVSPropertyOp1
 70
     0
102
RTVSPropertyOp2
 70
     0
102
RTVSPropertyOp3
 70
     0
102
RTVSPropertyOp4
 70
     0
102
RTVSPropertyOp5
 70
     0
102
RTVSPropertyOp6
 70
     0
102
RTVSPropertyOp7
 70
     0
102
RTVSPropertyOp8
 70
     0
102
RTVSPropertyOp9
 70
     0
102
RTVSPropertyOp10
 70
     0
102
RTVSPropertyOp11
 70
     0
102
RTVSPropertyOp12
 70
     0
102
RTVSPropertyOp13
 70
     0
102
RTVSPropertyOp14
 70
     2
102
RTVSPropertyOp15
 70
     0
102
RTVSPropertyOp16
 70
     0
102
RTVSPropertyOp17
 70
     0
102
RTVSPropertyOp18
 70
     0
102
RTVSPropertyOp19
 70
     0
102
RTVSPropertyOp20
 70
     0
102
RTVSPropertyOp21
 70
     0
102
RTVSPropertyOp22
 70
     0
102
RTVSPropertyOp23
 70
     0
102
RTVSPropertyOp24
 70
     0
102
RTVSPropertyOp25
 70
     0
102
RTVSPropertyOp26
 70
     0
102
RTVSPropertyOp27
 70
     0
  0
XRECORD
  5
1D9C
102
{ACAD_REACTORS
330
1D9B
102
}
330
1D9B
100
AcDbXrecord
280
     1
102
RTVSPropertyOp0
 70
     1
102
RTVSPropertyOp1
 70
     1
102
RTVSPropertyOp2
 70
     1
102
RTVSPropertyOp3
 70
     1
102
RTVSPropertyOp4
 70
     1
102
RTVSPropertyOp5
 70
     1
102
RTVSPropertyOp6
 70
     1
102
RTVSPropertyOp7
 70
     1
102
RTVSPropertyOp8
 70
     1
102
RTVSPropertyOp9
 70
     1
102
RTVSPropertyOp10
 70
     1
102
RTVSPropertyOp11
 70
     1
102
RTVSPropertyOp12
 70
     1
102
RTVSPropertyOp13
 70
     1
102
RTVSPropertyOp14
 70
     1
102
RTVSPropertyOp15
 70
     1
102
RTVSPropertyOp16
 70
     1
102
RTVSPropertyOp17
 70
     1
102
RTVSPropertyOp18
 70
     1
102
RTVSPropertyOp19
 70
     1
102
RTVSPropertyOp20
 70
     1
102
RTVSPropertyOp21
 70
     1
102
RTVSPropertyOp22
 70
     1
102
RTVSPropertyOp23
 70
     1
102
RTVSPropertyOp24
 70
     1
102
RTVSPropertyOp25
 70
     1
102
RTVSPropertyOp26
 70
     1
102
RTVSPropertyOp27
 70
     1
  0
XRECORD
  5
1D80
102
{ACAD_REACTORS
330
1D7F
102
}
330
1D7F
100
AcDbXrecord
280
     1
102
RTVSPropertyOp0
 70
     1
102
RTVSPropertyOp1
 70
     1
102
RTVSPropertyOp2
 70
     1
102
RTVSPropertyOp3
 70
     1
102
RTVSPropertyOp4
 70
     1
102
RTVSPropertyOp5
 70
     1
102
RTVSPropertyOp6
 70
     1
102
RTVSPropertyOp7
 70
     1
102
RTVSPropertyOp8
 70
     1
102
RTVSPropertyOp9
 70
     1
102
RTVSPropertyOp10
 70
     1
102
RTVSPropertyOp11
 70
     1
102
RTVSPropertyOp12
 70
     1
102
RTVSPropertyOp13
 70
     1
102
RTVSPropertyOp14
 70
     1
102
RTVSPropertyOp15
 70
     1
102
RTVSPropertyOp16
 70
     1
102
RTVSPropertyOp17
 70
     1
102
RTVSPropertyOp18
 70
     1
102
RTVSPropertyOp19
 70
     1
102
RTVSPropertyOp20
 70
     1
102
RTVSPropertyOp21
 70
     1
102
RTVSPropertyOp22
 70
     1
102
RTVSPropertyOp23
 70
     1
102
RTVSPropertyOp24
 70
     1
102
RTVSPropertyOp25
 70
     1
102
RTVSPropertyOp26
 70
     1
102
RTVSPropertyOp27
 70
     1
  0
XRECORD
  5
1D82
102
{ACAD_REACTORS
330
1D81
102
}
330
1D81
100
AcDbXrecord
280
     1
102
RTVSPropertyOp0
 70
     1
102
RTVSPropertyOp1
 70
     1
102
RTVSPropertyOp2
 70
     1
102
RTVSPropertyOp3
 70
     1
102
RTVSPropertyOp4
 70
     1
102
RTVSPropertyOp5
 70
     1
102
RTVSPropertyOp6
 70
     1
102
RTVSPropertyOp7
 70
     1
102
RTVSPropertyOp8
 70
     1
102
RTVSPropertyOp9
 70
     1
102
RTVSPropertyOp10
 70
     1
102
RTVSPropertyOp11
 70
     1
102
RTVSPropertyOp12
 70
     1
102
RTVSPropertyOp13
 70
     1
102
RTVSPropertyOp14
 70
     1
102
RTVSPropertyOp15
 70
     1
102
RTVSPropertyOp16
 70
     1
102
RTVSPropertyOp17
 70
     1
102
RTVSPropertyOp18
 70
     1
102
RTVSPropertyOp19
 70
     1
102
RTVSPropertyOp20
 70
     1
102
RTVSPropertyOp21
 70
     1
102
RTVSPropertyOp22
 70
     1
102
RTVSPropertyOp23
 70
     1
102
RTVSPropertyOp24
 70
     1
102
RTVSPropertyOp25
 70
     1
102
RTVSPropertyOp26
 70
     1
102
RTVSPropertyOp27
 70
     1
  0
XRECORD
  5
1D84
102
{ACAD_REACTORS
330
1D83
102
}
330
1D83
100
AcDbXrecord
280
     1
102
RTVSPropertyOp0
 70
     1
102
RTVSPropertyOp1
 70
     1
102
RTVSPropertyOp2
 70
     1
102
RTVSPropertyOp3
 70
     1
102
RTVSPropertyOp4
 70
     1
102
RTVSPropertyOp5
 70
     1
102
RTVSPropertyOp6
 70
     1
102
RTVSPropertyOp7
 70
     1
102
RTVSPropertyOp8
 70
     1
102
RTVSPropertyOp9
 70
     1
102
RTVSPropertyOp10
 70
     1
102
RTVSPropertyOp11
 70
     1
102
RTVSPropertyOp12
 70
     1
102
RTVSPropertyOp13
 70
     1
102
RTVSPropertyOp14
 70
     1
102
RTVSPropertyOp15
 70
     1
102
RTVSPropertyOp16
 70
     1
102
RTVSPropertyOp17
 70
     1
102
RTVSPropertyOp18
 70
     1
102
RTVSPropertyOp19
 70
     1
102
RTVSPropertyOp20
 70
     1
102
RTVSPropertyOp21
 70
     1
102
RTVSPropertyOp22
 70
     1
102
RTVSPropertyOp23
 70
     1
102
RTVSPropertyOp24
 70
     1
102
RTVSPropertyOp25
 70
     1
102
RTVSPropertyOp26
 70
     1
102
RTVSPropertyOp27
 70
     1
  0
XRECORD
  5
1D86
102
{ACAD_REACTORS
330
1D85
102
}
330
1D85
100
AcDbXrecord
280
     1
102
RTVSPropertyOp0
 70
     1
102
RTVSPropertyOp1
 70
     1
102
RTVSPropertyOp2
 70
     1
102
RTVSPropertyOp3
 70
     1
102
RTVSPropertyOp4
 70
     1
102
RTVSPropertyOp5
 70
     1
102
RTVSPropertyOp6
 70
     1
102
RTVSPropertyOp7
 70
     1
102
RTVSPropertyOp8
 70
     1
102
RTVSPropertyOp9
 70
     1
102
RTVSPropertyOp10
 70
     1
102
RTVSPropertyOp11
 70
     1
102
RTVSPropertyOp12
 70
     1
102
RTVSPropertyOp13
 70
     1
102
RTVSPropertyOp14
 70
     1
102
RTVSPropertyOp15
 70
     1
102
RTVSPropertyOp16
 70
     1
102
RTVSPropertyOp17
 70
     1
102
RTVSPropertyOp18
 70
     1
102
RTVSPropertyOp19
 70
     1
102
RTVSPropertyOp20
 70
     1
102
RTVSPropertyOp21
 70
     1
102
RTVSPropertyOp22
 70
     1
102
RTVSPropertyOp23
 70
     1
102
RTVSPropertyOp24
 70
     1
102
RTVSPropertyOp25
 70
     1
102
RTVSPropertyOp26
 70
     1
102
RTVSPropertyOp27
 70
     1
  0
XRECORD
  5
1D8E
102
{ACAD_REACTORS
330
1D8D
102
}
330
1D8D
100
AcDbXrecord
280
     1
102
RTVSPropertyOp0
 70
     1
102
RTVSPropertyOp1
 70
     1
102
RTVSPropertyOp2
 70
     1
102
RTVSPropertyOp3
 70
     1
102
RTVSPropertyOp4
 70
     1
102
RTVSPropertyOp5
 70
     1
102
RTVSPropertyOp6
 70
     1
102
RTVSPropertyOp7
 70
     1
102
RTVSPropertyOp8
 70
     1
102
RTVSPropertyOp9
 70
     1
102
RTVSPropertyOp10
 70
     1
102
RTVSPropertyOp11
 70
     1
102
RTVSPropertyOp12
 70
     1
102
RTVSPropertyOp13
 70
     1
102
RTVSPropertyOp14
 70
     1
102
RTVSPropertyOp15
 70
     1
102
RTVSPropertyOp16
 70
     1
102
RTVSPropertyOp17
 70
     1
102
RTVSPropertyOp18
 70
     1
102
RTVSPropertyOp19
 70
     1
102
RTVSPropertyOp20
 70
     1
102
RTVSPropertyOp21
 70
     1
102
RTVSPropertyOp22
 70
     1
102
RTVSPropertyOp23
 70
     1
102
RTVSPropertyOp24
 70
     1
102
RTVSPropertyOp25
 70
     1
102
RTVSPropertyOp26
 70
     1
102
RTVSPropertyOp27
 70
     1
  0
XRECORD
  5
1DAA
102
{ACAD_REACTORS
330
1DA9
102
}
330
1DA9
100
AcDbXrecord
280
     1
102
RTVSPropertyOp0
 70
     0
102
RTVSPropertyOp1
 70
     0
102
RTVSPropertyOp2
 70
     0
102
RTVSPropertyOp3
 70
     0
102
RTVSPropertyOp4
 70
     0
102
RTVSPropertyOp5
 70
     0
102
RTVSPropertyOp6
 70
     0
102
RTVSPropertyOp7
 70
     0
102
RTVSPropertyOp8
 70
     0
102
RTVSPropertyOp9
 70
     0
102
RTVSPropertyOp10
 70
     0
102
RTVSPropertyOp11
 70
     0
102
RTVSPropertyOp12
 70
     0
102
RTVSPropertyOp13
 70
     0
102
RTVSPropertyOp14
 70
     2
102
RTVSPropertyOp15
 70
     0
102
RTVSPropertyOp16
 70
     0
102
RTVSPropertyOp17
 70
     0
102
RTVSPropertyOp18
 70
     0
102
RTVSPropertyOp19
 70
     0
102
RTVSPropertyOp20
 70
     0
102
RTVSPropertyOp21
 70
     0
102
RTVSPropertyOp22
 70
     0
102
RTVSPropertyOp23
 70
     0
102
RTVSPropertyOp24
 70
     0
102
RTVSPropertyOp25
 70
     0
102
RTVSPropertyOp26
 70
     0
102
RTVSPropertyOp27
 70
     0
  0
XRECORD
  5
1D9A
102
{ACAD_REACTORS
330
1D99
102
}
330
1D99
100
AcDbXrecord
280
     1
102
RTVSPropertyOp0
 70
     1
102
RTVSPropertyOp1
 70
     1
102
RTVSPropertyOp2
 70
     1
102
RTVSPropertyOp3
 70
     1
102
RTVSPropertyOp4
 70
     1
102
RTVSPropertyOp5
 70
     1
102
RTVSPropertyOp6
 70
     1
102
RTVSPropertyOp7
 70
     1
102
RTVSPropertyOp8
 70
     1
102
RTVSPropertyOp9
 70
     1
102
RTVSPropertyOp10
 70
     1
102
RTVSPropertyOp11
 70
     1
102
RTVSPropertyOp12
 70
     1
102
RTVSPropertyOp13
 70
     1
102
RTVSPropertyOp14
 70
     1
102
RTVSPropertyOp15
 70
     1
102
RTVSPropertyOp16
 70
     1
102
RTVSPropertyOp17
 70
     1
102
RTVSPropertyOp18
 70
     1
102
RTVSPropertyOp19
 70
     1
102
RTVSPropertyOp20
 70
     1
102
RTVSPropertyOp21
 70
     1
102
RTVSPropertyOp22
 70
     1
102
RTVSPropertyOp23
 70
     1
102
RTVSPropertyOp24
 70
     1
102
RTVSPropertyOp25
 70
     1
102
RTVSPropertyOp26
 70
     1
102
RTVSPropertyOp27
 70
     1
  0
XRECORD
  5
1DAC
102
{ACAD_REACTORS
330
1DAB
102
}
330
1DAB
100
AcDbXrecord
280
     1
102
RTVSPropertyOp0
 70
     0
102
RTVSPropertyOp1
 70
     0
102
RTVSPropertyOp2
 70
     0
102
RTVSPropertyOp3
 70
     0
102
RTVSPropertyOp4
 70
     0
102
RTVSPropertyOp5
 70
     0
102
RTVSPropertyOp6
 70
     0
102
RTVSPropertyOp7
 70
     0
102
RTVSPropertyOp8
 70
     0
102
RTVSPropertyOp9
 70
     0
102
RTVSPropertyOp10
 70
     0
102
RTVSPropertyOp11
 70
     0
102
RTVSPropertyOp12
 70
     0
102
RTVSPropertyOp13
 70
     0
102
RTVSPropertyOp14
 70
     2
102
RTVSPropertyOp15
 70
     0
102
RTVSPropertyOp16
 70
     0
102
RTVSPropertyOp17
 70
     0
102
RTVSPropertyOp18
 70
     0
102
RTVSPropertyOp19
 70
     0
102
RTVSPropertyOp20
 70
     0
102
RTVSPropertyOp21
 70
     0
102
RTVSPropertyOp22
 70
     0
102
RTVSPropertyOp23
 70
     0
102
RTVSPropertyOp24
 70
     0
102
RTVSPropertyOp25
 70
     0
102
RTVSPropertyOp26
 70
     0
102
RTVSPropertyOp27
 70
     0
  0
XRECORD
  5
1D92
102
{ACAD_REACTORS
330
1D91
102
}
330
1D91
100
AcDbXrecord
280
     1
102
RTVSPropertyOp0
 70
     1
102
RTVSPropertyOp1
 70
     1
102
RTVSPropertyOp2
 70
     1
102
RTVSPropertyOp3
 70
     1
102
RTVSPropertyOp4
 70
     1
102
RTVSPropertyOp5
 70
     1
102
RTVSPropertyOp6
 70
     1
102
RTVSPropertyOp7
 70
     1
102
RTVSPropertyOp8
 70
     1
102
RTVSPropertyOp9
 70
     1
102
RTVSPropertyOp10
 70
     1
102
RTVSPropertyOp11
 70
     1
102
RTVSPropertyOp12
 70
     1
102
RTVSPropertyOp13
 70
     1
102
RTVSPropertyOp14
 70
     1
102
RTVSPropertyOp15
 70
     1
102
RTVSPropertyOp16
 70
     1
102
RTVSPropertyOp17
 70
     1
102
RTVSPropertyOp18
 70
     1
102
RTVSPropertyOp19
 70
     1
102
RTVSPropertyOp20
 70
     1
102
RTVSPropertyOp21
 70
     1
102
RTVSPropertyOp22
 70
     1
102
RTVSPropertyOp23
 70
     1
102
RTVSPropertyOp24
 70
     1
102
RTVSPropertyOp25
 70
     1
102
RTVSPropertyOp26
 70
     1
102
RTVSPropertyOp27
 70
     1
  0
XRECORD
  5
1DA8
102
{ACAD_REACTORS
330
1DA7
102
}
330
1DA7
100
AcDbXrecord
280
     1
102
RTVSPropertyOp0
 70
     1
102
RTVSPropertyOp1
 70
     1
102
RTVSPropertyOp2
 70
     1
102
RTVSPropertyOp3
 70
     1
102
RTVSPropertyOp4
 70
     1
102
RTVSPropertyOp5
 70
     1
102
RTVSPropertyOp6
 70
     1
102
RTVSPropertyOp7
 70
     1
102
RTVSPropertyOp8
 70
     1
102
RTVSPropertyOp9
 70
     1
102
RTVSPropertyOp10
 70
     1
102
RTVSPropertyOp11
 70
     1
102
RTVSPropertyOp12
 70
     1
102
RTVSPropertyOp13
 70
     1
102
RTVSPropertyOp14
 70
     1
102
RTVSPropertyOp15
 70
     1
102
RTVSPropertyOp16
 70
     1
102
RTVSPropertyOp17
 70
     1
102
RTVSPropertyOp18
 70
     1
102
RTVSPropertyOp19
 70
     1
102
RTVSPropertyOp20
 70
     1
102
RTVSPropertyOp21
 70
     1
102
RTVSPropertyOp22
 70
     1
102
RTVSPropertyOp23
 70
     1
102
RTVSPropertyOp24
 70
     1
102
RTVSPropertyOp25
 70
     1
102
RTVSPropertyOp26
 70
     1
102
RTVSPropertyOp27
 70
     1
  0
XRECORD
  5
1DA6
102
{ACAD_REACTORS
330
1DA5
102
}
330
1DA5
100
AcDbXrecord
280
     1
102
RTVSPropertyOp0
 70
     1
102
RTVSPropertyOp1
 70
     1
102
RTVSPropertyOp2
 70
     1
102
RTVSPropertyOp3
 70
     1
102
RTVSPropertyOp4
 70
     1
102
RTVSPropertyOp5
 70
     1
102
RTVSPropertyOp6
 70
     1
102
RTVSPropertyOp7
 70
     1
102
RTVSPropertyOp8
 70
     1
102
RTVSPropertyOp9
 70
     1
102
RTVSPropertyOp10
 70
     1
102
RTVSPropertyOp11
 70
     1
102
RTVSPropertyOp12
 70
     1
102
RTVSPropertyOp13
 70
     1
102
RTVSPropertyOp14
 70
     1
102
RTVSPropertyOp15
 70
     1
102
RTVSPropertyOp16
 70
     1
102
RTVSPropertyOp17
 70
     1
102
RTVSPropertyOp18
 70
     1
102
RTVSPropertyOp19
 70
     1
102
RTVSPropertyOp20
 70
     1
102
RTVSPropertyOp21
 70
     1
102
RTVSPropertyOp22
 70
     1
102
RTVSPropertyOp23
 70
     1
102
RTVSPropertyOp24
 70
     1
102
RTVSPropertyOp25
 70
     1
102
RTVSPropertyOp26
 70
     1
102
RTVSPropertyOp27
 70
     1
  0
XRECORD
  5
1DA0
102
{ACAD_REACTORS
330
1D9F
102
}
330
1D9F
100
AcDbXrecord
280
     1
102
RTVSPropertyOp0
 70
     1
102
RTVSPropertyOp1
 70
     1
102
RTVSPropertyOp2
 70
     1
102
RTVSPropertyOp3
 70
     1
102
RTVSPropertyOp4
 70
     1
102
RTVSPropertyOp5
 70
     1
102
RTVSPropertyOp6
 70
     1
102
RTVSPropertyOp7
 70
     1
102
RTVSPropertyOp8
 70
     1
102
RTVSPropertyOp9
 70
     1
102
RTVSPropertyOp10
 70
     1
102
RTVSPropertyOp11
 70
     1
102
RTVSPropertyOp12
 70
     1
102
RTVSPropertyOp13
 70
     1
102
RTVSPropertyOp14
 70
     1
102
RTVSPropertyOp15
 70
     1
102
RTVSPropertyOp16
 70
     1
102
RTVSPropertyOp17
 70
     1
102
RTVSPropertyOp18
 70
     1
102
RTVSPropertyOp19
 70
     1
102
RTVSPropertyOp20
 70
     1
102
RTVSPropertyOp21
 70
     1
102
RTVSPropertyOp22
 70
     1
102
RTVSPropertyOp23
 70
     1
102
RTVSPropertyOp24
 70
     1
102
RTVSPropertyOp25
 70
     1
102
RTVSPropertyOp26
 70
     1
102
RTVSPropertyOp27
 70
     1
  0
XRECORD
  5
1DA2
102
{ACAD_REACTORS
330
1DA1
102
}
330
1DA1
100
AcDbXrecord
280
     1
102
RTVSPropertyOp0
 70
     1
102
RTVSPropertyOp1
 70
     1
102
RTVSPropertyOp2
 70
     1
102
RTVSPropertyOp3
 70
     1
102
RTVSPropertyOp4
 70
     1
102
RTVSPropertyOp5
 70
     1
102
RTVSPropertyOp6
 70
     1
102
RTVSPropertyOp7
 70
     1
102
RTVSPropertyOp8
 70
     1
102
RTVSPropertyOp9
 70
     1
102
RTVSPropertyOp10
 70
     1
102
RTVSPropertyOp11
 70
     1
102
RTVSPropertyOp12
 70
     1
102
RTVSPropertyOp13
 70
     1
102
RTVSPropertyOp14
 70
     1
102
RTVSPropertyOp15
 70
     1
102
RTVSPropertyOp16
 70
     1
102
RTVSPropertyOp17
 70
     1
102
RTVSPropertyOp18
 70
     1
102
RTVSPropertyOp19
 70
     1
102
RTVSPropertyOp20
 70
     1
102
RTVSPropertyOp21
 70
     1
102
RTVSPropertyOp22
 70
     1
102
RTVSPropertyOp23
 70
     1
102
RTVSPropertyOp24
 70
     1
102
RTVSPropertyOp25
 70
     1
102
RTVSPropertyOp26
 70
     1
102
RTVSPropertyOp27
 70
     1
  0
XRECORD
  5
1D98
102
{ACAD_REACTORS
330
1D97
102
}
330
1D97
100
AcDbXrecord
280
     1
102
RTVSPropertyOp0
 70
     1
102
RTVSPropertyOp1
 70
     1
102
RTVSPropertyOp2
 70
     1
102
RTVSPropertyOp3
 70
     1
102
RTVSPropertyOp4
 70
     1
102
RTVSPropertyOp5
 70
     1
102
RTVSPropertyOp6
 70
     1
102
RTVSPropertyOp7
 70
     1
102
RTVSPropertyOp8
 70
     1
102
RTVSPropertyOp9
 70
     1
102
RTVSPropertyOp10
 70
     1
102
RTVSPropertyOp11
 70
     1
102
RTVSPropertyOp12
 70
     1
102
RTVSPropertyOp13
 70
     1
102
RTVSPropertyOp14
 70
     1
102
RTVSPropertyOp15
 70
     1
102
RTVSPropertyOp16
 70
     1
102
RTVSPropertyOp17
 70
     1
102
RTVSPropertyOp18
 70
     1
102
RTVSPropertyOp19
 70
     1
102
RTVSPropertyOp20
 70
     1
102
RTVSPropertyOp21
 70
     1
102
RTVSPropertyOp22
 70
     1
102
RTVSPropertyOp23
 70
     1
102
RTVSPropertyOp24
 70
     1
102
RTVSPropertyOp25
 70
     1
102
RTVSPropertyOp26
 70
     1
102
RTVSPropertyOp27
 70
     1
  0
XRECORD
  5
1D8C
102
{ACAD_REACTORS
330
1D8B
102
}
330
1D8B
100
AcDbXrecord
280
     1
102
RTVSPropertyOp0
 70
     1
102
RTVSPropertyOp1
 70
     1
102
RTVSPropertyOp2
 70
     1
102
RTVSPropertyOp3
 70
     1
102
RTVSPropertyOp4
 70
     1
102
RTVSPropertyOp5
 70
     1
102
RTVSPropertyOp6
 70
     1
102
RTVSPropertyOp7
 70
     1
102
RTVSPropertyOp8
 70
     1
102
RTVSPropertyOp9
 70
     1
102
RTVSPropertyOp10
 70
     1
102
RTVSPropertyOp11
 70
     1
102
RTVSPropertyOp12
 70
     1
102
RTVSPropertyOp13
 70
     1
102
RTVSPropertyOp14
 70
     1
102
RTVSPropertyOp15
 70
     1
102
RTVSPropertyOp16
 70
     1
102
RTVSPropertyOp17
 70
     1
102
RTVSPropertyOp18
 70
     1
102
RTVSPropertyOp19
 70
     1
102
RTVSPropertyOp20
 70
     1
102
RTVSPropertyOp21
 70
     1
102
RTVSPropertyOp22
 70
     1
102
RTVSPropertyOp23
 70
     1
102
RTVSPropertyOp24
 70
     1
102
RTVSPropertyOp25
 70
     1
102
RTVSPropertyOp26
 70
     1
102
RTVSPropertyOp27
 70
     1
  0
XRECORD
  5
1DA4
102
{ACAD_REACTORS
330
1DA3
102
}
330
1DA3
100
AcDbXrecord
280
     1
102
RTVSPropertyOp0
 70
     1
102
RTVSPropertyOp1
 70
     1
102
RTVSPropertyOp2
 70
     1
102
RTVSPropertyOp3
 70
     1
102
RTVSPropertyOp4
 70
     1
102
RTVSPropertyOp5
 70
     1
102
RTVSPropertyOp6
 70
     1
102
RTVSPropertyOp7
 70
     1
102
RTVSPropertyOp8
 70
     1
102
RTVSPropertyOp9
 70
     1
102
RTVSPropertyOp10
 70
     1
102
RTVSPropertyOp11
 70
     1
102
RTVSPropertyOp12
 70
     1
102
RTVSPropertyOp13
 70
     1
102
RTVSPropertyOp14
 70
     1
102
RTVSPropertyOp15
 70
     1
102
RTVSPropertyOp16
 70
     1
102
RTVSPropertyOp17
 70
     1
102
RTVSPropertyOp18
 70
     1
102
RTVSPropertyOp19
 70
     1
102
RTVSPropertyOp20
 70
     1
102
RTVSPropertyOp21
 70
     1
102
RTVSPropertyOp22
 70
     1
102
RTVSPropertyOp23
 70
     1
102
RTVSPropertyOp24
 70
     1
102
RTVSPropertyOp25
 70
     1
102
RTVSPropertyOp26
 70
     1
102
RTVSPropertyOp27
 70
     1
  0
ENDSEC
  0
EOF
