  0
SECTION
  2
HEADER
  9
$ACADVER
  1
AC1018
  9
$ACADMAINTVER
 70
   104
  9
$DWGCODEPAGE
  3
ANSI_1250
  9
$AUTHOR
  1
pmacoun
  9
$LASTSAVEDBY
  1
onovak
  9
$REVISIONNUMBER
  1
000
  9
$CUSTOMPROPERTYTAG
  1
Vedoucí
  9
$CUSTOMPROPERTY
  1

  9
$CUSTOMPROPERTYTAG
  1
Společnost
  9
$CUSTOMPROPERTY
  1

  9
$CUSTOMPROPERTYTAG
  1
Kategorie
  9
$CUSTOMPROPERTY
  1

  9
$CUSTOMPROPERTYTAG
  1
Číslo součásti
  9
$CUSTOMPROPERTY
  1
414746
  9
$CUSTOMPROPERTYTAG
  1
Popis
  9
$CUSTOMPROPERTY
  1

  9
$CUSTOMPROPERTYTAG
  1
Projekt
  9
$CUSTOMPROPERTY
  1

  9
$CUSTOMPROPERTYTAG
  1
Kreslil
  9
$CUSTOMPROPERTY
  1
pmacoun
  9
$CUSTOMPROPERTYTAG
  1
Schválil
  9
$CUSTOMPROPERTY
  1

  9
$CUSTOMPROPERTYTAG
  1
Zodpovídá
  9
$CUSTOMPROPERTY
  1

  9
$CUSTOMPROPERTYTAG
  1
Nákladové středisko
  9
$CUSTOMPROPERTY
  1

  9
$CUSTOMPROPERTYTAG
  1
Dodavatel
  9
$CUSTOMPROPERTY
  1

  9
$CUSTOMPROPERTYTAG
  1
Uživatelský stav
  9
$CUSTOMPROPERTY
  1

  9
$CUSTOMPROPERTYTAG
  1
Stav návrhu
  9
$CUSTOMPROPERTY
  1
Rozpracováno
  9
$CUSTOMPROPERTYTAG
  1
Zkontroloval
  9
$CUSTOMPROPERTY
  1

  9
$CUSTOMPROPERTYTAG
  1
Techn. kontr. schválil
  9
$CUSTOMPROPERTY
  1

  9
$CUSTOMPROPERTYTAG
  1
Výrobu schválil
  9
$CUSTOMPROPERTY
  1

  9
$CUSTOMPROPERTYTAG
  1
VS_First
  9
$CUSTOMPROPERTY
  1

  9
$CUSTOMPROPERTYTAG
  1
VS_All
  9
$CUSTOMPROPERTY
  1
1:1,
  9
$CUSTOMPROPERTYTAG
  1
Model_Mass_Value
  9
$CUSTOMPROPERTY
  1
,0
  9
$CUSTOMPROPERTYTAG
  1
Model_Mass_Units
  9
$CUSTOMPROPERTY
  1
kg
  9
$CUSTOMPROPERTYTAG
  1
Model_Area_Value
  9
$CUSTOMPROPERTY
  1
2694,0
  9
$CUSTOMPROPERTYTAG
  1
Model_Area_Units
  9
$CUSTOMPROPERTY
  1
mm˛
  9
$CUSTOMPROPERTYTAG
  1
Model_Volume_Value
  9
$CUSTOMPROPERTY
  1
5471,0
  9
$CUSTOMPROPERTYTAG
  1
Model_Volume_Units
  9
$CUSTOMPROPERTY
  1
mmł
  9
$CUSTOMPROPERTYTAG
  1
Model_CogX_Value
  9
$CUSTOMPROPERTY
  1
,0
  9
$CUSTOMPROPERTYTAG
  1
Model_CogY_Value
  9
$CUSTOMPROPERTY
  1
,0
  9
$CUSTOMPROPERTYTAG
  1
Model_CogZ_Value
  9
$CUSTOMPROPERTY
  1
,0
  9
$CUSTOMPROPERTYTAG
  1
Model_Cog_Units
  9
$CUSTOMPROPERTY
  1
mm
  9
$CUSTOMPROPERTYTAG
  1
Model_Ixx_Value
  9
$CUSTOMPROPERTY
  1
,0
  9
$CUSTOMPROPERTYTAG
  1
Model_Iyy_Value
  9
$CUSTOMPROPERTY
  1
,0
  9
$CUSTOMPROPERTYTAG
  1
Model_Izz_Value
  9
$CUSTOMPROPERTY
  1
,0
  9
$CUSTOMPROPERTYTAG
  1
Model_Ixy_Value
  9
$CUSTOMPROPERTY
  1
,0
  9
$CUSTOMPROPERTYTAG
  1
Model_Iyz_Value
  9
$CUSTOMPROPERTY
  1
,0
  9
$CUSTOMPROPERTYTAG
  1
Model_Ixz_Value
  9
$CUSTOMPROPERTY
  1
,0
  9
$CUSTOMPROPERTYTAG
  1
Model_MassMom_Units
  9
$CUSTOMPROPERTY
  1
kg mm˛
  9
$CUSTOMPROPERTYTAG
  1
FirstViewScale
  9
$CUSTOMPROPERTY
  1

  9
$CUSTOMPROPERTYTAG
  1
AllViewScales
  9
$CUSTOMPROPERTY
  1

  9
$CUSTOMPROPERTYTAG
  1
SaveDate
  9
$CUSTOMPROPERTY
  1
09/12/2007
  9
$CUSTOMPROPERTYTAG
  1
SaveTime
  9
$CUSTOMPROPERTY
  1
10:32
  9
$CUSTOMPROPERTYTAG
  1
PaperSize
  9
$CUSTOMPROPERTY
  1
A3
  9
$CUSTOMPROPERTYTAG
  1
DateSaved
  9
$CUSTOMPROPERTY
  1
12.09.2007
  9
$CUSTOMPROPERTYTAG
  1
TimeSaved
  9
$CUSTOMPROPERTY
  1
10:32 dop.
  9
$INSBASE
 10
0.0
 20
0.0
 30
0.0
  9
$EXTMIN
 10
90.83359005725197
 20
79.98047047292402
 30
-0.0000000000112498
  9
$EXTMAX
 10
498.1723039785542
 20
638.604737886466
 30
0.0000000000002956
  9
$LIMMIN
 10
0.0
 20
0.0
  9
$LIMMAX
 10
990.0
 20
700.0
  9
$ORTHOMODE
 70
     0
  9
$REGENMODE
 70
     1
  9
$FILLMODE
 70
     1
  9
$QTEXTMODE
 70
     0
  9
$MIRRTEXT
 70
     0
  9
$LTSCALE
 40
1.666666666666666
  9
$ATTMODE
 70
     1
  9
$TEXTSIZE
 40
0.2
  9
$TRACEWID
 40
0.05
  9
$TEXTSTYLE
  7
Standard
  9
$CLAYER
  8
0
  9
$CELTYPE
  6
ByLayer
  9
$CECOLOR
 62
   256
  9
$CELTSCALE
 40
1.0
  9
$DISPSILH
 70
     0
  9
$DIMSCALE
 40
1.0
  9
$DIMASZ
 40
1.799999999999999
  9
$DIMEXO
 40
0.0625
  9
$DIMDLI
 40
0.38
  9
$DIMRND
 40
0.0
  9
$DIMDLE
 40
0.0
  9
$DIMEXE
 40
0.18
  9
$DIMTP
 40
0.0
  9
$DIMTM
 40
0.0
  9
$DIMTXT
 40
0.3499999940395355
  9
$DIMCEN
 40
0.09
  9
$DIMTSZ
 40
0.0
  9
$DIMTOL
 70
     0
  9
$DIMLIM
 70
     0
  9
$DIMTIH
 70
     1
  9
$DIMTOH
 70
     1
  9
$DIMSE1
 70
     0
  9
$DIMSE2
 70
     0
  9
$DIMTAD
 70
     0
  9
$DIMZIN
 70
     0
  9
$DIMBLK
  1

  9
$DIMASO
 70
     1
  9
$DIMSHO
 70
     1
  9
$DIMPOST
  1

  9
$DIMAPOST
  1

  9
$DIMALT
 70
     0
  9
$DIMALTD
 70
     2
  9
$DIMALTF
 40
25.4
  9
$DIMLFAC
 40
1.0
  9
$DIMTOFL
 70
     0
  9
$DIMTVP
 40
0.0
  9
$DIMTIX
 70
     0
  9
$DIMSOXD
 70
     0
  9
$DIMSAH
 70
     0
  9
$DIMBLK1
  1

  9
$DIMBLK2
  1

  9
$DIMSTYLE
  2
Standard
  9
$DIMCLRD
 70
     0
  9
$DIMCLRE
 70
     0
  9
$DIMCLRT
 70
     0
  9
$DIMTFAC
 40
1.0
  9
$DIMGAP
 40
0.09
  9
$DIMJUST
 70
     0
  9
$DIMSD1
 70
     0
  9
$DIMSD2
 70
     0
  9
$DIMTOLJ
 70
     1
  9
$DIMTZIN
 70
     0
  9
$DIMALTZ
 70
     0
  9
$DIMALTTZ
 70
     0
  9
$DIMUPT
 70
     0
  9
$DIMDEC
 70
     4
  9
$DIMTDEC
 70
     4
  9
$DIMALTU
 70
     2
  9
$DIMALTTD
 70
     2
  9
$DIMTXSTY
  7
Standard
  9
$DIMAUNIT
 70
     0
  9
$DIMADEC
 70
     0
  9
$DIMALTRND
 40
0.0
  9
$DIMAZIN
 70
     0
  9
$DIMDSEP
 70
    46
  9
$DIMATFIT
 70
     3
  9
$DIMFRAC
 70
     0
  9
$DIMLDRBLK
  1

  9
$DIMLUNIT
 70
     2
  9
$DIMLWD
 70
    -2
  9
$DIMLWE
 70
    -2
  9
$DIMTMOVE
 70
     0
  9
$LUNITS
 70
     2
  9
$LUPREC
 70
     2
  9
$SKETCHINC
 40
0.1
  9
$FILLETRAD
 40
0.0
  9
$AUNITS
 70
     0
  9
$AUPREC
 70
     0
  9
$MENU
  1
.
  9
$ELEVATION
 40
0.0
  9
$PELEVATION
 40
0.0
  9
$THICKNESS
 40
0.0
  9
$LIMCHECK
 70
     0
  9
$CHAMFERA
 40
0.0
  9
$CHAMFERB
 40
0.0
  9
$CHAMFERC
 40
0.0
  9
$CHAMFERD
 40
0.0
  9
$SKPOLY
 70
     0
  9
$TDCREATE
 40
2456105.422445903
  9
$TDUCREATE
 40
2456105.339112570
  9
$TDUPDATE
 40
2456112.528628403
  9
$TDUUPDATE
 40
2456112.445295070
  9
$TDINDWG
 40
0.6759573148
  9
$TDUSRTIMER
 40
0.6759571296
  9
$USRTIMER
 70
     1
  9
$ANGBASE
 50
0.0
  9
$ANGDIR
 70
     0
  9
$PDMODE
 70
     0
  9
$PDSIZE
 40
0.0
  9
$PLINEWID
 40
0.0
  9
$SPLFRAME
 70
     0
  9
$SPLINETYPE
 70
     6
  9
$SPLINESEGS
 70
     8
  9
$HANDSEED
  5
166D
  9
$SURFTAB1
 70
     6
  9
$SURFTAB2
 70
     6
  9
$SURFTYPE
 70
     6
  9
$SURFU
 70
     6
  9
$SURFV
 70
     6
  9
$UCSBASE
  2

  9
$UCSNAME
  2

  9
$UCSORG
 10
0.0
 20
0.0
 30
0.0
  9
$UCSXDIR
 10
1.0
 20
0.0
 30
0.0
  9
$UCSYDIR
 10
0.0
 20
1.0
 30
0.0
  9
$UCSORTHOREF
  2

  9
$UCSORTHOVIEW
 70
     0
  9
$UCSORGTOP
 10
0.0
 20
0.0
 30
0.0
  9
$UCSORGBOTTOM
 10
0.0
 20
0.0
 30
0.0
  9
$UCSORGLEFT
 10
0.0
 20
0.0
 30
0.0
  9
$UCSORGRIGHT
 10
0.0
 20
0.0
 30
0.0
  9
$UCSORGFRONT
 10
0.0
 20
0.0
 30
0.0
  9
$UCSORGBACK
 10
0.0
 20
0.0
 30
0.0
  9
$PUCSBASE
  2

  9
$PUCSNAME
  2

  9
$PUCSORG
 10
0.0
 20
0.0
 30
0.0
  9
$PUCSXDIR
 10
1.0
 20
0.0
 30
0.0
  9
$PUCSYDIR
 10
0.0
 20
1.0
 30
0.0
  9
$PUCSORTHOREF
  2

  9
$PUCSORTHOVIEW
 70
     0
  9
$PUCSORGTOP
 10
0.0
 20
0.0
 30
0.0
  9
$PUCSORGBOTTOM
 10
0.0
 20
0.0
 30
0.0
  9
$PUCSORGLEFT
 10
0.0
 20
0.0
 30
0.0
  9
$PUCSORGRIGHT
 10
0.0
 20
0.0
 30
0.0
  9
$PUCSORGFRONT
 10
0.0
 20
0.0
 30
0.0
  9
$PUCSORGBACK
 10
0.0
 20
0.0
 30
0.0
  9
$USERI1
 70
     0
  9
$USERI2
 70
     0
  9
$USERI3
 70
     0
  9
$USERI4
 70
     0
  9
$USERI5
 70
     0
  9
$USERR1
 40
0.0
  9
$USERR2
 40
0.0
  9
$USERR3
 40
0.0
  9
$USERR4
 40
0.0
  9
$USERR5
 40
0.0
  9
$WORLDVIEW
 70
     1
  9
$SHADEDGE
 70
     3
  9
$SHADEDIF
 70
    70
  9
$TILEMODE
 70
     1
  9
$MAXACTVP
 70
    64
  9
$PINSBASE
 10
0.0
 20
0.0
 30
0.0
  9
$PLIMCHECK
 70
     0
  9
$PEXTMIN
 10
0.0
 20
0.0
 30
0.0
  9
$PEXTMAX
 10
990.0
 20
700.0
 30
0.0
  9
$PLIMMIN
 10
0.0
 20
0.0
  9
$PLIMMAX
 10
990.0
 20
700.0
  9
$UNITMODE
 70
     0
  9
$VISRETAIN
 70
     1
  9
$PLINEGEN
 70
     0
  9
$PSLTSCALE
 70
     1
  9
$TREEDEPTH
 70
  3020
  9
$CMLSTYLE
  2
Standard
  9
$CMLJUST
 70
     0
  9
$CMLSCALE
 40
1.0
  9
$PROXYGRAPHICS
 70
     1
  9
$MEASUREMENT
 70
     1
  9
$CELWEIGHT
370
    -1
  9
$ENDCAPS
280
     0
  9
$JOINSTYLE
280
     0
  9
$LWDISPLAY
290
     0
  9
$INSUNITS
 70
     4
  9
$HYPERLINKBASE
  1

  9
$STYLESHEET
  1

  9
$XEDIT
290
     1
  9
$CEPSNTYPE
380
     0
  9
$PSTYLEMODE
290
     1
  9
$FINGERPRINTGUID
  2
{A300926A-486F-4806-AE44-890182C9F924}
  9
$VERSIONGUID
  2
{503C62A5-0DF5-48DE-BA76-5BBE27F7D070}
  9
$EXTNAMES
290
     1
  9
$PSVPSCALE
 40
0.0
  9
$OLESTARTUP
290
     0
  9
$SORTENTS
280
   127
  9
$INDEXCTL
280
     0
  9
$HIDETEXT
280
     1
  9
$XCLIPFRAME
290
     0
  9
$HALOGAP
280
     0
  9
$OBSCOLOR
 70
   257
  9
$OBSLTYPE
280
     0
  9
$INTERSECTIONDISPLAY
280
     0
  9
$INTERSECTIONCOLOR
 70
   257
  9
$DIMASSOC
280
     1
  9
$PROJECTNAME
  1

  0
ENDSEC
  0
SECTION
  2
CLASSES
  0
CLASS
  1
ACDBDICTIONARYWDFLT
  2
AcDbDictionaryWithDefault
  3
ObjectDBX Classes
 90
        0
 91
        1
280
     0
281
     0
  0
CLASS
  1
MATERIAL
  2
AcDbMaterial
  3
ObjectDBX Classes
 90
     1153
 91
        3
280
     0
281
     0
  0
CLASS
  1
VISUALSTYLE
  2
AcDbVisualStyle
  3
ObjectDBX Classes
 90
     4095
 91
       26
280
     0
281
     0
  0
CLASS
  1
SCALE
  2
AcDbScale
  3
ObjectDBX Classes
 90
     1153
 91
       17
280
     0
281
     0
  0
CLASS
  1
TABLESTYLE
  2
AcDbTableStyle
  3
ObjectDBX Classes
 90
     4095
 91
        1
280
     0
281
     0
  0
CLASS
  1
MLEADERSTYLE
  2
AcDbMLeaderStyle
  3
ACDB_MLEADERSTYLE_CLASS
 90
     4095
 91
        1
280
     0
281
     0
  0
CLASS
  1
DICTIONARYVAR
  2
AcDbDictionaryVar
  3
ObjectDBX Classes
 90
        0
 91
       10
280
     0
281
     0
  0
CLASS
  1
ACME_DOCUMENT
  2
AcMeDbDoc
  3
AcMeServices
 90
     1024
 91
        1
280
     0
281
     0
  0
CLASS
  1
AMGSETTINGSOBJ
  2
AmgSettingsObj
  3
"AcadM|Product Description: AutoCAD Mechanical|Company: Autodesk, Inc."
 90
     1024
 91
        2
280
     0
281
     0
  0
CLASS
  1
ACMESCOPE
  2
AcMeScope
  3
AcMeServices
 90
     1024
 91
        1
280
     0
281
     0
  0
CLASS
  1
ACMECOMMANDHISTORY
  2
AcMeCommandHistory
  3
AcMeServices
 90
     1024
 91
        1
280
     0
281
     0
  0
CLASS
  1
ACIMSYSVARMAN
  2
AcImSysVarManager
  3
AcMeServices
 90
     1024
 91
        5
280
     0
281
     0
  0
CLASS
  1
ACIMINTSYSVAR
  2
AcImIntSysVar
  3
AcMeServices
 90
     1024
 91
       27
280
     0
281
     0
  0
CLASS
  1
ACMEDRAWINGMAN
  2
AcMeDrawingMan
  3
AcMeServices
 90
     1024
 91
        1
280
     0
281
     0
  0
CLASS
  1
ACMEVIEW
  2
AcMeView
  3
AcMeServices
 90
     1024
 91
        1
280
     0
281
     0
  0
CLASS
  1
ACDBENTITYCACHE
  2
AcMeEntityCache
  3
AcMeServices
 90
     1024
 91
        1
280
     0
281
     0
  0
CLASS
  1
ACMESTATEMGR
  2
AcMeStateMgr
  3
AcMeServices
 90
     1024
 91
        1
280
     0
281
     0
  0
CLASS
  1
ACGREFMASTER
  2
AcGrefMaster
  3
AcAttribServices
 90
     1024
 91
        1
280
     0
281
     0
  0
CLASS
  1
AM_DRAWING_MGR
  2
AcDmDwgMgr
  3
AcMechDwgViewMgmt
 90
     1024
 91
        1
280
     0
281
     0
  0
CLASS
  1
AM_DWG_DOCUMENT
  2
AcDmDwgDocument
  3
AcMechDwgViewMgmt
 90
     1024
 91
        1
280
     0
281
     0
  0
CLASS
  1
AM_DWG_SHEET
  2
AcDmSheet
  3
AcMechDwgViewMgmt
 90
     1024
 91
        2
280
     0
281
     0
  0
CLASS
  1
AM_VIEWDIMPARMAP
  2
AcDmViewDimParMap
  3
AcMechDwgViewMgmt
 90
     1024
 91
        2
280
     0
281
     0
  0
CLASS
  1
AMDTINTERNALREACTOR
  2
AmdtInternalReactor
  3
AcMeServices
 90
     1024
 91
        1
280
     0
281
     0
  0
CLASS
  1
ACIMREALSYSVAR
  2
AcImRealSysVar
  3
AcMeServices
 90
     1024
 91
        1
280
     0
281
     0
  0
CLASS
  1
AM_DWGMGR_NAME
  2
AcDmDwgMgrName
  3
AcMechDwgViewMgmt
 90
     1024
 91
        1
280
     0
281
     0
  0
CLASS
  1
ACME_DATABASE
  2
AcMeDbDatabase
  3
AcMeServices
 90
     1024
 91
        1
280
     0
281
     0
  0
CLASS
  1
ACRFINSADJUSTERMGR
  2
AcRfInsAdjusterMgr
  3
AcMeServices
 90
     1024
 91
        1
280
     0
281
     0
  0
CLASS
  1
ACGREFACADMASTER
  2
AcGrefacadMaster
  3
AcGrefServices
 90
     1024
 91
        1
280
     0
281
     0
  0
CLASS
  1
AMDTMENUSTATEMGR
  2
AmdtMenuStateMgr
  3
McadcomServices
 90
     1024
 91
        1
280
     0
281
     0
  0
CLASS
  1
AMDTMCOMMENUSTATE
  2
AmdtMcomMenuState
  3
McadcomServices
 90
     1024
 91
        1
280
     0
281
     0
  0
CLASS
  1
AMIMASTER
  2
AmiMaster
  3
AmiServices
 90
     1024
 91
        1
280
     0
281
     0
  0
CLASS
  1
MAPIAMMOUDLE
  2
MApiAmModule
  3
MApiAmServices
 90
     1024
 91
        1
280
     0
281
     0
  0
CLASS
  1
ACIMSTRSYSVAR
  2
AcImStrSysVar
  3
AcMeServices
 90
     1024
 91
        5
280
     0
281
     0
  0
CLASS
  1
AMDTADMENUSTATE
  2
AmdtAdMenuState
  3
DesignerServices
 90
     1024
 91
        1
280
     0
281
     0
  0
CLASS
  1
ADAPPL
  2
AcAdAppl
  3
DesignerServices
 90
     1024
 91
        1
280
     0
281
     0
  0
CLASS
  1
DEPMGR
  2
AcAdDepMgr
  3
DesignerServices
 90
     1024
 91
        1
280
     0
281
     0
  0
CLASS
  1
PARAMMGR
  2
AcAdParamMgr
  3
DesignerServices
 90
     1024
 91
        1
280
     0
281
     0
  0
CLASS
  1
PARAMSCOPE
  2
AcAdParamScope
  3
DesignerServices
 90
     1024
 91
        1
280
     0
281
     0
  0
CLASS
  1
NAMEDAPPL
  2
AcAdNamedAppl
  3
DesignerServices
 90
     1024
 91
        1
280
     0
281
     0
  0
CLASS
  1
AMDTDMMENUSTATE
  2
AmdtDmMenuState
  3
AcMechDwgViewMgmt
 90
     1024
 91
        1
280
     0
281
     0
  0
CLASS
  1
AMDTAMMENUSTATE
  2
AmdtAmMenuState
  3
DesignerAssemblies
 90
     1024
 91
        1
280
     0
281
     0
  0
CLASS
  1
ACAMPROJECT
  2
AcAmProject
  3
DesignerAssemblies
 90
     1024
 91
        1
280
     0
281
     0
  0
CLASS
  1
ACAMGRCOMPDEF
  2
AcAmGrCompDef
  3
DesignerAssemblies
 90
     1024
 91
        1
280
     0
281
     0
  0
CLASS
  1
ACAMCOMPDEF
  2
AcAmCompDef
  3
DesignerAssemblies
 90
     1024
 91
        1
280
     0
281
     0
  0
CLASS
  1
ACAMCOMPDEFMGR
  2
AcAmCompDefMgr
  3
DesignerAssemblies
 90
     1024
 91
        1
280
     0
281
     0
  0
CLASS
  1
AMCONTEXTMGR
  2
AcAmContextMgr
  3
DesignerAssemblies
 90
     1024
 91
        1
280
     0
281
     0
  0
CLASS
  1
ACAMCONTEXTMODELER
  2
AcAmContextModeler
  3
DesignerAssemblies
 90
     1024
 91
        1
280
     0
281
     0
  0
CLASS
  1
ACMDATADICTIONARY
  2
AcmDataDictionary
  3
"AcmSymBB|Product Description: AutoCAD Mechanical|Company: Autodesk, Inc."
 90
     1024
 91
        1
280
     0
281
     0
  0
CLASS
  1
CATALOGSTATE
  2
AcAmCatalogState
  3
DesignerAssemblies
 90
     1024
 91
        1
280
     0
281
     0
  0
CLASS
  1
ACAMGRCOMPDEFSET
  2
AcAmGrCompDefSet
  3
DesignerAssemblies
 90
     1024
 91
        1
280
     0
281
     0
  0
CLASS
  1
AMDTBROWSERDBTAB
  2
AmdtBrowserDbTab
  3
McadcomServices
 90
     1024
 91
        1
280
     0
281
     0
  0
CLASS
  1
CBROWSERAPPOBJECT
  2
CBrowserAppObject
  3
McadcomServices
 90
     1024
 91
        2
280
     0
281
     0
  0
CLASS
  1
DM_PLACEHOLDER
  2
AcDmSelsetPlaceholder
  3
AcMechDwgViewMgmt
 90
     1024
 91
        1
280
     0
281
     0
  0
CLASS
  1
ACMSTANDARDISO
  2
AcmStandardISO
  3
"Amdt_StdImp|Product Description: AutoCAD Mechanical|Company: Autodesk, Inc."
 90
     1024
 91
        1
280
     0
281
     0
  0
CLASS
  1
AMDTEDGESTANDARDISO13715
  2
AmdtEdgeStdISO13715
  3
"Amdt_StdImp|Product Description: AutoCAD Mechanical|Company: Autodesk, Inc."
 90
     1024
 91
        1
280
     0
281
     0
  0
CLASS
  1
ACMSURFSTANDARDISO2002
  2
AcmSurfTextStdISO2002
  3
"Amdt_StdImp|Product Description: AutoCAD Mechanical|Company: Autodesk, Inc."
 90
     1024
 91
        1
280
     0
281
     0
  0
CLASS
  1
ACMFCFSTANDARDISO
  2
AcmFCFStdISO
  3
"Amdt_StdImp|Product Description: AutoCAD Mechanical|Company: Autodesk, Inc."
 90
     1024
 91
        1
280
     0
281
     0
  0
CLASS
  1
ACMWELDSTANDARDISO
  2
AcmWeldingStdISO
  3
"Amdt_StdImp|Product Description: AutoCAD Mechanical|Company: Autodesk, Inc."
 90
     1024
 91
        1
280
     0
281
     0
  0
CLASS
  1
ACMIDSTANDARDISO
  2
AcmIdStdISO
  3
"Amdt_StdImp|Product Description: AutoCAD Mechanical|Company: Autodesk, Inc."
 90
     1024
 91
        1
280
     0
281
     0
  0
CLASS
  1
ACMDATUMSTANDARDISO
  2
AcmDatumStdISO
  3
"Amdt_StdImp|Product Description: AutoCAD Mechanical|Company: Autodesk, Inc."
 90
     1024
 91
        1
280
     0
281
     0
  0
CLASS
  1
ACMBOMSTANDARDISO
  2
AcmBOMStdISO
  3
"Amdt_StdImp|Product Description: AutoCAD Mechanical|Company: Autodesk, Inc."
 90
     1024
 91
        1
280
     0
281
     0
  0
CLASS
  1
ACMDETAILSTANDARDISO
  2
AmdtDetailSymStdISO
  3
"Amdt_StdImp|Product Description: AutoCAD Mechanical|Company: Autodesk, Inc."
 90
     1024
 91
        1
280
     0
281
     0
  0
CLASS
  1
ACMSECTIONSTANDARDISO2001
  2
AmdtSectionSymStdISO2001
  3
"Amdt_StdImp|Product Description: AutoCAD Mechanical|Company: Autodesk, Inc."
 90
     1024
 91
        1
280
     0
281
     0
  0
CLASS
  1
ACMCENTERLINESTANDARDISO
  2
AmdtCenterLineStdISO
  3
"Amdt_StdImp|Product Description: AutoCAD Mechanical|Company: Autodesk, Inc."
 90
     1024
 91
        1
280
     0
281
     0
  0
CLASS
  1
ACMTHREADLINESTANDARDISO
  2
AmdtThreadLineStdISO
  3
"Amdt_StdImp|Product Description: AutoCAD Mechanical|Company: Autodesk, Inc."
 90
     1024
 91
        1
280
     0
281
     0
  0
CLASS
  1
ACMNOTESTANDARDISO
  2
AmdtNoteStdISO
  3
"Amdt_StdImp|Product Description: AutoCAD Mechanical|Company: Autodesk, Inc."
 90
     1024
 91
        1
280
     0
281
     0
  0
CLASS
  1
ACMTAPERSTANDARDISO
  2
AcmTaperStdISO
  3
"Amdt_StdImp|Product Description: AutoCAD Mechanical|Company: Autodesk, Inc."
 90
     1024
 91
        1
280
     0
281
     0
  0
CLASS
  1
ACMANOOTATIONVIEWSTANDARDISO
  2
AmdtAnViewStdISO
  3
"Amdt_StdImp|Product Description: AutoCAD Mechanical|Company: Autodesk, Inc."
 90
     1024
 91
        1
280
     0
281
     0
  0
CLASS
  1
ACAMGLAYSTD
  2
AcAmgLayStd
  3
"AmgLay|Product Description: AutoCAD Mechanical|Company: Autodesk, Inc."
 90
     1024
 91
        1
280
     0
281
     0
  0
CLASS
  1
ACAMGDIMSTD
  2
AcAmgDimStd
  3
"AmgDim|Product Description: AutoCAD Mechanical|Company: Autodesk, Inc."
 90
     1024
 91
        1
280
     0
281
     0
  0
CLASS
  1
AMGOBJPROPCFG
  2
AmgObjPropCfg
  3
"AmgLay|Product Description: AutoCAD Mechanical|Company: Autodesk, Inc."
 90
     1025
 91
        1
280
     0
281
     0
  0
CLASS
  1
ACAMGHOLECHARTSTDISO
  2
AcAmgHoleChartStdISO
  3
AmgDim|Product Description: AutoCAD Mechanical|Company: Autodesk, Inc.
 90
     1024
 91
        1
280
     0
281
     0
  0
CLASS
  1
ACAMGTITLESTD
  2
AcAmgTitleStd
  3
"AmgTitle|Product Description: AutoCAD Mechanical|Company: Autodesk, Inc."
 90
     4095
 91
        1
280
     0
281
     0
  0
CLASS
  1
AMDTNOTETEMPLATEDB
  2
AmdtNoteTemplateDB
  3
AcmSymBB|Product Description: AutoCAD Mechanical|Company: Autodesk, Inc.
 90
     1024
 91
        6
280
     0
281
     0
  0
CLASS
  1
ACAMGFILTERDAT
  2
AcAmgFilterDat
  3
"AcadM|Product Description: AutoCAD Mechanical|Company: Autodesk, Inc."
 90
     1024
 91
        0
280
     0
281
     0
  0
CLASS
  1
AEC_REFEDIT_STATUS_TRACKER
  2
AecDbRefEditStatusTracker
  3
AecArchBase60|Product Desc: Autodesk Architectural Desktop 2007 |Company: Autodesk,Inc. |WEB Address: www.autodesk.com
 90
      129
 91
        0
280
     0
281
     0
  0
CLASS
  1
NPOCOLLECTION
  2
AcDbImpNonPersistentObjectsCollection
  3
ObjectDBX Classes
 90
     1153
 91
        0
280
     0
281
     0
  0
CLASS
  1
CAMSSTRUCTBTNSTATE
  2
StructBtnState
  3
DesignerAssemblies
 90
     1024
 91
        1
280
     0
281
     0
  0
CLASS
  1
CELLSTYLEMAP
  2
AcDbCellStyleMap
  3
ObjectDBX Classes
 90
     1152
 91
        2
280
     0
281
     0
  0
ENDSEC
  0
SECTION
  2
TABLES
  0
TABLE
  2
VPORT
  5
8
330
0
100
AcDbSymbolTable
 70
     1
  0
VPORT
  5
57
330
8
100
AcDbSymbolTableRecord
100
AcDbViewportTableRecord
  2
*Active
 70
     0
 10
0.0
 20
0.0
 11
1.0
 21
1.0
 12
294.5029470179031
 22
359.292604179695
 13
0.0
 23
0.0
 14
1.0
 24
1.0
 15
0.0
 25
0.0
 16
0.0
 26
0.0
 36
1.0
 17
0.0
 27
0.0
 37
0.0
 40
562.2090220707412
 41
1.576017130620984
 42
50.0
 43
0.0
 44
0.0
 50
0.0
 51
0.0
 71
     0
 72
   100
 73
     1
 74
     1
 75
     0
 76
     0
 77
     0
 78
     0
281
     0
 65
     0
110
0.0
120
0.0
130
0.0
111
1.0
121
0.0
131
0.0
112
0.0
122
1.0
132
0.0
 79
     0
146
0.0
  0
ENDTAB
  0
TABLE
  2
LTYPE
  5
5
330
0
100
AcDbSymbolTable
 70
    15
  0
LTYPE
  5
5B
330
5
100
AcDbSymbolTableRecord
100
AcDbLinetypeTableRecord
  2
ByBlock
 70
     0
  3

 72
    65
 73
     0
 40
0.0
  0
LTYPE
  5
5C
330
5
100
AcDbSymbolTableRecord
100
AcDbLinetypeTableRecord
  2
ByLayer
 70
     0
  3

 72
    65
 73
     0
 40
0.0
  0
LTYPE
  5
5D
330
5
100
AcDbSymbolTableRecord
100
AcDbLinetypeTableRecord
  2
Continuous
 70
     0
  3
Solid line
 72
    65
 73
     0
 40
0.0
  0
LTYPE
  5
D9A
330
5
100
AcDbSymbolTableRecord
100
AcDbLinetypeTableRecord
  2
HIDDEN
 70
     0
  3
Skrytá __ __ __ __ __ __ __ __ __ __ __ __ __ __
 72
    65
 73
     2
 40
9.525
 49
6.349999999999997
 74
     0
 49
-3.174999999999998
 74
     0
  0
LTYPE
  5
D9B
330
5
100
AcDbSymbolTableRecord
100
AcDbLinetypeTableRecord
  2
PHANTOM2
 70
     0
  3
Sdružená (.5x) ___ _ _ ___ _ _ ___ _ _ ___ _ _
 72
    65
 73
     6
 40
31.75
 49
15.875
 74
     0
 49
-3.174999999999998
 74
     0
 49
3.174999999999998
 74
     0
 49
-3.174999999999998
 74
     0
 49
3.174999999999998
 74
     0
 49
-3.174999999999998
 74
     0
  0
LTYPE
  5
D9C
330
5
100
AcDbSymbolTableRecord
100
AcDbLinetypeTableRecord
  2
CENTER
 70
     0
  3
Středová ____ _ ____ _ ____ _ ____ _ ____ _ ____
 72
    65
 73
     4
 40
50.8
 49
31.75
 74
     0
 49
-6.349999999999997
 74
     0
 49
6.349999999999997
 74
     0
 49
-6.349999999999997
 74
     0
  0
LTYPE
  5
DE2
330
5
100
AcDbSymbolTableRecord
100
AcDbLinetypeTableRecord
  2
AM_ISO02W050
 70
     0
  3
__ __ __ __ __ __ __ __ __ __ __ __ __ __ __
 72
    65
 73
     2
 40
7.5
 49
6.0
 74
     0
 49
-1.5
 74
     0
  0
LTYPE
  5
DE3
330
5
100
AcDbSymbolTableRecord
100
AcDbLinetypeTableRecord
  2
AM_ISO08W050
 70
     0
  3
____ . ____ . ____ . ____ . ____ . ____ . ____
 72
    65
 73
     4
 40
18.0
 49
12.0
 74
     0
 49
-1.5
 74
     0
 49
3.0
 74
     0
 49
-1.5
 74
     0
  0
LTYPE
  5
DE4
330
5
100
AcDbSymbolTableRecord
100
AcDbLinetypeTableRecord
  2
AM_ISO09W050
 70
     0
  3
_____ . . _____ . . _____ . . ____ .. ____
 72
    65
 73
     6
 40
22.5
 49
12.0
 74
     0
 49
-1.5
 74
     0
 49
3.0
 74
     0
 49
-1.5
 74
     0
 49
3.0
 74
     0
 49
-1.5
 74
     0
  0
LTYPE
  5
DE5
330
5
100
AcDbSymbolTableRecord
100
AcDbLinetypeTableRecord
  2
Amconstr
 70
     0
  3
_______________________
 72
    65
 73
     2
 40
9999.0
 49
9999.0
 74
     0
 49
0.0
 74
     0
  0
LTYPE
  5
DE6
330
5
100
AcDbSymbolTableRecord
100
AcDbLinetypeTableRecord
  2
AM_ISO08W050x2
 70
     0
  3
__ . __ . __ . __ . __ . __
 72
    65
 73
     4
 40
9.0
 49
6.0
 74
     0
 49
-0.75
 74
     0
 49
1.5
 74
     0
 49
-0.75
 74
     0
  0
LTYPE
  5
DE7
330
5
100
AcDbSymbolTableRecord
100
AcDbLinetypeTableRecord
  2
AM_ISO02W050x2
 70
     0
  3
 _ _ _ _ _ _ _ _ _ _ _ _
 72
    65
 73
     2
 40
3.75
 49
3.0
 74
     0
 49
-0.75
 74
     0
  0
LTYPE
  5
DEA
330
5
100
AcDbSymbolTableRecord
100
AcDbLinetypeTableRecord
  2
Amzigzag
 70
     0
  3
/\/-/\/-/\/-/\/-/\/-/\/
 72
    65
 73
     2
 40
11.0001
 49
0.0001
 74
     4
 75
   136
340
DE9
 46
0.04
 50
0.0
 44
0.0
 45
0.0
 49
-11.0
 74
     0
  0
LTYPE
  5
DF9
330
5
100
AcDbSymbolTableRecord
100
AcDbLinetypeTableRecord
  2
ACISOWELD
 70
     0
  3
_ _ _ _ _
 72
    65
 73
     2
 40
2.0
 49
2.0
 74
     0
 49
-1.0
 74
     0
  0
LTYPE
  5
DFA
330
5
100
AcDbSymbolTableRecord
100
AcDbLinetypeTableRecord
  2
ACISOTGB
 70
     0
  3
__ . . __ . .
 72
    65
 73
     6
 40
9.0
 49
4.0
 74
     0
 49
-1.0
 74
     0
 49
1.0
 74
     0
 49
-1.0
 74
     0
 49
1.0
 74
     0
 49
-1.0
 74
     0
  0
LTYPE
  5
DFB
330
5
100
AcDbSymbolTableRecord
100
AcDbLinetypeTableRecord
  2
ACISOTGL
 70
     0
  3
_ _ _ _ _
 72
    65
 73
     2
 40
3.0
 49
2.0
 74
     0
 49
-1.0
 74
     0
  0
LTYPE
  5
E57
330
5
100
AcDbSymbolTableRecord
100
AcDbLinetypeTableRecord
  2
GEN7
 70
     0
  3
____ . ____ . ____ . ____ . ____ . ____ . ____
 72
    65
 73
     4
 40
13.75
 49
10.0
 74
     0
 49
-1.25
 74
     0
 49
1.25
 74
     0
 49
-1.25
 74
     0
  0
ENDTAB
  0
TABLE
  2
LAYER
  5
2
102
{ACAD_XDICTIONARY
360
E5F
102
}
330
0
100
AcDbSymbolTable
 70
    17
  0
LAYER
  5
54
330
2
100
AcDbSymbolTableRecord
100
AcDbLayerTableRecord
  2
0
 70
     0
 62
     7
  6
Continuous
370
    -3
390
F
  0
LAYER
  5
78
330
2
100
AcDbSymbolTableRecord
100
AcDbLayerTableRecord
  2
Geometrie náčrtu (ISO)
 70
     0
 62
     7
  6
Continuous
370
     9
390
F
  0
LAYER
  5
79
330
2
100
AcDbSymbolTableRecord
100
AcDbLayerTableRecord
  2
KOPF
 70
     0
 62
     8
420
  8421504
  6
Continuous
370
     9
390
F
  0
LAYER
  5
7A
330
2
100
AcDbSymbolTableRecord
100
AcDbLayerTableRecord
  2
Kóta (ISO)
 70
     0
 62
     5
420
      255
  6
Continuous
370
     9
390
F
  0
LAYER
  5
7B
330
2
100
AcDbSymbolTableRecord
100
AcDbLayerTableRecord
  2
Nadpis (ISO)
 70
     0
 62
     7
  6
Continuous
370
    18
390
F
  0
LAYER
  5
7D
330
2
100
AcDbSymbolTableRecord
100
AcDbLayerTableRecord
  2
Osa (ISO)
 70
     0
 62
     1
420
 16711680
  6
Continuous
370
     9
390
F
  0
LAYER
  5
85
330
2
100
AcDbSymbolTableRecord
100
AcDbLayerTableRecord
  2
Rámeček (ISO)
 70
     0
 62
     7
  6
Continuous
370
    35
390
F
  0
LAYER
  5
88
330
2
100
AcDbSymbolTableRecord
100
AcDbLayerTableRecord
  2
Skrytá (ISO)
 70
     0
 62
   142
420
    32960
  6
Continuous
370
     9
390
F
  0
LAYER
  5
8B
330
2
100
AcDbSymbolTableRecord
100
AcDbLayerTableRecord
  2
TEXT35
 70
     0
 62
    12
420
 13369344
  6
Continuous
370
    20
390
F
  0
LAYER
  5
8C
330
2
100
AcDbSymbolTableRecord
100
AcDbLayerTableRecord
  2
TEXT50
 70
     0
 62
     7
  6
Continuous
370
    20
390
F
  0
LAYER
  5
8D
330
2
100
AcDbSymbolTableRecord
100
AcDbLayerTableRecord
  2
Viditelná (ISO)
 70
     0
 62
     7
  6
Continuous
370
    35
390
F
  0
LAYER
  5
8E
330
2
100
AcDbSymbolTableRecord
100
AcDbLayerTableRecord
  2
Viditelná tenká (ISO)
 70
     0
 62
     7
  6
Continuous
370
     9
390
F
  0
LAYER
  5
8F
330
2
100
AcDbSymbolTableRecord
100
AcDbLayerTableRecord
  2
Značka (ISO)
 70
     0
 62
     5
420
      255
  6
Continuous
370
     9
390
F
  0
LAYER
  5
626
330
2
100
AcDbSymbolTableRecord
100
AcDbLayerTableRecord
  2
Defpoints
 70
     0
 62
     7
  6
Continuous
290
     0
370
    -3
390
F
  0
LAYER
  5
E58
102
{ACAD_XDICTIONARY
360
E59
102
}
330
2
100
AcDbSymbolTableRecord
100
AcDbLayerTableRecord
  2
7
 70
     0
 62
     4
  6
GEN7
370
    -3
390
F
  0
LAYER
  5
E5A
102
{ACAD_XDICTIONARY
360
E5B
102
}
330
2
100
AcDbSymbolTableRecord
100
AcDbLayerTableRecord
  2
5
 70
     0
 62
     3
  6
Continuous
370
    -3
390
F
  0
LAYER
  5
1141
330
2
100
AcDbSymbolTableRecord
100
AcDbLayerTableRecord
  2
AM_5
 70
     0
 62
    92
  6
Continuous
370
    25
390
F
1001
AcAecLayerStandard
1000

1000

  0
ENDTAB
  0
TABLE
  2
STYLE
  5
3
330
0
100
AcDbSymbolTable
 70
    22
  0
STYLE
  5
55
330
3
100
AcDbSymbolTableRecord
100
AcDbTextStyleTableRecord
  2
Standard
 70
     0
 40
0.0
 41
1.0
 50
0.0
 71
     0
 42
0.2
  3
TAHOMA.TTF
  4

1001
ACAD
1000
Tahoma
1071
      256
  0
STYLE
  5
5A
330
3
100
AcDbSymbolTableRecord
100
AcDbTextStyleTableRecord
  2
Annotative
 70
     0
 40
0.0
 41
1.0
 50
0.0
 71
     0
 42
0.2
  3
txt
  4

1001
AcadAnnotative
1000
AnnotativeData
1002
{
1070
     1
1070
     1
1002
}
  0
STYLE
  5
90
330
3
100
AcDbSymbolTableRecord
100
AcDbTextStyleTableRecord
  2
ITALICC8_57
 70
     0
 40
0.0
 41
1.0
 50
0.0
 71
     0
 42
0.2
  3
TAHOMA.TTF
  4

1001
ACAD
1000
Tahoma
1071
      256
  0
STYLE
  5
91
330
3
100
AcDbSymbolTableRecord
100
AcDbTextStyleTableRecord
  2
kusovnik
 70
     0
 40
0.0
 41
1.0
 50
0.0
 71
     0
 42
0.2
  3
ARIAL.TTF
  4

1001
ACAD
1000
Arial
1071
      256
  0
STYLE
  5
92
330
3
100
AcDbSymbolTableRecord
100
AcDbTextStyleTableRecord
  2
PL Regular Text (GOST)
 70
     0
 40
0.0
 41
1.0
 50
0.0
 71
     0
 42
0.2
  3
GOST Common Italic.ttf
  4

1001
ACAD
1000
GOST Common
1071
 16777472
  0
STYLE
  5
93
330
3
100
AcDbSymbolTableRecord
100
AcDbTextStyleTableRecord
  2
ROMANS8_69
 70
     0
 40
0.0
 41
1.0
 50
0.0
 71
     0
 42
0.2
  3
TAHOMA.TTF
  4

1001
ACAD
1000
Tahoma
1071
      256
  0
STYLE
  5
94
330
3
100
AcDbSymbolTableRecord
100
AcDbTextStyleTableRecord
  2
Text popisu (ISO)
 70
     0
 40
0.0
 41
1.0
 50
0.0
 71
     0
 42
0.2
  3
TAHOMA.TTF
  4

1001
ACAD
1000
Tahoma
1071
      256
  0
STYLE
  5
95
330
3
100
AcDbSymbolTableRecord
100
AcDbTextStyleTableRecord
  2
Text poznámky (DIN)
 70
     0
 40
0.0
 41
1.0
 50
0.0
 71
     0
 42
0.2
  3
isocpeur.ttf
  4

1001
ACAD
1000
ISOCPEUR
1071
      256
  0
STYLE
  5
96
330
3
100
AcDbSymbolTableRecord
100
AcDbTextStyleTableRecord
  2
Text poznámky (ISO)
 70
     0
 40
0.0
 41
1.0
 50
0.0
 71
     0
 42
0.2
  3
TAHOMA.TTF
  4

1001
ACAD
1000
Tahoma
1071
      256
  0
STYLE
  5
97
330
3
100
AcDbSymbolTableRecord
100
AcDbTextStyleTableRecord
  2
TEXT20_41
 70
     0
 40
0.0
 41
1.0
 50
0.0
 71
     0
 42
0.2
  3
TAHOMA.TTF
  4

1001
ACAD
1000
Tahoma
1071
      256
  0
STYLE
  5
98
330
3
100
AcDbSymbolTableRecord
100
AcDbTextStyleTableRecord
  2
TEXT20_59
 70
     0
 40
0.0
 41
1.0
 50
0.0
 71
     0
 42
0.2
  3
TAHOMA.TTF
  4

1001
ACAD
1000
Tahoma
1071
      256
  0
STYLE
  5
1EA
330
3
100
AcDbSymbolTableRecord
100
AcDbTextStyleTableRecord
  2
Styl textu62
 70
     0
 40
0.0
 41
0.8000000119209289
 50
0.0
 71
     0
 42
0.2
  3
TAHOMA.TTF
  4

1001
ACAD
1000
Tahoma
1071
      256
  0
STYLE
  5
1F1
330
3
100
AcDbSymbolTableRecord
100
AcDbTextStyleTableRecord
  2
Styl textu58
 70
     0
 40
0.0
 41
0.8000000119209289
 50
0.0
 71
     0
 42
0.2
  3
TAHOMA.TTF
  4

1001
ACAD
1000
Tahoma
1071
      256
  0
STYLE
  5
1F3
330
3
100
AcDbSymbolTableRecord
100
AcDbTextStyleTableRecord
  2
Styl textu63
 70
     0
 40
0.0
 41
0.75
 50
0.0
 71
     0
 42
0.2
  3
TAHOMA.TTF
  4

1001
ACAD
1000
Tahoma
1071
      256
  0
STYLE
  5
1F6
330
3
100
AcDbSymbolTableRecord
100
AcDbTextStyleTableRecord
  2
Styl textu72
 70
     0
 40
0.0
 41
0.6999999880790711
 50
0.0
 71
     0
 42
0.2
  3
TAHOMA.TTF
  4

1001
ACAD
1000
Tahoma
1071
      256
  0
STYLE
  5
1F9
330
3
100
AcDbSymbolTableRecord
100
AcDbTextStyleTableRecord
  2
Styl textu75
 70
     0
 40
0.0
 41
0.8000000119209289
 50
0.0
 71
     0
 42
0.2
  3
TAHOMA.TTF
  4

1001
ACAD
1000
Tahoma
1071
      256
  0
STYLE
  5
210
330
3
100
AcDbSymbolTableRecord
100
AcDbTextStyleTableRecord
  2
Styl textu9
 70
     0
 40
0.0
 41
1.0
 50
0.0
 71
     0
 42
0.2
  3
ARIAL.TTF
  4

1001
ACAD
1000
Arial
1071
      256
  0
STYLE
  5
214
330
3
100
AcDbSymbolTableRecord
100
AcDbTextStyleTableRecord
  2
Styl textu40
 70
     0
 40
0.0
 41
1.0
 50
0.0
 71
     0
 42
0.2
  3
ARIAL.TTF
  4

1001
ACAD
1000
Arial
1071
      256
  0
STYLE
  5
219
330
3
100
AcDbSymbolTableRecord
100
AcDbTextStyleTableRecord
  2
Styl textu94
 70
     0
 40
0.0
 41
1.0
 50
0.0
 71
     0
 42
0.2
  3
TAHOMA.TTF
  4

1001
ACAD
1000
Tahoma
1071
      256
  0
STYLE
  5
DE9
330
3
100
AcDbSymbolTableRecord
100
AcDbTextStyleTableRecord
  2

 70
     1
 40
0.0
 41
1.0
 50
0.0
 71
     0
 42
0.2
  3
genltshp.shx
  4

  0
STYLE
  5
DF7
330
3
100
AcDbSymbolTableRecord
100
AcDbTextStyleTableRecord
  2
ACISOTS
 70
     0
 40
1.0
 41
1.0
 50
0.0
 71
     0
 42
0.2
  3
isocp.shx
  4

  0
STYLE
  5
DF8
330
3
100
AcDbSymbolTableRecord
100
AcDbTextStyleTableRecord
  2
ACISOGDT
 70
     0
 40
0.0
 41
1.0
 50
0.0
 71
     0
 42
0.2
  3
amgdt.shx
  4

  0
ENDTAB
  0
TABLE
  2
VIEW
  5
6
330
0
100
AcDbSymbolTable
 70
     0
  0
ENDTAB
  0
TABLE
  2
UCS
  5
7
330
0
100
AcDbSymbolTable
 70
     0
  0
ENDTAB
  0
TABLE
  2
APPID
  5
9
330
0
100
AcDbSymbolTable
 70
    22
  0
APPID
  5
56
330
9
100
AcDbSymbolTableRecord
100
AcDbRegAppTableRecord
  2
ACAD
 70
     0
  0
APPID
  5
5E
330
9
100
AcDbSymbolTableRecord
100
AcDbRegAppTableRecord
  2
AcadAnnotative
 70
     0
  0
APPID
  5
213
330
9
100
AcDbSymbolTableRecord
100
AcDbRegAppTableRecord
  2
AcadAnnoPO
 70
     0
  0
APPID
  5
D6D
330
9
100
AcDbSymbolTableRecord
100
AcDbRegAppTableRecord
  2
MCAD_NO_VIS
 70
     0
  0
APPID
  5
D6E
330
9
100
AcDbSymbolTableRecord
100
AcDbRegAppTableRecord
  2
ACAD_TEMP_GRAPHIC
 70
     0
  0
APPID
  5
D9E
330
9
100
AcDbSymbolTableRecord
100
AcDbRegAppTableRecord
  2
AD_DRAW
 70
     0
  0
APPID
  5
DA1
330
9
100
AcDbSymbolTableRecord
100
AcDbRegAppTableRecord
  2
ACATTRIBSERVICES
 70
     0
  0
APPID
  5
DC1
330
9
100
AcDbSymbolTableRecord
100
AcDbRegAppTableRecord
  2
DESIGNERASSEMBLIES
 70
     0
  0
APPID
  5
DC7
330
9
100
AcDbSymbolTableRecord
100
AcDbRegAppTableRecord
  2
ACADM_DIM_EDIT
 70
     0
  0
APPID
  5
DC8
330
9
100
AcDbSymbolTableRecord
100
AcDbRegAppTableRecord
  2
AMDT_DM_ADJ
 70
     0
  0
APPID
  5
DDF
330
9
100
AcDbSymbolTableRecord
100
AcDbRegAppTableRecord
  2
ACAD_DSTYLE_DIMJAG
 70
     0
  0
APPID
  5
DE0
330
9
100
AcDbSymbolTableRecord
100
AcDbRegAppTableRecord
  2
ACAD_DSTYLE_DIMBREAK
 70
     0
  0
APPID
  5
E5D
330
9
100
AcDbSymbolTableRecord
100
AcDbRegAppTableRecord
  2
ACAD_DSTYLE_DIMINSPECT
 70
     0
  0
APPID
  5
E5E
330
9
100
AcDbSymbolTableRecord
100
AcDbRegAppTableRecord
  2
ACAD_DSTYLE_DIMTALN
 70
     0
  0
APPID
  5
1024
330
9
100
AcDbSymbolTableRecord
100
AcDbRegAppTableRecord
  2
ACAD_EXEMPT_FROM_CAD_STANDARDS
 70
     0
  0
APPID
  5
111C
330
9
100
AcDbSymbolTableRecord
100
AcDbRegAppTableRecord
  2
GENIUS_GENDTOL_13
 70
     0
  0
APPID
  5
1142
330
9
100
AcDbSymbolTableRecord
100
AcDbRegAppTableRecord
  2
AcAecLayerStandard
 70
     0
  0
APPID
  5
1386
330
9
100
AcDbSymbolTableRecord
100
AcDbRegAppTableRecord
  2
ACAD_MLEADERVER
 70
     0
  0
APPID
  5
13BB
330
9
100
AcDbSymbolTableRecord
100
AcDbRegAppTableRecord
  2
ACAD_DSTYLE_DIMARC_LENGTH_SYMBOL
 70
     0
  0
APPID
  5
13BC
330
9
100
AcDbSymbolTableRecord
100
AcDbRegAppTableRecord
  2
ACAD_DSTYLE_DIM_LINETYPE
 70
     0
  0
APPID
  5
13BD
330
9
100
AcDbSymbolTableRecord
100
AcDbRegAppTableRecord
  2
ACAD_DSTYLE_DIM_EXT1_LINETYPE
 70
     0
  0
APPID
  5
13BE
330
9
100
AcDbSymbolTableRecord
100
AcDbRegAppTableRecord
  2
ACAD_DSTYLE_DIM_EXT2_LINETYPE
 70
     0
  0
ENDTAB
  0
TABLE
  2
DIMSTYLE
  5
A
330
0
100
AcDbSymbolTable
 70
    25
100
AcDbDimStyleTable
 71
     3
340
E5C
340
58
340
B2
  0
DIMSTYLE
105
58
330
A
100
AcDbSymbolTableRecord
100
AcDbDimStyleTableRecord
  2
Standard
 70
     0
340
55
  0
DIMSTYLE
105
59
330
A
100
AcDbSymbolTableRecord
100
AcDbDimStyleTableRecord
  2
Annotative
 70
     0
340
55
1001
AcadAnnotative
1000
AnnotativeData
1002
{
1070
     1
1070
     1
1002
}
  0
DIMSTYLE
105
A8
330
A
100
AcDbSymbolTableRecord
100
AcDbDimStyleTableRecord
  2
Různé objekty (ISO)
 70
     0
 40
1.666666666666666
 41
2.5
 42
0.0
 43
5.999999999999999
 44
1.0
 45
0.00000001
 46
10.0
 73
     0
 74
     0
 77
     1
 78
     8
 79
     2
140
5.25
143
0.03937
146
0.6676571709769112
147
0.762
171
     3
172
     1
176
   256
177
   256
178
   256
179
     2
271
     2
272
     2
274
     3
278
    44
284
     8
340
94
341
99
371
    -1
372
    -1
  0
DIMSTYLE
105
A9
330
A
100
AcDbSymbolTableRecord
100
AcDbDimStyleTableRecord
  2
Různé objekty (ISO)$7
 70
     0
 40
1.666666666666666
 41
5.0
 42
0.0
 43
5.999999999999999
 44
1.0
 45
0.00000001
 46
10.0
 73
     0
 74
     0
 77
     1
 78
     8
 79
     2
140
5.25
143
0.03937
146
0.6676571709769112
147
0.762
171
     3
172
     1
176
   256
177
   256
178
   256
179
     2
271
     2
272
     2
274
     3
278
    44
284
     8
340
94
341
99
371
    25
372
    -1
  0
DIMSTYLE
105
AA
330
A
100
AcDbSymbolTableRecord
100
AcDbDimStyleTableRecord
  2
Výchozí - Metoda 1b (ISO)
 70
     0
 40
1.666666666666666
 41
2.5
 42
0.0
 43
5.999999999999999
 44
1.0
 45
0.00000001
 46
10.0
 73
     0
 77
     1
 78
     8
 79
     2
140
3.5
143
0.03937
147
0.762
171
     3
172
     1
176
   256
177
   256
178
   256
179
     2
271
     2
272
     2
274
     3
278
    44
284
     8
286
     8
340
96
371
    -1
372
    -1
  0
DIMSTYLE
105
AB
330
A
100
AcDbSymbolTableRecord
100
AcDbDimStyleTableRecord
  2
Výchozí - Metoda 1b (ISO)$7
 70
     0
 40
1.666666666666666
 41
2.5
 42
0.0
 43
5.999999999999999
 44
1.0
 45
0.00000001
 46
10.0
 73
     0
 77
     1
 78
     8
 79
     2
140
3.5
143
0.03937
147
0.762
171
     3
172
     1
176
   256
177
   256
178
   256
179
     2
271
     2
272
     2
274
     3
278
    44
284
     8
286
     8
340
96
371
    -1
372
    -1
  0
DIMSTYLE
105
AC
330
A
100
AcDbSymbolTableRecord
100
AcDbDimStyleTableRecord
  2
Výchozí - Metoda 2a (ISO)
 70
     0
 40
1.666666666666666
 41
2.5
 42
0.0
 43
5.999999999999999
 44
1.0
 45
0.00000001
 46
10.0
 77
     1
 78
     8
 79
     2
140
3.5
143
0.03937
147
0.762
171
     3
172
     1
176
   256
177
   256
178
   256
179
     2
271
     2
272
     2
274
     3
278
    44
284
     8
286
     8
340
96
371
    -1
372
    -1
  0
DIMSTYLE
105
AD
330
A
100
AcDbSymbolTableRecord
100
AcDbDimStyleTableRecord
  2
Výchozí - Metoda 2a (ISO)$7
 70
     0
 40
1.666666666666666
 41
2.5
 42
0.0
 43
5.999999999999999
 44
1.0
 45
0.00000001
 46
10.0
 77
     1
 78
     8
 79
     2
140
3.5
143
0.03937
147
0.762
171
     3
172
     1
176
   256
177
   256
178
   256
179
     2
271
     2
272
     2
274
     3
278
    44
284
     8
286
     8
340
96
371
    -1
372
    -1
  0
DIMSTYLE
105
AE
330
A
100
AcDbSymbolTableRecord
100
AcDbDimStyleTableRecord
  2
Výchozí - Metoda 2b (ISO)
 70
     0
 40
1.666666666666666
 41
2.5
 42
0.0
 43
5.999999999999999
 44
1.0
 45
0.00000001
 46
10.0
 77
     1
 78
     8
 79
     2
140
3.5
143
0.03937
147
0.762
171
     3
172
     1
176
   256
177
   256
178
   256
179
     2
271
     2
272
     2
274
     3
278
    44
284
     8
286
     8
340
96
371
    -1
372
    -1
  0
DIMSTYLE
105
AF
330
A
100
AcDbSymbolTableRecord
100
AcDbDimStyleTableRecord
  2
Výchozí - Metoda 2b (ISO)$7
 70
     0
 40
1.666666666666666
 41
2.5
 42
0.0
 43
5.999999999999999
 44
1.0
 45
0.00000001
 46
10.0
 77
     1
 78
     8
 79
     2
140
3.5
143
0.03937
147
0.762
171
     3
172
     1
176
   256
177
   256
178
   256
179
     2
271
     2
272
     2
274
     3
278
    44
284
     8
286
     8
340
96
371
    -1
372
    -1
  0
DIMSTYLE
105
B0
330
A
100
AcDbSymbolTableRecord
100
AcDbDimStyleTableRecord
  2
Výchozí - mm [palce] (ISO)
 70
     0
  4
 in
 40
1.666666666666666
 41
2.5
 42
0.0
 43
5.999999999999999
 44
3.174999999999998
 45
0.00000001
 46
10.0
 73
     0
 74
     0
 77
     1
 78
     8
 79
     2
140
3.5
143
0.03937
147
0.762
170
     1
171
     3
172
     1
176
   256
177
   256
178
   256
179
     3
271
     3
272
     2
274
     3
275
     1
278
    44
284
     8
285
     8
286
     8
340
96
371
    -1
372
    -1
  0
DIMSTYLE
105
B1
330
A
100
AcDbSymbolTableRecord
100
AcDbDimStyleTableRecord
  2
Výchozí - mm [palce] (ISO)$7
 70
     0
  4
 in
 40
1.666666666666666
 41
2.5
 42
0.0
 43
5.999999999999999
 44
3.174999999999998
 45
0.00000001
 46
10.0
 73
     0
 74
     0
 77
     1
 78
     8
 79
     2
140
3.5
143
0.03937
147
0.762
170
     1
171
     3
172
     1
176
   256
177
   256
178
   256
179
     3
271
     3
272
     2
274
     3
275
     1
278
    44
284
     8
285
     8
286
     8
340
96
371
    -1
372
    -1
  0
DIMSTYLE
105
B2
330
A
100
AcDbSymbolTableRecord
100
AcDbDimStyleTableRecord
  2
Výchozí (ISO)
 70
     0
 40
1.666666666666666
 41
2.5
 42
0.0
 43
5.999999999999999
 44
1.0
 45
0.00000001
 46
10.0
 73
     0
 74
     0
 77
     1
 78
     8
 79
     2
140
3.5
143
0.03937
146
1.001485756465366
147
0.762
171
     3
172
     1
176
   256
177
   256
178
   256
179
     2
271
     2
272
     2
274
     3
278
    44
284
     8
340
96
371
    -1
372
    -1
  0
DIMSTYLE
105
B3
330
A
100
AcDbSymbolTableRecord
100
AcDbDimStyleTableRecord
  2
Výchozí (ISO)$7
 70
     0
 40
1.666666666666666
 41
2.5
 42
0.0
 43
5.999999999999999
 44
1.0
 45
0.00000001
 46
10.0
 73
     0
 74
     0
 77
     1
 78
     8
 79
     2
140
3.5
143
0.03937
146
1.001485756465366
147
0.762
171
     3
172
     1
176
   256
177
   256
178
   256
179
     2
271
     2
272
     2
274
     3
278
    44
284
     8
340
96
371
    -1
372
    -1
  0
DIMSTYLE
105
B4
330
A
100
AcDbSymbolTableRecord
100
AcDbDimStyleTableRecord
  2
Alternativní (ISO)
 70
     0
 40
1.666666666666666
 41
2.5
340
55
342
B5
  0
DIMSTYLE
105
C6
330
A
100
AcDbSymbolTableRecord
100
AcDbDimStyleTableRecord
  2
Základny (ISO)
 70
     0
 40
1.666666666666666
 41
2.5
340
55
342
B5
  0
DIMSTYLE
105
DDE
102
{ACAD_REACTORS
330
158E
102
}
330
A
100
AcDbSymbolTableRecord
100
AcDbDimStyleTableRecord
  2
AM_ISO
 70
     0
  4
"
 41
3.5
 42
1.0
 43
10.0
 44
1.0
 47
0.1
 48
0.1
 73
     0
 74
     0
 77
     1
 78
     8
 79
     2
140
3.5
141
0.0
143
0.0393701
146
0.71
147
1.5
172
     1
176
   256
177
   256
178
   140
271
     2
272
     3
274
     4
283
     0
284
     8
340
55
371
    -1
372
    -1
1001
ACAD_DSTYLE_DIMJAG
1070
   388
1040
1.5
1001
ACAD_DSTYLE_DIMBREAK
1070
   391
1040
3.75
1001
ACAD_DSTYLE_DIMARC_LENGTH_SYMBOL
1070
   379
1070
     1
1001
ACAD_DSTYLE_DIM_LINETYPE
1070
   380
1005
5B
1001
ACAD_DSTYLE_DIM_EXT1_LINETYPE
1070
   381
1005
5B
1001
ACAD_DSTYLE_DIM_EXT2_LINETYPE
1070
   382
1005
5B
  0
DIMSTYLE
105
DEB
330
A
100
AcDbSymbolTableRecord
100
AcDbDimStyleTableRecord
  2
AM_ISO$3
 70
     0
  4
"
 41
3.5
 42
1.0
 43
10.0
 44
1.0
 47
0.1
 48
0.1
 73
     0
 77
     1
 78
     8
 79
     2
140
3.5
141
0.0
143
0.0393701
146
0.71
147
1.5
176
   256
177
   256
178
   140
271
     2
272
     3
274
     4
283
     0
284
     8
288
     1
289
     0
340
55
371
    -1
372
    -1
1001
ACAD_DSTYLE_DIMBREAK
1070
   391
1040
3.75
1001
ACAD_DSTYLE_DIMJAG
1070
   388
1040
1.5
1001
ACAD_DSTYLE_DIMARC_LENGTH_SYMBOL
1070
   379
1070
     1
1001
ACAD_DSTYLE_DIM_LINETYPE
1070
   380
1005
5B
1001
ACAD_DSTYLE_DIM_EXT1_LINETYPE
1070
   381
1005
5B
1001
ACAD_DSTYLE_DIM_EXT2_LINETYPE
1070
   382
1005
5B
  0
DIMSTYLE
105
DEC
330
A
100
AcDbSymbolTableRecord
100
AcDbDimStyleTableRecord
  2
AM_ISO$4
 70
     0
  4
"
 41
3.5
 42
1.0
 43
10.0
 44
1.0
 47
0.1
 48
0.1
 73
     0
 77
     1
 78
     8
 79
     2
140
3.5
141
0.0
143
0.0393701
146
0.71
147
1.5
176
   256
177
   256
178
   140
271
     2
272
     3
274
     4
283
     0
284
     8
288
     1
289
     0
340
55
371
    -1
372
    -1
1001
ACAD_DSTYLE_DIMBREAK
1070
   391
1040
3.75
1001
ACAD_DSTYLE_DIMJAG
1070
   388
1040
1.5
1001
ACAD_DSTYLE_DIMARC_LENGTH_SYMBOL
1070
   379
1070
     1
1001
ACAD_DSTYLE_DIM_LINETYPE
1070
   380
1005
5B
1001
ACAD_DSTYLE_DIM_EXT1_LINETYPE
1070
   381
1005
5B
1001
ACAD_DSTYLE_DIM_EXT2_LINETYPE
1070
   382
1005
5B
  0
DIMSTYLE
105
DED
330
A
100
AcDbSymbolTableRecord
100
AcDbDimStyleTableRecord
  2
AM_ISO$6
 70
     0
  4
"
 41
3.5
 42
1.0
 43
10.0
 44
1.0
 47
0.1
 48
0.1
 73
     0
 74
     0
 78
     8
 79
     2
140
3.5
141
0.0
143
0.0393701
146
0.71
147
1.5
172
     1
176
   256
177
   256
178
   140
271
     2
272
     3
274
     4
283
     0
284
     8
340
55
371
    -1
372
    -1
1001
ACAD_DSTYLE_DIMBREAK
1070
   391
1040
3.75
1001
ACAD_DSTYLE_DIMJAG
1070
   388
1040
1.5
1001
ACAD_DSTYLE_DIMARC_LENGTH_SYMBOL
1070
   379
1070
     1
1001
ACAD_DSTYLE_DIM_LINETYPE
1070
   380
1005
5B
1001
ACAD_DSTYLE_DIM_EXT1_LINETYPE
1070
   381
1005
5B
1001
ACAD_DSTYLE_DIM_EXT2_LINETYPE
1070
   382
1005
5B
  0
DIMSTYLE
105
DEE
330
A
100
AcDbSymbolTableRecord
100
AcDbDimStyleTableRecord
  2
AM_ISO$7
 70
     0
  4
"
 41
3.5
 42
1.0
 43
10.0
 44
1.0
 47
0.1
 48
0.1
 73
     0
 74
     0
 77
     1
 78
     8
 79
     2
140
3.5
141
0.0
143
0.0393701
146
0.71
147
1.5
172
     1
176
   256
177
   256
178
   140
271
     2
272
     3
274
     4
283
     0
284
     8
340
55
371
    -1
372
    -1
1001
ACAD_DSTYLE_DIMBREAK
1070
   391
1040
3.75
1001
ACAD_DSTYLE_DIMJAG
1070
   388
1040
1.5
1001
ACAD_DSTYLE_DIMARC_LENGTH_SYMBOL
1070
   379
1070
     1
1001
ACAD_DSTYLE_DIM_LINETYPE
1070
   380
1005
5B
1001
ACAD_DSTYLE_DIM_EXT1_LINETYPE
1070
   381
1005
5B
1001
ACAD_DSTYLE_DIM_EXT2_LINETYPE
1070
   382
1005
5B
  0
DIMSTYLE
105
DEF
330
A
100
AcDbSymbolTableRecord
100
AcDbDimStyleTableRecord
  2
AM_ISO$SF
 70
     0
  4
"
 41
3.5
 42
1.0
 43
10.0
 44
1.0
 47
0.1
 48
0.1
 73
     0
 74
     0
 75
     1
 76
     1
 77
     1
 78
     8
 79
     2
140
3.5
141
0.0
143
0.0393701
146
0.71
147
1.5
172
     1
176
   256
177
   256
178
   140
271
     2
272
     3
274
     4
283
     0
284
     8
340
55
371
    -1
372
    -1
1001
ACAD_DSTYLE_DIMBREAK
1070
   391
1040
3.75
1001
ACAD_DSTYLE_DIMJAG
1070
   388
1040
1.5
1001
ACAD_DSTYLE_DIMARC_LENGTH_SYMBOL
1070
   379
1070
     1
1001
ACAD_DSTYLE_DIM_LINETYPE
1070
   380
1005
5B
1001
ACAD_DSTYLE_DIM_EXT1_LINETYPE
1070
   381
1005
5B
1001
ACAD_DSTYLE_DIM_EXT2_LINETYPE
1070
   382
1005
5B
  0
DIMSTYLE
105
DF4
330
A
100
AcDbSymbolTableRecord
100
AcDbDimStyleTableRecord
  2
AM_ISO$SH
 70
     0
  4
"
 41
3.5
 42
1.0
 43
10.0
 44
1.0
 47
0.1
 48
0.1
 73
     0
 74
     0
 75
     1
 76
     1
 77
     1
 78
     8
 79
     2
140
3.5
141
0.0
143
0.0393701
144
2.0
146
0.71
147
1.5
172
     1
173
     1
176
   256
177
   256
178
   140
271
     2
272
     3
274
     4
283
     0
284
     8
340
55
343
DF0
371
    -1
372
    -1
1001
ACAD_DSTYLE_DIMBREAK
1070
   391
1040
3.75
1001
ACAD_DSTYLE_DIMJAG
1070
   388
1040
1.5
1001
ACAD_DSTYLE_DIMARC_LENGTH_SYMBOL
1070
   379
1070
     1
1001
ACAD_DSTYLE_DIM_LINETYPE
1070
   380
1005
5B
1001
ACAD_DSTYLE_DIM_EXT1_LINETYPE
1070
   381
1005
5B
1001
ACAD_DSTYLE_DIM_EXT2_LINETYPE
1070
   382
1005
5B
  0
DIMSTYLE
105
E5C
102
{ACAD_REACTORS
330
7E7
330
8C9
330
A82
330
9AB
330
B5A
330
705
330
1145
330
11A8
330
1300
102
}
330
A
100
AcDbSymbolTableRecord
100
AcDbDimStyleTableRecord
  2
GEN-ISO
 70
     0
  3
<>
  4
"
 40
2.0
 41
2.5
 42
1.0
 43
7.0
 44
1.0
 47
0.1
 48
0.1
 73
     0
 74
     0
 77
     1
 78
     8
140
7.0
141
0.0
143
0.0393701
146
0.71
147
0.6
172
     1
176
   256
177
   256
178
     7
271
     2
272
     2
283
     0
340
55
1001
ACAD_DSTYLE_DIMJAG
1070
   388
1040
1.5
1001
ACAD_DSTYLE_DIMTALN
1070
   392
1070
     0
  0
DIMSTYLE
105
1143
330
A
100
AcDbSymbolTableRecord
100
AcDbDimStyleTableRecord
  2
Standard$0
 70
     0
340
55
1001
ACAD_DSTYLE_DIMBREAK
1070
   391
1040
3.75
1001
ACAD_DSTYLE_DIMJAG
1070
   388
1040
1.5
  0
ENDTAB
  0
TABLE
  2
BLOCK_RECORD
  5
1
330
0
100
AcDbSymbolTable
 70
    53
  0
BLOCK_RECORD
  5
6C
330
1
100
AcDbSymbolTableRecord
100
AcDbBlockTableRecord
  2
*Model_Space
340
6F
  0
BLOCK_RECORD
  5
68
330
1
100
AcDbSymbolTableRecord
100
AcDbBlockTableRecord
  2
*Paper_Space
340
6B
  0
BLOCK_RECORD
  5
70
330
1
100
AcDbSymbolTableRecord
100
AcDbBlockTableRecord
  2
*Paper_Space0
340
73
  0
BLOCK_RECORD
  5
99
330
1
100
AcDbSymbolTableRecord
100
AcDbBlockTableRecord
  2
Filled-1
340
0
  0
BLOCK_RECORD
  5
B5
330
1
100
AcDbSymbolTableRecord
100
AcDbBlockTableRecord
  2
_Closed
340
0
  0
BLOCK_RECORD
  5
BC
330
1
100
AcDbSymbolTableRecord
100
AcDbBlockTableRecord
  2
DatumFilled45
340
0
  0
BLOCK_RECORD
  5
C7
330
1
100
AcDbSymbolTableRecord
100
AcDbBlockTableRecord
  2
WIG-svarovani
340
0
  0
BLOCK_RECORD
  5
CC
330
1
100
AcDbSymbolTableRecord
100
AcDbBlockTableRecord
  2
Popis kotvy_srouby
340
0
  0
BLOCK_RECORD
  5
D0
330
1
100
AcDbSymbolTableRecord
100
AcDbBlockTableRecord
  2
Mater. provedeni Art.
340
0
  0
BLOCK_RECORD
  5
F2
330
1
100
AcDbSymbolTableRecord
100
AcDbBlockTableRecord
  2
Art. s popisy
340
0
  0
BLOCK_RECORD
  5
114
330
1
100
AcDbSymbolTableRecord
100
AcDbBlockTableRecord
  2
Tryskat
340
0
  0
BLOCK_RECORD
  5
118
330
1
100
AcDbSymbolTableRecord
100
AcDbBlockTableRecord
  2
Morit
340
0
  0
BLOCK_RECORD
  5
11C
330
1
100
AcDbSymbolTableRecord
100
AcDbBlockTableRecord
  2
zinkovat
340
0
  0
BLOCK_RECORD
  5
120
330
1
100
AcDbSymbolTableRecord
100
AcDbBlockTableRecord
  2
Nater
340
0
  0
BLOCK_RECORD
  5
124
330
1
100
AcDbSymbolTableRecord
100
AcDbBlockTableRecord
  2
Brus
340
0
  0
BLOCK_RECORD
  5
128
330
1
100
AcDbSymbolTableRecord
100
AcDbBlockTableRecord
  2
Elektroliticky lestit
340
0
  0
BLOCK_RECORD
  5
12C
330
1
100
AcDbSymbolTableRecord
100
AcDbBlockTableRecord
  2
Mořit de.
340
0
  0
BLOCK_RECORD
  5
130
330
1
100
AcDbSymbolTableRecord
100
AcDbBlockTableRecord
  2
Žlab bez spádu De.
340
0
  0
BLOCK_RECORD
  5
134
330
1
100
AcDbSymbolTableRecord
100
AcDbBlockTableRecord
  2
Žlab bez spádu Ang.
340
0
  0
BLOCK_RECORD
  5
138
330
1
100
AcDbSymbolTableRecord
100
AcDbBlockTableRecord
  2
Aschl Nirotec-tryskání
340
0
  0
BLOCK_RECORD
  5
13C
330
1
100
AcDbSymbolTableRecord
100
AcDbBlockTableRecord
  2
Popis šrouby_kotvy Ang.
340
0
  0
BLOCK_RECORD
  5
140
330
1
100
AcDbSymbolTableRecord
100
AcDbBlockTableRecord
  2
Spád žlabu Ang.
340
0
  0
BLOCK_RECORD
  5
144
330
1
100
AcDbSymbolTableRecord
100
AcDbBlockTableRecord
  2
Spád žlabu De.
340
0
  0
BLOCK_RECORD
  5
148
330
1
100
AcDbSymbolTableRecord
100
AcDbBlockTableRecord
  2
Kartáč + folie
340
0
  0
BLOCK_RECORD
  5
14C
330
1
100
AcDbSymbolTableRecord
100
AcDbBlockTableRecord
  2
Komplet tryskat De.
340
0
  0
BLOCK_RECORD
  5
150
330
1
100
AcDbSymbolTableRecord
100
AcDbBlockTableRecord
  2
Mořit Ang.
340
0
  0
BLOCK_RECORD
  5
154
330
1
100
AcDbSymbolTableRecord
100
AcDbBlockTableRecord
  2
Rámečky Default Border
340
0
  0
BLOCK_RECORD
  5
1AB
330
1
100
AcDbSymbolTableRecord
100
AcDbBlockTableRecord
  2
Rohová razítka ACO-razitko
340
0
  0
BLOCK_RECORD
  5
627
330
1
100
AcDbSymbolTableRecord
100
AcDbBlockTableRecord
  2
*D26
340
0
  0
BLOCK_RECORD
  5
706
330
1
100
AcDbSymbolTableRecord
100
AcDbBlockTableRecord
  2
*D27
340
0
  0
BLOCK_RECORD
  5
7E8
330
1
100
AcDbSymbolTableRecord
100
AcDbBlockTableRecord
  2
*D28
340
0
  0
BLOCK_RECORD
  5
8CA
330
1
100
AcDbSymbolTableRecord
100
AcDbBlockTableRecord
  2
*D29
340
0
  0
BLOCK_RECORD
  5
9AC
330
1
100
AcDbSymbolTableRecord
100
AcDbBlockTableRecord
  2
*D30
340
0
  0
BLOCK_RECORD
  5
A83
330
1
100
AcDbSymbolTableRecord
100
AcDbBlockTableRecord
  2
*D31
340
0
  0
BLOCK_RECORD
  5
B5B
330
1
100
AcDbSymbolTableRecord
100
AcDbBlockTableRecord
  2
*D32
340
0
  0
BLOCK_RECORD
  5
C3C
330
1
100
AcDbSymbolTableRecord
100
AcDbBlockTableRecord
  2
KUSOVNÍK
340
0
  0
BLOCK_RECORD
  5
DF0
330
1
100
AcDbSymbolTableRecord
100
AcDbBlockTableRecord
  2
GENAXEH
340
0
  0
BLOCK_RECORD
  5
E03
330
1
100
AcDbSymbolTableRecord
100
AcDbBlockTableRecord
  2
*D35
340
0
  0
BLOCK_RECORD
  5
E0F
330
1
100
AcDbSymbolTableRecord
100
AcDbBlockTableRecord
  2
*D36
340
0
  0
BLOCK_RECORD
  5
E1B
330
1
100
AcDbSymbolTableRecord
100
AcDbBlockTableRecord
  2
*D37
340
0
  0
BLOCK_RECORD
  5
E27
330
1
100
AcDbSymbolTableRecord
100
AcDbBlockTableRecord
  2
*D38
340
0
  0
BLOCK_RECORD
  5
E33
330
1
100
AcDbSymbolTableRecord
100
AcDbBlockTableRecord
  2
*D39
340
0
  0
BLOCK_RECORD
  5
E3F
330
1
100
AcDbSymbolTableRecord
100
AcDbBlockTableRecord
  2
*D40
340
0
  0
BLOCK_RECORD
  5
E4B
330
1
100
AcDbSymbolTableRecord
100
AcDbBlockTableRecord
  2
*D41
340
0
  0
BLOCK_RECORD
  5
F91
330
1
100
AcDbSymbolTableRecord
100
AcDbBlockTableRecord
  2
*D42
340
0
  0
BLOCK_RECORD
  5
F9D
330
1
100
AcDbSymbolTableRecord
100
AcDbBlockTableRecord
  2
*D43
340
0
  0
BLOCK_RECORD
  5
FA9
330
1
100
AcDbSymbolTableRecord
100
AcDbBlockTableRecord
  2
*D44
340
0
  0
BLOCK_RECORD
  5
FB5
330
1
100
AcDbSymbolTableRecord
100
AcDbBlockTableRecord
  2
*D45
340
0
  0
BLOCK_RECORD
  5
FC1
330
1
100
AcDbSymbolTableRecord
100
AcDbBlockTableRecord
  2
*D46
340
0
  0
BLOCK_RECORD
  5
FCD
330
1
100
AcDbSymbolTableRecord
100
AcDbBlockTableRecord
  2
*D47
340
0
  0
BLOCK_RECORD
  5
FD9
330
1
100
AcDbSymbolTableRecord
100
AcDbBlockTableRecord
  2
*D48
340
0
  0
BLOCK_RECORD
  5
1146
330
1
100
AcDbSymbolTableRecord
100
AcDbBlockTableRecord
  2
*D49
340
0
  0
BLOCK_RECORD
  5
11A9
330
1
100
AcDbSymbolTableRecord
100
AcDbBlockTableRecord
  2
*D50
340
0
  0
BLOCK_RECORD
  5
1301
330
1
100
AcDbSymbolTableRecord
100
AcDbBlockTableRecord
  2
*D51
340
0
  0
ENDTAB
  0
ENDSEC
  0
SECTION
  2
BLOCKS
  0
BLOCK
  5
6D
330
6C
100
AcDbEntity
  8
0
100
AcDbBlockBegin
  2
*Model_Space
 70
     0
 10
0.0
 20
0.0
 30
0.0
  3
*Model_Space
  1

  0
ENDBLK
  5
6E
330
6C
100
AcDbEntity
  8
0
100
AcDbBlockEnd
  0
BLOCK
  5
69
330
68
100
AcDbEntity
 67
     1
  8
0
100
AcDbBlockBegin
  2
*Paper_Space
 70
     0
 10
0.0
 20
0.0
 30
0.0
  3
*Paper_Space
  1

  0
ENDBLK
  5
6A
330
68
100
AcDbEntity
 67
     1
  8
0
100
AcDbBlockEnd
  0
BLOCK
  5
71
330
70
100
AcDbEntity
 67
     1
  8
0
100
AcDbBlockBegin
  2
*Paper_Space0
 70
     0
 10
0.0
 20
0.0
 30
0.0
  3
*Paper_Space0
  1

  0
ENDBLK
  5
72
330
70
100
AcDbEntity
 67
     1
  8
0
100
AcDbBlockEnd
  0
BLOCK
  5
9A
330
99
100
AcDbEntity
  8
0
100
AcDbBlockBegin
  2
Filled-1
 70
     0
 10
0.0
 20
0.0
 30
0.0
  3
Filled-1
  1

  0
LINE
  5
9C
330
99
100
AcDbEntity
  8
0
 62
     0
100
AcDbLine
 10
-1.0
 20
0.0
 30
0.0
 11
0.0
 21
0.0
 31
0.0
  0
POLYLINE
  5
9E
330
99
100
AcDbEntity
  8
0
 62
     0
100
AcDb2dPolyline
 66
     1
 10
0.0
 20
0.0
 30
0.0
 70
   128
  0
VERTEX
  5
9F
330
9E
100
AcDbEntity
  8
0
 62
     0
100
AcDbVertex
100
AcDb2dVertex
 10
-1.0
 20
-0.1
 30
0.0
  0
VERTEX
  5
A0
330
9E
100
AcDbEntity
  8
0
 62
     0
100
AcDbVertex
100
AcDb2dVertex
 10
0.0
 20
0.0
 30
0.0
  0
VERTEX
  5
A2
330
9E
100
AcDbEntity
  8
0
 62
     0
100
AcDbVertex
100
AcDb2dVertex
 10
-1.0
 20
0.1
 30
0.0
  0
VERTEX
  5
A3
330
9E
100
AcDbEntity
  8
0
 62
     0
100
AcDbVertex
100
AcDb2dVertex
 10
-1.0
 20
-0.1
 30
0.0
  0
SEQEND
  5
A1
330
9E
100
AcDbEntity
  8
0
 62
     0
  0
SOLID
  5
A4
330
99
100
AcDbEntity
  8
0
 62
     0
100
AcDbTrace
 10
-1.0
 20
-0.1
 30
0.0
 11
0.0
 21
0.0
 31
0.0
 12
-1.0
 22
0.1
 32
0.0
 13
-1.0
 23
-0.1
 33
0.0
  0
LINE
  5
A5
330
99
100
AcDbEntity
  8
0
 62
     0
100
AcDbLine
 10
-1.0
 20
-0.1
 30
0.0
 11
0.0
 21
0.0
 31
0.0
  0
LINE
  5
A6
330
99
100
AcDbEntity
  8
0
 62
     0
100
AcDbLine
 10
0.0
 20
0.0
 30
0.0
 11
-1.0
 21
0.1
 31
0.0
  0
LINE
  5
A7
330
99
100
AcDbEntity
  8
0
 62
     0
100
AcDbLine
 10
-1.0
 20
0.1
 30
0.0
 11
-1.0
 21
-0.1
 31
0.0
  0
ENDBLK
  5
9B
330
99
100
AcDbEntity
  8
0
100
AcDbBlockEnd
  0
BLOCK
  5
BA
330
B5
100
AcDbEntity
  8
0
100
AcDbBlockBegin
  2
_Closed
 70
     0
 10
0.0
 20
0.0
 30
0.0
  3
_Closed
  1

  0
LINE
  5
B6
330
B5
100
AcDbEntity
  8
0
  6
ByBlock
 62
     0
370
    -2
100
AcDbLine
 10
-1.0
 20
0.1666666666666666
 30
0.0
 11
0.0
 21
0.0
 31
0.0
  0
LINE
  5
B7
330
B5
100
AcDbEntity
  8
0
  6
ByBlock
 62
     0
370
    -2
100
AcDbLine
 10
0.0
 20
0.0
 30
0.0
 11
-1.0
 21
-0.1666666666666666
 31
0.0
  0
LINE
  5
B8
330
B5
100
AcDbEntity
  8
0
  6
ByBlock
 62
     0
370
    -2
100
AcDbLine
 10
-1.0
 20
0.1666666666666666
 30
0.0
 11
-1.0
 21
-0.1666666666666666
 31
0.0
  0
LINE
  5
B9
330
B5
100
AcDbEntity
  8
0
  6
ByBlock
 62
     0
370
    -2
100
AcDbLine
 10
0.0
 20
0.0
 30
0.0
 11
-1.0
 21
0.0
 31
0.0
  0
ENDBLK
  5
BB
330
B5
100
AcDbEntity
  8
0
100
AcDbBlockEnd
  0
BLOCK
  5
BD
330
BC
100
AcDbEntity
  8
0
100
AcDbBlockBegin
  2
DatumFilled45
 70
     0
 10
0.0
 20
0.0
 30
0.0
  3
DatumFilled45
  1

  0
POLYLINE
  5
BF
330
BC
100
AcDbEntity
  8
0
 62
     0
100
AcDb2dPolyline
 66
     1
 10
0.0
 20
0.0
 30
0.0
 70
   128
  0
VERTEX
  5
C0
330
BF
100
AcDbEntity
  8
0
 62
     0
100
AcDbVertex
100
AcDb2dVertex
 10
0.0
 20
1.0
 30
0.0
  0
VERTEX
  5
C1
330
BF
100
AcDbEntity
  8
0
 62
     0
100
AcDbVertex
100
AcDb2dVertex
 10
0.0
 20
-1.0
 30
0.0
  0
VERTEX
  5
C3
330
BF
100
AcDbEntity
  8
0
 62
     0
100
AcDbVertex
100
AcDb2dVertex
 10
-1.0
 20
0.0
 30
0.0
  0
VERTEX
  5
C4
330
BF
100
AcDbEntity
  8
0
 62
     0
100
AcDbVertex
100
AcDb2dVertex
 10
0.0
 20
1.0
 30
0.0
  0
SEQEND
  5
C2
330
BF
100
AcDbEntity
  8
0
 62
     0
  0
SOLID
  5
C5
330
BC
100
AcDbEntity
  8
0
 62
     0
100
AcDbTrace
 10
0.0
 20
1.0
 30
0.0
 11
0.0
 21
-1.0
 31
0.0
 12
-1.0
 22
0.0
 32
0.0
 13
0.0
 23
1.0
 33
0.0
  0
ENDBLK
  5
BE
330
BC
100
AcDbEntity
  8
0
100
AcDbBlockEnd
  0
BLOCK
  5
C8
330
C7
100
AcDbEntity
  8
0
100
AcDbBlockBegin
  2
WIG-svarovani
 70
     0
 10
0.0
 20
0.0
 30
0.0
  3
WIG-svarovani
  1

  0
MTEXT
  5
CA
102
{ACAD_XDICTIONARY
360
15EE
102
}
330
C7
100
AcDbEntity
  8
Značka (ISO)
100
AcDbMText
 10
-57.87338256835937
 20
16.31795931607484
 30
0.0
 40
3.499999940395355
 41
115.7467651367187
 71
     1
 72
     1
  1
WIG Schweisung, Nahte sauber geschliffen und poliert\PSichtstege geschliffen mit 240 Korn und abgeklebt.\P{\H0.85714x; \P\H1.1667x;WIG svarovani- svary dle potreby zabrousit.\PPohledove plochy brousit (vel. brusnych zrn 240)\Pa polepit paskou}
  7
Text poznámky (ISO)
 73
     1
 44
0.9596589207649227
  0
ENDBLK
  5
C9
330
C7
100
AcDbEntity
  8
0
100
AcDbBlockEnd
  0
BLOCK
  5
CD
330
CC
100
AcDbEntity
  8
0
100
AcDbBlockBegin
  2
Popis kotvy_srouby
 70
     0
 10
0.0
 20
0.0
 30
0.0
  3
Popis kotvy_srouby
  1

  0
MTEXT
  5
CF
330
CC
100
AcDbEntity
  8
Značka (ISO)
100
AcDbMText
 10
-39.79761123657226
 20
21.84130281209946
 30
0.0
 40
3.499999940395355
 41
0.0
 71
     1
 72
     1
  1
Vzdalenost nivel. sroubu ca. 1500\PVzdalenost kotev ca. 400\PVzdalenost dist. koliku ca. 250\P\PAbstand der Nivellieschraben ca.1500\PAbstand der Maueranker ca.400\PAbstand der Distanzstege ca.250\P
  7
Text poznámky (ISO)
 73
     2
 44
0.9878841638565063
  0
ENDBLK
  5
CE
330
CC
100
AcDbEntity
  8
0
100
AcDbBlockEnd
  0
BLOCK
  5
D1
330
D0
100
AcDbEntity
  8
0
100
AcDbBlockBegin
  2
Mater. provedeni Art.
 70
     0
 10
0.0
 20
0.0
 30
0.0
  3
Mater. provedeni Art.
  1

  0
LINE
  5
D3
330
D0
100
AcDbEntity
  8
Geometrie náčrtu (ISO)
100
AcDbLine
 10
-35.0
 20
-22.5
 30
0.0
 11
35.0
 21
-22.5
 31
0.0
  0
LINE
  5
D4
330
D0
100
AcDbEntity
  8
Geometrie náčrtu (ISO)
100
AcDbLine
 10
35.0
 20
-22.5
 30
0.0
 11
34.99999999999996
 21
-13.49999999999998
 31
0.0
  0
LINE
  5
D5
330
D0
100
AcDbEntity
  8
Geometrie náčrtu (ISO)
100
AcDbLine
 10
34.99999999999996
 20
-13.49999999999998
 30
0.0
 11
-35.00000000000003
 21
-13.49999999999998
 31
0.0
  0
LINE
  5
D6
330
D0
100
AcDbEntity
  8
Geometrie náčrtu (ISO)
100
AcDbLine
 10
-35.00000000000003
 20
-13.49999999999998
 30
0.0
 11
-35.0
 21
-22.5
 31
0.0
  0
LINE
  5
D7
330
D0
100
AcDbEntity
  8
Geometrie náčrtu (ISO)
100
AcDbLine
 10
-35.00000000000003
 20
-13.49999999999998
 30
0.0
 11
34.99999999999996
 21
-13.49999999999998
 31
0.0
  0
LINE
  5
D8
330
D0
100
AcDbEntity
  8
Geometrie náčrtu (ISO)
100
AcDbLine
 10
34.99999999999996
 20
-13.49999999999998
 30
0.0
 11
34.99999999999996
 21
-4.499999999999992
 31
0.0
  0
LINE
  5
D9
330
D0
100
AcDbEntity
  8
Geometrie náčrtu (ISO)
100
AcDbLine
 10
34.99999999999996
 20
-4.499999999999992
 30
0.0
 11
-35.00000000000003
 21
-4.499999999999992
 31
0.0
  0
LINE
  5
DA
330
D0
100
AcDbEntity
  8
Geometrie náčrtu (ISO)
100
AcDbLine
 10
-35.00000000000003
 20
-4.499999999999992
 30
0.0
 11
-35.00000000000003
 21
-13.49999999999998
 31
0.0
  0
LINE
  5
DB
330
D0
100
AcDbEntity
  8
Geometrie náčrtu (ISO)
100
AcDbLine
 10
-35.00000000000003
 20
-4.499999999999992
 30
0.0
 11
34.99999999999996
 21
-4.499999999999992
 31
0.0
  0
LINE
  5
DC
330
D0
100
AcDbEntity
  8
Geometrie náčrtu (ISO)
100
AcDbLine
 10
34.99999999999996
 20
-4.499999999999992
 30
0.0
 11
34.99999999999996
 21
4.499999999999992
 31
0.0
  0
LINE
  5
DD
330
D0
100
AcDbEntity
  8
Geometrie náčrtu (ISO)
100
AcDbLine
 10
34.99999999999996
 20
4.499999999999992
 30
0.0
 11
-35.00000000000003
 21
4.499999999999992
 31
0.0
  0
LINE
  5
DE
330
D0
100
AcDbEntity
  8
Geometrie náčrtu (ISO)
100
AcDbLine
 10
-35.00000000000003
 20
4.499999999999992
 30
0.0
 11
-35.00000000000003
 21
-4.499999999999992
 31
0.0
  0
LINE
  5
DF
330
D0
100
AcDbEntity
  8
Geometrie náčrtu (ISO)
100
AcDbLine
 10
-35.00000000000003
 20
4.499999999999992
 30
0.0
 11
34.99999999999996
 21
4.499999999999992
 31
0.0
  0
LINE
  5
E0
330
D0
100
AcDbEntity
  8
Geometrie náčrtu (ISO)
100
AcDbLine
 10
34.99999999999996
 20
4.499999999999992
 30
0.0
 11
34.99999999999996
 21
13.50000000000001
 31
0.0
  0
LINE
  5
E1
330
D0
100
AcDbEntity
  8
Geometrie náčrtu (ISO)
100
AcDbLine
 10
34.99999999999996
 20
13.50000000000001
 30
0.0
 11
-35.00000000000003
 21
13.50000000000001
 31
0.0
  0
LINE
  5
E2
330
D0
100
AcDbEntity
  8
Geometrie náčrtu (ISO)
100
AcDbLine
 10
-35.00000000000003
 20
13.50000000000001
 30
0.0
 11
-35.00000000000003
 21
4.499999999999992
 31
0.0
  0
LINE
  5
E3
330
D0
100
AcDbEntity
  8
Geometrie náčrtu (ISO)
100
AcDbLine
 10
-35.00000000000003
 20
13.50000000000001
 30
0.0
 11
34.99999999999996
 21
13.50000000000001
 31
0.0
  0
LINE
  5
E4
330
D0
100
AcDbEntity
  8
Geometrie náčrtu (ISO)
100
AcDbLine
 10
34.99999999999996
 20
13.50000000000001
 30
0.0
 11
34.99999999999996
 21
22.5
 31
0.0
  0
LINE
  5
E5
330
D0
100
AcDbEntity
  8
Geometrie náčrtu (ISO)
100
AcDbLine
 10
34.99999999999996
 20
22.5
 30
0.0
 11
-35.00000000000003
 21
22.5
 31
0.0
  0
LINE
  5
E6
330
D0
100
AcDbEntity
  8
Geometrie náčrtu (ISO)
100
AcDbLine
 10
-35.00000000000003
 20
22.5
 30
0.0
 11
-35.00000000000003
 21
13.50000000000001
 31
0.0
  0
LINE
  5
E7
330
D0
100
AcDbEntity
  8
Geometrie náčrtu (ISO)
100
AcDbLine
 10
-6.999999999999992
 20
22.5
 30
0.0
 11
-6.999999999999992
 21
-22.5
 31
0.0
  0
MTEXT
  5
E8
330
D0
100
AcDbEntity
  8
Značka (ISO)
100
AcDbMText
 10
-5.126613448311374
 20
11.7684641726084
 30
0.0
 40
5.0
 41
0.0
 71
     1
 72
     1
  1
\fTahoma|b0|i0;\H5.0000;xxxxxxxxxxx
  7
Text poznámky (ISO)
 73
     1
 44
1.0
  0
MTEXT
  5
E9
330
D0
100
AcDbEntity
  8
Značka (ISO)
100
AcDbMText
 10
-33.0130165251342
 20
11.7684641726084
 30
0.0
 40
5.0
 41
20.42139291763306
 71
     1
 72
     1
  1
\fTahoma|b0|i0;\H5.0000;xxxxxx
  7
Text poznámky (ISO)
 73
     1
 44
1.0
  0
MTEXT
  5
EA
330
D0
100
AcDbEntity
  8
Značka (ISO)
100
AcDbMText
 10
-32.07756235018873
 20
20.30710993714994
 30
0.0
 40
5.0
 41
13.92583036716939
 71
     1
 72
     1
  1
\fTahoma|b0|i0;\H5.0000;Art.
  7
Text poznámky (ISO)
 73
     1
 44
1.0
  0
MTEXT
  5
EB
330
D0
100
AcDbEntity
  8
Značka (ISO)
100
AcDbMText
 10
4.291672002492318
 20
20.30710993714994
 30
0.0
 40
5.0
 41
0.0
 71
     1
 72
     1
  1
\fTahoma|b0|i0;\H5.0000;Mat.
  7
Text poznámky (ISO)
 73
     1
 44
1.0
  0
MTEXT
  5
EC
330
D0
100
AcDbEntity
  8
Značka (ISO)
100
AcDbMText
 10
-33.0130165251342
 20
2.473781856899818
 30
0.0
 40
5.0
 41
20.42139291763306
 71
     1
 72
     1
  1
\fTahoma|b0|i0;\H5.0000;xxxxxx
  7
Text poznámky (ISO)
 73
     1
 44
1.0
  0
MTEXT
  5
ED
330
D0
100
AcDbEntity
  8
Značka (ISO)
100
AcDbMText
 10
-5.126613448311374
 20
2.473781856899818
 30
0.0
 40
5.0
 41
0.0
 71
     1
 72
     1
  1
\fTahoma|b0|i0;\H5.0000;xxxxxxxxxxx
  7
Text poznámky (ISO)
 73
     1
 44
1.0
  0
MTEXT
  5
EE
330
D0
100
AcDbEntity
  8
Značka (ISO)
100
AcDbMText
 10
-33.0130165251342
 20
-6.862452441171491
 30
0.0
 40
5.0
 41
20.42139291763306
 71
     1
 72
     1
  1
\fTahoma|b0|i0;\H5.0000;xxxxxx
  7
Text poznámky (ISO)
 73
     1
 44
1.0
  0
MTEXT
  5
EF
330
D0
100
AcDbEntity
  8
Značka (ISO)
100
AcDbMText
 10
-5.126613448311374
 20
-6.862452441171491
 30
0.0
 40
5.0
 41
0.0
 71
     1
 72
     1
  1
\fTahoma|b0|i0;\H5.0000;xxxxxxxxxxx
  7
Text poznámky (ISO)
 73
     1
 44
1.0
  0
MTEXT
  5
F0
330
D0
100
AcDbEntity
  8
Značka (ISO)
100
AcDbMText
 10
-33.0130165251342
 20
-15.52177565039578
 30
0.0
 40
5.0
 41
20.42139291763306
 71
     1
 72
     1
  1
\fTahoma|b0|i0;\H5.0000;xxxxxx
  7
Text poznámky (ISO)
 73
     1
 44
1.0
  0
MTEXT
  5
F1
330
D0
100
AcDbEntity
  8
Značka (ISO)
100
AcDbMText
 10
-5.126613448311374
 20
-15.52177565039578
 30
0.0
 40
5.0
 41
0.0
 71
     1
 72
     1
  1
\fTahoma|b0|i0;\H5.0000;xxxxxxxxxxx
  7
Text poznámky (ISO)
 73
     1
 44
1.0
  0
ENDBLK
  5
D2
330
D0
100
AcDbEntity
  8
0
100
AcDbBlockEnd
  0
BLOCK
  5
F3
330
F2
100
AcDbEntity
  8
0
100
AcDbBlockBegin
  2
Art. s popisy
 70
     0
 10
0.0
 20
0.0
 30
0.0
  3
Art. s popisy
  1

  0
LINE
  5
F5
330
F2
100
AcDbEntity
  8
Geometrie náčrtu (ISO)
100
AcDbLine
 10
-60.00000000000081
 20
-22.5
 30
0.0
 11
59.99999999999911
 21
-22.5
 31
0.0
  0
LINE
  5
F6
330
F2
100
AcDbEntity
  8
Geometrie náčrtu (ISO)
100
AcDbLine
 10
59.99999999999911
 20
-22.5
 30
0.0
 11
60.00000000000081
 21
-13.50000000000001
 31
0.0
  0
LINE
  5
F7
330
F2
100
AcDbEntity
  8
Geometrie náčrtu (ISO)
100
AcDbLine
 10
60.00000000000081
 20
-13.50000000000001
 30
0.0
 11
-60.00000000000081
 21
-13.49999999999998
 31
0.0
  0
LINE
  5
F8
330
F2
100
AcDbEntity
  8
Geometrie náčrtu (ISO)
100
AcDbLine
 10
-60.00000000000081
 20
-13.49999999999998
 30
0.0
 11
-60.00000000000081
 21
-22.5
 31
0.0
  0
LINE
  5
F9
330
F2
100
AcDbEntity
  8
Geometrie náčrtu (ISO)
100
AcDbLine
 10
-60.00000000000081
 20
-13.49999999999998
 30
0.0
 11
60.00000000000081
 21
-13.50000000000001
 31
0.0
  0
LINE
  5
FA
330
F2
100
AcDbEntity
  8
Geometrie náčrtu (ISO)
100
AcDbLine
 10
60.00000000000081
 20
-13.50000000000001
 30
0.0
 11
59.99999999999911
 21
-4.500000000000028
 31
0.0
  0
LINE
  5
FB
330
F2
100
AcDbEntity
  8
Geometrie náčrtu (ISO)
100
AcDbLine
 10
59.99999999999911
 20
-4.500000000000028
 30
0.0
 11
-60.00000000000081
 21
-4.499999999999992
 31
0.0
  0
LINE
  5
FC
330
F2
100
AcDbEntity
  8
Geometrie náčrtu (ISO)
100
AcDbLine
 10
-60.00000000000081
 20
-4.499999999999992
 30
0.0
 11
-60.00000000000081
 21
-13.49999999999998
 31
0.0
  0
LINE
  5
FD
330
F2
100
AcDbEntity
  8
Geometrie náčrtu (ISO)
100
AcDbLine
 10
-60.00000000000081
 20
-4.499999999999992
 30
0.0
 11
59.99999999999911
 21
-4.500000000000028
 31
0.0
  0
LINE
  5
FE
330
F2
100
AcDbEntity
  8
Geometrie náčrtu (ISO)
100
AcDbLine
 10
59.99999999999911
 20
-4.500000000000028
 30
0.0
 11
59.99999999999911
 21
4.499999999999957
 31
0.0
  0
LINE
  5
FF
330
F2
100
AcDbEntity
  8
Geometrie náčrtu (ISO)
100
AcDbLine
 10
59.99999999999911
 20
4.499999999999957
 30
0.0
 11
-60.00000000000081
 21
4.499999999999992
 31
0.0
  0
LINE
  5
100
330
F2
100
AcDbEntity
  8
Geometrie náčrtu (ISO)
100
AcDbLine
 10
-60.00000000000081
 20
4.499999999999992
 30
0.0
 11
-60.00000000000081
 21
-4.499999999999992
 31
0.0
  0
LINE
  5
101
330
F2
100
AcDbEntity
  8
Geometrie náčrtu (ISO)
100
AcDbLine
 10
-60.00000000000081
 20
4.499999999999992
 30
0.0
 11
59.99999999999911
 21
4.499999999999957
 31
0.0
  0
LINE
  5
102
330
F2
100
AcDbEntity
  8
Geometrie náčrtu (ISO)
100
AcDbLine
 10
59.99999999999911
 20
4.499999999999957
 30
0.0
 11
59.99999999999911
 21
13.49999999999998
 31
0.0
  0
LINE
  5
103
330
F2
100
AcDbEntity
  8
Geometrie náčrtu (ISO)
100
AcDbLine
 10
59.99999999999911
 20
13.49999999999998
 30
0.0
 11
-60.00000000000081
 21
13.50000000000001
 31
0.0
  0
LINE
  5
104
330
F2
100
AcDbEntity
  8
Geometrie náčrtu (ISO)
100
AcDbLine
 10
-60.00000000000081
 20
13.50000000000001
 30
0.0
 11
-60.00000000000081
 21
4.499999999999992
 31
0.0
  0
LINE
  5
105
330
F2
100
AcDbEntity
  8
Geometrie náčrtu (ISO)
100
AcDbLine
 10
-60.00000000000081
 20
13.50000000000001
 30
0.0
 11
59.99999999999911
 21
13.49999999999998
 31
0.0
  0
LINE
  5
106
330
F2
100
AcDbEntity
  8
Geometrie náčrtu (ISO)
100
AcDbLine
 10
59.99999999999911
 20
13.49999999999998
 30
0.0
 11
59.99999999999911
 21
22.49999999999996
 31
0.0
  0
LINE
  5
107
330
F2
100
AcDbEntity
  8
Geometrie náčrtu (ISO)
100
AcDbLine
 10
59.99999999999911
 20
22.49999999999996
 30
0.0
 11
-60.00000000000081
 21
22.5
 31
0.0
  0
LINE
  5
108
330
F2
100
AcDbEntity
  8
Geometrie náčrtu (ISO)
100
AcDbLine
 10
-60.00000000000081
 20
22.5
 30
0.0
 11
-60.00000000000081
 21
13.50000000000001
 31
0.0
  0
LINE
  5
109
330
F2
100
AcDbEntity
  8
Geometrie náčrtu (ISO)
100
AcDbLine
 10
-32.00000000000081
 20
22.5
 30
0.0
 11
-32.00000000000081
 21
-22.5
 31
0.0
  0
MTEXT
  5
10A
330
F2
100
AcDbEntity
  8
Značka (ISO)
100
AcDbMText
 10
-27.63552601875791
 20
11.7684641726084
 30
0.0
 40
5.0
 41
0.0
 71
     1
 72
     1
  1
\fTahoma|b0|i0;\H5.0000;xxxxxxxxxxx
  7
Text poznámky (ISO)
 73
     1
 44
1.0
  0
MTEXT
  5
10B
330
F2
100
AcDbEntity
  8
Značka (ISO)
100
AcDbMText
 10
-55.52192909558073
 20
11.7684641726084
 30
0.0
 40
5.0
 41
20.42139291763306
 71
     1
 72
     1
  1
\fTahoma|b0|i0;\H5.0000;xxxxxx
  7
Text poznámky (ISO)
 73
     1
 44
1.0
  0
MTEXT
  5
10C
330
F2
100
AcDbEntity
  8
Značka (ISO)
100
AcDbMText
 10
-54.58647492063526
 20
20.30710993714994
 30
0.0
 40
5.0
 41
13.92583036716939
 71
     1
 72
     1
  1
\fTahoma|b0|i0;\H5.0000;Art.
  7
Text poznámky (ISO)
 73
     1
 44
1.0
  0
MTEXT
  5
10D
330
F2
100
AcDbEntity
  8
Značka (ISO)
100
AcDbMText
 10
-18.21724056795421
 20
20.30710993714994
 30
0.0
 40
5.0
 41
0.0
 71
     1
 72
     1
  1
\fTahoma|b0|i0;\H5.0000;Popis.
  7
Text poznámky (ISO)
 73
     1
 44
1.0
  0
MTEXT
  5
10E
330
F2
100
AcDbEntity
  8
Značka (ISO)
100
AcDbMText
 10
-55.52192909558073
 20
2.473781856899818
 30
0.0
 40
5.0
 41
20.42139291763306
 71
     1
 72
     1
  1
\fTahoma|b0|i0;\H5.0000;xxxxxx
  7
Text poznámky (ISO)
 73
     1
 44
1.0
  0
MTEXT
  5
10F
330
F2
100
AcDbEntity
  8
Značka (ISO)
100
AcDbMText
 10
-27.63552601875791
 20
2.473781856899818
 30
0.0
 40
5.0
 41
0.0
 71
     1
 72
     1
  1
\fTahoma|b0|i0;\H5.0000;xxxxxxxxxxx
  7
Text poznámky (ISO)
 73
     1
 44
1.0
  0
MTEXT
  5
110
330
F2
100
AcDbEntity
  8
Značka (ISO)
100
AcDbMText
 10
-55.52192909558073
 20
-6.862452441171491
 30
0.0
 40
5.0
 41
20.42139291763306
 71
     1
 72
     1
  1
\fTahoma|b0|i0;\H5.0000;xxxxxx
  7
Text poznámky (ISO)
 73
     1
 44
1.0
  0
MTEXT
  5
111
330
F2
100
AcDbEntity
  8
Značka (ISO)
100
AcDbMText
 10
-27.63552601875791
 20
-6.862452441171491
 30
0.0
 40
5.0
 41
0.0
 71
     1
 72
     1
  1
\fTahoma|b0|i0;\H5.0000;xxxxxxxxxxx
  7
Text poznámky (ISO)
 73
     1
 44
1.0
  0
MTEXT
  5
112
330
F2
100
AcDbEntity
  8
Značka (ISO)
100
AcDbMText
 10
-55.52192909558073
 20
-15.52177565039578
 30
0.0
 40
5.0
 41
20.42139291763306
 71
     1
 72
     1
  1
\fTahoma|b0|i0;\H5.0000;xxxxxx
  7
Text poznámky (ISO)
 73
     1
 44
1.0
  0
MTEXT
  5
113
330
F2
100
AcDbEntity
  8
Značka (ISO)
100
AcDbMText
 10
-27.63552601875791
 20
-15.52177565039578
 30
0.0
 40
5.0
 41
0.0
 71
     1
 72
     1
  1
\fTahoma|b0|i0;\H5.0000;xxxxxxxxxxx
  7
Text poznámky (ISO)
 73
     1
 44
1.0
  0
ENDBLK
  5
F4
330
F2
100
AcDbEntity
  8
0
100
AcDbBlockEnd
  0
BLOCK
  5
115
330
114
100
AcDbEntity
  8
0
100
AcDbBlockBegin
  2
Tryskat
 70
     0
 10
0.0
 20
0.0
 30
0.0
  3
Tryskat
  1

  0
MTEXT
  5
117
330
114
100
AcDbEntity
  8
Značka (ISO)
100
AcDbMText
 10
-30.20239114761352
 20
5.036920197308063
 30
0.0
 40
3.499999940395355
 41
0.0
 71
     1
 72
     1
  1
Tryskat \P( Blasted , Glasperlstrahken)
  7
Text poznámky (ISO)
 73
     2
 44
0.9878841638565063
  0
ENDBLK
  5
116
330
114
100
AcDbEntity
  8
0
100
AcDbBlockEnd
  0
BLOCK
  5
119
330
118
100
AcDbEntity
  8
0
100
AcDbBlockBegin
  2
Morit
 70
     0
 10
0.0
 20
0.0
 30
0.0
  3
Morit
  1

  0
MTEXT
  5
11B
330
118
100
AcDbEntity
  8
Značka (ISO)
100
AcDbMText
 10
-19.08124089241028
 20
5.11633675545454
 30
0.0
 40
3.499999940395355
 41
0.0
 71
     1
 72
     1
  1
Morit a pasivovat\P(Pickled, gebeitzt)
  7
Text poznámky (ISO)
 73
     2
 44
0.9878841638565063
  0
ENDBLK
  5
11A
330
118
100
AcDbEntity
  8
0
100
AcDbBlockEnd
  0
BLOCK
  5
11D
330
11C
100
AcDbEntity
  8
0
100
AcDbBlockBegin
  2
zinkovat
 70
     0
 10
0.0
 20
0.0
 30
0.0
  3
zinkovat
  1

  0
MTEXT
  5
11F
330
11C
100
AcDbEntity
  8
Značka (ISO)
100
AcDbMText
 10
-27.74189710617065
 20
5.049683563411233
 30
0.0
 40
3.499999940395355
 41
0.0
 71
     1
 72
     1
  1
Zarove zinkovat\P(hot galvanized, verzinkt )
  7
Text poznámky (ISO)
 73
     2
 44
0.9878841638565063
  0
ENDBLK
  5
11E
330
11C
100
AcDbEntity
  8
0
100
AcDbBlockEnd
  0
BLOCK
  5
121
330
120
100
AcDbEntity
  8
0
100
AcDbBlockBegin
  2
Nater
 70
     0
 10
0.0
 20
0.0
 30
0.0
  3
Nater
  1

  0
MTEXT
  5
123
330
120
100
AcDbEntity
  8
Značka (ISO)
100
AcDbMText
 10
-25.88411808013916
 20
1.864870421122757
 30
0.0
 40
3.499999940395355
 41
0.0
 71
     1
 72
     1
  1
Lackiert Farbe RAL 5002
  7
Text poznámky (ISO)
 73
     1
 44
1.0
  0
ENDBLK
  5
122
330
120
100
AcDbEntity
  8
0
100
AcDbBlockEnd
  0
BLOCK
  5
125
330
124
100
AcDbEntity
  8
0
100
AcDbBlockBegin
  2
Brus
 70
     0
 10
0.0
 20
0.0
 30
0.0
  3
Brus
  1

  0
MTEXT
  5
127
330
124
100
AcDbEntity
  8
Značka (ISO)
100
AcDbMText
 10
-23.46616744995117
 20
5.11633675545454
 30
0.0
 40
3.499999940395355
 41
0.0
 71
     1
 72
     1
  1
Brousit\P(geburstet , brushed )
  7
Text poznámky (ISO)
 73
     2
 44
0.9878841638565063
  0
ENDBLK
  5
126
330
124
100
AcDbEntity
  8
0
100
AcDbBlockEnd
  0
BLOCK
  5
129
330
128
100
AcDbEntity
  8
0
100
AcDbBlockBegin
  2
Elektroliticky lestit
 70
     0
 10
0.0
 20
0.0
 30
0.0
  3
Elektroliticky lestit
  1

  0
MTEXT
  5
12B
330
128
100
AcDbEntity
  8
Značka (ISO)
100
AcDbMText
 10
-18.68841171264648
 20
5.036920197308063
 30
0.0
 40
3.499999940395355
 41
0.0
 71
     1
 72
     1
  1
Elektrolit. lestit\P(Elektropolished )
  7
Text poznámky (ISO)
 73
     2
 44
0.9878841638565063
  0
ENDBLK
  5
12A
330
128
100
AcDbEntity
  8
0
100
AcDbBlockEnd
  0
BLOCK
  5
12D
330
12C
100
AcDbEntity
  8
0
100
AcDbBlockBegin
  2
Mořit de.
 70
     0
 10
0.0
 20
0.0
 30
0.0
  3
Mořit de.
  1

  0
MTEXT
  5
12F
102
{ACAD_XDICTIONARY
360
1639
102
}
330
12C
100
AcDbEntity
  8
Značka (ISO)
100
AcDbMText
 10
-21.33184909820557
 20
4.448386959265915
 30
0.0
 40
3.499999940395355
 41
0.0
 71
     1
 72
     1
  1
Mo\U+0159it a opl\U+00E1chnout\PBeizen und Pasiviert
  7
Text poznámky (ISO)
 73
     2
 44
0.9878841638565063
  0
ENDBLK
  5
12E
330
12C
100
AcDbEntity
  8
0
100
AcDbBlockEnd
  0
BLOCK
  5
131
330
130
100
AcDbEntity
  8
0
100
AcDbBlockBegin
  2
Žlab bez spádu De.
 70
     0
 10
0.0
 20
0.0
 30
0.0
  3
Žlab bez spádu De.
  1

  0
MTEXT
  5
133
102
{ACAD_XDICTIONARY
360
163B
102
}
330
130
100
AcDbEntity
  8
Značka (ISO)
100
AcDbMText
 10
-20.81989526748657
 20
4.01017793221399
 30
0.0
 40
3.499999940395355
 41
0.0
 71
     1
 72
     1
  1
\U+017Dlab bez sp\U+00E1du!\PRinne ohne Gef\U+00E4lle!
  7
Text poznámky (ISO)
 73
     2
 44
0.9878841638565063
  0
ENDBLK
  5
132
330
130
100
AcDbEntity
  8
0
100
AcDbBlockEnd
  0
BLOCK
  5
135
330
134
100
AcDbEntity
  8
0
100
AcDbBlockBegin
  2
Žlab bez spádu Ang.
 70
     0
 10
0.0
 20
0.0
 30
0.0
  3
Žlab bez spádu Ang.
  1

  0
MTEXT
  5
137
102
{ACAD_XDICTIONARY
360
163D
102
}
330
134
100
AcDbEntity
  8
Značka (ISO)
100
AcDbMText
 10
-24.31422233581541
 20
4.456895925104618
 30
0.0
 40
3.499999940395355
 41
0.0
 71
     1
 72
     1
  1
\U+017Dlab bez sp\U+00E1du!\PChannel without slope!
  7
Text poznámky (ISO)
 73
     2
 44
0.9878841638565063
  0
ENDBLK
  5
136
330
134
100
AcDbEntity
  8
0
100
AcDbBlockEnd
  0
BLOCK
  5
139
330
138
100
AcDbEntity
  8
0
100
AcDbBlockBegin
  2
Aschl Nirotec-tryskání
 70
     0
 10
0.0
 20
0.0
 30
0.0
  3
Aschl Nirotec-tryskání
  1

  0
MTEXT
  5
13B
102
{ACAD_XDICTIONARY
360
163F
102
}
330
138
100
AcDbEntity
  8
Značka (ISO)
100
AcDbMText
 10
-58.85332584381103
 20
10.67052584141493
 30
0.0
 40
3.499999940395355
 41
0.0
 71
     1
 72
     1
  1
Povrchov\U+00E1 \U+00FAprava/Oberfl\U+00E4che:\PTryskat pouze vnit\U+0159ek \U+017Elabu, v\U+010Detn\U+011B pohledov\U+00FDch ploch!\PP\U+0159\U+00EDruby proti trysk\U+00E1n\U+00ED chr\U+00E1nit!\PFlansches per strahlung beh\U+00FCtent!
  7
Text poznámky (ISO)
 73
     2
 44
0.9878841638565063
  0
ENDBLK
  5
13A
330
138
100
AcDbEntity
  8
0
100
AcDbBlockEnd
  0
BLOCK
  5
13D
330
13C
100
AcDbEntity
  8
0
100
AcDbBlockBegin
  2
Popis šrouby_kotvy Ang.
 70
     0
 10
0.0
 20
0.0
 30
0.0
  3
Popis šrouby_kotvy Ang.
  1

  0
MTEXT
  5
13F
102
{ACAD_XDICTIONARY
360
1641
102
}
330
13C
100
AcDbEntity
  8
Značka (ISO)
100
AcDbMText
 10
-62.9617118835449
 20
22.19584088772535
 30
0.0
 40
3.499999940395355
 41
0.0
 71
     1
 72
     1
  3
Vzd\U+00E1lenost nivela\U+010Dn\U+00EDch \U+0161roubu ca. 1500mm.\PVzd\U+00E1lenost kotev ca. 400mm.\PPohledov\U+00E9 plochy brousit(vel.brusn\U+00FDch zrn 240)\Pa polepit p\U+00E1skou.\P\PDistance of leveling feets ca. 1500 mm.\PDistance of fixing t
  1
angs ca. 400 mm.\PVisible surfaces to be grinded and covered by protectiv foil.
  7
Text poznámky (ISO)
 73
     2
 44
0.9878841638565063
  0
ENDBLK
  5
13E
330
13C
100
AcDbEntity
  8
0
100
AcDbBlockEnd
  0
BLOCK
  5
141
330
140
100
AcDbEntity
  8
0
100
AcDbBlockBegin
  2
Spád žlabu Ang.
 70
     0
 10
0.0
 20
0.0
 30
0.0
  3
Spád žlabu Ang.
  1

  0
MTEXT
  5
143
102
{ACAD_XDICTIONARY
360
1643
102
}
330
140
100
AcDbEntity
  8
Značka (ISO)
100
AcDbMText
 10
-61.18476867675779
 20
16.15664371056482
 30
0.0
 40
3.499999940395355
 41
0.0
 71
     1
 72
     1
  1
POZOR:\PSp\U+00E1d \U+017Elabu je men\U+0161\U+00ED ne\U+017E 1% - nebezpe\U+010D\U+00ED vzniku prohlubn\U+00ED\Pse stojatou vodou.\PAUTENTION:\PThe gradient of the bottom is minor then 1%.\PThat can be reason of slack water.
  7
Text poznámky (ISO)
 73
     2
 44
0.9878841638565063
  0
ENDBLK
  5
142
330
140
100
AcDbEntity
  8
0
100
AcDbBlockEnd
  0
BLOCK
  5
145
330
144
100
AcDbEntity
  8
0
100
AcDbBlockBegin
  2
Spád žlabu De.
 70
     0
 10
0.0
 20
0.0
 30
0.0
  3
Spád žlabu De.
  1

  0
MTEXT
  5
147
102
{ACAD_XDICTIONARY
360
1645
102
}
330
144
100
AcDbEntity
  8
Značka (ISO)
100
AcDbMText
 10
-61.18476867675779
 20
16.61612506955862
 30
0.0
 40
3.499999940395355
 41
0.0
 71
     1
 72
     1
  1
POZOR:\PSp\U+00E1d \U+017Elabu je men\U+0161\U+00ED ne\U+017E 1% - nebezpe\U+010D\U+00ED vzniku prohlubn\U+00ED\Pse stojatou vodou.\PACHTUNG:\PDas Bodengef\U+00E4lle ist kleiner als 1%. Das Gefahr der\PSenkungsentstehung mit dem stehenden Wasser.
  7
Text poznámky (ISO)
 73
     2
 44
0.9878841638565063
  0
ENDBLK
  5
146
330
144
100
AcDbEntity
  8
0
100
AcDbBlockEnd
  0
BLOCK
  5
149
330
148
100
AcDbEntity
  8
0
100
AcDbBlockBegin
  2
Kartáč + folie
 70
     0
 10
0.0
 20
0.0
 30
0.0
  3
Kartáč + folie
  1

  0
MTEXT
  5
14B
102
{ACAD_XDICTIONARY
360
1647
102
}
330
148
100
AcDbEntity
  8
Značka (ISO)
100
AcDbMText
 10
-39.86001014709473
 20
4.448386959265915
 30
0.0
 40
3.499999940395355
 41
0.0
 71
     1
 72
     1
  1
Kart\U+00E1\U+010Dov\U+00E1no + folie\PGeburstet mit abziehbarer Schutzfolie
  7
Text poznámky (ISO)
 73
     2
 44
0.9878841638565063
  0
ENDBLK
  5
14A
330
148
100
AcDbEntity
  8
0
100
AcDbBlockEnd
  0
BLOCK
  5
14D
330
14C
100
AcDbEntity
  8
0
100
AcDbBlockBegin
  2
Komplet tryskat De.
 70
     0
 10
0.0
 20
0.0
 30
0.0
  3
Komplet tryskat De.
  1

  0
MTEXT
  5
14F
330
14C
100
AcDbEntity
  8
Značka (ISO)
100
AcDbMText
 10
-37.33711719512939
 20
7.475785464048382
 30
0.0
 40
3.499999940395355
 41
0.0
 71
     1
 72
     1
  1
KOMPLETT GLASPER GESTRAHLT !\PKOMPLET ZHORA TRYSKAT ! \P
  7
Text poznámky (ISO)
 73
     2
 44
0.9878841638565063
  0
ENDBLK
  5
14E
330
14C
100
AcDbEntity
  8
0
100
AcDbBlockEnd
  0
BLOCK
  5
151
330
150
100
AcDbEntity
  8
0
100
AcDbBlockBegin
  2
Mořit Ang.
 70
     0
 10
0.0
 20
0.0
 30
0.0
  3
Mořit Ang.
  1

  0
MTEXT
  5
153
102
{ACAD_XDICTIONARY
360
1649
102
}
330
150
100
AcDbEntity
  8
Značka (ISO)
100
AcDbMText
 10
-19.84846115112304
 20
4.448386959265915
 30
0.0
 40
3.499999940395355
 41
0.0
 71
     1
 72
     1
  1
Mo\U+0159it a opl\U+00E1chnout\PPickled and wash
  7
Text poznámky (ISO)
 73
     2
 44
0.9878841638565063
  0
ENDBLK
  5
152
330
150
100
AcDbEntity
  8
0
100
AcDbBlockEnd
  0
BLOCK
  5
155
330
154
100
AcDbEntity
  8
0
100
AcDbBlockBegin
  2
Rámečky Default Border
 70
     0
 10
0.0
 20
0.0
 30
0.0
  3
Rámečky Default Border
  1

  0
POLYLINE
  5
157
330
154
100
AcDbEntity
  8
Rámeček (ISO)
100
AcDb2dPolyline
 66
     1
 10
0.0
 20
0.0
 30
0.0
 70
   128
  0
VERTEX
  5
158
330
157
100
AcDbEntity
  8
Rámeček (ISO)
100
AcDbVertex
100
AcDb2dVertex
 10
10.0
 20
10.0
 30
0.0
  0
VERTEX
  5
159
330
157
100
AcDbEntity
  8
Rámeček (ISO)
100
AcDbVertex
100
AcDb2dVertex
 10
10.0
 20
410.0
 30
0.0
  0
VERTEX
  5
15B
330
157
100
AcDbEntity
  8
Rámeček (ISO)
100
AcDbVertex
100
AcDb2dVertex
 10
584.0000152587889
 20
410.0
 30
0.0
  0
VERTEX
  5
15C
330
157
100
AcDbEntity
  8
Rámeček (ISO)
100
AcDbVertex
100
AcDb2dVertex
 10
584.0000152587889
 20
10.0
 30
0.0
  0
VERTEX
  5
15D
330
157
100
AcDbEntity
  8
Rámeček (ISO)
100
AcDbVertex
100
AcDb2dVertex
 10
10.0
 20
10.0
 30
0.0
  0
SEQEND
  5
15A
330
157
100
AcDbEntity
  8
Rámeček (ISO)
  0
POLYLINE
  5
15E
330
154
100
AcDbEntity
  8
Rámeček (ISO)
100
AcDb2dPolyline
 66
     1
 10
0.0
 20
0.0
 30
0.0
 70
   128
  0
VERTEX
  5
15F
330
15E
100
AcDbEntity
  8
Rámeček (ISO)
100
AcDbVertex
100
AcDb2dVertex
 10
297.0000076293946
 20
0.0
 30
0.0
  0
VERTEX
  5
160
330
15E
100
AcDbEntity
  8
Rámeček (ISO)
100
AcDbVertex
100
AcDb2dVertex
 10
297.0000076293946
 20
10.0
 30
0.0
  0
VERTEX
  5
162
330
15E
100
AcDbEntity
  8
Rámeček (ISO)
100
AcDbVertex
100
AcDb2dVertex
 10
294.1132545471191
 20
5.0
 30
0.0
  0
VERTEX
  5
163
330
15E
100
AcDbEntity
  8
Rámeček (ISO)
100
AcDbVertex
100
AcDb2dVertex
 10
299.8867607116699
 20
5.0
 30
0.0
  0
VERTEX
  5
164
330
15E
100
AcDbEntity
  8
Rámeček (ISO)
100
AcDbVertex
100
AcDb2dVertex
 10
297.0000076293946
 20
10.0
 30
0.0
  0
SEQEND
  5
161
330
15E
100
AcDbEntity
  8
Rámeček (ISO)
  0
POLYLINE
  5
165
330
154
100
AcDbEntity
  8
Rámeček (ISO)
100
AcDb2dPolyline
 66
     1
 10
0.0
 20
0.0
 30
0.0
 70
   128
  0
VERTEX
  5
166
330
165
100
AcDbEntity
  8
Rámeček (ISO)
100
AcDbVertex
100
AcDb2dVertex
 10
297.0000076293946
 20
420.0
 30
0.0
  0
VERTEX
  5
167
330
165
100
AcDbEntity
  8
Rámeček (ISO)
100
AcDbVertex
100
AcDb2dVertex
 10
297.0000076293946
 20
410.0
 30
0.0
  0
VERTEX
  5
169
330
165
100
AcDbEntity
  8
Rámeček (ISO)
100
AcDbVertex
100
AcDb2dVertex
 10
294.1132545471191
 20
415.0
 30
0.0
  0
VERTEX
  5
16A
330
165
100
AcDbEntity
  8
Rámeček (ISO)
100
AcDbVertex
100
AcDb2dVertex
 10
299.8867607116699
 20
415.0
 30
0.0
  0
VERTEX
  5
16B
330
165
100
AcDbEntity
  8
Rámeček (ISO)
100
AcDbVertex
100
AcDb2dVertex
 10
297.0000076293946
 20
410.0
 30
0.0
  0
SEQEND
  5
168
330
165
100
AcDbEntity
  8
Rámeček (ISO)
  0
POLYLINE
  5
16C
330
154
100
AcDbEntity
  8
Rámeček (ISO)
100
AcDb2dPolyline
 66
     1
 10
0.0
 20
0.0
 30
0.0
 70
   128
  0
VERTEX
  5
16D
330
16C
100
AcDbEntity
  8
Rámeček (ISO)
100
AcDbVertex
100
AcDb2dVertex
 10
0.0
 20
210.0
 30
0.0
  0
VERTEX
  5
16E
330
16C
100
AcDbEntity
  8
Rámeček (ISO)
100
AcDbVertex
100
AcDb2dVertex
 10
10.0
 20
210.0
 30
0.0
  0
VERTEX
  5
170
330
16C
100
AcDbEntity
  8
Rámeček (ISO)
100
AcDbVertex
100
AcDb2dVertex
 10
5.0
 20
212.8867530822754
 30
0.0
  0
VERTEX
  5
171
330
16C
100
AcDbEntity
  8
Rámeček (ISO)
100
AcDbVertex
100
AcDb2dVertex
 10
5.0
 20
207.1132469177246
 30
0.0
  0
VERTEX
  5
172
330
16C
100
AcDbEntity
  8
Rámeček (ISO)
100
AcDbVertex
100
AcDb2dVertex
 10
10.0
 20
210.0
 30
0.0
  0
SEQEND
  5
16F
330
16C
100
AcDbEntity
  8
Rámeček (ISO)
  0
POLYLINE
  5
173
330
154
100
AcDbEntity
  8
Rámeček (ISO)
100
AcDb2dPolyline
 66
     1
 10
0.0
 20
0.0
 30
0.0
 70
   128
  0
VERTEX
  5
174
330
173
100
AcDbEntity
  8
Rámeček (ISO)
100
AcDbVertex
100
AcDb2dVertex
 10
594.0000152587892
 20
210.0
 30
0.0
  0
VERTEX
  5
175
330
173
100
AcDbEntity
  8
Rámeček (ISO)
100
AcDbVertex
100
AcDb2dVertex
 10
584.0000152587889
 20
210.0
 30
0.0
  0
VERTEX
  5
177
330
173
100
AcDbEntity
  8
Rámeček (ISO)
100
AcDbVertex
100
AcDb2dVertex
 10
589.0000152587889
 20
212.8867530822754
 30
0.0
  0
VERTEX
  5
178
330
173
100
AcDbEntity
  8
Rámeček (ISO)
100
AcDbVertex
100
AcDb2dVertex
 10
589.0000152587889
 20
207.1132469177246
 30
0.0
  0
VERTEX
  5
179
330
173
100
AcDbEntity
  8
Rámeček (ISO)
100
AcDbVertex
100
AcDb2dVertex
 10
584.0000152587889
 20
210.0
 30
0.0
  0
SEQEND
  5
176
330
173
100
AcDbEntity
  8
Rámeček (ISO)
  0
LINE
  5
17A
330
154
100
AcDbEntity
  8
Rámeček (ISO)
100
AcDbLine
 10
74.25000190734862
 20
10.0
 30
0.0
 11
74.25000190734862
 21
6.100000143051147
 31
0.0
  0
LINE
  5
17B
330
154
100
AcDbEntity
  8
Rámeček (ISO)
100
AcDbLine
 10
74.25000190734862
 20
410.0
 30
0.0
 11
74.25000190734862
 21
413.8999938964841
 31
0.0
  0
LINE
  5
17C
330
154
100
AcDbEntity
  8
Rámeček (ISO)
100
AcDbLine
 10
148.5000038146973
 20
10.0
 30
0.0
 11
148.5000038146973
 21
6.100000143051147
 31
0.0
  0
LINE
  5
17D
330
154
100
AcDbEntity
  8
Rámeček (ISO)
100
AcDbLine
 10
148.5000038146973
 20
410.0
 30
0.0
 11
148.5000038146973
 21
413.8999938964841
 31
0.0
  0
LINE
  5
17E
330
154
100
AcDbEntity
  8
Rámeček (ISO)
100
AcDbLine
 10
222.7499961853027
 20
10.0
 30
0.0
 11
222.7499961853027
 21
6.100000143051147
 31
0.0
  0
LINE
  5
17F
330
154
100
AcDbEntity
  8
Rámeček (ISO)
100
AcDbLine
 10
222.7499961853027
 20
410.0
 30
0.0
 11
222.7499961853027
 21
413.8999938964841
 31
0.0
  0
LINE
  5
180
330
154
100
AcDbEntity
  8
Rámeček (ISO)
100
AcDbLine
 10
371.25
 20
10.0
 30
0.0
 11
371.25
 21
6.100000143051147
 31
0.0
  0
LINE
  5
181
330
154
100
AcDbEntity
  8
Rámeček (ISO)
100
AcDbLine
 10
371.25
 20
410.0
 30
0.0
 11
371.25
 21
413.8999938964841
 31
0.0
  0
LINE
  5
182
330
154
100
AcDbEntity
  8
Rámeček (ISO)
100
AcDbLine
 10
445.4999923706052
 20
10.0
 30
0.0
 11
445.4999923706052
 21
6.100000143051147
 31
0.0
  0
LINE
  5
183
330
154
100
AcDbEntity
  8
Rámeček (ISO)
100
AcDbLine
 10
445.4999923706052
 20
410.0
 30
0.0
 11
445.4999923706052
 21
413.8999938964841
 31
0.0
  0
LINE
  5
184
330
154
100
AcDbEntity
  8
Rámeček (ISO)
100
AcDbLine
 10
519.7499847412108
 20
10.0
 30
0.0
 11
519.7499847412108
 21
6.100000143051147
 31
0.0
  0
LINE
  5
185
330
154
100
AcDbEntity
  8
Rámeček (ISO)
100
AcDbLine
 10
519.7499847412108
 20
410.0
 30
0.0
 11
519.7499847412108
 21
413.8999938964841
 31
0.0
  0
MTEXT
  5
186
330
154
100
AcDbEntity
  8
Rámeček (ISO)
100
AcDbMText
 10
556.0853922448459
 20
410.4
 30
0.0
 40
3.499999940395355
 41
0.0
 71
     7
 72
     1
  1
1
  7
Text poznámky (ISO)
 73
     1
 44
1.0
  0
MTEXT
  5
187
330
154
100
AcDbEntity
  8
Rámeček (ISO)
100
AcDbMText
 10
556.0853922448459
 20
6.100000059604642
 30
0.0
 40
3.499999940395355
 41
0.0
 71
     7
 72
     1
  1
1
  7
Text poznámky (ISO)
 73
     1
 44
1.0
  0
MTEXT
  5
188
330
154
100
AcDbEntity
  8
Rámeček (ISO)
100
AcDbMText
 10
481.5637915541735
 20
410.4
 30
0.0
 40
3.499999940395355
 41
0.0
 71
     7
 72
     1
  1
2
  7
Text poznámky (ISO)
 73
     1
 44
1.0
  0
MTEXT
  5
189
330
154
100
AcDbEntity
  8
Rámeček (ISO)
100
AcDbMText
 10
481.5637915541735
 20
6.100000059604642
 30
0.0
 40
3.499999940395355
 41
0.0
 71
     7
 72
     1
  1
2
  7
Text poznámky (ISO)
 73
     1
 44
1.0
  0
MTEXT
  5
18A
330
154
100
AcDbEntity
  8
Rámeček (ISO)
100
AcDbMText
 10
407.2857914829701
 20
410.3262560764327
 30
0.0
 40
3.499999940395355
 41
0.0
 71
     7
 72
     1
  1
3
  7
Text poznámky (ISO)
 73
     1
 44
1.0
  0
MTEXT
  5
18B
330
154
100
AcDbEntity
  8
Rámeček (ISO)
100
AcDbMText
 10
407.2857914829701
 20
6.026256136037407
 30
0.0
 40
3.499999940395355
 41
0.0
 71
     7
 72
     1
  1
3
  7
Text poznámky (ISO)
 73
     1
 44
1.0
  0
MTEXT
  5
18C
330
154
100
AcDbEntity
  8
Rámeček (ISO)
100
AcDbMText
 10
332.9041911483145
 20
410.4
 30
0.0
 40
3.499999940395355
 41
0.0
 71
     7
 72
     1
  1
4
  7
Text poznámky (ISO)
 73
     1
 44
1.0
  0
MTEXT
  5
18D
330
154
100
AcDbEntity
  8
Rámeček (ISO)
100
AcDbMText
 10
332.9041911483145
 20
6.100000059604642
 30
0.0
 40
3.499999940395355
 41
0.0
 71
     7
 72
     1
  1
4
  7
Text poznámky (ISO)
 73
     1
 44
1.0
  0
MTEXT
  5
18E
330
154
100
AcDbEntity
  8
Rámeček (ISO)
100
AcDbMText
 10
258.8501916467381
 20
410.3262560764327
 30
0.0
 40
3.499999940395355
 41
0.0
 71
     7
 72
     1
  1
5
  7
Text poznámky (ISO)
 73
     1
 44
1.0
  0
MTEXT
  5
18F
330
154
100
AcDbEntity
  8
Rámeček (ISO)
100
AcDbMText
 10
258.8501916467381
 20
6.026256136037407
 30
0.0
 40
3.499999940395355
 41
0.0
 71
     7
 72
     1
  1
5
  7
Text poznámky (ISO)
 73
     1
 44
1.0
  0
MTEXT
  5
190
330
154
100
AcDbEntity
  8
Rámeček (ISO)
100
AcDbMText
 10
184.5077914117669
 20
410.3262560764327
 30
0.0
 40
3.499999940395355
 41
0.0
 71
     7
 72
     1
  1
6
  7
Text poznámky (ISO)
 73
     1
 44
1.0
  0
MTEXT
  5
191
330
154
100
AcDbEntity
  8
Rámeček (ISO)
100
AcDbMText
 10
184.5077914117669
 20
6.026256136037407
 30
0.0
 40
3.499999940395355
 41
0.0
 71
     7
 72
     1
  1
6
  7
Text poznámky (ISO)
 73
     1
 44
1.0
  0
MTEXT
  5
192
330
154
100
AcDbEntity
  8
Rámeček (ISO)
100
AcDbMText
 10
110.2913914972109
 20
410.4
 30
0.0
 40
3.499999940395355
 41
0.0
 71
     7
 72
     1
  1
7
  7
Text poznámky (ISO)
 73
     1
 44
1.0
  0
MTEXT
  5
193
330
154
100
AcDbEntity
  8
Rámeček (ISO)
100
AcDbMText
 10
110.2913914972109
 20
6.100000059604642
 30
0.0
 40
3.499999940395355
 41
0.0
 71
     7
 72
     1
  1
7
  7
Text poznámky (ISO)
 73
     1
 44
1.0
  0
MTEXT
  5
194
330
154
100
AcDbEntity
  8
Rámeček (ISO)
100
AcDbMText
 10
35.9825913476839
 20
410.3205834697932
 30
0.0
 40
3.499999940395355
 41
0.0
 71
     7
 72
     1
  1
8
  7
Text poznámky (ISO)
 73
     1
 44
1.0
  0
MTEXT
  5
195
330
154
100
AcDbEntity
  8
Rámeček (ISO)
100
AcDbMText
 10
35.9825913476839
 20
6.020583529397844
 30
0.0
 40
3.499999940395355
 41
0.0
 71
     7
 72
     1
  1
8
  7
Text poznámky (ISO)
 73
     1
 44
1.0
  0
LINE
  5
196
330
154
100
AcDbEntity
  8
Rámeček (ISO)
100
AcDbLine
 10
10.0
 20
70.0
 30
0.0
 11
6.100000143051147
 21
70.0
 31
0.0
  0
LINE
  5
197
330
154
100
AcDbEntity
  8
Rámeček (ISO)
100
AcDbLine
 10
584.0000152587889
 20
70.0
 30
0.0
 11
587.9000091552732
 21
70.0
 31
0.0
  0
LINE
  5
198
330
154
100
AcDbEntity
  8
Rámeček (ISO)
100
AcDbLine
 10
10.0
 20
140.0
 30
0.0
 11
6.100000143051147
 21
140.0
 31
0.0
  0
LINE
  5
199
330
154
100
AcDbEntity
  8
Rámeček (ISO)
100
AcDbLine
 10
584.0000152587889
 20
140.0
 30
0.0
 11
587.9000091552732
 21
140.0
 31
0.0
  0
LINE
  5
19A
330
154
100
AcDbEntity
  8
Rámeček (ISO)
100
AcDbLine
 10
10.0
 20
280.0
 30
0.0
 11
6.100000143051147
 21
280.0
 31
0.0
  0
LINE
  5
19B
330
154
100
AcDbEntity
  8
Rámeček (ISO)
100
AcDbLine
 10
584.0000152587889
 20
280.0
 30
0.0
 11
587.9000091552732
 21
280.0
 31
0.0
  0
LINE
  5
19C
330
154
100
AcDbEntity
  8
Rámeček (ISO)
100
AcDbLine
 10
10.0
 20
350.0
 30
0.0
 11
6.100000143051147
 21
350.0
 31
0.0
  0
LINE
  5
19D
330
154
100
AcDbEntity
  8
Rámeček (ISO)
100
AcDbLine
 10
584.0000152587889
 20
350.0
 30
0.0
 11
587.9000091552732
 21
350.0
 31
0.0
  0
MTEXT
  5
19E
330
154
100
AcDbEntity
  8
Rámeček (ISO)
100
AcDbMText
 10
6.361230343933396
 20
33.25000002980232
 30
0.0
 40
3.499999940395355
 41
0.0
 71
     7
 72
     1
  1
A
  7
Text poznámky (ISO)
 73
     1
 44
1.0
  0
MTEXT
  5
19F
330
154
100
AcDbEntity
  8
Rámeček (ISO)
100
AcDbMText
 10
584.6612302843287
 20
33.25000002980232
 30
0.0
 40
3.499999940395355
 41
0.0
 71
     7
 72
     1
  1
A
  7
Text poznámky (ISO)
 73
     1
 44
1.0
  0
MTEXT
  5
1A0
330
154
100
AcDbEntity
  8
Rámeček (ISO)
100
AcDbMText
 10
6.781848468328937
 20
103.2500000298023
 30
0.0
 40
3.499999940395355
 41
0.0
 71
     7
 72
     1
  1
B
  7
Text poznámky (ISO)
 73
     1
 44
1.0
  0
MTEXT
  5
1A1
330
154
100
AcDbEntity
  8
Rámeček (ISO)
100
AcDbMText
 10
585.0818484087242
 20
103.2500000298023
 30
0.0
 40
3.499999940395355
 41
0.0
 71
     7
 72
     1
  1
B
  7
Text poznámky (ISO)
 73
     1
 44
1.0
  0
MTEXT
  5
1A2
330
154
100
AcDbEntity
  8
Rámeček (ISO)
100
AcDbMText
 10
6.558903094188357
 20
173.1876013241708
 30
0.0
 40
3.499999940395355
 41
0.0
 71
     7
 72
     1
  1
C
  7
Text poznámky (ISO)
 73
     1
 44
1.0
  0
MTEXT
  5
1A3
330
154
100
AcDbEntity
  8
Rámeček (ISO)
100
AcDbMText
 10
584.8589030345837
 20
173.1876013241708
 30
0.0
 40
3.499999940395355
 41
0.0
 71
     7
 72
     1
  1
C
  7
Text poznámky (ISO)
 73
     1
 44
1.0
  0
MTEXT
  5
1A4
330
154
100
AcDbEntity
  8
Rámeček (ISO)
100
AcDbMText
 10
6.56770745709084
 20
243.2500000298023
 30
0.0
 40
3.499999940395355
 41
0.0
 71
     7
 72
     1
  1
D
  7
Text poznámky (ISO)
 73
     1
 44
1.0
  0
MTEXT
  5
1A5
330
154
100
AcDbEntity
  8
Rámeček (ISO)
100
AcDbMText
 10
584.8677073974861
 20
243.2500000298023
 30
0.0
 40
3.499999940395355
 41
0.0
 71
     7
 72
     1
  1
D
  7
Text poznámky (ISO)
 73
     1
 44
1.0
  0
MTEXT
  5
1A6
330
154
100
AcDbEntity
  8
Rámeček (ISO)
100
AcDbMText
 10
6.849919803883061
 20
313.2500000298023
 30
0.0
 40
3.499999940395355
 41
0.0
 71
     7
 72
     1
  1
E
  7
Text poznámky (ISO)
 73
     1
 44
1.0
  0
MTEXT
  5
1A7
330
154
100
AcDbEntity
  8
Rámeček (ISO)
100
AcDbMText
 10
585.1499197442782
 20
313.2500000298023
 30
0.0
 40
3.499999940395355
 41
0.0
 71
     7
 72
     1
  1
E
  7
Text poznámky (ISO)
 73
     1
 44
1.0
  0
MTEXT
  5
1A8
330
154
100
AcDbEntity
  8
Rámeček (ISO)
100
AcDbMText
 10
6.944936015154347
 20
383.2500000298023
 30
0.0
 40
3.499999940395355
 41
0.0
 71
     7
 72
     1
  1
F
  7
Text poznámky (ISO)
 73
     1
 44
1.0
  0
MTEXT
  5
1A9
330
154
100
AcDbEntity
  8
Rámeček (ISO)
100
AcDbMText
 10
585.2449359555496
 20
383.2500000298023
 30
0.0
 40
3.499999940395355
 41
0.0
 71
     7
 72
     1
  1
F
  7
Text poznámky (ISO)
 73
     1
 44
1.0
  0
ENDBLK
  5
156
330
154
100
AcDbEntity
  8
0
100
AcDbBlockEnd
  0
BLOCK
  5
1AC
330
1AB
100
AcDbEntity
  8
0
100
AcDbBlockBegin
  2
Rohová razítka ACO-razitko
 70
     2
 10
0.0
 20
0.0
 30
0.0
  3
Rohová razítka ACO-razitko
  1

  0
LINE
  5
1AE
330
1AB
100
AcDbEntity
  8
KOPF
  6
Continuous
370
    25
100
AcDbLine
 10
264.0
 20
94.01203200000001
 30
0.0
 11
264.0
 21
74.00000000000003
 31
0.0
  0
LINE
  5
1AF
330
1AB
100
AcDbEntity
  8
KOPF
  6
Continuous
370
    25
100
AcDbLine
 10
264.0
 20
94.01203200000001
 30
0.0
 11
264.0
 21
74.00000000000003
 31
0.0
  0
CIRCLE
  5
1B0
330
1AB
100
AcDbEntity
  8
TEXT50
  6
Continuous
370
    25
100
AcDbCircle
 10
247.5054493575618
 20
83.04852954632861
 30
0.0
 40
1.979948192651899
  0
LINE
  5
1B1
330
1AB
100
AcDbEntity
  8
TEXT50
  6
Continuous
370
    25
100
AcDbLine
 10
262.4910595621649
 20
85.02847773898061
 30
0.0
 11
262.4910595621649
 21
81.06858135367653
 31
0.0
  0
LINE
  5
1B2
330
1AB
100
AcDbEntity
  8
TEXT50
  6
Continuous
370
    25
100
AcDbLine
 10
253.9413433929653
 20
87.07146289795376
 30
0.0
 11
253.9413433929653
 21
79.02559619470344
 31
0.0
  0
LINE
  5
1B3
330
1AB
100
AcDbEntity
  8
TEXT50
  6
Continuous
370
    25
100
AcDbLine
 10
262.4910595621649
 20
85.02847773898061
 30
0.0
 11
253.9413433929653
 21
87.07146289795376
 31
0.0
  0
CIRCLE
  5
1B4
330
1AB
100
AcDbEntity
  8
TEXT50
  6
Continuous
370
    25
100
AcDbCircle
 10
247.5054493575618
 20
83.04852954632861
 30
0.0
 40
4.022933351625178
  0
LINE
  5
1B5
330
1AB
100
AcDbEntity
  8
TEXT50
  6
Continuous
370
    25
100
AcDbLine
 10
253.9413433929653
 20
79.02559619470344
 30
0.0
 11
262.4910595621649
 21
81.06858135367653
 31
0.0
  0
CIRCLE
  5
1B6
330
1AB
100
AcDbEntity
  8
TEXT35
  6
Continuous
370
    25
100
AcDbCircle
 10
221.0936673107637
 20
101.9131972309053
 30
0.0
 40
2.281499999999998
  0
CIRCLE
  5
1B7
330
1AB
100
AcDbEntity
  8
TEXT35
  6
Continuous
370
    25
100
AcDbCircle
 10
221.0936673107637
 20
101.9131972309053
 30
0.0
 40
1.579499999999999
  0
ARC
  5
1B8
330
1AB
100
AcDbEntity
  8
TEXT35
  6
Continuous
370
    25
100
AcDbCircle
 10
214.6291610736662
 20
101.9131972309054
 30
0.0
 40
1.57950000000007
100
AcDbArc
 50
31.05580049908738
 51
329.9999999999987
  0
LINE
  5
1B9
330
1AB
100
AcDbEntity
  8
TEXT35
  6
Continuous
370
    25
100
AcDbLine
 10
215.9822639109751
 20
102.7280180465864
 30
0.0
 11
216.5902852082589
 21
103.0790593062462
 31
0.0
  0
ARC
  5
1BA
330
1AB
100
AcDbEntity
  8
TEXT35
  6
Continuous
370
    25
100
AcDbCircle
 10
214.6291610736662
 20
101.9131972309052
 30
0.0
 40
2.281500000000015
100
AcDbArc
 50
30.73091726592628
 51
330.0000000000017
  0
LINE
  5
1BB
330
1AB
100
AcDbEntity
  8
TEXT35
  6
Continuous
370
    25
100
AcDbLine
 10
216.6049980324005
 20
100.7724472309053
 30
0.0
 11
215.9970481989438
 21
101.1234472309053
 31
0.0
  0
LINE
  5
1BC
330
1AB
100
AcDbEntity
  8
TEXT35
  6
Continuous
370
    25
100
AcDbLine
 10
211.8347763192409
 20
111.6789659312995
 30
0.0
 11
211.8347763192409
 21
98.44416361029551
 31
0.0
  0
LINE
  5
1BD
330
1AB
100
AcDbEntity
  8
TEXT35
  6
Continuous
370
    25
100
AcDbLine
 10
211.8347763192409
 20
98.44416361029551
 30
0.0
 11
217.4235458280916
 21
98.44416361029551
 31
0.0
  0
LINE
  5
1BE
330
1AB
100
AcDbEntity
  8
TEXT35
  6
Continuous
370
    25
100
AcDbLine
 10
217.4235458280916
 20
98.44416361029551
 30
0.0
 11
217.4235458280916
 21
111.6789659312995
 31
0.0
  0
LINE
  5
1BF
330
1AB
100
AcDbEntity
  8
TEXT35
  6
Continuous
370
    25
100
AcDbLine
 10
217.4235458280916
 20
111.6789659312995
 30
0.0
 11
211.8347763192409
 21
111.6789659312995
 31
0.0
  0
LINE
  5
1C0
330
1AB
100
AcDbEntity
  8
TEXT35
  6
Continuous
370
    25
100
AcDbLine
 10
223.888052065189
 20
111.6789659312995
 30
0.0
 11
223.888052065189
 21
98.44416361029551
 31
0.0
  0
LINE
  5
1C1
330
1AB
100
AcDbEntity
  8
TEXT35
  6
Continuous
370
    25
100
AcDbLine
 10
223.888052065189
 20
98.44416361029551
 30
0.0
 11
218.2992825563384
 21
98.44416361029551
 31
0.0
  0
LINE
  5
1C2
330
1AB
100
AcDbEntity
  8
TEXT35
  6
Continuous
370
    25
100
AcDbLine
 10
218.2992825563384
 20
98.44416361029551
 30
0.0
 11
218.2992825563384
 21
111.6789659312995
 31
0.0
  0
LINE
  5
1C3
330
1AB
100
AcDbEntity
  8
TEXT35
  6
Continuous
370
    25
100
AcDbLine
 10
218.2992825563384
 20
111.6789659312995
 30
0.0
 11
223.888052065189
 21
111.6789659312995
 31
0.0
  0
ARC
  5
1C4
330
1AB
100
AcDbEntity
  8
TEXT35
  6
Continuous
370
    25
100
AcDbCircle
 10
211.499154836569
 20
99.57623034270234
 30
0.0
 40
4.914000000000251
100
AcDbArc
 50
172.305837035409
 51
179.7113029220757
  0
LINE
  5
1C5
330
1AB
100
AcDbEntity
  8
TEXT35
  6
Continuous
370
    25
100
AcDbLine
 10
206.6293963427935
 20
100.2341423522474
 30
0.0
 11
209.6999133303443
 21
100.2341423522474
 31
0.0
  0
ARC
  5
1C6
330
1AB
100
AcDbEntity
  8
TEXT35
  6
Continuous
370
    25
100
AcDbCircle
 10
204.8301548365688
 20
99.57623034270323
 30
0.0
 40
4.914000000000132
100
AcDbArc
 50
0.2886970779141535
 51
7.694162964580896
  0
LINE
  5
1C7
330
1AB
100
AcDbEntity
  8
TEXT35
  6
Continuous
370
    25
100
AcDbLine
 10
209.7440924568018
 20
99.60099048123304
 30
0.0
 11
210.4461002543538
 21
99.60099048123304
 31
0.0
  0
ARC
  5
1C8
330
1AB
100
AcDbEntity
  8
TEXT35
  6
Continuous
370
    25
100
AcDbCircle
 10
204.8301548365688
 20
99.5762303427033
 30
0.0
 40
5.616000000000016
100
AcDbArc
 50
0.2526096926473688
 51
53.57642635766914
  0
ARC
  5
1C9
330
1AB
100
AcDbEntity
  8
TEXT35
  6
Continuous
370
    25
100
AcDbCircle
 10
211.4991548365688
 20
99.57623034270323
 30
0.0
 40
5.616000000000023
100
AcDbArc
 50
126.4235736423304
 51
179.7473903073512
  0
LINE
  5
1CA
330
1AB
100
AcDbEntity
  8
TEXT35
  6
Continuous
370
    25
100
AcDbLine
 10
205.8832094187838
 20
99.60099048123304
 30
0.0
 11
206.5852172163358
 21
99.60099048123304
 31
0.0
  0
LINE
  5
1CB
330
1AB
100
AcDbEntity
  8
TEXT35
  6
Continuous
370
    25
100
AcDbLine
 10
205.3702700821435
 20
111.6789659312995
 30
0.0
 11
205.3702700821435
 21
98.44416361029551
 31
0.0
  0
LINE
  5
1CC
330
1AB
100
AcDbEntity
  8
TEXT35
  6
Continuous
370
    25
100
AcDbLine
 10
205.3702700821435
 20
98.44416361029551
 30
0.0
 11
210.9590395909941
 21
98.44416361029551
 31
0.0
  0
LINE
  5
1CD
330
1AB
100
AcDbEntity
  8
TEXT35
  6
Continuous
370
    25
100
AcDbLine
 10
210.9590395909941
 20
98.44416361029551
 30
0.0
 11
210.9590395909941
 21
111.6789659312995
 31
0.0
  0
LINE
  5
1CE
330
1AB
100
AcDbEntity
  8
TEXT35
  6
Continuous
370
    25
100
AcDbLine
 10
210.9590395909941
 20
111.6789659312995
 30
0.0
 11
205.3702700821435
 21
111.6789659312995
 31
0.0
  0
ARC
  5
1CF
330
1AB
100
AcDbEntity
  8
TEXT35
  6
Continuous
370
    25
100
AcDbCircle
 10
204.830154836569
 20
99.57623034270341
 30
0.0
 40
4.913999999999818
100
AcDbArc
 50
16.0658750272321
 51
47.26788995739759
  0
LINE
  5
1D0
330
1AB
100
AcDbEntity
  8
TEXT35
  6
Continuous
370
    25
100
AcDbLine
 10
209.5522343918387
 20
100.9361423522474
 30
0.0
 11
206.7770752812989
 21
100.9361423522474
 31
0.0
  0
ARC
  5
1D1
330
1AB
100
AcDbEntity
  8
TEXT35
  6
Continuous
370
    25
100
AcDbCircle
 10
211.4991548365683
 20
99.57623034270341
 30
0.0
 40
4.913999999999566
100
AcDbArc
 50
132.7321100425983
 51
163.9341249727667
  0
LINE
  5
1D2
330
1AB
100
AcDbEntity
  8
Nadpis (ISO)
100
AcDbLine
 10
299.0
 20
114.0
 30
0.0
 11
299.0
 21
45.0
 31
0.0
  0
LINE
  5
1D3
330
1AB
100
AcDbEntity
  8
Nadpis (ISO)
100
AcDbLine
 10
299.0
 20
45.0
 30
0.0
 11
117.0
 21
44.99999999999999
 31
0.0
  0
LINE
  5
1D4
330
1AB
100
AcDbEntity
  8
Nadpis (ISO)
100
AcDbLine
 10
117.0
 20
44.99999999999999
 30
0.0
 11
117.0
 21
114.0
 31
0.0
  0
LINE
  5
1D5
330
1AB
100
AcDbEntity
  8
Nadpis (ISO)
100
AcDbLine
 10
117.0
 20
114.0
 30
0.0
 11
299.0
 21
114.0
 31
0.0
  0
LINE
  5
1D6
330
1AB
100
AcDbEntity
  8
Nadpis (ISO)
100
AcDbLine
 10
199.0
 20
114.0
 30
0.0
 11
199.0
 21
93.99999999999998
 31
0.0
  0
LINE
  5
1D7
330
1AB
100
AcDbEntity
  8
KOPF
100
AcDbLine
 10
199.0
 20
104.0
 30
0.0
 11
117.0
 21
104.0
 31
0.0
  0
LINE
  5
1D8
330
1AB
100
AcDbEntity
  8
Nadpis (ISO)
100
AcDbLine
 10
199.0
 20
93.99999999999998
 30
0.0
 11
117.0
 21
93.99999999999996
 31
0.0
  0
LINE
  5
1D9
330
1AB
100
AcDbEntity
  8
KOPF
100
AcDbLine
 10
158.0
 20
93.99999999999998
 30
0.0
 11
158.0
 21
114.0
 31
0.0
  0
LINE
  5
1DA
330
1AB
100
AcDbEntity
  8
Nadpis (ISO)
100
AcDbLine
 10
199.0
 20
93.99999999999998
 30
0.0
 11
299.0
 21
93.99999999999998
 31
0.0
  0
LINE
  5
1DB
330
1AB
100
AcDbEntity
  8
Nadpis (ISO)
100
AcDbLine
 10
216.0
 20
94.00000000000003
 30
0.0
 11
216.0
 21
44.99999999999999
 31
0.0
  0
LINE
  5
1DC
330
1AB
100
AcDbEntity
  8
Nadpis (ISO)
100
AcDbLine
 10
299.0
 20
74.00000000000004
 30
0.0
 11
117.0
 21
73.99999999999998
 31
0.0
  0
LINE
  5
1DD
330
1AB
100
AcDbEntity
  8
Nadpis (ISO)
100
AcDbLine
 10
186.0
 20
94.0
 30
0.0
 11
186.0
 21
74.00000000000002
 31
0.0
  0
LINE
  5
1DE
330
1AB
100
AcDbEntity
  8
KOPF
100
AcDbLine
 10
137.0
 20
93.99999999999998
 30
0.0
 11
137.0
 21
74.0
 31
0.0
  0
LINE
  5
1DF
330
1AB
100
AcDbEntity
  8
KOPF
100
AcDbLine
 10
162.0
 20
93.99999999999998
 30
0.0
 11
162.0
 21
74.0
 31
0.0
  0
LINE
  5
1E0
330
1AB
100
AcDbEntity
  8
KOPF
100
AcDbLine
 10
186.0
 20
84.0
 30
0.0
 11
117.0
 21
83.99999999999996
 31
0.0
  0
LINE
  5
1E1
330
1AB
100
AcDbEntity
  8
KOPF
100
AcDbLine
 10
186.0
 20
79.0
 30
0.0
 11
117.0
 21
78.99999999999997
 31
0.0
  0
LINE
  5
1E2
330
1AB
100
AcDbEntity
  8
KOPF
100
AcDbLine
 10
186.0
 20
89.0
 30
0.0
 11
117.0
 21
88.99999999999996
 31
0.0
  0
LINE
  5
1E3
330
1AB
100
AcDbEntity
  8
KOPF
100
AcDbLine
 10
216.0
 20
50.0
 30
0.0
 11
299.0
 21
50.0
 31
0.0
  0
LINE
  5
1E4
330
1AB
100
AcDbEntity
  8
Nadpis (ISO)
100
AcDbLine
 10
216.0
 20
55.0
 30
0.0
 11
299.0
 21
55.0
 31
0.0
  0
LINE
  5
1E5
330
1AB
100
AcDbEntity
  8
KOPF
100
AcDbLine
 10
238.0000000000001
 20
93.99999999999998
 30
0.0
 11
238.0000000000001
 21
74.00000000000003
 31
0.0
  0
LINE
  5
1E6
330
1AB
100
AcDbEntity
  8
KOPF
100
AcDbLine
 10
238.0000000000001
 20
84.00000000000003
 30
0.0
 11
216.0
 21
84.00000000000003
 31
0.0
  0
LINE
  5
1E7
330
1AB
100
AcDbEntity
  8
Nadpis (ISO)
100
AcDbLine
 10
287.0
 20
74.00000000000004
 30
0.0
 11
287.0
 21
55.0
 31
0.0
  0
LINE
  5
1E8
330
1AB
100
AcDbEntity
  8
KOPF
100
AcDbLine
 10
289.0
 20
50.0
 30
0.0
 11
289.0
 21
45.0
 31
0.0
  0
LINE
  5
1E9
330
1AB
100
AcDbEntity
  8
Nadpis (ISO)
100
AcDbLine
 10
260.9160465310349
 20
50.0
 30
0.0
 11
260.9160465310349
 21
45.0
 31
0.0
  0
TEXT
  5
1EB
330
1AB
100
AcDbEntity
  8
Viditelná tenká (ISO)
100
AcDbText
 10
266.0
 20
84.97994933403729
 30
0.0
 40
1.539999991655349
  1
zum Zweck anderweitiger Benutzung
 41
0.7999999523162842
  7
Styl textu62
100
AcDbText
  0
TEXT
  5
1ED
330
1AB
100
AcDbEntity
  8
Viditelná tenká (ISO)
100
AcDbText
 10
266.0
 20
82.63814072439631
 30
0.0
 40
1.539999991655349
  1
mitgeteilt werden und bleibt unser
 41
0.7999999523162842
  7
Styl textu62
100
AcDbText
  0
TEXT
  5
1EE
330
1AB
100
AcDbEntity
  8
Viditelná tenká (ISO)
100
AcDbText
 10
266.0
 20
87.26106040199921
 30
0.0
 40
1.539999991655349
  1
noch dritten Personen, insbesondere
 41
0.7999999523162842
  7
Styl textu62
100
AcDbText
  0
TEXT
  5
1EF
330
1AB
100
AcDbEntity
  8
Viditelná tenká (ISO)
100
AcDbText
 10
266.0
 20
89.6282322587214
 30
0.0
 40
1.539999991655349
  1
Diese Zeichnung darf weder kopiert
 41
0.7999999523162842
  7
Styl textu62
100
AcDbText
  0
TEXT
  5
1F0
330
1AB
100
AcDbEntity
  8
Viditelná tenká (ISO)
100
AcDbText
 10
266.0
 20
80.37532604459597
 30
0.0
 40
1.539999991655349
  1
Eigentum.
 41
0.7999999523162842
  7
Styl textu62
100
AcDbText
  0
TEXT
  5
1F2
330
1AB
100
AcDbEntity
  8
Viditelná tenká (ISO)
100
AcDbText
 10
241.877559521167
 20
90.82431699999998
 30
0.0
 40
2.000000029802321
  1
Projektion: ISO-E
 41
0.7999999523162842
  7
Styl textu58
100
AcDbText
  0
TEXT
  5
1F4
330
1AB
100
AcDbEntity
  8
Viditelná tenká (ISO)
100
AcDbText
 10
266.0
 20
77.30982488917627
 30
0.0
 40
1.539999991655349
  1
Schutzvermerk nach DIN 34 beachten
 41
0.75
  7
Styl textu63
100
AcDbText
  0
TEXT
  5
1F5
330
1AB
100
AcDbEntity
  8
Viditelná tenká (ISO)
100
AcDbText
 10
236.2487793316645
 20
99.38243367792949
 30
0.0
 40
2.000000029802321
  1
582 22 Přibyslav
 41
0.7999999523162842
  7
Styl textu58
100
AcDbText
  0
TEXT
  5
1F7
330
1AB
100
AcDbEntity
  8
Viditelná tenká (ISO)
100
AcDbText
 10
261.6984261202779
 20
99.57784645000472
 30
0.0
 40
2.099999934434889
  1
Fax: 0451 / 482529
 41
0.7000000476837159
  7
Styl textu72
100
AcDbText
  0
TEXT
  5
1F8
330
1AB
100
AcDbEntity
  8
Viditelná tenká (ISO)
100
AcDbText
 10
236.5351154208068
 20
103.0087314099309
 30
0.0
 40
2.000000029802321
  1
Havličkova 260
 41
0.7999999523162842
  7
Styl textu58
100
AcDbText
  0
TEXT
  5
1FA
330
1AB
100
AcDbEntity
  8
TEXT35
100
AcDbText
 10
235.9801354774567
 20
108.2018007493417
 30
0.0
 40
3.000000119209288
  1
ACO Industries
 41
0.7999999523162842
  7
Styl textu75
100
AcDbText
  0
TEXT
  5
1FB
330
1AB
100
AcDbEntity
  8
Viditelná tenká (ISO)
100
AcDbText
 10
261.6456899832647
 20
102.9064533471121
 30
0.0
 40
2.099999934434889
  1
Tel.: 0451 / 491660
 41
0.7000000476837159
  7
Styl textu72
100
AcDbText
  0
MTEXT
  5
1FC
330
1AB
100
AcDbEntity
  8
Viditelná tenká (ISO)
100
AcDbMText
 10
217.3570092483237
 20
73.27889989032858
 30
0.0
 40
2.000000029802321
 41
0.0
 71
     1
 72
     1
  1
\fArial|b0|i0;\H2.0000;Zeichnung Nr.
  7
Text poznámky (ISO)
 73
     1
 44
1.0
  0
MTEXT
  5
1FD
330
1AB
100
AcDbEntity
  8
Viditelná tenká (ISO)
100
AcDbMText
 10
287.9433731401013
 20
72.84063462326732
 30
0.0
 40
2.000000029802321
 41
0.0
 71
     1
 72
     1
  1
\fArial|b0|i0;\H2.0000;Index
  7
Text poznámky (ISO)
 73
     1
 44
1.0
  0
MTEXT
  5
1FE
330
1AB
100
AcDbEntity
  8
Viditelná tenká (ISO)
100
AcDbMText
 10
217.1230582952341
 20
52.63510416823109
 30
0.0
 40
2.000000029802321
 41
0.0
 71
     1
 72
     1
  1
\fArial|b0|i0;\H2.0000;Ersatz fur\PErsatz durch
  7
Text poznámky (ISO)
 73
     2
 44
0.9442214369773862
  0
MTEXT
  5
1FF
330
1AB
100
AcDbEntity
  8
Viditelná tenká (ISO)
100
AcDbMText
 10
188.9161081342839
 20
93.0
 30
0.0
 40
2.000000029802321
 41
0.0
 71
     1
 72
     1
  1
\fArial|b0|i0;\H2.0000;Massstab
  7
Text poznámky (ISO)
 73
     1
 44
1.0
  0
MTEXT
  5
200
330
1AB
100
AcDbEntity
  8
Viditelná tenká (ISO)
100
AcDbMText
 10
217.0
 20
93.0
 30
0.0
 40
2.000000029802321
 41
0.0
 71
     1
 72
     1
  1
\fArial|b0|i0;\H2.0000;Masseinheit
  7
Text poznámky (ISO)
 73
     1
 44
1.0
  0
MTEXT
  5
201
330
1AB
100
AcDbEntity
  8
Viditelná tenká (ISO)
100
AcDbMText
 10
118.0
 20
113.0
 30
0.0
 40
2.000000029802321
 41
0.0
 71
     1
 72
     1
  1
\fArial|b0|i0;\H2.0000;Werkstoff.
  7
Text poznámky (ISO)
 73
     1
 44
1.0
  0
MTEXT
  5
202
330
1AB
100
AcDbEntity
  8
Viditelná tenká (ISO)
100
AcDbMText
 10
159.0
 20
113.0
 30
0.0
 40
2.000000029802321
 41
0.0
 71
     1
 72
     1
  1
\fArial|b0|i0;\H2.0000;Hmotnost
  7
Text poznámky (ISO)
 73
     1
 44
1.0
  0
MTEXT
  5
203
330
1AB
100
AcDbEntity
  8
Viditelná tenká (ISO)
100
AcDbMText
 10
118.0
 20
103.0
 30
0.0
 40
2.000000029802321
 41
0.0
 71
     1
 72
     1
  1
\fArial|b0|i0;\H2.0000;zul.Abweich.
  7
Text poznámky (ISO)
 73
     1
 44
1.0
  0
MTEXT
  5
204
330
1AB
100
AcDbEntity
  8
Viditelná tenká (ISO)
100
AcDbMText
 10
159.0
 20
103.0
 30
0.0
 40
2.000000029802321
 41
0.0
 71
     1
 72
     1
  1
\fArial|b0|i0;\H2.0000;Oberflache
  7
Text poznámky (ISO)
 73
     1
 44
1.0
  0
MTEXT
  5
205
330
1AB
100
AcDbEntity
  8
Viditelná tenká (ISO)
100
AcDbMText
 10
118.2064366962235
 20
87.52498463872976
 30
0.0
 40
2.000000029802321
 41
0.0
 71
     1
 72
     1
  1
\fArial|b0|i0;\H2.0000;Gezeichnet
  7
Text poznámky (ISO)
 73
     1
 44
1.0
  0
MTEXT
  5
206
330
1AB
100
AcDbEntity
  8
Viditelná tenká (ISO)
100
AcDbMText
 10
118.2064366962235
 20
82.79398756785594
 30
0.0
 40
2.000000029802321
 41
0.0
 71
     1
 72
     1
  1
\fArial|b0|i0;\H2.0000;Gepruft
  7
Text poznámky (ISO)
 73
     1
 44
1.0
  0
MTEXT
  5
207
330
1AB
100
AcDbEntity
  8
Viditelná tenká (ISO)
100
AcDbMText
 10
118.2064366962235
 20
77.59713566222233
 30
0.0
 40
2.000000029802321
 41
0.0
 71
     1
 72
     1
  1
\fArial|b0|i0;\H2.0000;Update
  7
Text poznámky (ISO)
 73
     1
 44
1.0
  0
MTEXT
  5
208
330
1AB
100
AcDbEntity
  8
Viditelná tenká (ISO)
100
AcDbMText
 10
143.0
 20
93.0
 30
0.0
 40
2.000000029802321
 41
0.0
 71
     1
 72
     1
  1
\fArial|b0|i0;\H2.0000;Datum
  7
Text poznámky (ISO)
 73
     1
 44
1.0
  0
MTEXT
  5
209
330
1AB
100
AcDbEntity
  8
Viditelná tenká (ISO)
100
AcDbMText
 10
170.0
 20
93.0
 30
0.0
 40
2.000000029802321
 41
0.0
 71
     1
 72
     1
  1
\fArial|b0|i0;\H2.0000;Name
  7
Text poznámky (ISO)
 73
     1
 44
1.0
  0
MTEXT
  5
20A
102
{ACAD_XDICTIONARY
360
164B
102
}
330
1AB
100
AcDbEntity
  8
Nadpis (ISO)
100
AcDbMText
 10
118.0
 20
71.0
 30
0.0
 40
3.499999940395355
 41
0.0
 71
     1
 72
     1
  1
ACO vpust 142 sestava vod. jednod\U+00EDln\U+00E1 p\U+0159\U+00EDruba DN70 ZU V2A
  7
Text poznámky (ISO)
 73
     1
 44
1.0
  0
MTEXT
  5
20B
330
1AB
100
AcDbEntity
  8
Nadpis (ISO)
100
AcDbMText
 10
138.6542642016321
 20
87.78242706242744
 30
0.0
 40
2.000000029802321
 41
0.0
 71
     1
 72
     1
  1
\fTahoma|b0|i0;\H2.0000;19.7.2011
  7
Text poznámky (ISO)
 73
     1
 44
1.0
  0
MTEXT
  5
20C
330
1AB
100
AcDbEntity
  8
Nadpis (ISO)
100
AcDbMText
 10
118.9147684950603
 20
98.79632878646518
 30
0.0
 40
3.499999940395355
 41
0.0
 71
     1
 72
     1
  1
ISO 2768-m
  7
Text poznámky (ISO)
 73
     1
 44
1.0
  0
MTEXT
  5
20D
330
1AB
100
AcDbEntity
  8
Nadpis (ISO)
100
AcDbMText
 10
162.5831033854
 20
99.20167780246003
 30
0.0
 40
3.499999940395355
 41
0.0
 71
     1
 72
     1
  1
DIN ISO 1302
  7
Text poznámky (ISO)
 73
     1
 44
1.0
  0
MTEXT
  5
20E
330
1AB
100
AcDbEntity
  8
Nadpis (ISO)
100
AcDbMText
 10
262.4743825961981
 20
49.17778241269704
 30
0.0
 40
3.499999940395355
 41
0.0
 71
     1
 72
     1
  1
\fArial|b0|i0;\H3.5000;List:\fArial|b0|i0;\H3.5000;1 \fArial|b0|i0;\H3.5000;/\fArial|b0|i0;\H3.5000;1 
  7
Text poznámky (ISO)
 73
     1
 44
1.0
  0
MTEXT
  5
20F
102
{ACAD_XDICTIONARY
360
164D
102
}
330
1AB
100
AcDbEntity
  8
Nadpis (ISO)
100
AcDbMText
 10
159.4396788094336
 20
109.2360383310952
 30
0.0
 40
3.499999940395355
 41
29.10098367733216
 71
     1
 72
     1
  1
Nen\U+00ED k dispozici
  7
Text poznámky (ISO)
 73
     2
 44
0.9878841638565063
  0
ATTDEF
  5
211
102
{ACAD_XDICTIONARY
360
D1E
102
}
330
1AB
100
AcDbEntity
  8
Nadpis (ISO)
100
AcDbText
 10
287.4393862219839
 20
62.4856753668063
 30
0.0
 40
3.499999940395355
  1
000
  7
Styl textu9
100
AcDbAttributeDefinition
  3
ČÍSLO REVIZE
  2
ČÍSLO_REVIZE_001
 70
     0
  0
ATTDEF
  5
215
102
{ACAD_XDICTIONARY
360
D21
102
}
330
1AB
100
AcDbEntity
  8
Nadpis (ISO)
100
AcDbText
 10
289.7753402652471
 20
46.32882590415592
 30
0.0
 40
2.000000029802321
  1
A2
  7
Styl textu40
100
AcDbAttributeDefinition
  3
Sheet Size
  2
Sheet_Size_001
 70
     0
  0
ATTDEF
  5
216
102
{ACAD_XDICTIONARY
360
D24
102
}
330
1AB
100
AcDbEntity
  8
Nadpis (ISO)
100
AcDbText
 10
230.1305737493188
 20
51.0995493466129
 30
0.0
 40
2.000000029802321
  1
C:\Inventor_DATA\Projekty\Guly\Effidrain\ACO vpust 142 sestava vodorovna jednodílná DN70\414746.iam
  7
Styl textu40
100
AcDbAttributeDefinition
  3
FILENAME AND PATH
  2
FILENAME_AND_PATH_001
 70
     0
  0
ATTDEF
  5
217
102
{ACAD_XDICTIONARY
360
D27
102
}
330
1AB
100
AcDbEntity
  8
Nadpis (ISO)
100
AcDbText
 10
217.9059771674843
 20
62.43418407684369
 30
0.0
 40
3.499999940395355
  1
414746
  7
Text poznámky (ISO)
100
AcDbAttributeDefinition
  3
PART NUMBER
  2
PART_NUMBER_001
 70
     0
  0
ATTDEF
  5
218
102
{ACAD_XDICTIONARY
360
D2A
102
}
330
1AB
100
AcDbEntity
  8
Nadpis (ISO)
100
AcDbText
 10
118.0
 20
56.50000005960464
 30
0.0
 40
3.499999940395355
  1

  7
Text poznámky (ISO)
 11
118.0
 21
60.0
 31
0.0
100
AcDbAttributeDefinition
  3
PROJECT
  2
PROJECT
 70
     0
 74
     3
  0
ATTDEF
  5
21A
102
{ACAD_XDICTIONARY
360
D2D
102
}
330
1AB
100
AcDbEntity
  8
Nadpis (ISO)
100
AcDbText
 10
117.8119543349687
 20
47.76228120857975
 30
0.0
 40
6.99999988079071
  1
414746
  7
Styl textu94
100
AcDbAttributeDefinition
  3
SKLADOVÉ ČÍSLO
  2
SKLADOVÉ_ČÍSLO_001
 70
     0
  0
ATTDEF
  5
21B
102
{ACAD_XDICTIONARY
360
D30
102
}
330
1AB
100
AcDbEntity
  8
Nadpis (ISO)
100
AcDbText
 10
117.5939056808251
 20
105.1756658592857
 30
0.0
 40
3.499999940395355
  1

  7
Text poznámky (ISO)
 11
117.5939056808251
 21
108.6756657996811
 31
0.0
100
AcDbAttributeDefinition
  3
MATERIAL
  2
MATERIAL
 70
     0
 74
     3
  0
ATTDEF
  5
21C
102
{ACAD_XDICTIONARY
360
D33
102
}
330
1AB
100
AcDbEntity
  8
Nadpis (ISO)
100
AcDbText
 10
165.0470513532835
 20
85.78242703262512
 30
0.0
 40
2.000000029802321
  1
pmacoun
  7
Styl textu40
100
AcDbAttributeDefinition
  3
AUTHOR
  2
AUTHOR_001
 70
     0
  0
ATTDEF
  5
21D
102
{ACAD_XDICTIONARY
360
D36
102
}
330
1AB
100
AcDbEntity
  8
Nadpis (ISO)
100
AcDbText
 10
189.1855699863978
 20
82.50038826992808
 30
0.0
 40
3.499999940395355
  1

  7
Text poznámky (ISO)
 11
189.1855699863978
 21
86.00038821032343
 31
0.0
100
AcDbAttributeDefinition
  3
VS_First
  2
VS_First
 70
     0
 74
     3
  0
ENDBLK
  5
1AD
330
1AB
100
AcDbEntity
  8
0
100
AcDbBlockEnd
  0
BLOCK
  5
628
330
627
100
AcDbEntity
  8
0
100
AcDbBlockBegin
  2
*D26
 70
     1
 10
0.0
 20
0.0
 30
0.0
  3
*D26
  1

  0
LINE
  5
6FC
330
627
100
AcDbEntity
  8
Kóta (ISO)
440
 16777216
100
AcDbLine
 10
370.6776427185691
 20
587.6837477438746
 30
0.0
 11
402.8098503360508
 21
587.6837477438746
 31
0.0
  0
LINE
  5
6FD
330
627
100
AcDbEntity
  8
Kóta (ISO)
440
 16777216
100
AcDbLine
 10
401.1431836693843
 20
571.8504144105412
 30
0.0
 11
401.1431836693843
 21
583.517081077208
 31
0.0
  0
SOLID
  5
6FE
330
627
100
AcDbEntity
  8
Kóta (ISO)
440
 16777216
100
AcDbTrace
 10
400.4487392249398
 20
571.8504144105412
 30
0.0
 11
401.8376281138288
 21
571.8504144105412
 31
0.0
 12
401.1431836693843
 22
567.6837477438746
 32
0.0
 13
401.1431836693843
 23
567.6837477438746
 33
0.0
  0
SOLID
  5
6FF
330
627
100
AcDbEntity
  8
Kóta (ISO)
440
 16777216
100
AcDbTrace
 10
400.4487392249398
 20
583.517081077208
 30
0.0
 11
401.8376281138288
 21
583.517081077208
 31
0.0
 12
401.1431836693843
 22
587.6837477438746
 32
0.0
 13
401.1431836693843
 23
587.6837477438746
 33
0.0
  0
MTEXT
  5
700
330
627
100
AcDbEntity
  8
Kóta (ISO)
440
 16777216
100
AcDbMText
 10
393.7969580145825
 20
573.6799420577317
 30
0.0
 40
5.833333333333332
 41
0.0
 71
     1
 72
     1
  1
\A1;20
  7
Text poznámky (ISO)
 11
0.0000000000000001
 21
1.0
 31
0.0
 73
     1
 44
1.0
  0
POINT
  5
701
330
627
100
AcDbEntity
  8
Defpoints
 62
     0
440
 16777216
100
AcDbPoint
 10
401.1431836693843
 20
567.6837477438746
 30
0.0
  0
POINT
  5
702
330
627
100
AcDbEntity
  8
Defpoints
 62
     0
440
 16777216
100
AcDbPoint
 10
370.6776427185691
 20
587.6837477438746
 30
0.0
  0
POINT
  5
703
330
627
100
AcDbEntity
  8
Defpoints
 62
     0
440
 16777216
100
AcDbPoint
 10
401.1431836693843
 20
587.6837477438746
 30
0.0
  0
ENDBLK
  5
629
330
627
100
AcDbEntity
  8
0
100
AcDbBlockEnd
  0
BLOCK
  5
707
330
706
100
AcDbEntity
  8
0
100
AcDbBlockBegin
  2
*D27
 70
     1
 10
0.0
 20
0.0
 30
0.0
  3
*D27
  1

  0
LINE
  5
1449
330
706
100
AcDbEntity
  8
5
370
    -2
100
AcDbLine
 10
272.6271324614348
 20
418.8847949178216
 30
0.0
 11
272.6271324614348
 21
402.5246248516238
 31
0.0
  0
LINE
  5
144A
330
706
100
AcDbEntity
  8
5
370
    -2
100
AcDbLine
 10
423.1271324614347
 20
443.4339118542732
 30
0.0
 11
423.1271324614347
 21
402.5246248516238
 31
0.0
  0
LINE
  5
144B
330
706
100
AcDbEntity
  8
5
370
    -2
100
AcDbLine
 10
277.6271324614348
 20
404.5246248516238
 30
0.0
 11
418.1271324614347
 21
404.5246248516238
 31
0.0
  0
SOLID
  5
144C
330
706
100
AcDbEntity
  8
5
100
AcDbTrace
 10
277.6271324614348
 20
405.3579581849572
 30
0.0
 11
277.6271324614348
 21
403.6912915182904
 31
0.0
 12
272.6271324614348
 22
404.5246248516238
 32
0.0
 13
272.6271324614348
 23
404.5246248516238
 33
0.0
  0
SOLID
  5
144D
330
706
100
AcDbEntity
  8
5
100
AcDbTrace
 10
418.1271324614347
 20
405.3579581849572
 30
0.0
 11
418.1271324614347
 21
403.6912915182904
 31
0.0
 12
423.1271324614347
 22
404.5246248516238
 32
0.0
 13
423.1271324614347
 23
404.5246248516238
 33
0.0
  0
MTEXT
  5
144E
330
706
100
AcDbEntity
  8
5
 62
     7
100
AcDbMText
 10
347.0807827250262
 20
413.0019922122685
 30
0.0
 40
14.0
 41
0.0
 71
     5
 72
     1
  1
149
 73
     1
 44
1.0
  0
POINT
  5
144F
330
706
100
AcDbEntity
  8
Defpoints
 62
     0
100
AcDbPoint
 10
272.6271324614348
 20
420.8847949178216
 30
0.0
  0
POINT
  5
1450
330
706
100
AcDbEntity
  8
Defpoints
 62
     0
100
AcDbPoint
 10
423.1271324614347
 20
445.4339118542732
 30
0.0
  0
POINT
  5
1451
330
706
100
AcDbEntity
  8
Defpoints
 62
     0
100
AcDbPoint
 10
423.1271324614347
 20
404.5246248516238
 30
0.0
  0
ENDBLK
  5
708
330
706
100
AcDbEntity
  8
0
100
AcDbBlockEnd
  0
BLOCK
  5
7E9
330
7E8
100
AcDbEntity
  8
0
100
AcDbBlockBegin
  2
*D28
 70
     1
 10
0.0
 20
0.0
 30
0.0
  3
*D28
  1

  0
LINE
  5
15A8
330
7E8
100
AcDbEntity
  8
5
370
    -2
100
AcDbLine
 10
372.6776427185691
 20
587.6837477438746
 30
0.0
 11
476.2020596658456
 21
587.6837477438746
 31
0.0
  0
LINE
  5
15A9
330
7E8
100
AcDbEntity
  8
5
370
    -2
100
AcDbLine
 10
456.8405170462467
 20
481.9288995438745
 30
0.0
 11
476.2020596658456
 21
481.9288995438745
 31
0.0
  0
LINE
  5
15AA
330
7E8
100
AcDbEntity
  8
5
370
    -2
100
AcDbLine
 10
474.2020596658456
 20
582.6837477438746
 30
0.0
 11
474.2020596658456
 21
486.9288995438745
 31
0.0
  0
SOLID
  5
15AB
330
7E8
100
AcDbEntity
  8
5
100
AcDbTrace
 10
473.3687263325123
 20
582.6837477438746
 30
0.0
 11
475.0353929991789
 21
582.6837477438746
 31
0.0
 12
474.2020596658456
 22
587.6837477438746
 32
0.0
 13
474.2020596658456
 23
587.6837477438746
 33
0.0
  0
SOLID
  5
15AC
330
7E8
100
AcDbEntity
  8
5
100
AcDbTrace
 10
473.3687263325123
 20
486.9288995438745
 30
0.0
 11
475.0353929991789
 21
486.9288995438745
 31
0.0
 12
474.2020596658456
 22
481.9288995438745
 32
0.0
 13
474.2020596658456
 23
481.9288995438745
 33
0.0
  0
MTEXT
  5
15AD
330
7E8
100
AcDbEntity
  8
5
 62
     7
100
AcDbMText
 10
465.7152900217891
 20
534.9313236438746
 30
0.0
 40
14.0
 41
0.0
 71
     5
 72
     1
  1
106
 11
0.0000000000000001
 21
1.0
 31
0.0
 73
     1
 44
1.0
  0
POINT
  5
15AE
330
7E8
100
AcDbEntity
  8
Defpoints
 62
     0
100
AcDbPoint
 10
370.6776427185691
 20
587.6837477438746
 30
0.0
  0
POINT
  5
15AF
330
7E8
100
AcDbEntity
  8
Defpoints
 62
     0
100
AcDbPoint
 10
454.8405170462467
 20
481.9288995438745
 30
0.0
  0
POINT
  5
15B0
330
7E8
100
AcDbEntity
  8
Defpoints
 62
     0
100
AcDbPoint
 10
474.2020596658456
 20
481.9288995438745
 30
0.0
  0
ENDBLK
  5
7EA
330
7E8
100
AcDbEntity
  8
0
100
AcDbBlockEnd
  0
BLOCK
  5
8CB
330
8CA
100
AcDbEntity
  8
0
100
AcDbBlockBegin
  2
*D29
 70
     1
 10
0.0
 20
0.0
 30
0.0
  3
*D29
  1

  0
LINE
  5
15BA
330
8CA
100
AcDbEntity
  8
5
370
    -2
100
AcDbLine
 10
356.1364519742493
 20
562.7876005387141
 30
0.0
 11
448.0998642351249
 21
562.7876005387141
 31
0.0
  0
LINE
  5
15BB
330
8CA
100
AcDbEntity
  8
5
370
    -2
100
AcDbLine
 10
372.6776427185691
 20
587.6837477438746
 30
0.0
 11
448.0998642351249
 21
587.6837477438746
 31
0.0
  0
LINE
  5
15BC
330
8CA
100
AcDbEntity
  8
5
370
    -2
100
AcDbLine
 10
446.0998642351249
 20
567.7876005387141
 30
0.0
 11
446.0998642351249
 21
582.6837477438746
 31
0.0
  0
SOLID
  5
15BD
330
8CA
100
AcDbEntity
  8
5
100
AcDbTrace
 10
445.2665309017915
 20
567.7876005387141
 30
0.0
 11
446.9331975684582
 21
567.7876005387141
 31
0.0
 12
446.0998642351249
 22
562.7876005387141
 32
0.0
 13
446.0998642351249
 23
562.7876005387141
 33
0.0
  0
SOLID
  5
15BE
330
8CA
100
AcDbEntity
  8
5
100
AcDbTrace
 10
445.2665309017915
 20
582.6837477438746
 30
0.0
 11
446.9331975684582
 21
582.6837477438746
 31
0.0
 12
446.0998642351249
 22
587.6837477438746
 32
0.0
 13
446.0998642351249
 23
587.6837477438746
 33
0.0
  0
MTEXT
  5
15BF
330
8CA
100
AcDbEntity
  8
5
 62
     7
100
AcDbMText
 10
437.6083934493625
 20
575.2356741412945
 30
0.0
 40
14.0
 41
0.0
 71
     5
 72
     1
  1
25
 11
0.0000000000000001
 21
1.0
 31
0.0
 73
     1
 44
1.0
  0
POINT
  5
15C0
330
8CA
100
AcDbEntity
  8
Defpoints
 62
     0
100
AcDbPoint
 10
354.1364519742493
 20
562.7876005387141
 30
0.0
  0
POINT
  5
15C1
330
8CA
100
AcDbEntity
  8
Defpoints
 62
     0
100
AcDbPoint
 10
370.6776427185691
 20
587.6837477438746
 30
0.0
  0
POINT
  5
15C2
330
8CA
100
AcDbEntity
  8
Defpoints
 62
     0
100
AcDbPoint
 10
446.0998642351249
 20
587.6837477438746
 30
0.0
  0
ENDBLK
  5
8CC
330
8CA
100
AcDbEntity
  8
0
100
AcDbBlockEnd
  0
BLOCK
  5
9AD
330
9AC
100
AcDbEntity
  8
0
100
AcDbBlockBegin
  2
*D30
 70
     1
 10
0.0
 20
0.0
 30
0.0
  3
*D30
  1

  0
LINE
  5
15CC
330
9AC
100
AcDbEntity
  8
5
370
    -2
100
AcDbLine
 10
122.6271324613521
 20
569.6837477438746
 30
0.0
 11
122.6271324613521
 21
619.8274015751503
 31
0.0
  0
LINE
  5
15CD
330
9AC
100
AcDbEntity
  8
5
370
    -2
100
AcDbLine
 10
422.6271324613521
 20
569.6837477438746
 30
0.0
 11
422.6271324613521
 21
619.8274015751503
 31
0.0
  0
LINE
  5
15CE
330
9AC
100
AcDbEntity
  8
5
370
    -2
100
AcDbLine
 10
127.6271324613521
 20
617.8274015751504
 30
0.0
 11
417.6271324613521
 21
617.8274015751504
 31
0.0
  0
SOLID
  5
15CF
330
9AC
100
AcDbEntity
  8
5
100
AcDbTrace
 10
127.6271324613521
 20
618.6607349084837
 30
0.0
 11
127.6271324613521
 21
616.994068241817
 31
0.0
 12
122.6271324613521
 22
617.8274015751504
 32
0.0
 13
122.6271324613521
 23
617.8274015751504
 33
0.0
  0
SOLID
  5
15D0
330
9AC
100
AcDbEntity
  8
5
100
AcDbTrace
 10
417.6271324613521
 20
618.6607349084837
 30
0.0
 11
417.6271324613521
 21
616.994068241817
 31
0.0
 12
422.6271324613521
 22
617.8274015751504
 32
0.0
 13
422.6271324613521
 23
617.8274015751504
 33
0.0
  0
MTEXT
  5
15D1
330
9AC
100
AcDbEntity
  8
5
 62
     7
100
AcDbMText
 10
272.6271324613522
 20
626.3188723609125
 30
0.0
 40
14.0
 41
0.0
 71
     5
 72
     1
  1
{\Famgdt;o}300
 73
     1
 44
1.0
  0
POINT
  5
15D2
330
9AC
100
AcDbEntity
  8
Defpoints
 62
     0
100
AcDbPoint
 10
122.6271324613521
 20
567.6837477438746
 30
0.0
  0
POINT
  5
15D3
330
9AC
100
AcDbEntity
  8
Defpoints
 62
     0
100
AcDbPoint
 10
422.6271324613521
 20
567.6837477438746
 30
0.0
  0
POINT
  5
15D4
330
9AC
100
AcDbEntity
  8
Defpoints
 62
     0
100
AcDbPoint
 10
422.6271324613521
 20
617.8274015751504
 30
0.0
  0
ENDBLK
  5
9AE
330
9AC
100
AcDbEntity
  8
0
100
AcDbBlockEnd
  0
BLOCK
  5
A84
330
A83
100
AcDbEntity
  8
0
100
AcDbBlockBegin
  2
*D31
 70
     1
 10
0.0
 20
0.0
 30
0.0
  3
*D31
  1

  0
LINE
  5
15C3
330
A83
100
AcDbEntity
  8
5
370
    -2
100
AcDbLine
 10
172.6271324614348
 20
587.6837477438745
 30
0.0
 11
172.6271324614348
 21
597.7164120949869
 31
0.0
  0
LINE
  5
15C4
330
A83
100
AcDbEntity
  8
5
370
    -2
100
AcDbLine
 10
372.6271324614348
 20
587.6837477438745
 30
0.0
 11
372.6271324614348
 21
597.7164120949869
 31
0.0
  0
LINE
  5
15C5
330
A83
100
AcDbEntity
  8
5
370
    -2
100
AcDbLine
 10
177.6271324614348
 20
595.7164120949869
 30
0.0
 11
367.6271324614348
 21
595.7164120949869
 31
0.0
  0
SOLID
  5
15C6
330
A83
100
AcDbEntity
  8
5
100
AcDbTrace
 10
177.6271324614348
 20
596.5497454283203
 30
0.0
 11
177.6271324614348
 21
594.8830787616535
 31
0.0
 12
172.6271324614348
 22
595.7164120949869
 32
0.0
 13
172.6271324614348
 23
595.7164120949869
 33
0.0
  0
SOLID
  5
15C7
330
A83
100
AcDbEntity
  8
5
100
AcDbTrace
 10
367.6271324614348
 20
596.5497454283203
 30
0.0
 11
367.6271324614348
 21
594.8830787616535
 31
0.0
 12
372.6271324614348
 22
595.7164120949869
 32
0.0
 13
372.6271324614348
 23
595.7164120949869
 33
0.0
  0
MTEXT
  5
15C8
330
A83
100
AcDbEntity
  8
5
 62
     7
100
AcDbMText
 10
272.6271324614348
 20
604.2078828807491
 30
0.0
 40
14.0
 41
0.0
 71
     5
 72
     1
  1
{\Famgdt;o}200
 73
     1
 44
1.0
  0
POINT
  5
15C9
330
A83
100
AcDbEntity
  8
Defpoints
 62
     0
100
AcDbPoint
 10
172.6271324614348
 20
585.6837477438745
 30
0.0
  0
POINT
  5
15CA
330
A83
100
AcDbEntity
  8
Defpoints
 62
     0
100
AcDbPoint
 10
372.6271324614348
 20
585.6837477438745
 30
0.0
  0
POINT
  5
15CB
330
A83
100
AcDbEntity
  8
Defpoints
 62
     0
100
AcDbPoint
 10
372.6271324614348
 20
595.7164120949869
 30
0.0
  0
ENDBLK
  5
A85
330
A83
100
AcDbEntity
  8
0
100
AcDbBlockEnd
  0
BLOCK
  5
B5C
330
B5B
100
AcDbEntity
  8
0
100
AcDbBlockBegin
  2
*D32
 70
     1
 10
0.0
 20
0.0
 30
0.0
  3
*D32
  1

  0
LINE
  5
126D
330
B5B
100
AcDbEntity
  8
5
370
    -2
100
AcDbLine
 10
172.0009408644394
 20
587.6837477438746
 30
0.0
 11
109.6224374939883
 21
587.6837477438746
 31
0.0
  0
LINE
  5
126E
330
B5B
100
AcDbEntity
  8
5
370
    -2
100
AcDbLine
 10
227.6019199252456
 20
450.1788995438745
 30
0.0
 11
109.6224374939882
 21
450.1788995438745
 31
0.0
  0
LINE
  5
126F
330
B5B
100
AcDbEntity
  8
5
370
    -2
100
AcDbLine
 10
111.6224374939883
 20
582.6837477438746
 30
0.0
 11
111.6224374939882
 21
455.1788995438745
 31
0.0
  0
SOLID
  5
1270
330
B5B
100
AcDbEntity
  8
5
100
AcDbTrace
 10
110.7891041606549
 20
582.6837477438746
 30
0.0
 11
112.4557708273216
 21
582.6837477438746
 31
0.0
 12
111.6224374939883
 22
587.6837477438746
 32
0.0
 13
111.6224374939883
 23
587.6837477438746
 33
0.0
  0
SOLID
  5
1271
330
B5B
100
AcDbEntity
  8
5
100
AcDbTrace
 10
110.7891041606549
 20
455.1788995438745
 30
0.0
 11
112.4557708273215
 21
455.1788995438745
 31
0.0
 12
111.6224374939882
 22
450.1788995438745
 32
0.0
 13
111.6224374939882
 23
450.1788995438745
 33
0.0
  0
MTEXT
  5
1272
330
B5B
100
AcDbEntity
  8
5
 62
     7
100
AcDbMText
 10
95.78308222199357
 20
504.5740368742305
 30
0.0
 40
14.0
 41
0.0
 71
     1
 72
     1
  1
138
 11
0.0000000000000001
 21
1.0
 31
0.0
 73
     1
 44
1.0
  0
POINT
  5
1273
330
B5B
100
AcDbEntity
  8
Defpoints
 62
     0
100
AcDbPoint
 10
174.0009408644394
 20
587.6837477438746
 30
0.0
  0
POINT
  5
1274
330
B5B
100
AcDbEntity
  8
Defpoints
 62
     0
100
AcDbPoint
 10
229.6019199252457
 20
450.1788995438745
 30
0.0
  0
POINT
  5
1275
330
B5B
100
AcDbEntity
  8
Defpoints
 62
     0
100
AcDbPoint
 10
111.6224374939882
 20
450.1788995438745
 30
0.0
  0
ENDBLK
  5
B5D
330
B5B
100
AcDbEntity
  8
0
100
AcDbBlockEnd
  0
BLOCK
  5
C3D
330
C3C
100
AcDbEntity
  8
0
100
AcDbBlockBegin
  2
KUSOVNÍK
 70
     0
 10
0.0
 20
0.0
 30
0.0
  3
KUSOVNÍK
  1

  0
LINE
  5
C3F
330
C3C
100
AcDbEntity
  8
Značka (ISO)
100
AcDbLine
 10
584.0
 20
174.2305179536342
 30
0.0
 11
271.9901011557454
 21
174.2305179536342
 31
0.0
  0
LINE
  5
C40
330
C3C
100
AcDbEntity
  8
Značka (ISO)
100
AcDbLine
 10
584.0
 20
174.2305179536342
 30
0.0
 11
584.0
 21
167.8818167567253
 31
0.0
  0
LINE
  5
C41
330
C3C
100
AcDbEntity
  8
Značka (ISO)
100
AcDbLine
 10
271.9901011557454
 20
174.2305179536342
 30
0.0
 11
271.9901011557454
 21
167.8818167567253
 31
0.0
  0
MTEXT
  5
C42
102
{ACAD_XDICTIONARY
360
164F
102
}
330
C3C
100
AcDbEntity
  8
Značka (ISO)
100
AcDbMText
 10
417.4516721663422
 20
168.6064920037985
 30
0.0
 40
3.499999940395355
 41
0.0
 71
     7
 72
     1
  1
KUSOVN\U+00CDK
  7
Text poznámky (DIN)
 73
     1
 44
1.0
  0
LINE
  5
C44
330
C3C
100
AcDbEntity
  8
Značka (ISO)
100
AcDbLine
 10
584.0
 20
167.8818167567253
 30
0.0
 11
271.9901011557454
 21
167.8818167567253
 31
0.0
  0
LINE
  5
C45
330
C3C
100
AcDbEntity
  8
Značka (ISO)
100
AcDbLine
 10
584.0
 20
167.8818167567253
 30
0.0
 11
584.0
 21
161.5331155598164
 31
0.0
  0
MTEXT
  5
C46
102
{ACAD_XDICTIONARY
360
1651
102
}
330
C3C
100
AcDbEntity
  8
Značka (ISO)
100
AcDbMText
 10
553.0827640660119
 20
162.2577908068895
 30
0.0
 40
3.499999940395355
 41
0.0
 71
     7
 72
     1
  1
MATERI\U+00C1L
  7
Text poznámky (DIN)
 73
     1
 44
1.0
  0
LINE
  5
C47
330
C3C
100
AcDbEntity
  8
Značka (ISO)
100
AcDbLine
 10
542.5509862414013
 20
167.8818167567253
 30
0.0
 11
542.5509862414013
 21
161.5331155598164
 31
0.0
  0
MTEXT
  5
C48
330
C3C
100
AcDbEntity
  8
Značka (ISO)
100
AcDbMText
 10
510.7587505458319
 20
162.9574661880731
 30
0.0
 40
3.499999940395355
 41
0.0
 71
     7
 72
     1
  1
HMOTNOST
  7
Text poznámky (DIN)
 73
     1
 44
1.0
  0
LINE
  5
C49
330
C3C
100
AcDbEntity
  8
Značka (ISO)
100
AcDbLine
 10
501.1019724828026
 20
167.8818167567253
 30
0.0
 11
501.1019724828026
 21
161.5331155598164
 31
0.0
  0
MTEXT
  5
C4A
102
{ACAD_XDICTIONARY
360
1653
102
}
330
C3C
100
AcDbEntity
  8
Značka (ISO)
100
AcDbMText
 10
462.3129835714435
 20
162.2577908068895
 30
0.0
 40
3.499999940395355
 41
0.0
 71
     7
 72
     1
  1
SKLADOV\U+00C9 \U+010C\U+00CDSLO
  7
Text poznámky (DIN)
 73
     1
 44
1.0
  0
LINE
  5
C4B
330
C3C
100
AcDbEntity
  8
Značka (ISO)
100
AcDbLine
 10
459.652958724204
 20
167.8818167567253
 30
0.0
 11
459.652958724204
 21
161.5331155598164
 31
0.0
  0
MTEXT
  5
C4C
330
C3C
100
AcDbEntity
  8
Značka (ISO)
100
AcDbMText
 10
408.9577059121458
 20
162.9574661880731
 30
0.0
 40
3.499999940395355
 41
0.0
 71
     7
 72
     1
  1
POPIS
  7
Text poznámky (DIN)
 73
     1
 44
1.0
  0
LINE
  5
C4D
330
C3C
100
AcDbEntity
  8
Značka (ISO)
100
AcDbLine
 10
369.9011572784195
 20
167.8818167567253
 30
0.0
 11
369.9011572784195
 21
161.5331155598164
 31
0.0
  0
MTEXT
  5
C4E
330
C3C
100
AcDbEntity
  8
Značka (ISO)
100
AcDbMText
 10
347.0067201284806
 20
162.9574661880731
 30
0.0
 40
3.499999940395355
 41
0.0
 71
     7
 72
     1
  1
KS
  7
Text poznámky (DIN)
 73
     1
 44
1.0
  0
LINE
  5
C4F
330
C3C
100
AcDbEntity
  8
Značka (ISO)
100
AcDbLine
 10
329.1048838939719
 20
167.8818167567253
 30
0.0
 11
329.1048838939719
 21
161.5331155598164
 31
0.0
  0
MTEXT
  5
C50
330
C3C
100
AcDbEntity
  8
Značka (ISO)
100
AcDbMText
 10
293.6794390301677
 20
162.9574661880731
 30
0.0
 40
3.499999940395355
 41
0.0
 71
     7
 72
     1
  1
POZICE
  7
Text poznámky (DIN)
 73
     1
 44
1.0
  0
LINE
  5
C51
330
C3C
100
AcDbEntity
  8
Značka (ISO)
100
AcDbLine
 10
271.9901011557454
 20
167.8818167567253
 30
0.0
 11
271.9901011557454
 21
161.5331155598164
 31
0.0
  0
MTEXT
  5
C52
330
C3C
100
AcDbEntity
  8
Značka (ISO)
100
AcDbMText
 10
543.7533870103973
 20
156.6087649911642
 30
0.0
 40
3.499999940395355
 41
0.0
 71
     7
 72
     1
  1
Guma
  7
Text poznámky (DIN)
 73
     1
 44
1.0
  0
MTEXT
  5
C53
330
C3C
100
AcDbEntity
  8
Značka (ISO)
100
AcDbMText
 10
502.3043732517987
 20
155.5600637346506
 30
0.0
 40
3.499999940395355
 41
0.0
 71
     7
 72
     1
  1
0,095 kg
  7
Text poznámky (DIN)
 73
     1
 44
1.0
  0
MTEXT
  5
C54
330
C3C
100
AcDbEntity
  8
Značka (ISO)
100
AcDbMText
 10
460.8553594932001
 20
156.6087649911642
 30
0.0
 40
3.499999940395355
 41
0.0
 71
     7
 72
     1
  1
E55471
  7
Text poznámky (DIN)
 73
     1
 44
1.0
  0
MTEXT
  5
C55
102
{ACAD_XDICTIONARY
360
1655
102
}
330
C3C
100
AcDbEntity
  8
Značka (ISO)
100
AcDbMText
 10
371.1035580474156
 20
155.38636238873
 30
0.0
 40
3.499999940395355
 41
0.0
 71
     7
 72
     1
  1
ACO vpust 142 dr\U+017E\U+00E1k sifonu
  7
Text poznámky (DIN)
 73
     1
 44
1.0
  0
MTEXT
  5
C56
330
C3C
100
AcDbEntity
  8
Značka (ISO)
100
AcDbMText
 10
348.9276213629727
 20
156.6087649911642
 30
0.0
 40
3.499999940395355
 41
0.0
 71
     7
 72
     1
  1
1
  7
Text poznámky (DIN)
 73
     1
 44
1.0
  0
MTEXT
  5
C57
330
C3C
100
AcDbEntity
  8
Značka (ISO)
100
AcDbMText
 10
299.9720933016357
 20
156.6087649911642
 30
0.0
 40
3.499999940395355
 41
0.0
 71
     7
 72
     1
  1
1
  7
Text poznámky (DIN)
 73
     1
 44
1.0
  0
LINE
  5
C58
330
C3C
100
AcDbEntity
  8
Značka (ISO)
100
AcDbLine
 10
584.0
 20
161.5331155598164
 30
0.0
 11
271.9901011557454
 21
161.5331155598164
 31
0.0
  0
MTEXT
  5
C59
330
C3C
100
AcDbEntity
  8
Značka (ISO)
100
AcDbMText
 10
543.7533870103973
 20
150.2600637942552
 30
0.0
 40
3.499999940395355
 41
0.0
 71
     7
 72
     1
  1
PVC-U
  7
Text poznámky (DIN)
 73
     1
 44
1.0
  0
MTEXT
  5
C5A
330
C3C
100
AcDbEntity
  8
Značka (ISO)
100
AcDbMText
 10
502.3043732517987
 20
149.2113625377417
 30
0.0
 40
3.499999940395355
 41
0.0
 71
     7
 72
     1
  1
0,042 kg
  7
Text poznámky (DIN)
 73
     1
 44
1.0
  0
MTEXT
  5
C5B
330
C3C
100
AcDbEntity
  8
Značka (ISO)
100
AcDbMText
 10
460.8553594932001
 20
150.2600637942552
 30
0.0
 40
3.499999940395355
 41
0.0
 71
     7
 72
     1
  1
NM 6701
  7
Text poznámky (DIN)
 73
     1
 44
1.0
  0
MTEXT
  5
C5C
102
{ACAD_XDICTIONARY
360
1657
102
}
330
C3C
100
AcDbEntity
  8
Značka (ISO)
100
AcDbMText
 10
371.1035580474156
 20
149.0376611918211
 30
0.0
 40
3.499999940395355
 41
0.0
 71
     7
 72
     1
  1
n\U+00E1vlek sunap-DN70
  7
Text poznámky (DIN)
 73
     1
 44
1.0
  0
MTEXT
  5
C5D
330
C3C
100
AcDbEntity
  8
Značka (ISO)
100
AcDbMText
 10
348.9276213629727
 20
150.2600637942552
 30
0.0
 40
3.499999940395355
 41
0.0
 71
     7
 72
     1
  1
1
  7
Text poznámky (DIN)
 73
     1
 44
1.0
  0
MTEXT
  5
C5E
330
C3C
100
AcDbEntity
  8
Značka (ISO)
100
AcDbMText
 10
299.6258673589202
 20
150.2600637942552
 30
0.0
 40
3.499999940395355
 41
0.0
 71
     7
 72
     1
  1
2
  7
Text poznámky (DIN)
 73
     1
 44
1.0
  0
LINE
  5
C5F
330
C3C
100
AcDbEntity
  8
Značka (ISO)
100
AcDbLine
 10
584.0
 20
155.1844143629074
 30
0.0
 11
271.9901011557454
 21
155.1844143629074
 31
0.0
  0
MTEXT
  5
C60
330
C3C
100
AcDbEntity
  8
Značka (ISO)
100
AcDbMText
 10
543.7533870103973
 20
143.3870118945836
 30
0.0
 40
3.499999940395355
 41
0.0
 71
     7
 72
     1
  1
Mosaz (leskle 
  7
Text poznámky (DIN)
 73
     1
 44
1.0
  0
MTEXT
  5
C61
102
{ACAD_XDICTIONARY
360
1659
102
}
330
C3C
100
AcDbEntity
  8
Značka (ISO)
100
AcDbMText
 10
543.7533870103973
 20
137.0383107751608
 30
0.0
 40
3.499999940395355
 41
0.0
 71
     7
 72
     1
  1
\U+017Elut\U+00E1)
  7
Text poznámky (DIN)
 73
     1
 44
1.0
  0
MTEXT
  5
C62
330
C3C
100
AcDbEntity
  8
Značka (ISO)
100
AcDbMText
 10
502.3043732517987
 20
142.8626613408327
 30
0.0
 40
3.499999940395355
 41
0.0
 71
     7
 72
     1
  1
0,006 kg
  7
Text poznámky (DIN)
 73
     1
 44
1.0
  0
MTEXT
  5
C63
330
C3C
100
AcDbEntity
  8
Značka (ISO)
100
AcDbMText
 10
460.8553594932001
 20
143.9113625973463
 30
0.0
 40
3.499999940395355
 41
0.0
 71
     7
 72
     1
  1
90678
  7
Text poznámky (DIN)
 73
     1
 44
1.0
  0
MTEXT
  5
C64
102
{ACAD_XDICTIONARY
360
165B
102
}
330
C3C
100
AcDbEntity
  8
Značka (ISO)
100
AcDbMText
 10
371.1035580474156
 20
142.1629859596491
 30
0.0
 40
3.499999940395355
 41
0.0
 71
     7
 72
     1
  1
\U+0160estihrann\U+00E1 matice_mosaz M8
  7
Text poznámky (DIN)
 73
     1
 44
1.0
  0
MTEXT
  5
C65
330
C3C
100
AcDbEntity
  8
Značka (ISO)
100
AcDbMText
 10
348.9276213629727
 20
143.9113625973463
 30
0.0
 40
3.499999940395355
 41
0.0
 71
     7
 72
     1
  1
1
  7
Text poznámky (DIN)
 73
     1
 44
1.0
  0
MTEXT
  5
C66
330
C3C
100
AcDbEntity
  8
Značka (ISO)
100
AcDbMText
 10
299.6258673589202
 20
143.9113625973463
 30
0.0
 40
3.499999940395355
 41
0.0
 71
     7
 72
     1
  1
3
  7
Text poznámky (DIN)
 73
     1
 44
1.0
  0
LINE
  5
C67
330
C3C
100
AcDbEntity
  8
Značka (ISO)
100
AcDbLine
 10
584.0
 20
148.8357131659984
 30
0.0
 11
271.9901011557454
 21
148.8357131659984
 31
0.0
  0
MTEXT
  5
C68
330
C3C
100
AcDbEntity
  8
Značka (ISO)
100
AcDbMText
 10
543.7533870103973
 20
131.2139602035284
 30
0.0
 40
3.499999940395355
 41
0.0
 71
     7
 72
     1
  1
Plast ABS
  7
Text poznámky (DIN)
 73
     1
 44
1.0
  0
MTEXT
  5
C69
330
C3C
100
AcDbEntity
  8
Značka (ISO)
100
AcDbMText
 10
502.3043732517987
 20
130.1652589470148
 30
0.0
 40
3.499999940395355
 41
0.0
 71
     7
 72
     1
  1
0,002 kg
  7
Text poznámky (DIN)
 73
     1
 44
1.0
  0
MTEXT
  5
C6A
330
C3C
100
AcDbEntity
  8
Značka (ISO)
100
AcDbMText
 10
460.8553594932001
 20
131.2139602035284
 30
0.0
 40
3.499999940395355
 41
0.0
 71
     7
 72
     1
  1
91024
  7
Text poznámky (DIN)
 73
     1
 44
1.0
  0
MTEXT
  5
C6B
330
C3C
100
AcDbEntity
  8
Značka (ISO)
100
AcDbMText
 10
371.1035580474156
 20
130.1652589470148
 30
0.0
 40
3.499999940395355
 41
0.0
 71
     7
 72
     1
  1
Krytka  matic 130-034-148 
  7
Text poznámky (DIN)
 73
     1
 44
1.0
  0
MTEXT
  5
C6C
102
{ACAD_XDICTIONARY
360
165D
102
}
330
C3C
100
AcDbEntity
  8
Značka (ISO)
100
AcDbMText
 10
371.1035580474156
 20
124.1639603704214
 30
0.0
 40
3.499999940395355
 41
0.0
 71
     7
 72
     1
  1
\U+0161estihrann\U+00E1, \U+010Dern\U+00E1
  7
Text poznámky (DIN)
 73
     1
 44
1.0
  0
MTEXT
  5
C6D
330
C3C
100
AcDbEntity
  8
Značka (ISO)
100
AcDbMText
 10
348.9276213629727
 20
131.2139602035284
 30
0.0
 40
3.499999940395355
 41
0.0
 71
     7
 72
     1
  1
1
  7
Text poznámky (DIN)
 73
     1
 44
1.0
  0
MTEXT
  5
C6E
330
C3C
100
AcDbEntity
  8
Značka (ISO)
100
AcDbMText
 10
299.4505426804992
 20
131.2139602035284
 30
0.0
 40
3.499999940395355
 41
0.0
 71
     7
 72
     1
  1
4
  7
Text poznámky (DIN)
 73
     1
 44
1.0
  0
LINE
  5
C6F
330
C3C
100
AcDbEntity
  8
Značka (ISO)
100
AcDbLine
 10
584.0
 20
136.1383107721806
 30
0.0
 11
271.9901011557454
 21
136.1383107721806
 31
0.0
  0
MTEXT
  5
C70
102
{ACAD_XDICTIONARY
360
165F
102
}
330
C3C
100
AcDbEntity
  8
Značka (ISO)
100
AcDbMText
 10
543.7533870103973
 20
117.2941552072764
 30
0.0
 40
3.499999940395355
 41
0.0
 71
     7
 72
     1
  1
Polykarbon\U+00E1t, 
  7
Text poznámky (DIN)
 73
     1
 44
1.0
  0
MTEXT
  5
C71
102
{ACAD_XDICTIONARY
360
1661
102
}
330
C3C
100
AcDbEntity
  8
Značka (ISO)
100
AcDbMText
 10
543.7533870103973
 20
110.9454540878535
 30
0.0
 40
3.499999940395355
 41
0.0
 71
     7
 72
     1
  1
kou\U+0159ov\U+00FD
  7
Text poznámky (DIN)
 73
     1
 44
1.0
  0
MTEXT
  5
C72
330
C3C
100
AcDbEntity
  8
Značka (ISO)
100
AcDbMText
 10
502.3043732517987
 20
117.4678565531969
 30
0.0
 40
3.499999940395355
 41
0.0
 71
     7
 72
     1
  1
0,039 kg
  7
Text poznámky (DIN)
 73
     1
 44
1.0
  0
MTEXT
  5
C73
330
C3C
100
AcDbEntity
  8
Značka (ISO)
100
AcDbMText
 10
460.8553594932001
 20
118.5165578097105
 30
0.0
 40
3.499999940395355
 41
0.0
 71
     7
 72
     1
  1
E53832
  7
Text poznámky (DIN)
 73
     1
 44
1.0
  0
MTEXT
  5
C74
102
{ACAD_XDICTIONARY
360
1663
102
}
330
C3C
100
AcDbEntity
  8
Značka (ISO)
100
AcDbMText
 10
371.1035580474156
 20
117.2941552072764
 30
0.0
 40
3.499999940395355
 41
0.0
 71
     7
 72
     1
  1
Effidrain kryt plastov\U+00FD pro balen\U+00ED PP 
  7
Text poznámky (DIN)
 73
     1
 44
1.0
  0
MTEXT
  5
C75
330
C3C
100
AcDbEntity
  8
Značka (ISO)
100
AcDbMText
 10
371.1035580474156
 20
111.994155344367
 30
0.0
 40
3.499999940395355
 41
0.0
 71
     7
 72
     1
  1
kruh 200x200
  7
Text poznámky (DIN)
 73
     1
 44
1.0
  0
MTEXT
  5
C76
330
C3C
100
AcDbEntity
  8
Značka (ISO)
100
AcDbMText
 10
348.9276213629727
 20
118.5165578097105
 30
0.0
 40
3.499999940395355
 41
0.0
 71
     7
 72
     1
  1
1
  7
Text poznámky (DIN)
 73
     1
 44
1.0
  0
MTEXT
  5
C77
330
C3C
100
AcDbEntity
  8
Značka (ISO)
100
AcDbMText
 10
299.6258673589202
 20
118.5165578097105
 30
0.0
 40
3.499999940395355
 41
0.0
 71
     7
 72
     1
  1
6
  7
Text poznámky (DIN)
 73
     1
 44
1.0
  0
LINE
  5
C78
330
C3C
100
AcDbEntity
  8
Značka (ISO)
100
AcDbLine
 10
584.0
 20
123.4409083783627
 30
0.0
 11
271.9901011557454
 21
123.4409083783627
 31
0.0
  0
MTEXT
  5
C79
330
C3C
100
AcDbEntity
  8
Značka (ISO)
100
AcDbMText
 10
543.7533870103973
 20
105.8191554158926
 30
0.0
 40
3.499999940395355
 41
0.0
 71
     7
 72
     1
  1
Guma
  7
Text poznámky (DIN)
 73
     1
 44
1.0
  0
MTEXT
  5
C7A
330
C3C
100
AcDbEntity
  8
Značka (ISO)
100
AcDbMText
 10
502.3043732517987
 20
104.770454159379
 30
0.0
 40
3.499999940395355
 41
0.0
 71
     7
 72
     1
  1
0,073 kg
  7
Text poznámky (DIN)
 73
     1
 44
1.0
  0
MTEXT
  5
C7B
330
C3C
100
AcDbEntity
  8
Značka (ISO)
100
AcDbMText
 10
460.8553594932001
 20
105.8191554158926
 30
0.0
 40
3.499999940395355
 41
0.0
 71
     7
 72
     1
  1
408204
  7
Text poznámky (DIN)
 73
     1
 44
1.0
  0
MTEXT
  5
C7C
102
{ACAD_XDICTIONARY
360
1665
102
}
330
C3C
100
AcDbEntity
  8
Značka (ISO)
100
AcDbMText
 10
371.1035580474156
 20
104.5967528134585
 30
0.0
 40
3.499999940395355
 41
0.0
 71
     7
 72
     1
  1
Effidrain v\U+00FDpl\U+0148 rostov\U+00E1 n\U+00E1stavba 
  7
Text poznámky (DIN)
 73
     1
 44
1.0
  0
MTEXT
  5
C7D
330
C3C
100
AcDbEntity
  8
Značka (ISO)
100
AcDbMText
 10
371.1035580474156
 20
99.29675295054918
 30
0.0
 40
3.499999940395355
 41
0.0
 71
     7
 72
     1
  1
200x200
  7
Text poznámky (DIN)
 73
     1
 44
1.0
  0
MTEXT
  5
C7E
330
C3C
100
AcDbEntity
  8
Značka (ISO)
100
AcDbMText
 10
348.9276213629727
 20
105.8191554158926
 30
0.0
 40
3.499999940395355
 41
0.0
 71
     7
 72
     1
  1
1
  7
Text poznámky (DIN)
 73
     1
 44
1.0
  0
MTEXT
  5
C7F
330
C3C
100
AcDbEntity
  8
Značka (ISO)
100
AcDbMText
 10
299.6230673517999
 20
105.8191554158926
 30
0.0
 40
3.499999940395355
 41
0.0
 71
     7
 72
     1
  1
7
  7
Text poznámky (DIN)
 73
     1
 44
1.0
  0
LINE
  5
C80
330
C3C
100
AcDbEntity
  8
Značka (ISO)
100
AcDbLine
 10
584.0
 20
110.7435059845448
 30
0.0
 11
271.9901011557454
 21
110.7435059845448
 31
0.0
  0
MTEXT
  5
C81
330
C3C
100
AcDbEntity
  8
Značka (ISO)
100
AcDbMText
 10
543.4509862414013
 20
93.12175302207476
 30
0.0
 40
3.499999940395355
 41
0.0
 71
     7
 72
     1
  1
 
  7
Text poznámky (DIN)
 73
     1
 44
1.0
  0
MTEXT
  5
C82
330
C3C
100
AcDbEntity
  8
Značka (ISO)
100
AcDbMText
 10
502.3043732517987
 20
92.07305176556117
 30
0.0
 40
3.499999940395355
 41
0.0
 71
     7
 72
     1
  1
0,387 kg
  7
Text poznámky (DIN)
 73
     1
 44
1.0
  0
MTEXT
  5
C83
330
C3C
100
AcDbEntity
  8
Značka (ISO)
100
AcDbMText
 10
460.8553594932001
 20
93.12175302207476
 30
0.0
 40
3.499999940395355
 41
0.0
 71
     7
 72
     1
  1
E55518
  7
Text poznámky (DIN)
 73
     1
 44
1.0
  0
MTEXT
  5
C84
330
C3C
100
AcDbEntity
  8
Značka (ISO)
100
AcDbMText
 10
371.1035580474156
 20
92.07305176556117
 30
0.0
 40
3.499999940395355
 41
0.0
 71
     7
 72
     1
  1
ACO vpust 142 sifon svarenec V2A
  7
Text poznámky (DIN)
 73
     1
 44
1.0
  0
MTEXT
  5
C85
330
C3C
100
AcDbEntity
  8
Značka (ISO)
100
AcDbMText
 10
348.9276213629727
 20
93.12175302207476
 30
0.0
 40
3.499999940395355
 41
0.0
 71
     7
 72
     1
  1
1
  7
Text poznámky (DIN)
 73
     1
 44
1.0
  0
MTEXT
  5
C86
330
C3C
100
AcDbEntity
  8
Značka (ISO)
100
AcDbMText
 10
299.6258673589202
 20
93.12175302207476
 30
0.0
 40
3.499999940395355
 41
0.0
 71
     7
 72
     1
  1
8
  7
Text poznámky (DIN)
 73
     1
 44
1.0
  0
LINE
  5
C87
330
C3C
100
AcDbEntity
  8
Značka (ISO)
100
AcDbLine
 10
584.0
 20
98.04610359072693
 30
0.0
 11
271.9901011557454
 21
98.04610359072693
 31
0.0
  0
MTEXT
  5
C88
330
C3C
100
AcDbEntity
  8
Značka (ISO)
100
AcDbMText
 10
543.4509862414013
 20
86.77305182516581
 30
0.0
 40
3.499999940395355
 41
0.0
 71
     7
 72
     1
  1
 
  7
Text poznámky (DIN)
 73
     1
 44
1.0
  0
MTEXT
  5
C89
330
C3C
100
AcDbEntity
  8
Značka (ISO)
100
AcDbMText
 10
502.3043732517987
 20
85.7243505686522
 30
0.0
 40
3.499999940395355
 41
0.0
 71
     7
 72
     1
  1
2,159 kg
  7
Text poznámky (DIN)
 73
     1
 44
1.0
  0
MTEXT
  5
C8A
330
C3C
100
AcDbEntity
  8
Značka (ISO)
100
AcDbMText
 10
460.8553594932001
 20
86.77305182516581
 30
0.0
 40
3.499999940395355
 41
0.0
 71
     7
 72
     1
  1
E55661
  7
Text poznámky (DIN)
 73
     1
 44
1.0
  0
MTEXT
  5
C8B
102
{ACAD_XDICTIONARY
360
1667
102
}
330
C3C
100
AcDbEntity
  8
Značka (ISO)
100
AcDbMText
 10
371.1035580474156
 20
85.55064922273164
 30
0.0
 40
3.499999940395355
 41
0.0
 71
     7
 72
     1
  1
ACO vpust 142 svarenec vod. p\U+0159\U+00EDruba 
  7
Text poznámky (DIN)
 73
     1
 44
1.0
  0
MTEXT
  5
C8C
330
C3C
100
AcDbEntity
  8
Značka (ISO)
100
AcDbMText
 10
371.1035580474156
 20
80.25064935982229
 30
0.0
 40
3.499999940395355
 41
0.0
 71
     7
 72
     1
  1
V2A
  7
Text poznámky (DIN)
 73
     1
 44
1.0
  0
MTEXT
  5
C8D
330
C3C
100
AcDbEntity
  8
Značka (ISO)
100
AcDbMText
 10
348.9276213629727
 20
86.77305182516581
 30
0.0
 40
3.499999940395355
 41
0.0
 71
     7
 72
     1
  1
1
  7
Text poznámky (DIN)
 73
     1
 44
1.0
  0
MTEXT
  5
C8E
330
C3C
100
AcDbEntity
  8
Značka (ISO)
100
AcDbMText
 10
298.7480672921952
 20
86.77305182516581
 30
0.0
 40
3.499999940395355
 41
0.0
 71
     7
 72
     1
  1
12
  7
Text poznámky (DIN)
 73
     1
 44
1.0
  0
LINE
  5
C8F
330
C3C
100
AcDbEntity
  8
Značka (ISO)
100
AcDbLine
 10
584.0
 20
91.69740239381795
 30
0.0
 11
271.9901011557454
 21
91.69740239381795
 31
0.0
  0
MTEXT
  5
C90
330
C3C
100
AcDbEntity
  8
Značka (ISO)
100
AcDbMText
 10
543.7533870103973
 20
74.0756494313479
 30
0.0
 40
3.499999940395355
 41
0.0
 71
     7
 72
     1
  1
PE-HD
  7
Text poznámky (DIN)
 73
     1
 44
1.0
  0
MTEXT
  5
C91
330
C3C
100
AcDbEntity
  8
Značka (ISO)
100
AcDbMText
 10
502.3043732517987
 20
73.0269481748343
 30
0.0
 40
3.499999940395355
 41
0.0
 71
     7
 72
     1
  1
0,000 kg
  7
Text poznámky (DIN)
 73
     1
 44
1.0
  0
MTEXT
  5
C92
330
C3C
100
AcDbEntity
  8
Značka (ISO)
100
AcDbMText
 10
460.8553594932001
 20
74.0756494313479
 30
0.0
 40
3.499999940395355
 41
0.0
 71
     7
 72
     1
  1
NM6522
  7
Text poznámky (DIN)
 73
     1
 44
1.0
  0
MTEXT
  5
C93
330
C3C
100
AcDbEntity
  8
Značka (ISO)
100
AcDbMText
 10
371.1035580474156
 20
73.0269481748343
 30
0.0
 40
3.499999940395355
 41
0.0
 71
     7
 72
     1
  1
sitka pro baleni
  7
Text poznámky (DIN)
 73
     1
 44
1.0
  0
MTEXT
  5
C94
330
C3C
100
AcDbEntity
  8
Značka (ISO)
100
AcDbMText
 10
348.9276213629727
 20
74.0756494313479
 30
0.0
 40
3.499999940395355
 41
0.0
 71
     7
 72
     1
  1
1
  7
Text poznámky (DIN)
 73
     1
 44
1.0
  0
MTEXT
  5
C95
330
C3C
100
AcDbEntity
  8
Značka (ISO)
100
AcDbMText
 10
298.5727426137742
 20
74.0756494313479
 30
0.0
 40
3.499999940395355
 41
0.0
 71
     7
 72
     1
  1
14
  7
Text poznámky (DIN)
 73
     1
 44
1.0
  0
LINE
  5
C96
330
C3C
100
AcDbEntity
  8
Značka (ISO)
100
AcDbLine
 10
584.0
 20
79.00000000000004
 30
0.0
 11
271.9901011557454
 21
79.00000000000004
 31
0.0
  0
LINE
  5
C97
330
C3C
100
AcDbEntity
  8
Značka (ISO)
100
AcDbLine
 10
584.0
 20
72.65129880309109
 30
0.0
 11
271.9901011557454
 21
72.65129880309109
 31
0.0
  0
LINE
  5
C98
330
C3C
100
AcDbEntity
  8
Značka (ISO)
100
AcDbLine
 10
584.0
 20
161.5331155598164
 30
0.0
 11
584.0
 21
72.65129880309109
 31
0.0
  0
LINE
  5
C99
330
C3C
100
AcDbEntity
  8
Značka (ISO)
100
AcDbLine
 10
542.5509862414013
 20
161.5331155598164
 30
0.0
 11
542.5509862414013
 21
72.65129880309109
 31
0.0
  0
LINE
  5
C9A
330
C3C
100
AcDbEntity
  8
Značka (ISO)
100
AcDbLine
 10
501.1019724828026
 20
161.5331155598164
 30
0.0
 11
501.1019724828026
 21
72.65129880309109
 31
0.0
  0
LINE
  5
C9B
330
C3C
100
AcDbEntity
  8
Značka (ISO)
100
AcDbLine
 10
459.652958724204
 20
161.5331155598164
 30
0.0
 11
459.652958724204
 21
72.65129880309109
 31
0.0
  0
LINE
  5
C9C
330
C3C
100
AcDbEntity
  8
Značka (ISO)
100
AcDbLine
 10
369.9011572784195
 20
161.5331155598164
 30
0.0
 11
369.9011572784195
 21
72.65129880309109
 31
0.0
  0
LINE
  5
C9D
330
C3C
100
AcDbEntity
  8
Značka (ISO)
100
AcDbLine
 10
329.1048838939719
 20
161.5331155598164
 30
0.0
 11
329.1048838939719
 21
72.65129880309109
 31
0.0
  0
LINE
  5
C9E
330
C3C
100
AcDbEntity
  8
Značka (ISO)
100
AcDbLine
 10
271.9901011557454
 20
161.5331155598164
 30
0.0
 11
271.9901011557454
 21
72.65129880309109
 31
0.0
  0
ENDBLK
  5
C3E
330
C3C
100
AcDbEntity
  8
0
100
AcDbBlockEnd
  0
BLOCK
  5
DF2
330
DF0
100
AcDbEntity
  8
0
100
AcDbBlockBegin
  2
GENAXEH
 70
     0
 10
0.0
 20
0.0
 30
0.0
  3
GENAXEH
  1

  0
LINE
  5
DF1
330
DF0
100
AcDbEntity
  8
0
100
AcDbLine
 10
-1.0
 20
0.0
 30
0.0
 11
1.0
 21
0.0
 31
0.0
  0
ENDBLK
  5
DF3
330
DF0
100
AcDbEntity
  8
0
100
AcDbBlockEnd
  0
BLOCK
  5
E04
330
E03
100
AcDbEntity
  8
0
100
AcDbBlockBegin
  2
*D35
 70
     1
 10
0.0
 20
0.0
 30
0.0
  3
*D35
  1

  0
LINE
  5
E05
330
E03
100
AcDbEntity
  8
5
370
    -2
100
AcDbLine
 10
245.0393895830578
 20
583.5912589749067
 30
0.0
 11
130.7369658968961
 21
583.5912589749067
 31
0.0
  0
LINE
  5
E06
330
E03
100
AcDbEntity
  8
5
370
    -2
100
AcDbLine
 10
203.5217514928528
 20
718.0145693739752
 30
0.0
 11
130.7369658968961
 21
718.0145693739752
 31
0.0
  0
LINE
  5
E07
330
E03
100
AcDbEntity
  8
5
370
    -2
100
AcDbLine
 10
132.7369658968961
 20
588.5912589749067
 30
0.0
 11
132.7369658968961
 21
713.014569373975
 31
0.0
  0
SOLID
  5
E08
330
E03
100
AcDbEntity
  8
5
100
AcDbTrace
 10
131.9036325635627
 20
588.5912589749067
 30
0.0
 11
133.5702992302294
 21
588.5912589749067
 31
0.0
 12
132.7369658968961
 22
583.5912589749067
 32
0.0
 13
132.7369658968961
 23
583.5912589749067
 33
0.0
  0
SOLID
  5
E09
330
E03
100
AcDbEntity
  8
5
100
AcDbTrace
 10
131.9036325635628
 20
713.014569373975
 30
0.0
 11
133.5702992302294
 21
713.014569373975
 31
0.0
 12
132.7369658968961
 22
718.0145693739752
 32
0.0
 13
132.7369658968961
 23
718.0145693739752
 33
0.0
  0
MTEXT
  5
E0A
330
E03
100
AcDbEntity
  8
5
 62
     7
100
AcDbMText
 10
124.2454951111337
 20
642.5424575059553
 30
0.0
 40
14.0
 41
0.0
 71
     5
 72
     1
  1
134
 11
0.0000000000000001
 21
1.0
 31
0.0
 73
     1
 44
1.0
  0
POINT
  5
E0B
330
E03
100
AcDbEntity
  8
Defpoints
 62
     0
100
AcDbPoint
 10
247.0393895830578
 20
583.5912589749067
 30
0.0
  0
POINT
  5
E0C
330
E03
100
AcDbEntity
  8
Defpoints
 62
     0
100
AcDbPoint
 10
205.5217514928528
 20
718.0145693739752
 30
0.0
  0
POINT
  5
E0D
330
E03
100
AcDbEntity
  8
Defpoints
 62
     0
100
AcDbPoint
 10
132.7369658968961
 20
718.0145693739752
 30
0.0
  0
ENDBLK
  5
E0E
330
E03
100
AcDbEntity
  8
0
100
AcDbBlockEnd
  0
BLOCK
  5
E10
330
E0F
100
AcDbEntity
  8
0
100
AcDbBlockBegin
  2
*D36
 70
     1
 10
0.0
 20
0.0
 30
0.0
  3
*D36
  1

  0
LINE
  5
E11
330
E0F
100
AcDbEntity
  8
5
370
    -2
100
AcDbLine
 10
403.5217514928527
 20
718.0145693739752
 30
0.0
 11
403.5217514928527
 21
738.014569373975
 31
0.0
  0
LINE
  5
E12
330
E0F
100
AcDbEntity
  8
5
370
    -2
100
AcDbLine
 10
203.5217514928528
 20
718.0145693739752
 30
0.0
 11
203.5217514928528
 21
738.014569373975
 31
0.0
  0
LINE
  5
E13
330
E0F
100
AcDbEntity
  8
5
370
    -2
100
AcDbLine
 10
398.5217514928528
 20
736.0145693739752
 30
0.0
 11
208.5217514928528
 21
736.0145693739752
 31
0.0
  0
SOLID
  5
E14
330
E0F
100
AcDbEntity
  8
5
100
AcDbTrace
 10
398.5217514928528
 20
736.8479027073085
 30
0.0
 11
398.5217514928528
 21
735.1812360406418
 31
0.0
 12
403.5217514928527
 22
736.0145693739752
 32
0.0
 13
403.5217514928527
 23
736.0145693739752
 33
0.0
  0
SOLID
  5
E15
330
E0F
100
AcDbEntity
  8
5
100
AcDbTrace
 10
208.5217514928528
 20
736.8479027073085
 30
0.0
 11
208.5217514928528
 21
735.1812360406418
 31
0.0
 12
203.5217514928528
 22
736.0145693739752
 32
0.0
 13
203.5217514928528
 23
736.0145693739752
 33
0.0
  0
MTEXT
  5
E16
330
E0F
100
AcDbEntity
  8
5
 62
     7
100
AcDbMText
 10
284.2763800479423
 20
751.7975109454995
 30
0.0
 40
14.0
 41
0.0
 71
     1
 72
     1
  1
{\fAIGDT|b0|i0;\H7.0000;o\fTahoma|b0|i0;\H7.0000;}200
 73
     1
 44
1.0
  0
POINT
  5
E17
330
E0F
100
AcDbEntity
  8
Defpoints
 62
     0
100
AcDbPoint
 10
403.5217514928527
 20
716.014569373975
 30
0.0
  0
POINT
  5
E18
330
E0F
100
AcDbEntity
  8
Defpoints
 62
     0
100
AcDbPoint
 10
203.5217514928528
 20
716.014569373975
 30
0.0
  0
POINT
  5
E19
330
E0F
100
AcDbEntity
  8
Defpoints
 62
     0
100
AcDbPoint
 10
203.5217514928528
 20
736.0145693739752
 30
0.0
  0
ENDBLK
  5
E1A
330
E0F
100
AcDbEntity
  8
0
100
AcDbBlockEnd
  0
BLOCK
  5
E1C
330
E1B
100
AcDbEntity
  8
0
100
AcDbBlockBegin
  2
*D37
 70
     1
 10
0.0
 20
0.0
 30
0.0
  3
*D37
  1

  0
LINE
  5
E1D
330
E1B
100
AcDbEntity
  8
5
370
    -2
100
AcDbLine
 10
153.5217514929354
 20
700.014569373975
 30
0.0
 11
153.5217514929354
 21
768.0145693739752
 31
0.0
  0
LINE
  5
E1E
330
E1B
100
AcDbEntity
  8
5
370
    -2
100
AcDbLine
 10
453.5217514929354
 20
700.014569373975
 30
0.0
 11
453.5217514929354
 21
768.0145693739752
 31
0.0
  0
LINE
  5
E1F
330
E1B
100
AcDbEntity
  8
5
370
    -2
100
AcDbLine
 10
158.5217514929354
 20
766.014569373975
 30
0.0
 11
448.5217514929354
 21
766.014569373975
 31
0.0
  0
SOLID
  5
E20
330
E1B
100
AcDbEntity
  8
5
100
AcDbTrace
 10
158.5217514929354
 20
766.8479027073085
 30
0.0
 11
158.5217514929354
 21
765.1812360406418
 31
0.0
 12
153.5217514929354
 22
766.014569373975
 32
0.0
 13
153.5217514929354
 23
766.014569373975
 33
0.0
  0
SOLID
  5
E21
330
E1B
100
AcDbEntity
  8
5
100
AcDbTrace
 10
448.5217514929354
 20
766.8479027073085
 30
0.0
 11
448.5217514929354
 21
765.1812360406418
 31
0.0
 12
453.5217514929354
 22
766.014569373975
 32
0.0
 13
453.5217514929354
 23
766.014569373975
 33
0.0
  0
MTEXT
  5
E22
330
E1B
100
AcDbEntity
  8
5
 62
     7
100
AcDbMText
 10
284.2763800480248
 20
781.7975109454995
 30
0.0
 40
14.0
 41
0.0
 71
     1
 72
     1
  1
{\fAIGDT|b0|i0;\H7.0000;o\fTahoma|b0|i0;\H7.0000;}300
 73
     1
 44
1.0
  0
POINT
  5
E23
330
E1B
100
AcDbEntity
  8
Defpoints
 62
     0
100
AcDbPoint
 10
153.5217514929354
 20
698.0145693739752
 30
0.0
  0
POINT
  5
E24
330
E1B
100
AcDbEntity
  8
Defpoints
 62
     0
100
AcDbPoint
 10
453.5217514929354
 20
698.0145693739752
 30
0.0
  0
POINT
  5
E25
330
E1B
100
AcDbEntity
  8
Defpoints
 62
     0
100
AcDbPoint
 10
453.5217514929354
 20
766.014569373975
 30
0.0
  0
ENDBLK
  5
E26
330
E1B
100
AcDbEntity
  8
0
100
AcDbBlockEnd
  0
BLOCK
  5
E28
330
E27
100
AcDbEntity
  8
0
100
AcDbBlockBegin
  2
*D38
 70
     1
 10
0.0
 20
0.0
 30
0.0
  3
*D38
  1

  0
LINE
  5
E29
330
E27
100
AcDbEntity
  8
5
370
    -2
100
AcDbLine
 10
248.5217514928528
 20
484.5294175739751
 30
0.0
 11
92.32421837915865
 21
484.5294175739751
 31
0.0
  0
LINE
  5
E2A
330
E27
100
AcDbEntity
  8
5
370
    -2
100
AcDbLine
 10
203.5217514928528
 20
718.0145693739752
 30
0.0
 11
92.32421837915865
 21
718.0145693739752
 31
0.0
  0
LINE
  5
E2B
330
E27
100
AcDbEntity
  8
5
370
    -2
100
AcDbLine
 10
94.32421837915859
 20
489.5294175739752
 30
0.0
 11
94.32421837915866
 21
713.014569373975
 31
0.0
  0
SOLID
  5
E2C
330
E27
100
AcDbEntity
  8
5
100
AcDbTrace
 10
93.4908850458253
 20
489.5294175739752
 30
0.0
 11
95.15755171249194
 21
489.5294175739752
 31
0.0
 12
94.32421837915859
 22
484.5294175739751
 32
0.0
 13
94.32421837915859
 23
484.5294175739751
 33
0.0
  0
SOLID
  5
E2D
330
E27
100
AcDbEntity
  8
5
100
AcDbTrace
 10
93.4908850458253
 20
713.014569373975
 30
0.0
 11
95.15755171249201
 21
713.014569373975
 31
0.0
 12
94.32421837915866
 22
718.0145693739752
 32
0.0
 13
94.32421837915866
 23
718.0145693739752
 33
0.0
  0
MTEXT
  5
E2E
330
E27
100
AcDbEntity
  8
5
 62
     7
100
AcDbMText
 10
85.83274759339628
 20
602.7719934646666
 30
0.0
 40
14.0
 41
0.0
 71
     5
 72
     1
  1
233
 11
0.0000000000000001
 21
1.0
 31
0.0
 73
     1
 44
1.0
  0
POINT
  5
E2F
330
E27
100
AcDbEntity
  8
Defpoints
 62
     0
100
AcDbPoint
 10
250.5217514928528
 20
484.5294175739751
 30
0.0
  0
POINT
  5
E30
330
E27
100
AcDbEntity
  8
Defpoints
 62
     0
100
AcDbPoint
 10
205.5217514928528
 20
718.0145693739752
 30
0.0
  0
POINT
  5
E31
330
E27
100
AcDbEntity
  8
Defpoints
 62
     0
100
AcDbPoint
 10
94.32421837915866
 20
718.0145693739752
 30
0.0
  0
ENDBLK
  5
E32
330
E27
100
AcDbEntity
  8
0
100
AcDbBlockEnd
  0
BLOCK
  5
E34
330
E33
100
AcDbEntity
  8
0
100
AcDbBlockBegin
  2
*D39
 70
     1
 10
0.0
 20
0.0
 30
0.0
  3
*D39
  1

  0
LINE
  5
E35
330
E33
100
AcDbEntity
  8
5
370
    -2
100
AcDbLine
 10
232.2717514928528
 20
597.0581404949768
 30
0.0
 11
232.2717514928528
 21
429.5095739589996
 31
0.0
  0
LINE
  5
E36
330
E33
100
AcDbEntity
  8
5
370
    -2
100
AcDbLine
 10
374.7717514928528
 20
597.0581404949765
 30
0.0
 11
374.7717514928528
 21
429.5095739589996
 31
0.0
  0
LINE
  5
E37
330
E33
100
AcDbEntity
  8
5
370
    -2
100
AcDbLine
 10
237.2717514928528
 20
431.5095739589996
 30
0.0
 11
369.7717514928528
 21
431.5095739589996
 31
0.0
  0
SOLID
  5
E38
330
E33
100
AcDbEntity
  8
5
100
AcDbTrace
 10
237.2717514928528
 20
432.3429072923328
 30
0.0
 11
237.2717514928528
 21
430.6762406256662
 31
0.0
 12
232.2717514928528
 22
431.5095739589996
 32
0.0
 13
232.2717514928528
 23
431.5095739589996
 33
0.0
  0
SOLID
  5
E39
330
E33
100
AcDbEntity
  8
5
100
AcDbTrace
 10
369.7717514928528
 20
432.3429072923328
 30
0.0
 11
369.7717514928528
 21
430.6762406256662
 31
0.0
 12
374.7717514928528
 22
431.5095739589996
 32
0.0
 13
374.7717514928528
 23
431.5095739589996
 33
0.0
  0
MTEXT
  5
E3A
330
E33
100
AcDbEntity
  8
5
 62
     7
100
AcDbMText
 10
303.5217514928528
 20
440.6874114338148
 30
0.0
 40
14.0
 41
0.0
 71
     5
 72
     1
  1
%%C142
 73
     1
 44
1.0
  0
POINT
  5
E3B
330
E33
100
AcDbEntity
  8
Defpoints
 62
     0
100
AcDbPoint
 10
232.2717514928528
 20
599.0581404949766
 30
0.0
  0
POINT
  5
E3C
330
E33
100
AcDbEntity
  8
Defpoints
 62
     0
100
AcDbPoint
 10
374.7717514928528
 20
599.0581404949765
 30
0.0
  0
POINT
  5
E3D
330
E33
100
AcDbEntity
  8
Defpoints
 62
     0
100
AcDbPoint
 10
374.7717514928528
 20
431.5095739589996
 30
0.0
  0
ENDBLK
  5
E3E
330
E33
100
AcDbEntity
  8
0
100
AcDbBlockEnd
  0
BLOCK
  5
E40
330
E3F
100
AcDbEntity
  8
0
100
AcDbBlockBegin
  2
*D40
 70
     1
 10
0.0
 20
0.0
 30
0.0
  3
*D40
  1

  0
LINE
  5
E41
330
E3F
100
AcDbEntity
  8
5
370
    -2
100
AcDbLine
 10
248.5217514928529
 20
490.5201291794626
 30
0.0
 11
248.5217514928529
 21
458.0183126804898
 31
0.0
  0
LINE
  5
E42
330
E3F
100
AcDbEntity
  8
5
370
    -2
100
AcDbLine
 10
358.5217514928528
 20
490.5201291794626
 30
0.0
 11
358.5217514928528
 21
458.0183126804898
 31
0.0
  0
LINE
  5
E43
330
E3F
100
AcDbEntity
  8
5
370
    -2
100
AcDbLine
 10
253.5217514928529
 20
460.0183126804896
 30
0.0
 11
353.5217514928528
 21
460.0183126804896
 31
0.0
  0
SOLID
  5
E44
330
E3F
100
AcDbEntity
  8
5
100
AcDbTrace
 10
253.5217514928529
 20
460.8516460138231
 30
0.0
 11
253.5217514928529
 21
459.1849793471562
 31
0.0
 12
248.5217514928529
 22
460.0183126804896
 32
0.0
 13
248.5217514928529
 23
460.0183126804896
 33
0.0
  0
SOLID
  5
E45
330
E3F
100
AcDbEntity
  8
5
100
AcDbTrace
 10
353.5217514928528
 20
460.8516460138231
 30
0.0
 11
353.5217514928528
 21
459.1849793471562
 31
0.0
 12
358.5217514928528
 22
460.0183126804896
 32
0.0
 13
358.5217514928528
 23
460.0183126804896
 33
0.0
  0
MTEXT
  5
E46
330
E3F
100
AcDbEntity
  8
5
 62
     7
100
AcDbMText
 10
303.5217514928528
 20
469.196150155305
 30
0.0
 40
14.0
 41
0.0
 71
     5
 72
     1
  1
%%c110
 73
     1
 44
1.0
  0
POINT
  5
E47
330
E3F
100
AcDbEntity
  8
Defpoints
 62
     0
100
AcDbPoint
 10
248.5217514928529
 20
492.5201291794627
 30
0.0
  0
POINT
  5
E48
330
E3F
100
AcDbEntity
  8
Defpoints
 62
     0
100
AcDbPoint
 10
358.5217514928528
 20
492.5201291794627
 30
0.0
  0
POINT
  5
E49
330
E3F
100
AcDbEntity
  8
Defpoints
 62
     0
100
AcDbPoint
 10
358.5217514928528
 20
460.0183126804896
 30
0.0
  0
ENDBLK
  5
E4A
330
E3F
100
AcDbEntity
  8
0
100
AcDbBlockEnd
  0
BLOCK
  5
E4C
330
E4B
100
AcDbEntity
  8
0
100
AcDbBlockBegin
  2
*D41
 70
     1
 10
0.0
 20
0.0
 30
0.0
  3
*D41
  1

  0
LINE
  5
E4D
330
E4B
100
AcDbEntity
  8
5
370
    -2
100
AcDbLine
 10
403.5217514928527
 20
718.0145693739752
 30
0.0
 11
477.0880881704361
 21
718.0145693739752
 31
0.0
  0
LINE
  5
E4E
330
E4B
100
AcDbEntity
  8
5
370
    -2
100
AcDbLine
 10
392.1651222582814
 20
693.0145693739752
 30
0.0
 11
477.0880881704361
 21
693.0145693739752
 31
0.0
  0
LINE
  5
E4F
330
E4B
100
AcDbEntity
  8
5
370
    -2
100
AcDbLine
 10
475.088088170436
 20
713.014569373975
 30
0.0
 11
475.088088170436
 21
698.0145693739752
 31
0.0
  0
SOLID
  5
E50
330
E4B
100
AcDbEntity
  8
5
100
AcDbTrace
 10
474.2547548371028
 20
713.014569373975
 30
0.0
 11
475.9214215037695
 21
713.014569373975
 31
0.0
 12
475.088088170436
 22
718.0145693739752
 32
0.0
 13
475.088088170436
 23
718.0145693739752
 33
0.0
  0
SOLID
  5
E51
330
E4B
100
AcDbEntity
  8
5
100
AcDbTrace
 10
474.2547548371028
 20
698.0145693739752
 30
0.0
 11
475.9214215037695
 21
698.0145693739752
 31
0.0
 12
475.088088170436
 22
693.0145693739752
 32
0.0
 13
475.088088170436
 23
693.0145693739752
 33
0.0
  0
MTEXT
  5
E52
330
E4B
100
AcDbEntity
  8
5
 62
     7
100
AcDbMText
 10
466.5966173846738
 20
705.5145693739752
 30
0.0
 40
14.0
 41
0.0
 71
     5
 72
     1
  1
25
 11
0.0000000000000001
 21
1.0
 31
0.0
 73
     1
 44
1.0
  0
POINT
  5
E53
330
E4B
100
AcDbEntity
  8
Defpoints
 62
     0
100
AcDbPoint
 10
401.5217514928528
 20
718.0145693739752
 30
0.0
  0
POINT
  5
E54
330
E4B
100
AcDbEntity
  8
Defpoints
 62
     0
100
AcDbPoint
 10
390.1651222582814
 20
693.0145693739752
 30
0.0
  0
POINT
  5
E55
330
E4B
100
AcDbEntity
  8
Defpoints
 62
     0
100
AcDbPoint
 10
475.088088170436
 20
693.0145693739752
 30
0.0
  0
ENDBLK
  5
E56
330
E4B
100
AcDbEntity
  8
0
100
AcDbBlockEnd
  0
BLOCK
  5
F92
330
F91
100
AcDbEntity
  8
0
100
AcDbBlockBegin
  2
*D42
 70
     1
 10
0.0
 20
0.0
 30
0.0
  3
*D42
  1

  0
LINE
  5
107A
330
F91
100
AcDbEntity
  8
5
370
    -2
100
AcDbLine
 10
731.9719139370667
 20
495.5427901986437
 30
0.0
 11
617.6694902509051
 21
495.542790198644
 31
0.0
  0
LINE
  5
107B
330
F91
100
AcDbEntity
  8
5
370
    -2
100
AcDbLine
 10
690.4542758468616
 20
629.9661005977124
 30
0.0
 11
617.6694902509051
 21
629.9661005977124
 31
0.0
  0
LINE
  5
107C
330
F91
100
AcDbEntity
  8
5
370
    -2
100
AcDbLine
 10
619.6694902509051
 20
500.542790198644
 30
0.0
 11
619.6694902509051
 21
624.9661005977124
 31
0.0
  0
SOLID
  5
107D
330
F91
100
AcDbEntity
  8
5
100
AcDbTrace
 10
618.8361569175717
 20
500.542790198644
 30
0.0
 11
620.5028235842385
 21
500.542790198644
 31
0.0
 12
619.6694902509051
 22
495.542790198644
 32
0.0
 13
619.6694902509051
 23
495.542790198644
 33
0.0
  0
SOLID
  5
107E
330
F91
100
AcDbEntity
  8
5
100
AcDbTrace
 10
618.8361569175717
 20
624.9661005977124
 30
0.0
 11
620.5028235842385
 21
624.9661005977124
 31
0.0
 12
619.6694902509051
 22
629.9661005977124
 32
0.0
 13
619.6694902509051
 23
629.9661005977124
 33
0.0
  0
MTEXT
  5
107F
330
F91
100
AcDbEntity
  8
5
 62
     7
100
AcDbMText
 10
611.1780194651426
 20
554.4939887296925
 30
0.0
 40
14.0
 41
0.0
 71
     5
 72
     1
  1
134
 11
0.0000000000000001
 21
1.0
 31
0.0
 73
     1
 44
1.0
  0
POINT
  5
1080
330
F91
100
AcDbEntity
  8
Defpoints
 62
     0
100
AcDbPoint
 10
733.9719139370668
 20
495.5427901986437
 30
0.0
  0
POINT
  5
1081
330
F91
100
AcDbEntity
  8
Defpoints
 62
     0
100
AcDbPoint
 10
692.4542758468617
 20
629.9661005977124
 30
0.0
  0
POINT
  5
1082
330
F91
100
AcDbEntity
  8
Defpoints
 62
     0
100
AcDbPoint
 10
619.6694902509051
 20
629.9661005977124
 30
0.0
  0
ENDBLK
  5
F93
330
F91
100
AcDbEntity
  8
0
100
AcDbBlockEnd
  0
BLOCK
  5
F9E
330
F9D
100
AcDbEntity
  8
0
100
AcDbBlockBegin
  2
*D43
 70
     1
 10
0.0
 20
0.0
 30
0.0
  3
*D43
  1

  0
LINE
  5
1083
330
F9D
100
AcDbEntity
  8
5
370
    -2
100
AcDbLine
 10
890.4542758468616
 20
629.9661005977123
 30
0.0
 11
890.4542758468616
 21
649.9661005977124
 31
0.0
  0
LINE
  5
1084
330
F9D
100
AcDbEntity
  8
5
370
    -2
100
AcDbLine
 10
690.4542758468616
 20
629.9661005977123
 30
0.0
 11
690.4542758468616
 21
649.9661005977124
 31
0.0
  0
LINE
  5
1085
330
F9D
100
AcDbEntity
  8
5
370
    -2
100
AcDbLine
 10
885.4542758468618
 20
647.9661005977122
 30
0.0
 11
695.4542758468617
 21
647.9661005977122
 31
0.0
  0
SOLID
  5
1086
330
F9D
100
AcDbEntity
  8
5
100
AcDbTrace
 10
885.4542758468618
 20
648.7994339310457
 30
0.0
 11
885.4542758468618
 21
647.1327672643789
 31
0.0
 12
890.4542758468616
 22
647.9661005977122
 32
0.0
 13
890.4542758468616
 23
647.9661005977122
 33
0.0
  0
SOLID
  5
1087
330
F9D
100
AcDbEntity
  8
5
100
AcDbTrace
 10
695.4542758468617
 20
648.7994339310457
 30
0.0
 11
695.4542758468617
 21
647.1327672643789
 31
0.0
 12
690.4542758468616
 22
647.9661005977122
 32
0.0
 13
690.4542758468616
 23
647.9661005977122
 33
0.0
  0
MTEXT
  5
1088
330
F9D
100
AcDbEntity
  8
5
 62
     7
100
AcDbMText
 10
790.4542758468616
 20
656.4575713834746
 30
0.0
 40
14.0
 41
0.0
 71
     5
 72
     1
  1
{\fAIGDT|b0|i0;\H7.0000;o\fTahoma|b0|i0;\H7.0000;}200
 73
     1
 44
1.0
  0
POINT
  5
1089
330
F9D
100
AcDbEntity
  8
Defpoints
 62
     0
100
AcDbPoint
 10
890.4542758468616
 20
627.9661005977122
 30
0.0
  0
POINT
  5
108A
330
F9D
100
AcDbEntity
  8
Defpoints
 62
     0
100
AcDbPoint
 10
690.4542758468616
 20
627.9661005977122
 30
0.0
  0
POINT
  5
108B
330
F9D
100
AcDbEntity
  8
Defpoints
 62
     0
100
AcDbPoint
 10
690.4542758468616
 20
647.9661005977122
 30
0.0
  0
ENDBLK
  5
F9F
330
F9D
100
AcDbEntity
  8
0
100
AcDbBlockEnd
  0
BLOCK
  5
FAA
330
FA9
100
AcDbEntity
  8
0
100
AcDbBlockBegin
  2
*D44
 70
     1
 10
0.0
 20
0.0
 30
0.0
  3
*D44
  1

  0
LINE
  5
108C
330
FA9
100
AcDbEntity
  8
5
370
    -2
100
AcDbLine
 10
640.4542758469442
 20
611.9661005977124
 30
0.0
 11
640.4542758469442
 21
679.9661005977123
 31
0.0
  0
LINE
  5
108D
330
FA9
100
AcDbEntity
  8
5
370
    -2
100
AcDbLine
 10
940.4542758469444
 20
611.9661005977124
 30
0.0
 11
940.4542758469444
 21
679.9661005977123
 31
0.0
  0
LINE
  5
108E
330
FA9
100
AcDbEntity
  8
5
370
    -2
100
AcDbLine
 10
645.4542758469442
 20
677.9661005977122
 30
0.0
 11
935.4542758469445
 21
677.9661005977122
 31
0.0
  0
SOLID
  5
108F
330
FA9
100
AcDbEntity
  8
5
100
AcDbTrace
 10
645.4542758469442
 20
678.7994339310456
 30
0.0
 11
645.4542758469442
 21
677.1327672643787
 31
0.0
 12
640.4542758469442
 22
677.9661005977122
 32
0.0
 13
640.4542758469442
 23
677.9661005977122
 33
0.0
  0
SOLID
  5
1090
330
FA9
100
AcDbEntity
  8
5
100
AcDbTrace
 10
935.4542758469445
 20
678.7994339310456
 30
0.0
 11
935.4542758469445
 21
677.1327672643787
 31
0.0
 12
940.4542758469444
 22
677.9661005977122
 32
0.0
 13
940.4542758469444
 23
677.9661005977122
 33
0.0
  0
MTEXT
  5
1091
330
FA9
100
AcDbEntity
  8
5
 62
     7
100
AcDbMText
 10
790.4542758469444
 20
686.4575713834745
 30
0.0
 40
14.0
 41
0.0
 71
     5
 72
     1
  1
{\fAIGDT|b0|i0;\H7.0000;o\fTahoma|b0|i0;\H7.0000;}300
 73
     1
 44
1.0
  0
POINT
  5
1092
330
FA9
100
AcDbEntity
  8
Defpoints
 62
     0
100
AcDbPoint
 10
640.4542758469442
 20
609.9661005977123
 30
0.0
  0
POINT
  5
1093
330
FA9
100
AcDbEntity
  8
Defpoints
 62
     0
100
AcDbPoint
 10
940.4542758469444
 20
609.9661005977123
 30
0.0
  0
POINT
  5
1094
330
FA9
100
AcDbEntity
  8
Defpoints
 62
     0
100
AcDbPoint
 10
940.4542758469444
 20
677.9661005977122
 30
0.0
  0
ENDBLK
  5
FAB
330
FA9
100
AcDbEntity
  8
0
100
AcDbBlockEnd
  0
BLOCK
  5
FB6
330
FB5
100
AcDbEntity
  8
0
100
AcDbBlockBegin
  2
*D45
 70
     1
 10
0.0
 20
0.0
 30
0.0
  3
*D45
  1

  0
LINE
  5
1095
330
FB5
100
AcDbEntity
  8
5
370
    -2
100
AcDbLine
 10
735.4542758468617
 20
396.4809487977124
 30
0.0
 11
579.2567427331676
 21
396.4809487977124
 31
0.0
  0
LINE
  5
1096
330
FB5
100
AcDbEntity
  8
5
370
    -2
100
AcDbLine
 10
690.4542758468616
 20
629.9661005977124
 30
0.0
 11
579.2567427331676
 21
629.9661005977124
 31
0.0
  0
LINE
  5
1097
330
FB5
100
AcDbEntity
  8
5
370
    -2
100
AcDbLine
 10
581.2567427331677
 20
401.4809487977124
 30
0.0
 11
581.2567427331677
 21
624.9661005977124
 31
0.0
  0
SOLID
  5
1098
330
FB5
100
AcDbEntity
  8
5
100
AcDbTrace
 10
580.4234093998342
 20
401.4809487977124
 30
0.0
 11
582.090076066501
 21
401.4809487977124
 31
0.0
 12
581.2567427331677
 22
396.4809487977124
 32
0.0
 13
581.2567427331677
 23
396.4809487977124
 33
0.0
  0
SOLID
  5
1099
330
FB5
100
AcDbEntity
  8
5
100
AcDbTrace
 10
580.4234093998342
 20
624.9661005977124
 30
0.0
 11
582.090076066501
 21
624.9661005977124
 31
0.0
 12
581.2567427331677
 22
629.9661005977124
 32
0.0
 13
581.2567427331677
 23
629.9661005977124
 33
0.0
  0
MTEXT
  5
109A
330
FB5
100
AcDbEntity
  8
5
 62
     7
100
AcDbMText
 10
572.7652719474052
 20
514.7235246884036
 30
0.0
 40
14.0
 41
0.0
 71
     5
 72
     1
  1
233
 11
0.0000000000000001
 21
1.0
 31
0.0
 73
     1
 44
1.0
  0
POINT
  5
109B
330
FB5
100
AcDbEntity
  8
Defpoints
 62
     0
100
AcDbPoint
 10
737.4542758468617
 20
396.4809487977124
 30
0.0
  0
POINT
  5
109C
330
FB5
100
AcDbEntity
  8
Defpoints
 62
     0
100
AcDbPoint
 10
692.4542758468617
 20
629.9661005977124
 30
0.0
  0
POINT
  5
109D
330
FB5
100
AcDbEntity
  8
Defpoints
 62
     0
100
AcDbPoint
 10
581.2567427331677
 20
629.9661005977124
 30
0.0
  0
ENDBLK
  5
FB7
330
FB5
100
AcDbEntity
  8
0
100
AcDbBlockEnd
  0
BLOCK
  5
FC2
330
FC1
100
AcDbEntity
  8
0
100
AcDbBlockBegin
  2
*D46
 70
     1
 10
0.0
 20
0.0
 30
0.0
  3
*D46
  1

  0
LINE
  5
109E
330
FC1
100
AcDbEntity
  8
5
370
    -2
100
AcDbLine
 10
719.2042758468617
 20
509.0096717187138
 30
0.0
 11
719.2042758468617
 21
341.4611051827368
 31
0.0
  0
LINE
  5
109F
330
FC1
100
AcDbEntity
  8
5
370
    -2
100
AcDbLine
 10
861.7042758468619
 20
509.0096717187138
 30
0.0
 11
861.7042758468619
 21
341.4611051827368
 31
0.0
  0
LINE
  5
10A0
330
FC1
100
AcDbEntity
  8
5
370
    -2
100
AcDbLine
 10
724.204275846862
 20
343.4611051827368
 30
0.0
 11
856.704275846862
 21
343.4611051827368
 31
0.0
  0
SOLID
  5
10A1
330
FC1
100
AcDbEntity
  8
5
100
AcDbTrace
 10
724.204275846862
 20
344.2944385160702
 30
0.0
 11
724.204275846862
 21
342.6277718494035
 31
0.0
 12
719.2042758468617
 22
343.4611051827368
 32
0.0
 13
719.2042758468617
 23
343.4611051827368
 33
0.0
  0
SOLID
  5
10A2
330
FC1
100
AcDbEntity
  8
5
100
AcDbTrace
 10
856.704275846862
 20
344.2944385160702
 30
0.0
 11
856.704275846862
 21
342.6277718494035
 31
0.0
 12
861.7042758468619
 22
343.4611051827368
 32
0.0
 13
861.7042758468619
 23
343.4611051827368
 33
0.0
  0
MTEXT
  5
10A3
330
FC1
100
AcDbEntity
  8
5
 62
     7
100
AcDbMText
 10
790.4542758468616
 20
352.6389426575522
 30
0.0
 40
14.0
 41
0.0
 71
     5
 72
     1
  1
%%C142
 73
     1
 44
1.0
  0
POINT
  5
10A4
330
FC1
100
AcDbEntity
  8
Defpoints
 62
     0
100
AcDbPoint
 10
719.2042758468617
 20
511.0096717187139
 30
0.0
  0
POINT
  5
10A5
330
FC1
100
AcDbEntity
  8
Defpoints
 62
     0
100
AcDbPoint
 10
861.7042758468619
 20
511.0096717187135
 30
0.0
  0
POINT
  5
10A6
330
FC1
100
AcDbEntity
  8
Defpoints
 62
     0
100
AcDbPoint
 10
861.7042758468619
 20
343.4611051827368
 30
0.0
  0
ENDBLK
  5
FC3
330
FC1
100
AcDbEntity
  8
0
100
AcDbBlockEnd
  0
BLOCK
  5
FCE
330
FCD
100
AcDbEntity
  8
0
100
AcDbBlockBegin
  2
*D47
 70
     1
 10
0.0
 20
0.0
 30
0.0
  3
*D47
  1

  0
LINE
  5
10A7
330
FCD
100
AcDbEntity
  8
5
370
    -2
100
AcDbLine
 10
735.4542758468617
 20
402.4716604031998
 30
0.0
 11
735.4542758468617
 21
369.9698439042268
 31
0.0
  0
LINE
  5
10A8
330
FCD
100
AcDbEntity
  8
5
370
    -2
100
AcDbLine
 10
845.4542758468617
 20
402.4716604031998
 30
0.0
 11
845.4542758468617
 21
369.9698439042268
 31
0.0
  0
LINE
  5
10A9
330
FCD
100
AcDbEntity
  8
5
370
    -2
100
AcDbLine
 10
740.4542758468616
 20
371.9698439042268
 30
0.0
 11
840.4542758468616
 21
371.9698439042268
 31
0.0
  0
SOLID
  5
10AA
330
FCD
100
AcDbEntity
  8
5
100
AcDbTrace
 10
740.4542758468616
 20
372.8031772375602
 30
0.0
 11
740.4542758468616
 21
371.1365105708936
 31
0.0
 12
735.4542758468617
 22
371.9698439042268
 32
0.0
 13
735.4542758468617
 23
371.9698439042268
 33
0.0
  0
SOLID
  5
10AB
330
FCD
100
AcDbEntity
  8
5
100
AcDbTrace
 10
840.4542758468616
 20
372.8031772375602
 30
0.0
 11
840.4542758468616
 21
371.1365105708936
 31
0.0
 12
845.4542758468617
 22
371.9698439042268
 32
0.0
 13
845.4542758468617
 23
371.9698439042268
 33
0.0
  0
MTEXT
  5
10AC
330
FCD
100
AcDbEntity
  8
5
 62
     7
100
AcDbMText
 10
790.4542758468616
 20
381.1476813790422
 30
0.0
 40
14.0
 41
0.0
 71
     5
 72
     1
  1
%%c110
 73
     1
 44
1.0
  0
POINT
  5
10AD
330
FCD
100
AcDbEntity
  8
Defpoints
 62
     0
100
AcDbPoint
 10
735.4542758468617
 20
404.4716604031998
 30
0.0
  0
POINT
  5
10AE
330
FCD
100
AcDbEntity
  8
Defpoints
 62
     0
100
AcDbPoint
 10
845.4542758468617
 20
404.4716604031998
 30
0.0
  0
POINT
  5
10AF
330
FCD
100
AcDbEntity
  8
Defpoints
 62
     0
100
AcDbPoint
 10
845.4542758468617
 20
371.9698439042268
 30
0.0
  0
ENDBLK
  5
FCF
330
FCD
100
AcDbEntity
  8
0
100
AcDbBlockEnd
  0
BLOCK
  5
FDA
330
FD9
100
AcDbEntity
  8
0
100
AcDbBlockBegin
  2
*D48
 70
     1
 10
0.0
 20
0.0
 30
0.0
  3
*D48
  1

  0
LINE
  5
10B0
330
FD9
100
AcDbEntity
  8
5
370
    -2
100
AcDbLine
 10
890.454275846862
 20
629.9661005977124
 30
0.0
 11
964.0206125244452
 21
629.9661005977124
 31
0.0
  0
LINE
  5
10B1
330
FD9
100
AcDbEntity
  8
5
370
    -2
100
AcDbLine
 10
879.0976466122902
 20
604.9661005977124
 30
0.0
 11
964.0206125244452
 21
604.9661005977124
 31
0.0
  0
LINE
  5
10B2
330
FD9
100
AcDbEntity
  8
5
370
    -2
100
AcDbLine
 10
962.020612524445
 20
624.9661005977124
 30
0.0
 11
962.020612524445
 21
609.9661005977123
 31
0.0
  0
SOLID
  5
10B3
330
FD9
100
AcDbEntity
  8
5
100
AcDbTrace
 10
961.1872791911121
 20
624.9661005977124
 30
0.0
 11
962.8539458577787
 21
624.9661005977124
 31
0.0
 12
962.020612524445
 22
629.9661005977124
 32
0.0
 13
962.020612524445
 23
629.9661005977124
 33
0.0
  0
SOLID
  5
10B4
330
FD9
100
AcDbEntity
  8
5
100
AcDbTrace
 10
961.1872791911121
 20
609.9661005977123
 30
0.0
 11
962.8539458577787
 21
609.9661005977123
 31
0.0
 12
962.020612524445
 22
604.9661005977124
 32
0.0
 13
962.020612524445
 23
604.9661005977124
 33
0.0
  0
MTEXT
  5
10B5
330
FD9
100
AcDbEntity
  8
5
 62
     7
100
AcDbMText
 10
953.5291417386828
 20
617.4661005977124
 30
0.0
 40
14.0
 41
0.0
 71
     5
 72
     1
  1
25
 11
0.0000000000000001
 21
1.0
 31
0.0
 73
     1
 44
1.0
  0
POINT
  5
10B6
330
FD9
100
AcDbEntity
  8
Defpoints
 62
     0
100
AcDbPoint
 10
888.4542758468619
 20
629.9661005977124
 30
0.0
  0
POINT
  5
10B7
330
FD9
100
AcDbEntity
  8
Defpoints
 62
     0
100
AcDbPoint
 10
877.0976466122901
 20
604.9661005977124
 30
0.0
  0
POINT
  5
10B8
330
FD9
100
AcDbEntity
  8
Defpoints
 62
     0
100
AcDbPoint
 10
962.020612524445
 20
604.9661005977124
 30
0.0
  0
ENDBLK
  5
FDB
330
FD9
100
AcDbEntity
  8
0
100
AcDbBlockEnd
  0
BLOCK
  5
1147
330
1146
100
AcDbEntity
  8
0
100
AcDbBlockBegin
  2
*D49
 70
     1
 10
0.0
 20
0.0
 30
0.0
  3
*D49
  1

  0
LINE
  5
118D
330
1146
100
AcDbEntity
  8
5
370
    -2
100
AcDbLine
 10
423.1271324614349
 20
519.4288995438745
 30
0.0
 11
451.4236844563141
 21
519.4288995438745
 31
0.0
  0
LINE
  5
118E
330
1146
100
AcDbEntity
  8
5
370
    -2
100
AcDbLine
 10
423.1271324614347
 20
444.4288995438745
 30
0.0
 11
451.4236844563141
 21
444.4288995438745
 31
0.0
  0
LINE
  5
118F
330
1146
100
AcDbEntity
  8
5
370
    -2
100
AcDbLine
 10
449.4236844563141
 20
514.4288995438745
 30
0.0
 11
449.4236844563141
 21
449.4288995438745
 31
0.0
  0
SOLID
  5
1190
330
1146
100
AcDbEntity
  8
5
100
AcDbTrace
 10
448.5903511229808
 20
514.4288995438745
 30
0.0
 11
450.2570177896473
 21
514.4288995438745
 31
0.0
 12
449.4236844563141
 22
519.4288995438745
 32
0.0
 13
449.4236844563141
 23
519.4288995438745
 33
0.0
  0
SOLID
  5
1191
330
1146
100
AcDbEntity
  8
5
100
AcDbTrace
 10
448.5903511229808
 20
449.4288995438745
 30
0.0
 11
450.2570177896473
 21
449.4288995438745
 31
0.0
 12
449.4236844563141
 22
444.4288995438745
 32
0.0
 13
449.4236844563141
 23
444.4288995438745
 33
0.0
  0
MTEXT
  5
1192
330
1146
100
AcDbEntity
  8
5
 62
     7
100
AcDbMText
 10
440.2458469814987
 20
481.9288995438748
 30
0.0
 40
14.0
 41
0.0
 71
     5
 72
     1
  1
%%c75
 11
0.0000000000000001
 21
1.0
 31
0.0
 73
     1
 44
1.0
  0
POINT
  5
1193
330
1146
100
AcDbEntity
  8
Defpoints
 62
     0
100
AcDbPoint
 10
421.1271324614346
 20
519.4288995438745
 30
0.0
  0
POINT
  5
1194
330
1146
100
AcDbEntity
  8
Defpoints
 62
     0
100
AcDbPoint
 10
421.1271324614346
 20
444.4288995438745
 30
0.0
  0
POINT
  5
1195
330
1146
100
AcDbEntity
  8
Defpoints
 62
     0
100
AcDbPoint
 10
449.4236844563141
 20
444.4288995438745
 30
0.0
  0
ENDBLK
  5
1148
330
1146
100
AcDbEntity
  8
0
100
AcDbBlockEnd
  0
BLOCK
  5
11AA
330
11A9
100
AcDbEntity
  8
0
100
AcDbBlockBegin
  2
*D50
 70
     1
 10
0.0
 20
0.0
 30
0.0
  3
*D50
  1

  0
LINE
  5
120C
330
11A9
100
AcDbEntity
  8
5
370
    -2
100
AcDbLine
 10
201.3771324614348
 20
466.7224706648759
 30
0.0
 11
201.3771324614348
 21
422.6242620021094
 31
0.0
  0
LINE
  5
120D
330
11A9
100
AcDbEntity
  8
5
370
    -2
100
AcDbLine
 10
343.8771324614347
 20
513.6788995438745
 30
0.0
 11
343.8771324614347
 21
422.6242620021094
 31
0.0
  0
LINE
  5
120E
330
11A9
100
AcDbEntity
  8
5
370
    -2
100
AcDbLine
 10
206.3771324614346
 20
424.6242620021096
 30
0.0
 11
338.8771324614347
 21
424.6242620021096
 31
0.0
  0
SOLID
  5
120F
330
11A9
100
AcDbEntity
  8
5
100
AcDbTrace
 10
206.3771324614346
 20
425.4575953354429
 30
0.0
 11
206.3771324614346
 21
423.7909286687763
 31
0.0
 12
201.3771324614348
 22
424.6242620021096
 32
0.0
 13
201.3771324614348
 23
424.6242620021096
 33
0.0
  0
SOLID
  5
1210
330
11A9
100
AcDbEntity
  8
5
100
AcDbTrace
 10
338.8771324614347
 20
425.4575953354429
 30
0.0
 11
338.8771324614347
 21
423.7909286687763
 31
0.0
 12
343.8771324614347
 22
424.6242620021096
 32
0.0
 13
343.8771324614347
 23
424.6242620021096
 33
0.0
  0
MTEXT
  5
1211
330
11A9
100
AcDbEntity
  8
5
 62
     7
100
AcDbMText
 10
272.6271324614347
 20
432.9699973949907
 30
0.0
 40
14.0
 41
0.0
 71
     5
 72
     1
  1
142
 73
     1
 44
1.0
  0
POINT
  5
1212
330
11A9
100
AcDbEntity
  8
Defpoints
 62
     0
100
AcDbPoint
 10
201.3771324614348
 20
468.7224706648761
 30
0.0
  0
POINT
  5
1213
330
11A9
100
AcDbEntity
  8
Defpoints
 62
     0
100
AcDbPoint
 10
343.8771324614347
 20
515.6788995438745
 30
0.0
  0
POINT
  5
1214
330
11A9
100
AcDbEntity
  8
Defpoints
 62
     0
100
AcDbPoint
 10
343.8771324614347
 20
424.6242620021096
 30
0.0
  0
ENDBLK
  5
11AB
330
11A9
100
AcDbEntity
  8
0
100
AcDbBlockEnd
  0
BLOCK
  5
1302
330
1301
100
AcDbEntity
  8
0
100
AcDbBlockBegin
  2
*D51
 70
     1
 10
0.0
 20
0.0
 30
0.0
  3
*D51
  1

  0
LINE
  5
15B1
330
1301
100
AcDbEntity
  8
5
370
    -2
100
AcDbLine
 10
372.6776427186517
 20
587.6788995438745
 30
0.0
 11
497.6358309197992
 21
587.6788995438745
 31
0.0
  0
LINE
  5
15B2
330
1301
100
AcDbEntity
  8
5
370
    -2
100
AcDbLine
 10
423.1271324614346
 20
444.4288995438745
 30
0.0
 11
497.6358309197992
 21
444.4288995438745
 31
0.0
  0
LINE
  5
15B3
330
1301
100
AcDbEntity
  8
5
370
    -2
100
AcDbLine
 10
495.6358309197993
 20
582.6788995438745
 30
0.0
 11
495.6358309197993
 21
449.4288995438745
 31
0.0
  0
SOLID
  5
15B4
330
1301
100
AcDbEntity
  8
5
100
AcDbTrace
 10
494.8024975864659
 20
582.6788995438745
 30
0.0
 11
496.4691642531326
 21
582.6788995438745
 31
0.0
 12
495.6358309197993
 22
587.6788995438745
 32
0.0
 13
495.6358309197993
 23
587.6788995438745
 33
0.0
  0
SOLID
  5
15B5
330
1301
100
AcDbEntity
  8
5
100
AcDbTrace
 10
494.8024975864659
 20
449.4288995438745
 30
0.0
 11
496.4691642531326
 21
449.4288995438745
 31
0.0
 12
495.6358309197993
 22
444.4288995438745
 32
0.0
 13
495.6358309197993
 23
444.4288995438745
 33
0.0
  0
MTEXT
  5
15B6
330
1301
100
AcDbEntity
  8
5
 62
     7
100
AcDbMText
 10
487.1443601340369
 20
517.0847413788826
 30
0.0
 40
14.0
 41
0.0
 71
     5
 72
     1
  1
143
 11
0.0000000000000001
 21
1.0
 31
0.0
 73
     1
 44
1.0
  0
POINT
  5
15B7
330
1301
100
AcDbEntity
  8
Defpoints
 62
     0
100
AcDbPoint
 10
370.6776427186517
 20
587.6788995438745
 30
0.0
  0
POINT
  5
15B8
330
1301
100
AcDbEntity
  8
Defpoints
 62
     0
100
AcDbPoint
 10
421.1271324614346
 20
444.4288995438745
 30
0.0
  0
POINT
  5
15B9
330
1301
100
AcDbEntity
  8
Defpoints
 62
     0
100
AcDbPoint
 10
495.6358309197993
 20
444.4288995438745
 30
0.0
  0
ENDBLK
  5
1303
330
1301
100
AcDbEntity
  8
0
100
AcDbBlockEnd
  0
ENDSEC
  0
SECTION
  2
ENTITIES
  0
LINE
  5
23E
330
6C
100
AcDbEntity
  8
0
100
AcDbLine
 10
356.8596620241852
 20
444.4288995438745
 30
0.0
 11
356.8596620241852
 21
519.4288995438745
 31
0.0
  0
LINE
  5
23F
330
6C
100
AcDbEntity
  8
0
100
AcDbLine
 10
348.6271324614348
 20
450.1056465875997
 30
0.0
 11
348.6271324614348
 21
513.7521525001496
 31
0.0
  0
LINE
  5
240
330
6C
100
AcDbEntity
  8
0
100
AcDbLine
 10
356.8596620241852
 20
519.4288995438745
 30
0.0
 11
421.1271324614346
 21
519.4288995438745
 31
0.0
  0
LINE
  5
241
330
6C
100
AcDbEntity
  8
0
100
AcDbLine
 10
356.8596620241852
 20
444.4288995438745
 30
0.0
 11
421.1271324614346
 21
444.4288995438745
 31
0.0
  0
LINE
  5
242
330
6C
100
AcDbEntity
  8
0
100
AcDbLine
 10
348.6271324614348
 20
513.7521525001496
 30
0.0
 11
356.8596620241852
 21
519.4288995438745
 31
0.0
  0
LINE
  5
243
330
6C
100
AcDbEntity
  8
0
100
AcDbLine
 10
348.6271324614348
 20
450.1056465875997
 30
0.0
 11
356.8596620241852
 21
444.4288995438745
 31
0.0
  0
LINE
  5
25A
330
6C
100
AcDbEntity
  8
0
100
AcDbLine
 10
315.6523449976238
 20
450.1788995438745
 30
0.0
 11
229.6019199252457
 21
450.1788995438745
 31
0.0
  0
LINE
  5
25B
330
6C
100
AcDbEntity
  8
0
100
AcDbLine
 10
343.3771324614347
 20
552.1837477438745
 30
0.0
 11
201.3771324614348
 21
552.1837477438745
 31
0.0
  0
ARC
  5
25C
330
6C
100
AcDbEntity
  8
0
100
AcDbCircle
 10
216.3771324614347
 20
468.7224706648761
 30
0.0
 40
15.0
100
AcDbArc
 50
180.0
 51
255.0
  0
LINE
  5
25D
330
6C
100
AcDbEntity
  8
0
100
AcDbLine
 10
225.7196342487078
 20
450.6900121495386
 30
0.0
 11
212.4948467848969
 21
454.23358327054
 31
0.0
  0
ARC
  5
25E
330
6C
100
AcDbEntity
  8
0
100
AcDbCircle
 10
229.6019199252456
 20
465.1788995438741
 30
0.0
 40
14.99999999999946
100
AcDbArc
 50
254.9999999999995
 51
270.0000000000002
  0
LINE
  5
25F
330
6C
100
AcDbEntity
  8
0
100
AcDbLine
 10
201.3771324614348
 20
468.7224706648761
 30
0.0
 11
201.3771324614348
 21
519.3550561283975
 31
0.0
  0
LINE
  5
260
330
6C
100
AcDbEntity
  8
0
100
AcDbLine
 10
343.8771324614347
 20
515.6788995438745
 30
0.0
 11
343.8771324614347
 21
519.3550561283975
 31
0.0
  0
ARC
  5
261
330
6C
100
AcDbEntity
  8
0
100
AcDbCircle
 10
341.1907799821841
 20
519.3550561283975
 30
0.0
 40
2.686352479250518
100
AcDbArc
 50
0.0
 51
76.77680089323295
  0
ARC
  5
262
330
6C
100
AcDbEntity
  8
0
100
AcDbCircle
 10
204.0634849406853
 20
519.3550561283975
 30
0.0
 40
2.686352479250519
100
AcDbArc
 50
103.223199106767
 51
180.0
  0
ARC
  5
263
330
6C
100
AcDbEntity
  8
0
100
AcDbCircle
 10
342.3771324614346
 20
524.4038995438747
 30
0.0
 40
2.5
100
AcDbArc
 50
179.8510266729263
 51
256.7768008932326
  0
ARC
  5
264
330
6C
100
AcDbEntity
  8
0
100
AcDbCircle
 10
202.8771324614348
 20
524.4038995438747
 30
0.0
 40
2.5
100
AcDbArc
 50
283.2231991067668
 51
0.1489733270711913
  0
ARC
  5
265
330
6C
100
AcDbEntity
  8
0
100
AcDbCircle
 10
341.1907799821841
 20
529.4527429593515
 30
0.0
 40
2.686352479250519
100
AcDbArc
 50
308.8841710777994
 51
0.0
  0
ARC
  5
266
330
6C
100
AcDbEntity
  8
0
100
AcDbCircle
 10
204.0634849406853
 20
529.4527429593515
 30
0.0
 40
2.686352479250519
100
AcDbArc
 50
180.0
 51
231.1158289221983
  0
LINE
  5
267
330
6C
100
AcDbEntity
  8
0
100
AcDbLine
 10
201.3771324614348
 20
529.4527429593515
 30
0.0
 11
201.3771324614348
 21
552.1837477438745
 31
0.0
  0
LINE
  5
268
330
6C
100
AcDbEntity
  8
0
100
AcDbLine
 10
343.8771324614347
 20
529.4527429593515
 30
0.0
 11
343.8771324614347
 21
543.4337477438746
 31
0.0
  0
ARC
  5
26F
330
6C
100
AcDbEntity
  8
0
100
AcDbCircle
 10
345.8771324614347
 20
515.6788995438745
 30
0.0
 40
2.0
100
AcDbArc
 50
180.0
 51
270.0
  0
LINE
  5
270
330
6C
100
AcDbEntity
  8
0
100
AcDbLine
 10
348.6271324614347
 20
450.1788995438745
 30
0.0
 11
315.6523449976238
 21
450.1788995438745
 31
0.0
  0
LINE
  5
271
330
6C
100
AcDbEntity
  8
0
100
AcDbLine
 10
348.6271324614347
 20
513.6788995438745
 30
0.0
 11
345.8771324614347
 21
513.6788995438745
 31
0.0
  0
LINE
  5
278
330
6C
100
AcDbEntity
  8
0
100
AcDbLine
 10
172.6271324614346
 20
577.6837477438744
 30
0.0
 11
172.6271324614346
 21
585.6837477438745
 31
0.0
  0
LINE
  5
279
330
6C
100
AcDbEntity
  8
0
100
AcDbLine
 10
173.8771324614346
 20
577.6837477438744
 30
0.0
 11
172.6271324614346
 21
577.6837477438744
 31
0.0
  0
LINE
  5
27D
330
6C
100
AcDbEntity
  8
0
100
AcDbLine
 10
372.6271324614348
 20
577.6837477438744
 30
0.0
 11
371.3771324614348
 21
577.6837477438744
 31
0.0
  0
LINE
  5
27E
330
6C
100
AcDbEntity
  8
0
100
AcDbLine
 10
372.6271324614348
 20
585.6837477438745
 30
0.0
 11
372.6271324614348
 21
577.6837477438744
 31
0.0
  0
LINE
  5
27F
330
6C
100
AcDbEntity
  8
0
100
AcDbLine
 10
174.0771324614347
 20
577.6837477438744
 30
0.0
 11
371.1771324614348
 21
577.6837477438744
 31
0.0
  0
LINE
  5
289
330
6C
100
AcDbEntity
  8
0
100
AcDbLine
 10
358.8771324615174
 20
567.6837477438746
 30
0.0
 11
358.8771324615174
 21
577.6837477438744
 31
0.0
  0
LINE
  5
28A
330
6C
100
AcDbEntity
  8
0
100
AcDbLine
 10
186.3771324613521
 20
577.6837477438744
 30
0.0
 11
186.3771324613521
 21
567.6837477438747
 31
0.0
  0
SPLINE
  5
28B
330
6C
100
AcDbEntity
  8
0
100
AcDbSpline
210
0.0
220
0.0
230
1.0
 70
    24
 71
     3
 72
    14
 73
    10
 74
     0
 42
0.0000000001
 43
0.0000000001
 40
2.476267473732856
 40
2.476267473732856
 40
2.476267473732856
 40
2.476267473732856
 40
2.919625617228716
 40
2.919625617228716
 40
5.55140082149122
 40
5.55140082149122
 40
7.196260324155284
 40
7.196260324155284
 40
8.224297513320324
 40
8.224297513320324
 40
8.224297513342589
 40
8.224297513342589
 10
186.3771324613521
 20
565.6837466569724
 30
0.0
 10
186.3771324613521
 20
565.672588280872
 30
0.0
 10
186.3771324613521
 20
565.6608700991387
 30
0.0
 10
186.3771324613521
 20
565.575397744711
 30
0.0
 10
186.3771324613521
 20
565.4760946081531
 30
0.0
 10
186.3771324613521
 20
565.2973020536292
 30
0.0
 10
186.3771324613521
 20
565.225508806658
 30
0.0
 10
186.3771324613521
 20
565.152649239623
 30
0.0
 10
186.3771324613521
 20
565.1362119388977
 30
0.0
 10
186.3771324613521
 20
565.1362119388977
 30
0.0
  0
SPLINE
  5
28C
330
6C
100
AcDbEntity
  8
0
100
AcDbSpline
210
0.0
220
0.0
230
1.0
 70
    24
 71
     3
 72
    12
 73
     8
 74
     0
 42
0.0000000001
 43
0.0000000001
 40
8.22429751329933
 40
8.22429751329933
 40
8.224297513320324
 40
8.224297513320324
 40
10.2803718916504
 40
10.2803718916504
 40
13.57009089697853
 40
13.57009089697853
 40
13.97232755290144
 40
13.97232755290144
 40
13.97232755290144
 40
13.97232755290144
 10
358.8771324615174
 20
565.1362119388977
 30
0.0
 10
358.8771324615174
 20
565.1362119388977
 30
0.0
 10
358.8771324615174
 20
565.2059705708592
 30
0.0
 10
358.8771324615174
 20
565.4226027980382
 30
0.0
 10
358.8771324615174
 20
565.561350514805
 30
0.0
 10
358.8771324615174
 20
565.6630394130135
 30
0.0
 10
358.8771324615174
 20
565.6736238685957
 30
0.0
 10
358.8771324615174
 20
565.6837474641236
 30
0.0
  0
ARC
  5
28D
330
6C
100
AcDbEntity
  8
0
100
AcDbCircle
 10
354.6271324615174
 20
565.1362119388977
 30
0.0
 40
4.25
100
AcDbArc
 50
284.4702940999178
 51
0.0
  0
ARC
  5
28E
330
6C
100
AcDbEntity
  8
0
100
AcDbCircle
 10
190.6271324613521
 20
565.1362119388977
 30
0.0
 40
4.25
100
AcDbArc
 50
180.0
 51
255.5297059000826
  0
LINE
  5
294
330
6C
100
AcDbEntity
  8
0
100
AcDbLine
 10
328.1350147845788
 20
559.8437477438745
 30
0.0
 11
351.040623647582
 21
559.8437477438745
 31
0.0
  0
LINE
  5
295
330
6C
100
AcDbEntity
  8
0
100
AcDbLine
 10
194.1271324614346
 20
559.8437477438745
 30
0.0
 11
217.1192501382907
 21
559.8437477438745
 31
0.0
  0
LINE
  5
296
330
6C
100
AcDbEntity
  8
0
100
AcDbLine
 10
217.1192501382908
 20
559.8437477438745
 30
0.0
 11
328.1350147845788
 21
559.8437477438745
 31
0.0
  0
LINE
  5
297
330
6C
100
AcDbEntity
  8
0
100
AcDbLine
 10
355.6891140423493
 20
561.0210333131301
 30
0.0
 11
354.3821324614695
 21
560.6837477438745
 31
0.0
  0
LINE
  5
298
330
6C
100
AcDbEntity
  8
0
100
AcDbLine
 10
194.1271324614346
 20
559.8437477438745
 30
0.0
 11
189.5651508805201
 21
561.0210333131304
 31
0.0
  0
LINE
  5
2AC
330
6C
100
AcDbEntity
  8
0
100
AcDbLine
 10
343.3771324614347
 20
552.1837477438745
 30
0.0
 11
201.3771324614348
 21
552.1837477438745
 31
0.0
  0
LINE
  5
2AD
330
6C
100
AcDbEntity
  8
0
100
AcDbLine
 10
201.3771324614348
 20
558.0937477438745
 30
0.0
 11
201.3771324614348
 21
552.1837477438745
 31
0.0
  0
ARC
  5
2B5
330
6C
100
AcDbEntity
  8
0
100
AcDbCircle
 10
199.6271324614346
 20
558.0937477438745
 30
0.0
 40
1.75
100
AcDbArc
 50
0.0
 51
90.0
  0
LINE
  5
2B8
330
6C
100
AcDbEntity
  8
0
100
AcDbLine
 10
122.6271324613521
 20
565.6837477438746
 30
0.0
 11
122.6271324613521
 21
567.6837477438747
 31
0.0
  0
LINE
  5
2B9
330
6C
100
AcDbEntity
  8
0
100
AcDbLine
 10
422.6271324613521
 20
565.6837477438746
 30
0.0
 11
422.6271324613521
 21
567.6837477438746
 31
0.0
  0
LINE
  5
2BA
330
6C
100
AcDbEntity
  8
0
100
AcDbLine
 10
422.6271324613521
 20
567.6837477438746
 30
0.0
 11
420.6271324613521
 21
567.6837477438746
 31
0.0
  0
LINE
  5
2BB
330
6C
100
AcDbEntity
  8
0
100
AcDbLine
 10
420.6271324613521
 20
565.6837477438746
 30
0.0
 11
420.6271324613521
 21
567.6837477438746
 31
0.0
  0
LINE
  5
2BC
330
6C
100
AcDbEntity
  8
0
100
AcDbLine
 10
422.6271324613521
 20
565.6837477438746
 30
0.0
 11
420.6271324613521
 21
565.6837477438746
 31
0.0
  0
LINE
  5
2BD
330
6C
100
AcDbEntity
  8
0
100
AcDbLine
 10
420.6271324613521
 20
567.6837477438746
 30
0.0
 11
124.6271324613521
 21
567.6837477438747
 31
0.0
  0
LINE
  5
2BE
330
6C
100
AcDbEntity
  8
0
100
AcDbLine
 10
124.6271324613521
 20
565.6837477438746
 30
0.0
 11
124.6271324613521
 21
567.6837477438747
 31
0.0
  0
LINE
  5
2BF
330
6C
100
AcDbEntity
  8
0
100
AcDbLine
 10
420.6271324613521
 20
565.6837477438746
 30
0.0
 11
124.6271324613521
 21
565.6837477438746
 31
0.0
  0
LINE
  5
2C0
330
6C
100
AcDbEntity
  8
0
100
AcDbLine
 10
124.6271324613521
 20
567.6837477438747
 30
0.0
 11
122.6271324613521
 21
567.6837477438747
 31
0.0
  0
LINE
  5
2C1
330
6C
100
AcDbEntity
  8
0
100
AcDbLine
 10
124.6271324613521
 20
565.6837477438746
 30
0.0
 11
122.6271324613521
 21
565.6837477438746
 31
0.0
  0
LINE
  5
300
330
6C
100
AcDbEntity
  8
0
100
AcDbLine
 10
343.3771324614348
 20
549.0214700837062
 30
0.0
 11
343.3771324614348
 21
555.3460254040426
 31
0.0
  0
LINE
  5
301
330
6C
100
AcDbEntity
  8
0
100
AcDbLine
 10
344.3771324614348
 20
543.6837477438746
 30
0.0
 11
344.3771324614348
 21
559.4434490745749
 31
0.0
  0
LINE
  5
302
330
6C
100
AcDbEntity
  8
0
100
AcDbLine
 10
361.3771324614348
 20
543.6837477438746
 30
0.0
 11
361.3771324614348
 21
560.6837477438745
 31
0.0
  0
LINE
  5
303
330
6C
100
AcDbEntity
  8
0
100
AcDbLine
 10
363.3771324614348
 20
544.6837477438744
 30
0.0
 11
363.3771324614348
 21
559.6837477438746
 31
0.0
  0
LINE
  5
304
330
6C
100
AcDbEntity
  8
0
100
AcDbLine
 10
344.3771324614348
 20
543.6837477438746
 30
0.0
 11
343.8771324614348
 21
543.4337477438746
 31
0.0
  0
LINE
  5
305
330
6C
100
AcDbEntity
  8
0
100
AcDbLine
 10
354.3821324614697
 20
560.6837477438745
 30
0.0
 11
361.3771324614348
 21
560.6837477438745
 31
0.0
  0
LINE
  5
306
330
6C
100
AcDbEntity
  8
0
100
AcDbLine
 10
344.3771324614348
 20
543.6837477438746
 30
0.0
 11
361.3771324614348
 21
543.6837477438746
 31
0.0
  0
LINE
  5
307
330
6C
100
AcDbEntity
  8
0
100
AcDbLine
 10
363.3771324614348
 20
544.6837477438744
 30
0.0
 11
361.3771324614348
 21
543.6837477438746
 31
0.0
  0
LINE
  5
308
330
6C
100
AcDbEntity
  8
0
100
AcDbLine
 10
363.3771324614348
 20
559.6837477438746
 30
0.0
 11
361.3771324614348
 21
560.6837477438745
 31
0.0
  0
LINE
  5
30D
330
6C
100
AcDbEntity
  8
0
100
AcDbLine
 10
370.6776427186517
 20
587.6788995438745
 30
0.0
 11
174.5766222042179
 21
587.6788995438745
 31
0.0
  0
LINE
  5
337
330
6C
100
AcDbEntity
  8
0
100
AcDbLine
 10
173.8771324613521
 20
577.6837477438744
 30
0.0
 11
174.0771324614347
 21
577.6837477438744
 31
0.0
  0
LINE
  5
338
330
6C
100
AcDbEntity
  8
0
100
AcDbLine
 10
371.1771324614348
 20
577.6837477438744
 30
0.0
 11
371.3771324613522
 21
577.6837477438744
 31
0.0
  0
LINE
  5
3AF
330
6C
100
AcDbEntity
  8
0
100
AcDbLine
 10
342.8771324614348
 20
527.3616415848358
 30
0.0
 11
342.8771324614348
 21
526.8685701084481
 31
0.0
  0
LINE
  5
3B0
330
6C
100
AcDbEntity
  8
0
100
AcDbLine
 10
202.3771324614346
 20
527.3616415848358
 30
0.0
 11
202.3771324614346
 21
526.8685701084481
 31
0.0
  0
ARC
  5
3B1
330
6C
100
AcDbEntity
  8
0
100
AcDbCircle
 10
203.955863007725
 20
526.869198436088
 30
0.0
 40
1.57873067132607
100
AcDbArc
 50
180.0228034607185
 51
256.8768621982479
  0
ARC
  5
3B2
330
6C
100
AcDbEntity
  8
0
100
AcDbCircle
 10
341.2984019151445
 20
526.869198436088
 30
0.0
 40
1.578730671326073
100
AcDbArc
 50
283.1231378017522
 51
359.9771965392815
  0
ARC
  5
3B3
330
6C
100
AcDbEntity
  8
0
100
AcDbCircle
 10
202.6595659949865
 20
521.340403237242
 30
0.0
 40
4.099999999999997
100
AcDbArc
 50
48.48477605800177
 51
76.77680089323017
  0
ARC
  5
3B4
330
6C
100
AcDbEntity
  8
0
100
AcDbCircle
 10
342.594698927883
 20
521.340403237242
 30
0.0
 40
4.099999999999997
100
AcDbArc
 50
103.2231991067692
 51
131.5152239419974
  0
SPLINE
  5
475
330
6C
100
AcDbEntity
  8
0
100
AcDbSpline
210
0.0
220
0.0
230
1.0
 70
     8
 71
     3
 72
    16
 73
    12
 74
     0
 42
0.0000000001
 43
0.0000000001
 40
0.0
 40
0.0
 40
0.0
 40
0.0
 40
0.039064447338693
 40
0.039064447338693
 40
0.0781288946773862
 40
0.0781288946773862
 40
0.117193342016081
 40
0.117193342016081
 40
0.1373373782309075
 40
0.1373373782309075
 40
0.157481414445736
 40
0.157481414445736
 40
0.157481414445736
 40
0.157481414445736
 10
172.6271324613515
 20
131.0287244625158
 30
0.0
 10
172.6271324613515
 20
130.8985096380536
 30
0.0
 10
172.6525663121161
 20
130.7695397382857
 30
0.0
 10
172.751438524786
 20
130.5286084460035
 30
0.0
 10
172.8239316144486
 20
130.4189504879611
 30
0.0
 10
173.0068709231465
 20
130.2335945833556
 30
0.0
 10
173.1155681426811
 20
130.1596687402672
 30
0.0
 10
173.2971543235511
 20
130.0823507944388
 30
0.0
 10
173.3614266512165
 20
130.0623347308256
 30
0.0
 10
173.4930092882625
 20
130.0354874990996
 30
0.0
 10
173.5599856739687
 20
130.0287244625159
 30
0.0
 10
173.6271324613514
 20
130.0287244625159
 30
0.0
  0
LINE
  5
476
330
6C
100
AcDbEntity
  8
0
100
AcDbLine
 10
173.6271324613515
 20
130.0287244625159
 30
0.0
 11
174.0771324613515
 21
130.0287244625159
 31
0.0
  0
LINE
  5
477
330
6C
100
AcDbEntity
  8
0
100
AcDbLine
 10
172.6271324613515
 20
131.4787244625159
 30
0.0
 11
172.6271324613515
 21
131.0287244625159
 31
0.0
  0
LINE
  5
47C
330
6C
100
AcDbEntity
  8
0
100
AcDbLine
 10
174.0771324613515
 20
130.0287244625159
 30
0.0
 11
174.1299794574346
 21
130.0287244625159
 31
0.0
  0
LINE
  5
47D
330
6C
100
AcDbEntity
  8
0
100
AcDbLine
 10
371.1242854651026
 20
130.0287244625159
 30
0.0
 11
371.1771324613514
 21
130.0287244625159
 31
0.0
  0
LINE
  5
47E
330
6C
100
AcDbEntity
  8
0
100
AcDbLine
 10
371.1771324613514
 20
330.0287244625159
 30
0.0
 11
371.1242854643813
 21
330.0287244625159
 31
0.0
  0
LINE
  5
47F
330
6C
100
AcDbEntity
  8
0
100
AcDbLine
 10
174.1299794581574
 20
330.0287244625159
 30
0.0
 11
174.0771324613515
 21
330.0287244625159
 31
0.0
  0
LINE
  5
480
330
6C
100
AcDbEntity
  8
0
100
AcDbLine
 10
172.6271324613515
 20
328.5787244625159
 30
0.0
 11
172.6271324613515
 21
328.5258774662669
 31
0.0
  0
LINE
  5
481
330
6C
100
AcDbEntity
  8
0
100
AcDbLine
 10
172.6271324613515
 20
131.5315714586001
 30
0.0
 11
172.6271324613515
 21
131.4787244625159
 31
0.0
  0
LINE
  5
482
330
6C
100
AcDbEntity
  8
0
100
AcDbLine
 10
372.6271324613515
 20
131.4787244625159
 30
0.0
 11
372.6271324613515
 21
131.5315714593203
 31
0.0
  0
LINE
  5
483
330
6C
100
AcDbEntity
  8
0
100
AcDbLine
 10
372.6271324613515
 20
328.5258774655455
 30
0.0
 11
372.6271324613515
 21
328.5787244625159
 31
0.0
  0
LINE
  5
488
330
6C
100
AcDbEntity
  8
0
100
AcDbLine
 10
371.1771324613514
 20
130.0287244625159
 30
0.0
 11
371.6271324613515
 21
130.0287244625159
 31
0.0
  0
LINE
  5
489
330
6C
100
AcDbEntity
  8
0
100
AcDbLine
 10
372.6271324613515
 20
131.0287244625158
 30
0.0
 11
372.6271324613515
 21
131.4787244625159
 31
0.0
  0
SPLINE
  5
496
330
6C
100
AcDbEntity
  8
0
100
AcDbSpline
210
0.0
220
0.0
230
1.0
 70
     8
 71
     3
 72
    16
 73
    12
 74
     0
 42
0.0000000001
 43
0.0000000001
 40
0.0
 40
0.0
 40
0.0
 40
0.0
 40
0.0390644473386915
 40
0.0390644473386915
 40
0.0781288946773805
 40
0.0781288946773805
 40
0.1171933420160711
 40
0.1171933420160711
 40
0.137337378230898
 40
0.137337378230898
 40
0.1574814144457246
 40
0.1574814144457246
 40
0.1574814144457246
 40
0.1574814144457246
 10
372.6271324613515
 20
329.0287244625158
 30
0.0
 10
372.6271324613515
 20
329.1589392869783
 30
0.0
 10
372.6016986105869
 20
329.2879091867462
 30
0.0
 10
372.5028263979169
 20
329.5288404790282
 30
0.0
 10
372.4303333082543
 20
329.6384984370707
 30
0.0
 10
372.2473939995563
 20
329.8238543416762
 30
0.0
 10
372.1386967800219
 20
329.8977801847645
 30
0.0
 10
371.9571105991519
 20
329.9750981305929
 30
0.0
 10
371.8928382714864
 20
329.9951141942061
 30
0.0
 10
371.7612556344406
 20
330.0219614259321
 30
0.0
 10
371.6942792487342
 20
330.0287244625159
 30
0.0
 10
371.6271324613515
 20
330.0287244625159
 30
0.0
  0
LINE
  5
497
330
6C
100
AcDbEntity
  8
0
100
AcDbLine
 10
371.6271324613515
 20
330.0287244625159
 30
0.0
 11
371.1771324613514
 21
330.0287244625159
 31
0.0
  0
LINE
  5
498
330
6C
100
AcDbEntity
  8
0
100
AcDbLine
 10
174.0771324613515
 20
330.0287244625159
 30
0.0
 11
173.6271324613515
 21
330.0287244625159
 31
0.0
  0
LINE
  5
499
330
6C
100
AcDbEntity
  8
0
100
AcDbLine
 10
372.6271324613515
 20
328.5787244625159
 30
0.0
 11
372.6271324613515
 21
329.0287244625158
 31
0.0
  0
LINE
  5
49A
330
6C
100
AcDbEntity
  8
0
100
AcDbLine
 10
172.6271324613515
 20
329.0287244625158
 30
0.0
 11
172.6271324613515
 21
328.5787244625159
 31
0.0
  0
SPLINE
  5
4A3
330
6C
100
AcDbEntity
  8
0
100
AcDbSpline
210
0.0
220
0.0
230
1.0
 70
     8
 71
     3
 72
    16
 73
    12
 74
     0
 42
0.0000000001
 43
0.0000000001
 40
0.0
 40
0.0
 40
0.0
 40
0.0
 40
0.0390644473386933
 40
0.0390644473386933
 40
0.0781288946773843
 40
0.0781288946773843
 40
0.1171933420160773
 40
0.1171933420160773
 40
0.1373373782309079
 40
0.1373373782309079
 40
0.1574814144457362
 40
0.1574814144457362
 40
0.1574814144457362
 40
0.1574814144457362
 10
173.6271324613515
 20
330.0287244625159
 30
0.0
 10
173.4969176368892
 20
330.0287244625159
 30
0.0
 10
173.3679477371213
 20
330.0032906117513
 30
0.0
 10
173.1270164448391
 20
329.9044183990814
 30
0.0
 10
173.0173584867967
 20
329.8319253094188
 30
0.0
 10
172.8320025821912
 20
329.6489860007209
 30
0.0
 10
172.7580767391029
 20
329.5402887811864
 30
0.0
 10
172.6807587932744
 20
329.3587026003164
 30
0.0
 10
172.6607427296611
 20
329.2944302726509
 30
0.0
 10
172.6338954979352
 20
329.1628476356049
 30
0.0
 10
172.6271324613515
 20
329.0958712498987
 30
0.0
 10
172.6271324613515
 20
329.0287244625158
 30
0.0
  0
SPLINE
  5
4A4
330
6C
100
AcDbEntity
  8
0
100
AcDbSpline
210
0.0
220
0.0
230
1.0
 70
     8
 71
     3
 72
    16
 73
    12
 74
     0
 42
0.0000000001
 43
0.0000000001
 40
0.0
 40
0.0
 40
0.0
 40
0.0
 40
0.0390644473386912
 40
0.0390644473386912
 40
0.0781288946773848
 40
0.0781288946773848
 40
0.1171933420160769
 40
0.1171933420160769
 40
0.1373373782309036
 40
0.1373373782309036
 40
0.15748141444573
 40
0.15748141444573
 40
0.15748141444573
 40
0.15748141444573
 10
371.6271324613515
 20
130.0287244625159
 30
0.0
 10
371.7573472858139
 20
130.0287244625159
 30
0.0
 10
371.8863171855817
 20
130.0541583132805
 30
0.0
 10
372.1272484778639
 20
130.1530305259504
 30
0.0
 10
372.2369064359063
 20
130.2255236156131
 30
0.0
 10
372.4222623405118
 20
130.408462924311
 30
0.0
 10
372.4961881836002
 20
130.5171601438455
 30
0.0
 10
372.5735061294285
 20
130.6987463247155
 30
0.0
 10
372.5935221930417
 20
130.7630186523809
 30
0.0
 10
372.6203694247678
 20
130.8946012894268
 30
0.0
 10
372.6271324613515
 20
130.9615776751331
 30
0.0
 10
372.6271324613515
 20
131.0287244625158
 30
0.0
  0
LINE
  5
4CB
330
6C
100
AcDbEntity
  8
0
100
AcDbLine
 10
122.6271324612689
 20
82.02872446259316
 30
0.0
 11
122.6271324612689
 21
378.0287244625932
 31
0.0
  0
LINE
  5
4CC
330
6C
100
AcDbEntity
  8
0
100
AcDbLine
 10
122.6271324612689
 20
378.0287244625932
 30
0.0
 11
124.6271324612689
 21
380.0287244625932
 31
0.0
  0
LINE
  5
4CD
330
6C
100
AcDbEntity
  8
0
100
AcDbLine
 10
124.6271324612689
 20
380.0287244625932
 30
0.0
 11
420.6271324612688
 21
380.0287244625932
 31
0.0
  0
LINE
  5
4CE
330
6C
100
AcDbEntity
  8
0
100
AcDbLine
 10
420.6271324612688
 20
380.0287244625932
 30
0.0
 11
422.6271324612688
 21
378.0287244625932
 31
0.0
  0
LINE
  5
4CF
330
6C
100
AcDbEntity
  8
0
100
AcDbLine
 10
422.6271324612688
 20
378.0287244625932
 30
0.0
 11
422.6271324612688
 21
82.02872446259318
 31
0.0
  0
LINE
  5
4D0
330
6C
100
AcDbEntity
  8
0
100
AcDbLine
 10
422.6271324612688
 20
82.02872446259316
 30
0.0
 11
420.6271324612688
 21
80.02872446259317
 31
0.0
  0
LINE
  5
4D1
330
6C
100
AcDbEntity
  8
0
100
AcDbLine
 10
420.6271324612688
 20
80.02872446259317
 30
0.0
 11
124.6271324612689
 21
80.02872446259317
 31
0.0
  0
LINE
  5
4D2
330
6C
100
AcDbEntity
  8
0
100
AcDbLine
 10
124.6271324612688
 20
80.02872446259317
 30
0.0
 11
122.6271324612689
 21
82.02872446259316
 31
0.0
  0
LINE
  5
4EE
330
6C
100
AcDbEntity
  8
0
100
AcDbLine
 10
423.1271324614347
 20
517.4288995438748
 30
0.0
 11
423.1271324614347
 21
446.4288995438748
 31
0.0
  0
LINE
  5
516
330
6C
100
AcDbEntity
  8
0
100
AcDbLine
 10
370.6776427184857
 20
330.0792347196505
 30
0.0
 11
174.576622204052
 21
330.0792347196502
 31
0.0
  0
LINE
  5
517
330
6C
100
AcDbEntity
  8
0
100
AcDbLine
 10
172.5766222040521
 20
328.0792347196503
 30
0.0
 11
172.5766222040521
 21
131.9782142052168
 31
0.0
  0
LINE
  5
518
330
6C
100
AcDbEntity
  8
0
100
AcDbLine
 10
174.576622204052
 20
129.9782142052168
 30
0.0
 11
370.6776427184858
 21
129.978214205217
 31
0.0
  0
LINE
  5
519
330
6C
100
AcDbEntity
  8
0
100
AcDbLine
 10
372.6776427184858
 20
131.978214205217
 30
0.0
 11
372.6776427184857
 21
328.0792347196505
 31
0.0
  0
ARC
  5
51A
330
6C
100
AcDbEntity
  8
0
100
AcDbCircle
 10
174.576622204052
 20
328.0792347196503
 30
0.0
 40
1.999999999999938
100
AcDbArc
 50
89.99999999999833
 51
180.0
  0
ARC
  5
51B
330
6C
100
AcDbEntity
  8
0
100
AcDbCircle
 10
174.576622204052
 20
131.9782142052168
 30
0.0
 40
1.999999999999992
100
AcDbArc
 50
180.0
 51
270.0
  0
ARC
  5
51C
330
6C
100
AcDbEntity
  8
0
100
AcDbCircle
 10
370.6776427184858
 20
131.978214205217
 30
0.0
 40
1.999999999999993
100
AcDbArc
 50
270.0
 51
0.0
  0
ARC
  5
51D
330
6C
100
AcDbEntity
  8
0
100
AcDbCircle
 10
370.6776427184857
 20
328.0792347196505
 30
0.0
 40
1.999999999999974
100
AcDbArc
 50
0.0
 51
90.0
  0
LINE
  5
526
330
6C
100
AcDbEntity
  8
0
100
AcDbLine
 10
357.1271324612689
 20
157.0287244624336
 30
0.0
 11
357.1271324612689
 21
303.0287244624336
 31
0.0
  0
LINE
  5
527
330
6C
100
AcDbEntity
  8
0
100
AcDbLine
 10
188.1271324612688
 20
303.0287244624333
 30
0.0
 11
188.1271324612688
 21
157.0287244624335
 31
0.0
  0
CIRCLE
  5
528
330
6C
100
AcDbEntity
  8
0
100
AcDbCircle
 10
272.6271324612689
 20
230.0287244624334
 30
0.0
 40
69.99999999983415
  0
ARC
  5
529
330
6C
100
AcDbEntity
  8
0
100
AcDbCircle
 10
199.6271324612689
 20
157.0287244624335
 30
0.0
 40
11.5
100
AcDbArc
 50
180.0
 51
270.0
  0
LINE
  5
52A
330
6C
100
AcDbEntity
  8
0
100
AcDbLine
 10
199.6271324612689
 20
145.5287244624335
 30
0.0
 11
345.6271324612688
 21
145.5287244624336
 31
0.0
  0
ARC
  5
52B
330
6C
100
AcDbEntity
  8
0
100
AcDbCircle
 10
199.6271324612689
 20
303.0287244624333
 30
0.0
 40
11.50000000000001
100
AcDbArc
 50
90.00000000000017
 51
180.0
  0
LINE
  5
52C
330
6C
100
AcDbEntity
  8
0
100
AcDbLine
 10
345.6271324612688
 20
314.5287244624336
 30
0.0
 11
199.6271324612688
 21
314.5287244624333
 31
0.0
  0
ARC
  5
52D
330
6C
100
AcDbEntity
  8
0
100
AcDbCircle
 10
345.627132461269
 20
157.0287244624336
 30
0.0
 40
11.49999999999997
100
AcDbArc
 50
270.0
 51
0.0
  0
ARC
  5
52E
330
6C
100
AcDbEntity
  8
0
100
AcDbCircle
 10
345.6271324612688
 20
303.0287244624336
 30
0.0
 40
11.5
100
AcDbArc
 50
0.0
 51
90.0
  0
LINE
  5
622
330
6C
100
AcDbEntity
  8
7
  6
Continuous
100
AcDbLine
 10
425.2937991281013
 20
481.9288995438745
 30
0.0
 11
380.9604657947681
 21
481.9288995438745
 31
0.0
  0
LINE
  5
624
330
6C
100
AcDbEntity
  8
7
  6
Continuous
100
AcDbLine
 10
352.6929953574352
 20
230.0287244624852
 30
0.0
 11
197.6347973059244
 21
230.0287244624852
 31
0.0
  0
LINE
  5
704
330
6C
100
AcDbEntity
  8
7
  6
Continuous
100
AcDbLine
 10
272.6271324614348
 20
440.9844320683073
 30
0.0
 11
272.6271324614348
 21
592.5596983988452
 31
0.0
  0
DIMENSION
  5
705
330
6C
100
AcDbEntity
  8
5
100
AcDbDimension
  2
*D27
 10
423.1271324614347
 20
404.5246248516238
 30
0.0
 11
347.0807827250262
 21
404.5246248516238
 31
0.0
 70
   160
  1
149
 71
     5
 42
150.4999999999999
  3
GEN-ISO
100
AcDbAlignedDimension
 13
272.6271324614348
 23
420.8847949178216
 33
0.0
 14
423.1271324614347
 24
445.4339118542732
 34
0.0
100
AcDbRotatedDimension
1001
ACAD
1000
DSTYLE
1002
{
1070
     3
1000

1070
   271
1070
     0
1002
}
1001
ACAD_DSTYLE_DIMINSPECT
1070
   396
1000
100%
1070
   395
1000

1070
   394
1070
    33
1070
   393
1070
     0
  0
DIMENSION
  5
7E7
330
6C
100
AcDbEntity
  8
5
100
AcDbDimension
  2
*D28
 10
474.2020596658456
 20
481.9288995438745
 30
0.0
 11
474.2020596658456
 21
534.9313236438746
 31
0.0
 70
   160
  1
<>
 71
     5
 42
105.7548482
  3
GEN-ISO
100
AcDbAlignedDimension
 13
370.6776427185691
 23
587.6837477438746
 33
0.0
 14
454.8405170462467
 24
481.9288995438745
 34
0.0
 50
90.0
100
AcDbRotatedDimension
1001
ACAD_DSTYLE_DIMINSPECT
1070
   396
1000
100%
1070
   395
1000

1070
   394
1070
    33
1070
   393
1070
     0
1001
ACAD
1000
DSTYLE
1002
{
1070
     3
1000

1070
   271
1070
     0
1002
}
  0
DIMENSION
  5
8C9
330
6C
100
AcDbEntity
  8
5
100
AcDbDimension
  2
*D29
 10
446.0998642351249
 20
587.6837477438746
 30
0.0
 11
446.0998642351248
 21
575.2356741412945
 31
0.0
 70
   160
  1
<>
 71
     5
 42
24.89614720516045
  3
GEN-ISO
100
AcDbAlignedDimension
 13
354.1364519742493
 23
562.7876005387141
 33
0.0
 14
370.6776427185691
 24
587.6837477438746
 34
0.0
 50
90.0
100
AcDbRotatedDimension
1001
ACAD
1000
DSTYLE
1002
{
1070
     3
1000

1070
   271
1070
     0
1002
}
  0
DIMENSION
  5
9AB
330
6C
100
AcDbEntity
  8
5
100
AcDbDimension
  2
*D30
 10
422.6271324613521
 20
617.8274015751504
 30
0.0
 11
272.6271324613522
 21
617.8274015751504
 31
0.0
 70
   160
  1
{\Famgdt;o}<>
 71
     5
 42
300.0
  3
GEN-ISO
100
AcDbAlignedDimension
 13
122.6271324613521
 23
567.6837477438746
 33
0.0
 14
422.6271324613521
 24
567.6837477438746
 34
0.0
100
AcDbRotatedDimension
1001
ACAD
1000
DSTYLE
1002
{
1070
     3
1000

1070
   271
1070
     0
1002
}
1001
ACAD_DSTYLE_DIMINSPECT
1070
   396
1000
100%
1070
   395
1000

1070
   394
1070
    33
1070
   393
1070
     0
  0
DIMENSION
  5
A82
330
6C
100
AcDbEntity
  8
5
100
AcDbDimension
  2
*D31
 10
372.6271324614348
 20
595.7164120949869
 30
0.0
 11
272.6271324614348
 21
595.7164120949869
 31
0.0
 70
   160
  1
{\Famgdt;o}<>
 71
     5
 42
199.9999999999999
  3
GEN-ISO
100
AcDbAlignedDimension
 13
172.6271324614348
 23
585.6837477438745
 33
0.0
 14
372.6271324614348
 24
585.6837477438745
 34
0.0
100
AcDbRotatedDimension
1001
ACAD
1000
DSTYLE
1002
{
1070
     3
1000

1070
   271
1070
     0
1002
}
1001
ACAD_DSTYLE_DIMINSPECT
1070
   396
1000
100%
1070
   395
1000

1070
   394
1070
    33
1070
   393
1070
     0
  0
DIMENSION
  5
B5A
330
6C
100
AcDbEntity
  8
5
100
AcDbDimension
  2
*D32
 10
111.6224374939882
 20
450.1788995438745
 30
0.0
 11
111.6224374939881
 21
518.9313236438746
 31
0.0
 70
   160
  1
<>
 71
     5
 42
137.5048481999998
  3
GEN-ISO
100
AcDbAlignedDimension
 13
174.0009408644394
 23
587.6837477438746
 33
0.0
 14
229.6019199252457
 24
450.1788995438745
 34
0.0
 50
90.0
100
AcDbRotatedDimension
1001
ACAD
1000
DSTYLE
1002
{
1070
     3
1000

1070
   271
1070
     0
1002
}
  0
CIRCLE
  5
1030
330
6C
100
AcDbEntity
  8
0
100
AcDbCircle
 10
272.6271324612689
 20
230.0287244624334
 30
0.0
 40
65.99999999983413
  0
LINE
  5
105A
330
6C
100
AcDbEntity
  8
0
100
AcDbLine
 10
423.1271324614347
 20
517.4288995438748
 30
0.0
 11
421.1271324614346
 21
519.4288995438745
 31
0.0
  0
LINE
  5
105B
330
6C
100
AcDbEntity
  8
0
100
AcDbLine
 10
423.1271324614347
 20
446.4288995438748
 30
0.0
 11
421.1271324614346
 21
444.4288995438745
 31
0.0
  0
LINE
  5
1060
330
6C
100
AcDbEntity
  8
0
100
AcDbLine
 10
423.1271324614347
 20
265.5287244624852
 30
0.0
 11
423.1271324614347
 21
194.5287244624852
 31
0.0
  0
LINE
  5
1061
330
6C
100
AcDbEntity
  8
0
100
AcDbLine
 10
423.1271324614347
 20
265.5287244624852
 30
0.0
 11
422.6271324612688
 21
266.028724462651
 31
0.0
  0
LINE
  5
1062
330
6C
100
AcDbEntity
  8
0
100
AcDbLine
 10
423.1271324614347
 20
194.5287244624852
 30
0.0
 11
422.6271324612688
 21
194.0287244623194
 31
0.0
  0
LINE
  5
1063
330
6C
100
AcDbEntity
  8
7
100
AcDbLine
 10
275.1638963316798
 20
306.6929196305939
 30
0.0
 11
275.1638963316798
 21
152.5713990779804
 31
0.0
  0
LINE
  5
1079
330
6C
100
AcDbEntity
  8
0
100
AcDbLine
 10
351.040623647582
 20
559.8437477438745
 30
0.0
 11
354.3821324614691
 21
560.6837477438745
 31
0.0
  0
DIMENSION
  5
1145
330
6C
100
AcDbEntity
  8
5
100
AcDbDimension
  2
*D49
 10
449.4236844563141
 20
444.4288995438745
 30
0.0
 11
449.423684456314
 21
481.9288995438748
 31
0.0
 70
   160
  1
%%c<>
 71
     5
 42
75.0
  3
GEN-ISO
100
AcDbAlignedDimension
 13
421.1271324614346
 23
519.4288995438745
 33
0.0
 14
421.1271324614346
 24
444.4288995438745
 34
0.0
 50
90.00000000000005
100
AcDbRotatedDimension
1001
ACAD_DSTYLE_DIMINSPECT
1070
   396
1000
100%
1070
   395
1000

1070
   394
1070
    33
1070
   393
1070
     0
1001
ACAD
1000
DSTYLE
1002
{
1070
     3
1000

1070
   271
1070
     0
1002
}
  0
DIMENSION
  5
11A8
330
6C
100
AcDbEntity
  8
5
100
AcDbDimension
  2
*D50
 10
343.8771324614347
 20
424.6242620021096
 30
0.0
 11
272.6271324614347
 21
424.6242620021096
 31
0.0
 70
   160
  1
142
 71
     5
 42
142.5
  3
GEN-ISO
100
AcDbAlignedDimension
 13
201.3771324614348
 23
468.7224706648761
 33
0.0
 14
343.8771324614347
 24
515.6788995438745
 34
0.0
 50
0.0000000000001132
100
AcDbRotatedDimension
1001
ACAD_DSTYLE_DIMINSPECT
1070
   396
1000
100%
1070
   395
1000

1070
   394
1070
    33
1070
   393
1070
     0
1001
ACAD
1000
DSTYLE
1002
{
1070
     3
1000

1070
   271
1070
     0
1002
}
  0
LINE
  5
1262
330
6C
100
AcDbEntity
  8
0
100
AcDbLine
 10
372.6271324614348
 20
585.6837477438745
 30
0.0
 11
370.6776427186517
 21
587.6788995438745
 31
0.0
  0
LINE
  5
1263
330
6C
100
AcDbEntity
  8
0
100
AcDbLine
 10
172.6271324614346
 20
585.6837477438745
 30
0.0
 11
174.5766222042179
 21
587.6788995438745
 31
0.0
  0
DIMENSION
  5
1300
330
6C
100
AcDbEntity
  8
5
100
AcDbDimension
  2
*D51
 10
495.6358309197993
 20
444.4288995438745
 30
0.0
 11
495.6358309197992
 21
517.0847413788826
 31
0.0
 70
   160
 71
     5
 42
143.2499999999999
  3
GEN-ISO
100
AcDbAlignedDimension
 13
370.6776427186517
 23
587.6788995438745
 33
0.0
 14
421.1271324614346
 24
444.4288995438745
 34
0.0
 50
90.00000000000005
100
AcDbRotatedDimension
1001
ACAD_DSTYLE_DIMINSPECT
1070
   396
1000
100%
1070
   395
1000

1070
   394
1070
    33
1070
   393
1070
     0
1001
ACAD
1000
DSTYLE
1002
{
1070
     3
1000

1070
   271
1070
     0
1002
}
  0
ENDSEC
  0
SECTION
  2
OBJECTS
  0
DICTIONARY
  5
C
330
0
100
AcDbDictionary
281
     1
  3
ACAD_2007HEADERVARS_RT
350
1603
  3
ACAD_CIP_PREVIOUS_PRODUCT_INFO
350
D19
  3
ACAD_COLOR
350
63
  3
ACAD_GROUP
350
D
  3
ACAD_LAYOUT
350
62
  3
ACAD_MATERIAL
350
10
  3
ACAD_MLEADERSTYLE
350
66
  3
ACAD_MLINESTYLE
350
5F
  3
ACAD_PLOTSETTINGS
350
61
  3
ACAD_PLOTSTYLENAME
350
E
  3
ACAD_SCALELIST
350
42
  3
ACAD_TABLESTYLE
350
64
  3
ACAD_VISUALSTYLE
350
29
  3
ACDB_RECOMPOSE_DATA
350
1602
  3
AcDbVariableDictionary
350
D55
  3
AcmDictionary
350
DC2
  3
AEC_PROPERTY_SET_DEFS
350
EF4
  3
AMG
350
D68
  3
AMGSNAPSETTINGS
350
EF7
  0
DICTIONARY
  5
E5F
330
2
100
AcDbDictionary
280
     1
281
     1
  3
ACAD_LAYERSTATES
360
E60
  0
DICTIONARY
  5
E59
330
E58
100
AcDbDictionary
280
     1
281
     1
  0
DICTIONARY
  5
E5B
330
E5A
100
AcDbDictionary
280
     1
281
     1
  0
DICTIONARY
  5
15EE
330
CA
100
AcDbDictionary
280
     1
281
     1
  3
ACAD_MTEXT_2008_RT
360
15EF
  0
DICTIONARY
  5
1639
330
12F
100
AcDbDictionary
280
     1
281
     1
  3
ACAD_MTEXT_2008_RT
360
163A
  0
DICTIONARY
  5
163B
330
133
100
AcDbDictionary
280
     1
281
     1
  3
ACAD_MTEXT_2008_RT
360
163C
  0
DICTIONARY
  5
163D
330
137
100
AcDbDictionary
280
     1
281
     1
  3
ACAD_MTEXT_2008_RT
360
163E
  0
DICTIONARY
  5
163F
330
13B
100
AcDbDictionary
280
     1
281
     1
  3
ACAD_MTEXT_2008_RT
360
1640
  0
DICTIONARY
  5
1641
330
13F
100
AcDbDictionary
280
     1
281
     1
  3
ACAD_MTEXT_2008_RT
360
1642
  0
DICTIONARY
  5
1643
330
143
100
AcDbDictionary
280
     1
281
     1
  3
ACAD_MTEXT_2008_RT
360
1644
  0
DICTIONARY
  5
1645
330
147
100
AcDbDictionary
280
     1
281
     1
  3
ACAD_MTEXT_2008_RT
360
1646
  0
DICTIONARY
  5
1647
330
14B
100
AcDbDictionary
280
     1
281
     1
  3
ACAD_MTEXT_2008_RT
360
1648
  0
DICTIONARY
  5
1649
330
153
100
AcDbDictionary
280
     1
281
     1
  3
ACAD_MTEXT_2008_RT
360
164A
  0
DICTIONARY
  5
164B
330
20A
100
AcDbDictionary
280
     1
281
     1
  3
ACAD_MTEXT_2008_RT
360
164C
  0
DICTIONARY
  5
164D
330
20F
100
AcDbDictionary
280
     1
281
     1
  3
ACAD_MTEXT_2008_RT
360
164E
  0
DICTIONARY
  5
D1E
330
211
100
AcDbDictionary
280
     1
281
     1
  3
ACAD_MLATT
360
15F1
  3
ACAD_XREC_ROUNDTRIP
360
15F0
  0
DICTIONARY
  5
D21
330
215
100
AcDbDictionary
280
     1
281
     1
  3
ACAD_MLATT
360
15F3
  3
ACAD_XREC_ROUNDTRIP
360
15F2
  0
DICTIONARY
  5
D24
330
216
100
AcDbDictionary
280
     1
281
     1
  3
ACAD_MLATT
360
15F5
  3
ACAD_XREC_ROUNDTRIP
360
15F4
  0
DICTIONARY
  5
D27
330
217
100
AcDbDictionary
280
     1
281
     1
  3
ACAD_MLATT
360
15F7
  3
ACAD_XREC_ROUNDTRIP
360
15F6
  0
DICTIONARY
  5
D2A
330
218
100
AcDbDictionary
280
     1
281
     1
  3
ACAD_MLATT
360
15F9
  3
ACAD_XREC_ROUNDTRIP
360
15F8
  0
DICTIONARY
  5
D2D
330
21A
100
AcDbDictionary
280
     1
281
     1
  3
ACAD_MLATT
360
15FB
  3
ACAD_XREC_ROUNDTRIP
360
15FA
  0
DICTIONARY
  5
D30
330
21B
100
AcDbDictionary
280
     1
281
     1
  3
ACAD_MLATT
360
15FD
  3
ACAD_XREC_ROUNDTRIP
360
15FC
  0
DICTIONARY
  5
D33
330
21C
100
AcDbDictionary
280
     1
281
     1
  3
ACAD_MLATT
360
15FF
  3
ACAD_XREC_ROUNDTRIP
360
15FE
  0
DICTIONARY
  5
D36
330
21D
100
AcDbDictionary
280
     1
281
     1
  3
ACAD_MLATT
360
1601
  3
ACAD_XREC_ROUNDTRIP
360
1600
  0
DICTIONARY
  5
164F
330
C42
100
AcDbDictionary
280
     1
281
     1
  3
ACAD_MTEXT_2008_RT
360
1650
  0
DICTIONARY
  5
1651
330
C46
100
AcDbDictionary
280
     1
281
     1
  3
ACAD_MTEXT_2008_RT
360
1652
  0
DICTIONARY
  5
1653
330
C4A
100
AcDbDictionary
280
     1
281
     1
  3
ACAD_MTEXT_2008_RT
360
1654
  0
DICTIONARY
  5
1655
330
C55
100
AcDbDictionary
280
     1
281
     1
  3
ACAD_MTEXT_2008_RT
360
1656
  0
DICTIONARY
  5
1657
330
C5C
100
AcDbDictionary
280
     1
281
     1
  3
ACAD_MTEXT_2008_RT
360
1658
  0
DICTIONARY
  5
1659
330
C61
100
AcDbDictionary
280
     1
281
     1
  3
ACAD_MTEXT_2008_RT
360
165A
  0
DICTIONARY
  5
165B
330
C64
100
AcDbDictionary
280
     1
281
     1
  3
ACAD_MTEXT_2008_RT
360
165C
  0
DICTIONARY
  5
165D
330
C6C
100
AcDbDictionary
280
     1
281
     1
  3
ACAD_MTEXT_2008_RT
360
165E
  0
DICTIONARY
  5
165F
330
C70
100
AcDbDictionary
280
     1
281
     1
  3
ACAD_MTEXT_2008_RT
360
1660
  0
DICTIONARY
  5
1661
330
C71
100
AcDbDictionary
280
     1
281
     1
  3
ACAD_MTEXT_2008_RT
360
1662
  0
DICTIONARY
  5
1663
330
C74
100
AcDbDictionary
280
     1
281
     1
  3
ACAD_MTEXT_2008_RT
360
1664
  0
DICTIONARY
  5
1665
330
C7C
100
AcDbDictionary
280
     1
281
     1
  3
ACAD_MTEXT_2008_RT
360
1666
  0
DICTIONARY
  5
1667
330
C8B
100
AcDbDictionary
280
     1
281
     1
  3
ACAD_MTEXT_2008_RT
360
1668
  0
DICTIONARY
  5
1603
102
{ACAD_REACTORS
330
C
102
}
330
C
100
AcDbDictionary
281
     1
  3
DIMARCSYM
350
1604
  3
DIMLTEX1
350
1606
  3
DIMLTEX2
350
1607
  3
DIMLTYPE
350
1605
  0
XRECORD
  5
D19
102
{ACAD_REACTORS
330
C
102
}
330
C
100
AcDbXrecord
280
     1
300
INVNTOR
300
2012
300
PDSP_F_S
  0
DICTIONARY
  5
63
102
{ACAD_REACTORS
330
C
102
}
330
C
100
AcDbDictionary
281
     1
  0
DICTIONARY
  5
D
102
{ACAD_REACTORS
330
C
102
}
330
C
100
AcDbDictionary
281
     1
  0
DICTIONARY
  5
62
102
{ACAD_REACTORS
330
C
102
}
330
C
100
AcDbDictionary
281
     1
  3
Layout1
350
6B
  3
Layout2
350
73
  3
Model
350
6F
  0
DICTIONARY
  5
10
102
{ACAD_REACTORS
330
C
102
}
330
C
100
AcDbDictionary
281
     1
  3
ByBlock
350
19
  3
ByLayer
350
11
  3
Global
350
21
  0
DICTIONARY
  5
66
102
{ACAD_REACTORS
330
C
102
}
330
C
100
AcDbDictionary
281
     1
  3
Standard
350
67
  0
DICTIONARY
  5
5F
102
{ACAD_REACTORS
330
C
102
}
330
C
100
AcDbDictionary
281
     1
  3
Standard
350
60
  0
DICTIONARY
  5
61
102
{ACAD_REACTORS
330
C
102
}
330
C
100
AcDbDictionary
281
     1
  0
ACDBDICTIONARYWDFLT
  5
E
102
{ACAD_REACTORS
330
C
102
}
330
C
100
AcDbDictionary
281
     1
  3
Normal
350
F
100
AcDbDictionaryWithDefault
340
F
  0
DICTIONARY
  5
42
102
{ACAD_REACTORS
330
C
102
}
330
C
100
AcDbDictionary
281
     1
  3
A0
350
43
  3
A1
350
44
  3
A2
350
45
  3
A3
350
46
  3
A4
350
47
  3
A5
350
48
  3
A6
350
49
  3
A7
350
4A
  3
A8
350
4B
  3
A9
350
4C
  3
B0
350
4D
  3
B1
350
4E
  3
B2
350
4F
  3
B3
350
50
  3
B4
350
51
  3
B5
350
52
  3
B6
350
53
  0
DICTIONARY
  5
64
102
{ACAD_REACTORS
330
C
102
}
330
C
100
AcDbDictionary
281
     1
  3
Standard
350
65
  0
DICTIONARY
  5
29
102
{ACAD_REACTORS
330
C
102
}
330
C
100
AcDbDictionary
281
     1
  3
2dWireframe
350
2F
  3
3D Hidden
350
D5B
  3
3dWireframe
350
D5A
  3
Basic
350
2E
  3
Brighten
350
35
  3
ColorChange
350
39
  3
Conceptual
350
32
  3
Dim
350
34
  3
EdgeColorOff
350
41
  3
Facepattern
350
38
  3
Flat
350
2A
  3
FlatWithEdges
350
2B
  3
Gouraud
350
2C
  3
GouraudWithEdges
350
2D
  3
Hidden
350
31
  3
JitterOff
350
3F
  3
Linepattern
350
37
  3
OverhangOff
350
40
  3
Realistic
350
33
  3
Shaded
350
3E
  3
Shaded with edges
350
3D
  3
Shades of Gray
350
3A
  3
Sketchy
350
3B
  3
Thicken
350
36
  3
Wireframe
350
30
  3
X-Ray
350
3C
  0
XRECORD
  5
1602
102
{ACAD_REACTORS
330
C
102
}
330
C
100
AcDbXrecord
280
     1
 90
        1
330
65
330
CA
330
211
330
215
330
216
330
217
330
218
330
21A
330
21B
330
21C
330
21D
  0
DICTIONARY
  5
D55
102
{ACAD_REACTORS
330
C
102
}
330
C
100
AcDbDictionary
281
     1
  3
CANNOSCALE
350
D58
  3
CMLEADERSTYLE
350
D57
  3
CTABLESTYLE
350
D56
  3
LAYEREVAL
350
1337
  3
LAYERNOTIFY
350
1338
  3
LIGHTINGUNITS
350
1336
  3
MSLTSCALE
350
1335
  3
SOLIDHIST
350
1339
  3
XCLIPFRAME
350
15EC
  0
DICTIONARY
  5
DC2
102
{ACAD_REACTORS
330
C
102
}
330
C
100
AcDbDictionary
281
     1
  3
AcmStdDictionary
350
DCC
  0
DICTIONARY
  5
EF4
102
{ACAD_REACTORS
330
C
102
}
330
C
100
AcDbDictionary
281
     1
  0
DICTIONARY
  5
D68
102
{ACAD_REACTORS
330
C
102
}
330
C
100
AcDbDictionary
281
     1
  0
DICTIONARY
  5
EF7
102
{ACAD_REACTORS
330
C
102
}
330
C
100
AcDbDictionary
281
     1
  0
DICTIONARY
  5
E60
102
{ACAD_REACTORS
330
E5F
102
}
330
E5F
100
AcDbDictionary
281
     1
  0
XRECORD
  5
15EF
102
{ACAD_REACTORS
330
15EE
102
}
330
15EE
100
AcDbXrecord
280
     1
 40
2697178.0
  1
\pxsm0.94;WIG Schweisung, Nahte sauber geschliffen und poliert\PSichtstege geschliffen mit 240 Korn und abgeklebt.\P\fTahoma|b0|i0;\H3.0000; \P\fTahoma|b0|i0;\H3.5000;WIG svarovani- svary dle potreby zabrousit.\PPohledove plochy brousit (vel. brusnyc
  1
h zrn 240)\Pa polepit paskou
  0
XRECORD
  5
163A
102
{ACAD_REACTORS
330
1639
102
}
330
1639
100
AcDbXrecord
280
     1
 40
128335.0
  1
Mořit a opláchnout\PBeizen und Pasiviert
  0
XRECORD
  5
163C
102
{ACAD_REACTORS
330
163B
102
}
330
163B
100
AcDbXrecord
280
     1
 40
118263.0
  1
Žlab bez spádu!\PRinne ohne Gefälle!
  0
XRECORD
  5
163E
102
{ACAD_REACTORS
330
163D
102
}
330
163D
100
AcDbXrecord
280
     1
 40
119399.0
  1
Žlab bez spádu!\PChannel without slope!
  0
XRECORD
  5
1640
102
{ACAD_REACTORS
330
163F
102
}
330
163F
100
AcDbXrecord
280
     1
 40
2320136.0
  1
Povrchová úprava/Oberfläche:\PTryskat pouze vnitřek žlabu, včetně pohledových ploch!\PPříruby proti tryskání chránit!\PFlansches per strahlung behütent!
  0
XRECORD
  5
1642
102
{ACAD_REACTORS
330
1641
102
}
330
1641
100
AcDbXrecord
280
     1
 40
4745921.0
  1
Vzdálenost nivelačních šroubu ca. 1500mm.\PVzdálenost kotev ca. 400mm.\PPohledové plochy brousit(vel.brusných zrn 240)\Pa polepit páskou.\P\PDistance of leveling feets ca. 1500 mm.\PDistance of fixing tangs ca. 400 mm.\PVisible surfaces to be grinded
  1
 and covered by protectiv foil.
  0
XRECORD
  5
1644
102
{ACAD_REACTORS
330
1643
102
}
330
1643
100
AcDbXrecord
280
     1
 40
2193518.0
  1
POZOR:\PSpád žlabu je menší než 1% - nebezpečí vzniku prohlubní\Pse stojatou vodou.\PAUTENTION:\PThe gradient of the bottom is minor then 1%.\PThat can be reason of slack water.
  0
XRECORD
  5
1646
102
{ACAD_REACTORS
330
1645
102
}
330
1645
100
AcDbXrecord
280
     1
 40
2672228.0
  1
POZOR:\PSpád žlabu je menší než 1% - nebezpečí vzniku prohlubní\Pse stojatou vodou.\PACHTUNG:\PDas Bodengefälle ist kleiner als 1%. Das Gefahr der\PSenkungsentstehung mit dem stehenden Wasser.
  0
XRECORD
  5
1648
102
{ACAD_REACTORS
330
1647
102
}
330
1647
100
AcDbXrecord
280
     1
 40
275286.0
  1
Kartáčováno + folie\PGeburstet mit abziehbarer Schutzfolie
  0
XRECORD
  5
164A
102
{ACAD_REACTORS
330
1649
102
}
330
1649
100
AcDbXrecord
280
     1
 40
105970.0
  1
Mořit a opláchnout\PPickled and wash
  0
XRECORD
  5
164C
102
{ACAD_REACTORS
330
164B
102
}
330
164B
100
AcDbXrecord
280
     1
 40
238065.0
  1
ACO vpust 142 sestava vod. jednodílná příruba DN70 ZU V2A
  0
XRECORD
  5
164E
102
{ACAD_REACTORS
330
164D
102
}
330
164D
100
AcDbXrecord
280
     1
 40
23258.0
  1
Není k dispozici
  0
XRECORD
  5
15F1
102
{ACAD_REACTORS
330
D1E
102
}
330
D1E
100
AcDbXrecord
280
     1
 70
     4
 70
     0
 70
     0
 40
1.0
  2
ČÍSLO_REVIZE
  1
Embedded Object
 10
287.6423193699604
 20
66.0
 30
0.0
 40
3.499999940395355
 41
0.0
 46
0.0
 71
     1
 72
     5
  1
000
  7
Styl textu9
 73
     1
 44
1.0
  0
XRECORD
  5
15F0
102
{ACAD_REACTORS
330
D1E
102
}
330
D1E
100
AcDbXrecord
280
     1
102
ACAD_MATT_HEIGHT
140
3.499999940395355
  0
XRECORD
  5
15F3
102
{ACAD_REACTORS
330
D21
102
}
330
D21
100
AcDbXrecord
280
     1
 70
     4
 70
     0
 70
     0
 40
1.0
  2
Sheet_Size
  1
Embedded Object
 10
289.7753402652471
 20
48.33701147296152
 30
0.0
 40
2.000000029802321
 41
0.0
 46
0.0
 71
     1
 72
     5
  1
A2
  7
Styl textu40
 73
     1
 44
1.0
  0
XRECORD
  5
15F2
102
{ACAD_REACTORS
330
D21
102
}
330
D21
100
AcDbXrecord
280
     1
102
ACAD_MATT_HEIGHT
140
2.000000029802321
  0
XRECORD
  5
15F5
102
{ACAD_REACTORS
330
D24
102
}
330
D24
100
AcDbXrecord
280
     1
 70
     4
 70
     0
 70
     0
 40
1.0
  2
FILENAME_AND_PATH
  1
Embedded Object
 10
230.2697279123746
 20
53.13502004542946
 30
0.0
 40
2.000000029802321
 41
0.0
 46
0.0
 71
     1
 72
     5
  1
C:\\Inventor_DATA\\Projekty\\Guly\\Effidrain\\ACO vpust 142 sestava vodorovna jednodílná DN70\\414746.iam
  7
Styl textu40
 73
     1
 44
1.0
  0
XRECORD
  5
15F4
102
{ACAD_REACTORS
330
D24
102
}
330
D24
100
AcDbXrecord
280
     1
102
ACAD_MATT_HEIGHT
140
2.000000029802321
  0
XRECORD
  5
15F7
102
{ACAD_REACTORS
330
D27
102
}
330
D27
100
AcDbXrecord
280
     1
 70
     4
 70
     0
 70
     0
 40
1.0
  2
PART_NUMBER
  1
Embedded Object
 10
218.0
 20
66.0
 30
0.0
 40
3.499999940395355
 41
0.0
 46
0.0
 71
     1
 72
     5
  1
414746
  7
Text poznámky (ISO)
 73
     1
 44
1.0
  0
XRECORD
  5
15F6
102
{ACAD_REACTORS
330
D27
102
}
330
D27
100
AcDbXrecord
280
     1
102
ACAD_MATT_HEIGHT
140
3.499999940395355
  0
XRECORD
  5
15F9
102
{ACAD_REACTORS
330
D2A
102
}
330
D2A
100
AcDbXrecord
280
     1
 70
     4
 70
     0
 70
     0
 40
1.0
  2
PROJECT
  1
Embedded Object
 10
118.0
 20
60.0
 30
0.0
 40
3.499999940395355
 41
0.0
 46
0.0
 71
     1
 72
     5
  1

  7
Text poznámky (ISO)
 73
     1
 44
1.0
  0
XRECORD
  5
15F8
102
{ACAD_REACTORS
330
D2A
102
}
330
D2A
100
AcDbXrecord
280
     1
102
ACAD_MATT_HEIGHT
140
3.499999940395355
  0
XRECORD
  5
15FB
102
{ACAD_REACTORS
330
D2D
102
}
330
D2D
100
AcDbXrecord
280
     1
 70
     4
 70
     0
 70
     0
 40
1.0
  2
SKLADOVÉ_ČÍSLO
  1
Embedded Object
 10
118.0
 20
54.89391305489238
 30
0.0
 40
6.99999988079071
 41
153.2966041564941
 46
0.0
 71
     1
 72
     5
  1
414746
  7
Styl textu94
 73
     1
 44
1.0
  0
XRECORD
  5
15FA
102
{ACAD_REACTORS
330
D2D
102
}
330
D2D
100
AcDbXrecord
280
     1
102
ACAD_MATT_HEIGHT
140
6.99999988079071
  0
XRECORD
  5
15FD
102
{ACAD_REACTORS
330
D30
102
}
330
D30
100
AcDbXrecord
280
     1
 70
     4
 70
     0
 70
     0
 40
1.0
  2
MATERIAL
  1
Embedded Object
 10
117.5939056808251
 20
108.6756657996811
 30
0.0
 40
3.499999940395355
 41
0.0
 46
0.0
 71
     1
 72
     5
  1

  7
Text poznámky (ISO)
 73
     1
 44
1.0
  0
XRECORD
  5
15FC
102
{ACAD_REACTORS
330
D30
102
}
330
D30
100
AcDbXrecord
280
     1
102
ACAD_MATT_HEIGHT
140
3.499999940395355
  0
XRECORD
  5
15FF
102
{ACAD_REACTORS
330
D33
102
}
330
D33
100
AcDbXrecord
280
     1
 70
     4
 70
     0
 70
     0
 40
1.0
  2
AUTHOR
  1
Embedded Object
 10
165.2312259808574
 20
87.78242706242744
 30
0.0
 40
2.000000029802321
 41
15.06250023841858
 46
0.0
 71
     1
 72
     5
  1
pmacoun
  7
Styl textu40
 73
     1
 44
1.0
  0
XRECORD
  5
15FE
102
{ACAD_REACTORS
330
D33
102
}
330
D33
100
AcDbXrecord
280
     1
102
ACAD_MATT_HEIGHT
140
2.000000029802321
  0
XRECORD
  5
1601
102
{ACAD_REACTORS
330
D36
102
}
330
D36
100
AcDbXrecord
280
     1
 70
     4
 70
     0
 70
     0
 40
1.0
  2
VS_First
  1
Embedded Object
 10
189.1855699863978
 20
86.00038821032343
 30
0.0
 40
3.499999940395355
 41
24.15597186978378
 46
0.0
 71
     1
 72
     5
  1

  7
Text poznámky (ISO)
 73
     1
 44
1.0
  0
XRECORD
  5
1600
102
{ACAD_REACTORS
330
D36
102
}
330
D36
100
AcDbXrecord
280
     1
102
ACAD_MATT_HEIGHT
140
3.499999940395355
  0
XRECORD
  5
1650
102
{ACAD_REACTORS
330
164F
102
}
330
164F
100
AcDbXrecord
280
     1
 40
7165.0
  1
KUSOVNÍK
  0
XRECORD
  5
1652
102
{ACAD_REACTORS
330
1651
102
}
330
1651
100
AcDbXrecord
280
     1
 40
6807.0
  1
MATERIÁL
  0
XRECORD
  5
1654
102
{ACAD_REACTORS
330
1653
102
}
330
1653
100
AcDbXrecord
280
     1
 40
34383.0
  1
SKLADOVÉ ČÍSLO
  0
XRECORD
  5
1656
102
{ACAD_REACTORS
330
1655
102
}
330
1655
100
AcDbXrecord
280
     1
 40
58561.0
  1
ACO vpust 142 držák sifonu
  0
XRECORD
  5
1658
102
{ACAD_REACTORS
330
1657
102
}
330
1657
100
AcDbXrecord
280
     1
 40
22034.0
  1
návlek sunap-DN70
  0
XRECORD
  5
165A
102
{ACAD_REACTORS
330
1659
102
}
330
1659
100
AcDbXrecord
280
     1
 40
11376.0
  1
žlutá)
  0
XRECORD
  5
165C
102
{ACAD_REACTORS
330
165B
102
}
330
165B
100
AcDbXrecord
280
     1
 40
67743.0
  1
Šestihranná matice_mosaz M8
  0
XRECORD
  5
165E
102
{ACAD_REACTORS
330
165D
102
}
330
165D
100
AcDbXrecord
280
     1
 40
63777.0
  1
šestihranná, černá
  0
XRECORD
  5
1660
102
{ACAD_REACTORS
330
165F
102
}
330
165F
100
AcDbXrecord
280
     1
 40
15392.0
  1
Polykarbonát, 
  0
XRECORD
  5
1662
102
{ACAD_REACTORS
330
1661
102
}
330
1661
100
AcDbXrecord
280
     1
 40
13310.0
  1
kouřový
  0
XRECORD
  5
1664
102
{ACAD_REACTORS
330
1663
102
}
330
1663
100
AcDbXrecord
280
     1
 40
99868.0
  1
Effidrain kryt plastový pro balení PP 
  0
XRECORD
  5
1666
102
{ACAD_REACTORS
330
1665
102
}
330
1665
100
AcDbXrecord
280
     1
 40
128535.0
  1
Effidrain výplň rostová nástavba 
  0
XRECORD
  5
1668
102
{ACAD_REACTORS
330
1667
102
}
330
1667
100
AcDbXrecord
280
     1
 40
90084.0
  1
ACO vpust 142 svarenec vod. příruba 
  0
XRECORD
  5
1604
102
{ACAD_REACTORS
330
1603
102
}
330
1603
100
AcDbXrecord
280
     1
 70
     1
  0
XRECORD
  5
1606
102
{ACAD_REACTORS
330
1603
102
}
330
1603
100
AcDbXrecord
280
     1
340
5B
  0
XRECORD
  5
1607
102
{ACAD_REACTORS
330
1603
102
}
330
1603
100
AcDbXrecord
280
     1
340
5B
  0
XRECORD
  5
1605
102
{ACAD_REACTORS
330
1603
102
}
330
1603
100
AcDbXrecord
280
     1
340
5B
  0
LAYOUT
  5
6B
102
{ACAD_REACTORS
330
62
102
}
330
62
100
AcDbPlotSettings
  1

  2

  4

  6

 40
0.0
 41
0.0
 42
0.0
 43
0.0
 44
0.0
 45
0.0
 46
0.0
 47
0.0
 48
0.0
 49
0.0
140
0.0
141
0.0
142
1.0
143
1.0
 70
   688
 72
     0
 73
     0
 74
     5
  7

 75
    16
147
1.0
 76
     0
 77
     2
 78
   300
148
0.0
149
0.0
100
AcDbLayout
  1
Layout1
 70
     1
 71
     1
 10
0.0
 20
0.0
 11
990.0
 21
700.0
 12
0.0
 22
0.0
 32
0.0
 14
0.0
 24
0.0
 34
0.0
 15
990.0
 25
700.0
 35
0.0
146
0.0
 13
0.0
 23
0.0
 33
0.0
 16
1.0
 26
0.0
 36
0.0
 17
0.0
 27
1.0
 37
0.0
 76
     0
330
68
  0
LAYOUT
  5
73
102
{ACAD_REACTORS
330
62
102
}
330
62
100
AcDbPlotSettings
  1

  2

  4

  6

 40
0.0
 41
0.0
 42
0.0
 43
0.0
 44
0.0
 45
0.0
 46
0.0
 47
0.0
 48
0.0
 49
0.0
140
0.0
141
0.0
142
1.0
143
1.0
 70
   688
 72
     0
 73
     0
 74
     5
  7

 75
    16
147
1.0
 76
     0
 77
     2
 78
   300
148
0.0
149
0.0
100
AcDbLayout
  1
Layout2
 70
     1
 71
     2
 10
0.0
 20
0.0
 11
12.0
 21
9.0
 12
0.0
 22
0.0
 32
0.0
 14
0.0
 24
0.0
 34
0.0
 15
0.0
 25
0.0
 35
0.0
146
0.0
 13
0.0
 23
0.0
 33
0.0
 16
1.0
 26
0.0
 36
0.0
 17
0.0
 27
1.0
 37
0.0
 76
     0
330
70
  0
LAYOUT
  5
6F
102
{ACAD_REACTORS
330
62
102
}
330
62
100
AcDbPlotSettings
  1

  2

  4

  6

 40
0.0
 41
0.0
 42
0.0
 43
0.0
 44
0.0
 45
0.0
 46
0.0
 47
0.0
 48
0.0
 49
0.0
140
0.0
141
0.0
142
1.0
143
1.0
 70
  1712
 72
     0
 73
     0
 74
     0
  7

 75
     0
147
1.0
 76
     0
 77
     2
 78
   300
148
0.0
149
0.0
100
AcDbLayout
  1
Model
 70
     1
 71
     0
 10
0.0
 20
0.0
 11
12.0
 21
9.0
 12
0.0
 22
0.0
 32
0.0
 14
0.0
 24
0.0
 34
0.0
 15
0.0
 25
0.0
 35
0.0
146
0.0
 13
0.0
 23
0.0
 33
0.0
 16
1.0
 26
0.0
 36
0.0
 17
0.0
 27
1.0
 37
0.0
 76
     0
330
6C
331
57
  0
MATERIAL
  5
19
102
{ACAD_XDICTIONARY
360
1A
102
}
102
{ACAD_REACTORS
330
10
102
}
330
10
100
AcDbMaterial
  1
ByBlock
 72
     0
 43
0.0208333333333333
 43
0.0
 43
0.0
 43
0.0
 43
0.0
 43
0.0208333333333333
 43
0.0
 43
0.0
 43
0.0
 43
0.0
 43
1.0
 43
0.0
 43
0.0
 43
0.0
 43
0.0
 43
1.0
 77
     0
 47
0.0208333333333333
 47
0.0
 47
0.0
 47
0.0
 47
0.0
 47
0.0208333333333333
 47
0.0
 47
0.0
 47
0.0
 47
0.0
 47
1.0
 47
0.0
 47
0.0
 47
0.0
 47
0.0
 47
1.0
171
     0
 49
0.0208333333333333
 49
0.0
 49
0.0
 49
0.0
 49
0.0
 49
0.0208333333333333
 49
0.0
 49
0.0
 49
0.0
 49
0.0
 49
1.0
 49
0.0
 49
0.0
 49
0.0
 49
0.0
 49
1.0
175
     0
142
0.0208333333333333
142
0.0
142
0.0
142
0.0
142
0.0
142
0.0208333333333333
142
0.0
142
0.0
142
0.0
142
0.0
142
1.0
142
0.0
142
0.0
142
0.0
142
0.0
142
1.0
179
     0
144
0.0208333333333333
144
0.0
144
0.0
144
0.0
144
0.0
144
0.0208333333333333
144
0.0
144
0.0
144
0.0
144
0.0
144
1.0
144
0.0
144
0.0
144
0.0
144
0.0
144
1.0
147
0.0208333333333333
147
0.0
147
0.0
147
0.0
147
0.0
147
0.0208333333333333
147
0.0
147
0.0
147
0.0
147
0.0
147
1.0
147
0.0
147
0.0
147
0.0
147
0.0
147
1.0
  0
MATERIAL
  5
11
102
{ACAD_XDICTIONARY
360
12
102
}
102
{ACAD_REACTORS
330
10
102
}
330
10
100
AcDbMaterial
  1
ByLayer
 72
     0
 43
0.0208333333333333
 43
0.0
 43
0.0
 43
0.0
 43
0.0
 43
0.0208333333333333
 43
0.0
 43
0.0
 43
0.0
 43
0.0
 43
1.0
 43
0.0
 43
0.0
 43
0.0
 43
0.0
 43
1.0
 77
     0
 47
0.0208333333333333
 47
0.0
 47
0.0
 47
0.0
 47
0.0
 47
0.0208333333333333
 47
0.0
 47
0.0
 47
0.0
 47
0.0
 47
1.0
 47
0.0
 47
0.0
 47
0.0
 47
0.0
 47
1.0
171
     0
 49
0.0208333333333333
 49
0.0
 49
0.0
 49
0.0
 49
0.0
 49
0.0208333333333333
 49
0.0
 49
0.0
 49
0.0
 49
0.0
 49
1.0
 49
0.0
 49
0.0
 49
0.0
 49
0.0
 49
1.0
175
     0
142
0.0208333333333333
142
0.0
142
0.0
142
0.0
142
0.0
142
0.0208333333333333
142
0.0
142
0.0
142
0.0
142
0.0
142
1.0
142
0.0
142
0.0
142
0.0
142
0.0
142
1.0
179
     0
144
0.0208333333333333
144
0.0
144
0.0
144
0.0
144
0.0
144
0.0208333333333333
144
0.0
144
0.0
144
0.0
144
0.0
144
1.0
144
0.0
144
0.0
144
0.0
144
0.0
144
1.0
147
0.0208333333333333
147
0.0
147
0.0
147
0.0
147
0.0
147
0.0208333333333333
147
0.0
147
0.0
147
0.0
147
0.0
147
1.0
147
0.0
147
0.0
147
0.0
147
0.0
147
1.0
  0
MATERIAL
  5
21
102
{ACAD_XDICTIONARY
360
22
102
}
102
{ACAD_REACTORS
330
10
102
}
330
10
100
AcDbMaterial
  1
Global
 72
     0
 43
0.0208333333333333
 43
0.0
 43
0.0
 43
0.0
 43
0.0
 43
0.0208333333333333
 43
0.0
 43
0.0
 43
0.0
 43
0.0
 43
1.0
 43
0.0
 43
0.0
 43
0.0
 43
0.0
 43
1.0
 77
     0
 47
0.0208333333333333
 47
0.0
 47
0.0
 47
0.0
 47
0.0
 47
0.0208333333333333
 47
0.0
 47
0.0
 47
0.0
 47
0.0
 47
1.0
 47
0.0
 47
0.0
 47
0.0
 47
0.0
 47
1.0
171
     0
 49
0.0208333333333333
 49
0.0
 49
0.0
 49
0.0
 49
0.0
 49
0.0208333333333333
 49
0.0
 49
0.0
 49
0.0
 49
0.0
 49
1.0
 49
0.0
 49
0.0
 49
0.0
 49
0.0
 49
1.0
175
     0
142
0.0208333333333333
142
0.0
142
0.0
142
0.0
142
0.0
142
0.0208333333333333
142
0.0
142
0.0
142
0.0
142
0.0
142
1.0
142
0.0
142
0.0
142
0.0
142
0.0
142
1.0
179
     0
144
0.0208333333333333
144
0.0
144
0.0
144
0.0
144
0.0
144
0.0208333333333333
144
0.0
144
0.0
144
0.0
144
0.0
144
1.0
144
0.0
144
0.0
144
0.0
144
0.0
144
1.0
147
0.0208333333333333
147
0.0
147
0.0
147
0.0
147
0.0
147
0.0208333333333333
147
0.0
147
0.0
147
0.0
147
0.0
147
1.0
147
0.0
147
0.0
147
0.0
147
0.0
147
1.0
  0
MLEADERSTYLE
  5
67
102
{ACAD_XDICTIONARY
360
D1A
102
}
102
{ACAD_REACTORS
330
66
102
}
330
66
100
AcDbMLeaderStyle
170
     2
171
     1
172
     0
 90
        2
 40
0.0
 41
0.0
173
     1
 91
-1056964608
340
5B
 92
       -2
290
     1
 42
0.09
291
     1
 43
0.36
  3
Standard
 44
0.18
300

342
55
174
     1
178
     6
175
     1
176
     0
 93
-1056964608
 45
0.18
292
     0
297
     0
 46
0.18
 94
-1056964608
 47
1.0
 49
1.0
140
1.0
293
     1
141
0.0
294
     1
177
     0
142
1.0
295
     0
296
     0
143
0.125
1001
ACAD_MLEADERVER
1070
     2
  0
MLINESTYLE
  5
60
102
{ACAD_REACTORS
330
5F
102
}
330
5F
100
AcDbMlineStyle
  2
STANDARD
 70
     0
  3

 62
   256
 51
90.0
 52
90.0
 71
     2
 49
0.5
 62
   256
  6
BYLAYER
 49
-0.5
 62
   256
  6
BYLAYER
  0
ACDBPLACEHOLDER
  5
F
102
{ACAD_REACTORS
330
E
102
}
330
E
  0
SCALE
  5
43
102
{ACAD_REACTORS
330
42
102
}
330
42
100
AcDbScale
 70
     0
300
1:1
140
1.0
141
1.0
290
     1
  0
SCALE
  5
44
102
{ACAD_REACTORS
330
42
102
}
330
42
100
AcDbScale
 70
     0
300
1/128" = 1'-0"
140
0.0078125
141
12.0
290
     0
  0
SCALE
  5
45
102
{ACAD_REACTORS
330
42
102
}
330
42
100
AcDbScale
 70
     0
300
1/64" = 1'-0"
140
0.015625
141
12.0
290
     0
  0
SCALE
  5
46
102
{ACAD_REACTORS
330
42
102
}
330
42
100
AcDbScale
 70
     0
300
1/32" = 1'-0"
140
0.03125
141
12.0
290
     0
  0
SCALE
  5
47
102
{ACAD_REACTORS
330
42
102
}
330
42
100
AcDbScale
 70
     0
300
1/16" = 1'-0"
140
0.0625
141
12.0
290
     0
  0
SCALE
  5
48
102
{ACAD_REACTORS
330
42
102
}
330
42
100
AcDbScale
 70
     0
300
3/32" = 1'-0"
140
0.09375
141
12.0
290
     0
  0
SCALE
  5
49
102
{ACAD_REACTORS
330
42
102
}
330
42
100
AcDbScale
 70
     0
300
1/8" = 1'-0"
140
0.125
141
12.0
290
     0
  0
SCALE
  5
4A
102
{ACAD_REACTORS
330
42
102
}
330
42
100
AcDbScale
 70
     0
300
3/16" = 1'-0"
140
0.1875
141
12.0
290
     0
  0
SCALE
  5
4B
102
{ACAD_REACTORS
330
42
102
}
330
42
100
AcDbScale
 70
     0
300
1/4" = 1'-0"
140
0.25
141
12.0
290
     0
  0
SCALE
  5
4C
102
{ACAD_REACTORS
330
42
102
}
330
42
100
AcDbScale
 70
     0
300
3/8" = 1'-0"
140
0.375
141
12.0
290
     0
  0
SCALE
  5
4D
102
{ACAD_REACTORS
330
42
102
}
330
42
100
AcDbScale
 70
     0
300
1/2" = 1'-0"
140
0.5
141
12.0
290
     0
  0
SCALE
  5
4E
102
{ACAD_REACTORS
330
42
102
}
330
42
100
AcDbScale
 70
     0
300
3/4" = 1'-0"
140
0.75
141
12.0
290
     0
  0
SCALE
  5
4F
102
{ACAD_REACTORS
330
42
102
}
330
42
100
AcDbScale
 70
     0
300
1" = 1'-0"
140
1.0
141
12.0
290
     0
  0
SCALE
  5
50
102
{ACAD_REACTORS
330
42
102
}
330
42
100
AcDbScale
 70
     0
300
1-1/2" = 1'-0"
140
1.5
141
12.0
290
     0
  0
SCALE
  5
51
102
{ACAD_REACTORS
330
42
102
}
330
42
100
AcDbScale
 70
     0
300
3" = 1'-0"
140
3.0
141
12.0
290
     0
  0
SCALE
  5
52
102
{ACAD_REACTORS
330
42
102
}
330
42
100
AcDbScale
 70
     0
300
6" = 1'-0"
140
6.0
141
12.0
290
     0
  0
SCALE
  5
53
102
{ACAD_REACTORS
330
42
102
}
330
42
100
AcDbScale
 70
     0
300
1'-0" = 1'-0"
140
12.0
141
12.0
290
     0
  0
TABLESTYLE
  5
65
102
{ACAD_XDICTIONARY
360
133B
102
}
102
{ACAD_REACTORS
330
64
102
}
330
64
100
AcDbTableStyle
  3
Standard
 70
     0
 71
     0
 40
0.06
 41
0.06
280
     0
281
     0
  7
Standard
140
0.18
170
     2
 62
     0
 63
     7
283
     0
274
    -2
284
     1
 64
     0
275
    -2
285
     1
 65
     0
276
    -2
286
     1
 66
     0
277
    -2
287
     1
 67
     0
278
    -2
288
     1
 68
     0
279
    -2
289
     1
 69
     0
  7
Standard
140
0.25
170
     5
 62
     0
 63
     7
283
     0
274
    -2
284
     1
 64
     0
275
    -2
285
     1
 65
     0
276
    -2
286
     1
 66
     0
277
    -2
287
     1
 67
     0
278
    -2
288
     1
 68
     0
279
    -2
289
     1
 69
     0
  7
Standard
140
0.18
170
     5
 62
     0
 63
     7
283
     0
274
    -2
284
     1
 64
     0
275
    -2
285
     1
 65
     0
276
    -2
286
     1
 66
     0
277
    -2
287
     1
 67
     0
278
    -2
288
     1
 68
     0
279
    -2
289
     1
 69
     0
  0
VISUALSTYLE
  5
2F
102
{ACAD_XDICTIONARY
360
1612
102
}
102
{ACAD_REACTORS
330
29
102
}
330
29
100
AcDbVisualStyle
  2

 70
     4
 71
     0
 72
     2
 73
     0
 90
        0
 40
-0.6
 41
-30.0
 62
     5
 63
     7
421
 16777215
 74
     1
 91
        4
 64
     7
 65
   257
 75
     1
175
     1
 42
1.0
 92
        0
 66
   257
 43
1.0
 76
     1
 77
     6
 78
     2
 67
     7
 79
     5
170
     0
171
     0
290
     0
174
     0
 93
        1
 44
0.0
173
     0
291
     0
 45
0.0
1001
ACAD
1000
AcDbSavedByObjectVersion
1070
     0
  0
VISUALSTYLE
  5
D5B
102
{ACAD_XDICTIONARY
360
166B
102
}
102
{ACAD_REACTORS
330
29
102
}
330
29
100
AcDbVisualStyle
  2

 70
     6
 71
     1
 72
     2
 73
     2
 90
        0
 40
-0.6
 41
-30.0
 62
     5
 63
     7
421
 16777215
 74
     2
 91
        2
 64
     7
 65
   257
 75
     2
175
     1
 42
179.0
 92
        0
 66
   257
 43
1.0
 76
     1
 77
     6
 78
     2
 67
     7
 79
     3
170
     0
171
     0
290
     0
174
     0
 93
        1
 44
0.0
173
     0
291
     0
 45
0.0
1001
ACAD
1000
AcDbSavedByObjectVersion
1070
     0
  0
VISUALSTYLE
  5
D5A
102
{ACAD_XDICTIONARY
360
1669
102
}
102
{ACAD_REACTORS
330
29
102
}
330
29
100
AcDbVisualStyle
  2

 70
     5
 71
     0
 72
     2
 73
     0
 90
        0
 40
-0.6
 41
-30.0
 62
     5
 63
     7
421
 16777215
 74
     1
 91
        4
 64
     7
 65
   257
 75
     1
175
     1
 42
1.0
 92
        0
 66
   257
 43
1.0
 76
     1
 77
     6
 78
     2
 67
     7
 79
     5
170
     0
171
     0
290
     0
174
     0
 93
        1
 44
0.0
173
     0
291
     0
 45
0.0
1001
ACAD
1000
AcDbSavedByObjectVersion
1070
     0
  0
VISUALSTYLE
  5
2E
102
{ACAD_XDICTIONARY
360
1610
102
}
102
{ACAD_REACTORS
330
29
102
}
330
29
100
AcDbVisualStyle
  2

 70
     7
 71
     1
 72
     0
 73
     1
 90
        0
 40
-0.6
 41
-30.0
 62
     5
 63
     7
421
 16777215
 74
     0
 91
        4
 64
     7
 65
   257
 75
     1
175
     1
 42
1.0
 92
        8
 66
     7
 43
1.0
 76
     1
 77
     6
 78
     2
 67
     7
 79
     5
170
     0
171
     0
290
     0
174
     0
 93
        1
 44
0.0
173
     0
291
     1
 45
0.0
1001
ACAD
1000
AcDbSavedByObjectVersion
1070
     0
  0
VISUALSTYLE
  5
35
102
{ACAD_XDICTIONARY
360
161E
102
}
102
{ACAD_REACTORS
330
29
102
}
330
29
100
AcDbVisualStyle
  2

 70
    12
 71
     2
 72
     2
 73
     0
 90
        0
 40
-0.6
 41
-30.0
 62
     5
 63
     7
421
 16777215
 74
     1
 91
        4
 64
     7
 65
   257
 75
     1
175
     1
 42
1.0
 92
        8
 66
     7
 43
1.0
 76
     1
 77
     6
 78
     2
 67
     7
 79
     5
170
     0
171
     0
290
     0
174
     0
 93
        1
 44
50.0
173
     0
291
     1
 45
0.0
1001
ACAD
1000
AcDbSavedByObjectVersion
1070
     0
  0
VISUALSTYLE
  5
39
102
{ACAD_XDICTIONARY
360
1626
102
}
102
{ACAD_REACTORS
330
29
102
}
330
29
100
AcDbVisualStyle
  2

 70
    16
 71
     2
 72
     2
 73
     3
 90
        0
 40
-0.6
 41
-30.0
 62
     5
 63
     8
421
  8421504
 74
     1
 91
        4
 64
     7
 65
   257
 75
     1
175
     1
 42
1.0
 92
        8
 66
     8
424
  8421504
 43
1.0
 76
     1
 77
     6
 78
     2
 67
     7
 79
     5
170
     0
171
     0
290
     0
174
     0
 93
        1
 44
0.0
173
     0
291
     1
 45
0.0
1001
ACAD
1000
AcDbSavedByObjectVersion
1070
     0
  0
VISUALSTYLE
  5
32
102
{ACAD_XDICTIONARY
360
1618
102
}
102
{ACAD_REACTORS
330
29
102
}
330
29
100
AcDbVisualStyle
  2

 70
     9
 71
     3
 72
     2
 73
     0
 90
        0
 40
-0.6
 41
-30.0
 62
     5
 63
     7
421
 16777215
 74
     2
 91
        2
 64
     7
 65
   257
 75
     1
175
     1
 42
179.0
 92
        8
 66
     7
 43
1.0
 76
     1
 77
     6
 78
     2
 67
     7
 79
     3
170
     0
171
     0
290
     0
174
     0
 93
        1
 44
0.0
173
     0
291
     0
 45
0.0
1001
ACAD
1000
AcDbSavedByObjectVersion
1070
     0
  0
VISUALSTYLE
  5
34
102
{ACAD_XDICTIONARY
360
161C
102
}
102
{ACAD_REACTORS
330
29
102
}
330
29
100
AcDbVisualStyle
  2

 70
    11
 71
     2
 72
     2
 73
     0
 90
        0
 40
-0.6
 41
-30.0
 62
     5
 63
     7
421
 16777215
 74
     1
 91
        4
 64
     7
 65
   257
 75
     1
175
     1
 42
1.0
 92
        8
 66
     7
 43
1.0
 76
     1
 77
     6
 78
     2
 67
     7
 79
     5
170
     0
171
     0
290
     0
174
     0
 93
        1
 44
-50.0
173
     0
291
     1
 45
0.0
1001
ACAD
1000
AcDbSavedByObjectVersion
1070
     0
  0
VISUALSTYLE
  5
41
102
{ACAD_XDICTIONARY
360
1636
102
}
102
{ACAD_REACTORS
330
29
102
}
330
29
100
AcDbVisualStyle
  2

 70
    22
 71
     2
 72
     2
 73
     0
 90
        0
 40
-0.6
 41
-30.0
 62
     5
 63
     7
421
 16777215
 74
     1
 91
        4
 64
     7
 65
   257
 75
     1
175
     1
 42
1.0
 92
        8
 66
     7
 43
1.0
 76
     1
 77
     6
 78
     2
 67
     7
 79
     5
170
     0
171
     0
290
     0
174
     0
 93
        1
 44
0.0
173
     0
291
     1
 45
0.0
1001
ACAD
1000
AcDbSavedByObjectVersion
1070
     0
  0
VISUALSTYLE
  5
38
102
{ACAD_XDICTIONARY
360
1624
102
}
102
{ACAD_REACTORS
330
29
102
}
330
29
100
AcDbVisualStyle
  2

 70
    15
 71
     2
 72
     2
 73
     0
 90
        0
 40
-0.6
 41
-30.0
 62
     5
 63
     7
421
 16777215
 74
     1
 91
        4
 64
     7
 65
   257
 75
     1
175
     1
 42
1.0
 92
        8
 66
     7
 43
1.0
 76
     1
 77
     6
 78
     2
 67
     7
 79
     5
170
     0
171
     0
290
     0
174
     0
 93
        1
 44
0.0
173
     0
291
     1
 45
0.0
1001
ACAD
1000
AcDbSavedByObjectVersion
1070
     0
  0
VISUALSTYLE
  5
2A
102
{ACAD_XDICTIONARY
360
1608
102
}
102
{ACAD_REACTORS
330
29
102
}
330
29
100
AcDbVisualStyle
  2

 70
     0
 71
     2
 72
     1
 73
     1
 90
        2
 40
-0.6
 41
30.0
 62
     5
 63
     7
421
 16777215
 74
     0
 91
        0
 64
     7
 65
   257
 75
     1
175
     1
 42
1.0
 92
        8
 66
     7
 43
1.0
 76
     1
 77
     6
 78
     2
 67
     7
 79
     5
170
     0
171
     0
290
     0
174
     0
 93
       13
 44
0.0
173
     0
291
     1
 45
0.0
1001
ACAD
1000
AcDbSavedByObjectVersion
1070
     0
  0
VISUALSTYLE
  5
2B
102
{ACAD_XDICTIONARY
360
160A
102
}
102
{ACAD_REACTORS
330
29
102
}
330
29
100
AcDbVisualStyle
  2

 70
     1
 71
     2
 72
     1
 73
     1
 90
        2
 40
-0.6
 41
30.0
 62
     5
 63
     7
421
 16777215
 74
     1
 91
        0
 64
     7
 65
   257
 75
     1
175
     1
 42
1.0
 92
        0
 66
   257
 43
1.0
 76
     1
 77
     6
 78
     2
 67
     7
 79
     5
170
     0
171
     0
290
     0
174
     0
 93
       13
 44
0.0
173
     0
291
     1
 45
0.0
1001
ACAD
1000
AcDbSavedByObjectVersion
1070
     0
  0
VISUALSTYLE
  5
2C
102
{ACAD_XDICTIONARY
360
160C
102
}
102
{ACAD_REACTORS
330
29
102
}
330
29
100
AcDbVisualStyle
  2

 70
     2
 71
     2
 72
     2
 73
     1
 90
        2
 40
-0.6
 41
30.0
 62
     5
 63
     7
421
 16777215
 74
     0
 91
        0
 64
     7
 65
   257
 75
     1
175
     1
 42
1.0
 92
        0
 66
     7
 43
1.0
 76
     1
 77
     6
 78
     2
 67
     7
 79
     5
170
     0
171
     0
290
     0
174
     0
 93
       13
 44
0.0
173
     0
291
     1
 45
0.0
1001
ACAD
1000
AcDbSavedByObjectVersion
1070
     0
  0
VISUALSTYLE
  5
2D
102
{ACAD_XDICTIONARY
360
160E
102
}
102
{ACAD_REACTORS
330
29
102
}
330
29
100
AcDbVisualStyle
  2

 70
     3
 71
     2
 72
     2
 73
     1
 90
        2
 40
-0.6
 41
30.0
 62
     5
 63
     7
421
 16777215
 74
     1
 91
        0
 64
     7
 65
   257
 75
     1
175
     1
 42
1.0
 92
        0
 66
   257
 43
1.0
 76
     1
 77
     6
 78
     2
 67
     7
 79
     5
170
     0
171
     0
290
     0
174
     0
 93
       13
 44
0.0
173
     0
291
     1
 45
0.0
1001
ACAD
1000
AcDbSavedByObjectVersion
1070
     0
  0
VISUALSTYLE
  5
31
102
{ACAD_XDICTIONARY
360
1616
102
}
102
{ACAD_REACTORS
330
29
102
}
330
29
100
AcDbVisualStyle
  2

 70
     6
 71
     1
 72
     2
 73
     2
 90
        0
 40
-0.6
 41
-30.0
 62
     5
 63
     7
421
 16777215
 74
     2
 91
        2
 64
     7
 65
   257
 75
     2
175
     1
 42
40.0
 92
        0
 66
   257
 43
1.0
 76
     1
 77
     6
 78
     2
 67
     7
 79
     3
170
     0
171
     0
290
     0
174
     0
 93
        1
 44
0.0
173
     0
291
     0
 45
0.0
1001
ACAD
1000
AcDbSavedByObjectVersion
1070
     0
  0
VISUALSTYLE
  5
3F
102
{ACAD_XDICTIONARY
360
1632
102
}
102
{ACAD_REACTORS
330
29
102
}
330
29
100
AcDbVisualStyle
  2

 70
    20
 71
     2
 72
     2
 73
     0
 90
        0
 40
-0.6
 41
-30.0
 62
     5
 63
     7
421
 16777215
 74
     1
 91
        4
 64
     7
 65
   257
 75
     1
175
     1
 42
1.0
 92
       10
 66
     7
 43
1.0
 76
     1
 77
     6
 78
     2
 67
     7
 79
     5
170
     0
171
     0
290
     0
174
     0
 93
        1
 44
0.0
173
     0
291
     1
 45
0.0
1001
ACAD
1000
AcDbSavedByObjectVersion
1070
     0
  0
VISUALSTYLE
  5
37
102
{ACAD_XDICTIONARY
360
1622
102
}
102
{ACAD_REACTORS
330
29
102
}
330
29
100
AcDbVisualStyle
  2

 70
    14
 71
     2
 72
     2
 73
     0
 90
        0
 40
-0.6
 41
-30.0
 62
     5
 63
     7
421
 16777215
 74
     1
 91
        4
 64
     7
 65
   257
 75
     7
175
     7
 42
1.0
 92
        8
 66
     7
 43
1.0
 76
     1
 77
     6
 78
     2
 67
     7
 79
     5
170
     0
171
     0
290
     0
174
     0
 93
        1
 44
0.0
173
     0
291
     1
 45
0.0
1001
ACAD
1000
AcDbSavedByObjectVersion
1070
     0
  0
VISUALSTYLE
  5
40
102
{ACAD_XDICTIONARY
360
1634
102
}
102
{ACAD_REACTORS
330
29
102
}
330
29
100
AcDbVisualStyle
  2

 70
    21
 71
     2
 72
     2
 73
     0
 90
        0
 40
-0.6
 41
-30.0
 62
     5
 63
     7
421
 16777215
 74
     1
 91
        4
 64
     7
 65
   257
 75
     1
175
     1
 42
1.0
 92
        9
 66
     7
 43
1.0
 76
     1
 77
     6
 78
     2
 67
     7
 79
     5
170
     0
171
     0
290
     0
174
     0
 93
        1
 44
0.0
173
     0
291
     1
 45
0.0
1001
ACAD
1000
AcDbSavedByObjectVersion
1070
     0
  0
VISUALSTYLE
  5
33
102
{ACAD_XDICTIONARY
360
161A
102
}
102
{ACAD_REACTORS
330
29
102
}
330
29
100
AcDbVisualStyle
  2

 70
     8
 71
     2
 72
     3
 73
     0
 90
        2
 40
-0.6
 41
30.0
 62
     5
 63
     7
421
 16777215
 74
     0
 91
        0
 64
     7
 65
   257
 75
     1
175
     1
 42
1.0
 92
        8
 66
   257
 43
1.0
 76
     1
 77
     6
 78
     2
 67
     7
 79
     3
170
     0
171
     0
290
     0
174
     0
 93
       13
 44
0.0
173
     0
291
     0
 45
0.0
1001
ACAD
1000
AcDbSavedByObjectVersion
1070
     0
  0
VISUALSTYLE
  5
3E
102
{ACAD_XDICTIONARY
360
1630
102
}
102
{ACAD_REACTORS
330
29
102
}
330
29
100
AcDbVisualStyle
  2

 70
    27
 71
     2
 72
     2
 73
     1
 90
        2
 40
-0.6
 41
30.0
 62
     5
 63
     7
421
 16777215
 74
     0
 91
        4
 64
     7
 65
   257
 75
     1
175
     1
 42
1.0
 92
        8
 66
   257
 43
1.0
 76
     1
 77
     6
 78
     2
 67
     8
425
  7895160
 79
     3
170
     0
171
     0
290
     0
174
     0
 93
        5
 44
0.0
173
     0
291
     0
 45
0.0
1001
ACAD
1000
AcDbSavedByObjectVersion
1070
     0
  0
VISUALSTYLE
  5
3D
102
{ACAD_XDICTIONARY
360
162E
102
}
102
{ACAD_REACTORS
330
29
102
}
330
29
100
AcDbVisualStyle
  2

 70
    26
 71
     2
 72
     2
 73
     1
 90
        2
 40
-0.6
 41
30.0
 62
     5
 63
     7
421
 16777215
 74
     1
 91
       10
 64
     7
 65
   257
 75
     2
175
     1
 42
1.0
 92
        8
 66
   257
 43
1.0
 76
     1
 77
     6
 78
     2
 67
     7
 79
     3
170
     0
171
     0
290
     0
174
     0
 93
        5
 44
0.0
173
     0
291
     0
 45
0.0
1001
ACAD
1000
AcDbSavedByObjectVersion
1070
     0
  0
VISUALSTYLE
  5
3A
102
{ACAD_XDICTIONARY
360
1628
102
}
102
{ACAD_REACTORS
330
29
102
}
330
29
100
AcDbVisualStyle
  2

 70
    23
 71
     2
 72
     2
 73
     3
 90
        0
 40
-0.6
 41
-30.0
 62
     5
 63
     7
421
 16777215
 74
     2
 91
        2
 64
     7
 65
     7
 75
     1
175
     1
 42
40.0
 92
        8
 66
     7
 43
1.0
 76
     1
 77
     6
 78
     2
 67
     7
 79
     3
170
     0
171
     0
290
     0
174
     0
 93
        1
 44
0.0
173
     0
291
     0
 45
0.0
1001
ACAD
1000
AcDbSavedByObjectVersion
1070
     0
  0
VISUALSTYLE
  5
3B
102
{ACAD_XDICTIONARY
360
162A
102
}
102
{ACAD_REACTORS
330
29
102
}
330
29
100
AcDbVisualStyle
  2

 70
    24
 71
     1
 72
     2
 73
     2
 90
        0
 40
-0.6
 41
-30.0
 62
     5
 63
     7
421
 16777215
 74
     2
 91
        2
 64
     7
 65
     7
 75
     1
175
     1
 42
40.0
 92
       11
 66
     7
 43
1.0
 76
     1
 77
     6
 78
     2
 67
     7
 79
     6
170
     0
171
     0
290
     0
174
     0
 93
        1
 44
0.0
173
     0
291
     0
 45
0.0
1001
ACAD
1000
AcDbSavedByObjectVersion
1070
     0
  0
VISUALSTYLE
  5
36
102
{ACAD_XDICTIONARY
360
1620
102
}
102
{ACAD_REACTORS
330
29
102
}
330
29
100
AcDbVisualStyle
  2

 70
    13
 71
     2
 72
     2
 73
     0
 90
        0
 40
-0.6
 41
-30.0
 62
     5
 63
     7
421
 16777215
 74
     1
 91
        4
 64
     7
 65
   257
 75
     1
175
     1
 42
1.0
 92
       12
 66
     7
 43
1.0
 76
     1
 77
     6
 78
     2
 67
     7
 79
     5
170
     0
171
     0
290
     0
174
     0
 93
        1
 44
0.0
173
     0
291
     1
 45
0.0
1001
ACAD
1000
AcDbSavedByObjectVersion
1070
     0
  0
VISUALSTYLE
  5
30
102
{ACAD_XDICTIONARY
360
1614
102
}
102
{ACAD_REACTORS
330
29
102
}
330
29
100
AcDbVisualStyle
  2

 70
     5
 71
     0
 72
     2
 73
     0
 90
        0
 40
-0.6
 41
-30.0
 62
     5
 63
     7
421
 16777215
 74
     1
 91
        4
 64
     7
 65
   257
 75
     1
175
     1
 42
1.0
 92
        0
 66
   257
 43
1.0
 76
     1
 77
     6
 78
     2
 67
     7
 79
     3
170
     0
171
     0
290
     0
174
     0
 93
        1
 44
0.0
173
     0
291
     0
 45
0.0
1001
ACAD
1000
AcDbSavedByObjectVersion
1070
     0
  0
VISUALSTYLE
  5
3C
102
{ACAD_XDICTIONARY
360
162C
102
}
102
{ACAD_REACTORS
330
29
102
}
330
29
100
AcDbVisualStyle
  2

 70
    25
 71
     2
 72
     2
 73
     1
 90
        1
 40
0.5
 41
-30.0
 62
     5
 63
     7
421
 16777215
 74
     1
 91
        0
 64
     7
 65
   257
 75
     1
175
     1
 42
1.0
 92
        8
 66
     7
 43
1.0
 76
     1
 77
     6
 78
     2
 67
     7
 79
     3
170
     0
171
     0
290
     0
174
     0
 93
       13
 44
0.0
173
     0
291
     0
 45
0.0
1001
ACAD
1000
AcDbSavedByObjectVersion
1070
     0
  0
DICTIONARYVAR
  5
D58
102
{ACAD_REACTORS
330
D55
102
}
330
D55
100
DictionaryVariables
280
     0
  1
1:1
  0
DICTIONARYVAR
  5
D57
102
{ACAD_REACTORS
330
D55
102
}
330
D55
100
DictionaryVariables
280
     0
  1
STANDARD
  0
DICTIONARYVAR
  5
D56
102
{ACAD_REACTORS
330
D55
102
}
330
D55
100
DictionaryVariables
280
     0
  1
STANDARD
  0
DICTIONARYVAR
  5
1337
102
{ACAD_REACTORS
330
D55
102
}
330
D55
100
DictionaryVariables
280
     0
  1
0
  0
DICTIONARYVAR
  5
1338
102
{ACAD_REACTORS
330
D55
102
}
330
D55
100
DictionaryVariables
280
     0
  1
0
  0
DICTIONARYVAR
  5
1336
102
{ACAD_REACTORS
330
D55
102
}
330
D55
100
DictionaryVariables
280
     0
  1
2
  0
DICTIONARYVAR
  5
1335
102
{ACAD_REACTORS
330
D55
102
}
330
D55
100
DictionaryVariables
280
     0
  1
1
  0
DICTIONARYVAR
  5
1339
102
{ACAD_REACTORS
330
D55
102
}
330
D55
100
DictionaryVariables
280
     0
  1
0
  0
DICTIONARYVAR
  5
15EC
102
{ACAD_REACTORS
330
D55
102
}
330
D55
100
DictionaryVariables
280
     0
  1
2
  0
DICTIONARY
  5
DCC
102
{ACAD_REACTORS
330
DC2
102
}
330
DC2
100
AcDbDictionary
281
     1
  0
DICTIONARY
  5
1A
330
19
100
AcDbDictionary
280
     1
281
     1
  3
ACAD_XREC_ROUNDTRIP
360
1353
  3
BUMPTILE
360
1C
  3
DIFFUSETILE
360
1B
  3
OPACITYTILE
360
1F
  3
REFLECTIONTILE
360
1E
  3
REFRACTIONTILE
360
20
  3
SPECULARTILE
360
1D
  0
DICTIONARY
  5
12
330
11
100
AcDbDictionary
280
     1
281
     1
  3
ACAD_XREC_ROUNDTRIP
360
1352
  3
BUMPTILE
360
14
  3
DIFFUSETILE
360
13
  3
FBXASSET
360
9D
  3
OPACITYTILE
360
17
  3
REFLECTIONTILE
360
16
  3
REFRACTIONTILE
360
18
  3
SPECULARTILE
360
15
  0
DICTIONARY
  5
22
330
21
100
AcDbDictionary
280
     1
281
     1
  3
ACAD_XREC_ROUNDTRIP
360
1354
  3
BUMPTILE
360
24
  3
DIFFUSETILE
360
23
  3
OPACITYTILE
360
27
  3
REFLECTIONTILE
360
26
  3
REFRACTIONTILE
360
28
  3
SPECULARTILE
360
25
  0
DICTIONARY
  5
D1A
330
67
100
AcDbDictionary
280
     1
281
     1
  3
ACAD_XREC_ROUNDTRIP
360
D1B
  0
DICTIONARY
  5
133B
330
65
100
AcDbDictionary
280
     1
281
     1
  3
ACAD_ROUNDTRIP_2008_TABLESTYLE_CELLSTYLEMAP
360
15ED
  3
ACAD_XREC_ROUNDTRIP
360
1638
  0
DICTIONARY
  5
1612
330
2F
100
AcDbDictionary
280
     1
281
     1
  3
ACAD_XREC_ROUNDTRIP
360
1613
  0
DICTIONARY
  5
166B
330
D5B
100
AcDbDictionary
280
     1
281
     1
  3
ACAD_XREC_ROUNDTRIP
360
166C
  0
DICTIONARY
  5
1669
330
D5A
100
AcDbDictionary
280
     1
281
     1
  3
ACAD_XREC_ROUNDTRIP
360
166A
  0
DICTIONARY
  5
1610
330
2E
100
AcDbDictionary
280
     1
281
     1
  3
ACAD_XREC_ROUNDTRIP
360
1611
  0
DICTIONARY
  5
161E
330
35
100
AcDbDictionary
280
     1
281
     1
  3
ACAD_XREC_ROUNDTRIP
360
161F
  0
DICTIONARY
  5
1626
330
39
100
AcDbDictionary
280
     1
281
     1
  3
ACAD_XREC_ROUNDTRIP
360
1627
  0
DICTIONARY
  5
1618
330
32
100
AcDbDictionary
280
     1
281
     1
  3
ACAD_XREC_ROUNDTRIP
360
1619
  0
DICTIONARY
  5
161C
330
34
100
AcDbDictionary
280
     1
281
     1
  3
ACAD_XREC_ROUNDTRIP
360
161D
  0
DICTIONARY
  5
1636
330
41
100
AcDbDictionary
280
     1
281
     1
  3
ACAD_XREC_ROUNDTRIP
360
1637
  0
DICTIONARY
  5
1624
330
38
100
AcDbDictionary
280
     1
281
     1
  3
ACAD_XREC_ROUNDTRIP
360
1625
  0
DICTIONARY
  5
1608
330
2A
100
AcDbDictionary
280
     1
281
     1
  3
ACAD_XREC_ROUNDTRIP
360
1609
  0
DICTIONARY
  5
160A
330
2B
100
AcDbDictionary
280
     1
281
     1
  3
ACAD_XREC_ROUNDTRIP
360
160B
  0
DICTIONARY
  5
160C
330
2C
100
AcDbDictionary
280
     1
281
     1
  3
ACAD_XREC_ROUNDTRIP
360
160D
  0
DICTIONARY
  5
160E
330
2D
100
AcDbDictionary
280
     1
281
     1
  3
ACAD_XREC_ROUNDTRIP
360
160F
  0
DICTIONARY
  5
1616
330
31
100
AcDbDictionary
280
     1
281
     1
  3
ACAD_XREC_ROUNDTRIP
360
1617
  0
DICTIONARY
  5
1632
330
3F
100
AcDbDictionary
280
     1
281
     1
  3
ACAD_XREC_ROUNDTRIP
360
1633
  0
DICTIONARY
  5
1622
330
37
100
AcDbDictionary
280
     1
281
     1
  3
ACAD_XREC_ROUNDTRIP
360
1623
  0
DICTIONARY
  5
1634
330
40
100
AcDbDictionary
280
     1
281
     1
  3
ACAD_XREC_ROUNDTRIP
360
1635
  0
DICTIONARY
  5
161A
330
33
100
AcDbDictionary
280
     1
281
     1
  3
ACAD_XREC_ROUNDTRIP
360
161B
  0
DICTIONARY
  5
1630
330
3E
100
AcDbDictionary
280
     1
281
     1
  3
ACAD_XREC_ROUNDTRIP
360
1631
  0
DICTIONARY
  5
162E
330
3D
100
AcDbDictionary
280
     1
281
     1
  3
ACAD_XREC_ROUNDTRIP
360
162F
  0
DICTIONARY
  5
1628
330
3A
100
AcDbDictionary
280
     1
281
     1
  3
ACAD_XREC_ROUNDTRIP
360
1629
  0
DICTIONARY
  5
162A
330
3B
100
AcDbDictionary
280
     1
281
     1
  3
ACAD_XREC_ROUNDTRIP
360
162B
  0
DICTIONARY
  5
1620
330
36
100
AcDbDictionary
280
     1
281
     1
  3
ACAD_XREC_ROUNDTRIP
360
1621
  0
DICTIONARY
  5
1614
330
30
100
AcDbDictionary
280
     1
281
     1
  3
ACAD_XREC_ROUNDTRIP
360
1615
  0
DICTIONARY
  5
162C
330
3C
100
AcDbDictionary
280
     1
281
     1
  3
ACAD_XREC_ROUNDTRIP
360
162D
  0
XRECORD
  5
1353
102
{ACAD_REACTORS
330
1A
102
}
330
1A
100
AcDbXrecord
280
     1
102
MATERIAL
148
0.0
149
0.0
149
0.0
 93
        0
 94
      127
282
     0
 72
     0
 77
     0
171
     0
175
     0
179
     0
273
     0
  0
XRECORD
  5
1C
102
{ACAD_REACTORS
330
1A
102
}
330
1A
100
AcDbXrecord
280
     1
270
     1
271
     1
  0
XRECORD
  5
1B
102
{ACAD_REACTORS
330
1A
102
}
330
1A
100
AcDbXrecord
280
     1
270
     1
271
     1
  0
XRECORD
  5
1F
102
{ACAD_REACTORS
330
1A
102
}
330
1A
100
AcDbXrecord
280
     1
270
     1
271
     1
  0
XRECORD
  5
1E
102
{ACAD_REACTORS
330
1A
102
}
330
1A
100
AcDbXrecord
280
     1
270
     1
271
     1
  0
XRECORD
  5
20
102
{ACAD_REACTORS
330
1A
102
}
330
1A
100
AcDbXrecord
280
     1
270
     1
271
     1
  0
XRECORD
  5
1D
102
{ACAD_REACTORS
330
1A
102
}
330
1A
100
AcDbXrecord
280
     1
270
     1
271
     1
  0
XRECORD
  5
1352
102
{ACAD_REACTORS
330
12
102
}
330
12
100
AcDbXrecord
280
     1
102
MATERIAL
148
0.0
149
0.0
149
0.0
 93
        0
 94
      127
282
     0
 72
     0
 77
     0
171
     0
175
     0
179
     0
273
     0
  0
XRECORD
  5
14
102
{ACAD_REACTORS
330
12
102
}
330
12
100
AcDbXrecord
280
     1
270
     1
271
     1
  0
XRECORD
  5
13
102
{ACAD_REACTORS
330
12
102
}
330
12
100
AcDbXrecord
280
     1
270
     1
271
     1
  0
XRECORD
  5
9D
102
{ACAD_REACTORS
330
12
102
}
330
12
100
AcDbXrecord
280
     1
 70
     1
 90
1959938040
 71
     1
  1
EEE90F0E-1FC1-458F-8AFC-559989EB54BB
311
504B03040A00000800000B51DA403DEE336E79000000790000001B0000006175746F6465736B2D64657369676E2D7061636B6167652E786D6C3C3F786D6C2076657273696F6E3D22312E302220656E636F64696E673D227574662D3822203F3E3C666F726D6174733E3C666F726D61743E687474703A2F2F736368656D612E
311
6175746F6465736B2E636F6D2F64657369676E2D7061636B6167652F323030393C2F666F726D61743E3C2F666F726D6174733E504B03041400060808000B51DA40D486FD9CA0000000F4000000130000005B436F6E74656E745F54797065735D2E786D6C7D8EC10E82300C865F65E91D8A1E8C310C0EEA1BF002731658846E
311
D98AC1B77784ABF1D8FE5FBFBF75BBCE937A534CCEB38643598122B6FEE978D0B0485F9C41B54DDD7D022595594E1A469170414C76A4D9A4D207E29CF43ECE46F218070CC6BECC4078ACAA135ACF422C856C0E68EA1BF5669944DDD7BCDE7B1F8E415D77AECB980613C2E4AC91FC167A2B244592486606FC29C8FD7F045B9A
311
EF7053A7E60B504B03041400060808000B51DA40B793A9D2EC0000007C01000008000000636F72652E786D6C8D90416EC3201045AF82665B61038E13DBC2444D939CA01740401C94182C03558F5F9C3852BBEB6A467FFE9B197DBEFF1EEFE8CBCCC17AD7032D0820E394D7D60D3DA478C10DA0BDE0B3F7F1970D9093A3E961
311
9141F061F6695A25E55D342E66D5796D56518660222075CF4D0F415DCD280B996276845B314975938329E8ABCB704A56A3E711ABF33E7BB16606516D286DEA23C10DDBD578D39EDE71DB9033AE0FE4E3706A766D753EF27281058F767CDD57B391D168108C5086C916B3ED27251D693AC6DE08ED08E1E562FF03A549FF134A
311
D6C58AADEF3EB10082E6471E03C1CB258B5C1E41E5BAE4267E00504B03041400060808000B51DA4055019EA25F0000007C00000007000000636E782E786D6C4DCB3B0E80201045D1AD90E915ED2CF8AC45050C11660C8261F98AB1B07AC9C97D42D718D865D3E909258CFD00CCE24AC6E326A164D74DC0B4128928FF326038
311
472BA13128B1252AC747C6BAB984FC68F0B87FE8960A5C09FE86CFB69FBA01504B03041400060808000B51DA40CC1CEB6767010000020300000C0000006662782F636F72652E786D6C8D52ED8E8230107C95A67F2FD0825F684ACD79EA13DC0BD4523922B4A41FC4C7BFE5C3785E8C3124A599D9D99D1D60DB6B53A34E5957
311
199DE324A618292D4D51E932C7C19FA30CA32D67D618FFA70C232D1A95E31EC69C95D6847682A4D15E690FA836859A40E19CF218C91A2E3976F247352216C14385BBC4AD901751AA388981863ACE9CB760008D43FA13F3F3E9CAC888731642554C6C55C0B4EA5C298BF96C9E24D9624FA32C5D2DA2F9FAF019AD337A8C163B
311
FAB53B64ABF5ECB867A41773E6ABE6E64E5A25BC2A304F6992467419A5CBEF846E68B649D30F9A6C2865A42F7F1085B67853142AED67E964779439CC13303210FFB685883C72A2033F8433D28708AF21E1C7A0211008D98B537DDBE30250A7A437760E4C61C29DEA441D144CA56878181959E83C3480CD9EF6495FF479DD03
311
3EA0D02558131EAEA7E0FBE96C9C3A45D12A1B75FE8AB4B18DA8EFE6468BF7F33EE8A95C9ADAD877D4645A954C6192FEEFE5BF504B03041400060808000B51DA408F7D3E207E0000009D0000000B0000006662782F636E782E786D6C4DCCD10A83201886E15B91FFDCE5B46C811A8EEA3E625948A6C3E9D8E5AF46073BFAE0
311
E1E315ED6773E86DE2CB062FE17A21808C7F84C9FA45424E33BE016A958821A4BF1B203F6E46C2C1A0C412437E9E349979CC2EEDEAAC5F4FAC6937305D31CCEF6CC06543286E684930D115E15DDDEB9E57502851FC4AFB1E61F505504B03041400060808000B51DA40D567C7AD2D01000015020000310000006662782F3732
311
4446334135332D364233462D343930322D393234302D3041353036443745414536352F636F72652E786D6C8D515B6EC23010BC4AE42FAA2AC9DA21E621C7880A38412F1012432D881DF95171FCAE9B20B57FFC78ADD999D9D1AED83D867BF6AD9CD7D63484164032653ADB6B736D480C977C4DB29D14CEDAF0874632D30EAA
311
210926525C9D8DE30C75D6046502A2C6F66A065BEF55205977C74F437CF7A586B668634086BF1563DBDDDAAB2A68816DE449E183C300D93424BD44AED8E154EDEB2AE71FD5295F6E80E51BB6841CF635F0C3EAB83FF25A9493508A18753FCB758F71F4452BF7AA49124B11F4F08CDF39D506D513C980B21C78CEF827852DAC
311
B78CBD03DD028832D1FF89E2D8BF288ADA848ACD71279927928A726A48D1DB78BE3FC3A8C7685DC8D2BC8557DD1B915000D475C5E91A373071710368CA97B3A90FD6E18617B733D229B292335F4A51A62361F9BD20D67450F903504B03041400060808000B51DA40034DB8AA4E01000033030000300000006662782F373244
311
46334135332D364233462D343930322D393234302D3041353036443745414536352F636E782E786D6CD593CD6EC32010845F0571AD6C63378AA20813A9873E410FBD62D82434182C7EAAE6EDBB2434CD25871E7B41D6EC30B3FA84F9EE6BB6E4134234DE8DB46F1925E094D7C61D469AD3BED950B2133C789FEE6C943839C3
311
488B4C053F049F972A69D8CB6C13AAD6B8531503449F83828872B949AC57D26200B826A308F3045A832637237EED21E02A284E67928E405E5FDE899F3E40A5C8BB922278573A042F676DBA3351A2AC8C71A4511D6196ADCCC96B88A756CB24DBBEFDE97AB0D36F1229177E2A7330A4948FB49C54D48D5AE4C83B1C0A1E5340
311
7AD594CE0B502197C51A251342EE2EC6AB47F06C5C5AAFAAD720F880EE7EFDBC5A61D8652678323354870A2013682A06D60F0D5B37C3FAAD675BB6D90EC313EBB78CF1AED8059FBCB7F512C640F00B51DE2570898A9E7765FC085FF5116D02B2F6E1FC079008A0B65EE9DC32FE339FEEF2BE1157C0BF407C03504B03041400
311
060808000B51DA40133D0F109B0500007B100000340000006662782F37324446334135332D364233462D343930322D393234302D3041353036443745414536352F6F626A656374732E786D6CAD575B8F9B3814FE2B887D0E845CBA93154335B9555177DAAA51AB7D182972C030DE3117D96626B3BF7E3F83219026D3ECAA2F
311
808D7D7CCE77BE73B1FFFE9072EB990AC9F2ECD6F69CA16DD12CCC239625B776A9E2C18D6DBD0F7C91E7AAB3CCB63292D25B5B4FDB819F88BC2CCC54446352727532BB9EFF65C99066D4B6424EA4BCB565F84853E29052E511954F4E44147192F8E0784EBDB02F3611A4783C115A104133054D319F418A552BE5F58743DB0D
311
7C57FF0F7CFD34ABC69757B9953DFDF3592615C9C21F0E3B1133F626CBD5683A1B4C2793F160F26EE40DE6EBF972E0FD3E1E2EDE2D16B3BBD50C074B2520C96822686C071F808D60A1EFD6BF02BF64991A8FCC12E32057D067A63D650723CBF3DD7A4D6B9D31F29CFA619E6534ACB0021A957D4674440B9A45F039A3129A75
311
101AF6879EC6B1F37BACC7E6C8EEF475087477740435BA37EFAEA6F9FE6F9820AF6190905433B0C6D2185A73757844789FE7DCFC63D24A89A282116E71B61744BCDA0196EA2581DF13A3992C7434680BEC005EA87FF7E98230FA39CFCF6919979C6B1ADB4115053BC40A55B2D28CFD43C551FB2E32D009BED26CB83106A9D7
311
82DAC1ACA6C8CD099B6A20AD9893042E87997AE7787462E842C7E96669071FD7FBC356C7EEF9C30B911754284D1F50AB715CF3D628199DBCAB3CA737D827AA1C41F90AE43F21D48FAAC06F821D26878939450992C93817297C630DADC1108FA1E5554FFDDDF9F2DD7673DF7B97F084B33554BF00CFBE0D5D5F76E00CFC6710
311
3E176363DA36241C69E39E65004893C4E239A69087E3FDC10E36C872C8CAD84578E0C164A8FB8C4FDF35629028AA933AEF0C589EA4C52B123460AB1809356AF21B058F7EFA219D55079B6597E09DFE12BADE2DB71FB7A5884948EF4D4C2F69CC32A650E28EBCE92AD4C3BC67D1137D7DC94504437FC47BDBC53B354749A0AD
311
31D7C0274D4ED783E3C9BD0342EC4B729D6EFC9F9C00237461EDC8BF6732A49C938CE66573EE9BF50365A3865807BB66725B608E8505A4A9FF9CC4208A742858A1416CAB559B349D0BD67DDB7C0223ED60FEFA2779ED66AFFD31F78639CFC56EFFBAABD3D259A8BFF7B96D3070B514D0BD0A9226FE0DE8BB88C571299104CF
311
E0FA7DB3E8FA4EA705A488466A1D2D13D88FE022C290B6918B6A2D082A699EED18EA26E2EEEC015DF980D430A0127849634979BC639C97E92E661CD5689792E2021CFF5FFF7D99163B92E665A62EC8EEA98EEAD0D7BDC75EF94254F86807DBEA3D9823F74634BA40065D4BCE60D573ED6AB59A0DD7C3D5C05B2FBCC1647AB3
311
1EDCDCAD1783E97436BB99ADE6D3C97CDEF8A9D624F09B52D38D687809A5CD2F0533EEFBB641FC98246007F744C9870F757836EF6F1B07BDB0EF620FEA65BBF12E7A46DF47A39F0B38AE3C2B6893169CA6345344C7D0BDFEE05F09FA8C9E32F5FC262509BD42CAE70FDB13633073C5BE2F3ADEE9CBC95E33BBD0017956887A
311
2CD37D46183FD998D4483A459618FC1A9FB4EFBAD034433D328E41672A73CE22E4C1C84A689E52856C784511122995A05EB7A78FCCDDE38ADDCF7587A8C89ED34693478226994B8405A85586AA3F6FFD86A64EF755B736CAADF38487C914B605CEDCDA68D2150BA974F628D0BA15AA84834BDD4E1E8D3FC9128E5EBBDED48E
311
DB5D1A9B5E496E975CD33F19BBEA146E0C401A29D037A02182772A6502BFD2CDFC0FFF93E18D3A1651F8DC97AAB5E538D11A531D8310AD8D32B70534314FE6E80302F56DB33CA75AD343E4AA5BD69B24A8A50E1411497553D0FA1995EE965F5C7428D6E6B355F032812FAF97341014642E75808345608591591005AA2EFE78
311
F82272DC64536BCD408187459EA679660677E6266C6D1F71AF8D1E9016A8BE90C887D1D01B3D5417017337D9ED89A40E89E41326E053C15A887B8E0723EBDB222A50FDA35DE76A279C7073B3B44C499B40A8214A37AB6A58D07264D442F4E8CBA48E95EE82E2CDBB805B2D850A025D7CF02F504B03041400060800000B51DA
311
40000000000000000000000000350000006662782F37324446334135332D364233462D343930322D393234302D3041353036443745414536352F76657274696365732E62696E504B03041400060808000B51DA40F270F1330600000004000000360000006662782F37324446334135332D364233462D343930322D39323430
311
2D3041353036443745414536352F747269616E676C65732E62696E636660600000504B03041400060800000B51DA40000000000000000000000000370000006662782F37324446334135332D364233462D343930322D393234302D3041353036443745414536352F617474726962757465732E62696E504B03041400060808
311
000B51DA40D5987DFC8F00000041010000360000006662782F37324446334135332D364233462D343930322D393234302D3041353036443745414536352F6469726563746F72792E786D6C858F410EC2201045AF4266AF15DDB800BA74E7C21B903225242D6328188F2FA5C4183471359997F9FF81E89FF3C41E1816475E02
311
DF1F80A11FC8386F25A438EECEC07A250251FC3803E6F58C12560C4AD840E95E91C151A72936F496F35732D860FE635F62C8F2DA16B505C545B74125BAA2FA9E05D7CC053D063734D5C7665FD55B6B8D15D5E9BFEAFD8490FFA45E504B03041400060808000B51DA406D1485E7FE000000A00100003B0000006662782F3732
311
4446334135332D364233462D343930322D393234302D3041353036443745414536352F7265736F75726365732F636F72652E786D6C8D504B6EC23010BD4A34DBCA896D0824C8312A144ED00B58CE402D888DFCA97AFCDA2495DA5D3733A3F7D13C3DB1FF9AEED527FA609C1D80D5142AB4DA8DC65E0748F1423AA8F65278E7
311
E22F1954564D384081418AAB77E9B140DAD9883666D4BA1117508580112A7DCFC700417FE0A46A956256845BFD50FAA6AE58B33AD3592745883E07A8E6276582F4185CF21A836866568A94CCB868CC987F9A8B410F72B566AC6B8F67D2F16D4BD6FDE995F41D3D93F6408F8753B7ED57E737D114B314D14C3F19B547157104
311
C929E3846E08DFBC33BAA3DD8EF317CA76948AA6C8FF98D263FCA729191B577C893BDB024896833C09299AD2575ECF32F32EDDCA6F504B010214000A00000800000B51DA403DEE336E79000000790000001B00000000000000000000000000000000006175746F6465736B2D64657369676E2D7061636B6167652E786D6C50
311
4B010214001400060808000B51DA40D486FD9CA0000000F40000001300000000000000000000000000B20000005B436F6E74656E745F54797065735D2E786D6C504B010214001400060808000B51DA40B793A9D2EC0000007C010000080000000000000000000000000083010000636F72652E786D6C504B01021400140006
311
0808000B51DA4055019EA25F0000007C000000070000000000000000000000000095020000636E782E786D6C504B010214001400060808000B51DA40CC1CEB6767010000020300000C00000000000000000000000000190300006662782F636F72652E786D6C504B010214001400060808000B51DA408F7D3E207E0000009D
311
0000000B00000000000000000000000000AA0400006662782F636E782E786D6C504B010214001400060808000B51DA40D567C7AD2D010000150200003100000000000000000000000000510500006662782F37324446334135332D364233462D343930322D393234302D3041353036443745414536352F636F72652E786D6C
311
504B010214001400060808000B51DA40034DB8AA4E010000330300003000000000000000000000000000CD0600006662782F37324446334135332D364233462D343930322D393234302D3041353036443745414536352F636E782E786D6C504B010214001400060808000B51DA40133D0F109B0500007B1000003400000000
311
000000000000000000690800006662782F37324446334135332D364233462D343930322D393234302D3041353036443745414536352F6F626A656374732E786D6C504B010214001400060800000B51DA400000000000000000000000003500000000000000000000000000560E00006662782F37324446334135332D364233
311
462D343930322D393234302D3041353036443745414536352F76657274696365732E62696E504B010214001400060808000B51DA40F270F13306000000040000003600000000000000000000000000A90E00006662782F37324446334135332D364233462D343930322D393234302D3041353036443745414536352F747269
311
616E676C65732E62696E504B010214001400060800000B51DA400000000000000000000000003700000000000000000000000000030F00006662782F37324446334135332D364233462D343930322D393234302D3041353036443745414536352F617474726962757465732E62696E504B010214001400060808000B51DA40
311
D5987DFC8F000000410100003600000000000000000000000000580F00006662782F37324446334135332D364233462D343930322D393234302D3041353036443745414536352F6469726563746F72792E786D6C504B010214001400060808000B51DA406D1485E7FE000000A00100003B000000000000000000000000003B
311
1000006662782F37324446334135332D364233462D343930322D393234302D3041353036443745414536352F7265736F75726365732F636F72652E786D6C504B0506000000000E000E0080040000921100000000
310
504B03040A00000800000B51DA403DEE336E79000000790000001B0000006175746F6465736B2D64657369676E2D7061636B6167652E786D6C3C3F786D6C2076657273696F6E3D22312E302220656E636F64696E673D227574662D3822203F3E3C666F726D6174733E3C666F726D61743E687474703A2F2F736368656D612E
310
6175746F6465736B2E636F6D2F64657369676E2D7061636B6167652F323030393C2F666F726D61743E3C2F666F726D6174733E504B03041400060808000B51DA40D486FD9CA0000000F4000000130000005B436F6E74656E745F54797065735D2E786D6C7D8EC10E82300C865F65E91D8A1E8C310C0EEA1BF002731658846E
310
D98AC1B77784ABF1D8FE5FBFBF75BBCE937A534CCEB38643598122B6FEE978D0B0485F9C41B54DDD7D022595594E1A469170414C76A4D9A4D207E29CF43ECE46F218070CC6BECC4078ACAA135ACF422C856C0E68EA1BF5669944DDD7BCDE7B1F8E415D77AECB980613C2E4AC91FC167A2B244592486606FC29C8FD7F045B9A
310
EF7053A7E60B504B03041400060808000B51DA402F1721CCEC0000007C01000008000000636F72652E786D6C8D904D6EC3201085AF82665B61034E9DD8C244765A9FA01740405C94182C03558F5F9C1FA9DD7535A337EF9B193D7EFC9EAFE8CBACC17AD7012D0820E394D7D64D1DA478C6074047C157EFE32F1B202767D3C1
310
2683E0D3EAD3F2909477D1B89855E7B5798832041301A96B6E3A08EAD3CCB290296647B8148B54173999823EBB0CA76435BA1FB13AEFB3676B56100DA9DEDF5EE98877FD40F1EE548F78E89B01F763C59AFAD4ECE9BEE1E5060B1EEDFCBCAF5623A3D12018A10C931AB3FA8392961C5AC65E086D09E1E566FF03A545FF134A
310
D6C58A3DDEBD630104CD8FDC0682975B16B9DC82CA75CB4DFC00504B03041400060808000B51DA4055019EA25F0000007C00000007000000636E782E786D6C4DCB3B0E80201045D1AD90E915ED2CF8AC45050C11660C8261F98AB1B07AC9C97D42D718D865D3E909258CFD00CCE24AC6E326A164D74DC0B4128928FF326038
310
472BA13128B1252AC747C6BAB984FC68F0B87FE8960A5C09FE86CFB69FBA01504B03041400060808000B51DA40A31AA40868010000020300000C0000006662782F636F72652E786D6C8D52ED8E8230107C95A67F2FD0163D14536AD43B9FE05EA042E51AA125A5253EFE2D1FC6F362CC85A434333BBBB3037C7B6D6AD42BD7
310
696B72CC628A9132852DB5A9721CFC395A63B415DC59EB7F95616464A3723CC058F0CAD9D0CE50618D57C6036A6CA96650769DF21815355C72DC15DFAA91B10C1E2ABA4BDCCAE2222B15B31868A813BCF30E0CA069C87062713E5D399970C143D0E5CCEA12A6E9B3560E8B8C2E3E3FDED9315AEEF62C5A1ED263B4DF65FB68
310
775C24597AC8566C9571328805F7BAB9B92B9C925E9558249425114DA324FD627443D79B2479A36C43292743F98328B4E53F45411BBF4866BB93ACC382819191F8B32D44E451277BF04304274388F01A137E0C1A028190BD3CD5B73D2E00F5AAF0D62D81296DB853BDAC8382A9148D0F27130B9DC706B0D9D33EC98B3EAF7B
310
C00794A6026BD2C3F514FC309D4F53E7285AE5A2DE5F91B1AE91F5DDDC64F17EDE073D9517B6B6EE3F6A32AF4AE630C9F0F78A1F504B03041400060808000B51DA40C70F43FA7C0000009D0000000B0000006662782F636E782E786D6C4DCCD10A83201805E05791FFDE6A2CD0400D4B7B8F581632D3703AF6F8B3D1C52E0E
310
073E0E87F59FDDA1B7892F1B3C875BD50032FE1116EB370E39AD9802EA058B21A4BF19203FEF86C3C920D816433E2E5ACC3A67978A3AEB9F174ADD8C9DD204DF0955B8A5D38425210326DDA04755A295845AB0FAF754FA3C165F504B03041400060808000B51DA400BA49BF72D01000015020000310000006662782F414530
310
43394445372D333738442D343846462D413737422D3739424543444245434544412F636F72652E786D6C8D515B6EC32010BC0AE2AB55858DEDC476224C94C4CE097A0102244589C1E251E5F885DA91DABF7CC0A2D999D9114B768FF10EBEA575CAE80E161986406A6E84D2D70E067F412D043B4AAC31FE0F0D02CD46D9C104
310
434AAED6846981B8D15E6A1F516D845C40E69CF410F07B7C74D0F12F39B28C051F19EE964D8CDFD855664516DB914789F3360600F3907443BA1FF071D30F0DAA9AB647ABF67442FBA639A06673188E7D3C43BF27F92CA424042516B912318EBA28695F3549624ABC1A9FF1B995CC4B0169898B12E11A95F56781B7B8DD96E5
310
072EB618933CD1FF89C2245E1405A57D552E71679983B420F9DCA0449870BE3FC3C8C764AC0769DE9B93FC1D529C615CAF9B16576B92CFDCF803D1B45E2DA6CE1B1B7FF8ED768EF46A71AE5794E46949B1FC6E30D6B450FA03504B03041400060808000B51DA4065EA77BD5501000033030000300000006662782F41453043
310
394445372D333738442D343846462D413737422D3739424543444245434544412F636E782E786D6CBD93C16EC32010447F0571AD6C6327B2A20813A9877E410FBD62D8A434182CC055F3F75D1292E69243A5AA1764CD0E33AB27CC775F93259F10A2F16EA06DCD2801A7BC36EE30D025EDAB0D253BC183F7E9CE468993130C
310
34CB54F043F0CB5C240D7BB9D884AA35EE58C400D12F41414439DF24D62B6931005CB5A008D3085A832637237EED21E02A288E2792DE81BC3CBF113F7E804A91373945F02677089ECFD27467A2445919E340A37A8749D672495E433CD65A2659B7F5B5EBC14E3F49245FB8562EC1905C3ED07C525136AA91236F7028784C01
310
E915533ACD40859C676B944C08B9391B2F1EC117E352BF2E5E83E003BA575DBFD960D8792678321314870A2013682A3AD67615EBABAE7F6DD9966DB65DF7C4DA2D63BCC976C147EF6DB9843110FC4C9477095CA2A2E54D1E3FC2577C449B80AC7D38FD02240228AD173AB78CBFE4D3F6ABF5FA1FF934E7F78DB802FE05E21B
310
504B03041400060808000B51DA40775CF97A5A070000941B0000340000006662782F41453043394445372D333738442D343846462D413737422D3739424543444245434544412F6F626A656374732E786D6CED595B73A33614FE2B0C7D3636B1BD8D3B849DC4B98CA7CDEECEBABBD387CC3032C8448D108C2492B8BFBE4717
310
301093E06EFAB60F3620A4A373BE73D521F8F89C51E71173417276E6FADEC475308BF384B0F4CC2DE57674EA3A1FC380E7B96C4C731D86327CE6AA61370C529E97851D4AF01695547646AF2FFE72448C19769D982221CE5C11DFE30C79A8947982C583972089BC74FBECF99E99D8269B7254DC7788168863268153186740C5
310
314CF9EDC7893B0E83B17A1F06EADFCE9A0E9A35EB9F35D652B7B9244C48C4E2172C75C84C07B134F567975727F3C5683E9B4D47B30F27FEE8E2FAE272E4FF3A9D2C3F2C978BF3AB05B0B7C9736A654A70815902FADBB9A11F8CD59B5A748BC021AEE39C311C6B20012A2D569720C102B66AC037693FFA4AA2C66B2D61E379
310
A6DE5B161AC3D33695BE59C38068D10541EC7695C4D5B5295FBEF91B0417438C920B2C815B213968D7C2C3C12BDC70128CCD68186CF6BA20C2C990C49C20EA50B2E188835260AA9A1206668125A39C8303294749A035675EB76D0B3CF36DD739C4E5B6A45479861B6AC78AC0FDB0149A33F20FE67BEE9BC8004F206D49983C
310
B55CCA5D81DD70118CF56018A8CBF4C4BE34403A5B8A52A111316F3B822E95EBAF2EDDF0F7EBCDF35A8583C39B173C2F3097CAE8941E355F60C8F6AA50B2DBFA8334A71680300654BB720FCA5740FE13448F3D2BA0374E9E67CF333B5772C4C436E719E8C69938A309FC4D1C5FFFABFBC65D30AE17B7B5D78727B8A982EAF4
310
C7F16CCBA0B1B2FC37E00C834730F89C4FEDAB758C28D8F32D610090321287E63004A17DBB7976C315044E08F4B00AD1D0079181DD47B80DC696CC5E2B957B59AF6380A8DD633A4449009BB64860A3474F37903D3889F76A6A8AD807EFFC5DCCF5FC72FDFBBAE45B14E35BEBD397784B189190350F33D4C2BC25D103DE3DE5
310
3C01415FE2BD6EE29DD9AD04A0AD3057C0A71508EA61BF736B8318D6A5B90A37C11B3B80102A5737E8DF1211634A11C37959ED5B473765A8B5C7DB9AC10D4F0CC4D3938E0973FC485455014EB39FD16214F27ECC49A14074C31B23591D34BD1EE9BEAD3E8145D6F37B66AD18845E86E89F3A681DC0A165D915D216885AE0CD
310
3E9CC739CD79B4D94526D2B9504B001B6D6FF9DE220AB1DE284951010FD27E578594D4481B2564BB2D05C4D5032C7E5F2D9BE630F1A6FEDC69FE779C7106D1167C1771EB779D3D2292A114475B94F46DD7DCADA62D34C91ED21C6F29C8451E89DC4548469304A7C7407314F1C5BB524F692E04615840BE3A087E138D890781
310
C468B3625969B5033411518625A2C720A0C8F480ABD38EAE7163281DDEE6B1B6DED734D624FA3F590447504BE62C22508A420E799371DF9B430C69A36B50EEE00BD656D1D662D0124A8878173D6192DECB635037E47B708FE14852CA282F500C663D80EC0B5F514AEDF0BE41F183CA1F515CD2F7321081E93622949659043F
310
C2E0E431C4B5EBC0F42A0A0DE226F6499C41518664C9876CF2613E79B18FA919BA21B0B1D1965008DB51868A1ED45B0151D7234E0DBEA5DEA3D44D991511CAF2920D32146FDAF5264BBEAB56457620BFAA5484B2B1226C09860161B2CEAA55CC0653D78115DC4807AA5D24505650730A7B23F1F8B53769CABD1B70EBA7EFBB
310
4106855F8FF69A117556C160796C1506E209C9F8DE0DD7FA3ABA80FA3BC1C93ED557B566B30204C454242F39B12AFAB682F2C6D6686E788BA4B8BB3159B7BA7E5B79D0FD08C6B0066A977AE14A019D612691AA4C6ED50DFD8A2004B76898F195CAA9C750394F125D35227A4DFAD4D92A235A9B66C42BEE31CB33F8B13BC262
310
5A26F80E25E221BA95345A13C5BA95D2CB4885F1AB027EBE5977E0819101227D51051E7EEAACB5A34B552E1D2422EFCB6CC3108120D8122D35BAF10A965A8D545AAEAFEA4C017517189855F1ECE7C9A2D98EF879B248AD61FCD0C9E262F707DA35FB228D741E2BBB3EEA1850E72745E53D8E01BAED5053ADB38849E6567EEB
310
4C1104C52ACA0FAEC6AAA06108F671FC9FB3765F1634DB75F83F2E6BFB2F2A8EA3B24A6BB2EA521DA85C57CD1C767575B5985C4FAE46FEF5D21FCDE6A7D7A3D3F3EBE5683E5F2C4E175717F3D9C5458DA676D430A88399CE5DF06C825A35AC9E2C06D095153925099CE61327C510F3259CE907B4CF79860524CF66B33BB14D
310
F901AB1F4D9F53A20DC51527F7081AC454405A078CCA58B6C79D5FA03529E1A07DE642D3C87B803F6B95AE0399E7CC855681243116DE06DA4CAAA1A78943CAD5B9DF12037C104B554A348BEAE77A95C2A615FEEB2943D28095ABD5C380C2AD80EE57AB43A179B33CC547095EB1E32009B79B5242B56664D90FD4C2E86DF6EA
310
37B251C21EECD6CFE0BAAF8BE57B7A4E0B91419F0C5E3502437524114F75BF5B3166593ABFFC32863E9BB3FAEC14B44C4197C3298D3806632E5541055604566169164882A92E7FBBFBC273F8C49339BA2ABA5BE6599633FB700EE7B1043E1139EB7BF8E093DC41D980555B5DDC9D4CFC933BDDCEB61DF6688304F6543D0403
310
5519A144E8181B58E48BD6946D5C8E95123AD357978E0D9FD0063016F4A2BB6B3E6F39E03DEA438AF215EDE1959CAF76B4C77A2A5803875E74F82F504B03041400060800000B51DA40000000000000000000000000350000006662782F41453043394445372D333738442D343846462D413737422D37394245434442454345
310
44412F76657274696365732E62696E504B03041400060808000B51DA40F270F1330600000004000000360000006662782F41453043394445372D333738442D343846462D413737422D3739424543444245434544412F747269616E676C65732E62696E636660600000504B03041400060800000B51DA400000000000000000
310
00000000370000006662782F41453043394445372D333738442D343846462D413737422D3739424543444245434544412F617474726962757465732E62696E504B03041400060808000B51DA40D5987DFC8F00000041010000360000006662782F41453043394445372D333738442D343846462D413737422D373942454344
310
4245434544412F6469726563746F72792E786D6C858F410EC2201045AF4266AF15DDB800BA74E7C21B903225242D6328188F2FA5C4183471359997F9FF81E89FF3C41E1816475E02DF1F80A11FC8386F25A438EECEC07A250251FC3803E6F58C12560C4AD840E95E91C151A72936F496F35732D860FE635F62C8F2DA16B505
310
C545B74125BAA2FA9E05D7CC053D063734D5C7665FD55B6B8D15D5E9BFEAFD8490FFA45E504B03041400060808000B51DA4047FD7CFDFF000000A00100003B0000006662782F41453043394445372D333738442D343846462D413737422D3739424543444245434544412F7265736F75726365732F636F72652E786D6C8D50
310
4B6E833010BD0A9A6D65B04D4A42641C913439412F6099496A25D8C89FAAC7AF09546A77DDCC8CDE47F3F4C4E16B7C149FE88371B603565228D06A37187BEB20C52BD9417190C23B177FC9A0B06AC40E6618A4B87997A615D2CE46B431A3D60DB8822A048C50E8473E3A08FA034755AA14B322DCCB49E9BBBA61C9CA4C679D
310
1421FA1CA0589ECC13A4C7E092D71844B5B052A46486556386FCD35C0D7A902DADCF6FAFEC4C36FD9191CDA9B99063DF1E497FA979DB9CDA2DDBB6A29ACD524433FE64D41E55C40124A78C13DA10DEBC33BAA7BB3DE72F94ED2915D52CFF634AD3F04F533236D67C8DBBD8024896833C0929AAB9AFBC9E65E63D772BBF0150
310
4B010214000A00000800000B51DA403DEE336E79000000790000001B00000000000000000000000000000000006175746F6465736B2D64657369676E2D7061636B6167652E786D6C504B010214001400060808000B51DA40D486FD9CA0000000F40000001300000000000000000000000000B20000005B436F6E74656E745F
310
54797065735D2E786D6C504B010214001400060808000B51DA402F1721CCEC0000007C010000080000000000000000000000000083010000636F72652E786D6C504B010214001400060808000B51DA4055019EA25F0000007C000000070000000000000000000000000095020000636E782E786D6C504B0102140014000608
310
08000B51DA40A31AA40868010000020300000C00000000000000000000000000190300006662782F636F72652E786D6C504B010214001400060808000B51DA40C70F43FA7C0000009D0000000B00000000000000000000000000AB0400006662782F636E782E786D6C504B010214001400060808000B51DA400BA49BF72D01
310
0000150200003100000000000000000000000000500500006662782F41453043394445372D333738442D343846462D413737422D3739424543444245434544412F636F72652E786D6C504B010214001400060808000B51DA4065EA77BD55010000330300003000000000000000000000000000CC0600006662782F41453043
310
394445372D333738442D343846462D413737422D3739424543444245434544412F636E782E786D6C504B010214001400060808000B51DA40775CF97A5A070000941B000034000000000000000000000000006F0800006662782F41453043394445372D333738442D343846462D413737422D3739424543444245434544412F
310
6F626A656374732E786D6C504B010214001400060800000B51DA4000000000000000000000000035000000000000000000000000001B1000006662782F41453043394445372D333738442D343846462D413737422D3739424543444245434544412F76657274696365732E62696E504B010214001400060808000B51DA40F2
310
70F133060000000400000036000000000000000000000000006E1000006662782F41453043394445372D333738442D343846462D413737422D3739424543444245434544412F747269616E676C65732E62696E504B010214001400060800000B51DA400000000000000000000000003700000000000000000000000000C810
310
00006662782F41453043394445372D333738442D343846462D413737422D3739424543444245434544412F617474726962757465732E62696E504B010214001400060808000B51DA40D5987DFC8F0000004101000036000000000000000000000000001D1100006662782F41453043394445372D333738442D343846462D41
310
3737422D3739424543444245434544412F6469726563746F72792E786D6C504B010214001400060808000B51DA4047FD7CFDFF000000A00100003B00000000000000000000000000001200006662782F41453043394445372D333738442D343846462D413737422D3739424543444245434544412F7265736F75726365732F
310
636F72652E786D6C504B0506000000000E000E0080040000581300000000
  0
XRECORD
  5
17
102
{ACAD_REACTORS
330
12
102
}
330
12
100
AcDbXrecord
280
     1
270
     1
271
     1
  0
XRECORD
  5
16
102
{ACAD_REACTORS
330
12
102
}
330
12
100
AcDbXrecord
280
     1
270
     1
271
     1
  0
XRECORD
  5
18
102
{ACAD_REACTORS
330
12
102
}
330
12
100
AcDbXrecord
280
     1
270
     1
271
     1
  0
XRECORD
  5
15
102
{ACAD_REACTORS
330
12
102
}
330
12
100
AcDbXrecord
280
     1
270
     1
271
     1
  0
XRECORD
  5
1354
102
{ACAD_REACTORS
330
22
102
}
330
22
100
AcDbXrecord
280
     1
102
MATERIAL
148
0.0
149
0.0
149
0.0
 93
        0
 94
      127
282
     0
 72
     0
 77
     0
171
     0
175
     0
179
     0
273
     0
  0
XRECORD
  5
24
102
{ACAD_REACTORS
330
22
102
}
330
22
100
AcDbXrecord
280
     1
270
     1
271
     1
  0
XRECORD
  5
23
102
{ACAD_REACTORS
330
22
102
}
330
22
100
AcDbXrecord
280
     1
270
     1
271
     1
  0
XRECORD
  5
27
102
{ACAD_REACTORS
330
22
102
}
330
22
100
AcDbXrecord
280
     1
270
     1
271
     1
  0
XRECORD
  5
26
102
{ACAD_REACTORS
330
22
102
}
330
22
100
AcDbXrecord
280
     1
270
     1
271
     1
  0
XRECORD
  5
28
102
{ACAD_REACTORS
330
22
102
}
330
22
100
AcDbXrecord
280
     1
270
     1
271
     1
  0
XRECORD
  5
25
102
{ACAD_REACTORS
330
22
102
}
330
22
100
AcDbXrecord
280
     1
270
     1
271
     1
  0
XRECORD
  5
D1B
102
{ACAD_REACTORS
330
D1A
102
}
330
D1A
100
AcDbXrecord
280
     1
102
ACAD_ROUNDTRIP_2012_MLEADER_STYLE
298
     1
  0
CELLSTYLEMAP
  5
15ED
102
{ACAD_REACTORS
330
133B
102
}
330
133B
100
AcDbCellStyleMap
 90
        3
300
CELLSTYLE
  1
TABLEFORMAT_BEGIN
 90
        5
170
     1
 91
        0
 92
    32768
 62
   257
 93
        1
300
CONTENTFORMAT
  1
CONTENTFORMAT_BEGIN
 90
        0
 91
        0
 92
      512
 93
        0
300

 40
0.0
140
1.0
 94
        5
 62
     0
340
55
144
0.25
309
CONTENTFORMAT_END
171
     1
301
MARGIN
  1
CELLMARGIN_BEGIN
 40
0.06
 40
0.06
 40
0.06
 40
0.06
 40
0.18
 40
0.18
309
CELLMARGIN_END
 94
        6
 95
        1
302
GRIDFORMAT
  1
GRIDFORMAT_BEGIN
 90
        0
 91
        1
 62
     0
 92
       -2
340
0
 93
        0
 40
0.045
309
GRIDFORMAT_END
 95
        2
302
GRIDFORMAT
  1
GRIDFORMAT_BEGIN
 90
        0
 91
        1
 62
     0
 92
       -2
340
0
 93
        0
 40
0.045
309
GRIDFORMAT_END
 95
        4
302
GRIDFORMAT
  1
GRIDFORMAT_BEGIN
 90
        0
 91
        1
 62
     0
 92
       -2
340
0
 93
        0
 40
0.045
309
GRIDFORMAT_END
 95
        8
302
GRIDFORMAT
  1
GRIDFORMAT_BEGIN
 90
        0
 91
        1
 62
     0
 92
       -2
340
0
 93
        0
 40
0.045
309
GRIDFORMAT_END
 95
       16
302
GRIDFORMAT
  1
GRIDFORMAT_BEGIN
 90
        0
 91
        1
 62
     0
 92
       -2
340
0
 93
        0
 40
0.045
309
GRIDFORMAT_END
 95
       32
302
GRIDFORMAT
  1
GRIDFORMAT_BEGIN
 90
        0
 91
        1
 62
     0
 92
       -2
340
0
 93
        0
 40
0.045
309
GRIDFORMAT_END
309
TABLEFORMAT_END
  1
CELLSTYLE_BEGIN
 90
        1
 91
        1
300
_TITLE
309
CELLSTYLE_END
300
CELLSTYLE
  1
TABLEFORMAT_BEGIN
 90
        5
170
     1
 91
        0
 92
        0
 62
   257
 93
        1
300
CONTENTFORMAT
  1
CONTENTFORMAT_BEGIN
 90
        0
 91
        0
 92
      512
 93
        0
300

 40
0.0
140
1.0
 94
        5
 62
     0
340
55
144
0.18
309
CONTENTFORMAT_END
171
     1
301
MARGIN
  1
CELLMARGIN_BEGIN
 40
0.06
 40
0.06
 40
0.06
 40
0.06
 40
0.18
 40
0.18
309
CELLMARGIN_END
 94
        6
 95
        1
302
GRIDFORMAT
  1
GRIDFORMAT_BEGIN
 90
        0
 91
        1
 62
     0
 92
       -2
340
0
 93
        0
 40
0.045
309
GRIDFORMAT_END
 95
        2
302
GRIDFORMAT
  1
GRIDFORMAT_BEGIN
 90
        0
 91
        1
 62
     0
 92
       -2
340
0
 93
        0
 40
0.045
309
GRIDFORMAT_END
 95
        4
302
GRIDFORMAT
  1
GRIDFORMAT_BEGIN
 90
        0
 91
        1
 62
     0
 92
       -2
340
0
 93
        0
 40
0.045
309
GRIDFORMAT_END
 95
        8
302
GRIDFORMAT
  1
GRIDFORMAT_BEGIN
 90
        0
 91
        1
 62
     0
 92
       -2
340
0
 93
        0
 40
0.045
309
GRIDFORMAT_END
 95
       16
302
GRIDFORMAT
  1
GRIDFORMAT_BEGIN
 90
        0
 91
        1
 62
     0
 92
       -2
340
0
 93
        0
 40
0.045
309
GRIDFORMAT_END
 95
       32
302
GRIDFORMAT
  1
GRIDFORMAT_BEGIN
 90
        0
 91
        1
 62
     0
 92
       -2
340
0
 93
        0
 40
0.045
309
GRIDFORMAT_END
309
TABLEFORMAT_END
  1
CELLSTYLE_BEGIN
 90
        2
 91
        1
300
_HEADER
309
CELLSTYLE_END
300
CELLSTYLE
  1
TABLEFORMAT_BEGIN
 90
        5
170
     1
 91
        0
 92
        0
 62
   257
 93
        1
300
CONTENTFORMAT
  1
CONTENTFORMAT_BEGIN
 90
        0
 91
        0
 92
      512
 93
        0
300

 40
0.0
140
1.0
 94
        2
 62
     0
340
55
144
0.18
309
CONTENTFORMAT_END
171
     1
301
MARGIN
  1
CELLMARGIN_BEGIN
 40
0.06
 40
0.06
 40
0.06
 40
0.06
 40
0.18
 40
0.18
309
CELLMARGIN_END
 94
        6
 95
        1
302
GRIDFORMAT
  1
GRIDFORMAT_BEGIN
 90
        0
 91
        1
 62
     0
 92
       -2
340
0
 93
        0
 40
0.045
309
GRIDFORMAT_END
 95
        2
302
GRIDFORMAT
  1
GRIDFORMAT_BEGIN
 90
        0
 91
        1
 62
     0
 92
       -2
340
0
 93
        0
 40
0.045
309
GRIDFORMAT_END
 95
        4
302
GRIDFORMAT
  1
GRIDFORMAT_BEGIN
 90
        0
 91
        1
 62
     0
 92
       -2
340
0
 93
        0
 40
0.045
309
GRIDFORMAT_END
 95
        8
302
GRIDFORMAT
  1
GRIDFORMAT_BEGIN
 90
        0
 91
        1
 62
     0
 92
       -2
340
0
 93
        0
 40
0.045
309
GRIDFORMAT_END
 95
       16
302
GRIDFORMAT
  1
GRIDFORMAT_BEGIN
 90
        0
 91
        1
 62
     0
 92
       -2
340
0
 93
        0
 40
0.045
309
GRIDFORMAT_END
 95
       32
302
GRIDFORMAT
  1
GRIDFORMAT_BEGIN
 90
        0
 91
        1
 62
     0
 92
       -2
340
0
 93
        0
 40
0.045
309
GRIDFORMAT_END
309
TABLEFORMAT_END
  1
CELLSTYLE_BEGIN
 90
        3
 91
        2
300
_DATA
309
CELLSTYLE_END
  0
XRECORD
  5
1638
102
{ACAD_REACTORS
330
133B
102
}
330
133B
100
AcDbXrecord
280
     1
102
ACAD_ROUNDTRIP_PRE2007_TABLESTYLE
 90
      512
 91
        0
  1

 92
      512
 93
        0
  2

 94
      512
 95
        0
  3

  0
XRECORD
  5
1613
102
{ACAD_REACTORS
330
1612
102
}
330
1612
100
AcDbXrecord
280
     1
102
RTVSPropertyOp0
 70
     1
102
RTVSPropertyOp1
 70
     1
102
RTVSPropertyOp2
 70
     1
102
RTVSPropertyOp3
 70
     1
102
RTVSPropertyOp4
 70
     1
102
RTVSPropertyOp5
 70
     1
102
RTVSPropertyOp6
 70
     1
102
RTVSPropertyOp7
 70
     1
102
RTVSPropertyOp8
 70
     1
102
RTVSPropertyOp9
 70
     1
102
RTVSPropertyOp10
 70
     1
102
RTVSPropertyOp11
 70
     1
102
RTVSPropertyOp12
 70
     1
102
RTVSPropertyOp13
 70
     1
102
RTVSPropertyOp14
 70
     1
102
RTVSPropertyOp15
 70
     1
102
RTVSPropertyOp16
 70
     1
102
RTVSPropertyOp17
 70
     1
102
RTVSPropertyOp18
 70
     1
102
RTVSPropertyOp19
 70
     1
102
RTVSPropertyOp20
 70
     1
102
RTVSPropertyOp21
 70
     1
102
RTVSPropertyOp22
 70
     1
102
RTVSPropertyOp23
 70
     1
102
RTVSPropertyOp24
 70
     1
102
RTVSPropertyOp25
 70
     1
102
RTVSPropertyOp26
 70
     1
102
RTVSPropertyOp27
 70
     1
  0
XRECORD
  5
166C
102
{ACAD_REACTORS
330
166B
102
}
330
166B
100
AcDbXrecord
280
     1
102
RTVSPropertyOp0
 70
     1
102
RTVSPropertyOp1
 70
     1
102
RTVSPropertyOp2
 70
     1
102
RTVSPropertyOp3
 70
     1
102
RTVSPropertyOp4
 70
     1
102
RTVSPropertyOp5
 70
     1
102
RTVSPropertyOp6
 70
     1
102
RTVSPropertyOp7
 70
     1
102
RTVSPropertyOp8
 70
     1
102
RTVSPropertyOp9
 70
     1
102
RTVSPropertyOp10
 70
     1
102
RTVSPropertyOp11
 70
     1
102
RTVSPropertyOp12
 70
     1
102
RTVSPropertyOp13
 70
     1
102
RTVSPropertyOp14
 70
     1
102
RTVSPropertyOp15
 70
     1
102
RTVSPropertyOp16
 70
     1
102
RTVSPropertyOp17
 70
     1
102
RTVSPropertyOp18
 70
     1
102
RTVSPropertyOp19
 70
     1
102
RTVSPropertyOp20
 70
     1
102
RTVSPropertyOp21
 70
     1
102
RTVSPropertyOp22
 70
     1
102
RTVSPropertyOp23
 70
     1
102
RTVSPropertyOp24
 70
     1
102
RTVSPropertyOp25
 70
     1
102
RTVSPropertyOp26
 70
     1
102
RTVSPropertyOp27
 70
     1
  0
XRECORD
  5
166A
102
{ACAD_REACTORS
330
1669
102
}
330
1669
100
AcDbXrecord
280
     1
102
RTVSPropertyOp0
 70
     1
102
RTVSPropertyOp1
 70
     1
102
RTVSPropertyOp2
 70
     1
102
RTVSPropertyOp3
 70
     1
102
RTVSPropertyOp4
 70
     1
102
RTVSPropertyOp5
 70
     1
102
RTVSPropertyOp6
 70
     1
102
RTVSPropertyOp7
 70
     1
102
RTVSPropertyOp8
 70
     1
102
RTVSPropertyOp9
 70
     1
102
RTVSPropertyOp10
 70
     1
102
RTVSPropertyOp11
 70
     1
102
RTVSPropertyOp12
 70
     1
102
RTVSPropertyOp13
 70
     1
102
RTVSPropertyOp14
 70
     1
102
RTVSPropertyOp15
 70
     1
102
RTVSPropertyOp16
 70
     1
102
RTVSPropertyOp17
 70
     1
102
RTVSPropertyOp18
 70
     1
102
RTVSPropertyOp19
 70
     1
102
RTVSPropertyOp20
 70
     1
102
RTVSPropertyOp21
 70
     1
102
RTVSPropertyOp22
 70
     1
102
RTVSPropertyOp23
 70
     1
102
RTVSPropertyOp24
 70
     1
102
RTVSPropertyOp25
 70
     1
102
RTVSPropertyOp26
 70
     1
102
RTVSPropertyOp27
 70
     1
  0
XRECORD
  5
1611
102
{ACAD_REACTORS
330
1610
102
}
330
1610
100
AcDbXrecord
280
     1
102
RTVSPropertyOp0
 70
     1
102
RTVSPropertyOp1
 70
     1
102
RTVSPropertyOp2
 70
     1
102
RTVSPropertyOp3
 70
     1
102
RTVSPropertyOp4
 70
     1
102
RTVSPropertyOp5
 70
     1
102
RTVSPropertyOp6
 70
     1
102
RTVSPropertyOp7
 70
     1
102
RTVSPropertyOp8
 70
     1
102
RTVSPropertyOp9
 70
     1
102
RTVSPropertyOp10
 70
     1
102
RTVSPropertyOp11
 70
     1
102
RTVSPropertyOp12
 70
     1
102
RTVSPropertyOp13
 70
     1
102
RTVSPropertyOp14
 70
     1
102
RTVSPropertyOp15
 70
     1
102
RTVSPropertyOp16
 70
     1
102
RTVSPropertyOp17
 70
     1
102
RTVSPropertyOp18
 70
     1
102
RTVSPropertyOp19
 70
     1
102
RTVSPropertyOp20
 70
     1
102
RTVSPropertyOp21
 70
     1
102
RTVSPropertyOp22
 70
     1
102
RTVSPropertyOp23
 70
     1
102
RTVSPropertyOp24
 70
     1
102
RTVSPropertyOp25
 70
     1
102
RTVSPropertyOp26
 70
     1
102
RTVSPropertyOp27
 70
     1
  0
XRECORD
  5
161F
102
{ACAD_REACTORS
330
161E
102
}
330
161E
100
AcDbXrecord
280
     1
102
RTVSPropertyOp0
 70
     1
102
RTVSPropertyOp1
 70
     1
102
RTVSPropertyOp2
 70
     1
102
RTVSPropertyOp3
 70
     1
102
RTVSPropertyOp4
 70
     1
102
RTVSPropertyOp5
 70
     1
102
RTVSPropertyOp6
 70
     1
102
RTVSPropertyOp7
 70
     1
102
RTVSPropertyOp8
 70
     1
102
RTVSPropertyOp9
 70
     1
102
RTVSPropertyOp10
 70
     1
102
RTVSPropertyOp11
 70
     1
102
RTVSPropertyOp12
 70
     1
102
RTVSPropertyOp13
 70
     1
102
RTVSPropertyOp14
 70
     1
102
RTVSPropertyOp15
 70
     1
102
RTVSPropertyOp16
 70
     1
102
RTVSPropertyOp17
 70
     1
102
RTVSPropertyOp18
 70
     1
102
RTVSPropertyOp19
 70
     1
102
RTVSPropertyOp20
 70
     1
102
RTVSPropertyOp21
 70
     1
102
RTVSPropertyOp22
 70
     1
102
RTVSPropertyOp23
 70
     1
102
RTVSPropertyOp24
 70
     1
102
RTVSPropertyOp25
 70
     1
102
RTVSPropertyOp26
 70
     1
102
RTVSPropertyOp27
 70
     1
  0
XRECORD
  5
1627
102
{ACAD_REACTORS
330
1626
102
}
330
1626
100
AcDbXrecord
280
     1
102
RTVSPropertyOp0
 70
     1
102
RTVSPropertyOp1
 70
     1
102
RTVSPropertyOp2
 70
     1
102
RTVSPropertyOp3
 70
     1
102
RTVSPropertyOp4
 70
     1
102
RTVSPropertyOp5
 70
     1
102
RTVSPropertyOp6
 70
     1
102
RTVSPropertyOp7
 70
     1
102
RTVSPropertyOp8
 70
     1
102
RTVSPropertyOp9
 70
     1
102
RTVSPropertyOp10
 70
     1
102
RTVSPropertyOp11
 70
     1
102
RTVSPropertyOp12
 70
     1
102
RTVSPropertyOp13
 70
     1
102
RTVSPropertyOp14
 70
     1
102
RTVSPropertyOp15
 70
     1
102
RTVSPropertyOp16
 70
     1
102
RTVSPropertyOp17
 70
     1
102
RTVSPropertyOp18
 70
     1
102
RTVSPropertyOp19
 70
     1
102
RTVSPropertyOp20
 70
     1
102
RTVSPropertyOp21
 70
     1
102
RTVSPropertyOp22
 70
     1
102
RTVSPropertyOp23
 70
     1
102
RTVSPropertyOp24
 70
     1
102
RTVSPropertyOp25
 70
     1
102
RTVSPropertyOp26
 70
     1
102
RTVSPropertyOp27
 70
     1
  0
XRECORD
  5
1619
102
{ACAD_REACTORS
330
1618
102
}
330
1618
100
AcDbXrecord
280
     1
102
RTVSPropertyOp0
 70
     1
102
RTVSPropertyOp1
 70
     1
102
RTVSPropertyOp2
 70
     1
102
RTVSPropertyOp3
 70
     1
102
RTVSPropertyOp4
 70
     1
102
RTVSPropertyOp5
 70
     1
102
RTVSPropertyOp6
 70
     1
102
RTVSPropertyOp7
 70
     1
102
RTVSPropertyOp8
 70
     1
102
RTVSPropertyOp9
 70
     1
102
RTVSPropertyOp10
 70
     1
102
RTVSPropertyOp11
 70
     1
102
RTVSPropertyOp12
 70
     1
102
RTVSPropertyOp13
 70
     1
102
RTVSPropertyOp14
 70
     1
102
RTVSPropertyOp15
 70
     1
102
RTVSPropertyOp16
 70
     1
102
RTVSPropertyOp17
 70
     1
102
RTVSPropertyOp18
 70
     1
102
RTVSPropertyOp19
 70
     1
102
RTVSPropertyOp20
 70
     1
102
RTVSPropertyOp21
 70
     1
102
RTVSPropertyOp22
 70
     1
102
RTVSPropertyOp23
 70
     1
102
RTVSPropertyOp24
 70
     1
102
RTVSPropertyOp25
 70
     1
102
RTVSPropertyOp26
 70
     1
102
RTVSPropertyOp27
 70
     1
  0
XRECORD
  5
161D
102
{ACAD_REACTORS
330
161C
102
}
330
161C
100
AcDbXrecord
280
     1
102
RTVSPropertyOp0
 70
     1
102
RTVSPropertyOp1
 70
     1
102
RTVSPropertyOp2
 70
     1
102
RTVSPropertyOp3
 70
     1
102
RTVSPropertyOp4
 70
     1
102
RTVSPropertyOp5
 70
     1
102
RTVSPropertyOp6
 70
     1
102
RTVSPropertyOp7
 70
     1
102
RTVSPropertyOp8
 70
     1
102
RTVSPropertyOp9
 70
     1
102
RTVSPropertyOp10
 70
     1
102
RTVSPropertyOp11
 70
     1
102
RTVSPropertyOp12
 70
     1
102
RTVSPropertyOp13
 70
     1
102
RTVSPropertyOp14
 70
     1
102
RTVSPropertyOp15
 70
     1
102
RTVSPropertyOp16
 70
     1
102
RTVSPropertyOp17
 70
     1
102
RTVSPropertyOp18
 70
     1
102
RTVSPropertyOp19
 70
     1
102
RTVSPropertyOp20
 70
     1
102
RTVSPropertyOp21
 70
     1
102
RTVSPropertyOp22
 70
     1
102
RTVSPropertyOp23
 70
     1
102
RTVSPropertyOp24
 70
     1
102
RTVSPropertyOp25
 70
     1
102
RTVSPropertyOp26
 70
     1
102
RTVSPropertyOp27
 70
     1
  0
XRECORD
  5
1637
102
{ACAD_REACTORS
330
1636
102
}
330
1636
100
AcDbXrecord
280
     1
102
RTVSPropertyOp0
 70
     0
102
RTVSPropertyOp1
 70
     0
102
RTVSPropertyOp2
 70
     0
102
RTVSPropertyOp3
 70
     0
102
RTVSPropertyOp4
 70
     0
102
RTVSPropertyOp5
 70
     0
102
RTVSPropertyOp6
 70
     0
102
RTVSPropertyOp7
 70
     0
102
RTVSPropertyOp8
 70
     0
102
RTVSPropertyOp9
 70
     0
102
RTVSPropertyOp10
 70
     0
102
RTVSPropertyOp11
 70
     0
102
RTVSPropertyOp12
 70
     0
102
RTVSPropertyOp13
 70
     0
102
RTVSPropertyOp14
 70
     2
102
RTVSPropertyOp15
 70
     0
102
RTVSPropertyOp16
 70
     0
102
RTVSPropertyOp17
 70
     0
102
RTVSPropertyOp18
 70
     0
102
RTVSPropertyOp19
 70
     0
102
RTVSPropertyOp20
 70
     0
102
RTVSPropertyOp21
 70
     0
102
RTVSPropertyOp22
 70
     0
102
RTVSPropertyOp23
 70
     0
102
RTVSPropertyOp24
 70
     0
102
RTVSPropertyOp25
 70
     0
102
RTVSPropertyOp26
 70
     0
102
RTVSPropertyOp27
 70
     0
  0
XRECORD
  5
1625
102
{ACAD_REACTORS
330
1624
102
}
330
1624
100
AcDbXrecord
280
     1
102
RTVSPropertyOp0
 70
     1
102
RTVSPropertyOp1
 70
     1
102
RTVSPropertyOp2
 70
     1
102
RTVSPropertyOp3
 70
     1
102
RTVSPropertyOp4
 70
     1
102
RTVSPropertyOp5
 70
     1
102
RTVSPropertyOp6
 70
     1
102
RTVSPropertyOp7
 70
     1
102
RTVSPropertyOp8
 70
     1
102
RTVSPropertyOp9
 70
     1
102
RTVSPropertyOp10
 70
     1
102
RTVSPropertyOp11
 70
     1
102
RTVSPropertyOp12
 70
     1
102
RTVSPropertyOp13
 70
     1
102
RTVSPropertyOp14
 70
     1
102
RTVSPropertyOp15
 70
     1
102
RTVSPropertyOp16
 70
     1
102
RTVSPropertyOp17
 70
     1
102
RTVSPropertyOp18
 70
     1
102
RTVSPropertyOp19
 70
     1
102
RTVSPropertyOp20
 70
     1
102
RTVSPropertyOp21
 70
     1
102
RTVSPropertyOp22
 70
     1
102
RTVSPropertyOp23
 70
     1
102
RTVSPropertyOp24
 70
     1
102
RTVSPropertyOp25
 70
     1
102
RTVSPropertyOp26
 70
     1
102
RTVSPropertyOp27
 70
     1
  0
XRECORD
  5
1609
102
{ACAD_REACTORS
330
1608
102
}
330
1608
100
AcDbXrecord
280
     1
102
RTVSPropertyOp0
 70
     1
102
RTVSPropertyOp1
 70
     1
102
RTVSPropertyOp2
 70
     1
102
RTVSPropertyOp3
 70
     1
102
RTVSPropertyOp4
 70
     1
102
RTVSPropertyOp5
 70
     1
102
RTVSPropertyOp6
 70
     1
102
RTVSPropertyOp7
 70
     1
102
RTVSPropertyOp8
 70
     1
102
RTVSPropertyOp9
 70
     1
102
RTVSPropertyOp10
 70
     1
102
RTVSPropertyOp11
 70
     1
102
RTVSPropertyOp12
 70
     1
102
RTVSPropertyOp13
 70
     1
102
RTVSPropertyOp14
 70
     1
102
RTVSPropertyOp15
 70
     1
102
RTVSPropertyOp16
 70
     1
102
RTVSPropertyOp17
 70
     1
102
RTVSPropertyOp18
 70
     1
102
RTVSPropertyOp19
 70
     1
102
RTVSPropertyOp20
 70
     1
102
RTVSPropertyOp21
 70
     1
102
RTVSPropertyOp22
 70
     1
102
RTVSPropertyOp23
 70
     1
102
RTVSPropertyOp24
 70
     1
102
RTVSPropertyOp25
 70
     1
102
RTVSPropertyOp26
 70
     1
102
RTVSPropertyOp27
 70
     1
  0
XRECORD
  5
160B
102
{ACAD_REACTORS
330
160A
102
}
330
160A
100
AcDbXrecord
280
     1
102
RTVSPropertyOp0
 70
     1
102
RTVSPropertyOp1
 70
     1
102
RTVSPropertyOp2
 70
     1
102
RTVSPropertyOp3
 70
     1
102
RTVSPropertyOp4
 70
     1
102
RTVSPropertyOp5
 70
     1
102
RTVSPropertyOp6
 70
     1
102
RTVSPropertyOp7
 70
     1
102
RTVSPropertyOp8
 70
     1
102
RTVSPropertyOp9
 70
     1
102
RTVSPropertyOp10
 70
     1
102
RTVSPropertyOp11
 70
     1
102
RTVSPropertyOp12
 70
     1
102
RTVSPropertyOp13
 70
     1
102
RTVSPropertyOp14
 70
     1
102
RTVSPropertyOp15
 70
     1
102
RTVSPropertyOp16
 70
     1
102
RTVSPropertyOp17
 70
     1
102
RTVSPropertyOp18
 70
     1
102
RTVSPropertyOp19
 70
     1
102
RTVSPropertyOp20
 70
     1
102
RTVSPropertyOp21
 70
     1
102
RTVSPropertyOp22
 70
     1
102
RTVSPropertyOp23
 70
     1
102
RTVSPropertyOp24
 70
     1
102
RTVSPropertyOp25
 70
     1
102
RTVSPropertyOp26
 70
     1
102
RTVSPropertyOp27
 70
     1
  0
XRECORD
  5
160D
102
{ACAD_REACTORS
330
160C
102
}
330
160C
100
AcDbXrecord
280
     1
102
RTVSPropertyOp0
 70
     1
102
RTVSPropertyOp1
 70
     1
102
RTVSPropertyOp2
 70
     1
102
RTVSPropertyOp3
 70
     1
102
RTVSPropertyOp4
 70
     1
102
RTVSPropertyOp5
 70
     1
102
RTVSPropertyOp6
 70
     1
102
RTVSPropertyOp7
 70
     1
102
RTVSPropertyOp8
 70
     1
102
RTVSPropertyOp9
 70
     1
102
RTVSPropertyOp10
 70
     1
102
RTVSPropertyOp11
 70
     1
102
RTVSPropertyOp12
 70
     1
102
RTVSPropertyOp13
 70
     1
102
RTVSPropertyOp14
 70
     1
102
RTVSPropertyOp15
 70
     1
102
RTVSPropertyOp16
 70
     1
102
RTVSPropertyOp17
 70
     1
102
RTVSPropertyOp18
 70
     1
102
RTVSPropertyOp19
 70
     1
102
RTVSPropertyOp20
 70
     1
102
RTVSPropertyOp21
 70
     1
102
RTVSPropertyOp22
 70
     1
102
RTVSPropertyOp23
 70
     1
102
RTVSPropertyOp24
 70
     1
102
RTVSPropertyOp25
 70
     1
102
RTVSPropertyOp26
 70
     1
102
RTVSPropertyOp27
 70
     1
  0
XRECORD
  5
160F
102
{ACAD_REACTORS
330
160E
102
}
330
160E
100
AcDbXrecord
280
     1
102
RTVSPropertyOp0
 70
     1
102
RTVSPropertyOp1
 70
     1
102
RTVSPropertyOp2
 70
     1
102
RTVSPropertyOp3
 70
     1
102
RTVSPropertyOp4
 70
     1
102
RTVSPropertyOp5
 70
     1
102
RTVSPropertyOp6
 70
     1
102
RTVSPropertyOp7
 70
     1
102
RTVSPropertyOp8
 70
     1
102
RTVSPropertyOp9
 70
     1
102
RTVSPropertyOp10
 70
     1
102
RTVSPropertyOp11
 70
     1
102
RTVSPropertyOp12
 70
     1
102
RTVSPropertyOp13
 70
     1
102
RTVSPropertyOp14
 70
     1
102
RTVSPropertyOp15
 70
     1
102
RTVSPropertyOp16
 70
     1
102
RTVSPropertyOp17
 70
     1
102
RTVSPropertyOp18
 70
     1
102
RTVSPropertyOp19
 70
     1
102
RTVSPropertyOp20
 70
     1
102
RTVSPropertyOp21
 70
     1
102
RTVSPropertyOp22
 70
     1
102
RTVSPropertyOp23
 70
     1
102
RTVSPropertyOp24
 70
     1
102
RTVSPropertyOp25
 70
     1
102
RTVSPropertyOp26
 70
     1
102
RTVSPropertyOp27
 70
     1
  0
XRECORD
  5
1617
102
{ACAD_REACTORS
330
1616
102
}
330
1616
100
AcDbXrecord
280
     1
102
RTVSPropertyOp0
 70
     1
102
RTVSPropertyOp1
 70
     1
102
RTVSPropertyOp2
 70
     1
102
RTVSPropertyOp3
 70
     1
102
RTVSPropertyOp4
 70
     1
102
RTVSPropertyOp5
 70
     1
102
RTVSPropertyOp6
 70
     1
102
RTVSPropertyOp7
 70
     1
102
RTVSPropertyOp8
 70
     1
102
RTVSPropertyOp9
 70
     1
102
RTVSPropertyOp10
 70
     1
102
RTVSPropertyOp11
 70
     1
102
RTVSPropertyOp12
 70
     1
102
RTVSPropertyOp13
 70
     1
102
RTVSPropertyOp14
 70
     1
102
RTVSPropertyOp15
 70
     1
102
RTVSPropertyOp16
 70
     1
102
RTVSPropertyOp17
 70
     1
102
RTVSPropertyOp18
 70
     1
102
RTVSPropertyOp19
 70
     1
102
RTVSPropertyOp20
 70
     1
102
RTVSPropertyOp21
 70
     1
102
RTVSPropertyOp22
 70
     1
102
RTVSPropertyOp23
 70
     1
102
RTVSPropertyOp24
 70
     1
102
RTVSPropertyOp25
 70
     1
102
RTVSPropertyOp26
 70
     1
102
RTVSPropertyOp27
 70
     1
  0
XRECORD
  5
1633
102
{ACAD_REACTORS
330
1632
102
}
330
1632
100
AcDbXrecord
280
     1
102
RTVSPropertyOp0
 70
     0
102
RTVSPropertyOp1
 70
     0
102
RTVSPropertyOp2
 70
     0
102
RTVSPropertyOp3
 70
     0
102
RTVSPropertyOp4
 70
     0
102
RTVSPropertyOp5
 70
     0
102
RTVSPropertyOp6
 70
     0
102
RTVSPropertyOp7
 70
     0
102
RTVSPropertyOp8
 70
     0
102
RTVSPropertyOp9
 70
     0
102
RTVSPropertyOp10
 70
     0
102
RTVSPropertyOp11
 70
     0
102
RTVSPropertyOp12
 70
     0
102
RTVSPropertyOp13
 70
     0
102
RTVSPropertyOp14
 70
     2
102
RTVSPropertyOp15
 70
     0
102
RTVSPropertyOp16
 70
     0
102
RTVSPropertyOp17
 70
     0
102
RTVSPropertyOp18
 70
     0
102
RTVSPropertyOp19
 70
     0
102
RTVSPropertyOp20
 70
     0
102
RTVSPropertyOp21
 70
     0
102
RTVSPropertyOp22
 70
     0
102
RTVSPropertyOp23
 70
     0
102
RTVSPropertyOp24
 70
     0
102
RTVSPropertyOp25
 70
     0
102
RTVSPropertyOp26
 70
     0
102
RTVSPropertyOp27
 70
     0
  0
XRECORD
  5
1623
102
{ACAD_REACTORS
330
1622
102
}
330
1622
100
AcDbXrecord
280
     1
102
RTVSPropertyOp0
 70
     1
102
RTVSPropertyOp1
 70
     1
102
RTVSPropertyOp2
 70
     1
102
RTVSPropertyOp3
 70
     1
102
RTVSPropertyOp4
 70
     1
102
RTVSPropertyOp5
 70
     1
102
RTVSPropertyOp6
 70
     1
102
RTVSPropertyOp7
 70
     1
102
RTVSPropertyOp8
 70
     1
102
RTVSPropertyOp9
 70
     1
102
RTVSPropertyOp10
 70
     1
102
RTVSPropertyOp11
 70
     1
102
RTVSPropertyOp12
 70
     1
102
RTVSPropertyOp13
 70
     1
102
RTVSPropertyOp14
 70
     1
102
RTVSPropertyOp15
 70
     1
102
RTVSPropertyOp16
 70
     1
102
RTVSPropertyOp17
 70
     1
102
RTVSPropertyOp18
 70
     1
102
RTVSPropertyOp19
 70
     1
102
RTVSPropertyOp20
 70
     1
102
RTVSPropertyOp21
 70
     1
102
RTVSPropertyOp22
 70
     1
102
RTVSPropertyOp23
 70
     1
102
RTVSPropertyOp24
 70
     1
102
RTVSPropertyOp25
 70
     1
102
RTVSPropertyOp26
 70
     1
102
RTVSPropertyOp27
 70
     1
  0
XRECORD
  5
1635
102
{ACAD_REACTORS
330
1634
102
}
330
1634
100
AcDbXrecord
280
     1
102
RTVSPropertyOp0
 70
     0
102
RTVSPropertyOp1
 70
     0
102
RTVSPropertyOp2
 70
     0
102
RTVSPropertyOp3
 70
     0
102
RTVSPropertyOp4
 70
     0
102
RTVSPropertyOp5
 70
     0
102
RTVSPropertyOp6
 70
     0
102
RTVSPropertyOp7
 70
     0
102
RTVSPropertyOp8
 70
     0
102
RTVSPropertyOp9
 70
     0
102
RTVSPropertyOp10
 70
     0
102
RTVSPropertyOp11
 70
     0
102
RTVSPropertyOp12
 70
     0
102
RTVSPropertyOp13
 70
     0
102
RTVSPropertyOp14
 70
     2
102
RTVSPropertyOp15
 70
     0
102
RTVSPropertyOp16
 70
     0
102
RTVSPropertyOp17
 70
     0
102
RTVSPropertyOp18
 70
     0
102
RTVSPropertyOp19
 70
     0
102
RTVSPropertyOp20
 70
     0
102
RTVSPropertyOp21
 70
     0
102
RTVSPropertyOp22
 70
     0
102
RTVSPropertyOp23
 70
     0
102
RTVSPropertyOp24
 70
     0
102
RTVSPropertyOp25
 70
     0
102
RTVSPropertyOp26
 70
     0
102
RTVSPropertyOp27
 70
     0
  0
XRECORD
  5
161B
102
{ACAD_REACTORS
330
161A
102
}
330
161A
100
AcDbXrecord
280
     1
102
RTVSPropertyOp0
 70
     1
102
RTVSPropertyOp1
 70
     1
102
RTVSPropertyOp2
 70
     1
102
RTVSPropertyOp3
 70
     1
102
RTVSPropertyOp4
 70
     1
102
RTVSPropertyOp5
 70
     1
102
RTVSPropertyOp6
 70
     1
102
RTVSPropertyOp7
 70
     1
102
RTVSPropertyOp8
 70
     1
102
RTVSPropertyOp9
 70
     1
102
RTVSPropertyOp10
 70
     1
102
RTVSPropertyOp11
 70
     1
102
RTVSPropertyOp12
 70
     1
102
RTVSPropertyOp13
 70
     1
102
RTVSPropertyOp14
 70
     1
102
RTVSPropertyOp15
 70
     1
102
RTVSPropertyOp16
 70
     1
102
RTVSPropertyOp17
 70
     1
102
RTVSPropertyOp18
 70
     1
102
RTVSPropertyOp19
 70
     1
102
RTVSPropertyOp20
 70
     1
102
RTVSPropertyOp21
 70
     1
102
RTVSPropertyOp22
 70
     1
102
RTVSPropertyOp23
 70
     1
102
RTVSPropertyOp24
 70
     1
102
RTVSPropertyOp25
 70
     1
102
RTVSPropertyOp26
 70
     1
102
RTVSPropertyOp27
 70
     1
  0
XRECORD
  5
1631
102
{ACAD_REACTORS
330
1630
102
}
330
1630
100
AcDbXrecord
280
     1
102
RTVSPropertyOp0
 70
     1
102
RTVSPropertyOp1
 70
     1
102
RTVSPropertyOp2
 70
     1
102
RTVSPropertyOp3
 70
     1
102
RTVSPropertyOp4
 70
     1
102
RTVSPropertyOp5
 70
     1
102
RTVSPropertyOp6
 70
     1
102
RTVSPropertyOp7
 70
     1
102
RTVSPropertyOp8
 70
     1
102
RTVSPropertyOp9
 70
     1
102
RTVSPropertyOp10
 70
     1
102
RTVSPropertyOp11
 70
     1
102
RTVSPropertyOp12
 70
     1
102
RTVSPropertyOp13
 70
     1
102
RTVSPropertyOp14
 70
     1
102
RTVSPropertyOp15
 70
     1
102
RTVSPropertyOp16
 70
     1
102
RTVSPropertyOp17
 70
     1
102
RTVSPropertyOp18
 70
     1
102
RTVSPropertyOp19
 70
     1
102
RTVSPropertyOp20
 70
     1
102
RTVSPropertyOp21
 70
     1
102
RTVSPropertyOp22
 70
     1
102
RTVSPropertyOp23
 70
     1
102
RTVSPropertyOp24
 70
     1
102
RTVSPropertyOp25
 70
     1
102
RTVSPropertyOp26
 70
     1
102
RTVSPropertyOp27
 70
     1
  0
XRECORD
  5
162F
102
{ACAD_REACTORS
330
162E
102
}
330
162E
100
AcDbXrecord
280
     1
102
RTVSPropertyOp0
 70
     1
102
RTVSPropertyOp1
 70
     1
102
RTVSPropertyOp2
 70
     1
102
RTVSPropertyOp3
 70
     1
102
RTVSPropertyOp4
 70
     1
102
RTVSPropertyOp5
 70
     1
102
RTVSPropertyOp6
 70
     1
102
RTVSPropertyOp7
 70
     1
102
RTVSPropertyOp8
 70
     1
102
RTVSPropertyOp9
 70
     1
102
RTVSPropertyOp10
 70
     1
102
RTVSPropertyOp11
 70
     1
102
RTVSPropertyOp12
 70
     1
102
RTVSPropertyOp13
 70
     1
102
RTVSPropertyOp14
 70
     1
102
RTVSPropertyOp15
 70
     1
102
RTVSPropertyOp16
 70
     1
102
RTVSPropertyOp17
 70
     1
102
RTVSPropertyOp18
 70
     1
102
RTVSPropertyOp19
 70
     1
102
RTVSPropertyOp20
 70
     1
102
RTVSPropertyOp21
 70
     1
102
RTVSPropertyOp22
 70
     1
102
RTVSPropertyOp23
 70
     1
102
RTVSPropertyOp24
 70
     1
102
RTVSPropertyOp25
 70
     1
102
RTVSPropertyOp26
 70
     1
102
RTVSPropertyOp27
 70
     1
  0
XRECORD
  5
1629
102
{ACAD_REACTORS
330
1628
102
}
330
1628
100
AcDbXrecord
280
     1
102
RTVSPropertyOp0
 70
     1
102
RTVSPropertyOp1
 70
     1
102
RTVSPropertyOp2
 70
     1
102
RTVSPropertyOp3
 70
     1
102
RTVSPropertyOp4
 70
     1
102
RTVSPropertyOp5
 70
     1
102
RTVSPropertyOp6
 70
     1
102
RTVSPropertyOp7
 70
     1
102
RTVSPropertyOp8
 70
     1
102
RTVSPropertyOp9
 70
     1
102
RTVSPropertyOp10
 70
     1
102
RTVSPropertyOp11
 70
     1
102
RTVSPropertyOp12
 70
     1
102
RTVSPropertyOp13
 70
     1
102
RTVSPropertyOp14
 70
     1
102
RTVSPropertyOp15
 70
     1
102
RTVSPropertyOp16
 70
     1
102
RTVSPropertyOp17
 70
     1
102
RTVSPropertyOp18
 70
     1
102
RTVSPropertyOp19
 70
     1
102
RTVSPropertyOp20
 70
     1
102
RTVSPropertyOp21
 70
     1
102
RTVSPropertyOp22
 70
     1
102
RTVSPropertyOp23
 70
     1
102
RTVSPropertyOp24
 70
     1
102
RTVSPropertyOp25
 70
     1
102
RTVSPropertyOp26
 70
     1
102
RTVSPropertyOp27
 70
     1
  0
XRECORD
  5
162B
102
{ACAD_REACTORS
330
162A
102
}
330
162A
100
AcDbXrecord
280
     1
102
RTVSPropertyOp0
 70
     1
102
RTVSPropertyOp1
 70
     1
102
RTVSPropertyOp2
 70
     1
102
RTVSPropertyOp3
 70
     1
102
RTVSPropertyOp4
 70
     1
102
RTVSPropertyOp5
 70
     1
102
RTVSPropertyOp6
 70
     1
102
RTVSPropertyOp7
 70
     1
102
RTVSPropertyOp8
 70
     1
102
RTVSPropertyOp9
 70
     1
102
RTVSPropertyOp10
 70
     1
102
RTVSPropertyOp11
 70
     1
102
RTVSPropertyOp12
 70
     1
102
RTVSPropertyOp13
 70
     1
102
RTVSPropertyOp14
 70
     1
102
RTVSPropertyOp15
 70
     1
102
RTVSPropertyOp16
 70
     1
102
RTVSPropertyOp17
 70
     1
102
RTVSPropertyOp18
 70
     1
102
RTVSPropertyOp19
 70
     1
102
RTVSPropertyOp20
 70
     1
102
RTVSPropertyOp21
 70
     1
102
RTVSPropertyOp22
 70
     1
102
RTVSPropertyOp23
 70
     1
102
RTVSPropertyOp24
 70
     1
102
RTVSPropertyOp25
 70
     1
102
RTVSPropertyOp26
 70
     1
102
RTVSPropertyOp27
 70
     1
  0
XRECORD
  5
1621
102
{ACAD_REACTORS
330
1620
102
}
330
1620
100
AcDbXrecord
280
     1
102
RTVSPropertyOp0
 70
     1
102
RTVSPropertyOp1
 70
     1
102
RTVSPropertyOp2
 70
     1
102
RTVSPropertyOp3
 70
     1
102
RTVSPropertyOp4
 70
     1
102
RTVSPropertyOp5
 70
     1
102
RTVSPropertyOp6
 70
     1
102
RTVSPropertyOp7
 70
     1
102
RTVSPropertyOp8
 70
     1
102
RTVSPropertyOp9
 70
     1
102
RTVSPropertyOp10
 70
     1
102
RTVSPropertyOp11
 70
     1
102
RTVSPropertyOp12
 70
     1
102
RTVSPropertyOp13
 70
     1
102
RTVSPropertyOp14
 70
     1
102
RTVSPropertyOp15
 70
     1
102
RTVSPropertyOp16
 70
     1
102
RTVSPropertyOp17
 70
     1
102
RTVSPropertyOp18
 70
     1
102
RTVSPropertyOp19
 70
     1
102
RTVSPropertyOp20
 70
     1
102
RTVSPropertyOp21
 70
     1
102
RTVSPropertyOp22
 70
     1
102
RTVSPropertyOp23
 70
     1
102
RTVSPropertyOp24
 70
     1
102
RTVSPropertyOp25
 70
     1
102
RTVSPropertyOp26
 70
     1
102
RTVSPropertyOp27
 70
     1
  0
XRECORD
  5
1615
102
{ACAD_REACTORS
330
1614
102
}
330
1614
100
AcDbXrecord
280
     1
102
RTVSPropertyOp0
 70
     1
102
RTVSPropertyOp1
 70
     1
102
RTVSPropertyOp2
 70
     1
102
RTVSPropertyOp3
 70
     1
102
RTVSPropertyOp4
 70
     1
102
RTVSPropertyOp5
 70
     1
102
RTVSPropertyOp6
 70
     1
102
RTVSPropertyOp7
 70
     1
102
RTVSPropertyOp8
 70
     1
102
RTVSPropertyOp9
 70
     1
102
RTVSPropertyOp10
 70
     1
102
RTVSPropertyOp11
 70
     1
102
RTVSPropertyOp12
 70
     1
102
RTVSPropertyOp13
 70
     1
102
RTVSPropertyOp14
 70
     1
102
RTVSPropertyOp15
 70
     1
102
RTVSPropertyOp16
 70
     1
102
RTVSPropertyOp17
 70
     1
102
RTVSPropertyOp18
 70
     1
102
RTVSPropertyOp19
 70
     1
102
RTVSPropertyOp20
 70
     1
102
RTVSPropertyOp21
 70
     1
102
RTVSPropertyOp22
 70
     1
102
RTVSPropertyOp23
 70
     1
102
RTVSPropertyOp24
 70
     1
102
RTVSPropertyOp25
 70
     1
102
RTVSPropertyOp26
 70
     1
102
RTVSPropertyOp27
 70
     1
  0
XRECORD
  5
162D
102
{ACAD_REACTORS
330
162C
102
}
330
162C
100
AcDbXrecord
280
     1
102
RTVSPropertyOp0
 70
     1
102
RTVSPropertyOp1
 70
     1
102
RTVSPropertyOp2
 70
     1
102
RTVSPropertyOp3
 70
     1
102
RTVSPropertyOp4
 70
     1
102
RTVSPropertyOp5
 70
     1
102
RTVSPropertyOp6
 70
     1
102
RTVSPropertyOp7
 70
     1
102
RTVSPropertyOp8
 70
     1
102
RTVSPropertyOp9
 70
     1
102
RTVSPropertyOp10
 70
     1
102
RTVSPropertyOp11
 70
     1
102
RTVSPropertyOp12
 70
     1
102
RTVSPropertyOp13
 70
     1
102
RTVSPropertyOp14
 70
     1
102
RTVSPropertyOp15
 70
     1
102
RTVSPropertyOp16
 70
     1
102
RTVSPropertyOp17
 70
     1
102
RTVSPropertyOp18
 70
     1
102
RTVSPropertyOp19
 70
     1
102
RTVSPropertyOp20
 70
     1
102
RTVSPropertyOp21
 70
     1
102
RTVSPropertyOp22
 70
     1
102
RTVSPropertyOp23
 70
     1
102
RTVSPropertyOp24
 70
     1
102
RTVSPropertyOp25
 70
     1
102
RTVSPropertyOp26
 70
     1
102
RTVSPropertyOp27
 70
     1
  0
ENDSEC
  0
EOF
