  0
SECTION
  2
HEADER
  9
$ACADVER
  1
AC1015
  9
$ACADMAINTVER
 70
    20
  9
$DWGCODEPAGE
  3
ANSI_1252
  9
$INSBASE
 10
0.0
 20
0.0
 30
0.0
  9
$EXTMIN
 10
1023.664968909654
 20
994.4009413562531
 30
0.0
  9
$EXTMAX
 10
3897.367428042318
 20
4280.460475579243
 30
0.0
  9
$LIMMIN
 10
0.0
 20
0.0
  9
$LIMMAX
 10
420.0
 20
297.0
  9
$ORTHOMODE
 70
     0
  9
$REGENMODE
 70
     1
  9
$FILLMODE
 70
     1
  9
$QTEXTMODE
 70
     0
  9
$MIRRTEXT
 70
     1
  9
$LTSCALE
 40
1.0
  9
$ATTMODE
 70
     1
  9
$TEXTSIZE
 40
2.5
  9
$TRACEWID
 40
1.0
  9
$TEXTSTYLE
  7
STANDARD
  9
$CLAYER
  8
0
  9
$CELTYPE
  6
ByLayer
  9
$CECOLOR
 62
   256
  9
$CELTSCALE
 40
1.0
  9
$DISPSILH
 70
     0
  9
$DIMSCALE
 40
1.0
  9
$DIMASZ
 40
2.5
  9
$DIMEXO
 40
1.0
  9
$DIMDLI
 40
10.0
  9
$DIMRND
 40
0.0
  9
$DIMDLE
 40
0.0
  9
$DIMEXE
 40
1.0
  9
$DIMTP
 40
0.1
  9
$DIMTM
 40
0.1
  9
$DIMTXT
 40
3.5
  9
$DIMCEN
 40
0.0
  9
$DIMTSZ
 40
0.0
  9
$DIMTOL
 70
     0
  9
$DIMLIM
 70
     0
  9
$DIMTIH
 70
     0
  9
$DIMTOH
 70
     0
  9
$DIMSE1
 70
     0
  9
$DIMSE2
 70
     0
  9
$DIMTAD
 70
     1
  9
$DIMZIN
 70
     8
  9
$DIMBLK
  1

  9
$DIMASO
 70
     1
  9
$DIMSHO
 70
     1
  9
$DIMPOST
  1

  9
$DIMAPOST
  1
"
  9
$DIMALT
 70
     0
  9
$DIMALTD
 70
     2
  9
$DIMALTF
 40
0.0393701
  9
$DIMLFAC
 40
1.0
  9
$DIMTOFL
 70
     1
  9
$DIMTVP
 40
0.0
  9
$DIMTIX
 70
     0
  9
$DIMSOXD
 70
     0
  9
$DIMSAH
 70
     0
  9
$DIMBLK1
  1

  9
$DIMBLK2
  1

  9
$DIMSTYLE
  2
AM_DIN
  9
$DIMCLRD
 70
   256
  9
$DIMCLRE
 70
   256
  9
$DIMCLRT
 70
     2
  9
$DIMTFAC
 40
0.71
  9
$DIMGAP
 40
1.5
  9
$DIMJUST
 70
     0
  9
$DIMSD1
 70
     0
  9
$DIMSD2
 70
     0
  9
$DIMTOLJ
 70
     0
  9
$DIMTZIN
 70
     8
  9
$DIMALTZ
 70
     0
  9
$DIMALTTZ
 70
     0
  9
$DIMUPT
 70
     0
  9
$DIMDEC
 70
     2
  9
$DIMTDEC
 70
     3
  9
$DIMALTU
 70
     2
  9
$DIMALTTD
 70
     4
  9
$DIMTXSTY
  7
STANDARD
  9
$DIMAUNIT
 70
     0
  9
$DIMADEC
 70
     0
  9
$DIMALTRND
 40
0.0
  9
$DIMAZIN
 70
     2
  9
$DIMDSEP
 70
    46
  9
$DIMATFIT
 70
     3
  9
$DIMFRAC
 70
     0
  9
$DIMLDRBLK
  1

  9
$DIMLUNIT
 70
     2
  9
$DIMLWD
 70
    -1
  9
$DIMLWE
 70
    -1
  9
$DIMTMOVE
 70
     0
  9
$LUNITS
 70
     2
  9
$LUPREC
 70
     2
  9
$SKETCHINC
 40
1.0
  9
$FILLETRAD
 40
2.5
  9
$AUNITS
 70
     0
  9
$AUPREC
 70
     0
  9
$MENU
  1
.
  9
$ELEVATION
 40
0.0
  9
$PELEVATION
 40
0.0
  9
$THICKNESS
 40
0.0
  9
$LIMCHECK
 70
     0
  9
$CHAMFERA
 40
2.5
  9
$CHAMFERB
 40
2.5
  9
$CHAMFERC
 40
20.0
  9
$CHAMFERD
 40
0.0
  9
$SKPOLY
 70
     0
  9
$TDCREATE
 40
2454026.560815602
  9
$TDUCREATE
 40
2454026.477482269
  9
$TDUPDATE
 40
2454026.561034063
  9
$TDUUPDATE
 40
2454026.477700729
  9
$TDINDWG
 40
0.0002188310
  9
$TDUSRTIMER
 40
0.0002188310
  9
$USRTIMER
 70
     1
  9
$ANGBASE
 50
0.0
  9
$ANGDIR
 70
     0
  9
$PDMODE
 70
     0
  9
$PDSIZE
 40
0.0
  9
$PLINEWID
 40
0.0
  9
$SPLFRAME
 70
     0
  9
$SPLINETYPE
 70
     6
  9
$SPLINESEGS
 70
     8
  9
$HANDSEED
  5
1041
  9
$SURFTAB1
 70
     6
  9
$SURFTAB2
 70
     6
  9
$SURFTYPE
 70
     6
  9
$SURFU
 70
     6
  9
$SURFV
 70
     6
  9
$UCSBASE
  2

  9
$UCSNAME
  2

  9
$UCSORG
 10
0.0
 20
0.0
 30
0.0
  9
$UCSXDIR
 10
1.0
 20
0.0
 30
0.0
  9
$UCSYDIR
 10
0.0
 20
1.0
 30
0.0
  9
$UCSORTHOREF
  2

  9
$UCSORTHOVIEW
 70
     0
  9
$UCSORGTOP
 10
0.0
 20
0.0
 30
0.0
  9
$UCSORGBOTTOM
 10
0.0
 20
0.0
 30
0.0
  9
$UCSORGLEFT
 10
0.0
 20
0.0
 30
0.0
  9
$UCSORGRIGHT
 10
0.0
 20
0.0
 30
0.0
  9
$UCSORGFRONT
 10
0.0
 20
0.0
 30
0.0
  9
$UCSORGBACK
 10
0.0
 20
0.0
 30
0.0
  9
$PUCSBASE
  2

  9
$PUCSNAME
  2

  9
$PUCSORG
 10
0.0
 20
0.0
 30
0.0
  9
$PUCSXDIR
 10
1.0
 20
0.0
 30
0.0
  9
$PUCSYDIR
 10
0.0
 20
1.0
 30
0.0
  9
$PUCSORTHOREF
  2

  9
$PUCSORTHOVIEW
 70
     0
  9
$PUCSORGTOP
 10
0.0
 20
0.0
 30
0.0
  9
$PUCSORGBOTTOM
 10
0.0
 20
0.0
 30
0.0
  9
$PUCSORGLEFT
 10
0.0
 20
0.0
 30
0.0
  9
$PUCSORGRIGHT
 10
0.0
 20
0.0
 30
0.0
  9
$PUCSORGFRONT
 10
0.0
 20
0.0
 30
0.0
  9
$PUCSORGBACK
 10
0.0
 20
0.0
 30
0.0
  9
$USERI1
 70
     0
  9
$USERI2
 70
     0
  9
$USERI3
 70
     0
  9
$USERI4
 70
     0
  9
$USERI5
 70
     0
  9
$USERR1
 40
0.0
  9
$USERR2
 40
0.0
  9
$USERR3
 40
0.0
  9
$USERR4
 40
0.0
  9
$USERR5
 40
0.0
  9
$WORLDVIEW
 70
     1
  9
$SHADEDGE
 70
     3
  9
$SHADEDIF
 70
    70
  9
$TILEMODE
 70
     1
  9
$MAXACTVP
 70
    64
  9
$PINSBASE
 10
0.0
 20
0.0
 30
0.0
  9
$PLIMCHECK
 70
     0
  9
$PEXTMIN
 10
1.000000000000000E+20
 20
1.000000000000000E+20
 30
1.000000000000000E+20
  9
$PEXTMAX
 10
-1.000000000000000E+20
 20
-1.000000000000000E+20
 30
-1.000000000000000E+20
  9
$PLIMMIN
 10
0.0
 20
0.0
  9
$PLIMMAX
 10
420.0
 20
297.0
  9
$UNITMODE
 70
     0
  9
$VISRETAIN
 70
     1
  9
$PLINEGEN
 70
     0
  9
$PSLTSCALE
 70
     1
  9
$TREEDEPTH
 70
  3020
  9
$CMLSTYLE
  2
Standard
  9
$CMLJUST
 70
     0
  9
$CMLSCALE
 40
20.0
  9
$PROXYGRAPHICS
 70
     1
  9
$MEASUREMENT
 70
     1
  9
$CELWEIGHT
370
    -1
  9
$ENDCAPS
280
     0
  9
$JOINSTYLE
280
     0
  9
$LWDISPLAY
290
     0
  9
$INSUNITS
 70
     4
  9
$HYPERLINKBASE
  1

  9
$STYLESHEET
  1

  9
$XEDIT
290
     1
  9
$CEPSNTYPE
380
     0
  9
$PSTYLEMODE
290
     1
  9
$FINGERPRINTGUID
  2
{BED7342E-3E25-4ACC-9FC6-31776E6A7756}
  9
$VERSIONGUID
  2
{B34AD257-B641-4DD2-8247-1E65A6404BA6}
  9
$EXTNAMES
290
     1
  9
$PSVPSCALE
 40
0.0
  9
$OLESTARTUP
290
     0
  0
ENDSEC
  0
SECTION
  2
CLASSES
  0
CLASS
  1
ACDBDICTIONARYWDFLT
  2
AcDbDictionaryWithDefault
  3
ObjectDBX Classes
 90
        0
280
     0
281
     0
  0
CLASS
  1
ACDBPLACEHOLDER
  2
AcDbPlaceHolder
  3
ObjectDBX Classes
 90
        0
280
     0
281
     0
  0
CLASS
  1
LAYOUT
  2
AcDbLayout
  3
ObjectDBX Classes
 90
        0
280
     0
281
     0
  0
CLASS
  1
AMGSETTINGSOBJ
  2
AmgSettingsObj
  3
"AcadM|Product Description: AutoCAD Mechanical 2000|Company: Autodesk"
 90
        0
280
     0
281
     0
  0
CLASS
  1
ACME_DOCUMENT
  2
AcMeDbDoc
  3
AcMeServices
 90
        0
280
     0
281
     0
  0
CLASS
  1
ACMESCOPE
  2
AcMeScope
  3
AcMeServices
 90
        0
280
     0
281
     0
  0
CLASS
  1
ACMECOMMANDHISTORY
  2
AcMeCommandHistory
  3
AcMeServices
 90
        0
280
     0
281
     0
  0
CLASS
  1
DICTIONARYVAR
  2
AcDbDictionaryVar
  3
ObjectDBX Classes
 90
        0
280
     0
281
     0
  0
CLASS
  1
ACIMSYSVARMAN
  2
AcImSysVarManager
  3
AcMeServices
 90
        0
280
     0
281
     0
  0
CLASS
  1
ACIMREALSYSVAR
  2
AcImRealSysVar
  3
AcMeServices
 90
        0
280
     0
281
     0
  0
CLASS
  1
ACIMINTSYSVAR
  2
AcImIntSysVar
  3
AcMeServices
 90
        0
280
     0
281
     0
  0
CLASS
  1
ACMEDRAWINGMAN
  2
AcMeDrawingMan
  3
AcMeServices
 90
        0
280
     0
281
     0
  0
CLASS
  1
ACMEVIEW
  2
AcMeView
  3
AcMeServices
 90
        0
280
     0
281
     0
  0
CLASS
  1
ACDBENTITYCACHE
  2
AcMeEntityCache
  3
AcMeServices
 90
        0
280
     0
281
     0
  0
CLASS
  1
GSMANAGER
  2
AcMeGSManager
  3
AcMeServices
 90
        0
280
     0
281
     0
  0
CLASS
  1
AMDTINTERNALREACTOR
  2
AmdtInternalReactor
  3
AcMeServices
 90
        0
280
     0
281
     0
  0
CLASS
  1
ACMESTATEMGR
  2
AcMeStateMgr
  3
AcMeServices
 90
        0
280
     0
281
     0
  0
CLASS
  1
ACGREFMASTER
  2
AcGrefMaster
  3
AcAttribServices
 90
        0
280
     0
281
     0
  0
CLASS
  1
ACME_DATABASE
  2
AcMeDbDatabase
  3
AcMeServices
 90
        0
280
     0
281
     0
  0
CLASS
  1
ACRFINSADJUSTERMGR
  2
AcRfInsAdjusterMgr
  3
AcMeServices
 90
        0
280
     0
281
     0
  0
CLASS
  1
ACGREFACADMASTER
  2
AcGrefacadMaster
  3
AcGrefServices
 90
        0
280
     0
281
     0
  0
CLASS
  1
AMIMASTER
  2
AmiMaster
  3
AmiServices
 90
        0
280
     0
281
     0
  0
CLASS
  1
ACIMSTRSYSVAR
  2
AcImStrSysVar
  3
AcMeServices
 90
        0
280
     0
281
     0
  0
CLASS
  1
ACMSTANDARDDIN
  2
AcmStandardDIN
  3
"Amdt_StdImp|Product Description: AutoCAD Mechanical 2004 DX|Company: Autodesk"
 90
        0
280
     0
281
     0
  0
CLASS
  1
AMGOBJPROPCFG
  2
AmgObjPropCfg
  3
"AmgLay|Product Description: AutoCAD Mechanical 2000|Company: Autodesk"
 90
        1
280
     0
281
     0
  0
CLASS
  1
AMDTEDGESTANDARDDIN
  2
AmdtEdgeStdDIN
  3
"Amdt_StdImp|Product Description: AutoCAD Mechanical 2004 DX|Company: Autodesk"
 90
        0
280
     0
281
     0
  0
CLASS
  1
ACMSURFSTANDARDDIN
  2
AcmSurfTextStdDIN
  3
"Amdt_StdImp|Product Description: AutoCAD Mechanical 2004 DX|Company: Autodesk"
 90
        0
280
     0
281
     0
  0
CLASS
  1
ACMFCFSTANDARDDIN
  2
AcmFCFStdDIN
  3
"Amdt_StdImp|Product Description: AutoCAD Mechanical 2004 DX|Company: Autodesk"
 90
        0
280
     0
281
     0
  0
CLASS
  1
ACMWELDSTANDARDDIN
  2
AcmWeldingStdDIN
  3
"Amdt_StdImp|Product Description: AutoCAD Mechanical 2004 DX|Company: Autodesk"
 90
        0
280
     0
281
     0
  0
CLASS
  1
ACMIDSTANDARDDIN
  2
AcmIdStdDIN
  3
"Amdt_StdImp|Product Description: AutoCAD Mechanical 2004 DX|Company: Autodesk"
 90
        0
280
     0
281
     0
  0
CLASS
  1
ACMDATUMSTANDARDDIN
  2
AcmDatumStdDIN
  3
"Amdt_StdImp|Product Description: AutoCAD Mechanical 2004 DX|Company: Autodesk"
 90
        0
280
     0
281
     0
  0
CLASS
  1
ACMBOMSTANDARDDIN
  2
AcmBOMStdDIN
  3
"Amdt_StdImp|Product Description: AutoCAD Mechanical 2004 DX|Company: Autodesk"
 90
        0
280
     0
281
     0
  0
CLASS
  1
ACMDETAILSTANDARDDIN
  2
AmdtDetailSymStdDIN
  3
"Amdt_StdImp|Product Description: AutoCAD Mechanical 2004 DX|Company: Autodesk"
 90
        0
280
     0
281
     0
  0
CLASS
  1
ACMSECTIONSTANDARDDIN
  2
AmdtSectionSymStdDIN
  3
"Amdt_StdImp|Product Description: AutoCAD Mechanical 2004 DX|Company: Autodesk"
 90
        0
280
     0
281
     0
  0
CLASS
  1
ACMCENTERLINESTANDARDDIN
  2
AmdtCenterLineStdDIN
  3
"Amdt_StdImp|Product Description: AutoCAD Mechanical 2004 DX|Company: Autodesk"
 90
        0
280
     0
281
     0
  0
CLASS
  1
ACMTHREADLINESTANDARDDIN
  2
AmdtThreadLineStdDIN
  3
"Amdt_StdImp|Product Description: AutoCAD Mechanical 2004 DX|Company: Autodesk"
 90
        0
280
     0
281
     0
  0
CLASS
  1
ACAMGLAYSTD
  2
AcAmgLayStd
  3
"AcAmgLayStd|Product Description: AutoCAD Mechanical 2000|Company: Autodesk"
 90
        0
280
     0
281
     0
  0
CLASS
  1
ACAMGDIMSTD
  2
AcAmgDimStd
  3
"AcAmgDimStd|Product Description: AutoCAD Mechanical 2000|Company: Autodesk"
 90
        0
280
     0
281
     0
  0
CLASS
  1
ACAMGTITLESTD
  2
AcAmgTitleStd
  3
"TITLEAPP"
 90
        0
280
     0
281
     0
  0
CLASS
  1
ACMDATADICTIONARY
  2
AcmDataDictionary
  3
"AcmSymBB|Product Description: AutoCAD Mechanical 2004 DX|Company: Autodesk"
 90
        0
280
     0
281
     0
  0
CLASS
  1
ACMDATAENTRYBLOCK
  2
AcmDataEntryBlock
  3
"AcmSymBB|Product Description: AutoCAD Mechanical 2004 DX|Company: Autodesk"
 90
        0
280
     0
281
     0
  0
CLASS
  1
LAYER_INDEX
  2
AcDbLayerIndex
  3
ObjectDBX Classes
 90
    32768
280
     0
281
     0
  0
CLASS
  1
IDBUFFER
  2
AcDbIdBuffer
  3
ObjectDBX Classes
 90
    32768
280
     0
281
     0
  0
CLASS
  1
ACMNOTESTANDARDDIN
  2
AmdtNoteStdDIN
  3
"Amdt_StdImp|Product Description: AutoCAD Mechanical 2004 DX|Company: Autodesk"
 90
        0
280
     0
281
     0
  0
CLASS
  1
ACAMGHOLECHARTSTDDIN
  2
AcAmgHoleChartStdDIN
  3
ACMSYMBB_MODULE_NAME
 90
        0
280
     0
281
     0
  0
CLASS
  1
AM_DRAWING_MGR
  2
AcDmDwgMgr
  3
AcMechDwgViewMgmt
 90
        0
280
     0
281
     0
  0
CLASS
  1
AM_DWG_DOCUMENT
  2
AcDmDwgDocument
  3
AcMechDwgViewMgmt
 90
        0
280
     0
281
     0
  0
CLASS
  1
AM_DWG_SHEET
  2
AcDmSheet
  3
AcMechDwgViewMgmt
 90
        0
280
     0
281
     0
  0
CLASS
  1
AM_VIEWDIMPARMAP
  2
AcDmViewDimParMap
  3
AcMechDwgViewMgmt
 90
        0
280
     0
281
     0
  0
CLASS
  1
AM_DWGMGR_NAME
  2
AcDmDwgMgrName
  3
AcMechDwgViewMgmt
 90
        0
280
     0
281
     0
  0
CLASS
  1
AMDTMENUSTATEMGR
  2
AmdtMenuStateMgr
  3
McadcomServices
 90
        0
280
     0
281
     0
  0
CLASS
  1
AMDTMCOMMENUSTATE
  2
AmdtMcomMenuState
  3
McadcomServices
 90
        0
280
     0
281
     0
  0
CLASS
  1
MAPIAMMOUDLE
  2
MApiAmModule
  3
MApiAmServices
 90
        0
280
     0
281
     0
  0
CLASS
  1
AMDTADMENUSTATE
  2
AmdtAdMenuState
  3
DesignerServices
 90
        0
280
     0
281
     0
  0
CLASS
  1
ADAPPL
  2
AcAdAppl
  3
DesignerServices
 90
        0
280
     0
281
     0
  0
CLASS
  1
DEPMGR
  2
AcAdDepMgr
  3
DesignerServices
 90
        0
280
     0
281
     0
  0
CLASS
  1
PARAMMGR
  2
AcAdParamMgr
  3
DesignerServices
 90
        0
280
     0
281
     0
  0
CLASS
  1
PARAMSCOPE
  2
AcAdParamScope
  3
DesignerServices
 90
        0
280
     0
281
     0
  0
CLASS
  1
NAMEDAPPL
  2
AcAdNamedAppl
  3
DesignerServices
 90
        0
280
     0
281
     0
  0
CLASS
  1
AMDTDMMENUSTATE
  2
AmdtDmMenuState
  3
AcMechDwgViewMgmt
 90
        0
280
     0
281
     0
  0
CLASS
  1
AMDTAMMENUSTATE
  2
AmdtAmMenuState
  3
DesignerAssemblies
 90
        0
280
     0
281
     0
  0
CLASS
  1
ACAMPROJECT
  2
AcAmProject
  3
DesignerAssemblies
 90
        0
280
     0
281
     0
  0
CLASS
  1
ACAMGRCOMPDEF
  2
AcAmGrCompDef
  3
DesignerAssemblies
 90
        0
280
     0
281
     0
  0
CLASS
  1
ACCMCONTEXT
  2
AcCmContext
  3
DesignerAssemblies
 90
        0
280
     0
281
     0
  0
CLASS
  1
ACAMCOMPDEF
  2
AcAmCompDef
  3
DesignerAssemblies
 90
        0
280
     0
281
     0
  0
CLASS
  1
ACAMCOMPDEFMGR
  2
AcAmCompDefMgr
  3
DesignerAssemblies
 90
        0
280
     0
281
     0
  0
CLASS
  1
AMCONTEXTMGR
  2
AcAmContextMgr
  3
DesignerAssemblies
 90
        0
280
     0
281
     0
  0
CLASS
  1
ACAMCONTEXTMODELER
  2
AcAmContextModeler
  3
DesignerAssemblies
 90
        0
280
     0
281
     0
  0
CLASS
  1
CATALOGSTATE
  2
AcAmCatalogState
  3
DesignerAssemblies
 90
        0
280
     0
281
     0
  0
CLASS
  1
ACAMGRCOMPDEFSET
  2
AcAmGrCompDefSet
  3
DesignerAssemblies
 90
        0
280
     0
281
     0
  0
CLASS
  1
AMDTBROWSERDBTAB
  2
AmdtBrowserDbTab
  3
McadcomServices
 90
        0
280
     0
281
     0
  0
CLASS
  1
CBROWSERAPPOBJECT
  2
CBrowserAppObject
  3
McadcomServices
 90
        0
280
     0
281
     0
  0
CLASS
  1
DM_PLACEHOLDER
  2
AcDmSelsetPlaceholder
  3
AcMechDwgViewMgmt
 90
        0
280
     0
281
     0
  0
CLASS
  1
TABLESTYLE
  2
AcDbTableStyle
  3
ObjectDBX Classes
 90
     2047
280
     0
281
     0
  0
CLASS
  1
VAACXREFPANELOBJECT
  2
VaAcXREFPanelObject
  3
VAAC_ADDIN
 90
    32768
280
     0
281
     0
  0
CLASS
  1
VAACIMAGEINVENTORY
  2
VaAcImageInventory
  3
VAAC_ADDIN
 90
    32768
280
     0
281
     0
  0
CLASS
  1
AMDTNOTETEMPLATEDB
  2
AmdtNoteTemplateDB
  3
AMDT_STDIMP_MODULE_NAME
 90
        0
280
     0
281
     0
  0
CLASS
  1
ACAMGFILTERDAT
  2
AcAmgFilterDat
  3
"AcadM|Product Description: AutoCAD Mechanical 2000|Company: Autodesk"
 90
        0
280
     0
281
     0
  0
CLASS
  1
ACMBOM
  2
AcmBom
  3
"AcmSymBB|Product Description: AutoCAD Mechanical 2004 DX|Company: Autodesk"
 90
    32768
280
     0
281
     0
  0
CLASS
  1
AMDTFORMULAUPDATEDISPATCHER
  2
AmdtFormulaUpdateDispatcher
  3
AcMeServices
 90
    32768
280
     0
281
     0
  0
CLASS
  1
SORTENTSTABLE
  2
AcDbSortentsTable
  3
ObjectDBX Classes
 90
        0
280
     0
281
     0
  0
CLASS
  1
ACRFATTGENMGR
  2
AcRfAttGeneralMgr
  3
AcAttribServices
 90
        0
280
     0
281
     0
  0
ENDSEC
  0
SECTION
  2
TABLES
  0
TABLE
  2
VPORT
  5
8
330
0
100
AcDbSymbolTable
 70
     3
  0
VPORT
  5
1038
330
8
100
AcDbSymbolTableRecord
100
AcDbViewportTableRecord
  2
*Active
 70
     0
 10
0.0
 20
0.0
 11
1.0
 21
1.0
 12
2460.516198475986
 22
2637.430708467749
 13
0.0
 23
0.0
 14
2.5
 24
2.5
 15
10.0
 25
10.0
 16
0.0
 26
0.0
 36
1.0
 17
0.0
 27
0.0
 37
0.0
 40
3308.262639183957
 41
1.378804960541149
 42
50.0
 43
0.0
 44
0.0
 50
0.0
 51
0.0
 71
     0
 72
   100
 73
     1
 74
     3
 75
     0
 76
     0
 77
     0
 78
     0
281
     0
 65
     1
110
0.0
120
0.0
130
0.0
111
1.0
121
0.0
131
0.0
112
0.0
122
1.0
132
0.0
 79
     0
146
0.0
  0
ENDTAB
  0
TABLE
  2
LTYPE
  5
5
330
0
100
AcDbSymbolTable
 70
    22
  0
LTYPE
  5
14
330
5
100
AcDbSymbolTableRecord
100
AcDbLinetypeTableRecord
  2
ByBlock
 70
     0
  3

 72
    65
 73
     0
 40
0.0
  0
LTYPE
  5
15
330
5
100
AcDbSymbolTableRecord
100
AcDbLinetypeTableRecord
  2
ByLayer
 70
     0
  3

 72
    65
 73
     0
 40
0.0
  0
LTYPE
  5
16
330
5
100
AcDbSymbolTableRecord
100
AcDbLinetypeTableRecord
  2
Continuous
 70
     0
  3
Solid line
 72
    65
 73
     0
 40
0.0
  0
LTYPE
  5
50
330
5
100
AcDbSymbolTableRecord
100
AcDbLinetypeTableRecord
  2
Amconstr
 70
     0
  3
_______________________
 72
    65
 73
     2
 40
9999.0
 49
9999.0
 74
     0
 49
0.0
 74
     0
  0
LTYPE
  5
55
330
5
100
AcDbSymbolTableRecord
100
AcDbLinetypeTableRecord
  2
Amzigzag
 70
     0
  3
/\/-/\/-/\/-/\/-/\/-/\/
 72
    65
 73
     2
 40
11.0001
 49
0.0001
 74
     4
 75
   136
340
285
 46
0.04
 50
0.0
 44
0.0
 45
0.0
 49
-11.0
 74
     0
  0
LTYPE
  5
56
330
5
100
AcDbSymbolTableRecord
100
AcDbLinetypeTableRecord
  2
AM_DIN_F_W050
 70
     0
  3
__ __ __ __ __ __ __ __ __ __ __ __ __ __ __
 72
    65
 73
     2
 40
6.25
 49
4.75
 74
     0
 49
-1.5
 74
     0
  0
LTYPE
  5
57
330
5
100
AcDbSymbolTableRecord
100
AcDbLinetypeTableRecord
  2
AM_DIN_G_W050
 70
     0
  3
____ . ____ . ____ . ____ . ____ . ____ . ____
 72
    65
 73
     4
 40
13.75
 49
9.75
 74
     0
 49
-1.5
 74
     0
 49
1.0
 74
     0
 49
-1.5
 74
     0
  0
LTYPE
  5
58
330
5
100
AcDbSymbolTableRecord
100
AcDbLinetypeTableRecord
  2
AM_DIN_K_W050
 70
     0
  3
_____ . . _____ . . _____ . . ____ .. ____
 72
    65
 73
     6
 40
16.25
 49
9.75
 74
     0
 49
-1.5
 74
     0
 49
1.0
 74
     0
 49
-1.5
 74
     0
 49
1.0
 74
     0
 49
-1.5
 74
     0
  0
LTYPE
  5
59
330
5
100
AcDbSymbolTableRecord
100
AcDbLinetypeTableRecord
  2
AM_DIN_G_W050x2
 70
     0
  3
__ . __ . __ . __ . __ . __
 72
    65
 73
     4
 40
6.875
 49
4.75
 74
     0
 49
-0.875
 74
     0
 49
0.375
 74
     0
 49
-0.875
 74
     0
  0
LTYPE
  5
5A
330
5
100
AcDbSymbolTableRecord
100
AcDbLinetypeTableRecord
  2
AM_DIN_F_W050x2
 70
     0
  3
 _ _ _ _ _ _ _ _ _ _ _ _
 72
    65
 73
     2
 40
3.125
 49
2.25
 74
     0
 49
-0.875
 74
     0
  0
LTYPE
  5
68
330
5
100
AcDbSymbolTableRecord
100
AcDbLinetypeTableRecord
  2
ACDINWELD
 70
     0
  3
_ _ _ _ _
 72
    65
 73
     2
 40
2.0
 49
2.0
 74
     0
 49
-1.0
 74
     0
  0
LTYPE
  5
69
330
5
100
AcDbSymbolTableRecord
100
AcDbLinetypeTableRecord
  2
ACDINTGB
 70
     0
  3
__ . . __ . .
 72
    65
 73
     6
 40
9.0
 49
4.0
 74
     0
 49
-1.0
 74
     0
 49
1.0
 74
     0
 49
-1.0
 74
     0
 49
1.0
 74
     0
 49
-1.0
 74
     0
  0
LTYPE
  5
6A
330
5
100
AcDbSymbolTableRecord
100
AcDbLinetypeTableRecord
  2
ACDINTGL
 70
     0
  3
_ _ _ _ _
 72
    65
 73
     2
 40
3.0
 49
2.0
 74
     0
 49
-1.0
 74
     0
  0
LTYPE
  5
6C
330
5
100
AcDbSymbolTableRecord
100
AcDbLinetypeTableRecord
  2
CENTER
 70
     0
  3
__ . __
 72
    65
 73
     4
 40
7.0
 49
4.0
 74
     0
 49
-1.0
 74
     0
 49
1.0
 74
     0
 49
-1.0
 74
     0
  0
LTYPE
  5
F2
330
5
100
AcDbSymbolTableRecord
100
AcDbLinetypeTableRecord
  2
HIDDEN
 70
     0
  3
Hidden __ __ __ __ __ __ __ __ __ __ __ __ __ _
 72
    65
 73
     2
 40
9.524999999999998
 49
6.349999999999999
 74
     0
 49
-3.174999999999999
 74
     0
  0
LTYPE
  5
F3
330
5
100
AcDbSymbolTableRecord
100
AcDbLinetypeTableRecord
  2
PHANTOM2
 70
     0
  3
Phantom (.5x) ___ _ _ ___ _ _ ___ _ _ ___ _ _
 72
    65
 73
     6
 40
31.75
 49
15.875
 74
     0
 49
-3.174999999999999
 74
     0
 49
3.174999999999999
 74
     0
 49
-3.174999999999999
 74
     0
 49
3.174999999999999
 74
     0
 49
-3.174999999999999
 74
     0
  0
LTYPE
  5
3E2
330
5
100
AcDbSymbolTableRecord
100
AcDbLinetypeTableRecord
  2
VERDECKT
 70
     0
  3
Verdeckt __ __ __ __ __ __ __ _
 72
    65
 73
     2
 40
9.525
 49
6.349999999999999
 74
     0
 49
-3.174999999999999
 74
     0
  0
LTYPE
  5
3E3
330
5
100
AcDbSymbolTableRecord
100
AcDbLinetypeTableRecord
  2
AUSGEZOGEN
 70
     0
  3
_______________________________________________
 72
    65
 73
     0
 40
0.0
  0
ENDTAB
  0
TABLE
  2
LAYER
  5
2
102
{ACAD_XDICTIONARY
360
C0
102
}
330
0
100
AcDbSymbolTable
 70
    13
  0
LAYER
  5
10
330
2
100
AcDbSymbolTableRecord
100
AcDbLayerTableRecord
  2
0
 70
     0
 62
     7
  6
Continuous
370
    -3
390
F
  0
LAYER
  5
3E4
330
2
100
AcDbSymbolTableRecord
100
AcDbLayerTableRecord
  2
AM_7
 70
     0
 62
     4
  6
AM_DIN_G_W050
370
    25
390
F
  0
LAYER
  5
3E5
330
2
100
AcDbSymbolTableRecord
100
AcDbLayerTableRecord
  2
DEFPOINTS
 70
     0
 62
     7
  6
Continuous
290
     0
370
    -3
390
F
  0
LAYER
  5
3E6
330
2
100
AcDbSymbolTableRecord
100
AcDbLayerTableRecord
  2
BILD
 70
     0
 62
     7
  6
Continuous
370
    -3
390
F
  0
LAYER
  5
3E7
330
2
100
AcDbSymbolTableRecord
100
AcDbLayerTableRecord
  2
TEXT
 70
     0
 62
     7
  6
Continuous
370
    -3
390
F
  0
LAYER
  5
3E8
330
2
100
AcDbSymbolTableRecord
100
AcDbLayerTableRecord
  2
406
 70
     0
 62
     7
  6
Continuous
370
    -3
390
F
  0
LAYER
  5
3E9
330
2
100
AcDbSymbolTableRecord
100
AcDbLayerTableRecord
  2
AM_5
 70
     0
 62
     3
  6
Continuous
370
    25
390
F
  0
LAYER
  5
3EA
330
2
100
AcDbSymbolTableRecord
100
AcDbLayerTableRecord
  2
AM_4
 70
     0
 62
     3
  6
Continuous
370
    25
390
F
  0
LAYER
  5
3EB
330
2
100
AcDbSymbolTableRecord
100
AcDbLayerTableRecord
  2
AM_6
 70
     0
 62
     2
  6
Continuous
370
    35
390
F
  0
LAYER
  5
3EC
330
2
100
AcDbSymbolTableRecord
100
AcDbLayerTableRecord
  2
AM_8
 70
     0
 62
     1
  6
Continuous
370
    25
390
F
  0
LAYER
  5
3ED
330
2
100
AcDbSymbolTableRecord
100
AcDbLayerTableRecord
  2
DEFAULT_1
 70
     0
 62
     7
  6
CENTER
370
    -3
390
F
  0
LAYER
  5
3EE
330
2
100
AcDbSymbolTableRecord
100
AcDbLayerTableRecord
  2
4
 70
     0
 62
     3
  6
Continuous
370
    -3
390
F
  0
ENDTAB
  0
TABLE
  2
STYLE
  5
3
330
0
100
AcDbSymbolTable
 70
     8
  0
STYLE
  5
11
330
3
100
AcDbSymbolTableRecord
100
AcDbTextStyleTableRecord
  2
STANDARD
 70
     0
 40
0.0
 41
1.0
 50
0.0
 71
     0
 42
2.5
  3
ISOCP.SHX
  4
bigfont.shx
  0
STYLE
  5
5B
330
3
100
AcDbSymbolTableRecord
100
AcDbTextStyleTableRecord
  2
ACDINTS
 70
     0
 40
1.0
 41
1.0
 50
0.0
 71
     0
 42
2.5
  3
isocp.shx
  4
bigfont.shx
  0
STYLE
  5
67
330
3
100
AcDbSymbolTableRecord
100
AcDbTextStyleTableRecord
  2
ACDINGDT
 70
     0
 40
0.0
 41
1.0
 50
0.0
 71
     0
 42
2.5
  3
AMGDT
  4
bigfont.shx
  0
STYLE
  5
285
330
3
100
AcDbSymbolTableRecord
100
AcDbTextStyleTableRecord
  2

 70
     1
 40
0.0
 41
1.0
 50
0.0
 71
     0
 42
2.5
  3
genltshp.shx
  4

  0
ENDTAB
  0
TABLE
  2
VIEW
  5
6
330
0
100
AcDbSymbolTable
 70
     0
  0
ENDTAB
  0
TABLE
  2
UCS
  5
7
330
0
100
AcDbSymbolTable
 70
     0
  0
ENDTAB
  0
TABLE
  2
APPID
  5
9
330
0
100
AcDbSymbolTable
 70
    16
  0
APPID
  5
12
330
9
100
AcDbSymbolTableRecord
100
AcDbRegAppTableRecord
  2
ACAD
 70
     0
  0
APPID
  5
30
330
9
100
AcDbSymbolTableRecord
100
AcDbRegAppTableRecord
  2
MCAD_NO_VIS
 70
     0
  0
APPID
  5
31
330
9
100
AcDbSymbolTableRecord
100
AcDbRegAppTableRecord
  2
ACAD_TEMP_GRAPHIC
 70
     0
  0
APPID
  5
44
330
9
100
AcDbSymbolTableRecord
100
AcDbRegAppTableRecord
  2
ACATTRIBSERVICES
 70
     0
  0
APPID
  5
108
330
9
100
AcDbSymbolTableRecord
100
AcDbRegAppTableRecord
  2
AD_DRAW
 70
     0
  0
APPID
  5
126
330
9
100
AcDbSymbolTableRecord
100
AcDbRegAppTableRecord
  2
DESIGNERASSEMBLIES
 70
     0
  0
APPID
  5
12A
330
9
100
AcDbSymbolTableRecord
100
AcDbRegAppTableRecord
  2
ACADM_DIM_EDIT
 70
     0
  0
APPID
  5
12B
330
9
100
AcDbSymbolTableRecord
100
AcDbRegAppTableRecord
  2
AMDT_DM_ADJ
 70
     0
  0
APPID
  5
1A4
330
9
100
AcDbSymbolTableRecord
100
AcDbRegAppTableRecord
  2
ACAD_DSTYLE_DIMARC_LENGTH_SYMBOL
 70
     0
  0
APPID
  5
1A5
330
9
100
AcDbSymbolTableRecord
100
AcDbRegAppTableRecord
  2
ACAD_DSTYLE_DIMJOGGED_JOGANGLE_SYMBOL
 70
     0
  0
APPID
  5
22C
330
9
100
AcDbSymbolTableRecord
100
AcDbRegAppTableRecord
  2
AcAecLayerStandard
 70
     0
  0
APPID
  5
3F3
330
9
100
AcDbSymbolTableRecord
100
AcDbRegAppTableRecord
  2
GENIUS_GENODEF_13
 70
     0
  0
APPID
  5
3F4
330
9
100
AcDbSymbolTableRecord
100
AcDbRegAppTableRecord
  2
GENIUS_GENOBJ-N-CEN_13
 70
     0
  0
APPID
  5
3F5
330
9
100
AcDbSymbolTableRecord
100
AcDbRegAppTableRecord
  2
ACAD_PSEXT
 70
     0
  0
APPID
  5
3F6
330
9
100
AcDbSymbolTableRecord
100
AcDbRegAppTableRecord
  2
GENIUS_GENCEN_19
 70
     0
  0
APPID
  5
3F7
330
9
100
AcDbSymbolTableRecord
100
AcDbRegAppTableRecord
  2
GENIUS_GENOBJ-N-FIL_13
 70
     0
  0
ENDTAB
  0
TABLE
  2
DIMSTYLE
  5
A
330
0
100
AcDbSymbolTable
 70
    12
100
AcDbDimStyleTable
 71
     1
340
6F
  0
DIMSTYLE
105
6F
102
{ACAD_REACTORS
330
4B
102
}
330
A
100
AcDbSymbolTableRecord
100
AcDbDimStyleTableRecord
  2
AM_DIN
 70
     0
  4
"
 41
2.5
 42
1.0
 43
10.0
 44
1.0
 47
0.1
 48
0.1
 73
     0
 74
     0
 77
     1
 78
     8
 79
     2
140
3.5
141
0.0
143
0.0393701
146
0.71
147
1.5
172
     1
176
   256
177
   256
178
     2
271
     2
272
     3
274
     4
283
     0
284
     8
340
11
371
    -1
372
    -1
1001
ACAD_DSTYLE_DIMARC_LENGTH_SYMBOL
1070
   379
1070
     0
1001
ACAD_DSTYLE_DIMJOGGED_JOGANGLE_SYMBOL
1070
   384
1040
1.570796326794896
  0
DIMSTYLE
105
70
330
A
100
AcDbSymbolTableRecord
100
AcDbDimStyleTableRecord
  2
AM_DIN$3
 70
     0
  4
"
 41
2.5
 42
1.0
 43
10.0
 44
1.0
 47
0.1
 48
0.1
 73
     0
 77
     1
 78
     8
 79
     2
140
3.5
141
0.0
143
0.0393701
146
0.71
147
1.5
176
   256
177
   256
178
     2
271
     2
272
     3
274
     4
283
     0
284
     8
288
     1
289
     0
340
11
371
    -1
372
    -1
1001
ACAD_DSTYLE_DIMARC_LENGTH_SYMBOL
1070
   379
1070
     0
1001
ACAD_DSTYLE_DIMJOGGED_JOGANGLE_SYMBOL
1070
   384
1040
1.570796326794896
  0
DIMSTYLE
105
71
330
A
100
AcDbSymbolTableRecord
100
AcDbDimStyleTableRecord
  2
AM_DIN$4
 70
     0
  4
"
 41
2.5
 42
1.0
 43
10.0
 44
1.0
 47
0.1
 48
0.1
 73
     0
 77
     1
 78
     8
 79
     2
140
3.5
141
0.0
143
0.0393701
146
0.71
147
1.5
176
   256
177
   256
178
     2
271
     2
272
     3
274
     4
283
     0
284
     8
288
     1
289
     0
340
11
371
    -1
372
    -1
1001
ACAD_DSTYLE_DIMARC_LENGTH_SYMBOL
1070
   379
1070
     0
1001
ACAD_DSTYLE_DIMJOGGED_JOGANGLE_SYMBOL
1070
   384
1040
1.570796326794896
  0
DIMSTYLE
105
72
330
A
100
AcDbSymbolTableRecord
100
AcDbDimStyleTableRecord
  2
AM_DIN$6
 70
     0
  4
"
 41
2.5
 42
1.0
 43
10.0
 44
1.0
 47
0.1
 48
0.1
 73
     0
 74
     0
 78
     8
 79
     2
140
3.5
141
0.0
143
0.0393701
146
0.71
147
1.5
172
     1
176
   256
177
   256
178
     2
271
     2
272
     3
274
     4
283
     0
284
     8
340
11
371
    -1
372
    -1
1001
ACAD_DSTYLE_DIMARC_LENGTH_SYMBOL
1070
   379
1070
     0
1001
ACAD_DSTYLE_DIMJOGGED_JOGANGLE_SYMBOL
1070
   384
1040
1.570796326794896
  0
DIMSTYLE
105
73
330
A
100
AcDbSymbolTableRecord
100
AcDbDimStyleTableRecord
  2
AM_DIN$7
 70
     0
  4
"
 41
2.5
 42
1.0
 43
10.0
 44
1.0
 47
0.1
 48
0.1
 73
     0
 74
     0
 77
     1
 78
     8
 79
     2
140
5.0
141
0.0
143
0.0393701
146
0.71
147
1.5
172
     1
176
   256
177
   256
178
     2
271
     2
272
     3
274
     4
283
     0
284
     8
340
11
371
    -1
372
    -1
1001
ACAD_DSTYLE_DIMARC_LENGTH_SYMBOL
1070
   379
1070
     0
1001
ACAD_DSTYLE_DIMJOGGED_JOGANGLE_SYMBOL
1070
   384
1040
1.570796326794896
  0
DIMSTYLE
105
74
330
A
100
AcDbSymbolTableRecord
100
AcDbDimStyleTableRecord
  2
AM_DIN$SF
 70
     0
  4
"
 41
2.5
 42
1.0
 43
10.0
 44
1.0
 47
0.1
 48
0.1
 73
     0
 74
     0
 75
     1
 76
     1
 77
     1
 78
     8
 79
     2
140
3.5
141
0.0
143
0.0393701
146
0.71
147
1.5
172
     1
176
   256
177
   256
178
     2
271
     2
272
     3
274
     4
283
     0
284
     8
340
11
371
    -1
372
    -1
1001
ACAD_DSTYLE_DIMARC_LENGTH_SYMBOL
1070
   379
1070
     0
1001
ACAD_DSTYLE_DIMJOGGED_JOGANGLE_SYMBOL
1070
   384
1040
1.570796326794896
  0
DIMSTYLE
105
79
330
A
100
AcDbSymbolTableRecord
100
AcDbDimStyleTableRecord
  2
AM_DIN$SH
 70
     0
  4
"
 41
2.5
 42
1.0
 43
10.0
 44
1.0
 47
0.1
 48
0.1
 73
     0
 74
     0
 75
     1
 76
     1
 77
     1
 78
     8
 79
     2
140
3.5
141
0.0
143
0.0393701
144
2.0
146
0.71
147
1.5
172
     1
173
     1
176
   256
177
   256
178
     2
271
     2
272
     3
274
     4
283
     0
284
     8
340
11
343
75
371
    -1
372
    -1
1001
ACAD_DSTYLE_DIMARC_LENGTH_SYMBOL
1070
   379
1070
     0
1001
ACAD_DSTYLE_DIMJOGGED_JOGANGLE_SYMBOL
1070
   384
1040
1.570796326794896
  0
DIMSTYLE
105
3EF
330
A
100
AcDbSymbolTableRecord
100
AcDbDimStyleTableRecord
  2
AM_ISO
 70
     0
  4
"
 41
2.5
 42
1.0
 43
10.0
 44
1.0
 47
0.1
 48
0.1
 73
     0
 74
     0
 77
     1
 78
     8
 79
     2
140
3.5
141
0.0
143
0.0393701
146
0.71
147
1.5
172
     1
176
   256
177
   256
178
     2
271
     2
272
     3
274
     4
283
     0
284
     8
340
11
371
    -1
372
    -1
  0
DIMSTYLE
105
3F1
102
{ACAD_REACTORS
330
7B1
330
7B2
330
7B4
330
7B5
330
7B6
330
7B8
330
7B9
330
7BA
330
D7E
330
D7F
330
D81
330
D82
330
D83
330
D85
330
D86
330
D87
102
}
330
A
100
AcDbSymbolTableRecord
100
AcDbDimStyleTableRecord
  2
AM_ISO$0
 70
     0
  4
"
 41
2.5
 42
1.0
 43
10.0
 44
1.0
 47
0.1
 48
0.1
 73
     0
 74
     0
 77
     1
 78
     8
 79
     2
140
3.5
141
0.0
143
0.0393701
146
0.71
147
1.5
172
     1
176
     3
177
     3
178
     2
271
     2
272
     2
283
     0
284
     8
340
11
371
    -1
372
    -1
1001
ACAD_DSTYLE_DIMARC_LENGTH_SYMBOL
1070
   379
1070
     1
1001
ACAD_DSTYLE_DIMJOGGED_JOGANGLE_SYMBOL
1070
   384
1040
0.7853981633974483
  0
ENDTAB
  0
TABLE
  2
BLOCK_RECORD
  5
1
330
0
100
AcDbSymbolTable
 70
    27
  0
BLOCK_RECORD
  5
1F
102
{ACAD_XDICTIONARY
360
83
102
}
330
1
100
AcDbSymbolTableRecord
100
AcDbBlockTableRecord
  2
*Model_Space
340
22
  0
BLOCK_RECORD
  5
1B
330
1
100
AcDbSymbolTableRecord
100
AcDbBlockTableRecord
  2
*Paper_Space
340
1E
  0
BLOCK_RECORD
  5
23
330
1
100
AcDbSymbolTableRecord
100
AcDbBlockTableRecord
  2
*Paper_Space0
340
26
  0
BLOCK_RECORD
  5
75
330
1
100
AcDbSymbolTableRecord
100
AcDbBlockTableRecord
  2
GENAXEH
340
0
  0
BLOCK_RECORD
  5
30F
330
1
100
AcDbSymbolTableRecord
100
AcDbBlockTableRecord
  2
asver
340
0
310
2800000020000000200000000100080000000000000400000000000000000000000000000000000000000000000080000080000000808000800000008000800080800000C0C0C000C0DCC000F0CAA6000020400000206000002080000020A0000020C0000020E00000400000004020000040400000406000004080000040A0
310
000040C0000040E00000600000006020000060400000606000006080000060A0000060C0000060E00000800000008020000080400000806000008080000080A0000080C0000080E00000A0000000A0200000A0400000A0600000A0800000A0A00000A0C00000A0E00000C0000000C0200000C0400000C0600000C0800000C0
310
A00000C0C00000C0E00000E0000000E0200000E0400000E0600000E0800000E0A00000E0C00000E0E00040000000400020004000400040006000400080004000A0004000C0004000E00040200000402020004020400040206000402080004020A0004020C0004020E000404000004040200040404000404060004040800040
310
40A0004040C0004040E00040600000406020004060400040606000406080004060A0004060C0004060E00040800000408020004080400040806000408080004080A0004080C0004080E00040A0000040A0200040A0400040A0600040A0800040A0A00040A0C00040A0E00040C0000040C0200040C0400040C0600040C08000
310
40C0A00040C0C00040C0E00040E0000040E0200040E0400040E0600040E0800040E0A00040E0C00040E0E00080000000800020008000400080006000800080008000A0008000C0008000E00080200000802020008020400080206000802080008020A0008020C0008020E00080400000804020008040400080406000804080
310
008040A0008040C0008040E00080600000806020008060400080606000806080008060A0008060C0008060E00080800000808020008080400080806000808080008080A0008080C0008080E00080A0000080A0200080A0400080A0600080A0800080A0A00080A0C00080A0E00080C0000080C0200080C0400080C0600080C0
310
800080C0A00080C0C00080C0E00080E0000080E0200080E0400080E0600080E0800080E0A00080E0C00080E0E000C0000000C0002000C0004000C0006000C0008000C000A000C000C000C000E000C0200000C0202000C0204000C0206000C0208000C020A000C020C000C020E000C0400000C0402000C0404000C0406000C0
310
408000C040A000C040C000C040E000C0600000C0602000C0604000C0606000C0608000C060A000C060C000C060E000C0800000C0802000C0804000C0806000C0808000C080A000C080C000C080E000C0A00000C0A02000C0A04000C0A06000C0A08000C0A0A000C0A0C000C0A0E000C0C00000C0C02000C0C04000C0C06000
310
C0C08000C0C0A000F0FBFF00A4A0A000808080000000FF0000FF000000FFFF00FF000000FF00FF00FFFF0000FFFFFF000000000000000000000000000000000000000000000000000000000000000000000000000000000000FAFAFAFAFAFAFAFAFAFAFAFAFAFA000000000000000000000000000000000000FA0000000000
310
00000000000000FA000000000000000000000000000000000000FA00FAFAFA00000000FAFAFA00FA000000000000000000000000000000000000FAFAFAFAFAFA0000FAFAFAFAFAFA000000000000000000000000000000000000FA00FAFAFAFA000000FAFAFAFAFA000000000000000000000000000000000000FA00FAFAFA
310
00000000FAFAFA00FA000000000000000000000000000000000000FAFAFAFAFAFAFAFAFAFAFAFAFAFA000000000000000000000000000000000000FA000000000000000000000000FA000000000000000000000000000000000000FA000000000000000000000000FA000000000000000000000000000000000000FA000000
310
000000000000000000FA000000000000000000000000000000000000FA000000000000000000000000FA000000000000000000000000000000000000FA000000000000000000000000FA000000000000000000000000000000000000FA000000000000000000000000FA000000000000000000000000000000000000FA0000
310
00000000000000000000FA000000000000000000000000000000000000FA000000000000000000000000FA000000000000000000000000000000000000FA000000000000000000000000FA000000000000000000000000000000000000FA000000000000000000000000FA000000000000000000000000000000000000FA00
310
0000000000000000000000FA000000000000000000000000000000000000FA000000000000000000000000FA000000000000000000000000000000000000FA000000000000000000000000FA000000000000000000000000000000000000FA000000000000000000000000FA000000000000000000000000000000000000FA
310
000000000000000000000000FA000000000000000000000000000000000000FA000000000000000000000000FA000000000000000000000000000000000000FA000000000000000000000000FA000000000000000000000000000000000000FA000000000000000000000000FA000000000000000000000000000000000000
310
FA000000000000000000000000FA000000000000000000000000000000000000FA000000000000000000000000FA000000000000000000000000000000000000FA000000000000000000000000FA000000000000000000000000000000000000FA000000000000000000000000FA0000000000000000000000000000000000
310
00FAFAFAFAFAFAFAFAFAFAFAFAFAFA0000000000000000000000000000000000000000000000000000000000000000000000000000000000
102
{BLKREFS
331
7B3
331
7B7
331
D80
331
D84
102
}
1001
ACAD
1000
DesignCenter Data
1002
{
1070
     1
1070
     4
1002
}
  0
BLOCK_RECORD
  5
333
330
1
100
AcDbSymbolTableRecord
100
AcDbBlockTableRecord
  2
NXXXX80
340
0
102
{BLKREFS
331
728
331
76E
331
CF5
331
D3B
102
}
  0
BLOCK_RECORD
  5
33E
330
1
100
AcDbSymbolTableRecord
100
AcDbBlockTableRecord
  2
N_GF_5
340
0
102
{BLKREFS
331
346
102
}
  0
BLOCK_RECORD
  5
343
330
1
100
AcDbSymbolTableRecord
100
AcDbBlockTableRecord
  2
NXXXX93
340
0
102
{BLKREFS
331
73B
331
781
331
D08
331
D4E
102
}
  0
BLOCK_RECORD
  5
349
330
1
100
AcDbSymbolTableRecord
100
AcDbBlockTableRecord
  2
N_GF_7
340
0
102
{BLKREFS
331
351
102
}
  0
BLOCK_RECORD
  5
34E
330
1
100
AcDbSymbolTableRecord
100
AcDbBlockTableRecord
  2
NXXXX95
340
0
102
{BLKREFS
331
74E
331
794
331
D1B
331
D61
102
}
  0
BLOCK_RECORD
  5
3B4
330
1
100
AcDbSymbolTableRecord
100
AcDbBlockTableRecord
  2
storz1
340
0
310
2800000020000000200000000100080000000000000400000000000000000000000000000000000000000000000080000080000000808000800000008000800080800000C0C0C000C0DCC000F0CAA6000020400000206000002080000020A0000020C0000020E00000400000004020000040400000406000004080000040A0
310
000040C0000040E00000600000006020000060400000606000006080000060A0000060C0000060E00000800000008020000080400000806000008080000080A0000080C0000080E00000A0000000A0200000A0400000A0600000A0800000A0A00000A0C00000A0E00000C0000000C0200000C0400000C0600000C0800000C0
310
A00000C0C00000C0E00000E0000000E0200000E0400000E0600000E0800000E0A00000E0C00000E0E00040000000400020004000400040006000400080004000A0004000C0004000E00040200000402020004020400040206000402080004020A0004020C0004020E000404000004040200040404000404060004040800040
310
40A0004040C0004040E00040600000406020004060400040606000406080004060A0004060C0004060E00040800000408020004080400040806000408080004080A0004080C0004080E00040A0000040A0200040A0400040A0600040A0800040A0A00040A0C00040A0E00040C0000040C0200040C0400040C0600040C08000
310
40C0A00040C0C00040C0E00040E0000040E0200040E0400040E0600040E0800040E0A00040E0C00040E0E00080000000800020008000400080006000800080008000A0008000C0008000E00080200000802020008020400080206000802080008020A0008020C0008020E00080400000804020008040400080406000804080
310
008040A0008040C0008040E00080600000806020008060400080606000806080008060A0008060C0008060E00080800000808020008080400080806000808080008080A0008080C0008080E00080A0000080A0200080A0400080A0600080A0800080A0A00080A0C00080A0E00080C0000080C0200080C0400080C0600080C0
310
800080C0A00080C0C00080C0E00080E0000080E0200080E0400080E0600080E0800080E0A00080E0C00080E0E000C0000000C0002000C0004000C0006000C0008000C000A000C000C000C000E000C0200000C0202000C0204000C0206000C0208000C020A000C020C000C020E000C0400000C0402000C0404000C0406000C0
310
408000C040A000C040C000C040E000C0600000C0602000C0604000C0606000C0608000C060A000C060C000C060E000C0800000C0802000C0804000C0806000C0808000C080A000C080C000C080E000C0A00000C0A02000C0A04000C0A06000C0A08000C0A0A000C0A0C000C0A0E000C0C00000C0C02000C0C04000C0C06000
310
C0C08000C0C0A000F0FBFF00A4A0A000808080000000FF0000FF000000FFFF00FF000000FF00FF00FFFF0000FFFFFF0000000000000000000000000000000000000000000000000000000000000000000000000000000000000000000000000000000000000000000000000000000000000000000000000000000000000000
310
0000000000000000000000000000000000000000000000000000000000000000000000000000000000000000000000000000000000000000000000000000000000000000000000000000000000000000000000000000000000000000000000000000000000000000000000000000000000000000000000FFFFFFFFFFFFFFFF
310
FFFFFFFFFFFFFF0000000000000000000000000000000000FFFF00000000000000000000FF00FF0000000000000000000000000000000000FFFF00000000000000000000FF00FF0000000000000000000000000000000000FFFF00000000000000000000FF00FF00000000000000000000000000FFFFFFFFFFFFFFFFFFFFFF
310
FFFFFFFFFFFFFFFFFFFFFFFF0000000000000000FF00000000000000000000000000000000000000000000FF0000000000000000FF00000000000000000000000000000000000000000000FF0000000000000000FF00000000000000000000000000000000000000000000FAFAFAFAFA00000000FFFFFFFFFFFFFFFFFFFFFF
310
FFFFFFFFFFFFFFFFFFFFFFFFFF0000FAFA00000000FF00000000000000000000000000000000000000000000FF0000FAFA00000000FF00000000000000000000000000000000000000000000FF00000000FA000000FF00000000000000000000000000000000000000000000FF000000FAFA00000000FFFFFFFFFFFFFFFFFF
310
FFFFFFFFFFFFFFFFFFFFFFFFFFFF000000FAFAFA00000000000000FFFF00000000000000000000FF00FF0000000000000000FAFA00000000000000FFFF00000000000000000000FF00FF0000000000000000FA0000000000000000FFFF00000000000000000000FF00FF00000000000000FA000000000000000000FFFFFFFF
310
FFFFFAFAFFFFFFFFFFFFFF000000000000FAFA000000000000000000000000000000FAFA000000000000000000FAFAFAFAFAFA0000000000000000000000000000000000FAFAFAFA00FAFAFA00FAFAFA000000000000000000000000000000000000000000FAFA00FAFAFAFAFA000000000000000000000000000000000000
310
00000000000000000000000000000000000000000000000000000000000000000000000000000000000000000000000000000000000000000000000000000000000000000000000000000000000000000000000000000000000000000000000000000000000000000000000000000000000000000000000000000000000000
310
0000000000000000000000000000000000000000000000000000000000000000000000000000000000000000000000000000000000000000
102
{BLKREFS
331
9BE
331
F8B
102
}
  0
BLOCK_RECORD
  5
F8E
330
1
100
AcDbSymbolTableRecord
100
AcDbBlockTableRecord
  2
*D19
340
0
  0
BLOCK_RECORD
  5
F9A
330
1
100
AcDbSymbolTableRecord
100
AcDbBlockTableRecord
  2
*D20
340
0
  0
BLOCK_RECORD
  5
FA6
330
1
100
AcDbSymbolTableRecord
100
AcDbBlockTableRecord
  2
*D21
340
0
  0
BLOCK_RECORD
  5
FB2
330
1
100
AcDbSymbolTableRecord
100
AcDbBlockTableRecord
  2
*D22
340
0
  0
BLOCK_RECORD
  5
FBE
330
1
100
AcDbSymbolTableRecord
100
AcDbBlockTableRecord
  2
*D23
340
0
  0
BLOCK_RECORD
  5
FCA
330
1
100
AcDbSymbolTableRecord
100
AcDbBlockTableRecord
  2
*D24
340
0
  0
BLOCK_RECORD
  5
FD6
330
1
100
AcDbSymbolTableRecord
100
AcDbBlockTableRecord
  2
*D25
340
0
  0
BLOCK_RECORD
  5
FE2
330
1
100
AcDbSymbolTableRecord
100
AcDbBlockTableRecord
  2
*D26
340
0
  0
ENDTAB
  0
ENDSEC
  0
SECTION
  2
BLOCKS
  0
BLOCK
  5
20
330
1F
100
AcDbEntity
  8
0
100
AcDbBlockBegin
  2
*Model_Space
 70
     0
 10
0.0
 20
0.0
 30
0.0
  3
*Model_Space
  1

  0
ENDBLK
  5
21
330
1F
100
AcDbEntity
  8
0
100
AcDbBlockEnd
  0
BLOCK
  5
1C
330
1B
100
AcDbEntity
 67
     1
  8
0
100
AcDbBlockBegin
  2
*Paper_Space
 70
     0
 10
0.0
 20
0.0
 30
0.0
  3
*Paper_Space
  1

  0
ENDBLK
  5
1D
330
1B
100
AcDbEntity
 67
     1
  8
0
100
AcDbBlockEnd
  0
BLOCK
  5
24
330
23
100
AcDbEntity
 67
     1
  8
0
100
AcDbBlockBegin
  2
*Paper_Space0
 70
     0
 10
0.0
 20
0.0
 30
0.0
  3
*Paper_Space0
  1

  0
ENDBLK
  5
25
330
23
100
AcDbEntity
 67
     1
  8
0
100
AcDbBlockEnd
  0
BLOCK
  5
77
330
75
100
AcDbEntity
  8
0
100
AcDbBlockBegin
  2
GENAXEH
 70
     0
 10
0.0
 20
0.0
 30
0.0
  3
GENAXEH
  1

  0
LINE
  5
76
330
75
100
AcDbEntity
  8
0
100
AcDbLine
 10
-1.0
 20
0.0
 30
0.0
 11
1.0
 21
0.0
 31
0.0
  0
ENDBLK
  5
78
330
75
100
AcDbEntity
  8
0
100
AcDbBlockEnd
  0
BLOCK
  5
310
330
30F
100
AcDbEntity
  8
0
100
AcDbBlockBegin
  2
asver
 70
     0
 10
0.0
 20
0.0
 30
0.0
  3
asver
  1

  0
LINE
  5
311
330
30F
100
AcDbEntity
  8
0
 62
     3
100
AcDbLine
 10
-20034.11803663987
 20
4945.546841299362
 30
0.0
 11
-19999.11803663987
 21
4945.546903389384
 31
0.0
  0
LINE
  5
312
330
30F
100
AcDbEntity
  8
0
 62
     3
100
AcDbLine
 10
-19999.117730789
 20
4799.340794298523
 30
0.0
 11
-20030.65038533446
 21
4799.340736807753
 31
0.0
  0
LINE
  5
313
330
30F
100
AcDbEntity
  8
0
 62
     3
100
AcDbLine
 10
-20034.11777218236
 20
4830.54684129938
 30
0.0
 11
-19964.11777218236
 21
4830.546965479428
 31
0.0
  0
LINE
  5
314
330
30F
100
AcDbEntity
  8
0
 62
     3
100
AcDbLine
 10
-20034.11777218236
 20
4830.546841299366
 30
0.0
 11
-20034.11803663987
 21
4945.546841299362
 31
0.0
  0
POINT
  5
315
330
30F
100
AcDbEntity
  8
0
 62
     3
100
AcDbPoint
 10
-20034.11777218236
 20
4830.546841299366
 30
0.0
  0
ARC
  5
316
330
30F
100
AcDbEntity
  8
0
 62
     3
100
AcDbCircle
 10
-20030.65042212854
 20
4827.079500444091
 30
0.0
 40
3.467345454545453
100
AcDbArc
 50
90.00007600002845
 51
180.000030000003
  0
ARC
  5
317
330
30F
100
AcDbEntity
  8
0
 62
     3
100
AcDbCircle
 10
-20030.65038993373
 20
4802.808082262298
 30
0.0
 40
3.467345454545453
100
AcDbArc
 50
180.000030000003
 51
270.0000760000285
  0
LINE
  5
318
330
30F
100
AcDbEntity
  8
0
 62
     3
100
AcDbLine
 10
-20034.11773538827
 20
4802.808077663041
 30
0.0
 11
-20034.11776758309
 21
4827.079495844839
 31
0.0
  0
LINE
  5
319
330
30F
100
AcDbEntity
  8
0
 62
     3
100
AcDbLine
 10
-19964.11777218236
 20
4830.546965479428
 30
0.0
 11
-19964.11803663987
 21
4945.546965479428
 31
0.0
  0
LINE
  5
31A
330
30F
100
AcDbEntity
  8
0
 62
     3
100
AcDbLine
 10
-19977.81750523331
 20
4806.49222936789
 30
0.0
 11
-19977.81752765471
 21
4823.39553845879
 31
0.0
  0
ARC
  5
31B
330
30F
100
AcDbEntity
  8
0
 62
     3
100
AcDbCircle
 10
-19967.58511303763
 20
4827.079615425631
 30
0.0
 40
3.467345454545453
100
AcDbArc
 50
0.0001220000018565
 51
90.00007600002845
  0
POINT
  5
31C
330
30F
100
AcDbEntity
  8
0
 62
     3
100
AcDbPoint
 10
-19964.11777218236
 20
4830.546965479428
 30
0.0
  0
ARC
  5
31D
330
30F
100
AcDbEntity
  8
0
 62
     3
100
AcDbCircle
 10
-19967.58508084281
 20
4802.808197243837
 30
0.0
 40
3.467345454545453
100
AcDbArc
 50
270.0
 51
0.0000760000024379
  0
LINE
  5
31E
330
30F
100
AcDbEntity
  8
0
 62
     3
100
AcDbLine
 10
-19969.3585973765
 20
4814.943954945381
 30
0.0
 11
-19974.2381736224
 21
4806.492253619516
 31
0.0
  0
LINE
  5
31F
330
30F
100
AcDbEntity
  8
0
 62
     3
100
AcDbLine
 10
-19969.35867409157
 20
4814.943993952926
 30
0.0
 11
-19974.23821944841
 21
4823.395583514457
 31
0.0
  0
LINE
  5
320
330
30F
100
AcDbEntity
  8
0
 62
     3
100
AcDbLine
 10
-19964.11773538827
 20
4802.808201843091
 30
0.0
 11
-19964.11776758309
 21
4827.079620024888
 31
0.0
  0
LINE
  5
321
330
30F
100
AcDbEntity
  8
0
 62
     3
100
AcDbLine
 10
-19983.99724581556
 20
4806.49222117078
 30
0.0
 11
-19988.87688219043
 21
4814.943968062987
 31
0.0
  0
LINE
  5
322
330
30F
100
AcDbEntity
  8
0
 62
     3
100
AcDbLine
 10
-19983.99734755254
 20
4823.395570569452
 30
0.0
 11
-19988.87682237877
 21
4814.94400837096
 31
0.0
  0
LINE
  5
323
330
30F
100
AcDbEntity
  8
0
 62
     3
100
AcDbLine
 10
-19980.41801432422
 20
4806.49222591845
 30
0.0
 11
-19980.41803674562
 21
4823.39553500934
 31
0.0
  0
LINE
  5
324
330
30F
100
AcDbEntity
  8
0
 62
     3
100
AcDbLine
 10
-19983.99738786037
 20
4823.395530261516
 30
0.0
 11
-19974.23823635166
 21
4823.395543206544
 31
0.0
  0
LINE
  5
325
330
30F
100
AcDbEntity
  8
0
 62
     3
100
AcDbLine
 10
-19983.99726531938
 20
4806.492221170746
 30
0.0
 11
-19974.23823343408
 21
4806.492234115622
 31
0.0
  0
LINE
  5
326
330
30F
100
AcDbEntity
  8
0
 62
     3
100
AcDbLine
 10
-19999.117730789
 20
4799.340794298523
 30
0.0
 11
-19967.58507624354
 21
4799.340851789295
 31
0.0
  0
CIRCLE
  5
327
330
30F
100
AcDbEntity
  8
0
 62
     3
100
AcDbCircle
 10
-19979.11775148564
 20
4814.94388218865
 30
0.0
 40
8.451635041636361
  0
LINE
  5
328
330
30F
100
AcDbEntity
  8
0
 62
     3
100
AcDbLine
 10
-19964.11803663987
 20
4945.546965479428
 30
0.0
 11
-19999.11803663987
 21
4945.546903389384
 31
0.0
  0
LINE
  5
329
330
30F
100
AcDbEntity
  8
0
 62
     3
100
AcDbLine
 10
-20020.41798242174
 20
4806.492151698106
 30
0.0
 11
-20020.41802163704
 21
4823.395460788976
 31
0.0
  0
LINE
  5
32A
330
30F
100
AcDbEntity
  8
0
 62
     3
100
AcDbLine
 10
-20028.8769210971
 20
4814.943846430745
 30
0.0
 11
-20023.99731403271
 21
4806.492162897959
 31
0.0
  0
LINE
  5
32B
330
30F
100
AcDbEntity
  8
0
 62
     3
100
AcDbLine
 10
-20028.87684438217
 20
4814.943885438569
 30
0.0
 11
-20023.99732984348
 21
4823.395492792954
 31
0.0
  0
LINE
  5
32C
330
30F
100
AcDbEntity
  8
0
 62
     3
100
AcDbLine
 10
-20014.23824183951
 20
4806.492166034975
 30
0.0
 11
-20009.35863628335
 21
4814.943930720367
 31
0.0
  0
LINE
  5
32D
330
30F
100
AcDbEntity
  8
0
 62
     3
100
AcDbLine
 10
-20014.23820173937
 20
4823.395515433906
 30
0.0
 11
-20009.35869609516
 21
4814.943971028122
 31
0.0
  0
LINE
  5
32E
330
30F
100
AcDbEntity
  8
0
 62
     3
100
AcDbLine
 10
-20017.81747333084
 20
4806.492157731236
 30
0.0
 11
-20017.81751254613
 21
4823.395466822095
 31
0.0
  0
LINE
  5
32F
330
30F
100
AcDbEntity
  8
0
 62
     3
100
AcDbLine
 10
-20014.23816143139
 20
4823.395475126116
 30
0.0
 11
-20023.99731294008
 21
4823.395452485102
 31
0.0
  0
LINE
  5
330
330
30F
100
AcDbEntity
  8
0
 62
     3
100
AcDbLine
 10
-20014.23822233568
 20
4806.492166035012
 30
0.0
 11
-20023.99725422097
 21
4806.492143394282
 31
0.0
  0
CIRCLE
  5
331
330
30F
100
AcDbEntity
  8
0
 62
     3
100
AcDbCircle
 10
-20019.11776698776
 20
4814.943809260066
 30
0.0
 40
8.451635041636359
  0
ENDBLK
  5
332
330
30F
100
AcDbEntity
  8
0
100
AcDbBlockEnd
  0
BLOCK
  5
334
330
333
100
AcDbEntity
  8
0
  6
Continuous
100
AcDbBlockBegin
  2
NXXXX80
 70
     0
 10
0.0
 20
0.0
 30
0.0
  3
NXXXX80
  1

  0
ATTDEF
  5
335
330
333
100
AcDbEntity
  8
0
  6
Continuous
 62
     7
100
AcDbText
 10
391.0630000000002
 20
1476.628
 30
0.0
 40
1.0
  1
XXXX80
100
AcDbAttributeDefinition
  3
XXXXXXXX
  2
GRUPPE
 70
     3
  0
LINE
  5
336
330
333
100
AcDbEntity
  8
TEXT
  6
Continuous
 62
     7
100
AcDbLine
 10
390.064
 20
1461.051
 30
0.0
 11
383.564
 21
1457.297999999999
 31
0.0
  0
POLYLINE
  5
337
330
333
100
AcDbEntity
  8
TEXT
  6
Continuous
 62
     7
100
AcDb2dPolyline
 66
     1
 10
0.0
 20
0.0
 30
0.0
  0
VERTEX
  5
338
330
337
100
AcDbEntity
  8
TEXT
  6
Continuous
 62
     7
100
AcDbVertex
100
AcDb2dVertex
 10
390.0630000000002
 20
1464.876
 30
0.0
  0
VERTEX
  5
339
330
337
100
AcDbEntity
  8
TEXT
  6
Continuous
 62
     7
100
AcDbVertex
100
AcDb2dVertex
 10
383.563
 20
1464.876
 30
0.0
  0
VERTEX
  5
33A
330
337
100
AcDbEntity
  8
TEXT
  6
Continuous
 62
     7
100
AcDbVertex
100
AcDb2dVertex
 10
383.563
 20
1472.298
 30
0.0
  0
VERTEX
  5
33B
330
337
100
AcDbEntity
  8
TEXT
  6
Continuous
 62
     7
100
AcDbVertex
100
AcDb2dVertex
 10
390.064
 20
1476.051
 30
0.0
  0
SEQEND
  5
33C
330
337
100
AcDbEntity
  8
TEXT
  6
Continuous
 62
     7
  0
ENDBLK
  5
33D
330
333
100
AcDbEntity
  8
AM_7
100
AcDbBlockEnd
  0
BLOCK
  5
33F
330
33E
100
AcDbEntity
  8
0
  6
Continuous
100
AcDbBlockBegin
  2
N_GF_5
 70
     0
 10
0.0
 20
0.0
 30
0.0
  3
N_GF_5
  1

  0
ATTDEF
  5
340
330
33E
100
AcDbEntity
  8
0
  6
Continuous
 62
     7
100
AcDbText
 10
528.064
 20
1508.627
 30
0.0
 40
1.0
  1
_GF_5
100
AcDbAttributeDefinition
  3
_GF_XXXX
  2
GRUPPE
 70
     3
  0
LINE
  5
341
330
33E
100
AcDbEntity
  8
TEXT
  6
Continuous
 62
     7
100
AcDbLine
 10
401.5629999999998
 20
1865.523
 30
0.0
 11
585.5629999999997
 21
1865.523
 31
0.0
  0
ENDBLK
  5
342
330
33E
100
AcDbEntity
  8
AM_7
100
AcDbBlockEnd
  0
BLOCK
  5
344
330
343
100
AcDbEntity
  8
0
  6
Continuous
100
AcDbBlockBegin
  2
NXXXX93
 70
     0
 10
0.0
 20
0.0
 30
0.0
  3
NXXXX93
  1

  0
ATTDEF
  5
345
330
343
100
AcDbEntity
  8
0
  6
VERDECKT
 62
     2
100
AcDbText
 10
788.0639999999997
 20
1793.523
 30
0.0
 40
1.0
  1
XXXX93
100
AcDbAttributeDefinition
  3
XXXXXXXX
  2
GRUPPE
 70
     3
  0
INSERT
  5
346
330
343
100
AcDbEntity
  8
0
100
AcDbBlockReference
  2
N_GF_5
 10
0.0
 20
0.0
 30
0.0
  0
LINE
  5
347
330
343
100
AcDbEntity
  8
TEXT
  6
Continuous
 62
     7
100
AcDbLine
 10
585.564
 20
1793.523
 30
0.0
 11
383.064
 21
1793.523
 31
0.0
  0
ENDBLK
  5
348
330
343
100
AcDbEntity
  8
AM_7
100
AcDbBlockEnd
  0
BLOCK
  5
34A
330
349
100
AcDbEntity
  8
0
  6
Continuous
100
AcDbBlockBegin
  2
N_GF_7
 70
     0
 10
0.0
 20
0.0
 30
0.0
  3
N_GF_7
  1

  0
ATTDEF
  5
34B
330
349
100
AcDbEntity
  8
0
  6
Continuous
 62
     7
100
AcDbText
 10
528.064
 20
1508.627
 30
0.0
 40
1.0
  1
_GF_7
100
AcDbAttributeDefinition
  3
_GF_XXXX
  2
GRUPPE
 70
     3
  0
LINE
  5
34C
330
349
100
AcDbEntity
  8
TEXT
  6
Continuous
 62
     7
100
AcDbLine
 10
769.564
 20
1865.523
 30
0.0
 11
585.564
 21
1865.523
 31
0.0
  0
ENDBLK
  5
34D
330
349
100
AcDbEntity
  8
AM_7
100
AcDbBlockEnd
  0
BLOCK
  5
34F
330
34E
100
AcDbEntity
  8
0
  6
Continuous
100
AcDbBlockBegin
  2
NXXXX95
 70
     0
 10
0.0
 20
0.0
 30
0.0
  3
NXXXX95
  1

  0
ATTDEF
  5
350
330
34E
100
AcDbEntity
  8
0
  6
VERDECKT
 62
     2
100
AcDbText
 10
383.064
 20
1793.523
 30
0.0
 40
1.0
  1
XXXX95
100
AcDbAttributeDefinition
  3
XXXXXXXX
  2
GRUPPE
 70
     3
  0
INSERT
  5
351
330
34E
100
AcDbEntity
  8
0
100
AcDbBlockReference
  2
N_GF_7
 10
0.0
 20
0.0
 30
0.0
  0
LINE
  5
352
330
34E
100
AcDbEntity
  8
TEXT
  6
Continuous
 62
     7
100
AcDbLine
 10
585.564
 20
1793.523
 30
0.0
 11
788.0639999999997
 21
1793.523
 31
0.0
  0
ENDBLK
  5
353
330
34E
100
AcDbEntity
  8
AM_7
100
AcDbBlockEnd
  0
BLOCK
  5
3B5
330
3B4
100
AcDbEntity
  8
0
100
AcDbBlockBegin
  2
storz1
 70
     0
 10
0.0
 20
0.0
 30
0.0
  3
storz1
  1

  0
ELLIPSE
  5
3B6
330
3B4
100
AcDbEntity
  8
4
100
AcDbEllipse
 10
6863.38061071804
 20
2574.659664047074
 30
0.0
 11
7.6273288286738
 21
1.565005681802724
 31
0.0
210
0.0
220
0.0
230
1.0
 40
0.4445804729482882
 41
0.0000000000000993
 42
6.283185307179685
  0
LINE
  5
3B7
330
3B4
100
AcDbEntity
  8
0
100
AcDbLine
 10
6892.213260704123
 20
2560.693530212578
 30
0.0
 11
6802.213260704106
 21
2560.693530212572
 31
0.0
  0
LINE
  5
3B8
330
3B4
100
AcDbEntity
  8
0
100
AcDbLine
 10
6802.213260704109
 20
2452.693530212574
 30
0.0
 11
6892.213260704124
 21
2452.693530212638
 31
0.0
  0
LINE
  5
3B9
330
3B4
100
AcDbEntity
  8
0
100
AcDbLine
 10
6775.213260704102
 20
2482.693530212607
 30
0.0
 11
6919.213260704089
 21
2482.693530212565
 31
0.0
  0
LINE
  5
3BA
330
3B4
100
AcDbEntity
  8
0
100
AcDbLine
 10
6772.213260704112
 20
2508.449878376435
 30
0.0
 11
6922.213260704096
 21
2508.449878376479
 31
0.0
  0
LINE
  5
3BB
330
3B4
100
AcDbEntity
  8
0
100
AcDbLine
 10
6772.213260704112
 20
2504.937182048752
 30
0.0
 11
6922.213260704096
 21
2504.937182048706
 31
0.0
  0
LINE
  5
3BC
330
3B4
100
AcDbEntity
  8
0
100
AcDbLine
 10
6919.213260704101
 20
2530.693530212572
 30
0.0
 11
6775.213260704091
 21
2530.693530212531
 31
0.0
  0
LINE
  5
3BD
330
3B4
100
AcDbEntity
  8
0
100
AcDbLine
 10
6811.828979982333
 20
2530.693530212551
 30
0.0
 11
6811.82897998233
 21
2560.693530212572
 31
0.0
  0
LINE
  5
3BE
330
3B4
100
AcDbEntity
  8
0
100
AcDbLine
 10
6799.213260704125
 20
2530.693530212578
 30
0.0
 11
6799.213260704107
 21
2557.693530212571
 31
0.0
  0
LINE
  5
3BF
330
3B4
100
AcDbEntity
  8
0
100
AcDbLine
 10
6811.828979982327
 20
2452.693530212605
 30
0.0
 11
6811.828979982337
 21
2482.693530212596
 31
0.0
  0
LINE
  5
3C0
330
3B4
100
AcDbEntity
  8
0
100
AcDbLine
 10
6799.213260704107
 20
2455.693530212578
 30
0.0
 11
6799.213260704125
 21
2482.693530212578
 31
0.0
  0
ARC
  5
3C1
330
3B4
100
AcDbEntity
  8
0
100
AcDbCircle
 10
6802.213260704107
 20
2455.693530212574
 30
0.0
 40
3.0
100
AcDbArc
 50
179.9999999999479
 51
270.0000000000521
1001
GENIUS_GENODEF_13
1002
{
1000
HIER
1070
     0
1002
}
1002
{
1000
MANEDIT
1070
     0
1002
}
1002
{
1000
NOSEL
1070
     0
1002
}
1002
{
1000
BEHIND
1070
     0
1002
}
1002
{
1000
REACTOR
1002
}
1001
GENIUS_GENOBJ-N-FIL_13
1002
{
1000
OWNER
1000
GEN
1002
}
  0
ARC
  5
3C2
330
3B4
100
AcDbEntity
  8
0
100
AcDbCircle
 10
6775.213260704092
 20
2527.69353021253
 30
0.0
 40
3.0
100
AcDbArc
 50
90.0
 51
180.0
1001
GENIUS_GENODEF_13
1002
{
1000
HIER
1070
     0
1002
}
1002
{
1000
MANEDIT
1070
     0
1002
}
1002
{
1000
NOSEL
1070
     0
1002
}
1002
{
1000
BEHIND
1070
     0
1002
}
1002
{
1000
REACTOR
1002
}
1001
GENIUS_GENOBJ-N-FIL_13
1002
{
1000
OWNER
1000
GEN
1002
}
  0
LINE
  5
3C3
330
3B4
100
AcDbEntity
  8
0
100
AcDbLine
 10
6779.548930858604
 20
2504.937182048728
 30
0.0
 11
6779.548930858604
 21
2508.449878376435
 31
0.0
  0
ARC
  5
3C4
330
3B4
100
AcDbEntity
  8
0
100
AcDbCircle
 10
6775.213260704103
 20
2485.693530212607
 30
0.0
 40
3.0
100
AcDbArc
 50
180.0
 51
269.9999999999479
1001
GENIUS_GENODEF_13
1002
{
1000
HIER
1070
     0
1002
}
1002
{
1000
MANEDIT
1070
     0
1002
}
1002
{
1000
NOSEL
1070
     0
1002
}
1002
{
1000
BEHIND
1070
     0
1002
}
1002
{
1000
REACTOR
1002
}
1001
GENIUS_GENOBJ-N-FIL_13
1002
{
1000
OWNER
1000
GEN
1002
}
  0
LINE
  5
3C5
330
3B4
100
AcDbEntity
  8
0
100
AcDbLine
 10
6772.213260704105
 20
2485.693530212605
 30
0.0
 11
6772.213260704098
 21
2504.937182048752
 31
0.0
  0
LINE
  5
3C6
330
3B4
100
AcDbEntity
  8
0
100
AcDbLine
 10
6772.213260704096
 20
2508.449878376435
 30
0.0
 11
6772.213260704091
 21
2527.693530212529
 31
0.0
  0
ARC
  5
3C7
330
3B4
100
AcDbEntity
  8
0
100
AcDbCircle
 10
6802.213260704107
 20
2557.693530212572
 30
0.0
 40
3.0
100
AcDbArc
 50
90.0
 51
180.0
1001
GENIUS_GENODEF_13
1002
{
1000
HIER
1070
     0
1002
}
1002
{
1000
MANEDIT
1070
     0
1002
}
1002
{
1000
NOSEL
1070
     0
1002
}
1002
{
1000
BEHIND
1070
     0
1002
}
1002
{
1000
REACTOR
1002
}
1001
GENIUS_GENOBJ-N-FIL_13
1002
{
1000
OWNER
1000
GEN
1002
}
  0
ELLIPSE
  5
3C8
330
3B4
100
AcDbEntity
  8
4
100
AcDbEllipse
 10
6847.155371031428
 20
2560.522891281981
 30
0.0
 11
2.961714637804723
 21
7.200946760599778
 31
0.0
210
0.0
220
0.0
230
0.9999999999999998
 40
0.4445804729484612
 41
-1.366628173445661
 42
1.728339767988274
  0
LINE
  5
3C9
330
3B4
100
AcDbEntity
  8
4
100
AcDbLine
 10
6855.513989797827
 20
2572.845567869589
 30
0.0
 11
6849.919638903497
 21
2567.243777056964
 31
0.0
  0
LINE
  5
3CA
330
3B4
100
AcDbEntity
  8
4
100
AcDbLine
 10
6955.381742804664
 20
2540.359636389895
 30
0.0
 11
6948.125943408467
 21
2555.141455931692
 31
0.0
  0
LINE
  5
3CB
330
3B4
100
AcDbEntity
  8
0
100
AcDbLine
 10
6882.597541425887
 20
2530.693530212554
 30
0.0
 11
6882.597541425886
 21
2560.693530212578
 31
0.0
  0
LINE
  5
3CC
330
3B4
100
AcDbEntity
  8
0
100
AcDbLine
 10
6895.213260704103
 20
2530.693530212572
 30
0.0
 11
6895.213260704124
 21
2557.693530212576
 31
0.0
  0
LINE
  5
3CD
330
3B4
100
AcDbEntity
  8
0
100
AcDbLine
 10
6895.213260704103
 20
2482.693530212538
 30
0.0
 11
6895.213260704124
 21
2455.69353021264
 31
0.0
  0
LINE
  5
3CE
330
3B4
100
AcDbEntity
  8
0
100
AcDbLine
 10
6882.597541425901
 20
2452.693530212611
 30
0.0
 11
6882.597541425891
 21
2482.6935302126
 31
0.0
  0
ARC
  5
3CF
330
3B4
100
AcDbEntity
  8
0
100
AcDbCircle
 10
6892.213260704123
 20
2455.693530212638
 30
0.0
 40
3.0
100
AcDbArc
 50
270.0000000000521
 51
0.0000000000521102
1001
GENIUS_GENODEF_13
1002
{
1000
HIER
1070
     0
1002
}
1002
{
1000
MANEDIT
1070
     0
1002
}
1002
{
1000
NOSEL
1070
     0
1002
}
1002
{
1000
BEHIND
1070
     0
1002
}
1002
{
1000
REACTOR
1002
}
1001
GENIUS_GENOBJ-N-FIL_13
1002
{
1000
OWNER
1000
GEN
1002
}
  0
ARC
  5
3D0
330
3B4
100
AcDbEntity
  8
0
100
AcDbCircle
 10
6919.213260704103
 20
2527.693530212572
 30
0.0
 40
3.0
100
AcDbArc
 50
359.9999999999479
 51
90.0
1001
GENIUS_GENODEF_13
1002
{
1000
HIER
1070
     0
1002
}
1002
{
1000
MANEDIT
1070
     0
1002
}
1002
{
1000
NOSEL
1070
     0
1002
}
1002
{
1000
BEHIND
1070
     0
1002
}
1002
{
1000
REACTOR
1002
}
1001
GENIUS_GENOBJ-N-FIL_13
1002
{
1000
OWNER
1000
GEN
1002
}
  0
ARC
  5
3D1
330
3B4
100
AcDbEntity
  8
0
100
AcDbCircle
 10
6919.21326070409
 20
2485.693530212565
 30
0.0
 40
3.0
100
AcDbArc
 50
269.9999999999479
 51
359.9999999999479
1001
GENIUS_GENODEF_13
1002
{
1000
HIER
1070
     0
1002
}
1002
{
1000
MANEDIT
1070
     0
1002
}
1002
{
1000
NOSEL
1070
     0
1002
}
1002
{
1000
BEHIND
1070
     0
1002
}
1002
{
1000
REACTOR
1002
}
1001
GENIUS_GENOBJ-N-FIL_13
1002
{
1000
OWNER
1000
GEN
1002
}
  0
LINE
  5
3D2
330
3B4
100
AcDbEntity
  8
0
100
AcDbLine
 10
6914.877590549619
 20
2504.937182048737
 30
0.0
 11
6914.877590549619
 21
2508.449878376444
 31
0.0
  0
LINE
  5
3D3
330
3B4
100
AcDbEntity
  8
0
100
AcDbLine
 10
6922.213260704096
 20
2504.937182048706
 30
0.0
 11
6922.21326070409
 21
2485.693530212563
 31
0.0
  0
LINE
  5
3D4
330
3B4
100
AcDbEntity
  8
0
100
AcDbLine
 10
6922.213260704103
 20
2527.69353021257
 30
0.0
 11
6922.213260704097
 21
2508.449878376479
 31
0.0
  0
ELLIPSE
  5
3D5
330
3B4
100
AcDbEntity
  8
4
100
AcDbEllipse
 10
6941.783253882464
 20
2505.546703307998
 30
0.0
 11
-4.581756260385158
 21
-6.29546641760677
 31
0.0
210
0.0
220
0.0
230
0.9999999999999998
 40
0.4445804729482882
 41
0.0000000000001041
 42
6.28318530717969
  0
LINE
  5
3D6
330
3B4
100
AcDbEntity
  8
4
100
AcDbLine
 10
6922.799619419439
 20
2499.670932787865
 30
0.0
 11
6937.506946683061
 21
2499.670932787865
 31
0.0
  0
LINE
  5
3D7
330
3B4
100
AcDbEntity
  8
4
100
AcDbLine
 10
6946.504376074895
 20
2512.998116303647
 30
0.0
 11
6950.88136047326
 21
2527.039038026092
 31
0.0
  0
ELLIPSE
  5
3D8
330
3B4
100
AcDbEntity
  8
4
100
AcDbEllipse
 10
6953.044105995932
 20
2533.976906162133
 30
0.0
 11
-2.317226610730545
 21
-7.433427787993601
 31
0.0
210
0.0
220
0.0
230
1.0
 40
0.4445804729482882
 41
0.0000000000000362
 42
6.283185307179622
  0
ELLIPSE
  5
3D9
330
3B4
100
AcDbEntity
  8
4
100
AcDbEllipse
 10
6920.998745606455
 20
2570.594328799746
 30
0.0
 11
7.075541348441768
 21
-3.249938841160563
 31
0.0
210
0.0
220
0.0
230
1.0
 40
0.4445804729482882
 41
-0.0000000000000357
 42
6.28318530717955
  0
ELLIPSE
  5
3DA
330
3B4
100
AcDbEntity
  8
4
100
AcDbEllipse
 10
6892.742051851373
 20
2578.262263995649
 30
0.0
 11
7.616557849065214
 21
-1.616612005595749
 31
0.0
210
0.0
220
0.0
230
1.0
 40
0.4445804729482882
 41
0.0000000000002194
 42
6.283185307179805
  0
LINE
  5
3DB
330
3B4
100
AcDbEntity
  8
4
100
AcDbLine
 10
6884.906632526815
 20
2579.076458863982
 30
0.0
 11
6870.499453216118
 21
2576.120336480058
 31
0.0
  0
ARC
  5
3DC
330
3B4
100
AcDbEntity
  8
0
100
AcDbCircle
 10
6892.213260704123
 20
2557.693530212578
 30
0.0
 40
3.0
100
AcDbArc
 50
359.9999999999479
 51
90.0
1001
GENIUS_GENODEF_13
1002
{
1000
HIER
1070
     0
1002
}
1002
{
1000
MANEDIT
1070
     0
1002
}
1002
{
1000
NOSEL
1070
     0
1002
}
1002
{
1000
BEHIND
1070
     0
1002
}
1002
{
1000
REACTOR
1002
}
1001
GENIUS_GENOBJ-N-FIL_13
1002
{
1000
OWNER
1000
GEN
1002
}
  0
LINE
  5
3DD
330
3B4
100
AcDbEntity
  8
4
100
AcDbLine
 10
6914.237675555232
 20
2573.699824631825
 30
0.0
 11
6899.85084143196
 21
2576.753425645181
 31
0.0
  0
ELLIPSE
  5
3DE
330
3B4
100
AcDbEntity
  8
4
100
AcDbEllipse
 10
6944.945394655161
 20
2561.675642345989
 30
0.0
 11
3.407729726234052
 21
-7.000911794740315
 31
0.0
210
0.0
220
0.0
230
0.9999999999999998
 40
0.4445804729482882
 41
0.0000000000000693
 42
6.283185307179655
  0
LINE
  5
3DF
330
3B4
100
AcDbEntity
  8
4
100
AcDbLine
 10
6940.967500172651
 20
2568.422277096795
 30
0.0
 11
6927.602586292967
 21
2567.561051585889
 31
0.0
  0
ENDBLK
  5
3E0
330
3B4
100
AcDbEntity
  8
0
100
AcDbBlockEnd
  0
BLOCK
  5
F98
330
F8E
100
AcDbEntity
  8
0
100
AcDbBlockBegin
  2
*D19
 70
     1
 10
0.0
 20
0.0
 30
0.0
  3
*D19
  1

  0
LINE
  5
FEE
330
F8E
100
AcDbEntity
  8
AM_5
 62
     3
100
AcDbLine
 10
1444.64870304731
 20
2931.657076113586
 30
0.0
 11
1146.428537534786
 21
2931.657076113586
 31
0.0
  0
LINE
  5
FEF
330
F8E
100
AcDbEntity
  8
AM_5
 62
     3
100
AcDbLine
 10
1322.14870304731
 20
3936.657076113586
 30
0.0
 11
1146.428537534786
 21
3936.657076113586
 31
0.0
  0
LINE
  5
FF0
330
F8E
100
AcDbEntity
  8
AM_5
 62
     3
100
AcDbLine
 10
1156.428537534786
 20
2956.657076113586
 30
0.0
 11
1156.428537534786
 21
3911.657076113586
 31
0.0
  0
SOLID
  5
FF1
330
F8E
100
AcDbEntity
  8
AM_5
 62
     3
100
AcDbTrace
 10
1152.261870868119
 20
2956.657076113586
 30
0.0
 11
1160.595204201452
 21
2956.657076113586
 31
0.0
 12
1156.428537534786
 22
2931.657076113586
 32
0.0
 13
1156.428537534786
 23
2931.657076113586
 33
0.0
  0
SOLID
  5
FF2
330
F8E
100
AcDbEntity
  8
AM_5
 62
     3
100
AcDbTrace
 10
1152.261870868119
 20
3911.657076113586
 30
0.0
 11
1160.595204201453
 21
3911.657076113586
 31
0.0
 12
1156.428537534786
 22
3936.657076113586
 32
0.0
 13
1156.428537534786
 23
3936.657076113586
 33
0.0
  0
MTEXT
  5
FF3
330
F8E
100
AcDbEntity
  8
AM_5
 62
     2
100
AcDbMText
 10
1123.928537534785
 20
3536.657076108863
 30
0.0
 40
35.0
 41
0.0
 71
     5
 72
     1
  1
1000
 11
0.0000000000000001
 21
1.0
 31
0.0
 73
     1
 44
1.0
1001
ACAD
1000
MTEXTBEGIN
1070
    73
1070
     1
1070
    44
1040
1.0
1070
    74
1070
     0
1000
MTEXTEND
  0
POINT
  5
FF4
330
F8E
100
AcDbEntity
  8
DEFPOINTS
 62
     0
100
AcDbPoint
 10
1454.64870304731
 20
2931.657076113586
 30
0.0
  0
POINT
  5
FF5
330
F8E
100
AcDbEntity
  8
DEFPOINTS
 62
     0
100
AcDbPoint
 10
1332.14870304731
 20
3936.657076113586
 30
0.0
  0
POINT
  5
FF6
330
F8E
100
AcDbEntity
  8
DEFPOINTS
 62
     0
100
AcDbPoint
 10
1156.428537534786
 20
3936.657076113586
 30
0.0
  0
ENDBLK
  5
F99
330
F8E
100
AcDbEntity
  8
0
100
AcDbBlockEnd
  0
BLOCK
  5
FA4
330
F9A
100
AcDbEntity
  8
0
100
AcDbBlockBegin
  2
*D20
 70
     1
 10
0.0
 20
0.0
 30
0.0
  3
*D20
  1

  0
LINE
  5
FF7
330
F9A
100
AcDbEntity
  8
AM_5
 62
     3
100
AcDbLine
 10
1322.147982085679
 20
3931.657076108863
 30
0.0
 11
1215.808321658343
 21
3931.657076108863
 31
0.0
  0
LINE
  5
FF8
330
F9A
100
AcDbEntity
  8
AM_5
 62
     3
100
AcDbLine
 10
1322.147982085679
 20
4041.657076108861
 30
0.0
 11
1215.808321658343
 21
4041.657076108861
 31
0.0
  0
LINE
  5
FF9
330
F9A
100
AcDbEntity
  8
AM_5
 62
     3
100
AcDbLine
 10
1225.808321658343
 20
3956.657076108863
 30
0.0
 11
1225.808321658343
 21
4016.65707610886
 31
0.0
  0
SOLID
  5
FFA
330
F9A
100
AcDbEntity
  8
AM_5
 62
     3
100
AcDbTrace
 10
1221.641654991677
 20
3956.657076108863
 30
0.0
 11
1229.97498832501
 21
3956.657076108863
 31
0.0
 12
1225.808321658343
 22
3931.657076108863
 32
0.0
 13
1225.808321658343
 23
3931.657076108863
 33
0.0
  0
SOLID
  5
FFB
330
F9A
100
AcDbEntity
  8
AM_5
 62
     3
100
AcDbTrace
 10
1221.641654991677
 20
4016.65707610886
 30
0.0
 11
1229.97498832501
 21
4016.65707610886
 31
0.0
 12
1225.808321658343
 22
4041.657076108861
 32
0.0
 13
1225.808321658343
 23
4041.657076108861
 33
0.0
  0
MTEXT
  5
FFC
330
F9A
100
AcDbEntity
  8
AM_5
 62
     2
100
AcDbMText
 10
1193.308321658342
 20
3988.877707619191
 30
0.0
 40
35.0
 41
0.0
 71
     5
 72
     1
  1
%%c110
 11
0.0000000000000001
 21
1.0
 31
0.0
 73
     1
 44
1.0
1001
ACAD
1000
MTEXTBEGIN
1070
    73
1070
     1
1070
    44
1040
1.0
1070
    74
1070
     0
1000
MTEXTEND
  0
POINT
  5
FFD
330
F9A
100
AcDbEntity
  8
DEFPOINTS
 62
     0
100
AcDbPoint
 10
1332.147982085679
 20
3931.657076108863
 30
0.0
  0
POINT
  5
FFE
330
F9A
100
AcDbEntity
  8
DEFPOINTS
 62
     0
100
AcDbPoint
 10
1332.147982085679
 20
4041.657076108861
 30
0.0
  0
POINT
  5
FFF
330
F9A
100
AcDbEntity
  8
DEFPOINTS
 62
     0
100
AcDbPoint
 10
1225.808321658343
 20
4041.657076108861
 30
0.0
  0
ENDBLK
  5
FA5
330
F9A
100
AcDbEntity
  8
0
100
AcDbBlockEnd
  0
BLOCK
  5
FB0
330
FA6
100
AcDbEntity
  8
0
100
AcDbBlockBegin
  2
*D21
 70
     1
 10
0.0
 20
0.0
 30
0.0
  3
*D21
  1

  0
LINE
  5
1000
330
FA6
100
AcDbEntity
  8
AM_5
 62
     3
100
AcDbLine
 10
3388.116689754129
 20
2933.134890816868
 30
0.0
 11
3806.665108626363
 21
2933.134890816868
 31
0.0
  0
LINE
  5
1001
330
FA6
100
AcDbEntity
  8
AM_5
 62
     3
100
AcDbLine
 10
3486.64870304731
 20
3866.657076113586
 30
0.0
 11
3806.665108626363
 21
3866.657076113586
 31
0.0
  0
LINE
  5
1002
330
FA6
100
AcDbEntity
  8
AM_5
 62
     3
100
AcDbLine
 10
3796.665108626362
 20
2958.134890816868
 30
0.0
 11
3796.665108626363
 21
3841.657076113587
 31
0.0
  0
SOLID
  5
1003
330
FA6
100
AcDbEntity
  8
AM_5
 62
     3
100
AcDbTrace
 10
3792.498441959696
 20
2958.134890816868
 30
0.0
 11
3800.831775293029
 21
2958.134890816868
 31
0.0
 12
3796.665108626362
 22
2933.134890816868
 32
0.0
 13
3796.665108626362
 23
2933.134890816868
 33
0.0
  0
SOLID
  5
1004
330
FA6
100
AcDbEntity
  8
AM_5
 62
     3
100
AcDbTrace
 10
3792.498441959696
 20
3841.657076113587
 30
0.0
 11
3800.83177529303
 21
3841.657076113587
 31
0.0
 12
3796.665108626363
 22
3866.657076113586
 32
0.0
 13
3796.665108626363
 23
3866.657076113586
 33
0.0
  0
MTEXT
  5
1005
330
FA6
100
AcDbEntity
  8
AM_5
 62
     2
100
AcDbMText
 10
3764.165108626362
 20
3501.657076113588
 30
0.0
 40
35.0
 41
0.0
 71
     5
 72
     1
  1
930
 11
0.0000000000000001
 21
1.0
 31
0.0
 73
     1
 44
1.0
1001
ACAD
1000
MTEXTBEGIN
1070
    73
1070
     1
1070
    44
1040
1.0
1070
    74
1070
     0
1000
MTEXTEND
  0
POINT
  5
1006
330
FA6
100
AcDbEntity
  8
DEFPOINTS
 62
     0
100
AcDbPoint
 10
3378.116689754129
 20
2933.134890816868
 30
0.0
  0
POINT
  5
1007
330
FA6
100
AcDbEntity
  8
DEFPOINTS
 62
     0
100
AcDbPoint
 10
3476.64870304731
 20
3866.657076113586
 30
0.0
  0
POINT
  5
1008
330
FA6
100
AcDbEntity
  8
DEFPOINTS
 62
     0
100
AcDbPoint
 10
3796.665108626363
 20
3866.657076113586
 30
0.0
  0
ENDBLK
  5
FB1
330
FA6
100
AcDbEntity
  8
0
100
AcDbBlockEnd
  0
BLOCK
  5
FBC
330
FB2
100
AcDbEntity
  8
0
100
AcDbBlockBegin
  2
*D22
 70
     1
 10
0.0
 20
0.0
 30
0.0
  3
*D22
  1

  0
LINE
  5
1009
330
FB2
100
AcDbEntity
  8
AM_5
 62
     3
100
AcDbLine
 10
3486.64870304731
 20
3861.657076113586
 30
0.0
 11
3641.171131995394
 21
3861.657076113586
 31
0.0
  0
LINE
  5
100A
330
FB2
100
AcDbEntity
  8
AM_5
 62
     3
100
AcDbLine
 10
3486.64870304731
 20
3971.657076113586
 30
0.0
 11
3641.171131995394
 21
3971.657076113586
 31
0.0
  0
LINE
  5
100B
330
FB2
100
AcDbEntity
  8
AM_5
 62
     3
100
AcDbLine
 10
3631.171131995394
 20
3886.657076113586
 30
0.0
 11
3631.171131995394
 21
3946.657076113586
 31
0.0
  0
SOLID
  5
100C
330
FB2
100
AcDbEntity
  8
AM_5
 62
     3
100
AcDbTrace
 10
3627.004465328727
 20
3886.657076113586
 30
0.0
 11
3635.33779866206
 21
3886.657076113586
 31
0.0
 12
3631.171131995394
 22
3861.657076113586
 32
0.0
 13
3631.171131995394
 23
3861.657076113586
 33
0.0
  0
SOLID
  5
100D
330
FB2
100
AcDbEntity
  8
AM_5
 62
     3
100
AcDbTrace
 10
3627.004465328727
 20
3946.657076113586
 30
0.0
 11
3635.33779866206
 21
3946.657076113586
 31
0.0
 12
3631.171131995394
 22
3971.657076113586
 32
0.0
 13
3631.171131995394
 23
3971.657076113586
 33
0.0
  0
MTEXT
  5
100E
330
FB2
100
AcDbEntity
  8
AM_5
 62
     2
100
AcDbMText
 10
3598.671131995394
 20
3916.657076113587
 30
0.0
 40
35.0
 41
0.0
 71
     5
 72
     1
  1
%%c110
 11
0.0000000000000001
 21
1.0
 31
0.0
 73
     1
 44
1.0
1001
ACAD
1000
MTEXTBEGIN
1070
    73
1070
     1
1070
    44
1040
1.0
1070
    74
1070
     0
1000
MTEXTEND
  0
POINT
  5
100F
330
FB2
100
AcDbEntity
  8
DEFPOINTS
 62
     0
100
AcDbPoint
 10
3476.64870304731
 20
3861.657076113586
 30
0.0
  0
POINT
  5
1010
330
FB2
100
AcDbEntity
  8
DEFPOINTS
 62
     0
100
AcDbPoint
 10
3476.64870304731
 20
3971.657076113586
 30
0.0
  0
POINT
  5
1011
330
FB2
100
AcDbEntity
  8
DEFPOINTS
 62
     0
100
AcDbPoint
 10
3631.171131995394
 20
3971.657076113586
 30
0.0
  0
ENDBLK
  5
FBD
330
FB2
100
AcDbEntity
  8
0
100
AcDbBlockEnd
  0
BLOCK
  5
FC8
330
FBE
100
AcDbEntity
  8
0
100
AcDbBlockBegin
  2
*D23
 70
     1
 10
0.0
 20
0.0
 30
0.0
  3
*D23
  1

  0
LINE
  5
1012
330
FBE
100
AcDbEntity
  8
AM_5
 62
     3
100
AcDbLine
 10
3388.116689754129
 20
2933.134890816868
 30
0.0
 11
3897.367428042318
 21
2933.134890816868
 31
0.0
  0
LINE
  5
1013
330
FBE
100
AcDbEntity
  8
AM_5
 62
     3
100
AcDbLine
 10
2362.148703047324
 20
4259.150924048356
 30
0.0
 11
3897.367428042318
 21
4259.150924048356
 31
0.0
  0
LINE
  5
1014
330
FBE
100
AcDbEntity
  8
AM_5
 62
     3
100
AcDbLine
 10
3887.367428042318
 20
2958.134890816868
 30
0.0
 11
3887.367428042318
 21
4234.150924048356
 31
0.0
  0
SOLID
  5
1015
330
FBE
100
AcDbEntity
  8
AM_5
 62
     3
100
AcDbTrace
 10
3883.200761375652
 20
2958.134890816868
 30
0.0
 11
3891.534094708985
 21
2958.134890816868
 31
0.0
 12
3887.367428042318
 22
2933.134890816868
 32
0.0
 13
3887.367428042318
 23
2933.134890816868
 33
0.0
  0
SOLID
  5
1016
330
FBE
100
AcDbEntity
  8
AM_5
 62
     3
100
AcDbTrace
 10
3883.200761375652
 20
4234.150924048356
 30
0.0
 11
3891.534094708985
 21
4234.150924048356
 31
0.0
 12
3887.367428042318
 22
4259.150924048356
 32
0.0
 13
3887.367428042318
 23
4259.150924048356
 33
0.0
  0
MTEXT
  5
1017
330
FBE
100
AcDbEntity
  8
AM_5
 62
     2
100
AcDbMText
 10
3854.867428042318
 20
3601.657076113587
 30
0.0
 40
35.0
 41
0.0
 71
     5
 72
     1
  1
1350
 11
0.0000000000000001
 21
1.0
 31
0.0
 73
     1
 44
1.0
1001
ACAD
1000
MTEXTBEGIN
1070
    73
1070
     1
1070
    44
1040
1.0
1070
    74
1070
     0
1000
MTEXTEND
  0
POINT
  5
1018
330
FBE
100
AcDbEntity
  8
DEFPOINTS
 62
     0
100
AcDbPoint
 10
3378.116689754129
 20
2933.134890816868
 30
0.0
  0
POINT
  5
1019
330
FBE
100
AcDbEntity
  8
DEFPOINTS
 62
     0
100
AcDbPoint
 10
2352.148703047324
 20
4259.150924048356
 30
0.0
  0
POINT
  5
101A
330
FBE
100
AcDbEntity
  8
DEFPOINTS
 62
     0
100
AcDbPoint
 10
3887.367428042318
 20
4259.150924048356
 30
0.0
  0
ENDBLK
  5
FC9
330
FBE
100
AcDbEntity
  8
0
100
AcDbBlockEnd
  0
BLOCK
  5
FD4
330
FCA
100
AcDbEntity
  8
0
100
AcDbBlockBegin
  2
*D24
 70
     1
 10
0.0
 20
0.0
 30
0.0
  3
*D24
  1

  0
LINE
  5
101B
330
FCA
100
AcDbEntity
  8
AM_5
 62
     3
100
AcDbLine
 10
1424.14870304731
 20
2946.657076113591
 30
0.0
 11
1424.14870304731
 21
2822.776219667037
 31
0.0
  0
LINE
  5
101C
330
FCA
100
AcDbEntity
  8
AM_5
 62
     3
100
AcDbLine
 10
3390.148703047309
 20
2947.157076113587
 30
0.0
 11
3390.148703047309
 21
2822.776219667037
 31
0.0
  0
LINE
  5
101D
330
FCA
100
AcDbEntity
  8
AM_5
 62
     3
100
AcDbLine
 10
1449.14870304731
 20
2832.776219667037
 30
0.0
 11
3365.148703047309
 21
2832.776219667037
 31
0.0
  0
SOLID
  5
101E
330
FCA
100
AcDbEntity
  8
AM_5
 62
     3
100
AcDbTrace
 10
1449.14870304731
 20
2836.942886333704
 30
0.0
 11
1449.14870304731
 21
2828.609553000371
 31
0.0
 12
1424.14870304731
 22
2832.776219667037
 32
0.0
 13
1424.14870304731
 23
2832.776219667037
 33
0.0
  0
SOLID
  5
101F
330
FCA
100
AcDbEntity
  8
AM_5
 62
     3
100
AcDbTrace
 10
3365.148703047309
 20
2836.942886333704
 30
0.0
 11
3365.148703047309
 21
2828.609553000371
 31
0.0
 12
3390.148703047309
 22
2832.776219667037
 32
0.0
 13
3390.148703047309
 23
2832.776219667037
 33
0.0
  0
MTEXT
  5
1020
330
FCA
100
AcDbEntity
  8
AM_5
 62
     2
100
AcDbMText
 10
2407.148703047309
 20
2865.279664548927
 30
0.0
 40
35.0
 41
0.0
 71
     5
 72
     1
  1
2000
 73
     1
 44
1.0
1001
ACAD
1000
MTEXTBEGIN
1070
    73
1070
     1
1070
    44
1040
1.0
1070
    74
1070
     0
1000
MTEXTEND
  0
POINT
  5
1021
330
FCA
100
AcDbEntity
  8
DEFPOINTS
 62
     0
100
AcDbPoint
 10
1424.14870304731
 20
2956.657076113592
 30
0.0
  0
POINT
  5
1022
330
FCA
100
AcDbEntity
  8
DEFPOINTS
 62
     0
100
AcDbPoint
 10
3390.148703047309
 20
2957.157076113587
 30
0.0
  0
POINT
  5
1023
330
FCA
100
AcDbEntity
  8
DEFPOINTS
 62
     0
100
AcDbPoint
 10
3390.148703047309
 20
2832.776219667037
 30
0.0
  0
ENDBLK
  5
FD5
330
FCA
100
AcDbEntity
  8
0
100
AcDbBlockEnd
  0
BLOCK
  5
FE0
330
FD6
100
AcDbEntity
  8
0
100
AcDbBlockBegin
  2
*D25
 70
     1
 10
0.0
 20
0.0
 30
0.0
  3
*D25
  1

  0
LINE
  5
1024
330
FD6
100
AcDbEntity
  8
AM_5
 62
     3
100
AcDbLine
 10
1332.148703047308
 20
1533.405511135667
 30
0.0
 11
1332.148703047308
 21
994.4009413562531
 31
0.0
  0
LINE
  5
1025
330
FD6
100
AcDbEntity
  8
AM_5
 62
     3
100
AcDbLine
 10
3476.64870304731
 20
1533.405511135666
 30
0.0
 11
3476.64870304731
 21
994.4009413562531
 31
0.0
  0
LINE
  5
1026
330
FD6
100
AcDbEntity
  8
AM_5
 62
     3
100
AcDbLine
 10
1357.148703047308
 20
1004.400941356253
 30
0.0
 11
3451.64870304731
 21
1004.400941356253
 31
0.0
  0
SOLID
  5
1027
330
FD6
100
AcDbEntity
  8
AM_5
 62
     3
100
AcDbTrace
 10
1357.148703047308
 20
1008.56760802292
 30
0.0
 11
1357.148703047308
 21
1000.234274689586
 31
0.0
 12
1332.148703047308
 22
1004.400941356253
 32
0.0
 13
1332.148703047308
 23
1004.400941356253
 33
0.0
  0
SOLID
  5
1028
330
FD6
100
AcDbEntity
  8
AM_5
 62
     3
100
AcDbTrace
 10
3451.64870304731
 20
1008.56760802292
 30
0.0
 11
3451.64870304731
 21
1000.234274689586
 31
0.0
 12
3476.64870304731
 22
1004.400941356253
 32
0.0
 13
3476.64870304731
 23
1004.400941356253
 33
0.0
  0
MTEXT
  5
1029
330
FD6
100
AcDbEntity
  8
AM_5
 62
     2
100
AcDbMText
 10
2321.407165160001
 20
1036.904386238143
 30
0.0
 40
35.0
 41
0.0
 71
     5
 72
     1
  1
2160
 73
     1
 44
1.0
1001
ACAD
1000
MTEXTBEGIN
1070
    73
1070
     1
1070
    44
1040
1.0
1070
    74
1070
     0
1000
MTEXTEND
  0
POINT
  5
102A
330
FD6
100
AcDbEntity
  8
DEFPOINTS
 62
     0
100
AcDbPoint
 10
1332.148703047308
 20
1543.405511135667
 30
0.0
  0
POINT
  5
102B
330
FD6
100
AcDbEntity
  8
DEFPOINTS
 62
     0
100
AcDbPoint
 10
3476.64870304731
 20
1543.405511135666
 30
0.0
  0
POINT
  5
102C
330
FD6
100
AcDbEntity
  8
DEFPOINTS
 62
     0
100
AcDbPoint
 10
3476.64870304731
 20
1004.400941356253
 30
0.0
  0
ENDBLK
  5
FE1
330
FD6
100
AcDbEntity
  8
0
100
AcDbBlockEnd
  0
BLOCK
  5
FEC
330
FE2
100
AcDbEntity
  8
0
100
AcDbBlockBegin
  2
*D26
 70
     1
 10
0.0
 20
0.0
 30
0.0
  3
*D26
  1

  0
LINE
  5
102D
330
FE2
100
AcDbEntity
  8
AM_5
 62
     3
100
AcDbLine
 10
1937.14870304731
 20
1948.405511135668
 30
0.0
 11
1061.928748437214
 21
1948.405511135668
 31
0.0
  0
LINE
  5
102E
330
FE2
100
AcDbEntity
  8
AM_5
 62
     3
100
AcDbLine
 10
1932.14870304731
 20
1248.405511135668
 30
0.0
 11
1061.928748437213
 21
1248.405511135668
 31
0.0
  0
LINE
  5
102F
330
FE2
100
AcDbEntity
  8
AM_5
 62
     3
100
AcDbLine
 10
1071.928748437214
 20
1923.405511135668
 30
0.0
 11
1071.928748437213
 21
1273.405511135668
 31
0.0
  0
SOLID
  5
1030
330
FE2
100
AcDbEntity
  8
AM_5
 62
     3
100
AcDbTrace
 10
1067.762081770547
 20
1923.405511135668
 30
0.0
 11
1076.09541510388
 21
1923.405511135668
 31
0.0
 12
1071.928748437214
 22
1948.405511135668
 32
0.0
 13
1071.928748437214
 23
1948.405511135668
 33
0.0
  0
SOLID
  5
1031
330
FE2
100
AcDbEntity
  8
AM_5
 62
     3
100
AcDbTrace
 10
1067.762081770547
 20
1273.405511135668
 30
0.0
 11
1076.09541510388
 21
1273.405511135668
 31
0.0
 12
1071.928748437213
 22
1248.405511135668
 32
0.0
 13
1071.928748437213
 23
1248.405511135668
 33
0.0
  0
MTEXT
  5
1032
330
FE2
100
AcDbEntity
  8
AM_5
 62
     2
100
AcDbMText
 10
1039.428748437213
 20
1598.405511135667
 30
0.0
 40
35.0
 41
0.0
 71
     5
 72
     1
  1
700
 11
0.0000000000000001
 21
1.0
 31
0.0
 73
     1
 44
1.0
1001
ACAD
1000
MTEXTBEGIN
1070
    73
1070
     1
1070
    44
1040
1.0
1070
    74
1070
     0
1000
MTEXTEND
  0
POINT
  5
1033
330
FE2
100
AcDbEntity
  8
DEFPOINTS
 62
     0
100
AcDbPoint
 10
1947.14870304731
 20
1948.405511135668
 30
0.0
  0
POINT
  5
1034
330
FE2
100
AcDbEntity
  8
DEFPOINTS
 62
     0
100
AcDbPoint
 10
1942.14870304731
 20
1248.405511135668
 30
0.0
  0
POINT
  5
1035
330
FE2
100
AcDbEntity
  8
DEFPOINTS
 62
     0
100
AcDbPoint
 10
1071.928748437213
 20
1248.405511135668
 30
0.0
  0
ENDBLK
  5
FED
330
FE2
100
AcDbEntity
  8
0
100
AcDbBlockEnd
  0
ENDSEC
  0
SECTION
  2
ENTITIES
  0
LINE
  5
9C7
330
1F
100
AcDbEntity
  8
0
100
AcDbLine
 10
1332.14870304731
 20
3931.657076113586
 30
0.0
 11
1332.14870304731
 21
4041.657076113586
 31
0.0
  0
LINE
  5
9C8
330
1F
100
AcDbEntity
  8
0
100
AcDbLine
 10
1424.14870304731
 20
2957.157076113587
 30
0.0
 11
1424.14870304731
 21
3184.336568038087
 31
0.0
  0
LINE
  5
9C9
330
1F
100
AcDbEntity
  8
0
100
AcDbLine
 10
1469.56504561931
 20
4059.019939422086
 30
0.0
 11
1476.71955803181
 21
4110.273428314586
 31
0.0
  0
LINE
  5
9CA
330
1F
100
AcDbEntity
  8
0
100
AcDbLine
 10
1449.64870304731
 20
2931.657076113586
 30
0.0
 11
3364.648703047308
 21
2931.657076113586
 31
0.0
  0
LINE
  5
9CB
330
1F
100
AcDbEntity
  8
0
100
AcDbLine
 10
2277.364152247309
 20
4142.819376113586
 30
0.0
 11
2277.34870306131
 21
4142.807075996087
 31
0.0
  0
LINE
  5
9CC
330
1F
100
AcDbEntity
  8
0
100
AcDbLine
 10
2278.665043782511
 20
4151.150924048383
 30
0.0
 11
2277.281602538808
 21
4150.162583586586
 31
0.0
  0
LINE
  5
9CD
330
1F
100
AcDbEntity
  8
0
100
AcDbLine
 10
2278.749191742808
 20
4148.811040120587
 30
0.0
 11
2277.28160263981
 21
4147.762583814087
 31
0.0
  0
LINE
  5
9CE
330
1F
100
AcDbEntity
  8
0
100
AcDbLine
 10
2278.749191808808
 20
4146.411038665086
 30
0.0
 11
2277.281602708808
 21
4145.362582358085
 31
0.0
  0
LINE
  5
9CF
330
1F
100
AcDbEntity
  8
0
100
AcDbLine
 10
2278.749191654309
 20
4144.011039331085
 30
0.0
 11
2277.281602548309
 21
4142.962583026086
 31
0.0
  0
LINE
  5
9D0
330
1F
100
AcDbEntity
  8
0
100
AcDbLine
 10
2277.391189778308
 20
4147.627476114086
 30
0.0
 11
2277.348703148808
 21
4147.607076769586
 31
0.0
  0
LINE
  5
9D1
330
1F
100
AcDbEntity
  8
0
100
AcDbLine
 10
2335.548386546808
 20
4150.203234953586
 30
0.0
 11
2336.874925416684
 21
4151.150924048384
 31
0.0
  0
LINE
  5
9D2
330
1F
100
AcDbEntity
  8
0
100
AcDbLine
 10
2335.548386608308
 20
4147.803236717586
 30
0.0
 11
2337.015526247808
 21
4148.851372031587
 31
0.0
  0
LINE
  5
9D3
330
1F
100
AcDbEntity
  8
0
100
AcDbLine
 10
2335.548386478308
 20
4145.403235608085
 30
0.0
 11
2337.015526111808
 21
4146.451370922086
 31
0.0
  0
LINE
  5
9D4
330
1F
100
AcDbEntity
  8
0
100
AcDbLine
 10
2335.473657159309
 20
4142.949865866086
 30
0.0
 11
2336.943905931309
 21
4144.000221414586
 31
0.0
  0
LINE
  5
9D5
330
1F
100
AcDbEntity
  8
0
100
AcDbLine
 10
2277.353500017808
 20
4150.213930284586
 30
0.0
 11
2277.348703050309
 21
4150.207076553585
 31
0.0
  0
LINE
  5
9D6
330
1F
100
AcDbEntity
  8
0
100
AcDbLine
 10
2277.353500130809
 20
4147.813930520586
 30
0.0
 11
2277.348703148808
 21
4147.807076769586
 31
0.0
  0
LINE
  5
9D7
330
1F
100
AcDbEntity
  8
0
100
AcDbLine
 10
2277.353500207809
 20
4145.413929070086
 30
0.0
 11
2277.348703226809
 21
4145.407075320086
 31
0.0
  0
LINE
  5
9D8
330
1F
100
AcDbEntity
  8
0
100
AcDbLine
 10
2277.353500026308
 20
4143.013929723086
 30
0.0
 11
2277.34870306131
 21
4143.007075996086
 31
0.0
  0
LINE
  5
9D9
330
1F
100
AcDbEntity
  8
0
100
AcDbLine
 10
2336.948703006309
 20
4148.807077106585
 30
0.0
 11
2336.943906029809
 21
4148.800223363085
 31
0.0
  0
LINE
  5
9DA
330
1F
100
AcDbEntity
  8
0
100
AcDbLine
 10
2336.948702890309
 20
4146.407076016085
 30
0.0
 11
2336.943905906809
 21
4146.400222263086
 31
0.0
  0
LINE
  5
9DB
330
1F
100
AcDbEntity
  8
0
100
AcDbLine
 10
2336.948702906308
 20
4144.007075155585
 30
0.0
 11
2336.943905931309
 21
4144.000221414586
 31
0.0
  0
LINE
  5
9DC
330
1F
100
AcDbEntity
  8
0
100
AcDbLine
 10
3373.65401717881
 20
3201.657076113587
 30
0.0
 11
1440.64338891581
 21
3201.657076113587
 31
0.0
  0
LINE
  5
9DD
330
1F
100
AcDbEntity
  8
0
 62
     9
100
AcDbLine
 10
2110.81318647981
 20
3258.884669453087
 30
0.0
 11
2242.14870275076
 21
3257.611124783807
 31
0.0
  0
POLYLINE
  5
9DE
330
1F
100
AcDbEntity
  8
0
 62
     9
100
AcDb2dPolyline
 66
     1
 10
0.0
 20
0.0
 30
0.0
  0
VERTEX
  5
9DF
330
9DE
100
AcDbEntity
  8
0
 62
     9
100
AcDbVertex
100
AcDb2dVertex
 10
1731.162493613811
 20
3285.905448616086
 30
0.0
  0
VERTEX
  5
9E0
330
9DE
100
AcDbEntity
  8
0
 62
     9
100
AcDbVertex
100
AcDb2dVertex
 10
1907.832784292811
 20
3279.569409952586
 30
0.0
  0
VERTEX
  5
9E1
330
9DE
100
AcDbEntity
  8
0
 62
     9
100
AcDbVertex
100
AcDb2dVertex
 10
2111.45532564481
 20
3276.407820611086
 30
0.0
  0
VERTEX
  5
9E2
330
9DE
100
AcDbEntity
  8
0
 62
     9
100
AcDbVertex
100
AcDb2dVertex
 10
2347.148702933099
 20
3274.240694613393
 30
0.0
  0
SEQEND
  5
9E3
330
9DE
100
AcDbEntity
  8
0
 62
     9
  0
POLYLINE
  5
9E4
330
1F
100
AcDbEntity
  8
0
 62
     9
100
AcDb2dPolyline
 66
     1
 10
0.0
 20
0.0
 30
0.0
  0
VERTEX
  5
9E5
330
9E4
100
AcDbEntity
  8
0
 62
     9
100
AcDbVertex
100
AcDb2dVertex
 10
1729.50472787381
 20
3270.646290458586
 30
0.0
  0
VERTEX
  5
9E6
330
9E4
100
AcDbEntity
  8
0
 62
     9
100
AcDbVertex
100
AcDb2dVertex
 10
1906.66521451481
 20
3262.799585669087
 30
0.0
  0
VERTEX
  5
9E7
330
9E4
100
AcDbEntity
  8
0
 62
     9
100
AcDbVertex
100
AcDb2dVertex
 10
2110.81318647981
 20
3258.884669453087
 30
0.0
  0
SEQEND
  5
9E8
330
9E4
100
AcDbEntity
  8
0
 62
     9
  0
LINE
  5
9E9
330
1F
100
AcDbEntity
  8
0
100
AcDbLine
 10
1431.64870304731
 20
3197.326949094586
 30
0.0
 11
1437.854267112309
 21
3200.909733178086
 31
0.0
  0
POLYLINE
  5
9EA
330
1F
100
AcDbEntity
  8
0
 62
     9
100
AcDb2dPolyline
 66
     1
 10
0.0
 20
0.0
 30
0.0
  0
VERTEX
  5
9EB
330
9EA
100
AcDbEntity
  8
0
 62
     9
100
AcDbVertex
100
AcDb2dVertex
 10
2242.083995486309
 20
3435.548220014086
 30
0.0
  0
VERTEX
  5
9EC
330
9EA
100
AcDbEntity
  8
0
 62
     9
100
AcDbVertex
100
AcDb2dVertex
 10
2242.091176367808
 20
3429.780690293086
 30
0.0
  0
VERTEX
  5
9ED
330
9EA
100
AcDbEntity
  8
0
 62
     9
100
AcDbVertex
100
AcDb2dVertex
 10
2242.105639547309
 20
3424.650443819086
 30
0.0
  0
VERTEX
  5
9EE
330
9EA
100
AcDbEntity
  8
0
 62
     9
100
AcDbVertex
100
AcDb2dVertex
 10
2242.125725599309
 20
3420.906921509086
 30
0.0
  0
VERTEX
  5
9EF
330
9EA
100
AcDbEntity
  8
0
 62
     9
100
AcDbVertex
100
AcDb2dVertex
 10
2242.148699675809
 20
3419.089640492586
 30
0.0
  0
SEQEND
  5
9F0
330
9EA
100
AcDbEntity
  8
0
 62
     9
  0
POLYLINE
  5
9F1
330
1F
100
AcDbEntity
  8
0
 62
     9
100
AcDb2dPolyline
 66
     1
 10
0.0
 20
0.0
 30
0.0
  0
VERTEX
  5
9F2
330
9F1
100
AcDbEntity
  8
0
 62
     9
100
AcDbVertex
100
AcDb2dVertex
 10
2242.083858884308
 20
3775.980015205586
 30
0.0
  0
VERTEX
  5
9F3
330
9F1
100
AcDbEntity
  8
0
 62
     9
100
AcDbVertex
100
AcDb2dVertex
 10
2242.090707354309
 20
3770.077361615586
 30
0.0
  0
VERTEX
  5
9F4
330
9F1
100
AcDbEntity
  8
0
 62
     9
100
AcDbVertex
100
AcDb2dVertex
 10
2242.104905265808
 20
3764.658117400586
 30
0.0
  0
VERTEX
  5
9F5
330
9F1
100
AcDbEntity
  8
0
 62
     9
100
AcDbVertex
100
AcDb2dVertex
 10
2242.124922696309
 20
3760.519168699586
 30
0.0
  0
VERTEX
  5
9F6
330
9F1
100
AcDbEntity
  8
0
 62
     9
100
AcDbVertex
100
AcDb2dVertex
 10
2242.148523701809
 20
3758.263829563586
 30
0.0
  0
SEQEND
  5
9F7
330
9F1
100
AcDbEntity
  8
0
 62
     9
  0
LINE
  5
9F8
330
1F
100
AcDbEntity
  8
0
 62
     9
100
AcDbLine
 10
2242.083998319309
 20
3435.548229419587
 30
0.0
 11
2242.084152011309
 21
3597.563102896086
 31
0.0
  0
LINE
  5
9F9
330
1F
100
AcDbEntity
  8
0
 62
     9
100
AcDbLine
 10
2242.148289860807
 20
3614.164120164586
 30
0.0
 11
2242.148468420809
 21
3758.263867158586
 31
0.0
  0
LINE
  5
9FA
330
1F
100
AcDbEntity
  8
0
 62
     9
100
AcDbLine
 10
2242.14870275076
 20
3257.611124783807
 30
0.0
 11
2242.148704521308
 21
3419.089640569087
 31
0.0
  0
LINE
  5
9FB
330
1F
100
AcDbEntity
  8
0
100
AcDbLine
 10
2274.648703047308
 20
4139.657076113586
 30
0.0
 11
2274.648703047308
 21
4117.106373432586
 31
0.0
  0
LINE
  5
9FC
330
1F
100
AcDbEntity
  8
0
100
AcDbLine
 10
2277.348703148808
 20
4147.807076769586
 30
0.0
 11
2277.348703148808
 21
4147.607076769586
 31
0.0
  0
LINE
  5
9FD
330
1F
100
AcDbEntity
  8
0
100
AcDbLine
 10
2277.34870306131
 20
4143.007075996086
 30
0.0
 11
2277.34870306131
 21
4142.807075996087
 31
0.0
  0
LINE
  5
9FE
330
1F
100
AcDbEntity
  8
0
100
AcDbLine
 10
2277.348703226809
 20
4145.407075320086
 30
0.0
 11
2277.348703226809
 21
4145.207075320086
 31
0.0
  0
POLYLINE
  5
9FF
330
1F
100
AcDbEntity
  8
0
 62
     9
100
AcDb2dPolyline
 66
     1
 10
0.0
 20
0.0
 30
0.0
  0
VERTEX
  5
A00
330
9FF
100
AcDbEntity
  8
0
 62
     9
100
AcDbVertex
100
AcDb2dVertex
 10
2242.148421165309
 20
3614.164156576587
 30
0.0
  0
VERTEX
  5
A01
330
9FF
100
AcDbEntity
  8
0
 62
     9
100
AcDbVertex
100
AcDb2dVertex
 10
2242.125123148809
 20
3612.444840726086
 30
0.0
  0
VERTEX
  5
A02
330
9FF
100
AcDbEntity
  8
0
 62
     9
100
AcDbVertex
100
AcDb2dVertex
 10
2242.10525217231
 20
3608.771852127587
 30
0.0
  0
VERTEX
  5
A03
330
9FF
100
AcDbEntity
  8
0
 62
     9
100
AcDbVertex
100
AcDb2dVertex
 10
2242.090808548309
 20
3603.570843321087
 30
0.0
  0
VERTEX
  5
A04
330
9FF
100
AcDbEntity
  8
0
 62
     9
100
AcDbVertex
100
AcDb2dVertex
 10
2242.083711159809
 20
3597.562628405087
 30
0.0
  0
SEQEND
  5
A05
330
9FF
100
AcDbEntity
  8
0
 62
     9
  0
POLYLINE
  5
A06
330
1F
100
AcDbEntity
  8
0
100
AcDb2dPolyline
 66
     1
 10
0.0
 20
0.0
 30
0.0
  0
VERTEX
  5
A07
330
A06
100
AcDbEntity
  8
0
100
AcDbVertex
100
AcDb2dVertex
 10
2259.148703046808
 20
3774.939250208587
 30
0.0
  0
VERTEX
  5
A08
330
A06
100
AcDbEntity
  8
0
100
AcDbVertex
100
AcDb2dVertex
 10
2258.368203141809
 20
3770.007118504587
 30
0.0
  0
VERTEX
  5
A09
330
A06
100
AcDbEntity
  8
0
100
AcDbVertex
100
AcDb2dVertex
 10
2256.000381819308
 20
3765.358425352586
 30
0.0
  0
VERTEX
  5
A0A
330
A06
100
AcDbEntity
  8
0
100
AcDbVertex
100
AcDb2dVertex
 10
2252.238036843809
 20
3761.596361181586
 30
0.0
  0
VERTEX
  5
A0B
330
A06
100
AcDbEntity
  8
0
100
AcDbVertex
100
AcDb2dVertex
 10
2247.459221071808
 20
3759.144906083087
 30
0.0
  0
VERTEX
  5
A0C
330
A06
100
AcDbEntity
  8
0
100
AcDbVertex
100
AcDb2dVertex
 10
2242.148703047308
 20
3758.263829565586
 30
0.0
  0
SEQEND
  5
A0D
330
A06
100
AcDbEntity
  8
0
  0
POLYLINE
  5
A0E
330
1F
100
AcDbEntity
  8
0
 62
     9
100
AcDb2dPolyline
 66
     1
 10
0.0
 20
0.0
 30
0.0
  0
VERTEX
  5
A0F
330
A0E
100
AcDbEntity
  8
0
 62
     9
100
AcDbVertex
100
AcDb2dVertex
 10
2259.14870304731
 20
3435.957501036586
 30
0.0
  0
VERTEX
  5
A10
330
A0E
100
AcDbEntity
  8
0
 62
     9
100
AcDbVertex
100
AcDb2dVertex
 10
2258.312659870809
 20
3435.831026104086
 30
0.0
  0
VERTEX
  5
A11
330
A0E
100
AcDbEntity
  8
0
 62
     9
100
AcDbVertex
100
AcDb2dVertex
 10
2255.886762473808
 20
3435.716878259086
 30
0.0
  0
VERTEX
  5
A12
330
A0E
100
AcDbEntity
  8
0
 62
     9
100
AcDbVertex
100
AcDb2dVertex
 10
2252.109617048308
 20
3435.626286782586
 30
0.0
  0
VERTEX
  5
A13
330
A0E
100
AcDbEntity
  8
0
 62
     9
100
AcDbVertex
100
AcDb2dVertex
 10
2247.352735818308
 20
3435.568162214586
 30
0.0
  0
VERTEX
  5
A14
330
A0E
100
AcDbEntity
  8
0
 62
     9
100
AcDbVertex
100
AcDb2dVertex
 10
2242.083995486309
 20
3435.548220014086
 30
0.0
  0
SEQEND
  5
A15
330
A0E
100
AcDbEntity
  8
0
 62
     9
  0
POLYLINE
  5
A16
330
1F
100
AcDbEntity
  8
0
 62
     9
100
AcDb2dPolyline
 66
     1
 10
0.0
 20
0.0
 30
0.0
  0
VERTEX
  5
A17
330
A16
100
AcDbEntity
  8
0
 62
     9
100
AcDbVertex
100
AcDb2dVertex
 10
1730.469029969809
 20
3410.857119356587
 30
0.0
  0
VERTEX
  5
A18
330
A16
100
AcDbEntity
  8
0
 62
     9
100
AcDbVertex
100
AcDb2dVertex
 10
1703.08657277831
 20
3408.971942651587
 30
0.0
  0
VERTEX
  5
A19
330
A16
100
AcDbEntity
  8
0
 62
     9
100
AcDbVertex
100
AcDb2dVertex
 10
1679.61344184431
 20
3405.945386903586
 30
0.0
  0
VERTEX
  5
A1A
330
A16
100
AcDbEntity
  8
0
 62
     9
100
AcDbVertex
100
AcDb2dVertex
 10
1659.55739478831
 20
3401.769698215587
 30
0.0
  0
VERTEX
  5
A1B
330
A16
100
AcDbEntity
  8
0
 62
     9
100
AcDbVertex
100
AcDb2dVertex
 10
1642.461930416811
 20
3396.350307623586
 30
0.0
  0
VERTEX
  5
A1C
330
A16
100
AcDbEntity
  8
0
 62
     9
100
AcDbVertex
100
AcDb2dVertex
 10
1628.35580052331
 20
3389.697390238086
 30
0.0
  0
VERTEX
  5
A1D
330
A16
100
AcDbEntity
  8
0
 62
     9
100
AcDbVertex
100
AcDb2dVertex
 10
1617.297909565311
 20
3381.940607671586
 30
0.0
  0
VERTEX
  5
A1E
330
A16
100
AcDbEntity
  8
0
 62
     9
100
AcDbVertex
100
AcDb2dVertex
 10
1609.24375559931
 20
3373.282745359587
 30
0.0
  0
VERTEX
  5
A1F
330
A16
100
AcDbEntity
  8
0
 62
     9
100
AcDbVertex
100
AcDb2dVertex
 10
1604.14863645881
 20
3364.117980428586
 30
0.0
  0
VERTEX
  5
A20
330
A16
100
AcDbEntity
  8
0
 62
     9
100
AcDbVertex
100
AcDb2dVertex
 10
1601.78173549581
 20
3354.798361306086
 30
0.0
  0
VERTEX
  5
A21
330
A16
100
AcDbEntity
  8
0
 62
     9
100
AcDbVertex
100
AcDb2dVertex
 10
1601.89997845181
 20
3345.409327376586
 30
0.0
  0
VERTEX
  5
A22
330
A16
100
AcDbEntity
  8
0
 62
     9
100
AcDbVertex
100
AcDb2dVertex
 10
1604.517003626811
 20
3335.917850443586
 30
0.0
  0
VERTEX
  5
A23
330
A16
100
AcDbEntity
  8
0
 62
     9
100
AcDbVertex
100
AcDb2dVertex
 10
1609.82920926281
 20
3326.513072521087
 30
0.0
  0
VERTEX
  5
A24
330
A16
100
AcDbEntity
  8
0
 62
     9
100
AcDbVertex
100
AcDb2dVertex
 10
1618.01422319781
 20
3317.534894204086
 30
0.0
  0
VERTEX
  5
A25
330
A16
100
AcDbEntity
  8
0
 62
     9
100
AcDbVertex
100
AcDb2dVertex
 10
1629.27805564581
 20
3309.260827289586
 30
0.0
  0
VERTEX
  5
A26
330
A16
100
AcDbEntity
  8
0
 62
     9
100
AcDbVertex
100
AcDb2dVertex
 10
1643.50478985181
 20
3302.082486890087
 30
0.0
  0
VERTEX
  5
A27
330
A16
100
AcDbEntity
  8
0
 62
     9
100
AcDbVertex
100
AcDb2dVertex
 10
1660.65257987781
 20
3296.142931228587
 30
0.0
  0
VERTEX
  5
A28
330
A16
100
AcDbEntity
  8
0
 62
     9
100
AcDbVertex
100
AcDb2dVertex
 10
1680.806492285311
 20
3291.468013898087
 30
0.0
  0
VERTEX
  5
A29
330
A16
100
AcDbEntity
  8
0
 62
     9
100
AcDbVertex
100
AcDb2dVertex
 10
1704.172901699309
 20
3288.049829904587
 30
0.0
  0
VERTEX
  5
A2A
330
A16
100
AcDbEntity
  8
0
 62
     9
100
AcDbVertex
100
AcDb2dVertex
 10
1731.162493613811
 20
3285.905448616086
 30
0.0
  0
SEQEND
  5
A2B
330
A16
100
AcDbEntity
  8
0
 62
     9
  0
POLYLINE
  5
A2C
330
1F
100
AcDbEntity
  8
0
 62
     9
100
AcDb2dPolyline
 66
     1
 10
0.0
 20
0.0
 30
0.0
  0
VERTEX
  5
A2D
330
A2C
100
AcDbEntity
  8
0
 62
     9
100
AcDbVertex
100
AcDb2dVertex
 10
2347.08399831931
 20
3435.548229419587
 30
0.0
  0
VERTEX
  5
A2E
330
A2C
100
AcDbEntity
  8
0
 62
     9
100
AcDbVertex
100
AcDb2dVertex
 10
2283.834139982811
 20
3435.477890265587
 30
0.0
  0
VERTEX
  5
A2F
330
A2C
100
AcDbEntity
  8
0
 62
     9
100
AcDbVertex
100
AcDb2dVertex
 10
2214.824119486811
 20
3435.298011678086
 30
0.0
  0
VERTEX
  5
A30
330
A2C
100
AcDbEntity
  8
0
 62
     9
100
AcDbVertex
100
AcDb2dVertex
 10
2138.422633722811
 20
3434.934055277086
 30
0.0
  0
VERTEX
  5
A31
330
A2C
100
AcDbEntity
  8
0
 62
     9
100
AcDbVertex
100
AcDb2dVertex
 10
2053.10602216431
 20
3434.235599875587
 30
0.0
  0
VERTEX
  5
A32
330
A2C
100
AcDbEntity
  8
0
 62
     9
100
AcDbVertex
100
AcDb2dVertex
 10
1957.433112671811
 20
3432.905925227087
 30
0.0
  0
VERTEX
  5
A33
330
A2C
100
AcDbEntity
  8
0
 62
     9
100
AcDbVertex
100
AcDb2dVertex
 10
1849.918700227311
 20
3430.355081597587
 30
0.0
  0
VERTEX
  5
A34
330
A2C
100
AcDbEntity
  8
0
 62
     9
100
AcDbVertex
100
AcDb2dVertex
 10
1728.808298473311
 20
3425.355125692087
 30
0.0
  0
SEQEND
  5
A35
330
A2C
100
AcDbEntity
  8
0
 62
     9
  0
POLYLINE
  5
A36
330
1F
100
AcDbEntity
  8
0
 62
     9
100
AcDb2dPolyline
 66
     1
 10
0.0
 20
0.0
 30
0.0
  0
VERTEX
  5
A37
330
A36
100
AcDbEntity
  8
0
 62
     9
100
AcDbVertex
100
AcDb2dVertex
 10
2347.14870452131
 20
3419.089640569087
 30
0.0
  0
VERTEX
  5
A38
330
A36
100
AcDbEntity
  8
0
 62
     9
100
AcDbVertex
100
AcDb2dVertex
 10
2284.092921983812
 20
3419.032878361586
 30
0.0
  0
VERTEX
  5
A39
330
A36
100
AcDbEntity
  8
0
 62
     9
100
AcDbVertex
100
AcDb2dVertex
 10
2215.28447307881
 20
3418.887715026086
 30
0.0
  0
VERTEX
  5
A3A
330
A36
100
AcDbEntity
  8
0
 62
     9
100
AcDbVertex
100
AcDb2dVertex
 10
2139.09475165331
 20
3418.593936871086
 30
0.0
  0
VERTEX
  5
A3B
330
A36
100
AcDbEntity
  8
0
 62
     9
100
AcDbVertex
100
AcDb2dVertex
 10
2054.00226832631
 20
3418.030055507587
 30
0.0
  0
VERTEX
  5
A3C
330
A36
100
AcDbEntity
  8
0
 62
     9
100
AcDbVertex
100
AcDb2dVertex
 10
1958.567221560311
 20
3416.956352585586
 30
0.0
  0
VERTEX
  5
A3D
330
A36
100
AcDbEntity
  8
0
 62
     9
100
AcDbVertex
100
AcDb2dVertex
 10
1851.30642525281
 20
3414.896369830586
 30
0.0
  0
VERTEX
  5
A3E
330
A36
100
AcDbEntity
  8
0
 62
     9
100
AcDbVertex
100
AcDb2dVertex
 10
1730.469029969809
 20
3410.857119356587
 30
0.0
  0
SEQEND
  5
A3F
330
A36
100
AcDbEntity
  8
0
 62
     9
  0
POLYLINE
  5
A40
330
1F
100
AcDbEntity
  8
0
 62
     9
100
AcDb2dPolyline
 66
     1
 10
0.0
 20
0.0
 30
0.0
  0
VERTEX
  5
A41
330
A40
100
AcDbEntity
  8
0
 62
     9
100
AcDbVertex
100
AcDb2dVertex
 10
2259.14870304731
 20
3597.282243807587
 30
0.0
  0
VERTEX
  5
A42
330
A40
100
AcDbEntity
  8
0
 62
     9
100
AcDbVertex
100
AcDb2dVertex
 10
2258.316706511308
 20
3602.498911284586
 30
0.0
  0
VERTEX
  5
A43
330
A40
100
AcDbEntity
  8
0
 62
     9
100
AcDbVertex
100
AcDb2dVertex
 10
2255.902016836809
 20
3607.205149150086
 30
0.0
  0
VERTEX
  5
A44
330
A40
100
AcDbEntity
  8
0
 62
     9
100
AcDbVertex
100
AcDb2dVertex
 10
2252.141018092808
 20
3610.940022841587
 30
0.0
  0
VERTEX
  5
A45
330
A40
100
AcDbEntity
  8
0
 62
     9
100
AcDbVertex
100
AcDb2dVertex
 10
2247.401860577308
 20
3613.337939343086
 30
0.0
  0
VERTEX
  5
A46
330
A40
100
AcDbEntity
  8
0
 62
     9
100
AcDbVertex
100
AcDb2dVertex
 10
2242.148703047308
 20
3614.164156576587
 30
0.0
  0
SEQEND
  5
A47
330
A40
100
AcDbEntity
  8
0
 62
     9
  0
LINE
  5
A48
330
1F
100
AcDbEntity
  8
0
100
AcDbLine
 10
2335.478703047308
 20
4141.657076113586
 30
0.0
 11
2335.478703047308
 21
4142.957075155585
 31
0.0
  0
LINE
  5
A49
330
1F
100
AcDbEntity
  8
0
100
AcDbLine
 10
2335.478703047308
 20
4145.264284445086
 30
0.0
 11
2335.478703047308
 21
4147.664285318586
 31
0.0
  0
LINE
  5
A4A
330
1F
100
AcDbEntity
  8
0
100
AcDbLine
 10
2336.948702890309
 20
4146.407076016085
 30
0.0
 11
2336.948702890309
 21
4146.607076016087
 31
0.0
  0
LINE
  5
A4B
330
1F
100
AcDbEntity
  8
0
100
AcDbLine
 10
2339.648703047308
 20
4139.657076113586
 30
0.0
 11
2339.648703047308
 21
4131.657076113586
 31
0.0
  0
POLYLINE
  5
A4C
330
1F
100
AcDbEntity
  8
0
100
AcDb2dPolyline
 66
     1
 10
0.0
 20
0.0
 30
0.0
  0
VERTEX
  5
A4D
330
A4C
100
AcDbEntity
  8
0
100
AcDbVertex
100
AcDb2dVertex
 10
2259.14870304731
 20
3435.957443889587
 30
0.0
  0
VERTEX
  5
A4E
330
A4C
100
AcDbEntity
  8
0
100
AcDbVertex
100
AcDb2dVertex
 10
2258.367284954808
 20
3430.941575346086
 30
0.0
  0
VERTEX
  5
A4F
330
A4C
100
AcDbEntity
  8
0
100
AcDbVertex
100
AcDb2dVertex
 10
2255.998926575808
 20
3426.230677454586
 30
0.0
  0
VERTEX
  5
A50
330
A4C
100
AcDbEntity
  8
0
100
AcDbVertex
100
AcDb2dVertex
 10
2252.236743746308
 20
3422.429344751587
 30
0.0
  0
VERTEX
  5
A51
330
A4C
100
AcDbEntity
  8
0
100
AcDbVertex
100
AcDb2dVertex
 10
2247.458358166309
 20
3419.962439367087
 30
0.0
  0
VERTEX
  5
A52
330
A4C
100
AcDbEntity
  8
0
100
AcDbVertex
100
AcDb2dVertex
 10
2242.148703047308
 20
3419.089640492586
 30
0.0
  0
SEQEND
  5
A53
330
A4C
100
AcDbEntity
  8
0
  0
POLYLINE
  5
A54
330
1F
100
AcDbEntity
  8
0
 62
     9
100
AcDb2dPolyline
 66
     1
 10
0.0
 20
0.0
 30
0.0
  0
VERTEX
  5
A55
330
A54
100
AcDbEntity
  8
0
 62
     9
100
AcDbVertex
100
AcDb2dVertex
 10
1728.808298473311
 20
3425.355125692087
 30
0.0
  0
VERTEX
  5
A56
330
A54
100
AcDbEntity
  8
0
 62
     9
100
AcDbVertex
100
AcDb2dVertex
 10
1699.901898596309
 20
3423.025160051587
 30
0.0
  0
VERTEX
  5
A57
330
A54
100
AcDbEntity
  8
0
 62
     9
100
AcDbVertex
100
AcDb2dVertex
 10
1675.12145143681
 20
3419.286635964087
 30
0.0
  0
VERTEX
  5
A58
330
A54
100
AcDbEntity
  8
0
 62
     9
100
AcDbVertex
100
AcDb2dVertex
 10
1653.939277990809
 20
3414.129344869086
 30
0.0
  0
VERTEX
  5
A59
330
A54
100
AcDbEntity
  8
0
 62
     9
100
AcDbVertex
100
AcDb2dVertex
 10
1635.87286533681
 20
3407.435504329587
 30
0.0
  0
VERTEX
  5
A5A
330
A54
100
AcDbEntity
  8
0
 62
     9
100
AcDbVertex
100
AcDb2dVertex
 10
1620.95188578531
 20
3399.215302833586
 30
0.0
  0
VERTEX
  5
A5B
330
A54
100
AcDbEntity
  8
0
 62
     9
100
AcDbVertex
100
AcDb2dVertex
 10
1609.238497828811
 20
3389.624113059586
 30
0.0
  0
VERTEX
  5
A5C
330
A54
100
AcDbEntity
  8
0
 62
     9
100
AcDbVertex
100
AcDb2dVertex
 10
1600.68918589081
 20
3378.905810944087
 30
0.0
  0
VERTEX
  5
A5D
330
A54
100
AcDbEntity
  8
0
 62
     9
100
AcDbVertex
100
AcDb2dVertex
 10
1595.26463007481
 20
3367.541759333586
 30
0.0
  0
VERTEX
  5
A5E
330
A54
100
AcDbEntity
  8
0
 62
     9
100
AcDbVertex
100
AcDb2dVertex
 10
1592.731760091311
 20
3355.967765130587
 30
0.0
  0
VERTEX
  5
A5F
330
A54
100
AcDbEntity
  8
0
 62
     9
100
AcDbVertex
100
AcDb2dVertex
 10
1592.842072346811
 20
3344.299965692586
 30
0.0
  0
VERTEX
  5
A60
330
A54
100
AcDbEntity
  8
0
 62
     9
100
AcDbVertex
100
AcDb2dVertex
 10
1595.61037303431
 20
3332.512692207087
 30
0.0
  0
VERTEX
  5
A61
330
A54
100
AcDbEntity
  8
0
 62
     9
100
AcDbVertex
100
AcDb2dVertex
 10
1601.237761935809
 20
3320.849891399586
 30
0.0
  0
VERTEX
  5
A62
330
A54
100
AcDbEntity
  8
0
 62
     9
100
AcDbVertex
100
AcDb2dVertex
 10
1609.903424161311
 20
3309.733787849086
 30
0.0
  0
VERTEX
  5
A63
330
A54
100
AcDbEntity
  8
0
 62
     9
100
AcDbVertex
100
AcDb2dVertex
 10
1621.81938349231
 20
3299.501965991586
 30
0.0
  0
VERTEX
  5
A64
330
A54
100
AcDbEntity
  8
0
 62
     9
100
AcDbVertex
100
AcDb2dVertex
 10
1636.862777395311
 20
3290.631134739586
 30
0.0
  0
VERTEX
  5
A65
330
A54
100
AcDbEntity
  8
0
 62
     9
100
AcDbVertex
100
AcDb2dVertex
 10
1654.98917877131
 20
3283.293778642086
 30
0.0
  0
VERTEX
  5
A66
330
A54
100
AcDbEntity
  8
0
 62
     9
100
AcDbVertex
100
AcDb2dVertex
 10
1676.289237397811
 20
3277.519261066086
 30
0.0
  0
VERTEX
  5
A67
330
A54
100
AcDbEntity
  8
0
 62
     9
100
AcDbVertex
100
AcDb2dVertex
 10
1700.98126770681
 20
3273.296647261086
 30
0.0
  0
VERTEX
  5
A68
330
A54
100
AcDbEntity
  8
0
 62
     9
100
AcDbVertex
100
AcDb2dVertex
 10
1729.50472787381
 20
3270.646290458586
 30
0.0
  0
SEQEND
  5
A69
330
A54
100
AcDbEntity
  8
0
 62
     9
  0
POLYLINE
  5
A6A
330
1F
100
AcDbEntity
  8
0
100
AcDb2dPolyline
 66
     1
 10
0.0
 20
0.0
 30
0.0
  0
VERTEX
  5
A6B
330
A6A
100
AcDbEntity
  8
0
100
AcDbVertex
100
AcDb2dVertex
 10
2259.14870304731
 20
3597.281963827586
 30
0.0
  0
VERTEX
  5
A6C
330
A6A
100
AcDbEntity
  8
0
100
AcDbVertex
100
AcDb2dVertex
 10
2258.361102547809
 20
3597.688498702587
 30
0.0
  0
VERTEX
  5
A6D
330
A6A
100
AcDbEntity
  8
0
100
AcDbVertex
100
AcDb2dVertex
 10
2255.97974784781
 20
3597.896079511087
 30
0.0
  0
VERTEX
  5
A6E
330
A6A
100
AcDbEntity
  8
0
100
AcDbVertex
100
AcDb2dVertex
 10
2252.203168151808
 20
3597.915299619086
 30
0.0
  0
VERTEX
  5
A6F
330
A6A
100
AcDbEntity
  8
0
100
AcDbVertex
100
AcDb2dVertex
 10
2247.409153184309
 20
3597.786846804587
 30
0.0
  0
VERTEX
  5
A70
330
A6A
100
AcDbEntity
  8
0
100
AcDbVertex
100
AcDb2dVertex
 10
2242.083711159809
 20
3597.562628405087
 30
0.0
  0
SEQEND
  5
A71
330
A6A
100
AcDbEntity
  8
0
  0
POLYLINE
  5
A72
330
1F
100
AcDbEntity
  8
0
 62
     9
100
AcDb2dPolyline
 66
     1
 10
0.0
 20
0.0
 30
0.0
  0
VERTEX
  5
A73
330
A72
100
AcDbEntity
  8
0
 62
     9
100
AcDbVertex
100
AcDb2dVertex
 10
1730.401319370311
 20
3622.157455329086
 30
0.0
  0
VERTEX
  5
A74
330
A72
100
AcDbEntity
  8
0
 62
     9
100
AcDbVertex
100
AcDb2dVertex
 10
1915.46514470881
 20
3616.892553292087
 30
0.0
  0
VERTEX
  5
A75
330
A72
100
AcDbEntity
  8
0
 62
     9
100
AcDbVertex
100
AcDb2dVertex
 10
2122.259561411812
 20
3614.720946443587
 30
0.0
  0
VERTEX
  5
A76
330
A72
100
AcDbEntity
  8
0
 62
     9
100
AcDbVertex
100
AcDb2dVertex
 10
2347.148289860809
 20
3614.164120164586
 30
0.0
  0
SEQEND
  5
A77
330
A72
100
AcDbEntity
  8
0
 62
     9
  0
POLYLINE
  5
A78
330
1F
100
AcDbEntity
  8
0
 62
     9
100
AcDb2dPolyline
 66
     1
 10
0.0
 20
0.0
 30
0.0
  0
VERTEX
  5
A79
330
A78
100
AcDbEntity
  8
0
 62
     9
100
AcDbVertex
100
AcDb2dVertex
 10
1728.74029829431
 20
3607.459802897086
 30
0.0
  0
VERTEX
  5
A7A
330
A78
100
AcDbEntity
  8
0
 62
     9
100
AcDbVertex
100
AcDb2dVertex
 10
1914.305592201811
 20
3600.940018646587
 30
0.0
  0
VERTEX
  5
A7B
330
A78
100
AcDbEntity
  8
0
 62
     9
100
AcDbVertex
100
AcDb2dVertex
 10
2121.629585397311
 20
3598.251944843086
 30
0.0
  0
VERTEX
  5
A7C
330
A78
100
AcDbEntity
  8
0
 62
     9
100
AcDbVertex
100
AcDb2dVertex
 10
2347.084152011311
 20
3597.563102896086
 30
0.0
  0
SEQEND
  5
A7D
330
A78
100
AcDbEntity
  8
0
 62
     9
  0
POLYLINE
  5
A7E
330
1F
100
AcDbEntity
  8
0
 62
     9
100
AcDb2dPolyline
 66
     1
 10
0.0
 20
0.0
 30
0.0
  0
VERTEX
  5
A7F
330
A7E
100
AcDbEntity
  8
0
 62
     9
100
AcDbVertex
100
AcDb2dVertex
 10
2259.14870304731
 20
3774.939552996586
 30
0.0
  0
VERTEX
  5
A80
330
A7E
100
AcDbEntity
  8
0
 62
     9
100
AcDbVertex
100
AcDb2dVertex
 10
2258.312645637808
 20
3775.263023001087
 30
0.0
  0
VERTEX
  5
A81
330
A7E
100
AcDbEntity
  8
0
 62
     9
100
AcDbVertex
100
AcDb2dVertex
 10
2255.886732889309
 20
3775.554224009086
 30
0.0
  0
VERTEX
  5
A82
330
A7E
100
AcDbEntity
  8
0
 62
     9
100
AcDbVertex
100
AcDb2dVertex
 10
2252.109578720309
 20
3775.784521354086
 30
0.0
  0
VERTEX
  5
A83
330
A7E
100
AcDbEntity
  8
0
 62
     9
100
AcDbVertex
100
AcDb2dVertex
 10
2247.352673260309
 20
3775.931265219586
 30
0.0
  0
VERTEX
  5
A84
330
A7E
100
AcDbEntity
  8
0
 62
     9
100
AcDbVertex
100
AcDb2dVertex
 10
2242.083858884308
 20
3775.980015205586
 30
0.0
  0
SEQEND
  5
A85
330
A7E
100
AcDbEntity
  8
0
 62
     9
  0
POLYLINE
  5
A86
330
1F
100
AcDbEntity
  8
0
 62
     9
100
AcDb2dPolyline
 66
     1
 10
0.0
 20
0.0
 30
0.0
  0
VERTEX
  5
A87
330
A86
100
AcDbEntity
  8
0
 62
     9
100
AcDbVertex
100
AcDb2dVertex
 10
1730.98807119081
 20
3748.344312956587
 30
0.0
  0
VERTEX
  5
A88
330
A86
100
AcDbEntity
  8
0
 62
     9
100
AcDbVertex
100
AcDb2dVertex
 10
1703.623465196811
 20
3746.256530336586
 30
0.0
  0
VERTEX
  5
A89
330
A86
100
AcDbEntity
  8
0
 62
     9
100
AcDbVertex
100
AcDb2dVertex
 10
1679.934063541311
 20
3742.908416845587
 30
0.0
  0
VERTEX
  5
A8A
330
A86
100
AcDbEntity
  8
0
 62
     9
100
AcDbVertex
100
AcDb2dVertex
 10
1659.517620389811
 20
3738.309813584586
 30
0.0
  0
VERTEX
  5
A8B
330
A86
100
AcDbEntity
  8
0
 62
     9
100
AcDbVertex
100
AcDb2dVertex
 10
1642.03391595081
 20
3732.397979020087
 30
0.0
  0
VERTEX
  5
A8C
330
A86
100
AcDbEntity
  8
0
 62
     9
100
AcDbVertex
100
AcDb2dVertex
 10
1627.472658147811
 20
3725.180177781587
 30
0.0
  0
VERTEX
  5
A8D
330
A86
100
AcDbEntity
  8
0
 62
     9
100
AcDbVertex
100
AcDb2dVertex
 10
1615.91214139931
 20
3716.778573950586
 30
0.0
  0
VERTEX
  5
A8E
330
A86
100
AcDbEntity
  8
0
 62
     9
100
AcDbVertex
100
AcDb2dVertex
 10
1607.559449304809
 20
3707.649415131086
 30
0.0
  0
VERTEX
  5
A8F
330
A86
100
AcDbEntity
  8
0
 62
     9
100
AcDbVertex
100
AcDb2dVertex
 10
1602.180677460311
 20
3698.097825794086
 30
0.0
  0
VERTEX
  5
A90
330
A86
100
AcDbEntity
  8
0
 62
     9
100
AcDbVertex
100
AcDb2dVertex
 10
1599.55631554631
 20
3688.453256474087
 30
0.0
  0
VERTEX
  5
A91
330
A86
100
AcDbEntity
  8
0
 62
     9
100
AcDbVertex
100
AcDb2dVertex
 10
1599.47133327231
 20
3678.951336092087
 30
0.0
  0
VERTEX
  5
A92
330
A86
100
AcDbEntity
  8
0
 62
     9
100
AcDbVertex
100
AcDb2dVertex
 10
1601.89497628731
 20
3669.506210588587
 30
0.0
  0
VERTEX
  5
A93
330
A86
100
AcDbEntity
  8
0
 62
     9
100
AcDbVertex
100
AcDb2dVertex
 10
1607.113874886811
 20
3660.159252780087
 30
0.0
  0
VERTEX
  5
A94
330
A86
100
AcDbEntity
  8
0
 62
     9
100
AcDbVertex
100
AcDb2dVertex
 10
1615.38413207181
 20
3651.311794590586
 30
0.0
  0
VERTEX
  5
A95
330
A86
100
AcDbEntity
  8
0
 62
     9
100
AcDbVertex
100
AcDb2dVertex
 10
1626.70667742981
 20
3643.420862448586
 30
0.0
  0
VERTEX
  5
A96
330
A86
100
AcDbEntity
  8
0
 62
     9
100
AcDbVertex
100
AcDb2dVertex
 10
1641.146876352811
 20
3636.670699125086
 30
0.0
  0
VERTEX
  5
A97
330
A86
100
AcDbEntity
  8
0
 62
     9
100
AcDbVertex
100
AcDb2dVertex
 10
1658.63882141781
 20
3631.194919485587
 30
0.0
  0
VERTEX
  5
A98
330
A86
100
AcDbEntity
  8
0
 62
     9
100
AcDbVertex
100
AcDb2dVertex
 10
1679.05948749881
 20
3627.014003465086
 30
0.0
  0
VERTEX
  5
A99
330
A86
100
AcDbEntity
  8
0
 62
     9
100
AcDbVertex
100
AcDb2dVertex
 10
1702.82939858231
 20
3624.011475479586
 30
0.0
  0
VERTEX
  5
A9A
330
A86
100
AcDbEntity
  8
0
 62
     9
100
AcDbVertex
100
AcDb2dVertex
 10
1730.401319370311
 20
3622.157455329086
 30
0.0
  0
SEQEND
  5
A9B
330
A86
100
AcDbEntity
  8
0
 62
     9
  0
POLYLINE
  5
A9C
330
1F
100
AcDbEntity
  8
0
 62
     9
100
AcDb2dPolyline
 66
     1
 10
0.0
 20
0.0
 30
0.0
  0
VERTEX
  5
A9D
330
A9C
100
AcDbEntity
  8
0
 62
     9
100
AcDbVertex
100
AcDb2dVertex
 10
2347.08412984581
 20
3775.967131182086
 30
0.0
  0
VERTEX
  5
A9E
330
A9C
100
AcDbEntity
  8
0
 62
     9
100
AcDbVertex
100
AcDb2dVertex
 10
2114.260402964811
 20
3774.855270900086
 30
0.0
  0
VERTEX
  5
A9F
330
A9C
100
AcDbEntity
  8
0
 62
     9
100
AcDbVertex
100
AcDb2dVertex
 10
1909.798978983811
 20
3771.253480383586
 30
0.0
  0
VERTEX
  5
AA0
330
A9C
100
AcDbEntity
  8
0
 62
     9
100
AcDbVertex
100
AcDb2dVertex
 10
1729.32955949331
 20
3763.697984024087
 30
0.0
  0
SEQEND
  5
AA1
330
A9C
100
AcDbEntity
  8
0
 62
     9
  0
POLYLINE
  5
AA2
330
1F
100
AcDbEntity
  8
0
 62
     9
100
AcDb2dPolyline
 66
     1
 10
0.0
 20
0.0
 30
0.0
  0
VERTEX
  5
AA3
330
AA2
100
AcDbEntity
  8
0
 62
     9
100
AcDbVertex
100
AcDb2dVertex
 10
2347.148468420811
 20
3758.263867158586
 30
0.0
  0
VERTEX
  5
AA4
330
AA2
100
AcDbEntity
  8
0
 62
     9
100
AcDbVertex
100
AcDb2dVertex
 10
2114.89829651281
 20
3757.353942766587
 30
0.0
  0
VERTEX
  5
AA5
330
AA2
100
AcDbEntity
  8
0
 62
     9
100
AcDbVertex
100
AcDb2dVertex
 10
1910.96269090431
 20
3754.445330472087
 30
0.0
  0
VERTEX
  5
AA6
330
AA2
100
AcDbEntity
  8
0
 62
     9
100
AcDbVertex
100
AcDb2dVertex
 10
1730.98807119081
 20
3748.344312956587
 30
0.0
  0
SEQEND
  5
AA7
330
AA2
100
AcDbEntity
  8
0
 62
     9
  0
LINE
  5
AA8
330
1F
100
AcDbEntity
  8
0
100
AcDbLine
 10
3382.648703047308
 20
3197.326949094586
 30
0.0
 11
3376.443138982309
 21
3200.909733178086
 31
0.0
  0
POLYLINE
  5
AA9
330
1F
100
AcDbEntity
  8
0
 62
     9
100
AcDb2dPolyline
 66
     1
 10
0.0
 20
0.0
 30
0.0
  0
VERTEX
  5
AAA
330
AA9
100
AcDbEntity
  8
0
 62
     9
100
AcDbVertex
100
AcDb2dVertex
 10
1729.32955949331
 20
3763.697984024087
 30
0.0
  0
VERTEX
  5
AAB
330
AA9
100
AcDbEntity
  8
0
 62
     9
100
AcDbVertex
100
AcDb2dVertex
 10
1700.418506039311
 20
3761.117605010587
 30
0.0
  0
VERTEX
  5
AAC
330
AA9
100
AcDbEntity
  8
0
 62
     9
100
AcDbVertex
100
AcDb2dVertex
 10
1675.392483470311
 20
3756.981653220086
 30
0.0
  0
VERTEX
  5
AAD
330
AA9
100
AcDbEntity
  8
0
 62
     9
100
AcDbVertex
100
AcDb2dVertex
 10
1653.820522813811
 20
3751.301560607586
 30
0.0
  0
VERTEX
  5
AAE
330
AA9
100
AcDbEntity
  8
0
 62
     9
100
AcDbVertex
100
AcDb2dVertex
 10
1635.343183679811
 20
3743.998704735587
 30
0.0
  0
VERTEX
  5
AAF
330
AA9
100
AcDbEntity
  8
0
 62
     9
100
AcDbVertex
100
AcDb2dVertex
 10
1619.948709934811
 20
3735.079450013086
 30
0.0
  0
VERTEX
  5
AB0
330
AA9
100
AcDbEntity
  8
0
 62
     9
100
AcDbVertex
100
AcDb2dVertex
 10
1607.720373563311
 20
3724.690473552087
 30
0.0
  0
VERTEX
  5
AB1
330
AA9
100
AcDbEntity
  8
0
 62
     9
100
AcDbVertex
100
AcDb2dVertex
 10
1598.87724622981
 20
3713.387941406587
 30
0.0
  0
VERTEX
  5
AB2
330
AA9
100
AcDbEntity
  8
0
 62
     9
100
AcDbVertex
100
AcDb2dVertex
 10
1593.178093410311
 20
3701.543015625586
 30
0.0
  0
VERTEX
  5
AB3
330
AA9
100
AcDbEntity
  8
0
 62
     9
100
AcDbVertex
100
AcDb2dVertex
 10
1590.40020312131
 20
3689.565528505587
 30
0.0
  0
VERTEX
  5
AB4
330
AA9
100
AcDbEntity
  8
0
 62
     9
100
AcDbVertex
100
AcDb2dVertex
 10
1590.32291453631
 20
3677.756890474586
 30
0.0
  0
VERTEX
  5
AB5
330
AA9
100
AcDbEntity
  8
0
 62
     9
100
AcDbVertex
100
AcDb2dVertex
 10
1592.91357802931
 20
3666.026669907086
 30
0.0
  0
VERTEX
  5
AB6
330
AA9
100
AcDbEntity
  8
0
 62
     9
100
AcDbVertex
100
AcDb2dVertex
 10
1598.466502887811
 20
3654.436844961586
 30
0.0
  0
VERTEX
  5
AB7
330
AA9
100
AcDbEntity
  8
0
 62
     9
100
AcDbVertex
100
AcDb2dVertex
 10
1607.241322055311
 20
3643.484155656086
 30
0.0
  0
VERTEX
  5
AB8
330
AA9
100
AcDbEntity
  8
0
 62
     9
100
AcDbVertex
100
AcDb2dVertex
 10
1619.23130190731
 20
3633.727234791086
 30
0.0
  0
VERTEX
  5
AB9
330
AA9
100
AcDbEntity
  8
0
 62
     9
100
AcDbVertex
100
AcDb2dVertex
 10
1634.50181135281
 20
3625.387062279587
 30
0.0
  0
VERTEX
  5
ABA
330
AA9
100
AcDbEntity
  8
0
 62
     9
100
AcDbVertex
100
AcDb2dVertex
 10
1652.98357872681
 20
3618.623694206586
 30
0.0
  0
VERTEX
  5
ABB
330
AA9
100
AcDbEntity
  8
0
 62
     9
100
AcDbVertex
100
AcDb2dVertex
 10
1674.54744495831
 20
3613.460014461586
 30
0.0
  0
VERTEX
  5
ABC
330
AA9
100
AcDbEntity
  8
0
 62
     9
100
AcDbVertex
100
AcDb2dVertex
 10
1699.637697021811
 20
3609.751225767086
 30
0.0
  0
VERTEX
  5
ABD
330
AA9
100
AcDbEntity
  8
0
 62
     9
100
AcDbVertex
100
AcDb2dVertex
 10
1728.74029829431
 20
3607.459802897086
 30
0.0
  0
SEQEND
  5
ABE
330
AA9
100
AcDbEntity
  8
0
 62
     9
  0
LINE
  5
ABF
330
1F
100
AcDbEntity
  8
0
100
AcDbLine
 10
2277.34870306131
 20
4142.807075996087
 30
0.0
 11
2277.353500026308
 21
4142.800222269086
 31
0.0
  0
LINE
  5
AC0
330
1F
100
AcDbEntity
  8
0
100
AcDbLine
 10
2277.348703226809
 20
4145.207075320086
 30
0.0
 11
2277.353500207809
 21
4145.200221570585
 31
0.0
  0
LINE
  5
AC1
330
1F
100
AcDbEntity
  8
0
100
AcDbLine
 10
2277.348703148808
 20
4147.607076769586
 30
0.0
 11
2277.353500130809
 21
4147.600223018586
 31
0.0
  0
LINE
  5
AC2
330
1F
100
AcDbEntity
  8
0
100
AcDbLine
 10
2277.348703050309
 20
4150.007076553586
 30
0.0
 11
2277.353500017808
 21
4150.000222823086
 31
0.0
  0
LINE
  5
AC3
330
1F
100
AcDbEntity
  8
0
100
AcDbLine
 10
2336.943905931309
 20
4144.213928896586
 30
0.0
 11
2336.948702906308
 21
4144.207075155586
 31
0.0
  0
LINE
  5
AC4
330
1F
100
AcDbEntity
  8
0
100
AcDbLine
 10
2336.943905906809
 20
4146.613929769586
 30
0.0
 11
2336.948702890309
 21
4146.607076016087
 31
0.0
  0
LINE
  5
AC5
330
1F
100
AcDbEntity
  8
0
100
AcDbLine
 10
2336.943906029809
 20
4149.013930850586
 30
0.0
 11
2336.948703006309
 21
4149.007077106587
 31
0.0
  0
LINE
  5
AC6
330
1F
100
AcDbEntity
  8
0
100
AcDbLine
 10
1332.14870304731
 20
3931.657076113586
 30
0.0
 11
1432.64945696381
 21
3931.657076113586
 31
0.0
  0
LINE
  5
AC7
330
1F
100
AcDbEntity
  8
0
100
AcDbLine
 10
3384.648703047309
 20
3971.657076113586
 30
0.0
 11
3476.64870304731
 21
3971.657076113586
 31
0.0
  0
LINE
  5
AC8
330
1F
100
AcDbEntity
  8
0
100
AcDbLine
 10
2277.281879800809
 20
4142.851370943087
 30
0.0
 11
2278.749019441308
 21
4141.803235630086
 31
0.0
  0
LINE
  5
AC9
330
1F
100
AcDbEntity
  8
0
100
AcDbLine
 10
2277.281880004809
 20
4145.251370228586
 30
0.0
 11
2278.749019636808
 21
4144.203234915085
 31
0.0
  0
LINE
  5
ACA
330
1F
100
AcDbEntity
  8
0
100
AcDbLine
 10
2277.281879920308
 20
4147.651371681586
 30
0.0
 11
2278.749019556809
 21
4146.603236367585
 31
0.0
  0
LINE
  5
ACB
330
1F
100
AcDbEntity
  8
0
100
AcDbLine
 10
1332.14870304731
 20
4041.657076113586
 30
0.0
 11
1449.739878247809
 21
4041.657076113586
 31
0.0
  0
LINE
  5
ACC
330
1F
100
AcDbEntity
  8
0
100
AcDbLine
 10
2277.281879794308
 20
4150.051371495087
 30
0.0
 11
2278.749019435808
 21
4149.003236181585
 31
0.0
  0
LINE
  5
ACD
330
1F
100
AcDbEntity
  8
0
100
AcDbLine
 10
2337.015803424808
 20
4144.162582188586
 30
0.0
 11
2335.548214323809
 21
4145.211038494585
 31
0.0
  0
LINE
  5
ACE
330
1F
100
AcDbEntity
  8
0
100
AcDbLine
 10
2337.015803404308
 20
4146.562583058585
 30
0.0
 11
2335.548214303309
 21
4147.611039365586
 31
0.0
  0
LINE
  5
ACF
330
1F
100
AcDbEntity
  8
0
100
AcDbLine
 10
2337.015803513807
 20
4148.962584149086
 30
0.0
 11
2335.548214408308
 21
4150.011040455086
 31
0.0
  0
LINE
  5
AD0
330
1F
100
AcDbEntity
  8
0
100
AcDbLine
 10
2335.478702913309
 20
4145.257075155586
 30
0.0
 11
2335.275209098808
 21
4145.211265303086
 31
0.0
  0
LINE
  5
AD1
330
1F
100
AcDbEntity
  8
0
100
AcDbLine
 10
2335.473657159309
 20
4142.949865866086
 30
0.0
 11
2335.275209098808
 21
4142.911265303086
 31
0.0
  0
LINE
  5
AD2
330
1F
100
AcDbEntity
  8
0
100
AcDbLine
 10
2336.948703006309
 20
4149.007077106587
 30
0.0
 11
2336.648090156809
 21
4148.952776114086
 31
0.0
  0
LINE
  5
AD3
330
1F
100
AcDbEntity
  8
0
100
AcDbLine
 10
2335.478702897809
 20
4147.657076016086
 30
0.0
 11
2335.11686096181
 21
4147.595961249086
 31
0.0
  0
LINE
  5
AD4
330
1F
100
AcDbEntity
  8
0
100
AcDbLine
 10
2336.943906029809
 20
4148.800223363085
 30
0.0
 11
2336.648090156809
 21
4148.752776114086
 31
0.0
  0
LINE
  5
AD5
330
1F
100
AcDbEntity
  8
0
100
AcDbLine
 10
2336.948702906308
 20
4144.207075155586
 30
0.0
 11
2336.551956015309
 21
4144.144676113586
 31
0.0
  0
POLYLINE
  5
AD6
330
1F
100
AcDbEntity
  8
0
100
AcDb2dPolyline
 66
     1
 10
0.0
 20
0.0
 30
0.0
  0
VERTEX
  5
AD7
330
AD6
100
AcDbEntity
  8
0
100
AcDbVertex
100
AcDb2dVertex
 10
2335.473657135309
 20
4145.349866714087
 30
0.0
  0
VERTEX
  5
AD8
330
AD6
100
AcDbEntity
  8
0
100
AcDbVertex
100
AcDb2dVertex
 10
2335.11686096181
 20
4145.295961249085
 30
0.0
  0
VERTEX
  5
AD9
330
AD6
100
AcDbEntity
  8
0
100
AcDbVertex
100
AcDb2dVertex
 10
2332.882695975809
 20
4145.192278816586
 30
0.0
  0
SEQEND
  5
ADA
330
AD6
100
AcDbEntity
  8
0
  0
LINE
  5
ADB
330
1F
100
AcDbEntity
  8
0
100
AcDbLine
 10
2277.812801978308
 20
4145.274576114085
 30
0.0
 11
2277.348703226809
 21
4145.207075320086
 31
0.0
  0
LINE
  5
ADC
330
1F
100
AcDbEntity
  8
0
100
AcDbLine
 10
2336.943905931309
 20
4144.000221414586
 30
0.0
 11
2336.551956015309
 21
4143.944676113586
 31
0.0
  0
LINE
  5
ADD
330
1F
100
AcDbEntity
  8
0
100
AcDbLine
 10
2335.478703008309
 20
4150.057077106586
 30
0.0
 11
2334.913612784308
 21
4149.980657195087
 31
0.0
  0
LINE
  5
ADE
330
1F
100
AcDbEntity
  8
0
100
AcDbLine
 10
2277.812801978308
 20
4145.474576114085
 30
0.0
 11
2277.353500207809
 21
4145.413929070086
 31
0.0
  0
LINE
  5
ADF
330
1F
100
AcDbEntity
  8
0
100
AcDbLine
 10
2277.930464280308
 20
4150.082676113586
 30
0.0
 11
2277.348703050309
 21
4150.007076553586
 31
0.0
  0
LINE
  5
AE0
330
1F
100
AcDbEntity
  8
0
100
AcDbLine
 10
2335.473657252808
 20
4147.749867814087
 30
0.0
 11
2334.913612784308
 21
4147.680657195087
 31
0.0
  0
LINE
  5
AE1
330
1F
100
AcDbEntity
  8
0
100
AcDbLine
 10
2279.546291366808
 20
4146.643832871086
 30
0.0
 11
2278.818703143809
 21
4146.557076769586
 31
0.0
  0
LINE
  5
AE2
330
1F
100
AcDbEntity
  8
0
100
AcDbLine
 10
2277.930464280308
 20
4150.282676113586
 30
0.0
 11
2277.353500017808
 21
4150.213930284586
 31
0.0
  0
LINE
  5
AE3
330
1F
100
AcDbEntity
  8
0
100
AcDbLine
 10
2279.546291366808
 20
4148.943832871086
 30
0.0
 11
2278.823748905309
 21
4148.864286069585
 31
0.0
  0
POLYLINE
  5
AE4
330
1F
100
AcDbEntity
  8
0
100
AcDb2dPolyline
 66
     1
 10
0.0
 20
0.0
 30
0.0
  0
VERTEX
  5
AE5
330
AE4
100
AcDbEntity
  8
0
100
AcDbVertex
100
AcDb2dVertex
 10
2335.473657199308
 20
4150.149866056086
 30
0.0
  0
VERTEX
  5
AE6
330
AE4
100
AcDbEntity
  8
0
100
AcDbVertex
100
AcDb2dVertex
 10
2334.665031280808
 20
4150.065307103585
 30
0.0
  0
VERTEX
  5
AE7
330
AE4
100
AcDbEntity
  8
0
100
AcDbVertex
100
AcDb2dVertex
 10
2331.850399576309
 20
4149.961631247586
 30
0.0
  0
VERTEX
  5
AE8
330
AE4
100
AcDbEntity
  8
0
100
AcDbVertex
100
AcDb2dVertex
 10
2327.227127758809
 20
4149.857955392086
 30
0.0
  0
VERTEX
  5
AE9
330
AE4
100
AcDbEntity
  8
0
100
AcDbVertex
100
AcDb2dVertex
 10
2321.133727905809
 20
4149.754279536586
 30
0.0
  0
VERTEX
  5
AEA
330
AE4
100
AcDbEntity
  8
0
100
AcDbVertex
100
AcDb2dVertex
 10
2314.016353957309
 20
4149.650603680586
 30
0.0
  0
VERTEX
  5
AEB
330
AE4
100
AcDbEntity
  8
0
100
AcDbVertex
100
AcDb2dVertex
 10
2306.396134722308
 20
4149.546927825086
 30
0.0
  0
VERTEX
  5
AEC
330
AE4
100
AcDbEntity
  8
0
100
AcDbVertex
100
AcDb2dVertex
 10
2298.831017249308
 20
4149.443251969086
 30
0.0
  0
VERTEX
  5
AED
330
AE4
100
AcDbEntity
  8
0
100
AcDbVertex
100
AcDb2dVertex
 10
2291.874914359308
 20
4149.339576113586
 30
0.0
  0
SEQEND
  5
AEE
330
AE4
100
AcDbEntity
  8
0
  0
LINE
  5
AEF
330
1F
100
AcDbEntity
  8
0
100
AcDbLine
 10
2279.823996674309
 20
4144.259136925085
 30
0.0
 11
2278.818703218308
 21
4144.157075320086
 31
0.0
  0
LINE
  5
AF0
330
1F
100
AcDbEntity
  8
0
100
AcDbLine
 10
2279.823996674309
 20
4146.559136925086
 30
0.0
 11
2278.823748978309
 21
4146.464284619086
 31
0.0
  0
LINE
  5
AF1
330
1F
100
AcDbEntity
  8
0
100
AcDbLine
 10
2336.402122650626
 20
4151.150924048384
 30
0.0
 11
2335.904844923808
 21
4151.105676113586
 31
0.0
  0
LINE
  5
AF2
330
1F
100
AcDbEntity
  8
0
100
AcDbLine
 10
2336.948702890309
 20
4146.607076016087
 30
0.0
 11
2335.732589187809
 21
4146.497576114085
 31
0.0
  0
LINE
  5
AF3
330
1F
100
AcDbEntity
  8
0
100
AcDbLine
 10
2336.943905906809
 20
4146.400222263086
 30
0.0
 11
2335.732589187809
 21
4146.297576114085
 31
0.0
  0
LINE
  5
AF4
330
1F
100
AcDbEntity
  8
0
100
AcDbLine
 10
2280.145524435809
 20
4144.174440978586
 30
0.0
 11
2278.823748804308
 21
4144.064285270586
 31
0.0
  0
LINE
  5
AF5
330
1F
100
AcDbEntity
  8
0
100
AcDbLine
 10
2278.679876163308
 20
4143.121676113586
 30
0.0
 11
2277.353500026308
 21
4143.013929723086
 31
0.0
  0
POLYLINE
  5
AF6
330
1F
100
AcDbEntity
  8
0
100
AcDb2dPolyline
 66
     1
 10
0.0
 20
0.0
 30
0.0
  0
VERTEX
  5
AF7
330
AF6
100
AcDbEntity
  8
0
100
AcDbVertex
100
AcDb2dVertex
 10
2280.145524435809
 20
4141.874440978585
 30
0.0
  0
VERTEX
  5
AF8
330
AF6
100
AcDbEntity
  8
0
100
AcDbVertex
100
AcDb2dVertex
 10
2278.836876727309
 20
4141.770758546086
 30
0.0
  0
VERTEX
  5
AF9
330
AF6
100
AcDbEntity
  8
0
100
AcDbVertex
100
AcDb2dVertex
 10
2278.818703060809
 20
4141.757075996086
 30
0.0
  0
SEQEND
  5
AFA
330
AF6
100
AcDbEntity
  8
0
  0
LINE
  5
AFB
330
1F
100
AcDbEntity
  8
0
100
AcDbLine
 10
2278.679876163308
 20
4142.921676113586
 30
0.0
 11
2277.364152247309
 21
4142.819376113586
 31
0.0
  0
LINE
  5
AFC
330
1F
100
AcDbEntity
  8
0
100
AcDbLine
 10
2278.873001302308
 20
4147.729776114085
 30
0.0
 11
2277.391189778308
 21
4147.627476114086
 31
0.0
  0
POLYLINE
  5
AFD
330
1F
100
AcDbEntity
  8
0
100
AcDb2dPolyline
 66
     1
 10
0.0
 20
0.0
 30
0.0
  0
VERTEX
  5
AFE
330
AFD
100
AcDbEntity
  8
0
100
AcDbVertex
100
AcDb2dVertex
 10
2278.873001302308
 20
4147.929776114086
 30
0.0
  0
VERTEX
  5
AFF
330
AFD
100
AcDbEntity
  8
0
100
AcDbVertex
100
AcDb2dVertex
 10
2277.391189778308
 20
4147.827476114087
 30
0.0
  0
VERTEX
  5
B00
330
AFD
100
AcDbEntity
  8
0
100
AcDbVertex
100
AcDb2dVertex
 10
2277.353500130809
 20
4147.813930520586
 30
0.0
  0
SEQEND
  5
B01
330
AFD
100
AcDbEntity
  8
0
  0
POLYLINE
  5
B02
330
1F
100
AcDbEntity
  8
0
100
AcDb2dPolyline
 66
     1
 10
0.0
 20
0.0
 30
0.0
  0
VERTEX
  5
B03
330
B02
100
AcDbEntity
  8
0
100
AcDbVertex
100
AcDb2dVertex
 10
2335.275209098808
 20
4142.911265303086
 30
0.0
  0
VERTEX
  5
B04
330
B02
100
AcDbEntity
  8
0
100
AcDbVertex
100
AcDb2dVertex
 10
2333.336596174809
 20
4142.807582870585
 30
0.0
  0
VERTEX
  5
B05
330
B02
100
AcDbEntity
  8
0
100
AcDbVertex
100
AcDb2dVertex
 10
2329.480284867809
 20
4142.703900438085
 30
0.0
  0
VERTEX
  5
B06
330
B02
100
AcDbEntity
  8
0
100
AcDbVertex
100
AcDb2dVertex
 10
2323.988666379309
 20
4142.600218005585
 30
0.0
  0
VERTEX
  5
B07
330
B02
100
AcDbEntity
  8
0
100
AcDbVertex
100
AcDb2dVertex
 10
2317.263883015809
 20
4142.496535573086
 30
0.0
  0
SEQEND
  5
B08
330
B02
100
AcDbEntity
  8
0
  0
LINE
  5
B09
330
1F
100
AcDbEntity
  8
0
100
AcDbLine
 10
2335.275209098808
 20
4145.211265303086
 30
0.0
 11
2333.336596174809
 21
4145.107582870585
 31
0.0
  0
LINE
  5
B0A
330
1F
100
AcDbEntity
  8
0
100
AcDbLine
 10
2336.648090156809
 20
4148.752776114086
 30
0.0
 11
2334.479135981809
 21
4148.650476114087
 31
0.0
  0
LINE
  5
B0B
330
1F
100
AcDbEntity
  8
0
100
AcDbLine
 10
2336.648090156809
 20
4148.952776114086
 30
0.0
 11
2334.479135981809
 21
4148.850476114087
 31
0.0
  0
LINE
  5
B0C
330
1F
100
AcDbEntity
  8
0
100
AcDbLine
 10
2335.11686096181
 20
4147.595961249086
 30
0.0
 11
2332.882695975809
 21
4147.492278816586
 31
0.0
  0
LINE
  5
B0D
330
1F
100
AcDbEntity
  8
0
100
AcDbLine
 10
2336.551956015309
 20
4143.944676113586
 30
0.0
 11
2334.221189593808
 21
4143.842376113586
 31
0.0
  0
LINE
  5
B0E
330
1F
100
AcDbEntity
  8
0
100
AcDbLine
 10
2336.551956015309
 20
4144.144676113586
 30
0.0
 11
2334.221189593808
 21
4144.042376113586
 31
0.0
  0
LINE
  5
B0F
330
1F
100
AcDbEntity
  8
0
100
AcDbLine
 10
2280.244972098809
 20
4145.376876114086
 30
0.0
 11
2277.812801978308
 21
4145.274576114085
 31
0.0
  0
LINE
  5
B10
330
1F
100
AcDbEntity
  8
0
100
AcDbLine
 10
2280.244972098809
 20
4145.576876114086
 30
0.0
 11
2277.812801978308
 21
4145.474576114085
 31
0.0
  0
POLYLINE
  5
B11
330
1F
100
AcDbEntity
  8
0
100
AcDb2dPolyline
 66
     1
 10
0.0
 20
0.0
 30
0.0
  0
VERTEX
  5
B12
330
B11
100
AcDbEntity
  8
0
100
AcDbVertex
100
AcDb2dVertex
 10
2334.913612784308
 20
4147.680657195087
 30
0.0
  0
VERTEX
  5
B13
330
B11
100
AcDbEntity
  8
0
100
AcDbVertex
100
AcDb2dVertex
 10
2332.38747104831
 20
4147.576974762586
 30
0.0
  0
VERTEX
  5
B14
330
B11
100
AcDbEntity
  8
0
100
AcDbVertex
100
AcDb2dVertex
 10
2328.013135777809
 20
4147.473292330086
 30
0.0
  0
VERTEX
  5
B15
330
B11
100
AcDbEntity
  8
0
100
AcDbVertex
100
AcDb2dVertex
 10
2322.110932653809
 20
4147.369609897586
 30
0.0
  0
VERTEX
  5
B16
330
B11
100
AcDbEntity
  8
0
100
AcDbVertex
100
AcDb2dVertex
 10
2315.113070487808
 20
4147.265927465586
 30
0.0
  0
VERTEX
  5
B17
330
B11
100
AcDbEntity
  8
0
100
AcDbVertex
100
AcDb2dVertex
 10
2299.922844823809
 20
4147.058562600586
 30
0.0
  0
SEQEND
  5
B18
330
B11
100
AcDbEntity
  8
0
  0
POLYLINE
  5
B19
330
1F
100
AcDbEntity
  8
0
100
AcDb2dPolyline
 66
     1
 10
0.0
 20
0.0
 30
0.0
  0
VERTEX
  5
B1A
330
B19
100
AcDbEntity
  8
0
100
AcDbVertex
100
AcDb2dVertex
 10
2334.913612784308
 20
4149.980657195087
 30
0.0
  0
VERTEX
  5
B1B
330
B19
100
AcDbEntity
  8
0
100
AcDbVertex
100
AcDb2dVertex
 10
2332.38747104831
 20
4149.876974762586
 30
0.0
  0
VERTEX
  5
B1C
330
B19
100
AcDbEntity
  8
0
100
AcDbVertex
100
AcDb2dVertex
 10
2328.013135777809
 20
4149.773292330086
 30
0.0
  0
VERTEX
  5
B1D
330
B19
100
AcDbEntity
  8
0
100
AcDbVertex
100
AcDb2dVertex
 10
2322.110932653809
 20
4149.669609897586
 30
0.0
  0
VERTEX
  5
B1E
330
B19
100
AcDbEntity
  8
0
100
AcDbVertex
100
AcDb2dVertex
 10
2315.113070487808
 20
4149.565927465586
 30
0.0
  0
VERTEX
  5
B1F
330
B19
100
AcDbEntity
  8
0
100
AcDbVertex
100
AcDb2dVertex
 10
2299.922844823809
 20
4149.358562600585
 30
0.0
  0
SEQEND
  5
B20
330
B19
100
AcDbEntity
  8
0
  0
LINE
  5
B21
330
1F
100
AcDbEntity
  8
0
100
AcDbLine
 10
2280.522722288309
 20
4150.184976113586
 30
0.0
 11
2277.930464280308
 21
4150.082676113586
 31
0.0
  0
LINE
  5
B22
330
1F
100
AcDbEntity
  8
0
100
AcDbLine
 10
2280.522722288309
 20
4150.384976113586
 30
0.0
 11
2277.930464280308
 21
4150.282676113586
 31
0.0
  0
LINE
  5
B23
330
1F
100
AcDbEntity
  8
0
100
AcDbLine
 10
2335.904844923808
 20
4151.105676113586
 30
0.0
 11
2332.81074681631
 21
4151.003376113586
 31
0.0
  0
POLYLINE
  5
B24
330
1F
100
AcDbEntity
  8
0
100
AcDb2dPolyline
 66
     1
 10
0.0
 20
0.0
 30
0.0
  0
VERTEX
  5
B25
330
B24
100
AcDbEntity
  8
0
100
AcDbVertex
100
AcDb2dVertex
 10
2335.732589187809
 20
4146.297576114085
 30
0.0
  0
VERTEX
  5
B26
330
B24
100
AcDbEntity
  8
0
100
AcDbVertex
100
AcDb2dVertex
 10
2332.48373370981
 20
4146.195276114086
 30
0.0
  0
VERTEX
  5
B27
330
B24
100
AcDbEntity
  8
0
100
AcDbVertex
100
AcDb2dVertex
 10
2327.428486551308
 20
4146.092976114085
 30
0.0
  0
VERTEX
  5
B28
330
B24
100
AcDbEntity
  8
0
100
AcDbVertex
100
AcDb2dVertex
 10
2320.927287559308
 20
4145.990676114086
 30
0.0
  0
VERTEX
  5
B29
330
B24
100
AcDbEntity
  8
0
100
AcDbVertex
100
AcDb2dVertex
 10
2313.44367318381
 20
4145.888376114085
 30
0.0
  0
VERTEX
  5
B2A
330
B24
100
AcDbEntity
  8
0
100
AcDbVertex
100
AcDb2dVertex
 10
2305.511226277809
 20
4145.786076114086
 30
0.0
  0
VERTEX
  5
B2B
330
B24
100
AcDbEntity
  8
0
100
AcDbVertex
100
AcDb2dVertex
 10
2297.695531571308
 20
4145.683776114086
 30
0.0
  0
VERTEX
  5
B2C
330
B24
100
AcDbEntity
  8
0
100
AcDbVertex
100
AcDb2dVertex
 10
2290.553849404808
 20
4145.581476114086
 30
0.0
  0
VERTEX
  5
B2D
330
B24
100
AcDbEntity
  8
0
100
AcDbVertex
100
AcDb2dVertex
 10
2284.595382982308
 20
4145.479176114086
 30
0.0
  0
VERTEX
  5
B2E
330
B24
100
AcDbEntity
  8
0
100
AcDbVertex
100
AcDb2dVertex
 10
2280.244972098809
 20
4145.376876114086
 30
0.0
  0
SEQEND
  5
B2F
330
B24
100
AcDbEntity
  8
0
  0
POLYLINE
  5
B30
330
1F
100
AcDbEntity
  8
0
100
AcDb2dPolyline
 66
     1
 10
0.0
 20
0.0
 30
0.0
  0
VERTEX
  5
B31
330
B30
100
AcDbEntity
  8
0
100
AcDbVertex
100
AcDb2dVertex
 10
2335.732589187809
 20
4146.497576114085
 30
0.0
  0
VERTEX
  5
B32
330
B30
100
AcDbEntity
  8
0
100
AcDbVertex
100
AcDb2dVertex
 10
2332.48373370981
 20
4146.395276114087
 30
0.0
  0
VERTEX
  5
B33
330
B30
100
AcDbEntity
  8
0
100
AcDbVertex
100
AcDb2dVertex
 10
2327.428486551308
 20
4146.292976114085
 30
0.0
  0
VERTEX
  5
B34
330
B30
100
AcDbEntity
  8
0
100
AcDbVertex
100
AcDb2dVertex
 10
2320.927287559308
 20
4146.190676114087
 30
0.0
  0
VERTEX
  5
B35
330
B30
100
AcDbEntity
  8
0
100
AcDbVertex
100
AcDb2dVertex
 10
2313.44367318381
 20
4146.088376114087
 30
0.0
  0
VERTEX
  5
B36
330
B30
100
AcDbEntity
  8
0
100
AcDbVertex
100
AcDb2dVertex
 10
2305.511226277809
 20
4145.986076114087
 30
0.0
  0
VERTEX
  5
B37
330
B30
100
AcDbEntity
  8
0
100
AcDbVertex
100
AcDb2dVertex
 10
2297.695531571308
 20
4145.883776114087
 30
0.0
  0
VERTEX
  5
B38
330
B30
100
AcDbEntity
  8
0
100
AcDbVertex
100
AcDb2dVertex
 10
2290.553849404808
 20
4145.781476114086
 30
0.0
  0
VERTEX
  5
B39
330
B30
100
AcDbEntity
  8
0
100
AcDbVertex
100
AcDb2dVertex
 10
2284.595382982308
 20
4145.679176114087
 30
0.0
  0
VERTEX
  5
B3A
330
B30
100
AcDbEntity
  8
0
100
AcDbVertex
100
AcDb2dVertex
 10
2280.244972098809
 20
4145.576876114086
 30
0.0
  0
SEQEND
  5
B3B
330
B30
100
AcDbEntity
  8
0
  0
LINE
  5
B3C
330
1F
100
AcDbEntity
  8
0
100
AcDbLine
 10
2282.025438869808
 20
4143.023976113586
 30
0.0
 11
2278.679876163308
 21
4142.921676113586
 31
0.0
  0
LINE
  5
B3D
330
1F
100
AcDbEntity
  8
0
100
AcDbLine
 10
2282.025438869808
 20
4143.223976113586
 30
0.0
 11
2278.679876163308
 21
4143.121676113586
 31
0.0
  0
POLYLINE
  5
B3E
330
1F
100
AcDbEntity
  8
0
100
AcDb2dPolyline
 66
     1
 10
0.0
 20
0.0
 30
0.0
  0
VERTEX
  5
B3F
330
B3E
100
AcDbEntity
  8
0
100
AcDbVertex
100
AcDb2dVertex
 10
2333.336596174809
 20
4145.107582870585
 30
0.0
  0
VERTEX
  5
B40
330
B3E
100
AcDbEntity
  8
0
100
AcDbVertex
100
AcDb2dVertex
 10
2329.480284867809
 20
4145.003900438086
 30
0.0
  0
VERTEX
  5
B41
330
B3E
100
AcDbEntity
  8
0
100
AcDbVertex
100
AcDb2dVertex
 10
2323.988666379309
 20
4144.900218005585
 30
0.0
  0
VERTEX
  5
B42
330
B3E
100
AcDbEntity
  8
0
100
AcDbVertex
100
AcDb2dVertex
 10
2317.263883015809
 20
4144.796535573086
 30
0.0
  0
VERTEX
  5
B43
330
B3E
100
AcDbEntity
  8
0
100
AcDbVertex
100
AcDb2dVertex
 10
2309.798380000809
 20
4144.692853140586
 30
0.0
  0
VERTEX
  5
B44
330
B3E
100
AcDbEntity
  8
0
100
AcDbVertex
100
AcDb2dVertex
 10
2302.138844531809
 20
4144.589170708086
 30
0.0
  0
VERTEX
  5
B45
330
B3E
100
AcDbEntity
  8
0
100
AcDbVertex
100
AcDb2dVertex
 10
2294.84617274481
 20
4144.485488276086
 30
0.0
  0
VERTEX
  5
B46
330
B3E
100
AcDbEntity
  8
0
100
AcDbVertex
100
AcDb2dVertex
 10
2288.454396157308
 20
4144.381805843586
 30
0.0
  0
VERTEX
  5
B47
330
B3E
100
AcDbEntity
  8
0
100
AcDbVertex
100
AcDb2dVertex
 10
2283.431575327809
 20
4144.278123411086
 30
0.0
  0
VERTEX
  5
B48
330
B3E
100
AcDbEntity
  8
0
100
AcDbVertex
100
AcDb2dVertex
 10
2280.145524435809
 20
4144.174440978586
 30
0.0
  0
SEQEND
  5
B49
330
B3E
100
AcDbEntity
  8
0
  0
POLYLINE
  5
B4A
330
1F
100
AcDbEntity
  8
0
100
AcDb2dPolyline
 66
     1
 10
0.0
 20
0.0
 30
0.0
  0
VERTEX
  5
B4B
330
B4A
100
AcDbEntity
  8
0
100
AcDbVertex
100
AcDb2dVertex
 10
2332.882695975809
 20
4145.192278816586
 30
0.0
  0
VERTEX
  5
B4C
330
B4A
100
AcDbEntity
  8
0
100
AcDbVertex
100
AcDb2dVertex
 10
2328.764074876309
 20
4145.088596384585
 30
0.0
  0
VERTEX
  5
B4D
330
B4A
100
AcDbEntity
  8
0
100
AcDbVertex
100
AcDb2dVertex
 10
2323.062597148309
 20
4144.984913952085
 30
0.0
  0
VERTEX
  5
B4E
330
B4A
100
AcDbEntity
  8
0
100
AcDbVertex
100
AcDb2dVertex
 10
2316.195772154308
 20
4144.881231519586
 30
0.0
  0
VERTEX
  5
B4F
330
B4A
100
AcDbEntity
  8
0
100
AcDbVertex
100
AcDb2dVertex
 10
2308.666445658309
 20
4144.777549087086
 30
0.0
  0
VERTEX
  5
B50
330
B4A
100
AcDbEntity
  8
0
100
AcDbVertex
100
AcDb2dVertex
 10
2301.025977314309
 20
4144.673866654586
 30
0.0
  0
VERTEX
  5
B51
330
B4A
100
AcDbEntity
  8
0
100
AcDbVertex
100
AcDb2dVertex
 10
2293.833865558309
 20
4144.570184222086
 30
0.0
  0
VERTEX
  5
B52
330
B4A
100
AcDbEntity
  8
0
100
AcDbVertex
100
AcDb2dVertex
 10
2287.616776507309
 20
4144.466501789586
 30
0.0
  0
VERTEX
  5
B53
330
B4A
100
AcDbEntity
  8
0
100
AcDbVertex
100
AcDb2dVertex
 10
2282.829977101309
 20
4144.362819357086
 30
0.0
  0
VERTEX
  5
B54
330
B4A
100
AcDbEntity
  8
0
100
AcDbVertex
100
AcDb2dVertex
 10
2279.823996674309
 20
4144.259136925085
 30
0.0
  0
SEQEND
  5
B55
330
B4A
100
AcDbEntity
  8
0
  0
POLYLINE
  5
B56
330
1F
100
AcDbEntity
  8
0
100
AcDb2dPolyline
 66
     1
 10
0.0
 20
0.0
 30
0.0
  0
VERTEX
  5
B57
330
B56
100
AcDbEntity
  8
0
100
AcDbVertex
100
AcDb2dVertex
 10
2332.882695975809
 20
4147.492278816586
 30
0.0
  0
VERTEX
  5
B58
330
B56
100
AcDbEntity
  8
0
100
AcDbVertex
100
AcDb2dVertex
 10
2328.764074876309
 20
4147.388596384586
 30
0.0
  0
VERTEX
  5
B59
330
B56
100
AcDbEntity
  8
0
100
AcDbVertex
100
AcDb2dVertex
 10
2323.062597148309
 20
4147.284913952086
 30
0.0
  0
VERTEX
  5
B5A
330
B56
100
AcDbEntity
  8
0
100
AcDbVertex
100
AcDb2dVertex
 10
2316.195772154308
 20
4147.181231519585
 30
0.0
  0
VERTEX
  5
B5B
330
B56
100
AcDbEntity
  8
0
100
AcDbVertex
100
AcDb2dVertex
 10
2308.666445658309
 20
4147.077549087086
 30
0.0
  0
VERTEX
  5
B5C
330
B56
100
AcDbEntity
  8
0
100
AcDbVertex
100
AcDb2dVertex
 10
2301.025977314309
 20
4146.973866654586
 30
0.0
  0
VERTEX
  5
B5D
330
B56
100
AcDbEntity
  8
0
100
AcDbVertex
100
AcDb2dVertex
 10
2293.833865558309
 20
4146.870184222086
 30
0.0
  0
VERTEX
  5
B5E
330
B56
100
AcDbEntity
  8
0
100
AcDbVertex
100
AcDb2dVertex
 10
2287.616776507309
 20
4146.766501789586
 30
0.0
  0
VERTEX
  5
B5F
330
B56
100
AcDbEntity
  8
0
100
AcDbVertex
100
AcDb2dVertex
 10
2282.829977101309
 20
4146.662819357086
 30
0.0
  0
VERTEX
  5
B60
330
B56
100
AcDbEntity
  8
0
100
AcDbVertex
100
AcDb2dVertex
 10
2279.823996674309
 20
4146.559136925086
 30
0.0
  0
SEQEND
  5
B61
330
B56
100
AcDbEntity
  8
0
  0
POLYLINE
  5
B62
330
1F
100
AcDbEntity
  8
0
100
AcDb2dPolyline
 66
     1
 10
0.0
 20
0.0
 30
0.0
  0
VERTEX
  5
B63
330
B62
100
AcDbEntity
  8
0
100
AcDbVertex
100
AcDb2dVertex
 10
2334.479135981809
 20
4148.650476114087
 30
0.0
  0
VERTEX
  5
B64
330
B62
100
AcDbEntity
  8
0
100
AcDbVertex
100
AcDb2dVertex
 10
2330.36151558681
 20
4148.548176114086
 30
0.0
  0
VERTEX
  5
B65
330
B62
100
AcDbEntity
  8
0
100
AcDbVertex
100
AcDb2dVertex
 10
2324.58881656931
 20
4148.445876114087
 30
0.0
  0
VERTEX
  5
B66
330
B62
100
AcDbEntity
  8
0
100
AcDbVertex
100
AcDb2dVertex
 10
2317.572633898309
 20
4148.343576114085
 30
0.0
  0
VERTEX
  5
B67
330
B62
100
AcDbEntity
  8
0
100
AcDbVertex
100
AcDb2dVertex
 10
2309.813223071808
 20
4148.241276114087
 30
0.0
  0
VERTEX
  5
B68
330
B62
100
AcDbEntity
  8
0
100
AcDbVertex
100
AcDb2dVertex
 10
2301.863831776808
 20
4148.138976114085
 30
0.0
  0
VERTEX
  5
B69
330
B62
100
AcDbEntity
  8
0
100
AcDbVertex
100
AcDb2dVertex
 10
2294.29125321281
 20
4148.036676114085
 30
0.0
  0
SEQEND
  5
B6A
330
B62
100
AcDbEntity
  8
0
  0
POLYLINE
  5
B6B
330
1F
100
AcDbEntity
  8
0
100
AcDb2dPolyline
 66
     1
 10
0.0
 20
0.0
 30
0.0
  0
VERTEX
  5
B6C
330
B6B
100
AcDbEntity
  8
0
100
AcDbVertex
100
AcDb2dVertex
 10
2334.479135981809
 20
4148.850476114087
 30
0.0
  0
VERTEX
  5
B6D
330
B6B
100
AcDbEntity
  8
0
100
AcDbVertex
100
AcDb2dVertex
 10
2330.36151558681
 20
4148.748176114086
 30
0.0
  0
VERTEX
  5
B6E
330
B6B
100
AcDbEntity
  8
0
100
AcDbVertex
100
AcDb2dVertex
 10
2324.58881656931
 20
4148.645876114087
 30
0.0
  0
VERTEX
  5
B6F
330
B6B
100
AcDbEntity
  8
0
100
AcDbVertex
100
AcDb2dVertex
 10
2317.572633898309
 20
4148.543576114086
 30
0.0
  0
VERTEX
  5
B70
330
B6B
100
AcDbEntity
  8
0
100
AcDbVertex
100
AcDb2dVertex
 10
2309.813223071808
 20
4148.441276114087
 30
0.0
  0
VERTEX
  5
B71
330
B6B
100
AcDbEntity
  8
0
100
AcDbVertex
100
AcDb2dVertex
 10
2301.863831776808
 20
4148.338976114086
 30
0.0
  0
VERTEX
  5
B72
330
B6B
100
AcDbEntity
  8
0
100
AcDbVertex
100
AcDb2dVertex
 10
2294.29125321281
 20
4148.236676114087
 30
0.0
  0
SEQEND
  5
B73
330
B6B
100
AcDbEntity
  8
0
  0
POLYLINE
  5
B74
330
1F
100
AcDbEntity
  8
0
100
AcDb2dPolyline
 66
     1
 10
0.0
 20
0.0
 30
0.0
  0
VERTEX
  5
B75
330
B74
100
AcDbEntity
  8
0
100
AcDbVertex
100
AcDb2dVertex
 10
2334.221189593808
 20
4143.842376113586
 30
0.0
  0
VERTEX
  5
B76
330
B74
100
AcDbEntity
  8
0
100
AcDbVertex
100
AcDb2dVertex
 10
2329.96014661181
 20
4143.740076113586
 30
0.0
  0
VERTEX
  5
B77
330
B74
100
AcDbEntity
  8
0
100
AcDbVertex
100
AcDb2dVertex
 10
2324.072640298808
 20
4143.637776113586
 30
0.0
  0
VERTEX
  5
B78
330
B74
100
AcDbEntity
  8
0
100
AcDbVertex
100
AcDb2dVertex
 10
2316.978451343809
 20
4143.535476113586
 30
0.0
  0
VERTEX
  5
B79
330
B74
100
AcDbEntity
  8
0
100
AcDbVertex
100
AcDb2dVertex
 10
2309.183397465808
 20
4143.433176113586
 30
0.0
  0
VERTEX
  5
B7A
330
B74
100
AcDbEntity
  8
0
100
AcDbVertex
100
AcDb2dVertex
 10
2301.243268501309
 20
4143.330876113586
 30
0.0
  0
VERTEX
  5
B7B
330
B74
100
AcDbEntity
  8
0
100
AcDbVertex
100
AcDb2dVertex
 10
2293.724198430808
 20
4143.228576113586
 30
0.0
  0
VERTEX
  5
B7C
330
B74
100
AcDbEntity
  8
0
100
AcDbVertex
100
AcDb2dVertex
 10
2287.162299837809
 20
4143.126276113586
 30
0.0
  0
VERTEX
  5
B7D
330
B74
100
AcDbEntity
  8
0
100
AcDbVertex
100
AcDb2dVertex
 10
2282.025438869808
 20
4143.023976113586
 30
0.0
  0
SEQEND
  5
B7E
330
B74
100
AcDbEntity
  8
0
  0
POLYLINE
  5
B7F
330
1F
100
AcDbEntity
  8
0
100
AcDb2dPolyline
 66
     1
 10
0.0
 20
0.0
 30
0.0
  0
VERTEX
  5
B80
330
B7F
100
AcDbEntity
  8
0
100
AcDbVertex
100
AcDb2dVertex
 10
2334.221189593808
 20
4144.042376113586
 30
0.0
  0
VERTEX
  5
B81
330
B7F
100
AcDbEntity
  8
0
100
AcDbVertex
100
AcDb2dVertex
 10
2329.96014661181
 20
4143.940076113586
 30
0.0
  0
VERTEX
  5
B82
330
B7F
100
AcDbEntity
  8
0
100
AcDbVertex
100
AcDb2dVertex
 10
2324.072640298808
 20
4143.837776113586
 30
0.0
  0
VERTEX
  5
B83
330
B7F
100
AcDbEntity
  8
0
100
AcDbVertex
100
AcDb2dVertex
 10
2316.978451343809
 20
4143.735476113586
 30
0.0
  0
VERTEX
  5
B84
330
B7F
100
AcDbEntity
  8
0
100
AcDbVertex
100
AcDb2dVertex
 10
2309.183397465808
 20
4143.633176113586
 30
0.0
  0
VERTEX
  5
B85
330
B7F
100
AcDbEntity
  8
0
100
AcDbVertex
100
AcDb2dVertex
 10
2301.243268501309
 20
4143.530876113586
 30
0.0
  0
VERTEX
  5
B86
330
B7F
100
AcDbEntity
  8
0
100
AcDbVertex
100
AcDb2dVertex
 10
2293.724198430808
 20
4143.428576113586
 30
0.0
  0
VERTEX
  5
B87
330
B7F
100
AcDbEntity
  8
0
100
AcDbVertex
100
AcDb2dVertex
 10
2287.162299837809
 20
4143.326276113586
 30
0.0
  0
VERTEX
  5
B88
330
B7F
100
AcDbEntity
  8
0
100
AcDbVertex
100
AcDb2dVertex
 10
2282.025438869808
 20
4143.223976113586
 30
0.0
  0
SEQEND
  5
B89
330
B7F
100
AcDbEntity
  8
0
  0
POLYLINE
  5
B8A
330
1F
100
AcDbEntity
  8
0
100
AcDb2dPolyline
 66
     1
 10
0.0
 20
0.0
 30
0.0
  0
VERTEX
  5
B8B
330
B8A
100
AcDbEntity
  8
0
100
AcDbVertex
100
AcDb2dVertex
 10
2332.81074681631
 20
4151.003376113586
 30
0.0
  0
VERTEX
  5
B8C
330
B8A
100
AcDbEntity
  8
0
100
AcDbVertex
100
AcDb2dVertex
 10
2327.886935511809
 20
4150.901076113586
 30
0.0
  0
VERTEX
  5
B8D
330
B8A
100
AcDbEntity
  8
0
100
AcDbVertex
100
AcDb2dVertex
 10
2321.484480074308
 20
4150.798776113586
 30
0.0
  0
VERTEX
  5
B8E
330
B8A
100
AcDbEntity
  8
0
100
AcDbVertex
100
AcDb2dVertex
 10
2314.059877606808
 20
4150.696476113586
 30
0.0
  0
VERTEX
  5
B8F
330
B8A
100
AcDbEntity
  8
0
100
AcDbVertex
100
AcDb2dVertex
 10
2306.142504911309
 20
4150.594176113586
 30
0.0
  0
VERTEX
  5
B90
330
B8A
100
AcDbEntity
  8
0
100
AcDbVertex
100
AcDb2dVertex
 10
2298.296873763808
 20
4150.491876113586
 30
0.0
  0
SEQEND
  5
B91
330
B8A
100
AcDbEntity
  8
0
  0
POLYLINE
  5
B92
330
1F
100
AcDbEntity
  8
0
100
AcDb2dPolyline
 66
     1
 10
0.0
 20
0.0
 30
0.0
  0
VERTEX
  5
B93
330
B92
100
AcDbEntity
  8
0
100
AcDbVertex
100
AcDb2dVertex
 10
2332.81074681631
 20
4151.203376113586
 30
0.0
  0
VERTEX
  5
B94
330
B92
100
AcDbEntity
  8
0
100
AcDbVertex
100
AcDb2dVertex
 10
2327.886935511809
 20
4151.101076113586
 30
0.0
  0
VERTEX
  5
B95
330
B92
100
AcDbEntity
  8
0
100
AcDbVertex
100
AcDb2dVertex
 10
2321.484480074308
 20
4150.998776113586
 30
0.0
  0
VERTEX
  5
B96
330
B92
100
AcDbEntity
  8
0
100
AcDbVertex
100
AcDb2dVertex
 10
2314.059877606808
 20
4150.896476113586
 30
0.0
  0
VERTEX
  5
B97
330
B92
100
AcDbEntity
  8
0
100
AcDbVertex
100
AcDb2dVertex
 10
2306.142504911309
 20
4150.794176113586
 30
0.0
  0
VERTEX
  5
B98
330
B92
100
AcDbEntity
  8
0
100
AcDbVertex
100
AcDb2dVertex
 10
2298.296873763808
 20
4150.691876113586
 30
0.0
  0
SEQEND
  5
B99
330
B92
100
AcDbEntity
  8
0
  0
POLYLINE
  5
B9A
330
1F
100
AcDbEntity
  8
0
100
AcDb2dPolyline
 66
     1
 10
0.0
 20
0.0
 30
0.0
  0
VERTEX
  5
B9B
330
B9A
100
AcDbEntity
  8
0
100
AcDbVertex
100
AcDb2dVertex
 10
2291.874914359308
 20
4149.339576113586
 30
0.0
  0
VERTEX
  5
B9C
330
B9A
100
AcDbEntity
  8
0
100
AcDbVertex
100
AcDb2dVertex
 10
2286.036822824807
 20
4149.235893681086
 30
0.0
  0
VERTEX
  5
B9D
330
B9A
100
AcDbEntity
  8
0
100
AcDbVertex
100
AcDb2dVertex
 10
2281.744724358309
 20
4149.132211248586
 30
0.0
  0
VERTEX
  5
B9E
330
B9A
100
AcDbEntity
  8
0
100
AcDbVertex
100
AcDb2dVertex
 10
2279.312922568309
 20
4149.028528816585
 30
0.0
  0
VERTEX
  5
B9F
330
B9A
100
AcDbEntity
  8
0
100
AcDbVertex
100
AcDb2dVertex
 10
2278.81870305031
 20
4148.957076553585
 30
0.0
  0
SEQEND
  5
BA0
330
B9A
100
AcDbEntity
  8
0
  0
POLYLINE
  5
BA1
330
1F
100
AcDbEntity
  8
0
100
AcDb2dPolyline
 66
     1
 10
0.0
 20
0.0
 30
0.0
  0
VERTEX
  5
BA2
330
BA1
100
AcDbEntity
  8
0
100
AcDbVertex
100
AcDb2dVertex
 10
2292.842836225808
 20
4149.254880168085
 30
0.0
  0
VERTEX
  5
BA3
330
BA1
100
AcDbEntity
  8
0
100
AcDbVertex
100
AcDb2dVertex
 10
2286.810422515809
 20
4149.151197735586
 30
0.0
  0
VERTEX
  5
BA4
330
BA1
100
AcDbEntity
  8
0
100
AcDbVertex
100
AcDb2dVertex
 10
2282.267347042808
 20
4149.047515303086
 30
0.0
  0
VERTEX
  5
BA5
330
BA1
100
AcDbEntity
  8
0
100
AcDbVertex
100
AcDb2dVertex
 10
2279.546291366808
 20
4148.943832871086
 30
0.0
  0
SEQEND
  5
BA6
330
BA1
100
AcDbEntity
  8
0
  0
POLYLINE
  5
BA7
330
1F
100
AcDbEntity
  8
0
100
AcDb2dPolyline
 66
     1
 10
0.0
 20
0.0
 30
0.0
  0
VERTEX
  5
BA8
330
BA7
100
AcDbEntity
  8
0
100
AcDbVertex
100
AcDb2dVertex
 10
2291.082381024809
 20
4150.389576113586
 30
0.0
  0
VERTEX
  5
BA9
330
BA7
100
AcDbEntity
  8
0
100
AcDbVertex
100
AcDb2dVertex
 10
2285.01342398981
 20
4150.287276113586
 30
0.0
  0
VERTEX
  5
BAA
330
BA7
100
AcDbEntity
  8
0
100
AcDbVertex
100
AcDb2dVertex
 10
2280.522722288309
 20
4150.184976113586
 30
0.0
  0
SEQEND
  5
BAB
330
BA7
100
AcDbEntity
  8
0
  0
POLYLINE
  5
BAC
330
1F
100
AcDbEntity
  8
0
100
AcDb2dPolyline
 66
     1
 10
0.0
 20
0.0
 30
0.0
  0
VERTEX
  5
BAD
330
BAC
100
AcDbEntity
  8
0
100
AcDbVertex
100
AcDb2dVertex
 10
2291.082381024809
 20
4150.589576113586
 30
0.0
  0
VERTEX
  5
BAE
330
BAC
100
AcDbEntity
  8
0
100
AcDbVertex
100
AcDb2dVertex
 10
2285.01342398981
 20
4150.487276113586
 30
0.0
  0
VERTEX
  5
BAF
330
BAC
100
AcDbEntity
  8
0
100
AcDbVertex
100
AcDb2dVertex
 10
2280.522722288309
 20
4150.384976113586
 30
0.0
  0
SEQEND
  5
BB0
330
BAC
100
AcDbEntity
  8
0
  0
POLYLINE
  5
BB1
330
1F
100
AcDbEntity
  8
0
100
AcDb2dPolyline
 66
     1
 10
0.0
 20
0.0
 30
0.0
  0
VERTEX
  5
BB2
330
BB1
100
AcDbEntity
  8
0
100
AcDbVertex
100
AcDb2dVertex
 10
2294.29125321281
 20
4148.036676114085
 30
0.0
  0
VERTEX
  5
BB3
330
BB1
100
AcDbEntity
  8
0
100
AcDbVertex
100
AcDb2dVertex
 10
2287.63541363781
 20
4147.934376114085
 30
0.0
  0
VERTEX
  5
BB4
330
BB1
100
AcDbEntity
  8
0
100
AcDbVertex
100
AcDb2dVertex
 10
2282.370875545809
 20
4147.832076114087
 30
0.0
  0
VERTEX
  5
BB5
330
BB1
100
AcDbEntity
  8
0
100
AcDbVertex
100
AcDb2dVertex
 10
2278.873001302308
 20
4147.729776114085
 30
0.0
  0
SEQEND
  5
BB6
330
BB1
100
AcDbEntity
  8
0
  0
POLYLINE
  5
BB7
330
1F
100
AcDbEntity
  8
0
100
AcDb2dPolyline
 66
     1
 10
0.0
 20
0.0
 30
0.0
  0
VERTEX
  5
BB8
330
BB7
100
AcDbEntity
  8
0
100
AcDbVertex
100
AcDb2dVertex
 10
2294.29125321281
 20
4148.236676114087
 30
0.0
  0
VERTEX
  5
BB9
330
BB7
100
AcDbEntity
  8
0
100
AcDbVertex
100
AcDb2dVertex
 10
2287.63541363781
 20
4148.134376114086
 30
0.0
  0
VERTEX
  5
BBA
330
BB7
100
AcDbEntity
  8
0
100
AcDbVertex
100
AcDb2dVertex
 10
2282.370875545809
 20
4148.032076114087
 30
0.0
  0
VERTEX
  5
BBB
330
BB7
100
AcDbEntity
  8
0
100
AcDbVertex
100
AcDb2dVertex
 10
2278.873001302308
 20
4147.929776114086
 30
0.0
  0
SEQEND
  5
BBC
330
BB7
100
AcDbEntity
  8
0
  0
POLYLINE
  5
BBD
330
1F
100
AcDbEntity
  8
0
100
AcDb2dPolyline
 66
     1
 10
0.0
 20
0.0
 30
0.0
  0
VERTEX
  5
BBE
330
BBD
100
AcDbEntity
  8
0
100
AcDbVertex
100
AcDb2dVertex
 10
2299.922844823809
 20
4147.058562600586
 30
0.0
  0
VERTEX
  5
BBF
330
BBD
100
AcDbEntity
  8
0
100
AcDbVertex
100
AcDb2dVertex
 10
2292.842836225808
 20
4146.954880168085
 30
0.0
  0
VERTEX
  5
BC0
330
BBD
100
AcDbEntity
  8
0
100
AcDbVertex
100
AcDb2dVertex
 10
2286.810422515809
 20
4146.851197735586
 30
0.0
  0
VERTEX
  5
BC1
330
BBD
100
AcDbEntity
  8
0
100
AcDbVertex
100
AcDb2dVertex
 10
2282.267347042808
 20
4146.747515303086
 30
0.0
  0
VERTEX
  5
BC2
330
BBD
100
AcDbEntity
  8
0
100
AcDbVertex
100
AcDb2dVertex
 10
2279.546291366808
 20
4146.643832871086
 30
0.0
  0
SEQEND
  5
BC3
330
BBD
100
AcDbEntity
  8
0
  0
LINE
  5
BC4
330
1F
100
AcDbEntity
  8
0
100
AcDbLine
 10
2299.922844823809
 20
4149.358562600585
 30
0.0
 11
2292.842836225808
 21
4149.254880168085
 31
0.0
  0
LINE
  5
BC5
330
1F
100
AcDbEntity
  8
0
100
AcDbLine
 10
2298.296873763808
 20
4150.491876113586
 30
0.0
 11
2291.082381024809
 21
4150.389576113586
 31
0.0
  0
LINE
  5
BC6
330
1F
100
AcDbEntity
  8
0
100
AcDbLine
 10
2298.296873763808
 20
4150.691876113586
 30
0.0
 11
2291.082381024809
 21
4150.589576113586
 31
0.0
  0
LINE
  5
BC7
330
1F
100
AcDbEntity
  8
0
100
AcDbLine
 10
2317.263883015809
 20
4142.496535573086
 30
0.0
 11
2307.139230531308
 21
4142.356857865586
 31
0.0
  0
POLYLINE
  5
BC8
330
1F
100
AcDbEntity
  8
0
100
AcDb2dPolyline
 66
     1
 10
0.0
 20
0.0
 30
0.0
  0
VERTEX
  5
BC9
330
BC8
100
AcDbEntity
  8
0
100
AcDbVertex
100
AcDb2dVertex
 10
2307.139230531308
 20
4142.356857865586
 30
0.0
  0
VERTEX
  5
BCA
330
BC8
100
AcDbEntity
  8
0
100
AcDbVertex
100
AcDb2dVertex
 10
2302.138844531809
 20
4142.289170708086
 30
0.0
  0
VERTEX
  5
BCB
330
BC8
100
AcDbEntity
  8
0
100
AcDbVertex
100
AcDb2dVertex
 10
2294.84617274481
 20
4142.185488276086
 30
0.0
  0
VERTEX
  5
BCC
330
BC8
100
AcDbEntity
  8
0
100
AcDbVertex
100
AcDb2dVertex
 10
2288.454396157308
 20
4142.081805843586
 30
0.0
  0
VERTEX
  5
BCD
330
BC8
100
AcDbEntity
  8
0
100
AcDbVertex
100
AcDb2dVertex
 10
2283.431575327809
 20
4141.978123411086
 30
0.0
  0
VERTEX
  5
BCE
330
BC8
100
AcDbEntity
  8
0
100
AcDbVertex
100
AcDb2dVertex
 10
2280.145524435809
 20
4141.874440978585
 30
0.0
  0
SEQEND
  5
BCF
330
BC8
100
AcDbEntity
  8
0
  0
LINE
  5
BD0
330
1F
100
AcDbEntity
  8
0
100
AcDbLine
 10
1501.456615187811
 20
4131.657076113586
 30
0.0
 11
2242.148703047308
 21
4131.657076113586
 31
0.0
  0
LINE
  5
BD1
330
1F
100
AcDbEntity
  8
0
100
AcDbLine
 10
2297.148703047308
 20
4131.657076113586
 30
0.0
 11
3312.84079090681
 21
4131.657076113586
 31
0.0
  0
LINE
  5
BD2
330
1F
100
AcDbEntity
  8
0
100
AcDbLine
 10
2122.988640772311
 20
4131.657076113586
 30
0.0
 11
2242.148703047308
 21
4131.657076113586
 31
0.0
  0
LINE
  5
BD3
330
1F
100
AcDbEntity
  8
0
100
AcDbLine
 10
2297.148703047308
 20
4131.657076113586
 30
0.0
 11
2456.308765322809
 21
4131.657076113586
 31
0.0
  0
LINE
  5
BD4
330
1F
100
AcDbEntity
  8
0
 62
     9
100
AcDbLine
 10
2274.648703047308
 20
4139.657076113586
 30
0.0
 11
2339.648703047308
 21
4139.657076113586
 31
0.0
  0
LINE
  5
BD5
330
1F
100
AcDbEntity
  8
0
100
AcDbLine
 10
2276.64870304731
 20
4141.657076113586
 30
0.0
 11
2337.648703047308
 21
4141.657076113586
 31
0.0
  0
LINE
  5
BD6
330
1F
100
AcDbEntity
  8
0
100
AcDbLine
 10
3384.648703047309
 20
3839.657076113586
 30
0.0
 11
3384.648703047309
 21
3993.657076113586
 31
0.0
  0
LINE
  5
BD7
330
1F
100
AcDbEntity
  8
0
100
AcDbLine
 10
3390.148703047309
 20
2957.157076113587
 30
0.0
 11
3390.148703047309
 21
3184.336568038087
 31
0.0
  0
LINE
  5
BD8
330
1F
100
AcDbEntity
  8
0
100
AcDbLine
 10
3476.64870304731
 20
3861.657076113586
 30
0.0
 11
3476.64870304731
 21
3971.657076113586
 31
0.0
  0
LINE
  5
BD9
330
1F
100
AcDbEntity
  8
0
100
AcDbLine
 10
3369.448873215809
 20
3813.558089784585
 30
0.0
 11
3368.641674659309
 21
3815.544604228586
 31
0.0
  0
LINE
  5
BDA
330
1F
100
AcDbEntity
  8
0
100
AcDbLine
 10
3369.445619624809
 20
3813.563694700587
 30
0.0
 11
3369.81206116981
 21
3812.007515033587
 31
0.0
  0
LINE
  5
BDB
330
1F
100
AcDbEntity
  8
0
100
AcDbLine
 10
3349.447072793309
 20
4022.269859845086
 30
0.0
 11
3337.577848063308
 21
4110.273428314586
 31
0.0
  0
ARC
  5
BDC
330
1F
100
AcDbEntity
  8
0
100
AcDbCircle
 10
2337.648703047308
 20
4139.657076113586
 30
0.0
 40
2.0
100
AcDbArc
 50
0.0
 51
90.0
  0
ARC
  5
BDD
330
1F
100
AcDbEntity
  8
0
100
AcDbCircle
 10
2276.64870304731
 20
4139.657076113586
 30
0.0
 40
2.0
100
AcDbArc
 50
90.0
 51
180.0
  0
ARC
  5
BDE
330
1F
100
AcDbEntity
  8
0
100
AcDbCircle
 10
1449.64870304731
 20
2957.157076113587
 30
0.0
 40
25.5
100
AcDbArc
 50
180.0
 51
270.0
  0
ARC
  5
BDF
330
1F
100
AcDbEntity
  8
0
100
AcDbCircle
 10
1439.14870304731
 20
3184.336568038087
 30
0.0
 40
15.0
100
AcDbArc
 50
120.0000000000061
 51
180.0
  0
ARC
  5
BE0
330
1F
100
AcDbEntity
  8
0
100
AcDbCircle
 10
3375.148703047308
 20
3184.336568038087
 30
0.0
 40
15.0
100
AcDbArc
 50
0.0
 51
59.99999999999946
  0
ARC
  5
BE1
330
1F
100
AcDbEntity
  8
0
100
AcDbCircle
 10
1440.64338891581
 20
3196.078832505587
 30
0.0
 40
5.578243607999999
100
AcDbArc
 50
90.0
 51
120.0000000000061
  0
ARC
  5
BE2
330
1F
100
AcDbEntity
  8
0
100
AcDbCircle
 10
3364.648703047308
 20
2957.157076113587
 30
0.0
 40
25.5
100
AcDbArc
 50
270.0
 51
0.0
  0
ARC
  5
BE3
330
1F
100
AcDbEntity
  8
0
100
AcDbCircle
 10
-620.3512969526936
 20
3531.657076113587
 30
0.0
 40
4000.0
100
AcDbArc
 50
355.2677196210104
 51
4.019019245788411
  0
ARC
  5
BE4
330
1F
100
AcDbEntity
  8
0
100
AcDbCircle
 10
3312.84079090681
 20
4106.657076113586
 30
0.0
 40
25.0
100
AcDbArc
 50
8.31724871243073
 51
90.0
  0
ARC
  5
BE5
330
1F
100
AcDbEntity
  8
0
100
AcDbCircle
 10
-620.3512969526936
 20
3531.657076113587
 30
0.0
 40
4000.0
100
AcDbArc
 50
7.045250917380477
 51
8.31724871243073
  0
ARC
  5
BE6
330
1F
100
AcDbEntity
  8
0
100
AcDbCircle
 10
1432.649456965811
 20
3911.657464003587
 30
0.0
 40
19.9998965625
100
AcDbArc
 50
354.5757468471816
 51
90.00000000614901
  0
ARC
  5
BE7
330
1F
100
AcDbEntity
  8
0
100
AcDbCircle
 10
1449.73987824981
 20
4061.656753148586
 30
0.0
 40
19.999913876
100
AcDbArc
 50
269.9999999937467
 51
352.4239336916016
  0
ARC
  5
BE8
330
1F
100
AcDbEntity
  8
0
100
AcDbCircle
 10
5434.648703047312
 20
3531.657076113587
 30
0.0
 40
4000.0
100
AcDbArc
 50
171.6827512875692
 51
172.4240267873211
  0
ARC
  5
BE9
330
1F
100
AcDbEntity
  8
0
100
AcDbCircle
 10
5434.648703047312
 20
3531.657076113587
 30
0.0
 40
4000.0
100
AcDbArc
 50
174.5758775032791
 51
184.7322803789895
  0
ARC
  5
BEA
330
1F
100
AcDbEntity
  8
0
100
AcDbCircle
 10
1501.456615187811
 20
4106.657076113586
 30
0.0
 40
25.0
100
AcDbArc
 50
90.0
 51
171.6827512875692
  0
LINE
  5
BEB
330
1F
100
AcDbEntity
  8
0
100
AcDbLine
 10
3349.447072793789
 20
4022.269859842458
 30
0.0
 11
3352.218368021845
 21
3993.657076113586
 31
0.0
  0
LINE
  5
BEC
330
1F
100
AcDbEntity
  8
0
100
AcDbLine
 10
3367.134059873602
 20
3839.657076113586
 30
0.0
 11
3369.812062029317
 21
3812.007515095616
 31
0.0
  0
LINE
  5
BED
330
1F
100
AcDbEntity
  8
0
100
AcDbLine
 10
3476.64870304731
 20
3861.657076113586
 30
0.0
 11
3384.648703047309
 21
3861.657076113586
 31
0.0
  0
LINE
  5
BEE
330
1F
100
AcDbEntity
  8
0
100
AcDbLine
 10
3384.648703047309
 20
3839.657076113586
 30
0.0
 11
3367.024663805248
 21
3839.657076113586
 31
0.0
  0
LINE
  5
BEF
330
1F
100
AcDbEntity
  8
0
100
AcDbLine
 10
3384.648703047309
 20
3993.657076113586
 30
0.0
 11
3352.218368021845
 21
3993.657076113586
 31
0.0
  0
ARC
  5
BF0
330
1F
100
AcDbEntity
  8
0
100
AcDbCircle
 10
1262.215501822781
 20
4001.733409596746
 30
0.0
 40
215.1175953089811
100
AcDbArc
 50
331.8507888005254
 51
15.44441067293454
  0
ARC
  5
BF1
330
1F
100
AcDbEntity
  8
0
100
AcDbCircle
 10
3760.059281492041
 20
3955.157076113586
 30
0.0
 40
409.654074433788
100
AcDbArc
 50
174.6072847830108
 51
196.3763346947702
  0
LINE
  5
BF2
330
1F
100
AcDbEntity
  8
0
100
AcDbLine
 10
2267.148703047308
 20
3201.657076113587
 30
0.0
 11
2267.148703047308
 21
4106.657076113586
 31
0.0
  0
LINE
  5
BF3
330
1F
100
AcDbEntity
  8
0
100
AcDbLine
 10
2272.148703047308
 20
3201.657076113587
 30
0.0
 11
2272.148703047308
 21
4106.657076113586
 31
0.0
  0
ARC
  5
BF4
330
1F
100
AcDbEntity
  8
0
100
AcDbCircle
 10
2262.148703047308
 20
3861.657076113586
 30
0.0
 40
10.0
100
AcDbArc
 50
0.0
 51
59.99999999999946
  0
ARC
  5
BF5
330
1F
100
AcDbEntity
  8
0
100
AcDbCircle
 10
2297.148703047308
 20
4106.657076113586
 30
0.0
 40
25.0
100
AcDbArc
 50
90.0
 51
180.0
  0
ARC
  5
BF6
330
1F
100
AcDbEntity
  8
0
100
AcDbCircle
 10
2242.148703047308
 20
4106.657076113586
 30
0.0
 40
25.0
100
AcDbArc
 50
0.0
 51
90.0
  0
ARC
  5
BF7
330
1F
100
AcDbEntity
  8
0
100
AcDbCircle
 10
2272.148703047308
 20
4096.657076113586
 30
0.0
 40
5.0
100
AcDbArc
 50
180.0
 51
270.0
  0
POLYLINE
  5
BF8
330
1F
100
AcDbEntity
  8
0
 62
     9
100
AcDb2dPolyline
 66
     1
 10
0.0
 20
0.0
 30
0.0
  0
VERTEX
  5
BF9
330
BF8
100
AcDbEntity
  8
0
 62
     9
100
AcDbVertex
100
AcDb2dVertex
 10
2259.33101368816
 20
3257.330107987417
 30
0.0
  0
VERTEX
  5
BFA
330
BF8
100
AcDbEntity
  8
0
 62
     9
100
AcDbVertex
100
AcDb2dVertex
 10
2258.49901715216
 20
3262.546775464418
 30
0.0
  0
VERTEX
  5
BFB
330
BF8
100
AcDbEntity
  8
0
 62
     9
100
AcDbVertex
100
AcDb2dVertex
 10
2256.084327477659
 20
3267.253013329918
 30
0.0
  0
VERTEX
  5
BFC
330
BF8
100
AcDbEntity
  8
0
 62
     9
100
AcDbVertex
100
AcDb2dVertex
 10
2252.323328733658
 20
3270.987887021418
 30
0.0
  0
VERTEX
  5
BFD
330
BF8
100
AcDbEntity
  8
0
 62
     9
100
AcDbVertex
100
AcDb2dVertex
 10
2247.58417121816
 20
3273.385803522918
 30
0.0
  0
VERTEX
  5
BFE
330
BF8
100
AcDbEntity
  8
0
 62
     9
100
AcDbVertex
100
AcDb2dVertex
 10
2242.331013688158
 20
3274.212020756418
 30
0.0
  0
SEQEND
  5
BFF
330
BF8
100
AcDbEntity
  8
0
 62
     9
  0
POLYLINE
  5
C00
330
1F
100
AcDbEntity
  8
0
100
AcDb2dPolyline
 66
     1
 10
0.0
 20
0.0
 30
0.0
  0
VERTEX
  5
C01
330
C00
100
AcDbEntity
  8
0
100
AcDbVertex
100
AcDb2dVertex
 10
2259.33101368816
 20
3257.329828007418
 30
0.0
  0
VERTEX
  5
C02
330
C00
100
AcDbEntity
  8
0
100
AcDbVertex
100
AcDb2dVertex
 10
2258.543413188659
 20
3257.736362882418
 30
0.0
  0
VERTEX
  5
C03
330
C00
100
AcDbEntity
  8
0
100
AcDbVertex
100
AcDb2dVertex
 10
2256.16205848866
 20
3257.943943690918
 30
0.0
  0
VERTEX
  5
C04
330
C00
100
AcDbEntity
  8
0
100
AcDbVertex
100
AcDb2dVertex
 10
2252.385478792659
 20
3257.963163798918
 30
0.0
  0
VERTEX
  5
C05
330
C00
100
AcDbEntity
  8
0
100
AcDbVertex
100
AcDb2dVertex
 10
2247.591463825159
 20
3257.834710984418
 30
0.0
  0
VERTEX
  5
C06
330
C00
100
AcDbEntity
  8
0
100
AcDbVertex
100
AcDb2dVertex
 10
2242.266021800659
 20
3257.610492584918
 30
0.0
  0
SEQEND
  5
C07
330
C00
100
AcDbEntity
  8
0
  0
POLYLINE
  5
C08
330
1F
100
AcDbEntity
  8
0
 62
     9
100
AcDb2dPolyline
 66
     1
 10
0.0
 20
0.0
 30
0.0
  0
VERTEX
  5
C09
330
C08
100
AcDbEntity
  8
0
 62
     9
100
AcDbVertex
100
AcDb2dVertex
 10
3083.134912480808
 20
3285.905448616086
 30
0.0
  0
VERTEX
  5
C0A
330
C08
100
AcDbEntity
  8
0
 62
     9
100
AcDbVertex
100
AcDb2dVertex
 10
2906.464621801809
 20
3279.569409952586
 30
0.0
  0
VERTEX
  5
C0B
330
C08
100
AcDbEntity
  8
0
 62
     9
100
AcDbVertex
100
AcDb2dVertex
 10
2702.842080449809
 20
3276.407820611086
 30
0.0
  0
VERTEX
  5
C0C
330
C08
100
AcDbEntity
  8
0
 62
     9
100
AcDbVertex
100
AcDb2dVertex
 10
2296.966392406458
 20
3274.212020756418
 30
0.0
  0
SEQEND
  5
C0D
330
C08
100
AcDbEntity
  8
0
 62
     9
  0
POLYLINE
  5
C0E
330
1F
100
AcDbEntity
  8
0
 62
     9
100
AcDb2dPolyline
 66
     1
 10
0.0
 20
0.0
 30
0.0
  0
VERTEX
  5
C0F
330
C0E
100
AcDbEntity
  8
0
 62
     9
100
AcDbVertex
100
AcDb2dVertex
 10
3084.792678220808
 20
3270.646290458586
 30
0.0
  0
VERTEX
  5
C10
330
C0E
100
AcDbEntity
  8
0
 62
     9
100
AcDbVertex
100
AcDb2dVertex
 10
2907.632191579808
 20
3262.799585669087
 30
0.0
  0
VERTEX
  5
C11
330
C0E
100
AcDbEntity
  8
0
 62
     9
100
AcDbVertex
100
AcDb2dVertex
 10
2297.031384293958
 20
3257.610492584918
 30
0.0
  0
SEQEND
  5
C12
330
C0E
100
AcDbEntity
  8
0
 62
     9
  0
POLYLINE
  5
C13
330
1F
100
AcDbEntity
  8
0
 62
     9
100
AcDb2dPolyline
 66
     1
 10
0.0
 20
0.0
 30
0.0
  0
VERTEX
  5
C14
330
C13
100
AcDbEntity
  8
0
 62
     9
100
AcDbVertex
100
AcDb2dVertex
 10
2297.21341060831
 20
3435.548220014086
 30
0.0
  0
VERTEX
  5
C15
330
C13
100
AcDbEntity
  8
0
 62
     9
100
AcDbVertex
100
AcDb2dVertex
 10
2297.206229726809
 20
3429.780690293086
 30
0.0
  0
VERTEX
  5
C16
330
C13
100
AcDbEntity
  8
0
 62
     9
100
AcDbVertex
100
AcDb2dVertex
 10
2297.191766547308
 20
3424.650443819086
 30
0.0
  0
VERTEX
  5
C17
330
C13
100
AcDbEntity
  8
0
 62
     9
100
AcDbVertex
100
AcDb2dVertex
 10
2297.171680495309
 20
3420.906921509086
 30
0.0
  0
VERTEX
  5
C18
330
C13
100
AcDbEntity
  8
0
 62
     9
100
AcDbVertex
100
AcDb2dVertex
 10
2297.148706418809
 20
3419.089640492586
 30
0.0
  0
SEQEND
  5
C19
330
C13
100
AcDbEntity
  8
0
 62
     9
  0
POLYLINE
  5
C1A
330
1F
100
AcDbEntity
  8
0
 62
     9
100
AcDb2dPolyline
 66
     1
 10
0.0
 20
0.0
 30
0.0
  0
VERTEX
  5
C1B
330
C1A
100
AcDbEntity
  8
0
 62
     9
100
AcDbVertex
100
AcDb2dVertex
 10
2297.213547210308
 20
3775.980015205586
 30
0.0
  0
VERTEX
  5
C1C
330
C1A
100
AcDbEntity
  8
0
 62
     9
100
AcDbVertex
100
AcDb2dVertex
 10
2297.206698740308
 20
3770.077361615586
 30
0.0
  0
VERTEX
  5
C1D
330
C1A
100
AcDbEntity
  8
0
 62
     9
100
AcDbVertex
100
AcDb2dVertex
 10
2297.192500828808
 20
3764.658117400586
 30
0.0
  0
VERTEX
  5
C1E
330
C1A
100
AcDbEntity
  8
0
 62
     9
100
AcDbVertex
100
AcDb2dVertex
 10
2297.172483398309
 20
3760.519168699586
 30
0.0
  0
VERTEX
  5
C1F
330
C1A
100
AcDbEntity
  8
0
 62
     9
100
AcDbVertex
100
AcDb2dVertex
 10
2297.148882392808
 20
3758.263829563586
 30
0.0
  0
SEQEND
  5
C20
330
C1A
100
AcDbEntity
  8
0
 62
     9
  0
LINE
  5
C21
330
1F
100
AcDbEntity
  8
0
 62
     9
100
AcDbLine
 10
2297.21340777531
 20
3435.548229419587
 30
0.0
 11
2297.213254083309
 21
3597.563102896086
 31
0.0
  0
LINE
  5
C22
330
1F
100
AcDbEntity
  8
0
 62
     9
100
AcDbLine
 10
2297.149116233809
 20
3614.164120164586
 30
0.0
 11
2297.148937673809
 21
3758.263867158586
 31
0.0
  0
LINE
  5
C23
330
1F
100
AcDbEntity
  8
0
 62
     9
100
AcDbLine
 10
2297.148703343856
 20
3257.611124783807
 30
0.0
 11
2297.148701573308
 21
3419.089640569087
 31
0.0
  0
POLYLINE
  5
C24
330
1F
100
AcDbEntity
  8
0
 62
     9
100
AcDb2dPolyline
 66
     1
 10
0.0
 20
0.0
 30
0.0
  0
VERTEX
  5
C25
330
C24
100
AcDbEntity
  8
0
 62
     9
100
AcDbVertex
100
AcDb2dVertex
 10
2297.148984929309
 20
3614.164156576587
 30
0.0
  0
VERTEX
  5
C26
330
C24
100
AcDbEntity
  8
0
 62
     9
100
AcDbVertex
100
AcDb2dVertex
 10
2297.172282945808
 20
3612.444840726086
 30
0.0
  0
VERTEX
  5
C27
330
C24
100
AcDbEntity
  8
0
 62
     9
100
AcDbVertex
100
AcDb2dVertex
 10
2297.192153922309
 20
3608.771852127587
 30
0.0
  0
VERTEX
  5
C28
330
C24
100
AcDbEntity
  8
0
 62
     9
100
AcDbVertex
100
AcDb2dVertex
 10
2297.206597546308
 20
3603.570843321087
 30
0.0
  0
VERTEX
  5
C29
330
C24
100
AcDbEntity
  8
0
 62
     9
100
AcDbVertex
100
AcDb2dVertex
 10
2297.213694934809
 20
3597.562628405087
 30
0.0
  0
SEQEND
  5
C2A
330
C24
100
AcDbEntity
  8
0
 62
     9
  0
POLYLINE
  5
C2B
330
1F
100
AcDbEntity
  8
0
100
AcDb2dPolyline
 66
     1
 10
0.0
 20
0.0
 30
0.0
  0
VERTEX
  5
C2C
330
C2B
100
AcDbEntity
  8
0
100
AcDbVertex
100
AcDb2dVertex
 10
2280.148703047808
 20
3774.939250208587
 30
0.0
  0
VERTEX
  5
C2D
330
C2B
100
AcDbEntity
  8
0
100
AcDbVertex
100
AcDb2dVertex
 10
2280.929202952809
 20
3770.007118504587
 30
0.0
  0
VERTEX
  5
C2E
330
C2B
100
AcDbEntity
  8
0
100
AcDbVertex
100
AcDb2dVertex
 10
2283.29702427531
 20
3765.358425352586
 30
0.0
  0
VERTEX
  5
C2F
330
C2B
100
AcDbEntity
  8
0
100
AcDbVertex
100
AcDb2dVertex
 10
2287.059369250807
 20
3761.596361181586
 30
0.0
  0
VERTEX
  5
C30
330
C2B
100
AcDbEntity
  8
0
100
AcDbVertex
100
AcDb2dVertex
 10
2291.83818502281
 20
3759.144906083087
 30
0.0
  0
VERTEX
  5
C31
330
C2B
100
AcDbEntity
  8
0
100
AcDbVertex
100
AcDb2dVertex
 10
2297.148703047308
 20
3758.263829565586
 30
0.0
  0
SEQEND
  5
C32
330
C2B
100
AcDbEntity
  8
0
  0
POLYLINE
  5
C33
330
1F
100
AcDbEntity
  8
0
 62
     9
100
AcDb2dPolyline
 66
     1
 10
0.0
 20
0.0
 30
0.0
  0
VERTEX
  5
C34
330
C33
100
AcDbEntity
  8
0
 62
     9
100
AcDbVertex
100
AcDb2dVertex
 10
2280.148703047308
 20
3435.957501036586
 30
0.0
  0
VERTEX
  5
C35
330
C33
100
AcDbEntity
  8
0
 62
     9
100
AcDbVertex
100
AcDb2dVertex
 10
2280.984746223808
 20
3435.831026104086
 30
0.0
  0
VERTEX
  5
C36
330
C33
100
AcDbEntity
  8
0
 62
     9
100
AcDbVertex
100
AcDb2dVertex
 10
2283.410643620809
 20
3435.716878259086
 30
0.0
  0
VERTEX
  5
C37
330
C33
100
AcDbEntity
  8
0
 62
     9
100
AcDbVertex
100
AcDb2dVertex
 10
2287.187789046308
 20
3435.626286782586
 30
0.0
  0
VERTEX
  5
C38
330
C33
100
AcDbEntity
  8
0
 62
     9
100
AcDbVertex
100
AcDb2dVertex
 10
2291.944670276308
 20
3435.568162214586
 30
0.0
  0
VERTEX
  5
C39
330
C33
100
AcDbEntity
  8
0
 62
     9
100
AcDbVertex
100
AcDb2dVertex
 10
2297.21341060831
 20
3435.548220014086
 30
0.0
  0
SEQEND
  5
C3A
330
C33
100
AcDbEntity
  8
0
 62
     9
  0
POLYLINE
  5
C3B
330
1F
100
AcDbEntity
  8
0
 62
     9
100
AcDb2dPolyline
 66
     1
 10
0.0
 20
0.0
 30
0.0
  0
VERTEX
  5
C3C
330
C3B
100
AcDbEntity
  8
0
 62
     9
100
AcDbVertex
100
AcDb2dVertex
 10
3083.828376124809
 20
3410.857119356587
 30
0.0
  0
VERTEX
  5
C3D
330
C3B
100
AcDbEntity
  8
0
 62
     9
100
AcDbVertex
100
AcDb2dVertex
 10
3111.210833316308
 20
3408.971942651587
 30
0.0
  0
VERTEX
  5
C3E
330
C3B
100
AcDbEntity
  8
0
 62
     9
100
AcDbVertex
100
AcDb2dVertex
 10
3134.683964250309
 20
3405.945386903586
 30
0.0
  0
VERTEX
  5
C3F
330
C3B
100
AcDbEntity
  8
0
 62
     9
100
AcDbVertex
100
AcDb2dVertex
 10
3154.740011306308
 20
3401.769698215587
 30
0.0
  0
VERTEX
  5
C40
330
C3B
100
AcDbEntity
  8
0
 62
     9
100
AcDbVertex
100
AcDb2dVertex
 10
3171.835475677809
 20
3396.350307623586
 30
0.0
  0
VERTEX
  5
C41
330
C3B
100
AcDbEntity
  8
0
 62
     9
100
AcDbVertex
100
AcDb2dVertex
 10
3185.941605571307
 20
3389.697390238086
 30
0.0
  0
VERTEX
  5
C42
330
C3B
100
AcDbEntity
  8
0
 62
     9
100
AcDbVertex
100
AcDb2dVertex
 10
3196.999496529307
 20
3381.940607671586
 30
0.0
  0
VERTEX
  5
C43
330
C3B
100
AcDbEntity
  8
0
 62
     9
100
AcDbVertex
100
AcDb2dVertex
 10
3205.053650495308
 20
3373.282745359587
 30
0.0
  0
VERTEX
  5
C44
330
C3B
100
AcDbEntity
  8
0
 62
     9
100
AcDbVertex
100
AcDb2dVertex
 10
3210.148769635809
 20
3364.117980428586
 30
0.0
  0
VERTEX
  5
C45
330
C3B
100
AcDbEntity
  8
0
 62
     9
100
AcDbVertex
100
AcDb2dVertex
 10
3212.515670598808
 20
3354.798361306086
 30
0.0
  0
VERTEX
  5
C46
330
C3B
100
AcDbEntity
  8
0
 62
     9
100
AcDbVertex
100
AcDb2dVertex
 10
3212.397427642808
 20
3345.409327376586
 30
0.0
  0
VERTEX
  5
C47
330
C3B
100
AcDbEntity
  8
0
 62
     9
100
AcDbVertex
100
AcDb2dVertex
 10
3209.780402467807
 20
3335.917850443586
 30
0.0
  0
VERTEX
  5
C48
330
C3B
100
AcDbEntity
  8
0
 62
     9
100
AcDbVertex
100
AcDb2dVertex
 10
3204.468196831808
 20
3326.513072521087
 30
0.0
  0
VERTEX
  5
C49
330
C3B
100
AcDbEntity
  8
0
 62
     9
100
AcDbVertex
100
AcDb2dVertex
 10
3196.283182896808
 20
3317.534894204086
 30
0.0
  0
VERTEX
  5
C4A
330
C3B
100
AcDbEntity
  8
0
 62
     9
100
AcDbVertex
100
AcDb2dVertex
 10
3185.019350448808
 20
3309.260827289586
 30
0.0
  0
VERTEX
  5
C4B
330
C3B
100
AcDbEntity
  8
0
 62
     9
100
AcDbVertex
100
AcDb2dVertex
 10
3170.792616242808
 20
3302.082486890087
 30
0.0
  0
VERTEX
  5
C4C
330
C3B
100
AcDbEntity
  8
0
 62
     9
100
AcDbVertex
100
AcDb2dVertex
 10
3153.644826216808
 20
3296.142931228587
 30
0.0
  0
VERTEX
  5
C4D
330
C3B
100
AcDbEntity
  8
0
 62
     9
100
AcDbVertex
100
AcDb2dVertex
 10
3133.490913809309
 20
3291.468013898087
 30
0.0
  0
VERTEX
  5
C4E
330
C3B
100
AcDbEntity
  8
0
 62
     9
100
AcDbVertex
100
AcDb2dVertex
 10
3110.124504395308
 20
3288.049829904587
 30
0.0
  0
VERTEX
  5
C4F
330
C3B
100
AcDbEntity
  8
0
 62
     9
100
AcDbVertex
100
AcDb2dVertex
 10
3083.134912480808
 20
3285.905448616086
 30
0.0
  0
SEQEND
  5
C50
330
C3B
100
AcDbEntity
  8
0
 62
     9
  0
POLYLINE
  5
C51
330
1F
100
AcDbEntity
  8
0
 62
     9
100
AcDb2dPolyline
 66
     1
 10
0.0
 20
0.0
 30
0.0
  0
VERTEX
  5
C52
330
C51
100
AcDbEntity
  8
0
 62
     9
100
AcDbVertex
100
AcDb2dVertex
 10
2297.213407595966
 20
3435.737283695865
 30
0.0
  0
VERTEX
  5
C53
330
C51
100
AcDbEntity
  8
0
 62
     9
100
AcDbVertex
100
AcDb2dVertex
 10
2530.463266111808
 20
3435.477890265587
 30
0.0
  0
VERTEX
  5
C54
330
C51
100
AcDbEntity
  8
0
 62
     9
100
AcDbVertex
100
AcDb2dVertex
 10
2599.473286607807
 20
3435.298011678086
 30
0.0
  0
VERTEX
  5
C55
330
C51
100
AcDbEntity
  8
0
 62
     9
100
AcDbVertex
100
AcDb2dVertex
 10
2675.874772371809
 20
3434.934055277086
 30
0.0
  0
VERTEX
  5
C56
330
C51
100
AcDbEntity
  8
0
 62
     9
100
AcDbVertex
100
AcDb2dVertex
 10
2761.191383930308
 20
3434.235599875587
 30
0.0
  0
VERTEX
  5
C57
330
C51
100
AcDbEntity
  8
0
 62
     9
100
AcDbVertex
100
AcDb2dVertex
 10
2856.864293422808
 20
3432.905925227087
 30
0.0
  0
VERTEX
  5
C58
330
C51
100
AcDbEntity
  8
0
 62
     9
100
AcDbVertex
100
AcDb2dVertex
 10
2964.378705867309
 20
3430.355081597587
 30
0.0
  0
VERTEX
  5
C59
330
C51
100
AcDbEntity
  8
0
 62
     9
100
AcDbVertex
100
AcDb2dVertex
 10
3085.489107621309
 20
3425.355125692087
 30
0.0
  0
SEQEND
  5
C5A
330
C51
100
AcDbEntity
  8
0
 62
     9
  0
POLYLINE
  5
C5B
330
1F
100
AcDbEntity
  8
0
 62
     9
100
AcDb2dPolyline
 66
     1
 10
0.0
 20
0.0
 30
0.0
  0
VERTEX
  5
C5C
330
C5B
100
AcDbEntity
  8
0
 62
     9
100
AcDbVertex
100
AcDb2dVertex
 10
2297.150641033645
 20
3419.242671184183
 30
0.0
  0
VERTEX
  5
C5D
330
C5B
100
AcDbEntity
  8
0
 62
     9
100
AcDbVertex
100
AcDb2dVertex
 10
2530.204484110808
 20
3419.032878361586
 30
0.0
  0
VERTEX
  5
C5E
330
C5B
100
AcDbEntity
  8
0
 62
     9
100
AcDbVertex
100
AcDb2dVertex
 10
2599.012933015808
 20
3418.887715026086
 30
0.0
  0
VERTEX
  5
C5F
330
C5B
100
AcDbEntity
  8
0
 62
     9
100
AcDbVertex
100
AcDb2dVertex
 10
2675.202654441309
 20
3418.593936871086
 30
0.0
  0
VERTEX
  5
C60
330
C5B
100
AcDbEntity
  8
0
 62
     9
100
AcDbVertex
100
AcDb2dVertex
 10
2760.295137768308
 20
3418.030055507587
 30
0.0
  0
VERTEX
  5
C61
330
C5B
100
AcDbEntity
  8
0
 62
     9
100
AcDbVertex
100
AcDb2dVertex
 10
2855.730184534309
 20
3416.956352585586
 30
0.0
  0
VERTEX
  5
C62
330
C5B
100
AcDbEntity
  8
0
 62
     9
100
AcDbVertex
100
AcDb2dVertex
 10
2962.990980841808
 20
3414.896369830586
 30
0.0
  0
VERTEX
  5
C63
330
C5B
100
AcDbEntity
  8
0
 62
     9
100
AcDbVertex
100
AcDb2dVertex
 10
3083.828376124809
 20
3410.857119356587
 30
0.0
  0
SEQEND
  5
C64
330
C5B
100
AcDbEntity
  8
0
 62
     9
  0
POLYLINE
  5
C65
330
1F
100
AcDbEntity
  8
0
 62
     9
100
AcDb2dPolyline
 66
     1
 10
0.0
 20
0.0
 30
0.0
  0
VERTEX
  5
C66
330
C65
100
AcDbEntity
  8
0
 62
     9
100
AcDbVertex
100
AcDb2dVertex
 10
2280.148703047308
 20
3597.282243807587
 30
0.0
  0
VERTEX
  5
C67
330
C65
100
AcDbEntity
  8
0
 62
     9
100
AcDbVertex
100
AcDb2dVertex
 10
2280.980699583309
 20
3602.498911284586
 30
0.0
  0
VERTEX
  5
C68
330
C65
100
AcDbEntity
  8
0
 62
     9
100
AcDbVertex
100
AcDb2dVertex
 10
2283.39538925781
 20
3607.205149150086
 30
0.0
  0
VERTEX
  5
C69
330
C65
100
AcDbEntity
  8
0
 62
     9
100
AcDbVertex
100
AcDb2dVertex
 10
2287.156388001808
 20
3610.940022841587
 30
0.0
  0
VERTEX
  5
C6A
330
C65
100
AcDbEntity
  8
0
 62
     9
100
AcDbVertex
100
AcDb2dVertex
 10
2291.895545517308
 20
3613.337939343086
 30
0.0
  0
VERTEX
  5
C6B
330
C65
100
AcDbEntity
  8
0
 62
     9
100
AcDbVertex
100
AcDb2dVertex
 10
2297.148703047308
 20
3614.164156576587
 30
0.0
  0
SEQEND
  5
C6C
330
C65
100
AcDbEntity
  8
0
 62
     9
  0
POLYLINE
  5
C6D
330
1F
100
AcDbEntity
  8
0
100
AcDb2dPolyline
 66
     1
 10
0.0
 20
0.0
 30
0.0
  0
VERTEX
  5
C6E
330
C6D
100
AcDbEntity
  8
0
100
AcDbVertex
100
AcDb2dVertex
 10
2280.148703047308
 20
3435.957443889587
 30
0.0
  0
VERTEX
  5
C6F
330
C6D
100
AcDbEntity
  8
0
100
AcDbVertex
100
AcDb2dVertex
 10
2280.930121139808
 20
3430.941575346086
 30
0.0
  0
VERTEX
  5
C70
330
C6D
100
AcDbEntity
  8
0
100
AcDbVertex
100
AcDb2dVertex
 10
2283.298479518808
 20
3426.230677454586
 30
0.0
  0
VERTEX
  5
C71
330
C6D
100
AcDbEntity
  8
0
100
AcDbVertex
100
AcDb2dVertex
 10
2287.060662348308
 20
3422.429344751587
 30
0.0
  0
VERTEX
  5
C72
330
C6D
100
AcDbEntity
  8
0
100
AcDbVertex
100
AcDb2dVertex
 10
2291.839047928309
 20
3419.962439367087
 30
0.0
  0
VERTEX
  5
C73
330
C6D
100
AcDbEntity
  8
0
100
AcDbVertex
100
AcDb2dVertex
 10
2297.148703047308
 20
3419.089640492586
 30
0.0
  0
SEQEND
  5
C74
330
C6D
100
AcDbEntity
  8
0
  0
POLYLINE
  5
C75
330
1F
100
AcDbEntity
  8
0
 62
     9
100
AcDb2dPolyline
 66
     1
 10
0.0
 20
0.0
 30
0.0
  0
VERTEX
  5
C76
330
C75
100
AcDbEntity
  8
0
 62
     9
100
AcDbVertex
100
AcDb2dVertex
 10
3085.489107621309
 20
3425.355125692087
 30
0.0
  0
VERTEX
  5
C77
330
C75
100
AcDbEntity
  8
0
 62
     9
100
AcDbVertex
100
AcDb2dVertex
 10
3114.395507498309
 20
3423.025160051587
 30
0.0
  0
VERTEX
  5
C78
330
C75
100
AcDbEntity
  8
0
 62
     9
100
AcDbVertex
100
AcDb2dVertex
 10
3139.175954657808
 20
3419.286635964087
 30
0.0
  0
VERTEX
  5
C79
330
C75
100
AcDbEntity
  8
0
 62
     9
100
AcDbVertex
100
AcDb2dVertex
 10
3160.358128103809
 20
3414.129344869086
 30
0.0
  0
VERTEX
  5
C7A
330
C75
100
AcDbEntity
  8
0
 62
     9
100
AcDbVertex
100
AcDb2dVertex
 10
3178.424540757808
 20
3407.435504329587
 30
0.0
  0
VERTEX
  5
C7B
330
C75
100
AcDbEntity
  8
0
 62
     9
100
AcDbVertex
100
AcDb2dVertex
 10
3193.345520309308
 20
3399.215302833586
 30
0.0
  0
VERTEX
  5
C7C
330
C75
100
AcDbEntity
  8
0
 62
     9
100
AcDbVertex
100
AcDb2dVertex
 10
3205.058908265807
 20
3389.624113059586
 30
0.0
  0
VERTEX
  5
C7D
330
C75
100
AcDbEntity
  8
0
 62
     9
100
AcDbVertex
100
AcDb2dVertex
 10
3213.608220203808
 20
3378.905810944087
 30
0.0
  0
VERTEX
  5
C7E
330
C75
100
AcDbEntity
  8
0
 62
     9
100
AcDbVertex
100
AcDb2dVertex
 10
3219.032776019808
 20
3367.541759333586
 30
0.0
  0
VERTEX
  5
C7F
330
C75
100
AcDbEntity
  8
0
 62
     9
100
AcDbVertex
100
AcDb2dVertex
 10
3221.565646003309
 20
3355.967765130587
 30
0.0
  0
VERTEX
  5
C80
330
C75
100
AcDbEntity
  8
0
 62
     9
100
AcDbVertex
100
AcDb2dVertex
 10
3221.45533374781
 20
3344.299965692586
 30
0.0
  0
VERTEX
  5
C81
330
C75
100
AcDbEntity
  8
0
 62
     9
100
AcDbVertex
100
AcDb2dVertex
 10
3218.687033060308
 20
3332.512692207087
 30
0.0
  0
VERTEX
  5
C82
330
C75
100
AcDbEntity
  8
0
 62
     9
100
AcDbVertex
100
AcDb2dVertex
 10
3213.059644158809
 20
3320.849891399586
 30
0.0
  0
VERTEX
  5
C83
330
C75
100
AcDbEntity
  8
0
 62
     9
100
AcDbVertex
100
AcDb2dVertex
 10
3204.393981933309
 20
3309.733787849086
 30
0.0
  0
VERTEX
  5
C84
330
C75
100
AcDbEntity
  8
0
 62
     9
100
AcDbVertex
100
AcDb2dVertex
 10
3192.47802260231
 20
3299.501965991586
 30
0.0
  0
VERTEX
  5
C85
330
C75
100
AcDbEntity
  8
0
 62
     9
100
AcDbVertex
100
AcDb2dVertex
 10
3177.434628699309
 20
3290.631134739586
 30
0.0
  0
VERTEX
  5
C86
330
C75
100
AcDbEntity
  8
0
 62
     9
100
AcDbVertex
100
AcDb2dVertex
 10
3159.308227323308
 20
3283.293778642086
 30
0.0
  0
VERTEX
  5
C87
330
C75
100
AcDbEntity
  8
0
 62
     9
100
AcDbVertex
100
AcDb2dVertex
 10
3138.008168696809
 20
3277.519261066086
 30
0.0
  0
VERTEX
  5
C88
330
C75
100
AcDbEntity
  8
0
 62
     9
100
AcDbVertex
100
AcDb2dVertex
 10
3113.31613838781
 20
3273.296647261086
 30
0.0
  0
VERTEX
  5
C89
330
C75
100
AcDbEntity
  8
0
 62
     9
100
AcDbVertex
100
AcDb2dVertex
 10
3084.792678220808
 20
3270.646290458586
 30
0.0
  0
SEQEND
  5
C8A
330
C75
100
AcDbEntity
  8
0
 62
     9
  0
POLYLINE
  5
C8B
330
1F
100
AcDbEntity
  8
0
100
AcDb2dPolyline
 66
     1
 10
0.0
 20
0.0
 30
0.0
  0
VERTEX
  5
C8C
330
C8B
100
AcDbEntity
  8
0
100
AcDbVertex
100
AcDb2dVertex
 10
2280.148703047308
 20
3597.281963827586
 30
0.0
  0
VERTEX
  5
C8D
330
C8B
100
AcDbEntity
  8
0
100
AcDbVertex
100
AcDb2dVertex
 10
2280.936303546808
 20
3597.688498702587
 30
0.0
  0
VERTEX
  5
C8E
330
C8B
100
AcDbEntity
  8
0
100
AcDbVertex
100
AcDb2dVertex
 10
2283.317658246809
 20
3597.896079511087
 30
0.0
  0
VERTEX
  5
C8F
330
C8B
100
AcDbEntity
  8
0
100
AcDbVertex
100
AcDb2dVertex
 10
2287.094237942808
 20
3597.915299619086
 30
0.0
  0
VERTEX
  5
C90
330
C8B
100
AcDbEntity
  8
0
100
AcDbVertex
100
AcDb2dVertex
 10
2291.888252910309
 20
3597.786846804587
 30
0.0
  0
VERTEX
  5
C91
330
C8B
100
AcDbEntity
  8
0
100
AcDbVertex
100
AcDb2dVertex
 10
2297.213694934809
 20
3597.562628405087
 30
0.0
  0
SEQEND
  5
C92
330
C8B
100
AcDbEntity
  8
0
  0
POLYLINE
  5
C93
330
1F
100
AcDbEntity
  8
0
 62
     9
100
AcDb2dPolyline
 66
     1
 10
0.0
 20
0.0
 30
0.0
  0
VERTEX
  5
C94
330
C93
100
AcDbEntity
  8
0
 62
     9
100
AcDbVertex
100
AcDb2dVertex
 10
3083.896086724309
 20
3622.157455329086
 30
0.0
  0
VERTEX
  5
C95
330
C93
100
AcDbEntity
  8
0
 62
     9
100
AcDbVertex
100
AcDb2dVertex
 10
2898.832261385808
 20
3616.892553292087
 30
0.0
  0
VERTEX
  5
C96
330
C93
100
AcDbEntity
  8
0
 62
     9
100
AcDbVertex
100
AcDb2dVertex
 10
2692.037844682808
 20
3614.720946443587
 30
0.0
  0
VERTEX
  5
C97
330
C93
100
AcDbEntity
  8
0
 62
     9
100
AcDbVertex
100
AcDb2dVertex
 10
2297.149116233809
 20
3614.164120164586
 30
0.0
  0
SEQEND
  5
C98
330
C93
100
AcDbEntity
  8
0
 62
     9
  0
POLYLINE
  5
C99
330
1F
100
AcDbEntity
  8
0
 62
     9
100
AcDb2dPolyline
 66
     1
 10
0.0
 20
0.0
 30
0.0
  0
VERTEX
  5
C9A
330
C99
100
AcDbEntity
  8
0
 62
     9
100
AcDbVertex
100
AcDb2dVertex
 10
3085.557107800308
 20
3607.459802897086
 30
0.0
  0
VERTEX
  5
C9B
330
C99
100
AcDbEntity
  8
0
 62
     9
100
AcDbVertex
100
AcDb2dVertex
 10
2899.991813892809
 20
3600.940018646587
 30
0.0
  0
VERTEX
  5
C9C
330
C99
100
AcDbEntity
  8
0
 62
     9
100
AcDbVertex
100
AcDb2dVertex
 10
2692.667820697308
 20
3598.251944843086
 30
0.0
  0
VERTEX
  5
C9D
330
C99
100
AcDbEntity
  8
0
 62
     9
100
AcDbVertex
100
AcDb2dVertex
 10
2297.235065520358
 20
3597.56172863405
 30
0.0
  0
SEQEND
  5
C9E
330
C99
100
AcDbEntity
  8
0
 62
     9
  0
POLYLINE
  5
C9F
330
1F
100
AcDbEntity
  8
0
 62
     9
100
AcDb2dPolyline
 66
     1
 10
0.0
 20
0.0
 30
0.0
  0
VERTEX
  5
CA0
330
C9F
100
AcDbEntity
  8
0
 62
     9
100
AcDbVertex
100
AcDb2dVertex
 10
2280.148703047308
 20
3774.939552996586
 30
0.0
  0
VERTEX
  5
CA1
330
C9F
100
AcDbEntity
  8
0
 62
     9
100
AcDbVertex
100
AcDb2dVertex
 10
2280.984760456809
 20
3775.263023001087
 30
0.0
  0
VERTEX
  5
CA2
330
C9F
100
AcDbEntity
  8
0
 62
     9
100
AcDbVertex
100
AcDb2dVertex
 10
2283.410673205309
 20
3775.554224009086
 30
0.0
  0
VERTEX
  5
CA3
330
C9F
100
AcDbEntity
  8
0
 62
     9
100
AcDbVertex
100
AcDb2dVertex
 10
2287.187827374308
 20
3775.784521354086
 30
0.0
  0
VERTEX
  5
CA4
330
C9F
100
AcDbEntity
  8
0
 62
     9
100
AcDbVertex
100
AcDb2dVertex
 10
2291.944732834307
 20
3775.931265219586
 30
0.0
  0
VERTEX
  5
CA5
330
C9F
100
AcDbEntity
  8
0
 62
     9
100
AcDbVertex
100
AcDb2dVertex
 10
2297.213547210308
 20
3775.980015205586
 30
0.0
  0
SEQEND
  5
CA6
330
C9F
100
AcDbEntity
  8
0
 62
     9
  0
POLYLINE
  5
CA7
330
1F
100
AcDbEntity
  8
0
 62
     9
100
AcDb2dPolyline
 66
     1
 10
0.0
 20
0.0
 30
0.0
  0
VERTEX
  5
CA8
330
CA7
100
AcDbEntity
  8
0
 62
     9
100
AcDbVertex
100
AcDb2dVertex
 10
3083.309334903809
 20
3748.344312956587
 30
0.0
  0
VERTEX
  5
CA9
330
CA7
100
AcDbEntity
  8
0
 62
     9
100
AcDbVertex
100
AcDb2dVertex
 10
3110.67394089781
 20
3746.256530336586
 30
0.0
  0
VERTEX
  5
CAA
330
CA7
100
AcDbEntity
  8
0
 62
     9
100
AcDbVertex
100
AcDb2dVertex
 10
3134.363342553307
 20
3742.908416845587
 30
0.0
  0
VERTEX
  5
CAB
330
CA7
100
AcDbEntity
  8
0
 62
     9
100
AcDbVertex
100
AcDb2dVertex
 10
3154.779785704809
 20
3738.309813584586
 30
0.0
  0
VERTEX
  5
CAC
330
CA7
100
AcDbEntity
  8
0
 62
     9
100
AcDbVertex
100
AcDb2dVertex
 10
3172.263490143808
 20
3732.397979020087
 30
0.0
  0
VERTEX
  5
CAD
330
CA7
100
AcDbEntity
  8
0
 62
     9
100
AcDbVertex
100
AcDb2dVertex
 10
3186.824747946808
 20
3725.180177781587
 30
0.0
  0
VERTEX
  5
CAE
330
CA7
100
AcDbEntity
  8
0
 62
     9
100
AcDbVertex
100
AcDb2dVertex
 10
3198.385264695308
 20
3716.778573950586
 30
0.0
  0
VERTEX
  5
CAF
330
CA7
100
AcDbEntity
  8
0
 62
     9
100
AcDbVertex
100
AcDb2dVertex
 10
3206.737956789809
 20
3707.649415131086
 30
0.0
  0
VERTEX
  5
CB0
330
CA7
100
AcDbEntity
  8
0
 62
     9
100
AcDbVertex
100
AcDb2dVertex
 10
3212.116728634309
 20
3698.097825794086
 30
0.0
  0
VERTEX
  5
CB1
330
CA7
100
AcDbEntity
  8
0
 62
     9
100
AcDbVertex
100
AcDb2dVertex
 10
3214.741090548308
 20
3688.453256474087
 30
0.0
  0
VERTEX
  5
CB2
330
CA7
100
AcDbEntity
  8
0
 62
     9
100
AcDbVertex
100
AcDb2dVertex
 10
3214.826072822308
 20
3678.951336092087
 30
0.0
  0
VERTEX
  5
CB3
330
CA7
100
AcDbEntity
  8
0
 62
     9
100
AcDbVertex
100
AcDb2dVertex
 10
3212.402429807308
 20
3669.506210588587
 30
0.0
  0
VERTEX
  5
CB4
330
CA7
100
AcDbEntity
  8
0
 62
     9
100
AcDbVertex
100
AcDb2dVertex
 10
3207.183531207809
 20
3660.159252780087
 30
0.0
  0
VERTEX
  5
CB5
330
CA7
100
AcDbEntity
  8
0
 62
     9
100
AcDbVertex
100
AcDb2dVertex
 10
3198.913274022808
 20
3651.311794590586
 30
0.0
  0
VERTEX
  5
CB6
330
CA7
100
AcDbEntity
  8
0
 62
     9
100
AcDbVertex
100
AcDb2dVertex
 10
3187.59072866481
 20
3643.420862448586
 30
0.0
  0
VERTEX
  5
CB7
330
CA7
100
AcDbEntity
  8
0
 62
     9
100
AcDbVertex
100
AcDb2dVertex
 10
3173.150529741807
 20
3636.670699125086
 30
0.0
  0
VERTEX
  5
CB8
330
CA7
100
AcDbEntity
  8
0
 62
     9
100
AcDbVertex
100
AcDb2dVertex
 10
3155.658584676809
 20
3631.194919485587
 30
0.0
  0
VERTEX
  5
CB9
330
CA7
100
AcDbEntity
  8
0
 62
     9
100
AcDbVertex
100
AcDb2dVertex
 10
3135.237918595808
 20
3627.014003465086
 30
0.0
  0
VERTEX
  5
CBA
330
CA7
100
AcDbEntity
  8
0
 62
     9
100
AcDbVertex
100
AcDb2dVertex
 10
3111.46800751231
 20
3624.011475479586
 30
0.0
  0
VERTEX
  5
CBB
330
CA7
100
AcDbEntity
  8
0
 62
     9
100
AcDbVertex
100
AcDb2dVertex
 10
3083.896086724309
 20
3622.157455329086
 30
0.0
  0
SEQEND
  5
CBC
330
CA7
100
AcDbEntity
  8
0
 62
     9
  0
POLYLINE
  5
CBD
330
1F
100
AcDbEntity
  8
0
 62
     9
100
AcDb2dPolyline
 66
     1
 10
0.0
 20
0.0
 30
0.0
  0
VERTEX
  5
CBE
330
CBD
100
AcDbEntity
  8
0
 62
     9
100
AcDbVertex
100
AcDb2dVertex
 10
2297.213547210308
 20
3775.980015205586
 30
0.0
  0
VERTEX
  5
CBF
330
CBD
100
AcDbEntity
  8
0
 62
     9
100
AcDbVertex
100
AcDb2dVertex
 10
2700.037003129809
 20
3774.855270900086
 30
0.0
  0
VERTEX
  5
CC0
330
CBD
100
AcDbEntity
  8
0
 62
     9
100
AcDbVertex
100
AcDb2dVertex
 10
2904.498427110809
 20
3771.253480383586
 30
0.0
  0
VERTEX
  5
CC1
330
CBD
100
AcDbEntity
  8
0
 62
     9
100
AcDbVertex
100
AcDb2dVertex
 10
3084.967846601309
 20
3763.697984024087
 30
0.0
  0
SEQEND
  5
CC2
330
CBD
100
AcDbEntity
  8
0
 62
     9
  0
POLYLINE
  5
CC3
330
1F
100
AcDbEntity
  8
0
 62
     9
100
AcDb2dPolyline
 66
     1
 10
0.0
 20
0.0
 30
0.0
  0
VERTEX
  5
CC4
330
CC3
100
AcDbEntity
  8
0
 62
     9
100
AcDbVertex
100
AcDb2dVertex
 10
2297.155852246858
 20
3758.929876805126
 30
0.0
  0
VERTEX
  5
CC5
330
CC3
100
AcDbEntity
  8
0
 62
     9
100
AcDbVertex
100
AcDb2dVertex
 10
2699.399109581808
 20
3757.353942766587
 30
0.0
  0
VERTEX
  5
CC6
330
CC3
100
AcDbEntity
  8
0
 62
     9
100
AcDbVertex
100
AcDb2dVertex
 10
2903.334715190308
 20
3754.445330472087
 30
0.0
  0
VERTEX
  5
CC7
330
CC3
100
AcDbEntity
  8
0
 62
     9
100
AcDbVertex
100
AcDb2dVertex
 10
3083.309334903809
 20
3748.344312956587
 30
0.0
  0
SEQEND
  5
CC8
330
CC3
100
AcDbEntity
  8
0
 62
     9
  0
POLYLINE
  5
CC9
330
1F
100
AcDbEntity
  8
0
 62
     9
100
AcDb2dPolyline
 66
     1
 10
0.0
 20
0.0
 30
0.0
  0
VERTEX
  5
CCA
330
CC9
100
AcDbEntity
  8
0
 62
     9
100
AcDbVertex
100
AcDb2dVertex
 10
3084.967846601309
 20
3763.697984024087
 30
0.0
  0
VERTEX
  5
CCB
330
CC9
100
AcDbEntity
  8
0
 62
     9
100
AcDbVertex
100
AcDb2dVertex
 10
3113.878900055307
 20
3761.117605010587
 30
0.0
  0
VERTEX
  5
CCC
330
CC9
100
AcDbEntity
  8
0
 62
     9
100
AcDbVertex
100
AcDb2dVertex
 10
3138.904922624307
 20
3756.981653220086
 30
0.0
  0
VERTEX
  5
CCD
330
CC9
100
AcDbEntity
  8
0
 62
     9
100
AcDbVertex
100
AcDb2dVertex
 10
3160.476883280809
 20
3751.301560607586
 30
0.0
  0
VERTEX
  5
CCE
330
CC9
100
AcDbEntity
  8
0
 62
     9
100
AcDbVertex
100
AcDb2dVertex
 10
3178.954222414809
 20
3743.998704735587
 30
0.0
  0
VERTEX
  5
CCF
330
CC9
100
AcDbEntity
  8
0
 62
     9
100
AcDbVertex
100
AcDb2dVertex
 10
3194.348696159809
 20
3735.079450013086
 30
0.0
  0
VERTEX
  5
CD0
330
CC9
100
AcDbEntity
  8
0
 62
     9
100
AcDbVertex
100
AcDb2dVertex
 10
3206.577032531309
 20
3724.690473552087
 30
0.0
  0
VERTEX
  5
CD1
330
CC9
100
AcDbEntity
  8
0
 62
     9
100
AcDbVertex
100
AcDb2dVertex
 10
3215.42015986481
 20
3713.387941406587
 30
0.0
  0
VERTEX
  5
CD2
330
CC9
100
AcDbEntity
  8
0
 62
     9
100
AcDbVertex
100
AcDb2dVertex
 10
3221.119312684309
 20
3701.543015625586
 30
0.0
  0
VERTEX
  5
CD3
330
CC9
100
AcDbEntity
  8
0
 62
     9
100
AcDbVertex
100
AcDb2dVertex
 10
3223.897202973308
 20
3689.565528505587
 30
0.0
  0
VERTEX
  5
CD4
330
CC9
100
AcDbEntity
  8
0
 62
     9
100
AcDbVertex
100
AcDb2dVertex
 10
3223.974491558308
 20
3677.756890474586
 30
0.0
  0
VERTEX
  5
CD5
330
CC9
100
AcDbEntity
  8
0
 62
     9
100
AcDbVertex
100
AcDb2dVertex
 10
3221.383828065308
 20
3666.026669907086
 30
0.0
  0
VERTEX
  5
CD6
330
CC9
100
AcDbEntity
  8
0
 62
     9
100
AcDbVertex
100
AcDb2dVertex
 10
3215.830903206809
 20
3654.436844961586
 30
0.0
  0
VERTEX
  5
CD7
330
CC9
100
AcDbEntity
  8
0
 62
     9
100
AcDbVertex
100
AcDb2dVertex
 10
3207.056084039307
 20
3643.484155656086
 30
0.0
  0
VERTEX
  5
CD8
330
CC9
100
AcDbEntity
  8
0
 62
     9
100
AcDbVertex
100
AcDb2dVertex
 10
3195.066104187309
 20
3633.727234791086
 30
0.0
  0
VERTEX
  5
CD9
330
CC9
100
AcDbEntity
  8
0
 62
     9
100
AcDbVertex
100
AcDb2dVertex
 10
3179.795594741808
 20
3625.387062279587
 30
0.0
  0
VERTEX
  5
CDA
330
CC9
100
AcDbEntity
  8
0
 62
     9
100
AcDbVertex
100
AcDb2dVertex
 10
3161.313827367808
 20
3618.623694206586
 30
0.0
  0
VERTEX
  5
CDB
330
CC9
100
AcDbEntity
  8
0
 62
     9
100
AcDbVertex
100
AcDb2dVertex
 10
3139.749961136308
 20
3613.460014461586
 30
0.0
  0
VERTEX
  5
CDC
330
CC9
100
AcDbEntity
  8
0
 62
     9
100
AcDbVertex
100
AcDb2dVertex
 10
3114.659709072809
 20
3609.751225767086
 30
0.0
  0
VERTEX
  5
CDD
330
CC9
100
AcDbEntity
  8
0
 62
     9
100
AcDbVertex
100
AcDb2dVertex
 10
3085.557107800308
 20
3607.459802897086
 30
0.0
  0
SEQEND
  5
CDE
330
CC9
100
AcDbEntity
  8
0
 62
     9
  0
POLYLINE
  5
CDF
330
1F
100
AcDbEntity
  8
0
 62
     9
100
AcDb2dPolyline
 66
     1
 10
0.0
 20
0.0
 30
0.0
  0
VERTEX
  5
CE0
330
CDF
100
AcDbEntity
  8
0
 62
     9
100
AcDbVertex
100
AcDb2dVertex
 10
2279.966392406458
 20
3257.330107987417
 30
0.0
  0
VERTEX
  5
CE1
330
CDF
100
AcDbEntity
  8
0
 62
     9
100
AcDbVertex
100
AcDb2dVertex
 10
2280.798388942459
 20
3262.546775464418
 30
0.0
  0
VERTEX
  5
CE2
330
CDF
100
AcDbEntity
  8
0
 62
     9
100
AcDbVertex
100
AcDb2dVertex
 10
2283.213078616958
 20
3267.253013329918
 30
0.0
  0
VERTEX
  5
CE3
330
CDF
100
AcDbEntity
  8
0
 62
     9
100
AcDbVertex
100
AcDb2dVertex
 10
2286.974077360958
 20
3270.987887021418
 30
0.0
  0
VERTEX
  5
CE4
330
CDF
100
AcDbEntity
  8
0
 62
     9
100
AcDbVertex
100
AcDb2dVertex
 10
2291.713234876458
 20
3273.385803522918
 30
0.0
  0
VERTEX
  5
CE5
330
CDF
100
AcDbEntity
  8
0
 62
     9
100
AcDbVertex
100
AcDb2dVertex
 10
2296.966392406458
 20
3274.212020756418
 30
0.0
  0
SEQEND
  5
CE6
330
CDF
100
AcDbEntity
  8
0
 62
     9
  0
POLYLINE
  5
CE7
330
1F
100
AcDbEntity
  8
0
100
AcDb2dPolyline
 66
     1
 10
0.0
 20
0.0
 30
0.0
  0
VERTEX
  5
CE8
330
CE7
100
AcDbEntity
  8
0
100
AcDbVertex
100
AcDb2dVertex
 10
2279.966392406458
 20
3257.329828007418
 30
0.0
  0
VERTEX
  5
CE9
330
CE7
100
AcDbEntity
  8
0
100
AcDbVertex
100
AcDb2dVertex
 10
2280.753992905958
 20
3257.736362882418
 30
0.0
  0
VERTEX
  5
CEA
330
CE7
100
AcDbEntity
  8
0
100
AcDbVertex
100
AcDb2dVertex
 10
2283.135347605959
 20
3257.943943690918
 30
0.0
  0
VERTEX
  5
CEB
330
CE7
100
AcDbEntity
  8
0
100
AcDbVertex
100
AcDb2dVertex
 10
2286.911927301958
 20
3257.963163798918
 30
0.0
  0
VERTEX
  5
CEC
330
CE7
100
AcDbEntity
  8
0
100
AcDbVertex
100
AcDb2dVertex
 10
2291.705942269457
 20
3257.834710984418
 30
0.0
  0
VERTEX
  5
CED
330
CE7
100
AcDbEntity
  8
0
100
AcDbVertex
100
AcDb2dVertex
 10
2297.031384293958
 20
3257.610492584918
 30
0.0
  0
SEQEND
  5
CEE
330
CE7
100
AcDbEntity
  8
0
  0
LINE
  5
CEF
330
1F
100
AcDbEntity
  8
TEXT
  6
Continuous
 62
     7
100
AcDbLine
 10
2109.149203047312
 20
4166.080076113586
 30
0.0
 11
2115.649203047312
 21
4162.327076113586
 31
0.0
  0
POLYLINE
  5
CF0
330
1F
100
AcDbEntity
  8
TEXT
  6
Continuous
 62
     7
100
AcDb2dPolyline
 66
     1
 10
0.0
 20
0.0
 30
0.0
  0
VERTEX
  5
CF1
330
CF0
100
AcDbEntity
  8
TEXT
  6
Continuous
 62
     7
100
AcDbVertex
100
AcDb2dVertex
 10
2115.649203047312
 20
4174.657076113586
 30
0.0
  0
VERTEX
  5
CF2
330
CF0
100
AcDbEntity
  8
TEXT
  6
Continuous
 62
     7
100
AcDbVertex
100
AcDb2dVertex
 10
2115.649203047312
 20
4169.904076113588
 30
0.0
  0
VERTEX
  5
CF3
330
CF0
100
AcDbEntity
  8
TEXT
  6
Continuous
 62
     7
100
AcDbVertex
100
AcDb2dVertex
 10
2109.149203047312
 20
4169.904076113588
 30
0.0
  0
SEQEND
  5
CF4
330
CF0
100
AcDbEntity
  8
TEXT
  6
Continuous
 62
     7
  0
INSERT
  5
CF5
330
1F
100
AcDbEntity
  8
0
100
AcDbBlockReference
  2
NXXXX80
 10
1353.085203047311
 20
2697.029076113587
 30
0.0
  0
LINE
  5
CF6
330
1F
100
AcDbEntity
  8
TEXT
  6
Continuous
 62
     7
100
AcDbLine
 10
1736.648203047312
 20
4154.326076113588
 30
0.0
 11
1736.648203047312
 21
4151.657076113588
 31
0.0
  0
LINE
  5
CF7
330
1F
100
AcDbEntity
  8
TEXT
  6
Continuous
 62
     7
100
AcDbLine
 10
1743.149203047312
 20
4174.657076113586
 30
0.0
 11
1743.149203047312
 21
4173.079076113586
 31
0.0
  0
LINE
  5
CF8
330
1F
100
AcDbEntity
  8
TEXT
  6
Continuous
 62
     7
100
AcDbLine
 10
1743.149203047312
 20
4161.904076113588
 30
0.0
 11
1743.149203047312
 21
4158.079076113586
 31
0.0
  0
LINE
  5
CF9
330
1F
100
AcDbEntity
  8
TEXT
  6
Continuous
 62
     7
100
AcDbLine
 10
2109.149203047312
 20
4169.904076113588
 30
0.0
 11
2109.149203047312
 21
4166.080076113586
 31
0.0
  0
POLYLINE
  5
CFA
330
1F
100
AcDbEntity
  8
TEXT
  6
Continuous
 62
     7
100
AcDb2dPolyline
 66
     1
 10
0.0
 20
0.0
 30
0.0
  0
VERTEX
  5
CFB
330
CFA
100
AcDbEntity
  8
TEXT
  6
Continuous
 62
     7
100
AcDbVertex
100
AcDb2dVertex
 10
1733.648203047312
 20
4141.656076113587
 30
0.0
  0
VERTEX
  5
CFC
330
CFA
100
AcDbEntity
  8
TEXT
  6
Continuous
 62
     7
100
AcDbVertex
100
AcDb2dVertex
 10
1733.648203047312
 20
4151.657076113588
 30
0.0
  0
VERTEX
  5
CFD
330
CFA
100
AcDbEntity
  8
TEXT
  6
Continuous
 62
     7
100
AcDbVertex
100
AcDb2dVertex
 10
1736.648203047312
 20
4151.657076113588
 30
0.0
  0
SEQEND
  5
CFE
330
CFA
100
AcDbEntity
  8
TEXT
  6
Continuous
 62
     7
  0
POLYLINE
  5
CFF
330
1F
100
AcDbEntity
  8
TEXT
  6
Continuous
 62
     7
100
AcDb2dPolyline
 66
     1
 10
0.0
 20
0.0
 30
0.0
  0
VERTEX
  5
D00
330
CFF
100
AcDbEntity
  8
TEXT
  6
Continuous
 62
     7
100
AcDbVertex
100
AcDb2dVertex
 10
2115.649203047312
 20
4162.327076113586
 30
0.0
  0
VERTEX
  5
D01
330
CFF
100
AcDbEntity
  8
TEXT
  6
Continuous
 62
     7
100
AcDbVertex
100
AcDb2dVertex
 10
2115.649203047312
 20
4151.657076113588
 30
0.0
  0
VERTEX
  5
D02
330
CFF
100
AcDbEntity
  8
TEXT
  6
Continuous
 62
     7
100
AcDbVertex
100
AcDb2dVertex
 10
2118.649203047312
 20
4151.657076113588
 30
0.0
  0
VERTEX
  5
D03
330
CFF
100
AcDbEntity
  8
TEXT
  6
Continuous
 62
     7
100
AcDbVertex
100
AcDb2dVertex
 10
2118.649203047312
 20
4141.657076113586
 30
0.0
  0
SEQEND
  5
D04
330
CFF
100
AcDbEntity
  8
TEXT
  6
Continuous
 62
     7
  0
ARC
  5
D05
330
1F
100
AcDbEntity
  8
BILD
  6
Continuous
 62
     7
100
AcDbCircle
 10
2128.649203047314
 20
4141.657076113587
 30
0.0
 40
10.00000000000159
100
AcDbArc
 50
180.0
 51
270.0
  0
ARC
  5
D06
330
1F
100
AcDbEntity
  8
BILD
  6
Continuous
 62
     7
100
AcDbCircle
 10
1723.64820304731
 20
4141.657076113587
 30
0.0
 40
10.00000000000136
100
AcDbArc
 50
270.0
 51
359.9999999999479
  0
LINE
  5
D07
330
1F
100
AcDbEntity
  8
AM_8
  6
Continuous
100
AcDbLine
 10
1737.286203047311
 20
4169.695076113586
 30
0.0
 11
1736.648203047312
 21
4169.057076113587
 31
0.0
  0
INSERT
  5
D08
330
1F
100
AcDbEntity
  8
0
100
AcDbBlockReference
  2
NXXXX93
 10
1340.585203047311
 20
2381.134076113588
 30
0.0
  0
POLYLINE
  5
D09
330
1F
100
AcDbEntity
  8
TEXT
  6
Continuous
 62
     7
100
AcDb2dPolyline
 66
     1
 10
0.0
 20
0.0
 30
0.0
  0
VERTEX
  5
D0A
330
D09
100
AcDbEntity
  8
TEXT
  6
Continuous
 62
     7
100
AcDbVertex
100
AcDb2dVertex
 10
1723.649203047312
 20
4174.657076113589
 30
0.0
  0
VERTEX
  5
D0B
330
D09
100
AcDbEntity
  8
TEXT
  6
Continuous
 62
     7
100
AcDbVertex
100
AcDb2dVertex
 10
1723.649203047312
 20
4176.657076113587
 30
0.0
 42
-0.414213562373
  0
VERTEX
  5
D0C
330
D09
100
AcDbEntity
  8
TEXT
  6
Continuous
 62
     7
100
AcDbVertex
100
AcDb2dVertex
 10
1726.649203047312
 20
4179.657076113588
 30
0.0
  0
VERTEX
  5
D0D
330
D09
100
AcDbEntity
  8
TEXT
  6
Continuous
 62
     7
100
AcDbVertex
100
AcDb2dVertex
 10
1926.149203047312
 20
4179.657076113588
 30
0.0
  0
SEQEND
  5
D0E
330
D09
100
AcDbEntity
  8
TEXT
  6
Continuous
 62
     7
  0
POLYLINE
  5
D0F
330
1F
100
AcDbEntity
  8
TEXT
  6
Continuous
 62
     7
100
AcDb2dPolyline
 66
     1
 10
0.0
 20
0.0
 30
0.0
  0
VERTEX
  5
D10
330
D0F
100
AcDbEntity
  8
TEXT
  6
Continuous
 62
     7
100
AcDbVertex
100
AcDb2dVertex
 10
1742.148203047312
 20
4246.657076113588
 30
0.0
 42
0.414213562373
  0
VERTEX
  5
D11
330
D0F
100
AcDbEntity
  8
TEXT
  6
Continuous
 62
     7
100
AcDbVertex
100
AcDb2dVertex
 10
1739.148203047311
 20
4243.657076113588
 30
0.0
  0
VERTEX
  5
D12
330
D0F
100
AcDbEntity
  8
TEXT
  6
Continuous
 62
     7
100
AcDbVertex
100
AcDb2dVertex
 10
1739.148203047311
 20
4232.900076113589
 30
0.0
 42
-0.19891236738
  0
VERTEX
  5
D13
330
D0F
100
AcDbEntity
  8
TEXT
  6
Continuous
 62
     7
100
AcDbVertex
100
AcDb2dVertex
 10
1738.269203047311
 20
4230.778076113588
 30
0.0
  0
VERTEX
  5
D14
330
D0F
100
AcDbEntity
  8
TEXT
  6
Continuous
 62
     7
100
AcDbVertex
100
AcDb2dVertex
 10
1733.027882703751
 20
4225.535396457147
 30
0.0
 42
0.19891236738
  0
VERTEX
  5
D15
330
D0F
100
AcDbEntity
  8
TEXT
  6
Continuous
 62
     7
100
AcDbVertex
100
AcDb2dVertex
 10
1732.149203047312
 20
4223.414076113587
 30
0.0
  0
VERTEX
  5
D16
330
D0F
100
AcDbEntity
  8
TEXT
  6
Continuous
 62
     7
100
AcDbVertex
100
AcDb2dVertex
 10
1732.149203047312
 20
4182.657076113588
 30
0.0
 42
-0.414213562373
  0
VERTEX
  5
D17
330
D0F
100
AcDbEntity
  8
TEXT
  6
Continuous
 62
     7
100
AcDbVertex
100
AcDb2dVertex
 10
1729.149203047312
 20
4179.657076113588
 30
0.0
  0
SEQEND
  5
D18
330
D0F
100
AcDbEntity
  8
TEXT
  6
Continuous
 62
     7
  0
LINE
  5
D19
330
1F
100
AcDbEntity
  8
AM_4
100
AcDbLine
 10
1739.501203047311
 20
4231.906076113587
 30
0.0
 11
1926.149203047312
 21
4231.906076113587
 31
0.0
  0
LINE
  5
D1A
330
1F
100
AcDbEntity
  8
AM_4
100
AcDbLine
 10
1733.506203047312
 20
4223.975076113588
 30
0.0
 11
1926.148203047312
 21
4223.975076113588
 31
0.0
  0
INSERT
  5
D1B
330
1F
100
AcDbEntity
  8
0
100
AcDbBlockReference
  2
NXXXX95
 10
1340.585203047311
 20
2381.134076113588
 30
0.0
  0
POLYLINE
  5
D1C
330
1F
100
AcDbEntity
  8
TEXT
  6
Continuous
 62
     7
100
AcDb2dPolyline
 66
     1
 10
0.0
 20
0.0
 30
0.0
  0
VERTEX
  5
D1D
330
D1C
100
AcDbEntity
  8
TEXT
  6
Continuous
 62
     7
100
AcDbVertex
100
AcDb2dVertex
 10
2128.64920304731
 20
4174.657076113589
 30
0.0
  0
VERTEX
  5
D1E
330
D1C
100
AcDbEntity
  8
TEXT
  6
Continuous
 62
     7
100
AcDbVertex
100
AcDb2dVertex
 10
2128.64920304731
 20
4176.657076113587
 30
0.0
 42
0.414213562373
  0
VERTEX
  5
D1F
330
D1C
100
AcDbEntity
  8
TEXT
  6
Continuous
 62
     7
100
AcDbVertex
100
AcDb2dVertex
 10
2125.64920304731
 20
4179.657076113588
 30
0.0
  0
VERTEX
  5
D20
330
D1C
100
AcDbEntity
  8
TEXT
  6
Continuous
 62
     7
100
AcDbVertex
100
AcDb2dVertex
 10
1926.149203047312
 20
4179.657076113588
 30
0.0
  0
SEQEND
  5
D21
330
D1C
100
AcDbEntity
  8
TEXT
  6
Continuous
 62
     7
  0
POLYLINE
  5
D22
330
1F
100
AcDbEntity
  8
TEXT
  6
Continuous
 62
     7
100
AcDb2dPolyline
 66
     1
 10
0.0
 20
0.0
 30
0.0
  0
VERTEX
  5
D23
330
D22
100
AcDbEntity
  8
TEXT
  6
Continuous
 62
     7
100
AcDbVertex
100
AcDb2dVertex
 10
2123.148203047312
 20
4179.657076113588
 30
0.0
 42
-0.414213562373
  0
VERTEX
  5
D24
330
D22
100
AcDbEntity
  8
TEXT
  6
Continuous
 62
     7
100
AcDbVertex
100
AcDb2dVertex
 10
2120.148203047312
 20
4182.657076113588
 30
0.0
  0
VERTEX
  5
D25
330
D22
100
AcDbEntity
  8
TEXT
  6
Continuous
 62
     7
100
AcDbVertex
100
AcDb2dVertex
 10
2120.148203047312
 20
4223.414076113587
 30
0.0
 42
0.19891236738
  0
VERTEX
  5
D26
330
D22
100
AcDbEntity
  8
TEXT
  6
Continuous
 62
     7
100
AcDbVertex
100
AcDb2dVertex
 10
2119.269523390872
 20
4225.535396457147
 30
0.0
  0
VERTEX
  5
D27
330
D22
100
AcDbEntity
  8
TEXT
  6
Continuous
 62
     7
100
AcDbVertex
100
AcDb2dVertex
 10
2114.028203047311
 20
4230.778076113588
 30
0.0
 42
-0.19891236738
  0
VERTEX
  5
D28
330
D22
100
AcDbEntity
  8
TEXT
  6
Continuous
 62
     7
100
AcDbVertex
100
AcDb2dVertex
 10
2113.14920304731
 20
4232.900076113589
 30
0.0
  0
VERTEX
  5
D29
330
D22
100
AcDbEntity
  8
TEXT
  6
Continuous
 62
     7
100
AcDbVertex
100
AcDb2dVertex
 10
2113.14920304731
 20
4243.657076113588
 30
0.0
 42
0.414213562373
  0
VERTEX
  5
D2A
330
D22
100
AcDbEntity
  8
TEXT
  6
Continuous
 62
     7
100
AcDbVertex
100
AcDb2dVertex
 10
2110.149203047312
 20
4246.657076113588
 30
0.0
  0
SEQEND
  5
D2B
330
D22
100
AcDbEntity
  8
TEXT
  6
Continuous
 62
     7
  0
LINE
  5
D2C
330
1F
100
AcDbEntity
  8
AM_4
100
AcDbLine
 10
2112.796203047311
 20
4231.906076113587
 30
0.0
 11
1926.149203047312
 21
4231.906076113587
 31
0.0
  0
LINE
  5
D2D
330
1F
100
AcDbEntity
  8
AM_4
100
AcDbLine
 10
2118.792203047312
 20
4223.975076113588
 30
0.0
 11
1926.149203047312
 21
4223.975076113588
 31
0.0
  0
LINE
  5
D2E
330
1F
100
AcDbEntity
  8
0
100
AcDbLine
 10
1733.648203047312
 20
4151.657076113588
 30
0.0
 11
2118.649203047312
 21
4151.657076113588
 31
0.0
  0
LINE
  5
D2F
330
1F
100
AcDbEntity
  8
0
100
AcDbLine
 10
1736.648203047312
 20
4154.326076113588
 30
0.0
 11
2115.649203047312
 21
4162.327076113586
 31
0.0
  0
LINE
  5
D30
330
1F
100
AcDbEntity
  8
0
100
AcDbLine
 10
1743.149203047312
 20
4158.079076113586
 30
0.0
 11
2109.149203047312
 21
4166.080076113586
 31
0.0
  0
LINE
  5
D31
330
1F
100
AcDbEntity
  8
0
100
AcDbLine
 10
1736.648203047312
 20
4161.905076113588
 30
0.0
 11
1918.166825844458
 21
4161.905076113588
 31
0.0
  0
LINE
  5
D32
330
1F
100
AcDbEntity
  8
0
100
AcDbLine
 10
1736.648203047312
 20
4169.327076113588
 30
0.0
 11
1989.126059565237
 21
4174.657076113586
 31
0.0
  0
LINE
  5
D33
330
1F
100
AcDbEntity
  8
0
100
AcDbLine
 10
1743.149203047312
 20
4173.080076113587
 30
0.0
 11
1815.287935705729
 21
4174.657076113586
 31
0.0
  0
LINE
  5
D34
330
1F
100
AcDbEntity
  8
0
100
AcDbLine
 10
2115.649203047312
 20
4169.904076113588
 30
0.0
 11
1737.286203047311
 21
4169.695076113586
 31
0.0
  0
LINE
  5
D35
330
1F
100
AcDbEntity
  8
TEXT
  6
Continuous
 62
     7
100
AcDbLine
 10
2836.149203047309
 20
4166.080076113586
 30
0.0
 11
2842.649203047308
 21
4162.327076113586
 31
0.0
  0
POLYLINE
  5
D36
330
1F
100
AcDbEntity
  8
TEXT
  6
Continuous
 62
     7
100
AcDb2dPolyline
 66
     1
 10
0.0
 20
0.0
 30
0.0
  0
VERTEX
  5
D37
330
D36
100
AcDbEntity
  8
TEXT
  6
Continuous
 62
     7
100
AcDbVertex
100
AcDb2dVertex
 10
2842.649203047308
 20
4174.657076113586
 30
0.0
  0
VERTEX
  5
D38
330
D36
100
AcDbEntity
  8
TEXT
  6
Continuous
 62
     7
100
AcDbVertex
100
AcDb2dVertex
 10
2842.649203047308
 20
4169.904076113588
 30
0.0
  0
VERTEX
  5
D39
330
D36
100
AcDbEntity
  8
TEXT
  6
Continuous
 62
     7
100
AcDbVertex
100
AcDb2dVertex
 10
2836.149203047309
 20
4169.904076113588
 30
0.0
  0
SEQEND
  5
D3A
330
D36
100
AcDbEntity
  8
TEXT
  6
Continuous
 62
     7
  0
INSERT
  5
D3B
330
1F
100
AcDbEntity
  8
0
100
AcDbBlockReference
  2
NXXXX80
 10
2080.08520304731
 20
2697.029076113587
 30
0.0
  0
LINE
  5
D3C
330
1F
100
AcDbEntity
  8
TEXT
  6
Continuous
 62
     7
100
AcDbLine
 10
2463.648203047308
 20
4154.326076113588
 30
0.0
 11
2463.648203047308
 21
4151.657076113588
 31
0.0
  0
LINE
  5
D3D
330
1F
100
AcDbEntity
  8
TEXT
  6
Continuous
 62
     7
100
AcDbLine
 10
2470.149203047308
 20
4174.657076113586
 30
0.0
 11
2470.149203047308
 21
4173.079076113586
 31
0.0
  0
LINE
  5
D3E
330
1F
100
AcDbEntity
  8
TEXT
  6
Continuous
 62
     7
100
AcDbLine
 10
2470.149203047308
 20
4161.904076113588
 30
0.0
 11
2470.149203047308
 21
4158.079076113586
 31
0.0
  0
LINE
  5
D3F
330
1F
100
AcDbEntity
  8
TEXT
  6
Continuous
 62
     7
100
AcDbLine
 10
2836.149203047309
 20
4169.904076113588
 30
0.0
 11
2836.149203047309
 21
4166.080076113586
 31
0.0
  0
POLYLINE
  5
D40
330
1F
100
AcDbEntity
  8
TEXT
  6
Continuous
 62
     7
100
AcDb2dPolyline
 66
     1
 10
0.0
 20
0.0
 30
0.0
  0
VERTEX
  5
D41
330
D40
100
AcDbEntity
  8
TEXT
  6
Continuous
 62
     7
100
AcDbVertex
100
AcDb2dVertex
 10
2460.648203047308
 20
4141.656076113587
 30
0.0
  0
VERTEX
  5
D42
330
D40
100
AcDbEntity
  8
TEXT
  6
Continuous
 62
     7
100
AcDbVertex
100
AcDb2dVertex
 10
2460.648203047308
 20
4151.657076113588
 30
0.0
  0
VERTEX
  5
D43
330
D40
100
AcDbEntity
  8
TEXT
  6
Continuous
 62
     7
100
AcDbVertex
100
AcDb2dVertex
 10
2463.648203047308
 20
4151.657076113588
 30
0.0
  0
SEQEND
  5
D44
330
D40
100
AcDbEntity
  8
TEXT
  6
Continuous
 62
     7
  0
POLYLINE
  5
D45
330
1F
100
AcDbEntity
  8
TEXT
  6
Continuous
 62
     7
100
AcDb2dPolyline
 66
     1
 10
0.0
 20
0.0
 30
0.0
  0
VERTEX
  5
D46
330
D45
100
AcDbEntity
  8
TEXT
  6
Continuous
 62
     7
100
AcDbVertex
100
AcDb2dVertex
 10
2842.649203047308
 20
4162.327076113586
 30
0.0
  0
VERTEX
  5
D47
330
D45
100
AcDbEntity
  8
TEXT
  6
Continuous
 62
     7
100
AcDbVertex
100
AcDb2dVertex
 10
2842.649203047308
 20
4151.657076113588
 30
0.0
  0
VERTEX
  5
D48
330
D45
100
AcDbEntity
  8
TEXT
  6
Continuous
 62
     7
100
AcDbVertex
100
AcDb2dVertex
 10
2845.649203047308
 20
4151.657076113588
 30
0.0
  0
VERTEX
  5
D49
330
D45
100
AcDbEntity
  8
TEXT
  6
Continuous
 62
     7
100
AcDbVertex
100
AcDb2dVertex
 10
2845.649203047308
 20
4141.657076113586
 30
0.0
  0
SEQEND
  5
D4A
330
D45
100
AcDbEntity
  8
TEXT
  6
Continuous
 62
     7
  0
ARC
  5
D4B
330
1F
100
AcDbEntity
  8
BILD
  6
Continuous
 62
     7
100
AcDbCircle
 10
2855.649203047312
 20
4141.657076113587
 30
0.0
 40
10.00000000000159
100
AcDbArc
 50
180.0
 51
270.0
  0
ARC
  5
D4C
330
1F
100
AcDbEntity
  8
BILD
  6
Continuous
 62
     7
100
AcDbCircle
 10
2450.648203047308
 20
4141.657076113587
 30
0.0
 40
10.00000000000136
100
AcDbArc
 50
270.0
 51
359.9999999999479
  0
LINE
  5
D4D
330
1F
100
AcDbEntity
  8
AM_8
  6
Continuous
100
AcDbLine
 10
2464.286203047309
 20
4169.695076113586
 30
0.0
 11
2463.648203047308
 21
4169.057076113587
 31
0.0
  0
INSERT
  5
D4E
330
1F
100
AcDbEntity
  8
0
100
AcDbBlockReference
  2
NXXXX93
 10
2067.58520304731
 20
2381.134076113588
 30
0.0
  0
POLYLINE
  5
D4F
330
1F
100
AcDbEntity
  8
TEXT
  6
Continuous
 62
     7
100
AcDb2dPolyline
 66
     1
 10
0.0
 20
0.0
 30
0.0
  0
VERTEX
  5
D50
330
D4F
100
AcDbEntity
  8
TEXT
  6
Continuous
 62
     7
100
AcDbVertex
100
AcDb2dVertex
 10
2450.649203047309
 20
4174.657076113589
 30
0.0
  0
VERTEX
  5
D51
330
D4F
100
AcDbEntity
  8
TEXT
  6
Continuous
 62
     7
100
AcDbVertex
100
AcDb2dVertex
 10
2450.649203047309
 20
4176.657076113587
 30
0.0
 42
-0.414213562373
  0
VERTEX
  5
D52
330
D4F
100
AcDbEntity
  8
TEXT
  6
Continuous
 62
     7
100
AcDbVertex
100
AcDb2dVertex
 10
2453.649203047309
 20
4179.657076113588
 30
0.0
  0
VERTEX
  5
D53
330
D4F
100
AcDbEntity
  8
TEXT
  6
Continuous
 62
     7
100
AcDbVertex
100
AcDb2dVertex
 10
2653.149203047308
 20
4179.657076113588
 30
0.0
  0
SEQEND
  5
D54
330
D4F
100
AcDbEntity
  8
TEXT
  6
Continuous
 62
     7
  0
POLYLINE
  5
D55
330
1F
100
AcDbEntity
  8
TEXT
  6
Continuous
 62
     7
100
AcDb2dPolyline
 66
     1
 10
0.0
 20
0.0
 30
0.0
  0
VERTEX
  5
D56
330
D55
100
AcDbEntity
  8
TEXT
  6
Continuous
 62
     7
100
AcDbVertex
100
AcDb2dVertex
 10
2469.148203047308
 20
4246.657076113588
 30
0.0
 42
0.414213562373
  0
VERTEX
  5
D57
330
D55
100
AcDbEntity
  8
TEXT
  6
Continuous
 62
     7
100
AcDbVertex
100
AcDb2dVertex
 10
2466.148203047308
 20
4243.657076113588
 30
0.0
  0
VERTEX
  5
D58
330
D55
100
AcDbEntity
  8
TEXT
  6
Continuous
 62
     7
100
AcDbVertex
100
AcDb2dVertex
 10
2466.148203047308
 20
4232.900076113589
 30
0.0
 42
-0.19891236738
  0
VERTEX
  5
D59
330
D55
100
AcDbEntity
  8
TEXT
  6
Continuous
 62
     7
100
AcDbVertex
100
AcDb2dVertex
 10
2465.269203047309
 20
4230.778076113588
 30
0.0
  0
VERTEX
  5
D5A
330
D55
100
AcDbEntity
  8
TEXT
  6
Continuous
 62
     7
100
AcDbVertex
100
AcDb2dVertex
 10
2460.02788270375
 20
4225.535396457147
 30
0.0
 42
0.19891236738
  0
VERTEX
  5
D5B
330
D55
100
AcDbEntity
  8
TEXT
  6
Continuous
 62
     7
100
AcDbVertex
100
AcDb2dVertex
 10
2459.149203047309
 20
4223.414076113587
 30
0.0
  0
VERTEX
  5
D5C
330
D55
100
AcDbEntity
  8
TEXT
  6
Continuous
 62
     7
100
AcDbVertex
100
AcDb2dVertex
 10
2459.149203047309
 20
4182.657076113588
 30
0.0
 42
-0.414213562373
  0
VERTEX
  5
D5D
330
D55
100
AcDbEntity
  8
TEXT
  6
Continuous
 62
     7
100
AcDbVertex
100
AcDb2dVertex
 10
2456.149203047309
 20
4179.657076113588
 30
0.0
  0
SEQEND
  5
D5E
330
D55
100
AcDbEntity
  8
TEXT
  6
Continuous
 62
     7
  0
LINE
  5
D5F
330
1F
100
AcDbEntity
  8
AM_4
100
AcDbLine
 10
2466.501203047309
 20
4231.906076113587
 30
0.0
 11
2653.149203047308
 21
4231.906076113587
 31
0.0
  0
LINE
  5
D60
330
1F
100
AcDbEntity
  8
AM_4
100
AcDbLine
 10
2460.506203047308
 20
4223.975076113588
 30
0.0
 11
2653.148203047309
 21
4223.975076113588
 31
0.0
  0
INSERT
  5
D61
330
1F
100
AcDbEntity
  8
0
100
AcDbBlockReference
  2
NXXXX95
 10
2067.58520304731
 20
2381.134076113588
 30
0.0
  0
POLYLINE
  5
D62
330
1F
100
AcDbEntity
  8
TEXT
  6
Continuous
 62
     7
100
AcDb2dPolyline
 66
     1
 10
0.0
 20
0.0
 30
0.0
  0
VERTEX
  5
D63
330
D62
100
AcDbEntity
  8
TEXT
  6
Continuous
 62
     7
100
AcDbVertex
100
AcDb2dVertex
 10
2855.649203047308
 20
4174.657076113589
 30
0.0
  0
VERTEX
  5
D64
330
D62
100
AcDbEntity
  8
TEXT
  6
Continuous
 62
     7
100
AcDbVertex
100
AcDb2dVertex
 10
2855.649203047308
 20
4176.657076113587
 30
0.0
 42
0.414213562373
  0
VERTEX
  5
D65
330
D62
100
AcDbEntity
  8
TEXT
  6
Continuous
 62
     7
100
AcDbVertex
100
AcDb2dVertex
 10
2852.649203047308
 20
4179.657076113588
 30
0.0
  0
VERTEX
  5
D66
330
D62
100
AcDbEntity
  8
TEXT
  6
Continuous
 62
     7
100
AcDbVertex
100
AcDb2dVertex
 10
2653.149203047308
 20
4179.657076113588
 30
0.0
  0
SEQEND
  5
D67
330
D62
100
AcDbEntity
  8
TEXT
  6
Continuous
 62
     7
  0
POLYLINE
  5
D68
330
1F
100
AcDbEntity
  8
TEXT
  6
Continuous
 62
     7
100
AcDb2dPolyline
 66
     1
 10
0.0
 20
0.0
 30
0.0
  0
VERTEX
  5
D69
330
D68
100
AcDbEntity
  8
TEXT
  6
Continuous
 62
     7
100
AcDbVertex
100
AcDb2dVertex
 10
2850.148203047308
 20
4179.657076113588
 30
0.0
 42
-0.414213562373
  0
VERTEX
  5
D6A
330
D68
100
AcDbEntity
  8
TEXT
  6
Continuous
 62
     7
100
AcDbVertex
100
AcDb2dVertex
 10
2847.148203047308
 20
4182.657076113588
 30
0.0
  0
VERTEX
  5
D6B
330
D68
100
AcDbEntity
  8
TEXT
  6
Continuous
 62
     7
100
AcDbVertex
100
AcDb2dVertex
 10
2847.148203047308
 20
4223.414076113587
 30
0.0
 42
0.19891236738
  0
VERTEX
  5
D6C
330
D68
100
AcDbEntity
  8
TEXT
  6
Continuous
 62
     7
100
AcDbVertex
100
AcDb2dVertex
 10
2846.26952339087
 20
4225.535396457147
 30
0.0
  0
VERTEX
  5
D6D
330
D68
100
AcDbEntity
  8
TEXT
  6
Continuous
 62
     7
100
AcDbVertex
100
AcDb2dVertex
 10
2841.028203047309
 20
4230.778076113588
 30
0.0
 42
-0.19891236738
  0
VERTEX
  5
D6E
330
D68
100
AcDbEntity
  8
TEXT
  6
Continuous
 62
     7
100
AcDbVertex
100
AcDb2dVertex
 10
2840.149203047309
 20
4232.900076113589
 30
0.0
  0
VERTEX
  5
D6F
330
D68
100
AcDbEntity
  8
TEXT
  6
Continuous
 62
     7
100
AcDbVertex
100
AcDb2dVertex
 10
2840.149203047309
 20
4243.657076113588
 30
0.0
 42
0.414213562373
  0
VERTEX
  5
D70
330
D68
100
AcDbEntity
  8
TEXT
  6
Continuous
 62
     7
100
AcDbVertex
100
AcDb2dVertex
 10
2837.149203047308
 20
4246.657076113588
 30
0.0
  0
SEQEND
  5
D71
330
D68
100
AcDbEntity
  8
TEXT
  6
Continuous
 62
     7
  0
LINE
  5
D72
330
1F
100
AcDbEntity
  8
AM_4
100
AcDbLine
 10
2839.796203047309
 20
4231.906076113587
 30
0.0
 11
2653.149203047308
 21
4231.906076113587
 31
0.0
  0
LINE
  5
D73
330
1F
100
AcDbEntity
  8
AM_4
100
AcDbLine
 10
2845.792203047308
 20
4223.975076113588
 30
0.0
 11
2653.149203047308
 21
4223.975076113588
 31
0.0
  0
LINE
  5
D74
330
1F
100
AcDbEntity
  8
0
100
AcDbLine
 10
2460.648203047308
 20
4151.657076113588
 30
0.0
 11
2845.649203047308
 21
4151.657076113588
 31
0.0
  0
LINE
  5
D75
330
1F
100
AcDbEntity
  8
0
100
AcDbLine
 10
2463.648203047308
 20
4154.326076113588
 30
0.0
 11
2842.649203047308
 21
4162.327076113586
 31
0.0
  0
LINE
  5
D76
330
1F
100
AcDbEntity
  8
0
100
AcDbLine
 10
2470.149203047308
 20
4158.079076113586
 30
0.0
 11
2836.149203047309
 21
4166.080076113586
 31
0.0
  0
LINE
  5
D77
330
1F
100
AcDbEntity
  8
0
100
AcDbLine
 10
2463.648203047308
 20
4161.905076113588
 30
0.0
 11
2645.166825844456
 21
4161.905076113588
 31
0.0
  0
LINE
  5
D78
330
1F
100
AcDbEntity
  8
0
100
AcDbLine
 10
2463.648203047308
 20
4169.327076113588
 30
0.0
 11
2716.126059565234
 21
4174.657076113586
 31
0.0
  0
LINE
  5
D79
330
1F
100
AcDbEntity
  8
0
100
AcDbLine
 10
2470.149203047308
 20
4173.080076113587
 30
0.0
 11
2542.287935705727
 21
4174.657076113586
 31
0.0
  0
LINE
  5
D7A
330
1F
100
AcDbEntity
  8
0
100
AcDbLine
 10
2842.649203047308
 20
4169.904076113588
 30
0.0
 11
2464.286203047309
 21
4169.695076113586
 31
0.0
  0
LINE
  5
D7B
330
1F
100
AcDbEntity
  8
0
100
AcDbLine
 10
2274.648703047308
 20
4151.150924048384
 30
0.0
 11
2339.648703047308
 21
4151.150924048384
 31
0.0
  0
LINE
  5
D7C
330
1F
100
AcDbEntity
  8
AM_7
  6
AM_DIN_G_W050x2
100
AcDbLine
 10
1302.14870304731
 20
3986.657076113586
 30
0.0
 11
1538.122807100332
 21
3986.657076113586
 31
0.0
1001
GENIUS_GENODEF_13
1002
{
1000
HIER
1070
     0
1002
}
1002
{
1000
MANEDIT
1070
     0
1002
}
1002
{
1000
NOSEL
1070
     0
1002
}
1002
{
1000
BEHIND
1070
     0
1002
}
1002
{
1000
OTHER
1070
     0
1002
}
1002
{
1000
REACTOR
1002
}
1001
GENIUS_GENOBJ-N-CEN_13
1002
{
1000
OWNER
1000
GEN
1002
}
1001
GENIUS_GENCEN_19
1002
{
1040
30.0
1002
}
  0
LINE
  5
D7D
330
1F
100
AcDbEntity
  8
AM_7
  6
AM_DIN_G_W050x2
100
AcDbLine
 10
3506.64870304731
 20
3916.657076113587
 30
0.0
 11
3272.850623557165
 21
3916.657076113587
 31
0.0
1001
GENIUS_GENOBJ-N-CEN_13
1002
{
1000
OWNER
1000
GEN
1002
}
1001
GENIUS_GENODEF_13
1002
{
1000
HIER
1070
     0
1002
}
1002
{
1000
MANEDIT
1070
     0
1002
}
1002
{
1000
NOSEL
1070
     0
1002
}
1002
{
1000
BEHIND
1070
     0
1002
}
1002
{
1000
OTHER
1070
     0
1002
}
1002
{
1000
REACTOR
1002
}
1001
GENIUS_GENCEN_19
1002
{
1040
30.0
1002
}
  0
DIMENSION
  5
D7E
330
1F
100
AcDbEntity
  8
AM_5
100
AcDbDimension
  2
*D19
 10
1156.428537534786
 20
3936.657076113586
 30
0.0
 11
1156.428537534785
 21
3536.657076108863
 31
0.0
 70
   160
  1
1000
 71
     5
 42
1005.0
  3
AM_ISO$0
100
AcDbAlignedDimension
 13
1454.64870304731
 23
2931.657076113586
 33
0.0
 14
1332.14870304731
 24
3936.657076113586
 34
0.0
 50
90.0
100
AcDbRotatedDimension
1001
ACAD
1000
DSTYLE
1002
{
1070
    40
1040
10.0
1070
   271
1070
     0
1002
}
  0
DIMENSION
  5
D7F
330
1F
100
AcDbEntity
  8
AM_5
100
AcDbDimension
  2
*D20
 10
1225.808321658343
 20
4041.657076108861
 30
0.0
 11
1225.808321658343
 21
3988.877707619191
 31
0.0
 70
   160
  1
%%c<>
 71
     5
 42
109.9999999999982
  3
AM_ISO$0
100
AcDbAlignedDimension
 13
1332.147982085679
 23
3931.657076108863
 33
0.0
 14
1332.147982085679
 24
4041.657076108861
 34
0.0
 50
90.0
100
AcDbRotatedDimension
1001
ACAD
1000
DSTYLE
1002
{
1070
    40
1040
10.0
1070
   271
1070
     0
1002
}
  0
INSERT
  5
D80
330
1F
100
AcDbEntity
  8
0
100
AcDbBlockReference
  2
asver
 10
21286.26624697762
 20
-901.3898893682039
 30
0.0
  0
DIMENSION
  5
D81
330
1F
100
AcDbEntity
  8
AM_5
100
AcDbDimension
  2
*D21
 10
3796.665108626363
 20
3866.657076113586
 30
0.0
 11
3796.665108626362
 21
3501.657076113588
 31
0.0
 70
   160
  1
930
 71
     5
 42
933.5221852967183
  3
AM_ISO$0
100
AcDbAlignedDimension
 13
3378.116689754129
 23
2933.134890816868
 33
0.0
 14
3476.64870304731
 24
3866.657076113586
 34
0.0
 50
90.0
100
AcDbRotatedDimension
1001
ACAD
1000
DSTYLE
1002
{
1070
    40
1040
10.0
1070
   271
1070
     0
1002
}
  0
DIMENSION
  5
D82
330
1F
100
AcDbEntity
  8
AM_5
100
AcDbDimension
  2
*D22
 10
3631.171131995394
 20
3971.657076113586
 30
0.0
 11
3631.171131995393
 21
3916.657076113587
 31
0.0
 70
   160
  1
%%c<>
 71
     5
 42
110.0
  3
AM_ISO$0
100
AcDbAlignedDimension
 13
3476.64870304731
 23
3861.657076113586
 33
0.0
 14
3476.64870304731
 24
3971.657076113586
 34
0.0
 50
90.0
100
AcDbRotatedDimension
1001
ACAD
1000
DSTYLE
1002
{
1070
    40
1040
10.0
1070
   271
1070
     0
1002
}
  0
DIMENSION
  5
D83
330
1F
100
AcDbEntity
  8
AM_5
100
AcDbDimension
  2
*D23
 10
3887.367428042318
 20
4259.150924048356
 30
0.0
 11
3887.367428042317
 21
3601.657076113587
 31
0.0
 70
   160
  1
1350
 71
     5
 42
1326.016033231488
  3
AM_ISO$0
100
AcDbAlignedDimension
 13
3378.116689754129
 23
2933.134890816868
 33
0.0
 14
2352.148703047324
 24
4259.150924048356
 34
0.0
 50
90.0
100
AcDbRotatedDimension
1001
ACAD
1000
DSTYLE
1002
{
1070
    40
1040
10.0
1070
   271
1070
     0
1002
}
  0
INSERT
  5
D84
330
1F
100
AcDbEntity
  8
0
100
AcDbBlockReference
  2
asver
 10
23520.76660745842
 20
-971.3897651857774
 30
0.0
  0
DIMENSION
  5
D85
330
1F
100
AcDbEntity
  8
AM_5
100
AcDbDimension
  2
*D24
 10
3390.148703047309
 20
2832.776219667037
 30
0.0
 11
2407.148703047309
 21
2865.279664548927
 31
0.0
 70
    32
  1
2000
 71
     5
 42
1965.999999999998
  3
AM_ISO$0
100
AcDbAlignedDimension
 13
1424.14870304731
 23
2956.657076113592
 33
0.0
 14
3390.148703047309
 24
2957.157076113587
 34
0.0
100
AcDbRotatedDimension
1001
ACAD
1000
DSTYLE
1002
{
1070
    40
1040
10.0
1070
   271
1070
     0
1002
}
  0
DIMENSION
  5
D86
330
1F
100
AcDbEntity
  8
AM_5
100
AcDbDimension
  2
*D25
 10
3476.64870304731
 20
1004.400941356253
 30
0.0
 11
2321.407165160001
 21
1004.400941356253
 31
0.0
 70
   160
  1
2160
 71
     5
 42
2144.500000000002
  3
AM_ISO$0
100
AcDbAlignedDimension
 13
1332.148703047308
 23
1543.405511135667
 33
0.0
 14
3476.64870304731
 24
1543.405511135666
 34
0.0
100
AcDbRotatedDimension
1001
ACAD
1000
DSTYLE
1002
{
1070
    40
1040
10.0
1070
   271
1070
     0
1002
}
  0
DIMENSION
  5
D87
330
1F
100
AcDbEntity
  8
AM_5
100
AcDbDimension
  2
*D26
 10
1071.928748437213
 20
1248.405511135668
 30
0.0
 11
1071.928748437213
 21
1598.405511135667
 31
0.0
 70
   160
 71
     5
 42
700.0
  3
AM_ISO$0
100
AcDbAlignedDimension
 13
1947.14870304731
 23
1948.405511135668
 33
0.0
 14
1942.14870304731
 24
1248.405511135668
 34
0.0
 50
90.0
100
AcDbRotatedDimension
1001
ACAD
1000
DSTYLE
1002
{
1070
    40
1040
10.0
1070
   271
1070
     0
1002
}
  0
TEXT
  5
D88
330
1F
100
AcDbEntity
  8
AM_6
100
AcDbText
 10
1104.971177905713
 20
1690.053216215662
 30
0.0
 40
27.0
  1
Zulauf
100
AcDbText
  0
TEXT
  5
D89
330
1F
100
AcDbEntity
  8
AM_6
100
AcDbText
 10
1104.971177905713
 20
1652.553216215662
 30
0.0
 40
27.0
  1
DN 100
100
AcDbText
  0
LINE
  5
D8A
330
1F
100
AcDbEntity
  8
406
  6
AUSGEZOGEN
 62
     7
100
AcDbLine
 10
1262.80900359448
 20
1596.530511135667
 30
0.0
 11
1262.80900359448
 21
1600.281243555665
 31
0.0
  0
LINE
  5
D8B
330
1F
100
AcDbEntity
  8
406
  6
AUSGEZOGEN
 62
     7
100
AcDbLine
 10
1261.559003594479
 20
1595.280511135667
 30
0.0
 11
1261.559003594479
 21
1601.531243555665
 31
0.0
  0
LINE
  5
D8C
330
1F
100
AcDbEntity
  8
406
  6
AUSGEZOGEN
 62
     7
100
AcDbLine
 10
1260.309003594479
 20
1594.030511135667
 30
0.0
 11
1260.309003594479
 21
1602.781243555665
 31
0.0
  0
LINE
  5
D8D
330
1F
100
AcDbEntity
  8
406
  6
AUSGEZOGEN
 62
     7
100
AcDbLine
 10
1259.05900359448
 20
1592.780511135667
 30
0.0
 11
1259.05900359448
 21
1604.031243555665
 31
0.0
  0
LINE
  5
D8E
330
1F
100
AcDbEntity
  8
406
  6
AUSGEZOGEN
 62
     7
100
AcDbLine
 10
1257.80900359448
 20
1591.530511135667
 30
0.0
 11
1257.80900359448
 21
1605.281243555665
 31
0.0
  0
LINE
  5
D8F
330
1F
100
AcDbEntity
  8
406
  6
AUSGEZOGEN
 62
     7
100
AcDbLine
 10
1256.55900359448
 20
1590.280511135667
 30
0.0
 11
1256.55900359448
 21
1606.531243555665
 31
0.0
  0
LINE
  5
D90
330
1F
100
AcDbEntity
  8
406
  6
AUSGEZOGEN
 62
     7
100
AcDbLine
 10
1255.30900359448
 20
1589.030511135667
 30
0.0
 11
1255.30900359448
 21
1607.781243555665
 31
0.0
  0
LINE
  5
D91
330
1F
100
AcDbEntity
  8
406
  6
AUSGEZOGEN
 62
     7
100
AcDbLine
 10
1254.05900359448
 20
1587.780511135667
 30
0.0
 11
1254.05900359448
 21
1609.031243555665
 31
0.0
  0
LINE
  5
D92
330
1F
100
AcDbEntity
  8
406
  6
AUSGEZOGEN
 62
     7
100
AcDbLine
 10
1252.80900359448
 20
1586.530511135667
 30
0.0
 11
1252.80900359448
 21
1610.281243555665
 31
0.0
  0
LINE
  5
D93
330
1F
100
AcDbEntity
  8
406
  6
AUSGEZOGEN
 62
     7
100
AcDbLine
 10
1251.559003594479
 20
1585.280511135667
 30
0.0
 11
1251.559003594479
 21
1611.531243555665
 31
0.0
  0
LINE
  5
D94
330
1F
100
AcDbEntity
  8
406
  6
AUSGEZOGEN
 62
     7
100
AcDbLine
 10
1250.30900359448
 20
1584.030511135667
 30
0.0
 11
1250.30900359448
 21
1612.781243555665
 31
0.0
  0
LINE
  5
D95
330
1F
100
AcDbEntity
  8
406
  6
AUSGEZOGEN
 62
     7
100
AcDbLine
 10
1249.059003594479
 20
1582.779778715662
 30
0.0
 11
1249.059003594479
 21
1614.030266995668
 31
0.0
  0
LINE
  5
D96
330
1F
100
AcDbEntity
  8
406
  6
AUSGEZOGEN
 62
     7
100
AcDbLine
 10
1247.809003594479
 20
1581.529778715662
 30
0.0
 11
1247.809003594479
 21
1615.280266995668
 31
0.0
  0
LINE
  5
D97
330
1F
100
AcDbEntity
  8
406
  6
AUSGEZOGEN
 62
     7
100
AcDbLine
 10
1246.55900359448
 20
1580.279778715662
 30
0.0
 11
1246.55900359448
 21
1616.530266995668
 31
0.0
  0
LINE
  5
D98
330
1F
100
AcDbEntity
  8
406
  6
AUSGEZOGEN
 62
     7
100
AcDbLine
 10
1245.30900359448
 20
1579.029778715662
 30
0.0
 11
1245.30900359448
 21
1617.780266995668
 31
0.0
  0
LINE
  5
D99
330
1F
100
AcDbEntity
  8
406
  6
AUSGEZOGEN
 62
     7
100
AcDbLine
 10
1244.05900359448
 20
1577.779778715662
 30
0.0
 11
1244.05900359448
 21
1619.030266995668
 31
0.0
  0
LINE
  5
D9A
330
1F
100
AcDbEntity
  8
406
  6
AUSGEZOGEN
 62
     7
100
AcDbLine
 10
1242.809003594479
 20
1576.529778715662
 30
0.0
 11
1242.809003594479
 21
1620.280266995668
 31
0.0
  0
LINE
  5
D9B
330
1F
100
AcDbEntity
  8
406
  6
AUSGEZOGEN
 62
     7
100
AcDbLine
 10
1241.55900359448
 20
1575.279778715662
 30
0.0
 11
1241.55900359448
 21
1621.530266995668
 31
0.0
  0
LINE
  5
D9C
330
1F
100
AcDbEntity
  8
406
  6
AUSGEZOGEN
 62
     7
100
AcDbLine
 10
1240.30900359448
 20
1574.029778715662
 30
0.0
 11
1240.30900359448
 21
1622.780755275666
 31
0.0
  0
LINE
  5
D9D
330
1F
100
AcDbEntity
  8
406
  6
AUSGEZOGEN
 62
     7
100
AcDbLine
 10
1239.059003594479
 20
1572.779778715662
 30
0.0
 11
1239.059003594479
 21
1624.030266995668
 31
0.0
  0
LINE
  5
D9E
330
1F
100
AcDbEntity
  8
406
  6
AUSGEZOGEN
 62
     7
100
AcDbLine
 10
1237.809003594479
 20
1571.529778715662
 30
0.0
 11
1237.809003594479
 21
1625.280266995669
 31
0.0
  0
LINE
  5
D9F
330
1F
100
AcDbEntity
  8
406
  6
AUSGEZOGEN
 62
     7
100
AcDbLine
 10
1236.55900359448
 20
1570.279778715662
 30
0.0
 11
1236.55900359448
 21
1626.530266995667
 31
0.0
  0
LINE
  5
DA0
330
1F
100
AcDbEntity
  8
406
  6
AUSGEZOGEN
 62
     7
100
AcDbLine
 10
1235.309003594487
 20
1569.029778715662
 30
0.0
 11
1235.309003594487
 21
1627.780755275666
 31
0.0
  0
LINE
  5
DA1
330
1F
100
AcDbEntity
  8
406
  6
AUSGEZOGEN
 62
     7
100
AcDbLine
 10
1233.434003594479
 20
1567.155511135667
 30
0.0
 11
1233.434003594479
 21
1629.655511135667
 31
0.0
  0
LINE
  5
DA2
330
1F
100
AcDbEntity
  8
406
  6
AUSGEZOGEN
 62
     7
100
AcDbLine
 10
1234.05900359448
 20
1567.779778715662
 30
0.0
 11
1234.05900359448
 21
1629.030755275666
 31
0.0
  0
LINE
  5
DA3
330
1F
100
AcDbEntity
  8
406
  6
AUSGEZOGEN
 62
     7
100
AcDbLine
 10
1233.434003594479
 20
1629.655511135667
 30
0.0
 11
1264.684003594487
 21
1598.405511135667
 31
0.0
  0
LINE
  5
DA4
330
1F
100
AcDbEntity
  8
406
  6
AUSGEZOGEN
 62
     7
100
AcDbLine
 10
1264.684003594487
 20
1598.405511135667
 30
0.0
 11
1233.434003594479
 21
1567.155511135667
 31
0.0
  0
LINE
  5
DA5
330
1F
100
AcDbEntity
  8
406
  6
AUSGEZOGEN
 62
     7
100
AcDbLine
 10
1233.434003594479
 20
1598.405511135667
 30
0.0
 11
1173.032148124485
 21
1598.405511135667
 31
0.0
  0
TEXT
  5
DA6
330
1F
100
AcDbEntity
  8
AM_6
100
AcDbText
 10
3593.217753968168
 20
1688.352044335662
 30
0.0
 40
27.0
  1
Ablauf
100
AcDbText
  0
TEXT
  5
DA7
330
1F
100
AcDbEntity
  8
AM_6
100
AcDbText
 10
3593.217753968168
 20
1650.852044335662
 30
0.0
 40
27.0
  1
DN 100
100
AcDbText
  0
LINE
  5
DA8
330
1F
100
AcDbEntity
  8
406
  6
AUSGEZOGEN
 62
     7
100
AcDbLine
 10
3657.316264708165
 20
1598.405511135666
 30
0.0
 11
3606.647929748167
 21
1598.405511135666
 31
0.0
  0
LINE
  5
DA9
330
1F
100
AcDbEntity
  8
406
  6
AUSGEZOGEN
 62
     7
100
AcDbLine
 10
3687.941264708166
 20
1597.780511135666
 30
0.0
 11
3687.941264708166
 21
1599.031243555664
 31
0.0
  0
LINE
  5
DAA
330
1F
100
AcDbEntity
  8
406
  6
AUSGEZOGEN
 62
     7
100
AcDbLine
 10
3686.691264708166
 20
1596.530511135666
 30
0.0
 11
3686.691264708166
 21
1600.281243555665
 31
0.0
  0
LINE
  5
DAB
330
1F
100
AcDbEntity
  8
406
  6
AUSGEZOGEN
 62
     7
100
AcDbLine
 10
3685.441264708166
 20
1595.280511135666
 30
0.0
 11
3685.441264708166
 21
1601.531243555665
 31
0.0
  0
LINE
  5
DAC
330
1F
100
AcDbEntity
  8
406
  6
AUSGEZOGEN
 62
     7
100
AcDbLine
 10
3684.191264708166
 20
1594.030511135666
 30
0.0
 11
3684.191264708166
 21
1602.781243555664
 31
0.0
  0
LINE
  5
DAD
330
1F
100
AcDbEntity
  8
406
  6
AUSGEZOGEN
 62
     7
100
AcDbLine
 10
3682.941264708166
 20
1592.780511135666
 30
0.0
 11
3682.941264708166
 21
1604.031243555664
 31
0.0
  0
LINE
  5
DAE
330
1F
100
AcDbEntity
  8
406
  6
AUSGEZOGEN
 62
     7
100
AcDbLine
 10
3681.691264708166
 20
1591.530511135666
 30
0.0
 11
3681.691264708166
 21
1605.281243555664
 31
0.0
  0
LINE
  5
DAF
330
1F
100
AcDbEntity
  8
406
  6
AUSGEZOGEN
 62
     7
100
AcDbLine
 10
3680.441264708166
 20
1590.280511135666
 30
0.0
 11
3680.441264708166
 21
1606.531243555665
 31
0.0
  0
LINE
  5
DB0
330
1F
100
AcDbEntity
  8
406
  6
AUSGEZOGEN
 62
     7
100
AcDbLine
 10
3679.191264708165
 20
1589.030511135665
 30
0.0
 11
3679.191264708165
 21
1607.781243555665
 31
0.0
  0
LINE
  5
DB1
330
1F
100
AcDbEntity
  8
406
  6
AUSGEZOGEN
 62
     7
100
AcDbLine
 10
3677.941264708166
 20
1587.780511135666
 30
0.0
 11
3677.941264708166
 21
1609.031243555665
 31
0.0
  0
LINE
  5
DB2
330
1F
100
AcDbEntity
  8
406
  6
AUSGEZOGEN
 62
     7
100
AcDbLine
 10
3676.691264708165
 20
1586.530511135666
 30
0.0
 11
3676.691264708165
 21
1610.281243555665
 31
0.0
  0
LINE
  5
DB3
330
1F
100
AcDbEntity
  8
406
  6
AUSGEZOGEN
 62
     7
100
AcDbLine
 10
3675.441264708166
 20
1585.280511135666
 30
0.0
 11
3675.441264708166
 21
1611.531243555664
 31
0.0
  0
LINE
  5
DB4
330
1F
100
AcDbEntity
  8
406
  6
AUSGEZOGEN
 62
     7
100
AcDbLine
 10
3674.191264708166
 20
1584.030511135666
 30
0.0
 11
3674.191264708166
 21
1612.781243555665
 31
0.0
  0
LINE
  5
DB5
330
1F
100
AcDbEntity
  8
406
  6
AUSGEZOGEN
 62
     7
100
AcDbLine
 10
3672.941264708165
 20
1582.779778715661
 30
0.0
 11
3672.941264708165
 21
1614.030266995668
 31
0.0
  0
LINE
  5
DB6
330
1F
100
AcDbEntity
  8
406
  6
AUSGEZOGEN
 62
     7
100
AcDbLine
 10
3671.691264708166
 20
1581.529778715661
 30
0.0
 11
3671.691264708166
 21
1615.280266995668
 31
0.0
  0
LINE
  5
DB7
330
1F
100
AcDbEntity
  8
406
  6
AUSGEZOGEN
 62
     7
100
AcDbLine
 10
3670.441264708165
 20
1580.279778715661
 30
0.0
 11
3670.441264708165
 21
1616.530266995666
 31
0.0
  0
LINE
  5
DB8
330
1F
100
AcDbEntity
  8
406
  6
AUSGEZOGEN
 62
     7
100
AcDbLine
 10
3669.191264708166
 20
1579.029778715661
 30
0.0
 11
3669.191264708166
 21
1617.780266995668
 31
0.0
  0
LINE
  5
DB9
330
1F
100
AcDbEntity
  8
406
  6
AUSGEZOGEN
 62
     7
100
AcDbLine
 10
3667.941264708165
 20
1577.779778715661
 30
0.0
 11
3667.941264708165
 21
1619.030266995667
 31
0.0
  0
LINE
  5
DBA
330
1F
100
AcDbEntity
  8
406
  6
AUSGEZOGEN
 62
     7
100
AcDbLine
 10
3666.691264708165
 20
1576.529778715661
 30
0.0
 11
3666.691264708165
 21
1620.280266995668
 31
0.0
  0
LINE
  5
DBB
330
1F
100
AcDbEntity
  8
406
  6
AUSGEZOGEN
 62
     7
100
AcDbLine
 10
3665.441264708166
 20
1575.279778715661
 30
0.0
 11
3665.441264708166
 21
1621.530266995667
 31
0.0
  0
LINE
  5
DBC
330
1F
100
AcDbEntity
  8
406
  6
AUSGEZOGEN
 62
     7
100
AcDbLine
 10
3664.191264708165
 20
1574.029778715661
 30
0.0
 11
3664.191264708165
 21
1622.780755275665
 31
0.0
  0
LINE
  5
DBD
330
1F
100
AcDbEntity
  8
406
  6
AUSGEZOGEN
 62
     7
100
AcDbLine
 10
3688.566264708165
 20
1598.405511135666
 30
0.0
 11
3657.316264708165
 21
1567.155511135666
 31
0.0
  0
LINE
  5
DBE
330
1F
100
AcDbEntity
  8
406
  6
AUSGEZOGEN
 62
     7
100
AcDbLine
 10
3657.316264708165
 20
1629.655511135666
 30
0.0
 11
3688.566264708165
 21
1598.405511135666
 31
0.0
  0
LINE
  5
DBF
330
1F
100
AcDbEntity
  8
406
  6
AUSGEZOGEN
 62
     7
100
AcDbLine
 10
3657.316264708165
 20
1567.155511135666
 30
0.0
 11
3657.316264708165
 21
1629.655511135666
 31
0.0
  0
LINE
  5
DC0
330
1F
100
AcDbEntity
  8
406
  6
AUSGEZOGEN
 62
     7
100
AcDbLine
 10
3662.941264708166
 20
1572.779778715661
 30
0.0
 11
3662.941264708166
 21
1624.030266995667
 31
0.0
  0
LINE
  5
DC1
330
1F
100
AcDbEntity
  8
406
  6
AUSGEZOGEN
 62
     7
100
AcDbLine
 10
3661.691264708166
 20
1571.529778715661
 30
0.0
 11
3661.691264708166
 21
1625.280266995667
 31
0.0
  0
LINE
  5
DC2
330
1F
100
AcDbEntity
  8
406
  6
AUSGEZOGEN
 62
     7
100
AcDbLine
 10
3660.441264708165
 20
1570.279778715661
 30
0.0
 11
3660.441264708165
 21
1626.530266995667
 31
0.0
  0
LINE
  5
DC3
330
1F
100
AcDbEntity
  8
406
  6
AUSGEZOGEN
 62
     7
100
AcDbLine
 10
3659.191264708166
 20
1569.029778715661
 30
0.0
 11
3659.191264708166
 21
1627.780755275665
 31
0.0
  0
LINE
  5
DC4
330
1F
100
AcDbEntity
  8
406
  6
AUSGEZOGEN
 62
     7
100
AcDbLine
 10
3657.941264708166
 20
1567.779778715661
 30
0.0
 11
3657.941264708166
 21
1629.030755275665
 31
0.0
  0
LINE
  5
DC5
330
1F
100
AcDbEntity
  8
0
100
AcDbLine
 10
1332.14870304731
 20
1653.405511135668
 30
0.0
 11
1332.14870304731
 21
1543.405511135668
 31
0.0
  0
LINE
  5
DC6
330
1F
100
AcDbEntity
  8
0
 62
     9
100
AcDbLine
 10
1463.377185384807
 20
1661.518454251168
 30
0.0
 11
1462.25132997681
 21
1658.669357006668
 31
0.0
  0
LWPOLYLINE
  5
DC7
330
1F
100
AcDbEntity
  8
0
100
AcDbPolyline
 90
        7
 70
     0
 43
0.0
 10
1463.281662413809
 20
1659.814078854168
 10
1463.343666250809
 20
1659.926823116168
 10
1462.65759807781
 20
1659.054784129668
 10
1460.833533884309
 20
1657.324291843667
 10
1457.703147160809
 20
1655.332030932668
 10
1453.226436749809
 20
1653.792944348168
 10
1449.42059982131
 20
1653.405472904168
  0
LWPOLYLINE
  5
DC8
330
1F
100
AcDbEntity
  8
0
 62
     9
100
AcDbPolyline
 90
        5
 70
     0
 43
0.0
 10
1463.151862931808
 20
1535.805264995168
 10
1464.992730951307
 20
1532.028096546168
 10
1466.506012821307
 20
1529.691317993669
 10
1467.735171115309
 20
1528.450016431168
 10
1468.73324287631
 20
1528.075035693668
  0
LINE
  5
DC9
330
1F
100
AcDbEntity
  8
0
 62
     9
100
AcDbLine
 10
1462.257426016308
 20
1538.135100598168
 30
0.0
 11
1463.151862931808
 21
1535.805264995168
 31
0.0
  0
LWPOLYLINE
  5
DCA
330
1F
100
AcDbEntity
  8
0
 62
     9
100
AcDbPolyline
 90
        6
 70
     0
 43
0.0
 10
1605.394344690309
 20
1883.805983003168
 10
1616.82843457131
 20
1889.840329152668
 10
1630.81589545631
 20
1896.396613758668
 10
1647.451393139809
 20
1903.129278517167
 10
1666.88133598781
 20
1909.651029968168
 10
1689.301656729308
 20
1915.509277287168
  0
LINE
  5
DCB
330
1F
100
AcDbEntity
  8
0
 62
     9
100
AcDbLine
 10
1690.238975581308
 20
1911.284119964167
 30
0.0
 11
1690.402592986806
 21
1911.348698376668
 31
0.0
  0
LINE
  5
DCC
330
1F
100
AcDbEntity
  8
0
 62
     9
100
AcDbLine
 10
1690.238976433308
 20
1285.526906150168
 30
0.0
 11
1690.402569719807
 21
1285.462330440668
 31
0.0
  0
LWPOLYLINE
  5
DCD
330
1F
100
AcDbEntity
  8
0
100
AcDbPolyline
 90
       29
 70
     0
 43
0.0
 10
1587.53421993181
 20
1325.271048581168
 10
1587.463482134309
 20
1325.302819020168
 10
1587.488838675809
 20
1325.288300456168
 10
1588.140077194809
 20
1324.956850060168
 10
1589.27121938431
 20
1324.363024043168
 10
1590.797917921808
 20
1323.548208925168
 10
1592.680595301807
 20
1322.537130020668
 10
1594.88871661981
 20
1321.353197785668
 10
1597.394293220309
 20
1320.019708367668
 10
1600.171969992308
 20
1318.558847767168
 10
1603.207081152307
 20
1316.987936332168
 10
1606.483764790809
 20
1315.324844026168
 10
1609.985926910808
 20
1313.586710905668
 10
1613.705486289308
 20
1311.787166591167
 10
1617.632282181809
 20
1309.940585302668
 10
1621.754829656808
 20
1308.060869975668
 10
1626.06751625231
 20
1306.159515633667
 10
1630.56528021031
 20
1304.247720623668
 10
1635.245107652309
 20
1302.334987540169
 10
1640.107655677809
 20
1300.429578243168
 10
1645.155428807308
 20
1298.539690422668
 10
1650.389698598809
 20
1296.673752601668
 10
1655.812158481308
 20
1294.840090372668
 10
1661.426727549808
 20
1293.047254536167
 10
1667.23629663631
 20
1291.304325067669
 10
1673.243841175811
 20
1289.620341430169
 10
1679.453284636808
 20
1288.004832553168
 10
1685.868868444809
 20
1286.468029500168
 10
1690.402893316309
 20
1285.462260562668
  0
LWPOLYLINE
  5
DCE
330
1F
100
AcDbEntity
  8
0
 62
     9
100
AcDbPolyline
 90
        8
 70
     0
 43
0.0
 10
1590.501065519808
 20
1323.774973884668
 10
1597.169725429309
 20
1320.183526810168
 10
1606.159916705808
 20
1315.523906110668
 10
1617.629100410808
 20
1309.974432047668
 10
1631.658211123808
 20
1303.824647272668
 10
1648.308617574307
 20
1297.434059738168
 10
1667.765269024809
 20
1291.180758900169
 10
1690.23897830081
 20
1285.526914568668
  0
LWPOLYLINE
  5
DCF
330
1F
100
AcDbEntity
  8
0
 62
     9
100
AcDbPolyline
 90
        9
 70
     0
 43
0.0
 10
3103.046457867807
 20
1280.378993886667
 10
3130.801464211311
 20
1284.843419935168
 10
3154.954016431809
 20
1290.729546016168
 10
3175.882156386811
 20
1297.396261047167
 10
3193.872917015309
 20
1304.337182696167
 10
3208.94678272281
 20
1311.039855910668
 10
3221.16248420831
 20
1317.063294037168
 10
3230.282146833808
 20
1321.872678991668
 10
3236.497463133309
 20
1325.236569707667
  0
LWPOLYLINE
  5
DD0
330
1F
100
AcDbEntity
  8
0
100
AcDbPolyline
 90
       32
 70
     0
 43
0.0
 10
3102.964957079311
 20
1280.339936604668
 10
3108.32058757681
 20
1281.012338309668
 10
3115.833801110809
 20
1282.106073698168
 10
3123.103158137309
 20
1283.332787928168
 10
3130.133913371311
 20
1284.678051819167
 10
3136.931715966311
 20
1286.128517610668
 10
3143.501384562808
 20
1287.671984978167
 10
3149.848343018311
 20
1289.296844620168
 10
3155.979005423811
 20
1290.992146960668
 10
3161.89886328531
 20
1292.747781621168
 10
3167.612058047808
 20
1294.554229728167
 10
3173.123529497308
 20
1296.402347423668
 10
3178.438495737809
 20
1298.283345876168
 10
3183.560187808808
 20
1300.188895071668
 10
3188.490762273307
 20
1302.110607416668
 10
3193.233583356311
 20
1304.040304970168
 10
3197.79205370431
 20
1305.970184142667
 10
3202.164332210311
 20
1307.891282838168
 10
3206.345575157807
 20
1309.792717389167
 10
3210.327653364809
 20
1311.661229242168
 10
3214.09949436381
 20
1313.482634100667
 10
3217.644955634309
 20
1315.240021003667
 10
3220.951166939808
 20
1316.916743605668
 10
3224.008048293809
 20
1318.497468559667
 10
3226.79659730281
 20
1319.963106734168
 10
3229.298006257311
 20
1321.294126257167
 10
3231.49379020631
 20
1322.471115523168
 10
3233.36215493681
 20
1323.474400574668
 10
3234.878493483309
 20
1324.284652110168
 10
3236.008931560809
 20
1324.880097100168
 10
3236.713418223807
 20
1325.240870927167
 10
3236.78163598731
 20
1325.274851672167
  0
LWPOLYLINE
  5
DD1
330
1F
100
AcDbEntity
  8
0
 62
     9
100
AcDbPolyline
 90
        7
 70
     0
 43
0.0
 10
3103.586300820308
 20
1275.907785221668
 10
3032.042985676307
 20
1268.080068159167
 10
2966.93895259581
 20
1262.425412090667
 10
2907.620888975808
 20
1258.480813584668
 10
2853.398952698807
 20
1255.876705230667
 10
2803.57082044431
 20
1254.324165110168
 10
2757.35203144481
 20
1253.602308754168
  0
LINE
  5
DD2
330
1F
100
AcDbEntity
  8
0
100
AcDbLine
 10
2277.14870304731
 20
1248.405511135667
 30
0.0
 11
2282.14870304731
 21
1248.405511135667
 31
0.0
  0
LWPOLYLINE
  5
DD3
330
1F
100
AcDbEntity
  8
0
 62
     9
100
AcDbPolyline
 90
        3
 70
     0
 43
0.0
 10
1731.769665321309
 20
1277.349845893168
 10
1769.82465554081
 20
1271.153459445668
 10
1804.603446784806
 20
1266.573175051168
  0
LWPOLYLINE
  5
DD4
330
1F
100
AcDbEntity
  8
0
100
AcDbPolyline
 90
        4
 70
     0
 43
0.0
 10
1690.402569719807
 20
1285.462330440668
 10
1756.941152435806
 20
1273.081483749669
 10
1833.957905856808
 20
1263.478218813668
 10
1916.607379624306
 20
1258.788893334668
  0
LINE
  5
DD5
330
1F
100
AcDbEntity
  8
0
 62
     9
100
AcDbLine
 10
1690.23897830081
 20
1285.526914568668
 30
0.0
 11
1731.769665321309
 21
1277.349845893168
 31
0.0
  0
LWPOLYLINE
  5
DD6
330
1F
100
AcDbEntity
  8
0
 62
     9
100
AcDbPolyline
 90
        8
 70
     0
 43
0.0
 10
1689.301656729308
 20
1281.301744984167
 10
1666.877919400808
 20
1287.161018427668
 10
1647.445405399808
 20
1293.683971014168
 10
1630.808948210811
 20
1300.417455009168
 10
1616.820315304309
 20
1306.974753469168
 10
1605.385941150808
 20
1313.009718134668
 10
1596.47559366231
 20
1318.195835291167
 10
1589.989084729807
 20
1322.301801036168
  0
LINE
  5
DD7
330
1F
100
AcDbEntity
  8
0
 62
     9
100
AcDbLine
 10
2289.515324438808
 20
1930.897314997167
 30
0.0
 11
2294.74008601081
 21
1934.873551062667
 31
0.0
  0
LINE
  5
DD8
330
1F
100
AcDbEntity
  8
0
 62
     9
100
AcDbLine
 10
2294.74008601081
 20
1934.873551062667
 30
0.0
 11
2300.828533197309
 21
1937.355180555668
 31
0.0
  0
LINE
  5
DD9
330
1F
100
AcDbEntity
  8
0
 62
     9
100
AcDbLine
 10
2258.190293673309
 20
1259.555223217168
 30
0.0
 11
2251.599983278308
 21
1258.821155486167
 31
0.0
  0
LINE
  5
DDA
330
1F
100
AcDbEntity
  8
0
 62
     9
100
AcDbLine
 10
2947.454852667811
 20
1265.919829148667
 30
0.0
 11
3021.988771766809
 21
1271.897606518168
 31
0.0
  0
LINE
  5
DDB
330
1F
100
AcDbEntity
  8
0
 62
     9
100
AcDbLine
 10
2878.90389900231
 20
1261.973004223668
 30
0.0
 11
2947.454852667811
 21
1265.919829148667
 31
0.0
  0
LWPOLYLINE
  5
DDC
330
1F
100
AcDbEntity
  8
0
100
AcDbPolyline
 90
        4
 70
     0
 43
0.0
 10
2757.349418526311
 20
1258.613428248668
 10
2880.518128758808
 20
1262.016919112167
 10
2997.362275547311
 20
1269.697744136168
 10
3102.965008434809
 20
1280.339946150668
  0
LINE
  5
DDD
330
1F
100
AcDbEntity
  8
0
 62
     9
100
AcDbLine
 10
2283.036032513809
 20
1272.171871426667
 30
0.0
 11
2277.14870304731
 21
1272.116615675168
 31
0.0
  0
LINE
  5
DDE
330
1F
100
AcDbEntity
  8
0
 62
     9
100
AcDbLine
 10
2281.530437232307
 20
1290.475637050667
 30
0.0
 11
2282.149093885811
 21
1290.479549986668
 31
0.0
  0
LINE
  5
DDF
330
1F
100
AcDbEntity
  8
0
 62
     9
100
AcDbLine
 10
2277.14870304731
 20
1255.905511135667
 30
0.0
 11
2282.14870304731
 21
1255.905511135667
 31
0.0
  0
LINE
  5
DE0
330
1F
100
AcDbEntity
  8
0
 62
     9
100
AcDbLine
 10
2282.14870304731
 20
1262.245257098167
 30
0.0
 11
2277.14870304731
 21
1262.245257098167
 31
0.0
  0
LINE
  5
DE1
330
1F
100
AcDbEntity
  8
0
100
AcDbLine
 10
2282.14870304731
 20
1264.593543512667
 30
0.0
 11
2277.14870304731
 21
1264.593543512667
 31
0.0
  0
LINE
  5
DE2
330
1F
100
AcDbEntity
  8
0
 62
     9
100
AcDbLine
 10
2282.14870304731
 20
1269.418702892167
 30
0.0
 11
2277.14870304731
 21
1269.418702892167
 31
0.0
  0
LINE
  5
DE3
330
1F
100
AcDbEntity
  8
0
 62
     9
100
AcDbLine
 10
2277.14870304731
 20
1290.511635541667
 30
0.0
 11
2281.530437232307
 21
1290.475637050667
 31
0.0
  0
LINE
  5
DE4
330
1F
100
AcDbEntity
  8
0
 62
     9
100
AcDbLine
 10
2281.43390656431
 20
1274.247693057167
 30
0.0
 11
2282.748397506809
 21
1274.225518281668
 31
0.0
  0
LWPOLYLINE
  5
DE5
330
1F
100
AcDbEntity
  8
0
 62
     9
100
AcDbPolyline
 90
        9
 70
     0
 43
0.0
 10
1916.601703399809
 20
1253.779616379168
 10
1895.640321002806
 20
1254.427800614668
 10
1873.070284318309
 20
1255.548318960668
 10
1848.618108018308
 20
1257.258450741168
 10
1822.017114394809
 20
1259.707879886168
 10
1793.01172329581
 20
1263.083386434168
 10
1761.361949985809
 20
1267.614091908167
 10
1726.851331947807
 20
1273.576935498668
 10
1689.301656729308
 20
1281.301744984167
  0
LINE
  5
DE6
330
1F
100
AcDbEntity
  8
0
 62
     9
100
AcDbLine
 10
2277.14870304731
 20
1272.116615675168
 30
0.0
 11
2276.228913766808
 21
1272.150115106668
 31
0.0
  0
LINE
  5
DE7
330
1F
100
AcDbEntity
  8
0
 62
     9
100
AcDbLine
 10
2251.599983455809
 20
1937.989866796168
 30
0.0
 11
2251.621718693808
 21
1938.022435188668
 31
0.0
  0
LINE
  5
DE8
330
1F
100
AcDbEntity
  8
0
 62
     9
100
AcDbLine
 10
2285.504489855811
 20
1925.693365577667
 30
0.0
 11
2289.515324438808
 21
1930.897314997167
 31
0.0
  0
LINE
  5
DE9
330
1F
100
AcDbEntity
  8
0
 62
     9
100
AcDbLine
 10
2307.384524721808
 20
1938.197248813668
 30
0.0
 11
2307.352140142309
 21
1938.165432737668
 31
0.0
  0
LWPOLYLINE
  5
DEA
330
1F
100
AcDbEntity
  8
0
 62
     9
100
AcDbPolyline
 90
        5
 70
     0
 43
0.0
 10
1468.73324287631
 20
1668.735986577668
 10
1467.775824071809
 20
1668.389221272668
 10
1466.596163617308
 20
1667.233297895668
 10
1465.144048417808
 20
1665.050114542668
 10
1463.377185384807
 20
1661.518454251168
  0
LINE
  5
DEB
330
1F
100
AcDbEntity
  8
0
 62
     9
100
AcDbLine
 10
2252.14870304731
 20
1320.497331868668
 30
0.0
 11
2277.14870304731
 21
1320.497331868668
 31
0.0
  0
LINE
  5
DEC
330
1F
100
AcDbEntity
  8
0
 62
     9
100
AcDbLine
 10
2317.14870304731
 20
1328.405511135667
 30
0.0
 11
2282.14870304731
 21
1328.405511135667
 31
0.0
  0
LINE
  5
DED
330
1F
100
AcDbEntity
  8
0
100
AcDbLine
 10
2317.14870304731
 20
1343.405511135667
 30
0.0
 11
2297.14870304731
 21
1343.405511135667
 31
0.0
  0
LINE
  5
DEE
330
1F
100
AcDbEntity
  8
0
 62
     9
100
AcDbLine
 10
2297.14870304731
 20
1345.590273337668
 30
0.0
 11
2317.14870304731
 21
1345.590273337668
 31
0.0
  0
LWPOLYLINE
  5
DEF
330
1F
100
AcDbEntity
  8
0
 62
     9
100
AcDbPolyline
 90
        4
 70
     0
 43
0.0
 10
2307.14870304731
 20
1320.316488967667
 10
2300.731330959809
 20
1320.318509148167
 10
2294.699613137308
 20
1320.314194098668
 10
2290.148703387308
 20
1320.317033323667
  0
LINE
  5
DF0
330
1F
100
AcDbEntity
  8
0
 62
     9
100
AcDbLine
 10
2290.148703387308
 20
1320.317033323667
 30
0.0
 11
2282.14870304731
 21
1320.316488967667
 31
0.0
  0
LWPOLYLINE
  5
DF1
330
1F
100
AcDbEntity
  8
0
 62
     9
100
AcDbPolyline
 90
        3
 70
     0
 43
0.0
 10
2281.451941569808
 20
1274.175553484168
 10
2282.417605693808
 20
1273.256574507667
 10
2282.934124117811
 20
1272.899473601667
  0
LWPOLYLINE
  5
DF2
330
1F
100
AcDbEntity
  8
0
 62
     9
100
AcDbPolyline
 90
        3
 70
     0
 43
0.0
 10
2281.43558648731
 20
1274.247084264668
 10
2281.46200557881
 20
1274.213279833667
 10
2281.451941569808
 20
1274.175553484168
  0
LINE
  5
DF3
330
1F
100
AcDbEntity
  8
0
 62
     9
100
AcDbLine
 10
1670.081097189307
 20
1909.896192694668
 30
0.0
 11
1669.495864621806
 21
1912.051799346168
 31
0.0
  0
LINE
  5
DF4
330
1F
100
AcDbEntity
  8
0
 62
     9
100
AcDbLine
 10
1689.261163644808
 20
1281.119214084168
 30
0.0
 11
1689.301656729308
 21
1281.301744984167
 31
0.0
  0
LINE
  5
DF5
330
1F
100
AcDbEntity
  8
0
 62
     9
100
AcDbLine
 10
1690.23897830081
 20
1285.526914568668
 30
0.0
 11
1703.730223792808
 21
1346.341475797667
 31
0.0
  0
LWPOLYLINE
  5
DF6
330
1F
100
AcDbEntity
  8
0
 62
     9
100
AcDbPolyline
 90
        3
 70
     0
 43
0.0
 10
2282.14870304731
 20
1918.210124039168
 10
2282.987279700809
 20
1919.650335546167
 10
2283.039424152811
 20
1919.678783084667
  0
LINE
  5
DF7
330
1F
100
AcDbEntity
  8
0
 62
     9
100
AcDbLine
 10
2292.513448131808
 20
1344.888200044167
 30
0.0
 11
2297.14870304731
 21
1345.590273337668
 31
0.0
  0
LWPOLYLINE
  5
DF8
330
1F
100
AcDbEntity
  8
0
 62
     9
100
AcDbPolyline
 90
        5
 70
     0
 43
0.0
 10
2317.14870304731
 20
1345.590273337668
 10
2326.12213836631
 20
1346.687077261667
 10
2334.549341475808
 20
1349.932589020668
 10
2341.850178427309
 20
1355.157403208667
 10
2347.433808604808
 20
1361.955191611168
  0
LINE
  5
DF9
330
1F
100
AcDbEntity
  8
0
 62
     9
100
AcDbLine
 10
2279.608159351809
 20
1277.108290898667
 30
0.0
 11
2281.436923158809
 21
1274.247674499168
 31
0.0
  0
LWPOLYLINE
  5
DFA
330
1F
100
AcDbEntity
  8
0
 62
     9
100
AcDbPolyline
 90
        3
 70
     0
 43
0.0
 10
2282.14870304731
 20
1278.600903831668
 10
2283.000554951809
 20
1277.148974693167
 10
2283.174263519809
 20
1277.054870913668
  0
LINE
  5
DFB
330
1F
100
AcDbEntity
  8
0
 62
     9
100
AcDbLine
 10
1689.261163644808
 20
1915.691808187668
 30
0.0
 11
1689.301656729308
 21
1915.509277287168
 31
0.0
  0
LINE
  5
DFC
330
1F
100
AcDbEntity
  8
0
 62
     9
100
AcDbLine
 10
1703.730223792808
 20
1850.469546474169
 30
0.0
 11
1690.23897830081
 21
1911.284107703168
 31
0.0
  0
LINE
  5
DFD
330
1F
100
AcDbEntity
  8
0
 62
     9
100
AcDbLine
 10
2276.486651752809
 20
1922.831406815667
 30
0.0
 11
2277.14870304731
 21
1924.694406596168
 31
0.0
  0
LINE
  5
DFE
330
1F
100
AcDbEntity
  8
0
 62
     9
100
AcDbLine
 10
2282.996004685307
 20
1919.643442076668
 30
0.0
 11
2285.504489855811
 21
1925.693365577667
 31
0.0
  0
LINE
  5
DFF
330
1F
100
AcDbEntity
  8
0
 62
     9
100
AcDbLine
 10
1690.718532466307
 20
1282.542203850668
 30
0.0
 11
1691.980737364308
 21
1285.168680488168
 31
0.0
  0
LINE
  5
E00
330
1F
100
AcDbEntity
  8
0
100
AcDbLine
 10
2297.14870304731
 20
1413.405511135667
 30
0.0
 11
2317.14870304731
 21
1413.405511135667
 31
0.0
  0
LINE
  5
E01
330
1F
100
AcDbEntity
  8
0
 62
     9
100
AcDbLine
 10
2282.14870304731
 20
1428.405511135667
 30
0.0
 11
2317.14870304731
 21
1428.405511135667
 31
0.0
  0
LINE
  5
E02
330
1F
100
AcDbEntity
  8
0
 62
     9
100
AcDbLine
 10
1690.718532399808
 20
1914.268826569668
 30
0.0
 11
1691.980800777811
 21
1911.642221961168
 31
0.0
  0
LINE
  5
E03
330
1F
100
AcDbEntity
  8
0
 62
     9
100
AcDbLine
 10
2278.027127786309
 20
1280.954510430668
 30
0.0
 11
2279.608159351809
 21
1277.108290898667
 31
0.0
  0
LINE
  5
E04
330
1F
100
AcDbEntity
  8
0
 62
     9
100
AcDbLine
 10
2276.48665236881
 20
1273.979619878667
 30
0.0
 11
2277.14870304731
 21
1272.116622838667
 31
0.0
  0
LINE
  5
E05
330
1F
100
AcDbEntity
  8
0
 62
     9
100
AcDbLine
 10
2277.14870304731
 20
1284.174400076167
 30
0.0
 11
2278.027127786309
 21
1280.954510430668
 31
0.0
  0
LWPOLYLINE
  5
E06
330
1F
100
AcDbEntity
  8
0
100
AcDbPolyline
 90
       11
 70
     0
 43
0.0
 10
2282.148703051308
 20
1283.612255755667
 10
2282.627286862308
 20
1278.744404209668
 10
2284.42673189831
 20
1273.186173776667
 10
2287.657425351309
 20
1267.957321525668
 10
2291.189637700808
 20
1264.369276334667
 10
2294.766855800309
 20
1261.894244831167
 10
2297.994085979807
 20
1260.349108498168
 10
2300.734091317808
 20
1259.449615015167
 10
2303.007324014309
 20
1258.958064077168
 10
2306.13022240281
 20
1258.633408194668
 10
2307.349420492311
 20
1258.613457589668
  0
LINE
  5
E07
330
1F
100
AcDbEntity
  8
0
 62
     9
100
AcDbLine
 10
2251.60170339981
 20
1253.779616379167
 30
0.0
 11
2251.601743263308
 21
1253.685013461668
 31
0.0
  0
LINE
  5
E08
330
1F
100
AcDbEntity
  8
0
 62
     9
100
AcDbLine
 10
2251.586246709309
 20
1295.766669927167
 30
0.0
 11
2251.599989480811
 21
1258.821156173168
 31
0.0
  0
LINE
  5
E09
330
1F
100
AcDbEntity
  8
0
 62
     9
100
AcDbLine
 10
2251.597227324309
 20
1930.024360593667
 30
0.0
 11
2251.586246756807
 21
1901.044352345668
 31
0.0
  0
LINE
  5
E0A
330
1F
100
AcDbEntity
  8
0
 62
     9
100
AcDbLine
 10
2251.599988485307
 20
1937.989866880168
 30
0.0
 11
2251.597227324309
 21
1930.024360593667
 31
0.0
  0
LINE
  5
E0B
330
1F
100
AcDbEntity
  8
0
 62
     9
100
AcDbLine
 10
2251.601742836809
 20
1943.126008800667
 30
0.0
 11
2251.601702727311
 21
1943.031405866668
 31
0.0
  0
LINE
  5
E0C
330
1F
100
AcDbEntity
  8
0
 62
     9
100
AcDbLine
 10
2282.14870304731
 20
1913.198334674667
 30
0.0
 11
2282.996004685307
 21
1919.643442076668
 31
0.0
  0
LWPOLYLINE
  5
E0D
330
1F
100
AcDbEntity
  8
0
 62
     9
100
AcDbPolyline
 90
        7
 70
     0
 43
0.0
 10
2282.148703283808
 20
1918.213553992667
 10
2283.009350563311
 20
1924.713171157668
 10
2285.53203676531
 20
1930.768480414167
 10
2289.543070369807
 20
1935.959122869168
 10
2294.766284324308
 20
1939.927713181168
 10
2300.842051060309
 20
1942.401006837167
 10
2307.352043070808
 20
1943.208713138168
  0
LWPOLYLINE
  5
E0E
330
1F
100
AcDbEntity
  8
0
 62
     9
100
AcDbPolyline
 90
        6
 70
     0
 43
0.0
 10
2283.912141950542
 20
1885.073098994703
 10
2285.54832838281
 20
1888.949020514667
 10
2289.573435464808
 20
1894.087389416168
 10
2294.818507584309
 20
1898.013455770168
 10
2300.896525163807
 20
1900.445934042168
 10
2307.352662932811
 20
1901.230749609168
  0
LWPOLYLINE
  5
E0F
330
1F
100
AcDbEntity
  8
0
100
AcDbPolyline
 90
        7
 70
     0
 43
0.0
 10
2282.14870304731
 20
1913.198334676167
 10
2283.075780297309
 20
1919.943292501167
 10
2285.632530834809
 20
1925.928400683168
 10
2289.660654004309
 20
1931.063627109667
 10
2294.897398385808
 20
1934.990682846167
 10
2301.459320485307
 20
1937.542374940668
 10
2307.349472243811
 20
1938.197555404668
  0
LWPOLYLINE
  5
E10
330
1F
100
AcDbEntity
  8
0
 62
     9
100
AcDbPolyline
 90
        3
 70
     0
 43
0.0
 10
2276.902167085808
 20
1919.881956145167
 10
2277.351457779309
 20
1922.803261576668
 10
2278.020571108808
 20
1924.686245043168
  0
LINE
  5
E11
330
1F
100
AcDbEntity
  8
0
100
AcDbLine
 10
2277.725480242311
 20
1691.635524063668
 30
0.0
 11
2277.14870304731
 21
1691.389284791167
 31
0.0
  0
LWPOLYLINE
  5
E12
330
1F
100
AcDbEntity
  8
0
 62
     9
100
AcDbPolyline
 90
       23
 70
     0
 43
0.0
 10
1468.73324287631
 20
1528.075035693668
 10
1469.407186324809
 20
1528.330510470168
 10
1469.997704963308
 20
1529.134391515168
 10
1470.496266604309
 20
1530.627633912668
 10
1470.878017178808
 20
1533.029626671668
 10
1471.105369949309
 20
1536.640552974668
 10
1471.137699715308
 20
1541.831851153168
 10
1470.95061110681
 20
1549.027992874668
 10
1470.568165849809
 20
1558.559753448168
 10
1470.10098833531
 20
1570.301673203668
 10
1469.715817518309
 20
1583.801999060668
 10
1469.565027808809
 20
1598.330530689669
 10
1469.712294493808
 20
1612.835425193168
 10
1470.093346086308
 20
1626.295523595668
 10
1470.559216723809
 20
1638.038834563669
 10
1470.944056983308
 20
1647.598902630668
 10
1471.135930337309
 20
1654.840748041667
 10
1471.108499650308
 20
1660.068540582168
 10
1470.885383323809
 20
1663.710866707668
 10
1470.506397156309
 20
1666.139711882168
 10
1470.008291714809
 20
1667.654819922669
 10
1469.415004526308
 20
1668.474124321668
 10
1468.73324287631
 20
1668.735986577668
  0
LWPOLYLINE
  5
E13
330
1F
100
AcDbEntity
  8
0
 62
     9
100
AcDbPolyline
 90
        3
 70
     0
 43
0.0
 10
2277.14870304731
 20
1469.157038204167
 10
2277.370053923808
 20
1469.158098827667
 10
2282.14870304731
 20
1469.137171915167
  0
LINE
  5
E14
330
1F
100
AcDbEntity
  8
0
 62
     9
100
AcDbLine
 10
2277.14870304731
 20
1483.913822698167
 30
0.0
 11
2282.14870304731
 21
1483.913758880168
 31
0.0
  0
LINE
  5
E15
330
1F
100
AcDbEntity
  8
0
 62
     9
100
AcDbLine
 10
2277.14870304731
 20
1488.291134044168
 30
0.0
 11
2282.14870304731
 21
1488.291134044168
 31
0.0
  0
LINE
  5
E16
330
1F
100
AcDbEntity
  8
0
100
AcDbLine
 10
2277.14870304731
 20
1488.348213572667
 30
0.0
 11
2282.14870304731
 21
1488.348213572667
 31
0.0
  0
LWPOLYLINE
  5
E17
330
1F
100
AcDbEntity
  8
0
100
AcDbPolyline
 90
        6
 70
     0
 43
0.0
 10
1449.420759595307
 20
1543.405552032669
 10
1453.235116232808
 20
1543.016306079169
 10
1457.70068715381
 20
1541.480219831668
 10
1460.828856952807
 20
1539.490478970168
 10
1462.661875433808
 20
1537.751372568169
 10
1463.303054153809
 20
1536.943582707168
  0
LINE
  5
E18
330
1F
100
AcDbEntity
  8
0
100
AcDbLine
 10
2277.14870304731
 20
1505.419794346667
 30
0.0
 11
2277.738871949808
 21
1505.146525562667
 31
0.0
  0
LWPOLYLINE
  5
E19
330
1F
100
AcDbEntity
  8
0
 62
     9
100
AcDbPolyline
 90
        3
 70
     0
 43
0.0
 10
2281.451941569808
 20
1274.175553484168
 10
2281.795971152808
 20
1272.871480455168
 10
2282.14870304731
 20
1272.163442947167
  0
LWPOLYLINE
  5
E1A
330
1F
100
AcDbEntity
  8
0
 62
     9
100
AcDbPolyline
 90
        7
 70
     0
 43
0.0
 10
2282.14870304731
 20
1320.316488967667
 10
2283.013251249808
 20
1313.867301892667
 10
2285.548326567309
 20
1307.862034357168
 10
2289.573432146811
 20
1302.723669471167
 10
2294.818502471308
 20
1298.797598775168
 10
2300.89651962581
 20
1296.365107651168
 10
2307.352662932811
 20
1295.580272662668
  0
LWPOLYLINE
  5
E1B
330
1F
100
AcDbEntity
  8
0
 62
     9
100
AcDbPolyline
 90
        7
 70
     0
 43
0.0
 10
2282.148703051308
 20
1283.612255755667
 10
2283.00935383381
 20
1277.117866923167
 10
2285.53205030781
 20
1271.070210731167
 10
2289.543101085309
 20
1265.886113507667
 10
2294.766336966807
 20
1261.922513395667
 10
2300.842126810311
 20
1259.452312394168
 10
2307.352140044309
 20
1258.645589529667
  0
LWPOLYLINE
  5
E1C
330
1F
100
AcDbEntity
  8
0
 62
     9
100
AcDbPolyline
 90
        7
 70
     0
 43
0.0
 10
2282.14870304731
 20
1278.600907482668
 10
2282.996004556308
 20
1272.147590025667
 10
2285.504482557807
 20
1266.090095457667
 10
2289.51529940831
 20
1260.879482895668
 10
2294.74003942481
 20
1256.898294165167
 10
2300.828461107309
 20
1254.413563959168
 10
2307.352043169808
 20
1253.602309133667
  0
LWPOLYLINE
  5
E1D
330
1F
100
AcDbEntity
  8
0
 62
     9
100
AcDbPolyline
 90
        3
 70
     0
 43
0.0
 10
2251.74465474781
 20
1939.462148801168
 10
2251.65568934931
 20
1942.100260427668
 10
2251.601696358309
 20
1943.031405672667
  0
LINE
  5
E1E
330
1F
100
AcDbEntity
  8
0
 62
     9
100
AcDbLine
 10
2251.785413553807
 20
1938.021383924668
 30
0.0
 11
2251.74465474781
 21
1939.462148801168
 31
0.0
  0
LINE
  5
E1F
330
1F
100
AcDbEntity
  8
0
 62
     9
100
AcDbLine
 10
2252.14870304731
 20
1876.313690402668
 30
0.0
 11
2251.58693045131
 21
1901.044367876667
 31
0.0
  0
LINE
  5
E20
330
1F
100
AcDbEntity
  8
0
100
AcDbLine
 10
2277.177278216309
 20
1531.928405438168
 30
0.0
 11
2277.182867140308
 21
1508.397591436168
 31
0.0
  0
LINE
  5
E21
330
1F
100
AcDbEntity
  8
0
100
AcDbLine
 10
2277.152691991307
 20
1664.870089427167
 30
0.0
 11
2277.148638359808
 21
1679.697987335667
 31
0.0
  0
LINE
  5
E22
330
1F
100
AcDbEntity
  8
0
 62
     9
100
AcDbLine
 10
2252.14870304731
 20
1320.497331868668
 30
0.0
 11
2252.14870304731
 21
1780.273688278279
 31
0.0
  0
LINE
  5
E23
330
1F
100
AcDbEntity
  8
0
 62
     9
100
AcDbLine
 10
2252.14870304731
 20
1855.290329250055
 30
0.0
 11
2252.14870304731
 21
1876.313690403168
 31
0.0
  0
LINE
  5
E24
330
1F
100
AcDbEntity
  8
0
 62
     9
100
AcDbLine
 10
2277.14870304731
 20
1248.405511135667
 30
0.0
 11
2277.14870304731
 21
1272.116615675168
 31
0.0
  0
LINE
  5
E25
330
1F
100
AcDbEntity
  8
0
 62
     9
100
AcDbLine
 10
2277.14870304731
 20
1924.694406596168
 30
0.0
 11
2277.14870304731
 21
1948.405511135667
 31
0.0
  0
LINE
  5
E26
330
1F
100
AcDbEntity
  8
0
100
AcDbLine
 10
2277.180601296807
 20
1531.926712230667
 30
0.0
 11
2277.18324479031
 21
1512.702510065667
 31
0.0
  0
LINE
  5
E27
330
1F
100
AcDbEntity
  8
0
 62
     2
100
AcDbLine
 10
2279.64870304731
 20
1608.918011135668
 30
0.0
 11
2279.64870304731
 21
1587.893011135667
 31
0.0
  0
LINE
  5
E28
330
1F
100
AcDbEntity
  8
DEFAULT_1
 62
     2
100
AcDbLine
 10
2279.64870304731
 20
1545.843011135667
 30
0.0
 11
2279.64870304731
 21
1523.405511135667
 31
0.0
  0
LINE
  5
E29
330
1F
100
AcDbEntity
  8
DEFAULT_1
 62
     2
100
AcDbLine
 10
2279.64870304731
 20
1650.968011135667
 30
0.0
 11
2279.64870304731
 21
1673.405511135667
 31
0.0
  0
LINE
  5
E2A
330
1F
100
AcDbEntity
  8
0
 62
     9
100
AcDbLine
 10
2282.14870304731
 20
1248.405511135667
 30
0.0
 11
2282.14870304731
 21
1272.163442947167
 31
0.0
  0
LINE
  5
E2B
330
1F
100
AcDbEntity
  8
0
 62
     9
100
AcDbLine
 10
2282.14870304731
 20
1924.660270075167
 30
0.0
 11
2282.14870304731
 21
1948.405511135667
 31
0.0
  0
LINE
  5
E2C
330
1F
100
AcDbEntity
  8
0
 62
     9
100
AcDbLine
 10
2297.14870304731
 20
1343.405511135667
 30
0.0
 11
2297.14870304731
 21
1413.405511135667
 31
0.0
  0
LINE
  5
E2D
330
1F
100
AcDbEntity
  8
0
100
AcDbLine
 10
2277.14870304731
 20
1918.038077212667
 30
0.0
 11
2277.148703032387
 21
1881.284538010274
 31
0.0
  0
LINE
  5
E2E
330
1F
100
AcDbEntity
  8
0
100
AcDbLine
 10
2277.148702980833
 20
1754.279479550545
 30
0.0
 11
2277.148702787809
 21
1278.769441468667
 31
0.0
  0
LINE
  5
E2F
330
1F
100
AcDbEntity
  8
0
100
AcDbLine
 10
2282.148703283808
 20
1918.213553992667
 30
0.0
 11
2282.148703271224
 21
1884.17260042264
 31
0.0
  0
LINE
  5
E30
330
1F
100
AcDbEntity
  8
0
100
AcDbLine
 10
2282.148703222124
 20
1751.391417131589
 30
0.0
 11
2282.14870304731
 21
1278.600798644667
 31
0.0
  0
LINE
  5
E31
330
1F
100
AcDbEntity
  8
0
100
AcDbLine
 10
2277.182976367308
 20
1508.365606456168
 30
0.0
 11
2277.183209298811
 21
1513.141467557168
 31
0.0
  0
LINE
  5
E32
330
1F
100
AcDbEntity
  8
0
100
AcDbLine
 10
2277.183329647308
 20
1509.263924913667
 30
0.0
 11
2277.182975170311
 21
1508.367864689168
 31
0.0
  0
LINE
  5
E33
330
1F
100
AcDbEntity
  8
0
 62
     9
100
AcDbLine
 10
2281.420068874809
 20
1906.253606370167
 30
0.0
 11
2281.535517686307
 21
1913.135756869168
 31
0.0
  0
LWPOLYLINE
  5
E34
330
1F
100
AcDbEntity
  8
0
 62
     9
100
AcDbPolyline
 90
        3
 70
     0
 43
0.0
 10
2307.352043070808
 20
1943.208713138168
 10
2307.32501356981
 20
1941.767727645668
 10
2307.28385437381
 20
1938.190256518667
  0
LINE
  5
E35
330
1F
100
AcDbEntity
  8
0
 62
     9
100
AcDbLine
 10
2252.14870304731
 20
1320.497331868668
 30
0.0
 11
2251.58693045131
 21
1295.766654395168
 31
0.0
  0
LINE
  5
E36
330
1F
100
AcDbEntity
  8
0
 62
     9
100
AcDbLine
 10
2251.744655781811
 20
1257.348873471167
 30
0.0
 11
2251.78589375281
 21
1258.806576152668
 31
0.0
  0
LINE
  5
E37
330
1F
100
AcDbEntity
  8
0
 62
     9
100
AcDbLine
 10
2281.535517686307
 20
1913.135756869168
 30
0.0
 11
2281.70631945331
 21
1918.813438901668
 31
0.0
  0
LWPOLYLINE
  5
E38
330
1F
100
AcDbEntity
  8
0
 62
     9
100
AcDbPolyline
 90
        3
 70
     0
 43
0.0
 10
2281.70631945331
 20
1918.813438901668
 10
2281.917055707308
 20
1922.774121676667
 10
2282.14870304731
 20
1924.660269871167
  0
LWPOLYLINE
  5
E39
330
1F
100
AcDbEntity
  8
0
 62
     9
100
AcDbPolyline
 90
        3
 70
     0
 43
0.0
 10
2251.601696470308
 20
1253.779616597167
 10
2251.655690068807
 20
1254.710761838168
 10
2251.744655781811
 20
1257.348873471167
  0
LINE
  5
E3A
330
1F
100
AcDbEntity
  8
0
 62
     9
100
AcDbLine
 10
3351.900600292308
 20
1697.434875812168
 30
0.0
 11
3350.868239590308
 21
1697.157315759667
 31
0.0
  0
LINE
  5
E3B
330
1F
100
AcDbEntity
  8
0
100
AcDbLine
 10
1332.14870304731
 20
1543.405511135668
 30
0.0
 11
1449.418189522809
 21
1543.405511135668
 31
0.0
  0
LINE
  5
E3C
330
1F
100
AcDbEntity
  8
0
100
AcDbLine
 10
3356.14633305231
 20
1543.405511135667
 30
0.0
 11
3476.64870304731
 21
1543.405511135667
 31
0.0
  0
LINE
  5
E3D
330
1F
100
AcDbEntity
  8
0
 62
     9
100
AcDbLine
 10
2277.181863657307
 20
1510.093315817167
 30
0.0
 11
2277.14870304731
 21
1510.219748519167
 31
0.0
  0
LWPOLYLINE
  5
E3E
330
1F
100
AcDbEntity
  8
0
100
AcDbPolyline
 90
       11
 70
     0
 43
0.0
 10
2277.148703043308
 20
1913.028434897168
 10
2276.661383260808
 20
1917.940067744167
 10
2274.816910534311
 20
1923.570872321167
 10
2271.527137753309
 20
1928.822807711668
 10
2267.955262715811
 20
1932.396848252668
 10
2264.352663707307
 20
1934.846865851667
 10
2261.113972154307
 20
1936.365169559668
 10
2258.371333109811
 20
1937.241186315167
 10
2256.099333229307
 20
1937.713866984668
 10
2252.899009079308
 20
1938.016728328167
 10
2251.60735959381
 20
1938.022128312668
  0
LWPOLYLINE
  5
E3F
330
1F
100
AcDbEntity
  8
0
 62
     9
100
AcDbPolyline
 90
        3
 70
     0
 43
0.0
 10
2307.283926166808
 20
1258.614529319667
 10
2307.325013625311
 20
1255.043294614667
 10
2307.352043169808
 20
1253.602309133667
  0
LINE
  5
E40
330
1F
100
AcDbEntity
  8
0
 62
     9
100
AcDbLine
 10
2307.14870304731
 20
1320.316488967667
 30
0.0
 11
2307.352662932811
 21
1295.580272662168
 31
0.0
  0
LINE
  5
E41
330
1F
100
AcDbEntity
  8
0
 62
     9
100
AcDbLine
 10
2307.14870304731
 20
1413.405511135667
 30
0.0
 11
2307.148703047309
 21
1743.395129805196
 31
0.0
  0
LINE
  5
E42
330
1F
100
AcDbEntity
  8
0
 62
     9
100
AcDbLine
 10
2307.14870304731
 20
1320.316643240168
 30
0.0
 11
2307.14870304731
 21
1343.405511135667
 31
0.0
  0
LINE
  5
E43
330
1F
100
AcDbEntity
  8
0
 62
     9
100
AcDbLine
 10
2307.352758891807
 20
1901.230748818668
 30
0.0
 11
2307.352100099309
 21
1938.165427805667
 31
0.0
  0
LINE
  5
E44
330
1F
100
AcDbEntity
  8
0
 62
     9
100
AcDbLine
 10
2307.352099870811
 20
1258.645594460167
 30
0.0
 11
2307.352758902808
 21
1295.580273453167
 31
0.0
  0
LINE
  5
E45
330
1F
100
AcDbEntity
  8
0
 62
     9
100
AcDbLine
 10
2307.352027968808
 20
1253.508001827668
 30
0.0
 11
2307.35203144481
 21
1253.602308754168
 31
0.0
  0
LINE
  5
E46
330
1F
100
AcDbEntity
  8
0
 62
     9
100
AcDbLine
 10
2307.352031596808
 20
1943.208713514167
 30
0.0
 11
2307.352028028311
 21
1943.303020443668
 31
0.0
  0
LINE
  5
E47
330
1F
100
AcDbEntity
  8
0
 62
     9
100
AcDbLine
 10
2317.14870304731
 20
1328.405511135667
 30
0.0
 11
2317.14870304731
 21
1428.405511135667
 31
0.0
  0
LINE
  5
E48
330
1F
100
AcDbEntity
  8
0
 62
     9
100
AcDbLine
 10
2307.27808696887
 20
1892.186190819438
 30
0.0
 11
2307.352662932811
 21
1901.230749609668
 31
0.0
  0
LINE
  5
E49
330
1F
100
AcDbEntity
  8
0
 62
     9
100
AcDbLine
 10
2277.14870304731
 20
1283.783032570168
 30
0.0
 11
2276.286748234808
 21
1277.283406653668
 31
0.0
  0
LWPOLYLINE
  5
E4A
330
1F
100
AcDbEntity
  8
0
 62
     9
100
AcDbPolyline
 90
        7
 70
     0
 43
0.0
 10
2277.14870304731
 20
1320.497331828167
 10
2276.289350625811
 20
1314.066983376668
 10
2273.740226268811
 20
1308.028131296668
 10
2269.66205144031
 20
1302.844152839668
 10
2264.356355693307
 20
1298.909872697667
 10
2258.183098285309
 20
1296.491731222668
 10
2251.58693045131
 20
1295.766654396168
  0
LWPOLYLINE
  5
E4B
330
1F
100
AcDbEntity
  8
0
 62
     9
100
AcDbPolyline
 90
        7
 70
     0
 43
0.0
 10
2277.148702787809
 20
1278.769441468667
 10
2276.273090462811
 20
1272.214694160667
 10
2273.707588276308
 20
1266.115751166168
 10
2269.631907306807
 20
1260.903439928667
 10
2264.331545022308
 20
1256.942877738168
 10
2258.177786513311
 20
1254.511498062167
 10
2251.601696470308
 20
1253.779616597167
  0
LWPOLYLINE
  5
E4C
330
1F
100
AcDbEntity
  8
0
100
AcDbPolyline
 90
        7
 70
     0
 43
0.0
 10
2277.14870304731
 20
1283.783032568667
 10
2276.207911561308
 20
1276.989323248667
 10
2273.615247232307
 20
1270.969466197667
 10
2269.536839845808
 20
1265.820496449168
 10
2264.224301878311
 20
1261.892853911668
 10
2257.575531499809
 20
1259.379148733667
 10
2251.607222756807
 20
1258.788906288668
  0
LWPOLYLINE
  5
E4D
330
1F
100
AcDbEntity
  8
0
 62
     9
100
AcDbPolyline
 90
        5
 70
     0
 43
0.0
 10
2282.14870304731
 20
1331.245701998167
 10
2282.882855303308
 20
1335.678418319167
 10
2285.013448131808
 20
1339.677229482167
 10
2288.331924263307
 20
1342.850703988667
 10
2292.513448131808
 20
1344.888200044167
  0
LWPOLYLINE
  5
E4E
330
1F
100
AcDbEntity
  8
0
 62
     9
100
AcDbPolyline
 90
        7
 70
     0
 43
0.0
 10
2276.536503041233
 20
1880.894633186959
 10
2276.289349123311
 20
1882.744025453668
 10
2273.740223123309
 20
1888.782865282667
 10
2269.662048255311
 20
1893.966837279168
 10
2264.35635268531
 20
1897.901120054667
 10
2258.183096746812
 20
1900.319272266667
 10
2251.58693045131
 20
1901.044367875667
  0
LWPOLYLINE
  5
E4F
330
1F
100
AcDbEntity
  8
0
 62
     9
100
AcDbPolyline
 90
        7
 70
     0
 43
0.0
 10
2277.148703043308
 20
1913.028434897168
 10
2276.273015427308
 20
1919.578293365167
 10
2273.707298834309
 20
1925.669729964167
 10
2269.631294549809
 20
1930.875564678667
 10
2264.33054713031
 20
1934.831101925668
 10
2258.176400501811
 20
1937.259237221168
 10
2251.599983455809
 20
1937.989866796168
  0
LWPOLYLINE
  5
E50
330
1F
100
AcDbEntity
  8
0
 62
     9
100
AcDbPolyline
 90
        7
 70
     0
 43
0.0
 10
2277.14870304731
 20
1918.037978095667
 10
2276.286816950806
 20
1924.545631240167
 10
2273.735897435809
 20
1930.646924529167
 10
2269.660400456308
 20
1935.879667210168
 10
2264.35842999881
 20
1939.853118507168
 10
2258.191674297311
 20
1942.296067448667
 10
2251.601696358309
 20
1943.031405672667
  0
LINE
  5
E51
330
1F
100
AcDbEntity
  8
0
 62
     9
100
AcDbLine
 10
2350.94929308131
 20
1369.888517766168
 30
0.0
 11
2352.14870304731
 21
1378.405511135667
 31
0.0
  0
LINE
  5
E52
330
1F
100
AcDbEntity
  8
0
 62
     9
100
AcDbLine
 10
2251.58689214081
 20
1258.789355089668
 30
0.0
 11
2251.599983278308
 21
1258.821155486167
 31
0.0
  0
LINE
  5
E53
330
1F
100
AcDbEntity
  8
0
 62
     9
100
AcDbLine
 10
1689.301653890808
 20
1281.301732189168
 30
0.0
 11
1690.718532466307
 21
1282.542203850668
 31
0.0
  0
LINE
  5
E54
330
1F
100
AcDbEntity
  8
0
100
AcDbLine
 10
1332.14870304731
 20
1653.405511135668
 30
0.0
 11
1449.418189522809
 21
1653.405511135668
 31
0.0
  0
LINE
  5
E55
330
1F
100
AcDbEntity
  8
0
100
AcDbLine
 10
3356.14441943931
 20
1653.405511135667
 30
0.0
 11
3476.64870304731
 21
1653.405511135667
 31
0.0
  0
LINE
  5
E56
330
1F
100
AcDbEntity
  8
0
 62
     9
100
AcDbLine
 10
3351.900493760811
 20
1499.374998673168
 30
0.0
 11
3350.868206674807
 21
1499.652593018168
 31
0.0
  0
LINE
  5
E57
330
1F
100
AcDbEntity
  8
0
 62
     9
100
AcDbLine
 10
1689.301655305811
 20
1915.509283703668
 30
0.0
 11
1690.718532399808
 21
1914.268826569668
 31
0.0
  0
LINE
  5
E58
330
1F
100
AcDbEntity
  8
0
 62
     9
100
AcDbLine
 10
2276.286748234808
 20
1277.283406653668
 30
0.0
 11
2273.735620953309
 21
1271.189539863667
 31
0.0
  0
LINE
  5
E59
330
1F
100
AcDbEntity
  8
0
 62
     9
100
AcDbLine
 10
2347.433808604808
 20
1361.955191611168
 30
0.0
 11
2350.94929308131
 21
1369.888517766168
 31
0.0
  0
LWPOLYLINE
  5
E5A
330
1F
100
AcDbEntity
  8
0
 62
     9
100
AcDbPolyline
 90
        3
 70
     0
 43
0.0
 10
2277.14870304731
 20
1278.773037006668
 10
2276.31039108281
 20
1277.320746284168
 10
2276.249139713806
 20
1277.287042870167
  0
LINE
  5
E5B
330
1F
100
AcDbEntity
  8
0
 62
     9
100
AcDbLine
 10
3103.586301867809
 20
1920.903245725668
 30
0.0
 11
3103.048898115808
 21
1920.002526777168
 31
0.0
  0
LWPOLYLINE
  5
E5C
330
1F
100
AcDbEntity
  8
0
 62
     9
100
AcDbPolyline
 90
       23
 70
     0
 43
0.0
 10
1449.418189522809
 20
1543.405511135668
 10
1450.094280134809
 20
1543.597789706668
 10
1450.678426216308
 20
1544.218502721668
 10
1451.160376178809
 20
1545.377878329168
 10
1451.51263462931
 20
1547.247618965667
 10
1451.69465242281
 20
1550.062928707168
 10
1451.663602007308
 20
1554.115173522668
 10
1451.395376870808
 20
1559.738061654168
 10
1450.920287437307
 20
1567.193268049668
 10
1450.364700592809
 20
1576.384254388668
 10
1449.914901936309
 20
1586.957816220168
 10
1449.73998937381
 20
1598.341143409668
 10
1449.910563023807
 20
1609.706727924169
 10
1450.355331647809
 20
1620.250608350168
 10
1450.909108667808
 20
1629.444903070669
 10
1451.38663542431
 20
1636.924698842168
 10
1451.660116218808
 20
1642.585319365168
 10
1451.696535274309
 20
1646.667180960168
 10
1451.51920107131
 20
1649.507673087667
 10
1451.170103526808
 20
1651.398752140668
 10
1450.688929535808
 20
1652.575395713668
 10
1450.10222812381
 20
1653.208234309668
 10
1449.418189522809
 20
1653.405511135668
  0
LINE
  5
E5D
330
1F
100
AcDbEntity
  8
0
 62
     9
100
AcDbLine
 10
3103.586300908311
 20
1275.907784491167
 30
0.0
 11
3103.048898403808
 21
1276.808486893168
 31
0.0
  0
LWPOLYLINE
  5
E5E
330
1F
100
AcDbEntity
  8
0
 62
     9
100
AcDbPolyline
 90
        3
 70
     0
 43
0.0
 10
2277.14870304731
 20
1918.037979325668
 10
2276.296849279809
 20
1919.502285820668
 10
2276.117564067811
 20
1919.600238457667
  0
LINE
  5
E5F
330
1F
100
AcDbEntity
  8
0
 62
     9
100
AcDbLine
 10
2273.735620953309
 20
1271.189539863667
 30
0.0
 11
2269.659799944809
 21
1265.963387574167
 31
0.0
  0
LWPOLYLINE
  5
E60
330
1F
100
AcDbEntity
  8
0
 62
     9
100
AcDbPolyline
 90
        3
 70
     0
 43
0.0
 10
2282.14870304731
 20
1727.673840230667
 10
2277.366913069308
 20
1727.652923264668
 10
2277.14870304731
 20
1727.653969429667
  0
LINE
  5
E61
330
1F
100
AcDbEntity
  8
0
100
AcDbLine
 10
2282.14870304731
 20
1708.462808699168
 30
0.0
 11
2277.14870304731
 21
1708.462808699168
 31
0.0
  0
LINE
  5
E62
330
1F
100
AcDbEntity
  8
0
 62
     9
100
AcDbLine
 10
2282.14870304731
 20
1708.519888227667
 30
0.0
 11
2277.14870304731
 21
1708.519888227667
 31
0.0
  0
LINE
  5
E63
330
1F
100
AcDbEntity
  8
0
 62
     9
100
AcDbLine
 10
2282.14870304731
 20
1712.897256815668
 30
0.0
 11
2277.14870304731
 21
1712.897209710168
 31
0.0
  0
LINE
  5
E64
330
1F
100
AcDbEntity
  8
0
 62
     9
100
AcDbLine
 10
2307.352140044309
 20
1258.645589529667
 30
0.0
 11
2307.322957968808
 21
1258.613259165668
 31
0.0
  0
LWPOLYLINE
  5
E65
330
1F
100
AcDbEntity
  8
0
 62
     9
100
AcDbPolyline
 90
        3
 70
     0
 43
0.0
 10
3103.048898115808
 20
1920.002526777168
 10
3102.334570465809
 20
1917.381021367168
 10
3102.182571751807
 20
1916.629282076167
  0
LINE
  5
E66
330
1F
100
AcDbEntity
  8
0
 62
     9
100
AcDbLine
 10
2269.659799944809
 20
1265.963387574167
 30
0.0
 11
2264.357443201809
 21
1261.994918708167
 31
0.0
  0
LWPOLYLINE
  5
E67
330
1F
100
AcDbEntity
  8
0
 62
     9
100
AcDbPolyline
 90
        3
 70
     0
 43
0.0
 10
3351.945834926307
 20
1704.849738226167
 10
3353.029865074808
 20
1704.593072544668
 10
3354.329391248309
 20
1703.448819977167
  0
LWPOLYLINE
  5
E68
330
1F
100
AcDbEntity
  8
0
 62
     9
100
AcDbPolyline
 90
        3
 70
     0
 43
0.0
 10
3103.048898403808
 20
1276.808486893168
 10
3102.33457118981
 20
1279.429982224667
 10
3102.182569312309
 20
1280.181736320167
  0
LINE
  5
E69
330
1F
100
AcDbEntity
  8
0
 62
     9
100
AcDbLine
 10
3103.605499081808
 20
1921.062245209167
 30
0.0
 11
3103.586300820308
 21
1920.903237049668
 31
0.0
  0
LINE
  5
E6A
330
1F
100
AcDbEntity
  8
0
 62
     9
100
AcDbLine
 10
3095.59743075331
 20
1854.736021388667
 30
0.0
 11
3103.046457867807
 21
1916.432028385167
 31
0.0
  0
LINE
  5
E6B
330
1F
100
AcDbEntity
  8
0
 62
     9
100
AcDbLine
 10
2264.357443201809
 20
1261.994918708167
 30
0.0
 11
2258.190293673309
 21
1259.555223217168
 31
0.0
  0
LINE
  5
E6C
330
1F
100
AcDbEntity
  8
0
 62
     9
100
AcDbLine
 10
2252.14870304731
 20
1876.313690402668
 30
0.0
 11
2270.176168096124
 21
1876.313690402668
 31
0.0
  0
LINE
  5
E6D
330
1F
100
AcDbEntity
  8
0
 62
     9
100
AcDbLine
 10
2277.149925485311
 20
1906.280957294667
 30
0.0
 11
2282.14870304731
 21
1906.249192632668
 31
0.0
  0
LINE
  5
E6E
330
1F
100
AcDbEntity
  8
0
 62
     9
100
AcDbLine
 10
3103.605499081808
 20
1275.748777062667
 30
0.0
 11
3103.586300820308
 21
1275.907785221668
 31
0.0
  0
LINE
  5
E6F
330
1F
100
AcDbEntity
  8
0
 62
     9
100
AcDbLine
 10
3103.046457867807
 20
1280.378993886667
 30
0.0
 11
3095.59743075331
 21
1342.075000882668
 31
0.0
  0
LINE
  5
E70
330
1F
100
AcDbEntity
  8
0
 62
     9
100
AcDbLine
 10
1769.13829671881
 20
1925.556775639168
 30
0.0
 11
1731.365990919809
 21
1919.388804164668
 31
0.0
  0
LINE
  5
E71
330
1F
100
AcDbEntity
  8
0
 62
     9
100
AcDbLine
 10
2300.828533197309
 20
1937.355180555668
 30
0.0
 11
2307.352140142309
 21
1938.165432737668
 31
0.0
  0
LWPOLYLINE
  5
E72
330
1F
100
AcDbEntity
  8
0
 62
     9
100
AcDbPolyline
 90
        3
 70
     0
 43
0.0
 10
1835.52051291881
 20
1933.443475565668
 10
1803.765072827809
 20
1930.139577911169
 10
1769.13829671881
 20
1925.556775639168
  0
LWPOLYLINE
  5
E73
330
1F
100
AcDbEntity
  8
0
100
AcDbPolyline
 90
        4
 70
     0
 43
0.0
 10
1916.607379144311
 20
1938.022128724169
 10
1834.154417244811
 20
1933.350840806667
 10
1757.13587239481
 20
1923.760211894168
 10
1690.402593495309
 20
1911.348696077667
  0
LINE
  5
E74
330
1F
100
AcDbEntity
  8
0
 62
     9
100
AcDbLine
 10
2276.22891378431
 20
1924.660907111168
 30
0.0
 11
2277.14870304731
 21
1924.694406596168
 31
0.0
  0
LINE
  5
E75
330
1F
100
AcDbEntity
  8
0
 62
     9
100
AcDbLine
 10
2277.14870304731
 20
1927.392319379668
 30
0.0
 11
2282.14870304731
 21
1927.392319379668
 31
0.0
  0
LINE
  5
E76
330
1F
100
AcDbEntity
  8
0
100
AcDbLine
 10
2277.14870304731
 20
1932.217478759167
 30
0.0
 11
2282.14870304731
 21
1932.217478759167
 31
0.0
  0
LINE
  5
E77
330
1F
100
AcDbEntity
  8
0
 62
     9
100
AcDbLine
 10
2277.14870304731
 20
1934.565765173667
 30
0.0
 11
2282.14870304731
 21
1934.565765173667
 31
0.0
  0
LINE
  5
E78
330
1F
100
AcDbEntity
  8
0
 62
     9
100
AcDbLine
 10
2282.14870304731
 20
1940.905511135667
 30
0.0
 11
2277.14870304731
 21
1940.905511135667
 31
0.0
  0
LINE
  5
E79
330
1F
100
AcDbEntity
  8
0
100
AcDbLine
 10
2282.14870304731
 20
1948.405511135667
 30
0.0
 11
2277.14870304731
 21
1948.405511135667
 31
0.0
  0
LINE
  5
E7A
330
1F
100
AcDbEntity
  8
0
 62
     9
100
AcDbLine
 10
2282.14870304731
 20
1924.660270075167
 30
0.0
 11
2283.038779622809
 21
1924.658764561168
 31
0.0
  0
LWPOLYLINE
  5
E7B
330
1F
100
AcDbEntity
  8
0
 62
     9
100
AcDbPolyline
 90
        3
 70
     0
 43
0.0
 10
2278.020571108808
 20
1924.686245009167
 10
2280.082914191806
 20
1924.670105426667
 10
2282.14870304731
 20
1924.660270075167
  0
LINE
  5
E7C
330
1F
100
AcDbEntity
  8
0
 62
     9
100
AcDbLine
 10
2277.14870304731
 20
1924.694406596168
 30
0.0
 11
2278.020571108808
 21
1924.686245009167
 31
0.0
  0
LWPOLYLINE
  5
E7D
330
1F
100
AcDbEntity
  8
0
 62
     9
100
AcDbPolyline
 90
        7
 70
     0
 43
0.0
 10
2757.352031596808
 20
1943.208713514167
 10
2803.541841831309
 20
1942.487526213668
 10
2853.34851780231
 20
1940.936295129668
 10
2907.560190491308
 20
1938.333657896167
 10
2966.881448948809
 20
1934.389990310668
 10
3032.004643873809
 20
1928.734694527167
 10
3103.586300820308
 20
1920.903237049668
  0
LWPOLYLINE
  5
E7E
330
1F
100
AcDbEntity
  8
0
 62
     9
100
AcDbPolyline
 90
        3
 70
     0
 43
0.0
 10
2947.410339527308
 20
1930.894238988167
 10
2878.86135440331
 20
1934.840004581167
 10
2815.73062727231
 20
1937.154106160668
  0
LINE
  5
E7F
330
1F
100
AcDbEntity
  8
0
 62
     9
100
AcDbLine
 10
3021.957668018308
 20
1924.916275615668
 30
0.0
 11
2947.410339527308
 21
1930.894238988167
 31
0.0
  0
LWPOLYLINE
  5
E80
330
1F
100
AcDbEntity
  8
0
100
AcDbPolyline
 90
        4
 70
     0
 43
0.0
 10
3102.965012027306
 20
1916.471075744167
 10
2997.57938233581
 20
1927.094988729168
 10
2880.735755287809
 20
1934.783820794667
 10
2757.34941945381
 20
1938.197594115668
  0
LINE
  5
E81
330
1F
100
AcDbEntity
  8
0
 62
     9
100
AcDbLine
 10
3103.046457867807
 20
1916.432028385167
 30
0.0
 11
3021.957668018308
 21
1924.916275615668
 31
0.0
  0
LWPOLYLINE
  5
E82
330
1F
100
AcDbEntity
  8
0
 62
     9
100
AcDbPolyline
 90
        8
 70
     0
 43
0.0
 10
1690.23897830081
 20
1911.284107703168
 10
1667.765008093308
 20
1905.630187379168
 10
1648.307969717308
 20
1899.376732156668
 10
1631.656521940806
 20
1892.985676417668
 10
1617.627861127307
 20
1886.836015396168
 10
1606.158486506308
 20
1881.286395453168
 10
1597.167685608808
 20
1876.626411107668
 10
1590.498975946807
 20
1873.034914894668
  0
LWPOLYLINE
  5
E83
330
1F
100
AcDbEntity
  8
0
100
AcDbPolyline
 90
       19
 70
     0
 43
0.0
 10
1690.402886286806
 20
1911.348761379169
 10
1686.708557284308
 20
1910.534256983668
 10
1680.904666701811
 20
1909.165580342168
 10
1675.26861814631
 20
1907.731383975668
 10
1669.797368643808
 20
1906.239211294168
 10
1664.48762342381
 20
1904.696199300668
 10
1659.337054244307
 20
1903.109013466668
 10
1654.343373150811
 20
1901.484187690668
 10
1649.504299682309
 20
1899.828286200668
 10
1644.816819598308
 20
1898.147352412668
 10
1640.27999345881
 20
1896.447443151167
 10
1635.892786050811
 20
1894.734651552668
 10
1631.653341620308
 20
1893.014933195168
 10
1627.56040275131
 20
1891.294107134168
 10
1623.61583276031
 20
1889.578817349168
 10
1619.822877867808
 20
1887.876777257168
 10
1616.185339370807
 20
1886.196395139668
 10
1612.709403724809
 20
1884.546730670668
 10
1609.40399020331
 20
1882.938384815668
  0
LWPOLYLINE
  5
E84
330
1F
100
AcDbEntity
  8
0
 62
     9
100
AcDbPolyline
 90
        9
 70
     0
 43
0.0
 10
1689.301656729308
 20
1915.509277287168
 10
1727.081307252308
 20
1923.277396087168
 10
1761.740625043308
 20
1929.256410347668
 10
1793.464238503809
 20
1933.785976922168
 10
1822.47679720931
 20
1937.150704380168
 10
1849.026927322308
 20
1939.585417569169
 10
1873.379314455308
 20
1941.281009935168
 10
1895.809987094809
 20
1942.389984177668
 10
1916.601702727311
 20
1943.031405866668
  0
LINE
  5
E85
330
1F
100
AcDbEntity
  8
0
 62
     9
100
AcDbLine
 10
1731.365990919809
 20
1919.388804164668
 30
0.0
 11
1690.23897830081
 21
1911.284107703168
 31
0.0
  0
LWPOLYLINE
  5
E86
330
1F
100
AcDbEntity
  8
0
 62
     9
100
AcDbPolyline
 90
        9
 70
     0
 43
0.0
 10
3103.586300820308
 20
1920.903237049668
 10
3131.313489397311
 20
1916.308240932668
 10
3155.556827861309
 20
1910.203183104668
 10
3176.482615318811
 20
1903.264183634667
 10
3194.35723141631
 20
1896.011020607667
 10
3209.285909997808
 20
1888.924043136167
 10
3221.246675884809
 20
1882.486321823668
 10
3230.32234953581
 20
1877.070644351667
 10
3236.528383516309
 20
1873.015868159668
  0
LWPOLYLINE
  5
E87
330
1F
100
AcDbEntity
  8
0
 62
     9
100
AcDbPolyline
 90
        3
 70
     0
 43
0.0
 10
3354.329391248309
 20
1493.362202294667
 10
3353.030458265809
 20
1492.218300043168
 10
3351.945834926307
 20
1491.961284045667
  0
LINE
  5
E88
330
1F
100
AcDbEntity
  8
0
 62
     9
100
AcDbLine
 10
3103.046458844808
 20
1280.378985792667
 30
0.0
 11
3102.96500884481
 21
1280.339942678668
 31
0.0
  0
LWPOLYLINE
  5
E89
330
1F
100
AcDbEntity
  8
0
100
AcDbPolyline
 90
       32
 70
     0
 43
0.0
 10
3236.789811881808
 20
1871.528151032667
 10
3236.85071318881
 20
1871.500667938168
 10
3236.792551217309
 20
1871.530767689167
 10
3236.14106991831
 20
1871.862343006668
 10
3235.025237308807
 20
1872.448452730168
 10
3233.489203172807
 20
1873.268497988168
 10
3231.56645215231
 20
1874.300885818167
 10
3229.285226671308
 20
1875.523725618168
 10
3226.67253995081
 20
1876.913555517168
 10
3223.750487029308
 20
1878.447824839168
 10
3220.540431134809
 20
1880.104481919667
 10
3217.06284326631
 20
1881.862490093667
 10
3213.328846914308
 20
1883.704600935168
 10
3209.35368916031
 20
1885.611963536668
 10
3205.15518818581
 20
1887.566000761668
 10
3200.743656996309
 20
1889.551506310668
 10
3196.127626187309
 20
1891.554091862667
 10
3191.310962883311
 20
1893.562554995667
 10
3186.293434681807
 20
1895.567450316167
 10
3181.07073889481
 20
1897.559818496667
 10
3175.639804885809
 20
1899.530293038167
 10
3169.998238783809
 20
1901.469413966668
 10
3164.14078293681
 20
1903.367572109667
 10
3158.061676316308
 20
1905.214602662168
 10
3151.75599776081
 20
1906.999950837668
 10
3145.218344200307
 20
1908.712505957167
 10
3138.441474575309
 20
1910.340188349667
 10
3131.418981349808
 20
1911.870111249667
 10
3124.145463851811
 20
1913.288686906167
 10
3116.614668824811
 20
1914.581143684668
 10
3108.820585002307
 20
1915.731363899168
 10
3102.964955056809
 20
1916.471085456668
  0
LINE
  5
E8A
330
1F
100
AcDbEntity
  8
0
 62
     9
100
AcDbLine
 10
3103.046457954809
 20
1916.432029107168
 30
0.0
 11
3102.96501202731
 21
1916.471075744167
 31
0.0
  0
LWPOLYLINE
  5
E8B
330
1F
100
AcDbEntity
  8
0
 62
     9
100
AcDbPolyline
 90
        9
 70
     0
 43
0.0
 10
3236.46083025031
 20
1871.594151986167
 10
3230.233056788311
 20
1874.964795039168
 10
3221.104437657809
 20
1879.777551270667
 10
3208.886630975309
 20
1885.799532331667
 10
3193.81940694731
 20
1892.496182926167
 10
3175.837710207808
 20
1899.430505608167
 10
3154.918889525309
 20
1906.091425907668
 10
3130.77996251031
 20
1911.972002508667
 10
3103.046457867807
 20
1916.432028385167
  0
LWPOLYLINE
  5
E8C
330
1F
100
AcDbEntity
  8
0
 62
     9
100
AcDbPolyline
 90
        3
 70
     0
 43
0.0
 10
3351.945834926307
 20
1491.961284045667
 10
3350.778932379809
 20
1493.835384167168
 10
3350.569325178308
 20
1499.042475920668
  0
LWPOLYLINE
  5
E8D
330
1F
100
AcDbEntity
  8
0
100
AcDbPolyline
 90
        9
 70
     0
 43
0.0
 10
3350.914394200309
 20
1496.733707147167
 10
3350.984984131311
 20
1496.584681240668
 10
3350.954422635811
 20
1496.825069759167
 10
3350.842284499809
 20
1498.409402502168
 10
3350.898904105309
 20
1501.124797991168
 10
3351.196084964808
 20
1504.951526409667
 10
3351.75316229081
 20
1509.948082726167
 10
3352.57159536481
 20
1516.198239112168
 10
3353.622509208311
 20
1523.777853973667
  0
LWPOLYLINE
  5
E8E
330
1F
100
AcDbEntity
  8
0
 62
     9
100
AcDbPolyline
 90
        9
 70
     0
 43
0.0
 10
3236.466535626808
 20
1323.752726990668
 10
3230.214039791811
 20
1319.672558247167
 10
3221.083834914308
 20
1314.232033006167
 10
3209.05948159931
 20
1307.771943601167
 10
3194.049490502307
 20
1300.664131378168
 10
3176.122788933309
 20
1293.413757181667
 10
3155.288094194307
 20
1286.529043891168
 10
3131.206102553809
 20
1280.480156929668
 10
3103.586300820308
 20
1275.907785221668
  0
LWPOLYLINE
  5
E8F
330
1F
100
AcDbEntity
  8
0
 62
     9
100
AcDbPolyline
 90
        6
 70
     0
 43
0.0
 10
3350.94862457631
 20
1695.028865388668
 10
3353.453867882308
 20
1691.557128962168
 10
3358.097829315811
 20
1682.617704287167
 10
3363.048189192809
 20
1670.290166969168
 10
3367.688443589307
 20
1655.102790693668
 10
3368.058213466309
 20
1653.405511135667
  0
LWPOLYLINE
  5
E90
330
1F
100
AcDbEntity
  8
0
 62
     9
100
AcDbPolyline
 90
        4
 70
     0
 43
0.0
 10
3354.329544883308
 20
1703.448875720668
 10
3354.53056511531
 20
1701.154057548668
 10
3353.656784810809
 20
1698.990601910668
 10
3351.900600292308
 20
1697.434875812168
  0
LWPOLYLINE
  5
E91
330
1F
100
AcDbEntity
  8
0
 62
     9
100
AcDbPolyline
 90
        3
 70
     0
 43
0.0
 10
3350.581647158811
 20
1697.501292492668
 10
3350.749364289309
 20
1702.824519602168
 10
3351.945834926307
 20
1704.849738226167
  0
LWPOLYLINE
  5
E92
330
1F
100
AcDbEntity
  8
0
 62
     9
100
AcDbPolyline
 90
        4
 70
     0
 43
0.0
 10
3354.330180275809
 20
1493.361916186667
 10
3354.530691764811
 20
1495.656469987168
 10
3353.656670379808
 20
1497.819525988167
 10
3351.900493760811
 20
1499.374998673168
  0
LWPOLYLINE
  5
E93
330
1F
100
AcDbEntity
  8
0
 62
     9
100
AcDbPolyline
 90
        4
 70
     0
 43
0.0
 10
3350.569325178308
 20
1499.042475920668
 10
3351.30687944181
 20
1507.216771716668
 10
3352.710693368811
 20
1517.784318897668
 10
3354.48344688331
 20
1530.446470020667
  0
LWPOLYLINE
  5
E94
330
1F
100
AcDbEntity
  8
0
 62
     9
100
AcDbPolyline
 90
        7
 70
     0
 43
0.0
 10
3354.48344688331
 20
1530.446470020667
 10
3356.646709377808
 20
1547.997156305668
 10
3358.378181876309
 20
1567.488677245667
 10
3359.324654391809
 20
1587.979343224668
 10
3359.32577201131
 20
1608.783915104168
 10
3358.380960415808
 20
1629.281815100668
 10
3356.649054920809
 20
1648.792186160667
  0
LWPOLYLINE
  5
E95
330
1F
100
AcDbEntity
  8
0
100
AcDbPolyline
 90
        8
 70
     0
 43
0.0
 10
3354.603980964809
 20
1530.912888683668
 10
3356.539063816809
 20
1546.586520977168
 10
3358.340533135309
 20
1566.365913124167
 10
3359.351222510311
 20
1587.499855751667
 10
3359.356311314309
 20
1609.101233984168
 10
3358.354719245809
 20
1630.244177589167
 10
3356.559298429809
 20
1650.040934318668
 10
3354.60396829231
 20
1665.898229099167
  0
LINE
  5
E96
330
1F
100
AcDbEntity
  8
0
100
AcDbLine
 10
3353.622509208311
 20
1523.777853973667
 30
0.0
 11
3354.603419622311
 21
1530.912690953667
 31
0.0
  0
LINE
  5
E97
330
1F
100
AcDbEntity
  8
0
 62
     9
100
AcDbLine
 10
3354.483445094308
 20
1530.446470440668
 30
0.0
 11
3354.60394489831
 21
1530.912620060167
 31
0.0
  0
LWPOLYLINE
  5
E98
330
1F
100
AcDbEntity
  8
0
 62
     9
100
AcDbPolyline
 90
        6
 70
     0
 43
0.0
 10
3354.329391248309
 20
1703.448819977167
 10
3358.167487823309
 20
1697.819660431668
 10
3362.864932887808
 20
1688.275012635667
 10
3367.877242087808
 20
1675.117251189668
 10
3372.578138310811
 20
1658.910737724168
 10
3373.717419549309
 20
1653.405511135667
  0
LINE
  5
E99
330
1F
100
AcDbEntity
  8
0
 62
     9
100
AcDbLine
 10
3354.482524164311
 20
1666.364335709668
 30
0.0
 11
3354.603218124309
 21
1665.898128748667
 31
0.0
  0
LWPOLYLINE
  5
E9A
330
1F
100
AcDbEntity
  8
0
 62
     9
100
AcDbPolyline
 90
        4
 70
     0
 43
0.0
 10
3354.48344688331
 20
1666.364552250668
 10
3352.730704656809
 20
1678.884731497167
 10
3351.335143565811
 20
1689.357683039668
 10
3350.581647158811
 20
1697.501292492668
  0
LWPOLYLINE
  5
E9B
330
1F
100
AcDbEntity
  8
0
100
AcDbPolyline
 90
        9
 70
     0
 43
0.0
 10
3354.603219774809
 20
1665.898116492667
 10
3353.643657642809
 20
1672.883083337668
 10
3352.589824625807
 20
1680.477872760167
 10
3351.767918689809
 20
1686.745312036167
 10
3351.205434575309
 20
1691.760410739668
 10
3350.903293479808
 20
1695.605800215667
 10
3350.841344870808
 20
1698.347699349168
 10
3350.949940471309
 20
1699.957899802667
 10
3350.986703830308
 20
1700.175957184668
  0
LINE
  5
E9C
330
1F
100
AcDbEntity
  8
0
 62
     9
100
AcDbLine
 10
3356.649054920809
 20
1648.792186160667
 30
0.0
 11
3354.48344688331
 21
1666.364552250668
 31
0.0
  0
LWPOLYLINE
  5
E9D
330
1F
100
AcDbEntity
  8
0
 62
     9
100
AcDbPolyline
 90
        6
 70
     0
 43
0.0
 10
3373.71687330781
 20
1543.405511135667
 10
3372.578818342808
 20
1537.903021845667
 10
3367.878138927309
 20
1521.696446338667
 10
3362.86644563981
 20
1508.539496048167
 10
3358.168119456309
 20
1498.992469510668
 10
3354.329391248309
 20
1493.362202294667
  0
LWPOLYLINE
  5
E9E
330
1F
100
AcDbEntity
  8
0
 62
     9
100
AcDbPolyline
 90
        6
 70
     0
 43
0.0
 10
3368.058107614309
 20
1543.405511135667
 10
3367.689081411808
 20
1541.710663749168
 10
3363.049072508307
 20
1526.523356690168
 10
3358.09933106531
 20
1514.196600060668
 10
3353.454494967306
 20
1505.254931959668
 10
3350.950119465308
 20
1501.784286206167
  0
LINE
  5
E9F
330
1F
100
AcDbEntity
  8
0
100
AcDbLine
 10
3476.64870304731
 20
1653.405511135667
 30
0.0
 11
3476.64870304731
 21
1543.405511135667
 31
0.0
  0
ARC
  5
EA0
330
1F
100
AcDbEntity
  8
0
100
AcDbCircle
 10
2287.18297613781
 20
1508.367706731168
 30
0.0
 40
10.0
100
AcDbArc
 50
180.0121777323348
 51
239.4474189732485
  0
ARC
  5
EA1
330
1F
100
AcDbEntity
  8
0
100
AcDbCircle
 10
2287.14517118781
 20
1688.367702761167
 30
0.0
 40
10.0
100
AcDbArc
 50
120.3094060006905
 51
180.0119748482707
  0
ARC
  5
EA2
330
1F
100
AcDbEntity
  8
0
100
AcDbCircle
 10
1754.64870304731
 20
1598.405511135668
 30
0.0
 40
325.0
100
AcDbArc
 50
105.1892867372392
 51
170.2393036587044
  0
ARC
  5
EA3
330
1F
100
AcDbEntity
  8
0
100
AcDbCircle
 10
1754.64870304731
 20
1598.405511135668
 30
0.0
 40
325.0
100
AcDbArc
 50
189.7607132611752
 51
254.8107132627608
  0
ARC
  5
EA4
330
1F
100
AcDbEntity
  8
0
100
AcDbCircle
 10
2732.14870304731
 20
3864.030511135667
 30
0.0
 40
2615.625
100
AcDbArc
 50
270.0
 51
278.4727895980637
  0
ARC
  5
EA5
330
1F
100
AcDbEntity
  8
0
100
AcDbCircle
 10
3069.64870304731
 20
1598.405511135667
 30
0.0
 40
325.0
100
AcDbArc
 50
278.4727895980637
 51
350.2326847629912
  0
ARC
  5
EA6
330
1F
100
AcDbEntity
  8
0
100
AcDbCircle
 10
3069.64870304731
 20
1598.405511135667
 30
0.0
 40
325.0
100
AcDbArc
 50
9.767346449212485
 51
81.52721040193636
  0
ARC
  5
EA7
330
1F
100
AcDbEntity
  8
0
100
AcDbCircle
 10
2732.14870304731
 20
-667.2194888643325
 30
0.0
 40
2615.625
100
AcDbArc
 50
81.52721040193636
 51
90.0
  0
ARC
  5
EA8
330
1F
100
AcDbEntity
  8
0
100
AcDbCircle
 10
1942.14870304731
 20
907.780511135668
 30
0.0
 40
1040.625
100
AcDbArc
 50
90.0
 51
105.1892867372392
  0
ARC
  5
EA9
330
1F
100
AcDbEntity
  8
0
100
AcDbCircle
 10
1942.14870304731
 20
2289.030511135668
 30
0.0
 40
1040.625
100
AcDbArc
 50
254.8107132627608
 51
270.0
  0
ARC
  5
EAA
330
1F
100
AcDbEntity
  8
0
 62
     9
100
AcDbCircle
 10
2277.14870304731
 20
907.7805111356674
 30
0.0
 40
1026.7852594095
100
AcDbArc
 50
90.0
 51
90.34880448892685
  0
ARC
  5
EAB
330
1F
100
AcDbEntity
  8
0
100
AcDbCircle
 10
2277.14870304731
 20
907.7805111356674
 30
0.0
 40
1024.436967623
100
AcDbArc
 50
90.0
 51
90.24284898248151
  0
ARC
  5
EAC
330
1F
100
AcDbEntity
  8
0
 62
     9
100
AcDbCircle
 10
2282.14870304731
 20
-667.2194888643325
 30
0.0
 40
2601.785254969
100
AcDbArc
 50
89.86348294159693
 51
90.0
  0
ARC
  5
EAD
330
1F
100
AcDbEntity
  8
0
100
AcDbCircle
 10
2282.14870304731
 20
-667.2194888643325
 30
0.0
 40
2599.436967623001
100
AcDbArc
 50
89.90573082504763
 51
90.0
  0
ARC
  5
EAE
330
1F
100
AcDbEntity
  8
0
 62
     9
100
AcDbCircle
 10
2282.14870304731
 20
3864.030511135667
 30
0.0
 40
2601.785254969
100
AcDbArc
 50
270.0
 51
270.1365170563187
  0
ARC
  5
EAF
330
1F
100
AcDbEntity
  8
0
100
AcDbCircle
 10
2282.14870304731
 20
3864.030511135667
 30
0.0
 40
2599.436967623001
100
AcDbArc
 50
270.0
 51
270.0942691749524
  0
ARC
  5
EB0
330
1F
100
AcDbEntity
  8
0
 62
     9
100
AcDbCircle
 10
2277.14870304731
 20
2289.030511135667
 30
0.0
 40
1026.7852594095
100
AcDbArc
 50
269.6511954979412
 51
270.0
  0
ARC
  5
EB1
330
1F
100
AcDbEntity
  8
0
100
AcDbCircle
 10
2277.14870304731
 20
2289.030511135667
 30
0.0
 40
1024.436967623
100
AcDbArc
 50
269.7571510185607
 51
270.0
  0
ARC
  5
EB2
330
1F
100
AcDbEntity
  8
0
 62
     9
100
AcDbCircle
 10
2277.14870304731
 20
907.7805111356674
 30
0.0
 40
1019.6118083235
100
AcDbArc
 50
90.0
 51
90.1116297358976
  0
ARC
  5
EB3
330
1F
100
AcDbEntity
  8
0
 62
     9
100
AcDbCircle
 10
2282.14870304731
 20
-667.2194888643325
 30
0.0
 40
2594.6118082575
100
AcDbArc
 50
89.9574610043119
 51
90.0
  0
ARC
  5
EB4
330
1F
100
AcDbEntity
  8
0
 62
     9
100
AcDbCircle
 10
2282.14870304731
 20
3864.030511135667
 30
0.0
 40
2594.6118082575
100
AcDbArc
 50
270.0
 51
270.0425390094452
  0
ARC
  5
EB5
330
1F
100
AcDbEntity
  8
0
 62
     9
100
AcDbCircle
 10
2277.14870304731
 20
2289.030511135667
 30
0.0
 40
1019.6118083235
100
AcDbArc
 50
269.8883706042785
 51
270.0
  0
ARC
  5
EB6
330
1F
100
AcDbEntity
  8
0
 62
     9
100
AcDbCircle
 10
2277.14870304731
 20
2289.030511135667
 30
0.0
 40
1033.1250051925
100
AcDbArc
 50
269.244214363286
 51
270.0
  0
ARC
  5
EB7
330
1F
100
AcDbEntity
  8
0
 62
     9
100
AcDbCircle
 10
2282.14870304731
 20
3864.030511135667
 30
0.0
 40
2608.1250009055
100
AcDbArc
 50
270.0
 51
270.3013644439545
  0
ARC
  5
EB8
330
1F
100
AcDbEntity
  8
0
 62
     9
100
AcDbCircle
 10
2732.14870304731
 20
-667.2194888643325
 30
0.0
 40
2608.1250009055
100
AcDbArc
 50
84.09483116954316
 51
89.44506596467151
  0
ARC
  5
EB9
330
1F
100
AcDbEntity
  8
0
 62
     9
100
AcDbCircle
 10
2282.14870304731
 20
-667.2194888643325
 30
0.0
 40
2608.1250009055
100
AcDbArc
 50
89.69863543473127
 51
90.0
  0
ARC
  5
EBA
330
1F
100
AcDbEntity
  8
0
 62
     9
100
AcDbCircle
 10
2277.14870304731
 20
907.7805111356674
 30
0.0
 40
1033.1250051925
100
AcDbArc
 50
90.0
 51
90.75578443911728
  0
ARC
  5
EBB
330
1F
100
AcDbEntity
  8
0
100
AcDbCircle
 10
2282.14870304731
 20
1618.405511135667
 30
0.0
 40
5.0
100
AcDbArc
 50
180.0000004743071
 51
270.0
  0
ARC
  5
EBC
330
1F
100
AcDbEntity
  8
0
100
AcDbCircle
 10
2282.14870304731
 20
1578.405511135667
 30
0.0
 40
5.0
100
AcDbArc
 50
90.0
 51
179.9999990929697
  0
ARC
  5
EBD
330
1F
100
AcDbEntity
  8
0
100
AcDbCircle
 10
2282.14870304731
 20
1403.405511135667
 30
0.0
 40
5.0
100
AcDbArc
 50
180.0000004743071
 51
270.0
  0
ARC
  5
EBE
330
1F
100
AcDbEntity
  8
0
100
AcDbCircle
 10
2282.14870304731
 20
1363.405511135667
 30
0.0
 40
5.0
100
AcDbArc
 50
90.0
 51
179.9999990929697
  0
ARC
  5
EBF
330
1F
100
AcDbEntity
  8
0
100
AcDbCircle
 10
2252.14870304731
 20
1278.679051266667
 30
0.0
 40
25.0
100
AcDbArc
 50
268.7463344010768
 51
0.0
  0
ARC
  5
EC0
330
1F
100
AcDbEntity
  8
0
100
AcDbCircle
 10
2252.14870304731
 20
1918.131971005167
 30
0.0
 40
25.0
100
AcDbArc
 50
0.0
 51
91.25366559892318
  0
ARC
  5
EC1
330
1F
100
AcDbEntity
  8
0
100
AcDbCircle
 10
1942.14870304731
 20
2421.061761135668
 30
0.0
 40
1167.65625
100
AcDbArc
 50
257.4919345121439
 51
268.7461258696746
  0
ARC
  5
EC2
330
1F
100
AcDbEntity
  8
0
100
AcDbCircle
 10
1759.64870304731
 20
1598.405511135668
 30
0.0
 40
325.0
100
AcDbArc
 50
102.508065487856
 51
170.2413125240686
  0
ARC
  5
EC3
330
1F
100
AcDbEntity
  8
0
100
AcDbCircle
 10
1759.64870304731
 20
1598.405511135668
 30
0.0
 40
325.0
100
AcDbArc
 50
189.7586874759313
 51
257.4919345121439
  0
ARC
  5
EC4
330
1F
100
AcDbEntity
  8
0
100
AcDbCircle
 10
1942.14870304731
 20
775.7492611356679
 30
0.0
 40
1167.65625
100
AcDbArc
 50
91.25387415242538
 51
102.508065487856
  0
ARC
  5
EC5
330
1F
100
AcDbEntity
  8
0
 62
     9
100
AcDbCircle
 10
1942.14870304731
 20
775.7492611356679
 30
0.0
 40
1100.8483378595
100
AcDbArc
 50
91.30128519008556
 51
102.508065487856
  0
ARC
  5
EC6
330
1F
100
AcDbEntity
  8
0
 62
     9
100
AcDbCircle
 10
1942.14870304731
 20
775.7492611356679
 30
0.0
 40
1125.585395016
100
AcDbArc
 50
91.30128519008556
 51
102.5080654876412
  0
ARC
  5
EC7
330
1F
100
AcDbEntity
  8
0
 62
     9
100
AcDbCircle
 10
1759.64870304731
 20
1598.405511135668
 30
0.0
 40
258.192087749
100
AcDbArc
 50
102.508065487856
 51
180.0
  0
ARC
  5
EC8
330
1F
100
AcDbEntity
  8
0
 62
     9
100
AcDbCircle
 10
1759.64870304731
 20
1598.405511135668
 30
0.0
 40
258.192087749
100
AcDbArc
 50
180.0
 51
257.4919345121439
  0
ARC
  5
EC9
330
1F
100
AcDbEntity
  8
0
 62
     9
100
AcDbCircle
 10
1759.64870304731
 20
1598.405511135668
 30
0.0
 40
282.9291450045
100
AcDbArc
 50
102.5080654874279
 51
257.4919345129988
  0
ARC
  5
ECA
330
1F
100
AcDbEntity
  8
0
 62
     9
100
AcDbCircle
 10
1942.14870304731
 20
2421.061761135668
 30
0.0
 40
1100.8483378595
100
AcDbArc
 50
257.4919345121439
 51
268.6987148099145
  0
ARC
  5
ECB
330
1F
100
AcDbEntity
  8
0
 62
     9
100
AcDbCircle
 10
1942.14870304731
 20
2421.061761135668
 30
0.0
 40
1125.585395016
100
AcDbArc
 50
257.4919345121439
 51
268.6987148099145
  0
ARC
  5
ECC
330
1F
100
AcDbEntity
  8
0
100
AcDbCircle
 10
2297.14870304731
 20
1428.405511135667
 30
0.0
 40
15.0
100
AcDbArc
 50
180.0
 51
270.0
  0
ARC
  5
ECD
330
1F
100
AcDbEntity
  8
0
100
AcDbCircle
 10
2317.14870304731
 20
1378.405511135667
 30
0.0
 40
35.0
100
AcDbArc
 50
270.0
 51
90.0
  0
ARC
  5
ECE
330
1F
100
AcDbEntity
  8
0
100
AcDbCircle
 10
2297.14870304731
 20
1328.405511135667
 30
0.0
 40
15.0
100
AcDbArc
 50
90.0
 51
180.0
  0
ARC
  5
ECF
330
1F
100
AcDbEntity
  8
0
100
AcDbCircle
 10
2307.14870304731
 20
1918.303825443668
 30
0.0
 40
25.0
100
AcDbArc
 50
89.53400976228735
 51
180.0
  0
ARC
  5
ED0
330
1F
100
AcDbEntity
  8
0
100
AcDbCircle
 10
2307.14870304731
 20
1278.507196828167
 30
0.0
 40
25.0
100
AcDbArc
 50
180.0
 51
270.4659902377127
  0
ARC
  5
ED1
330
1F
100
AcDbEntity
  8
0
100
AcDbCircle
 10
2272.14870304731
 20
1523.405511135667
 30
0.0
 40
10.0
100
AcDbArc
 50
0.0000000161020542
 51
59.66826080775028
  0
ARC
  5
ED2
330
1F
100
AcDbEntity
  8
0
100
AcDbCircle
 10
2272.14870304731
 20
1673.405511135667
 30
0.0
 40
10.0
100
AcDbArc
 50
300.3317391922497
 51
359.9999999593019
  0
ARC
  5
ED3
330
1F
100
AcDbEntity
  8
0
100
AcDbCircle
 10
2732.14870304731
 20
-1155.500738864332
 30
0.0
 40
3098.90625
100
AcDbArc
 50
83.11556942823782
 51
89.5339809533525
  0
ARC
  5
ED4
330
1F
100
AcDbEntity
  8
0
100
AcDbCircle
 10
3064.64870304731
 20
1598.405511135667
 30
0.0
 40
325.0
100
AcDbArc
 50
276.8844305717622
 51
350.231601918015
  0
ARC
  5
ED5
330
1F
100
AcDbEntity
  8
0
100
AcDbCircle
 10
3064.64870304731
 20
1598.405511135667
 30
0.0
 40
325.0
100
AcDbArc
 50
9.768398081984964
 51
83.11556942823782
  0
ARC
  5
ED6
330
1F
100
AcDbEntity
  8
0
100
AcDbCircle
 10
2732.14870304731
 20
4352.311761135666
 30
0.0
 40
3098.90625
100
AcDbArc
 50
270.4660190447715
 51
276.8844305717622
  0
ARC
  5
ED7
330
1F
100
AcDbEntity
  8
0
 62
     9
100
AcDbCircle
 10
2317.14870304731
 20
1378.405511135667
 30
0.0
 40
49.9998685345
100
AcDbArc
 50
270.0
 51
90.0
  0
ARC
  5
ED8
330
1F
100
AcDbEntity
  8
0
 62
     9
100
AcDbCircle
 10
2732.14870304731
 20
4352.311761135666
 30
0.0
 40
3032.0983378595
100
AcDbArc
 50
270.4724156776522
 51
276.8844305717622
  0
ARC
  5
ED9
330
1F
100
AcDbEntity
  8
0
 62
     9
100
AcDbCircle
 10
2732.14870304731
 20
4352.311761135666
 30
0.0
 40
3056.835395016
100
AcDbArc
 50
270.4724156534722
 51
276.8844305717622
  0
ARC
  5
EDA
330
1F
100
AcDbEntity
  8
0
 62
     9
100
AcDbCircle
 10
3064.64870304731
 20
1598.405511135667
 30
0.0
 40
258.192080916
100
AcDbArc
 50
276.8844305717622
 51
83.11556942823782
  0
ARC
  5
EDB
330
1F
100
AcDbEntity
  8
0
 62
     9
100
AcDbCircle
 10
3064.64870304731
 20
1598.405511135667
 30
0.0
 40
282.9291448335
100
AcDbArc
 50
276.8844305715521
 51
83.11556942865793
  0
ARC
  5
EDC
330
1F
100
AcDbEntity
  8
0
 62
     9
100
AcDbCircle
 10
2732.14870304731
 20
-1155.500738864332
 30
0.0
 40
3032.0983378595
100
AcDbArc
 50
83.11556942823782
 51
89.52758428941313
  0
ARC
  5
EDD
330
1F
100
AcDbEntity
  8
0
 62
     9
100
AcDbCircle
 10
2732.14870304731
 20
-1155.500738864332
 30
0.0
 40
3056.835395016
100
AcDbArc
 50
83.11556942823782
 51
89.52758434652784
  0
LINE
  5
EDE
330
1F
100
AcDbEntity
  8
TEXT
  6
Continuous
 62
     7
100
AcDbLine
 10
1746.321203047314
 20
1547.115511135669
 30
0.0
 11
1731.347203047312
 21
1543.102511135668
 31
0.0
  0
LINE
  5
EDF
330
1F
100
AcDbEntity
  8
TEXT
  6
Continuous
 62
     7
100
AcDbLine
 10
1744.76720304731
 20
1552.910511135668
 30
0.0
 11
1729.794203047312
 21
1548.898511135668
 31
0.0
  0
LINE
  5
EE0
330
1F
100
AcDbEntity
  8
TEXT
  6
Continuous
 62
     7
100
AcDbLine
 10
1765.723203047312
 20
1502.320511135669
 30
0.0
 11
1752.29920304731
 21
1494.569511135668
 31
0.0
  0
LINE
  5
EE1
330
1F
100
AcDbEntity
  8
TEXT
  6
Continuous
 62
     7
100
AcDbLine
 10
1762.722203047312
 20
1507.516511135668
 30
0.0
 11
1749.298203047313
 21
1499.765511135668
 31
0.0
  0
LINE
  5
EE2
330
1F
100
AcDbEntity
  8
TEXT
  6
Continuous
 62
     7
100
AcDbLine
 10
1796.058203047311
 20
1464.072511135668
 30
0.0
 11
1785.097203047312
 21
1453.111511135668
 31
0.0
  0
LINE
  5
EE3
330
1F
100
AcDbEntity
  8
TEXT
  6
Continuous
 62
     7
100
AcDbLine
 10
1791.815203047313
 20
1468.314511135667
 30
0.0
 11
1780.85420304731
 21
1457.353511135668
 31
0.0
  0
LINE
  5
EE4
330
1F
100
AcDbEntity
  8
TEXT
  6
Continuous
 62
     7
100
AcDbLine
 10
1835.259203047312
 20
1434.980511135669
 30
0.0
 11
1827.509203047312
 21
1421.555511135667
 31
0.0
  0
LINE
  5
EE5
330
1F
100
AcDbEntity
  8
TEXT
  6
Continuous
 62
     7
100
AcDbLine
 10
1830.062203047312
 20
1437.979511135668
 30
0.0
 11
1822.312203047312
 21
1424.555511135667
 31
0.0
  0
LINE
  5
EE6
330
1F
100
AcDbEntity
  8
TEXT
  6
Continuous
 62
     7
100
AcDbLine
 10
1880.653203047313
 20
1417.025511135668
 30
0.0
 11
1876.641203047314
 21
1402.052511135669
 31
0.0
  0
LINE
  5
EE7
330
1F
100
AcDbEntity
  8
TEXT
  6
Continuous
 62
     7
100
AcDbLine
 10
1874.857203047314
 20
1418.577511135668
 30
0.0
 11
1870.845203047312
 21
1403.603511135668
 31
0.0
  0
LINE
  5
EE8
330
1F
100
AcDbEntity
  8
TEXT
  6
Continuous
 62
     7
100
AcDbLine
 10
1929.148203047311
 20
1411.430511135667
 30
0.0
 11
1929.148203047311
 21
1395.929511135668
 31
0.0
  0
LINE
  5
EE9
330
1F
100
AcDbEntity
  8
TEXT
  6
Continuous
 62
     7
100
AcDbLine
 10
1923.148203047311
 20
1411.429511135668
 30
0.0
 11
1923.148203047311
 21
1395.928511135668
 31
0.0
  0
LINE
  5
EEA
330
1F
100
AcDbEntity
  8
TEXT
  6
Continuous
 62
     7
100
AcDbLine
 10
1977.439203047309
 20
1418.577511135668
 30
0.0
 11
1981.451203047311
 21
1403.604511135668
 31
0.0
  0
LINE
  5
EEB
330
1F
100
AcDbEntity
  8
TEXT
  6
Continuous
 62
     7
100
AcDbLine
 10
1971.644203047311
 20
1417.023511135668
 30
0.0
 11
1975.656203047313
 21
1402.050511135668
 31
0.0
  0
LINE
  5
EEC
330
1F
100
AcDbEntity
  8
TEXT
  6
Continuous
 62
     7
100
AcDbLine
 10
2022.234203047311
 20
1437.980511135668
 30
0.0
 11
2029.984203047311
 21
1424.555511135667
 31
0.0
  0
LINE
  5
EED
330
1F
100
AcDbEntity
  8
TEXT
  6
Continuous
 62
     7
100
AcDbLine
 10
2017.039203047311
 20
1434.979511135668
 30
0.0
 11
2024.789203047312
 21
1421.554511135668
 31
0.0
  0
LINE
  5
EEE
330
1F
100
AcDbEntity
  8
TEXT
  6
Continuous
 62
     7
100
AcDbLine
 10
2060.481203047311
 20
1468.315511135668
 30
0.0
 11
2071.442203047313
 21
1457.354511135668
 31
0.0
  0
LINE
  5
EEF
330
1F
100
AcDbEntity
  8
TEXT
  6
Continuous
 62
     7
100
AcDbLine
 10
2056.239203047312
 20
1464.072511135668
 30
0.0
 11
2067.200203047312
 21
1453.111511135668
 31
0.0
  0
LINE
  5
EF0
330
1F
100
AcDbEntity
  8
TEXT
  6
Continuous
 62
     7
100
AcDbLine
 10
2089.574203047311
 20
1507.516511135668
 30
0.0
 11
2102.999203047314
 21
1499.765511135668
 31
0.0
  0
LINE
  5
EF1
330
1F
100
AcDbEntity
  8
TEXT
  6
Continuous
 62
     7
100
AcDbLine
 10
2086.574203047311
 20
1502.319511135668
 30
0.0
 11
2099.999203047314
 21
1494.569511135668
 31
0.0
  0
LINE
  5
EF2
330
1F
100
AcDbEntity
  8
TEXT
  6
Continuous
 62
     7
100
AcDbLine
 10
2107.530203047309
 20
1552.911511135668
 30
0.0
 11
2122.504203047312
 21
1548.899511135668
 31
0.0
  0
LINE
  5
EF3
330
1F
100
AcDbEntity
  8
TEXT
  6
Continuous
 62
     7
100
AcDbLine
 10
2105.977203047309
 20
1547.115511135669
 30
0.0
 11
2120.951203047312
 21
1543.103511135668
 31
0.0
  0
LINE
  5
EF4
330
1F
100
AcDbEntity
  8
TEXT
  6
Continuous
 62
     7
100
AcDbLine
 10
2113.125203047311
 20
1601.406511135668
 30
0.0
 11
2128.627203047311
 21
1601.406511135668
 31
0.0
  0
LINE
  5
EF5
330
1F
100
AcDbEntity
  8
TEXT
  6
Continuous
 62
     7
100
AcDbLine
 10
2113.125203047311
 20
1595.406511135668
 30
0.0
 11
2128.627203047311
 21
1595.406511135668
 31
0.0
  0
LINE
  5
EF6
330
1F
100
AcDbEntity
  8
TEXT
  6
Continuous
 62
     7
100
AcDbLine
 10
2105.977203047309
 20
1649.697511135668
 30
0.0
 11
2120.951203047312
 21
1653.709511135668
 31
0.0
  0
LINE
  5
EF7
330
1F
100
AcDbEntity
  8
TEXT
  6
Continuous
 62
     7
100
AcDbLine
 10
2107.530203047309
 20
1643.901511135668
 30
0.0
 11
2122.504203047312
 21
1647.913511135667
 31
0.0
  0
LINE
  5
EF8
330
1F
100
AcDbEntity
  8
TEXT
  6
Continuous
 62
     7
100
AcDbLine
 10
2086.575203047312
 20
1694.492511135667
 30
0.0
 11
2100.000203047311
 21
1702.243511135668
 31
0.0
  0
LINE
  5
EF9
330
1F
100
AcDbEntity
  8
TEXT
  6
Continuous
 62
     7
100
AcDbLine
 10
2089.575203047312
 20
1689.295511135668
 30
0.0
 11
2103.000203047311
 21
1697.047511135667
 31
0.0
  0
LINE
  5
EFA
330
1F
100
AcDbEntity
  8
TEXT
  6
Continuous
 62
     7
100
AcDbLine
 10
2056.240203047313
 20
1732.739511135668
 30
0.0
 11
2067.201203047312
 21
1743.701511135668
 31
0.0
  0
LINE
  5
EFB
330
1F
100
AcDbEntity
  8
TEXT
  6
Continuous
 62
     7
100
AcDbLine
 10
2060.482203047314
 20
1728.496511135668
 30
0.0
 11
2071.44320304731
 21
1739.458511135668
 31
0.0
  0
LINE
  5
EFC
330
1F
100
AcDbEntity
  8
TEXT
  6
Continuous
 62
     7
100
AcDbLine
 10
2017.039203047311
 20
1761.832511135667
 30
0.0
 11
2024.789203047312
 21
1775.258511135668
 31
0.0
  0
LINE
  5
EFD
330
1F
100
AcDbEntity
  8
TEXT
  6
Continuous
 62
     7
100
AcDbLine
 10
2022.234203047311
 20
1758.832511135668
 30
0.0
 11
2029.984203047311
 21
1772.257511135668
 31
0.0
  0
LINE
  5
EFE
330
1F
100
AcDbEntity
  8
TEXT
  6
Continuous
 62
     7
100
AcDbLine
 10
1971.643203047314
 20
1779.788511135668
 30
0.0
 11
1975.655203047309
 21
1794.761511135667
 31
0.0
  0
LINE
  5
EFF
330
1F
100
AcDbEntity
  8
TEXT
  6
Continuous
 62
     7
100
AcDbLine
 10
1977.438203047313
 20
1778.234511135667
 30
0.0
 11
1981.450203047311
 21
1793.208511135668
 31
0.0
  0
LINE
  5
F00
330
1F
100
AcDbEntity
  8
TEXT
  6
Continuous
 62
     7
100
AcDbLine
 10
1923.148203047311
 20
1785.383511135668
 30
0.0
 11
1923.148203047311
 21
1800.884511135668
 31
0.0
  0
LINE
  5
F01
330
1F
100
AcDbEntity
  8
TEXT
  6
Continuous
 62
     7
100
AcDbLine
 10
1929.148203047311
 20
1785.382511135669
 30
0.0
 11
1929.148203047311
 21
1800.883511135668
 31
0.0
  0
LINE
  5
F02
330
1F
100
AcDbEntity
  8
TEXT
  6
Continuous
 62
     7
100
AcDbLine
 10
1874.857203047314
 20
1778.236511135668
 30
0.0
 11
1870.845203047312
 21
1793.209511135668
 31
0.0
  0
LINE
  5
F03
330
1F
100
AcDbEntity
  8
TEXT
  6
Continuous
 62
     7
100
AcDbLine
 10
1880.653203047313
 20
1779.788511135668
 30
0.0
 11
1876.641203047314
 21
1794.761511135667
 31
0.0
  0
LINE
  5
F04
330
1F
100
AcDbEntity
  8
TEXT
  6
Continuous
 62
     7
100
AcDbLine
 10
1830.061203047312
 20
1758.832511135668
 30
0.0
 11
1822.311203047312
 21
1772.257511135668
 31
0.0
  0
LINE
  5
F05
330
1F
100
AcDbEntity
  8
TEXT
  6
Continuous
 62
     7
100
AcDbLine
 10
1835.258203047312
 20
1761.832511135667
 30
0.0
 11
1827.508203047312
 21
1775.257511135668
 31
0.0
  0
LINE
  5
F06
330
1F
100
AcDbEntity
  8
TEXT
  6
Continuous
 62
     7
100
AcDbLine
 10
1791.814203047309
 20
1728.497511135668
 30
0.0
 11
1780.853203047313
 21
1739.458511135668
 31
0.0
  0
LINE
  5
F07
330
1F
100
AcDbEntity
  8
TEXT
  6
Continuous
 62
     7
100
AcDbLine
 10
1796.057203047311
 20
1732.739511135668
 30
0.0
 11
1785.096203047312
 21
1743.700511135668
 31
0.0
  0
LINE
  5
F08
330
1F
100
AcDbEntity
  8
TEXT
  6
Continuous
 62
     7
100
AcDbLine
 10
1762.721203047312
 20
1689.296511135667
 30
0.0
 11
1749.297203047309
 21
1697.047511135667
 31
0.0
  0
LINE
  5
F09
330
1F
100
AcDbEntity
  8
TEXT
  6
Continuous
 62
     7
100
AcDbLine
 10
1765.722203047312
 20
1694.492511135667
 30
0.0
 11
1752.298203047313
 21
1702.242511135667
 31
0.0
  0
LINE
  5
F0A
330
1F
100
AcDbEntity
  8
TEXT
  6
Continuous
 62
     7
100
AcDbLine
 10
1744.76520304731
 20
1643.901511135668
 30
0.0
 11
1729.792203047312
 21
1647.913511135667
 31
0.0
  0
LINE
  5
F0B
330
1F
100
AcDbEntity
  8
TEXT
  6
Continuous
 62
     7
100
AcDbLine
 10
1746.319203047313
 20
1649.697511135668
 30
0.0
 11
1731.345203047312
 21
1653.709511135668
 31
0.0
  0
LINE
  5
F0C
330
1F
100
AcDbEntity
  8
TEXT
  6
Continuous
 62
     7
100
AcDbLine
 10
1739.173203047313
 20
1595.405511135668
 30
0.0
 11
1723.671203047313
 21
1595.405511135668
 31
0.0
  0
LINE
  5
F0D
330
1F
100
AcDbEntity
  8
TEXT
  6
Continuous
 62
     7
100
AcDbLine
 10
1739.173203047313
 20
1601.405511135668
 30
0.0
 11
1723.671203047313
 21
1601.405511135668
 31
0.0
  0
CIRCLE
  5
F0E
330
1F
100
AcDbEntity
  8
TEXT
  6
Continuous
 62
     7
100
AcDbCircle
 10
1926.148203047312
 20
1598.405511135668
 30
0.0
 40
174.0
  0
CIRCLE
  5
F0F
330
1F
100
AcDbEntity
  8
TEXT
  6
Continuous
 62
     7
100
AcDbCircle
 10
1926.148203047312
 20
1598.405511135668
 30
0.0
 40
187.0
  0
CIRCLE
  5
F10
330
1F
100
AcDbEntity
  8
TEXT
  6
Continuous
 62
     7
100
AcDbCircle
 10
1926.148203047312
 20
1598.405511135668
 30
0.0
 40
202.5
  0
ARC
  5
F11
330
1F
100
AcDbEntity
  8
TEXT
  6
Continuous
 62
     7
100
AcDbCircle
 10
1926.148203047312
 20
1598.405511135668
 30
0.0
 40
194.0
100
AcDbArc
 50
150.8860000000322
 51
164.1140000000381
  0
ARC
  5
F12
330
1F
100
AcDbEntity
  8
TEXT
  6
Continuous
 62
     7
100
AcDbCircle
 10
1926.148203047312
 20
1598.405511135668
 30
0.0
 40
194.0
100
AcDbArc
 50
135.8860000000315
 51
149.1140000000266
  0
ARC
  5
F13
330
1F
100
AcDbEntity
  8
TEXT
  6
Continuous
 62
     7
100
AcDbCircle
 10
1926.148203047312
 20
1598.405511135668
 30
0.0
 40
194.0
100
AcDbArc
 50
120.8860000000493
 51
134.1139999999684
  0
ARC
  5
F14
330
1F
100
AcDbEntity
  8
TEXT
  6
Continuous
 62
     7
100
AcDbCircle
 10
1926.148203047312
 20
1598.405511135668
 30
0.0
 40
194.0
100
AcDbArc
 50
105.8859999999743
 51
119.1139999999822
  0
ARC
  5
F15
330
1F
100
AcDbEntity
  8
TEXT
  6
Continuous
 62
     7
100
AcDbCircle
 10
1926.148203047312
 20
1598.405511135668
 30
0.0
 40
194.0
100
AcDbArc
 50
90.88600000001308
 51
104.1140000000044
  0
ARC
  5
F16
330
1F
100
AcDbEntity
  8
TEXT
  6
Continuous
 62
     7
100
AcDbCircle
 10
1926.148203047312
 20
1598.405511135668
 30
0.0
 40
194.0
100
AcDbArc
 50
165.8859999999829
 51
179.1139999999869
  0
ARC
  5
F17
330
1F
100
AcDbEntity
  8
TEXT
  6
Continuous
 62
     7
100
AcDbCircle
 10
1926.148203047312
 20
1598.405511135668
 30
0.0
 40
194.0
100
AcDbArc
 50
75.88599999999551
 51
89.11399999998693
  0
ARC
  5
F18
330
1F
100
AcDbEntity
  8
TEXT
  6
Continuous
 62
     7
100
AcDbCircle
 10
1926.148203047312
 20
1598.405511135668
 30
0.0
 40
194.0
100
AcDbArc
 50
60.88600000001203
 51
74.11400000002565
  0
ARC
  5
F19
330
1F
100
AcDbEntity
  8
TEXT
  6
Continuous
 62
     7
100
AcDbCircle
 10
1926.148203047312
 20
1598.405511135668
 30
0.0
 40
194.0
100
AcDbArc
 50
45.88600000003159
 51
59.11399999995065
  0
ARC
  5
F1A
330
1F
100
AcDbEntity
  8
TEXT
  6
Continuous
 62
     7
100
AcDbCircle
 10
1926.148203047312
 20
1598.405511135668
 30
0.0
 40
194.0
100
AcDbArc
 50
30.88599999997339
 51
44.11399999996842
  0
ARC
  5
F1B
330
1F
100
AcDbEntity
  8
TEXT
  6
Continuous
 62
     7
100
AcDbCircle
 10
1926.148203047312
 20
1598.405511135668
 30
0.0
 40
194.0
100
AcDbArc
 50
15.88599999996181
 51
29.11399999996774
  0
ARC
  5
F1C
330
1F
100
AcDbEntity
  8
TEXT
  6
Continuous
 62
     7
100
AcDbCircle
 10
1926.148203047312
 20
1598.405511135668
 30
0.0
 40
194.0
100
AcDbArc
 50
0.8859999999610728
 51
14.11400000001553
  0
ARC
  5
F1D
330
1F
100
AcDbEntity
  8
TEXT
  6
Continuous
 62
     7
100
AcDbCircle
 10
1926.148203047312
 20
1598.405511135668
 30
0.0
 40
194.0
100
AcDbArc
 50
345.8859999999845
 51
359.1139999999868
  0
ARC
  5
F1E
330
1F
100
AcDbEntity
  8
TEXT
  6
Continuous
 62
     7
100
AcDbCircle
 10
1926.148203047312
 20
1598.405511135668
 30
0.0
 40
194.0
100
AcDbArc
 50
255.8859999999955
 51
269.1139999999869
  0
ARC
  5
F1F
330
1F
100
AcDbEntity
  8
TEXT
  6
Continuous
 62
     7
100
AcDbCircle
 10
1926.148203047312
 20
1598.405511135668
 30
0.0
 40
194.0
100
AcDbArc
 50
270.8860000000131
 51
284.1140000000045
  0
ARC
  5
F20
330
1F
100
AcDbEntity
  8
TEXT
  6
Continuous
 62
     7
100
AcDbCircle
 10
1926.148203047312
 20
1598.405511135668
 30
0.0
 40
194.0
100
AcDbArc
 50
285.8859999999743
 51
299.113999999988
  0
ARC
  5
F21
330
1F
100
AcDbEntity
  8
TEXT
  6
Continuous
 62
     7
100
AcDbCircle
 10
1926.148203047312
 20
1598.405511135668
 30
0.0
 40
194.0
100
AcDbArc
 50
300.8860000000493
 51
314.1139999999684
  0
ARC
  5
F22
330
1F
100
AcDbEntity
  8
TEXT
  6
Continuous
 62
     7
100
AcDbCircle
 10
1926.148203047312
 20
1598.405511135668
 30
0.0
 40
194.0
100
AcDbArc
 50
315.8860000000316
 51
329.1140000000266
  0
ARC
  5
F23
330
1F
100
AcDbEntity
  8
TEXT
  6
Continuous
 62
     7
100
AcDbCircle
 10
1926.148203047312
 20
1598.405511135668
 30
0.0
 40
194.0
100
AcDbArc
 50
330.8860000000322
 51
344.1140000000382
  0
ARC
  5
F24
330
1F
100
AcDbEntity
  8
TEXT
  6
Continuous
 62
     7
100
AcDbCircle
 10
1926.148203047312
 20
1598.405511135668
 30
0.0
 40
194.0
100
AcDbArc
 50
240.8860000000177
 51
254.1140000000257
  0
ARC
  5
F25
330
1F
100
AcDbEntity
  8
TEXT
  6
Continuous
 62
     7
100
AcDbCircle
 10
1926.148203047312
 20
1598.405511135668
 30
0.0
 40
194.0
100
AcDbArc
 50
225.8860000000316
 51
239.1139999999506
  0
ARC
  5
F26
330
1F
100
AcDbEntity
  8
TEXT
  6
Continuous
 62
     7
100
AcDbCircle
 10
1926.148203047312
 20
1598.405511135668
 30
0.0
 40
194.0
100
AcDbArc
 50
210.8859999999734
 51
224.1139999999684
  0
ARC
  5
F27
330
1F
100
AcDbEntity
  8
TEXT
  6
Continuous
 62
     7
100
AcDbCircle
 10
1926.148203047312
 20
1598.405511135668
 30
0.0
 40
194.0
100
AcDbArc
 50
195.8859999999618
 51
209.1139999999677
  0
ARC
  5
F28
330
1F
100
AcDbEntity
  8
TEXT
  6
Continuous
 62
     7
100
AcDbCircle
 10
1926.148203047312
 20
1598.405511135668
 30
0.0
 40
194.0
100
AcDbArc
 50
180.885999999961
 51
194.1140000000171
  0
LINE
  5
F29
330
1F
100
AcDbEntity
  8
AM_7
100
AcDbLine
 10
1926.148203047312
 20
1813.125511135668
 30
0.0
 11
1926.148203047312
 21
1386.032511135668
 31
0.0
  0
LINE
  5
F2A
330
1F
100
AcDbEntity
  8
TEXT
  6
Continuous
 62
     7
100
AcDbLine
 10
2473.322203047311
 20
1547.115511135668
 30
0.0
 11
2458.348203047309
 21
1543.102511135668
 31
0.0
  0
LINE
  5
F2B
330
1F
100
AcDbEntity
  8
TEXT
  6
Continuous
 62
     7
100
AcDbLine
 10
2471.768203047307
 20
1552.910511135667
 30
0.0
 11
2456.795203047309
 21
1548.898511135668
 31
0.0
  0
LINE
  5
F2C
330
1F
100
AcDbEntity
  8
TEXT
  6
Continuous
 62
     7
100
AcDbLine
 10
2492.724203047309
 20
1502.320511135668
 30
0.0
 11
2479.300203047306
 21
1494.569511135668
 31
0.0
  0
LINE
  5
F2D
330
1F
100
AcDbEntity
  8
TEXT
  6
Continuous
 62
     7
100
AcDbLine
 10
2489.723203047309
 20
1507.516511135668
 30
0.0
 11
2476.29920304731
 21
1499.765511135668
 31
0.0
  0
LINE
  5
F2E
330
1F
100
AcDbEntity
  8
TEXT
  6
Continuous
 62
     7
100
AcDbLine
 10
2523.059203047308
 20
1464.072511135668
 30
0.0
 11
2512.098203047309
 21
1453.111511135668
 31
0.0
  0
LINE
  5
F2F
330
1F
100
AcDbEntity
  8
TEXT
  6
Continuous
 62
     7
100
AcDbLine
 10
2518.81620304731
 20
1468.314511135667
 30
0.0
 11
2507.855203047307
 21
1457.353511135668
 31
0.0
  0
LINE
  5
F30
330
1F
100
AcDbEntity
  8
TEXT
  6
Continuous
 62
     7
100
AcDbLine
 10
2562.260203047309
 20
1434.980511135668
 30
0.0
 11
2554.510203047309
 21
1421.555511135667
 31
0.0
  0
LINE
  5
F31
330
1F
100
AcDbEntity
  8
TEXT
  6
Continuous
 62
     7
100
AcDbLine
 10
2557.063203047309
 20
1437.979511135668
 30
0.0
 11
2549.313203047309
 21
1424.555511135667
 31
0.0
  0
LINE
  5
F32
330
1F
100
AcDbEntity
  8
TEXT
  6
Continuous
 62
     7
100
AcDbLine
 10
2607.654203047309
 20
1417.025511135668
 30
0.0
 11
2603.642203047311
 21
1402.052511135668
 31
0.0
  0
LINE
  5
F33
330
1F
100
AcDbEntity
  8
TEXT
  6
Continuous
 62
     7
100
AcDbLine
 10
2601.858203047311
 20
1418.577511135668
 30
0.0
 11
2597.846203047308
 21
1403.603511135668
 31
0.0
  0
LINE
  5
F34
330
1F
100
AcDbEntity
  8
TEXT
  6
Continuous
 62
     7
100
AcDbLine
 10
2656.149203047308
 20
1411.430511135667
 30
0.0
 11
2656.149203047308
 21
1395.929511135667
 31
0.0
  0
LINE
  5
F35
330
1F
100
AcDbEntity
  8
TEXT
  6
Continuous
 62
     7
100
AcDbLine
 10
2650.149203047309
 20
1411.429511135668
 30
0.0
 11
2650.149203047309
 21
1395.928511135667
 31
0.0
  0
LINE
  5
F36
330
1F
100
AcDbEntity
  8
TEXT
  6
Continuous
 62
     7
100
AcDbLine
 10
2704.440203047306
 20
1418.577511135668
 30
0.0
 11
2708.452203047308
 21
1403.604511135668
 31
0.0
  0
LINE
  5
F37
330
1F
100
AcDbEntity
  8
TEXT
  6
Continuous
 62
     7
100
AcDbLine
 10
2698.645203047308
 20
1417.023511135668
 30
0.0
 11
2702.65720304731
 21
1402.050511135668
 31
0.0
  0
LINE
  5
F38
330
1F
100
AcDbEntity
  8
TEXT
  6
Continuous
 62
     7
100
AcDbLine
 10
2749.235203047307
 20
1437.980511135668
 30
0.0
 11
2756.985203047308
 21
1424.555511135667
 31
0.0
  0
LINE
  5
F39
330
1F
100
AcDbEntity
  8
TEXT
  6
Continuous
 62
     7
100
AcDbLine
 10
2744.040203047308
 20
1434.979511135668
 30
0.0
 11
2751.790203047308
 21
1421.554511135667
 31
0.0
  0
LINE
  5
F3A
330
1F
100
AcDbEntity
  8
TEXT
  6
Continuous
 62
     7
100
AcDbLine
 10
2787.482203047307
 20
1468.315511135667
 30
0.0
 11
2798.44320304731
 21
1457.354511135668
 31
0.0
  0
LINE
  5
F3B
330
1F
100
AcDbEntity
  8
TEXT
  6
Continuous
 62
     7
100
AcDbLine
 10
2783.240203047309
 20
1464.072511135668
 30
0.0
 11
2794.201203047308
 21
1453.111511135668
 31
0.0
  0
LINE
  5
F3C
330
1F
100
AcDbEntity
  8
TEXT
  6
Continuous
 62
     7
100
AcDbLine
 10
2816.575203047308
 20
1507.516511135668
 30
0.0
 11
2830.00020304731
 21
1499.765511135668
 31
0.0
  0
LINE
  5
F3D
330
1F
100
AcDbEntity
  8
TEXT
  6
Continuous
 62
     7
100
AcDbLine
 10
2813.575203047308
 20
1502.319511135668
 30
0.0
 11
2827.000203047311
 21
1494.569511135668
 31
0.0
  0
LINE
  5
F3E
330
1F
100
AcDbEntity
  8
TEXT
  6
Continuous
 62
     7
100
AcDbLine
 10
2834.531203047306
 20
1552.911511135668
 30
0.0
 11
2849.505203047308
 21
1548.899511135668
 31
0.0
  0
LINE
  5
F3F
330
1F
100
AcDbEntity
  8
TEXT
  6
Continuous
 62
     7
100
AcDbLine
 10
2832.978203047306
 20
1547.115511135668
 30
0.0
 11
2847.952203047308
 21
1543.103511135668
 31
0.0
  0
LINE
  5
F40
330
1F
100
AcDbEntity
  8
TEXT
  6
Continuous
 62
     7
100
AcDbLine
 10
2840.126203047308
 20
1601.406511135667
 30
0.0
 11
2855.628203047308
 21
1601.406511135667
 31
0.0
  0
LINE
  5
F41
330
1F
100
AcDbEntity
  8
TEXT
  6
Continuous
 62
     7
100
AcDbLine
 10
2840.126203047308
 20
1595.406511135667
 30
0.0
 11
2855.628203047308
 21
1595.406511135667
 31
0.0
  0
LINE
  5
F42
330
1F
100
AcDbEntity
  8
TEXT
  6
Continuous
 62
     7
100
AcDbLine
 10
2832.978203047306
 20
1649.697511135668
 30
0.0
 11
2847.952203047308
 21
1653.709511135667
 31
0.0
  0
LINE
  5
F43
330
1F
100
AcDbEntity
  8
TEXT
  6
Continuous
 62
     7
100
AcDbLine
 10
2834.531203047306
 20
1643.901511135667
 30
0.0
 11
2849.505203047308
 21
1647.913511135667
 31
0.0
  0
LINE
  5
F44
330
1F
100
AcDbEntity
  8
TEXT
  6
Continuous
 62
     7
100
AcDbLine
 10
2813.576203047308
 20
1694.492511135667
 30
0.0
 11
2827.001203047307
 21
1702.243511135667
 31
0.0
  0
LINE
  5
F45
330
1F
100
AcDbEntity
  8
TEXT
  6
Continuous
 62
     7
100
AcDbLine
 10
2816.576203047308
 20
1689.295511135668
 30
0.0
 11
2830.001203047308
 21
1697.047511135667
 31
0.0
  0
LINE
  5
F46
330
1F
100
AcDbEntity
  8
TEXT
  6
Continuous
 62
     7
100
AcDbLine
 10
2783.241203047309
 20
1732.739511135668
 30
0.0
 11
2794.202203047309
 21
1743.701511135668
 31
0.0
  0
LINE
  5
F47
330
1F
100
AcDbEntity
  8
TEXT
  6
Continuous
 62
     7
100
AcDbLine
 10
2787.483203047311
 20
1728.496511135668
 30
0.0
 11
2798.444203047307
 21
1739.458511135667
 31
0.0
  0
LINE
  5
F48
330
1F
100
AcDbEntity
  8
TEXT
  6
Continuous
 62
     7
100
AcDbLine
 10
2744.040203047308
 20
1761.832511135667
 30
0.0
 11
2751.790203047308
 21
1775.258511135668
 31
0.0
  0
LINE
  5
F49
330
1F
100
AcDbEntity
  8
TEXT
  6
Continuous
 62
     7
100
AcDbLine
 10
2749.235203047307
 20
1758.832511135667
 30
0.0
 11
2756.985203047308
 21
1772.257511135668
 31
0.0
  0
LINE
  5
F4A
330
1F
100
AcDbEntity
  8
TEXT
  6
Continuous
 62
     7
100
AcDbLine
 10
2698.644203047311
 20
1779.788511135667
 30
0.0
 11
2702.656203047306
 21
1794.761511135667
 31
0.0
  0
LINE
  5
F4B
330
1F
100
AcDbEntity
  8
TEXT
  6
Continuous
 62
     7
100
AcDbLine
 10
2704.439203047309
 20
1778.234511135667
 30
0.0
 11
2708.451203047308
 21
1793.208511135667
 31
0.0
  0
LINE
  5
F4C
330
1F
100
AcDbEntity
  8
TEXT
  6
Continuous
 62
     7
100
AcDbLine
 10
2650.149203047309
 20
1785.383511135667
 30
0.0
 11
2650.149203047309
 21
1800.884511135668
 31
0.0
  0
LINE
  5
F4D
330
1F
100
AcDbEntity
  8
TEXT
  6
Continuous
 62
     7
100
AcDbLine
 10
2656.149203047308
 20
1785.382511135668
 30
0.0
 11
2656.149203047308
 21
1800.883511135667
 31
0.0
  0
LINE
  5
F4E
330
1F
100
AcDbEntity
  8
TEXT
  6
Continuous
 62
     7
100
AcDbLine
 10
2601.858203047311
 20
1778.236511135667
 30
0.0
 11
2597.846203047308
 21
1793.209511135668
 31
0.0
  0
LINE
  5
F4F
330
1F
100
AcDbEntity
  8
TEXT
  6
Continuous
 62
     7
100
AcDbLine
 10
2607.654203047309
 20
1779.788511135667
 30
0.0
 11
2603.642203047311
 21
1794.761511135667
 31
0.0
  0
LINE
  5
F50
330
1F
100
AcDbEntity
  8
TEXT
  6
Continuous
 62
     7
100
AcDbLine
 10
2557.062203047309
 20
1758.832511135667
 30
0.0
 11
2549.312203047309
 21
1772.257511135668
 31
0.0
  0
LINE
  5
F51
330
1F
100
AcDbEntity
  8
TEXT
  6
Continuous
 62
     7
100
AcDbLine
 10
2562.259203047309
 20
1761.832511135667
 30
0.0
 11
2554.509203047309
 21
1775.257511135668
 31
0.0
  0
LINE
  5
F52
330
1F
100
AcDbEntity
  8
TEXT
  6
Continuous
 62
     7
100
AcDbLine
 10
2518.815203047306
 20
1728.497511135668
 30
0.0
 11
2507.85420304731
 21
1739.458511135667
 31
0.0
  0
LINE
  5
F53
330
1F
100
AcDbEntity
  8
TEXT
  6
Continuous
 62
     7
100
AcDbLine
 10
2523.058203047308
 20
1732.739511135668
 30
0.0
 11
2512.097203047309
 21
1743.700511135667
 31
0.0
  0
LINE
  5
F54
330
1F
100
AcDbEntity
  8
TEXT
  6
Continuous
 62
     7
100
AcDbLine
 10
2489.722203047309
 20
1689.296511135667
 30
0.0
 11
2476.298203047306
 21
1697.047511135667
 31
0.0
  0
LINE
  5
F55
330
1F
100
AcDbEntity
  8
TEXT
  6
Continuous
 62
     7
100
AcDbLine
 10
2492.723203047309
 20
1694.492511135667
 30
0.0
 11
2479.29920304731
 21
1702.242511135667
 31
0.0
  0
LINE
  5
F56
330
1F
100
AcDbEntity
  8
TEXT
  6
Continuous
 62
     7
100
AcDbLine
 10
2471.766203047307
 20
1643.901511135667
 30
0.0
 11
2456.793203047308
 21
1647.913511135667
 31
0.0
  0
LINE
  5
F57
330
1F
100
AcDbEntity
  8
TEXT
  6
Continuous
 62
     7
100
AcDbLine
 10
2473.320203047311
 20
1649.697511135668
 30
0.0
 11
2458.346203047308
 21
1653.709511135667
 31
0.0
  0
LINE
  5
F58
330
1F
100
AcDbEntity
  8
TEXT
  6
Continuous
 62
     7
100
AcDbLine
 10
2466.17420304731
 20
1595.405511135667
 30
0.0
 11
2450.67220304731
 21
1595.405511135667
 31
0.0
  0
LINE
  5
F59
330
1F
100
AcDbEntity
  8
TEXT
  6
Continuous
 62
     7
100
AcDbLine
 10
2466.17420304731
 20
1601.405511135667
 30
0.0
 11
2450.67220304731
 21
1601.405511135667
 31
0.0
  0
CIRCLE
  5
F5A
330
1F
100
AcDbEntity
  8
TEXT
  6
Continuous
 62
     7
100
AcDbCircle
 10
2653.149203047308
 20
1598.405511135667
 30
0.0
 40
174.0
  0
CIRCLE
  5
F5B
330
1F
100
AcDbEntity
  8
TEXT
  6
Continuous
 62
     7
100
AcDbCircle
 10
2653.149203047308
 20
1598.405511135667
 30
0.0
 40
187.0
  0
CIRCLE
  5
F5C
330
1F
100
AcDbEntity
  8
TEXT
  6
Continuous
 62
     7
100
AcDbCircle
 10
2653.149203047308
 20
1598.405511135667
 30
0.0
 40
202.5
  0
ARC
  5
F5D
330
1F
100
AcDbEntity
  8
TEXT
  6
Continuous
 62
     7
100
AcDbCircle
 10
2653.149203047308
 20
1598.405511135667
 30
0.0
 40
194.0
100
AcDbArc
 50
150.8860000000322
 51
164.1140000000381
  0
ARC
  5
F5E
330
1F
100
AcDbEntity
  8
TEXT
  6
Continuous
 62
     7
100
AcDbCircle
 10
2653.149203047308
 20
1598.405511135667
 30
0.0
 40
194.0
100
AcDbArc
 50
135.8860000000315
 51
149.1140000000266
  0
ARC
  5
F5F
330
1F
100
AcDbEntity
  8
TEXT
  6
Continuous
 62
     7
100
AcDbCircle
 10
2653.149203047308
 20
1598.405511135667
 30
0.0
 40
194.0
100
AcDbArc
 50
120.8860000000493
 51
134.1139999999684
  0
ARC
  5
F60
330
1F
100
AcDbEntity
  8
TEXT
  6
Continuous
 62
     7
100
AcDbCircle
 10
2653.149203047308
 20
1598.405511135667
 30
0.0
 40
194.0
100
AcDbArc
 50
105.8859999999743
 51
119.1139999999822
  0
ARC
  5
F61
330
1F
100
AcDbEntity
  8
TEXT
  6
Continuous
 62
     7
100
AcDbCircle
 10
2653.149203047308
 20
1598.405511135667
 30
0.0
 40
194.0
100
AcDbArc
 50
90.88600000001308
 51
104.1140000000044
  0
ARC
  5
F62
330
1F
100
AcDbEntity
  8
TEXT
  6
Continuous
 62
     7
100
AcDbCircle
 10
2653.149203047308
 20
1598.405511135667
 30
0.0
 40
194.0
100
AcDbArc
 50
165.8859999999829
 51
179.1139999999869
  0
ARC
  5
F63
330
1F
100
AcDbEntity
  8
TEXT
  6
Continuous
 62
     7
100
AcDbCircle
 10
2653.149203047308
 20
1598.405511135667
 30
0.0
 40
194.0
100
AcDbArc
 50
75.88599999999551
 51
89.11399999998693
  0
ARC
  5
F64
330
1F
100
AcDbEntity
  8
TEXT
  6
Continuous
 62
     7
100
AcDbCircle
 10
2653.149203047308
 20
1598.405511135667
 30
0.0
 40
194.0
100
AcDbArc
 50
60.88600000001203
 51
74.11400000002565
  0
ARC
  5
F65
330
1F
100
AcDbEntity
  8
TEXT
  6
Continuous
 62
     7
100
AcDbCircle
 10
2653.149203047308
 20
1598.405511135667
 30
0.0
 40
194.0
100
AcDbArc
 50
45.88600000003159
 51
59.11399999995065
  0
ARC
  5
F66
330
1F
100
AcDbEntity
  8
TEXT
  6
Continuous
 62
     7
100
AcDbCircle
 10
2653.149203047308
 20
1598.405511135667
 30
0.0
 40
194.0
100
AcDbArc
 50
30.88599999997339
 51
44.11399999996842
  0
ARC
  5
F67
330
1F
100
AcDbEntity
  8
TEXT
  6
Continuous
 62
     7
100
AcDbCircle
 10
2653.149203047308
 20
1598.405511135667
 30
0.0
 40
194.0
100
AcDbArc
 50
15.88599999996181
 51
29.11399999996774
  0
ARC
  5
F68
330
1F
100
AcDbEntity
  8
TEXT
  6
Continuous
 62
     7
100
AcDbCircle
 10
2653.149203047308
 20
1598.405511135667
 30
0.0
 40
194.0
100
AcDbArc
 50
0.8859999999610728
 51
14.11400000001553
  0
ARC
  5
F69
330
1F
100
AcDbEntity
  8
TEXT
  6
Continuous
 62
     7
100
AcDbCircle
 10
2653.149203047308
 20
1598.405511135667
 30
0.0
 40
194.0
100
AcDbArc
 50
345.8859999999845
 51
359.1139999999868
  0
ARC
  5
F6A
330
1F
100
AcDbEntity
  8
TEXT
  6
Continuous
 62
     7
100
AcDbCircle
 10
2653.149203047308
 20
1598.405511135667
 30
0.0
 40
194.0
100
AcDbArc
 50
255.8859999999955
 51
269.1139999999869
  0
ARC
  5
F6B
330
1F
100
AcDbEntity
  8
TEXT
  6
Continuous
 62
     7
100
AcDbCircle
 10
2653.149203047308
 20
1598.405511135667
 30
0.0
 40
194.0
100
AcDbArc
 50
270.8860000000131
 51
284.1140000000045
  0
ARC
  5
F6C
330
1F
100
AcDbEntity
  8
TEXT
  6
Continuous
 62
     7
100
AcDbCircle
 10
2653.149203047308
 20
1598.405511135667
 30
0.0
 40
194.0
100
AcDbArc
 50
285.8859999999743
 51
299.113999999988
  0
ARC
  5
F6D
330
1F
100
AcDbEntity
  8
TEXT
  6
Continuous
 62
     7
100
AcDbCircle
 10
2653.149203047308
 20
1598.405511135667
 30
0.0
 40
194.0
100
AcDbArc
 50
300.8860000000493
 51
314.1139999999684
  0
ARC
  5
F6E
330
1F
100
AcDbEntity
  8
TEXT
  6
Continuous
 62
     7
100
AcDbCircle
 10
2653.149203047308
 20
1598.405511135667
 30
0.0
 40
194.0
100
AcDbArc
 50
315.8860000000316
 51
329.1140000000266
  0
ARC
  5
F6F
330
1F
100
AcDbEntity
  8
TEXT
  6
Continuous
 62
     7
100
AcDbCircle
 10
2653.149203047308
 20
1598.405511135667
 30
0.0
 40
194.0
100
AcDbArc
 50
330.8860000000322
 51
344.1140000000382
  0
ARC
  5
F70
330
1F
100
AcDbEntity
  8
TEXT
  6
Continuous
 62
     7
100
AcDbCircle
 10
2653.149203047308
 20
1598.405511135667
 30
0.0
 40
194.0
100
AcDbArc
 50
240.8860000000177
 51
254.1140000000257
  0
ARC
  5
F71
330
1F
100
AcDbEntity
  8
TEXT
  6
Continuous
 62
     7
100
AcDbCircle
 10
2653.149203047308
 20
1598.405511135667
 30
0.0
 40
194.0
100
AcDbArc
 50
225.8860000000316
 51
239.1139999999506
  0
ARC
  5
F72
330
1F
100
AcDbEntity
  8
TEXT
  6
Continuous
 62
     7
100
AcDbCircle
 10
2653.149203047308
 20
1598.405511135667
 30
0.0
 40
194.0
100
AcDbArc
 50
210.8859999999734
 51
224.1139999999684
  0
ARC
  5
F73
330
1F
100
AcDbEntity
  8
TEXT
  6
Continuous
 62
     7
100
AcDbCircle
 10
2653.149203047308
 20
1598.405511135667
 30
0.0
 40
194.0
100
AcDbArc
 50
195.8859999999618
 51
209.1139999999677
  0
ARC
  5
F74
330
1F
100
AcDbEntity
  8
TEXT
  6
Continuous
 62
     7
100
AcDbCircle
 10
2653.149203047308
 20
1598.405511135667
 30
0.0
 40
194.0
100
AcDbArc
 50
180.885999999961
 51
194.1140000000171
  0
LINE
  5
F75
330
1F
100
AcDbEntity
  8
AM_7
100
AcDbLine
 10
2653.149203047308
 20
1813.125511135667
 30
0.0
 11
2653.149203047308
 21
1386.032511135668
 31
0.0
  0
LINE
  5
F76
330
1F
100
AcDbEntity
  8
0
 62
     9
100
AcDbLine
 10
2757.148704324415
 20
1320.316488977992
 30
0.0
 11
2307.14870304731
 21
1320.316488967667
 31
0.0
  0
LINE
  5
F77
330
1F
100
AcDbEntity
  8
0
 62
     9
100
AcDbLine
 10
2307.352758902808
 20
1295.580273453167
 30
0.0
 11
2757.352662930037
 21
1295.580272661604
 31
0.0
  0
LINE
  5
F78
330
1F
100
AcDbEntity
  8
0
100
AcDbLine
 10
2757.349418526311
 20
1258.613428248668
 30
0.0
 11
2307.352099440132
 21
1258.621457630269
 31
0.0
  0
LINE
  5
F79
330
1F
100
AcDbEntity
  8
0
100
AcDbLine
 10
2732.14870304731
 20
1248.405511135666
 30
0.0
 11
2282.14870304731
 21
1248.405511135666
 31
0.0
  0
LINE
  5
F7A
330
1F
100
AcDbEntity
  8
0
100
AcDbLine
 10
2757.35358584774
 20
1253.508014498574
 30
0.0
 11
2307.351568847701
 21
1253.627595955235
 31
0.0
  0
LINE
  5
F7B
330
1F
100
AcDbEntity
  8
0
 62
     9
100
AcDbLine
 10
2757.148704324415
 20
1876.494533293341
 30
0.0
 11
2363.92295187608
 21
1876.494533302363
 31
0.0
  0
LINE
  5
F7C
330
1F
100
AcDbEntity
  8
0
 62
     9
100
AcDbLine
 10
2307.352758902808
 20
1901.230748818166
 30
0.0
 11
2757.352662930037
 21
1901.230749609729
 31
0.0
  0
LINE
  5
F7D
330
1F
100
AcDbEntity
  8
0
100
AcDbLine
 10
2757.349418526311
 20
1938.197594022665
 30
0.0
 11
2307.352099440132
 21
1938.189564641064
 31
0.0
  0
LINE
  5
F7E
330
1F
100
AcDbEntity
  8
0
100
AcDbLine
 10
2732.14870304731
 20
1948.405511135667
 30
0.0
 11
2282.14870304731
 21
1948.405511135667
 31
0.0
  0
LINE
  5
F7F
330
1F
100
AcDbEntity
  8
0
100
AcDbLine
 10
2757.35358584774
 20
1943.303007772759
 30
0.0
 11
2307.351568847701
 21
1943.183426316099
 31
0.0
  0
LINE
  5
F80
330
1F
100
AcDbEntity
  8
AM_7
100
AcDbLine
 10
1197.148703047308
 20
1598.405511135667
 30
0.0
 11
3506.648703047309
 21
1598.405511135667
 31
0.0
1001
GENIUS_GENOBJ-N-CEN_13
1002
{
1000
OWNER
1000
GEN
1002
}
1001
GENIUS_GENODEF_13
1002
{
1000
HIER
1070
     0
1002
}
1002
{
1000
MANEDIT
1070
     0
1002
}
1002
{
1000
NOSEL
1070
     0
1002
}
1002
{
1000
BEHIND
1070
     0
1002
}
1002
{
1000
OTHER
1070
     0
1002
}
1002
{
1000
REACTOR
1002
}
1001
GENIUS_GENCEN_19
1002
{
1040
30.0
1002
}
  0
LINE
  5
F81
330
1F
100
AcDbEntity
  8
0
100
AcDbLine
 10
1942.14870304731
 20
1248.405511135668
 30
0.0
 11
2277.14870304731
 21
1248.405511135667
 31
0.0
  0
LINE
  5
F82
330
1F
100
AcDbEntity
  8
0
100
AcDbLine
 10
1916.597482410424
 20
1253.685106714299
 30
0.0
 11
2251.601743263308
 21
1253.685013461668
 31
0.0
  0
LINE
  5
F83
330
1F
100
AcDbEntity
  8
0
100
AcDbLine
 10
1916.607379624306
 20
1258.788893334668
 30
0.0
 11
2251.58689214081
 21
1258.789355089668
 31
0.0
  0
LINE
  5
F84
330
1F
100
AcDbEntity
  8
0
 62
     9
100
AcDbLine
 10
1916.586930451703
 20
1295.766654394731
 30
0.0
 11
2251.586200363022
 21
1295.89126542194
 31
0.0
  0
LINE
  5
F85
330
1F
100
AcDbEntity
  8
0
 62
     9
100
AcDbLine
 10
1917.148703048006
 20
1320.497331868549
 30
0.0
 11
2252.14870304731
 21
1320.497331868668
 31
0.0
  0
LINE
  5
F86
330
1F
100
AcDbEntity
  8
0
100
AcDbLine
 10
1942.14870304731
 20
1948.405511135667
 30
0.0
 11
2277.14870304731
 21
1948.405511135668
 31
0.0
  0
LINE
  5
F87
330
1F
100
AcDbEntity
  8
0
100
AcDbLine
 10
1916.597482410424
 20
1943.125915557036
 30
0.0
 11
2251.601743263308
 21
1943.126008809667
 31
0.0
  0
LINE
  5
F88
330
1F
100
AcDbEntity
  8
0
100
AcDbLine
 10
1916.607379624306
 20
1938.022128936667
 30
0.0
 11
2251.58689214081
 21
1938.021667181667
 31
0.0
  0
LINE
  5
F89
330
1F
100
AcDbEntity
  8
0
 62
     9
100
AcDbLine
 10
1916.586930451703
 20
1901.044367876604
 30
0.0
 11
2251.586200363022
 21
1900.919756849395
 31
0.0
  0
LINE
  5
F8A
330
1F
100
AcDbEntity
  8
0
 62
     9
100
AcDbLine
 10
1917.148703048006
 20
1876.313690402787
 30
0.0
 11
2252.14870304731
 21
1876.313690402667
 31
0.0
  0
INSERT
  5
F8B
330
1F
100
AcDbEntity
  8
BILD
  6
AUSGEZOGEN
 62
     7
100
AcDbBlockReference
  2
storz1
 10
-4540.064557656799
 20
1698.457393835779
 30
0.0
  0
CIRCLE
  5
F8C
330
1F
100
AcDbEntity
  8
0
100
AcDbCircle
 10
2317.162645370808
 20
1817.782008764168
 30
0.0
 40
48.05788967269473
  0
CIRCLE
  5
F8D
330
1F
100
AcDbEntity
  8
0
100
AcDbCircle
 10
2317.162645370808
 20
1817.782008764168
 30
0.0
 40
75.0578896726729
  0
ENDSEC
  0
SECTION
  2
OBJECTS
  0
DICTIONARY
  5
C
330
0
100
AcDbDictionary
281
     1
  3
ACAD_COLOR
350
D7
  3
ACAD_GROUP
350
D
  3
ACAD_LAYOUT
350
1A
  3
ACAD_MATERIAL
350
D6
  3
ACAD_MLINESTYLE
350
17
  3
ACAD_PLOTSETTINGS
350
19
  3
ACAD_PLOTSTYLENAME
350
E
  3
ACAD_TABLESTYLE
350
133
  3
ACDBHEADERROUNDTRIPXREC
350
103A
  3
AcDbVariableDictionary
350
34
  3
AcmDictionary
350
49
  3
AMG
350
2B
  3
AMGSNAPSETTINGS
350
2C4
  3
DWGPROPS
350
1039
  0
DICTIONARY
  5
C0
330
2
100
AcDbDictionary
280
     1
281
     1
  3
ACAD_LAYERSTATES
360
3F8
  3
AMLAYER_GROUPCOLORS
360
C1
  0
DICTIONARY
  5
83
330
1F
100
AcDbDictionary
280
     1
281
     1
  0
DICTIONARY
  5
D7
102
{ACAD_REACTORS
330
C
102
}
330
C
100
AcDbDictionary
281
     1
  0
DICTIONARY
  5
D
102
{ACAD_REACTORS
330
C
102
}
330
C
100
AcDbDictionary
281
     1
  0
DICTIONARY
  5
1A
102
{ACAD_REACTORS
330
C
102
}
330
C
100
AcDbDictionary
281
     1
  3
Layout1
350
1E
  3
Layout2
350
26
  3
Model
350
22
  0
DICTIONARY
  5
D6
102
{ACAD_REACTORS
330
C
102
}
330
C
100
AcDbDictionary
281
     1
  0
DICTIONARY
  5
17
102
{ACAD_REACTORS
330
C
102
}
330
C
100
AcDbDictionary
281
     1
  3
Standard
350
18
  0
DICTIONARY
  5
19
102
{ACAD_REACTORS
330
C
102
}
330
C
100
AcDbDictionary
281
     1
  0
ACDBDICTIONARYWDFLT
  5
E
102
{ACAD_REACTORS
330
C
102
}
330
C
100
AcDbDictionary
281
     1
  3
Normal
350
F
100
AcDbDictionaryWithDefault
340
F
  0
DICTIONARY
  5
133
102
{ACAD_REACTORS
330
C
102
}
330
C
100
AcDbDictionary
281
     1
  3
Standard
350
134
  0
DICTIONARY
  5
103A
102
{ACAD_REACTORS
330
C
102
}
330
C
100
AcDbDictionary
281
     1
  0
DICTIONARY
  5
34
102
{ACAD_REACTORS
330
C
102
}
330
C
100
AcDbDictionary
281
     1
  3
CTABLESTYLE
350
152
  3
DIMASSOC
350
AD
  3
INDEXCTL
350
35
  3
PROJECTNAME
350
1037
  0
DICTIONARY
  5
49
102
{ACAD_REACTORS
330
C
102
}
330
C
100
AcDbDictionary
281
     1
  3
AcmBOM
350
2CB
  3
AcmStdDictionary
350
4A
  3
AMDTSECTSYM_ARROWCOLOR
350
13D
  0
DICTIONARY
  5
2B
102
{ACAD_REACTORS
330
C
102
}
330
C
100
AcDbDictionary
281
     1
  0
DICTIONARY
  5
2C4
102
{ACAD_REACTORS
330
C
102
}
330
C
100
AcDbDictionary
281
     1
  0
XRECORD
  5
1039
102
{ACAD_REACTORS
330
C
102
}
330
C
100
AcDbXrecord
280
     1
  1
DWGPROPS COOKIE
  2

  3

  4

  6

  7

  8

  9

300
AmdtFileType=84
301
=
302
=
303
=
304
=
305
=
306
=
307
=
308
=
309
=
 40
0.0002186458333333
 41
2454026.560815602
 42
2454026.561034063
  1

 90
        1
  0
DICTIONARY
  5
3F8
102
{ACAD_REACTORS
330
C0
102
}
330
C0
100
AcDbDictionary
281
     1
  0
DICTIONARY
  5
C1
102
{ACAD_REACTORS
330
C0
102
}
330
C0
100
AcDbDictionary
280
     1
281
     1
  0
LAYOUT
  5
1E
102
{ACAD_XDICTIONARY
360
103B
102
}
102
{ACAD_REACTORS
330
1A
102
}
330
1A
100
AcDbPlotSettings
  1

  2
none_device
  4
Letter_(8.50_x_11.00_Inches)
  6

 40
6.349999904632568
 41
6.349999904632568
 42
6.350006103515625
 43
6.350006103515625
 44
215.8999938964844
 45
279.3999938964844
 46
0.0
 47
0.0
 48
0.0
 49
0.0
140
0.0
141
0.0
142
1.0
143
1.0
 70
 15024
 72
     1
 73
     1
 74
     5
  7

 75
    16
147
1.0
148
0.0
149
0.0
100
AcDbLayout
  1
Layout1
 70
     1
 71
     1
 10
0.0
 20
0.0
 11
420.0
 21
297.0
 12
0.0
 22
0.0
 32
0.0
 14
1.000000000000000E+20
 24
1.000000000000000E+20
 34
1.000000000000000E+20
 15
-1.000000000000000E+20
 25
-1.000000000000000E+20
 35
-1.000000000000000E+20
146
0.0
 13
0.0
 23
0.0
 33
0.0
 16
1.0
 26
0.0
 36
0.0
 17
0.0
 27
1.0
 37
0.0
 76
     0
330
1B
  0
LAYOUT
  5
26
102
{ACAD_XDICTIONARY
360
103F
102
}
102
{ACAD_REACTORS
330
1A
102
}
330
1A
100
AcDbPlotSettings
  1

  2
none_device
  4
Letter_(8.50_x_11.00_Inches)
  6

 40
6.349999904632568
 41
6.349999904632568
 42
6.350006103515625
 43
6.350006103515625
 44
215.8999938964844
 45
279.3999938964844
 46
0.0
 47
0.0
 48
0.0
 49
0.0
140
0.0
141
0.0
142
1.0
143
1.0
 70
 15024
 72
     1
 73
     1
 74
     5
  7

 75
    16
147
1.0
148
0.0
149
0.0
100
AcDbLayout
  1
Layout2
 70
     1
 71
     2
 10
0.0
 20
0.0
 11
12.0
 21
9.0
 12
0.0
 22
0.0
 32
0.0
 14
0.0
 24
0.0
 34
0.0
 15
0.0
 25
0.0
 35
0.0
146
0.0
 13
0.0
 23
0.0
 33
0.0
 16
1.0
 26
0.0
 36
0.0
 17
0.0
 27
1.0
 37
0.0
 76
     0
330
23
  0
LAYOUT
  5
22
102
{ACAD_XDICTIONARY
360
103D
102
}
102
{ACAD_REACTORS
330
1A
102
}
330
1A
100
AcDbPlotSettings
  1

  2
none_device
  4
Letter_(8.50_x_11.00_Inches)
  6

 40
6.349999904632568
 41
6.349999904632568
 42
6.350006103515625
 43
6.350006103515625
 44
215.8999938964844
 45
279.3999938964844
 46
0.0
 47
0.0
 48
0.0
 49
0.0
140
0.0
141
0.0
142
1.0
143
1.0
 70
 11952
 72
     1
 73
     1
 74
     0
  7

 75
     0
147
1.0
148
-131.3052631578947
149
0.0
100
AcDbLayout
  1
Model
 70
     1
 71
     0
 10
0.0
 20
0.0
 11
12.0
 21
9.0
 12
0.0
 22
0.0
 32
0.0
 14
0.0
 24
0.0
 34
0.0
 15
0.0
 25
0.0
 35
0.0
146
0.0
 13
0.0
 23
0.0
 33
0.0
 16
1.0
 26
0.0
 36
0.0
 17
0.0
 27
1.0
 37
0.0
 76
     0
330
1F
  0
MLINESTYLE
  5
18
102
{ACAD_REACTORS
330
17
102
}
330
17
100
AcDbMlineStyle
  2
STANDARD
 70
     0
  3

 62
   256
 51
90.0
 52
90.0
 71
     2
 49
0.5
 62
   256
  6
BYLAYER
 49
-0.5
 62
   256
  6
BYLAYER
  0
ACDBPLACEHOLDER
  5
F
102
{ACAD_REACTORS
330
E
102
}
330
E
  0
TABLESTYLE
  5
134
102
{ACAD_REACTORS
330
133
102
}
330
133
100
AcDbTableStyle
  3
Standard
 70
     0
 71
     0
 40
1.5
 41
1.5
280
     0
281
     0
  7
STANDARD
140
4.5
170
     2
 62
     0
 63
     7
283
     0
274
    -2
284
     1
 64
     0
275
    -2
285
     1
 65
     0
276
    -2
286
     1
 66
     0
277
    -2
287
     1
 67
     0
278
    -2
288
     1
 68
     0
279
    -2
289
     1
 69
     0
  7
STANDARD
140
6.0
170
     5
 62
     0
 63
     7
283
     0
274
    -2
284
     1
 64
     0
275
    -2
285
     1
 65
     0
276
    -2
286
     1
 66
     0
277
    -2
287
     1
 67
     0
278
    -2
288
     1
 68
     0
279
    -2
289
     1
 69
     0
  7
STANDARD
140
4.5
170
     5
 62
     0
 63
     7
283
     0
274
    -2
284
     1
 64
     0
275
    -2
285
     1
 65
     0
276
    -2
286
     1
 66
     0
277
    -2
287
     1
 67
     0
278
    -2
288
     1
 68
     0
279
    -2
289
     1
 69
     0
  0
DICTIONARYVAR
  5
152
102
{ACAD_REACTORS
330
34
102
}
330
34
100
DictionaryVariables
280
     0
  1
STANDARD
  0
DICTIONARYVAR
  5
AD
102
{ACAD_REACTORS
330
34
102
}
330
34
100
DictionaryVariables
280
     0
  1
2
  0
DICTIONARYVAR
  5
35
102
{ACAD_REACTORS
330
34
102
}
330
34
100
DictionaryVariables
280
     0
  1
0
  0
DICTIONARYVAR
  5
1037
102
{ACAD_REACTORS
330
34
102
}
330
34
100
DictionaryVariables
280
     0
  1

  0
DICTIONARY
  5
2CB
102
{ACAD_REACTORS
330
49
102
}
330
49
100
AcDbDictionary
281
     1
  0
DICTIONARY
  5
4A
102
{ACAD_REACTORS
330
49
102
}
330
49
100
AcDbDictionary
281
     1
  0
XRECORD
  5
13D
102
{ACAD_REACTORS
330
49
102
}
330
49
100
AcDbXrecord
280
     1
 90
-1023410169
  0
DICTIONARY
  5
103B
330
1E
100
AcDbDictionary
280
     1
281
     1
  3
ACAD_XREC_ROUNDTRIP
360
103C
  0
DICTIONARY
  5
103F
330
26
100
AcDbDictionary
280
     1
281
     1
  3
ACAD_XREC_ROUNDTRIP
360
1040
  0
DICTIONARY
  5
103D
330
22
100
AcDbDictionary
280
     1
281
     1
  3
ACAD_XREC_ROUNDTRIP
360
103E
  0
XRECORD
  5
103C
102
{ACAD_REACTORS
330
103B
102
}
330
103B
100
AcDbXrecord
280
     1
102
SHADEPLOT
 70
     0
102
SHADEPLOTRESLEVEL
 70
     2
102
SHADEPLOTCUSTOMDPI
 70
   300
  0
XRECORD
  5
1040
102
{ACAD_REACTORS
330
103F
102
}
330
103F
100
AcDbXrecord
280
     1
102
SHADEPLOT
 70
     0
102
SHADEPLOTRESLEVEL
 70
     2
102
SHADEPLOTCUSTOMDPI
 70
   300
  0
XRECORD
  5
103E
102
{ACAD_REACTORS
330
103D
102
}
330
103D
100
AcDbXrecord
280
     1
102
SHADEPLOT
 70
     0
102
SHADEPLOTRESLEVEL
 70
     2
102
SHADEPLOTCUSTOMDPI
 70
   300
  0
ENDSEC
  0
EOF
