  0
SECTION
  2
HEADER
  9
$ACADVER
  1
AC1015
  9
$ACADMAINTVER
 70
    20
  9
$DWGCODEPAGE
  3
ANSI_1252
  9
$INSBASE
 10
0.0
 20
0.0
 30
0.0
  9
$EXTMIN
 10
927.786215938033
 20
1252.903033509854
 30
0.0
  9
$EXTMAX
 10
3016.488675070697
 20
4539.076161070844
 30
0.0
  9
$LIMMIN
 10
0.0
 20
0.0
  9
$LIMMAX
 10
420.0
 20
297.0
  9
$ORTHOMODE
 70
     0
  9
$REGENMODE
 70
     1
  9
$FILLMODE
 70
     1
  9
$QTEXTMODE
 70
     0
  9
$MIRRTEXT
 70
     1
  9
$LTSCALE
 40
1.0
  9
$ATTMODE
 70
     1
  9
$TEXTSIZE
 40
2.5
  9
$TRACEWID
 40
1.0
  9
$TEXTSTYLE
  7
STANDARD
  9
$CLAYER
  8
0
  9
$CELTYPE
  6
ByLayer
  9
$CECOLOR
 62
   256
  9
$CELTSCALE
 40
1.0
  9
$DISPSILH
 70
     0
  9
$DIMSCALE
 40
1.0
  9
$DIMASZ
 40
2.5
  9
$DIMEXO
 40
1.0
  9
$DIMDLI
 40
10.0
  9
$DIMRND
 40
0.0
  9
$DIMDLE
 40
0.0
  9
$DIMEXE
 40
1.0
  9
$DIMTP
 40
0.1
  9
$DIMTM
 40
0.1
  9
$DIMTXT
 40
3.5
  9
$DIMCEN
 40
0.0
  9
$DIMTSZ
 40
0.0
  9
$DIMTOL
 70
     0
  9
$DIMLIM
 70
     0
  9
$DIMTIH
 70
     0
  9
$DIMTOH
 70
     0
  9
$DIMSE1
 70
     0
  9
$DIMSE2
 70
     0
  9
$DIMTAD
 70
     1
  9
$DIMZIN
 70
     8
  9
$DIMBLK
  1

  9
$DIMASO
 70
     1
  9
$DIMSHO
 70
     1
  9
$DIMPOST
  1

  9
$DIMAPOST
  1
"
  9
$DIMALT
 70
     0
  9
$DIMALTD
 70
     2
  9
$DIMALTF
 40
0.0393701
  9
$DIMLFAC
 40
1.0
  9
$DIMTOFL
 70
     1
  9
$DIMTVP
 40
0.0
  9
$DIMTIX
 70
     0
  9
$DIMSOXD
 70
     0
  9
$DIMSAH
 70
     0
  9
$DIMBLK1
  1

  9
$DIMBLK2
  1

  9
$DIMSTYLE
  2
AM_DIN
  9
$DIMCLRD
 70
   256
  9
$DIMCLRE
 70
   256
  9
$DIMCLRT
 70
     2
  9
$DIMTFAC
 40
0.71
  9
$DIMGAP
 40
1.5
  9
$DIMJUST
 70
     0
  9
$DIMSD1
 70
     0
  9
$DIMSD2
 70
     0
  9
$DIMTOLJ
 70
     0
  9
$DIMTZIN
 70
     8
  9
$DIMALTZ
 70
     0
  9
$DIMALTTZ
 70
     0
  9
$DIMUPT
 70
     0
  9
$DIMDEC
 70
     2
  9
$DIMTDEC
 70
     3
  9
$DIMALTU
 70
     2
  9
$DIMALTTD
 70
     4
  9
$DIMTXSTY
  7
STANDARD
  9
$DIMAUNIT
 70
     0
  9
$DIMADEC
 70
     0
  9
$DIMALTRND
 40
0.0
  9
$DIMAZIN
 70
     2
  9
$DIMDSEP
 70
    46
  9
$DIMATFIT
 70
     3
  9
$DIMFRAC
 70
     0
  9
$DIMLDRBLK
  1

  9
$DIMLUNIT
 70
     2
  9
$DIMLWD
 70
    -1
  9
$DIMLWE
 70
    -1
  9
$DIMTMOVE
 70
     0
  9
$LUNITS
 70
     2
  9
$LUPREC
 70
     2
  9
$SKETCHINC
 40
1.0
  9
$FILLETRAD
 40
2.5
  9
$AUNITS
 70
     0
  9
$AUPREC
 70
     0
  9
$MENU
  1
.
  9
$ELEVATION
 40
0.0
  9
$PELEVATION
 40
0.0
  9
$THICKNESS
 40
0.0
  9
$LIMCHECK
 70
     0
  9
$CHAMFERA
 40
2.5
  9
$CHAMFERB
 40
2.5
  9
$CHAMFERC
 40
20.0
  9
$CHAMFERD
 40
0.0
  9
$SKPOLY
 70
     0
  9
$TDCREATE
 40
2454026.559888415
  9
$TDUCREATE
 40
2454026.476555081
  9
$TDUPDATE
 40
2454026.560171794
  9
$TDUUPDATE
 40
2454026.476838461
  9
$TDINDWG
 40
0.0002837500
  9
$TDUSRTIMER
 40
0.0002837500
  9
$USRTIMER
 70
     1
  9
$ANGBASE
 50
0.0
  9
$ANGDIR
 70
     0
  9
$PDMODE
 70
     0
  9
$PDSIZE
 40
0.0
  9
$PLINEWID
 40
0.0
  9
$SPLFRAME
 70
     0
  9
$SPLINETYPE
 70
     6
  9
$SPLINESEGS
 70
     8
  9
$HANDSEED
  5
D4F
  9
$SURFTAB1
 70
     6
  9
$SURFTAB2
 70
     6
  9
$SURFTYPE
 70
     6
  9
$SURFU
 70
     6
  9
$SURFV
 70
     6
  9
$UCSBASE
  2

  9
$UCSNAME
  2

  9
$UCSORG
 10
0.0
 20
0.0
 30
0.0
  9
$UCSXDIR
 10
1.0
 20
0.0
 30
0.0
  9
$UCSYDIR
 10
0.0
 20
1.0
 30
0.0
  9
$UCSORTHOREF
  2

  9
$UCSORTHOVIEW
 70
     0
  9
$UCSORGTOP
 10
0.0
 20
0.0
 30
0.0
  9
$UCSORGBOTTOM
 10
0.0
 20
0.0
 30
0.0
  9
$UCSORGLEFT
 10
0.0
 20
0.0
 30
0.0
  9
$UCSORGRIGHT
 10
0.0
 20
0.0
 30
0.0
  9
$UCSORGFRONT
 10
0.0
 20
0.0
 30
0.0
  9
$UCSORGBACK
 10
0.0
 20
0.0
 30
0.0
  9
$PUCSBASE
  2

  9
$PUCSNAME
  2

  9
$PUCSORG
 10
0.0
 20
0.0
 30
0.0
  9
$PUCSXDIR
 10
1.0
 20
0.0
 30
0.0
  9
$PUCSYDIR
 10
0.0
 20
1.0
 30
0.0
  9
$PUCSORTHOREF
  2

  9
$PUCSORTHOVIEW
 70
     0
  9
$PUCSORGTOP
 10
0.0
 20
0.0
 30
0.0
  9
$PUCSORGBOTTOM
 10
0.0
 20
0.0
 30
0.0
  9
$PUCSORGLEFT
 10
0.0
 20
0.0
 30
0.0
  9
$PUCSORGRIGHT
 10
0.0
 20
0.0
 30
0.0
  9
$PUCSORGFRONT
 10
0.0
 20
0.0
 30
0.0
  9
$PUCSORGBACK
 10
0.0
 20
0.0
 30
0.0
  9
$USERI1
 70
     0
  9
$USERI2
 70
     0
  9
$USERI3
 70
     0
  9
$USERI4
 70
     0
  9
$USERI5
 70
     0
  9
$USERR1
 40
0.0
  9
$USERR2
 40
0.0
  9
$USERR3
 40
0.0
  9
$USERR4
 40
0.0
  9
$USERR5
 40
0.0
  9
$WORLDVIEW
 70
     1
  9
$SHADEDGE
 70
     3
  9
$SHADEDIF
 70
    70
  9
$TILEMODE
 70
     1
  9
$MAXACTVP
 70
    64
  9
$PINSBASE
 10
0.0
 20
0.0
 30
0.0
  9
$PLIMCHECK
 70
     0
  9
$PEXTMIN
 10
1.000000000000000E+20
 20
1.000000000000000E+20
 30
1.000000000000000E+20
  9
$PEXTMAX
 10
-1.000000000000000E+20
 20
-1.000000000000000E+20
 30
-1.000000000000000E+20
  9
$PLIMMIN
 10
0.0
 20
0.0
  9
$PLIMMAX
 10
420.0
 20
297.0
  9
$UNITMODE
 70
     0
  9
$VISRETAIN
 70
     1
  9
$PLINEGEN
 70
     0
  9
$PSLTSCALE
 70
     1
  9
$TREEDEPTH
 70
  3020
  9
$CMLSTYLE
  2
Standard
  9
$CMLJUST
 70
     0
  9
$CMLSCALE
 40
20.0
  9
$PROXYGRAPHICS
 70
     1
  9
$MEASUREMENT
 70
     1
  9
$CELWEIGHT
370
    -1
  9
$ENDCAPS
280
     0
  9
$JOINSTYLE
280
     0
  9
$LWDISPLAY
290
     0
  9
$INSUNITS
 70
     4
  9
$HYPERLINKBASE
  1

  9
$STYLESHEET
  1

  9
$XEDIT
290
     1
  9
$CEPSNTYPE
380
     0
  9
$PSTYLEMODE
290
     1
  9
$FINGERPRINTGUID
  2
{675C2963-D823-497A-8E8C-21CAF80EBBD5}
  9
$VERSIONGUID
  2
{6A1F3E29-AB08-41F6-8F26-69654DC3F976}
  9
$EXTNAMES
290
     1
  9
$PSVPSCALE
 40
0.0
  9
$OLESTARTUP
290
     0
  0
ENDSEC
  0
SECTION
  2
CLASSES
  0
CLASS
  1
ACDBDICTIONARYWDFLT
  2
AcDbDictionaryWithDefault
  3
ObjectDBX Classes
 90
        0
280
     0
281
     0
  0
CLASS
  1
ACDBPLACEHOLDER
  2
AcDbPlaceHolder
  3
ObjectDBX Classes
 90
        0
280
     0
281
     0
  0
CLASS
  1
LAYOUT
  2
AcDbLayout
  3
ObjectDBX Classes
 90
        0
280
     0
281
     0
  0
CLASS
  1
AMGSETTINGSOBJ
  2
AmgSettingsObj
  3
"AcadM|Product Description: AutoCAD Mechanical 2000|Company: Autodesk"
 90
        0
280
     0
281
     0
  0
CLASS
  1
ACME_DOCUMENT
  2
AcMeDbDoc
  3
AcMeServices
 90
        0
280
     0
281
     0
  0
CLASS
  1
ACMESCOPE
  2
AcMeScope
  3
AcMeServices
 90
        0
280
     0
281
     0
  0
CLASS
  1
ACMECOMMANDHISTORY
  2
AcMeCommandHistory
  3
AcMeServices
 90
        0
280
     0
281
     0
  0
CLASS
  1
DICTIONARYVAR
  2
AcDbDictionaryVar
  3
ObjectDBX Classes
 90
        0
280
     0
281
     0
  0
CLASS
  1
ACIMSYSVARMAN
  2
AcImSysVarManager
  3
AcMeServices
 90
        0
280
     0
281
     0
  0
CLASS
  1
ACIMREALSYSVAR
  2
AcImRealSysVar
  3
AcMeServices
 90
        0
280
     0
281
     0
  0
CLASS
  1
ACIMINTSYSVAR
  2
AcImIntSysVar
  3
AcMeServices
 90
        0
280
     0
281
     0
  0
CLASS
  1
ACMEDRAWINGMAN
  2
AcMeDrawingMan
  3
AcMeServices
 90
        0
280
     0
281
     0
  0
CLASS
  1
ACMEVIEW
  2
AcMeView
  3
AcMeServices
 90
        0
280
     0
281
     0
  0
CLASS
  1
ACDBENTITYCACHE
  2
AcMeEntityCache
  3
AcMeServices
 90
        0
280
     0
281
     0
  0
CLASS
  1
GSMANAGER
  2
AcMeGSManager
  3
AcMeServices
 90
        0
280
     0
281
     0
  0
CLASS
  1
AMDTINTERNALREACTOR
  2
AmdtInternalReactor
  3
AcMeServices
 90
        0
280
     0
281
     0
  0
CLASS
  1
ACMESTATEMGR
  2
AcMeStateMgr
  3
AcMeServices
 90
        0
280
     0
281
     0
  0
CLASS
  1
ACGREFMASTER
  2
AcGrefMaster
  3
AcAttribServices
 90
        0
280
     0
281
     0
  0
CLASS
  1
ACME_DATABASE
  2
AcMeDbDatabase
  3
AcMeServices
 90
        0
280
     0
281
     0
  0
CLASS
  1
ACRFINSADJUSTERMGR
  2
AcRfInsAdjusterMgr
  3
AcMeServices
 90
        0
280
     0
281
     0
  0
CLASS
  1
ACGREFACADMASTER
  2
AcGrefacadMaster
  3
AcGrefServices
 90
        0
280
     0
281
     0
  0
CLASS
  1
AMIMASTER
  2
AmiMaster
  3
AmiServices
 90
        0
280
     0
281
     0
  0
CLASS
  1
ACIMSTRSYSVAR
  2
AcImStrSysVar
  3
AcMeServices
 90
        0
280
     0
281
     0
  0
CLASS
  1
ACMSTANDARDDIN
  2
AcmStandardDIN
  3
"Amdt_StdImp|Product Description: AutoCAD Mechanical 2004 DX|Company: Autodesk"
 90
        0
280
     0
281
     0
  0
CLASS
  1
AMGOBJPROPCFG
  2
AmgObjPropCfg
  3
"AmgLay|Product Description: AutoCAD Mechanical 2000|Company: Autodesk"
 90
        1
280
     0
281
     0
  0
CLASS
  1
AMDTEDGESTANDARDDIN
  2
AmdtEdgeStdDIN
  3
"Amdt_StdImp|Product Description: AutoCAD Mechanical 2004 DX|Company: Autodesk"
 90
        0
280
     0
281
     0
  0
CLASS
  1
ACMSURFSTANDARDDIN
  2
AcmSurfTextStdDIN
  3
"Amdt_StdImp|Product Description: AutoCAD Mechanical 2004 DX|Company: Autodesk"
 90
        0
280
     0
281
     0
  0
CLASS
  1
ACMFCFSTANDARDDIN
  2
AcmFCFStdDIN
  3
"Amdt_StdImp|Product Description: AutoCAD Mechanical 2004 DX|Company: Autodesk"
 90
        0
280
     0
281
     0
  0
CLASS
  1
ACMWELDSTANDARDDIN
  2
AcmWeldingStdDIN
  3
"Amdt_StdImp|Product Description: AutoCAD Mechanical 2004 DX|Company: Autodesk"
 90
        0
280
     0
281
     0
  0
CLASS
  1
ACMIDSTANDARDDIN
  2
AcmIdStdDIN
  3
"Amdt_StdImp|Product Description: AutoCAD Mechanical 2004 DX|Company: Autodesk"
 90
        0
280
     0
281
     0
  0
CLASS
  1
ACMDATUMSTANDARDDIN
  2
AcmDatumStdDIN
  3
"Amdt_StdImp|Product Description: AutoCAD Mechanical 2004 DX|Company: Autodesk"
 90
        0
280
     0
281
     0
  0
CLASS
  1
ACMBOMSTANDARDDIN
  2
AcmBOMStdDIN
  3
"Amdt_StdImp|Product Description: AutoCAD Mechanical 2004 DX|Company: Autodesk"
 90
        0
280
     0
281
     0
  0
CLASS
  1
ACMDETAILSTANDARDDIN
  2
AmdtDetailSymStdDIN
  3
"Amdt_StdImp|Product Description: AutoCAD Mechanical 2004 DX|Company: Autodesk"
 90
        0
280
     0
281
     0
  0
CLASS
  1
ACMSECTIONSTANDARDDIN
  2
AmdtSectionSymStdDIN
  3
"Amdt_StdImp|Product Description: AutoCAD Mechanical 2004 DX|Company: Autodesk"
 90
        0
280
     0
281
     0
  0
CLASS
  1
ACMCENTERLINESTANDARDDIN
  2
AmdtCenterLineStdDIN
  3
"Amdt_StdImp|Product Description: AutoCAD Mechanical 2004 DX|Company: Autodesk"
 90
        0
280
     0
281
     0
  0
CLASS
  1
ACMTHREADLINESTANDARDDIN
  2
AmdtThreadLineStdDIN
  3
"Amdt_StdImp|Product Description: AutoCAD Mechanical 2004 DX|Company: Autodesk"
 90
        0
280
     0
281
     0
  0
CLASS
  1
ACAMGLAYSTD
  2
AcAmgLayStd
  3
"AcAmgLayStd|Product Description: AutoCAD Mechanical 2000|Company: Autodesk"
 90
        0
280
     0
281
     0
  0
CLASS
  1
ACAMGDIMSTD
  2
AcAmgDimStd
  3
"AcAmgDimStd|Product Description: AutoCAD Mechanical 2000|Company: Autodesk"
 90
        0
280
     0
281
     0
  0
CLASS
  1
ACAMGTITLESTD
  2
AcAmgTitleStd
  3
"TITLEAPP"
 90
        0
280
     0
281
     0
  0
CLASS
  1
ACMDATADICTIONARY
  2
AcmDataDictionary
  3
"AcmSymBB|Product Description: AutoCAD Mechanical 2004 DX|Company: Autodesk"
 90
        0
280
     0
281
     0
  0
CLASS
  1
ACMDATAENTRYBLOCK
  2
AcmDataEntryBlock
  3
"AcmSymBB|Product Description: AutoCAD Mechanical 2004 DX|Company: Autodesk"
 90
        0
280
     0
281
     0
  0
CLASS
  1
LAYER_INDEX
  2
AcDbLayerIndex
  3
ObjectDBX Classes
 90
    32768
280
     0
281
     0
  0
CLASS
  1
IDBUFFER
  2
AcDbIdBuffer
  3
ObjectDBX Classes
 90
    32768
280
     0
281
     0
  0
CLASS
  1
ACMNOTESTANDARDDIN
  2
AmdtNoteStdDIN
  3
"Amdt_StdImp|Product Description: AutoCAD Mechanical 2004 DX|Company: Autodesk"
 90
        0
280
     0
281
     0
  0
CLASS
  1
ACAMGHOLECHARTSTDDIN
  2
AcAmgHoleChartStdDIN
  3
ACMSYMBB_MODULE_NAME
 90
        0
280
     0
281
     0
  0
CLASS
  1
AM_DRAWING_MGR
  2
AcDmDwgMgr
  3
AcMechDwgViewMgmt
 90
        0
280
     0
281
     0
  0
CLASS
  1
AM_DWG_DOCUMENT
  2
AcDmDwgDocument
  3
AcMechDwgViewMgmt
 90
        0
280
     0
281
     0
  0
CLASS
  1
AM_DWG_SHEET
  2
AcDmSheet
  3
AcMechDwgViewMgmt
 90
        0
280
     0
281
     0
  0
CLASS
  1
AM_VIEWDIMPARMAP
  2
AcDmViewDimParMap
  3
AcMechDwgViewMgmt
 90
        0
280
     0
281
     0
  0
CLASS
  1
AM_DWGMGR_NAME
  2
AcDmDwgMgrName
  3
AcMechDwgViewMgmt
 90
        0
280
     0
281
     0
  0
CLASS
  1
AMDTMENUSTATEMGR
  2
AmdtMenuStateMgr
  3
McadcomServices
 90
        0
280
     0
281
     0
  0
CLASS
  1
AMDTMCOMMENUSTATE
  2
AmdtMcomMenuState
  3
McadcomServices
 90
        0
280
     0
281
     0
  0
CLASS
  1
MAPIAMMOUDLE
  2
MApiAmModule
  3
MApiAmServices
 90
        0
280
     0
281
     0
  0
CLASS
  1
AMDTADMENUSTATE
  2
AmdtAdMenuState
  3
DesignerServices
 90
        0
280
     0
281
     0
  0
CLASS
  1
ADAPPL
  2
AcAdAppl
  3
DesignerServices
 90
        0
280
     0
281
     0
  0
CLASS
  1
DEPMGR
  2
AcAdDepMgr
  3
DesignerServices
 90
        0
280
     0
281
     0
  0
CLASS
  1
PARAMMGR
  2
AcAdParamMgr
  3
DesignerServices
 90
        0
280
     0
281
     0
  0
CLASS
  1
PARAMSCOPE
  2
AcAdParamScope
  3
DesignerServices
 90
        0
280
     0
281
     0
  0
CLASS
  1
NAMEDAPPL
  2
AcAdNamedAppl
  3
DesignerServices
 90
        0
280
     0
281
     0
  0
CLASS
  1
AMDTDMMENUSTATE
  2
AmdtDmMenuState
  3
AcMechDwgViewMgmt
 90
        0
280
     0
281
     0
  0
CLASS
  1
AMDTAMMENUSTATE
  2
AmdtAmMenuState
  3
DesignerAssemblies
 90
        0
280
     0
281
     0
  0
CLASS
  1
ACAMPROJECT
  2
AcAmProject
  3
DesignerAssemblies
 90
        0
280
     0
281
     0
  0
CLASS
  1
ACAMGRCOMPDEF
  2
AcAmGrCompDef
  3
DesignerAssemblies
 90
        0
280
     0
281
     0
  0
CLASS
  1
ACCMCONTEXT
  2
AcCmContext
  3
DesignerAssemblies
 90
        0
280
     0
281
     0
  0
CLASS
  1
ACAMCOMPDEF
  2
AcAmCompDef
  3
DesignerAssemblies
 90
        0
280
     0
281
     0
  0
CLASS
  1
ACAMCOMPDEFMGR
  2
AcAmCompDefMgr
  3
DesignerAssemblies
 90
        0
280
     0
281
     0
  0
CLASS
  1
AMCONTEXTMGR
  2
AcAmContextMgr
  3
DesignerAssemblies
 90
        0
280
     0
281
     0
  0
CLASS
  1
ACAMCONTEXTMODELER
  2
AcAmContextModeler
  3
DesignerAssemblies
 90
        0
280
     0
281
     0
  0
CLASS
  1
CATALOGSTATE
  2
AcAmCatalogState
  3
DesignerAssemblies
 90
        0
280
     0
281
     0
  0
CLASS
  1
ACAMGRCOMPDEFSET
  2
AcAmGrCompDefSet
  3
DesignerAssemblies
 90
        0
280
     0
281
     0
  0
CLASS
  1
AMDTBROWSERDBTAB
  2
AmdtBrowserDbTab
  3
McadcomServices
 90
        0
280
     0
281
     0
  0
CLASS
  1
CBROWSERAPPOBJECT
  2
CBrowserAppObject
  3
McadcomServices
 90
        0
280
     0
281
     0
  0
CLASS
  1
DM_PLACEHOLDER
  2
AcDmSelsetPlaceholder
  3
AcMechDwgViewMgmt
 90
        0
280
     0
281
     0
  0
CLASS
  1
TABLESTYLE
  2
AcDbTableStyle
  3
ObjectDBX Classes
 90
     2047
280
     0
281
     0
  0
CLASS
  1
VAACXREFPANELOBJECT
  2
VaAcXREFPanelObject
  3
VAAC_ADDIN
 90
    32768
280
     0
281
     0
  0
CLASS
  1
VAACIMAGEINVENTORY
  2
VaAcImageInventory
  3
VAAC_ADDIN
 90
    32768
280
     0
281
     0
  0
CLASS
  1
AMDTNOTETEMPLATEDB
  2
AmdtNoteTemplateDB
  3
AMDT_STDIMP_MODULE_NAME
 90
        0
280
     0
281
     0
  0
CLASS
  1
ACAMGFILTERDAT
  2
AcAmgFilterDat
  3
"AcadM|Product Description: AutoCAD Mechanical 2000|Company: Autodesk"
 90
        0
280
     0
281
     0
  0
CLASS
  1
ACMBOM
  2
AcmBom
  3
"AcmSymBB|Product Description: AutoCAD Mechanical 2004 DX|Company: Autodesk"
 90
    32768
280
     0
281
     0
  0
CLASS
  1
AMDTFORMULAUPDATEDISPATCHER
  2
AmdtFormulaUpdateDispatcher
  3
AcMeServices
 90
    32768
280
     0
281
     0
  0
CLASS
  1
SORTENTSTABLE
  2
AcDbSortentsTable
  3
ObjectDBX Classes
 90
        0
280
     0
281
     0
  0
CLASS
  1
ACRFATTGENMGR
  2
AcRfAttGeneralMgr
  3
AcAttribServices
 90
        0
280
     0
281
     0
  0
ENDSEC
  0
SECTION
  2
TABLES
  0
TABLE
  2
VPORT
  5
8
330
0
100
AcDbSymbolTable
 70
     3
  0
VPORT
  5
D46
330
8
100
AcDbSymbolTableRecord
100
AcDbViewportTableRecord
  2
*Active
 70
     0
 10
0.0
 20
0.0
 11
1.0
 21
1.0
 12
1972.137445504365
 22
2895.98959729035
 13
0.0
 23
0.0
 14
2.5
 24
2.5
 15
10.0
 25
10.0
 16
0.0
 26
0.0
 36
1.0
 17
0.0
 27
0.0
 37
0.0
 40
3308.377000044509
 41
1.378804960541149
 42
50.0
 43
0.0
 44
0.0
 50
0.0
 51
0.0
 71
     0
 72
   100
 73
     1
 74
     3
 75
     0
 76
     0
 77
     0
 78
     0
281
     0
 65
     1
110
0.0
120
0.0
130
0.0
111
1.0
121
0.0
131
0.0
112
0.0
122
1.0
132
0.0
 79
     0
146
0.0
  0
ENDTAB
  0
TABLE
  2
LTYPE
  5
5
330
0
100
AcDbSymbolTable
 70
    22
  0
LTYPE
  5
14
330
5
100
AcDbSymbolTableRecord
100
AcDbLinetypeTableRecord
  2
ByBlock
 70
     0
  3

 72
    65
 73
     0
 40
0.0
  0
LTYPE
  5
15
330
5
100
AcDbSymbolTableRecord
100
AcDbLinetypeTableRecord
  2
ByLayer
 70
     0
  3

 72
    65
 73
     0
 40
0.0
  0
LTYPE
  5
16
330
5
100
AcDbSymbolTableRecord
100
AcDbLinetypeTableRecord
  2
Continuous
 70
     0
  3
Solid line
 72
    65
 73
     0
 40
0.0
  0
LTYPE
  5
50
330
5
100
AcDbSymbolTableRecord
100
AcDbLinetypeTableRecord
  2
Amconstr
 70
     0
  3
_______________________
 72
    65
 73
     2
 40
9999.0
 49
9999.0
 74
     0
 49
0.0
 74
     0
  0
LTYPE
  5
55
330
5
100
AcDbSymbolTableRecord
100
AcDbLinetypeTableRecord
  2
Amzigzag
 70
     0
  3
/\/-/\/-/\/-/\/-/\/-/\/
 72
    65
 73
     2
 40
11.0001
 49
0.0001
 74
     4
 75
   136
340
285
 46
0.04
 50
0.0
 44
0.0
 45
0.0
 49
-11.0
 74
     0
  0
LTYPE
  5
56
330
5
100
AcDbSymbolTableRecord
100
AcDbLinetypeTableRecord
  2
AM_DIN_F_W050
 70
     0
  3
__ __ __ __ __ __ __ __ __ __ __ __ __ __ __
 72
    65
 73
     2
 40
6.25
 49
4.75
 74
     0
 49
-1.5
 74
     0
  0
LTYPE
  5
57
330
5
100
AcDbSymbolTableRecord
100
AcDbLinetypeTableRecord
  2
AM_DIN_G_W050
 70
     0
  3
____ . ____ . ____ . ____ . ____ . ____ . ____
 72
    65
 73
     4
 40
13.75
 49
9.75
 74
     0
 49
-1.5
 74
     0
 49
1.0
 74
     0
 49
-1.5
 74
     0
  0
LTYPE
  5
58
330
5
100
AcDbSymbolTableRecord
100
AcDbLinetypeTableRecord
  2
AM_DIN_K_W050
 70
     0
  3
_____ . . _____ . . _____ . . ____ .. ____
 72
    65
 73
     6
 40
16.25
 49
9.75
 74
     0
 49
-1.5
 74
     0
 49
1.0
 74
     0
 49
-1.5
 74
     0
 49
1.0
 74
     0
 49
-1.5
 74
     0
  0
LTYPE
  5
59
330
5
100
AcDbSymbolTableRecord
100
AcDbLinetypeTableRecord
  2
AM_DIN_G_W050x2
 70
     0
  3
__ . __ . __ . __ . __ . __
 72
    65
 73
     4
 40
6.875
 49
4.75
 74
     0
 49
-0.875
 74
     0
 49
0.375
 74
     0
 49
-0.875
 74
     0
  0
LTYPE
  5
5A
330
5
100
AcDbSymbolTableRecord
100
AcDbLinetypeTableRecord
  2
AM_DIN_F_W050x2
 70
     0
  3
 _ _ _ _ _ _ _ _ _ _ _ _
 72
    65
 73
     2
 40
3.125
 49
2.25
 74
     0
 49
-0.875
 74
     0
  0
LTYPE
  5
68
330
5
100
AcDbSymbolTableRecord
100
AcDbLinetypeTableRecord
  2
ACDINWELD
 70
     0
  3
_ _ _ _ _
 72
    65
 73
     2
 40
2.0
 49
2.0
 74
     0
 49
-1.0
 74
     0
  0
LTYPE
  5
69
330
5
100
AcDbSymbolTableRecord
100
AcDbLinetypeTableRecord
  2
ACDINTGB
 70
     0
  3
__ . . __ . .
 72
    65
 73
     6
 40
9.0
 49
4.0
 74
     0
 49
-1.0
 74
     0
 49
1.0
 74
     0
 49
-1.0
 74
     0
 49
1.0
 74
     0
 49
-1.0
 74
     0
  0
LTYPE
  5
6A
330
5
100
AcDbSymbolTableRecord
100
AcDbLinetypeTableRecord
  2
ACDINTGL
 70
     0
  3
_ _ _ _ _
 72
    65
 73
     2
 40
3.0
 49
2.0
 74
     0
 49
-1.0
 74
     0
  0
LTYPE
  5
6C
330
5
100
AcDbSymbolTableRecord
100
AcDbLinetypeTableRecord
  2
CENTER
 70
     0
  3
__ . __
 72
    65
 73
     4
 40
7.0
 49
4.0
 74
     0
 49
-1.0
 74
     0
 49
1.0
 74
     0
 49
-1.0
 74
     0
  0
LTYPE
  5
F2
330
5
100
AcDbSymbolTableRecord
100
AcDbLinetypeTableRecord
  2
HIDDEN
 70
     0
  3
Hidden __ __ __ __ __ __ __ __ __ __ __ __ __ _
 72
    65
 73
     2
 40
9.524999999999998
 49
6.349999999999999
 74
     0
 49
-3.174999999999999
 74
     0
  0
LTYPE
  5
F3
330
5
100
AcDbSymbolTableRecord
100
AcDbLinetypeTableRecord
  2
PHANTOM2
 70
     0
  3
Phantom (.5x) ___ _ _ ___ _ _ ___ _ _ ___ _ _
 72
    65
 73
     6
 40
31.75
 49
15.875
 74
     0
 49
-3.174999999999999
 74
     0
 49
3.174999999999999
 74
     0
 49
-3.174999999999999
 74
     0
 49
3.174999999999999
 74
     0
 49
-3.174999999999999
 74
     0
  0
LTYPE
  5
3E2
330
5
100
AcDbSymbolTableRecord
100
AcDbLinetypeTableRecord
  2
VERDECKT
 70
     0
  3
Verdeckt __ __ __ __ __ __ __ _
 72
    65
 73
     2
 40
9.525
 49
6.349999999999999
 74
     0
 49
-3.174999999999999
 74
     0
  0
LTYPE
  5
3E3
330
5
100
AcDbSymbolTableRecord
100
AcDbLinetypeTableRecord
  2
AUSGEZOGEN
 70
     0
  3
_______________________________________________
 72
    65
 73
     0
 40
0.0
  0
ENDTAB
  0
TABLE
  2
LAYER
  5
2
102
{ACAD_XDICTIONARY
360
C0
102
}
330
0
100
AcDbSymbolTable
 70
    13
  0
LAYER
  5
10
330
2
100
AcDbSymbolTableRecord
100
AcDbLayerTableRecord
  2
0
 70
     0
 62
     7
  6
Continuous
370
    -3
390
F
  0
LAYER
  5
3E4
330
2
100
AcDbSymbolTableRecord
100
AcDbLayerTableRecord
  2
AM_7
 70
     0
 62
     4
  6
AM_DIN_G_W050
370
    25
390
F
  0
LAYER
  5
3E5
330
2
100
AcDbSymbolTableRecord
100
AcDbLayerTableRecord
  2
DEFPOINTS
 70
     0
 62
     7
  6
Continuous
290
     0
370
    -3
390
F
  0
LAYER
  5
3E6
330
2
100
AcDbSymbolTableRecord
100
AcDbLayerTableRecord
  2
BILD
 70
     0
 62
     7
  6
Continuous
370
    -3
390
F
  0
LAYER
  5
3E7
330
2
100
AcDbSymbolTableRecord
100
AcDbLayerTableRecord
  2
TEXT
 70
     0
 62
     7
  6
Continuous
370
    -3
390
F
  0
LAYER
  5
3E8
330
2
100
AcDbSymbolTableRecord
100
AcDbLayerTableRecord
  2
406
 70
     0
 62
     7
  6
Continuous
370
    -3
390
F
  0
LAYER
  5
3E9
330
2
100
AcDbSymbolTableRecord
100
AcDbLayerTableRecord
  2
AM_5
 70
     0
 62
     3
  6
Continuous
370
    25
390
F
  0
LAYER
  5
3EA
330
2
100
AcDbSymbolTableRecord
100
AcDbLayerTableRecord
  2
AM_4
 70
     0
 62
     3
  6
Continuous
370
    25
390
F
  0
LAYER
  5
3EB
330
2
100
AcDbSymbolTableRecord
100
AcDbLayerTableRecord
  2
AM_6
 70
     0
 62
     2
  6
Continuous
370
    35
390
F
  0
LAYER
  5
3EC
330
2
100
AcDbSymbolTableRecord
100
AcDbLayerTableRecord
  2
AM_8
 70
     0
 62
     1
  6
Continuous
370
    25
390
F
  0
LAYER
  5
3ED
330
2
100
AcDbSymbolTableRecord
100
AcDbLayerTableRecord
  2
DEFAULT_1
 70
     0
 62
     7
  6
CENTER
370
    -3
390
F
  0
LAYER
  5
3EE
330
2
100
AcDbSymbolTableRecord
100
AcDbLayerTableRecord
  2
4
 70
     0
 62
     3
  6
Continuous
370
    -3
390
F
  0
ENDTAB
  0
TABLE
  2
STYLE
  5
3
330
0
100
AcDbSymbolTable
 70
     8
  0
STYLE
  5
11
330
3
100
AcDbSymbolTableRecord
100
AcDbTextStyleTableRecord
  2
STANDARD
 70
     0
 40
0.0
 41
1.0
 50
0.0
 71
     0
 42
2.5
  3
ISOCP.SHX
  4
bigfont.shx
  0
STYLE
  5
5B
330
3
100
AcDbSymbolTableRecord
100
AcDbTextStyleTableRecord
  2
ACDINTS
 70
     0
 40
1.0
 41
1.0
 50
0.0
 71
     0
 42
2.5
  3
isocp.shx
  4
bigfont.shx
  0
STYLE
  5
67
330
3
100
AcDbSymbolTableRecord
100
AcDbTextStyleTableRecord
  2
ACDINGDT
 70
     0
 40
0.0
 41
1.0
 50
0.0
 71
     0
 42
2.5
  3
AMGDT
  4
bigfont.shx
  0
STYLE
  5
285
330
3
100
AcDbSymbolTableRecord
100
AcDbTextStyleTableRecord
  2

 70
     1
 40
0.0
 41
1.0
 50
0.0
 71
     0
 42
2.5
  3
genltshp.shx
  4

  0
ENDTAB
  0
TABLE
  2
VIEW
  5
6
330
0
100
AcDbSymbolTable
 70
     0
  0
ENDTAB
  0
TABLE
  2
UCS
  5
7
330
0
100
AcDbSymbolTable
 70
     0
  0
ENDTAB
  0
TABLE
  2
APPID
  5
9
330
0
100
AcDbSymbolTable
 70
    16
  0
APPID
  5
12
330
9
100
AcDbSymbolTableRecord
100
AcDbRegAppTableRecord
  2
ACAD
 70
     0
  0
APPID
  5
30
330
9
100
AcDbSymbolTableRecord
100
AcDbRegAppTableRecord
  2
MCAD_NO_VIS
 70
     0
  0
APPID
  5
31
330
9
100
AcDbSymbolTableRecord
100
AcDbRegAppTableRecord
  2
ACAD_TEMP_GRAPHIC
 70
     0
  0
APPID
  5
44
330
9
100
AcDbSymbolTableRecord
100
AcDbRegAppTableRecord
  2
ACATTRIBSERVICES
 70
     0
  0
APPID
  5
108
330
9
100
AcDbSymbolTableRecord
100
AcDbRegAppTableRecord
  2
AD_DRAW
 70
     0
  0
APPID
  5
126
330
9
100
AcDbSymbolTableRecord
100
AcDbRegAppTableRecord
  2
DESIGNERASSEMBLIES
 70
     0
  0
APPID
  5
12A
330
9
100
AcDbSymbolTableRecord
100
AcDbRegAppTableRecord
  2
ACADM_DIM_EDIT
 70
     0
  0
APPID
  5
12B
330
9
100
AcDbSymbolTableRecord
100
AcDbRegAppTableRecord
  2
AMDT_DM_ADJ
 70
     0
  0
APPID
  5
1A4
330
9
100
AcDbSymbolTableRecord
100
AcDbRegAppTableRecord
  2
ACAD_DSTYLE_DIMARC_LENGTH_SYMBOL
 70
     0
  0
APPID
  5
1A5
330
9
100
AcDbSymbolTableRecord
100
AcDbRegAppTableRecord
  2
ACAD_DSTYLE_DIMJOGGED_JOGANGLE_SYMBOL
 70
     0
  0
APPID
  5
22C
330
9
100
AcDbSymbolTableRecord
100
AcDbRegAppTableRecord
  2
AcAecLayerStandard
 70
     0
  0
APPID
  5
3F3
330
9
100
AcDbSymbolTableRecord
100
AcDbRegAppTableRecord
  2
GENIUS_GENODEF_13
 70
     0
  0
APPID
  5
3F4
330
9
100
AcDbSymbolTableRecord
100
AcDbRegAppTableRecord
  2
GENIUS_GENOBJ-N-CEN_13
 70
     0
  0
APPID
  5
3F5
330
9
100
AcDbSymbolTableRecord
100
AcDbRegAppTableRecord
  2
ACAD_PSEXT
 70
     0
  0
APPID
  5
3F6
330
9
100
AcDbSymbolTableRecord
100
AcDbRegAppTableRecord
  2
GENIUS_GENCEN_19
 70
     0
  0
APPID
  5
3F7
330
9
100
AcDbSymbolTableRecord
100
AcDbRegAppTableRecord
  2
GENIUS_GENOBJ-N-FIL_13
 70
     0
  0
ENDTAB
  0
TABLE
  2
DIMSTYLE
  5
A
330
0
100
AcDbSymbolTable
 70
    12
100
AcDbDimStyleTable
 71
     1
340
6F
  0
DIMSTYLE
105
6F
102
{ACAD_REACTORS
330
4B
102
}
330
A
100
AcDbSymbolTableRecord
100
AcDbDimStyleTableRecord
  2
AM_DIN
 70
     0
  4
"
 41
2.5
 42
1.0
 43
10.0
 44
1.0
 47
0.1
 48
0.1
 73
     0
 74
     0
 77
     1
 78
     8
 79
     2
140
3.5
141
0.0
143
0.0393701
146
0.71
147
1.5
172
     1
176
   256
177
   256
178
     2
271
     2
272
     3
274
     4
283
     0
284
     8
340
11
371
    -1
372
    -1
1001
ACAD_DSTYLE_DIMARC_LENGTH_SYMBOL
1070
   379
1070
     0
1001
ACAD_DSTYLE_DIMJOGGED_JOGANGLE_SYMBOL
1070
   384
1040
1.570796326794896
  0
DIMSTYLE
105
70
330
A
100
AcDbSymbolTableRecord
100
AcDbDimStyleTableRecord
  2
AM_DIN$3
 70
     0
  4
"
 41
2.5
 42
1.0
 43
10.0
 44
1.0
 47
0.1
 48
0.1
 73
     0
 77
     1
 78
     8
 79
     2
140
3.5
141
0.0
143
0.0393701
146
0.71
147
1.5
176
   256
177
   256
178
     2
271
     2
272
     3
274
     4
283
     0
284
     8
288
     1
289
     0
340
11
371
    -1
372
    -1
1001
ACAD_DSTYLE_DIMARC_LENGTH_SYMBOL
1070
   379
1070
     0
1001
ACAD_DSTYLE_DIMJOGGED_JOGANGLE_SYMBOL
1070
   384
1040
1.570796326794896
  0
DIMSTYLE
105
71
330
A
100
AcDbSymbolTableRecord
100
AcDbDimStyleTableRecord
  2
AM_DIN$4
 70
     0
  4
"
 41
2.5
 42
1.0
 43
10.0
 44
1.0
 47
0.1
 48
0.1
 73
     0
 77
     1
 78
     8
 79
     2
140
3.5
141
0.0
143
0.0393701
146
0.71
147
1.5
176
   256
177
   256
178
     2
271
     2
272
     3
274
     4
283
     0
284
     8
288
     1
289
     0
340
11
371
    -1
372
    -1
1001
ACAD_DSTYLE_DIMARC_LENGTH_SYMBOL
1070
   379
1070
     0
1001
ACAD_DSTYLE_DIMJOGGED_JOGANGLE_SYMBOL
1070
   384
1040
1.570796326794896
  0
DIMSTYLE
105
72
330
A
100
AcDbSymbolTableRecord
100
AcDbDimStyleTableRecord
  2
AM_DIN$6
 70
     0
  4
"
 41
2.5
 42
1.0
 43
10.0
 44
1.0
 47
0.1
 48
0.1
 73
     0
 74
     0
 78
     8
 79
     2
140
3.5
141
0.0
143
0.0393701
146
0.71
147
1.5
172
     1
176
   256
177
   256
178
     2
271
     2
272
     3
274
     4
283
     0
284
     8
340
11
371
    -1
372
    -1
1001
ACAD_DSTYLE_DIMARC_LENGTH_SYMBOL
1070
   379
1070
     0
1001
ACAD_DSTYLE_DIMJOGGED_JOGANGLE_SYMBOL
1070
   384
1040
1.570796326794896
  0
DIMSTYLE
105
73
330
A
100
AcDbSymbolTableRecord
100
AcDbDimStyleTableRecord
  2
AM_DIN$7
 70
     0
  4
"
 41
2.5
 42
1.0
 43
10.0
 44
1.0
 47
0.1
 48
0.1
 73
     0
 74
     0
 77
     1
 78
     8
 79
     2
140
5.0
141
0.0
143
0.0393701
146
0.71
147
1.5
172
     1
176
   256
177
   256
178
     2
271
     2
272
     3
274
     4
283
     0
284
     8
340
11
371
    -1
372
    -1
1001
ACAD_DSTYLE_DIMARC_LENGTH_SYMBOL
1070
   379
1070
     0
1001
ACAD_DSTYLE_DIMJOGGED_JOGANGLE_SYMBOL
1070
   384
1040
1.570796326794896
  0
DIMSTYLE
105
74
330
A
100
AcDbSymbolTableRecord
100
AcDbDimStyleTableRecord
  2
AM_DIN$SF
 70
     0
  4
"
 41
2.5
 42
1.0
 43
10.0
 44
1.0
 47
0.1
 48
0.1
 73
     0
 74
     0
 75
     1
 76
     1
 77
     1
 78
     8
 79
     2
140
3.5
141
0.0
143
0.0393701
146
0.71
147
1.5
172
     1
176
   256
177
   256
178
     2
271
     2
272
     3
274
     4
283
     0
284
     8
340
11
371
    -1
372
    -1
1001
ACAD_DSTYLE_DIMARC_LENGTH_SYMBOL
1070
   379
1070
     0
1001
ACAD_DSTYLE_DIMJOGGED_JOGANGLE_SYMBOL
1070
   384
1040
1.570796326794896
  0
DIMSTYLE
105
79
330
A
100
AcDbSymbolTableRecord
100
AcDbDimStyleTableRecord
  2
AM_DIN$SH
 70
     0
  4
"
 41
2.5
 42
1.0
 43
10.0
 44
1.0
 47
0.1
 48
0.1
 73
     0
 74
     0
 75
     1
 76
     1
 77
     1
 78
     8
 79
     2
140
3.5
141
0.0
143
0.0393701
144
2.0
146
0.71
147
1.5
172
     1
173
     1
176
   256
177
   256
178
     2
271
     2
272
     3
274
     4
283
     0
284
     8
340
11
343
75
371
    -1
372
    -1
1001
ACAD_DSTYLE_DIMARC_LENGTH_SYMBOL
1070
   379
1070
     0
1001
ACAD_DSTYLE_DIMJOGGED_JOGANGLE_SYMBOL
1070
   384
1040
1.570796326794896
  0
DIMSTYLE
105
3EF
330
A
100
AcDbSymbolTableRecord
100
AcDbDimStyleTableRecord
  2
AM_ISO
 70
     0
  4
"
 41
2.5
 42
1.0
 43
10.0
 44
1.0
 47
0.1
 48
0.1
 73
     0
 74
     0
 77
     1
 78
     8
 79
     2
140
3.5
141
0.0
143
0.0393701
146
0.71
147
1.5
172
     1
176
   256
177
   256
178
     2
271
     2
272
     3
274
     4
283
     0
284
     8
340
11
371
    -1
372
    -1
  0
DIMSTYLE
105
3F1
102
{ACAD_REACTORS
330
3FF
330
3FB
330
3FD
330
401
330
3FA
330
3FC
330
400
330
3FE
330
854
330
855
330
84E
330
84F
330
850
330
851
330
852
330
853
102
}
330
A
100
AcDbSymbolTableRecord
100
AcDbDimStyleTableRecord
  2
AM_ISO$0
 70
     0
  4
"
 41
2.5
 42
1.0
 43
10.0
 44
1.0
 47
0.1
 48
0.1
 73
     0
 74
     0
 77
     1
 78
     8
 79
     2
140
3.5
141
0.0
143
0.0393701
146
0.71
147
1.5
172
     1
176
     3
177
     3
178
     2
271
     2
272
     2
283
     0
284
     8
340
11
371
    -1
372
    -1
1001
ACAD_DSTYLE_DIMARC_LENGTH_SYMBOL
1070
   379
1070
     1
1001
ACAD_DSTYLE_DIMJOGGED_JOGANGLE_SYMBOL
1070
   384
1040
0.7853981633974483
  0
ENDTAB
  0
TABLE
  2
BLOCK_RECORD
  5
1
330
0
100
AcDbSymbolTable
 70
    27
  0
BLOCK_RECORD
  5
1F
102
{ACAD_XDICTIONARY
360
83
102
}
330
1
100
AcDbSymbolTableRecord
100
AcDbBlockTableRecord
  2
*Model_Space
340
22
  0
BLOCK_RECORD
  5
1B
330
1
100
AcDbSymbolTableRecord
100
AcDbBlockTableRecord
  2
*Paper_Space
340
1E
  0
BLOCK_RECORD
  5
23
330
1
100
AcDbSymbolTableRecord
100
AcDbBlockTableRecord
  2
*Paper_Space0
340
26
  0
BLOCK_RECORD
  5
75
330
1
100
AcDbSymbolTableRecord
100
AcDbBlockTableRecord
  2
GENAXEH
340
0
  0
BLOCK_RECORD
  5
36F
330
1
100
AcDbSymbolTableRecord
100
AcDbBlockTableRecord
  2
asver
340
0
310
2800000020000000200000000100080000000000000400000000000000000000000000000000000000000000000080000080000000808000800000008000800080800000C0C0C000C0DCC000F0CAA6000020400000206000002080000020A0000020C0000020E00000400000004020000040400000406000004080000040A0
310
000040C0000040E00000600000006020000060400000606000006080000060A0000060C0000060E00000800000008020000080400000806000008080000080A0000080C0000080E00000A0000000A0200000A0400000A0600000A0800000A0A00000A0C00000A0E00000C0000000C0200000C0400000C0600000C0800000C0
310
A00000C0C00000C0E00000E0000000E0200000E0400000E0600000E0800000E0A00000E0C00000E0E00040000000400020004000400040006000400080004000A0004000C0004000E00040200000402020004020400040206000402080004020A0004020C0004020E000404000004040200040404000404060004040800040
310
40A0004040C0004040E00040600000406020004060400040606000406080004060A0004060C0004060E00040800000408020004080400040806000408080004080A0004080C0004080E00040A0000040A0200040A0400040A0600040A0800040A0A00040A0C00040A0E00040C0000040C0200040C0400040C0600040C08000
310
40C0A00040C0C00040C0E00040E0000040E0200040E0400040E0600040E0800040E0A00040E0C00040E0E00080000000800020008000400080006000800080008000A0008000C0008000E00080200000802020008020400080206000802080008020A0008020C0008020E00080400000804020008040400080406000804080
310
008040A0008040C0008040E00080600000806020008060400080606000806080008060A0008060C0008060E00080800000808020008080400080806000808080008080A0008080C0008080E00080A0000080A0200080A0400080A0600080A0800080A0A00080A0C00080A0E00080C0000080C0200080C0400080C0600080C0
310
800080C0A00080C0C00080C0E00080E0000080E0200080E0400080E0600080E0800080E0A00080E0C00080E0E000C0000000C0002000C0004000C0006000C0008000C000A000C000C000C000E000C0200000C0202000C0204000C0206000C0208000C020A000C020C000C020E000C0400000C0402000C0404000C0406000C0
310
408000C040A000C040C000C040E000C0600000C0602000C0604000C0606000C0608000C060A000C060C000C060E000C0800000C0802000C0804000C0806000C0808000C080A000C080C000C080E000C0A00000C0A02000C0A04000C0A06000C0A08000C0A0A000C0A0C000C0A0E000C0C00000C0C02000C0C04000C0C06000
310
C0C08000C0C0A000F0FBFF00A4A0A000808080000000FF0000FF000000FFFF00FF000000FF00FF00FFFF0000FFFFFF000000000000000000000000000000000000000000000000000000000000000000000000000000000000FAFAFAFAFAFAFAFAFAFAFAFAFAFA000000000000000000000000000000000000FA0000000000
310
00000000000000FA000000000000000000000000000000000000FA00FAFAFA00000000FAFAFA00FA000000000000000000000000000000000000FAFAFAFAFAFA0000FAFAFAFAFAFA000000000000000000000000000000000000FA00FAFAFAFA000000FAFAFAFAFA000000000000000000000000000000000000FA00FAFAFA
310
00000000FAFAFA00FA000000000000000000000000000000000000FAFAFAFAFAFAFAFAFAFAFAFAFAFA000000000000000000000000000000000000FA000000000000000000000000FA000000000000000000000000000000000000FA000000000000000000000000FA000000000000000000000000000000000000FA000000
310
000000000000000000FA000000000000000000000000000000000000FA000000000000000000000000FA000000000000000000000000000000000000FA000000000000000000000000FA000000000000000000000000000000000000FA000000000000000000000000FA000000000000000000000000000000000000FA0000
310
00000000000000000000FA000000000000000000000000000000000000FA000000000000000000000000FA000000000000000000000000000000000000FA000000000000000000000000FA000000000000000000000000000000000000FA000000000000000000000000FA000000000000000000000000000000000000FA00
310
0000000000000000000000FA000000000000000000000000000000000000FA000000000000000000000000FA000000000000000000000000000000000000FA000000000000000000000000FA000000000000000000000000000000000000FA000000000000000000000000FA000000000000000000000000000000000000FA
310
000000000000000000000000FA000000000000000000000000000000000000FA000000000000000000000000FA000000000000000000000000000000000000FA000000000000000000000000FA000000000000000000000000000000000000FA000000000000000000000000FA000000000000000000000000000000000000
310
FA000000000000000000000000FA000000000000000000000000000000000000FA000000000000000000000000FA000000000000000000000000000000000000FA000000000000000000000000FA000000000000000000000000000000000000FA000000000000000000000000FA0000000000000000000000000000000000
310
00FAFAFAFAFAFAFAFAFAFAFAFAFAFA0000000000000000000000000000000000000000000000000000000000000000000000000000000000
102
{BLKREFS
331
43F
331
440
331
893
331
894
102
}
1001
ACAD
1000
DesignCenter Data
1002
{
1070
     1
1070
     4
1002
}
  0
BLOCK_RECORD
  5
393
330
1
100
AcDbSymbolTableRecord
100
AcDbBlockTableRecord
  2
NXXXX80
340
0
102
{BLKREFS
331
4D3
331
519
331
927
331
96D
102
}
  0
BLOCK_RECORD
  5
39E
330
1
100
AcDbSymbolTableRecord
100
AcDbBlockTableRecord
  2
N_GF_5
340
0
102
{BLKREFS
331
3A6
102
}
  0
BLOCK_RECORD
  5
3A3
330
1
100
AcDbSymbolTableRecord
100
AcDbBlockTableRecord
  2
NXXXX93
340
0
102
{BLKREFS
331
4E6
331
52C
331
93A
331
980
102
}
  0
BLOCK_RECORD
  5
3A9
330
1
100
AcDbSymbolTableRecord
100
AcDbBlockTableRecord
  2
N_GF_7
340
0
102
{BLKREFS
331
3B1
102
}
  0
BLOCK_RECORD
  5
3AE
330
1
100
AcDbSymbolTableRecord
100
AcDbBlockTableRecord
  2
NXXXX95
340
0
102
{BLKREFS
331
4F9
331
53F
331
94D
331
993
102
}
  0
BLOCK_RECORD
  5
3B4
330
1
100
AcDbSymbolTableRecord
100
AcDbBlockTableRecord
  2
storz1
340
0
310
2800000020000000200000000100080000000000000400000000000000000000000000000000000000000000000080000080000000808000800000008000800080800000C0C0C000C0DCC000F0CAA6000020400000206000002080000020A0000020C0000020E00000400000004020000040400000406000004080000040A0
310
000040C0000040E00000600000006020000060400000606000006080000060A0000060C0000060E00000800000008020000080400000806000008080000080A0000080C0000080E00000A0000000A0200000A0400000A0600000A0800000A0A00000A0C00000A0E00000C0000000C0200000C0400000C0600000C0800000C0
310
A00000C0C00000C0E00000E0000000E0200000E0400000E0600000E0800000E0A00000E0C00000E0E00040000000400020004000400040006000400080004000A0004000C0004000E00040200000402020004020400040206000402080004020A0004020C0004020E000404000004040200040404000404060004040800040
310
40A0004040C0004040E00040600000406020004060400040606000406080004060A0004060C0004060E00040800000408020004080400040806000408080004080A0004080C0004080E00040A0000040A0200040A0400040A0600040A0800040A0A00040A0C00040A0E00040C0000040C0200040C0400040C0600040C08000
310
40C0A00040C0C00040C0E00040E0000040E0200040E0400040E0600040E0800040E0A00040E0C00040E0E00080000000800020008000400080006000800080008000A0008000C0008000E00080200000802020008020400080206000802080008020A0008020C0008020E00080400000804020008040400080406000804080
310
008040A0008040C0008040E00080600000806020008060400080606000806080008060A0008060C0008060E00080800000808020008080400080806000808080008080A0008080C0008080E00080A0000080A0200080A0400080A0600080A0800080A0A00080A0C00080A0E00080C0000080C0200080C0400080C0600080C0
310
800080C0A00080C0C00080C0E00080E0000080E0200080E0400080E0600080E0800080E0A00080E0C00080E0E000C0000000C0002000C0004000C0006000C0008000C000A000C000C000C000E000C0200000C0202000C0204000C0206000C0208000C020A000C020C000C020E000C0400000C0402000C0404000C0406000C0
310
408000C040A000C040C000C040E000C0600000C0602000C0604000C0606000C0608000C060A000C060C000C060E000C0800000C0802000C0804000C0806000C0808000C080A000C080C000C080E000C0A00000C0A02000C0A04000C0A06000C0A08000C0A0A000C0A0C000C0A0E000C0C00000C0C02000C0C04000C0C06000
310
C0C08000C0C0A000F0FBFF00A4A0A000808080000000FF0000FF000000FFFF00FF000000FF00FF00FFFF0000FFFFFF0000000000000000000000000000000000000000000000000000000000000000000000000000000000000000000000000000000000000000000000000000000000000000000000000000000000000000
310
0000000000000000000000000000000000000000000000000000000000000000000000000000000000000000000000000000000000000000000000000000000000000000000000000000000000000000000000000000000000000000000000000000000000000000000000000000000000000000000000FFFFFFFFFFFFFFFF
310
FFFFFFFFFFFFFF0000000000000000000000000000000000FFFF00000000000000000000FF00FF0000000000000000000000000000000000FFFF00000000000000000000FF00FF0000000000000000000000000000000000FFFF00000000000000000000FF00FF00000000000000000000000000FFFFFFFFFFFFFFFFFFFFFF
310
FFFFFFFFFFFFFFFFFFFFFFFF0000000000000000FF00000000000000000000000000000000000000000000FF0000000000000000FF00000000000000000000000000000000000000000000FF0000000000000000FF00000000000000000000000000000000000000000000FAFAFAFAFA00000000FFFFFFFFFFFFFFFFFFFFFF
310
FFFFFFFFFFFFFFFFFFFFFFFFFF0000FAFA00000000FF00000000000000000000000000000000000000000000FF0000FAFA00000000FF00000000000000000000000000000000000000000000FF00000000FA000000FF00000000000000000000000000000000000000000000FF000000FAFA00000000FFFFFFFFFFFFFFFFFF
310
FFFFFFFFFFFFFFFFFFFFFFFFFFFF000000FAFAFA00000000000000FFFF00000000000000000000FF00FF0000000000000000FAFA00000000000000FFFF00000000000000000000FF00FF0000000000000000FA0000000000000000FFFF00000000000000000000FF00FF00000000000000FA000000000000000000FFFFFFFF
310
FFFFFAFAFFFFFFFFFFFFFF000000000000FAFA000000000000000000000000000000FAFA000000000000000000FAFAFAFAFAFA0000000000000000000000000000000000FAFAFAFA00FAFAFA00FAFAFA000000000000000000000000000000000000000000FAFA00FAFAFAFAFA000000000000000000000000000000000000
310
00000000000000000000000000000000000000000000000000000000000000000000000000000000000000000000000000000000000000000000000000000000000000000000000000000000000000000000000000000000000000000000000000000000000000000000000000000000000000000000000000000000000000
310
0000000000000000000000000000000000000000000000000000000000000000000000000000000000000000000000000000000000000000
102
{BLKREFS
331
845
331
C99
102
}
  0
BLOCK_RECORD
  5
C9C
330
1
100
AcDbSymbolTableRecord
100
AcDbBlockTableRecord
  2
*D19
340
0
  0
BLOCK_RECORD
  5
CA8
330
1
100
AcDbSymbolTableRecord
100
AcDbBlockTableRecord
  2
*D20
340
0
  0
BLOCK_RECORD
  5
CB4
330
1
100
AcDbSymbolTableRecord
100
AcDbBlockTableRecord
  2
*D21
340
0
  0
BLOCK_RECORD
  5
CC0
330
1
100
AcDbSymbolTableRecord
100
AcDbBlockTableRecord
  2
*D22
340
0
  0
BLOCK_RECORD
  5
CCC
330
1
100
AcDbSymbolTableRecord
100
AcDbBlockTableRecord
  2
*D23
340
0
  0
BLOCK_RECORD
  5
CD8
330
1
100
AcDbSymbolTableRecord
100
AcDbBlockTableRecord
  2
*D24
340
0
  0
BLOCK_RECORD
  5
CE4
330
1
100
AcDbSymbolTableRecord
100
AcDbBlockTableRecord
  2
*D25
340
0
  0
BLOCK_RECORD
  5
CF0
330
1
100
AcDbSymbolTableRecord
100
AcDbBlockTableRecord
  2
*D26
340
0
  0
ENDTAB
  0
ENDSEC
  0
SECTION
  2
BLOCKS
  0
BLOCK
  5
20
330
1F
100
AcDbEntity
  8
0
100
AcDbBlockBegin
  2
*Model_Space
 70
     0
 10
0.0
 20
0.0
 30
0.0
  3
*Model_Space
  1

  0
ENDBLK
  5
21
330
1F
100
AcDbEntity
  8
0
100
AcDbBlockEnd
  0
BLOCK
  5
1C
330
1B
100
AcDbEntity
 67
     1
  8
0
100
AcDbBlockBegin
  2
*Paper_Space
 70
     0
 10
0.0
 20
0.0
 30
0.0
  3
*Paper_Space
  1

  0
ENDBLK
  5
1D
330
1B
100
AcDbEntity
 67
     1
  8
0
100
AcDbBlockEnd
  0
BLOCK
  5
24
330
23
100
AcDbEntity
 67
     1
  8
0
100
AcDbBlockBegin
  2
*Paper_Space0
 70
     0
 10
0.0
 20
0.0
 30
0.0
  3
*Paper_Space0
  1

  0
ENDBLK
  5
25
330
23
100
AcDbEntity
 67
     1
  8
0
100
AcDbBlockEnd
  0
BLOCK
  5
77
330
75
100
AcDbEntity
  8
0
100
AcDbBlockBegin
  2
GENAXEH
 70
     0
 10
0.0
 20
0.0
 30
0.0
  3
GENAXEH
  1

  0
LINE
  5
76
330
75
100
AcDbEntity
  8
0
100
AcDbLine
 10
-1.0
 20
0.0
 30
0.0
 11
1.0
 21
0.0
 31
0.0
  0
ENDBLK
  5
78
330
75
100
AcDbEntity
  8
0
100
AcDbBlockEnd
  0
BLOCK
  5
370
330
36F
100
AcDbEntity
  8
0
100
AcDbBlockBegin
  2
asver
 70
     0
 10
0.0
 20
0.0
 30
0.0
  3
asver
  1

  0
LINE
  5
371
330
36F
100
AcDbEntity
  8
0
 62
     3
100
AcDbLine
 10
-20034.11803663987
 20
4945.546841299362
 30
0.0
 11
-19999.11803663987
 21
4945.546903389384
 31
0.0
  0
LINE
  5
372
330
36F
100
AcDbEntity
  8
0
 62
     3
100
AcDbLine
 10
-19999.117730789
 20
4799.340794298523
 30
0.0
 11
-20030.65038533446
 21
4799.340736807753
 31
0.0
  0
LINE
  5
373
330
36F
100
AcDbEntity
  8
0
 62
     3
100
AcDbLine
 10
-20034.11777218236
 20
4830.54684129938
 30
0.0
 11
-19964.11777218236
 21
4830.546965479428
 31
0.0
  0
LINE
  5
374
330
36F
100
AcDbEntity
  8
0
 62
     3
100
AcDbLine
 10
-20034.11777218236
 20
4830.546841299366
 30
0.0
 11
-20034.11803663987
 21
4945.546841299362
 31
0.0
  0
POINT
  5
375
330
36F
100
AcDbEntity
  8
0
 62
     3
100
AcDbPoint
 10
-20034.11777218236
 20
4830.546841299366
 30
0.0
  0
ARC
  5
376
330
36F
100
AcDbEntity
  8
0
 62
     3
100
AcDbCircle
 10
-20030.65042212854
 20
4827.079500444091
 30
0.0
 40
3.467345454545453
100
AcDbArc
 50
90.00007600002845
 51
180.000030000003
  0
ARC
  5
377
330
36F
100
AcDbEntity
  8
0
 62
     3
100
AcDbCircle
 10
-20030.65038993373
 20
4802.808082262298
 30
0.0
 40
3.467345454545453
100
AcDbArc
 50
180.000030000003
 51
270.0000760000285
  0
LINE
  5
378
330
36F
100
AcDbEntity
  8
0
 62
     3
100
AcDbLine
 10
-20034.11773538827
 20
4802.808077663041
 30
0.0
 11
-20034.11776758309
 21
4827.079495844839
 31
0.0
  0
LINE
  5
379
330
36F
100
AcDbEntity
  8
0
 62
     3
100
AcDbLine
 10
-19964.11777218236
 20
4830.546965479428
 30
0.0
 11
-19964.11803663987
 21
4945.546965479428
 31
0.0
  0
LINE
  5
37A
330
36F
100
AcDbEntity
  8
0
 62
     3
100
AcDbLine
 10
-19977.81750523331
 20
4806.49222936789
 30
0.0
 11
-19977.81752765471
 21
4823.39553845879
 31
0.0
  0
ARC
  5
37B
330
36F
100
AcDbEntity
  8
0
 62
     3
100
AcDbCircle
 10
-19967.58511303763
 20
4827.079615425631
 30
0.0
 40
3.467345454545453
100
AcDbArc
 50
0.0001220000018565
 51
90.00007600002845
  0
POINT
  5
37C
330
36F
100
AcDbEntity
  8
0
 62
     3
100
AcDbPoint
 10
-19964.11777218236
 20
4830.546965479428
 30
0.0
  0
ARC
  5
37D
330
36F
100
AcDbEntity
  8
0
 62
     3
100
AcDbCircle
 10
-19967.58508084281
 20
4802.808197243837
 30
0.0
 40
3.467345454545453
100
AcDbArc
 50
270.0
 51
0.0000760000024379
  0
LINE
  5
37E
330
36F
100
AcDbEntity
  8
0
 62
     3
100
AcDbLine
 10
-19969.3585973765
 20
4814.943954945381
 30
0.0
 11
-19974.2381736224
 21
4806.492253619516
 31
0.0
  0
LINE
  5
37F
330
36F
100
AcDbEntity
  8
0
 62
     3
100
AcDbLine
 10
-19969.35867409157
 20
4814.943993952926
 30
0.0
 11
-19974.23821944841
 21
4823.395583514457
 31
0.0
  0
LINE
  5
380
330
36F
100
AcDbEntity
  8
0
 62
     3
100
AcDbLine
 10
-19964.11773538827
 20
4802.808201843091
 30
0.0
 11
-19964.11776758309
 21
4827.079620024888
 31
0.0
  0
LINE
  5
381
330
36F
100
AcDbEntity
  8
0
 62
     3
100
AcDbLine
 10
-19983.99724581556
 20
4806.49222117078
 30
0.0
 11
-19988.87688219043
 21
4814.943968062987
 31
0.0
  0
LINE
  5
382
330
36F
100
AcDbEntity
  8
0
 62
     3
100
AcDbLine
 10
-19983.99734755254
 20
4823.395570569452
 30
0.0
 11
-19988.87682237877
 21
4814.94400837096
 31
0.0
  0
LINE
  5
383
330
36F
100
AcDbEntity
  8
0
 62
     3
100
AcDbLine
 10
-19980.41801432422
 20
4806.49222591845
 30
0.0
 11
-19980.41803674562
 21
4823.39553500934
 31
0.0
  0
LINE
  5
384
330
36F
100
AcDbEntity
  8
0
 62
     3
100
AcDbLine
 10
-19983.99738786037
 20
4823.395530261516
 30
0.0
 11
-19974.23823635166
 21
4823.395543206544
 31
0.0
  0
LINE
  5
385
330
36F
100
AcDbEntity
  8
0
 62
     3
100
AcDbLine
 10
-19983.99726531938
 20
4806.492221170746
 30
0.0
 11
-19974.23823343408
 21
4806.492234115622
 31
0.0
  0
LINE
  5
386
330
36F
100
AcDbEntity
  8
0
 62
     3
100
AcDbLine
 10
-19999.117730789
 20
4799.340794298523
 30
0.0
 11
-19967.58507624354
 21
4799.340851789295
 31
0.0
  0
CIRCLE
  5
387
330
36F
100
AcDbEntity
  8
0
 62
     3
100
AcDbCircle
 10
-19979.11775148564
 20
4814.94388218865
 30
0.0
 40
8.451635041636361
  0
LINE
  5
388
330
36F
100
AcDbEntity
  8
0
 62
     3
100
AcDbLine
 10
-19964.11803663987
 20
4945.546965479428
 30
0.0
 11
-19999.11803663987
 21
4945.546903389384
 31
0.0
  0
LINE
  5
389
330
36F
100
AcDbEntity
  8
0
 62
     3
100
AcDbLine
 10
-20020.41798242174
 20
4806.492151698106
 30
0.0
 11
-20020.41802163704
 21
4823.395460788976
 31
0.0
  0
LINE
  5
38A
330
36F
100
AcDbEntity
  8
0
 62
     3
100
AcDbLine
 10
-20028.8769210971
 20
4814.943846430745
 30
0.0
 11
-20023.99731403271
 21
4806.492162897959
 31
0.0
  0
LINE
  5
38B
330
36F
100
AcDbEntity
  8
0
 62
     3
100
AcDbLine
 10
-20028.87684438217
 20
4814.943885438569
 30
0.0
 11
-20023.99732984348
 21
4823.395492792954
 31
0.0
  0
LINE
  5
38C
330
36F
100
AcDbEntity
  8
0
 62
     3
100
AcDbLine
 10
-20014.23824183951
 20
4806.492166034975
 30
0.0
 11
-20009.35863628335
 21
4814.943930720367
 31
0.0
  0
LINE
  5
38D
330
36F
100
AcDbEntity
  8
0
 62
     3
100
AcDbLine
 10
-20014.23820173937
 20
4823.395515433906
 30
0.0
 11
-20009.35869609516
 21
4814.943971028122
 31
0.0
  0
LINE
  5
38E
330
36F
100
AcDbEntity
  8
0
 62
     3
100
AcDbLine
 10
-20017.81747333084
 20
4806.492157731236
 30
0.0
 11
-20017.81751254613
 21
4823.395466822095
 31
0.0
  0
LINE
  5
38F
330
36F
100
AcDbEntity
  8
0
 62
     3
100
AcDbLine
 10
-20014.23816143139
 20
4823.395475126116
 30
0.0
 11
-20023.99731294008
 21
4823.395452485102
 31
0.0
  0
LINE
  5
390
330
36F
100
AcDbEntity
  8
0
 62
     3
100
AcDbLine
 10
-20014.23822233568
 20
4806.492166035012
 30
0.0
 11
-20023.99725422097
 21
4806.492143394282
 31
0.0
  0
CIRCLE
  5
391
330
36F
100
AcDbEntity
  8
0
 62
     3
100
AcDbCircle
 10
-20019.11776698776
 20
4814.943809260066
 30
0.0
 40
8.451635041636359
  0
ENDBLK
  5
392
330
36F
100
AcDbEntity
  8
0
100
AcDbBlockEnd
  0
BLOCK
  5
394
330
393
100
AcDbEntity
  8
0
  6
Continuous
100
AcDbBlockBegin
  2
NXXXX80
 70
     0
 10
0.0
 20
0.0
 30
0.0
  3
NXXXX80
  1

  0
ATTDEF
  5
395
330
393
100
AcDbEntity
  8
0
  6
Continuous
 62
     7
100
AcDbText
 10
391.0630000000002
 20
1476.628
 30
0.0
 40
1.0
  1
XXXX80
100
AcDbAttributeDefinition
  3
XXXXXXXX
  2
GRUPPE
 70
     3
  0
LINE
  5
396
330
393
100
AcDbEntity
  8
TEXT
  6
Continuous
 62
     7
100
AcDbLine
 10
390.064
 20
1461.051
 30
0.0
 11
383.564
 21
1457.297999999999
 31
0.0
  0
POLYLINE
  5
397
330
393
100
AcDbEntity
  8
TEXT
  6
Continuous
 62
     7
100
AcDb2dPolyline
 66
     1
 10
0.0
 20
0.0
 30
0.0
  0
VERTEX
  5
398
330
397
100
AcDbEntity
  8
TEXT
  6
Continuous
 62
     7
100
AcDbVertex
100
AcDb2dVertex
 10
390.0630000000002
 20
1464.876
 30
0.0
  0
VERTEX
  5
399
330
397
100
AcDbEntity
  8
TEXT
  6
Continuous
 62
     7
100
AcDbVertex
100
AcDb2dVertex
 10
383.563
 20
1464.876
 30
0.0
  0
VERTEX
  5
39A
330
397
100
AcDbEntity
  8
TEXT
  6
Continuous
 62
     7
100
AcDbVertex
100
AcDb2dVertex
 10
383.563
 20
1472.298
 30
0.0
  0
VERTEX
  5
39B
330
397
100
AcDbEntity
  8
TEXT
  6
Continuous
 62
     7
100
AcDbVertex
100
AcDb2dVertex
 10
390.064
 20
1476.051
 30
0.0
  0
SEQEND
  5
39C
330
397
100
AcDbEntity
  8
TEXT
  6
Continuous
 62
     7
  0
ENDBLK
  5
39D
330
393
100
AcDbEntity
  8
AM_7
100
AcDbBlockEnd
  0
BLOCK
  5
39F
330
39E
100
AcDbEntity
  8
0
  6
Continuous
100
AcDbBlockBegin
  2
N_GF_5
 70
     0
 10
0.0
 20
0.0
 30
0.0
  3
N_GF_5
  1

  0
ATTDEF
  5
3A0
330
39E
100
AcDbEntity
  8
0
  6
Continuous
 62
     7
100
AcDbText
 10
528.064
 20
1508.627
 30
0.0
 40
1.0
  1
_GF_5
100
AcDbAttributeDefinition
  3
_GF_XXXX
  2
GRUPPE
 70
     3
  0
LINE
  5
3A1
330
39E
100
AcDbEntity
  8
TEXT
  6
Continuous
 62
     7
100
AcDbLine
 10
401.5629999999998
 20
1865.523
 30
0.0
 11
585.5629999999997
 21
1865.523
 31
0.0
  0
ENDBLK
  5
3A2
330
39E
100
AcDbEntity
  8
AM_7
100
AcDbBlockEnd
  0
BLOCK
  5
3A4
330
3A3
100
AcDbEntity
  8
0
  6
Continuous
100
AcDbBlockBegin
  2
NXXXX93
 70
     0
 10
0.0
 20
0.0
 30
0.0
  3
NXXXX93
  1

  0
ATTDEF
  5
3A5
330
3A3
100
AcDbEntity
  8
0
  6
VERDECKT
 62
     2
100
AcDbText
 10
788.0639999999997
 20
1793.523
 30
0.0
 40
1.0
  1
XXXX93
100
AcDbAttributeDefinition
  3
XXXXXXXX
  2
GRUPPE
 70
     3
  0
INSERT
  5
3A6
330
3A3
100
AcDbEntity
  8
0
100
AcDbBlockReference
  2
N_GF_5
 10
0.0
 20
0.0
 30
0.0
  0
LINE
  5
3A7
330
3A3
100
AcDbEntity
  8
TEXT
  6
Continuous
 62
     7
100
AcDbLine
 10
585.564
 20
1793.523
 30
0.0
 11
383.064
 21
1793.523
 31
0.0
  0
ENDBLK
  5
3A8
330
3A3
100
AcDbEntity
  8
AM_7
100
AcDbBlockEnd
  0
BLOCK
  5
3AA
330
3A9
100
AcDbEntity
  8
0
  6
Continuous
100
AcDbBlockBegin
  2
N_GF_7
 70
     0
 10
0.0
 20
0.0
 30
0.0
  3
N_GF_7
  1

  0
ATTDEF
  5
3AB
330
3A9
100
AcDbEntity
  8
0
  6
Continuous
 62
     7
100
AcDbText
 10
528.064
 20
1508.627
 30
0.0
 40
1.0
  1
_GF_7
100
AcDbAttributeDefinition
  3
_GF_XXXX
  2
GRUPPE
 70
     3
  0
LINE
  5
3AC
330
3A9
100
AcDbEntity
  8
TEXT
  6
Continuous
 62
     7
100
AcDbLine
 10
769.564
 20
1865.523
 30
0.0
 11
585.564
 21
1865.523
 31
0.0
  0
ENDBLK
  5
3AD
330
3A9
100
AcDbEntity
  8
AM_7
100
AcDbBlockEnd
  0
BLOCK
  5
3AF
330
3AE
100
AcDbEntity
  8
0
  6
Continuous
100
AcDbBlockBegin
  2
NXXXX95
 70
     0
 10
0.0
 20
0.0
 30
0.0
  3
NXXXX95
  1

  0
ATTDEF
  5
3B0
330
3AE
100
AcDbEntity
  8
0
  6
VERDECKT
 62
     2
100
AcDbText
 10
383.064
 20
1793.523
 30
0.0
 40
1.0
  1
XXXX95
100
AcDbAttributeDefinition
  3
XXXXXXXX
  2
GRUPPE
 70
     3
  0
INSERT
  5
3B1
330
3AE
100
AcDbEntity
  8
0
100
AcDbBlockReference
  2
N_GF_7
 10
0.0
 20
0.0
 30
0.0
  0
LINE
  5
3B2
330
3AE
100
AcDbEntity
  8
TEXT
  6
Continuous
 62
     7
100
AcDbLine
 10
585.564
 20
1793.523
 30
0.0
 11
788.0639999999997
 21
1793.523
 31
0.0
  0
ENDBLK
  5
3B3
330
3AE
100
AcDbEntity
  8
AM_7
100
AcDbBlockEnd
  0
BLOCK
  5
3B5
330
3B4
100
AcDbEntity
  8
0
100
AcDbBlockBegin
  2
storz1
 70
     0
 10
0.0
 20
0.0
 30
0.0
  3
storz1
  1

  0
ELLIPSE
  5
3B6
330
3B4
100
AcDbEntity
  8
4
100
AcDbEllipse
 10
6863.38061071804
 20
2574.659664047074
 30
0.0
 11
7.6273288286738
 21
1.565005681802724
 31
0.0
210
0.0
220
0.0
230
1.0
 40
0.4445804729482882
 41
0.0000000000000993
 42
6.283185307179685
  0
LINE
  5
3B7
330
3B4
100
AcDbEntity
  8
0
100
AcDbLine
 10
6892.213260704123
 20
2560.693530212578
 30
0.0
 11
6802.213260704106
 21
2560.693530212572
 31
0.0
  0
LINE
  5
3B8
330
3B4
100
AcDbEntity
  8
0
100
AcDbLine
 10
6802.213260704109
 20
2452.693530212574
 30
0.0
 11
6892.213260704124
 21
2452.693530212638
 31
0.0
  0
LINE
  5
3B9
330
3B4
100
AcDbEntity
  8
0
100
AcDbLine
 10
6775.213260704102
 20
2482.693530212607
 30
0.0
 11
6919.213260704089
 21
2482.693530212565
 31
0.0
  0
LINE
  5
3BA
330
3B4
100
AcDbEntity
  8
0
100
AcDbLine
 10
6772.213260704112
 20
2508.449878376435
 30
0.0
 11
6922.213260704096
 21
2508.449878376479
 31
0.0
  0
LINE
  5
3BB
330
3B4
100
AcDbEntity
  8
0
100
AcDbLine
 10
6772.213260704112
 20
2504.937182048752
 30
0.0
 11
6922.213260704096
 21
2504.937182048706
 31
0.0
  0
LINE
  5
3BC
330
3B4
100
AcDbEntity
  8
0
100
AcDbLine
 10
6919.213260704101
 20
2530.693530212572
 30
0.0
 11
6775.213260704091
 21
2530.693530212531
 31
0.0
  0
LINE
  5
3BD
330
3B4
100
AcDbEntity
  8
0
100
AcDbLine
 10
6811.828979982333
 20
2530.693530212551
 30
0.0
 11
6811.82897998233
 21
2560.693530212572
 31
0.0
  0
LINE
  5
3BE
330
3B4
100
AcDbEntity
  8
0
100
AcDbLine
 10
6799.213260704125
 20
2530.693530212578
 30
0.0
 11
6799.213260704107
 21
2557.693530212571
 31
0.0
  0
LINE
  5
3BF
330
3B4
100
AcDbEntity
  8
0
100
AcDbLine
 10
6811.828979982327
 20
2452.693530212605
 30
0.0
 11
6811.828979982337
 21
2482.693530212596
 31
0.0
  0
LINE
  5
3C0
330
3B4
100
AcDbEntity
  8
0
100
AcDbLine
 10
6799.213260704107
 20
2455.693530212578
 30
0.0
 11
6799.213260704125
 21
2482.693530212578
 31
0.0
  0
ARC
  5
3C1
330
3B4
100
AcDbEntity
  8
0
100
AcDbCircle
 10
6802.213260704107
 20
2455.693530212574
 30
0.0
 40
3.0
100
AcDbArc
 50
179.9999999999479
 51
270.0000000000521
1001
GENIUS_GENODEF_13
1002
{
1000
HIER
1070
     0
1002
}
1002
{
1000
MANEDIT
1070
     0
1002
}
1002
{
1000
NOSEL
1070
     0
1002
}
1002
{
1000
BEHIND
1070
     0
1002
}
1002
{
1000
REACTOR
1002
}
1001
GENIUS_GENOBJ-N-FIL_13
1002
{
1000
OWNER
1000
GEN
1002
}
  0
ARC
  5
3C2
330
3B4
100
AcDbEntity
  8
0
100
AcDbCircle
 10
6775.213260704092
 20
2527.69353021253
 30
0.0
 40
3.0
100
AcDbArc
 50
90.0
 51
180.0
1001
GENIUS_GENODEF_13
1002
{
1000
HIER
1070
     0
1002
}
1002
{
1000
MANEDIT
1070
     0
1002
}
1002
{
1000
NOSEL
1070
     0
1002
}
1002
{
1000
BEHIND
1070
     0
1002
}
1002
{
1000
REACTOR
1002
}
1001
GENIUS_GENOBJ-N-FIL_13
1002
{
1000
OWNER
1000
GEN
1002
}
  0
LINE
  5
3C3
330
3B4
100
AcDbEntity
  8
0
100
AcDbLine
 10
6779.548930858604
 20
2504.937182048728
 30
0.0
 11
6779.548930858604
 21
2508.449878376435
 31
0.0
  0
ARC
  5
3C4
330
3B4
100
AcDbEntity
  8
0
100
AcDbCircle
 10
6775.213260704103
 20
2485.693530212607
 30
0.0
 40
3.0
100
AcDbArc
 50
180.0
 51
269.9999999999479
1001
GENIUS_GENODEF_13
1002
{
1000
HIER
1070
     0
1002
}
1002
{
1000
MANEDIT
1070
     0
1002
}
1002
{
1000
NOSEL
1070
     0
1002
}
1002
{
1000
BEHIND
1070
     0
1002
}
1002
{
1000
REACTOR
1002
}
1001
GENIUS_GENOBJ-N-FIL_13
1002
{
1000
OWNER
1000
GEN
1002
}
  0
LINE
  5
3C5
330
3B4
100
AcDbEntity
  8
0
100
AcDbLine
 10
6772.213260704105
 20
2485.693530212605
 30
0.0
 11
6772.213260704098
 21
2504.937182048752
 31
0.0
  0
LINE
  5
3C6
330
3B4
100
AcDbEntity
  8
0
100
AcDbLine
 10
6772.213260704096
 20
2508.449878376435
 30
0.0
 11
6772.213260704091
 21
2527.693530212529
 31
0.0
  0
ARC
  5
3C7
330
3B4
100
AcDbEntity
  8
0
100
AcDbCircle
 10
6802.213260704107
 20
2557.693530212572
 30
0.0
 40
3.0
100
AcDbArc
 50
90.0
 51
180.0
1001
GENIUS_GENODEF_13
1002
{
1000
HIER
1070
     0
1002
}
1002
{
1000
MANEDIT
1070
     0
1002
}
1002
{
1000
NOSEL
1070
     0
1002
}
1002
{
1000
BEHIND
1070
     0
1002
}
1002
{
1000
REACTOR
1002
}
1001
GENIUS_GENOBJ-N-FIL_13
1002
{
1000
OWNER
1000
GEN
1002
}
  0
ELLIPSE
  5
3C8
330
3B4
100
AcDbEntity
  8
4
100
AcDbEllipse
 10
6847.155371031428
 20
2560.522891281981
 30
0.0
 11
2.961714637804723
 21
7.200946760599778
 31
0.0
210
0.0
220
0.0
230
0.9999999999999998
 40
0.4445804729484612
 41
-1.366628173445661
 42
1.728339767988274
  0
LINE
  5
3C9
330
3B4
100
AcDbEntity
  8
4
100
AcDbLine
 10
6855.513989797827
 20
2572.845567869589
 30
0.0
 11
6849.919638903497
 21
2567.243777056964
 31
0.0
  0
LINE
  5
3CA
330
3B4
100
AcDbEntity
  8
4
100
AcDbLine
 10
6955.381742804664
 20
2540.359636389895
 30
0.0
 11
6948.125943408467
 21
2555.141455931692
 31
0.0
  0
LINE
  5
3CB
330
3B4
100
AcDbEntity
  8
0
100
AcDbLine
 10
6882.597541425887
 20
2530.693530212554
 30
0.0
 11
6882.597541425886
 21
2560.693530212578
 31
0.0
  0
LINE
  5
3CC
330
3B4
100
AcDbEntity
  8
0
100
AcDbLine
 10
6895.213260704103
 20
2530.693530212572
 30
0.0
 11
6895.213260704124
 21
2557.693530212576
 31
0.0
  0
LINE
  5
3CD
330
3B4
100
AcDbEntity
  8
0
100
AcDbLine
 10
6895.213260704103
 20
2482.693530212538
 30
0.0
 11
6895.213260704124
 21
2455.69353021264
 31
0.0
  0
LINE
  5
3CE
330
3B4
100
AcDbEntity
  8
0
100
AcDbLine
 10
6882.597541425901
 20
2452.693530212611
 30
0.0
 11
6882.597541425891
 21
2482.6935302126
 31
0.0
  0
ARC
  5
3CF
330
3B4
100
AcDbEntity
  8
0
100
AcDbCircle
 10
6892.213260704123
 20
2455.693530212638
 30
0.0
 40
3.0
100
AcDbArc
 50
270.0000000000521
 51
0.0000000000521102
1001
GENIUS_GENODEF_13
1002
{
1000
HIER
1070
     0
1002
}
1002
{
1000
MANEDIT
1070
     0
1002
}
1002
{
1000
NOSEL
1070
     0
1002
}
1002
{
1000
BEHIND
1070
     0
1002
}
1002
{
1000
REACTOR
1002
}
1001
GENIUS_GENOBJ-N-FIL_13
1002
{
1000
OWNER
1000
GEN
1002
}
  0
ARC
  5
3D0
330
3B4
100
AcDbEntity
  8
0
100
AcDbCircle
 10
6919.213260704103
 20
2527.693530212572
 30
0.0
 40
3.0
100
AcDbArc
 50
359.9999999999479
 51
90.0
1001
GENIUS_GENODEF_13
1002
{
1000
HIER
1070
     0
1002
}
1002
{
1000
MANEDIT
1070
     0
1002
}
1002
{
1000
NOSEL
1070
     0
1002
}
1002
{
1000
BEHIND
1070
     0
1002
}
1002
{
1000
REACTOR
1002
}
1001
GENIUS_GENOBJ-N-FIL_13
1002
{
1000
OWNER
1000
GEN
1002
}
  0
ARC
  5
3D1
330
3B4
100
AcDbEntity
  8
0
100
AcDbCircle
 10
6919.21326070409
 20
2485.693530212565
 30
0.0
 40
3.0
100
AcDbArc
 50
269.9999999999479
 51
359.9999999999479
1001
GENIUS_GENODEF_13
1002
{
1000
HIER
1070
     0
1002
}
1002
{
1000
MANEDIT
1070
     0
1002
}
1002
{
1000
NOSEL
1070
     0
1002
}
1002
{
1000
BEHIND
1070
     0
1002
}
1002
{
1000
REACTOR
1002
}
1001
GENIUS_GENOBJ-N-FIL_13
1002
{
1000
OWNER
1000
GEN
1002
}
  0
LINE
  5
3D2
330
3B4
100
AcDbEntity
  8
0
100
AcDbLine
 10
6914.877590549619
 20
2504.937182048737
 30
0.0
 11
6914.877590549619
 21
2508.449878376444
 31
0.0
  0
LINE
  5
3D3
330
3B4
100
AcDbEntity
  8
0
100
AcDbLine
 10
6922.213260704096
 20
2504.937182048706
 30
0.0
 11
6922.21326070409
 21
2485.693530212563
 31
0.0
  0
LINE
  5
3D4
330
3B4
100
AcDbEntity
  8
0
100
AcDbLine
 10
6922.213260704103
 20
2527.69353021257
 30
0.0
 11
6922.213260704097
 21
2508.449878376479
 31
0.0
  0
ELLIPSE
  5
3D5
330
3B4
100
AcDbEntity
  8
4
100
AcDbEllipse
 10
6941.783253882464
 20
2505.546703307998
 30
0.0
 11
-4.581756260385158
 21
-6.29546641760677
 31
0.0
210
0.0
220
0.0
230
0.9999999999999998
 40
0.4445804729482882
 41
0.0000000000001041
 42
6.28318530717969
  0
LINE
  5
3D6
330
3B4
100
AcDbEntity
  8
4
100
AcDbLine
 10
6922.799619419439
 20
2499.670932787865
 30
0.0
 11
6937.506946683061
 21
2499.670932787865
 31
0.0
  0
LINE
  5
3D7
330
3B4
100
AcDbEntity
  8
4
100
AcDbLine
 10
6946.504376074895
 20
2512.998116303647
 30
0.0
 11
6950.88136047326
 21
2527.039038026092
 31
0.0
  0
ELLIPSE
  5
3D8
330
3B4
100
AcDbEntity
  8
4
100
AcDbEllipse
 10
6953.044105995932
 20
2533.976906162133
 30
0.0
 11
-2.317226610730545
 21
-7.433427787993601
 31
0.0
210
0.0
220
0.0
230
1.0
 40
0.4445804729482882
 41
0.0000000000000362
 42
6.283185307179622
  0
ELLIPSE
  5
3D9
330
3B4
100
AcDbEntity
  8
4
100
AcDbEllipse
 10
6920.998745606455
 20
2570.594328799746
 30
0.0
 11
7.075541348441768
 21
-3.249938841160563
 31
0.0
210
0.0
220
0.0
230
1.0
 40
0.4445804729482882
 41
-0.0000000000000357
 42
6.28318530717955
  0
ELLIPSE
  5
3DA
330
3B4
100
AcDbEntity
  8
4
100
AcDbEllipse
 10
6892.742051851373
 20
2578.262263995649
 30
0.0
 11
7.616557849065214
 21
-1.616612005595749
 31
0.0
210
0.0
220
0.0
230
1.0
 40
0.4445804729482882
 41
0.0000000000002194
 42
6.283185307179805
  0
LINE
  5
3DB
330
3B4
100
AcDbEntity
  8
4
100
AcDbLine
 10
6884.906632526815
 20
2579.076458863982
 30
0.0
 11
6870.499453216118
 21
2576.120336480058
 31
0.0
  0
ARC
  5
3DC
330
3B4
100
AcDbEntity
  8
0
100
AcDbCircle
 10
6892.213260704123
 20
2557.693530212578
 30
0.0
 40
3.0
100
AcDbArc
 50
359.9999999999479
 51
90.0
1001
GENIUS_GENODEF_13
1002
{
1000
HIER
1070
     0
1002
}
1002
{
1000
MANEDIT
1070
     0
1002
}
1002
{
1000
NOSEL
1070
     0
1002
}
1002
{
1000
BEHIND
1070
     0
1002
}
1002
{
1000
REACTOR
1002
}
1001
GENIUS_GENOBJ-N-FIL_13
1002
{
1000
OWNER
1000
GEN
1002
}
  0
LINE
  5
3DD
330
3B4
100
AcDbEntity
  8
4
100
AcDbLine
 10
6914.237675555232
 20
2573.699824631825
 30
0.0
 11
6899.85084143196
 21
2576.753425645181
 31
0.0
  0
ELLIPSE
  5
3DE
330
3B4
100
AcDbEntity
  8
4
100
AcDbEllipse
 10
6944.945394655161
 20
2561.675642345989
 30
0.0
 11
3.407729726234052
 21
-7.000911794740315
 31
0.0
210
0.0
220
0.0
230
0.9999999999999998
 40
0.4445804729482882
 41
0.0000000000000693
 42
6.283185307179655
  0
LINE
  5
3DF
330
3B4
100
AcDbEntity
  8
4
100
AcDbLine
 10
6940.967500172651
 20
2568.422277096795
 30
0.0
 11
6927.602586292967
 21
2567.561051585889
 31
0.0
  0
ENDBLK
  5
3E0
330
3B4
100
AcDbEntity
  8
0
100
AcDbBlockEnd
  0
BLOCK
  5
CA6
330
C9C
100
AcDbEntity
  8
0
100
AcDbBlockBegin
  2
*D19
 70
     1
 10
0.0
 20
0.0
 30
0.0
  3
*D19
  1

  0
LINE
  5
CFC
330
C9C
100
AcDbEntity
  8
AM_5
 62
     3
100
AcDbLine
 10
1841.269950075689
 20
2206.907603289269
 30
0.0
 11
966.0499954655929
 21
2206.90760328927
 31
0.0
  0
LINE
  5
CFD
330
C9C
100
AcDbEntity
  8
AM_5
 62
     3
100
AcDbLine
 10
1836.269950075689
 20
1506.907603289269
 30
0.0
 11
966.0499954655927
 21
1506.907603289269
 31
0.0
  0
LINE
  5
CFE
330
C9C
100
AcDbEntity
  8
AM_5
 62
     3
100
AcDbLine
 10
976.0499954655928
 20
2181.907603289269
 30
0.0
 11
976.0499954655927
 21
1531.907603289269
 31
0.0
  0
SOLID
  5
CFF
330
C9C
100
AcDbEntity
  8
AM_5
 62
     3
100
AcDbTrace
 10
971.8833287989262
 20
2181.907603289269
 30
0.0
 11
980.2166621322594
 21
2181.907603289269
 31
0.0
 12
976.0499954655928
 22
2206.90760328927
 32
0.0
 13
976.0499954655928
 23
2206.90760328927
 33
0.0
  0
SOLID
  5
D00
330
C9C
100
AcDbEntity
  8
AM_5
 62
     3
100
AcDbTrace
 10
971.883328798926
 20
1531.907603289269
 30
0.0
 11
980.2166621322593
 21
1531.907603289269
 31
0.0
 12
976.0499954655927
 22
1506.907603289269
 32
0.0
 13
976.0499954655927
 23
1506.907603289269
 33
0.0
  0
MTEXT
  5
D01
330
C9C
100
AcDbEntity
  8
AM_5
 62
     2
100
AcDbMText
 10
943.5499954655924
 20
1856.907603289268
 30
0.0
 40
35.0
 41
0.0
 71
     5
 72
     1
  1
700
 11
0.0000000000000001
 21
1.0
 31
0.0
 73
     1
 44
1.0
1001
ACAD
1000
MTEXTBEGIN
1070
    73
1070
     1
1070
    44
1040
1.0
1070
    74
1070
     0
1000
MTEXTEND
  0
POINT
  5
D02
330
C9C
100
AcDbEntity
  8
DEFPOINTS
 62
     0
100
AcDbPoint
 10
1851.269950075689
 20
2206.907603289269
 30
0.0
  0
POINT
  5
D03
330
C9C
100
AcDbEntity
  8
DEFPOINTS
 62
     0
100
AcDbPoint
 10
1846.269950075689
 20
1506.907603289269
 30
0.0
  0
POINT
  5
D04
330
C9C
100
AcDbEntity
  8
DEFPOINTS
 62
     0
100
AcDbPoint
 10
976.0499954655927
 20
1506.907603289269
 30
0.0
  0
ENDBLK
  5
CA7
330
C9C
100
AcDbEntity
  8
0
100
AcDbBlockEnd
  0
BLOCK
  5
CB2
330
CA8
100
AcDbEntity
  8
0
100
AcDbBlockBegin
  2
*D20
 70
     1
 10
0.0
 20
0.0
 30
0.0
  3
*D20
  1

  0
LINE
  5
D05
330
CA8
100
AcDbEntity
  8
AM_5
 62
     3
100
AcDbLine
 10
1333.769950075685
 20
3205.159168267193
 30
0.0
 11
1333.769950075685
 21
3081.278311820639
 31
0.0
  0
LINE
  5
D06
330
CA8
100
AcDbEntity
  8
AM_5
 62
     3
100
AcDbLine
 10
2513.769950075686
 20
3205.159168267193
 30
0.0
 11
2513.769950075686
 21
3081.278311820639
 31
0.0
  0
LINE
  5
D07
330
CA8
100
AcDbEntity
  8
AM_5
 62
     3
100
AcDbLine
 10
1358.769950075685
 20
3091.278311820639
 30
0.0
 11
2488.769950075685
 21
3091.278311820639
 31
0.0
  0
SOLID
  5
D08
330
CA8
100
AcDbEntity
  8
AM_5
 62
     3
100
AcDbTrace
 10
1358.769950075685
 20
3095.444978487306
 30
0.0
 11
1358.769950075685
 21
3087.111645153973
 31
0.0
 12
1333.769950075685
 22
3091.278311820639
 32
0.0
 13
1333.769950075685
 23
3091.278311820639
 33
0.0
  0
SOLID
  5
D09
330
CA8
100
AcDbEntity
  8
AM_5
 62
     3
100
AcDbTrace
 10
2488.769950075685
 20
3095.444978487306
 30
0.0
 11
2488.769950075685
 21
3087.111645153973
 31
0.0
 12
2513.769950075686
 22
3091.278311820639
 32
0.0
 13
2513.769950075686
 23
3091.278311820639
 33
0.0
  0
MTEXT
  5
D0A
330
CA8
100
AcDbEntity
  8
AM_5
 62
     2
100
AcDbMText
 10
1923.769950075685
 20
3123.781756702529
 30
0.0
 40
35.0
 41
0.0
 71
     5
 72
     1
  1
1200
 73
     1
 44
1.0
1001
ACAD
1000
MTEXTBEGIN
1070
    73
1070
     1
1070
    44
1040
1.0
1070
    74
1070
     0
1000
MTEXTEND
  0
POINT
  5
D0B
330
CA8
100
AcDbEntity
  8
DEFPOINTS
 62
     0
100
AcDbPoint
 10
1333.769950075685
 20
3215.159168267193
 30
0.0
  0
POINT
  5
D0C
330
CA8
100
AcDbEntity
  8
DEFPOINTS
 62
     0
100
AcDbPoint
 10
2513.769950075686
 20
3215.159168267193
 30
0.0
  0
POINT
  5
D0D
330
CA8
100
AcDbEntity
  8
DEFPOINTS
 62
     0
100
AcDbPoint
 10
2513.769950075686
 20
3091.278311820639
 30
0.0
  0
ENDBLK
  5
CB3
330
CA8
100
AcDbEntity
  8
0
100
AcDbBlockEnd
  0
BLOCK
  5
CBE
330
CB4
100
AcDbEntity
  8
0
100
AcDbBlockBegin
  2
*D21
 70
     1
 10
0.0
 20
0.0
 30
0.0
  3
*D21
  1

  0
LINE
  5
D0E
330
CB4
100
AcDbEntity
  8
AM_5
 62
     3
100
AcDbLine
 10
1348.769950075685
 20
3190.159168267188
 30
0.0
 11
1050.549784563161
 21
3190.159168267188
 31
0.0
  0
LINE
  5
D0F
330
CB4
100
AcDbEntity
  8
AM_5
 62
     3
100
AcDbLine
 10
1226.269950075685
 20
4195.159168267188
 30
0.0
 11
1050.549784563161
 21
4195.159168267188
 31
0.0
  0
LINE
  5
D10
330
CB4
100
AcDbEntity
  8
AM_5
 62
     3
100
AcDbLine
 10
1060.549784563161
 20
3215.159168267188
 30
0.0
 11
1060.549784563161
 21
4170.159168267188
 31
0.0
  0
SOLID
  5
D11
330
CB4
100
AcDbEntity
  8
AM_5
 62
     3
100
AcDbTrace
 10
1056.383117896494
 20
3215.159168267188
 30
0.0
 11
1064.716451229828
 21
3215.159168267188
 31
0.0
 12
1060.549784563161
 22
3190.159168267188
 32
0.0
 13
1060.549784563161
 23
3190.159168267188
 33
0.0
  0
SOLID
  5
D12
330
CB4
100
AcDbEntity
  8
AM_5
 62
     3
100
AcDbTrace
 10
1056.383117896494
 20
4170.159168267188
 30
0.0
 11
1064.716451229828
 21
4170.159168267188
 31
0.0
 12
1060.549784563161
 22
4195.159168267188
 32
0.0
 13
1060.549784563161
 23
4195.159168267188
 33
0.0
  0
MTEXT
  5
D13
330
CB4
100
AcDbEntity
  8
AM_5
 62
     2
100
AcDbMText
 10
1028.049784563161
 20
3795.159168262464
 30
0.0
 40
35.0
 41
0.0
 71
     5
 72
     1
  1
1000
 11
0.0000000000000001
 21
1.0
 31
0.0
 73
     1
 44
1.0
1001
ACAD
1000
MTEXTBEGIN
1070
    73
1070
     1
1070
    44
1040
1.0
1070
    74
1070
     0
1000
MTEXTEND
  0
POINT
  5
D14
330
CB4
100
AcDbEntity
  8
DEFPOINTS
 62
     0
100
AcDbPoint
 10
1358.769950075685
 20
3190.159168267188
 30
0.0
  0
POINT
  5
D15
330
CB4
100
AcDbEntity
  8
DEFPOINTS
 62
     0
100
AcDbPoint
 10
1236.269950075685
 20
4195.159168267188
 30
0.0
  0
POINT
  5
D16
330
CB4
100
AcDbEntity
  8
DEFPOINTS
 62
     0
100
AcDbPoint
 10
1060.549784563161
 20
4195.159168267188
 30
0.0
  0
ENDBLK
  5
CBF
330
CB4
100
AcDbEntity
  8
0
100
AcDbBlockEnd
  0
BLOCK
  5
CCA
330
CC0
100
AcDbEntity
  8
0
100
AcDbBlockBegin
  2
*D22
 70
     1
 10
0.0
 20
0.0
 30
0.0
  3
*D22
  1

  0
LINE
  5
D17
330
CC0
100
AcDbEntity
  8
AM_5
 62
     3
100
AcDbLine
 10
2507.237936782508
 20
3191.63698297047
 30
0.0
 11
2925.786355654742
 21
3191.63698297047
 31
0.0
  0
LINE
  5
D18
330
CC0
100
AcDbEntity
  8
AM_5
 62
     3
100
AcDbLine
 10
2605.769950075689
 20
4125.159168267187
 30
0.0
 11
2925.786355654742
 21
4125.159168267187
 31
0.0
  0
LINE
  5
D19
330
CC0
100
AcDbEntity
  8
AM_5
 62
     3
100
AcDbLine
 10
2915.786355654742
 20
3216.636982970469
 30
0.0
 11
2915.786355654742
 21
4100.159168267188
 31
0.0
  0
SOLID
  5
D1A
330
CC0
100
AcDbEntity
  8
AM_5
 62
     3
100
AcDbTrace
 10
2911.619688988075
 20
3216.636982970469
 30
0.0
 11
2919.953022321408
 21
3216.636982970469
 31
0.0
 12
2915.786355654742
 22
3191.63698297047
 32
0.0
 13
2915.786355654742
 23
3191.63698297047
 33
0.0
  0
SOLID
  5
D1B
330
CC0
100
AcDbEntity
  8
AM_5
 62
     3
100
AcDbTrace
 10
2911.619688988075
 20
4100.159168267188
 30
0.0
 11
2919.953022321408
 21
4100.159168267188
 31
0.0
 12
2915.786355654742
 22
4125.159168267187
 32
0.0
 13
2915.786355654742
 23
4125.159168267187
 33
0.0
  0
MTEXT
  5
D1C
330
CC0
100
AcDbEntity
  8
AM_5
 62
     2
100
AcDbMText
 10
2883.286355654741
 20
3760.15916826719
 30
0.0
 40
35.0
 41
0.0
 71
     5
 72
     1
  1
930
 11
0.0000000000000001
 21
1.0
 31
0.0
 73
     1
 44
1.0
1001
ACAD
1000
MTEXTBEGIN
1070
    73
1070
     1
1070
    44
1040
1.0
1070
    74
1070
     0
1000
MTEXTEND
  0
POINT
  5
D1D
330
CC0
100
AcDbEntity
  8
DEFPOINTS
 62
     0
100
AcDbPoint
 10
2497.237936782508
 20
3191.63698297047
 30
0.0
  0
POINT
  5
D1E
330
CC0
100
AcDbEntity
  8
DEFPOINTS
 62
     0
100
AcDbPoint
 10
2595.769950075689
 20
4125.159168267187
 30
0.0
  0
POINT
  5
D1F
330
CC0
100
AcDbEntity
  8
DEFPOINTS
 62
     0
100
AcDbPoint
 10
2915.786355654742
 20
4125.159168267187
 30
0.0
  0
ENDBLK
  5
CCB
330
CC0
100
AcDbEntity
  8
0
100
AcDbBlockEnd
  0
BLOCK
  5
CD6
330
CCC
100
AcDbEntity
  8
0
100
AcDbBlockBegin
  2
*D23
 70
     1
 10
0.0
 20
0.0
 30
0.0
  3
*D23
  1

  0
LINE
  5
D20
330
CCC
100
AcDbEntity
  8
AM_5
 62
     3
100
AcDbLine
 10
1226.269229114055
 20
4190.159168262463
 30
0.0
 11
1119.929568686719
 21
4190.159168262463
 31
0.0
  0
LINE
  5
D21
330
CCC
100
AcDbEntity
  8
AM_5
 62
     3
100
AcDbLine
 10
1226.269229114055
 20
4300.159168262462
 30
0.0
 11
1119.929568686719
 21
4300.159168262462
 31
0.0
  0
LINE
  5
D22
330
CCC
100
AcDbEntity
  8
AM_5
 62
     3
100
AcDbLine
 10
1129.929568686719
 20
4215.159168262464
 30
0.0
 11
1129.929568686719
 21
4275.159168262462
 31
0.0
  0
SOLID
  5
D23
330
CCC
100
AcDbEntity
  8
AM_5
 62
     3
100
AcDbTrace
 10
1125.762902020052
 20
4215.159168262464
 30
0.0
 11
1134.096235353385
 21
4215.159168262464
 31
0.0
 12
1129.929568686719
 22
4190.159168262463
 32
0.0
 13
1129.929568686719
 23
4190.159168262463
 33
0.0
  0
SOLID
  5
D24
330
CCC
100
AcDbEntity
  8
AM_5
 62
     3
100
AcDbTrace
 10
1125.762902020052
 20
4275.159168262462
 30
0.0
 11
1134.096235353385
 21
4275.159168262462
 31
0.0
 12
1129.929568686719
 22
4300.159168262462
 32
0.0
 13
1129.929568686719
 23
4300.159168262462
 33
0.0
  0
MTEXT
  5
D25
330
CCC
100
AcDbEntity
  8
AM_5
 62
     2
100
AcDbMText
 10
1097.429568686718
 20
4247.379799772793
 30
0.0
 40
35.0
 41
0.0
 71
     5
 72
     1
  1
%%c110
 11
0.0000000000000001
 21
1.0
 31
0.0
 73
     1
 44
1.0
1001
ACAD
1000
MTEXTBEGIN
1070
    73
1070
     1
1070
    44
1040
1.0
1070
    74
1070
     0
1000
MTEXTEND
  0
POINT
  5
D26
330
CCC
100
AcDbEntity
  8
DEFPOINTS
 62
     0
100
AcDbPoint
 10
1236.269229114055
 20
4190.159168262463
 30
0.0
  0
POINT
  5
D27
330
CCC
100
AcDbEntity
  8
DEFPOINTS
 62
     0
100
AcDbPoint
 10
1236.269229114055
 20
4300.159168262462
 30
0.0
  0
POINT
  5
D28
330
CCC
100
AcDbEntity
  8
DEFPOINTS
 62
     0
100
AcDbPoint
 10
1129.929568686719
 20
4300.159168262462
 30
0.0
  0
ENDBLK
  5
CD7
330
CCC
100
AcDbEntity
  8
0
100
AcDbBlockEnd
  0
BLOCK
  5
CE2
330
CD8
100
AcDbEntity
  8
0
100
AcDbBlockBegin
  2
*D24
 70
     1
 10
0.0
 20
0.0
 30
0.0
  3
*D24
  1

  0
LINE
  5
D29
330
CD8
100
AcDbEntity
  8
AM_5
 62
     3
100
AcDbLine
 10
2605.769950075689
 20
4120.159168267188
 30
0.0
 11
2760.292379023773
 21
4120.159168267188
 31
0.0
  0
LINE
  5
D2A
330
CD8
100
AcDbEntity
  8
AM_5
 62
     3
100
AcDbLine
 10
2605.769950075689
 20
4230.159168267188
 30
0.0
 11
2760.292379023773
 21
4230.159168267188
 31
0.0
  0
LINE
  5
D2B
330
CD8
100
AcDbEntity
  8
AM_5
 62
     3
100
AcDbLine
 10
2750.292379023772
 20
4145.159168267188
 30
0.0
 11
2750.292379023772
 21
4205.159168267187
 31
0.0
  0
SOLID
  5
D2C
330
CD8
100
AcDbEntity
  8
AM_5
 62
     3
100
AcDbTrace
 10
2746.125712357106
 20
4145.159168267188
 30
0.0
 11
2754.459045690439
 21
4145.159168267188
 31
0.0
 12
2750.292379023772
 22
4120.159168267188
 32
0.0
 13
2750.292379023772
 23
4120.159168267188
 33
0.0
  0
SOLID
  5
D2D
330
CD8
100
AcDbEntity
  8
AM_5
 62
     3
100
AcDbTrace
 10
2746.125712357106
 20
4205.159168267187
 30
0.0
 11
2754.459045690439
 21
4205.159168267187
 31
0.0
 12
2750.292379023772
 22
4230.159168267188
 32
0.0
 13
2750.292379023772
 23
4230.159168267188
 33
0.0
  0
MTEXT
  5
D2E
330
CD8
100
AcDbEntity
  8
AM_5
 62
     2
100
AcDbMText
 10
2717.792379023772
 20
4175.159168267188
 30
0.0
 40
35.0
 41
0.0
 71
     5
 72
     1
  1
%%c110
 11
0.0000000000000001
 21
1.0
 31
0.0
 73
     1
 44
1.0
1001
ACAD
1000
MTEXTBEGIN
1070
    73
1070
     1
1070
    44
1040
1.0
1070
    74
1070
     0
1000
MTEXTEND
  0
POINT
  5
D2F
330
CD8
100
AcDbEntity
  8
DEFPOINTS
 62
     0
100
AcDbPoint
 10
2595.769950075689
 20
4120.159168267188
 30
0.0
  0
POINT
  5
D30
330
CD8
100
AcDbEntity
  8
DEFPOINTS
 62
     0
100
AcDbPoint
 10
2595.769950075689
 20
4230.159168267188
 30
0.0
  0
POINT
  5
D31
330
CD8
100
AcDbEntity
  8
DEFPOINTS
 62
     0
100
AcDbPoint
 10
2750.292379023772
 20
4230.159168267188
 30
0.0
  0
ENDBLK
  5
CE3
330
CD8
100
AcDbEntity
  8
0
100
AcDbBlockEnd
  0
BLOCK
  5
CEE
330
CE4
100
AcDbEntity
  8
0
100
AcDbBlockBegin
  2
*D25
 70
     1
 10
0.0
 20
0.0
 30
0.0
  3
*D25
  1

  0
LINE
  5
D32
330
CE4
100
AcDbEntity
  8
AM_5
 62
     3
100
AcDbLine
 10
1236.269950075689
 20
1791.907603289269
 30
0.0
 11
1236.269950075689
 21
1252.903033509854
 31
0.0
  0
LINE
  5
D33
330
CE4
100
AcDbEntity
  8
AM_5
 62
     3
100
AcDbLine
 10
2595.769950075689
 20
1791.907603289267
 30
0.0
 11
2595.769950075689
 21
1252.903033509854
 31
0.0
  0
LINE
  5
D34
330
CE4
100
AcDbEntity
  8
AM_5
 62
     3
100
AcDbLine
 10
1261.269950075689
 20
1262.903033509854
 30
0.0
 11
2570.769950075689
 21
1262.903033509854
 31
0.0
  0
SOLID
  5
D35
330
CE4
100
AcDbEntity
  8
AM_5
 62
     3
100
AcDbTrace
 10
1261.269950075689
 20
1267.069700176521
 30
0.0
 11
1261.269950075689
 21
1258.736366843188
 31
0.0
 12
1236.269950075689
 22
1262.903033509854
 32
0.0
 13
1236.269950075689
 23
1262.903033509854
 33
0.0
  0
SOLID
  5
D36
330
CE4
100
AcDbEntity
  8
AM_5
 62
     3
100
AcDbTrace
 10
2570.769950075689
 20
1267.069700176521
 30
0.0
 11
2570.769950075689
 21
1258.736366843188
 31
0.0
 12
2595.769950075689
 22
1262.903033509854
 32
0.0
 13
2595.769950075689
 23
1262.903033509854
 33
0.0
  0
MTEXT
  5
D37
330
CE4
100
AcDbEntity
  8
AM_5
 62
     2
100
AcDbMText
 10
1912.986053750511
 20
1295.403033509854
 30
0.0
 40
35.0
 41
0.0
 71
     5
 72
     1
  1
1360
 73
     1
 44
1.0
1001
ACAD
1000
MTEXTBEGIN
1070
    73
1070
     1
1070
    44
1040
1.0
1070
    74
1070
     0
1000
MTEXTEND
  0
POINT
  5
D38
330
CE4
100
AcDbEntity
  8
DEFPOINTS
 62
     0
100
AcDbPoint
 10
1236.269950075689
 20
1801.907603289269
 30
0.0
  0
POINT
  5
D39
330
CE4
100
AcDbEntity
  8
DEFPOINTS
 62
     0
100
AcDbPoint
 10
2595.769950075689
 20
1801.907603289268
 30
0.0
  0
POINT
  5
D3A
330
CE4
100
AcDbEntity
  8
DEFPOINTS
 62
     0
100
AcDbPoint
 10
2595.769950075689
 20
1262.903033509854
 30
0.0
  0
ENDBLK
  5
CEF
330
CE4
100
AcDbEntity
  8
0
100
AcDbBlockEnd
  0
BLOCK
  5
CFA
330
CF0
100
AcDbEntity
  8
0
100
AcDbBlockBegin
  2
*D26
 70
     1
 10
0.0
 20
0.0
 30
0.0
  3
*D26
  1

  0
LINE
  5
D3B
330
CF0
100
AcDbEntity
  8
AM_5
 62
     3
100
AcDbLine
 10
2507.237936782508
 20
3191.63698297047
 30
0.0
 11
3016.488675070697
 21
3191.63698297047
 31
0.0
  0
LINE
  5
D3C
330
CF0
100
AcDbEntity
  8
AM_5
 62
     3
100
AcDbLine
 10
1941.288797920703
 20
4517.766609539957
 30
0.0
 11
3016.488675070697
 21
4517.766609539957
 31
0.0
  0
LINE
  5
D3D
330
CF0
100
AcDbEntity
  8
AM_5
 62
     3
100
AcDbLine
 10
3006.488675070697
 20
3216.636982970469
 30
0.0
 11
3006.488675070697
 21
4492.766609539956
 31
0.0
  0
SOLID
  5
D3E
330
CF0
100
AcDbEntity
  8
AM_5
 62
     3
100
AcDbTrace
 10
3002.322008404031
 20
3216.636982970469
 30
0.0
 11
3010.655341737364
 21
3216.636982970469
 31
0.0
 12
3006.488675070697
 22
3191.63698297047
 32
0.0
 13
3006.488675070697
 23
3191.63698297047
 33
0.0
  0
SOLID
  5
D3F
330
CF0
100
AcDbEntity
  8
AM_5
 62
     3
100
AcDbTrace
 10
3002.322008404031
 20
4492.766609539956
 30
0.0
 11
3010.655341737364
 21
4492.766609539956
 31
0.0
 12
3006.488675070697
 22
4517.766609539957
 32
0.0
 13
3006.488675070697
 23
4517.766609539957
 33
0.0
  0
MTEXT
  5
D40
330
CF0
100
AcDbEntity
  8
AM_5
 62
     2
100
AcDbMText
 10
2973.988675070696
 20
3860.159168267188
 30
0.0
 40
35.0
 41
0.0
 71
     5
 72
     1
  1
1350
 11
0.0000000000000001
 21
1.0
 31
0.0
 73
     1
 44
1.0
1001
ACAD
1000
MTEXTBEGIN
1070
    73
1070
     1
1070
    44
1040
1.0
1070
    74
1070
     0
1000
MTEXTEND
  0
POINT
  5
D41
330
CF0
100
AcDbEntity
  8
DEFPOINTS
 62
     0
100
AcDbPoint
 10
2497.237936782508
 20
3191.63698297047
 30
0.0
  0
POINT
  5
D42
330
CF0
100
AcDbEntity
  8
DEFPOINTS
 62
     0
100
AcDbPoint
 10
1931.288797920703
 20
4517.766609539957
 30
0.0
  0
POINT
  5
D43
330
CF0
100
AcDbEntity
  8
DEFPOINTS
 62
     0
100
AcDbPoint
 10
3006.488675070697
 20
4517.766609539957
 30
0.0
  0
ENDBLK
  5
CFB
330
CF0
100
AcDbEntity
  8
0
100
AcDbBlockEnd
  0
ENDSEC
  0
SECTION
  2
ENTITIES
  0
DIMENSION
  5
84E
330
1F
100
AcDbEntity
  8
AM_5
100
AcDbDimension
  2
*D21
 10
1060.549784563161
 20
4195.159168267188
 30
0.0
 11
1060.549784563161
 21
3795.159168262464
 31
0.0
 70
   160
  1
1000
 71
     5
 42
1004.999999999999
  3
AM_ISO$0
100
AcDbAlignedDimension
 13
1358.769950075685
 23
3190.159168267188
 33
0.0
 14
1236.269950075685
 24
4195.159168267188
 34
0.0
 50
90.0
100
AcDbRotatedDimension
1001
ACAD
1000
DSTYLE
1002
{
1070
    40
1040
10.0
1070
   271
1070
     0
1002
}
  0
DIMENSION
  5
84F
330
1F
100
AcDbEntity
  8
AM_5
100
AcDbDimension
  2
*D22
 10
2915.786355654742
 20
4125.159168267187
 30
0.0
 11
2915.786355654741
 21
3760.15916826719
 31
0.0
 70
   160
  1
930
 71
     5
 42
933.5221852967189
  3
AM_ISO$0
100
AcDbAlignedDimension
 13
2497.237936782508
 23
3191.63698297047
 33
0.0
 14
2595.769950075689
 24
4125.159168267187
 34
0.0
 50
90.0
100
AcDbRotatedDimension
1001
ACAD
1000
DSTYLE
1002
{
1070
    40
1040
10.0
1070
   271
1070
     0
1002
}
  0
DIMENSION
  5
850
330
1F
100
AcDbEntity
  8
AM_5
100
AcDbDimension
  2
*D23
 10
1129.929568686719
 20
4300.159168262462
 30
0.0
 11
1129.929568686718
 21
4247.379799772793
 31
0.0
 70
   160
  1
%%c<>
 71
     5
 42
109.9999999999982
  3
AM_ISO$0
100
AcDbAlignedDimension
 13
1236.269229114055
 23
4190.159168262463
 33
0.0
 14
1236.269229114055
 24
4300.159168262462
 34
0.0
 50
90.0
100
AcDbRotatedDimension
1001
ACAD
1000
DSTYLE
1002
{
1070
    40
1040
10.0
1070
   271
1070
     0
1002
}
  0
DIMENSION
  5
851
330
1F
100
AcDbEntity
  8
AM_5
100
AcDbDimension
  2
*D24
 10
2750.292379023772
 20
4230.159168267188
 30
0.0
 11
2750.292379023772
 21
4175.159168267188
 31
0.0
 70
   160
  1
%%c<>
 71
     5
 42
110.0
  3
AM_ISO$0
100
AcDbAlignedDimension
 13
2595.769950075689
 23
4120.159168267188
 33
0.0
 14
2595.769950075689
 24
4230.159168267188
 34
0.0
 50
90.0
100
AcDbRotatedDimension
1001
ACAD
1000
DSTYLE
1002
{
1070
    40
1040
10.0
1070
   271
1070
     0
1002
}
  0
DIMENSION
  5
852
330
1F
100
AcDbEntity
  8
AM_5
100
AcDbDimension
  2
*D25
 10
2595.769950075689
 20
1262.903033509854
 30
0.0
 11
1912.986053750511
 21
1262.903033509854
 31
0.0
 70
   160
 71
     5
 42
1359.5
  3
AM_ISO$0
100
AcDbAlignedDimension
 13
1236.269950075689
 23
1801.907603289269
 33
0.0
 14
2595.769950075689
 24
1801.907603289268
 34
0.0
100
AcDbRotatedDimension
1001
ACAD
1000
DSTYLE
1002
{
1070
    40
1040
10.0
1070
   271
1070
     0
1002
}
  0
DIMENSION
  5
853
330
1F
100
AcDbEntity
  8
AM_5
100
AcDbDimension
  2
*D26
 10
3006.488675070697
 20
4517.766609539957
 30
0.0
 11
3006.488675070697
 21
3860.159168267188
 31
0.0
 70
   160
  1
1350
 71
     5
 42
1326.129626569487
  3
AM_ISO$0
100
AcDbAlignedDimension
 13
2497.237936782508
 23
3191.63698297047
 33
0.0
 14
1931.288797920703
 24
4517.766609539957
 34
0.0
 50
90.0
100
AcDbRotatedDimension
1001
ACAD
1000
DSTYLE
1002
{
1070
    40
1040
10.0
1070
   271
1070
     0
1002
}
  0
DIMENSION
  5
854
330
1F
100
AcDbEntity
  8
AM_5
100
AcDbDimension
  2
*D19
 10
976.0499954655927
 20
1506.907603289269
 30
0.0
 11
976.0499954655925
 21
1856.907603289268
 31
0.0
 70
   160
 71
     5
 42
700.0
  3
AM_ISO$0
100
AcDbAlignedDimension
 13
1851.269950075689
 23
2206.907603289269
 33
0.0
 14
1846.269950075689
 24
1506.907603289269
 34
0.0
 50
90.0
100
AcDbRotatedDimension
1001
ACAD
1000
DSTYLE
1002
{
1070
    40
1040
10.0
1070
   271
1070
     0
1002
}
  0
DIMENSION
  5
855
330
1F
100
AcDbEntity
  8
AM_5
100
AcDbDimension
  2
*D20
 10
2513.769950075686
 20
3091.278311820639
 30
0.0
 11
1923.769950075685
 21
3123.781756702529
 31
0.0
 70
    32
  1
1200
 71
     5
 42
1180.0
  3
AM_ISO$0
100
AcDbAlignedDimension
 13
1333.769950075685
 23
3215.159168267193
 33
0.0
 14
2513.769950075686
 24
3215.159168267193
 34
0.0
100
AcDbRotatedDimension
1001
ACAD
1000
DSTYLE
1002
{
1070
    40
1040
10.0
1070
   271
1070
     0
1002
}
  0
TEXT
  5
856
330
1F
100
AcDbEntity
  8
AM_6
100
AcDbText
 10
1009.092424934092
 20
1948.555308369263
 30
0.0
 40
27.0
  1
Zulauf
100
AcDbText
  0
TEXT
  5
857
330
1F
100
AcDbEntity
  8
AM_6
100
AcDbText
 10
1009.092424934092
 20
1911.055308369263
 30
0.0
 40
27.0
  1
DN 100
100
AcDbText
  0
LINE
  5
858
330
1F
100
AcDbEntity
  8
406
  6
AUSGEZOGEN
 62
     7
100
AcDbLine
 10
1166.930250622859
 20
1855.032603289268
 30
0.0
 11
1166.930250622859
 21
1858.783335709266
 31
0.0
  0
LINE
  5
859
330
1F
100
AcDbEntity
  8
406
  6
AUSGEZOGEN
 62
     7
100
AcDbLine
 10
1165.680250622858
 20
1853.782603289268
 30
0.0
 11
1165.680250622858
 21
1860.033335709266
 31
0.0
  0
LINE
  5
85A
330
1F
100
AcDbEntity
  8
406
  6
AUSGEZOGEN
 62
     7
100
AcDbLine
 10
1164.430250622858
 20
1852.532603289268
 30
0.0
 11
1164.430250622858
 21
1861.283335709266
 31
0.0
  0
LINE
  5
85B
330
1F
100
AcDbEntity
  8
406
  6
AUSGEZOGEN
 62
     7
100
AcDbLine
 10
1163.180250622859
 20
1851.282603289268
 30
0.0
 11
1163.180250622859
 21
1862.533335709266
 31
0.0
  0
LINE
  5
85C
330
1F
100
AcDbEntity
  8
406
  6
AUSGEZOGEN
 62
     7
100
AcDbLine
 10
1161.930250622859
 20
1850.032603289269
 30
0.0
 11
1161.930250622859
 21
1863.783335709266
 31
0.0
  0
LINE
  5
85D
330
1F
100
AcDbEntity
  8
406
  6
AUSGEZOGEN
 62
     7
100
AcDbLine
 10
1160.680250622859
 20
1848.782603289268
 30
0.0
 11
1160.680250622859
 21
1865.033335709266
 31
0.0
  0
LINE
  5
85E
330
1F
100
AcDbEntity
  8
406
  6
AUSGEZOGEN
 62
     7
100
AcDbLine
 10
1159.430250622858
 20
1847.532603289268
 30
0.0
 11
1159.430250622858
 21
1866.283335709266
 31
0.0
  0
LINE
  5
85F
330
1F
100
AcDbEntity
  8
406
  6
AUSGEZOGEN
 62
     7
100
AcDbLine
 10
1158.180250622859
 20
1846.282603289268
 30
0.0
 11
1158.180250622859
 21
1867.533335709266
 31
0.0
  0
LINE
  5
860
330
1F
100
AcDbEntity
  8
406
  6
AUSGEZOGEN
 62
     7
100
AcDbLine
 10
1156.930250622858
 20
1845.032603289268
 30
0.0
 11
1156.930250622858
 21
1868.783335709266
 31
0.0
  0
LINE
  5
861
330
1F
100
AcDbEntity
  8
406
  6
AUSGEZOGEN
 62
     7
100
AcDbLine
 10
1155.680250622858
 20
1843.782603289269
 30
0.0
 11
1155.680250622858
 21
1870.033335709266
 31
0.0
  0
LINE
  5
862
330
1F
100
AcDbEntity
  8
406
  6
AUSGEZOGEN
 62
     7
100
AcDbLine
 10
1154.430250622858
 20
1842.532603289268
 30
0.0
 11
1154.430250622858
 21
1871.283335709266
 31
0.0
  0
LINE
  5
863
330
1F
100
AcDbEntity
  8
406
  6
AUSGEZOGEN
 62
     7
100
AcDbLine
 10
1153.180250622859
 20
1841.281870869264
 30
0.0
 11
1153.180250622859
 21
1872.532359149269
 31
0.0
  0
LINE
  5
864
330
1F
100
AcDbEntity
  8
406
  6
AUSGEZOGEN
 62
     7
100
AcDbLine
 10
1151.930250622859
 20
1840.031870869263
 30
0.0
 11
1151.930250622859
 21
1873.782359149269
 31
0.0
  0
LINE
  5
865
330
1F
100
AcDbEntity
  8
406
  6
AUSGEZOGEN
 62
     7
100
AcDbLine
 10
1150.680250622858
 20
1838.781870869263
 30
0.0
 11
1150.680250622858
 21
1875.032359149269
 31
0.0
  0
LINE
  5
866
330
1F
100
AcDbEntity
  8
406
  6
AUSGEZOGEN
 62
     7
100
AcDbLine
 10
1149.430250622859
 20
1837.531870869263
 30
0.0
 11
1149.430250622859
 21
1876.282359149269
 31
0.0
  0
LINE
  5
867
330
1F
100
AcDbEntity
  8
406
  6
AUSGEZOGEN
 62
     7
100
AcDbLine
 10
1148.180250622859
 20
1836.281870869263
 30
0.0
 11
1148.180250622859
 21
1877.532359149269
 31
0.0
  0
LINE
  5
868
330
1F
100
AcDbEntity
  8
406
  6
AUSGEZOGEN
 62
     7
100
AcDbLine
 10
1146.930250622858
 20
1835.031870869263
 30
0.0
 11
1146.930250622858
 21
1878.782359149269
 31
0.0
  0
LINE
  5
869
330
1F
100
AcDbEntity
  8
406
  6
AUSGEZOGEN
 62
     7
100
AcDbLine
 10
1145.680250622858
 20
1833.781870869263
 30
0.0
 11
1145.680250622858
 21
1880.032359149269
 31
0.0
  0
LINE
  5
86A
330
1F
100
AcDbEntity
  8
406
  6
AUSGEZOGEN
 62
     7
100
AcDbLine
 10
1144.430250622858
 20
1832.531870869263
 30
0.0
 11
1144.430250622858
 21
1881.282847429268
 31
0.0
  0
LINE
  5
86B
330
1F
100
AcDbEntity
  8
406
  6
AUSGEZOGEN
 62
     7
100
AcDbLine
 10
1143.180250622858
 20
1831.281870869263
 30
0.0
 11
1143.180250622858
 21
1882.532359149269
 31
0.0
  0
LINE
  5
86C
330
1F
100
AcDbEntity
  8
406
  6
AUSGEZOGEN
 62
     7
100
AcDbLine
 10
1141.930250622859
 20
1830.031870869263
 30
0.0
 11
1141.930250622859
 21
1883.78235914927
 31
0.0
  0
LINE
  5
86D
330
1F
100
AcDbEntity
  8
406
  6
AUSGEZOGEN
 62
     7
100
AcDbLine
 10
1140.680250622859
 20
1828.781870869264
 30
0.0
 11
1140.680250622859
 21
1885.032359149268
 31
0.0
  0
LINE
  5
86E
330
1F
100
AcDbEntity
  8
406
  6
AUSGEZOGEN
 62
     7
100
AcDbLine
 10
1139.430250622866
 20
1827.531870869263
 30
0.0
 11
1139.430250622866
 21
1886.282847429268
 31
0.0
  0
LINE
  5
86F
330
1F
100
AcDbEntity
  8
406
  6
AUSGEZOGEN
 62
     7
100
AcDbLine
 10
1137.555250622859
 20
1825.657603289268
 30
0.0
 11
1137.555250622859
 21
1888.157603289268
 31
0.0
  0
LINE
  5
870
330
1F
100
AcDbEntity
  8
406
  6
AUSGEZOGEN
 62
     7
100
AcDbLine
 10
1138.180250622858
 20
1826.281870869263
 30
0.0
 11
1138.180250622858
 21
1887.532847429268
 31
0.0
  0
LINE
  5
871
330
1F
100
AcDbEntity
  8
406
  6
AUSGEZOGEN
 62
     7
100
AcDbLine
 10
1137.555250622859
 20
1888.157603289268
 30
0.0
 11
1168.805250622866
 21
1856.907603289268
 31
0.0
  0
LINE
  5
872
330
1F
100
AcDbEntity
  8
406
  6
AUSGEZOGEN
 62
     7
100
AcDbLine
 10
1168.805250622866
 20
1856.907603289268
 30
0.0
 11
1137.555250622859
 21
1825.657603289268
 31
0.0
  0
LINE
  5
873
330
1F
100
AcDbEntity
  8
406
  6
AUSGEZOGEN
 62
     7
100
AcDbLine
 10
1137.555250622859
 20
1856.907603289268
 30
0.0
 11
1077.153395152864
 21
1856.907603289268
 31
0.0
  0
TEXT
  5
874
330
1F
100
AcDbEntity
  8
AM_6
100
AcDbText
 10
2712.339000996547
 20
1946.854136489264
 30
0.0
 40
27.0
  1
Ablauf
100
AcDbText
  0
TEXT
  5
875
330
1F
100
AcDbEntity
  8
AM_6
100
AcDbText
 10
2712.339000996547
 20
1909.354136489264
 30
0.0
 40
27.0
  1
DN 100
100
AcDbText
  0
LINE
  5
876
330
1F
100
AcDbEntity
  8
406
  6
AUSGEZOGEN
 62
     7
100
AcDbLine
 10
2776.437511736544
 20
1856.907603289268
 30
0.0
 11
2725.769176776545
 21
1856.907603289268
 31
0.0
  0
LINE
  5
877
330
1F
100
AcDbEntity
  8
406
  6
AUSGEZOGEN
 62
     7
100
AcDbLine
 10
2807.062511736545
 20
1856.282603289267
 30
0.0
 11
2807.062511736545
 21
1857.533335709265
 31
0.0
  0
LINE
  5
878
330
1F
100
AcDbEntity
  8
406
  6
AUSGEZOGEN
 62
     7
100
AcDbLine
 10
2805.812511736545
 20
1855.032603289268
 30
0.0
 11
2805.812511736545
 21
1858.783335709266
 31
0.0
  0
LINE
  5
879
330
1F
100
AcDbEntity
  8
406
  6
AUSGEZOGEN
 62
     7
100
AcDbLine
 10
2804.562511736545
 20
1853.782603289268
 30
0.0
 11
2804.562511736545
 21
1860.033335709266
 31
0.0
  0
LINE
  5
87A
330
1F
100
AcDbEntity
  8
406
  6
AUSGEZOGEN
 62
     7
100
AcDbLine
 10
2803.312511736545
 20
1852.532603289267
 30
0.0
 11
2803.312511736545
 21
1861.283335709266
 31
0.0
  0
LINE
  5
87B
330
1F
100
AcDbEntity
  8
406
  6
AUSGEZOGEN
 62
     7
100
AcDbLine
 10
2802.062511736544
 20
1851.282603289267
 30
0.0
 11
2802.062511736544
 21
1862.533335709266
 31
0.0
  0
LINE
  5
87C
330
1F
100
AcDbEntity
  8
406
  6
AUSGEZOGEN
 62
     7
100
AcDbLine
 10
2800.812511736545
 20
1850.032603289267
 30
0.0
 11
2800.812511736545
 21
1863.783335709265
 31
0.0
  0
LINE
  5
87D
330
1F
100
AcDbEntity
  8
406
  6
AUSGEZOGEN
 62
     7
100
AcDbLine
 10
2799.562511736545
 20
1848.782603289268
 30
0.0
 11
2799.562511736545
 21
1865.033335709266
 31
0.0
  0
LINE
  5
87E
330
1F
100
AcDbEntity
  8
406
  6
AUSGEZOGEN
 62
     7
100
AcDbLine
 10
2798.312511736544
 20
1847.532603289266
 30
0.0
 11
2798.312511736544
 21
1866.283335709266
 31
0.0
  0
LINE
  5
87F
330
1F
100
AcDbEntity
  8
406
  6
AUSGEZOGEN
 62
     7
100
AcDbLine
 10
2797.062511736545
 20
1846.282603289267
 30
0.0
 11
2797.062511736545
 21
1867.533335709266
 31
0.0
  0
LINE
  5
880
330
1F
100
AcDbEntity
  8
406
  6
AUSGEZOGEN
 62
     7
100
AcDbLine
 10
2795.812511736544
 20
1845.032603289267
 30
0.0
 11
2795.812511736544
 21
1868.783335709266
 31
0.0
  0
LINE
  5
881
330
1F
100
AcDbEntity
  8
406
  6
AUSGEZOGEN
 62
     7
100
AcDbLine
 10
2794.562511736545
 20
1843.782603289267
 30
0.0
 11
2794.562511736545
 21
1870.033335709265
 31
0.0
  0
LINE
  5
882
330
1F
100
AcDbEntity
  8
406
  6
AUSGEZOGEN
 62
     7
100
AcDbLine
 10
2793.312511736545
 20
1842.532603289267
 30
0.0
 11
2793.312511736545
 21
1871.283335709266
 31
0.0
  0
LINE
  5
883
330
1F
100
AcDbEntity
  8
406
  6
AUSGEZOGEN
 62
     7
100
AcDbLine
 10
2792.062511736544
 20
1841.281870869262
 30
0.0
 11
2792.062511736544
 21
1872.532359149269
 31
0.0
  0
LINE
  5
884
330
1F
100
AcDbEntity
  8
406
  6
AUSGEZOGEN
 62
     7
100
AcDbLine
 10
2790.812511736544
 20
1840.031870869262
 30
0.0
 11
2790.812511736544
 21
1873.782359149269
 31
0.0
  0
LINE
  5
885
330
1F
100
AcDbEntity
  8
406
  6
AUSGEZOGEN
 62
     7
100
AcDbLine
 10
2789.562511736545
 20
1838.781870869263
 30
0.0
 11
2789.562511736545
 21
1875.032359149268
 31
0.0
  0
LINE
  5
886
330
1F
100
AcDbEntity
  8
406
  6
AUSGEZOGEN
 62
     7
100
AcDbLine
 10
2788.312511736545
 20
1837.531870869262
 30
0.0
 11
2788.312511736545
 21
1876.282359149269
 31
0.0
  0
LINE
  5
887
330
1F
100
AcDbEntity
  8
406
  6
AUSGEZOGEN
 62
     7
100
AcDbLine
 10
2787.062511736545
 20
1836.281870869262
 30
0.0
 11
2787.062511736545
 21
1877.532359149269
 31
0.0
  0
LINE
  5
888
330
1F
100
AcDbEntity
  8
406
  6
AUSGEZOGEN
 62
     7
100
AcDbLine
 10
2785.812511736545
 20
1835.031870869262
 30
0.0
 11
2785.812511736545
 21
1878.782359149269
 31
0.0
  0
LINE
  5
889
330
1F
100
AcDbEntity
  8
406
  6
AUSGEZOGEN
 62
     7
100
AcDbLine
 10
2784.562511736544
 20
1833.781870869263
 30
0.0
 11
2784.562511736544
 21
1880.032359149268
 31
0.0
  0
LINE
  5
88A
330
1F
100
AcDbEntity
  8
406
  6
AUSGEZOGEN
 62
     7
100
AcDbLine
 10
2783.312511736545
 20
1832.531870869263
 30
0.0
 11
2783.312511736545
 21
1881.282847429267
 31
0.0
  0
LINE
  5
88B
330
1F
100
AcDbEntity
  8
406
  6
AUSGEZOGEN
 62
     7
100
AcDbLine
 10
2807.687511736544
 20
1856.907603289268
 30
0.0
 11
2776.437511736544
 21
1825.657603289268
 31
0.0
  0
LINE
  5
88C
330
1F
100
AcDbEntity
  8
406
  6
AUSGEZOGEN
 62
     7
100
AcDbLine
 10
2776.437511736544
 20
1888.157603289268
 30
0.0
 11
2807.687511736544
 21
1856.907603289268
 31
0.0
  0
LINE
  5
88D
330
1F
100
AcDbEntity
  8
406
  6
AUSGEZOGEN
 62
     7
100
AcDbLine
 10
2776.437511736544
 20
1825.657603289268
 30
0.0
 11
2776.437511736544
 21
1888.157603289268
 31
0.0
  0
LINE
  5
88E
330
1F
100
AcDbEntity
  8
406
  6
AUSGEZOGEN
 62
     7
100
AcDbLine
 10
2782.062511736544
 20
1831.281870869262
 30
0.0
 11
2782.062511736544
 21
1882.532359149269
 31
0.0
  0
LINE
  5
88F
330
1F
100
AcDbEntity
  8
406
  6
AUSGEZOGEN
 62
     7
100
AcDbLine
 10
2780.812511736545
 20
1830.031870869262
 30
0.0
 11
2780.812511736545
 21
1883.782359149268
 31
0.0
  0
LINE
  5
890
330
1F
100
AcDbEntity
  8
406
  6
AUSGEZOGEN
 62
     7
100
AcDbLine
 10
2779.562511736545
 20
1828.781870869262
 30
0.0
 11
2779.562511736545
 21
1885.032359149268
 31
0.0
  0
LINE
  5
891
330
1F
100
AcDbEntity
  8
406
  6
AUSGEZOGEN
 62
     7
100
AcDbLine
 10
2778.312511736544
 20
1827.531870869263
 30
0.0
 11
2778.312511736544
 21
1886.282847429267
 31
0.0
  0
LINE
  5
892
330
1F
100
AcDbEntity
  8
406
  6
AUSGEZOGEN
 62
     7
100
AcDbLine
 10
2777.062511736545
 20
1826.281870869262
 30
0.0
 11
2777.062511736545
 21
1887.532847429267
 31
0.0
  0
INSERT
  5
893
330
1F
100
AcDbEntity
  8
0
100
AcDbBlockReference
  2
asver
 10
21190.38749400599
 20
-642.8877972146024
 30
0.0
  0
INSERT
  5
894
330
1F
100
AcDbEntity
  8
0
100
AcDbBlockReference
  2
asver
 10
22639.8878544868
 20
-712.8876730321758
 30
0.0
  0
LWPOLYLINE
  5
895
330
1F
100
AcDbEntity
  8
0
 62
     9
100
AcDbPolyline
 90
        7
 70
     0
 43
0.0
 10
1598.837076783685
 20
3843.054608085188
 10
1647.447043344687
 20
3838.824451547687
 10
1690.723366697187
 20
3836.553400030688
 10
1729.160334446688
 20
3835.301751412187
 10
1763.314989468187
 20
3834.607725954187
 10
1793.794950067185
 20
3834.233265071687
 10
1821.269943148686
 20
3834.053058828688
  0
LWPOLYLINE
  5
896
330
1F
100
AcDbEntity
  8
0
 62
     9
100
AcDbPolyline
 90
        7
 70
     0
 43
0.0
 10
1595.155439126188
 20
3828.756268699187
 10
1644.407095741687
 20
3823.525216730688
 10
1688.281057438685
 20
3820.713011080189
 10
1727.280314006685
 20
3819.161318499187
 10
1761.964633183687
 20
3818.299993649687
 10
1792.945479426688
 20
3817.834876370687
 10
1820.897990762688
 20
3817.610996089689
  0
LWPOLYLINE
  5
897
330
1F
100
AcDbEntity
  8
0
 62
     9
100
AcDbPolyline
 90
        6
 70
     0
 43
0.0
 10
1820.896825693187
 20
3992.368304984688
 10
1785.570588611185
 20
3991.980484420689
 10
1746.260902244688
 20
3991.106945255188
 10
1702.074900735187
 20
3989.395666443189
 10
1652.252232314687
 20
3986.129860747187
 10
1596.090886054687
 20
3979.775181727188
  0
LWPOLYLINE
  5
898
330
1F
100
AcDbEntity
  8
0
 62
     9
100
AcDbPolyline
 90
        6
 70
     0
 43
0.0
 10
1821.269940404686
 20
3975.197010792688
 10
1786.530418450186
 20
3974.884633550188
 10
1747.838442328687
 20
3974.180733853687
 10
1704.308863982688
 20
3972.800566283188
 10
1655.185055363686
 20
3970.164048653187
 10
1599.768540095686
 20
3965.026087399188
  0
LWPOLYLINE
  5
899
330
1F
100
AcDbEntity
  8
0
 62
     9
100
AcDbPolyline
 90
        6
 70
     0
 43
0.0
 10
1821.269930943689
 20
3635.806033048688
 10
1787.579650080187
 20
3635.534608994187
 10
1749.567392856686
 20
3634.913171721688
 10
1706.142290521186
 20
3633.653465073689
 10
1656.373041236187
 20
3631.133712266188
 10
1599.410761392685
 20
3625.917910129687
  0
LWPOLYLINE
  5
89A
330
1F
100
AcDbEntity
  8
0
 62
     9
100
AcDbPolyline
 90
        6
 70
     0
 43
0.0
 10
1820.897461684187
 20
3651.668287918688
 10
1786.628609875187
 20
3651.331159417687
 10
1748.004046211189
 20
3650.559564271687
 10
1703.924066805189
 20
3648.997247281188
 10
1653.454302503188
 20
3645.876211839188
 10
1595.731577229187
 20
3639.425303449187
  0
LINE
  5
89B
330
1F
100
AcDbEntity
  8
0
100
AcDbLine
 10
1582.458290189187
 20
3190.159168267188
 30
0.0
 11
2488.769950075689
 21
3190.159168267188
 31
0.0
  0
LWPOLYLINE
  5
89C
330
1F
100
AcDbEntity
  8
0
 62
     9
100
AcDbPolyline
 90
        4
 70
     0
 43
0.0
 10
1595.731577229187
 20
3639.425303449187
 10
1595.323404546189
 20
3702.518977451688
 10
1595.131342519688
 20
3765.634559292688
 10
1595.155439126188
 20
3828.756268699187
  0
ARC
  5
89D
330
1F
100
AcDbEntity
  8
0
100
AcDbCircle
 10
5338.769950075689
 20
3790.159168267188
 30
0.0
 40
4000.0
100
AcDbArc
 50
174.5758794238155
 51
185.4609587072028
  0
LWPOLYLINE
  5
89E
330
1F
100
AcDbEntity
  8
0
 62
     9
100
AcDbPolyline
 90
        4
 70
     0
 43
0.0
 10
1599.062724201997
 20
3409.489295286189
 10
1598.696928488686
 20
3427.155856405687
 10
1598.059012265689
 20
3461.003115660187
 10
1597.483507057687
 20
3494.874241498188
  0
ARC
  5
89F
330
1F
100
AcDbEntity
  8
0
100
AcDbCircle
 10
1358.769950075685
 20
3215.159168267188
 30
0.0
 40
25.0
100
AcDbArc
 50
180.0
 51
270.0
  0
LINE
  5
8A0
330
1F
100
AcDbEntity
  8
0
100
AcDbLine
 10
1333.769950075685
 20
3215.159168267188
 30
0.0
 11
1333.769950075685
 21
3392.838660191689
 31
0.0
  0
LINE
  5
8A1
330
1F
100
AcDbEntity
  8
0
100
AcDbLine
 10
1358.769950075685
 20
3190.159168267188
 30
0.0
 11
1580.650549289187
 21
3190.159168267188
 31
0.0
  0
LINE
  5
8A2
330
1F
100
AcDbEntity
  8
0
 62
     9
100
AcDbLine
 10
1333.769950075685
 20
3215.159168267188
 30
0.0
 11
2513.769950075689
 21
3215.159168267188
 31
0.0
  0
LINE
  5
8A3
330
1F
100
AcDbEntity
  8
0
100
AcDbLine
 10
1341.269950075685
 20
3405.829041248188
 30
0.0
 11
1347.609696038186
 21
3409.489295286189
 31
0.0
  0
ARC
  5
8A4
330
1F
100
AcDbEntity
  8
0
100
AcDbCircle
 10
1348.769950075685
 20
3392.838660191689
 30
0.0
 40
15.0
100
AcDbArc
 50
120.0000000000094
 51
180.0
  0
LWPOLYLINE
  5
8A5
330
1F
100
AcDbEntity
  8
0
 62
     9
100
AcDbPolyline
 90
       19
 70
     0
 43
0.0
 10
1599.410761392685
 20
3625.917910129687
 10
1579.494865163188
 20
3622.824345216188
 10
1562.389772756686
 20
3618.814986830688
 10
1547.819108754188
 20
3613.873779800688
 10
1535.633750722688
 20
3607.998144583188
 10
1525.917830312685
 20
3601.341361533189
 10
1518.619664205186
 20
3594.113746213189
 10
1513.525244367188
 20
3586.425728867688
 10
1510.433581577689
 20
3578.138253779187
 10
1509.460265593686
 20
3569.193260753688
 10
1510.808768657686
 20
3560.090985884688
 10
1514.330710778186
 20
3551.459282054688
 10
1519.796595915187
 20
3543.473828059687
 10
1527.31700911769
 20
3535.977048951687
 10
1537.123932958685
 20
3528.986585619188
 10
1549.35971078819
 20
3522.670782864687
 10
1563.985732195687
 20
3517.229009563688
 10
1581.159759185185
 20
3512.716354301189
 10
1601.155230598687
 20
3509.170235888187
  0
LWPOLYLINE
  5
8A6
330
1F
100
AcDbEntity
  8
0
 62
     9
100
AcDbPolyline
 90
       19
 70
     0
 43
0.0
 10
1595.731577229187
 20
3639.425303449187
 10
1574.700441897187
 20
3635.600881144688
 10
1556.631984581188
 20
3630.645577186688
 10
1541.232169668186
 20
3624.538656894187
 10
1528.343459274688
 20
3617.275576406688
 10
1518.054985601687
 20
3609.043141958188
 10
1510.314003275688
 20
3600.097599854688
 10
1504.898142038189
 20
3590.571873155688
 10
1501.600581183686
 20
3580.292271584187
 10
1500.549642435187
 20
3569.191546419688
 10
1501.963724666187
 20
3557.896075591687
 10
1505.685973137187
 20
3547.190047813189
 10
1511.468924274685
 20
3537.295136521687
 10
1519.424215061687
 20
3528.015487152688
 10
1529.794972834187
 20
3519.369373989688
 10
1542.731218704185
 20
3511.561498235688
 10
1558.192876767686
 20
3504.835525989187
 10
1576.346958293688
 20
3499.258011633189
 10
1597.483507057687
 20
3494.874241498188
  0
LWPOLYLINE
  5
8A7
330
1F
100
AcDbEntity
  8
0
 62
     9
100
AcDbPolyline
 90
        4
 70
     0
 43
0.0
 10
1597.483503791186
 20
3494.874231675187
 10
1598.474991254686
 20
3500.230866484188
 10
1599.742389709189
 20
3505.165524910688
 10
1601.155229680188
 20
3509.170213098687
  0
LWPOLYLINE
  5
8A8
330
1F
100
AcDbEntity
  8
0
 62
     9
100
AcDbPolyline
 90
        4
 70
     0
 43
0.0
 10
1595.731573113185
 20
3639.425323385187
 10
1596.727764666687
 20
3634.163163753188
 10
1597.997267759688
 20
3629.502450938688
 10
1599.410760484689
 20
3625.917958007187
  0
LWPOLYLINE
  5
8A9
330
1F
100
AcDbEntity
  8
0
 62
     9
100
AcDbPolyline
 90
        4
 70
     0
 43
0.0
 10
1596.090886054687
 20
3979.775181727188
 10
1597.884736342686
 20
4109.440149201687
 10
1600.591525036688
 20
4238.766832023688
 10
1603.718307819686
 20
4350.159168267188
  0
LWPOLYLINE
  5
8AA
330
1F
100
AcDbEntity
  8
0
 62
     9
100
AcDbPolyline
 90
       19
 70
     0
 43
0.0
 10
1596.090886054687
 20
3979.775181727188
 10
1573.074659974688
 20
3975.595879786688
 10
1553.313558975186
 20
3970.111070940688
 10
1536.566053822686
 20
3963.356880412688
 10
1522.641810617689
 20
3955.397932167187
 10
1511.47273135219
 20
3946.412645328188
 10
1502.952869349689
 20
3936.648681189188
 10
1496.850279732686
 20
3926.208844919187
 10
1492.997373672689
 20
3914.896782323187
 10
1491.616110895687
 20
3902.943008339688
 10
1492.843172164687
 20
3891.178082879187
 10
1496.442683062188
 20
3880.255958324188
 10
1502.310174133686
 20
3870.096605776188
 10
1510.714813984686
 20
3860.527019106188
 10
1521.838315638687
 20
3851.788929723687
 10
1535.719794689186
 20
3844.156347074688
 10
1552.449494808187
 20
3837.753065055687
 10
1572.187775101686
 20
3832.619717241187
 10
1595.155439126188
 20
3828.756268699187
  0
LWPOLYLINE
  5
8AB
330
1F
100
AcDbEntity
  8
0
 62
     9
100
AcDbPolyline
 90
       23
 70
     0
 43
0.0
 10
1599.768540095686
 20
3965.026087399188
 10
1581.70502012769
 20
3962.340277959187
 10
1565.728228532686
 20
3958.942830385688
 10
1551.716453880685
 20
3954.849283990687
 10
1539.549479038188
 20
3950.077948191687
 10
1529.160353524187
 20
3944.674302677188
 10
1520.515446830187
 20
3938.726556778687
 10
1513.561113880688
 20
3932.348199964188
 10
1508.204800122689
 20
3925.640857504689
 10
1504.270314728687
 20
3918.500672797187
 10
1501.779101479688
 20
3910.869726041688
 10
1500.89005012669
 20
3902.971290690188
 10
1501.652724502185
 20
3895.175006037187
 10
1503.954766788686
 20
3887.788360216188
 10
1507.661570635685
 20
3880.895860470188
 10
1512.861562912689
 20
3874.333389361687
 10
1519.734367925189
 20
3868.082570099188
 10
1528.338238100688
 20
3862.298283429687
 10
1538.692601675687
 20
3857.102991500187
 10
1550.836668807186
 20
3852.561701968187
 10
1564.841089541688
 20
3848.702827541687
 10
1580.803225775186
 20
3845.534546073188
 10
1598.837076783685
 20
3843.054608085188
  0
LWPOLYLINE
  5
8AC
330
1F
100
AcDbEntity
  8
0
 62
     9
100
AcDbPolyline
 90
        4
 70
     0
 43
0.0
 10
1595.155436561686
 20
3828.756261292687
 10
1596.118912602686
 20
3834.377969352188
 10
1597.395057177687
 20
3839.334115634687
 10
1598.837076163188
 20
3843.054590231188
  0
LWPOLYLINE
  5
8AD
330
1F
100
AcDbEntity
  8
0
 62
     9
100
AcDbPolyline
 90
        4
 70
     0
 43
0.0
 10
1596.090884283188
 20
3979.775201336688
 10
1597.051815134188
 20
3974.098869634189
 10
1598.326837038187
 20
3968.985455550689
 10
1599.768539693689
 20
3965.026133913687
  0
LINE
  5
8AE
330
1F
100
AcDbEntity
  8
0
100
AcDbLine
 10
1236.269950075685
 20
4300.159168267188
 30
0.0
 11
1353.861227947188
 21
4300.159168267188
 31
0.0
  0
LINE
  5
8AF
330
1F
100
AcDbEntity
  8
0
100
AcDbLine
 10
1236.269950075685
 20
4190.159168267188
 30
0.0
 11
1336.770609352187
 21
4190.159168267188
 31
0.0
  0
LINE
  5
8B0
330
1F
100
AcDbEntity
  8
0
100
AcDbLine
 10
1236.269950075685
 20
4190.159168267188
 30
0.0
 11
1236.269950075685
 21
4300.159168267188
 31
0.0
  0
LWPOLYLINE
  5
8B1
330
1F
100
AcDbEntity
  8
0
 62
     9
100
AcDbPolyline
 90
       14
 70
     0
 43
0.0
 10
1381.616436203187
 20
4316.467127206688
 10
1381.717544571186
 20
4315.308991605188
 10
1381.988266816689
 20
4311.974506843688
 10
1382.347430076187
 20
4306.810417727687
 10
1382.696080174689
 20
4300.292279235187
 10
1382.946794813687
 20
4293.011752451188
 10
1383.051353291687
 20
4285.540251424186
 10
1383.003447189686
 20
4278.221418223187
 10
1382.818751967685
 20
4271.232253205187
 10
1382.521131371187
 20
4264.655945890188
 10
1382.134240501188
 20
4258.503664208687
 10
1381.676331431189
 20
4252.732545241688
 10
1381.157763914688
 20
4247.262214278187
 10
1380.580511246188
 20
4241.990014038186
  0
ARC
  5
8B2
330
1F
100
AcDbEntity
  8
0
100
AcDbCircle
 10
1336.770609353686
 20
4170.159412586687
 30
0.0
 40
19.999934848
100
AcDbArc
 50
354.5757978483071
 51
90.00000000625322
  0
LWPOLYLINE
  5
8B3
330
1F
100
AcDbEntity
  8
0
 62
     9
100
AcDbPolyline
 90
       13
 70
     0
 43
0.0
 10
1380.580511246188
 20
4241.990014038186
 10
1379.801180071688
 20
4235.761660137688
 10
1378.873185768188
 20
4229.241695724687
 10
1377.766886354186
 20
4222.339337838188
 10
1376.453385792188
 20
4215.005650052187
 10
1374.912759784186
 20
4207.255668846188
 10
1373.140810840187
 20
4199.169785192687
 10
1371.176539101186
 20
4190.975064231188
 10
1369.154500630188
 20
4183.182912761687
 10
1367.308686047689
 20
4176.520788195188
 10
1365.866232643689
 20
4171.562830126688
 10
1364.956164548187
 20
4168.532561516687
 10
1364.645093715687
 20
4167.512618045688
  0
ARC
  5
8B4
330
1F
100
AcDbEntity
  8
0
100
AcDbCircle
 10
5338.769950075689
 20
3790.159168267188
 30
0.0
 40
4000.0
100
AcDbArc
 50
171.682751287642
 51
172.4240290968514
  0
ARC
  5
8B5
330
1F
100
AcDbEntity
  8
0
100
AcDbCircle
 10
1353.861227948188
 20
4320.158684426187
 30
0.0
 40
19.9998709755
100
AcDbArc
 50
269.9999999983325
 51
352.4238898652348
  0
LINE
  5
8B6
330
1F
100
AcDbEntity
  8
0
100
AcDbLine
 10
1405.57786221669
 20
4390.159168267188
 30
0.0
 11
1821.269950075689
 21
4390.159168267188
 31
0.0
  0
ARC
  5
8B7
330
1F
100
AcDbEntity
  8
0
100
AcDbCircle
 10
1405.57786221669
 20
4365.159168267187
 30
0.0
 40
25.0
100
AcDbArc
 50
90.0
 51
171.682751287642
  0
LINE
  5
8B8
330
1F
100
AcDbEntity
  8
0
 62
     9
100
AcDbLine
 10
1820.897461684187
 20
3651.668287918688
 30
0.0
 11
1820.897990762688
 21
3817.610996089689
 31
0.0
  0
ARC
  5
8B9
330
1F
100
AcDbEntity
  8
0
100
AcDbCircle
 10
-1491.230049924315
 20
3790.159168267188
 30
0.0
 40
4000.0
100
AcDbArc
 50
354.5390412927972
 51
4.028898304111541
  0
LINE
  5
8BA
330
1F
100
AcDbEntity
  8
0
100
AcDbLine
 10
2513.769950075689
 20
3215.159168267188
 30
0.0
 11
2513.769950075689
 21
3392.838660191689
 31
0.0
  0
ARC
  5
8BB
330
1F
100
AcDbEntity
  8
0
100
AcDbCircle
 10
2488.769950075689
 20
3215.159168267188
 30
0.0
 40
25.0
100
AcDbArc
 50
270.0
 51
0.0
  0
LINE
  5
8BC
330
1F
100
AcDbEntity
  8
0
100
AcDbLine
 10
2506.269950075689
 20
3405.829041248188
 30
0.0
 11
2499.930204113686
 21
3409.489295286189
 31
0.0
  0
ARC
  5
8BD
330
1F
100
AcDbEntity
  8
0
100
AcDbCircle
 10
2498.769950075689
 20
3392.838660191689
 30
0.0
 40
15.0
100
AcDbArc
 50
0.0
 51
59.99999999999055
  0
LINE
  5
8BE
330
1F
100
AcDbEntity
  8
0
 62
     9
100
AcDbLine
 10
1821.26995397741
 20
3500.186298743603
 30
0.0
 11
1821.269930943689
 21
3635.806033048688
 31
0.0
  0
LWPOLYLINE
  5
8BF
330
1F
100
AcDbEntity
  8
0
 62
     9
100
AcDbPolyline
 90
        5
 70
     0
 43
0.0
 10
1820.897450355688
 20
3651.668278324687
 10
1820.949902424686
 20
3646.448984443188
 10
1821.035616101187
 20
3641.712891692189
 10
1821.146377262189
 20
3638.019864297689
 10
1821.269946980686
 20
3635.806031909188
  0
LWPOLYLINE
  5
8C0
330
1F
100
AcDbEntity
  8
0
 62
     9
100
AcDbPolyline
 90
        6
 70
     0
 43
0.0
 10
1838.269950075689
 20
3652.258043912687
 10
1837.414732058186
 20
3652.073624022687
 10
1834.935125466188
 20
3651.907635546188
 10
1831.080612490687
 20
3651.776781432687
 10
1826.239010045188
 20
3651.694227592687
 10
1820.897450355688
 20
3651.668278324687
  0
LWPOLYLINE
  5
8C1
330
1F
100
AcDbEntity
  8
0
100
AcDbPolyline
 90
        6
 70
     0
 43
0.0
 10
1838.269950075689
 20
3652.258013466188
 10
1837.480313136689
 20
3647.374853646689
 10
1835.106170253187
 20
3642.796513547188
 10
1831.344083321189
 20
3639.089880954687
 10
1826.569233687189
 20
3636.672006668189
 10
1821.269950075689
 20
3635.806031909188
  0
LINE
  5
8C2
330
1F
100
AcDbEntity
  8
0
100
AcDbLine
 10
2481.951666830103
 20
4120.159168267188
 30
0.0
 11
2595.769950075689
 21
4120.159168267188
 31
0.0
  0
LINE
  5
8C3
330
1F
100
AcDbEntity
  8
0
100
AcDbLine
 10
2470.825147798186
 20
4230.159168267188
 30
0.0
 11
2595.769950075689
 21
4230.159168267188
 31
0.0
  0
LWPOLYLINE
  5
8C4
330
1F
100
AcDbEntity
  8
0
100
AcDbPolyline
 90
       25
 70
     0
 43
0.0
 10
2495.689256556688
 20
4079.266399788187
 10
2491.505226787961
 20
4090.005806463621
 10
2487.91130977619
 20
4100.718319410687
 10
2487.693490834688
 20
4101.372769776688
 10
2487.473328335188
 20
4102.037904151187
 10
2487.250755532189
 20
4102.714115329687
 10
2487.025706569187
 20
4103.401806295187
 10
2486.798116753688
 20
4104.101390150686
 10
2486.567922852689
 20
4104.813290056687
 10
2486.33506339569
 20
4105.537939163687
 10
2486.099478994689
 20
4106.275780552187
 10
2485.861112675687
 20
4107.027267160687
 10
2485.619910231187
 20
4107.792861718688
 10
2485.375820586188
 20
4108.573036672187
 10
2485.128796184686
 20
4109.368274103188
 10
2484.878793397186
 20
4110.179065644689
 10
2484.62577294619
 20
4111.005912388687
 10
2484.369700358187
 20
4111.849324781688
 10
2484.110369328689
 20
4112.710413019187
 10
2483.84497985669
 20
4113.599057999188
 10
2483.568770291687
 20
4114.532163453188
 10
2483.278301086687
 20
4115.522770771687
 10
2482.975542027186
 20
4116.565791635188
 10
2482.663825598687
 20
4117.651247920188
 10
2466.333653953817
 20
4175.159168267184
  0
LINE
  5
8C5
330
1F
100
AcDbEntity
  8
0
 62
     9
100
AcDbLine
 10
1821.269943148686
 20
3834.053058828688
 30
0.0
 11
1821.269940404686
 21
3975.197010792688
 31
0.0
  0
LWPOLYLINE
  5
8C6
330
1F
100
AcDbEntity
  8
0
 62
     9
100
AcDbPolyline
 90
        5
 70
     0
 43
0.0
 10
1821.269946741186
 20
3834.053059866688
 10
1821.147161270687
 20
3831.942240034689
 10
1821.035139557686
 20
3828.204661885187
 10
1820.948378073687
 20
3823.226412674687
 10
1820.897984436687
 20
3817.611004002687
  0
LWPOLYLINE
  5
8C7
330
1F
100
AcDbEntity
  8
0
 62
     9
100
AcDbPolyline
 90
        6
 70
     0
 43
0.0
 10
1838.269950075689
 20
3817.494103116187
 10
1837.43791135769
 20
3822.611100647688
 10
1835.023239274686
 20
3827.227213292689
 10
1831.262298959688
 20
3830.890580823187
 10
1826.523237426688
 20
3833.242607328688
 10
1821.269950075689
 20
3834.053059866688
  0
LWPOLYLINE
  5
8C8
330
1F
100
AcDbEntity
  8
0
 62
     9
100
AcDbPolyline
 90
        6
 70
     0
 43
0.0
 10
1838.269950075689
 20
3817.494099866689
 10
1837.458365031688
 20
3817.830420334687
 10
1835.020164179189
 20
3817.972947830688
 10
1831.165968069686
 20
3817.946246348687
 10
1826.288757729187
 20
3817.802538564187
 10
1820.897984436687
 20
3817.611004002687
  0
LWPOLYLINE
  5
8C9
330
1F
100
AcDbEntity
  8
0
 62
     9
100
AcDbPolyline
 90
        5
 70
     0
 43
0.0
 10
1820.896820697688
 20
3992.368304463187
 10
1820.945238355688
 20
3986.874162426187
 10
1821.030220886186
 20
3981.766316224688
 10
1821.143001414685
 20
3977.700768736688
 10
1821.269949905686
 20
3975.197010748687
  0
LWPOLYLINE
  5
8CA
330
1F
100
AcDbEntity
  8
0
 62
     9
100
AcDbPolyline
 90
        6
 70
     0
 43
0.0
 10
1838.269950075689
 20
3991.507194196187
 10
1837.414696424187
 20
3991.777596110688
 10
1834.934981865687
 20
3992.020548302688
 10
1831.080309798187
 20
3992.211607724689
 10
1826.238531411188
 20
3992.331550462188
 10
1820.896820697688
 20
3992.368304463187
  0
LWPOLYLINE
  5
8CB
330
1F
100
AcDbEntity
  8
0
100
AcDbPolyline
 90
        6
 70
     0
 43
0.0
 10
1838.269950075689
 20
3991.507153380688
 10
1837.483933042686
 20
3986.690263778688
 10
1835.112564944687
 20
3982.155022947687
 10
1831.350616123188
 20
3978.475567240188
 10
1826.573977808689
 20
3976.068867816188
 10
1821.269950075689
 20
3975.197010748687
  0
LINE
  5
8CC
330
1F
100
AcDbEntity
  8
0
100
AcDbLine
 10
2497.614675477186
 20
4074.414075125686
 30
0.0
 11
2497.241894584687
 21
4075.341871776187
 31
0.0
  0
LINE
  5
8CD
330
1F
100
AcDbEntity
  8
0
100
AcDbLine
 10
2497.241894584687
 20
4075.341871776187
 30
0.0
 11
2496.889303148687
 21
4076.224707349187
 31
0.0
  0
LINE
  5
8CE
330
1F
100
AcDbEntity
  8
0
100
AcDbLine
 10
2498.884911135304
 20
4071.197595405211
 30
0.0
 11
2496.482490764686
 21
4077.249503505687
 31
0.0
  0
LINE
  5
8CF
330
1F
100
AcDbEntity
  8
0
100
AcDbLine
 10
2496.482490764686
 20
4077.249503505687
 30
0.0
 11
2496.077072653188
 21
4078.277162808188
 31
0.0
  0
LINE
  5
8D0
330
1F
100
AcDbEntity
  8
0
100
AcDbLine
 10
2496.077072653188
 20
4078.277162808188
 30
0.0
 11
2495.689256556688
 21
4079.266399788187
 31
0.0
  0
LINE
  5
8D1
330
1F
100
AcDbEntity
  8
0
100
AcDbLine
 10
1876.269950075689
 20
4390.159168267188
 30
0.0
 11
2441.962037935187
 21
4390.159168267188
 31
0.0
  0
LINE
  5
8D2
330
1F
100
AcDbEntity
  8
0
100
AcDbLine
 10
1846.269950075689
 20
3409.489295286189
 30
0.0
 11
1846.269950075689
 21
4365.159168267187
 31
0.0
  0
LINE
  5
8D3
330
1F
100
AcDbEntity
  8
0
100
AcDbLine
 10
1851.269950075689
 20
3409.489295286189
 30
0.0
 11
1851.269950075689
 21
4365.159168267187
 31
0.0
  0
LINE
  5
8D4
330
1F
100
AcDbEntity
  8
0
 62
     9
100
AcDbLine
 10
1820.901295631617
 20
3992.368273673103
 30
0.0
 11
1820.887265824188
 21
4367.618287764187
 31
0.0
  0
ARC
  5
8D5
330
1F
100
AcDbEntity
  8
0
100
AcDbCircle
 10
1821.269950075689
 20
4365.159168267187
 30
0.0
 40
25.0
100
AcDbArc
 50
0.0
 51
90.0
  0
ARC
  5
8D6
330
1F
100
AcDbEntity
  8
0
100
AcDbCircle
 10
1876.269950075689
 20
4365.159168267187
 30
0.0
 40
25.0
100
AcDbArc
 50
90.0
 51
180.0
  0
LINE
  5
8D7
330
1F
100
AcDbEntity
  8
0
 62
     9
100
AcDbLine
 10
1820.887944710189
 20
4367.618287764187
 30
0.0
 11
1380.671800040781
 21
4367.618287764187
 31
0.0
  0
LINE
  5
8D8
330
1F
100
AcDbEntity
  8
0
100
AcDbLine
 10
1918.782307101187
 20
4398.288646940187
 30
0.0
 11
1918.781958793187
 21
4390.159168267188
 31
0.0
  0
LINE
  5
8D9
330
1F
100
AcDbEntity
  8
0
100
AcDbLine
 10
1916.782380321688
 20
4400.288716684687
 30
0.0
 11
1916.190201501186
 21
4400.285369620188
 31
0.0
  0
LINE
  5
8DA
330
1F
100
AcDbEntity
  8
0
100
AcDbLine
 10
1916.559490853188
 20
4400.286656993188
 30
0.0
 11
1913.723061241685
 21
4400.281321522188
 31
0.0
  0
LINE
  5
8DB
330
1F
100
AcDbEntity
  8
0
100
AcDbLine
 10
1914.493158508688
 20
4400.282371475687
 30
0.0
 11
1907.216009891689
 21
4400.276576933687
 31
0.0
  0
LINE
  5
8DC
330
1F
100
AcDbEntity
  8
0
100
AcDbLine
 10
1914.735205262189
 20
4400.295043090188
 30
0.0
 11
1916.559240743186
 21
4400.290828007688
 31
0.0
  0
LINE
  5
8DD
330
1F
100
AcDbEntity
  8
0
100
AcDbLine
 10
1916.559240743186
 20
4400.290828007688
 30
0.0
 11
1916.782392793185
 21
4400.288732307688
 31
0.0
  0
ARC
  5
8DE
330
1F
100
AcDbEntity
  8
0
100
AcDbCircle
 10
1916.782307103188
 20
4398.288732630688
 30
0.0
 40
2.0
100
AcDbArc
 50
359.9975451569947
 51
89.99754515689049
  0
LINE
  5
8DF
330
1F
100
AcDbEntity
  8
0
100
AcDbLine
 10
1886.288797920689
 20
4400.272761605187
 30
0.0
 11
1893.871258243688
 21
4400.273003126186
 31
0.0
  0
LINE
  5
8E0
330
1F
100
AcDbEntity
  8
0
100
AcDbLine
 10
1886.288797920689
 20
4400.272761605187
 30
0.0
 11
1871.566047741685
 21
4400.275536602687
 31
0.0
  0
LINE
  5
8E1
330
1F
100
AcDbEntity
  8
0
100
AcDbLine
 10
1876.286471764188
 20
4400.274272275688
 30
0.0
 11
1863.103564596188
 21
4400.279802552187
 31
0.0
  0
LWPOLYLINE
  5
8E2
330
1F
100
AcDbEntity
  8
0
 62
     9
100
AcDbPolyline
 90
        8
 70
     0
 43
0.0
 10
1886.289132237189
 20
4398.271628978688
 10
1894.061331738688
 20
4398.271831119187
 10
1901.386860347687
 20
4398.273091197189
 10
1907.844167771686
 20
4398.275340610688
 10
1913.038682536687
 20
4398.278442596187
 10
1916.673541356186
 20
4398.282213758188
 10
1918.545966225686
 20
4398.286440867686
 10
1918.782307101187
 20
4398.288646961687
  0
LINE
  5
8E3
330
1F
100
AcDbEntity
  8
0
100
AcDbLine
 10
1909.296949586688
 20
4400.277904693688
 30
0.0
 11
1886.288797920689
 21
4400.272761605187
 31
0.0
  0
LINE
  5
8E4
330
1F
100
AcDbEntity
  8
0
100
AcDbLine
 10
1855.782392849188
 20
4400.291345858188
 30
0.0
 11
1856.819998052687
 21
4400.295769566188
 31
0.0
  0
LINE
  5
8E5
330
1F
100
AcDbEntity
  8
0
100
AcDbLine
 10
1856.819998052687
 20
4400.295769566188
 30
0.0
 11
1857.731269525185
 21
4400.297339227186
 31
0.0
  0
LINE
  5
8E6
330
1F
100
AcDbEntity
  8
0
100
AcDbLine
 10
1856.005545475687
 20
4400.289250171186
 30
0.0
 11
1857.767824062687
 21
4400.285129096688
 31
0.0
  0
LINE
  5
8E7
330
1F
100
AcDbEntity
  8
0
100
AcDbLine
 10
1855.785187179687
 20
4400.291345772688
 30
0.0
 11
1856.005545475687
 21
4400.289250171186
 31
0.0
  0
ARC
  5
8E8
330
1F
100
AcDbEntity
  8
0
100
AcDbCircle
 10
1855.782307159187
 20
4398.291346181188
 30
0.0
 40
2.0
100
AcDbArc
 50
89.99754515689049
 51
179.9975451569947
  0
LINE
  5
8E9
330
1F
100
AcDbEntity
  8
0
100
AcDbLine
 10
1853.782307160686
 20
4398.291431871188
 30
0.0
 11
1853.781336485185
 21
4375.635961089687
 31
0.0
  0
LINE
  5
8EA
330
1F
100
AcDbEntity
  8
0
100
AcDbLine
 10
1865.421632647688
 20
4400.278408700688
 30
0.0
 11
1857.229908080687
 21
4400.286024452187
 31
0.0
  0
LWPOLYLINE
  5
8EB
330
1F
100
AcDbEntity
  8
0
 62
     9
100
AcDbPolyline
 90
        8
 70
     0
 43
0.0
 10
1853.782307160686
 20
4398.291431850188
 10
1854.020370497189
 20
4398.289197440688
 10
1855.895912834686
 20
4398.284810549687
 10
1859.533810260687
 20
4398.280728547188
 10
1864.731721523188
 20
4398.277182106187
 10
1871.191371596188
 20
4398.274380878687
 10
1878.516458412686
 20
4398.272495302188
 10
1886.289132237189
 20
4398.271628978688
  0
LWPOLYLINE
  5
8EC
330
1F
100
AcDbEntity
  8
0
100
AcDbPolyline
 90
        5
 70
     0
 43
0.0
 10
2473.704276931187
 20
4255.341400495688
 10
2475.36513897619
 20
4264.642189237688
 10
2476.994366066686
 20
4272.548464697687
 10
2478.085838044687
 20
4277.376044334687
 10
2478.470954227188
 20
4279.006954971188
  0
LWPOLYLINE
  5
8ED
330
1F
100
AcDbEntity
  8
0
100
AcDbPolyline
 90
        3
 70
     0
 43
0.0
 10
2465.668162429548
 20
4175.159168267188
 10
2472.172525315686
 20
4244.529145718188
 10
2473.703025681188
 20
4255.336713529188
  0
ARC
  5
8EE
330
1F
100
AcDbEntity
  8
0
100
AcDbCircle
 10
-1491.230049924315
 20
3790.159168267188
 30
0.0
 40
4000.0
100
AcDbArc
 50
7.045251275673098
 51
8.317248712357947
  0
LINE
  5
8EF
330
1F
100
AcDbEntity
  8
0
100
AcDbLine
 10
2478.567642275189
 20
4280.771893463188
 30
0.0
 11
2478.470847149688
 21
4279.006980537188
 31
0.0
  0
ARC
  5
8F0
330
1F
100
AcDbEntity
  8
0
100
AcDbCircle
 10
2441.962037935187
 20
4365.159168267187
 30
0.0
 40
25.0
100
AcDbArc
 50
8.317248712357947
 51
90.0
  0
LINE
  5
8F1
330
1F
100
AcDbEntity
  8
0
100
AcDbLine
 10
2595.769950075689
 20
4120.159168267188
 30
0.0
 11
2595.769950075689
 21
4230.159168267188
 31
0.0
  0
LINE
  5
8F2
330
1F
100
AcDbEntity
  8
0
100
AcDbLine
 10
1347.609696038186
 20
3409.489295286189
 30
0.0
 11
2499.930204113686
 21
3409.489295286189
 31
0.0
  0
LWPOLYLINE
  5
8F3
330
1F
100
AcDbEntity
  8
0
 62
     9
100
AcDbPolyline
 90
        7
 70
     0
 43
0.0
 10
1597.483506355688
 20
3494.874239081688
 10
1646.735162971187
 20
3489.643187113188
 10
1690.609124668185
 20
3486.830981462688
 10
1729.608381236185
 20
3485.279288881688
 10
1764.292700413188
 20
3484.417964032188
 10
1795.273546656189
 20
3483.952846753187
 10
1823.226057992188
 20
3483.728966472189
  0
LWPOLYLINE
  5
8F4
330
1F
100
AcDbEntity
  8
0
 62
     9
100
AcDbPolyline
 90
        7
 70
     0
 43
0.0
 10
1601.165144013185
 20
3509.172578467687
 10
1649.775110574187
 20
3504.942421930188
 10
1693.051433926687
 20
3502.671370413187
 10
1731.488401676189
 20
3501.419721794688
 10
1765.643056697688
 20
3500.725696336687
 10
1796.123017296685
 20
3500.351235454188
 10
1823.598010378186
 20
3500.171029211188
  0
LWPOLYLINE
  5
8F5
330
1F
100
AcDbEntity
  8
0
 62
     9
100
AcDbPolyline
 90
        6
 70
     0
 43
0.0
 10
1840.598017305189
 20
3483.612070249189
 10
1839.786432261188
 20
3483.948390717188
 10
1837.348231408689
 20
3484.090918213187
 10
1833.494035299186
 20
3484.064216731187
 10
1828.616824958687
 20
3483.920508946687
 10
1823.226051666187
 20
3483.728974385187
  0
LWPOLYLINE
  5
8F6
330
1F
100
AcDbEntity
  8
0
 62
     9
100
AcDbPolyline
 90
        6
 70
     0
 43
0.0
 10
1840.598017305189
 20
3483.612073498687
 10
1839.76597858719
 20
3488.729071030188
 10
1837.351306504187
 20
3493.345183675188
 10
1833.590366189189
 20
3497.008551205687
 10
1828.851304656188
 20
3499.360577711188
 10
1823.598017305189
 20
3500.171030249189
  0
LWPOLYLINE
  5
8F7
330
1F
100
AcDbEntity
  8
0
 62
     9
100
AcDbPolyline
 90
        5
 70
     0
 43
0.0
 10
1823.598013970687
 20
3500.171030249189
 10
1823.475228500188
 20
3498.060210417189
 10
1823.363206787186
 20
3494.322632267687
 10
1823.276445303187
 20
3489.344383057187
 10
1823.226051666187
 20
3483.728974385187
  0
LINE
  5
8F8
330
1F
100
AcDbEntity
  8
0
 62
     9
100
AcDbLine
 10
1823.225821292339
 20
3409.489295286189
 30
0.0
 11
1823.226057992188
 21
3483.728966472189
 31
0.0
  0
LWPOLYLINE
  5
8F9
330
1F
100
AcDbEntity
  8
0
 62
     9
100
AcDbPolyline
 90
        4
 70
     0
 43
0.0
 10
2251.449014097186
 20
3979.775181727188
 10
2249.655163809187
 20
4109.440149201687
 10
2246.948375115188
 20
4238.766832023688
 10
2243.821592332187
 20
4350.159168267188
  0
LWPOLYLINE
  5
8FA
330
1F
100
AcDbEntity
  8
0
 62
     9
100
AcDbPolyline
 90
       19
 70
     0
 43
0.0
 10
2251.808322922686
 20
3639.425303449189
 10
2272.839458254685
 20
3635.600881144688
 10
2290.907915570689
 20
3630.645577186688
 10
2306.307730483687
 20
3624.538656894189
 10
2319.196440877188
 20
3617.275576406688
 10
2329.48491455019
 20
3609.043141958188
 10
2337.225896876188
 20
3600.097599854688
 10
2342.641758113687
 20
3590.571873155688
 10
2345.93931896819
 20
3580.292271584189
 10
2346.99025771669
 20
3569.191546419688
 10
2345.576175485689
 20
3557.896075591689
 10
2341.853927014689
 20
3547.190047813189
 10
2336.070975877187
 20
3537.295136521688
 10
2328.115685090189
 20
3528.015487152688
 10
2317.744927317685
 20
3519.369373989688
 10
2304.808681447688
 20
3511.561498235688
 10
2289.34702338419
 20
3504.835525989189
 10
2271.192941858188
 20
3499.258011633189
 10
2250.056393094189
 20
3494.874241498188
  0
LWPOLYLINE
  5
8FB
330
1F
100
AcDbEntity
  8
0
 62
     9
100
AcDbPolyline
 90
       19
 70
     0
 43
0.0
 10
2248.129138759187
 20
3625.917910129689
 10
2268.045034988688
 20
3622.824345216188
 10
2285.15012739519
 20
3618.814986830688
 10
2299.720791397688
 20
3613.873779800688
 10
2311.906149429188
 20
3607.998144583189
 10
2321.622069839187
 20
3601.341361533189
 10
2328.92023594669
 20
3594.113746213189
 10
2334.014655784688
 20
3586.425728867689
 10
2337.106318574191
 20
3578.138253779189
 10
2338.079634558187
 20
3569.193260753688
 10
2336.731131494186
 20
3560.090985884688
 10
2333.20918937369
 20
3551.459282054688
 10
2327.743304236685
 20
3543.473828059688
 10
2320.22289103419
 20
3535.977048951689
 10
2310.415967193188
 20
3528.986585619188
 10
2298.18018936369
 20
3522.670782864689
 10
2283.554167956189
 20
3517.229009563688
 10
2266.380140966688
 20
3512.716354301189
 10
2246.384669553186
 20
3509.170235888188
  0
LWPOLYLINE
  5
8FC
330
1F
100
AcDbEntity
  8
0
 62
     9
100
AcDbPolyline
 90
        7
 70
     0
 43
0.0
 10
2246.374756138687
 20
3509.172578467687
 10
2197.764789577686
 20
3504.942421930188
 10
2154.488466225189
 20
3502.671370413187
 10
2116.051498475687
 20
3501.419721794688
 10
2081.896843454188
 20
3500.725696336687
 10
1901.416883064367
 20
3500.356843638152
 10
1873.941889982866
 20
3500.176637395153
  0
LWPOLYLINE
  5
8FD
330
1F
100
AcDbEntity
  8
0
 62
     9
100
AcDbPolyline
 90
        7
 70
     0
 43
0.0
 10
2250.056393796188
 20
3494.874239081688
 10
2200.804737180686
 20
3489.643187113188
 10
2156.930775483687
 20
3486.830981462688
 10
2117.931518915687
 20
3485.279288881688
 10
2083.247199738688
 20
3484.417964032188
 10
2052.266353495687
 20
3483.952846753187
 10
1874.313842368868
 20
3483.734574656152
  0
LWPOLYLINE
  5
8FE
330
1F
100
AcDbEntity
  8
0
 62
     9
100
AcDbPolyline
 90
        4
 70
     0
 43
0.0
 10
2248.477175949879
 20
3409.489295286189
 10
2248.84297166319
 20
3427.155856405689
 10
2249.48088788619
 20
3461.003115660187
 10
2250.056393094189
 20
3494.874241498188
  0
LWPOLYLINE
  5
8FF
330
1F
100
AcDbEntity
  8
0
 62
     9
100
AcDbPolyline
 90
        4
 70
     0
 43
0.0
 10
2250.056396360687
 20
3494.874231675189
 10
2249.064908897187
 20
3500.230866484188
 10
2247.797510442691
 20
3505.165524910688
 10
2246.384670471688
 20
3509.170213098689
  0
LWPOLYLINE
  5
900
330
1F
100
AcDbEntity
  8
0
 62
     9
100
AcDbPolyline
 90
        6
 70
     0
 43
0.0
 10
1876.642438676866
 20
3651.673896102651
 10
2060.911290276689
 20
3651.331159417689
 10
2099.535853940687
 20
3650.559564271687
 10
2143.615833346688
 20
3648.997247281188
 10
2194.085597648689
 20
3645.876211839188
 10
2251.808322922686
 20
3639.425303449189
  0
LWPOLYLINE
  5
901
330
1F
100
AcDbEntity
  8
0
 62
     9
100
AcDbPolyline
 90
        6
 70
     0
 43
0.0
 10
1876.269969417367
 20
3635.811641232651
 10
2059.960250071689
 20
3635.534608994187
 10
2097.972507295187
 20
3634.913171721688
 10
2141.39760963069
 20
3633.653465073689
 10
2191.166858915686
 20
3631.133712266188
 10
2248.129138759187
 20
3625.917910129689
  0
LWPOLYLINE
  5
902
330
1F
100
AcDbEntity
  8
0
 62
     9
100
AcDbPolyline
 90
        6
 70
     0
 43
0.0
 10
1876.269959956367
 20
3975.202618976651
 10
2061.009481701686
 20
3974.884633550188
 10
2099.701457823186
 20
3974.180733853687
 10
2143.231036169188
 20
3972.800566283188
 10
2192.354844788187
 20
3970.164048653188
 10
2247.771360056187
 20
3965.026087399188
  0
LWPOLYLINE
  5
903
330
1F
100
AcDbEntity
  8
0
 62
     9
100
AcDbPolyline
 90
        6
 70
     0
 43
0.0
 10
1876.643074667866
 20
3992.373913168652
 10
2061.969311540687
 20
3991.980484420689
 10
2101.278997907185
 20
3991.106945255188
 10
2145.464999416686
 20
3989.395666443189
 10
2195.287667837186
 20
3986.129860747189
 10
2251.449014097186
 20
3979.775181727188
  0
LWPOLYLINE
  5
904
330
1F
100
AcDbEntity
  8
0
 62
     9
100
AcDbPolyline
 90
        7
 70
     0
 43
0.0
 10
2252.384461025688
 20
3828.756268699187
 10
2203.132804410186
 20
3823.525216730688
 10
2159.258842713188
 20
3820.713011080189
 10
2120.259586145187
 20
3819.161318499187
 10
2085.575266968185
 20
3818.299993649687
 10
2054.594420725188
 20
3817.834876370687
 10
1876.641909598368
 20
3817.616604273651
  0
LWPOLYLINE
  5
905
330
1F
100
AcDbEntity
  8
0
 62
     9
100
AcDbPolyline
 90
        7
 70
     0
 43
0.0
 10
2248.702823368188
 20
3843.054608085188
 10
2200.092856807186
 20
3838.824451547687
 10
2156.816533454689
 20
3836.553400030689
 10
2118.379565705188
 20
3835.301751412187
 10
2084.224910683685
 20
3834.607725954187
 10
2053.744950084688
 20
3834.233265071687
 10
1876.269957212366
 20
3834.058667012652
  0
LWPOLYLINE
  5
906
330
1F
100
AcDbEntity
  8
0
 62
     9
100
AcDbPolyline
 90
       23
 70
     0
 43
0.0
 10
2247.771360056187
 20
3965.026087399188
 10
2265.834880024186
 20
3962.340277959189
 10
2281.811671619186
 20
3958.942830385688
 10
2295.823446271187
 20
3954.849283990689
 10
2307.990421113685
 20
3950.077948191689
 10
2318.379546627689
 20
3944.674302677188
 10
2327.024453321686
 20
3938.726556778689
 10
2333.978786271185
 20
3932.348199964188
 10
2339.335100029187
 20
3925.640857504689
 10
2343.269585423189
 20
3918.500672797189
 10
2345.760798672188
 20
3910.869726041688
 10
2346.649850025187
 20
3902.971290690188
 10
2345.887175649687
 20
3895.175006037188
 10
2343.58513336319
 20
3887.788360216188
 10
2339.878329516187
 20
3880.895860470188
 10
2334.678337239187
 20
3874.333389361687
 10
2327.805532226687
 20
3868.082570099188
 10
2319.201662051189
 20
3862.298283429689
 10
2308.847298476186
 20
3857.102991500187
 10
2296.703231344686
 20
3852.561701968189
 10
2282.698810610188
 20
3848.702827541689
 10
2266.736674376686
 20
3845.534546073188
 10
2248.702823368188
 20
3843.054608085188
  0
LWPOLYLINE
  5
907
330
1F
100
AcDbEntity
  8
0
 62
     9
100
AcDbPolyline
 90
       19
 70
     0
 43
0.0
 10
2251.449014097186
 20
3979.775181727188
 10
2274.465240177184
 20
3975.595879786688
 10
2294.226341176687
 20
3970.111070940688
 10
2310.97384632919
 20
3963.356880412688
 10
2324.898089534187
 20
3955.397932167189
 10
2336.067168799687
 20
3946.412645328188
 10
2344.587030802187
 20
3936.648681189188
 10
2350.68962041919
 20
3926.208844919189
 10
2354.542526479187
 20
3914.896782323189
 10
2355.923789256189
 20
3902.94300833969
 10
2354.696727987185
 20
3891.178082879189
 10
2351.097217089689
 20
3880.255958324188
 10
2345.229726018187
 20
3870.096605776189
 10
2336.825086167187
 20
3860.527019106188
 10
2325.701584513186
 20
3851.788929723689
 10
2311.820105462687
 20
3844.156347074688
 10
2295.090405343685
 20
3837.753065055689
 10
2275.35212505019
 20
3832.619717241189
 10
2252.384461025688
 20
3828.756268699187
  0
LWPOLYLINE
  5
908
330
1F
100
AcDbEntity
  8
0
 62
     9
100
AcDbPolyline
 90
        4
 70
     0
 43
0.0
 10
2251.808322922686
 20
3639.425303449189
 10
2252.216495605687
 20
3702.518977451688
 10
2252.408557632188
 20
3765.634559292688
 10
2252.384461025688
 20
3828.756268699187
  0
LWPOLYLINE
  5
909
330
1F
100
AcDbEntity
  8
0
 62
     9
100
AcDbPolyline
 90
        4
 70
     0
 43
0.0
 10
2251.808327038688
 20
3639.425323385188
 10
2250.812135485185
 20
3634.163163753188
 10
2249.542632392188
 20
3629.502450938688
 10
2248.12913966719
 20
3625.917958007189
  0
LWPOLYLINE
  5
90A
330
1F
100
AcDbEntity
  8
0
 62
     9
100
AcDbPolyline
 90
        4
 70
     0
 43
0.0
 10
2252.384463590187
 20
3828.756261292689
 10
2251.42098754919
 20
3834.377969352188
 10
2250.14484297419
 20
3839.334115634688
 10
2248.702823988689
 20
3843.054590231188
  0
LWPOLYLINE
  5
90B
330
1F
100
AcDbEntity
  8
0
 62
     9
100
AcDbPolyline
 90
        4
 70
     0
 43
0.0
 10
2251.449015868685
 20
3979.775201336688
 10
2250.488085017688
 20
3974.098869634189
 10
2249.213063113685
 20
3968.985455550689
 10
2247.771360458187
 20
3965.026133913689
  0
LINE
  5
90C
330
1F
100
AcDbEntity
  8
0
 62
     9
100
AcDbLine
 10
1876.638604729439
 20
3992.373881857068
 30
0.0
 11
1876.652634536864
 21
4367.623895948152
 31
0.0
  0
LINE
  5
90D
330
1F
100
AcDbEntity
  8
0
 62
     9
100
AcDbLine
 10
1876.269946383643
 20
3500.191906927568
 30
0.0
 11
1876.269969417367
 21
3635.811641232651
 31
0.0
  0
LWPOLYLINE
  5
90E
330
1F
100
AcDbEntity
  8
0
 62
     9
100
AcDbPolyline
 90
        5
 70
     0
 43
0.0
 10
1873.941886390366
 20
3500.176638433151
 10
1874.064671860865
 20
3498.065818601152
 10
1874.176693573866
 20
3494.328240451653
 10
1874.263455057868
 20
3489.349991241152
 10
1874.313848694869
 20
3483.734582569152
  0
LWPOLYLINE
  5
90F
330
1F
100
AcDbEntity
  8
0
 62
     9
100
AcDbPolyline
 90
        6
 70
     0
 43
0.0
 10
1856.941883055867
 20
3483.617681682652
 10
1857.773921773866
 20
3488.734679214151
 10
1860.188593856866
 20
3493.350791859152
 10
1863.949534171867
 20
3497.014159389652
 10
1868.688595704868
 20
3499.366185895151
 10
1873.941883055867
 20
3500.176638433151
  0
LWPOLYLINE
  5
910
330
1F
100
AcDbEntity
  8
0
 62
     9
100
AcDbPolyline
 90
        6
 70
     0
 43
0.0
 10
1856.941883055867
 20
3483.617678433152
 10
1857.753468099868
 20
3483.953998901152
 10
1860.191668952367
 20
3484.096526397152
 10
1864.045865061866
 20
3484.069824915152
 10
1868.923075402369
 20
3483.926117130652
 10
1874.313848694869
 20
3483.734582569152
  0
LINE
  5
911
330
1F
100
AcDbEntity
  8
0
 62
     9
100
AcDbLine
 10
1874.314079068713
 20
3409.494903470152
 30
0.0
 11
1874.313842368868
 21
3483.734574656152
 31
0.0
  0
LINE
  5
912
330
1F
100
AcDbEntity
  8
0
 62
     9
100
AcDbLine
 10
1876.269957212366
 20
3834.058667012652
 30
0.0
 11
1876.269959956367
 21
3975.202618976651
 31
0.0
  0
LINE
  5
913
330
1F
100
AcDbEntity
  8
0
 62
     9
100
AcDbLine
 10
1876.642438676866
 20
3651.673896102651
 30
0.0
 11
1876.641909598368
 21
3817.616604273651
 31
0.0
  0
LWPOLYLINE
  5
914
330
1F
100
AcDbEntity
  8
0
100
AcDbPolyline
 90
        6
 70
     0
 43
0.0
 10
1859.269950285368
 20
3652.263621650153
 10
1860.059587224368
 20
3647.380461830652
 10
1862.433730107866
 20
3642.802121731151
 10
1866.195817039868
 20
3639.095489138652
 10
1870.970666673866
 20
3636.677614852152
 10
1876.269950285367
 20
3635.811640093152
  0
LWPOLYLINE
  5
915
330
1F
100
AcDbEntity
  8
0
 62
     9
100
AcDbPolyline
 90
        5
 70
     0
 43
0.0
 10
1876.642450005364
 20
3651.673886508652
 10
1876.589997936367
 20
3646.454592627151
 10
1876.504284259866
 20
3641.718499876152
 10
1876.393523098867
 20
3638.025472481652
 10
1876.269953380367
 20
3635.811640093152
  0
LWPOLYLINE
  5
916
330
1F
100
AcDbEntity
  8
0
 62
     9
100
AcDbPolyline
 90
        6
 70
     0
 43
0.0
 10
1859.269950285368
 20
3652.263652096652
 10
1860.125168302866
 20
3652.079232206652
 10
1862.604774894865
 20
3651.913243730152
 10
1866.459287870365
 20
3651.782389616652
 10
1871.300890315865
 20
3651.699835776652
 10
1876.642450005364
 20
3651.673886508652
  0
LWPOLYLINE
  5
917
330
1F
100
AcDbEntity
  8
0
 62
     9
100
AcDbPolyline
 90
        6
 70
     0
 43
0.0
 10
1859.269950285368
 20
3817.499708050651
 10
1860.081535329368
 20
3817.836028518652
 10
1862.519736181867
 20
3817.978556014652
 10
1866.373932291367
 20
3817.951854532651
 10
1871.251142631866
 20
3817.808146748152
 10
1876.641915924366
 20
3817.616612186652
  0
LWPOLYLINE
  5
918
330
1F
100
AcDbEntity
  8
0
 62
     9
100
AcDbPolyline
 90
        6
 70
     0
 43
0.0
 10
1859.269950285368
 20
3817.499711300152
 10
1860.101989003367
 20
3822.616708831651
 10
1862.516661086366
 20
3827.232821476651
 10
1866.277601401368
 20
3830.896189007152
 10
1871.016662934368
 20
3833.24821551265
 10
1876.269950285367
 20
3834.058668050651
  0
LWPOLYLINE
  5
919
330
1F
100
AcDbEntity
  8
0
 62
     9
100
AcDbPolyline
 90
        5
 70
     0
 43
0.0
 10
1876.269953619866
 20
3834.058668050651
 10
1876.392739090366
 20
3831.947848218652
 10
1876.504760803366
 20
3828.210270069153
 10
1876.591522287369
 20
3823.232020858652
 10
1876.641915924366
 20
3817.616612186652
  0
LWPOLYLINE
  5
91A
330
1F
100
AcDbEntity
  8
0
100
AcDbPolyline
 90
        6
 70
     0
 43
0.0
 10
1859.269950285368
 20
3991.512761564653
 10
1860.055967318366
 20
3986.695871962651
 10
1862.427335416366
 20
3982.160631131652
 10
1866.189284237868
 20
3978.481175424151
 10
1870.965922552367
 20
3976.074476000151
 10
1876.269950285367
 20
3975.202618932652
  0
LWPOLYLINE
  5
91B
330
1F
100
AcDbEntity
  8
0
 62
     9
100
AcDbPolyline
 90
        5
 70
     0
 43
0.0
 10
1876.643079663368
 20
3992.373912647152
 10
1876.594662005368
 20
3986.879770610153
 10
1876.509679474867
 20
3981.771924408651
 10
1876.396898946367
 20
3977.706376920651
 10
1876.269950455366
 20
3975.202618932652
  0
LWPOLYLINE
  5
91C
330
1F
100
AcDbEntity
  8
0
 62
     9
100
AcDbPolyline
 90
        6
 70
     0
 43
0.0
 10
1859.269950285368
 20
3991.512802380152
 10
1860.125203936865
 20
3991.783204294652
 10
1862.604918495365
 20
3992.026156486652
 10
1866.459590562866
 20
3992.217215908651
 10
1871.301368949865
 20
3992.337158646151
 10
1876.643079663368
 20
3992.373912647152
  0
LINE
  5
91D
330
1F
100
AcDbEntity
  8
0
100
AcDbLine
 10
1846.269950075689
 20
4329.506237890356
 30
0.0
 11
1851.269950075689
 21
4329.506237890356
 31
0.0
  0
LINE
  5
91E
330
1F
100
AcDbEntity
  8
0
 62
     9
100
AcDbLine
 10
1876.651955441189
 20
4367.618287764187
 30
0.0
 11
2466.868100110593
 21
4367.618287764187
 31
0.0
  0
LINE
  5
91F
330
1F
100
AcDbEntity
  8
0
 62
     9
100
AcDbLine
 10
1876.63860451976
 20
3992.368273673103
 30
0.0
 11
1876.652634327186
 21
4367.618287764187
 31
0.0
  0
LINE
  5
920
330
1F
100
AcDbEntity
  8
0
 62
     9
100
AcDbLine
 10
1333.769950075685
 20
3392.838660191689
 30
0.0
 11
2513.769950075689
 21
3392.838660191689
 31
0.0
  0
LINE
  5
921
330
1F
100
AcDbEntity
  8
TEXT
  6
Continuous
 62
     7
100
AcDbLine
 10
2384.270450075687
 20
4424.582168267188
 30
0.0
 11
2390.770450075687
 21
4420.829168267188
 31
0.0
  0
POLYLINE
  5
922
330
1F
100
AcDbEntity
  8
TEXT
  6
Continuous
 62
     7
100
AcDb2dPolyline
 66
     1
 10
0.0
 20
0.0
 30
0.0
  0
VERTEX
  5
923
330
922
100
AcDbEntity
  8
TEXT
  6
Continuous
 62
     7
100
AcDbVertex
100
AcDb2dVertex
 10
2390.770450075687
 20
4433.159168267187
 30
0.0
  0
VERTEX
  5
924
330
922
100
AcDbEntity
  8
TEXT
  6
Continuous
 62
     7
100
AcDbVertex
100
AcDb2dVertex
 10
2390.770450075687
 20
4428.406168267187
 30
0.0
  0
VERTEX
  5
925
330
922
100
AcDbEntity
  8
TEXT
  6
Continuous
 62
     7
100
AcDbVertex
100
AcDb2dVertex
 10
2384.270450075687
 20
4428.406168267187
 30
0.0
  0
SEQEND
  5
926
330
922
100
AcDbEntity
  8
TEXT
  6
Continuous
 62
     7
  0
INSERT
  5
927
330
1F
100
AcDbEntity
  8
0
100
AcDbBlockReference
  2
NXXXX80
 10
1628.206450075685
 20
2955.531168267189
 30
0.0
  0
LINE
  5
928
330
1F
100
AcDbEntity
  8
TEXT
  6
Continuous
 62
     7
100
AcDbLine
 10
2011.769450075687
 20
4412.828168267187
 30
0.0
 11
2011.769450075687
 21
4410.159168267187
 31
0.0
  0
LINE
  5
929
330
1F
100
AcDbEntity
  8
TEXT
  6
Continuous
 62
     7
100
AcDbLine
 10
2018.270450075688
 20
4433.159168267187
 30
0.0
 11
2018.270450075688
 21
4431.581168267189
 31
0.0
  0
LINE
  5
92A
330
1F
100
AcDbEntity
  8
TEXT
  6
Continuous
 62
     7
100
AcDbLine
 10
2018.270450075688
 20
4420.406168267187
 30
0.0
 11
2018.270450075688
 21
4416.581168267188
 31
0.0
  0
LINE
  5
92B
330
1F
100
AcDbEntity
  8
TEXT
  6
Continuous
 62
     7
100
AcDbLine
 10
2384.270450075687
 20
4428.406168267187
 30
0.0
 11
2384.270450075687
 21
4424.582168267188
 31
0.0
  0
POLYLINE
  5
92C
330
1F
100
AcDbEntity
  8
TEXT
  6
Continuous
 62
     7
100
AcDb2dPolyline
 66
     1
 10
0.0
 20
0.0
 30
0.0
  0
VERTEX
  5
92D
330
92C
100
AcDbEntity
  8
TEXT
  6
Continuous
 62
     7
100
AcDbVertex
100
AcDb2dVertex
 10
2008.769450075687
 20
4400.158168267187
 30
0.0
  0
VERTEX
  5
92E
330
92C
100
AcDbEntity
  8
TEXT
  6
Continuous
 62
     7
100
AcDbVertex
100
AcDb2dVertex
 10
2008.769450075687
 20
4410.159168267187
 30
0.0
  0
VERTEX
  5
92F
330
92C
100
AcDbEntity
  8
TEXT
  6
Continuous
 62
     7
100
AcDbVertex
100
AcDb2dVertex
 10
2011.769450075687
 20
4410.159168267187
 30
0.0
  0
SEQEND
  5
930
330
92C
100
AcDbEntity
  8
TEXT
  6
Continuous
 62
     7
  0
POLYLINE
  5
931
330
1F
100
AcDbEntity
  8
TEXT
  6
Continuous
 62
     7
100
AcDb2dPolyline
 66
     1
 10
0.0
 20
0.0
 30
0.0
  0
VERTEX
  5
932
330
931
100
AcDbEntity
  8
TEXT
  6
Continuous
 62
     7
100
AcDbVertex
100
AcDb2dVertex
 10
2390.770450075687
 20
4420.829168267188
 30
0.0
  0
VERTEX
  5
933
330
931
100
AcDbEntity
  8
TEXT
  6
Continuous
 62
     7
100
AcDbVertex
100
AcDb2dVertex
 10
2390.770450075687
 20
4410.159168267187
 30
0.0
  0
VERTEX
  5
934
330
931
100
AcDbEntity
  8
TEXT
  6
Continuous
 62
     7
100
AcDbVertex
100
AcDb2dVertex
 10
2393.770450075687
 20
4410.159168267187
 30
0.0
  0
VERTEX
  5
935
330
931
100
AcDbEntity
  8
TEXT
  6
Continuous
 62
     7
100
AcDbVertex
100
AcDb2dVertex
 10
2393.770450075687
 20
4400.159168267188
 30
0.0
  0
SEQEND
  5
936
330
931
100
AcDbEntity
  8
TEXT
  6
Continuous
 62
     7
  0
ARC
  5
937
330
1F
100
AcDbEntity
  8
BILD
  6
Continuous
 62
     7
100
AcDbCircle
 10
2403.770450075691
 20
4400.159168267189
 30
0.0
 40
10.00000000000159
100
AcDbArc
 50
180.0
 51
270.0
  0
ARC
  5
938
330
1F
100
AcDbEntity
  8
BILD
  6
Continuous
 62
     7
100
AcDbCircle
 10
1998.769450075687
 20
4400.159168267189
 30
0.0
 40
10.00000000000136
100
AcDbArc
 50
270.0
 51
359.9999999999479
  0
LINE
  5
939
330
1F
100
AcDbEntity
  8
AM_8
  6
Continuous
100
AcDbLine
 10
2012.407450075686
 20
4428.197168267188
 30
0.0
 11
2011.769450075687
 21
4427.559168267187
 31
0.0
  0
INSERT
  5
93A
330
1F
100
AcDbEntity
  8
0
100
AcDbBlockReference
  2
NXXXX93
 10
1615.706450075685
 20
2639.63616826719
 30
0.0
  0
POLYLINE
  5
93B
330
1F
100
AcDbEntity
  8
TEXT
  6
Continuous
 62
     7
100
AcDb2dPolyline
 66
     1
 10
0.0
 20
0.0
 30
0.0
  0
VERTEX
  5
93C
330
93B
100
AcDbEntity
  8
TEXT
  6
Continuous
 62
     7
100
AcDbVertex
100
AcDb2dVertex
 10
1998.770450075687
 20
4433.15916826719
 30
0.0
  0
VERTEX
  5
93D
330
93B
100
AcDbEntity
  8
TEXT
  6
Continuous
 62
     7
100
AcDbVertex
100
AcDb2dVertex
 10
1998.770450075687
 20
4435.15916826719
 30
0.0
 42
-0.414213562373
  0
VERTEX
  5
93E
330
93B
100
AcDbEntity
  8
TEXT
  6
Continuous
 62
     7
100
AcDbVertex
100
AcDb2dVertex
 10
2001.770450075687
 20
4438.15916826719
 30
0.0
  0
VERTEX
  5
93F
330
93B
100
AcDbEntity
  8
TEXT
  6
Continuous
 62
     7
100
AcDbVertex
100
AcDb2dVertex
 10
2201.270450075687
 20
4438.15916826719
 30
0.0
  0
SEQEND
  5
940
330
93B
100
AcDbEntity
  8
TEXT
  6
Continuous
 62
     7
  0
POLYLINE
  5
941
330
1F
100
AcDbEntity
  8
TEXT
  6
Continuous
 62
     7
100
AcDb2dPolyline
 66
     1
 10
0.0
 20
0.0
 30
0.0
  0
VERTEX
  5
942
330
941
100
AcDbEntity
  8
TEXT
  6
Continuous
 62
     7
100
AcDbVertex
100
AcDb2dVertex
 10
2017.269450075687
 20
4505.15916826719
 30
0.0
 42
0.414213562373
  0
VERTEX
  5
943
330
941
100
AcDbEntity
  8
TEXT
  6
Continuous
 62
     7
100
AcDbVertex
100
AcDb2dVertex
 10
2014.269450075687
 20
4502.15916826719
 30
0.0
  0
VERTEX
  5
944
330
941
100
AcDbEntity
  8
TEXT
  6
Continuous
 62
     7
100
AcDbVertex
100
AcDb2dVertex
 10
2014.269450075687
 20
4491.402168267188
 30
0.0
 42
-0.19891236738
  0
VERTEX
  5
945
330
941
100
AcDbEntity
  8
TEXT
  6
Continuous
 62
     7
100
AcDbVertex
100
AcDb2dVertex
 10
2013.390450075686
 20
4489.280168267188
 30
0.0
  0
VERTEX
  5
946
330
941
100
AcDbEntity
  8
TEXT
  6
Continuous
 62
     7
100
AcDbVertex
100
AcDb2dVertex
 10
2008.149129732129
 20
4484.037488610749
 30
0.0
 42
0.19891236738
  0
VERTEX
  5
947
330
941
100
AcDbEntity
  8
TEXT
  6
Continuous
 62
     7
100
AcDbVertex
100
AcDb2dVertex
 10
2007.270450075687
 20
4481.916168267189
 30
0.0
  0
VERTEX
  5
948
330
941
100
AcDbEntity
  8
TEXT
  6
Continuous
 62
     7
100
AcDbVertex
100
AcDb2dVertex
 10
2007.270450075687
 20
4441.15916826719
 30
0.0
 42
-0.414213562373
  0
VERTEX
  5
949
330
941
100
AcDbEntity
  8
TEXT
  6
Continuous
 62
     7
100
AcDbVertex
100
AcDb2dVertex
 10
2004.270450075687
 20
4438.15916826719
 30
0.0
  0
SEQEND
  5
94A
330
941
100
AcDbEntity
  8
TEXT
  6
Continuous
 62
     7
  0
LINE
  5
94B
330
1F
100
AcDbEntity
  8
AM_4
100
AcDbLine
 10
2014.622450075686
 20
4490.408168267189
 30
0.0
 11
2201.270450075687
 21
4490.408168267189
 31
0.0
  0
LINE
  5
94C
330
1F
100
AcDbEntity
  8
AM_4
100
AcDbLine
 10
2008.627450075687
 20
4482.477168267188
 30
0.0
 11
2201.269450075687
 21
4482.477168267188
 31
0.0
  0
INSERT
  5
94D
330
1F
100
AcDbEntity
  8
0
100
AcDbBlockReference
  2
NXXXX95
 10
1615.706450075685
 20
2639.63616826719
 30
0.0
  0
POLYLINE
  5
94E
330
1F
100
AcDbEntity
  8
TEXT
  6
Continuous
 62
     7
100
AcDb2dPolyline
 66
     1
 10
0.0
 20
0.0
 30
0.0
  0
VERTEX
  5
94F
330
94E
100
AcDbEntity
  8
TEXT
  6
Continuous
 62
     7
100
AcDbVertex
100
AcDb2dVertex
 10
2403.770450075684
 20
4433.15916826719
 30
0.0
  0
VERTEX
  5
950
330
94E
100
AcDbEntity
  8
TEXT
  6
Continuous
 62
     7
100
AcDbVertex
100
AcDb2dVertex
 10
2403.770450075684
 20
4435.15916826719
 30
0.0
 42
0.414213562373
  0
VERTEX
  5
951
330
94E
100
AcDbEntity
  8
TEXT
  6
Continuous
 62
     7
100
AcDbVertex
100
AcDb2dVertex
 10
2400.770450075684
 20
4438.15916826719
 30
0.0
  0
VERTEX
  5
952
330
94E
100
AcDbEntity
  8
TEXT
  6
Continuous
 62
     7
100
AcDbVertex
100
AcDb2dVertex
 10
2201.270450075687
 20
4438.15916826719
 30
0.0
  0
SEQEND
  5
953
330
94E
100
AcDbEntity
  8
TEXT
  6
Continuous
 62
     7
  0
POLYLINE
  5
954
330
1F
100
AcDbEntity
  8
TEXT
  6
Continuous
 62
     7
100
AcDb2dPolyline
 66
     1
 10
0.0
 20
0.0
 30
0.0
  0
VERTEX
  5
955
330
954
100
AcDbEntity
  8
TEXT
  6
Continuous
 62
     7
100
AcDbVertex
100
AcDb2dVertex
 10
2398.269450075687
 20
4438.15916826719
 30
0.0
 42
-0.414213562373
  0
VERTEX
  5
956
330
954
100
AcDbEntity
  8
TEXT
  6
Continuous
 62
     7
100
AcDbVertex
100
AcDb2dVertex
 10
2395.269450075687
 20
4441.15916826719
 30
0.0
  0
VERTEX
  5
957
330
954
100
AcDbEntity
  8
TEXT
  6
Continuous
 62
     7
100
AcDbVertex
100
AcDb2dVertex
 10
2395.269450075687
 20
4481.916168267189
 30
0.0
 42
0.19891236738
  0
VERTEX
  5
958
330
954
100
AcDbEntity
  8
TEXT
  6
Continuous
 62
     7
100
AcDbVertex
100
AcDb2dVertex
 10
2394.390770419249
 20
4484.037488610749
 30
0.0
  0
VERTEX
  5
959
330
954
100
AcDbEntity
  8
TEXT
  6
Continuous
 62
     7
100
AcDbVertex
100
AcDb2dVertex
 10
2389.149450075684
 20
4489.280168267188
 30
0.0
 42
-0.19891236738
  0
VERTEX
  5
95A
330
954
100
AcDbEntity
  8
TEXT
  6
Continuous
 62
     7
100
AcDbVertex
100
AcDb2dVertex
 10
2388.270450075684
 20
4491.402168267188
 30
0.0
  0
VERTEX
  5
95B
330
954
100
AcDbEntity
  8
TEXT
  6
Continuous
 62
     7
100
AcDbVertex
100
AcDb2dVertex
 10
2388.270450075684
 20
4502.15916826719
 30
0.0
 42
0.414213562373
  0
VERTEX
  5
95C
330
954
100
AcDbEntity
  8
TEXT
  6
Continuous
 62
     7
100
AcDbVertex
100
AcDb2dVertex
 10
2385.270450075687
 20
4505.15916826719
 30
0.0
  0
SEQEND
  5
95D
330
954
100
AcDbEntity
  8
TEXT
  6
Continuous
 62
     7
  0
LINE
  5
95E
330
1F
100
AcDbEntity
  8
AM_4
100
AcDbLine
 10
2387.917450075688
 20
4490.408168267189
 30
0.0
 11
2201.270450075687
 21
4490.408168267189
 31
0.0
  0
LINE
  5
95F
330
1F
100
AcDbEntity
  8
AM_4
100
AcDbLine
 10
2393.913450075687
 20
4482.477168267188
 30
0.0
 11
2201.270450075687
 21
4482.477168267188
 31
0.0
  0
LINE
  5
960
330
1F
100
AcDbEntity
  8
0
100
AcDbLine
 10
2008.769450075687
 20
4410.159168267187
 30
0.0
 11
2393.770450075687
 21
4410.159168267187
 31
0.0
  0
LINE
  5
961
330
1F
100
AcDbEntity
  8
0
100
AcDbLine
 10
2011.769450075687
 20
4412.828168267187
 30
0.0
 11
2390.770450075687
 21
4420.829168267188
 31
0.0
  0
LINE
  5
962
330
1F
100
AcDbEntity
  8
0
100
AcDbLine
 10
2018.270450075688
 20
4416.581168267188
 30
0.0
 11
2384.270450075687
 21
4424.582168267188
 31
0.0
  0
LINE
  5
963
330
1F
100
AcDbEntity
  8
0
100
AcDbLine
 10
2011.769450075687
 20
4420.407168267187
 30
0.0
 11
2193.288072872833
 21
4420.407168267187
 31
0.0
  0
LINE
  5
964
330
1F
100
AcDbEntity
  8
0
100
AcDbLine
 10
2011.769450075687
 20
4427.829168267187
 30
0.0
 11
2264.247306593613
 21
4433.159168267187
 31
0.0
  0
LINE
  5
965
330
1F
100
AcDbEntity
  8
0
100
AcDbLine
 10
2018.270450075688
 20
4431.582168267189
 30
0.0
 11
2090.409182734106
 21
4433.159168267187
 31
0.0
  0
LINE
  5
966
330
1F
100
AcDbEntity
  8
0
100
AcDbLine
 10
2390.770450075687
 20
4428.406168267187
 30
0.0
 11
2012.407450075686
 21
4428.197168267188
 31
0.0
  0
LINE
  5
967
330
1F
100
AcDbEntity
  8
TEXT
  6
Continuous
 62
     7
100
AcDbLine
 10
1779.270450075687
 20
4424.582168267188
 30
0.0
 11
1785.770450075687
 21
4420.829168267188
 31
0.0
  0
POLYLINE
  5
968
330
1F
100
AcDbEntity
  8
TEXT
  6
Continuous
 62
     7
100
AcDb2dPolyline
 66
     1
 10
0.0
 20
0.0
 30
0.0
  0
VERTEX
  5
969
330
968
100
AcDbEntity
  8
TEXT
  6
Continuous
 62
     7
100
AcDbVertex
100
AcDb2dVertex
 10
1785.770450075687
 20
4433.159168267187
 30
0.0
  0
VERTEX
  5
96A
330
968
100
AcDbEntity
  8
TEXT
  6
Continuous
 62
     7
100
AcDbVertex
100
AcDb2dVertex
 10
1785.770450075687
 20
4428.406168267187
 30
0.0
  0
VERTEX
  5
96B
330
968
100
AcDbEntity
  8
TEXT
  6
Continuous
 62
     7
100
AcDbVertex
100
AcDb2dVertex
 10
1779.270450075687
 20
4428.406168267187
 30
0.0
  0
SEQEND
  5
96C
330
968
100
AcDbEntity
  8
TEXT
  6
Continuous
 62
     7
  0
INSERT
  5
96D
330
1F
100
AcDbEntity
  8
0
100
AcDbBlockReference
  2
NXXXX80
 10
1023.206450075689
 20
2955.531168267189
 30
0.0
  0
LINE
  5
96E
330
1F
100
AcDbEntity
  8
TEXT
  6
Continuous
 62
     7
100
AcDbLine
 10
1406.769450075687
 20
4412.828168267187
 30
0.0
 11
1406.769450075687
 21
4410.159168267187
 31
0.0
  0
LINE
  5
96F
330
1F
100
AcDbEntity
  8
TEXT
  6
Continuous
 62
     7
100
AcDbLine
 10
1413.270450075687
 20
4433.159168267187
 30
0.0
 11
1413.270450075687
 21
4431.581168267189
 31
0.0
  0
LINE
  5
970
330
1F
100
AcDbEntity
  8
TEXT
  6
Continuous
 62
     7
100
AcDbLine
 10
1413.270450075687
 20
4420.406168267187
 30
0.0
 11
1413.270450075687
 21
4416.581168267188
 31
0.0
  0
LINE
  5
971
330
1F
100
AcDbEntity
  8
TEXT
  6
Continuous
 62
     7
100
AcDbLine
 10
1779.270450075687
 20
4428.406168267187
 30
0.0
 11
1779.270450075687
 21
4424.582168267188
 31
0.0
  0
POLYLINE
  5
972
330
1F
100
AcDbEntity
  8
TEXT
  6
Continuous
 62
     7
100
AcDb2dPolyline
 66
     1
 10
0.0
 20
0.0
 30
0.0
  0
VERTEX
  5
973
330
972
100
AcDbEntity
  8
TEXT
  6
Continuous
 62
     7
100
AcDbVertex
100
AcDb2dVertex
 10
1403.769450075687
 20
4400.158168267187
 30
0.0
  0
VERTEX
  5
974
330
972
100
AcDbEntity
  8
TEXT
  6
Continuous
 62
     7
100
AcDbVertex
100
AcDb2dVertex
 10
1403.769450075687
 20
4410.159168267187
 30
0.0
  0
VERTEX
  5
975
330
972
100
AcDbEntity
  8
TEXT
  6
Continuous
 62
     7
100
AcDbVertex
100
AcDb2dVertex
 10
1406.769450075687
 20
4410.159168267187
 30
0.0
  0
SEQEND
  5
976
330
972
100
AcDbEntity
  8
TEXT
  6
Continuous
 62
     7
  0
POLYLINE
  5
977
330
1F
100
AcDbEntity
  8
TEXT
  6
Continuous
 62
     7
100
AcDb2dPolyline
 66
     1
 10
0.0
 20
0.0
 30
0.0
  0
VERTEX
  5
978
330
977
100
AcDbEntity
  8
TEXT
  6
Continuous
 62
     7
100
AcDbVertex
100
AcDb2dVertex
 10
1785.770450075687
 20
4420.829168267188
 30
0.0
  0
VERTEX
  5
979
330
977
100
AcDbEntity
  8
TEXT
  6
Continuous
 62
     7
100
AcDbVertex
100
AcDb2dVertex
 10
1785.770450075687
 20
4410.159168267187
 30
0.0
  0
VERTEX
  5
97A
330
977
100
AcDbEntity
  8
TEXT
  6
Continuous
 62
     7
100
AcDbVertex
100
AcDb2dVertex
 10
1788.770450075687
 20
4410.159168267187
 30
0.0
  0
VERTEX
  5
97B
330
977
100
AcDbEntity
  8
TEXT
  6
Continuous
 62
     7
100
AcDbVertex
100
AcDb2dVertex
 10
1788.770450075687
 20
4400.159168267188
 30
0.0
  0
SEQEND
  5
97C
330
977
100
AcDbEntity
  8
TEXT
  6
Continuous
 62
     7
  0
ARC
  5
97D
330
1F
100
AcDbEntity
  8
BILD
  6
Continuous
 62
     7
100
AcDbCircle
 10
1798.770450075691
 20
4400.159168267189
 30
0.0
 40
10.00000000000159
100
AcDbArc
 50
180.0
 51
270.0
  0
ARC
  5
97E
330
1F
100
AcDbEntity
  8
BILD
  6
Continuous
 62
     7
100
AcDbCircle
 10
1393.769450075683
 20
4400.159168267189
 30
0.0
 40
10.00000000000136
100
AcDbArc
 50
270.0
 51
359.9999999999479
  0
LINE
  5
97F
330
1F
100
AcDbEntity
  8
AM_8
  6
Continuous
100
AcDbLine
 10
1407.407450075686
 20
4428.197168267188
 30
0.0
 11
1406.769450075687
 21
4427.559168267187
 31
0.0
  0
INSERT
  5
980
330
1F
100
AcDbEntity
  8
0
100
AcDbBlockReference
  2
NXXXX93
 10
1010.706450075689
 20
2639.63616826719
 30
0.0
  0
POLYLINE
  5
981
330
1F
100
AcDbEntity
  8
TEXT
  6
Continuous
 62
     7
100
AcDb2dPolyline
 66
     1
 10
0.0
 20
0.0
 30
0.0
  0
VERTEX
  5
982
330
981
100
AcDbEntity
  8
TEXT
  6
Continuous
 62
     7
100
AcDbVertex
100
AcDb2dVertex
 10
1393.770450075687
 20
4433.15916826719
 30
0.0
  0
VERTEX
  5
983
330
981
100
AcDbEntity
  8
TEXT
  6
Continuous
 62
     7
100
AcDbVertex
100
AcDb2dVertex
 10
1393.770450075687
 20
4435.15916826719
 30
0.0
 42
-0.414213562373
  0
VERTEX
  5
984
330
981
100
AcDbEntity
  8
TEXT
  6
Continuous
 62
     7
100
AcDbVertex
100
AcDb2dVertex
 10
1396.770450075687
 20
4438.15916826719
 30
0.0
  0
VERTEX
  5
985
330
981
100
AcDbEntity
  8
TEXT
  6
Continuous
 62
     7
100
AcDbVertex
100
AcDb2dVertex
 10
1596.270450075687
 20
4438.15916826719
 30
0.0
  0
SEQEND
  5
986
330
981
100
AcDbEntity
  8
TEXT
  6
Continuous
 62
     7
  0
POLYLINE
  5
987
330
1F
100
AcDbEntity
  8
TEXT
  6
Continuous
 62
     7
100
AcDb2dPolyline
 66
     1
 10
0.0
 20
0.0
 30
0.0
  0
VERTEX
  5
988
330
987
100
AcDbEntity
  8
TEXT
  6
Continuous
 62
     7
100
AcDbVertex
100
AcDb2dVertex
 10
1412.269450075687
 20
4505.15916826719
 30
0.0
 42
0.414213562373
  0
VERTEX
  5
989
330
987
100
AcDbEntity
  8
TEXT
  6
Continuous
 62
     7
100
AcDbVertex
100
AcDb2dVertex
 10
1409.269450075687
 20
4502.15916826719
 30
0.0
  0
VERTEX
  5
98A
330
987
100
AcDbEntity
  8
TEXT
  6
Continuous
 62
     7
100
AcDbVertex
100
AcDb2dVertex
 10
1409.269450075687
 20
4491.402168267188
 30
0.0
 42
-0.19891236738
  0
VERTEX
  5
98B
330
987
100
AcDbEntity
  8
TEXT
  6
Continuous
 62
     7
100
AcDbVertex
100
AcDb2dVertex
 10
1408.390450075686
 20
4489.280168267188
 30
0.0
  0
VERTEX
  5
98C
330
987
100
AcDbEntity
  8
TEXT
  6
Continuous
 62
     7
100
AcDbVertex
100
AcDb2dVertex
 10
1403.149129732125
 20
4484.037488610749
 30
0.0
 42
0.19891236738
  0
VERTEX
  5
98D
330
987
100
AcDbEntity
  8
TEXT
  6
Continuous
 62
     7
100
AcDbVertex
100
AcDb2dVertex
 10
1402.270450075687
 20
4481.916168267189
 30
0.0
  0
VERTEX
  5
98E
330
987
100
AcDbEntity
  8
TEXT
  6
Continuous
 62
     7
100
AcDbVertex
100
AcDb2dVertex
 10
1402.270450075687
 20
4441.15916826719
 30
0.0
 42
-0.414213562373
  0
VERTEX
  5
98F
330
987
100
AcDbEntity
  8
TEXT
  6
Continuous
 62
     7
100
AcDbVertex
100
AcDb2dVertex
 10
1399.270450075687
 20
4438.15916826719
 30
0.0
  0
SEQEND
  5
990
330
987
100
AcDbEntity
  8
TEXT
  6
Continuous
 62
     7
  0
LINE
  5
991
330
1F
100
AcDbEntity
  8
AM_4
100
AcDbLine
 10
1409.622450075686
 20
4490.408168267189
 30
0.0
 11
1596.270450075687
 21
4490.408168267189
 31
0.0
  0
LINE
  5
992
330
1F
100
AcDbEntity
  8
AM_4
100
AcDbLine
 10
1403.627450075687
 20
4482.477168267188
 30
0.0
 11
1596.269450075687
 21
4482.477168267188
 31
0.0
  0
INSERT
  5
993
330
1F
100
AcDbEntity
  8
0
100
AcDbBlockReference
  2
NXXXX95
 10
1010.706450075689
 20
2639.63616826719
 30
0.0
  0
POLYLINE
  5
994
330
1F
100
AcDbEntity
  8
TEXT
  6
Continuous
 62
     7
100
AcDb2dPolyline
 66
     1
 10
0.0
 20
0.0
 30
0.0
  0
VERTEX
  5
995
330
994
100
AcDbEntity
  8
TEXT
  6
Continuous
 62
     7
100
AcDbVertex
100
AcDb2dVertex
 10
1798.770450075684
 20
4433.15916826719
 30
0.0
  0
VERTEX
  5
996
330
994
100
AcDbEntity
  8
TEXT
  6
Continuous
 62
     7
100
AcDbVertex
100
AcDb2dVertex
 10
1798.770450075684
 20
4435.15916826719
 30
0.0
 42
0.414213562373
  0
VERTEX
  5
997
330
994
100
AcDbEntity
  8
TEXT
  6
Continuous
 62
     7
100
AcDbVertex
100
AcDb2dVertex
 10
1795.770450075683
 20
4438.15916826719
 30
0.0
  0
VERTEX
  5
998
330
994
100
AcDbEntity
  8
TEXT
  6
Continuous
 62
     7
100
AcDbVertex
100
AcDb2dVertex
 10
1596.270450075687
 20
4438.15916826719
 30
0.0
  0
SEQEND
  5
999
330
994
100
AcDbEntity
  8
TEXT
  6
Continuous
 62
     7
  0
POLYLINE
  5
99A
330
1F
100
AcDbEntity
  8
TEXT
  6
Continuous
 62
     7
100
AcDb2dPolyline
 66
     1
 10
0.0
 20
0.0
 30
0.0
  0
VERTEX
  5
99B
330
99A
100
AcDbEntity
  8
TEXT
  6
Continuous
 62
     7
100
AcDbVertex
100
AcDb2dVertex
 10
1793.269450075687
 20
4438.15916826719
 30
0.0
 42
-0.414213562373
  0
VERTEX
  5
99C
330
99A
100
AcDbEntity
  8
TEXT
  6
Continuous
 62
     7
100
AcDbVertex
100
AcDb2dVertex
 10
1790.269450075687
 20
4441.15916826719
 30
0.0
  0
VERTEX
  5
99D
330
99A
100
AcDbEntity
  8
TEXT
  6
Continuous
 62
     7
100
AcDbVertex
100
AcDb2dVertex
 10
1790.269450075687
 20
4481.916168267189
 30
0.0
 42
0.19891236738
  0
VERTEX
  5
99E
330
99A
100
AcDbEntity
  8
TEXT
  6
Continuous
 62
     7
100
AcDbVertex
100
AcDb2dVertex
 10
1789.390770419249
 20
4484.037488610749
 30
0.0
  0
VERTEX
  5
99F
330
99A
100
AcDbEntity
  8
TEXT
  6
Continuous
 62
     7
100
AcDbVertex
100
AcDb2dVertex
 10
1784.149450075684
 20
4489.280168267188
 30
0.0
 42
-0.19891236738
  0
VERTEX
  5
9A0
330
99A
100
AcDbEntity
  8
TEXT
  6
Continuous
 62
     7
100
AcDbVertex
100
AcDb2dVertex
 10
1783.270450075684
 20
4491.402168267188
 30
0.0
  0
VERTEX
  5
9A1
330
99A
100
AcDbEntity
  8
TEXT
  6
Continuous
 62
     7
100
AcDbVertex
100
AcDb2dVertex
 10
1783.270450075684
 20
4502.15916826719
 30
0.0
 42
0.414213562373
  0
VERTEX
  5
9A2
330
99A
100
AcDbEntity
  8
TEXT
  6
Continuous
 62
     7
100
AcDbVertex
100
AcDb2dVertex
 10
1780.270450075687
 20
4505.15916826719
 30
0.0
  0
SEQEND
  5
9A3
330
99A
100
AcDbEntity
  8
TEXT
  6
Continuous
 62
     7
  0
LINE
  5
9A4
330
1F
100
AcDbEntity
  8
AM_4
100
AcDbLine
 10
1782.917450075688
 20
4490.408168267189
 30
0.0
 11
1596.270450075687
 21
4490.408168267189
 31
0.0
  0
LINE
  5
9A5
330
1F
100
AcDbEntity
  8
AM_4
100
AcDbLine
 10
1788.913450075687
 20
4482.477168267188
 30
0.0
 11
1596.270450075687
 21
4482.477168267188
 31
0.0
  0
LINE
  5
9A6
330
1F
100
AcDbEntity
  8
0
100
AcDbLine
 10
1403.769450075687
 20
4410.159168267187
 30
0.0
 11
1788.770450075687
 21
4410.159168267187
 31
0.0
  0
LINE
  5
9A7
330
1F
100
AcDbEntity
  8
0
100
AcDbLine
 10
1406.769450075687
 20
4412.828168267187
 30
0.0
 11
1785.770450075687
 21
4420.829168267188
 31
0.0
  0
LINE
  5
9A8
330
1F
100
AcDbEntity
  8
0
100
AcDbLine
 10
1413.270450075687
 20
4416.581168267188
 30
0.0
 11
1779.270450075687
 21
4424.582168267188
 31
0.0
  0
LINE
  5
9A9
330
1F
100
AcDbEntity
  8
0
100
AcDbLine
 10
1406.769450075687
 20
4420.407168267187
 30
0.0
 11
1588.288072872833
 21
4420.407168267187
 31
0.0
  0
LINE
  5
9AA
330
1F
100
AcDbEntity
  8
0
100
AcDbLine
 10
1406.769450075687
 20
4427.829168267187
 30
0.0
 11
1659.247306593613
 21
4433.159168267187
 31
0.0
  0
LINE
  5
9AB
330
1F
100
AcDbEntity
  8
0
100
AcDbLine
 10
1413.270450075687
 20
4431.582168267189
 30
0.0
 11
1485.409182734102
 21
4433.159168267187
 31
0.0
  0
LINE
  5
9AC
330
1F
100
AcDbEntity
  8
0
100
AcDbLine
 10
1785.770450075687
 20
4428.406168267187
 30
0.0
 11
1407.407450075686
 21
4428.197168267188
 31
0.0
  0
LINE
  5
9AD
330
1F
100
AcDbEntity
  8
AM_7
  6
AM_DIN_G_W050x2
100
AcDbLine
 10
1206.269950075685
 20
4245.159168267188
 30
0.0
 11
1397.671534424712
 21
4245.159168267188
 31
0.0
1001
GENIUS_GENODEF_13
1002
{
1000
HIER
1070
     0
1002
}
1002
{
1000
MANEDIT
1070
     0
1002
}
1002
{
1000
NOSEL
1070
     0
1002
}
1002
{
1000
BEHIND
1070
     0
1002
}
1002
{
1000
OTHER
1070
     0
1002
}
1002
{
1000
REACTOR
1002
}
1001
GENIUS_GENOBJ-N-CEN_13
1002
{
1000
OWNER
1000
GEN
1002
}
1001
GENIUS_GENCEN_19
1002
{
1040
30.0
1002
}
  0
LINE
  5
9AE
330
1F
100
AcDbEntity
  8
AM_7
  6
AM_DIN_G_W050x2
100
AcDbLine
 10
2625.769950075689
 20
4175.159168267188
 30
0.0
 11
2414.765920371122
 21
4175.159168267188
 31
0.0
1001
GENIUS_GENOBJ-N-CEN_13
1002
{
1000
OWNER
1000
GEN
1002
}
1001
GENIUS_GENODEF_13
1002
{
1000
HIER
1070
     0
1002
}
1002
{
1000
MANEDIT
1070
     0
1002
}
1002
{
1000
NOSEL
1070
     0
1002
}
1002
{
1000
BEHIND
1070
     0
1002
}
1002
{
1000
OTHER
1070
     0
1002
}
1002
{
1000
REACTOR
1002
}
1001
GENIUS_GENCEN_19
1002
{
1040
30.0
1002
}
  0
LINE
  5
9AF
330
1F
100
AcDbEntity
  8
0
100
AcDbLine
 10
1236.269950075689
 20
1911.907603289269
 30
0.0
 11
1236.269950075689
 21
1801.907603289269
 31
0.0
  0
LINE
  5
9B0
330
1F
100
AcDbEntity
  8
0
 62
     9
100
AcDbLine
 10
1367.498432413186
 20
1920.020546404769
 30
0.0
 11
1366.372577005189
 21
1917.171449160269
 31
0.0
  0
LWPOLYLINE
  5
9B1
330
1F
100
AcDbEntity
  8
0
100
AcDbPolyline
 90
        7
 70
     0
 43
0.0
 10
1367.402909442188
 20
1918.316171007769
 10
1367.464913279188
 20
1918.428915269769
 10
1366.778845106189
 20
1917.556876283269
 10
1364.954780912688
 20
1915.826383997268
 10
1361.824394189188
 20
1913.834123086269
 10
1357.347683778188
 20
1912.29503650177
 10
1353.541846849689
 20
1911.90756505777
  0
LWPOLYLINE
  5
9B2
330
1F
100
AcDbEntity
  8
0
 62
     9
100
AcDbPolyline
 90
        5
 70
     0
 43
0.0
 10
1367.273109960187
 20
1794.307357148769
 10
1369.113977979686
 20
1790.530188699769
 10
1370.627259849686
 20
1788.19341014727
 10
1371.856418143688
 20
1786.952108584769
 10
1372.854489904689
 20
1786.577127847269
  0
LINE
  5
9B3
330
1F
100
AcDbEntity
  8
0
 62
     9
100
AcDbLine
 10
1366.378673044687
 20
1796.637192751769
 30
0.0
 11
1367.273109960187
 21
1794.307357148769
 31
0.0
  0
LINE
  5
9B4
330
1F
100
AcDbEntity
  8
0
 62
     9
100
AcDbLine
 10
1489.782868719688
 20
2130.033661865769
 30
0.0
 11
1494.115881892688
 21
2133.014978059769
 31
0.0
  0
LWPOLYLINE
  5
9B5
330
1F
100
AcDbEntity
  8
0
 62
     9
100
AcDbPolyline
 90
        3
 70
     0
 43
0.0
 10
1494.115881892688
 20
2133.014978059769
 10
1500.60386009969
 20
2137.121554510269
 10
1509.515591718688
 20
2142.30807515677
  0
LWPOLYLINE
  5
9B6
330
1F
100
AcDbEntity
  8
0
 62
     9
100
AcDbPolyline
 90
        4
 70
     0
 43
0.0
 10
1494.110331758186
 20
1580.803893189769
 10
1489.779330993187
 20
1583.784114921769
 10
1487.520369050689
 20
1585.565799091769
 10
1487.582072231186
 20
1585.908145842769
  0
LINE
  5
9B7
330
1F
100
AcDbEntity
  8
0
 62
     9
100
AcDbLine
 10
1494.620222975186
 20
2131.53700704827
 30
0.0
 11
1490.026191967688
 21
2129.069868343769
 31
0.0
  0
LWPOLYLINE
  5
9B8
330
1F
100
AcDbEntity
  8
0
 62
     9
100
AcDbPolyline
 90
        6
 70
     0
 43
0.0
 10
1509.515591718688
 20
2142.30807515677
 10
1520.949681599689
 20
2148.342421306269
 10
1534.937142484689
 20
2154.898705912269
 10
1551.572640168189
 20
2161.631370670769
 10
1571.002583016189
 20
2168.153122121769
 10
1593.422903757687
 20
2174.011369440769
  0
LWPOLYLINE
  5
9B9
330
1F
100
AcDbEntity
  8
0
100
AcDbPolyline
 90
       12
 70
     0
 43
0.0
 10
1510.397376184187
 20
2139.883930691769
 10
1507.453079446189
 20
2138.389135418769
 10
1504.704567065687
 20
2136.96880433877
 10
1502.163665531689
 20
2135.63606070527
 10
1499.839846199687
 20
2134.403010731769
 10
1497.748860726688
 20
2133.284435157769
 10
1495.908788216187
 20
2132.296140273269
 10
1494.340165322187
 20
2131.45489164777
 10
1493.066184184687
 20
2130.777488962769
 10
1492.122180149686
 20
2130.284416253269
 10
1491.587229246687
 20
2130.013530378269
 10
1491.546905860689
 20
2129.99375758477
  0
LINE
  5
9BA
330
1F
100
AcDbEntity
  8
0
100
AcDbLine
 10
1513.525237231689
 20
2141.440476969269
 30
0.0
 11
1510.397376184187
 21
2139.883930691769
 31
0.0
  0
LWPOLYLINE
  5
9BB
330
1F
100
AcDbEntity
  8
0
 62
     9
100
AcDbPolyline
 90
        4
 70
     0
 43
0.0
 10
1490.026191967688
 20
2129.069868343769
 10
1487.581107021687
 20
2127.906738738269
 10
1487.521460806186
 20
2128.250459645769
 10
1489.782868719688
 20
2130.033661865769
  0
LINE
  5
9BC
330
1F
100
AcDbEntity
  8
0
 62
     9
100
AcDbLine
 10
1594.360222609687
 20
2169.786212117768
 30
0.0
 11
1594.523840015185
 21
2169.850790530269
 31
0.0
  0
LINE
  5
9BD
330
1F
100
AcDbEntity
  8
0
 62
     9
100
AcDbLine
 10
1594.360223461687
 20
1544.028998303769
 30
0.0
 11
1594.523816748186
 21
1543.964422594269
 31
0.0
  0
LWPOLYLINE
  5
9BE
330
1F
100
AcDbEntity
  8
0
100
AcDbPolyline
 90
       29
 70
     0
 43
0.0
 10
1491.655466960189
 20
1583.773140734769
 10
1491.584729162688
 20
1583.804911173769
 10
1491.610085704188
 20
1583.790392609769
 10
1492.261324223188
 20
1583.458942213769
 10
1493.392466412689
 20
1582.865116196769
 10
1494.919164950187
 20
1582.05030107877
 10
1496.801842330186
 20
1581.039222174269
 10
1499.009963648189
 20
1579.855289939269
 10
1501.515540248688
 20
1578.521800521269
 10
1504.293217020687
 20
1577.060939920769
 10
1507.328328180686
 20
1575.490028485769
 10
1510.605011819188
 20
1573.826936179769
 10
1514.107173939187
 20
1572.088803059269
 10
1517.826733317687
 20
1570.289258744768
 10
1521.753529210188
 20
1568.442677456269
 10
1525.876076685187
 20
1566.562962129269
 10
1530.188763280689
 20
1564.661607787268
 10
1534.686527238688
 20
1562.749812777269
 10
1539.366354680688
 20
1560.83707969377
 10
1544.228902706188
 20
1558.93167039677
 10
1549.276675835687
 20
1557.04178257627
 10
1554.510945627188
 20
1555.175844755269
 10
1559.933405509687
 20
1553.342182526269
 10
1565.547974578187
 20
1551.549346689769
 10
1571.357543664689
 20
1549.80641722127
 10
1577.36508820419
 20
1548.122433583769
 10
1583.574531665187
 20
1546.506924706769
 10
1589.990115473188
 20
1544.97012165377
 10
1594.524140344688
 20
1543.964352716269
  0
LWPOLYLINE
  5
9BF
330
1F
100
AcDbEntity
  8
0
 62
     9
100
AcDbPolyline
 90
        3
 70
     0
 43
0.0
 10
1487.582072231186
 20
1585.908145842769
 10
1490.028113516189
 20
1584.744336518269
 10
1494.622312548187
 20
1582.277066038269
  0
LWPOLYLINE
  5
9C0
330
1F
100
AcDbEntity
  8
0
 62
     9
100
AcDbPolyline
 90
        8
 70
     0
 43
0.0
 10
1494.622312548187
 20
1582.277066038269
 10
1501.290972457688
 20
1578.685618963769
 10
1510.281163734186
 20
1574.025998264269
 10
1521.750347439188
 20
1568.476524201269
 10
1535.779458152187
 20
1562.326739426269
 10
1552.429864602686
 20
1555.936151891769
 10
1571.886516053188
 20
1549.68285105377
 10
1594.360225329189
 20
1544.029006722269
  0
LWPOLYLINE
  5
9C1
330
1F
100
AcDbEntity
  8
0
 62
     9
100
AcDbPolyline
 90
        9
 70
     0
 43
0.0
 10
2222.167704896186
 20
1538.881086040269
 10
2249.92271123969
 20
1543.345512088769
 10
2274.075263460188
 20
1549.231638169769
 10
2295.00340341519
 20
1555.898353200769
 10
2312.994164043687
 20
1562.839274849769
 10
2328.068029751189
 20
1569.541948064269
 10
2340.283731236689
 20
1575.565386190769
 10
2349.403393862186
 20
1580.37477114527
 10
2355.618710161688
 20
1583.738661861269
  0
LWPOLYLINE
  5
9C2
330
1F
100
AcDbEntity
  8
0
100
AcDbPolyline
 90
       32
 70
     0
 43
0.0
 10
2222.08620410769
 20
1538.842028758269
 10
2227.441834605189
 20
1539.514430463269
 10
2234.955048139188
 20
1540.608165851769
 10
2242.224405165688
 20
1541.834880081769
 10
2249.25516039969
 20
1543.180143972769
 10
2256.05296299469
 20
1544.630609764269
 10
2262.622631591187
 20
1546.174077131769
 10
2268.969590046689
 20
1547.798936773769
 10
2275.100252452189
 20
1549.494239114269
 10
2281.020110313689
 20
1551.249873774769
 10
2286.733305076187
 20
1553.056321881769
 10
2292.244776525687
 20
1554.90443957727
 10
2297.559742766188
 20
1556.785438029769
 10
2302.681434837187
 20
1558.690987225269
 10
2307.612009301686
 20
1560.61269957027
 10
2312.35483038469
 20
1562.542397123769
 10
2316.913300732688
 20
1564.472276296269
 10
2321.28557923869
 20
1566.393374991769
 10
2325.466822186186
 20
1568.294809542769
 10
2329.448900393188
 20
1570.163321395769
 10
2333.220741392189
 20
1571.984726254269
 10
2336.766202662689
 20
1573.742113157269
 10
2340.072413968187
 20
1575.418835759269
 10
2343.129295322188
 20
1576.999560713268
 10
2345.917844331189
 20
1578.465198887769
 10
2348.41925328569
 20
1579.796218410769
 10
2350.615037234689
 20
1580.97320767677
 10
2352.483401965189
 20
1581.976492728269
 10
2353.999740511687
 20
1582.78674426377
 10
2355.130178589187
 20
1583.38218925377
 10
2355.834665252186
 20
1583.742963080769
 10
2355.902883015689
 20
1583.776943825769
  0
LWPOLYLINE
  5
9C3
330
1F
100
AcDbEntity
  8
0
 62
     9
100
AcDbPolyline
 90
        7
 70
     0
 43
0.0
 10
2222.707547848687
 20
1534.409877375269
 10
2151.164232704686
 20
1526.582160312769
 10
2086.060199624188
 20
1520.927504244269
 10
2026.742136004187
 20
1516.982905738269
 10
1972.520199727186
 20
1514.378797384269
 10
1922.692067472689
 20
1512.826257263769
 10
1876.473278473189
 20
1512.104400907769
  0
LINE
  5
9C4
330
1F
100
AcDbEntity
  8
0
100
AcDbLine
 10
1846.269950075689
 20
1506.907603289269
 30
0.0
 11
1851.269950075689
 21
1506.907603289269
 31
0.0
  0
LWPOLYLINE
  5
9C5
330
1F
100
AcDbEntity
  8
0
 62
     9
100
AcDbPolyline
 90
        4
 70
     0
 43
0.0
 10
1708.724693813186
 20
1525.075267204769
 10
1740.494022276186
 20
1521.792800003769
 10
1769.542921645188
 20
1519.543131402269
 10
1796.178322858686
 20
1518.110420690769
  0
LWPOLYLINE
  5
9C6
330
1F
100
AcDbEntity
  8
0
 62
     9
100
AcDbPolyline
 90
        3
 70
     0
 43
0.0
 10
1635.890912349688
 20
1535.851938046769
 10
1673.945902569189
 20
1529.655551599269
 10
1708.724693813186
 20
1525.075267204769
  0
LWPOLYLINE
  5
9C7
330
1F
100
AcDbEntity
  8
0
100
AcDbPolyline
 90
        4
 70
     0
 43
0.0
 10
1594.523816748186
 20
1543.964422594269
 10
1661.062399464185
 20
1531.58357590327
 10
1738.079152885187
 20
1521.980310967269
 10
1820.728626652685
 20
1517.290985488269
  0
LINE
  5
9C8
330
1F
100
AcDbEntity
  8
0
 62
     9
100
AcDbLine
 10
1594.360225329189
 20
1544.029006722269
 30
0.0
 11
1635.890912349688
 21
1535.851938046769
 31
0.0
  0
LWPOLYLINE
  5
9C9
330
1F
100
AcDbEntity
  8
0
 62
     9
100
AcDbPolyline
 90
        8
 70
     0
 43
0.0
 10
1593.422903757687
 20
1539.803837137769
 10
1570.999166429187
 20
1545.663110581269
 10
1551.566652428187
 20
1552.186063167769
 10
1534.93019523919
 20
1558.919547162769
 10
1520.941562332688
 20
1565.476845622769
 10
1509.507188179187
 20
1571.511810288269
 10
1500.596840690689
 20
1576.697927444768
 10
1494.110331758186
 20
1580.803893189769
  0
LINE
  5
9CA
330
1F
100
AcDbEntity
  8
0
 62
     9
100
AcDbLine
 10
1858.636571467187
 20
2189.399407150769
 30
0.0
 11
1863.861333039188
 21
2193.375643216269
 31
0.0
  0
LINE
  5
9CB
330
1F
100
AcDbEntity
  8
0
 62
     9
100
AcDbLine
 10
1863.861333039188
 20
2193.375643216269
 30
0.0
 11
1869.949780225687
 21
2195.85727270927
 31
0.0
  0
LINE
  5
9CC
330
1F
100
AcDbEntity
  8
0
 62
     9
100
AcDbLine
 10
1827.311540701687
 20
1518.057315370769
 30
0.0
 11
1820.721230306687
 21
1517.323247639769
 31
0.0
  0
LINE
  5
9CD
330
1F
100
AcDbEntity
  8
0
 62
     9
100
AcDbLine
 10
2141.110018795188
 20
1530.399698671769
 30
0.0
 11
2222.167704896186
 21
1538.881086040269
 31
0.0
  0
LINE
  5
9CE
330
1F
100
AcDbEntity
  8
0
 62
     9
100
AcDbLine
 10
2066.57609969619
 20
1524.421921302269
 30
0.0
 11
2141.110018795188
 21
1530.399698671769
 31
0.0
  0
LINE
  5
9CF
330
1F
100
AcDbEntity
  8
0
 62
     9
100
AcDbLine
 10
1998.025146030689
 20
1520.475096377269
 30
0.0
 11
2066.57609969619
 21
1524.421921302269
 31
0.0
  0
LINE
  5
9D0
330
1F
100
AcDbEntity
  8
0
 62
     9
100
AcDbLine
 10
1934.878711892189
 20
1518.159722626269
 30
0.0
 11
1998.025146030689
 21
1520.475096377269
 31
0.0
  0
LWPOLYLINE
  5
9D1
330
1F
100
AcDbEntity
  8
0
100
AcDbPolyline
 90
        4
 70
     0
 43
0.0
 10
1876.47066555469
 20
1517.11552040227
 10
1999.639375787187
 20
1520.519011265769
 10
2116.483522575689
 20
1528.199836289769
 10
2222.086255463189
 20
1538.842038304269
  0
LINE
  5
9D2
330
1F
100
AcDbEntity
  8
0
 62
     9
100
AcDbLine
 10
1876.47334689919
 20
1517.147686613769
 30
0.0
 11
1934.878711892189
 21
1518.159722626269
 31
0.0
  0
LINE
  5
9D3
330
1F
100
AcDbEntity
  8
0
 62
     9
100
AcDbLine
 10
1852.157279542188
 20
1530.673963580269
 30
0.0
 11
1846.269950075689
 21
1530.618707828769
 31
0.0
  0
LINE
  5
9D4
330
1F
100
AcDbEntity
  8
0
 62
     9
100
AcDbLine
 10
1850.651684260686
 20
1548.977729204269
 30
0.0
 11
1851.270340914189
 21
1548.981642140269
 31
0.0
  0
LINE
  5
9D5
330
1F
100
AcDbEntity
  8
0
 62
     9
100
AcDbLine
 10
1846.269950075689
 20
1514.407603289269
 30
0.0
 11
1851.269950075689
 21
1514.407603289269
 31
0.0
  0
LINE
  5
9D6
330
1F
100
AcDbEntity
  8
0
 62
     9
100
AcDbLine
 10
1851.269950075689
 20
1520.747349251769
 30
0.0
 11
1846.269950075689
 21
1520.747349251769
 31
0.0
  0
LINE
  5
9D7
330
1F
100
AcDbEntity
  8
0
100
AcDbLine
 10
1851.269950075689
 20
1523.095635666269
 30
0.0
 11
1846.269950075689
 21
1523.095635666269
 31
0.0
  0
LINE
  5
9D8
330
1F
100
AcDbEntity
  8
0
 62
     9
100
AcDbLine
 10
1851.269950075689
 20
1527.920795045768
 30
0.0
 11
1846.269950075689
 21
1527.920795045768
 31
0.0
  0
LINE
  5
9D9
330
1F
100
AcDbEntity
  8
0
 62
     9
100
AcDbLine
 10
1846.269950075689
 20
1549.013727695269
 30
0.0
 11
1850.651684260686
 21
1548.977729204269
 31
0.0
  0
LINE
  5
9DA
330
1F
100
AcDbEntity
  8
0
 62
     9
100
AcDbLine
 10
1850.555153592688
 20
1532.749785210769
 30
0.0
 11
1851.869644535188
 21
1532.727610435269
 31
0.0
  0
LWPOLYLINE
  5
9DB
330
1F
100
AcDbEntity
  8
0
 62
     9
100
AcDbPolyline
 90
        9
 70
     0
 43
0.0
 10
1820.722950428189
 20
1512.281708532769
 10
1799.761568031185
 20
1512.929892768269
 10
1777.191531346688
 20
1514.050411114269
 10
1752.739355046687
 20
1515.760542894769
 10
1726.138361423188
 20
1518.209972039769
 10
1697.132970324189
 20
1521.585478587769
 10
1665.483197014188
 20
1526.116184061769
 10
1630.972578976186
 20
1532.079027652269
 10
1593.422903757687
 20
1539.803837137769
  0
LINE
  5
9DC
330
1F
100
AcDbEntity
  8
0
 62
     9
100
AcDbLine
 10
1796.178322858686
 20
1518.110420690769
 30
0.0
 11
1820.72123650919
 21
1517.323248326769
 31
0.0
  0
LINE
  5
9DD
330
1F
100
AcDbEntity
  8
0
 62
     9
100
AcDbLine
 10
1846.269950075689
 20
1530.618707828769
 30
0.0
 11
1845.350160795186
 21
1530.652207260269
 31
0.0
  0
LINE
  5
9DE
330
1F
100
AcDbEntity
  8
0
 62
     9
100
AcDbLine
 10
1574.202344222688
 20
1545.41692172877
 30
0.0
 11
1573.617111647689
 21
1543.261315079769
 31
0.0
  0
LINE
  5
9DF
330
1F
100
AcDbEntity
  8
0
 62
     9
100
AcDbLine
 10
1820.721230484188
 20
2196.491958949769
 30
0.0
 11
1820.742965722186
 21
2196.52452734227
 31
0.0
  0
LINE
  5
9E0
330
1F
100
AcDbEntity
  8
0
 62
     9
100
AcDbLine
 10
1854.62573688419
 20
2184.195457731269
 30
0.0
 11
1858.636571467187
 21
2189.399407150769
 31
0.0
  0
LINE
  5
9E1
330
1F
100
AcDbEntity
  8
0
 62
     9
100
AcDbLine
 10
1876.505771750187
 20
2196.69934096727
 30
0.0
 11
1876.473387170688
 21
2196.66752489127
 31
0.0
  0
LWPOLYLINE
  5
9E2
330
1F
100
AcDbEntity
  8
0
 62
     9
100
AcDbPolyline
 90
        5
 70
     0
 43
0.0
 10
1372.854489904689
 20
1927.238078731269
 10
1371.897071100188
 20
1926.891313426269
 10
1370.717410645687
 20
1925.735390049269
 10
1369.265295446187
 20
1923.552206696269
 10
1367.498432413186
 20
1920.020546404769
  0
LINE
  5
9E3
330
1F
100
AcDbEntity
  8
0
 62
     9
100
AcDbLine
 10
1821.269950075689
 20
1578.999424022269
 30
0.0
 11
1846.269950075689
 21
1578.999424022269
 31
0.0
  0
LINE
  5
9E4
330
1F
100
AcDbEntity
  8
0
 62
     9
100
AcDbLine
 10
1886.269950075689
 20
1586.907603289269
 30
0.0
 11
1851.269950075689
 21
1586.907603289269
 31
0.0
  0
LINE
  5
9E5
330
1F
100
AcDbEntity
  8
0
100
AcDbLine
 10
1886.269950075689
 20
1601.907603289269
 30
0.0
 11
1866.269950075689
 21
1601.907603289269
 31
0.0
  0
LINE
  5
9E6
330
1F
100
AcDbEntity
  8
0
 62
     9
100
AcDbLine
 10
1866.269950075689
 20
1604.092365491269
 30
0.0
 11
1886.269950075689
 21
1604.092365491269
 31
0.0
  0
LWPOLYLINE
  5
9E7
330
1F
100
AcDbEntity
  8
0
 62
     9
100
AcDbPolyline
 90
        4
 70
     0
 43
0.0
 10
1876.269950075689
 20
1578.818581121269
 10
1869.852577988188
 20
1578.820601301769
 10
1863.820860165687
 20
1578.816286252269
 10
1859.269950415687
 20
1578.819125477269
  0
LINE
  5
9E8
330
1F
100
AcDbEntity
  8
0
 62
     9
100
AcDbLine
 10
1859.269950415687
 20
1578.819125477269
 30
0.0
 11
1851.269950075689
 21
1578.818581121269
 31
0.0
  0
LWPOLYLINE
  5
9E9
330
1F
100
AcDbEntity
  8
0
 62
     9
100
AcDbPolyline
 90
        3
 70
     0
 43
0.0
 10
1850.573188598187
 20
1532.677645637769
 10
1851.538852722186
 20
1531.758666661269
 10
1852.05537114619
 20
1531.401565755269
  0
LWPOLYLINE
  5
9EA
330
1F
100
AcDbEntity
  8
0
 62
     9
100
AcDbPolyline
 90
        3
 70
     0
 43
0.0
 10
1850.556833515689
 20
1532.749176418269
 10
1850.583252607189
 20
1532.715371987268
 10
1850.573188598187
 20
1532.677645637769
  0
LINE
  5
9EB
330
1F
100
AcDbEntity
  8
0
 62
     9
100
AcDbLine
 10
1574.202344217686
 20
2168.398284848269
 30
0.0
 11
1573.617111650185
 21
2170.553891499769
 31
0.0
  0
LINE
  5
9EC
330
1F
100
AcDbEntity
  8
0
 62
     9
100
AcDbLine
 10
1593.382410673187
 20
1539.621306237769
 30
0.0
 11
1593.422903757687
 21
1539.803837137769
 31
0.0
  0
LINE
  5
9ED
330
1F
100
AcDbEntity
  8
0
 62
     9
100
AcDbLine
 10
1594.360225329189
 20
1544.029006722269
 30
0.0
 11
1607.851470821187
 21
1604.843567951268
 31
0.0
  0
LWPOLYLINE
  5
9EE
330
1F
100
AcDbEntity
  8
0
 62
     9
100
AcDbPolyline
 90
        3
 70
     0
 43
0.0
 10
1851.269950075689
 20
2176.712216192769
 10
1852.108526729188
 20
2178.152427699769
 10
1852.16067118119
 20
2178.180875238268
  0
LINE
  5
9EF
330
1F
100
AcDbEntity
  8
0
 62
     9
100
AcDbLine
 10
1861.634695160187
 20
1603.390292197769
 30
0.0
 11
1866.269950075689
 21
1604.092365491269
 31
0.0
  0
LWPOLYLINE
  5
9F0
330
1F
100
AcDbEntity
  8
0
 62
     9
100
AcDbPolyline
 90
        5
 70
     0
 43
0.0
 10
1886.269950075689
 20
1604.092365491269
 10
1895.243385394688
 20
1605.189169415269
 10
1903.670588504187
 20
1608.434681174269
 10
1910.971425455688
 20
1613.659495362269
 10
1916.555055633186
 20
1620.457283764769
  0
LINE
  5
9F1
330
1F
100
AcDbEntity
  8
0
 62
     9
100
AcDbLine
 10
1848.729406380188
 20
1535.610383052269
 30
0.0
 11
1850.558170187188
 21
1532.74976665277
 31
0.0
  0
LWPOLYLINE
  5
9F2
330
1F
100
AcDbEntity
  8
0
 62
     9
100
AcDbPolyline
 90
        3
 70
     0
 43
0.0
 10
1851.269950075689
 20
1537.102995985269
 10
1852.121801980188
 20
1535.651066846769
 10
1852.295510548188
 20
1535.55696306727
  0
LINE
  5
9F3
330
1F
100
AcDbEntity
  8
0
 62
     9
100
AcDbLine
 10
1593.382410673187
 20
2174.193900341269
 30
0.0
 11
1593.422903757687
 21
2174.011369440769
 31
0.0
  0
LINE
  5
9F4
330
1F
100
AcDbEntity
  8
0
 62
     9
100
AcDbLine
 10
1607.851470821187
 20
2108.97163862777
 30
0.0
 11
1594.360225329189
 21
2169.78619985677
 31
0.0
  0
LINE
  5
9F5
330
1F
100
AcDbEntity
  8
0
 62
     9
100
AcDbLine
 10
1845.607898781188
 20
2181.333498969269
 30
0.0
 11
1846.269950075689
 21
2183.19649874977
 31
0.0
  0
LINE
  5
9F6
330
1F
100
AcDbEntity
  8
0
 62
     9
100
AcDbLine
 10
1852.117251713686
 20
2178.14553423027
 30
0.0
 11
1854.62573688419
 21
2184.195457731269
 31
0.0
  0
LINE
  5
9F7
330
1F
100
AcDbEntity
  8
0
 62
     9
100
AcDbLine
 10
1594.839779494686
 20
1541.044296004269
 30
0.0
 11
1596.101984392687
 21
1543.670772641769
 31
0.0
  0
LINE
  5
9F8
330
1F
100
AcDbEntity
  8
0
100
AcDbLine
 10
1866.269950075689
 20
1671.907603289269
 30
0.0
 11
1886.269950075689
 21
1671.907603289269
 31
0.0
  0
LINE
  5
9F9
330
1F
100
AcDbEntity
  8
0
 62
     9
100
AcDbLine
 10
1851.269950075689
 20
1686.907603289269
 30
0.0
 11
1886.269950075689
 21
1686.907603289269
 31
0.0
  0
LINE
  5
9FA
330
1F
100
AcDbEntity
  8
0
 62
     9
100
AcDbLine
 10
1594.839779428187
 20
2172.770918723269
 30
0.0
 11
1596.10204780619
 21
2170.144314114769
 31
0.0
  0
LINE
  5
9FB
330
1F
100
AcDbEntity
  8
0
 62
     9
100
AcDbLine
 10
1847.148374814688
 20
1539.456602584269
 30
0.0
 11
1848.729406380188
 21
1535.610383052269
 31
0.0
  0
LINE
  5
9FC
330
1F
100
AcDbEntity
  8
0
 62
     9
100
AcDbLine
 10
1845.607899397188
 20
1532.481712032268
 30
0.0
 11
1846.269950075689
 21
1530.618714992269
 31
0.0
  0
LINE
  5
9FD
330
1F
100
AcDbEntity
  8
0
 62
     9
100
AcDbLine
 10
1846.269950075689
 20
1542.676492229769
 30
0.0
 11
1847.148374814688
 21
1539.456602584269
 31
0.0
  0
LWPOLYLINE
  5
9FE
330
1F
100
AcDbEntity
  8
0
100
AcDbPolyline
 90
       11
 70
     0
 43
0.0
 10
1851.269950079687
 20
1542.114347909269
 10
1851.748533890687
 20
1537.246496363269
 10
1853.547978926689
 20
1531.688265930269
 10
1856.778672379688
 20
1526.459413679269
 10
1860.310884729187
 20
1522.871368488268
 10
1863.888102828688
 20
1520.396336984769
 10
1867.115333008186
 20
1518.851200651769
 10
1869.855338346187
 20
1517.951707168769
 10
1872.128571042688
 20
1517.46015623077
 10
1875.251469431189
 20
1517.135500348269
 10
1876.47066752069
 20
1517.115549743269
  0
LINE
  5
9FF
330
1F
100
AcDbEntity
  8
0
 62
     9
100
AcDbLine
 10
1820.722950428189
 20
1512.281708532769
 30
0.0
 11
1820.722990291687
 21
1512.187105615269
 31
0.0
  0
LINE
  5
A00
330
1F
100
AcDbEntity
  8
0
 62
     9
100
AcDbLine
 10
1820.707493737688
 20
1554.268762080769
 30
0.0
 11
1820.72123650919
 21
1517.323248326769
 31
0.0
  0
LINE
  5
A01
330
1F
100
AcDbEntity
  8
0
 62
     9
100
AcDbLine
 10
1820.718474352688
 20
2188.526452747269
 30
0.0
 11
1820.707493785185
 21
2159.54644449927
 31
0.0
  0
LINE
  5
A02
330
1F
100
AcDbEntity
  8
0
 62
     9
100
AcDbLine
 10
1820.721235513686
 20
2196.49195903377
 30
0.0
 11
1820.718474352688
 21
2188.526452747269
 31
0.0
  0
LINE
  5
A03
330
1F
100
AcDbEntity
  8
0
 62
     9
100
AcDbLine
 10
1820.722989865188
 20
2201.628100954269
 30
0.0
 11
1820.72294975569
 21
2201.53349802027
 31
0.0
  0
LINE
  5
A04
330
1F
100
AcDbEntity
  8
0
 62
     9
100
AcDbLine
 10
1851.269950075689
 20
2171.700426828269
 30
0.0
 11
1852.117251713686
 21
2178.14553423027
 31
0.0
  0
LWPOLYLINE
  5
A05
330
1F
100
AcDbEntity
  8
0
 62
     9
100
AcDbPolyline
 90
        7
 70
     0
 43
0.0
 10
1851.269950312186
 20
2176.715646146269
 10
1852.13059759169
 20
2183.215263311269
 10
1854.653283793689
 20
2189.270572567769
 10
1858.664317398185
 20
2194.461215022769
 10
1863.887531352687
 20
2198.429805334769
 10
1869.963298088688
 20
2200.903098990769
 10
1876.473290099186
 20
2201.710805291769
  0
LWPOLYLINE
  5
A06
330
1F
100
AcDbEntity
  8
0
 62
     9
100
AcDbPolyline
 90
        6
 70
     0
 43
0.0
 10
1852.134498708688
 20
2141.44583224777
 10
1854.669575411189
 20
2147.451112668269
 10
1858.694682493186
 20
2152.589481569769
 10
1863.939754612688
 20
2156.515547923769
 10
1870.017772192185
 20
2158.94802619577
 10
1876.473909961189
 20
2159.73284176277
  0
LWPOLYLINE
  5
A07
330
1F
100
AcDbEntity
  8
0
100
AcDbPolyline
 90
        7
 70
     0
 43
0.0
 10
1851.269950075689
 20
2171.700426829769
 10
1852.197027325687
 20
2178.445384654768
 10
1854.753777863187
 20
2184.430492836769
 10
1858.781901032688
 20
2189.565719263269
 10
1864.018645414187
 20
2193.492774999769
 10
1870.580567513686
 20
2196.04446709427
 10
1876.47071927219
 20
2196.69964755827
  0
LWPOLYLINE
  5
A08
330
1F
100
AcDbEntity
  8
0
 62
     9
100
AcDbPolyline
 90
        3
 70
     0
 43
0.0
 10
1846.023414114187
 20
2178.384048298769
 10
1846.472704807688
 20
2181.30535373027
 10
1847.141818137187
 20
2183.18833719677
  0
LINE
  5
A09
330
1F
100
AcDbEntity
  8
0
100
AcDbLine
 10
1846.84672727069
 20
1950.13761621727
 30
0.0
 11
1846.269950075689
 21
1949.891376944769
 31
0.0
  0
LWPOLYLINE
  5
A0A
330
1F
100
AcDbEntity
  8
0
 62
     9
100
AcDbPolyline
 90
       23
 70
     0
 43
0.0
 10
1372.854489904689
 20
1786.577127847269
 10
1373.528433353188
 20
1786.832602623769
 10
1374.118951991687
 20
1787.636483668769
 10
1374.617513632688
 20
1789.12972606627
 10
1374.999264207187
 20
1791.531718825269
 10
1375.226616977687
 20
1795.142645128269
 10
1375.258946743687
 20
1800.333943306769
 10
1375.071858135189
 20
1807.530085028269
 10
1374.689412878189
 20
1817.061845601769
 10
1374.222235363689
 20
1828.803765357269
 10
1373.837064546688
 20
1842.304091214269
 10
1373.686274837188
 20
1856.83262284327
 10
1373.833541522187
 20
1871.337517346769
 10
1374.214593114687
 20
1884.797615749269
 10
1374.680463752188
 20
1896.54092671727
 10
1375.065304011688
 20
1906.100994784269
 10
1375.257177365688
 20
1913.342840195269
 10
1375.229746678687
 20
1918.570632735769
 10
1375.006630352188
 20
1922.212958861269
 10
1374.627644184688
 20
1924.641804035769
 10
1374.129538743188
 20
1926.15691207627
 10
1373.536251554687
 20
1926.976216475269
 10
1372.854489904689
 20
1927.238078731269
  0
LWPOLYLINE
  5
A0B
330
1F
100
AcDbEntity
  8
0
 62
     9
100
AcDbPolyline
 90
        3
 70
     0
 43
0.0
 10
1846.269950075689
 20
1727.659130357769
 10
1846.491300952187
 20
1727.660190981269
 10
1851.269950075689
 20
1727.639264068769
  0
LINE
  5
A0C
330
1F
100
AcDbEntity
  8
0
 62
     9
100
AcDbLine
 10
1846.269950075689
 20
1742.415914851769
 30
0.0
 11
1851.269950075689
 21
1742.415851033769
 31
0.0
  0
LINE
  5
A0D
330
1F
100
AcDbEntity
  8
0
 62
     9
100
AcDbLine
 10
1846.269950075689
 20
1746.793226197769
 30
0.0
 11
1851.269950075689
 21
1746.793226197769
 31
0.0
  0
LINE
  5
A0E
330
1F
100
AcDbEntity
  8
0
100
AcDbLine
 10
1846.269950075689
 20
1746.850305726268
 30
0.0
 11
1851.269950075689
 21
1746.850305726268
 31
0.0
  0
LWPOLYLINE
  5
A0F
330
1F
100
AcDbEntity
  8
0
100
AcDbPolyline
 90
        6
 70
     0
 43
0.0
 10
1353.542006623686
 20
1801.90764418627
 10
1357.356363261186
 20
1801.51839823277
 10
1361.821934182188
 20
1799.982311985269
 10
1364.950103981186
 20
1797.992571123769
 10
1366.783122462187
 20
1796.25346472177
 10
1367.424301182188
 20
1795.445674860769
  0
LINE
  5
A10
330
1F
100
AcDbEntity
  8
0
100
AcDbLine
 10
1846.269950075689
 20
1763.921886500268
 30
0.0
 11
1846.860118978186
 21
1763.648617716269
 31
0.0
  0
LWPOLYLINE
  5
A11
330
1F
100
AcDbEntity
  8
0
 62
     9
100
AcDbPolyline
 90
        3
 70
     0
 43
0.0
 10
1850.573188598187
 20
1532.677645637769
 10
1850.917218181187
 20
1531.37357260877
 10
1851.269950075689
 20
1530.665535100769
  0
LWPOLYLINE
  5
A12
330
1F
100
AcDbEntity
  8
0
 62
     9
100
AcDbPolyline
 90
        7
 70
     0
 43
0.0
 10
1851.269950075689
 20
1578.818581121269
 10
1852.134498278187
 20
1572.369394046269
 10
1854.669573595688
 20
1566.36412651077
 10
1858.69467917519
 20
1561.225761624769
 10
1863.939749499687
 20
1557.299690928769
 10
1870.017766654189
 20
1554.867199804769
 10
1876.473909961189
 20
1554.08236481627
  0
LWPOLYLINE
  5
A13
330
1F
100
AcDbEntity
  8
0
 62
     9
100
AcDbPolyline
 90
        7
 70
     0
 43
0.0
 10
1851.269950079687
 20
1542.114347909269
 10
1852.130600862189
 20
1535.619959076769
 10
1854.653297336189
 20
1529.572302884768
 10
1858.664348113688
 20
1524.388205661269
 10
1863.887583995186
 20
1520.424605549268
 10
1869.96337383869
 20
1517.954404547769
 10
1876.473387072688
 20
1517.147681683269
  0
LWPOLYLINE
  5
A14
330
1F
100
AcDbEntity
  8
0
 62
     9
100
AcDbPolyline
 90
        7
 70
     0
 43
0.0
 10
1851.269950075689
 20
1537.102999636269
 10
1852.117251584687
 20
1530.649682179269
 10
1854.625729586186
 20
1524.592187611269
 10
1858.636546436689
 20
1519.381575049269
 10
1863.861286453189
 20
1515.400386318769
 10
1869.949708135688
 20
1512.915656112769
 10
1876.473290198187
 20
1512.104401287269
  0
LWPOLYLINE
  5
A15
330
1F
100
AcDbEntity
  8
0
 62
     9
100
AcDbPolyline
 90
        3
 70
     0
 43
0.0
 10
1820.865901776188
 20
2197.96424095477
 10
1820.776936377688
 20
2200.60235258127
 10
1820.722943386688
 20
2201.533497826269
  0
LINE
  5
A16
330
1F
100
AcDbEntity
  8
0
 62
     9
100
AcDbLine
 10
1820.906660582185
 20
2196.52347607827
 30
0.0
 11
1820.865901776188
 21
2197.96424095477
 31
0.0
  0
LINE
  5
A17
330
1F
100
AcDbEntity
  8
0
 62
     9
100
AcDbLine
 10
1821.269950075689
 20
2134.81578255627
 30
0.0
 11
1820.708177479689
 21
2159.546460030268
 31
0.0
  0
LINE
  5
A18
330
1F
100
AcDbEntity
  8
0
100
AcDbLine
 10
1846.298525244688
 20
1790.430497591769
 30
0.0
 11
1846.304114168687
 21
1766.89968358977
 31
0.0
  0
LINE
  5
A19
330
1F
100
AcDbEntity
  8
0
100
AcDbLine
 10
1846.273939019686
 20
1923.372181580769
 30
0.0
 11
1846.269885388187
 21
1938.200079489269
 31
0.0
  0
LINE
  5
A1A
330
1F
100
AcDbEntity
  8
0
 62
     9
100
AcDbLine
 10
1821.269950075689
 20
1578.999424022269
 30
0.0
 11
1821.269950075689
 21
2038.504978554041
 31
0.0
  0
LINE
  5
A1B
330
1F
100
AcDbEntity
  8
0
 62
     9
100
AcDbLine
 10
1821.269950075689
 20
2113.721945420309
 30
0.0
 11
1821.269950075689
 21
2134.81578255677
 31
0.0
  0
LINE
  5
A1C
330
1F
100
AcDbEntity
  8
0
 62
     9
100
AcDbLine
 10
1846.269950075689
 20
1506.907603289269
 30
0.0
 11
1846.269950075689
 21
1530.618707828769
 31
0.0
  0
LINE
  5
A1D
330
1F
100
AcDbEntity
  8
0
 62
     9
100
AcDbLine
 10
1846.269950075689
 20
2183.19649874977
 30
0.0
 11
1846.269950075689
 21
2206.907603289269
 31
0.0
  0
LINE
  5
A1E
330
1F
100
AcDbEntity
  8
0
100
AcDbLine
 10
1846.301848325186
 20
1790.428804384269
 30
0.0
 11
1846.304491818689
 21
1771.204602219269
 31
0.0
  0
LINE
  5
A1F
330
1F
100
AcDbEntity
  8
0
 62
     2
100
AcDbLine
 10
1848.769950075689
 20
1867.420103289269
 30
0.0
 11
1848.769950075689
 21
1846.395103289269
 31
0.0
  0
LINE
  5
A20
330
1F
100
AcDbEntity
  8
DEFAULT_1
 62
     2
100
AcDbLine
 10
1848.769950075689
 20
1804.345103289269
 30
0.0
 11
1848.769950075689
 21
1781.907603289269
 31
0.0
  0
LINE
  5
A21
330
1F
100
AcDbEntity
  8
DEFAULT_1
 62
     2
100
AcDbLine
 10
1848.769950075689
 20
1909.470103289269
 30
0.0
 11
1848.769950075689
 21
1931.907603289269
 31
0.0
  0
LINE
  5
A22
330
1F
100
AcDbEntity
  8
0
 62
     9
100
AcDbLine
 10
1851.269950075689
 20
1506.907603289269
 30
0.0
 11
1851.269950075689
 21
1530.665535100769
 31
0.0
  0
LINE
  5
A23
330
1F
100
AcDbEntity
  8
0
 62
     9
100
AcDbLine
 10
1851.269950075689
 20
2183.162362228769
 30
0.0
 11
1851.269950075689
 21
2206.907603289269
 31
0.0
  0
LINE
  5
A24
330
1F
100
AcDbEntity
  8
0
 62
     9
100
AcDbLine
 10
1866.269950075689
 20
1601.907603289269
 30
0.0
 11
1866.269950075689
 21
1671.907603289269
 31
0.0
  0
LINE
  5
A25
330
1F
100
AcDbEntity
  8
0
100
AcDbLine
 10
1846.269950075689
 20
2176.540169366269
 30
0.0
 11
1846.269950060707
 21
2139.652431584453
 31
0.0
  0
LINE
  5
A26
330
1F
100
AcDbEntity
  8
0
100
AcDbLine
 10
1846.269950009132
 20
2012.574492422332
 30
0.0
 11
1846.269949816188
 21
1537.271533622269
 31
0.0
  0
LINE
  5
A27
330
1F
100
AcDbEntity
  8
0
100
AcDbLine
 10
1851.269950312186
 20
2176.715646146269
 30
0.0
 11
1851.269950299548
 21
2142.534552017672
 31
0.0
  0
LINE
  5
A28
330
1F
100
AcDbEntity
  8
0
100
AcDbLine
 10
1851.269950250432
 20
2009.692371982528
 30
0.0
 11
1851.269950075689
 21
1537.102890798269
 31
0.0
  0
LINE
  5
A29
330
1F
100
AcDbEntity
  8
0
100
AcDbLine
 10
1846.304223395686
 20
1766.867698609769
 30
0.0
 11
1846.30445632719
 21
1771.643559710769
 31
0.0
  0
LINE
  5
A2A
330
1F
100
AcDbEntity
  8
0
100
AcDbLine
 10
1846.304576675686
 20
1767.766017067269
 30
0.0
 11
1846.30422219869
 21
1766.869956842769
 31
0.0
  0
LINE
  5
A2B
330
1F
100
AcDbEntity
  8
0
 62
     9
100
AcDbLine
 10
1850.541315903187
 20
2164.755698523769
 30
0.0
 11
1850.656764714686
 21
2171.63784902277
 31
0.0
  0
LWPOLYLINE
  5
A2C
330
1F
100
AcDbEntity
  8
0
 62
     9
100
AcDbPolyline
 90
        3
 70
     0
 43
0.0
 10
1876.473290099186
 20
2201.710805291769
 10
1876.446260598189
 20
2200.26981979927
 10
1876.405101402189
 20
2196.692348672269
  0
LINE
  5
A2D
330
1F
100
AcDbEntity
  8
0
 62
     9
100
AcDbLine
 10
1821.269950075689
 20
1578.999424022269
 30
0.0
 11
1820.708177479689
 21
1554.26874654877
 31
0.0
  0
LINE
  5
A2E
330
1F
100
AcDbEntity
  8
0
 62
     9
100
AcDbLine
 10
1820.865902810189
 20
1515.850965624769
 30
0.0
 11
1820.907140781189
 21
1517.308668306269
 31
0.0
  0
LINE
  5
A2F
330
1F
100
AcDbEntity
  8
0
 62
     9
100
AcDbLine
 10
1850.656764714686
 20
2171.63784902277
 30
0.0
 11
1850.827566481689
 21
2177.315531055269
 31
0.0
  0
LWPOLYLINE
  5
A30
330
1F
100
AcDbEntity
  8
0
 62
     9
100
AcDbPolyline
 90
        3
 70
     0
 43
0.0
 10
1850.827566481689
 20
2177.315531055269
 10
1851.038302735686
 20
2181.276213830269
 10
1851.269950075689
 20
2183.162362024769
  0
LWPOLYLINE
  5
A31
330
1F
100
AcDbEntity
  8
0
 62
     9
100
AcDbPolyline
 90
        3
 70
     0
 43
0.0
 10
1820.722943498687
 20
1512.281708750769
 10
1820.776937097186
 20
1513.212853991769
 10
1820.865902810189
 20
1515.850965624769
  0
LINE
  5
A32
330
1F
100
AcDbEntity
  8
0
 62
     9
100
AcDbLine
 10
2471.021847320687
 20
1955.936967965769
 30
0.0
 11
2469.989486618687
 21
1955.659407913269
 31
0.0
  0
LINE
  5
A33
330
1F
100
AcDbEntity
  8
0
100
AcDbLine
 10
1236.269950075689
 20
1801.907603289269
 30
0.0
 11
1353.539436551188
 21
1801.907603289269
 31
0.0
  0
LINE
  5
A34
330
1F
100
AcDbEntity
  8
0
100
AcDbLine
 10
2475.267580080689
 20
1801.907603289269
 30
0.0
 11
2595.769950075689
 21
1801.907603289269
 31
0.0
  0
LINE
  5
A35
330
1F
100
AcDbEntity
  8
0
 62
     9
100
AcDbLine
 10
1846.303110685686
 20
1768.595407970769
 30
0.0
 11
1846.269950075689
 21
1768.721840672769
 31
0.0
  0
LWPOLYLINE
  5
A36
330
1F
100
AcDbEntity
  8
0
100
AcDbPolyline
 90
       11
 70
     0
 43
0.0
 10
1846.269950071687
 20
2171.53052705077
 10
1845.782630289187
 20
2176.442159897769
 10
1843.938157562689
 20
2182.072964474769
 10
1840.648384781688
 20
2187.32489986527
 10
1837.07650974419
 20
2190.898940406269
 10
1833.473910735686
 20
2193.34895800527
 10
1830.235219182686
 20
2194.86726171327
 10
1827.49258013819
 20
2195.743278468769
 10
1825.220580257686
 20
2196.21595913827
 10
1822.020256107687
 20
2196.518820481768
 10
1820.728606622189
 20
2196.524220466269
  0
LWPOLYLINE
  5
A37
330
1F
100
AcDbEntity
  8
0
 62
     9
100
AcDbPolyline
 90
        3
 70
     0
 43
0.0
 10
1876.405173195187
 20
1517.116621473269
 10
1876.44626065369
 20
1513.545386768269
 10
1876.473290198187
 20
1512.104401287269
  0
LINE
  5
A38
330
1F
100
AcDbEntity
  8
0
 62
     9
100
AcDbLine
 10
1876.269950075689
 20
1578.818581121269
 30
0.0
 11
1876.473909961189
 21
1554.082364815769
 31
0.0
  0
LINE
  5
A39
330
1F
100
AcDbEntity
  8
0
 62
     9
100
AcDbLine
 10
1876.269950075689
 20
1671.907603289269
 30
0.0
 11
1876.269950075689
 21
2001.718812866896
 31
0.0
  0
LINE
  5
A3A
330
1F
100
AcDbEntity
  8
0
 62
     9
100
AcDbLine
 10
1876.269950075689
 20
1578.818735393769
 30
0.0
 11
1876.269950075689
 21
1601.907603289269
 31
0.0
  0
LINE
  5
A3B
330
1F
100
AcDbEntity
  8
0
 62
     9
100
AcDbLine
 10
1876.474005920186
 20
2159.73284097227
 30
0.0
 11
1876.473347127688
 21
2196.66751995927
 31
0.0
  0
LINE
  5
A3C
330
1F
100
AcDbEntity
  8
0
 62
     9
100
AcDbLine
 10
1876.47334689919
 20
1517.147686613769
 30
0.0
 11
1876.474005931187
 21
1554.082365606769
 31
0.0
  0
LINE
  5
A3D
330
1F
100
AcDbEntity
  8
0
 62
     9
100
AcDbLine
 10
1876.473274997187
 20
1512.010093981269
 30
0.0
 11
1876.473278473189
 21
1512.104400907769
 31
0.0
  0
LINE
  5
A3E
330
1F
100
AcDbEntity
  8
0
 62
     9
100
AcDbLine
 10
1876.473278625187
 20
2201.710805667769
 30
0.0
 11
1876.47327505669
 21
2201.80511259727
 31
0.0
  0
LINE
  5
A3F
330
1F
100
AcDbEntity
  8
0
 62
     9
100
AcDbLine
 10
1886.269950075689
 20
1586.907603289269
 30
0.0
 11
1886.269950075689
 21
1686.907603289269
 31
0.0
  0
LINE
  5
A40
330
1F
100
AcDbEntity
  8
0
 62
     9
100
AcDbLine
 10
1876.397988770116
 20
2150.525134080929
 30
0.0
 11
1876.473909961189
 21
2159.73284176327
 31
0.0
  0
LINE
  5
A41
330
1F
100
AcDbEntity
  8
0
 62
     9
100
AcDbLine
 10
1846.269950075689
 20
1542.285124723769
 30
0.0
 11
1845.407995263186
 21
1535.785498807269
 31
0.0
  0
LWPOLYLINE
  5
A42
330
1F
100
AcDbEntity
  8
0
 62
     9
100
AcDbPolyline
 90
        7
 70
     0
 43
0.0
 10
1846.269950075689
 20
1578.999423981769
 10
1845.410597654189
 20
1572.569075530269
 10
1842.86147329719
 20
1566.53022345027
 10
1838.783298468689
 20
1561.346244993269
 10
1833.477602721686
 20
1557.411964851269
 10
1827.304345313688
 20
1554.993823376269
 10
1820.708177479689
 20
1554.268746549769
  0
LWPOLYLINE
  5
A43
330
1F
100
AcDbEntity
  8
0
 62
     9
100
AcDbPolyline
 90
        7
 70
     0
 43
0.0
 10
1846.269949816188
 20
1537.271533622269
 10
1845.39433749119
 20
1530.716786314268
 10
1842.828835304687
 20
1524.617843319769
 10
1838.753154335186
 20
1519.405532082269
 10
1833.452792050687
 20
1515.44496989177
 10
1827.29903354169
 20
1513.013590215769
 10
1820.722943498687
 20
1512.281708750769
  0
LWPOLYLINE
  5
A44
330
1F
100
AcDbEntity
  8
0
100
AcDbPolyline
 90
        7
 70
     0
 43
0.0
 10
1846.269950075689
 20
1542.285124722269
 10
1845.329158589686
 20
1535.491415402269
 10
1842.736494260686
 20
1529.471558351269
 10
1838.658086874186
 20
1524.322588602769
 10
1833.34554890669
 20
1520.394946065269
 10
1826.696778528187
 20
1517.881240887269
 10
1820.728469785185
 20
1517.290998442269
  0
LWPOLYLINE
  5
A45
330
1F
100
AcDbEntity
  8
0
 62
     9
100
AcDbPolyline
 90
        5
 70
     0
 43
0.0
 10
1851.269950075689
 20
1589.747794151769
 10
1852.004102331687
 20
1594.180510472769
 10
1854.134695160187
 20
1598.179321635769
 10
1857.453171291686
 20
1601.352796142269
 10
1861.634695160187
 20
1603.390292197769
  0
LWPOLYLINE
  5
A46
330
1F
100
AcDbEntity
  8
0
 62
     9
100
AcDbPolyline
 90
        7
 70
     0
 43
0.0
 10
1845.674170086545
 20
2139.273858373331
 10
1845.41059615169
 20
2141.246117607269
 10
1842.861470151688
 20
2147.284957436269
 10
1838.78329528369
 20
2152.46892943277
 10
1833.477599713688
 20
2156.403212208269
 10
1827.30434377519
 20
2158.821364420269
 10
1820.708177479689
 20
2159.546460029269
  0
LWPOLYLINE
  5
A47
330
1F
100
AcDbEntity
  8
0
 62
     9
100
AcDbPolyline
 90
        7
 70
     0
 43
0.0
 10
1846.269950071687
 20
2171.53052705077
 10
1845.394262455686
 20
2178.080385518769
 10
1842.828545862688
 20
2184.171822117769
 10
1838.752541578188
 20
2189.377656832269
 10
1833.451794158688
 20
2193.333194079269
 10
1827.29764753019
 20
2195.76132937477
 10
1820.721230484188
 20
2196.491958949769
  0
LWPOLYLINE
  5
A48
330
1F
100
AcDbEntity
  8
0
 62
     9
100
AcDbPolyline
 90
        7
 70
     0
 43
0.0
 10
1846.269950075689
 20
2176.540070249269
 10
1845.408063979185
 20
2183.047723393769
 10
1842.857144464188
 20
2189.149016682769
 10
1838.781647484687
 20
2194.38175936377
 10
1833.479677027188
 20
2198.355210660769
 10
1827.31292132569
 20
2200.798159602269
 10
1820.722943386688
 20
2201.533497826269
  0
LINE
  5
A49
330
1F
100
AcDbEntity
  8
0
 62
     9
100
AcDbLine
 10
1920.070540109688
 20
1628.390609919769
 30
0.0
 11
1921.269950075689
 21
1636.907603289269
 31
0.0
  0
LINE
  5
A4A
330
1F
100
AcDbEntity
  8
0
 62
     9
100
AcDbLine
 10
1820.708139169189
 20
1517.291447243269
 30
0.0
 11
1820.721230306687
 21
1517.323247639769
 31
0.0
  0
LINE
  5
A4B
330
1F
100
AcDbEntity
  8
0
 62
     9
100
AcDbLine
 10
1593.422900919187
 20
1539.803824342769
 30
0.0
 11
1594.839779494686
 21
1541.044296004269
 31
0.0
  0
LINE
  5
A4C
330
1F
100
AcDbEntity
  8
0
100
AcDbLine
 10
1236.269950075689
 20
1911.907603289269
 30
0.0
 11
1353.539436551188
 21
1911.907603289269
 31
0.0
  0
LINE
  5
A4D
330
1F
100
AcDbEntity
  8
0
100
AcDbLine
 10
2475.26566646769
 20
1911.907603289269
 30
0.0
 11
2595.769950075689
 21
1911.907603289269
 31
0.0
  0
LINE
  5
A4E
330
1F
100
AcDbEntity
  8
0
 62
     9
100
AcDbLine
 10
2471.02174078919
 20
1757.877090826769
 30
0.0
 11
2469.989453703186
 21
1758.154685171769
 31
0.0
  0
LINE
  5
A4F
330
1F
100
AcDbEntity
  8
0
 62
     9
100
AcDbLine
 10
1593.422902334189
 20
2174.01137585727
 30
0.0
 11
1594.839779428187
 21
2172.770918723269
 31
0.0
  0
LINE
  5
A50
330
1F
100
AcDbEntity
  8
0
 62
     9
100
AcDbLine
 10
1845.407995263186
 20
1535.785498807269
 30
0.0
 11
1842.856867981688
 21
1529.691632017268
 31
0.0
  0
LINE
  5
A51
330
1F
100
AcDbEntity
  8
0
 62
     9
100
AcDbLine
 10
1916.555055633186
 20
1620.457283764769
 30
0.0
 11
1920.070540109688
 21
1628.390609919769
 31
0.0
  0
LWPOLYLINE
  5
A52
330
1F
100
AcDbEntity
  8
0
 62
     9
100
AcDbPolyline
 90
        3
 70
     0
 43
0.0
 10
1846.269950075689
 20
1537.27512916027
 10
1845.431638111188
 20
1535.82283843777
 10
1845.370386742185
 20
1535.789135023769
  0
LINE
  5
A53
330
1F
100
AcDbEntity
  8
0
 62
     9
100
AcDbLine
 10
2222.707548896188
 20
2179.40533787927
 30
0.0
 11
2222.170145144187
 21
2178.504618930769
 31
0.0
  0
LWPOLYLINE
  5
A54
330
1F
100
AcDbEntity
  8
0
 62
     9
100
AcDbPolyline
 90
       23
 70
     0
 43
0.0
 10
1353.539436551188
 20
1801.907603289269
 10
1354.215527163188
 20
1802.099881860269
 10
1354.799673244687
 20
1802.720594875269
 10
1355.281623207188
 20
1803.87997048277
 10
1355.633881657689
 20
1805.749711119269
 10
1355.815899451189
 20
1808.565020860769
 10
1355.784849035687
 20
1812.617265676269
 10
1355.516623899187
 20
1818.240153807769
 10
1355.041534465686
 20
1825.695360203269
 10
1354.485947621189
 20
1834.886346542269
 10
1354.036148964688
 20
1845.459908373769
 10
1353.861236402189
 20
1856.843235563269
 10
1354.031810052186
 20
1868.20882007777
 10
1354.476578676188
 20
1878.752700503769
 10
1355.030355696187
 20
1887.94699522427
 10
1355.507882452689
 20
1895.42679099577
 10
1355.781363247187
 20
1901.08741151877
 10
1355.817782302688
 20
1905.169273113769
 10
1355.640448099689
 20
1908.009765241268
 10
1355.291350555187
 20
1909.90084429427
 10
1354.810176564187
 20
1911.077487867269
 10
1354.223475152189
 20
1911.710326463269
 10
1353.539436551188
 20
1911.907603289269
  0
LINE
  5
A55
330
1F
100
AcDbEntity
  8
0
 62
     9
100
AcDbLine
 10
2222.70754793669
 20
1534.409876644768
 30
0.0
 11
2222.170145432187
 21
1535.31057904677
 31
0.0
  0
LWPOLYLINE
  5
A56
330
1F
100
AcDbEntity
  8
0
 62
     9
100
AcDbPolyline
 90
        3
 70
     0
 43
0.0
 10
1846.269950075689
 20
2176.540071479269
 10
1845.418096308188
 20
2178.004377974269
 10
1845.23881109619
 20
2178.102330611269
  0
LINE
  5
A57
330
1F
100
AcDbEntity
  8
0
 62
     9
100
AcDbLine
 10
1842.856867981688
 20
1529.691632017268
 30
0.0
 11
1838.781046973187
 21
1524.465479727769
 31
0.0
  0
LWPOLYLINE
  5
A58
330
1F
100
AcDbEntity
  8
0
 62
     9
100
AcDbPolyline
 90
        3
 70
     0
 43
0.0
 10
1851.269950075689
 20
1986.175932384269
 10
1846.488160097687
 20
1986.15501541827
 10
1846.269950075689
 20
1986.156061583269
  0
LINE
  5
A59
330
1F
100
AcDbEntity
  8
0
100
AcDbLine
 10
1851.269950075689
 20
1966.964900852769
 30
0.0
 11
1846.269950075689
 21
1966.964900852769
 31
0.0
  0
LINE
  5
A5A
330
1F
100
AcDbEntity
  8
0
 62
     9
100
AcDbLine
 10
1851.269950075689
 20
1967.021980381269
 30
0.0
 11
1846.269950075689
 21
1967.021980381269
 31
0.0
  0
LINE
  5
A5B
330
1F
100
AcDbEntity
  8
0
 62
     9
100
AcDbLine
 10
1851.269950075689
 20
1971.399348969269
 30
0.0
 11
1846.269950075689
 21
1971.399301863769
 31
0.0
  0
LINE
  5
A5C
330
1F
100
AcDbEntity
  8
0
 62
     9
100
AcDbLine
 10
1876.473387072688
 20
1517.147681683269
 30
0.0
 11
1876.444204997187
 21
1517.115351319269
 31
0.0
  0
LWPOLYLINE
  5
A5D
330
1F
100
AcDbEntity
  8
0
 62
     9
100
AcDbPolyline
 90
        3
 70
     0
 43
0.0
 10
2222.170145144187
 20
2178.504618930769
 10
2221.455817494188
 20
2175.883113520769
 10
2221.303818780186
 20
2175.131374229769
  0
LINE
  5
A5E
330
1F
100
AcDbEntity
  8
0
 62
     9
100
AcDbLine
 10
1838.781046973187
 20
1524.465479727769
 30
0.0
 11
1833.478690230188
 21
1520.497010861769
 31
0.0
  0
LWPOLYLINE
  5
A5F
330
1F
100
AcDbEntity
  8
0
 62
     9
100
AcDbPolyline
 90
        3
 70
     0
 43
0.0
 10
2471.067081954686
 20
1963.351830379769
 10
2472.151112103186
 20
1963.095164698269
 10
2473.450638276688
 20
1961.950912130769
  0
LWPOLYLINE
  5
A60
330
1F
100
AcDbEntity
  8
0
 62
     9
100
AcDbPolyline
 90
        3
 70
     0
 43
0.0
 10
2222.170145432187
 20
1535.31057904677
 10
2221.455818218189
 20
1537.932074378269
 10
2221.303816340688
 20
1538.683828473768
  0
LINE
  5
A61
330
1F
100
AcDbEntity
  8
0
 62
     2
100
AcDbLine
 10
2201.269950075689
 20
1867.420103289269
 30
0.0
 11
2201.269950075689
 21
1846.395103289269
 31
0.0
  0
LINE
  5
A62
330
1F
100
AcDbEntity
  8
0
 62
     9
100
AcDbLine
 10
2222.726746110186
 20
2179.564337362769
 30
0.0
 11
2222.707547848687
 21
2179.40532920327
 31
0.0
  0
LINE
  5
A63
330
1F
100
AcDbEntity
  8
0
 62
     9
100
AcDbLine
 10
2214.718677781689
 20
2113.238113542269
 30
0.0
 11
2222.167704896186
 21
2174.934120538769
 31
0.0
  0
LINE
  5
A64
330
1F
100
AcDbEntity
  8
0
 62
     9
100
AcDbLine
 10
1833.478690230188
 20
1520.497010861769
 30
0.0
 11
1827.311540701687
 21
1518.057315370769
 31
0.0
  0
LINE
  5
A65
330
1F
100
AcDbEntity
  8
0
 62
     9
100
AcDbLine
 10
1821.269950075689
 20
2134.81578255627
 30
0.0
 11
1839.452886923524
 21
2134.81578255627
 31
0.0
  0
LINE
  5
A66
330
1F
100
AcDbEntity
  8
0
 62
     9
100
AcDbLine
 10
1846.271172513689
 20
2164.783049448269
 30
0.0
 11
1851.269950075689
 21
2164.75128478627
 31
0.0
  0
LINE
  5
A67
330
1F
100
AcDbEntity
  8
0
 62
     9
100
AcDbLine
 10
2222.726746110186
 20
1534.250869216269
 30
0.0
 11
2222.707547848687
 21
1534.409877375269
 31
0.0
  0
LINE
  5
A68
330
1F
100
AcDbEntity
  8
0
 62
     9
100
AcDbLine
 10
2222.167704896186
 20
1538.881086040269
 30
0.0
 11
2214.718677781689
 21
1600.577093036269
 31
0.0
  0
LINE
  5
A69
330
1F
100
AcDbEntity
  8
0
 62
     9
100
AcDbLine
 10
1673.259543747189
 20
2184.058867792769
 30
0.0
 11
1635.487237948188
 21
2177.890896318269
 31
0.0
  0
LINE
  5
A6A
330
1F
100
AcDbEntity
  8
0
 62
     9
100
AcDbLine
 10
1869.949780225687
 20
2195.85727270927
 30
0.0
 11
1876.473387170688
 21
2196.66752489127
 31
0.0
  0
LWPOLYLINE
  5
A6B
330
1F
100
AcDbEntity
  8
0
 62
     9
100
AcDbPolyline
 90
        3
 70
     0
 43
0.0
 10
1739.641759947189
 20
2191.945567719269
 10
1707.886319856187
 20
2188.64167006477
 10
1673.259543747189
 20
2184.058867792769
  0
LWPOLYLINE
  5
A6C
330
1F
100
AcDbEntity
  8
0
100
AcDbPolyline
 90
        4
 70
     0
 43
0.0
 10
1820.72862617269
 20
2196.52422087777
 10
1738.27566427319
 20
2191.852932960269
 10
1661.257119423188
 20
2182.262304047769
 10
1594.523840523688
 20
2169.850788231269
  0
LINE
  5
A6D
330
1F
100
AcDbEntity
  8
0
 62
     9
100
AcDbLine
 10
1845.350160812689
 20
2183.162999264769
 30
0.0
 11
1846.269950075689
 21
2183.19649874977
 31
0.0
  0
LWPOLYLINE
  5
A6E
330
1F
100
AcDbEntity
  8
0
 62
     9
100
AcDbPolyline
 90
        4
 70
     0
 43
0.0
 10
1820.721235513686
 20
2196.49195903377
 10
1795.738998818687
 20
2195.68603944277
 10
1768.821686184688
 20
2194.224902403269
 10
1739.641759947189
 20
2191.945567719269
  0
LINE
  5
A6F
330
1F
100
AcDbEntity
  8
0
 62
     9
100
AcDbLine
 10
1846.269950075689
 20
2185.89441153327
 30
0.0
 11
1851.269950075689
 21
2185.89441153327
 31
0.0
  0
LINE
  5
A70
330
1F
100
AcDbEntity
  8
0
100
AcDbLine
 10
1846.269950075689
 20
2190.719570912769
 30
0.0
 11
1851.269950075689
 21
2190.719570912769
 31
0.0
  0
LINE
  5
A71
330
1F
100
AcDbEntity
  8
0
 62
     9
100
AcDbLine
 10
1846.269950075689
 20
2193.067857327269
 30
0.0
 11
1851.269950075689
 21
2193.067857327269
 31
0.0
  0
LINE
  5
A72
330
1F
100
AcDbEntity
  8
0
 62
     9
100
AcDbLine
 10
1851.269950075689
 20
2199.407603289269
 30
0.0
 11
1846.269950075689
 21
2199.407603289269
 31
0.0
  0
LINE
  5
A73
330
1F
100
AcDbEntity
  8
0
100
AcDbLine
 10
1851.269950075689
 20
2206.907603289269
 30
0.0
 11
1846.269950075689
 21
2206.907603289269
 31
0.0
  0
LINE
  5
A74
330
1F
100
AcDbEntity
  8
0
 62
     9
100
AcDbLine
 10
1851.269950075689
 20
2183.162362228769
 30
0.0
 11
1852.160026651188
 21
2183.16085671477
 31
0.0
  0
LWPOLYLINE
  5
A75
330
1F
100
AcDbEntity
  8
0
 62
     9
100
AcDbPolyline
 90
        3
 70
     0
 43
0.0
 10
1847.141818137187
 20
2183.18833716277
 10
1849.204161220185
 20
2183.172197580269
 10
1851.269950075689
 20
2183.162362228769
  0
LINE
  5
A76
330
1F
100
AcDbEntity
  8
0
 62
     9
100
AcDbLine
 10
1846.269950075689
 20
2183.19649874977
 30
0.0
 11
1847.141818137187
 21
2183.18833716277
 31
0.0
  0
LWPOLYLINE
  5
A77
330
1F
100
AcDbEntity
  8
0
 62
     9
100
AcDbPolyline
 90
        7
 70
     0
 43
0.0
 10
1876.473278625187
 20
2201.710805667769
 10
1922.663088859687
 20
2200.989618367269
 10
1972.469764830689
 20
2199.43838728327
 10
2026.681437519687
 20
2196.835750049769
 10
2086.002695977189
 20
2192.892082464269
 10
2151.125890902188
 20
2187.236786680769
 10
2222.707547848687
 20
2179.40532920327
  0
LINE
  5
A78
330
1F
100
AcDbEntity
  8
0
 62
     9
100
AcDbLine
 10
1934.851874300689
 20
2195.656198314269
 30
0.0
 11
1876.473347127688
 21
2196.66751995927
 31
0.0
  0
LWPOLYLINE
  5
A79
330
1F
100
AcDbEntity
  8
0
 62
     9
100
AcDbPolyline
 90
        3
 70
     0
 43
0.0
 10
2066.531586555687
 20
2189.396331141769
 10
1997.982601431688
 20
2193.342096734769
 10
1934.851874300689
 20
2195.656198314269
  0
LINE
  5
A7A
330
1F
100
AcDbEntity
  8
0
 62
     9
100
AcDbLine
 10
2141.078915046687
 20
2183.41836776927
 30
0.0
 11
2066.531586555687
 21
2189.396331141769
 31
0.0
  0
LWPOLYLINE
  5
A7B
330
1F
100
AcDbEntity
  8
0
100
AcDbPolyline
 90
        4
 70
     0
 43
0.0
 10
2222.086259055686
 20
2174.973167897769
 10
2116.700629364189
 20
2185.59708088277
 10
1999.857002316187
 20
2193.285912948269
 10
1876.470666482189
 20
2196.69968626927
  0
LINE
  5
A7C
330
1F
100
AcDbEntity
  8
0
 62
     9
100
AcDbLine
 10
2222.167704896186
 20
2174.934120538769
 30
0.0
 11
2141.078915046687
 21
2183.41836776927
 31
0.0
  0
LWPOLYLINE
  5
A7D
330
1F
100
AcDbEntity
  8
0
 62
     9
100
AcDbPolyline
 90
        3
 70
     0
 43
0.0
 10
2359.173881887188
 20
1585.578034779269
 10
2360.291811196187
 20
1585.915642917769
 10
2359.138571195689
 20
1584.820265445769
  0
LWPOLYLINE
  5
A7E
330
1F
100
AcDbEntity
  8
0
 62
     9
100
AcDbPolyline
 90
        8
 70
     0
 43
0.0
 10
1594.360225329189
 20
2169.78619985677
 10
1571.886255121687
 20
2164.13227953277
 10
1552.429216745687
 20
2157.878824310269
 10
1535.777768969186
 20
2151.487768571269
 10
1521.749108155686
 20
2145.338107549769
 10
1510.279733534687
 20
2139.788487606769
 10
1501.288932637187
 20
2135.12850326127
 10
1494.620222975186
 20
2131.53700704827
  0
LWPOLYLINE
  5
A7F
330
1F
100
AcDbEntity
  8
0
100
AcDbPolyline
 90
       19
 70
     0
 43
0.0
 10
1594.524133315185
 20
2169.85085353277
 10
1590.829804312688
 20
2169.036349137269
 10
1585.02591373019
 20
2167.66767249577
 10
1579.389865174688
 20
2166.233476129269
 10
1573.918615672187
 20
2164.741303447769
 10
1568.608870452189
 20
2163.19829145427
 10
1563.458301272686
 20
2161.611105620269
 10
1558.46462017919
 20
2159.986279844269
 10
1553.625546710688
 20
2158.330378354269
 10
1548.938066626687
 20
2156.649444566269
 10
1544.401240487189
 20
2154.949535304769
 10
1540.01403307919
 20
2153.23674370627
 10
1535.774588648687
 20
2151.51702534877
 10
1531.681649779689
 20
2149.796199287769
 10
1527.73707978869
 20
2148.080909502769
 10
1523.944124896187
 20
2146.378869410769
 10
1520.306586399186
 20
2144.698487293269
 10
1516.830650753188
 20
2143.048822824269
 10
1513.525237231689
 20
2141.440476969269
  0
LWPOLYLINE
  5
A80
330
1F
100
AcDbEntity
  8
0
 62
     9
100
AcDbPolyline
 90
        9
 70
     0
 43
0.0
 10
1593.422903757687
 20
2174.011369440769
 10
1631.202554280687
 20
2181.77948824077
 10
1665.861872071686
 20
2187.75850250127
 10
1697.585485532188
 20
2192.28806907577
 10
1726.598044237688
 20
2195.652796533769
 10
1753.148174350687
 20
2198.08750972277
 10
1777.500561483687
 20
2199.783102088769
 10
1799.931234123188
 20
2200.892076331269
 10
1820.72294975569
 20
2201.53349802027
  0
LINE
  5
A81
330
1F
100
AcDbEntity
  8
0
 62
     9
100
AcDbLine
 10
1635.487237948188
 20
2177.890896318269
 30
0.0
 11
1594.360225329189
 21
2169.78619985677
 31
0.0
  0
LWPOLYLINE
  5
A82
330
1F
100
AcDbEntity
  8
0
 62
     9
100
AcDbPolyline
 90
        9
 70
     0
 43
0.0
 10
2222.707547848687
 20
2179.40532920327
 10
2250.434736425689
 20
2174.81033308627
 10
2274.678074889688
 20
2168.70527525827
 10
2295.603862347189
 20
2161.766275788269
 10
2313.478478444688
 20
2154.513112761268
 10
2328.407157026187
 20
2147.426135289769
 10
2340.367922913188
 20
2140.988413977269
 10
2349.443596564189
 20
2135.572736505269
 10
2355.649630544688
 20
2131.517960313269
  0
LWPOLYLINE
  5
A83
330
1F
100
AcDbEntity
  8
0
 62
     9
100
AcDbPolyline
 90
        3
 70
     0
 43
0.0
 10
2473.450638276688
 20
1751.864294448269
 10
2472.151705294188
 20
1750.720392196769
 10
2471.067081954686
 20
1750.463376199269
  0
LINE
  5
A84
330
1F
100
AcDbEntity
  8
0
 62
     9
100
AcDbLine
 10
2355.618710161688
 20
1583.738661861269
 30
0.0
 11
2359.173881887188
 21
1585.578034779269
 31
0.0
  0
LINE
  5
A85
330
1F
100
AcDbEntity
  8
0
 62
     9
100
AcDbLine
 10
2222.167705873187
 20
1538.881077946269
 30
0.0
 11
2222.086255873189
 21
1538.84203483227
 31
0.0
  0
LWPOLYLINE
  5
A86
330
1F
100
AcDbEntity
  8
0
100
AcDbPolyline
 90
       32
 70
     0
 43
0.0
 10
2355.911058910187
 20
2130.030243186269
 10
2355.971960217189
 20
2130.00276009177
 10
2355.913798245688
 20
2130.032859842769
 10
2355.262316946689
 20
2130.36443516027
 10
2354.146484337186
 20
2130.950544883769
 10
2352.610450201187
 20
2131.770590141769
 10
2350.687699180689
 20
2132.802977971769
 10
2348.406473699687
 20
2134.02581777177
 10
2345.793786979189
 20
2135.415647670769
 10
2342.871734057687
 20
2136.94991699277
 10
2339.661678163189
 20
2138.60657407327
 10
2336.184090294689
 20
2140.364582247269
 10
2332.450093942686
 20
2142.20669308877
 10
2328.474936188689
 20
2144.114055690269
 10
2324.276435214189
 20
2146.068092915269
 10
2319.864904024688
 20
2148.053598464269
 10
2315.248873215688
 20
2150.056184016269
 10
2310.43220991169
 20
2152.064647149269
 10
2305.414681710185
 20
2154.069542469769
 10
2300.191985923189
 20
2156.061910650269
 10
2294.761051914188
 20
2158.032385191769
 10
2289.119485812188
 20
2159.97150612027
 10
2283.262029965189
 20
2161.869664263269
 10
2277.182923344687
 20
2163.716694815769
 10
2270.877244789189
 20
2165.502042991269
 10
2264.339591228686
 20
2167.214598110769
 10
2257.562721603687
 20
2168.842280503269
 10
2250.540228378187
 20
2170.372203403269
 10
2243.26671088019
 20
2171.790779059769
 10
2235.73591585319
 20
2173.083235838269
 10
2227.941832030686
 20
2174.23345605277
 10
2222.086202085188
 20
2174.97317761027
  0
LINE
  5
A87
330
1F
100
AcDbEntity
  8
0
 62
     9
100
AcDbLine
 10
2222.167704983188
 20
2174.93412126077
 30
0.0
 11
2222.086259055689
 21
2174.973167897769
 31
0.0
  0
LINE
  5
A88
330
1F
100
AcDbEntity
  8
0
 62
     9
100
AcDbLine
 10
2359.153538227189
 20
2128.246705517769
 30
0.0
 11
2355.582077278689
 21
2130.096244139769
 31
0.0
  0
LWPOLYLINE
  5
A89
330
1F
100
AcDbEntity
  8
0
 62
     9
100
AcDbPolyline
 90
        9
 70
     0
 43
0.0
 10
2355.582077278689
 20
2130.096244139769
 10
2349.354303816689
 20
2133.46688719277
 10
2340.225684686188
 20
2138.279643424269
 10
2328.007878003688
 20
2144.301624485269
 10
2312.940653975688
 20
2150.998275079769
 10
2294.958957236187
 20
2157.932597761769
 10
2274.040136553688
 20
2164.59351806127
 10
2249.901209538689
 20
2170.474094662269
 10
2222.167704896186
 20
2174.934120538769
  0
LWPOLYLINE
  5
A8A
330
1F
100
AcDbEntity
  8
0
 62
     9
100
AcDbPolyline
 90
        3
 70
     0
 43
0.0
 10
2471.067081954686
 20
1750.463376199269
 10
2469.900179408188
 20
1752.337476320769
 10
2469.690572206687
 20
1757.544568074269
  0
LWPOLYLINE
  5
A8B
330
1F
100
AcDbEntity
  8
0
100
AcDbPolyline
 90
        9
 70
     0
 43
0.0
 10
2470.035641228689
 20
1755.235799300769
 10
2470.10623115969
 20
1755.086773394269
 10
2470.07566966419
 20
1755.327161912769
 10
2469.963531528188
 20
1756.911494655769
 10
2470.020151133689
 20
1759.626890144769
 10
2470.317331993188
 20
1763.453618563269
 10
2470.874409319189
 20
1768.450174879769
 10
2471.692842393189
 20
1774.70033126577
 10
2472.74375623669
 20
1782.279946127269
  0
LINE
  5
A8C
330
1F
100
AcDbEntity
  8
0
 62
     9
100
AcDbLine
 10
2359.138571195689
 20
1584.820265445769
 30
0.0
 11
2355.587782655187
 21
1582.254819144269
 31
0.0
  0
LWPOLYLINE
  5
A8D
330
1F
100
AcDbEntity
  8
0
 62
     9
100
AcDbPolyline
 90
        9
 70
     0
 43
0.0
 10
2355.587782655187
 20
1582.254819144269
 10
2349.33528682019
 20
1578.174650400768
 10
2340.205081942687
 20
1572.734125159769
 10
2328.180728627688
 20
1566.274035754769
 10
2313.170737530686
 20
1559.16622353177
 10
2295.244035961688
 20
1551.915849335269
 10
2274.409341222686
 20
1545.031136044769
 10
2250.327349582188
 20
1538.982249083269
 10
2222.707547848687
 20
1534.409877375269
  0
LINE
  5
A8E
330
1F
100
AcDbEntity
  8
0
 62
     9
100
AcDbLine
 10
2355.649630544688
 20
2131.517960313269
 30
0.0
 11
2359.164962943686
 21
2128.97413225477
 31
0.0
  0
LWPOLYLINE
  5
A8F
330
1F
100
AcDbEntity
  8
0
 62
     9
100
AcDbPolyline
 90
        3
 70
     0
 43
0.0
 10
2359.164962943686
 20
2128.97413225477
 10
2360.291928832185
 20
2127.895742859269
 10
2359.153538227189
 20
2128.246705517769
  0
LWPOLYLINE
  5
A90
330
1F
100
AcDbEntity
  8
0
 62
     9
100
AcDbPolyline
 90
        6
 70
     0
 43
0.0
 10
2470.069871604689
 20
1953.53095754227
 10
2472.575114910686
 20
1950.05922111577
 10
2477.219076344189
 20
1941.119796440769
 10
2482.169436221188
 20
1928.79225912277
 10
2486.809690617687
 20
1913.604882847269
 10
2487.179460494687
 20
1911.907603289269
  0
LWPOLYLINE
  5
A91
330
1F
100
AcDbEntity
  8
0
 62
     9
100
AcDbPolyline
 90
        4
 70
     0
 43
0.0
 10
2473.450791911687
 20
1961.95096787427
 10
2473.651812143689
 20
1959.656149702269
 10
2472.778031839188
 20
1957.492694064269
 10
2471.021847320687
 20
1955.936967965769
  0
LWPOLYLINE
  5
A92
330
1F
100
AcDbEntity
  8
0
 62
     9
100
AcDbPolyline
 90
        3
 70
     0
 43
0.0
 10
2469.70289418719
 20
1956.003384646269
 10
2469.870611317688
 20
1961.326611755769
 10
2471.067081954686
 20
1963.351830379769
  0
LWPOLYLINE
  5
A93
330
1F
100
AcDbEntity
  8
0
 62
     9
100
AcDbPolyline
 90
        4
 70
     0
 43
0.0
 10
2473.451427304189
 20
1751.864008340269
 10
2473.651938793191
 20
1754.158562140769
 10
2472.777917408187
 20
1756.321618141769
 10
2471.02174078919
 20
1757.877090826769
  0
LWPOLYLINE
  5
A94
330
1F
100
AcDbEntity
  8
0
 62
     9
100
AcDbPolyline
 90
        4
 70
     0
 43
0.0
 10
2469.690572206687
 20
1757.544568074269
 10
2470.428126470189
 20
1765.718863870269
 10
2471.83194039719
 20
1776.286411051269
 10
2473.604693911689
 20
1788.948562174269
  0
LWPOLYLINE
  5
A95
330
1F
100
AcDbEntity
  8
0
 62
     9
100
AcDbPolyline
 90
        7
 70
     0
 43
0.0
 10
2473.604693911689
 20
1788.948562174269
 10
2475.767956406186
 20
1806.499248459269
 10
2477.499428904688
 20
1825.990769399269
 10
2478.445901420189
 20
1846.481435378269
 10
2478.447019039689
 20
1867.286007257769
 10
2477.502207444187
 20
1887.783907254269
 10
2475.770301949189
 20
1907.294278314269
  0
LWPOLYLINE
  5
A96
330
1F
100
AcDbEntity
  8
0
100
AcDbPolyline
 90
        8
 70
     0
 43
0.0
 10
2473.725227993188
 20
1789.414980837269
 10
2475.660310845189
 20
1805.08861313077
 10
2477.461780163688
 20
1824.868005277769
 10
2478.47246953869
 20
1846.001947905269
 10
2478.477558342688
 20
1867.60332613777
 10
2477.475966274188
 20
1888.746269742769
 10
2475.680545458188
 20
1908.54302647227
 10
2473.725215320689
 20
1924.400321252768
  0
LINE
  5
A97
330
1F
100
AcDbEntity
  8
0
100
AcDbLine
 10
2472.74375623669
 20
1782.279946127269
 30
0.0
 11
2473.72466665069
 21
1789.414783107268
 31
0.0
  0
LINE
  5
A98
330
1F
100
AcDbEntity
  8
0
 62
     9
100
AcDbLine
 10
2473.604692122687
 20
1788.94856259427
 30
0.0
 11
2473.725191926688
 21
1789.414712213769
 31
0.0
  0
LWPOLYLINE
  5
A99
330
1F
100
AcDbEntity
  8
0
 62
     9
100
AcDbPolyline
 90
        6
 70
     0
 43
0.0
 10
2473.450638276688
 20
1961.950912130769
 10
2477.288734851688
 20
1956.321752585269
 10
2481.986179916188
 20
1946.777104789269
 10
2486.998489116187
 20
1933.61934334327
 10
2491.69938533919
 20
1917.412829877769
 10
2492.838666577688
 20
1911.907603289269
  0
LINE
  5
A9A
330
1F
100
AcDbEntity
  8
0
 62
     9
100
AcDbLine
 10
2473.60377119269
 20
1924.866427863269
 30
0.0
 11
2473.724465152688
 21
1924.400220902269
 31
0.0
  0
LWPOLYLINE
  5
A9B
330
1F
100
AcDbEntity
  8
0
 62
     9
100
AcDbPolyline
 90
        4
 70
     0
 43
0.0
 10
2473.604693911689
 20
1924.866644404269
 10
2471.851951685188
 20
1937.386823650768
 10
2470.45639059419
 20
1947.859775193269
 10
2469.70289418719
 20
1956.003384646269
  0
LWPOLYLINE
  5
A9C
330
1F
100
AcDbEntity
  8
0
100
AcDbPolyline
 90
        9
 70
     0
 43
0.0
 10
2473.724466803188
 20
1924.400208646269
 10
2472.764904671188
 20
1931.385175491269
 10
2471.711071654186
 20
1938.979964913768
 10
2470.889165718188
 20
1945.247404189768
 10
2470.326681603688
 20
1950.26250289327
 10
2470.024540508187
 20
1954.107892369269
 10
2469.962591899187
 20
1956.849791502769
 10
2470.071187499688
 20
1958.459991956269
 10
2470.107950858687
 20
1958.678049338269
  0
LINE
  5
A9D
330
1F
100
AcDbEntity
  8
0
 62
     9
100
AcDbLine
 10
2475.770301949189
 20
1907.294278314269
 30
0.0
 11
2473.604693911689
 21
1924.866644404269
 31
0.0
  0
LWPOLYLINE
  5
A9E
330
1F
100
AcDbEntity
  8
0
 62
     9
100
AcDbPolyline
 90
        6
 70
     0
 43
0.0
 10
2492.838120336189
 20
1801.907603289269
 10
2491.700065371187
 20
1796.405113999269
 10
2486.999385955688
 20
1780.198538492269
 10
2481.98769266819
 20
1767.041588201769
 10
2477.289366484688
 20
1757.49456166427
 10
2473.450638276688
 20
1751.864294448269
  0
LWPOLYLINE
  5
A9F
330
1F
100
AcDbEntity
  8
0
 62
     9
100
AcDbPolyline
 90
        6
 70
     0
 43
0.0
 10
2487.179354642688
 20
1801.907603289269
 10
2486.810328440187
 20
1800.212755902769
 10
2482.170319536685
 20
1785.025448843769
 10
2477.220578093688
 20
1772.69869221427
 10
2472.575741995685
 20
1763.75702411327
 10
2470.071366493688
 20
1760.286378359769
  0
LINE
  5
AA0
330
1F
100
AcDbEntity
  8
0
100
AcDbLine
 10
2595.769950075689
 20
1911.907603289269
 30
0.0
 11
2595.769950075689
 21
1801.907603289269
 31
0.0
  0
ARC
  5
AA1
330
1F
100
AcDbEntity
  8
0
100
AcDbCircle
 10
1856.304223166188
 20
1766.869798884769
 30
0.0
 40
10.0
100
AcDbArc
 50
180.0121777323348
 51
239.4474189732518
  0
ARC
  5
AA2
330
1F
100
AcDbEntity
  8
0
100
AcDbCircle
 10
1856.266418216189
 20
1946.869794914769
 30
0.0
 40
10.0
100
AcDbArc
 50
120.3094060006938
 51
180.0119748482707
  0
ARC
  5
AA3
330
1F
100
AcDbEntity
  8
0
100
AcDbCircle
 10
1658.769950075689
 20
1856.907603289269
 30
0.0
 40
325.0
100
AcDbArc
 50
105.1892867372409
 51
170.2393036587108
  0
ARC
  5
AA4
330
1F
100
AcDbEntity
  8
0
100
AcDbCircle
 10
1658.769950075689
 20
1856.907603289269
 30
0.0
 40
325.0
100
AcDbArc
 50
189.7607132611817
 51
254.8107132627591
  0
ARC
  5
AA5
330
1F
100
AcDbEntity
  8
0
100
AcDbCircle
 10
1851.269950075689
 20
4122.532603289267
 30
0.0
 40
2615.625
100
AcDbArc
 50
270.0
 51
278.4727895980637
  0
ARC
  5
AA6
330
1F
100
AcDbEntity
  8
0
100
AcDbCircle
 10
2188.769950075689
 20
1856.907603289269
 30
0.0
 40
325.0
100
AcDbArc
 50
278.4727895980637
 51
350.2326847629783
  0
ARC
  5
AA7
330
1F
100
AcDbEntity
  8
0
100
AcDbCircle
 10
2188.769950075689
 20
1856.907603289269
 30
0.0
 40
325.0
100
AcDbArc
 50
9.767346449206065
 51
81.52721040193636
  0
ARC
  5
AA8
330
1F
100
AcDbEntity
  8
0
100
AcDbCircle
 10
1851.269950075689
 20
-408.7173967107309
 30
0.0
 40
2615.625
100
AcDbArc
 50
81.52721040193636
 51
90.0
  0
ARC
  5
AA9
330
1F
100
AcDbEntity
  8
0
100
AcDbCircle
 10
1846.269950075689
 20
1166.282603289269
 30
0.0
 40
1040.625
100
AcDbArc
 50
90.0
 51
105.1892867372409
  0
ARC
  5
AAA
330
1F
100
AcDbEntity
  8
0
100
AcDbCircle
 10
1846.269950075689
 20
2547.53260328927
 30
0.0
 40
1040.625
100
AcDbArc
 50
254.8107132627591
 51
270.0
  0
ARC
  5
AAB
330
1F
100
AcDbEntity
  8
0
 62
     9
100
AcDbCircle
 10
1846.269950075689
 20
1166.282603289269
 30
0.0
 40
1026.7852594095
100
AcDbArc
 50
90.0
 51
90.34880448892682
  0
ARC
  5
AAC
330
1F
100
AcDbEntity
  8
0
100
AcDbCircle
 10
1846.269950075689
 20
1166.282603289269
 30
0.0
 40
1024.436967623
100
AcDbArc
 50
90.0
 51
90.24284898248151
  0
ARC
  5
AAD
330
1F
100
AcDbEntity
  8
0
 62
     9
100
AcDbCircle
 10
1851.269950075689
 20
-408.7173967107309
 30
0.0
 40
2601.785254969
100
AcDbArc
 50
89.86348294159691
 51
90.0
  0
ARC
  5
AAE
330
1F
100
AcDbEntity
  8
0
100
AcDbCircle
 10
1851.269950075689
 20
-408.7173967107309
 30
0.0
 40
2599.436967623001
100
AcDbArc
 50
89.90573082504763
 51
90.0
  0
ARC
  5
AAF
330
1F
100
AcDbEntity
  8
0
 62
     9
100
AcDbCircle
 10
1851.269950075689
 20
4122.532603289267
 30
0.0
 40
2601.785254969
100
AcDbArc
 50
270.0
 51
270.1365170563187
  0
ARC
  5
AB0
330
1F
100
AcDbEntity
  8
0
100
AcDbCircle
 10
1851.269950075689
 20
4122.532603289267
 30
0.0
 40
2599.436967623001
100
AcDbArc
 50
270.0
 51
270.0942691749524
  0
ARC
  5
AB1
330
1F
100
AcDbEntity
  8
0
 62
     9
100
AcDbCircle
 10
1846.269950075689
 20
2547.53260328927
 30
0.0
 40
1026.7852594095
100
AcDbArc
 50
269.6511954979412
 51
270.0
  0
ARC
  5
AB2
330
1F
100
AcDbEntity
  8
0
100
AcDbCircle
 10
1846.269950075689
 20
2547.53260328927
 30
0.0
 40
1024.436967623
100
AcDbArc
 50
269.7571510185607
 51
270.0
  0
ARC
  5
AB3
330
1F
100
AcDbEntity
  8
0
 62
     9
100
AcDbCircle
 10
1846.269950075689
 20
1166.282603289269
 30
0.0
 40
1019.6118083235
100
AcDbArc
 50
90.0
 51
90.11162973589758
  0
ARC
  5
AB4
330
1F
100
AcDbEntity
  8
0
 62
     9
100
AcDbCircle
 10
1851.269950075689
 20
-408.7173967107309
 30
0.0
 40
2594.6118082575
100
AcDbArc
 50
89.9574610043119
 51
90.0
  0
ARC
  5
AB5
330
1F
100
AcDbEntity
  8
0
 62
     9
100
AcDbCircle
 10
1851.269950075689
 20
4122.532603289267
 30
0.0
 40
2594.6118082575
100
AcDbArc
 50
270.0
 51
270.0425390094452
  0
ARC
  5
AB6
330
1F
100
AcDbEntity
  8
0
 62
     9
100
AcDbCircle
 10
1846.269950075689
 20
2547.53260328927
 30
0.0
 40
1019.6118083235
100
AcDbArc
 50
269.8883706042785
 51
270.0
  0
ARC
  5
AB7
330
1F
100
AcDbEntity
  8
0
 62
     9
100
AcDbCircle
 10
1846.269950075689
 20
2547.53260328927
 30
0.0
 40
1033.1250051925
100
AcDbArc
 50
269.2442143632859
 51
270.0
  0
ARC
  5
AB8
330
1F
100
AcDbEntity
  8
0
 62
     9
100
AcDbCircle
 10
1851.269950075689
 20
4122.532603289267
 30
0.0
 40
2608.1250009055
100
AcDbArc
 50
270.0
 51
270.3013644439544
  0
ARC
  5
AB9
330
1F
100
AcDbEntity
  8
0
 62
     9
100
AcDbCircle
 10
1851.269950075689
 20
-408.7173967107309
 30
0.0
 40
2608.1250009055
100
AcDbArc
 50
84.09483116954383
 51
89.44506596467158
  0
ARC
  5
ABA
330
1F
100
AcDbEntity
  8
0
 62
     9
100
AcDbCircle
 10
1851.269950075689
 20
-408.7173967107309
 30
0.0
 40
2608.1250009055
100
AcDbArc
 50
89.69863543473129
 51
90.0
  0
ARC
  5
ABB
330
1F
100
AcDbEntity
  8
0
 62
     9
100
AcDbCircle
 10
1846.269950075689
 20
1166.282603289269
 30
0.0
 40
1033.1250051925
100
AcDbArc
 50
90.0
 51
90.75578443911728
  0
ARC
  5
ABC
330
1F
100
AcDbEntity
  8
0
100
AcDbCircle
 10
1851.269950075689
 20
1876.907603289269
 30
0.0
 40
5.0
100
AcDbArc
 50
180.0000004743071
 51
270.0
  0
ARC
  5
ABD
330
1F
100
AcDbEntity
  8
0
100
AcDbCircle
 10
1851.269950075689
 20
1836.907603289269
 30
0.0
 40
5.0
100
AcDbArc
 50
90.0
 51
179.9999990929697
  0
ARC
  5
ABE
330
1F
100
AcDbEntity
  8
0
100
AcDbCircle
 10
1851.269950075689
 20
1661.907603289269
 30
0.0
 40
5.0
100
AcDbArc
 50
180.0000004743071
 51
270.0
  0
ARC
  5
ABF
330
1F
100
AcDbEntity
  8
0
100
AcDbCircle
 10
1851.269950075689
 20
1621.907603289269
 30
0.0
 40
5.0
100
AcDbArc
 50
90.0
 51
179.9999990929697
  0
ARC
  5
AC0
330
1F
100
AcDbEntity
  8
0
100
AcDbCircle
 10
1821.269950075689
 20
1537.181143420269
 30
0.0
 40
25.0
100
AcDbArc
 50
268.7463344010768
 51
0.0
  0
ARC
  5
AC1
330
1F
100
AcDbEntity
  8
0
100
AcDbCircle
 10
1821.269950075689
 20
2176.634063158769
 30
0.0
 40
25.0
100
AcDbArc
 50
0.0
 51
91.25366559892318
  0
ARC
  5
AC2
330
1F
100
AcDbEntity
  8
0
100
AcDbCircle
 10
1846.269950075689
 20
2679.563853289268
 30
0.0
 40
1167.65625
100
AcDbArc
 50
257.4919345121439
 51
268.7461258696746
  0
ARC
  5
AC3
330
1F
100
AcDbEntity
  8
0
100
AcDbCircle
 10
1663.769950075689
 20
1856.907603289269
 30
0.0
 40
325.0
100
AcDbArc
 50
102.508065487856
 51
170.2413125240686
  0
ARC
  5
AC4
330
1F
100
AcDbEntity
  8
0
100
AcDbCircle
 10
1663.769950075689
 20
1856.907603289269
 30
0.0
 40
325.0
100
AcDbArc
 50
189.7586874759313
 51
257.4919345121439
  0
ARC
  5
AC5
330
1F
100
AcDbEntity
  8
0
100
AcDbCircle
 10
1846.269950075689
 20
1034.251353289269
 30
0.0
 40
1167.65625
100
AcDbArc
 50
91.25387415242538
 51
102.508065487856
  0
ARC
  5
AC6
330
1F
100
AcDbEntity
  8
0
 62
     9
100
AcDbCircle
 10
1846.269950075689
 20
1034.251353289269
 30
0.0
 40
1100.8483378595
100
AcDbArc
 50
91.30128519008543
 51
102.508065487856
  0
ARC
  5
AC7
330
1F
100
AcDbEntity
  8
0
 62
     9
100
AcDbCircle
 10
1846.269950075689
 20
1034.251353289269
 30
0.0
 40
1125.585395016
100
AcDbArc
 50
91.30128519008543
 51
102.5080654876412
  0
ARC
  5
AC8
330
1F
100
AcDbEntity
  8
0
 62
     9
100
AcDbCircle
 10
1663.769950075689
 20
1856.907603289269
 30
0.0
 40
258.192087749
100
AcDbArc
 50
102.508065487856
 51
149.4729869380638
  0
ARC
  5
AC9
330
1F
100
AcDbEntity
  8
0
 62
     9
100
AcDbCircle
 10
1663.769950075689
 20
1856.907603289269
 30
0.0
 40
258.192087749
100
AcDbArc
 50
210.5270130619216
 51
257.4919345121439
  0
ARC
  5
ACA
330
1F
100
AcDbEntity
  8
0
 62
     9
100
AcDbCircle
 10
1663.769950075689
 20
1856.907603289269
 30
0.0
 40
282.9291450045
100
AcDbArc
 50
102.5080654874293
 51
257.4919345129974
  0
ARC
  5
ACB
330
1F
100
AcDbEntity
  8
0
 62
     9
100
AcDbCircle
 10
1846.269950075689
 20
2679.563853289268
 30
0.0
 40
1100.8483378595
100
AcDbArc
 50
257.4919345121439
 51
268.6987148099146
  0
ARC
  5
ACC
330
1F
100
AcDbEntity
  8
0
 62
     9
100
AcDbCircle
 10
1846.269950075689
 20
2679.563853289268
 30
0.0
 40
1125.585395016
100
AcDbArc
 50
257.4919345121439
 51
268.6987148099146
  0
ARC
  5
ACD
330
1F
100
AcDbEntity
  8
0
100
AcDbCircle
 10
1866.269950075689
 20
1686.907603289269
 30
0.0
 40
15.0
100
AcDbArc
 50
180.0
 51
270.0
  0
ARC
  5
ACE
330
1F
100
AcDbEntity
  8
0
100
AcDbCircle
 10
1886.269950075689
 20
1636.907603289269
 30
0.0
 40
35.0
100
AcDbArc
 50
270.0
 51
90.0
  0
ARC
  5
ACF
330
1F
100
AcDbEntity
  8
0
100
AcDbCircle
 10
1866.269950075689
 20
1586.907603289269
 30
0.0
 40
15.0
100
AcDbArc
 50
90.0
 51
180.0
  0
ARC
  5
AD0
330
1F
100
AcDbEntity
  8
0
100
AcDbCircle
 10
1876.269950075689
 20
2176.80591759727
 30
0.0
 40
25.0
100
AcDbArc
 50
89.5340097622874
 51
180.0
  0
ARC
  5
AD1
330
1F
100
AcDbEntity
  8
0
100
AcDbCircle
 10
1876.269950075689
 20
1537.009288981769
 30
0.0
 40
25.0
100
AcDbArc
 50
180.0
 51
270.4659902377126
  0
ARC
  5
AD2
330
1F
100
AcDbEntity
  8
0
100
AcDbCircle
 10
1841.269950075689
 20
1781.907603289269
 30
0.0
 40
10.0
100
AcDbArc
 50
0.0000000161020542
 51
59.66826080775028
  0
ARC
  5
AD3
330
1F
100
AcDbEntity
  8
0
100
AcDbCircle
 10
1841.269950075689
 20
1931.907603289269
 30
0.0
 40
10.0
100
AcDbArc
 50
300.3317391922497
 51
359.9999999593019
  0
ARC
  5
AD4
330
1F
100
AcDbEntity
  8
0
100
AcDbCircle
 10
1851.269950075689
 20
-896.9986467107309
 30
0.0
 40
3098.90625
100
AcDbArc
 50
83.11556942823704
 51
89.5339809533525
  0
ARC
  5
AD5
330
1F
100
AcDbEntity
  8
0
100
AcDbCircle
 10
2183.769950075689
 20
1856.907603289269
 30
0.0
 40
325.0
100
AcDbArc
 50
276.8844305717629
 51
350.2316019179958
  0
ARC
  5
AD6
330
1F
100
AcDbEntity
  8
0
100
AcDbCircle
 10
2183.769950075689
 20
1856.907603289269
 30
0.0
 40
325.0
100
AcDbArc
 50
9.768398082004221
 51
83.11556942823704
  0
ARC
  5
AD7
330
1F
100
AcDbEntity
  8
0
100
AcDbCircle
 10
1851.269950075689
 20
4610.813853289267
 30
0.0
 40
3098.90625
100
AcDbArc
 50
270.4660190447715
 51
276.8844305717629
  0
ARC
  5
AD8
330
1F
100
AcDbEntity
  8
0
 62
     9
100
AcDbCircle
 10
1886.269950075689
 20
1636.907603289269
 30
0.0
 40
49.9998685345
100
AcDbArc
 50
270.0
 51
90.0
  0
ARC
  5
AD9
330
1F
100
AcDbEntity
  8
0
 62
     9
100
AcDbCircle
 10
1851.269950075689
 20
4610.813853289267
 30
0.0
 40
3032.0983378595
100
AcDbArc
 50
270.4724156776521
 51
276.8844305717629
  0
ARC
  5
ADA
330
1F
100
AcDbEntity
  8
0
 62
     9
100
AcDbCircle
 10
1851.269950075689
 20
4610.813853289267
 30
0.0
 40
3056.835395016
100
AcDbArc
 50
270.4724156534722
 51
276.8844305717629
  0
ARC
  5
ADB
330
1F
100
AcDbEntity
  8
0
 62
     9
100
AcDbCircle
 10
2183.769950075689
 20
1856.907603289269
 30
0.0
 40
258.192080916
100
AcDbArc
 50
276.8844305717629
 51
83.11556942823704
  0
ARC
  5
ADC
330
1F
100
AcDbEntity
  8
0
 62
     9
100
AcDbCircle
 10
2183.769950075689
 20
1856.907603289269
 30
0.0
 40
282.9291448335
100
AcDbArc
 50
276.8844305715529
 51
83.11556942865715
  0
ARC
  5
ADD
330
1F
100
AcDbEntity
  8
0
 62
     9
100
AcDbCircle
 10
1851.269950075689
 20
-896.9986467107309
 30
0.0
 40
3032.0983378595
100
AcDbArc
 50
83.11556942823704
 51
88.4357164420996
  0
ARC
  5
ADE
330
1F
100
AcDbEntity
  8
0
 62
     9
100
AcDbCircle
 10
1851.269950075689
 20
-896.9986467107309
 30
0.0
 40
3056.835395016
100
AcDbArc
 50
83.11556942823704
 51
89.52758434652784
  0
LINE
  5
ADF
330
1F
100
AcDbEntity
  8
TEXT
  6
Continuous
 62
     7
100
AcDbLine
 10
1415.832950075691
 20
1805.61760328927
 30
0.0
 11
1400.858950075689
 21
1801.604603289269
 31
0.0
  0
LINE
  5
AE0
330
1F
100
AcDbEntity
  8
TEXT
  6
Continuous
 62
     7
100
AcDbLine
 10
1414.278950075687
 20
1811.412603289269
 30
0.0
 11
1399.305950075689
 21
1807.400603289269
 31
0.0
  0
LINE
  5
AE1
330
1F
100
AcDbEntity
  8
TEXT
  6
Continuous
 62
     7
100
AcDbLine
 10
1435.234950075689
 20
1760.82260328927
 30
0.0
 11
1421.810950075686
 21
1753.07160328927
 31
0.0
  0
LINE
  5
AE2
330
1F
100
AcDbEntity
  8
TEXT
  6
Continuous
 62
     7
100
AcDbLine
 10
1432.233950075689
 20
1766.01860328927
 30
0.0
 11
1418.80995007569
 21
1758.267603289269
 31
0.0
  0
LINE
  5
AE3
330
1F
100
AcDbEntity
  8
TEXT
  6
Continuous
 62
     7
100
AcDbLine
 10
1465.569950075688
 20
1722.574603289269
 30
0.0
 11
1454.608950075689
 21
1711.613603289269
 31
0.0
  0
LINE
  5
AE4
330
1F
100
AcDbEntity
  8
TEXT
  6
Continuous
 62
     7
100
AcDbLine
 10
1461.326950075689
 20
1726.816603289268
 30
0.0
 11
1450.365950075687
 21
1715.855603289269
 31
0.0
  0
LINE
  5
AE5
330
1F
100
AcDbEntity
  8
TEXT
  6
Continuous
 62
     7
100
AcDbLine
 10
1504.770950075689
 20
1693.48260328927
 30
0.0
 11
1497.020950075689
 21
1680.057603289268
 31
0.0
  0
LINE
  5
AE6
330
1F
100
AcDbEntity
  8
TEXT
  6
Continuous
 62
     7
100
AcDbLine
 10
1499.573950075689
 20
1696.481603289269
 30
0.0
 11
1491.823950075689
 21
1683.057603289269
 31
0.0
  0
LINE
  5
AE7
330
1F
100
AcDbEntity
  8
TEXT
  6
Continuous
 62
     7
100
AcDbLine
 10
1550.164950075689
 20
1675.52760328927
 30
0.0
 11
1546.152950075691
 21
1660.554603289269
 31
0.0
  0
LINE
  5
AE8
330
1F
100
AcDbEntity
  8
TEXT
  6
Continuous
 62
     7
100
AcDbLine
 10
1544.368950075691
 20
1677.079603289269
 30
0.0
 11
1540.356950075688
 21
1662.105603289269
 31
0.0
  0
LINE
  5
AE9
330
1F
100
AcDbEntity
  8
TEXT
  6
Continuous
 62
     7
100
AcDbLine
 10
1598.659950075688
 20
1669.932603289268
 30
0.0
 11
1598.659950075688
 21
1654.431603289269
 31
0.0
  0
LINE
  5
AEA
330
1F
100
AcDbEntity
  8
TEXT
  6
Continuous
 62
     7
100
AcDbLine
 10
1592.659950075688
 20
1669.931603289269
 30
0.0
 11
1592.659950075688
 21
1654.430603289269
 31
0.0
  0
LINE
  5
AEB
330
1F
100
AcDbEntity
  8
TEXT
  6
Continuous
 62
     7
100
AcDbLine
 10
1646.950950075686
 20
1677.079603289269
 30
0.0
 11
1650.962950075688
 21
1662.106603289269
 31
0.0
  0
LINE
  5
AEC
330
1F
100
AcDbEntity
  8
TEXT
  6
Continuous
 62
     7
100
AcDbLine
 10
1641.155950075687
 20
1675.525603289269
 30
0.0
 11
1645.16795007569
 21
1660.552603289269
 31
0.0
  0
LINE
  5
AED
330
1F
100
AcDbEntity
  8
TEXT
  6
Continuous
 62
     7
100
AcDbLine
 10
1691.745950075687
 20
1696.48260328927
 30
0.0
 11
1699.495950075688
 21
1683.057603289269
 31
0.0
  0
LINE
  5
AEE
330
1F
100
AcDbEntity
  8
TEXT
  6
Continuous
 62
     7
100
AcDbLine
 10
1686.550950075688
 20
1693.481603289269
 30
0.0
 11
1694.300950075688
 21
1680.056603289269
 31
0.0
  0
LINE
  5
AEF
330
1F
100
AcDbEntity
  8
TEXT
  6
Continuous
 62
     7
100
AcDbLine
 10
1729.992950075687
 20
1726.817603289269
 30
0.0
 11
1740.95395007569
 21
1715.856603289269
 31
0.0
  0
LINE
  5
AF0
330
1F
100
AcDbEntity
  8
TEXT
  6
Continuous
 62
     7
100
AcDbLine
 10
1725.750950075689
 20
1722.574603289269
 30
0.0
 11
1736.711950075688
 21
1711.613603289269
 31
0.0
  0
LINE
  5
AF1
330
1F
100
AcDbEntity
  8
TEXT
  6
Continuous
 62
     7
100
AcDbLine
 10
1759.085950075688
 20
1766.01860328927
 30
0.0
 11
1772.510950075691
 21
1758.267603289269
 31
0.0
  0
LINE
  5
AF2
330
1F
100
AcDbEntity
  8
TEXT
  6
Continuous
 62
     7
100
AcDbLine
 10
1756.085950075688
 20
1760.821603289269
 30
0.0
 11
1769.51095007569
 21
1753.07160328927
 31
0.0
  0
LINE
  5
AF3
330
1F
100
AcDbEntity
  8
TEXT
  6
Continuous
 62
     7
100
AcDbLine
 10
1777.041950075686
 20
1811.413603289269
 30
0.0
 11
1792.015950075688
 21
1807.401603289269
 31
0.0
  0
LINE
  5
AF4
330
1F
100
AcDbEntity
  8
TEXT
  6
Continuous
 62
     7
100
AcDbLine
 10
1775.488950075686
 20
1805.61760328927
 30
0.0
 11
1790.462950075688
 21
1801.605603289269
 31
0.0
  0
LINE
  5
AF5
330
1F
100
AcDbEntity
  8
TEXT
  6
Continuous
 62
     7
100
AcDbLine
 10
1782.636950075687
 20
1859.908603289269
 30
0.0
 11
1798.138950075687
 21
1859.908603289269
 31
0.0
  0
LINE
  5
AF6
330
1F
100
AcDbEntity
  8
TEXT
  6
Continuous
 62
     7
100
AcDbLine
 10
1782.636950075687
 20
1853.908603289269
 30
0.0
 11
1798.138950075687
 21
1853.908603289269
 31
0.0
  0
LINE
  5
AF7
330
1F
100
AcDbEntity
  8
TEXT
  6
Continuous
 62
     7
100
AcDbLine
 10
1775.488950075686
 20
1908.199603289269
 30
0.0
 11
1790.462950075688
 21
1912.211603289269
 31
0.0
  0
LINE
  5
AF8
330
1F
100
AcDbEntity
  8
TEXT
  6
Continuous
 62
     7
100
AcDbLine
 10
1777.041950075686
 20
1902.403603289269
 30
0.0
 11
1792.015950075688
 21
1906.415603289269
 31
0.0
  0
LINE
  5
AF9
330
1F
100
AcDbEntity
  8
TEXT
  6
Continuous
 62
     7
100
AcDbLine
 10
1756.086950075688
 20
1952.994603289268
 30
0.0
 11
1769.511950075687
 21
1960.745603289269
 31
0.0
  0
LINE
  5
AFA
330
1F
100
AcDbEntity
  8
TEXT
  6
Continuous
 62
     7
100
AcDbLine
 10
1759.086950075688
 20
1947.797603289269
 30
0.0
 11
1772.511950075687
 21
1955.549603289268
 31
0.0
  0
LINE
  5
AFB
330
1F
100
AcDbEntity
  8
TEXT
  6
Continuous
 62
     7
100
AcDbLine
 10
1725.751950075689
 20
1991.241603289269
 30
0.0
 11
1736.712950075688
 21
2002.203603289269
 31
0.0
  0
LINE
  5
AFC
330
1F
100
AcDbEntity
  8
TEXT
  6
Continuous
 62
     7
100
AcDbLine
 10
1729.993950075691
 20
1986.998603289269
 30
0.0
 11
1740.954950075687
 21
1997.960603289269
 31
0.0
  0
LINE
  5
AFD
330
1F
100
AcDbEntity
  8
TEXT
  6
Continuous
 62
     7
100
AcDbLine
 10
1686.550950075688
 20
2020.334603289269
 30
0.0
 11
1694.300950075688
 21
2033.760603289269
 31
0.0
  0
LINE
  5
AFE
330
1F
100
AcDbEntity
  8
TEXT
  6
Continuous
 62
     7
100
AcDbLine
 10
1691.745950075687
 20
2017.334603289269
 30
0.0
 11
1699.495950075688
 21
2030.75960328927
 31
0.0
  0
LINE
  5
AFF
330
1F
100
AcDbEntity
  8
TEXT
  6
Continuous
 62
     7
100
AcDbLine
 10
1641.154950075691
 20
2038.290603289269
 30
0.0
 11
1645.166950075686
 21
2053.263603289269
 31
0.0
  0
LINE
  5
B00
330
1F
100
AcDbEntity
  8
TEXT
  6
Continuous
 62
     7
100
AcDbLine
 10
1646.949950075689
 20
2036.736603289269
 30
0.0
 11
1650.961950075688
 21
2051.710603289269
 31
0.0
  0
LINE
  5
B01
330
1F
100
AcDbEntity
  8
TEXT
  6
Continuous
 62
     7
100
AcDbLine
 10
1592.659950075688
 20
2043.885603289269
 30
0.0
 11
1592.659950075688
 21
2059.386603289269
 31
0.0
  0
LINE
  5
B02
330
1F
100
AcDbEntity
  8
TEXT
  6
Continuous
 62
     7
100
AcDbLine
 10
1598.659950075688
 20
2043.88460328927
 30
0.0
 11
1598.659950075688
 21
2059.385603289269
 31
0.0
  0
LINE
  5
B03
330
1F
100
AcDbEntity
  8
TEXT
  6
Continuous
 62
     7
100
AcDbLine
 10
1544.368950075691
 20
2036.738603289269
 30
0.0
 11
1540.356950075688
 21
2051.711603289269
 31
0.0
  0
LINE
  5
B04
330
1F
100
AcDbEntity
  8
TEXT
  6
Continuous
 62
     7
100
AcDbLine
 10
1550.164950075689
 20
2038.290603289269
 30
0.0
 11
1546.152950075691
 21
2053.263603289269
 31
0.0
  0
LINE
  5
B05
330
1F
100
AcDbEntity
  8
TEXT
  6
Continuous
 62
     7
100
AcDbLine
 10
1499.572950075689
 20
2017.334603289269
 30
0.0
 11
1491.822950075689
 21
2030.75960328927
 31
0.0
  0
LINE
  5
B06
330
1F
100
AcDbEntity
  8
TEXT
  6
Continuous
 62
     7
100
AcDbLine
 10
1504.769950075689
 20
2020.334603289269
 30
0.0
 11
1497.019950075689
 21
2033.75960328927
 31
0.0
  0
LINE
  5
B07
330
1F
100
AcDbEntity
  8
TEXT
  6
Continuous
 62
     7
100
AcDbLine
 10
1461.325950075686
 20
1986.99960328927
 30
0.0
 11
1450.36495007569
 21
1997.960603289269
 31
0.0
  0
LINE
  5
B08
330
1F
100
AcDbEntity
  8
TEXT
  6
Continuous
 62
     7
100
AcDbLine
 10
1465.568950075688
 20
1991.241603289269
 30
0.0
 11
1454.607950075688
 21
2002.202603289269
 31
0.0
  0
LINE
  5
B09
330
1F
100
AcDbEntity
  8
TEXT
  6
Continuous
 62
     7
100
AcDbLine
 10
1432.232950075689
 20
1947.798603289269
 30
0.0
 11
1418.808950075686
 21
1955.549603289268
 31
0.0
  0
LINE
  5
B0A
330
1F
100
AcDbEntity
  8
TEXT
  6
Continuous
 62
     7
100
AcDbLine
 10
1435.233950075689
 20
1952.994603289268
 30
0.0
 11
1421.809950075689
 21
1960.744603289268
 31
0.0
  0
LINE
  5
B0B
330
1F
100
AcDbEntity
  8
TEXT
  6
Continuous
 62
     7
100
AcDbLine
 10
1414.276950075687
 20
1902.403603289269
 30
0.0
 11
1399.303950075688
 21
1906.415603289269
 31
0.0
  0
LINE
  5
B0C
330
1F
100
AcDbEntity
  8
TEXT
  6
Continuous
 62
     7
100
AcDbLine
 10
1415.83095007569
 20
1908.199603289269
 30
0.0
 11
1400.856950075688
 21
1912.211603289269
 31
0.0
  0
LINE
  5
B0D
330
1F
100
AcDbEntity
  8
TEXT
  6
Continuous
 62
     7
100
AcDbLine
 10
1408.68495007569
 20
1853.907603289269
 30
0.0
 11
1393.182950075689
 21
1853.907603289269
 31
0.0
  0
LINE
  5
B0E
330
1F
100
AcDbEntity
  8
TEXT
  6
Continuous
 62
     7
100
AcDbLine
 10
1408.68495007569
 20
1859.907603289269
 30
0.0
 11
1393.182950075689
 21
1859.907603289269
 31
0.0
  0
CIRCLE
  5
B0F
330
1F
100
AcDbEntity
  8
TEXT
  6
Continuous
 62
     7
100
AcDbCircle
 10
1595.659950075688
 20
1856.907603289269
 30
0.0
 40
174.0
  0
CIRCLE
  5
B10
330
1F
100
AcDbEntity
  8
TEXT
  6
Continuous
 62
     7
100
AcDbCircle
 10
1595.659950075688
 20
1856.907603289269
 30
0.0
 40
187.0
  0
CIRCLE
  5
B11
330
1F
100
AcDbEntity
  8
TEXT
  6
Continuous
 62
     7
100
AcDbCircle
 10
1595.659950075688
 20
1856.907603289269
 30
0.0
 40
202.5
  0
ARC
  5
B12
330
1F
100
AcDbEntity
  8
TEXT
  6
Continuous
 62
     7
100
AcDbCircle
 10
1595.659950075688
 20
1856.907603289269
 30
0.0
 40
194.0
100
AcDbArc
 50
150.8859999999797
 51
164.1139999999988
  0
ARC
  5
B13
330
1F
100
AcDbEntity
  8
TEXT
  6
Continuous
 62
     7
100
AcDbCircle
 10
1595.659950075688
 20
1856.907603289269
 30
0.0
 40
194.0
100
AcDbArc
 50
135.8860000001052
 51
149.1139999999797
  0
ARC
  5
B14
330
1F
100
AcDbEntity
  8
TEXT
  6
Continuous
 62
     7
100
AcDbCircle
 10
1595.659950075688
 20
1856.907603289269
 30
0.0
 40
194.0
100
AcDbArc
 50
120.8860000000493
 51
134.1139999999684
  0
ARC
  5
B15
330
1F
100
AcDbEntity
  8
TEXT
  6
Continuous
 62
     7
100
AcDbCircle
 10
1595.659950075688
 20
1856.907603289269
 30
0.0
 40
194.0
100
AcDbArc
 50
105.8859999998732
 51
119.1139999998918
  0
ARC
  5
B16
330
1F
100
AcDbEntity
  8
TEXT
  6
Continuous
 62
     7
100
AcDbCircle
 10
1595.659950075688
 20
1856.907603289269
 30
0.0
 40
194.0
100
AcDbArc
 50
90.88600000001317
 51
104.1140000000029
  0
ARC
  5
B17
330
1F
100
AcDbEntity
  8
TEXT
  6
Continuous
 62
     7
100
AcDbCircle
 10
1595.659950075688
 20
1856.907603289269
 30
0.0
 40
194.0
100
AcDbArc
 50
165.8860000000097
 51
179.1139999999869
  0
ARC
  5
B18
330
1F
100
AcDbEntity
  8
TEXT
  6
Continuous
 62
     7
100
AcDbCircle
 10
1595.659950075688
 20
1856.907603289269
 30
0.0
 40
194.0
100
AcDbArc
 50
75.88599999999711
 51
89.11399999998684
  0
ARC
  5
B19
330
1F
100
AcDbEntity
  8
TEXT
  6
Continuous
 62
     7
100
AcDbCircle
 10
1595.659950075688
 20
1856.907603289269
 30
0.0
 40
194.0
100
AcDbArc
 50
60.88600000010819
 51
74.11400000012678
  0
ARC
  5
B1A
330
1F
100
AcDbEntity
  8
TEXT
  6
Continuous
 62
     7
100
AcDbCircle
 10
1595.659950075688
 20
1856.907603289269
 30
0.0
 40
194.0
100
AcDbArc
 50
45.88600000003159
 51
59.11399999995065
  0
ARC
  5
B1B
330
1F
100
AcDbEntity
  8
TEXT
  6
Continuous
 62
     7
100
AcDbCircle
 10
1595.659950075688
 20
1856.907603289269
 30
0.0
 40
194.0
100
AcDbArc
 50
30.88600000002031
 51
44.11399999989472
  0
ARC
  5
B1C
330
1F
100
AcDbEntity
  8
TEXT
  6
Continuous
 62
     7
100
AcDbCircle
 10
1595.659950075688
 20
1856.907603289269
 30
0.0
 40
194.0
100
AcDbArc
 50
15.88600000000118
 51
29.11400000002025
  0
ARC
  5
B1D
330
1F
100
AcDbEntity
  8
TEXT
  6
Continuous
 62
     7
100
AcDbCircle
 10
1595.659950075688
 20
1856.907603289269
 30
0.0
 40
194.0
100
AcDbArc
 50
0.8859999999609721
 51
14.11399999999026
  0
ARC
  5
B1E
330
1F
100
AcDbEntity
  8
TEXT
  6
Continuous
 62
     7
100
AcDbCircle
 10
1595.659950075688
 20
1856.907603289269
 30
0.0
 40
194.0
100
AcDbArc
 50
345.8860000000097
 51
359.1139999999869
  0
ARC
  5
B1F
330
1F
100
AcDbEntity
  8
TEXT
  6
Continuous
 62
     7
100
AcDbCircle
 10
1595.659950075688
 20
1856.907603289269
 30
0.0
 40
194.0
100
AcDbArc
 50
255.8859999999971
 51
269.1139999999868
  0
ARC
  5
B20
330
1F
100
AcDbEntity
  8
TEXT
  6
Continuous
 62
     7
100
AcDbCircle
 10
1595.659950075688
 20
1856.907603289269
 30
0.0
 40
194.0
100
AcDbArc
 50
270.8860000000132
 51
284.1140000000029
  0
ARC
  5
B21
330
1F
100
AcDbEntity
  8
TEXT
  6
Continuous
 62
     7
100
AcDbCircle
 10
1595.659950075688
 20
1856.907603289269
 30
0.0
 40
194.0
100
AcDbArc
 50
285.8859999998732
 51
299.1139999998918
  0
ARC
  5
B22
330
1F
100
AcDbEntity
  8
TEXT
  6
Continuous
 62
     7
100
AcDbCircle
 10
1595.659950075688
 20
1856.907603289269
 30
0.0
 40
194.0
100
AcDbArc
 50
300.8860000000493
 51
314.1139999999684
  0
ARC
  5
B23
330
1F
100
AcDbEntity
  8
TEXT
  6
Continuous
 62
     7
100
AcDbCircle
 10
1595.659950075688
 20
1856.907603289269
 30
0.0
 40
194.0
100
AcDbArc
 50
315.8860000001052
 51
329.1139999999797
  0
ARC
  5
B24
330
1F
100
AcDbEntity
  8
TEXT
  6
Continuous
 62
     7
100
AcDbCircle
 10
1595.659950075688
 20
1856.907603289269
 30
0.0
 40
194.0
100
AcDbArc
 50
330.8859999999797
 51
344.1139999999988
  0
ARC
  5
B25
330
1F
100
AcDbEntity
  8
TEXT
  6
Continuous
 62
     7
100
AcDbCircle
 10
1595.659950075688
 20
1856.907603289269
 30
0.0
 40
194.0
100
AcDbArc
 50
240.8860000001082
 51
254.1140000001268
  0
ARC
  5
B26
330
1F
100
AcDbEntity
  8
TEXT
  6
Continuous
 62
     7
100
AcDbCircle
 10
1595.659950075688
 20
1856.907603289269
 30
0.0
 40
194.0
100
AcDbArc
 50
225.8860000000316
 51
239.1139999999506
  0
ARC
  5
B27
330
1F
100
AcDbEntity
  8
TEXT
  6
Continuous
 62
     7
100
AcDbCircle
 10
1595.659950075688
 20
1856.907603289269
 30
0.0
 40
194.0
100
AcDbArc
 50
210.8860000000203
 51
224.1139999998947
  0
ARC
  5
B28
330
1F
100
AcDbEntity
  8
TEXT
  6
Continuous
 62
     7
100
AcDbCircle
 10
1595.659950075688
 20
1856.907603289269
 30
0.0
 40
194.0
100
AcDbArc
 50
195.8860000000012
 51
209.1140000000202
  0
ARC
  5
B29
330
1F
100
AcDbEntity
  8
TEXT
  6
Continuous
 62
     7
100
AcDbCircle
 10
1595.659950075688
 20
1856.907603289269
 30
0.0
 40
194.0
100
AcDbArc
 50
180.885999999961
 51
194.1139999999902
  0
LINE
  5
B2A
330
1F
100
AcDbEntity
  8
AM_7
100
AcDbLine
 10
1595.659950075688
 20
2071.627603289269
 30
0.0
 11
1595.659950075688
 21
1644.534603289269
 31
0.0
  0
LINE
  5
B2B
330
1F
100
AcDbEntity
  8
TEXT
  6
Continuous
 62
     7
100
AcDbLine
 10
2020.832950075691
 20
1805.61760328927
 30
0.0
 11
2005.858950075689
 21
1801.604603289269
 31
0.0
  0
LINE
  5
B2C
330
1F
100
AcDbEntity
  8
TEXT
  6
Continuous
 62
     7
100
AcDbLine
 10
2019.278950075687
 20
1811.412603289269
 30
0.0
 11
2004.305950075689
 21
1807.400603289269
 31
0.0
  0
LINE
  5
B2D
330
1F
100
AcDbEntity
  8
TEXT
  6
Continuous
 62
     7
100
AcDbLine
 10
2040.234950075689
 20
1760.82260328927
 30
0.0
 11
2026.810950075686
 21
1753.07160328927
 31
0.0
  0
LINE
  5
B2E
330
1F
100
AcDbEntity
  8
TEXT
  6
Continuous
 62
     7
100
AcDbLine
 10
2037.233950075689
 20
1766.01860328927
 30
0.0
 11
2023.80995007569
 21
1758.267603289269
 31
0.0
  0
LINE
  5
B2F
330
1F
100
AcDbEntity
  8
TEXT
  6
Continuous
 62
     7
100
AcDbLine
 10
2070.569950075688
 20
1722.574603289269
 30
0.0
 11
2059.608950075689
 21
1711.613603289269
 31
0.0
  0
LINE
  5
B30
330
1F
100
AcDbEntity
  8
TEXT
  6
Continuous
 62
     7
100
AcDbLine
 10
2066.32695007569
 20
1726.816603289268
 30
0.0
 11
2055.365950075687
 21
1715.855603289269
 31
0.0
  0
LINE
  5
B31
330
1F
100
AcDbEntity
  8
TEXT
  6
Continuous
 62
     7
100
AcDbLine
 10
2109.770950075689
 20
1693.48260328927
 30
0.0
 11
2102.020950075689
 21
1680.057603289268
 31
0.0
  0
LINE
  5
B32
330
1F
100
AcDbEntity
  8
TEXT
  6
Continuous
 62
     7
100
AcDbLine
 10
2104.573950075689
 20
1696.481603289269
 30
0.0
 11
2096.823950075689
 21
1683.057603289269
 31
0.0
  0
LINE
  5
B33
330
1F
100
AcDbEntity
  8
TEXT
  6
Continuous
 62
     7
100
AcDbLine
 10
2155.16495007569
 20
1675.52760328927
 30
0.0
 11
2151.152950075691
 21
1660.554603289269
 31
0.0
  0
LINE
  5
B34
330
1F
100
AcDbEntity
  8
TEXT
  6
Continuous
 62
     7
100
AcDbLine
 10
2149.368950075691
 20
1677.079603289269
 30
0.0
 11
2145.356950075688
 21
1662.105603289269
 31
0.0
  0
LINE
  5
B35
330
1F
100
AcDbEntity
  8
TEXT
  6
Continuous
 62
     7
100
AcDbLine
 10
2203.659950075689
 20
1669.932603289268
 30
0.0
 11
2203.659950075689
 21
1654.431603289269
 31
0.0
  0
LINE
  5
B36
330
1F
100
AcDbEntity
  8
TEXT
  6
Continuous
 62
     7
100
AcDbLine
 10
2197.659950075689
 20
1669.931603289269
 30
0.0
 11
2197.659950075689
 21
1654.430603289269
 31
0.0
  0
LINE
  5
B37
330
1F
100
AcDbEntity
  8
TEXT
  6
Continuous
 62
     7
100
AcDbLine
 10
2251.950950075686
 20
1677.079603289269
 30
0.0
 11
2255.962950075689
 21
1662.106603289269
 31
0.0
  0
LINE
  5
B38
330
1F
100
AcDbEntity
  8
TEXT
  6
Continuous
 62
     7
100
AcDbLine
 10
2246.155950075688
 20
1675.525603289269
 30
0.0
 11
2250.16795007569
 21
1660.552603289269
 31
0.0
  0
LINE
  5
B39
330
1F
100
AcDbEntity
  8
TEXT
  6
Continuous
 62
     7
100
AcDbLine
 10
2296.745950075688
 20
1696.48260328927
 30
0.0
 11
2304.495950075688
 21
1683.057603289269
 31
0.0
  0
LINE
  5
B3A
330
1F
100
AcDbEntity
  8
TEXT
  6
Continuous
 62
     7
100
AcDbLine
 10
2291.550950075688
 20
1693.481603289269
 30
0.0
 11
2299.300950075688
 21
1680.056603289269
 31
0.0
  0
LINE
  5
B3B
330
1F
100
AcDbEntity
  8
TEXT
  6
Continuous
 62
     7
100
AcDbLine
 10
2334.992950075687
 20
1726.817603289269
 30
0.0
 11
2345.95395007569
 21
1715.856603289269
 31
0.0
  0
LINE
  5
B3C
330
1F
100
AcDbEntity
  8
TEXT
  6
Continuous
 62
     7
100
AcDbLine
 10
2330.750950075689
 20
1722.574603289269
 30
0.0
 11
2341.711950075688
 21
1711.613603289269
 31
0.0
  0
LINE
  5
B3D
330
1F
100
AcDbEntity
  8
TEXT
  6
Continuous
 62
     7
100
AcDbLine
 10
2364.085950075688
 20
1766.01860328927
 30
0.0
 11
2377.510950075691
 21
1758.267603289269
 31
0.0
  0
LINE
  5
B3E
330
1F
100
AcDbEntity
  8
TEXT
  6
Continuous
 62
     7
100
AcDbLine
 10
2361.085950075688
 20
1760.821603289269
 30
0.0
 11
2374.510950075691
 21
1753.07160328927
 31
0.0
  0
LINE
  5
B3F
330
1F
100
AcDbEntity
  8
TEXT
  6
Continuous
 62
     7
100
AcDbLine
 10
2382.041950075686
 20
1811.413603289269
 30
0.0
 11
2397.015950075688
 21
1807.401603289269
 31
0.0
  0
LINE
  5
B40
330
1F
100
AcDbEntity
  8
TEXT
  6
Continuous
 62
     7
100
AcDbLine
 10
2380.488950075687
 20
1805.61760328927
 30
0.0
 11
2395.462950075688
 21
1801.605603289269
 31
0.0
  0
LINE
  5
B41
330
1F
100
AcDbEntity
  8
TEXT
  6
Continuous
 62
     7
100
AcDbLine
 10
2387.636950075687
 20
1859.908603289269
 30
0.0
 11
2403.138950075688
 21
1859.908603289269
 31
0.0
  0
LINE
  5
B42
330
1F
100
AcDbEntity
  8
TEXT
  6
Continuous
 62
     7
100
AcDbLine
 10
2387.636950075687
 20
1853.908603289269
 30
0.0
 11
2403.138950075688
 21
1853.908603289269
 31
0.0
  0
LINE
  5
B43
330
1F
100
AcDbEntity
  8
TEXT
  6
Continuous
 62
     7
100
AcDbLine
 10
2380.488950075687
 20
1908.199603289269
 30
0.0
 11
2395.462950075688
 21
1912.211603289269
 31
0.0
  0
LINE
  5
B44
330
1F
100
AcDbEntity
  8
TEXT
  6
Continuous
 62
     7
100
AcDbLine
 10
2382.041950075686
 20
1902.403603289269
 30
0.0
 11
2397.015950075688
 21
1906.415603289269
 31
0.0
  0
LINE
  5
B45
330
1F
100
AcDbEntity
  8
TEXT
  6
Continuous
 62
     7
100
AcDbLine
 10
2361.086950075688
 20
1952.994603289268
 30
0.0
 11
2374.511950075687
 21
1960.745603289269
 31
0.0
  0
LINE
  5
B46
330
1F
100
AcDbEntity
  8
TEXT
  6
Continuous
 62
     7
100
AcDbLine
 10
2364.086950075688
 20
1947.797603289269
 30
0.0
 11
2377.511950075687
 21
1955.549603289268
 31
0.0
  0
LINE
  5
B47
330
1F
100
AcDbEntity
  8
TEXT
  6
Continuous
 62
     7
100
AcDbLine
 10
2330.751950075689
 20
1991.241603289269
 30
0.0
 11
2341.712950075688
 21
2002.203603289269
 31
0.0
  0
LINE
  5
B48
330
1F
100
AcDbEntity
  8
TEXT
  6
Continuous
 62
     7
100
AcDbLine
 10
2334.993950075691
 20
1986.998603289269
 30
0.0
 11
2345.954950075687
 21
1997.960603289269
 31
0.0
  0
LINE
  5
B49
330
1F
100
AcDbEntity
  8
TEXT
  6
Continuous
 62
     7
100
AcDbLine
 10
2291.550950075688
 20
2020.334603289269
 30
0.0
 11
2299.300950075688
 21
2033.760603289269
 31
0.0
  0
LINE
  5
B4A
330
1F
100
AcDbEntity
  8
TEXT
  6
Continuous
 62
     7
100
AcDbLine
 10
2296.745950075688
 20
2017.334603289269
 30
0.0
 11
2304.495950075688
 21
2030.75960328927
 31
0.0
  0
LINE
  5
B4B
330
1F
100
AcDbEntity
  8
TEXT
  6
Continuous
 62
     7
100
AcDbLine
 10
2246.154950075691
 20
2038.290603289269
 30
0.0
 11
2250.166950075686
 21
2053.263603289269
 31
0.0
  0
LINE
  5
B4C
330
1F
100
AcDbEntity
  8
TEXT
  6
Continuous
 62
     7
100
AcDbLine
 10
2251.949950075689
 20
2036.736603289269
 30
0.0
 11
2255.961950075688
 21
2051.710603289269
 31
0.0
  0
LINE
  5
B4D
330
1F
100
AcDbEntity
  8
TEXT
  6
Continuous
 62
     7
100
AcDbLine
 10
2197.659950075689
 20
2043.885603289269
 30
0.0
 11
2197.659950075689
 21
2059.386603289269
 31
0.0
  0
LINE
  5
B4E
330
1F
100
AcDbEntity
  8
TEXT
  6
Continuous
 62
     7
100
AcDbLine
 10
2203.659950075689
 20
2043.88460328927
 30
0.0
 11
2203.659950075689
 21
2059.385603289269
 31
0.0
  0
LINE
  5
B4F
330
1F
100
AcDbEntity
  8
TEXT
  6
Continuous
 62
     7
100
AcDbLine
 10
2149.368950075691
 20
2036.738603289269
 30
0.0
 11
2145.356950075688
 21
2051.711603289269
 31
0.0
  0
LINE
  5
B50
330
1F
100
AcDbEntity
  8
TEXT
  6
Continuous
 62
     7
100
AcDbLine
 10
2155.16495007569
 20
2038.290603289269
 30
0.0
 11
2151.152950075691
 21
2053.263603289269
 31
0.0
  0
LINE
  5
B51
330
1F
100
AcDbEntity
  8
TEXT
  6
Continuous
 62
     7
100
AcDbLine
 10
2104.572950075689
 20
2017.334603289269
 30
0.0
 11
2096.822950075689
 21
2030.75960328927
 31
0.0
  0
LINE
  5
B52
330
1F
100
AcDbEntity
  8
TEXT
  6
Continuous
 62
     7
100
AcDbLine
 10
2109.769950075689
 20
2020.334603289269
 30
0.0
 11
2102.019950075689
 21
2033.75960328927
 31
0.0
  0
LINE
  5
B53
330
1F
100
AcDbEntity
  8
TEXT
  6
Continuous
 62
     7
100
AcDbLine
 10
2066.325950075686
 20
1986.99960328927
 30
0.0
 11
2055.36495007569
 21
1997.960603289269
 31
0.0
  0
LINE
  5
B54
330
1F
100
AcDbEntity
  8
TEXT
  6
Continuous
 62
     7
100
AcDbLine
 10
2070.568950075688
 20
1991.241603289269
 30
0.0
 11
2059.607950075688
 21
2002.202603289269
 31
0.0
  0
LINE
  5
B55
330
1F
100
AcDbEntity
  8
TEXT
  6
Continuous
 62
     7
100
AcDbLine
 10
2037.232950075689
 20
1947.798603289269
 30
0.0
 11
2023.808950075686
 21
1955.549603289268
 31
0.0
  0
LINE
  5
B56
330
1F
100
AcDbEntity
  8
TEXT
  6
Continuous
 62
     7
100
AcDbLine
 10
2040.233950075689
 20
1952.994603289268
 30
0.0
 11
2026.80995007569
 21
1960.744603289268
 31
0.0
  0
LINE
  5
B57
330
1F
100
AcDbEntity
  8
TEXT
  6
Continuous
 62
     7
100
AcDbLine
 10
2019.276950075687
 20
1902.403603289269
 30
0.0
 11
2004.303950075689
 21
1906.415603289269
 31
0.0
  0
LINE
  5
B58
330
1F
100
AcDbEntity
  8
TEXT
  6
Continuous
 62
     7
100
AcDbLine
 10
2020.830950075691
 20
1908.199603289269
 30
0.0
 11
2005.856950075688
 21
1912.211603289269
 31
0.0
  0
LINE
  5
B59
330
1F
100
AcDbEntity
  8
TEXT
  6
Continuous
 62
     7
100
AcDbLine
 10
2013.68495007569
 20
1853.907603289269
 30
0.0
 11
1998.182950075689
 21
1853.907603289269
 31
0.0
  0
LINE
  5
B5A
330
1F
100
AcDbEntity
  8
TEXT
  6
Continuous
 62
     7
100
AcDbLine
 10
2013.68495007569
 20
1859.907603289269
 30
0.0
 11
1998.182950075689
 21
1859.907603289269
 31
0.0
  0
CIRCLE
  5
B5B
330
1F
100
AcDbEntity
  8
TEXT
  6
Continuous
 62
     7
100
AcDbCircle
 10
2200.659950075689
 20
1856.907603289269
 30
0.0
 40
174.0
  0
CIRCLE
  5
B5C
330
1F
100
AcDbEntity
  8
TEXT
  6
Continuous
 62
     7
100
AcDbCircle
 10
2200.659950075689
 20
1856.907603289269
 30
0.0
 40
187.0
  0
CIRCLE
  5
B5D
330
1F
100
AcDbEntity
  8
TEXT
  6
Continuous
 62
     7
100
AcDbCircle
 10
2200.659950075689
 20
1856.907603289269
 30
0.0
 40
202.5
  0
ARC
  5
B5E
330
1F
100
AcDbEntity
  8
TEXT
  6
Continuous
 62
     7
100
AcDbCircle
 10
2200.659950075689
 20
1856.907603289269
 30
0.0
 40
194.0
100
AcDbArc
 50
150.8859999999797
 51
164.1139999999988
  0
ARC
  5
B5F
330
1F
100
AcDbEntity
  8
TEXT
  6
Continuous
 62
     7
100
AcDbCircle
 10
2200.659950075689
 20
1856.907603289269
 30
0.0
 40
194.0
100
AcDbArc
 50
135.8860000001052
 51
149.1139999999797
  0
ARC
  5
B60
330
1F
100
AcDbEntity
  8
TEXT
  6
Continuous
 62
     7
100
AcDbCircle
 10
2200.659950075689
 20
1856.907603289269
 30
0.0
 40
194.0
100
AcDbArc
 50
120.8860000000493
 51
134.1139999999684
  0
ARC
  5
B61
330
1F
100
AcDbEntity
  8
TEXT
  6
Continuous
 62
     7
100
AcDbCircle
 10
2200.659950075689
 20
1856.907603289269
 30
0.0
 40
194.0
100
AcDbArc
 50
105.8859999998732
 51
119.1139999998918
  0
ARC
  5
B62
330
1F
100
AcDbEntity
  8
TEXT
  6
Continuous
 62
     7
100
AcDbCircle
 10
2200.659950075689
 20
1856.907603289269
 30
0.0
 40
194.0
100
AcDbArc
 50
90.88600000001317
 51
104.1140000000029
  0
ARC
  5
B63
330
1F
100
AcDbEntity
  8
TEXT
  6
Continuous
 62
     7
100
AcDbCircle
 10
2200.659950075689
 20
1856.907603289269
 30
0.0
 40
194.0
100
AcDbArc
 50
165.8860000000097
 51
179.1139999999869
  0
ARC
  5
B64
330
1F
100
AcDbEntity
  8
TEXT
  6
Continuous
 62
     7
100
AcDbCircle
 10
2200.659950075689
 20
1856.907603289269
 30
0.0
 40
194.0
100
AcDbArc
 50
75.88599999999711
 51
89.11399999998684
  0
ARC
  5
B65
330
1F
100
AcDbEntity
  8
TEXT
  6
Continuous
 62
     7
100
AcDbCircle
 10
2200.659950075689
 20
1856.907603289269
 30
0.0
 40
194.0
100
AcDbArc
 50
60.88600000010819
 51
74.11400000012678
  0
ARC
  5
B66
330
1F
100
AcDbEntity
  8
TEXT
  6
Continuous
 62
     7
100
AcDbCircle
 10
2200.659950075689
 20
1856.907603289269
 30
0.0
 40
194.0
100
AcDbArc
 50
45.88600000003159
 51
59.11399999995065
  0
ARC
  5
B67
330
1F
100
AcDbEntity
  8
TEXT
  6
Continuous
 62
     7
100
AcDbCircle
 10
2200.659950075689
 20
1856.907603289269
 30
0.0
 40
194.0
100
AcDbArc
 50
30.88600000002031
 51
44.11399999989472
  0
ARC
  5
B68
330
1F
100
AcDbEntity
  8
TEXT
  6
Continuous
 62
     7
100
AcDbCircle
 10
2200.659950075689
 20
1856.907603289269
 30
0.0
 40
194.0
100
AcDbArc
 50
15.88600000000118
 51
29.11400000002025
  0
ARC
  5
B69
330
1F
100
AcDbEntity
  8
TEXT
  6
Continuous
 62
     7
100
AcDbCircle
 10
2200.659950075689
 20
1856.907603289269
 30
0.0
 40
194.0
100
AcDbArc
 50
0.8859999999609721
 51
14.11399999999026
  0
ARC
  5
B6A
330
1F
100
AcDbEntity
  8
TEXT
  6
Continuous
 62
     7
100
AcDbCircle
 10
2200.659950075689
 20
1856.907603289269
 30
0.0
 40
194.0
100
AcDbArc
 50
345.8860000000097
 51
359.1139999999869
  0
ARC
  5
B6B
330
1F
100
AcDbEntity
  8
TEXT
  6
Continuous
 62
     7
100
AcDbCircle
 10
2200.659950075689
 20
1856.907603289269
 30
0.0
 40
194.0
100
AcDbArc
 50
255.8859999999971
 51
269.1139999999868
  0
ARC
  5
B6C
330
1F
100
AcDbEntity
  8
TEXT
  6
Continuous
 62
     7
100
AcDbCircle
 10
2200.659950075689
 20
1856.907603289269
 30
0.0
 40
194.0
100
AcDbArc
 50
270.8860000000132
 51
284.1140000000029
  0
ARC
  5
B6D
330
1F
100
AcDbEntity
  8
TEXT
  6
Continuous
 62
     7
100
AcDbCircle
 10
2200.659950075689
 20
1856.907603289269
 30
0.0
 40
194.0
100
AcDbArc
 50
285.8859999998732
 51
299.1139999998918
  0
ARC
  5
B6E
330
1F
100
AcDbEntity
  8
TEXT
  6
Continuous
 62
     7
100
AcDbCircle
 10
2200.659950075689
 20
1856.907603289269
 30
0.0
 40
194.0
100
AcDbArc
 50
300.8860000000493
 51
314.1139999999684
  0
ARC
  5
B6F
330
1F
100
AcDbEntity
  8
TEXT
  6
Continuous
 62
     7
100
AcDbCircle
 10
2200.659950075689
 20
1856.907603289269
 30
0.0
 40
194.0
100
AcDbArc
 50
315.8860000001052
 51
329.1139999999797
  0
ARC
  5
B70
330
1F
100
AcDbEntity
  8
TEXT
  6
Continuous
 62
     7
100
AcDbCircle
 10
2200.659950075689
 20
1856.907603289269
 30
0.0
 40
194.0
100
AcDbArc
 50
330.8859999999797
 51
344.1139999999988
  0
ARC
  5
B71
330
1F
100
AcDbEntity
  8
TEXT
  6
Continuous
 62
     7
100
AcDbCircle
 10
2200.659950075689
 20
1856.907603289269
 30
0.0
 40
194.0
100
AcDbArc
 50
240.8860000001082
 51
254.1140000001268
  0
ARC
  5
B72
330
1F
100
AcDbEntity
  8
TEXT
  6
Continuous
 62
     7
100
AcDbCircle
 10
2200.659950075689
 20
1856.907603289269
 30
0.0
 40
194.0
100
AcDbArc
 50
225.8860000000316
 51
239.1139999999506
  0
ARC
  5
B73
330
1F
100
AcDbEntity
  8
TEXT
  6
Continuous
 62
     7
100
AcDbCircle
 10
2200.659950075689
 20
1856.907603289269
 30
0.0
 40
194.0
100
AcDbArc
 50
210.8860000000203
 51
224.1139999998947
  0
ARC
  5
B74
330
1F
100
AcDbEntity
  8
TEXT
  6
Continuous
 62
     7
100
AcDbCircle
 10
2200.659950075689
 20
1856.907603289269
 30
0.0
 40
194.0
100
AcDbArc
 50
195.8860000000012
 51
209.1140000000202
  0
ARC
  5
B75
330
1F
100
AcDbEntity
  8
TEXT
  6
Continuous
 62
     7
100
AcDbCircle
 10
2200.659950075689
 20
1856.907603289269
 30
0.0
 40
194.0
100
AcDbArc
 50
180.885999999961
 51
194.1139999999902
  0
LINE
  5
B76
330
1F
100
AcDbEntity
  8
AM_7
100
AcDbLine
 10
2200.659950075689
 20
2071.627603289269
 30
0.0
 11
2200.659950075689
 21
1644.534603289269
 31
0.0
  0
LINE
  5
B77
330
1F
100
AcDbEntity
  8
AM_7
100
AcDbLine
 10
1206.269950075689
 20
1856.907603289269
 30
0.0
 11
2625.769950075689
 21
1856.907603289268
 31
0.0
1001
GENIUS_GENOBJ-N-CEN_13
1002
{
1000
OWNER
1000
GEN
1002
}
1001
GENIUS_GENODEF_13
1002
{
1000
HIER
1070
     0
1002
}
1002
{
1000
MANEDIT
1070
     0
1002
}
1002
{
1000
NOSEL
1070
     0
1002
}
1002
{
1000
BEHIND
1070
     0
1002
}
1002
{
1000
OTHER
1070
     0
1002
}
1002
{
1000
REACTOR
1002
}
1001
GENIUS_GENCEN_19
1002
{
1040
30.0
1002
}
  0
LINE
  5
B78
330
1F
100
AcDbEntity
  8
0
100
AcDbLine
 10
1856.504247120686
 20
4401.435061605186
 30
0.0
 11
1856.488797934688
 21
4401.422761487687
 31
0.0
  0
LINE
  5
B79
330
1F
100
AcDbEntity
  8
0
100
AcDbLine
 10
1857.80513865589
 20
4409.766609539985
 30
0.0
 11
1856.421697412187
 21
4408.778269078187
 31
0.0
  0
LINE
  5
B7A
330
1F
100
AcDbEntity
  8
0
100
AcDbLine
 10
1857.889286616187
 20
4407.426725612188
 30
0.0
 11
1856.421697513188
 21
4406.378269305687
 31
0.0
  0
LINE
  5
B7B
330
1F
100
AcDbEntity
  8
0
100
AcDbLine
 10
1857.889286682187
 20
4405.026724156686
 30
0.0
 11
1856.421697582186
 21
4403.978267849686
 31
0.0
  0
LINE
  5
B7C
330
1F
100
AcDbEntity
  8
0
100
AcDbLine
 10
1857.889286527689
 20
4402.626724822686
 30
0.0
 11
1856.421697421686
 21
4401.578268517687
 31
0.0
  0
LINE
  5
B7D
330
1F
100
AcDbEntity
  8
0
100
AcDbLine
 10
1856.531284651685
 20
4406.243161605687
 30
0.0
 11
1856.488798022185
 21
4406.222762261186
 31
0.0
  0
LINE
  5
B7E
330
1F
100
AcDbEntity
  8
0
100
AcDbLine
 10
1914.688481420187
 20
4408.818920445187
 30
0.0
 11
1916.015020290065
 21
4409.766609539985
 31
0.0
  0
LINE
  5
B7F
330
1F
100
AcDbEntity
  8
0
100
AcDbLine
 10
1914.688481481687
 20
4406.418922209187
 30
0.0
 11
1916.155621121189
 21
4407.467057523187
 31
0.0
  0
LINE
  5
B80
330
1F
100
AcDbEntity
  8
0
100
AcDbLine
 10
1914.688481351687
 20
4404.018921099686
 30
0.0
 11
1916.155620985187
 21
4405.067056413687
 31
0.0
  0
LINE
  5
B81
330
1F
100
AcDbEntity
  8
0
100
AcDbLine
 10
1914.613752032687
 20
4401.565551357687
 30
0.0
 11
1916.08400080469
 21
4402.615906906187
 31
0.0
  0
LINE
  5
B82
330
1F
100
AcDbEntity
  8
0
100
AcDbLine
 10
1856.493594891187
 20
4408.829615776187
 30
0.0
 11
1856.488797923687
 21
4408.822762045185
 31
0.0
  0
LINE
  5
B83
330
1F
100
AcDbEntity
  8
0
100
AcDbLine
 10
1856.493595004186
 20
4406.429616012187
 30
0.0
 11
1856.488798022185
 21
4406.422762261187
 31
0.0
  0
LINE
  5
B84
330
1F
100
AcDbEntity
  8
0
100
AcDbLine
 10
1856.493595081188
 20
4404.029614561687
 30
0.0
 11
1856.488798100187
 21
4404.022760811687
 31
0.0
  0
LINE
  5
B85
330
1F
100
AcDbEntity
  8
0
100
AcDbLine
 10
1856.493594899689
 20
4401.629615214686
 30
0.0
 11
1856.488797934688
 21
4401.622761487686
 31
0.0
  0
LINE
  5
B86
330
1F
100
AcDbEntity
  8
0
100
AcDbLine
 10
1916.088797879688
 20
4407.422762598186
 30
0.0
 11
1916.084000903188
 21
4407.415908854686
 31
0.0
  0
LINE
  5
B87
330
1F
100
AcDbEntity
  8
0
100
AcDbLine
 10
1916.088797763687
 20
4405.022761507686
 30
0.0
 11
1916.084000780188
 21
4405.015907754687
 31
0.0
  0
LINE
  5
B88
330
1F
100
AcDbEntity
  8
0
100
AcDbLine
 10
1916.088797779687
 20
4402.622760647187
 30
0.0
 11
1916.08400080469
 21
4402.615906906187
 31
0.0
  0
LINE
  5
B89
330
1F
100
AcDbEntity
  8
0
100
AcDbLine
 10
1856.488798022185
 20
4406.422762261187
 30
0.0
 11
1856.488798022185
 21
4406.222762261186
 31
0.0
  0
LINE
  5
B8A
330
1F
100
AcDbEntity
  8
0
100
AcDbLine
 10
1856.488797934688
 20
4401.622761487686
 30
0.0
 11
1856.488797934688
 21
4401.422761487687
 31
0.0
  0
LINE
  5
B8B
330
1F
100
AcDbEntity
  8
0
100
AcDbLine
 10
1856.488798100187
 20
4404.022760811687
 30
0.0
 11
1856.488798100187
 21
4403.822760811687
 31
0.0
  0
LINE
  5
B8C
330
1F
100
AcDbEntity
  8
0
100
AcDbLine
 10
1914.618797920687
 20
4400.272761605187
 30
0.0
 11
1914.618797920687
 21
4401.572760647186
 31
0.0
  0
LINE
  5
B8D
330
1F
100
AcDbEntity
  8
0
100
AcDbLine
 10
1914.618797920687
 20
4403.879969936686
 30
0.0
 11
1914.618797920687
 21
4406.279970810188
 31
0.0
  0
LINE
  5
B8E
330
1F
100
AcDbEntity
  8
0
100
AcDbLine
 10
1916.088797763687
 20
4405.022761507686
 30
0.0
 11
1916.088797763687
 21
4405.222761507687
 31
0.0
  0
LINE
  5
B8F
330
1F
100
AcDbEntity
  8
0
100
AcDbLine
 10
1856.488797934688
 20
4401.422761487687
 30
0.0
 11
1856.493594899689
 21
4401.415907760686
 31
0.0
  0
LINE
  5
B90
330
1F
100
AcDbEntity
  8
0
100
AcDbLine
 10
1856.488798100187
 20
4403.822760811687
 30
0.0
 11
1856.493595081188
 21
4403.815907062186
 31
0.0
  0
LINE
  5
B91
330
1F
100
AcDbEntity
  8
0
100
AcDbLine
 10
1856.488798022185
 20
4406.222762261186
 30
0.0
 11
1856.493595004186
 21
4406.215908510186
 31
0.0
  0
LINE
  5
B92
330
1F
100
AcDbEntity
  8
0
100
AcDbLine
 10
1856.488797923687
 20
4408.622762045186
 30
0.0
 11
1856.493594891187
 21
4408.615908314686
 31
0.0
  0
LINE
  5
B93
330
1F
100
AcDbEntity
  8
0
100
AcDbLine
 10
1916.08400080469
 20
4402.829614388186
 30
0.0
 11
1916.088797779687
 21
4402.822760647186
 31
0.0
  0
LINE
  5
B94
330
1F
100
AcDbEntity
  8
0
100
AcDbLine
 10
1916.084000780188
 20
4405.229615261187
 30
0.0
 11
1916.088797763687
 21
4405.222761507687
 31
0.0
  0
LINE
  5
B95
330
1F
100
AcDbEntity
  8
0
100
AcDbLine
 10
1916.084000903188
 20
4407.629616342187
 30
0.0
 11
1916.088797879688
 21
4407.622762598187
 31
0.0
  0
LINE
  5
B96
330
1F
100
AcDbEntity
  8
0
100
AcDbLine
 10
1856.42197467419
 20
4401.467056434687
 30
0.0
 11
1857.889114314686
 21
4400.418921121687
 31
0.0
  0
LINE
  5
B97
330
1F
100
AcDbEntity
  8
0
100
AcDbLine
 10
1856.421974878186
 20
4403.867055720186
 30
0.0
 11
1857.889114510187
 21
4402.818920406686
 31
0.0
  0
LINE
  5
B98
330
1F
100
AcDbEntity
  8
0
100
AcDbLine
 10
1856.421974793686
 20
4406.267057173187
 30
0.0
 11
1857.889114430188
 21
4405.218921859186
 31
0.0
  0
LINE
  5
B99
330
1F
100
AcDbEntity
  8
0
100
AcDbLine
 10
1856.421974667685
 20
4408.667056986687
 30
0.0
 11
1857.889114309185
 21
4407.618921673186
 31
0.0
  0
LINE
  5
B9A
330
1F
100
AcDbEntity
  8
0
100
AcDbLine
 10
1916.155898298187
 20
4402.778267680186
 30
0.0
 11
1914.688309197186
 21
4403.826723986187
 31
0.0
  0
LINE
  5
B9B
330
1F
100
AcDbEntity
  8
0
100
AcDbLine
 10
1916.155898277687
 20
4405.178268550186
 30
0.0
 11
1914.688309176689
 21
4406.226724857186
 31
0.0
  0
LINE
  5
B9C
330
1F
100
AcDbEntity
  8
0
100
AcDbLine
 10
1916.155898387186
 20
4407.578269640686
 30
0.0
 11
1914.688309281689
 21
4408.626725946688
 31
0.0
  0
LINE
  5
B9D
330
1F
100
AcDbEntity
  8
0
100
AcDbLine
 10
1914.618797786689
 20
4403.872760647186
 30
0.0
 11
1914.415303972188
 21
4403.826950794687
 31
0.0
  0
LINE
  5
B9E
330
1F
100
AcDbEntity
  8
0
100
AcDbLine
 10
1914.613752032687
 20
4401.565551357687
 30
0.0
 11
1914.415303972188
 21
4401.526950794687
 31
0.0
  0
LINE
  5
B9F
330
1F
100
AcDbEntity
  8
0
100
AcDbLine
 10
1916.088797879688
 20
4407.622762598187
 30
0.0
 11
1915.788185030188
 21
4407.568461605687
 31
0.0
  0
LINE
  5
BA0
330
1F
100
AcDbEntity
  8
0
100
AcDbLine
 10
1914.618797771188
 20
4406.272761507686
 30
0.0
 11
1914.256955835188
 21
4406.211646740686
 31
0.0
  0
LINE
  5
BA1
330
1F
100
AcDbEntity
  8
0
100
AcDbLine
 10
1916.084000903188
 20
4407.415908854686
 30
0.0
 11
1915.788185030188
 21
4407.368461605687
 31
0.0
  0
LINE
  5
BA2
330
1F
100
AcDbEntity
  8
0
100
AcDbLine
 10
1916.088797779687
 20
4402.822760647186
 30
0.0
 11
1915.692050888686
 21
4402.760361605188
 31
0.0
  0
POLYLINE
  5
BA3
330
1F
100
AcDbEntity
  8
0
100
AcDb2dPolyline
 66
     1
 10
0.0
 20
0.0
 30
0.0
  0
VERTEX
  5
BA4
330
BA3
100
AcDbEntity
  8
0
100
AcDbVertex
100
AcDb2dVertex
 10
1914.613752008688
 20
4403.965552205687
 30
0.0
  0
VERTEX
  5
BA5
330
BA3
100
AcDbEntity
  8
0
100
AcDbVertex
100
AcDb2dVertex
 10
1914.256955835188
 20
4403.911646740686
 30
0.0
  0
VERTEX
  5
BA6
330
BA3
100
AcDbEntity
  8
0
100
AcDbVertex
100
AcDb2dVertex
 10
1912.02279084919
 20
4403.807964308186
 30
0.0
  0
SEQEND
  5
BA7
330
BA3
100
AcDbEntity
  8
0
  0
LINE
  5
BA8
330
1F
100
AcDbEntity
  8
0
100
AcDbLine
 10
1856.952896851685
 20
4403.890261605686
 30
0.0
 11
1856.488798100187
 21
4403.822760811687
 31
0.0
  0
LINE
  5
BA9
330
1F
100
AcDbEntity
  8
0
100
AcDbLine
 10
1916.08400080469
 20
4402.615906906187
 30
0.0
 11
1915.692050888686
 21
4402.560361605186
 31
0.0
  0
LINE
  5
BAA
330
1F
100
AcDbEntity
  8
0
100
AcDbLine
 10
1914.618797881688
 20
4408.672762598186
 30
0.0
 11
1914.053707657686
 21
4408.596342686688
 31
0.0
  0
LINE
  5
BAB
330
1F
100
AcDbEntity
  8
0
100
AcDbLine
 10
1856.952896851685
 20
4404.090261605687
 30
0.0
 11
1856.493595081188
 21
4404.029614561687
 31
0.0
  0
LINE
  5
BAC
330
1F
100
AcDbEntity
  8
0
100
AcDbLine
 10
1857.070559153685
 20
4408.698361605186
 30
0.0
 11
1856.488797923687
 21
4408.622762045186
 31
0.0
  0
LINE
  5
BAD
330
1F
100
AcDbEntity
  8
0
100
AcDbLine
 10
1914.613752126187
 20
4406.365553305687
 30
0.0
 11
1914.053707657686
 21
4406.296342686687
 31
0.0
  0
LINE
  5
BAE
330
1F
100
AcDbEntity
  8
0
100
AcDbLine
 10
1858.686386240187
 20
4405.259518362687
 30
0.0
 11
1857.958798017188
 21
4405.172762261186
 31
0.0
  0
LINE
  5
BAF
330
1F
100
AcDbEntity
  8
0
100
AcDbLine
 10
1857.070559153685
 20
4408.898361605186
 30
0.0
 11
1856.493594891187
 21
4408.829615776187
 31
0.0
  0
LINE
  5
BB0
330
1F
100
AcDbEntity
  8
0
100
AcDbLine
 10
1858.686386240187
 20
4407.559518362687
 30
0.0
 11
1857.963843778688
 21
4407.479971561186
 31
0.0
  0
POLYLINE
  5
BB1
330
1F
100
AcDbEntity
  8
0
100
AcDb2dPolyline
 66
     1
 10
0.0
 20
0.0
 30
0.0
  0
VERTEX
  5
BB2
330
BB1
100
AcDbEntity
  8
0
100
AcDbVertex
100
AcDb2dVertex
 10
1914.613752072687
 20
4408.765551547687
 30
0.0
  0
VERTEX
  5
BB3
330
BB1
100
AcDbEntity
  8
0
100
AcDbVertex
100
AcDb2dVertex
 10
1913.805126154187
 20
4408.680992595186
 30
0.0
  0
VERTEX
  5
BB4
330
BB1
100
AcDbEntity
  8
0
100
AcDbVertex
100
AcDb2dVertex
 10
1910.990494449687
 20
4408.577316739187
 30
0.0
  0
VERTEX
  5
BB5
330
BB1
100
AcDbEntity
  8
0
100
AcDbVertex
100
AcDb2dVertex
 10
1906.367222632189
 20
4408.473640883687
 30
0.0
  0
VERTEX
  5
BB6
330
BB1
100
AcDbEntity
  8
0
100
AcDbVertex
100
AcDb2dVertex
 10
1900.273822779188
 20
4408.369965028187
 30
0.0
  0
VERTEX
  5
BB7
330
BB1
100
AcDbEntity
  8
0
100
AcDbVertex
100
AcDb2dVertex
 10
1893.156448830685
 20
4408.266289172186
 30
0.0
  0
VERTEX
  5
BB8
330
BB1
100
AcDbEntity
  8
0
100
AcDbVertex
100
AcDb2dVertex
 10
1885.536229595686
 20
4408.162613316687
 30
0.0
  0
VERTEX
  5
BB9
330
BB1
100
AcDbEntity
  8
0
100
AcDbVertex
100
AcDb2dVertex
 10
1877.971112122689
 20
4408.058937460687
 30
0.0
  0
VERTEX
  5
BBA
330
BB1
100
AcDbEntity
  8
0
100
AcDbVertex
100
AcDb2dVertex
 10
1871.015009232687
 20
4407.955261605187
 30
0.0
  0
SEQEND
  5
BBB
330
BB1
100
AcDbEntity
  8
0
  0
LINE
  5
BBC
330
1F
100
AcDbEntity
  8
0
100
AcDbLine
 10
1858.964091547687
 20
4402.874822416687
 30
0.0
 11
1857.958798091686
 21
4402.772760811688
 31
0.0
  0
LINE
  5
BBD
330
1F
100
AcDbEntity
  8
0
100
AcDbLine
 10
1858.964091547687
 20
4405.174822416687
 30
0.0
 11
1857.963843851688
 21
4405.079970110687
 31
0.0
  0
LINE
  5
BBE
330
1F
100
AcDbEntity
  8
0
100
AcDbLine
 10
1915.542217524005
 20
4409.766609539985
 30
0.0
 11
1915.044939797185
 21
4409.721361605186
 31
0.0
  0
LINE
  5
BBF
330
1F
100
AcDbEntity
  8
0
100
AcDbLine
 10
1916.088797763687
 20
4405.222761507687
 30
0.0
 11
1914.872684061188
 21
4405.113261605687
 31
0.0
  0
LINE
  5
BC0
330
1F
100
AcDbEntity
  8
0
100
AcDbLine
 10
1916.084000780188
 20
4405.015907754687
 30
0.0
 11
1914.872684061188
 21
4404.913261605686
 31
0.0
  0
LINE
  5
BC1
330
1F
100
AcDbEntity
  8
0
100
AcDbLine
 10
1859.285619309189
 20
4402.790126470186
 30
0.0
 11
1857.963843677687
 21
4402.679970762187
 31
0.0
  0
LINE
  5
BC2
330
1F
100
AcDbEntity
  8
0
100
AcDbLine
 10
1857.819971036685
 20
4401.737361605188
 30
0.0
 11
1856.493594899689
 21
4401.629615214686
 31
0.0
  0
LINE
  5
BC3
330
1F
100
AcDbEntity
  8
0
100
AcDbLine
 10
1857.819971036685
 20
4401.537361605187
 30
0.0
 11
1856.504247120686
 21
4401.435061605186
 31
0.0
  0
LINE
  5
BC4
330
1F
100
AcDbEntity
  8
0
100
AcDbLine
 10
1858.013096175687
 20
4406.345461605687
 30
0.0
 11
1856.531284651685
 21
4406.243161605687
 31
0.0
  0
POLYLINE
  5
BC5
330
1F
100
AcDbEntity
  8
0
100
AcDb2dPolyline
 66
     1
 10
0.0
 20
0.0
 30
0.0
  0
VERTEX
  5
BC6
330
BC5
100
AcDbEntity
  8
0
100
AcDbVertex
100
AcDb2dVertex
 10
1858.013096175687
 20
4406.545461605687
 30
0.0
  0
VERTEX
  5
BC7
330
BC5
100
AcDbEntity
  8
0
100
AcDbVertex
100
AcDb2dVertex
 10
1856.531284651685
 20
4406.443161605687
 30
0.0
  0
VERTEX
  5
BC8
330
BC5
100
AcDbEntity
  8
0
100
AcDbVertex
100
AcDb2dVertex
 10
1856.493595004186
 20
4406.429616012187
 30
0.0
  0
SEQEND
  5
BC9
330
BC5
100
AcDbEntity
  8
0
  0
POLYLINE
  5
BCA
330
1F
100
AcDbEntity
  8
0
100
AcDb2dPolyline
 66
     1
 10
0.0
 20
0.0
 30
0.0
  0
VERTEX
  5
BCB
330
BCA
100
AcDbEntity
  8
0
100
AcDbVertex
100
AcDb2dVertex
 10
1914.415303972188
 20
4401.526950794687
 30
0.0
  0
VERTEX
  5
BCC
330
BCA
100
AcDbEntity
  8
0
100
AcDbVertex
100
AcDb2dVertex
 10
1912.476691048188
 20
4401.423268362187
 30
0.0
  0
VERTEX
  5
BCD
330
BCA
100
AcDbEntity
  8
0
100
AcDbVertex
100
AcDb2dVertex
 10
1908.62037974119
 20
4401.319585929686
 30
0.0
  0
VERTEX
  5
BCE
330
BCA
100
AcDbEntity
  8
0
100
AcDbVertex
100
AcDb2dVertex
 10
1903.128761252689
 20
4401.215903497186
 30
0.0
  0
VERTEX
  5
BCF
330
BCA
100
AcDbEntity
  8
0
100
AcDbVertex
100
AcDb2dVertex
 10
1896.403977889188
 20
4401.112221064687
 30
0.0
  0
SEQEND
  5
BD0
330
BCA
100
AcDbEntity
  8
0
  0
LINE
  5
BD1
330
1F
100
AcDbEntity
  8
0
100
AcDbLine
 10
1914.415303972188
 20
4403.826950794687
 30
0.0
 11
1912.476691048188
 21
4403.723268362187
 31
0.0
  0
LINE
  5
BD2
330
1F
100
AcDbEntity
  8
0
100
AcDbLine
 10
1915.788185030188
 20
4407.368461605687
 30
0.0
 11
1913.619230855186
 21
4407.266161605687
 31
0.0
  0
LINE
  5
BD3
330
1F
100
AcDbEntity
  8
0
100
AcDbLine
 10
1915.788185030188
 20
4407.568461605687
 30
0.0
 11
1913.619230855186
 21
4407.466161605687
 31
0.0
  0
LINE
  5
BD4
330
1F
100
AcDbEntity
  8
0
100
AcDbLine
 10
1914.256955835188
 20
4406.211646740686
 30
0.0
 11
1912.02279084919
 21
4406.107964308186
 31
0.0
  0
LINE
  5
BD5
330
1F
100
AcDbEntity
  8
0
100
AcDbLine
 10
1915.692050888686
 20
4402.560361605186
 30
0.0
 11
1913.361284467187
 21
4402.458061605186
 31
0.0
  0
LINE
  5
BD6
330
1F
100
AcDbEntity
  8
0
100
AcDbLine
 10
1915.692050888686
 20
4402.760361605188
 30
0.0
 11
1913.361284467187
 21
4402.658061605187
 31
0.0
  0
LINE
  5
BD7
330
1F
100
AcDbEntity
  8
0
100
AcDbLine
 10
1859.385066972189
 20
4403.992561605686
 30
0.0
 11
1856.952896851685
 21
4403.890261605686
 31
0.0
  0
LINE
  5
BD8
330
1F
100
AcDbEntity
  8
0
100
AcDbLine
 10
1859.385066972189
 20
4404.192561605687
 30
0.0
 11
1856.952896851685
 21
4404.090261605687
 31
0.0
  0
POLYLINE
  5
BD9
330
1F
100
AcDbEntity
  8
0
100
AcDb2dPolyline
 66
     1
 10
0.0
 20
0.0
 30
0.0
  0
VERTEX
  5
BDA
330
BD9
100
AcDbEntity
  8
0
100
AcDbVertex
100
AcDb2dVertex
 10
1914.053707657686
 20
4406.296342686687
 30
0.0
  0
VERTEX
  5
BDB
330
BD9
100
AcDbEntity
  8
0
100
AcDbVertex
100
AcDb2dVertex
 10
1911.527565921689
 20
4406.192660254187
 30
0.0
  0
VERTEX
  5
BDC
330
BD9
100
AcDbEntity
  8
0
100
AcDbVertex
100
AcDb2dVertex
 10
1907.153230651189
 20
4406.088977821687
 30
0.0
  0
VERTEX
  5
BDD
330
BD9
100
AcDbEntity
  8
0
100
AcDbVertex
100
AcDb2dVertex
 10
1901.251027527188
 20
4405.985295389187
 30
0.0
  0
VERTEX
  5
BDE
330
BD9
100
AcDbEntity
  8
0
100
AcDbVertex
100
AcDb2dVertex
 10
1894.253165361187
 20
4405.881612957187
 30
0.0
  0
VERTEX
  5
BDF
330
BD9
100
AcDbEntity
  8
0
100
AcDbVertex
100
AcDb2dVertex
 10
1879.062939697188
 20
4405.674248092187
 30
0.0
  0
SEQEND
  5
BE0
330
BD9
100
AcDbEntity
  8
0
  0
POLYLINE
  5
BE1
330
1F
100
AcDbEntity
  8
0
100
AcDb2dPolyline
 66
     1
 10
0.0
 20
0.0
 30
0.0
  0
VERTEX
  5
BE2
330
BE1
100
AcDbEntity
  8
0
100
AcDbVertex
100
AcDb2dVertex
 10
1914.053707657686
 20
4408.596342686688
 30
0.0
  0
VERTEX
  5
BE3
330
BE1
100
AcDbEntity
  8
0
100
AcDbVertex
100
AcDb2dVertex
 10
1911.527565921689
 20
4408.492660254188
 30
0.0
  0
VERTEX
  5
BE4
330
BE1
100
AcDbEntity
  8
0
100
AcDbVertex
100
AcDb2dVertex
 10
1907.153230651189
 20
4408.388977821687
 30
0.0
  0
VERTEX
  5
BE5
330
BE1
100
AcDbEntity
  8
0
100
AcDbVertex
100
AcDb2dVertex
 10
1901.251027527188
 20
4408.285295389187
 30
0.0
  0
VERTEX
  5
BE6
330
BE1
100
AcDbEntity
  8
0
100
AcDbVertex
100
AcDb2dVertex
 10
1894.253165361187
 20
4408.181612957187
 30
0.0
  0
VERTEX
  5
BE7
330
BE1
100
AcDbEntity
  8
0
100
AcDbVertex
100
AcDb2dVertex
 10
1879.062939697188
 20
4407.974248092187
 30
0.0
  0
SEQEND
  5
BE8
330
BE1
100
AcDbEntity
  8
0
  0
LINE
  5
BE9
330
1F
100
AcDbEntity
  8
0
100
AcDbLine
 10
1859.662817161686
 20
4408.800661605186
 30
0.0
 11
1857.070559153685
 21
4408.698361605186
 31
0.0
  0
LINE
  5
BEA
330
1F
100
AcDbEntity
  8
0
100
AcDbLine
 10
1859.662817161686
 20
4409.000661605187
 30
0.0
 11
1857.070559153685
 21
4408.898361605186
 31
0.0
  0
LINE
  5
BEB
330
1F
100
AcDbEntity
  8
0
100
AcDbLine
 10
1915.044939797185
 20
4409.721361605186
 30
0.0
 11
1911.950841689689
 21
4409.619061605186
 31
0.0
  0
POLYLINE
  5
BEC
330
1F
100
AcDbEntity
  8
0
100
AcDb2dPolyline
 66
     1
 10
0.0
 20
0.0
 30
0.0
  0
VERTEX
  5
BED
330
BEC
100
AcDbEntity
  8
0
100
AcDbVertex
100
AcDb2dVertex
 10
1914.872684061188
 20
4404.913261605686
 30
0.0
  0
VERTEX
  5
BEE
330
BEC
100
AcDbEntity
  8
0
100
AcDbVertex
100
AcDb2dVertex
 10
1911.623828583189
 20
4404.810961605686
 30
0.0
  0
VERTEX
  5
BEF
330
BEC
100
AcDbEntity
  8
0
100
AcDbVertex
100
AcDb2dVertex
 10
1906.568581424685
 20
4404.708661605686
 30
0.0
  0
VERTEX
  5
BF0
330
BEC
100
AcDbEntity
  8
0
100
AcDbVertex
100
AcDb2dVertex
 10
1900.067382432687
 20
4404.606361605686
 30
0.0
  0
VERTEX
  5
BF1
330
BEC
100
AcDbEntity
  8
0
100
AcDbVertex
100
AcDb2dVertex
 10
1892.583768057188
 20
4404.504061605686
 30
0.0
  0
VERTEX
  5
BF2
330
BEC
100
AcDbEntity
  8
0
100
AcDbVertex
100
AcDb2dVertex
 10
1884.651321151187
 20
4404.401761605686
 30
0.0
  0
VERTEX
  5
BF3
330
BEC
100
AcDbEntity
  8
0
100
AcDbVertex
100
AcDb2dVertex
 10
1876.835626444687
 20
4404.299461605687
 30
0.0
  0
VERTEX
  5
BF4
330
BEC
100
AcDbEntity
  8
0
100
AcDbVertex
100
AcDb2dVertex
 10
1869.693944278187
 20
4404.197161605686
 30
0.0
  0
VERTEX
  5
BF5
330
BEC
100
AcDbEntity
  8
0
100
AcDbVertex
100
AcDb2dVertex
 10
1863.735477855686
 20
4404.094861605687
 30
0.0
  0
VERTEX
  5
BF6
330
BEC
100
AcDbEntity
  8
0
100
AcDbVertex
100
AcDb2dVertex
 10
1859.385066972189
 20
4403.992561605686
 30
0.0
  0
SEQEND
  5
BF7
330
BEC
100
AcDbEntity
  8
0
  0
POLYLINE
  5
BF8
330
1F
100
AcDbEntity
  8
0
100
AcDb2dPolyline
 66
     1
 10
0.0
 20
0.0
 30
0.0
  0
VERTEX
  5
BF9
330
BF8
100
AcDbEntity
  8
0
100
AcDbVertex
100
AcDb2dVertex
 10
1914.872684061188
 20
4405.113261605687
 30
0.0
  0
VERTEX
  5
BFA
330
BF8
100
AcDbEntity
  8
0
100
AcDbVertex
100
AcDb2dVertex
 10
1911.623828583189
 20
4405.010961605687
 30
0.0
  0
VERTEX
  5
BFB
330
BF8
100
AcDbEntity
  8
0
100
AcDbVertex
100
AcDb2dVertex
 10
1906.568581424685
 20
4404.908661605687
 30
0.0
  0
VERTEX
  5
BFC
330
BF8
100
AcDbEntity
  8
0
100
AcDbVertex
100
AcDb2dVertex
 10
1900.067382432687
 20
4404.806361605687
 30
0.0
  0
VERTEX
  5
BFD
330
BF8
100
AcDbEntity
  8
0
100
AcDbVertex
100
AcDb2dVertex
 10
1892.583768057188
 20
4404.704061605687
 30
0.0
  0
VERTEX
  5
BFE
330
BF8
100
AcDbEntity
  8
0
100
AcDbVertex
100
AcDb2dVertex
 10
1884.651321151187
 20
4404.601761605687
 30
0.0
  0
VERTEX
  5
BFF
330
BF8
100
AcDbEntity
  8
0
100
AcDbVertex
100
AcDb2dVertex
 10
1876.835626444687
 20
4404.499461605687
 30
0.0
  0
VERTEX
  5
C00
330
BF8
100
AcDbEntity
  8
0
100
AcDbVertex
100
AcDb2dVertex
 10
1869.693944278187
 20
4404.397161605687
 30
0.0
  0
VERTEX
  5
C01
330
BF8
100
AcDbEntity
  8
0
100
AcDbVertex
100
AcDb2dVertex
 10
1863.735477855686
 20
4404.294861605687
 30
0.0
  0
VERTEX
  5
C02
330
BF8
100
AcDbEntity
  8
0
100
AcDbVertex
100
AcDb2dVertex
 10
1859.385066972189
 20
4404.192561605687
 30
0.0
  0
SEQEND
  5
C03
330
BF8
100
AcDbEntity
  8
0
  0
LINE
  5
C04
330
1F
100
AcDbEntity
  8
0
100
AcDbLine
 10
1861.165533743186
 20
4401.639661605186
 30
0.0
 11
1857.819971036685
 21
4401.537361605187
 31
0.0
  0
LINE
  5
C05
330
1F
100
AcDbEntity
  8
0
100
AcDbLine
 10
1861.165533743186
 20
4401.839661605186
 30
0.0
 11
1857.819971036685
 21
4401.737361605188
 31
0.0
  0
POLYLINE
  5
C06
330
1F
100
AcDbEntity
  8
0
100
AcDb2dPolyline
 66
     1
 10
0.0
 20
0.0
 30
0.0
  0
VERTEX
  5
C07
330
C06
100
AcDbEntity
  8
0
100
AcDbVertex
100
AcDb2dVertex
 10
1912.476691048188
 20
4403.723268362187
 30
0.0
  0
VERTEX
  5
C08
330
C06
100
AcDbEntity
  8
0
100
AcDbVertex
100
AcDb2dVertex
 10
1908.62037974119
 20
4403.619585929686
 30
0.0
  0
VERTEX
  5
C09
330
C06
100
AcDbEntity
  8
0
100
AcDbVertex
100
AcDb2dVertex
 10
1903.128761252689
 20
4403.515903497186
 30
0.0
  0
VERTEX
  5
C0A
330
C06
100
AcDbEntity
  8
0
100
AcDbVertex
100
AcDb2dVertex
 10
1896.403977889188
 20
4403.412221064687
 30
0.0
  0
VERTEX
  5
C0B
330
C06
100
AcDbEntity
  8
0
100
AcDbVertex
100
AcDb2dVertex
 10
1888.93847487419
 20
4403.308538632187
 30
0.0
  0
VERTEX
  5
C0C
330
C06
100
AcDbEntity
  8
0
100
AcDbVertex
100
AcDb2dVertex
 10
1881.27893940519
 20
4403.204856199687
 30
0.0
  0
VERTEX
  5
C0D
330
C06
100
AcDbEntity
  8
0
100
AcDbVertex
100
AcDb2dVertex
 10
1873.98626761819
 20
4403.101173767686
 30
0.0
  0
VERTEX
  5
C0E
330
C06
100
AcDbEntity
  8
0
100
AcDbVertex
100
AcDb2dVertex
 10
1867.594491030689
 20
4402.997491335187
 30
0.0
  0
VERTEX
  5
C0F
330
C06
100
AcDbEntity
  8
0
100
AcDbVertex
100
AcDb2dVertex
 10
1862.571670201188
 20
4402.893808902687
 30
0.0
  0
VERTEX
  5
C10
330
C06
100
AcDbEntity
  8
0
100
AcDbVertex
100
AcDb2dVertex
 10
1859.285619309189
 20
4402.790126470186
 30
0.0
  0
SEQEND
  5
C11
330
C06
100
AcDbEntity
  8
0
  0
POLYLINE
  5
C12
330
1F
100
AcDbEntity
  8
0
100
AcDb2dPolyline
 66
     1
 10
0.0
 20
0.0
 30
0.0
  0
VERTEX
  5
C13
330
C12
100
AcDbEntity
  8
0
100
AcDbVertex
100
AcDb2dVertex
 10
1912.02279084919
 20
4403.807964308186
 30
0.0
  0
VERTEX
  5
C14
330
C12
100
AcDbEntity
  8
0
100
AcDbVertex
100
AcDb2dVertex
 10
1907.90416974969
 20
4403.704281876186
 30
0.0
  0
VERTEX
  5
C15
330
C12
100
AcDbEntity
  8
0
100
AcDbVertex
100
AcDb2dVertex
 10
1902.202692021688
 20
4403.600599443686
 30
0.0
  0
VERTEX
  5
C16
330
C12
100
AcDbEntity
  8
0
100
AcDbVertex
100
AcDb2dVertex
 10
1895.335867027689
 20
4403.496917011187
 30
0.0
  0
VERTEX
  5
C17
330
C12
100
AcDbEntity
  8
0
100
AcDbVertex
100
AcDb2dVertex
 10
1887.806540531687
 20
4403.393234578687
 30
0.0
  0
VERTEX
  5
C18
330
C12
100
AcDbEntity
  8
0
100
AcDbVertex
100
AcDb2dVertex
 10
1880.166072187686
 20
4403.289552146186
 30
0.0
  0
VERTEX
  5
C19
330
C12
100
AcDbEntity
  8
0
100
AcDbVertex
100
AcDb2dVertex
 10
1872.973960431688
 20
4403.185869713687
 30
0.0
  0
VERTEX
  5
C1A
330
C12
100
AcDbEntity
  8
0
100
AcDbVertex
100
AcDb2dVertex
 10
1866.756871380686
 20
4403.082187281187
 30
0.0
  0
VERTEX
  5
C1B
330
C12
100
AcDbEntity
  8
0
100
AcDbVertex
100
AcDb2dVertex
 10
1861.970071974686
 20
4402.978504848686
 30
0.0
  0
VERTEX
  5
C1C
330
C12
100
AcDbEntity
  8
0
100
AcDbVertex
100
AcDb2dVertex
 10
1858.964091547687
 20
4402.874822416687
 30
0.0
  0
SEQEND
  5
C1D
330
C12
100
AcDbEntity
  8
0
  0
POLYLINE
  5
C1E
330
1F
100
AcDbEntity
  8
0
100
AcDb2dPolyline
 66
     1
 10
0.0
 20
0.0
 30
0.0
  0
VERTEX
  5
C1F
330
C1E
100
AcDbEntity
  8
0
100
AcDbVertex
100
AcDb2dVertex
 10
1912.02279084919
 20
4406.107964308186
 30
0.0
  0
VERTEX
  5
C20
330
C1E
100
AcDbEntity
  8
0
100
AcDbVertex
100
AcDb2dVertex
 10
1907.90416974969
 20
4406.004281876186
 30
0.0
  0
VERTEX
  5
C21
330
C1E
100
AcDbEntity
  8
0
100
AcDbVertex
100
AcDb2dVertex
 10
1902.202692021688
 20
4405.900599443686
 30
0.0
  0
VERTEX
  5
C22
330
C1E
100
AcDbEntity
  8
0
100
AcDbVertex
100
AcDb2dVertex
 10
1895.335867027689
 20
4405.796917011186
 30
0.0
  0
VERTEX
  5
C23
330
C1E
100
AcDbEntity
  8
0
100
AcDbVertex
100
AcDb2dVertex
 10
1887.806540531687
 20
4405.693234578687
 30
0.0
  0
VERTEX
  5
C24
330
C1E
100
AcDbEntity
  8
0
100
AcDbVertex
100
AcDb2dVertex
 10
1880.166072187686
 20
4405.589552146187
 30
0.0
  0
VERTEX
  5
C25
330
C1E
100
AcDbEntity
  8
0
100
AcDbVertex
100
AcDb2dVertex
 10
1872.973960431688
 20
4405.485869713687
 30
0.0
  0
VERTEX
  5
C26
330
C1E
100
AcDbEntity
  8
0
100
AcDbVertex
100
AcDb2dVertex
 10
1866.756871380686
 20
4405.382187281186
 30
0.0
  0
VERTEX
  5
C27
330
C1E
100
AcDbEntity
  8
0
100
AcDbVertex
100
AcDb2dVertex
 10
1861.970071974686
 20
4405.278504848687
 30
0.0
  0
VERTEX
  5
C28
330
C1E
100
AcDbEntity
  8
0
100
AcDbVertex
100
AcDb2dVertex
 10
1858.964091547687
 20
4405.174822416687
 30
0.0
  0
SEQEND
  5
C29
330
C1E
100
AcDbEntity
  8
0
  0
POLYLINE
  5
C2A
330
1F
100
AcDbEntity
  8
0
100
AcDb2dPolyline
 66
     1
 10
0.0
 20
0.0
 30
0.0
  0
VERTEX
  5
C2B
330
C2A
100
AcDbEntity
  8
0
100
AcDbVertex
100
AcDb2dVertex
 10
1913.619230855186
 20
4407.266161605687
 30
0.0
  0
VERTEX
  5
C2C
330
C2A
100
AcDbEntity
  8
0
100
AcDbVertex
100
AcDb2dVertex
 10
1909.501610460188
 20
4407.163861605687
 30
0.0
  0
VERTEX
  5
C2D
330
C2A
100
AcDbEntity
  8
0
100
AcDbVertex
100
AcDb2dVertex
 10
1903.728911442689
 20
4407.061561605687
 30
0.0
  0
VERTEX
  5
C2E
330
C2A
100
AcDbEntity
  8
0
100
AcDbVertex
100
AcDb2dVertex
 10
1896.712728771689
 20
4406.959261605687
 30
0.0
  0
VERTEX
  5
C2F
330
C2A
100
AcDbEntity
  8
0
100
AcDbVertex
100
AcDb2dVertex
 10
1888.953317945185
 20
4406.856961605687
 30
0.0
  0
VERTEX
  5
C30
330
C2A
100
AcDbEntity
  8
0
100
AcDbVertex
100
AcDb2dVertex
 10
1881.003926650187
 20
4406.754661605687
 30
0.0
  0
VERTEX
  5
C31
330
C2A
100
AcDbEntity
  8
0
100
AcDbVertex
100
AcDb2dVertex
 10
1873.431348086188
 20
4406.652361605686
 30
0.0
  0
SEQEND
  5
C32
330
C2A
100
AcDbEntity
  8
0
  0
POLYLINE
  5
C33
330
1F
100
AcDbEntity
  8
0
100
AcDb2dPolyline
 66
     1
 10
0.0
 20
0.0
 30
0.0
  0
VERTEX
  5
C34
330
C33
100
AcDbEntity
  8
0
100
AcDbVertex
100
AcDb2dVertex
 10
1913.619230855186
 20
4407.466161605687
 30
0.0
  0
VERTEX
  5
C35
330
C33
100
AcDbEntity
  8
0
100
AcDbVertex
100
AcDb2dVertex
 10
1909.501610460188
 20
4407.363861605687
 30
0.0
  0
VERTEX
  5
C36
330
C33
100
AcDbEntity
  8
0
100
AcDbVertex
100
AcDb2dVertex
 10
1903.728911442689
 20
4407.261561605687
 30
0.0
  0
VERTEX
  5
C37
330
C33
100
AcDbEntity
  8
0
100
AcDbVertex
100
AcDb2dVertex
 10
1896.712728771689
 20
4407.159261605687
 30
0.0
  0
VERTEX
  5
C38
330
C33
100
AcDbEntity
  8
0
100
AcDbVertex
100
AcDb2dVertex
 10
1888.953317945185
 20
4407.056961605687
 30
0.0
  0
VERTEX
  5
C39
330
C33
100
AcDbEntity
  8
0
100
AcDbVertex
100
AcDb2dVertex
 10
1881.003926650187
 20
4406.954661605687
 30
0.0
  0
VERTEX
  5
C3A
330
C33
100
AcDbEntity
  8
0
100
AcDbVertex
100
AcDb2dVertex
 10
1873.431348086188
 20
4406.852361605687
 30
0.0
  0
SEQEND
  5
C3B
330
C33
100
AcDbEntity
  8
0
  0
POLYLINE
  5
C3C
330
1F
100
AcDbEntity
  8
0
100
AcDb2dPolyline
 66
     1
 10
0.0
 20
0.0
 30
0.0
  0
VERTEX
  5
C3D
330
C3C
100
AcDbEntity
  8
0
100
AcDbVertex
100
AcDb2dVertex
 10
1913.361284467187
 20
4402.458061605186
 30
0.0
  0
VERTEX
  5
C3E
330
C3C
100
AcDbEntity
  8
0
100
AcDbVertex
100
AcDb2dVertex
 10
1909.100241485189
 20
4402.355761605187
 30
0.0
  0
VERTEX
  5
C3F
330
C3C
100
AcDbEntity
  8
0
100
AcDbVertex
100
AcDb2dVertex
 10
1903.212735172189
 20
4402.253461605186
 30
0.0
  0
VERTEX
  5
C40
330
C3C
100
AcDbEntity
  8
0
100
AcDbVertex
100
AcDb2dVertex
 10
1896.118546217188
 20
4402.151161605186
 30
0.0
  0
VERTEX
  5
C41
330
C3C
100
AcDbEntity
  8
0
100
AcDbVertex
100
AcDb2dVertex
 10
1888.323492339189
 20
4402.048861605186
 30
0.0
  0
VERTEX
  5
C42
330
C3C
100
AcDbEntity
  8
0
100
AcDbVertex
100
AcDb2dVertex
 10
1880.383363374686
 20
4401.946561605186
 30
0.0
  0
VERTEX
  5
C43
330
C3C
100
AcDbEntity
  8
0
100
AcDbVertex
100
AcDb2dVertex
 10
1872.864293304187
 20
4401.844261605186
 30
0.0
  0
VERTEX
  5
C44
330
C3C
100
AcDbEntity
  8
0
100
AcDbVertex
100
AcDb2dVertex
 10
1866.302394711189
 20
4401.741961605186
 30
0.0
  0
VERTEX
  5
C45
330
C3C
100
AcDbEntity
  8
0
100
AcDbVertex
100
AcDb2dVertex
 10
1861.165533743186
 20
4401.639661605186
 30
0.0
  0
SEQEND
  5
C46
330
C3C
100
AcDbEntity
  8
0
  0
POLYLINE
  5
C47
330
1F
100
AcDbEntity
  8
0
100
AcDb2dPolyline
 66
     1
 10
0.0
 20
0.0
 30
0.0
  0
VERTEX
  5
C48
330
C47
100
AcDbEntity
  8
0
100
AcDbVertex
100
AcDb2dVertex
 10
1913.361284467187
 20
4402.658061605187
 30
0.0
  0
VERTEX
  5
C49
330
C47
100
AcDbEntity
  8
0
100
AcDbVertex
100
AcDb2dVertex
 10
1909.100241485189
 20
4402.555761605188
 30
0.0
  0
VERTEX
  5
C4A
330
C47
100
AcDbEntity
  8
0
100
AcDbVertex
100
AcDb2dVertex
 10
1903.212735172189
 20
4402.453461605187
 30
0.0
  0
VERTEX
  5
C4B
330
C47
100
AcDbEntity
  8
0
100
AcDbVertex
100
AcDb2dVertex
 10
1896.118546217188
 20
4402.351161605186
 30
0.0
  0
VERTEX
  5
C4C
330
C47
100
AcDbEntity
  8
0
100
AcDbVertex
100
AcDb2dVertex
 10
1888.323492339189
 20
4402.248861605186
 30
0.0
  0
VERTEX
  5
C4D
330
C47
100
AcDbEntity
  8
0
100
AcDbVertex
100
AcDb2dVertex
 10
1880.383363374686
 20
4402.146561605188
 30
0.0
  0
VERTEX
  5
C4E
330
C47
100
AcDbEntity
  8
0
100
AcDbVertex
100
AcDb2dVertex
 10
1872.864293304187
 20
4402.044261605186
 30
0.0
  0
VERTEX
  5
C4F
330
C47
100
AcDbEntity
  8
0
100
AcDbVertex
100
AcDb2dVertex
 10
1866.302394711189
 20
4401.941961605188
 30
0.0
  0
VERTEX
  5
C50
330
C47
100
AcDbEntity
  8
0
100
AcDbVertex
100
AcDb2dVertex
 10
1861.165533743186
 20
4401.839661605186
 30
0.0
  0
SEQEND
  5
C51
330
C47
100
AcDbEntity
  8
0
  0
POLYLINE
  5
C52
330
1F
100
AcDbEntity
  8
0
100
AcDb2dPolyline
 66
     1
 10
0.0
 20
0.0
 30
0.0
  0
VERTEX
  5
C53
330
C52
100
AcDbEntity
  8
0
100
AcDbVertex
100
AcDb2dVertex
 10
1911.950841689689
 20
4409.619061605186
 30
0.0
  0
VERTEX
  5
C54
330
C52
100
AcDbEntity
  8
0
100
AcDbVertex
100
AcDb2dVertex
 10
1907.027030385189
 20
4409.516761605186
 30
0.0
  0
VERTEX
  5
C55
330
C52
100
AcDbEntity
  8
0
100
AcDbVertex
100
AcDb2dVertex
 10
1900.624574947687
 20
4409.414461605186
 30
0.0
  0
VERTEX
  5
C56
330
C52
100
AcDbEntity
  8
0
100
AcDbVertex
100
AcDb2dVertex
 10
1893.199972480189
 20
4409.312161605186
 30
0.0
  0
VERTEX
  5
C57
330
C52
100
AcDbEntity
  8
0
100
AcDbVertex
100
AcDb2dVertex
 10
1885.282599784687
 20
4409.209861605186
 30
0.0
  0
VERTEX
  5
C58
330
C52
100
AcDbEntity
  8
0
100
AcDbVertex
100
AcDb2dVertex
 10
1877.436968637189
 20
4409.107561605187
 30
0.0
  0
SEQEND
  5
C59
330
C52
100
AcDbEntity
  8
0
  0
POLYLINE
  5
C5A
330
1F
100
AcDbEntity
  8
0
100
AcDb2dPolyline
 66
     1
 10
0.0
 20
0.0
 30
0.0
  0
VERTEX
  5
C5B
330
C5A
100
AcDbEntity
  8
0
100
AcDbVertex
100
AcDb2dVertex
 10
1911.950841689689
 20
4409.819061605187
 30
0.0
  0
VERTEX
  5
C5C
330
C5A
100
AcDbEntity
  8
0
100
AcDbVertex
100
AcDb2dVertex
 10
1907.027030385189
 20
4409.716761605187
 30
0.0
  0
VERTEX
  5
C5D
330
C5A
100
AcDbEntity
  8
0
100
AcDbVertex
100
AcDb2dVertex
 10
1900.624574947687
 20
4409.614461605187
 30
0.0
  0
VERTEX
  5
C5E
330
C5A
100
AcDbEntity
  8
0
100
AcDbVertex
100
AcDb2dVertex
 10
1893.199972480189
 20
4409.512161605188
 30
0.0
  0
VERTEX
  5
C5F
330
C5A
100
AcDbEntity
  8
0
100
AcDbVertex
100
AcDb2dVertex
 10
1885.282599784687
 20
4409.409861605187
 30
0.0
  0
VERTEX
  5
C60
330
C5A
100
AcDbEntity
  8
0
100
AcDbVertex
100
AcDb2dVertex
 10
1877.436968637189
 20
4409.307561605188
 30
0.0
  0
SEQEND
  5
C61
330
C5A
100
AcDbEntity
  8
0
  0
POLYLINE
  5
C62
330
1F
100
AcDbEntity
  8
0
100
AcDb2dPolyline
 66
     1
 10
0.0
 20
0.0
 30
0.0
  0
VERTEX
  5
C63
330
C62
100
AcDbEntity
  8
0
100
AcDbVertex
100
AcDb2dVertex
 10
1871.015009232687
 20
4407.955261605187
 30
0.0
  0
VERTEX
  5
C64
330
C62
100
AcDbEntity
  8
0
100
AcDbVertex
100
AcDb2dVertex
 10
1865.176917698186
 20
4407.851579172687
 30
0.0
  0
VERTEX
  5
C65
330
C62
100
AcDbEntity
  8
0
100
AcDbVertex
100
AcDb2dVertex
 10
1860.88481923169
 20
4407.747896740186
 30
0.0
  0
VERTEX
  5
C66
330
C62
100
AcDbEntity
  8
0
100
AcDbVertex
100
AcDb2dVertex
 10
1858.453017441689
 20
4407.644214308187
 30
0.0
  0
VERTEX
  5
C67
330
C62
100
AcDbEntity
  8
0
100
AcDbVertex
100
AcDb2dVertex
 10
1857.958797923689
 20
4407.572762045186
 30
0.0
  0
SEQEND
  5
C68
330
C62
100
AcDbEntity
  8
0
  0
POLYLINE
  5
C69
330
1F
100
AcDbEntity
  8
0
100
AcDb2dPolyline
 66
     1
 10
0.0
 20
0.0
 30
0.0
  0
VERTEX
  5
C6A
330
C69
100
AcDbEntity
  8
0
100
AcDbVertex
100
AcDb2dVertex
 10
1871.982931099187
 20
4407.870565659687
 30
0.0
  0
VERTEX
  5
C6B
330
C69
100
AcDbEntity
  8
0
100
AcDbVertex
100
AcDb2dVertex
 10
1865.950517389187
 20
4407.766883227187
 30
0.0
  0
VERTEX
  5
C6C
330
C69
100
AcDbEntity
  8
0
100
AcDbVertex
100
AcDb2dVertex
 10
1861.407441916187
 20
4407.663200794687
 30
0.0
  0
VERTEX
  5
C6D
330
C69
100
AcDbEntity
  8
0
100
AcDbVertex
100
AcDb2dVertex
 10
1858.686386240187
 20
4407.559518362687
 30
0.0
  0
SEQEND
  5
C6E
330
C69
100
AcDbEntity
  8
0
  0
POLYLINE
  5
C6F
330
1F
100
AcDbEntity
  8
0
100
AcDb2dPolyline
 66
     1
 10
0.0
 20
0.0
 30
0.0
  0
VERTEX
  5
C70
330
C6F
100
AcDbEntity
  8
0
100
AcDbVertex
100
AcDb2dVertex
 10
1870.222475898185
 20
4409.005261605186
 30
0.0
  0
VERTEX
  5
C71
330
C6F
100
AcDbEntity
  8
0
100
AcDbVertex
100
AcDb2dVertex
 10
1864.153518863188
 20
4408.902961605187
 30
0.0
  0
VERTEX
  5
C72
330
C6F
100
AcDbEntity
  8
0
100
AcDbVertex
100
AcDb2dVertex
 10
1859.662817161686
 20
4408.800661605186
 30
0.0
  0
SEQEND
  5
C73
330
C6F
100
AcDbEntity
  8
0
  0
POLYLINE
  5
C74
330
1F
100
AcDbEntity
  8
0
100
AcDb2dPolyline
 66
     1
 10
0.0
 20
0.0
 30
0.0
  0
VERTEX
  5
C75
330
C74
100
AcDbEntity
  8
0
100
AcDbVertex
100
AcDb2dVertex
 10
1870.222475898185
 20
4409.205261605187
 30
0.0
  0
VERTEX
  5
C76
330
C74
100
AcDbEntity
  8
0
100
AcDbVertex
100
AcDb2dVertex
 10
1864.153518863188
 20
4409.102961605188
 30
0.0
  0
VERTEX
  5
C77
330
C74
100
AcDbEntity
  8
0
100
AcDbVertex
100
AcDb2dVertex
 10
1859.662817161686
 20
4409.000661605187
 30
0.0
  0
SEQEND
  5
C78
330
C74
100
AcDbEntity
  8
0
  0
POLYLINE
  5
C79
330
1F
100
AcDbEntity
  8
0
100
AcDb2dPolyline
 66
     1
 10
0.0
 20
0.0
 30
0.0
  0
VERTEX
  5
C7A
330
C79
100
AcDbEntity
  8
0
100
AcDbVertex
100
AcDb2dVertex
 10
1873.431348086188
 20
4406.652361605686
 30
0.0
  0
VERTEX
  5
C7B
330
C79
100
AcDbEntity
  8
0
100
AcDbVertex
100
AcDb2dVertex
 10
1866.775508511188
 20
4406.550061605687
 30
0.0
  0
VERTEX
  5
C7C
330
C79
100
AcDbEntity
  8
0
100
AcDbVertex
100
AcDb2dVertex
 10
1861.510970419188
 20
4406.447761605687
 30
0.0
  0
VERTEX
  5
C7D
330
C79
100
AcDbEntity
  8
0
100
AcDbVertex
100
AcDb2dVertex
 10
1858.013096175687
 20
4406.345461605687
 30
0.0
  0
SEQEND
  5
C7E
330
C79
100
AcDbEntity
  8
0
  0
POLYLINE
  5
C7F
330
1F
100
AcDbEntity
  8
0
100
AcDb2dPolyline
 66
     1
 10
0.0
 20
0.0
 30
0.0
  0
VERTEX
  5
C80
330
C7F
100
AcDbEntity
  8
0
100
AcDbVertex
100
AcDb2dVertex
 10
1873.431348086188
 20
4406.852361605687
 30
0.0
  0
VERTEX
  5
C81
330
C7F
100
AcDbEntity
  8
0
100
AcDbVertex
100
AcDb2dVertex
 10
1866.775508511188
 20
4406.750061605687
 30
0.0
  0
VERTEX
  5
C82
330
C7F
100
AcDbEntity
  8
0
100
AcDbVertex
100
AcDb2dVertex
 10
1861.510970419188
 20
4406.647761605687
 30
0.0
  0
VERTEX
  5
C83
330
C7F
100
AcDbEntity
  8
0
100
AcDbVertex
100
AcDb2dVertex
 10
1858.013096175687
 20
4406.545461605687
 30
0.0
  0
SEQEND
  5
C84
330
C7F
100
AcDbEntity
  8
0
  0
POLYLINE
  5
C85
330
1F
100
AcDbEntity
  8
0
100
AcDb2dPolyline
 66
     1
 10
0.0
 20
0.0
 30
0.0
  0
VERTEX
  5
C86
330
C85
100
AcDbEntity
  8
0
100
AcDbVertex
100
AcDb2dVertex
 10
1879.062939697188
 20
4405.674248092187
 30
0.0
  0
VERTEX
  5
C87
330
C85
100
AcDbEntity
  8
0
100
AcDbVertex
100
AcDb2dVertex
 10
1871.982931099187
 20
4405.570565659686
 30
0.0
  0
VERTEX
  5
C88
330
C85
100
AcDbEntity
  8
0
100
AcDbVertex
100
AcDb2dVertex
 10
1865.950517389187
 20
4405.466883227187
 30
0.0
  0
VERTEX
  5
C89
330
C85
100
AcDbEntity
  8
0
100
AcDbVertex
100
AcDb2dVertex
 10
1861.407441916187
 20
4405.363200794687
 30
0.0
  0
VERTEX
  5
C8A
330
C85
100
AcDbEntity
  8
0
100
AcDbVertex
100
AcDb2dVertex
 10
1858.686386240187
 20
4405.259518362687
 30
0.0
  0
SEQEND
  5
C8B
330
C85
100
AcDbEntity
  8
0
  0
LINE
  5
C8C
330
1F
100
AcDbEntity
  8
0
100
AcDbLine
 10
1879.062939697188
 20
4407.974248092187
 30
0.0
 11
1871.982931099187
 21
4407.870565659687
 31
0.0
  0
LINE
  5
C8D
330
1F
100
AcDbEntity
  8
0
100
AcDbLine
 10
1877.436968637189
 20
4409.107561605187
 30
0.0
 11
1870.222475898185
 21
4409.005261605186
 31
0.0
  0
LINE
  5
C8E
330
1F
100
AcDbEntity
  8
0
100
AcDbLine
 10
1877.436968637189
 20
4409.307561605188
 30
0.0
 11
1870.222475898185
 21
4409.205261605187
 31
0.0
  0
LINE
  5
C8F
330
1F
100
AcDbEntity
  8
0
100
AcDbLine
 10
1896.403977889188
 20
4401.112221064687
 30
0.0
 11
1886.279325404687
 21
4400.972543357187
 31
0.0
  0
POLYLINE
  5
C90
330
1F
100
AcDbEntity
  8
0
100
AcDb2dPolyline
 66
     1
 10
0.0
 20
0.0
 30
0.0
  0
VERTEX
  5
C91
330
C90
100
AcDbEntity
  8
0
100
AcDbVertex
100
AcDb2dVertex
 10
1886.279325404687
 20
4400.972543357187
 30
0.0
  0
VERTEX
  5
C92
330
C90
100
AcDbEntity
  8
0
100
AcDbVertex
100
AcDb2dVertex
 10
1881.27893940519
 20
4400.904856199686
 30
0.0
  0
VERTEX
  5
C93
330
C90
100
AcDbEntity
  8
0
100
AcDbVertex
100
AcDb2dVertex
 10
1873.98626761819
 20
4400.801173767687
 30
0.0
  0
VERTEX
  5
C94
330
C90
100
AcDbEntity
  8
0
100
AcDbVertex
100
AcDb2dVertex
 10
1867.594491030689
 20
4400.697491335186
 30
0.0
  0
VERTEX
  5
C95
330
C90
100
AcDbEntity
  8
0
100
AcDbVertex
100
AcDb2dVertex
 10
1862.571670201188
 20
4400.593808902686
 30
0.0
  0
VERTEX
  5
C96
330
C90
100
AcDbEntity
  8
0
100
AcDbVertex
100
AcDb2dVertex
 10
1859.285619309189
 20
4400.490126470186
 30
0.0
  0
SEQEND
  5
C97
330
C90
100
AcDbEntity
  8
0
  0
LINE
  5
C98
330
1F
100
AcDbEntity
  8
0
100
AcDbLine
 10
1853.788797920689
 20
4409.766609539985
 30
0.0
 11
1918.788797920688
 21
4409.766609539985
 31
0.0
  0
INSERT
  5
C99
330
1F
100
AcDbEntity
  8
BILD
  6
AUSGEZOGEN
 62
     7
100
AcDbBlockReference
  2
storz1
 10
-4960.92446278342
 20
1957.073079327379
 30
0.0
  0
CIRCLE
  5
C9A
330
1F
100
AcDbEntity
  8
0
100
AcDbCircle
 10
1886.226002726499
 20
2076.113461987175
 30
0.0
 40
48.05788967269473
  0
CIRCLE
  5
C9B
330
1F
100
AcDbEntity
  8
0
100
AcDbCircle
 10
1886.226002726499
 20
2076.113461987175
 30
0.0
 40
75.0578896726729
  0
ENDSEC
  0
SECTION
  2
OBJECTS
  0
DICTIONARY
  5
C
330
0
100
AcDbDictionary
281
     1
  3
ACAD_COLOR
350
D7
  3
ACAD_GROUP
350
D
  3
ACAD_LAYOUT
350
1A
  3
ACAD_MATERIAL
350
D6
  3
ACAD_MLINESTYLE
350
17
  3
ACAD_PLOTSETTINGS
350
19
  3
ACAD_PLOTSTYLENAME
350
E
  3
ACAD_TABLESTYLE
350
133
  3
ACDBHEADERROUNDTRIPXREC
350
D48
  3
AcDbVariableDictionary
350
34
  3
AcmDictionary
350
49
  3
AMG
350
2B
  3
AMGSNAPSETTINGS
350
2C4
  3
DWGPROPS
350
D47
  0
DICTIONARY
  5
C0
330
2
100
AcDbDictionary
280
     1
281
     1
  3
ACAD_LAYERSTATES
360
3F8
  3
AMLAYER_GROUPCOLORS
360
C1
  0
DICTIONARY
  5
83
330
1F
100
AcDbDictionary
280
     1
281
     1
  0
DICTIONARY
  5
D7
102
{ACAD_REACTORS
330
C
102
}
330
C
100
AcDbDictionary
281
     1
  0
DICTIONARY
  5
D
102
{ACAD_REACTORS
330
C
102
}
330
C
100
AcDbDictionary
281
     1
  0
DICTIONARY
  5
1A
102
{ACAD_REACTORS
330
C
102
}
330
C
100
AcDbDictionary
281
     1
  3
Layout1
350
1E
  3
Layout2
350
26
  3
Model
350
22
  0
DICTIONARY
  5
D6
102
{ACAD_REACTORS
330
C
102
}
330
C
100
AcDbDictionary
281
     1
  0
DICTIONARY
  5
17
102
{ACAD_REACTORS
330
C
102
}
330
C
100
AcDbDictionary
281
     1
  3
Standard
350
18
  0
DICTIONARY
  5
19
102
{ACAD_REACTORS
330
C
102
}
330
C
100
AcDbDictionary
281
     1
  0
ACDBDICTIONARYWDFLT
  5
E
102
{ACAD_REACTORS
330
C
102
}
330
C
100
AcDbDictionary
281
     1
  3
Normal
350
F
100
AcDbDictionaryWithDefault
340
F
  0
DICTIONARY
  5
133
102
{ACAD_REACTORS
330
C
102
}
330
C
100
AcDbDictionary
281
     1
  3
Standard
350
134
  0
DICTIONARY
  5
D48
102
{ACAD_REACTORS
330
C
102
}
330
C
100
AcDbDictionary
281
     1
  0
DICTIONARY
  5
34
102
{ACAD_REACTORS
330
C
102
}
330
C
100
AcDbDictionary
281
     1
  3
CTABLESTYLE
350
152
  3
DIMASSOC
350
AD
  3
INDEXCTL
350
35
  3
PROJECTNAME
350
D45
  0
DICTIONARY
  5
49
102
{ACAD_REACTORS
330
C
102
}
330
C
100
AcDbDictionary
281
     1
  3
AcmBOM
350
2CB
  3
AcmStdDictionary
350
4A
  3
AMDTSECTSYM_ARROWCOLOR
350
13D
  0
DICTIONARY
  5
2B
102
{ACAD_REACTORS
330
C
102
}
330
C
100
AcDbDictionary
281
     1
  0
DICTIONARY
  5
2C4
102
{ACAD_REACTORS
330
C
102
}
330
C
100
AcDbDictionary
281
     1
  0
XRECORD
  5
D47
102
{ACAD_REACTORS
330
C
102
}
330
C
100
AcDbXrecord
280
     1
  1
DWGPROPS COOKIE
  2

  3

  4

  6

  7

  8

  9

300
AmdtFileType=84
301
=
302
=
303
=
304
=
305
=
306
=
307
=
308
=
309
=
 40
0.0002835648148148
 41
2454026.559888415
 42
2454026.560171794
  1

 90
        1
  0
DICTIONARY
  5
3F8
102
{ACAD_REACTORS
330
C0
102
}
330
C0
100
AcDbDictionary
281
     1
  0
DICTIONARY
  5
C1
102
{ACAD_REACTORS
330
C0
102
}
330
C0
100
AcDbDictionary
280
     1
281
     1
  0
LAYOUT
  5
1E
102
{ACAD_XDICTIONARY
360
D49
102
}
102
{ACAD_REACTORS
330
1A
102
}
330
1A
100
AcDbPlotSettings
  1

  2
none_device
  4
Letter_(8.50_x_11.00_Inches)
  6

 40
6.349999904632568
 41
6.349999904632568
 42
6.350006103515625
 43
6.350006103515625
 44
215.8999938964844
 45
279.3999938964844
 46
0.0
 47
0.0
 48
0.0
 49
0.0
140
0.0
141
0.0
142
1.0
143
1.0
 70
 15024
 72
     1
 73
     1
 74
     5
  7

 75
    16
147
1.0
148
0.0
149
0.0
100
AcDbLayout
  1
Layout1
 70
     1
 71
     1
 10
0.0
 20
0.0
 11
420.0
 21
297.0
 12
0.0
 22
0.0
 32
0.0
 14
1.000000000000000E+20
 24
1.000000000000000E+20
 34
1.000000000000000E+20
 15
-1.000000000000000E+20
 25
-1.000000000000000E+20
 35
-1.000000000000000E+20
146
0.0
 13
0.0
 23
0.0
 33
0.0
 16
1.0
 26
0.0
 36
0.0
 17
0.0
 27
1.0
 37
0.0
 76
     0
330
1B
  0
LAYOUT
  5
26
102
{ACAD_XDICTIONARY
360
D4D
102
}
102
{ACAD_REACTORS
330
1A
102
}
330
1A
100
AcDbPlotSettings
  1

  2
none_device
  4
Letter_(8.50_x_11.00_Inches)
  6

 40
6.349999904632568
 41
6.349999904632568
 42
6.350006103515625
 43
6.350006103515625
 44
215.8999938964844
 45
279.3999938964844
 46
0.0
 47
0.0
 48
0.0
 49
0.0
140
0.0
141
0.0
142
1.0
143
1.0
 70
 15024
 72
     1
 73
     1
 74
     5
  7

 75
    16
147
1.0
148
0.0
149
0.0
100
AcDbLayout
  1
Layout2
 70
     1
 71
     2
 10
0.0
 20
0.0
 11
12.0
 21
9.0
 12
0.0
 22
0.0
 32
0.0
 14
0.0
 24
0.0
 34
0.0
 15
0.0
 25
0.0
 35
0.0
146
0.0
 13
0.0
 23
0.0
 33
0.0
 16
1.0
 26
0.0
 36
0.0
 17
0.0
 27
1.0
 37
0.0
 76
     0
330
23
  0
LAYOUT
  5
22
102
{ACAD_XDICTIONARY
360
D4B
102
}
102
{ACAD_REACTORS
330
1A
102
}
330
1A
100
AcDbPlotSettings
  1

  2
none_device
  4
Letter_(8.50_x_11.00_Inches)
  6

 40
6.349999904632568
 41
6.349999904632568
 42
6.350006103515625
 43
6.350006103515625
 44
215.8999938964844
 45
279.3999938964844
 46
0.0
 47
0.0
 48
0.0
 49
0.0
140
0.0
141
0.0
142
1.0
143
1.0
 70
 11952
 72
     1
 73
     1
 74
     0
  7

 75
     0
147
1.0
148
-131.3052631578947
149
0.0
100
AcDbLayout
  1
Model
 70
     1
 71
     0
 10
0.0
 20
0.0
 11
12.0
 21
9.0
 12
0.0
 22
0.0
 32
0.0
 14
0.0
 24
0.0
 34
0.0
 15
0.0
 25
0.0
 35
0.0
146
0.0
 13
0.0
 23
0.0
 33
0.0
 16
1.0
 26
0.0
 36
0.0
 17
0.0
 27
1.0
 37
0.0
 76
     0
330
1F
  0
MLINESTYLE
  5
18
102
{ACAD_REACTORS
330
17
102
}
330
17
100
AcDbMlineStyle
  2
STANDARD
 70
     0
  3

 62
   256
 51
90.0
 52
90.0
 71
     2
 49
0.5
 62
   256
  6
BYLAYER
 49
-0.5
 62
   256
  6
BYLAYER
  0
ACDBPLACEHOLDER
  5
F
102
{ACAD_REACTORS
330
E
102
}
330
E
  0
TABLESTYLE
  5
134
102
{ACAD_REACTORS
330
133
102
}
330
133
100
AcDbTableStyle
  3
Standard
 70
     0
 71
     0
 40
1.5
 41
1.5
280
     0
281
     0
  7
STANDARD
140
4.5
170
     2
 62
     0
 63
     7
283
     0
274
    -2
284
     1
 64
     0
275
    -2
285
     1
 65
     0
276
    -2
286
     1
 66
     0
277
    -2
287
     1
 67
     0
278
    -2
288
     1
 68
     0
279
    -2
289
     1
 69
     0
  7
STANDARD
140
6.0
170
     5
 62
     0
 63
     7
283
     0
274
    -2
284
     1
 64
     0
275
    -2
285
     1
 65
     0
276
    -2
286
     1
 66
     0
277
    -2
287
     1
 67
     0
278
    -2
288
     1
 68
     0
279
    -2
289
     1
 69
     0
  7
STANDARD
140
4.5
170
     5
 62
     0
 63
     7
283
     0
274
    -2
284
     1
 64
     0
275
    -2
285
     1
 65
     0
276
    -2
286
     1
 66
     0
277
    -2
287
     1
 67
     0
278
    -2
288
     1
 68
     0
279
    -2
289
     1
 69
     0
  0
DICTIONARYVAR
  5
152
102
{ACAD_REACTORS
330
34
102
}
330
34
100
DictionaryVariables
280
     0
  1
STANDARD
  0
DICTIONARYVAR
  5
AD
102
{ACAD_REACTORS
330
34
102
}
330
34
100
DictionaryVariables
280
     0
  1
2
  0
DICTIONARYVAR
  5
35
102
{ACAD_REACTORS
330
34
102
}
330
34
100
DictionaryVariables
280
     0
  1
0
  0
DICTIONARYVAR
  5
D45
102
{ACAD_REACTORS
330
34
102
}
330
34
100
DictionaryVariables
280
     0
  1

  0
DICTIONARY
  5
2CB
102
{ACAD_REACTORS
330
49
102
}
330
49
100
AcDbDictionary
281
     1
  0
DICTIONARY
  5
4A
102
{ACAD_REACTORS
330
49
102
}
330
49
100
AcDbDictionary
281
     1
  0
XRECORD
  5
13D
102
{ACAD_REACTORS
330
49
102
}
330
49
100
AcDbXrecord
280
     1
 90
-1023410169
  0
DICTIONARY
  5
D49
330
1E
100
AcDbDictionary
280
     1
281
     1
  3
ACAD_XREC_ROUNDTRIP
360
D4A
  0
DICTIONARY
  5
D4D
330
26
100
AcDbDictionary
280
     1
281
     1
  3
ACAD_XREC_ROUNDTRIP
360
D4E
  0
DICTIONARY
  5
D4B
330
22
100
AcDbDictionary
280
     1
281
     1
  3
ACAD_XREC_ROUNDTRIP
360
D4C
  0
XRECORD
  5
D4A
102
{ACAD_REACTORS
330
D49
102
}
330
D49
100
AcDbXrecord
280
     1
102
SHADEPLOT
 70
     0
102
SHADEPLOTRESLEVEL
 70
     2
102
SHADEPLOTCUSTOMDPI
 70
   300
  0
XRECORD
  5
D4E
102
{ACAD_REACTORS
330
D4D
102
}
330
D4D
100
AcDbXrecord
280
     1
102
SHADEPLOT
 70
     0
102
SHADEPLOTRESLEVEL
 70
     2
102
SHADEPLOTCUSTOMDPI
 70
   300
  0
XRECORD
  5
D4C
102
{ACAD_REACTORS
330
D4B
102
}
330
D4B
100
AcDbXrecord
280
     1
102
SHADEPLOT
 70
     0
102
SHADEPLOTRESLEVEL
 70
     2
102
SHADEPLOTCUSTOMDPI
 70
   300
  0
ENDSEC
  0
EOF
