  0
SECTION
  2
HEADER
  9
$ACADVER
  1
AC1015
  9
$ACADMAINTVER
 70
    20
  9
$DWGCODEPAGE
  3
ANSI_1252
  9
$INSBASE
 10
0.0
 20
0.0
 30
0.0
  9
$EXTMIN
 10
1256.098311325588
 20
1072.822928282642
 30
0.0
  9
$EXTMAX
 10
4129.800770458252
 20
4325.079063039977
 30
0.0
  9
$LIMMIN
 10
0.0
 20
0.0
  9
$LIMMAX
 10
420.0
 20
297.0
  9
$ORTHOMODE
 70
     0
  9
$REGENMODE
 70
     1
  9
$FILLMODE
 70
     1
  9
$QTEXTMODE
 70
     0
  9
$MIRRTEXT
 70
     1
  9
$LTSCALE
 40
1.0
  9
$ATTMODE
 70
     1
  9
$TEXTSIZE
 40
2.5
  9
$TRACEWID
 40
1.0
  9
$TEXTSTYLE
  7
STANDARD
  9
$CLAYER
  8
0
  9
$CELTYPE
  6
ByLayer
  9
$CECOLOR
 62
   256
  9
$CELTSCALE
 40
1.0
  9
$DISPSILH
 70
     0
  9
$DIMSCALE
 40
1.0
  9
$DIMASZ
 40
2.5
  9
$DIMEXO
 40
1.0
  9
$DIMDLI
 40
10.0
  9
$DIMRND
 40
0.0
  9
$DIMDLE
 40
0.0
  9
$DIMEXE
 40
1.0
  9
$DIMTP
 40
0.1
  9
$DIMTM
 40
0.1
  9
$DIMTXT
 40
3.5
  9
$DIMCEN
 40
0.0
  9
$DIMTSZ
 40
0.0
  9
$DIMTOL
 70
     0
  9
$DIMLIM
 70
     0
  9
$DIMTIH
 70
     0
  9
$DIMTOH
 70
     0
  9
$DIMSE1
 70
     0
  9
$DIMSE2
 70
     0
  9
$DIMTAD
 70
     1
  9
$DIMZIN
 70
     8
  9
$DIMBLK
  1

  9
$DIMASO
 70
     1
  9
$DIMSHO
 70
     1
  9
$DIMPOST
  1

  9
$DIMAPOST
  1
"
  9
$DIMALT
 70
     0
  9
$DIMALTD
 70
     2
  9
$DIMALTF
 40
0.0393701
  9
$DIMLFAC
 40
1.0
  9
$DIMTOFL
 70
     1
  9
$DIMTVP
 40
0.0
  9
$DIMTIX
 70
     0
  9
$DIMSOXD
 70
     0
  9
$DIMSAH
 70
     0
  9
$DIMBLK1
  1

  9
$DIMBLK2
  1

  9
$DIMSTYLE
  2
AM_DIN
  9
$DIMCLRD
 70
   256
  9
$DIMCLRE
 70
   256
  9
$DIMCLRT
 70
     2
  9
$DIMTFAC
 40
0.71
  9
$DIMGAP
 40
1.5
  9
$DIMJUST
 70
     0
  9
$DIMSD1
 70
     0
  9
$DIMSD2
 70
     0
  9
$DIMTOLJ
 70
     0
  9
$DIMTZIN
 70
     8
  9
$DIMALTZ
 70
     0
  9
$DIMALTTZ
 70
     0
  9
$DIMUPT
 70
     0
  9
$DIMDEC
 70
     2
  9
$DIMTDEC
 70
     3
  9
$DIMALTU
 70
     2
  9
$DIMALTTD
 70
     4
  9
$DIMTXSTY
  7
STANDARD
  9
$DIMAUNIT
 70
     0
  9
$DIMADEC
 70
     0
  9
$DIMALTRND
 40
0.0
  9
$DIMAZIN
 70
     2
  9
$DIMDSEP
 70
    46
  9
$DIMATFIT
 70
     3
  9
$DIMFRAC
 70
     0
  9
$DIMLDRBLK
  1

  9
$DIMLUNIT
 70
     2
  9
$DIMLWD
 70
    -1
  9
$DIMLWE
 70
    -1
  9
$DIMTMOVE
 70
     0
  9
$LUNITS
 70
     2
  9
$LUPREC
 70
     2
  9
$SKETCHINC
 40
1.0
  9
$FILLETRAD
 40
2.5
  9
$AUNITS
 70
     0
  9
$AUPREC
 70
     0
  9
$MENU
  1
.
  9
$ELEVATION
 40
0.0
  9
$PELEVATION
 40
0.0
  9
$THICKNESS
 40
0.0
  9
$LIMCHECK
 70
     0
  9
$CHAMFERA
 40
2.5
  9
$CHAMFERB
 40
2.5
  9
$CHAMFERC
 40
20.0
  9
$CHAMFERD
 40
0.0
  9
$SKPOLY
 70
     0
  9
$TDCREATE
 40
2454026.528035660
  9
$TDUCREATE
 40
2454026.444702326
  9
$TDUPDATE
 40
2454026.528226088
  9
$TDUUPDATE
 40
2454026.444892755
  9
$TDINDWG
 40
0.0001907870
  9
$TDUSRTIMER
 40
0.0001907870
  9
$USRTIMER
 70
     1
  9
$ANGBASE
 50
0.0
  9
$ANGDIR
 70
     0
  9
$PDMODE
 70
     0
  9
$PDSIZE
 40
0.0
  9
$PLINEWID
 40
0.0
  9
$SPLFRAME
 70
     0
  9
$SPLINETYPE
 70
     6
  9
$SPLINESEGS
 70
     8
  9
$HANDSEED
  5
10F2
  9
$SURFTAB1
 70
     6
  9
$SURFTAB2
 70
     6
  9
$SURFTYPE
 70
     6
  9
$SURFU
 70
     6
  9
$SURFV
 70
     6
  9
$UCSBASE
  2

  9
$UCSNAME
  2

  9
$UCSORG
 10
0.0
 20
0.0
 30
0.0
  9
$UCSXDIR
 10
1.0
 20
0.0
 30
0.0
  9
$UCSYDIR
 10
0.0
 20
1.0
 30
0.0
  9
$UCSORTHOREF
  2

  9
$UCSORTHOVIEW
 70
     0
  9
$UCSORGTOP
 10
0.0
 20
0.0
 30
0.0
  9
$UCSORGBOTTOM
 10
0.0
 20
0.0
 30
0.0
  9
$UCSORGLEFT
 10
0.0
 20
0.0
 30
0.0
  9
$UCSORGRIGHT
 10
0.0
 20
0.0
 30
0.0
  9
$UCSORGFRONT
 10
0.0
 20
0.0
 30
0.0
  9
$UCSORGBACK
 10
0.0
 20
0.0
 30
0.0
  9
$PUCSBASE
  2

  9
$PUCSNAME
  2

  9
$PUCSORG
 10
0.0
 20
0.0
 30
0.0
  9
$PUCSXDIR
 10
1.0
 20
0.0
 30
0.0
  9
$PUCSYDIR
 10
0.0
 20
1.0
 30
0.0
  9
$PUCSORTHOREF
  2

  9
$PUCSORTHOVIEW
 70
     0
  9
$PUCSORGTOP
 10
0.0
 20
0.0
 30
0.0
  9
$PUCSORGBOTTOM
 10
0.0
 20
0.0
 30
0.0
  9
$PUCSORGLEFT
 10
0.0
 20
0.0
 30
0.0
  9
$PUCSORGRIGHT
 10
0.0
 20
0.0
 30
0.0
  9
$PUCSORGFRONT
 10
0.0
 20
0.0
 30
0.0
  9
$PUCSORGBACK
 10
0.0
 20
0.0
 30
0.0
  9
$USERI1
 70
     0
  9
$USERI2
 70
     0
  9
$USERI3
 70
     0
  9
$USERI4
 70
     0
  9
$USERI5
 70
     0
  9
$USERR1
 40
0.0
  9
$USERR2
 40
0.0
  9
$USERR3
 40
0.0
  9
$USERR4
 40
0.0
  9
$USERR5
 40
0.0
  9
$WORLDVIEW
 70
     1
  9
$SHADEDGE
 70
     3
  9
$SHADEDIF
 70
    70
  9
$TILEMODE
 70
     1
  9
$MAXACTVP
 70
    64
  9
$PINSBASE
 10
0.0
 20
0.0
 30
0.0
  9
$PLIMCHECK
 70
     0
  9
$PEXTMIN
 10
1.000000000000000E+20
 20
1.000000000000000E+20
 30
1.000000000000000E+20
  9
$PEXTMAX
 10
-1.000000000000000E+20
 20
-1.000000000000000E+20
 30
-1.000000000000000E+20
  9
$PLIMMIN
 10
0.0
 20
0.0
  9
$PLIMMAX
 10
420.0
 20
297.0
  9
$UNITMODE
 70
     0
  9
$VISRETAIN
 70
     1
  9
$PLINEGEN
 70
     0
  9
$PSLTSCALE
 70
     1
  9
$TREEDEPTH
 70
  3020
  9
$CMLSTYLE
  2
Standard
  9
$CMLJUST
 70
     0
  9
$CMLSCALE
 40
20.0
  9
$PROXYGRAPHICS
 70
     1
  9
$MEASUREMENT
 70
     1
  9
$CELWEIGHT
370
    -1
  9
$ENDCAPS
280
     0
  9
$JOINSTYLE
280
     0
  9
$LWDISPLAY
290
     0
  9
$INSUNITS
 70
     4
  9
$HYPERLINKBASE
  1

  9
$STYLESHEET
  1

  9
$XEDIT
290
     1
  9
$CEPSNTYPE
380
     0
  9
$PSTYLEMODE
290
     1
  9
$FINGERPRINTGUID
  2
{0C66EBFE-85BC-4FE5-9C76-27BD88ECE2BA}
  9
$VERSIONGUID
  2
{35E97EDC-0C4B-4C0A-9CD0-1C83B513E0AF}
  9
$EXTNAMES
290
     1
  9
$PSVPSCALE
 40
0.0
  9
$OLESTARTUP
290
     0
  0
ENDSEC
  0
SECTION
  2
CLASSES
  0
CLASS
  1
ACDBDICTIONARYWDFLT
  2
AcDbDictionaryWithDefault
  3
ObjectDBX Classes
 90
        0
280
     0
281
     0
  0
CLASS
  1
ACDBPLACEHOLDER
  2
AcDbPlaceHolder
  3
ObjectDBX Classes
 90
        0
280
     0
281
     0
  0
CLASS
  1
LAYOUT
  2
AcDbLayout
  3
ObjectDBX Classes
 90
        0
280
     0
281
     0
  0
CLASS
  1
AMGSETTINGSOBJ
  2
AmgSettingsObj
  3
"AcadM|Product Description: AutoCAD Mechanical 2000|Company: Autodesk"
 90
        0
280
     0
281
     0
  0
CLASS
  1
ACME_DOCUMENT
  2
AcMeDbDoc
  3
AcMeServices
 90
        0
280
     0
281
     0
  0
CLASS
  1
ACMESCOPE
  2
AcMeScope
  3
AcMeServices
 90
        0
280
     0
281
     0
  0
CLASS
  1
ACMECOMMANDHISTORY
  2
AcMeCommandHistory
  3
AcMeServices
 90
        0
280
     0
281
     0
  0
CLASS
  1
DICTIONARYVAR
  2
AcDbDictionaryVar
  3
ObjectDBX Classes
 90
        0
280
     0
281
     0
  0
CLASS
  1
ACIMSYSVARMAN
  2
AcImSysVarManager
  3
AcMeServices
 90
        0
280
     0
281
     0
  0
CLASS
  1
ACIMREALSYSVAR
  2
AcImRealSysVar
  3
AcMeServices
 90
        0
280
     0
281
     0
  0
CLASS
  1
ACIMINTSYSVAR
  2
AcImIntSysVar
  3
AcMeServices
 90
        0
280
     0
281
     0
  0
CLASS
  1
ACMEDRAWINGMAN
  2
AcMeDrawingMan
  3
AcMeServices
 90
        0
280
     0
281
     0
  0
CLASS
  1
ACMEVIEW
  2
AcMeView
  3
AcMeServices
 90
        0
280
     0
281
     0
  0
CLASS
  1
ACDBENTITYCACHE
  2
AcMeEntityCache
  3
AcMeServices
 90
        0
280
     0
281
     0
  0
CLASS
  1
GSMANAGER
  2
AcMeGSManager
  3
AcMeServices
 90
        0
280
     0
281
     0
  0
CLASS
  1
AMDTINTERNALREACTOR
  2
AmdtInternalReactor
  3
AcMeServices
 90
        0
280
     0
281
     0
  0
CLASS
  1
ACMESTATEMGR
  2
AcMeStateMgr
  3
AcMeServices
 90
        0
280
     0
281
     0
  0
CLASS
  1
ACGREFMASTER
  2
AcGrefMaster
  3
AcAttribServices
 90
        0
280
     0
281
     0
  0
CLASS
  1
ACME_DATABASE
  2
AcMeDbDatabase
  3
AcMeServices
 90
        0
280
     0
281
     0
  0
CLASS
  1
ACRFINSADJUSTERMGR
  2
AcRfInsAdjusterMgr
  3
AcMeServices
 90
        0
280
     0
281
     0
  0
CLASS
  1
ACGREFACADMASTER
  2
AcGrefacadMaster
  3
AcGrefServices
 90
        0
280
     0
281
     0
  0
CLASS
  1
AMIMASTER
  2
AmiMaster
  3
AmiServices
 90
        0
280
     0
281
     0
  0
CLASS
  1
ACIMSTRSYSVAR
  2
AcImStrSysVar
  3
AcMeServices
 90
        0
280
     0
281
     0
  0
CLASS
  1
ACMSTANDARDDIN
  2
AcmStandardDIN
  3
"Amdt_StdImp|Product Description: AutoCAD Mechanical 2004 DX|Company: Autodesk"
 90
        0
280
     0
281
     0
  0
CLASS
  1
AMGOBJPROPCFG
  2
AmgObjPropCfg
  3
"AmgLay|Product Description: AutoCAD Mechanical 2000|Company: Autodesk"
 90
        1
280
     0
281
     0
  0
CLASS
  1
AMDTEDGESTANDARDDIN
  2
AmdtEdgeStdDIN
  3
"Amdt_StdImp|Product Description: AutoCAD Mechanical 2004 DX|Company: Autodesk"
 90
        0
280
     0
281
     0
  0
CLASS
  1
ACMSURFSTANDARDDIN
  2
AcmSurfTextStdDIN
  3
"Amdt_StdImp|Product Description: AutoCAD Mechanical 2004 DX|Company: Autodesk"
 90
        0
280
     0
281
     0
  0
CLASS
  1
ACMFCFSTANDARDDIN
  2
AcmFCFStdDIN
  3
"Amdt_StdImp|Product Description: AutoCAD Mechanical 2004 DX|Company: Autodesk"
 90
        0
280
     0
281
     0
  0
CLASS
  1
ACMWELDSTANDARDDIN
  2
AcmWeldingStdDIN
  3
"Amdt_StdImp|Product Description: AutoCAD Mechanical 2004 DX|Company: Autodesk"
 90
        0
280
     0
281
     0
  0
CLASS
  1
ACMIDSTANDARDDIN
  2
AcmIdStdDIN
  3
"Amdt_StdImp|Product Description: AutoCAD Mechanical 2004 DX|Company: Autodesk"
 90
        0
280
     0
281
     0
  0
CLASS
  1
ACMDATUMSTANDARDDIN
  2
AcmDatumStdDIN
  3
"Amdt_StdImp|Product Description: AutoCAD Mechanical 2004 DX|Company: Autodesk"
 90
        0
280
     0
281
     0
  0
CLASS
  1
ACMBOMSTANDARDDIN
  2
AcmBOMStdDIN
  3
"Amdt_StdImp|Product Description: AutoCAD Mechanical 2004 DX|Company: Autodesk"
 90
        0
280
     0
281
     0
  0
CLASS
  1
ACMDETAILSTANDARDDIN
  2
AmdtDetailSymStdDIN
  3
"Amdt_StdImp|Product Description: AutoCAD Mechanical 2004 DX|Company: Autodesk"
 90
        0
280
     0
281
     0
  0
CLASS
  1
ACMSECTIONSTANDARDDIN
  2
AmdtSectionSymStdDIN
  3
"Amdt_StdImp|Product Description: AutoCAD Mechanical 2004 DX|Company: Autodesk"
 90
        0
280
     0
281
     0
  0
CLASS
  1
ACMCENTERLINESTANDARDDIN
  2
AmdtCenterLineStdDIN
  3
"Amdt_StdImp|Product Description: AutoCAD Mechanical 2004 DX|Company: Autodesk"
 90
        0
280
     0
281
     0
  0
CLASS
  1
ACMTHREADLINESTANDARDDIN
  2
AmdtThreadLineStdDIN
  3
"Amdt_StdImp|Product Description: AutoCAD Mechanical 2004 DX|Company: Autodesk"
 90
        0
280
     0
281
     0
  0
CLASS
  1
ACAMGLAYSTD
  2
AcAmgLayStd
  3
"AcAmgLayStd|Product Description: AutoCAD Mechanical 2000|Company: Autodesk"
 90
        0
280
     0
281
     0
  0
CLASS
  1
ACAMGDIMSTD
  2
AcAmgDimStd
  3
"AcAmgDimStd|Product Description: AutoCAD Mechanical 2000|Company: Autodesk"
 90
        0
280
     0
281
     0
  0
CLASS
  1
ACAMGTITLESTD
  2
AcAmgTitleStd
  3
"TITLEAPP"
 90
        0
280
     0
281
     0
  0
CLASS
  1
ACMDATADICTIONARY
  2
AcmDataDictionary
  3
"AcmSymBB|Product Description: AutoCAD Mechanical 2004 DX|Company: Autodesk"
 90
        0
280
     0
281
     0
  0
CLASS
  1
ACMDATAENTRYBLOCK
  2
AcmDataEntryBlock
  3
"AcmSymBB|Product Description: AutoCAD Mechanical 2004 DX|Company: Autodesk"
 90
        0
280
     0
281
     0
  0
CLASS
  1
LAYER_INDEX
  2
AcDbLayerIndex
  3
ObjectDBX Classes
 90
    32768
280
     0
281
     0
  0
CLASS
  1
IDBUFFER
  2
AcDbIdBuffer
  3
ObjectDBX Classes
 90
    32768
280
     0
281
     0
  0
CLASS
  1
ACMNOTESTANDARDDIN
  2
AmdtNoteStdDIN
  3
"Amdt_StdImp|Product Description: AutoCAD Mechanical 2004 DX|Company: Autodesk"
 90
        0
280
     0
281
     0
  0
CLASS
  1
ACAMGHOLECHARTSTDDIN
  2
AcAmgHoleChartStdDIN
  3
ACMSYMBB_MODULE_NAME
 90
        0
280
     0
281
     0
  0
CLASS
  1
AM_DRAWING_MGR
  2
AcDmDwgMgr
  3
AcMechDwgViewMgmt
 90
        0
280
     0
281
     0
  0
CLASS
  1
AM_DWG_DOCUMENT
  2
AcDmDwgDocument
  3
AcMechDwgViewMgmt
 90
        0
280
     0
281
     0
  0
CLASS
  1
AM_DWG_SHEET
  2
AcDmSheet
  3
AcMechDwgViewMgmt
 90
        0
280
     0
281
     0
  0
CLASS
  1
AM_VIEWDIMPARMAP
  2
AcDmViewDimParMap
  3
AcMechDwgViewMgmt
 90
        0
280
     0
281
     0
  0
CLASS
  1
AM_DWGMGR_NAME
  2
AcDmDwgMgrName
  3
AcMechDwgViewMgmt
 90
        0
280
     0
281
     0
  0
CLASS
  1
AMDTMENUSTATEMGR
  2
AmdtMenuStateMgr
  3
McadcomServices
 90
        0
280
     0
281
     0
  0
CLASS
  1
AMDTMCOMMENUSTATE
  2
AmdtMcomMenuState
  3
McadcomServices
 90
        0
280
     0
281
     0
  0
CLASS
  1
MAPIAMMOUDLE
  2
MApiAmModule
  3
MApiAmServices
 90
        0
280
     0
281
     0
  0
CLASS
  1
AMDTADMENUSTATE
  2
AmdtAdMenuState
  3
DesignerServices
 90
        0
280
     0
281
     0
  0
CLASS
  1
ADAPPL
  2
AcAdAppl
  3
DesignerServices
 90
        0
280
     0
281
     0
  0
CLASS
  1
DEPMGR
  2
AcAdDepMgr
  3
DesignerServices
 90
        0
280
     0
281
     0
  0
CLASS
  1
PARAMMGR
  2
AcAdParamMgr
  3
DesignerServices
 90
        0
280
     0
281
     0
  0
CLASS
  1
PARAMSCOPE
  2
AcAdParamScope
  3
DesignerServices
 90
        0
280
     0
281
     0
  0
CLASS
  1
NAMEDAPPL
  2
AcAdNamedAppl
  3
DesignerServices
 90
        0
280
     0
281
     0
  0
CLASS
  1
AMDTDMMENUSTATE
  2
AmdtDmMenuState
  3
AcMechDwgViewMgmt
 90
        0
280
     0
281
     0
  0
CLASS
  1
AMDTAMMENUSTATE
  2
AmdtAmMenuState
  3
DesignerAssemblies
 90
        0
280
     0
281
     0
  0
CLASS
  1
ACAMPROJECT
  2
AcAmProject
  3
DesignerAssemblies
 90
        0
280
     0
281
     0
  0
CLASS
  1
ACAMGRCOMPDEF
  2
AcAmGrCompDef
  3
DesignerAssemblies
 90
        0
280
     0
281
     0
  0
CLASS
  1
ACCMCONTEXT
  2
AcCmContext
  3
DesignerAssemblies
 90
        0
280
     0
281
     0
  0
CLASS
  1
ACAMCOMPDEF
  2
AcAmCompDef
  3
DesignerAssemblies
 90
        0
280
     0
281
     0
  0
CLASS
  1
ACAMCOMPDEFMGR
  2
AcAmCompDefMgr
  3
DesignerAssemblies
 90
        0
280
     0
281
     0
  0
CLASS
  1
AMCONTEXTMGR
  2
AcAmContextMgr
  3
DesignerAssemblies
 90
        0
280
     0
281
     0
  0
CLASS
  1
ACAMCONTEXTMODELER
  2
AcAmContextModeler
  3
DesignerAssemblies
 90
        0
280
     0
281
     0
  0
CLASS
  1
CATALOGSTATE
  2
AcAmCatalogState
  3
DesignerAssemblies
 90
        0
280
     0
281
     0
  0
CLASS
  1
ACAMGRCOMPDEFSET
  2
AcAmGrCompDefSet
  3
DesignerAssemblies
 90
        0
280
     0
281
     0
  0
CLASS
  1
AMDTBROWSERDBTAB
  2
AmdtBrowserDbTab
  3
McadcomServices
 90
        0
280
     0
281
     0
  0
CLASS
  1
CBROWSERAPPOBJECT
  2
CBrowserAppObject
  3
McadcomServices
 90
        0
280
     0
281
     0
  0
CLASS
  1
DM_PLACEHOLDER
  2
AcDmSelsetPlaceholder
  3
AcMechDwgViewMgmt
 90
        0
280
     0
281
     0
  0
CLASS
  1
TABLESTYLE
  2
AcDbTableStyle
  3
ObjectDBX Classes
 90
     2047
280
     0
281
     0
  0
CLASS
  1
VAACXREFPANELOBJECT
  2
VaAcXREFPanelObject
  3
VAAC_ADDIN
 90
    32768
280
     0
281
     0
  0
CLASS
  1
VAACIMAGEINVENTORY
  2
VaAcImageInventory
  3
VAAC_ADDIN
 90
    32768
280
     0
281
     0
  0
CLASS
  1
AMDTNOTETEMPLATEDB
  2
AmdtNoteTemplateDB
  3
AMDT_STDIMP_MODULE_NAME
 90
        0
280
     0
281
     0
  0
CLASS
  1
ACAMGFILTERDAT
  2
AcAmgFilterDat
  3
"AcadM|Product Description: AutoCAD Mechanical 2000|Company: Autodesk"
 90
        0
280
     0
281
     0
  0
CLASS
  1
ACMBOM
  2
AcmBom
  3
"AcmSymBB|Product Description: AutoCAD Mechanical 2004 DX|Company: Autodesk"
 90
    32768
280
     0
281
     0
  0
CLASS
  1
AMDTFORMULAUPDATEDISPATCHER
  2
AmdtFormulaUpdateDispatcher
  3
AcMeServices
 90
    32768
280
     0
281
     0
  0
CLASS
  1
SORTENTSTABLE
  2
AcDbSortentsTable
  3
ObjectDBX Classes
 90
        0
280
     0
281
     0
  0
CLASS
  1
ACRFATTGENMGR
  2
AcRfAttGeneralMgr
  3
AcAttribServices
 90
        0
280
     0
281
     0
  0
ENDSEC
  0
SECTION
  2
TABLES
  0
TABLE
  2
VPORT
  5
8
330
0
100
AcDbSymbolTable
 70
     3
  0
VPORT
  5
10E9
330
8
100
AcDbSymbolTableRecord
100
AcDbViewportTableRecord
  2
*Active
 70
     0
 10
0.0
 20
0.0
 11
1.0
 21
1.0
 12
2692.94954089192
 22
2698.950995661309
 13
0.0
 23
0.0
 14
2.5
 24
2.5
 15
10.0
 25
10.0
 16
0.0
 26
0.0
 36
1.0
 17
0.0
 27
0.0
 37
0.0
 40
3274.230838370561
 41
1.378804960541149
 42
50.0
 43
0.0
 44
0.0
 50
0.0
 51
0.0
 71
     0
 72
   100
 73
     1
 74
     3
 75
     0
 76
     0
 77
     0
 78
     0
281
     0
 65
     1
110
0.0
120
0.0
130
0.0
111
1.0
121
0.0
131
0.0
112
0.0
122
1.0
132
0.0
 79
     0
146
0.0
  0
ENDTAB
  0
TABLE
  2
LTYPE
  5
5
330
0
100
AcDbSymbolTable
 70
    22
  0
LTYPE
  5
14
330
5
100
AcDbSymbolTableRecord
100
AcDbLinetypeTableRecord
  2
ByBlock
 70
     0
  3

 72
    65
 73
     0
 40
0.0
  0
LTYPE
  5
15
330
5
100
AcDbSymbolTableRecord
100
AcDbLinetypeTableRecord
  2
ByLayer
 70
     0
  3

 72
    65
 73
     0
 40
0.0
  0
LTYPE
  5
16
330
5
100
AcDbSymbolTableRecord
100
AcDbLinetypeTableRecord
  2
Continuous
 70
     0
  3
Solid line
 72
    65
 73
     0
 40
0.0
  0
LTYPE
  5
50
330
5
100
AcDbSymbolTableRecord
100
AcDbLinetypeTableRecord
  2
Amconstr
 70
     0
  3
_______________________
 72
    65
 73
     2
 40
9999.0
 49
9999.0
 74
     0
 49
0.0
 74
     0
  0
LTYPE
  5
55
330
5
100
AcDbSymbolTableRecord
100
AcDbLinetypeTableRecord
  2
Amzigzag
 70
     0
  3
/\/-/\/-/\/-/\/-/\/-/\/
 72
    65
 73
     2
 40
11.0001
 49
0.0001
 74
     4
 75
   136
340
285
 46
0.04
 50
0.0
 44
0.0
 45
0.0
 49
-11.0
 74
     0
  0
LTYPE
  5
56
330
5
100
AcDbSymbolTableRecord
100
AcDbLinetypeTableRecord
  2
AM_DIN_F_W050
 70
     0
  3
__ __ __ __ __ __ __ __ __ __ __ __ __ __ __
 72
    65
 73
     2
 40
6.25
 49
4.75
 74
     0
 49
-1.5
 74
     0
  0
LTYPE
  5
57
330
5
100
AcDbSymbolTableRecord
100
AcDbLinetypeTableRecord
  2
AM_DIN_G_W050
 70
     0
  3
____ . ____ . ____ . ____ . ____ . ____ . ____
 72
    65
 73
     4
 40
13.75
 49
9.75
 74
     0
 49
-1.5
 74
     0
 49
1.0
 74
     0
 49
-1.5
 74
     0
  0
LTYPE
  5
58
330
5
100
AcDbSymbolTableRecord
100
AcDbLinetypeTableRecord
  2
AM_DIN_K_W050
 70
     0
  3
_____ . . _____ . . _____ . . ____ .. ____
 72
    65
 73
     6
 40
16.25
 49
9.75
 74
     0
 49
-1.5
 74
     0
 49
1.0
 74
     0
 49
-1.5
 74
     0
 49
1.0
 74
     0
 49
-1.5
 74
     0
  0
LTYPE
  5
59
330
5
100
AcDbSymbolTableRecord
100
AcDbLinetypeTableRecord
  2
AM_DIN_G_W050x2
 70
     0
  3
__ . __ . __ . __ . __ . __
 72
    65
 73
     4
 40
6.875
 49
4.75
 74
     0
 49
-0.875
 74
     0
 49
0.375
 74
     0
 49
-0.875
 74
     0
  0
LTYPE
  5
5A
330
5
100
AcDbSymbolTableRecord
100
AcDbLinetypeTableRecord
  2
AM_DIN_F_W050x2
 70
     0
  3
 _ _ _ _ _ _ _ _ _ _ _ _
 72
    65
 73
     2
 40
3.125
 49
2.25
 74
     0
 49
-0.875
 74
     0
  0
LTYPE
  5
68
330
5
100
AcDbSymbolTableRecord
100
AcDbLinetypeTableRecord
  2
ACDINWELD
 70
     0
  3
_ _ _ _ _
 72
    65
 73
     2
 40
2.0
 49
2.0
 74
     0
 49
-1.0
 74
     0
  0
LTYPE
  5
69
330
5
100
AcDbSymbolTableRecord
100
AcDbLinetypeTableRecord
  2
ACDINTGB
 70
     0
  3
__ . . __ . .
 72
    65
 73
     6
 40
9.0
 49
4.0
 74
     0
 49
-1.0
 74
     0
 49
1.0
 74
     0
 49
-1.0
 74
     0
 49
1.0
 74
     0
 49
-1.0
 74
     0
  0
LTYPE
  5
6A
330
5
100
AcDbSymbolTableRecord
100
AcDbLinetypeTableRecord
  2
ACDINTGL
 70
     0
  3
_ _ _ _ _
 72
    65
 73
     2
 40
3.0
 49
2.0
 74
     0
 49
-1.0
 74
     0
  0
LTYPE
  5
6C
330
5
100
AcDbSymbolTableRecord
100
AcDbLinetypeTableRecord
  2
CENTER
 70
     0
  3
__ . __
 72
    65
 73
     4
 40
7.0
 49
4.0
 74
     0
 49
-1.0
 74
     0
 49
1.0
 74
     0
 49
-1.0
 74
     0
  0
LTYPE
  5
F2
330
5
100
AcDbSymbolTableRecord
100
AcDbLinetypeTableRecord
  2
HIDDEN
 70
     0
  3
Hidden __ __ __ __ __ __ __ __ __ __ __ __ __ _
 72
    65
 73
     2
 40
9.524999999999998
 49
6.349999999999999
 74
     0
 49
-3.174999999999999
 74
     0
  0
LTYPE
  5
F3
330
5
100
AcDbSymbolTableRecord
100
AcDbLinetypeTableRecord
  2
PHANTOM2
 70
     0
  3
Phantom (.5x) ___ _ _ ___ _ _ ___ _ _ ___ _ _
 72
    65
 73
     6
 40
31.75
 49
15.875
 74
     0
 49
-3.174999999999999
 74
     0
 49
3.174999999999999
 74
     0
 49
-3.174999999999999
 74
     0
 49
3.174999999999999
 74
     0
 49
-3.174999999999999
 74
     0
  0
LTYPE
  5
3B5
330
5
100
AcDbSymbolTableRecord
100
AcDbLinetypeTableRecord
  2
VERDECKT
 70
     0
  3
Verdeckt __ __ __ __ __ __ __ _
 72
    65
 73
     2
 40
9.525
 49
6.349999999999999
 74
     0
 49
-3.174999999999999
 74
     0
  0
LTYPE
  5
3B6
330
5
100
AcDbSymbolTableRecord
100
AcDbLinetypeTableRecord
  2
AUSGEZOGEN
 70
     0
  3
_______________________________________________
 72
    65
 73
     0
 40
0.0
  0
ENDTAB
  0
TABLE
  2
LAYER
  5
2
102
{ACAD_XDICTIONARY
360
C0
102
}
330
0
100
AcDbSymbolTable
 70
    12
  0
LAYER
  5
10
330
2
100
AcDbSymbolTableRecord
100
AcDbLayerTableRecord
  2
0
 70
     0
 62
     7
  6
Continuous
370
    -3
390
F
  0
LAYER
  5
3B7
330
2
100
AcDbSymbolTableRecord
100
AcDbLayerTableRecord
  2
AM_7
 70
     0
 62
     4
  6
AM_DIN_G_W050
370
    25
390
F
  0
LAYER
  5
3B8
330
2
100
AcDbSymbolTableRecord
100
AcDbLayerTableRecord
  2
DEFPOINTS
 70
     0
 62
     7
  6
Continuous
290
     0
370
    -3
390
F
  0
LAYER
  5
3B9
330
2
100
AcDbSymbolTableRecord
100
AcDbLayerTableRecord
  2
BILD
 70
     0
 62
     7
  6
Continuous
370
    -3
390
F
  0
LAYER
  5
3BA
330
2
100
AcDbSymbolTableRecord
100
AcDbLayerTableRecord
  2
TEXT
 70
     0
 62
     7
  6
Continuous
370
    -3
390
F
  0
LAYER
  5
3BB
330
2
100
AcDbSymbolTableRecord
100
AcDbLayerTableRecord
  2
406
 70
     0
 62
     7
  6
Continuous
370
    -3
390
F
  0
LAYER
  5
3BC
330
2
100
AcDbSymbolTableRecord
100
AcDbLayerTableRecord
  2
AM_5
 70
     0
 62
     3
  6
Continuous
370
    25
390
F
  0
LAYER
  5
3BD
330
2
100
AcDbSymbolTableRecord
100
AcDbLayerTableRecord
  2
AM_4
 70
     0
 62
     3
  6
Continuous
370
    25
390
F
  0
LAYER
  5
3BE
330
2
100
AcDbSymbolTableRecord
100
AcDbLayerTableRecord
  2
AM_6
 70
     0
 62
     2
  6
Continuous
370
    35
390
F
  0
LAYER
  5
3BF
330
2
100
AcDbSymbolTableRecord
100
AcDbLayerTableRecord
  2
AM_8
 70
     0
 62
     1
  6
Continuous
370
    25
390
F
  0
LAYER
  5
3C0
330
2
100
AcDbSymbolTableRecord
100
AcDbLayerTableRecord
  2
DEFAULT_1
 70
     0
 62
     7
  6
CENTER
370
    -3
390
F
  0
ENDTAB
  0
TABLE
  2
STYLE
  5
3
330
0
100
AcDbSymbolTable
 70
     8
  0
STYLE
  5
11
330
3
100
AcDbSymbolTableRecord
100
AcDbTextStyleTableRecord
  2
STANDARD
 70
     0
 40
0.0
 41
1.0
 50
0.0
 71
     0
 42
2.5
  3
ISOCP.SHX
  4
bigfont.shx
  0
STYLE
  5
5B
330
3
100
AcDbSymbolTableRecord
100
AcDbTextStyleTableRecord
  2
ACDINTS
 70
     0
 40
1.0
 41
1.0
 50
0.0
 71
     0
 42
2.5
  3
isocp.shx
  4
bigfont.shx
  0
STYLE
  5
67
330
3
100
AcDbSymbolTableRecord
100
AcDbTextStyleTableRecord
  2
ACDINGDT
 70
     0
 40
0.0
 41
1.0
 50
0.0
 71
     0
 42
2.5
  3
AMGDT
  4
bigfont.shx
  0
STYLE
  5
285
330
3
100
AcDbSymbolTableRecord
100
AcDbTextStyleTableRecord
  2

 70
     1
 40
0.0
 41
1.0
 50
0.0
 71
     0
 42
2.5
  3
genltshp.shx
  4

  0
ENDTAB
  0
TABLE
  2
VIEW
  5
6
330
0
100
AcDbSymbolTable
 70
     0
  0
ENDTAB
  0
TABLE
  2
UCS
  5
7
330
0
100
AcDbSymbolTable
 70
     0
  0
ENDTAB
  0
TABLE
  2
APPID
  5
9
330
0
100
AcDbSymbolTable
 70
    15
  0
APPID
  5
12
330
9
100
AcDbSymbolTableRecord
100
AcDbRegAppTableRecord
  2
ACAD
 70
     0
  0
APPID
  5
30
330
9
100
AcDbSymbolTableRecord
100
AcDbRegAppTableRecord
  2
MCAD_NO_VIS
 70
     0
  0
APPID
  5
31
330
9
100
AcDbSymbolTableRecord
100
AcDbRegAppTableRecord
  2
ACAD_TEMP_GRAPHIC
 70
     0
  0
APPID
  5
44
330
9
100
AcDbSymbolTableRecord
100
AcDbRegAppTableRecord
  2
ACATTRIBSERVICES
 70
     0
  0
APPID
  5
108
330
9
100
AcDbSymbolTableRecord
100
AcDbRegAppTableRecord
  2
AD_DRAW
 70
     0
  0
APPID
  5
126
330
9
100
AcDbSymbolTableRecord
100
AcDbRegAppTableRecord
  2
DESIGNERASSEMBLIES
 70
     0
  0
APPID
  5
12A
330
9
100
AcDbSymbolTableRecord
100
AcDbRegAppTableRecord
  2
ACADM_DIM_EDIT
 70
     0
  0
APPID
  5
12B
330
9
100
AcDbSymbolTableRecord
100
AcDbRegAppTableRecord
  2
AMDT_DM_ADJ
 70
     0
  0
APPID
  5
1A4
330
9
100
AcDbSymbolTableRecord
100
AcDbRegAppTableRecord
  2
ACAD_DSTYLE_DIMARC_LENGTH_SYMBOL
 70
     0
  0
APPID
  5
1A5
330
9
100
AcDbSymbolTableRecord
100
AcDbRegAppTableRecord
  2
ACAD_DSTYLE_DIMJOGGED_JOGANGLE_SYMBOL
 70
     0
  0
APPID
  5
22C
330
9
100
AcDbSymbolTableRecord
100
AcDbRegAppTableRecord
  2
AcAecLayerStandard
 70
     0
  0
APPID
  5
3C5
330
9
100
AcDbSymbolTableRecord
100
AcDbRegAppTableRecord
  2
GENIUS_GENODEF_13
 70
     0
  0
APPID
  5
3C6
330
9
100
AcDbSymbolTableRecord
100
AcDbRegAppTableRecord
  2
GENIUS_GENOBJ-N-CEN_13
 70
     0
  0
APPID
  5
3C7
330
9
100
AcDbSymbolTableRecord
100
AcDbRegAppTableRecord
  2
ACAD_PSEXT
 70
     0
  0
APPID
  5
3C8
330
9
100
AcDbSymbolTableRecord
100
AcDbRegAppTableRecord
  2
GENIUS_GENCEN_19
 70
     0
  0
ENDTAB
  0
TABLE
  2
DIMSTYLE
  5
A
330
0
100
AcDbSymbolTable
 70
    12
100
AcDbDimStyleTable
 71
     1
340
6F
  0
DIMSTYLE
105
6F
102
{ACAD_REACTORS
330
4B
102
}
330
A
100
AcDbSymbolTableRecord
100
AcDbDimStyleTableRecord
  2
AM_DIN
 70
     0
  4
"
 41
2.5
 42
1.0
 43
10.0
 44
1.0
 47
0.1
 48
0.1
 73
     0
 74
     0
 77
     1
 78
     8
 79
     2
140
3.5
141
0.0
143
0.0393701
146
0.71
147
1.5
172
     1
176
   256
177
   256
178
     2
271
     2
272
     3
274
     4
283
     0
284
     8
340
11
371
    -1
372
    -1
1001
ACAD_DSTYLE_DIMARC_LENGTH_SYMBOL
1070
   379
1070
     0
1001
ACAD_DSTYLE_DIMJOGGED_JOGANGLE_SYMBOL
1070
   384
1040
1.570796326794896
  0
DIMSTYLE
105
70
330
A
100
AcDbSymbolTableRecord
100
AcDbDimStyleTableRecord
  2
AM_DIN$3
 70
     0
  4
"
 41
2.5
 42
1.0
 43
10.0
 44
1.0
 47
0.1
 48
0.1
 73
     0
 77
     1
 78
     8
 79
     2
140
3.5
141
0.0
143
0.0393701
146
0.71
147
1.5
176
   256
177
   256
178
     2
271
     2
272
     3
274
     4
283
     0
284
     8
288
     1
289
     0
340
11
371
    -1
372
    -1
1001
ACAD_DSTYLE_DIMARC_LENGTH_SYMBOL
1070
   379
1070
     0
1001
ACAD_DSTYLE_DIMJOGGED_JOGANGLE_SYMBOL
1070
   384
1040
1.570796326794896
  0
DIMSTYLE
105
71
330
A
100
AcDbSymbolTableRecord
100
AcDbDimStyleTableRecord
  2
AM_DIN$4
 70
     0
  4
"
 41
2.5
 42
1.0
 43
10.0
 44
1.0
 47
0.1
 48
0.1
 73
     0
 77
     1
 78
     8
 79
     2
140
3.5
141
0.0
143
0.0393701
146
0.71
147
1.5
176
   256
177
   256
178
     2
271
     2
272
     3
274
     4
283
     0
284
     8
288
     1
289
     0
340
11
371
    -1
372
    -1
1001
ACAD_DSTYLE_DIMARC_LENGTH_SYMBOL
1070
   379
1070
     0
1001
ACAD_DSTYLE_DIMJOGGED_JOGANGLE_SYMBOL
1070
   384
1040
1.570796326794896
  0
DIMSTYLE
105
72
330
A
100
AcDbSymbolTableRecord
100
AcDbDimStyleTableRecord
  2
AM_DIN$6
 70
     0
  4
"
 41
2.5
 42
1.0
 43
10.0
 44
1.0
 47
0.1
 48
0.1
 73
     0
 74
     0
 78
     8
 79
     2
140
3.5
141
0.0
143
0.0393701
146
0.71
147
1.5
172
     1
176
   256
177
   256
178
     2
271
     2
272
     3
274
     4
283
     0
284
     8
340
11
371
    -1
372
    -1
1001
ACAD_DSTYLE_DIMARC_LENGTH_SYMBOL
1070
   379
1070
     0
1001
ACAD_DSTYLE_DIMJOGGED_JOGANGLE_SYMBOL
1070
   384
1040
1.570796326794896
  0
DIMSTYLE
105
73
330
A
100
AcDbSymbolTableRecord
100
AcDbDimStyleTableRecord
  2
AM_DIN$7
 70
     0
  4
"
 41
2.5
 42
1.0
 43
10.0
 44
1.0
 47
0.1
 48
0.1
 73
     0
 74
     0
 77
     1
 78
     8
 79
     2
140
5.0
141
0.0
143
0.0393701
146
0.71
147
1.5
172
     1
176
   256
177
   256
178
     2
271
     2
272
     3
274
     4
283
     0
284
     8
340
11
371
    -1
372
    -1
1001
ACAD_DSTYLE_DIMARC_LENGTH_SYMBOL
1070
   379
1070
     0
1001
ACAD_DSTYLE_DIMJOGGED_JOGANGLE_SYMBOL
1070
   384
1040
1.570796326794896
  0
DIMSTYLE
105
74
330
A
100
AcDbSymbolTableRecord
100
AcDbDimStyleTableRecord
  2
AM_DIN$SF
 70
     0
  4
"
 41
2.5
 42
1.0
 43
10.0
 44
1.0
 47
0.1
 48
0.1
 73
     0
 74
     0
 75
     1
 76
     1
 77
     1
 78
     8
 79
     2
140
3.5
141
0.0
143
0.0393701
146
0.71
147
1.5
172
     1
176
   256
177
   256
178
     2
271
     2
272
     3
274
     4
283
     0
284
     8
340
11
371
    -1
372
    -1
1001
ACAD_DSTYLE_DIMARC_LENGTH_SYMBOL
1070
   379
1070
     0
1001
ACAD_DSTYLE_DIMJOGGED_JOGANGLE_SYMBOL
1070
   384
1040
1.570796326794896
  0
DIMSTYLE
105
79
330
A
100
AcDbSymbolTableRecord
100
AcDbDimStyleTableRecord
  2
AM_DIN$SH
 70
     0
  4
"
 41
2.5
 42
1.0
 43
10.0
 44
1.0
 47
0.1
 48
0.1
 73
     0
 74
     0
 75
     1
 76
     1
 77
     1
 78
     8
 79
     2
140
3.5
141
0.0
143
0.0393701
144
2.0
146
0.71
147
1.5
172
     1
173
     1
176
   256
177
   256
178
     2
271
     2
272
     3
274
     4
283
     0
284
     8
340
11
343
75
371
    -1
372
    -1
1001
ACAD_DSTYLE_DIMARC_LENGTH_SYMBOL
1070
   379
1070
     0
1001
ACAD_DSTYLE_DIMJOGGED_JOGANGLE_SYMBOL
1070
   384
1040
1.570796326794896
  0
DIMSTYLE
105
3C1
330
A
100
AcDbSymbolTableRecord
100
AcDbDimStyleTableRecord
  2
AM_ISO
 70
     0
  4
"
 41
2.5
 42
1.0
 43
10.0
 44
1.0
 47
0.1
 48
0.1
 73
     0
 74
     0
 77
     1
 78
     8
 79
     2
140
3.5
141
0.0
143
0.0393701
146
0.71
147
1.5
172
     1
176
   256
177
   256
178
     2
271
     2
272
     3
274
     4
283
     0
284
     8
340
11
371
    -1
372
    -1
  0
DIMSTYLE
105
3C3
102
{ACAD_REACTORS
330
788
330
789
330
78B
330
78C
330
78D
330
78F
330
790
330
791
330
DC5
330
DC6
330
DC8
330
DC9
330
DCA
330
DCC
330
DCD
330
DCE
102
}
330
A
100
AcDbSymbolTableRecord
100
AcDbDimStyleTableRecord
  2
AM_ISO$0
 70
     0
  4
"
 41
2.5
 42
1.0
 43
10.0
 44
1.0
 47
0.1
 48
0.1
 73
     0
 74
     0
 77
     1
 78
     8
 79
     2
140
3.5
141
0.0
143
0.0393701
146
0.71
147
1.5
172
     1
176
     3
177
     3
178
     2
271
     2
272
     2
283
     0
284
     8
340
11
371
    -1
372
    -1
1001
ACAD_DSTYLE_DIMARC_LENGTH_SYMBOL
1070
   379
1070
     1
1001
ACAD_DSTYLE_DIMJOGGED_JOGANGLE_SYMBOL
1070
   384
1040
0.7853981633974483
  0
ENDTAB
  0
TABLE
  2
BLOCK_RECORD
  5
1
330
0
100
AcDbSymbolTable
 70
    26
  0
BLOCK_RECORD
  5
1F
102
{ACAD_XDICTIONARY
360
83
102
}
330
1
100
AcDbSymbolTableRecord
100
AcDbBlockTableRecord
  2
*Model_Space
340
22
  0
BLOCK_RECORD
  5
1B
330
1
100
AcDbSymbolTableRecord
100
AcDbBlockTableRecord
  2
*Paper_Space
340
1E
  0
BLOCK_RECORD
  5
23
330
1
100
AcDbSymbolTableRecord
100
AcDbBlockTableRecord
  2
*Paper_Space0
340
26
  0
BLOCK_RECORD
  5
75
330
1
100
AcDbSymbolTableRecord
100
AcDbBlockTableRecord
  2
GENAXEH
340
0
  0
BLOCK_RECORD
  5
30F
330
1
100
AcDbSymbolTableRecord
100
AcDbBlockTableRecord
  2
asver
340
0
310
2800000020000000200000000100080000000000000400000000000000000000000000000000000000000000000080000080000000808000800000008000800080800000C0C0C000C0DCC000F0CAA6000020400000206000002080000020A0000020C0000020E00000400000004020000040400000406000004080000040A0
310
000040C0000040E00000600000006020000060400000606000006080000060A0000060C0000060E00000800000008020000080400000806000008080000080A0000080C0000080E00000A0000000A0200000A0400000A0600000A0800000A0A00000A0C00000A0E00000C0000000C0200000C0400000C0600000C0800000C0
310
A00000C0C00000C0E00000E0000000E0200000E0400000E0600000E0800000E0A00000E0C00000E0E00040000000400020004000400040006000400080004000A0004000C0004000E00040200000402020004020400040206000402080004020A0004020C0004020E000404000004040200040404000404060004040800040
310
40A0004040C0004040E00040600000406020004060400040606000406080004060A0004060C0004060E00040800000408020004080400040806000408080004080A0004080C0004080E00040A0000040A0200040A0400040A0600040A0800040A0A00040A0C00040A0E00040C0000040C0200040C0400040C0600040C08000
310
40C0A00040C0C00040C0E00040E0000040E0200040E0400040E0600040E0800040E0A00040E0C00040E0E00080000000800020008000400080006000800080008000A0008000C0008000E00080200000802020008020400080206000802080008020A0008020C0008020E00080400000804020008040400080406000804080
310
008040A0008040C0008040E00080600000806020008060400080606000806080008060A0008060C0008060E00080800000808020008080400080806000808080008080A0008080C0008080E00080A0000080A0200080A0400080A0600080A0800080A0A00080A0C00080A0E00080C0000080C0200080C0400080C0600080C0
310
800080C0A00080C0C00080C0E00080E0000080E0200080E0400080E0600080E0800080E0A00080E0C00080E0E000C0000000C0002000C0004000C0006000C0008000C000A000C000C000C000E000C0200000C0202000C0204000C0206000C0208000C020A000C020C000C020E000C0400000C0402000C0404000C0406000C0
310
408000C040A000C040C000C040E000C0600000C0602000C0604000C0606000C0608000C060A000C060C000C060E000C0800000C0802000C0804000C0806000C0808000C080A000C080C000C080E000C0A00000C0A02000C0A04000C0A06000C0A08000C0A0A000C0A0C000C0A0E000C0C00000C0C02000C0C04000C0C06000
310
C0C08000C0C0A000F0FBFF00A4A0A000808080000000FF0000FF000000FFFF00FF000000FF00FF00FFFF0000FFFFFF000000000000000000000000000000000000000000000000000000000000000000000000000000000000FAFAFAFAFAFAFAFAFAFAFAFAFAFA000000000000000000000000000000000000FA0000000000
310
00000000000000FA000000000000000000000000000000000000FA00FAFAFA00000000FAFAFA00FA000000000000000000000000000000000000FAFAFAFAFAFA0000FAFAFAFAFAFA000000000000000000000000000000000000FA00FAFAFAFA000000FAFAFAFAFA000000000000000000000000000000000000FA00FAFAFA
310
00000000FAFAFA00FA000000000000000000000000000000000000FAFAFAFAFAFAFAFAFAFAFAFAFAFA000000000000000000000000000000000000FA000000000000000000000000FA000000000000000000000000000000000000FA000000000000000000000000FA000000000000000000000000000000000000FA000000
310
000000000000000000FA000000000000000000000000000000000000FA000000000000000000000000FA000000000000000000000000000000000000FA000000000000000000000000FA000000000000000000000000000000000000FA000000000000000000000000FA000000000000000000000000000000000000FA0000
310
00000000000000000000FA000000000000000000000000000000000000FA000000000000000000000000FA000000000000000000000000000000000000FA000000000000000000000000FA000000000000000000000000000000000000FA000000000000000000000000FA000000000000000000000000000000000000FA00
310
0000000000000000000000FA000000000000000000000000000000000000FA000000000000000000000000FA000000000000000000000000000000000000FA000000000000000000000000FA000000000000000000000000000000000000FA000000000000000000000000FA000000000000000000000000000000000000FA
310
000000000000000000000000FA000000000000000000000000000000000000FA000000000000000000000000FA000000000000000000000000000000000000FA000000000000000000000000FA000000000000000000000000000000000000FA000000000000000000000000FA000000000000000000000000000000000000
310
FA000000000000000000000000FA000000000000000000000000000000000000FA000000000000000000000000FA000000000000000000000000000000000000FA000000000000000000000000FA000000000000000000000000000000000000FA000000000000000000000000FA0000000000000000000000000000000000
310
00FAFAFAFAFAFAFAFAFAFAFAFAFAFA0000000000000000000000000000000000000000000000000000000000000000000000000000000000
102
{BLKREFS
331
78A
331
78E
331
DC7
331
DCB
102
}
1001
ACAD
1000
DesignCenter Data
1002
{
1070
     1
1070
     4
1002
}
  0
BLOCK_RECORD
  5
333
330
1
100
AcDbSymbolTableRecord
100
AcDbBlockTableRecord
  2
NXXXX80
340
0
102
{BLKREFS
331
6F9
331
73F
331
D36
331
D7C
102
}
  0
BLOCK_RECORD
  5
33E
330
1
100
AcDbSymbolTableRecord
100
AcDbBlockTableRecord
  2
N_GF_5
340
0
102
{BLKREFS
331
346
102
}
  0
BLOCK_RECORD
  5
343
330
1
100
AcDbSymbolTableRecord
100
AcDbBlockTableRecord
  2
NXXXX93
340
0
102
{BLKREFS
331
70C
331
752
331
D49
331
D8F
102
}
  0
BLOCK_RECORD
  5
349
330
1
100
AcDbSymbolTableRecord
100
AcDbBlockTableRecord
  2
N_GF_7
340
0
102
{BLKREFS
331
351
102
}
  0
BLOCK_RECORD
  5
34E
330
1
100
AcDbSymbolTableRecord
100
AcDbBlockTableRecord
  2
NXXXX95
340
0
102
{BLKREFS
331
71F
331
765
331
D5C
331
DA2
102
}
  0
BLOCK_RECORD
  5
103F
330
1
100
AcDbSymbolTableRecord
100
AcDbBlockTableRecord
  2
*D18
340
0
  0
BLOCK_RECORD
  5
104B
330
1
100
AcDbSymbolTableRecord
100
AcDbBlockTableRecord
  2
*D19
340
0
  0
BLOCK_RECORD
  5
1057
330
1
100
AcDbSymbolTableRecord
100
AcDbBlockTableRecord
  2
*D20
340
0
  0
BLOCK_RECORD
  5
1063
330
1
100
AcDbSymbolTableRecord
100
AcDbBlockTableRecord
  2
*D21
340
0
  0
BLOCK_RECORD
  5
106F
330
1
100
AcDbSymbolTableRecord
100
AcDbBlockTableRecord
  2
*D22
340
0
  0
BLOCK_RECORD
  5
107B
330
1
100
AcDbSymbolTableRecord
100
AcDbBlockTableRecord
  2
*D23
340
0
  0
BLOCK_RECORD
  5
1087
330
1
100
AcDbSymbolTableRecord
100
AcDbBlockTableRecord
  2
*D24
340
0
  0
BLOCK_RECORD
  5
1093
330
1
100
AcDbSymbolTableRecord
100
AcDbBlockTableRecord
  2
*D25
340
0
  0
ENDTAB
  0
ENDSEC
  0
SECTION
  2
BLOCKS
  0
BLOCK
  5
20
330
1F
100
AcDbEntity
  8
0
100
AcDbBlockBegin
  2
*Model_Space
 70
     0
 10
0.0
 20
0.0
 30
0.0
  3
*Model_Space
  1

  0
ENDBLK
  5
21
330
1F
100
AcDbEntity
  8
0
100
AcDbBlockEnd
  0
BLOCK
  5
1C
330
1B
100
AcDbEntity
 67
     1
  8
0
100
AcDbBlockBegin
  2
*Paper_Space
 70
     0
 10
0.0
 20
0.0
 30
0.0
  3
*Paper_Space
  1

  0
ENDBLK
  5
1D
330
1B
100
AcDbEntity
 67
     1
  8
0
100
AcDbBlockEnd
  0
BLOCK
  5
24
330
23
100
AcDbEntity
 67
     1
  8
0
100
AcDbBlockBegin
  2
*Paper_Space0
 70
     0
 10
0.0
 20
0.0
 30
0.0
  3
*Paper_Space0
  1

  0
ENDBLK
  5
25
330
23
100
AcDbEntity
 67
     1
  8
0
100
AcDbBlockEnd
  0
BLOCK
  5
77
330
75
100
AcDbEntity
  8
0
100
AcDbBlockBegin
  2
GENAXEH
 70
     0
 10
0.0
 20
0.0
 30
0.0
  3
GENAXEH
  1

  0
LINE
  5
76
330
75
100
AcDbEntity
  8
0
100
AcDbLine
 10
-1.0
 20
0.0
 30
0.0
 11
1.0
 21
0.0
 31
0.0
  0
ENDBLK
  5
78
330
75
100
AcDbEntity
  8
0
100
AcDbBlockEnd
  0
BLOCK
  5
310
330
30F
100
AcDbEntity
  8
0
100
AcDbBlockBegin
  2
asver
 70
     0
 10
0.0
 20
0.0
 30
0.0
  3
asver
  1

  0
LINE
  5
311
330
30F
100
AcDbEntity
  8
0
 62
     3
100
AcDbLine
 10
-20034.11803663987
 20
4945.546841299362
 30
0.0
 11
-19999.11803663987
 21
4945.546903389384
 31
0.0
  0
LINE
  5
312
330
30F
100
AcDbEntity
  8
0
 62
     3
100
AcDbLine
 10
-19999.117730789
 20
4799.340794298523
 30
0.0
 11
-20030.65038533446
 21
4799.340736807753
 31
0.0
  0
LINE
  5
313
330
30F
100
AcDbEntity
  8
0
 62
     3
100
AcDbLine
 10
-20034.11777218236
 20
4830.54684129938
 30
0.0
 11
-19964.11777218236
 21
4830.546965479428
 31
0.0
  0
LINE
  5
314
330
30F
100
AcDbEntity
  8
0
 62
     3
100
AcDbLine
 10
-20034.11777218236
 20
4830.546841299366
 30
0.0
 11
-20034.11803663987
 21
4945.546841299362
 31
0.0
  0
POINT
  5
315
330
30F
100
AcDbEntity
  8
0
 62
     3
100
AcDbPoint
 10
-20034.11777218236
 20
4830.546841299366
 30
0.0
  0
ARC
  5
316
330
30F
100
AcDbEntity
  8
0
 62
     3
100
AcDbCircle
 10
-20030.65042212854
 20
4827.079500444091
 30
0.0
 40
3.467345454545453
100
AcDbArc
 50
90.00007600002845
 51
180.000030000003
  0
ARC
  5
317
330
30F
100
AcDbEntity
  8
0
 62
     3
100
AcDbCircle
 10
-20030.65038993373
 20
4802.808082262298
 30
0.0
 40
3.467345454545453
100
AcDbArc
 50
180.000030000003
 51
270.0000760000285
  0
LINE
  5
318
330
30F
100
AcDbEntity
  8
0
 62
     3
100
AcDbLine
 10
-20034.11773538827
 20
4802.808077663041
 30
0.0
 11
-20034.11776758309
 21
4827.079495844839
 31
0.0
  0
LINE
  5
319
330
30F
100
AcDbEntity
  8
0
 62
     3
100
AcDbLine
 10
-19964.11777218236
 20
4830.546965479428
 30
0.0
 11
-19964.11803663987
 21
4945.546965479428
 31
0.0
  0
LINE
  5
31A
330
30F
100
AcDbEntity
  8
0
 62
     3
100
AcDbLine
 10
-19977.81750523331
 20
4806.49222936789
 30
0.0
 11
-19977.81752765471
 21
4823.39553845879
 31
0.0
  0
ARC
  5
31B
330
30F
100
AcDbEntity
  8
0
 62
     3
100
AcDbCircle
 10
-19967.58511303763
 20
4827.079615425631
 30
0.0
 40
3.467345454545453
100
AcDbArc
 50
0.0001220000018565
 51
90.00007600002845
  0
POINT
  5
31C
330
30F
100
AcDbEntity
  8
0
 62
     3
100
AcDbPoint
 10
-19964.11777218236
 20
4830.546965479428
 30
0.0
  0
ARC
  5
31D
330
30F
100
AcDbEntity
  8
0
 62
     3
100
AcDbCircle
 10
-19967.58508084281
 20
4802.808197243837
 30
0.0
 40
3.467345454545453
100
AcDbArc
 50
270.0
 51
0.0000760000024379
  0
LINE
  5
31E
330
30F
100
AcDbEntity
  8
0
 62
     3
100
AcDbLine
 10
-19969.3585973765
 20
4814.943954945381
 30
0.0
 11
-19974.2381736224
 21
4806.492253619516
 31
0.0
  0
LINE
  5
31F
330
30F
100
AcDbEntity
  8
0
 62
     3
100
AcDbLine
 10
-19969.35867409157
 20
4814.943993952926
 30
0.0
 11
-19974.23821944841
 21
4823.395583514457
 31
0.0
  0
LINE
  5
320
330
30F
100
AcDbEntity
  8
0
 62
     3
100
AcDbLine
 10
-19964.11773538827
 20
4802.808201843091
 30
0.0
 11
-19964.11776758309
 21
4827.079620024888
 31
0.0
  0
LINE
  5
321
330
30F
100
AcDbEntity
  8
0
 62
     3
100
AcDbLine
 10
-19983.99724581556
 20
4806.49222117078
 30
0.0
 11
-19988.87688219043
 21
4814.943968062987
 31
0.0
  0
LINE
  5
322
330
30F
100
AcDbEntity
  8
0
 62
     3
100
AcDbLine
 10
-19983.99734755254
 20
4823.395570569452
 30
0.0
 11
-19988.87682237877
 21
4814.94400837096
 31
0.0
  0
LINE
  5
323
330
30F
100
AcDbEntity
  8
0
 62
     3
100
AcDbLine
 10
-19980.41801432422
 20
4806.49222591845
 30
0.0
 11
-19980.41803674562
 21
4823.39553500934
 31
0.0
  0
LINE
  5
324
330
30F
100
AcDbEntity
  8
0
 62
     3
100
AcDbLine
 10
-19983.99738786037
 20
4823.395530261516
 30
0.0
 11
-19974.23823635166
 21
4823.395543206544
 31
0.0
  0
LINE
  5
325
330
30F
100
AcDbEntity
  8
0
 62
     3
100
AcDbLine
 10
-19983.99726531938
 20
4806.492221170746
 30
0.0
 11
-19974.23823343408
 21
4806.492234115622
 31
0.0
  0
LINE
  5
326
330
30F
100
AcDbEntity
  8
0
 62
     3
100
AcDbLine
 10
-19999.117730789
 20
4799.340794298523
 30
0.0
 11
-19967.58507624354
 21
4799.340851789295
 31
0.0
  0
CIRCLE
  5
327
330
30F
100
AcDbEntity
  8
0
 62
     3
100
AcDbCircle
 10
-19979.11775148564
 20
4814.94388218865
 30
0.0
 40
8.451635041636361
  0
LINE
  5
328
330
30F
100
AcDbEntity
  8
0
 62
     3
100
AcDbLine
 10
-19964.11803663987
 20
4945.546965479428
 30
0.0
 11
-19999.11803663987
 21
4945.546903389384
 31
0.0
  0
LINE
  5
329
330
30F
100
AcDbEntity
  8
0
 62
     3
100
AcDbLine
 10
-20020.41798242174
 20
4806.492151698106
 30
0.0
 11
-20020.41802163704
 21
4823.395460788976
 31
0.0
  0
LINE
  5
32A
330
30F
100
AcDbEntity
  8
0
 62
     3
100
AcDbLine
 10
-20028.8769210971
 20
4814.943846430745
 30
0.0
 11
-20023.99731403271
 21
4806.492162897959
 31
0.0
  0
LINE
  5
32B
330
30F
100
AcDbEntity
  8
0
 62
     3
100
AcDbLine
 10
-20028.87684438217
 20
4814.943885438569
 30
0.0
 11
-20023.99732984348
 21
4823.395492792954
 31
0.0
  0
LINE
  5
32C
330
30F
100
AcDbEntity
  8
0
 62
     3
100
AcDbLine
 10
-20014.23824183951
 20
4806.492166034975
 30
0.0
 11
-20009.35863628335
 21
4814.943930720367
 31
0.0
  0
LINE
  5
32D
330
30F
100
AcDbEntity
  8
0
 62
     3
100
AcDbLine
 10
-20014.23820173937
 20
4823.395515433906
 30
0.0
 11
-20009.35869609516
 21
4814.943971028122
 31
0.0
  0
LINE
  5
32E
330
30F
100
AcDbEntity
  8
0
 62
     3
100
AcDbLine
 10
-20017.81747333084
 20
4806.492157731236
 30
0.0
 11
-20017.81751254613
 21
4823.395466822095
 31
0.0
  0
LINE
  5
32F
330
30F
100
AcDbEntity
  8
0
 62
     3
100
AcDbLine
 10
-20014.23816143139
 20
4823.395475126116
 30
0.0
 11
-20023.99731294008
 21
4823.395452485102
 31
0.0
  0
LINE
  5
330
330
30F
100
AcDbEntity
  8
0
 62
     3
100
AcDbLine
 10
-20014.23822233568
 20
4806.492166035012
 30
0.0
 11
-20023.99725422097
 21
4806.492143394282
 31
0.0
  0
CIRCLE
  5
331
330
30F
100
AcDbEntity
  8
0
 62
     3
100
AcDbCircle
 10
-20019.11776698776
 20
4814.943809260066
 30
0.0
 40
8.451635041636359
  0
ENDBLK
  5
332
330
30F
100
AcDbEntity
  8
0
100
AcDbBlockEnd
  0
BLOCK
  5
334
330
333
100
AcDbEntity
  8
0
  6
Continuous
100
AcDbBlockBegin
  2
NXXXX80
 70
     0
 10
0.0
 20
0.0
 30
0.0
  3
NXXXX80
  1

  0
ATTDEF
  5
335
330
333
100
AcDbEntity
  8
0
  6
Continuous
 62
     7
100
AcDbText
 10
391.0630000000002
 20
1476.628
 30
0.0
 40
1.0
  1
XXXX80
100
AcDbAttributeDefinition
  3
XXXXXXXX
  2
GRUPPE
 70
     3
  0
LINE
  5
336
330
333
100
AcDbEntity
  8
TEXT
  6
Continuous
 62
     7
100
AcDbLine
 10
390.064
 20
1461.051
 30
0.0
 11
383.564
 21
1457.297999999999
 31
0.0
  0
POLYLINE
  5
337
330
333
100
AcDbEntity
  8
TEXT
  6
Continuous
 62
     7
100
AcDb2dPolyline
 66
     1
 10
0.0
 20
0.0
 30
0.0
  0
VERTEX
  5
338
330
337
100
AcDbEntity
  8
TEXT
  6
Continuous
 62
     7
100
AcDbVertex
100
AcDb2dVertex
 10
390.0630000000002
 20
1464.876
 30
0.0
  0
VERTEX
  5
339
330
337
100
AcDbEntity
  8
TEXT
  6
Continuous
 62
     7
100
AcDbVertex
100
AcDb2dVertex
 10
383.563
 20
1464.876
 30
0.0
  0
VERTEX
  5
33A
330
337
100
AcDbEntity
  8
TEXT
  6
Continuous
 62
     7
100
AcDbVertex
100
AcDb2dVertex
 10
383.563
 20
1472.298
 30
0.0
  0
VERTEX
  5
33B
330
337
100
AcDbEntity
  8
TEXT
  6
Continuous
 62
     7
100
AcDbVertex
100
AcDb2dVertex
 10
390.064
 20
1476.051
 30
0.0
  0
SEQEND
  5
33C
330
337
100
AcDbEntity
  8
TEXT
  6
Continuous
 62
     7
  0
ENDBLK
  5
33D
330
333
100
AcDbEntity
  8
AM_7
100
AcDbBlockEnd
  0
BLOCK
  5
33F
330
33E
100
AcDbEntity
  8
0
  6
Continuous
100
AcDbBlockBegin
  2
N_GF_5
 70
     0
 10
0.0
 20
0.0
 30
0.0
  3
N_GF_5
  1

  0
ATTDEF
  5
340
330
33E
100
AcDbEntity
  8
0
  6
Continuous
 62
     7
100
AcDbText
 10
528.064
 20
1508.627
 30
0.0
 40
1.0
  1
_GF_5
100
AcDbAttributeDefinition
  3
_GF_XXXX
  2
GRUPPE
 70
     3
  0
LINE
  5
341
330
33E
100
AcDbEntity
  8
TEXT
  6
Continuous
 62
     7
100
AcDbLine
 10
401.5629999999998
 20
1865.523
 30
0.0
 11
585.5629999999997
 21
1865.523
 31
0.0
  0
ENDBLK
  5
342
330
33E
100
AcDbEntity
  8
AM_7
100
AcDbBlockEnd
  0
BLOCK
  5
344
330
343
100
AcDbEntity
  8
0
  6
Continuous
100
AcDbBlockBegin
  2
NXXXX93
 70
     0
 10
0.0
 20
0.0
 30
0.0
  3
NXXXX93
  1

  0
ATTDEF
  5
345
330
343
100
AcDbEntity
  8
0
  6
VERDECKT
 62
     2
100
AcDbText
 10
788.0639999999997
 20
1793.523
 30
0.0
 40
1.0
  1
XXXX93
100
AcDbAttributeDefinition
  3
XXXXXXXX
  2
GRUPPE
 70
     3
  0
INSERT
  5
346
330
343
100
AcDbEntity
  8
0
100
AcDbBlockReference
  2
N_GF_5
 10
0.0
 20
0.0
 30
0.0
  0
LINE
  5
347
330
343
100
AcDbEntity
  8
TEXT
  6
Continuous
 62
     7
100
AcDbLine
 10
585.564
 20
1793.523
 30
0.0
 11
383.064
 21
1793.523
 31
0.0
  0
ENDBLK
  5
348
330
343
100
AcDbEntity
  8
AM_7
100
AcDbBlockEnd
  0
BLOCK
  5
34A
330
349
100
AcDbEntity
  8
0
  6
Continuous
100
AcDbBlockBegin
  2
N_GF_7
 70
     0
 10
0.0
 20
0.0
 30
0.0
  3
N_GF_7
  1

  0
ATTDEF
  5
34B
330
349
100
AcDbEntity
  8
0
  6
Continuous
 62
     7
100
AcDbText
 10
528.064
 20
1508.627
 30
0.0
 40
1.0
  1
_GF_7
100
AcDbAttributeDefinition
  3
_GF_XXXX
  2
GRUPPE
 70
     3
  0
LINE
  5
34C
330
349
100
AcDbEntity
  8
TEXT
  6
Continuous
 62
     7
100
AcDbLine
 10
769.564
 20
1865.523
 30
0.0
 11
585.564
 21
1865.523
 31
0.0
  0
ENDBLK
  5
34D
330
349
100
AcDbEntity
  8
AM_7
100
AcDbBlockEnd
  0
BLOCK
  5
34F
330
34E
100
AcDbEntity
  8
0
  6
Continuous
100
AcDbBlockBegin
  2
NXXXX95
 70
     0
 10
0.0
 20
0.0
 30
0.0
  3
NXXXX95
  1

  0
ATTDEF
  5
350
330
34E
100
AcDbEntity
  8
0
  6
VERDECKT
 62
     2
100
AcDbText
 10
383.064
 20
1793.523
 30
0.0
 40
1.0
  1
XXXX95
100
AcDbAttributeDefinition
  3
XXXXXXXX
  2
GRUPPE
 70
     3
  0
INSERT
  5
351
330
34E
100
AcDbEntity
  8
0
100
AcDbBlockReference
  2
N_GF_7
 10
0.0
 20
0.0
 30
0.0
  0
LINE
  5
352
330
34E
100
AcDbEntity
  8
TEXT
  6
Continuous
 62
     7
100
AcDbLine
 10
585.564
 20
1793.523
 30
0.0
 11
788.0639999999997
 21
1793.523
 31
0.0
  0
ENDBLK
  5
353
330
34E
100
AcDbEntity
  8
AM_7
100
AcDbBlockEnd
  0
BLOCK
  5
1049
330
103F
100
AcDbEntity
  8
0
100
AcDbBlockBegin
  2
*D18
 70
     1
 10
0.0
 20
0.0
 30
0.0
  3
*D18
  1

  0
LINE
  5
109F
330
103F
100
AcDbEntity
  8
AM_5
 62
     3
100
AcDbLine
 10
1677.082045463244
 20
3010.079063039976
 30
0.0
 11
1378.86187995072
 21
3010.079063039976
 31
0.0
  0
LINE
  5
10A0
330
103F
100
AcDbEntity
  8
AM_5
 62
     3
100
AcDbLine
 10
1554.582045463244
 20
4015.079063039975
 30
0.0
 11
1378.86187995072
 21
4015.079063039975
 31
0.0
  0
LINE
  5
10A1
330
103F
100
AcDbEntity
  8
AM_5
 62
     3
100
AcDbLine
 10
1388.86187995072
 20
3035.079063039975
 30
0.0
 11
1388.86187995072
 21
3990.079063039976
 31
0.0
  0
SOLID
  5
10A2
330
103F
100
AcDbEntity
  8
AM_5
 62
     3
100
AcDbTrace
 10
1384.695213284053
 20
3035.079063039975
 30
0.0
 11
1393.028546617387
 21
3035.079063039975
 31
0.0
 12
1388.86187995072
 22
3010.079063039976
 32
0.0
 13
1388.86187995072
 23
3010.079063039976
 33
0.0
  0
SOLID
  5
10A3
330
103F
100
AcDbEntity
  8
AM_5
 62
     3
100
AcDbTrace
 10
1384.695213284053
 20
3990.079063039976
 30
0.0
 11
1393.028546617387
 21
3990.079063039976
 31
0.0
 12
1388.86187995072
 22
4015.079063039975
 32
0.0
 13
1388.86187995072
 23
4015.079063039975
 33
0.0
  0
MTEXT
  5
10A4
330
103F
100
AcDbEntity
  8
AM_5
 62
     2
100
AcDbMText
 10
1356.361879950719
 20
3615.079063035251
 30
0.0
 40
35.0
 41
0.0
 71
     5
 72
     1
  1
1000
 11
0.0000000000000001
 21
1.0
 31
0.0
 73
     1
 44
1.0
1001
ACAD
1000
MTEXTBEGIN
1070
    73
1070
     1
1070
    44
1040
1.0
1070
    74
1070
     0
1000
MTEXTEND
  0
POINT
  5
10A5
330
103F
100
AcDbEntity
  8
DEFPOINTS
 62
     0
100
AcDbPoint
 10
1687.082045463244
 20
3010.079063039976
 30
0.0
  0
POINT
  5
10A6
330
103F
100
AcDbEntity
  8
DEFPOINTS
 62
     0
100
AcDbPoint
 10
1564.582045463244
 20
4015.079063039975
 30
0.0
  0
POINT
  5
10A7
330
103F
100
AcDbEntity
  8
DEFPOINTS
 62
     0
100
AcDbPoint
 10
1388.86187995072
 20
4015.079063039975
 30
0.0
  0
ENDBLK
  5
104A
330
103F
100
AcDbEntity
  8
0
100
AcDbBlockEnd
  0
BLOCK
  5
1055
330
104B
100
AcDbEntity
  8
0
100
AcDbBlockBegin
  2
*D19
 70
     1
 10
0.0
 20
0.0
 30
0.0
  3
*D19
  1

  0
LINE
  5
10A8
330
104B
100
AcDbEntity
  8
AM_5
 62
     3
100
AcDbLine
 10
1554.581324501613
 20
4010.079063035251
 30
0.0
 11
1448.241664074277
 21
4010.079063035251
 31
0.0
  0
LINE
  5
10A9
330
104B
100
AcDbEntity
  8
AM_5
 62
     3
100
AcDbLine
 10
1554.581324501613
 20
4120.079063035249
 30
0.0
 11
1448.241664074277
 21
4120.079063035249
 31
0.0
  0
LINE
  5
10AA
330
104B
100
AcDbEntity
  8
AM_5
 62
     3
100
AcDbLine
 10
1458.241664074277
 20
4035.079063035251
 30
0.0
 11
1458.241664074277
 21
4095.079063035249
 31
0.0
  0
SOLID
  5
10AB
330
104B
100
AcDbEntity
  8
AM_5
 62
     3
100
AcDbTrace
 10
1454.074997407611
 20
4035.079063035251
 30
0.0
 11
1462.408330740944
 21
4035.079063035251
 31
0.0
 12
1458.241664074277
 22
4010.079063035251
 32
0.0
 13
1458.241664074277
 23
4010.079063035251
 33
0.0
  0
SOLID
  5
10AC
330
104B
100
AcDbEntity
  8
AM_5
 62
     3
100
AcDbTrace
 10
1454.074997407611
 20
4095.079063035249
 30
0.0
 11
1462.408330740944
 21
4095.079063035249
 31
0.0
 12
1458.241664074277
 22
4120.079063035249
 32
0.0
 13
1458.241664074277
 23
4120.079063035249
 33
0.0
  0
MTEXT
  5
10AD
330
104B
100
AcDbEntity
  8
AM_5
 62
     2
100
AcDbMText
 10
1425.741664074277
 20
4067.29969454558
 30
0.0
 40
35.0
 41
0.0
 71
     5
 72
     1
  1
%%c110
 11
0.0000000000000001
 21
1.0
 31
0.0
 73
     1
 44
1.0
1001
ACAD
1000
MTEXTBEGIN
1070
    73
1070
     1
1070
    44
1040
1.0
1070
    74
1070
     0
1000
MTEXTEND
  0
POINT
  5
10AE
330
104B
100
AcDbEntity
  8
DEFPOINTS
 62
     0
100
AcDbPoint
 10
1564.581324501613
 20
4010.079063035251
 30
0.0
  0
POINT
  5
10AF
330
104B
100
AcDbEntity
  8
DEFPOINTS
 62
     0
100
AcDbPoint
 10
1564.581324501613
 20
4120.079063035249
 30
0.0
  0
POINT
  5
10B0
330
104B
100
AcDbEntity
  8
DEFPOINTS
 62
     0
100
AcDbPoint
 10
1458.241664074277
 20
4120.079063035249
 30
0.0
  0
ENDBLK
  5
1056
330
104B
100
AcDbEntity
  8
0
100
AcDbBlockEnd
  0
BLOCK
  5
1061
330
1057
100
AcDbEntity
  8
0
100
AcDbBlockBegin
  2
*D20
 70
     1
 10
0.0
 20
0.0
 30
0.0
  3
*D20
  1

  0
LINE
  5
10B1
330
1057
100
AcDbEntity
  8
AM_5
 62
     3
100
AcDbLine
 10
3620.550032170064
 20
3011.556877743257
 30
0.0
 11
4039.098451042296
 21
3011.556877743257
 31
0.0
  0
LINE
  5
10B2
330
1057
100
AcDbEntity
  8
AM_5
 62
     3
100
AcDbLine
 10
3719.082045463244
 20
3945.079063039975
 30
0.0
 11
4039.098451042296
 21
3945.079063039975
 31
0.0
  0
LINE
  5
10B3
330
1057
100
AcDbEntity
  8
AM_5
 62
     3
100
AcDbLine
 10
4029.098451042297
 20
3036.556877743257
 30
0.0
 11
4029.098451042297
 21
3920.079063039975
 31
0.0
  0
SOLID
  5
10B4
330
1057
100
AcDbEntity
  8
AM_5
 62
     3
100
AcDbTrace
 10
4024.93178437563
 20
3036.556877743257
 30
0.0
 11
4033.265117708963
 21
3036.556877743257
 31
0.0
 12
4029.098451042297
 22
3011.556877743257
 32
0.0
 13
4029.098451042297
 23
3011.556877743257
 33
0.0
  0
SOLID
  5
10B5
330
1057
100
AcDbEntity
  8
AM_5
 62
     3
100
AcDbTrace
 10
4024.93178437563
 20
3920.079063039975
 30
0.0
 11
4033.265117708963
 21
3920.079063039975
 31
0.0
 12
4029.098451042297
 22
3945.079063039975
 32
0.0
 13
4029.098451042297
 23
3945.079063039975
 33
0.0
  0
MTEXT
  5
10B6
330
1057
100
AcDbEntity
  8
AM_5
 62
     2
100
AcDbMText
 10
3996.598451042297
 20
3580.079063039977
 30
0.0
 40
35.0
 41
0.0
 71
     5
 72
     1
  1
930
 11
0.0000000000000001
 21
1.0
 31
0.0
 73
     1
 44
1.0
1001
ACAD
1000
MTEXTBEGIN
1070
    73
1070
     1
1070
    44
1040
1.0
1070
    74
1070
     0
1000
MTEXTEND
  0
POINT
  5
10B7
330
1057
100
AcDbEntity
  8
DEFPOINTS
 62
     0
100
AcDbPoint
 10
3610.550032170063
 20
3011.556877743257
 30
0.0
  0
POINT
  5
10B8
330
1057
100
AcDbEntity
  8
DEFPOINTS
 62
     0
100
AcDbPoint
 10
3709.082045463244
 20
3945.079063039975
 30
0.0
  0
POINT
  5
10B9
330
1057
100
AcDbEntity
  8
DEFPOINTS
 62
     0
100
AcDbPoint
 10
4029.098451042297
 20
3945.079063039975
 30
0.0
  0
ENDBLK
  5
1062
330
1057
100
AcDbEntity
  8
0
100
AcDbBlockEnd
  0
BLOCK
  5
106D
330
1063
100
AcDbEntity
  8
0
100
AcDbBlockBegin
  2
*D21
 70
     1
 10
0.0
 20
0.0
 30
0.0
  3
*D21
  1

  0
LINE
  5
10BA
330
1063
100
AcDbEntity
  8
AM_5
 62
     3
100
AcDbLine
 10
3719.082045463244
 20
3940.079063039976
 30
0.0
 11
3873.604474411327
 21
3940.079063039976
 31
0.0
  0
LINE
  5
10BB
330
1063
100
AcDbEntity
  8
AM_5
 62
     3
100
AcDbLine
 10
3719.082045463244
 20
4050.079063039976
 30
0.0
 11
3873.604474411327
 21
4050.079063039976
 31
0.0
  0
LINE
  5
10BC
330
1063
100
AcDbEntity
  8
AM_5
 62
     3
100
AcDbLine
 10
3863.604474411328
 20
3965.079063039976
 30
0.0
 11
3863.604474411328
 21
4025.079063039975
 31
0.0
  0
SOLID
  5
10BD
330
1063
100
AcDbEntity
  8
AM_5
 62
     3
100
AcDbTrace
 10
3859.437807744661
 20
3965.079063039976
 30
0.0
 11
3867.771141077994
 21
3965.079063039976
 31
0.0
 12
3863.604474411328
 22
3940.079063039976
 32
0.0
 13
3863.604474411328
 23
3940.079063039976
 33
0.0
  0
SOLID
  5
10BE
330
1063
100
AcDbEntity
  8
AM_5
 62
     3
100
AcDbTrace
 10
3859.437807744661
 20
4025.079063039975
 30
0.0
 11
3867.771141077994
 21
4025.079063039975
 31
0.0
 12
3863.604474411328
 22
4050.079063039976
 32
0.0
 13
3863.604474411328
 23
4050.079063039976
 33
0.0
  0
MTEXT
  5
10BF
330
1063
100
AcDbEntity
  8
AM_5
 62
     2
100
AcDbMText
 10
3831.104474411327
 20
3995.079063039976
 30
0.0
 40
35.0
 41
0.0
 71
     5
 72
     1
  1
%%c110
 11
0.0000000000000001
 21
1.0
 31
0.0
 73
     1
 44
1.0
1001
ACAD
1000
MTEXTBEGIN
1070
    73
1070
     1
1070
    44
1040
1.0
1070
    74
1070
     0
1000
MTEXTEND
  0
POINT
  5
10C0
330
1063
100
AcDbEntity
  8
DEFPOINTS
 62
     0
100
AcDbPoint
 10
3709.082045463244
 20
3940.079063039976
 30
0.0
  0
POINT
  5
10C1
330
1063
100
AcDbEntity
  8
DEFPOINTS
 62
     0
100
AcDbPoint
 10
3709.082045463244
 20
4050.079063039976
 30
0.0
  0
POINT
  5
10C2
330
1063
100
AcDbEntity
  8
DEFPOINTS
 62
     0
100
AcDbPoint
 10
3863.604474411328
 20
4050.079063039976
 30
0.0
  0
ENDBLK
  5
106E
330
1063
100
AcDbEntity
  8
0
100
AcDbBlockEnd
  0
BLOCK
  5
1079
330
106F
100
AcDbEntity
  8
0
100
AcDbBlockBegin
  2
*D22
 70
     1
 10
0.0
 20
0.0
 30
0.0
  3
*D22
  1

  0
LINE
  5
10C3
330
106F
100
AcDbEntity
  8
AM_5
 62
     3
100
AcDbLine
 10
3620.550032170064
 20
3011.556877743257
 30
0.0
 11
4129.800770458252
 21
3011.556877743257
 31
0.0
  0
LINE
  5
10C4
330
106F
100
AcDbEntity
  8
AM_5
 62
     3
100
AcDbLine
 10
3079.582545463243
 20
4325.079063039977
 30
0.0
 11
4129.800770458252
 21
4325.079063039977
 31
0.0
  0
LINE
  5
10C5
330
106F
100
AcDbEntity
  8
AM_5
 62
     3
100
AcDbLine
 10
4119.800770458252
 20
3036.556877743257
 30
0.0
 11
4119.800770458252
 21
4300.079063039977
 31
0.0
  0
SOLID
  5
10C6
330
106F
100
AcDbEntity
  8
AM_5
 62
     3
100
AcDbTrace
 10
4115.634103791586
 20
3036.556877743257
 30
0.0
 11
4123.967437124919
 21
3036.556877743257
 31
0.0
 12
4119.800770458252
 22
3011.556877743257
 32
0.0
 13
4119.800770458252
 23
3011.556877743257
 33
0.0
  0
SOLID
  5
10C7
330
106F
100
AcDbEntity
  8
AM_5
 62
     3
100
AcDbTrace
 10
4115.634103791586
 20
4300.079063039977
 30
0.0
 11
4123.967437124919
 21
4300.079063039977
 31
0.0
 12
4119.800770458252
 22
4325.079063039977
 32
0.0
 13
4119.800770458252
 23
4325.079063039977
 33
0.0
  0
MTEXT
  5
10C8
330
106F
100
AcDbEntity
  8
AM_5
 62
     2
100
AcDbMText
 10
4087.300770458251
 20
3680.079063039976
 30
0.0
 40
35.0
 41
0.0
 71
     5
 72
     1
  1
1350
 11
0.0000000000000001
 21
1.0
 31
0.0
 73
     1
 44
1.0
1001
ACAD
1000
MTEXTBEGIN
1070
    73
1070
     1
1070
    44
1040
1.0
1070
    74
1070
     0
1000
MTEXTEND
  0
POINT
  5
10C9
330
106F
100
AcDbEntity
  8
DEFPOINTS
 62
     0
100
AcDbPoint
 10
3610.550032170063
 20
3011.556877743257
 30
0.0
  0
POINT
  5
10CA
330
106F
100
AcDbEntity
  8
DEFPOINTS
 62
     0
100
AcDbPoint
 10
3069.582545463243
 20
4325.079063039977
 30
0.0
  0
POINT
  5
10CB
330
106F
100
AcDbEntity
  8
DEFPOINTS
 62
     0
100
AcDbPoint
 10
4119.800770458252
 20
4325.079063039977
 30
0.0
  0
ENDBLK
  5
107A
330
106F
100
AcDbEntity
  8
0
100
AcDbBlockEnd
  0
BLOCK
  5
1085
330
107B
100
AcDbEntity
  8
0
100
AcDbBlockBegin
  2
*D23
 70
     1
 10
0.0
 20
0.0
 30
0.0
  3
*D23
  1

  0
LINE
  5
10CC
330
107B
100
AcDbEntity
  8
AM_5
 62
     3
100
AcDbLine
 10
1656.582045463244
 20
3025.07906303998
 30
0.0
 11
1656.582045463244
 21
2901.198206593426
 31
0.0
  0
LINE
  5
10CD
330
107B
100
AcDbEntity
  8
AM_5
 62
     3
100
AcDbLine
 10
3622.582045463242
 20
3025.579063039975
 30
0.0
 11
3622.582045463242
 21
2901.198206593426
 31
0.0
  0
LINE
  5
10CE
330
107B
100
AcDbEntity
  8
AM_5
 62
     3
100
AcDbLine
 10
1681.582045463244
 20
2911.198206593427
 30
0.0
 11
3597.582045463242
 21
2911.198206593427
 31
0.0
  0
SOLID
  5
10CF
330
107B
100
AcDbEntity
  8
AM_5
 62
     3
100
AcDbTrace
 10
1681.582045463244
 20
2915.364873260093
 30
0.0
 11
1681.582045463244
 21
2907.03153992676
 31
0.0
 12
1656.582045463244
 22
2911.198206593427
 32
0.0
 13
1656.582045463244
 23
2911.198206593427
 33
0.0
  0
SOLID
  5
10D0
330
107B
100
AcDbEntity
  8
AM_5
 62
     3
100
AcDbTrace
 10
3597.582045463242
 20
2915.364873260093
 30
0.0
 11
3597.582045463242
 21
2907.03153992676
 31
0.0
 12
3622.582045463242
 22
2911.198206593427
 32
0.0
 13
3622.582045463242
 23
2911.198206593427
 33
0.0
  0
MTEXT
  5
10D1
330
107B
100
AcDbEntity
  8
AM_5
 62
     2
100
AcDbMText
 10
2639.582045463243
 20
2943.701651475316
 30
0.0
 40
35.0
 41
0.0
 71
     5
 72
     1
  1
2000
 73
     1
 44
1.0
1001
ACAD
1000
MTEXTBEGIN
1070
    73
1070
     1
1070
    44
1040
1.0
1070
    74
1070
     0
1000
MTEXTEND
  0
POINT
  5
10D2
330
107B
100
AcDbEntity
  8
DEFPOINTS
 62
     0
100
AcDbPoint
 10
1656.582045463244
 20
3035.07906303998
 30
0.0
  0
POINT
  5
10D3
330
107B
100
AcDbEntity
  8
DEFPOINTS
 62
     0
100
AcDbPoint
 10
3622.582045463242
 20
3035.579063039975
 30
0.0
  0
POINT
  5
10D4
330
107B
100
AcDbEntity
  8
DEFPOINTS
 62
     0
100
AcDbPoint
 10
3622.582045463242
 20
2911.198206593427
 30
0.0
  0
ENDBLK
  5
1086
330
107B
100
AcDbEntity
  8
0
100
AcDbBlockEnd
  0
BLOCK
  5
1091
330
1087
100
AcDbEntity
  8
0
100
AcDbBlockBegin
  2
*D24
 70
     1
 10
0.0
 20
0.0
 30
0.0
  3
*D24
  1

  0
LINE
  5
10D5
330
1087
100
AcDbEntity
  8
AM_5
 62
     3
100
AcDbLine
 10
1564.582045463242
 20
1611.827498062056
 30
0.0
 11
1564.582045463242
 21
1072.822928282642
 31
0.0
  0
LINE
  5
10D6
330
1087
100
AcDbEntity
  8
AM_5
 62
     3
100
AcDbLine
 10
3709.082045463244
 20
1611.827498062055
 30
0.0
 11
3709.082045463244
 21
1072.822928282642
 31
0.0
  0
LINE
  5
10D7
330
1087
100
AcDbEntity
  8
AM_5
 62
     3
100
AcDbLine
 10
1589.582045463242
 20
1082.822928282642
 30
0.0
 11
3684.082045463244
 21
1082.822928282642
 31
0.0
  0
SOLID
  5
10D8
330
1087
100
AcDbEntity
  8
AM_5
 62
     3
100
AcDbTrace
 10
1589.582045463242
 20
1086.989594949308
 30
0.0
 11
1589.582045463242
 21
1078.656261615975
 31
0.0
 12
1564.582045463242
 22
1082.822928282642
 32
0.0
 13
1564.582045463242
 23
1082.822928282642
 33
0.0
  0
SOLID
  5
10D9
330
1087
100
AcDbEntity
  8
AM_5
 62
     3
100
AcDbTrace
 10
3684.082045463244
 20
1086.989594949308
 30
0.0
 11
3684.082045463244
 21
1078.656261615975
 31
0.0
 12
3709.082045463244
 22
1082.822928282642
 32
0.0
 13
3709.082045463244
 23
1082.822928282642
 33
0.0
  0
MTEXT
  5
10DA
330
1087
100
AcDbEntity
  8
AM_5
 62
     2
100
AcDbMText
 10
2553.840507575936
 20
1115.326373164531
 30
0.0
 40
35.0
 41
0.0
 71
     5
 72
     1
  1
2160
 73
     1
 44
1.0
1001
ACAD
1000
MTEXTBEGIN
1070
    73
1070
     1
1070
    44
1040
1.0
1070
    74
1070
     0
1000
MTEXTEND
  0
POINT
  5
10DB
330
1087
100
AcDbEntity
  8
DEFPOINTS
 62
     0
100
AcDbPoint
 10
1564.582045463242
 20
1621.827498062056
 30
0.0
  0
POINT
  5
10DC
330
1087
100
AcDbEntity
  8
DEFPOINTS
 62
     0
100
AcDbPoint
 10
3709.082045463244
 20
1621.827498062055
 30
0.0
  0
POINT
  5
10DD
330
1087
100
AcDbEntity
  8
DEFPOINTS
 62
     0
100
AcDbPoint
 10
3709.082045463244
 20
1082.822928282642
 30
0.0
  0
ENDBLK
  5
1092
330
1087
100
AcDbEntity
  8
0
100
AcDbBlockEnd
  0
BLOCK
  5
109D
330
1093
100
AcDbEntity
  8
0
100
AcDbBlockBegin
  2
*D25
 70
     1
 10
0.0
 20
0.0
 30
0.0
  3
*D25
  1

  0
LINE
  5
10DE
330
1093
100
AcDbEntity
  8
AM_5
 62
     3
100
AcDbLine
 10
2169.582045463244
 20
2026.827498062057
 30
0.0
 11
1294.362090853148
 21
2026.827498062057
 31
0.0
  0
LINE
  5
10DF
330
1093
100
AcDbEntity
  8
AM_5
 62
     3
100
AcDbLine
 10
2164.582045463244
 20
1326.827498062057
 30
0.0
 11
1294.362090853147
 21
1326.827498062057
 31
0.0
  0
LINE
  5
10E0
330
1093
100
AcDbEntity
  8
AM_5
 62
     3
100
AcDbLine
 10
1304.362090853148
 20
2001.827498062057
 30
0.0
 11
1304.362090853148
 21
1351.827498062057
 31
0.0
  0
SOLID
  5
10E1
330
1093
100
AcDbEntity
  8
AM_5
 62
     3
100
AcDbTrace
 10
1300.195424186481
 20
2001.827498062057
 30
0.0
 11
1308.528757519815
 21
2001.827498062057
 31
0.0
 12
1304.362090853148
 22
2026.827498062057
 32
0.0
 13
1304.362090853148
 23
2026.827498062057
 33
0.0
  0
SOLID
  5
10E2
330
1093
100
AcDbEntity
  8
AM_5
 62
     3
100
AcDbTrace
 10
1300.195424186481
 20
1351.827498062057
 30
0.0
 11
1308.528757519814
 21
1351.827498062057
 31
0.0
 12
1304.362090853148
 22
1326.827498062057
 32
0.0
 13
1304.362090853148
 23
1326.827498062057
 33
0.0
  0
MTEXT
  5
10E3
330
1093
100
AcDbEntity
  8
AM_5
 62
     2
100
AcDbMText
 10
1271.862090853147
 20
1676.827498062056
 30
0.0
 40
35.0
 41
0.0
 71
     5
 72
     1
  1
700
 11
0.0000000000000001
 21
1.0
 31
0.0
 73
     1
 44
1.0
1001
ACAD
1000
MTEXTBEGIN
1070
    73
1070
     1
1070
    44
1040
1.0
1070
    74
1070
     0
1000
MTEXTEND
  0
POINT
  5
10E4
330
1093
100
AcDbEntity
  8
DEFPOINTS
 62
     0
100
AcDbPoint
 10
2179.582045463244
 20
2026.827498062057
 30
0.0
  0
POINT
  5
10E5
330
1093
100
AcDbEntity
  8
DEFPOINTS
 62
     0
100
AcDbPoint
 10
2174.582045463244
 20
1326.827498062057
 30
0.0
  0
POINT
  5
10E6
330
1093
100
AcDbEntity
  8
DEFPOINTS
 62
     0
100
AcDbPoint
 10
1304.362090853148
 20
1326.827498062057
 30
0.0
  0
ENDBLK
  5
109E
330
1093
100
AcDbEntity
  8
0
100
AcDbBlockEnd
  0
ENDSEC
  0
SECTION
  2
ENTITIES
  0
LINE
  5
A08
330
1F
100
AcDbEntity
  8
0
100
AcDbLine
 10
1564.582045463244
 20
4010.079063039975
 30
0.0
 11
1564.582045463244
 21
4120.079063039975
 31
0.0
  0
LINE
  5
A09
330
1F
100
AcDbEntity
  8
0
100
AcDbLine
 10
1656.582045463244
 20
3035.579063039975
 30
0.0
 11
1656.582045463244
 21
3262.758554964476
 31
0.0
  0
LINE
  5
A0A
330
1F
100
AcDbEntity
  8
0
100
AcDbLine
 10
1701.998388035244
 20
4137.441926348475
 30
0.0
 11
1709.152900447744
 21
4188.695415240975
 31
0.0
  0
LINE
  5
A0B
330
1F
100
AcDbEntity
  8
0
100
AcDbLine
 10
1682.082045463244
 20
3010.079063039976
 30
0.0
 11
3597.082045463242
 21
3010.079063039976
 31
0.0
  0
LINE
  5
A0C
330
1F
100
AcDbEntity
  8
0
100
AcDbLine
 10
2509.797494663243
 20
4221.241363039974
 30
0.0
 11
2509.782045477244
 21
4221.229062922475
 31
0.0
  0
LINE
  5
A0D
330
1F
100
AcDbEntity
  8
0
100
AcDbLine
 10
2511.098386198445
 20
4229.572910974773
 30
0.0
 11
2509.714944954743
 21
4228.584570512975
 31
0.0
  0
LINE
  5
A0E
330
1F
100
AcDbEntity
  8
0
100
AcDbLine
 10
2511.182534158742
 20
4227.233027046976
 30
0.0
 11
2509.714945055744
 21
4226.184570740475
 31
0.0
  0
LINE
  5
A0F
330
1F
100
AcDbEntity
  8
0
100
AcDbLine
 10
2511.182534224742
 20
4224.833025591474
 30
0.0
 11
2509.714945124742
 21
4223.784569284474
 31
0.0
  0
LINE
  5
A10
330
1F
100
AcDbEntity
  8
0
100
AcDbLine
 10
2511.182534070243
 20
4222.433026257475
 30
0.0
 11
2509.714944964243
 21
4221.384569952475
 31
0.0
  0
LINE
  5
A11
330
1F
100
AcDbEntity
  8
0
100
AcDbLine
 10
2509.824532194242
 20
4226.049463040475
 30
0.0
 11
2509.782045564743
 21
4226.029063695974
 31
0.0
  0
LINE
  5
A12
330
1F
100
AcDbEntity
  8
0
100
AcDbLine
 10
2567.981728962742
 20
4228.625221879975
 30
0.0
 11
2569.308267832618
 21
4229.572910974773
 31
0.0
  0
LINE
  5
A13
330
1F
100
AcDbEntity
  8
0
100
AcDbLine
 10
2567.981729024242
 20
4226.225223643975
 30
0.0
 11
2569.448868663743
 21
4227.273358957975
 31
0.0
  0
LINE
  5
A14
330
1F
100
AcDbEntity
  8
0
100
AcDbLine
 10
2567.981728894242
 20
4223.825222534475
 30
0.0
 11
2569.448868527742
 21
4224.873357848475
 31
0.0
  0
LINE
  5
A15
330
1F
100
AcDbEntity
  8
0
100
AcDbLine
 10
2567.906999575243
 20
4221.371852792475
 30
0.0
 11
2569.377248347243
 21
4222.422208340975
 31
0.0
  0
LINE
  5
A16
330
1F
100
AcDbEntity
  8
0
100
AcDbLine
 10
2509.786842433742
 20
4228.635917210975
 30
0.0
 11
2509.782045466243
 21
4228.629063479973
 31
0.0
  0
LINE
  5
A17
330
1F
100
AcDbEntity
  8
0
100
AcDbLine
 10
2509.786842546744
 20
4226.235917446975
 30
0.0
 11
2509.782045564743
 21
4226.229063695975
 31
0.0
  0
LINE
  5
A18
330
1F
100
AcDbEntity
  8
0
100
AcDbLine
 10
2509.786842623743
 20
4223.835915996475
 30
0.0
 11
2509.782045642743
 21
4223.829062246475
 31
0.0
  0
LINE
  5
A19
330
1F
100
AcDbEntity
  8
0
100
AcDbLine
 10
2509.786842442242
 20
4221.435916649475
 30
0.0
 11
2509.782045477244
 21
4221.429062922475
 31
0.0
  0
LINE
  5
A1A
330
1F
100
AcDbEntity
  8
0
100
AcDbLine
 10
2569.382045422243
 20
4227.229064032974
 30
0.0
 11
2569.377248445743
 21
4227.222210289474
 31
0.0
  0
LINE
  5
A1B
330
1F
100
AcDbEntity
  8
0
100
AcDbLine
 10
2569.382045306243
 20
4224.829062942474
 30
0.0
 11
2569.377248322743
 21
4224.822209189475
 31
0.0
  0
LINE
  5
A1C
330
1F
100
AcDbEntity
  8
0
100
AcDbLine
 10
2569.382045322243
 20
4222.429062081975
 30
0.0
 11
2569.377248347243
 21
4222.422208340975
 31
0.0
  0
LINE
  5
A1D
330
1F
100
AcDbEntity
  8
0
100
AcDbLine
 10
3606.087359594744
 20
3280.079063039976
 30
0.0
 11
1673.076731331743
 21
3280.079063039976
 31
0.0
  0
LINE
  5
A1E
330
1F
100
AcDbEntity
  8
0
 62
     9
100
AcDbLine
 10
2343.246528895744
 20
3337.306656379476
 30
0.0
 11
2474.582045166694
 21
3336.033111710195
 31
0.0
  0
POLYLINE
  5
A1F
330
1F
100
AcDbEntity
  8
0
 62
     9
100
AcDb2dPolyline
 66
     1
 10
0.0
 20
0.0
 30
0.0
  0
VERTEX
  5
A20
330
A1F
100
AcDbEntity
  8
0
 62
     9
100
AcDbVertex
100
AcDb2dVertex
 10
1963.595836029745
 20
3364.327435542474
 30
0.0
  0
VERTEX
  5
A21
330
A1F
100
AcDbEntity
  8
0
 62
     9
100
AcDbVertex
100
AcDb2dVertex
 10
2140.266126708745
 20
3357.991396878976
 30
0.0
  0
VERTEX
  5
A22
330
A1F
100
AcDbEntity
  8
0
 62
     9
100
AcDbVertex
100
AcDb2dVertex
 10
2343.888668060744
 20
3354.829807537476
 30
0.0
  0
VERTEX
  5
A23
330
A1F
100
AcDbEntity
  8
0
 62
     9
100
AcDbVertex
100
AcDb2dVertex
 10
2579.582045349033
 20
3352.662681539782
 30
0.0
  0
SEQEND
  5
A24
330
A1F
100
AcDbEntity
  8
0
 62
     9
  0
POLYLINE
  5
A25
330
1F
100
AcDbEntity
  8
0
 62
     9
100
AcDb2dPolyline
 66
     1
 10
0.0
 20
0.0
 30
0.0
  0
VERTEX
  5
A26
330
A25
100
AcDbEntity
  8
0
 62
     9
100
AcDbVertex
100
AcDb2dVertex
 10
1961.938070289744
 20
3349.068277384975
 30
0.0
  0
VERTEX
  5
A27
330
A25
100
AcDbEntity
  8
0
 62
     9
100
AcDbVertex
100
AcDb2dVertex
 10
2139.098556930744
 20
3341.221572595476
 30
0.0
  0
VERTEX
  5
A28
330
A25
100
AcDbEntity
  8
0
 62
     9
100
AcDbVertex
100
AcDb2dVertex
 10
2343.246528895744
 20
3337.306656379476
 30
0.0
  0
SEQEND
  5
A29
330
A25
100
AcDbEntity
  8
0
 62
     9
  0
LINE
  5
A2A
330
1F
100
AcDbEntity
  8
0
100
AcDbLine
 10
1664.082045463244
 20
3275.748936020975
 30
0.0
 11
1670.287609528244
 21
3279.331720104476
 31
0.0
  0
POLYLINE
  5
A2B
330
1F
100
AcDbEntity
  8
0
 62
     9
100
AcDb2dPolyline
 66
     1
 10
0.0
 20
0.0
 30
0.0
  0
VERTEX
  5
A2C
330
A2B
100
AcDbEntity
  8
0
 62
     9
100
AcDbVertex
100
AcDb2dVertex
 10
2474.517337902243
 20
3513.970206940475
 30
0.0
  0
VERTEX
  5
A2D
330
A2B
100
AcDbEntity
  8
0
 62
     9
100
AcDbVertex
100
AcDb2dVertex
 10
2474.524518783742
 20
3508.202677219475
 30
0.0
  0
VERTEX
  5
A2E
330
A2B
100
AcDbEntity
  8
0
 62
     9
100
AcDbVertex
100
AcDb2dVertex
 10
2474.538981963243
 20
3503.072430745475
 30
0.0
  0
VERTEX
  5
A2F
330
A2B
100
AcDbEntity
  8
0
 62
     9
100
AcDbVertex
100
AcDb2dVertex
 10
2474.559068015243
 20
3499.328908435475
 30
0.0
  0
VERTEX
  5
A30
330
A2B
100
AcDbEntity
  8
0
 62
     9
100
AcDbVertex
100
AcDb2dVertex
 10
2474.582042091744
 20
3497.511627418975
 30
0.0
  0
SEQEND
  5
A31
330
A2B
100
AcDbEntity
  8
0
 62
     9
  0
POLYLINE
  5
A32
330
1F
100
AcDbEntity
  8
0
 62
     9
100
AcDb2dPolyline
 66
     1
 10
0.0
 20
0.0
 30
0.0
  0
VERTEX
  5
A33
330
A32
100
AcDbEntity
  8
0
 62
     9
100
AcDbVertex
100
AcDb2dVertex
 10
2474.517201300242
 20
3854.402002131975
 30
0.0
  0
VERTEX
  5
A34
330
A32
100
AcDbEntity
  8
0
 62
     9
100
AcDbVertex
100
AcDb2dVertex
 10
2474.524049770243
 20
3848.499348541976
 30
0.0
  0
VERTEX
  5
A35
330
A32
100
AcDbEntity
  8
0
 62
     9
100
AcDbVertex
100
AcDb2dVertex
 10
2474.538247681743
 20
3843.080104326975
 30
0.0
  0
VERTEX
  5
A36
330
A32
100
AcDbEntity
  8
0
 62
     9
100
AcDbVertex
100
AcDb2dVertex
 10
2474.558265112243
 20
3838.941155625974
 30
0.0
  0
VERTEX
  5
A37
330
A32
100
AcDbEntity
  8
0
 62
     9
100
AcDbVertex
100
AcDb2dVertex
 10
2474.581866117743
 20
3836.685816489975
 30
0.0
  0
SEQEND
  5
A38
330
A32
100
AcDbEntity
  8
0
 62
     9
  0
LINE
  5
A39
330
1F
100
AcDbEntity
  8
0
 62
     9
100
AcDbLine
 10
2474.517340735242
 20
3513.970216345975
 30
0.0
 11
2474.517494427243
 21
3675.985089822475
 31
0.0
  0
LINE
  5
A3A
330
1F
100
AcDbEntity
  8
0
 62
     9
100
AcDbLine
 10
2474.581632276742
 20
3692.586107090976
 30
0.0
 11
2474.581810836743
 21
3836.685854084976
 31
0.0
  0
LINE
  5
A3B
330
1F
100
AcDbEntity
  8
0
 62
     9
100
AcDbLine
 10
2474.582045166694
 20
3336.033111710195
 30
0.0
 11
2474.582046937242
 21
3497.511627495475
 31
0.0
  0
LINE
  5
A3C
330
1F
100
AcDbEntity
  8
0
100
AcDbLine
 10
2507.082045463242
 20
4218.079063039975
 30
0.0
 11
2507.082045463242
 21
4195.528360358975
 31
0.0
  0
LINE
  5
A3D
330
1F
100
AcDbEntity
  8
0
100
AcDbLine
 10
2509.782045564743
 20
4226.229063695975
 30
0.0
 11
2509.782045564743
 21
4226.029063695974
 31
0.0
  0
LINE
  5
A3E
330
1F
100
AcDbEntity
  8
0
100
AcDbLine
 10
2509.782045477244
 20
4221.429062922475
 30
0.0
 11
2509.782045477244
 21
4221.229062922475
 31
0.0
  0
LINE
  5
A3F
330
1F
100
AcDbEntity
  8
0
100
AcDbLine
 10
2509.782045642743
 20
4223.829062246475
 30
0.0
 11
2509.782045642743
 21
4223.629062246475
 31
0.0
  0
POLYLINE
  5
A40
330
1F
100
AcDbEntity
  8
0
 62
     9
100
AcDb2dPolyline
 66
     1
 10
0.0
 20
0.0
 30
0.0
  0
VERTEX
  5
A41
330
A40
100
AcDbEntity
  8
0
 62
     9
100
AcDbVertex
100
AcDb2dVertex
 10
2474.581763581243
 20
3692.586143502976
 30
0.0
  0
VERTEX
  5
A42
330
A40
100
AcDbEntity
  8
0
 62
     9
100
AcDbVertex
100
AcDb2dVertex
 10
2474.558465564743
 20
3690.866827652475
 30
0.0
  0
VERTEX
  5
A43
330
A40
100
AcDbEntity
  8
0
 62
     9
100
AcDbVertex
100
AcDb2dVertex
 10
2474.538594588244
 20
3687.193839053975
 30
0.0
  0
VERTEX
  5
A44
330
A40
100
AcDbEntity
  8
0
 62
     9
100
AcDbVertex
100
AcDb2dVertex
 10
2474.524150964243
 20
3681.992830247476
 30
0.0
  0
VERTEX
  5
A45
330
A40
100
AcDbEntity
  8
0
 62
     9
100
AcDbVertex
100
AcDb2dVertex
 10
2474.517053575743
 20
3675.984615331476
 30
0.0
  0
SEQEND
  5
A46
330
A40
100
AcDbEntity
  8
0
 62
     9
  0
POLYLINE
  5
A47
330
1F
100
AcDbEntity
  8
0
100
AcDb2dPolyline
 66
     1
 10
0.0
 20
0.0
 30
0.0
  0
VERTEX
  5
A48
330
A47
100
AcDbEntity
  8
0
100
AcDbVertex
100
AcDb2dVertex
 10
2491.582045462742
 20
3853.361237134976
 30
0.0
  0
VERTEX
  5
A49
330
A47
100
AcDbEntity
  8
0
100
AcDbVertex
100
AcDb2dVertex
 10
2490.801545557744
 20
3848.429105430975
 30
0.0
  0
VERTEX
  5
A4A
330
A47
100
AcDbEntity
  8
0
100
AcDbVertex
100
AcDb2dVertex
 10
2488.433724235243
 20
3843.780412278975
 30
0.0
  0
VERTEX
  5
A4B
330
A47
100
AcDbEntity
  8
0
100
AcDbVertex
100
AcDb2dVertex
 10
2484.671379259743
 20
3840.018348107975
 30
0.0
  0
VERTEX
  5
A4C
330
A47
100
AcDbEntity
  8
0
100
AcDbVertex
100
AcDb2dVertex
 10
2479.892563487743
 20
3837.566893009475
 30
0.0
  0
VERTEX
  5
A4D
330
A47
100
AcDbEntity
  8
0
100
AcDbVertex
100
AcDb2dVertex
 10
2474.582045463242
 20
3836.685816491975
 30
0.0
  0
SEQEND
  5
A4E
330
A47
100
AcDbEntity
  8
0
  0
POLYLINE
  5
A4F
330
1F
100
AcDbEntity
  8
0
 62
     9
100
AcDb2dPolyline
 66
     1
 10
0.0
 20
0.0
 30
0.0
  0
VERTEX
  5
A50
330
A4F
100
AcDbEntity
  8
0
 62
     9
100
AcDbVertex
100
AcDb2dVertex
 10
2491.582045463244
 20
3514.379487962975
 30
0.0
  0
VERTEX
  5
A51
330
A4F
100
AcDbEntity
  8
0
 62
     9
100
AcDbVertex
100
AcDb2dVertex
 10
2490.746002286743
 20
3514.253013030475
 30
0.0
  0
VERTEX
  5
A52
330
A4F
100
AcDbEntity
  8
0
 62
     9
100
AcDbVertex
100
AcDb2dVertex
 10
2488.320104889742
 20
3514.138865185475
 30
0.0
  0
VERTEX
  5
A53
330
A4F
100
AcDbEntity
  8
0
 62
     9
100
AcDbVertex
100
AcDb2dVertex
 10
2484.542959464242
 20
3514.048273708976
 30
0.0
  0
VERTEX
  5
A54
330
A4F
100
AcDbEntity
  8
0
 62
     9
100
AcDbVertex
100
AcDb2dVertex
 10
2479.786078234242
 20
3513.990149140975
 30
0.0
  0
VERTEX
  5
A55
330
A4F
100
AcDbEntity
  8
0
 62
     9
100
AcDbVertex
100
AcDb2dVertex
 10
2474.517337902243
 20
3513.970206940475
 30
0.0
  0
SEQEND
  5
A56
330
A4F
100
AcDbEntity
  8
0
 62
     9
  0
POLYLINE
  5
A57
330
1F
100
AcDbEntity
  8
0
 62
     9
100
AcDb2dPolyline
 66
     1
 10
0.0
 20
0.0
 30
0.0
  0
VERTEX
  5
A58
330
A57
100
AcDbEntity
  8
0
 62
     9
100
AcDbVertex
100
AcDb2dVertex
 10
1962.902372385743
 20
3489.279106282976
 30
0.0
  0
VERTEX
  5
A59
330
A57
100
AcDbEntity
  8
0
 62
     9
100
AcDbVertex
100
AcDb2dVertex
 10
1935.519915194244
 20
3487.393929577976
 30
0.0
  0
VERTEX
  5
A5A
330
A57
100
AcDbEntity
  8
0
 62
     9
100
AcDbVertex
100
AcDb2dVertex
 10
1912.046784260244
 20
3484.367373829975
 30
0.0
  0
VERTEX
  5
A5B
330
A57
100
AcDbEntity
  8
0
 62
     9
100
AcDbVertex
100
AcDb2dVertex
 10
1891.990737204244
 20
3480.191685141976
 30
0.0
  0
VERTEX
  5
A5C
330
A57
100
AcDbEntity
  8
0
 62
     9
100
AcDbVertex
100
AcDb2dVertex
 10
1874.895272832745
 20
3474.772294549975
 30
0.0
  0
VERTEX
  5
A5D
330
A57
100
AcDbEntity
  8
0
 62
     9
100
AcDbVertex
100
AcDb2dVertex
 10
1860.789142939245
 20
3468.119377164475
 30
0.0
  0
VERTEX
  5
A5E
330
A57
100
AcDbEntity
  8
0
 62
     9
100
AcDbVertex
100
AcDb2dVertex
 10
1849.731251981245
 20
3460.362594597975
 30
0.0
  0
VERTEX
  5
A5F
330
A57
100
AcDbEntity
  8
0
 62
     9
100
AcDbVertex
100
AcDb2dVertex
 10
1841.677098015244
 20
3451.704732285975
 30
0.0
  0
VERTEX
  5
A60
330
A57
100
AcDbEntity
  8
0
 62
     9
100
AcDbVertex
100
AcDb2dVertex
 10
1836.581978874744
 20
3442.539967354975
 30
0.0
  0
VERTEX
  5
A61
330
A57
100
AcDbEntity
  8
0
 62
     9
100
AcDbVertex
100
AcDb2dVertex
 10
1834.215077911744
 20
3433.220348232475
 30
0.0
  0
VERTEX
  5
A62
330
A57
100
AcDbEntity
  8
0
 62
     9
100
AcDbVertex
100
AcDb2dVertex
 10
1834.333320867744
 20
3423.831314302976
 30
0.0
  0
VERTEX
  5
A63
330
A57
100
AcDbEntity
  8
0
 62
     9
100
AcDbVertex
100
AcDb2dVertex
 10
1836.950346042745
 20
3414.339837369975
 30
0.0
  0
VERTEX
  5
A64
330
A57
100
AcDbEntity
  8
0
 62
     9
100
AcDbVertex
100
AcDb2dVertex
 10
1842.262551678744
 20
3404.935059447475
 30
0.0
  0
VERTEX
  5
A65
330
A57
100
AcDbEntity
  8
0
 62
     9
100
AcDbVertex
100
AcDb2dVertex
 10
1850.447565613745
 20
3395.956881130476
 30
0.0
  0
VERTEX
  5
A66
330
A57
100
AcDbEntity
  8
0
 62
     9
100
AcDbVertex
100
AcDb2dVertex
 10
1861.711398061744
 20
3387.682814215974
 30
0.0
  0
VERTEX
  5
A67
330
A57
100
AcDbEntity
  8
0
 62
     9
100
AcDbVertex
100
AcDb2dVertex
 10
1875.938132267744
 20
3380.504473816476
 30
0.0
  0
VERTEX
  5
A68
330
A57
100
AcDbEntity
  8
0
 62
     9
100
AcDbVertex
100
AcDb2dVertex
 10
1893.085922293744
 20
3374.564918154975
 30
0.0
  0
VERTEX
  5
A69
330
A57
100
AcDbEntity
  8
0
 62
     9
100
AcDbVertex
100
AcDb2dVertex
 10
1913.239834701245
 20
3369.890000824476
 30
0.0
  0
VERTEX
  5
A6A
330
A57
100
AcDbEntity
  8
0
 62
     9
100
AcDbVertex
100
AcDb2dVertex
 10
1936.606244115244
 20
3366.471816830975
 30
0.0
  0
VERTEX
  5
A6B
330
A57
100
AcDbEntity
  8
0
 62
     9
100
AcDbVertex
100
AcDb2dVertex
 10
1963.595836029745
 20
3364.327435542474
 30
0.0
  0
SEQEND
  5
A6C
330
A57
100
AcDbEntity
  8
0
 62
     9
  0
POLYLINE
  5
A6D
330
1F
100
AcDbEntity
  8
0
 62
     9
100
AcDb2dPolyline
 66
     1
 10
0.0
 20
0.0
 30
0.0
  0
VERTEX
  5
A6E
330
A6D
100
AcDbEntity
  8
0
 62
     9
100
AcDbVertex
100
AcDb2dVertex
 10
2579.517340735244
 20
3513.970216345975
 30
0.0
  0
VERTEX
  5
A6F
330
A6D
100
AcDbEntity
  8
0
 62
     9
100
AcDbVertex
100
AcDb2dVertex
 10
2516.267482398744
 20
3513.899877191975
 30
0.0
  0
VERTEX
  5
A70
330
A6D
100
AcDbEntity
  8
0
 62
     9
100
AcDbVertex
100
AcDb2dVertex
 10
2447.257461902745
 20
3513.719998604476
 30
0.0
  0
VERTEX
  5
A71
330
A6D
100
AcDbEntity
  8
0
 62
     9
100
AcDbVertex
100
AcDb2dVertex
 10
2370.855976138745
 20
3513.356042203476
 30
0.0
  0
VERTEX
  5
A72
330
A6D
100
AcDbEntity
  8
0
 62
     9
100
AcDbVertex
100
AcDb2dVertex
 10
2285.539364580245
 20
3512.657586801976
 30
0.0
  0
VERTEX
  5
A73
330
A6D
100
AcDbEntity
  8
0
 62
     9
100
AcDbVertex
100
AcDb2dVertex
 10
2189.866455087745
 20
3511.327912153475
 30
0.0
  0
VERTEX
  5
A74
330
A6D
100
AcDbEntity
  8
0
 62
     9
100
AcDbVertex
100
AcDb2dVertex
 10
2082.352042643245
 20
3508.777068523976
 30
0.0
  0
VERTEX
  5
A75
330
A6D
100
AcDbEntity
  8
0
 62
     9
100
AcDbVertex
100
AcDb2dVertex
 10
1961.241640889245
 20
3503.777112618475
 30
0.0
  0
SEQEND
  5
A76
330
A6D
100
AcDbEntity
  8
0
 62
     9
  0
POLYLINE
  5
A77
330
1F
100
AcDbEntity
  8
0
 62
     9
100
AcDb2dPolyline
 66
     1
 10
0.0
 20
0.0
 30
0.0
  0
VERTEX
  5
A78
330
A77
100
AcDbEntity
  8
0
 62
     9
100
AcDbVertex
100
AcDb2dVertex
 10
2579.582046937244
 20
3497.511627495475
 30
0.0
  0
VERTEX
  5
A79
330
A77
100
AcDbEntity
  8
0
 62
     9
100
AcDbVertex
100
AcDb2dVertex
 10
2516.526264399746
 20
3497.454865287975
 30
0.0
  0
VERTEX
  5
A7A
330
A77
100
AcDbEntity
  8
0
 62
     9
100
AcDbVertex
100
AcDb2dVertex
 10
2447.717815494744
 20
3497.309701952475
 30
0.0
  0
VERTEX
  5
A7B
330
A77
100
AcDbEntity
  8
0
 62
     9
100
AcDbVertex
100
AcDb2dVertex
 10
2371.528094069244
 20
3497.015923797475
 30
0.0
  0
VERTEX
  5
A7C
330
A77
100
AcDbEntity
  8
0
 62
     9
100
AcDbVertex
100
AcDb2dVertex
 10
2286.435610742244
 20
3496.452042433976
 30
0.0
  0
VERTEX
  5
A7D
330
A77
100
AcDbEntity
  8
0
 62
     9
100
AcDbVertex
100
AcDb2dVertex
 10
2191.000563976245
 20
3495.378339511976
 30
0.0
  0
VERTEX
  5
A7E
330
A77
100
AcDbEntity
  8
0
 62
     9
100
AcDbVertex
100
AcDb2dVertex
 10
2083.739767668744
 20
3493.318356756975
 30
0.0
  0
VERTEX
  5
A7F
330
A77
100
AcDbEntity
  8
0
 62
     9
100
AcDbVertex
100
AcDb2dVertex
 10
1962.902372385743
 20
3489.279106282976
 30
0.0
  0
SEQEND
  5
A80
330
A77
100
AcDbEntity
  8
0
 62
     9
  0
POLYLINE
  5
A81
330
1F
100
AcDbEntity
  8
0
 62
     9
100
AcDb2dPolyline
 66
     1
 10
0.0
 20
0.0
 30
0.0
  0
VERTEX
  5
A82
330
A81
100
AcDbEntity
  8
0
 62
     9
100
AcDbVertex
100
AcDb2dVertex
 10
2491.582045463244
 20
3675.704230733976
 30
0.0
  0
VERTEX
  5
A83
330
A81
100
AcDbEntity
  8
0
 62
     9
100
AcDbVertex
100
AcDb2dVertex
 10
2490.750048927242
 20
3680.920898210975
 30
0.0
  0
VERTEX
  5
A84
330
A81
100
AcDbEntity
  8
0
 62
     9
100
AcDbVertex
100
AcDb2dVertex
 10
2488.335359252743
 20
3685.627136076475
 30
0.0
  0
VERTEX
  5
A85
330
A81
100
AcDbEntity
  8
0
 62
     9
100
AcDbVertex
100
AcDb2dVertex
 10
2484.574360508742
 20
3689.362009767975
 30
0.0
  0
VERTEX
  5
A86
330
A81
100
AcDbEntity
  8
0
 62
     9
100
AcDbVertex
100
AcDb2dVertex
 10
2479.835202993242
 20
3691.759926269475
 30
0.0
  0
VERTEX
  5
A87
330
A81
100
AcDbEntity
  8
0
 62
     9
100
AcDbVertex
100
AcDb2dVertex
 10
2474.582045463242
 20
3692.586143502976
 30
0.0
  0
SEQEND
  5
A88
330
A81
100
AcDbEntity
  8
0
 62
     9
  0
LINE
  5
A89
330
1F
100
AcDbEntity
  8
0
100
AcDbLine
 10
2567.912045463242
 20
4220.079063039975
 30
0.0
 11
2567.912045463242
 21
4221.379062081974
 31
0.0
  0
LINE
  5
A8A
330
1F
100
AcDbEntity
  8
0
100
AcDbLine
 10
2567.912045463242
 20
4223.686271371474
 30
0.0
 11
2567.912045463242
 21
4226.086272244976
 31
0.0
  0
LINE
  5
A8B
330
1F
100
AcDbEntity
  8
0
100
AcDbLine
 10
2569.382045306243
 20
4224.829062942474
 30
0.0
 11
2569.382045306243
 21
4225.029062942475
 31
0.0
  0
LINE
  5
A8C
330
1F
100
AcDbEntity
  8
0
100
AcDbLine
 10
2572.082045463242
 20
4218.079063039975
 30
0.0
 11
2572.082045463242
 21
4210.079063039975
 31
0.0
  0
POLYLINE
  5
A8D
330
1F
100
AcDbEntity
  8
0
100
AcDb2dPolyline
 66
     1
 10
0.0
 20
0.0
 30
0.0
  0
VERTEX
  5
A8E
330
A8D
100
AcDbEntity
  8
0
100
AcDbVertex
100
AcDb2dVertex
 10
2491.582045463244
 20
3514.379430815975
 30
0.0
  0
VERTEX
  5
A8F
330
A8D
100
AcDbEntity
  8
0
100
AcDbVertex
100
AcDb2dVertex
 10
2490.800627370743
 20
3509.363562272476
 30
0.0
  0
VERTEX
  5
A90
330
A8D
100
AcDbEntity
  8
0
100
AcDbVertex
100
AcDb2dVertex
 10
2488.432268991742
 20
3504.652664380975
 30
0.0
  0
VERTEX
  5
A91
330
A8D
100
AcDbEntity
  8
0
100
AcDbVertex
100
AcDb2dVertex
 10
2484.670086162243
 20
3500.851331677976
 30
0.0
  0
VERTEX
  5
A92
330
A8D
100
AcDbEntity
  8
0
100
AcDbVertex
100
AcDb2dVertex
 10
2479.891700582243
 20
3498.384426293475
 30
0.0
  0
VERTEX
  5
A93
330
A8D
100
AcDbEntity
  8
0
100
AcDbVertex
100
AcDb2dVertex
 10
2474.582045463242
 20
3497.511627418975
 30
0.0
  0
SEQEND
  5
A94
330
A8D
100
AcDbEntity
  8
0
  0
POLYLINE
  5
A95
330
1F
100
AcDbEntity
  8
0
 62
     9
100
AcDb2dPolyline
 66
     1
 10
0.0
 20
0.0
 30
0.0
  0
VERTEX
  5
A96
330
A95
100
AcDbEntity
  8
0
 62
     9
100
AcDbVertex
100
AcDb2dVertex
 10
1961.241640889245
 20
3503.777112618475
 30
0.0
  0
VERTEX
  5
A97
330
A95
100
AcDbEntity
  8
0
 62
     9
100
AcDbVertex
100
AcDb2dVertex
 10
1932.335241012243
 20
3501.447146977976
 30
0.0
  0
VERTEX
  5
A98
330
A95
100
AcDbEntity
  8
0
 62
     9
100
AcDbVertex
100
AcDb2dVertex
 10
1907.554793852744
 20
3497.708622890475
 30
0.0
  0
VERTEX
  5
A99
330
A95
100
AcDbEntity
  8
0
 62
     9
100
AcDbVertex
100
AcDb2dVertex
 10
1886.372620406743
 20
3492.551331795475
 30
0.0
  0
VERTEX
  5
A9A
330
A95
100
AcDbEntity
  8
0
 62
     9
100
AcDbVertex
100
AcDb2dVertex
 10
1868.306207752744
 20
3485.857491255976
 30
0.0
  0
VERTEX
  5
A9B
330
A95
100
AcDbEntity
  8
0
 62
     9
100
AcDbVertex
100
AcDb2dVertex
 10
1853.385228201244
 20
3477.637289759975
 30
0.0
  0
VERTEX
  5
A9C
330
A95
100
AcDbEntity
  8
0
 62
     9
100
AcDbVertex
100
AcDb2dVertex
 10
1841.671840244745
 20
3468.046099985976
 30
0.0
  0
VERTEX
  5
A9D
330
A95
100
AcDbEntity
  8
0
 62
     9
100
AcDbVertex
100
AcDb2dVertex
 10
1833.122528306744
 20
3457.327797870476
 30
0.0
  0
VERTEX
  5
A9E
330
A95
100
AcDbEntity
  8
0
 62
     9
100
AcDbVertex
100
AcDb2dVertex
 10
1827.697972490744
 20
3445.963746259975
 30
0.0
  0
VERTEX
  5
A9F
330
A95
100
AcDbEntity
  8
0
 62
     9
100
AcDbVertex
100
AcDb2dVertex
 10
1825.165102507245
 20
3434.389752056976
 30
0.0
  0
VERTEX
  5
AA0
330
A95
100
AcDbEntity
  8
0
 62
     9
100
AcDbVertex
100
AcDb2dVertex
 10
1825.275414762745
 20
3422.721952618975
 30
0.0
  0
VERTEX
  5
AA1
330
A95
100
AcDbEntity
  8
0
 62
     9
100
AcDbVertex
100
AcDb2dVertex
 10
1828.043715450244
 20
3410.934679133476
 30
0.0
  0
VERTEX
  5
AA2
330
A95
100
AcDbEntity
  8
0
 62
     9
100
AcDbVertex
100
AcDb2dVertex
 10
1833.671104351743
 20
3399.271878325976
 30
0.0
  0
VERTEX
  5
AA3
330
A95
100
AcDbEntity
  8
0
 62
     9
100
AcDbVertex
100
AcDb2dVertex
 10
1842.336766577245
 20
3388.155774775475
 30
0.0
  0
VERTEX
  5
AA4
330
A95
100
AcDbEntity
  8
0
 62
     9
100
AcDbVertex
100
AcDb2dVertex
 10
1854.252725908244
 20
3377.923952917975
 30
0.0
  0
VERTEX
  5
AA5
330
A95
100
AcDbEntity
  8
0
 62
     9
100
AcDbVertex
100
AcDb2dVertex
 10
1869.296119811245
 20
3369.053121665975
 30
0.0
  0
VERTEX
  5
AA6
330
A95
100
AcDbEntity
  8
0
 62
     9
100
AcDbVertex
100
AcDb2dVertex
 10
1887.422521187244
 20
3361.715765568475
 30
0.0
  0
VERTEX
  5
AA7
330
A95
100
AcDbEntity
  8
0
 62
     9
100
AcDbVertex
100
AcDb2dVertex
 10
1908.722579813745
 20
3355.941247992475
 30
0.0
  0
VERTEX
  5
AA8
330
A95
100
AcDbEntity
  8
0
 62
     9
100
AcDbVertex
100
AcDb2dVertex
 10
1933.414610122744
 20
3351.718634187475
 30
0.0
  0
VERTEX
  5
AA9
330
A95
100
AcDbEntity
  8
0
 62
     9
100
AcDbVertex
100
AcDb2dVertex
 10
1961.938070289744
 20
3349.068277384975
 30
0.0
  0
SEQEND
  5
AAA
330
A95
100
AcDbEntity
  8
0
 62
     9
  0
POLYLINE
  5
AAB
330
1F
100
AcDbEntity
  8
0
100
AcDb2dPolyline
 66
     1
 10
0.0
 20
0.0
 30
0.0
  0
VERTEX
  5
AAC
330
AAB
100
AcDbEntity
  8
0
100
AcDbVertex
100
AcDb2dVertex
 10
2491.582045463244
 20
3675.703950753975
 30
0.0
  0
VERTEX
  5
AAD
330
AAB
100
AcDbEntity
  8
0
100
AcDbVertex
100
AcDb2dVertex
 10
2490.794444963743
 20
3676.110485628975
 30
0.0
  0
VERTEX
  5
AAE
330
AAB
100
AcDbEntity
  8
0
100
AcDbVertex
100
AcDb2dVertex
 10
2488.413090263744
 20
3676.318066437475
 30
0.0
  0
VERTEX
  5
AAF
330
AAB
100
AcDbEntity
  8
0
100
AcDbVertex
100
AcDb2dVertex
 10
2484.636510567743
 20
3676.337286545475
 30
0.0
  0
VERTEX
  5
AB0
330
AAB
100
AcDbEntity
  8
0
100
AcDbVertex
100
AcDb2dVertex
 10
2479.842495600243
 20
3676.208833730976
 30
0.0
  0
VERTEX
  5
AB1
330
AAB
100
AcDbEntity
  8
0
100
AcDbVertex
100
AcDb2dVertex
 10
2474.517053575743
 20
3675.984615331476
 30
0.0
  0
SEQEND
  5
AB2
330
AAB
100
AcDbEntity
  8
0
  0
POLYLINE
  5
AB3
330
1F
100
AcDbEntity
  8
0
 62
     9
100
AcDb2dPolyline
 66
     1
 10
0.0
 20
0.0
 30
0.0
  0
VERTEX
  5
AB4
330
AB3
100
AcDbEntity
  8
0
 62
     9
100
AcDbVertex
100
AcDb2dVertex
 10
1962.834661786245
 20
3700.579442255474
 30
0.0
  0
VERTEX
  5
AB5
330
AB3
100
AcDbEntity
  8
0
 62
     9
100
AcDbVertex
100
AcDb2dVertex
 10
2147.898487124744
 20
3695.314540218475
 30
0.0
  0
VERTEX
  5
AB6
330
AB3
100
AcDbEntity
  8
0
 62
     9
100
AcDbVertex
100
AcDb2dVertex
 10
2354.692903827746
 20
3693.142933369975
 30
0.0
  0
VERTEX
  5
AB7
330
AB3
100
AcDbEntity
  8
0
 62
     9
100
AcDbVertex
100
AcDb2dVertex
 10
2579.581632276743
 20
3692.586107090976
 30
0.0
  0
SEQEND
  5
AB8
330
AB3
100
AcDbEntity
  8
0
 62
     9
  0
POLYLINE
  5
AB9
330
1F
100
AcDbEntity
  8
0
 62
     9
100
AcDb2dPolyline
 66
     1
 10
0.0
 20
0.0
 30
0.0
  0
VERTEX
  5
ABA
330
AB9
100
AcDbEntity
  8
0
 62
     9
100
AcDbVertex
100
AcDb2dVertex
 10
1961.173640710244
 20
3685.881789823475
 30
0.0
  0
VERTEX
  5
ABB
330
AB9
100
AcDbEntity
  8
0
 62
     9
100
AcDbVertex
100
AcDb2dVertex
 10
2146.738934617745
 20
3679.362005572976
 30
0.0
  0
VERTEX
  5
ABC
330
AB9
100
AcDbEntity
  8
0
 62
     9
100
AcDbVertex
100
AcDb2dVertex
 10
2354.062927813245
 20
3676.673931769475
 30
0.0
  0
VERTEX
  5
ABD
330
AB9
100
AcDbEntity
  8
0
 62
     9
100
AcDbVertex
100
AcDb2dVertex
 10
2579.517494427245
 20
3675.985089822475
 30
0.0
  0
SEQEND
  5
ABE
330
AB9
100
AcDbEntity
  8
0
 62
     9
  0
POLYLINE
  5
ABF
330
1F
100
AcDbEntity
  8
0
 62
     9
100
AcDb2dPolyline
 66
     1
 10
0.0
 20
0.0
 30
0.0
  0
VERTEX
  5
AC0
330
ABF
100
AcDbEntity
  8
0
 62
     9
100
AcDbVertex
100
AcDb2dVertex
 10
2491.582045463244
 20
3853.361539922975
 30
0.0
  0
VERTEX
  5
AC1
330
ABF
100
AcDbEntity
  8
0
 62
     9
100
AcDbVertex
100
AcDb2dVertex
 10
2490.745988053742
 20
3853.685009927475
 30
0.0
  0
VERTEX
  5
AC2
330
ABF
100
AcDbEntity
  8
0
 62
     9
100
AcDbVertex
100
AcDb2dVertex
 10
2488.320075305244
 20
3853.976210935476
 30
0.0
  0
VERTEX
  5
AC3
330
ABF
100
AcDbEntity
  8
0
 62
     9
100
AcDbVertex
100
AcDb2dVertex
 10
2484.542921136244
 20
3854.206508280475
 30
0.0
  0
VERTEX
  5
AC4
330
ABF
100
AcDbEntity
  8
0
 62
     9
100
AcDbVertex
100
AcDb2dVertex
 10
2479.786015676243
 20
3854.353252145975
 30
0.0
  0
VERTEX
  5
AC5
330
ABF
100
AcDbEntity
  8
0
 62
     9
100
AcDbVertex
100
AcDb2dVertex
 10
2474.517201300242
 20
3854.402002131975
 30
0.0
  0
SEQEND
  5
AC6
330
ABF
100
AcDbEntity
  8
0
 62
     9
  0
POLYLINE
  5
AC7
330
1F
100
AcDbEntity
  8
0
 62
     9
100
AcDb2dPolyline
 66
     1
 10
0.0
 20
0.0
 30
0.0
  0
VERTEX
  5
AC8
330
AC7
100
AcDbEntity
  8
0
 62
     9
100
AcDbVertex
100
AcDb2dVertex
 10
1963.421413606745
 20
3826.766299882976
 30
0.0
  0
VERTEX
  5
AC9
330
AC7
100
AcDbEntity
  8
0
 62
     9
100
AcDbVertex
100
AcDb2dVertex
 10
1936.056807612744
 20
3824.678517262975
 30
0.0
  0
VERTEX
  5
ACA
330
AC7
100
AcDbEntity
  8
0
 62
     9
100
AcDbVertex
100
AcDb2dVertex
 10
1912.367405957245
 20
3821.330403771975
 30
0.0
  0
VERTEX
  5
ACB
330
AC7
100
AcDbEntity
  8
0
 62
     9
100
AcDbVertex
100
AcDb2dVertex
 10
1891.950962805745
 20
3816.731800510975
 30
0.0
  0
VERTEX
  5
ACC
330
AC7
100
AcDbEntity
  8
0
 62
     9
100
AcDbVertex
100
AcDb2dVertex
 10
1874.467258366744
 20
3810.819965946475
 30
0.0
  0
VERTEX
  5
ACD
330
AC7
100
AcDbEntity
  8
0
 62
     9
100
AcDbVertex
100
AcDb2dVertex
 10
1859.906000563745
 20
3803.602164707975
 30
0.0
  0
VERTEX
  5
ACE
330
AC7
100
AcDbEntity
  8
0
 62
     9
100
AcDbVertex
100
AcDb2dVertex
 10
1848.345483815244
 20
3795.200560876975
 30
0.0
  0
VERTEX
  5
ACF
330
AC7
100
AcDbEntity
  8
0
 62
     9
100
AcDbVertex
100
AcDb2dVertex
 10
1839.992791720743
 20
3786.071402057475
 30
0.0
  0
VERTEX
  5
AD0
330
AC7
100
AcDbEntity
  8
0
 62
     9
100
AcDbVertex
100
AcDb2dVertex
 10
1834.614019876245
 20
3776.519812720475
 30
0.0
  0
VERTEX
  5
AD1
330
AC7
100
AcDbEntity
  8
0
 62
     9
100
AcDbVertex
100
AcDb2dVertex
 10
1831.989657962244
 20
3766.875243400476
 30
0.0
  0
VERTEX
  5
AD2
330
AC7
100
AcDbEntity
  8
0
 62
     9
100
AcDbVertex
100
AcDb2dVertex
 10
1831.904675688244
 20
3757.373323018475
 30
0.0
  0
VERTEX
  5
AD3
330
AC7
100
AcDbEntity
  8
0
 62
     9
100
AcDbVertex
100
AcDb2dVertex
 10
1834.328318703244
 20
3747.928197514975
 30
0.0
  0
VERTEX
  5
AD4
330
AC7
100
AcDbEntity
  8
0
 62
     9
100
AcDbVertex
100
AcDb2dVertex
 10
1839.547217302746
 20
3738.581239706475
 30
0.0
  0
VERTEX
  5
AD5
330
AC7
100
AcDbEntity
  8
0
 62
     9
100
AcDbVertex
100
AcDb2dVertex
 10
1847.817474487744
 20
3729.733781516975
 30
0.0
  0
VERTEX
  5
AD6
330
AC7
100
AcDbEntity
  8
0
 62
     9
100
AcDbVertex
100
AcDb2dVertex
 10
1859.140019845744
 20
3721.842849374976
 30
0.0
  0
VERTEX
  5
AD7
330
AC7
100
AcDbEntity
  8
0
 62
     9
100
AcDbVertex
100
AcDb2dVertex
 10
1873.580218768745
 20
3715.092686051475
 30
0.0
  0
VERTEX
  5
AD8
330
AC7
100
AcDbEntity
  8
0
 62
     9
100
AcDbVertex
100
AcDb2dVertex
 10
1891.072163833744
 20
3709.616906411975
 30
0.0
  0
VERTEX
  5
AD9
330
AC7
100
AcDbEntity
  8
0
 62
     9
100
AcDbVertex
100
AcDb2dVertex
 10
1911.492829914744
 20
3705.435990391475
 30
0.0
  0
VERTEX
  5
ADA
330
AC7
100
AcDbEntity
  8
0
 62
     9
100
AcDbVertex
100
AcDb2dVertex
 10
1935.262740998244
 20
3702.433462405975
 30
0.0
  0
VERTEX
  5
ADB
330
AC7
100
AcDbEntity
  8
0
 62
     9
100
AcDbVertex
100
AcDb2dVertex
 10
1962.834661786245
 20
3700.579442255474
 30
0.0
  0
SEQEND
  5
ADC
330
AC7
100
AcDbEntity
  8
0
 62
     9
  0
POLYLINE
  5
ADD
330
1F
100
AcDbEntity
  8
0
 62
     9
100
AcDb2dPolyline
 66
     1
 10
0.0
 20
0.0
 30
0.0
  0
VERTEX
  5
ADE
330
ADD
100
AcDbEntity
  8
0
 62
     9
100
AcDbVertex
100
AcDb2dVertex
 10
2579.517472261744
 20
3854.389118108475
 30
0.0
  0
VERTEX
  5
ADF
330
ADD
100
AcDbEntity
  8
0
 62
     9
100
AcDbVertex
100
AcDb2dVertex
 10
2346.693745380745
 20
3853.277257826475
 30
0.0
  0
VERTEX
  5
AE0
330
ADD
100
AcDbEntity
  8
0
 62
     9
100
AcDbVertex
100
AcDb2dVertex
 10
2142.232321399745
 20
3849.675467309975
 30
0.0
  0
VERTEX
  5
AE1
330
ADD
100
AcDbEntity
  8
0
 62
     9
100
AcDbVertex
100
AcDb2dVertex
 10
1961.762901909245
 20
3842.119970950476
 30
0.0
  0
SEQEND
  5
AE2
330
ADD
100
AcDbEntity
  8
0
 62
     9
  0
POLYLINE
  5
AE3
330
1F
100
AcDbEntity
  8
0
 62
     9
100
AcDb2dPolyline
 66
     1
 10
0.0
 20
0.0
 30
0.0
  0
VERTEX
  5
AE4
330
AE3
100
AcDbEntity
  8
0
 62
     9
100
AcDbVertex
100
AcDb2dVertex
 10
2579.581810836745
 20
3836.685854084976
 30
0.0
  0
VERTEX
  5
AE5
330
AE3
100
AcDbEntity
  8
0
 62
     9
100
AcDbVertex
100
AcDb2dVertex
 10
2347.331638928744
 20
3835.775929692976
 30
0.0
  0
VERTEX
  5
AE6
330
AE3
100
AcDbEntity
  8
0
 62
     9
100
AcDbVertex
100
AcDb2dVertex
 10
2143.396033320244
 20
3832.867317398476
 30
0.0
  0
VERTEX
  5
AE7
330
AE3
100
AcDbEntity
  8
0
 62
     9
100
AcDbVertex
100
AcDb2dVertex
 10
1963.421413606745
 20
3826.766299882976
 30
0.0
  0
SEQEND
  5
AE8
330
AE3
100
AcDbEntity
  8
0
 62
     9
  0
LINE
  5
AE9
330
1F
100
AcDbEntity
  8
0
100
AcDbLine
 10
3615.082045463243
 20
3275.748936020975
 30
0.0
 11
3608.876481398243
 21
3279.331720104476
 31
0.0
  0
POLYLINE
  5
AEA
330
1F
100
AcDbEntity
  8
0
 62
     9
100
AcDb2dPolyline
 66
     1
 10
0.0
 20
0.0
 30
0.0
  0
VERTEX
  5
AEB
330
AEA
100
AcDbEntity
  8
0
 62
     9
100
AcDbVertex
100
AcDb2dVertex
 10
1961.762901909245
 20
3842.119970950476
 30
0.0
  0
VERTEX
  5
AEC
330
AEA
100
AcDbEntity
  8
0
 62
     9
100
AcDbVertex
100
AcDb2dVertex
 10
1932.851848455245
 20
3839.539591936976
 30
0.0
  0
VERTEX
  5
AED
330
AEA
100
AcDbEntity
  8
0
 62
     9
100
AcDbVertex
100
AcDb2dVertex
 10
1907.825825886245
 20
3835.403640146475
 30
0.0
  0
VERTEX
  5
AEE
330
AEA
100
AcDbEntity
  8
0
 62
     9
100
AcDbVertex
100
AcDb2dVertex
 10
1886.253865229745
 20
3829.723547533975
 30
0.0
  0
VERTEX
  5
AEF
330
AEA
100
AcDbEntity
  8
0
 62
     9
100
AcDbVertex
100
AcDb2dVertex
 10
1867.776526095745
 20
3822.420691661975
 30
0.0
  0
VERTEX
  5
AF0
330
AEA
100
AcDbEntity
  8
0
 62
     9
100
AcDbVertex
100
AcDb2dVertex
 10
1852.382052350745
 20
3813.501436939475
 30
0.0
  0
VERTEX
  5
AF1
330
AEA
100
AcDbEntity
  8
0
 62
     9
100
AcDbVertex
100
AcDb2dVertex
 10
1840.153715979245
 20
3803.112460478476
 30
0.0
  0
VERTEX
  5
AF2
330
AEA
100
AcDbEntity
  8
0
 62
     9
100
AcDbVertex
100
AcDb2dVertex
 10
1831.310588645744
 20
3791.809928332976
 30
0.0
  0
VERTEX
  5
AF3
330
AEA
100
AcDbEntity
  8
0
 62
     9
100
AcDbVertex
100
AcDb2dVertex
 10
1825.611435826244
 20
3779.965002551975
 30
0.0
  0
VERTEX
  5
AF4
330
AEA
100
AcDbEntity
  8
0
 62
     9
100
AcDbVertex
100
AcDb2dVertex
 10
1822.833545537244
 20
3767.987515431975
 30
0.0
  0
VERTEX
  5
AF5
330
AEA
100
AcDbEntity
  8
0
 62
     9
100
AcDbVertex
100
AcDb2dVertex
 10
1822.756256952244
 20
3756.178877400975
 30
0.0
  0
VERTEX
  5
AF6
330
AEA
100
AcDbEntity
  8
0
 62
     9
100
AcDbVertex
100
AcDb2dVertex
 10
1825.346920445244
 20
3744.448656833475
 30
0.0
  0
VERTEX
  5
AF7
330
AEA
100
AcDbEntity
  8
0
 62
     9
100
AcDbVertex
100
AcDb2dVertex
 10
1830.899845303745
 20
3732.858831887975
 30
0.0
  0
VERTEX
  5
AF8
330
AEA
100
AcDbEntity
  8
0
 62
     9
100
AcDbVertex
100
AcDb2dVertex
 10
1839.674664471244
 20
3721.906142582475
 30
0.0
  0
VERTEX
  5
AF9
330
AEA
100
AcDbEntity
  8
0
 62
     9
100
AcDbVertex
100
AcDb2dVertex
 10
1851.664644323245
 20
3712.149221717475
 30
0.0
  0
VERTEX
  5
AFA
330
AEA
100
AcDbEntity
  8
0
 62
     9
100
AcDbVertex
100
AcDb2dVertex
 10
1866.935153768744
 20
3703.809049205976
 30
0.0
  0
VERTEX
  5
AFB
330
AEA
100
AcDbEntity
  8
0
 62
     9
100
AcDbVertex
100
AcDb2dVertex
 10
1885.416921142744
 20
3697.045681132975
 30
0.0
  0
VERTEX
  5
AFC
330
AEA
100
AcDbEntity
  8
0
 62
     9
100
AcDbVertex
100
AcDb2dVertex
 10
1906.980787374244
 20
3691.882001387976
 30
0.0
  0
VERTEX
  5
AFD
330
AEA
100
AcDbEntity
  8
0
 62
     9
100
AcDbVertex
100
AcDb2dVertex
 10
1932.071039437744
 20
3688.173212693475
 30
0.0
  0
VERTEX
  5
AFE
330
AEA
100
AcDbEntity
  8
0
 62
     9
100
AcDbVertex
100
AcDb2dVertex
 10
1961.173640710244
 20
3685.881789823475
 30
0.0
  0
SEQEND
  5
AFF
330
AEA
100
AcDbEntity
  8
0
 62
     9
  0
LINE
  5
B00
330
1F
100
AcDbEntity
  8
0
100
AcDbLine
 10
2509.782045477244
 20
4221.229062922475
 30
0.0
 11
2509.786842442242
 21
4221.222209195474
 31
0.0
  0
LINE
  5
B01
330
1F
100
AcDbEntity
  8
0
100
AcDbLine
 10
2509.782045642743
 20
4223.629062246475
 30
0.0
 11
2509.786842623743
 21
4223.622208496975
 31
0.0
  0
LINE
  5
B02
330
1F
100
AcDbEntity
  8
0
100
AcDbLine
 10
2509.782045564743
 20
4226.029063695974
 30
0.0
 11
2509.786842546744
 21
4226.022209944974
 31
0.0
  0
LINE
  5
B03
330
1F
100
AcDbEntity
  8
0
100
AcDbLine
 10
2509.782045466243
 20
4228.429063479974
 30
0.0
 11
2509.786842433742
 21
4228.422209749474
 31
0.0
  0
LINE
  5
B04
330
1F
100
AcDbEntity
  8
0
100
AcDbLine
 10
2569.377248347243
 20
4222.635915822974
 30
0.0
 11
2569.382045322243
 21
4222.629062081974
 31
0.0
  0
LINE
  5
B05
330
1F
100
AcDbEntity
  8
0
100
AcDbLine
 10
2569.377248322743
 20
4225.035916695975
 30
0.0
 11
2569.382045306243
 21
4225.029062942475
 31
0.0
  0
LINE
  5
B06
330
1F
100
AcDbEntity
  8
0
100
AcDbLine
 10
2569.377248445743
 20
4227.435917776975
 30
0.0
 11
2569.382045422243
 21
4227.429064032975
 31
0.0
  0
LINE
  5
B07
330
1F
100
AcDbEntity
  8
0
100
AcDbLine
 10
1564.582045463244
 20
4010.079063039975
 30
0.0
 11
1665.082799379744
 21
4010.079063039975
 31
0.0
  0
LINE
  5
B08
330
1F
100
AcDbEntity
  8
0
100
AcDbLine
 10
3617.082045463242
 20
4050.079063039976
 30
0.0
 11
3709.082045463244
 21
4050.079063039976
 31
0.0
  0
LINE
  5
B09
330
1F
100
AcDbEntity
  8
0
100
AcDbLine
 10
2509.715222216744
 20
4221.273357869475
 30
0.0
 11
2511.182361857243
 21
4220.225222556475
 31
0.0
  0
LINE
  5
B0A
330
1F
100
AcDbEntity
  8
0
100
AcDbLine
 10
2509.715222420743
 20
4223.673357154974
 30
0.0
 11
2511.182362052742
 21
4222.625221841474
 31
0.0
  0
LINE
  5
B0B
330
1F
100
AcDbEntity
  8
0
100
AcDbLine
 10
2509.715222336242
 20
4226.073358607975
 30
0.0
 11
2511.182361972743
 21
4225.025223293974
 31
0.0
  0
LINE
  5
B0C
330
1F
100
AcDbEntity
  8
0
100
AcDbLine
 10
1564.582045463244
 20
4120.079063039975
 30
0.0
 11
1682.173220663743
 21
4120.079063039975
 31
0.0
  0
LINE
  5
B0D
330
1F
100
AcDbEntity
  8
0
100
AcDbLine
 10
2509.715222210243
 20
4228.473358421475
 30
0.0
 11
2511.182361851742
 21
4227.425223107974
 31
0.0
  0
LINE
  5
B0E
330
1F
100
AcDbEntity
  8
0
100
AcDbLine
 10
2569.449145840742
 20
4222.584569114975
 30
0.0
 11
2567.981556739743
 21
4223.633025420975
 31
0.0
  0
LINE
  5
B0F
330
1F
100
AcDbEntity
  8
0
100
AcDbLine
 10
2569.449145820242
 20
4224.984569984974
 30
0.0
 11
2567.981556719243
 21
4226.033026291974
 31
0.0
  0
LINE
  5
B10
330
1F
100
AcDbEntity
  8
0
100
AcDbLine
 10
2569.449145929742
 20
4227.384571075474
 30
0.0
 11
2567.981556824242
 21
4228.433027381476
 31
0.0
  0
LINE
  5
B11
330
1F
100
AcDbEntity
  8
0
100
AcDbLine
 10
2567.912045329243
 20
4223.679062081974
 30
0.0
 11
2567.708551514742
 21
4223.633252229475
 31
0.0
  0
LINE
  5
B12
330
1F
100
AcDbEntity
  8
0
100
AcDbLine
 10
2567.906999575243
 20
4221.371852792475
 30
0.0
 11
2567.708551514742
 21
4221.333252229475
 31
0.0
  0
LINE
  5
B13
330
1F
100
AcDbEntity
  8
0
100
AcDbLine
 10
2569.382045422243
 20
4227.429064032975
 30
0.0
 11
2569.081432572744
 21
4227.374763040475
 31
0.0
  0
LINE
  5
B14
330
1F
100
AcDbEntity
  8
0
100
AcDbLine
 10
2567.912045313743
 20
4226.079062942474
 30
0.0
 11
2567.550203377744
 21
4226.017948175474
 31
0.0
  0
LINE
  5
B15
330
1F
100
AcDbEntity
  8
0
100
AcDbLine
 10
2569.377248445743
 20
4227.222210289474
 30
0.0
 11
2569.081432572744
 21
4227.174763040475
 31
0.0
  0
LINE
  5
B16
330
1F
100
AcDbEntity
  8
0
100
AcDbLine
 10
2569.382045322243
 20
4222.629062081974
 30
0.0
 11
2568.985298431243
 21
4222.566663039976
 31
0.0
  0
POLYLINE
  5
B17
330
1F
100
AcDbEntity
  8
0
100
AcDb2dPolyline
 66
     1
 10
0.0
 20
0.0
 30
0.0
  0
VERTEX
  5
B18
330
B17
100
AcDbEntity
  8
0
100
AcDbVertex
100
AcDb2dVertex
 10
2567.906999551243
 20
4223.771853640475
 30
0.0
  0
VERTEX
  5
B19
330
B17
100
AcDbEntity
  8
0
100
AcDbVertex
100
AcDb2dVertex
 10
2567.550203377744
 20
4223.717948175475
 30
0.0
  0
VERTEX
  5
B1A
330
B17
100
AcDbEntity
  8
0
100
AcDbVertex
100
AcDb2dVertex
 10
2565.316038391743
 20
4223.614265742974
 30
0.0
  0
SEQEND
  5
B1B
330
B17
100
AcDbEntity
  8
0
  0
LINE
  5
B1C
330
1F
100
AcDbEntity
  8
0
100
AcDbLine
 10
2510.246144394242
 20
4223.696563040475
 30
0.0
 11
2509.782045642743
 21
4223.629062246475
 31
0.0
  0
LINE
  5
B1D
330
1F
100
AcDbEntity
  8
0
100
AcDbLine
 10
2569.377248347243
 20
4222.422208340975
 30
0.0
 11
2568.985298431243
 21
4222.366663039974
 31
0.0
  0
LINE
  5
B1E
330
1F
100
AcDbEntity
  8
0
100
AcDbLine
 10
2567.912045424243
 20
4228.479064032974
 30
0.0
 11
2567.346955200242
 21
4228.402644121476
 31
0.0
  0
LINE
  5
B1F
330
1F
100
AcDbEntity
  8
0
100
AcDbLine
 10
2510.246144394242
 20
4223.896563040475
 30
0.0
 11
2509.786842623743
 21
4223.835915996475
 31
0.0
  0
LINE
  5
B20
330
1F
100
AcDbEntity
  8
0
100
AcDbLine
 10
2510.363806696242
 20
4228.504663039974
 30
0.0
 11
2509.782045466243
 21
4228.429063479974
 31
0.0
  0
LINE
  5
B21
330
1F
100
AcDbEntity
  8
0
100
AcDbLine
 10
2567.906999668742
 20
4226.171854740475
 30
0.0
 11
2567.346955200242
 21
4226.102644121475
 31
0.0
  0
LINE
  5
B22
330
1F
100
AcDbEntity
  8
0
100
AcDbLine
 10
2511.979633782742
 20
4225.065819797475
 30
0.0
 11
2511.252045559743
 21
4224.979063695974
 31
0.0
  0
LINE
  5
B23
330
1F
100
AcDbEntity
  8
0
100
AcDbLine
 10
2510.363806696242
 20
4228.704663039974
 30
0.0
 11
2509.786842433742
 21
4228.635917210975
 31
0.0
  0
LINE
  5
B24
330
1F
100
AcDbEntity
  8
0
100
AcDbLine
 10
2511.979633782742
 20
4227.365819797475
 30
0.0
 11
2511.257091321243
 21
4227.286272995974
 31
0.0
  0
POLYLINE
  5
B25
330
1F
100
AcDbEntity
  8
0
100
AcDb2dPolyline
 66
     1
 10
0.0
 20
0.0
 30
0.0
  0
VERTEX
  5
B26
330
B25
100
AcDbEntity
  8
0
100
AcDbVertex
100
AcDb2dVertex
 10
2567.906999615242
 20
4228.571852982475
 30
0.0
  0
VERTEX
  5
B27
330
B25
100
AcDbEntity
  8
0
100
AcDbVertex
100
AcDb2dVertex
 10
2567.098373696742
 20
4228.487294029974
 30
0.0
  0
VERTEX
  5
B28
330
B25
100
AcDbEntity
  8
0
100
AcDbVertex
100
AcDb2dVertex
 10
2564.283741992243
 20
4228.383618173975
 30
0.0
  0
VERTEX
  5
B29
330
B25
100
AcDbEntity
  8
0
100
AcDbVertex
100
AcDb2dVertex
 10
2559.660470174743
 20
4228.279942318475
 30
0.0
  0
VERTEX
  5
B2A
330
B25
100
AcDbEntity
  8
0
100
AcDbVertex
100
AcDb2dVertex
 10
2553.567070321743
 20
4228.176266462975
 30
0.0
  0
VERTEX
  5
B2B
330
B25
100
AcDbEntity
  8
0
100
AcDbVertex
100
AcDb2dVertex
 10
2546.449696373243
 20
4228.072590606974
 30
0.0
  0
VERTEX
  5
B2C
330
B25
100
AcDbEntity
  8
0
100
AcDbVertex
100
AcDb2dVertex
 10
2538.829477138242
 20
4227.968914751476
 30
0.0
  0
VERTEX
  5
B2D
330
B25
100
AcDbEntity
  8
0
100
AcDbVertex
100
AcDb2dVertex
 10
2531.264359665243
 20
4227.865238895475
 30
0.0
  0
VERTEX
  5
B2E
330
B25
100
AcDbEntity
  8
0
100
AcDbVertex
100
AcDb2dVertex
 10
2524.308256775242
 20
4227.761563039975
 30
0.0
  0
SEQEND
  5
B2F
330
B25
100
AcDbEntity
  8
0
  0
LINE
  5
B30
330
1F
100
AcDbEntity
  8
0
100
AcDbLine
 10
2512.257339090243
 20
4222.681123851475
 30
0.0
 11
2511.252045634242
 21
4222.579062246476
 31
0.0
  0
LINE
  5
B31
330
1F
100
AcDbEntity
  8
0
100
AcDbLine
 10
2512.257339090243
 20
4224.981123851475
 30
0.0
 11
2511.257091394243
 21
4224.886271545475
 31
0.0
  0
LINE
  5
B32
330
1F
100
AcDbEntity
  8
0
100
AcDbLine
 10
2568.83546506656
 20
4229.572910974773
 30
0.0
 11
2568.338187339743
 21
4229.527663039974
 31
0.0
  0
LINE
  5
B33
330
1F
100
AcDbEntity
  8
0
100
AcDbLine
 10
2569.382045306243
 20
4225.029062942475
 30
0.0
 11
2568.165931603743
 21
4224.919563040475
 31
0.0
  0
LINE
  5
B34
330
1F
100
AcDbEntity
  8
0
100
AcDbLine
 10
2569.377248322743
 20
4224.822209189475
 30
0.0
 11
2568.165931603743
 21
4224.719563040475
 31
0.0
  0
LINE
  5
B35
330
1F
100
AcDbEntity
  8
0
100
AcDbLine
 10
2512.578866851743
 20
4222.596427904974
 30
0.0
 11
2511.257091220242
 21
4222.486272196975
 31
0.0
  0
LINE
  5
B36
330
1F
100
AcDbEntity
  8
0
100
AcDbLine
 10
2511.113218579242
 20
4221.543663039976
 30
0.0
 11
2509.786842442242
 21
4221.435916649475
 31
0.0
  0
POLYLINE
  5
B37
330
1F
100
AcDbEntity
  8
0
100
AcDb2dPolyline
 66
     1
 10
0.0
 20
0.0
 30
0.0
  0
VERTEX
  5
B38
330
B37
100
AcDbEntity
  8
0
100
AcDbVertex
100
AcDb2dVertex
 10
2512.578866851743
 20
4220.296427904974
 30
0.0
  0
VERTEX
  5
B39
330
B37
100
AcDbEntity
  8
0
100
AcDbVertex
100
AcDb2dVertex
 10
2511.270219143243
 20
4220.192745472475
 30
0.0
  0
VERTEX
  5
B3A
330
B37
100
AcDbEntity
  8
0
100
AcDbVertex
100
AcDb2dVertex
 10
2511.252045476743
 20
4220.179062922475
 30
0.0
  0
SEQEND
  5
B3B
330
B37
100
AcDbEntity
  8
0
  0
LINE
  5
B3C
330
1F
100
AcDbEntity
  8
0
100
AcDbLine
 10
2511.113218579242
 20
4221.343663039975
 30
0.0
 11
2509.797494663243
 21
4221.241363039974
 31
0.0
  0
LINE
  5
B3D
330
1F
100
AcDbEntity
  8
0
100
AcDbLine
 10
2511.306343718242
 20
4226.151763040475
 30
0.0
 11
2509.824532194242
 21
4226.049463040475
 31
0.0
  0
POLYLINE
  5
B3E
330
1F
100
AcDbEntity
  8
0
100
AcDb2dPolyline
 66
     1
 10
0.0
 20
0.0
 30
0.0
  0
VERTEX
  5
B3F
330
B3E
100
AcDbEntity
  8
0
100
AcDbVertex
100
AcDb2dVertex
 10
2511.306343718242
 20
4226.351763040475
 30
0.0
  0
VERTEX
  5
B40
330
B3E
100
AcDbEntity
  8
0
100
AcDbVertex
100
AcDb2dVertex
 10
2509.824532194242
 20
4226.249463040475
 30
0.0
  0
VERTEX
  5
B41
330
B3E
100
AcDbEntity
  8
0
100
AcDbVertex
100
AcDb2dVertex
 10
2509.786842546744
 20
4226.235917446975
 30
0.0
  0
SEQEND
  5
B42
330
B3E
100
AcDbEntity
  8
0
  0
POLYLINE
  5
B43
330
1F
100
AcDbEntity
  8
0
100
AcDb2dPolyline
 66
     1
 10
0.0
 20
0.0
 30
0.0
  0
VERTEX
  5
B44
330
B43
100
AcDbEntity
  8
0
100
AcDbVertex
100
AcDb2dVertex
 10
2567.708551514742
 20
4221.333252229475
 30
0.0
  0
VERTEX
  5
B45
330
B43
100
AcDbEntity
  8
0
100
AcDbVertex
100
AcDb2dVertex
 10
2565.769938590743
 20
4221.229569796975
 30
0.0
  0
VERTEX
  5
B46
330
B43
100
AcDbEntity
  8
0
100
AcDbVertex
100
AcDb2dVertex
 10
2561.913627283744
 20
4221.125887364475
 30
0.0
  0
VERTEX
  5
B47
330
B43
100
AcDbEntity
  8
0
100
AcDbVertex
100
AcDb2dVertex
 10
2556.422008795243
 20
4221.022204931974
 30
0.0
  0
VERTEX
  5
B48
330
B43
100
AcDbEntity
  8
0
100
AcDbVertex
100
AcDb2dVertex
 10
2549.697225431744
 20
4220.918522499475
 30
0.0
  0
SEQEND
  5
B49
330
B43
100
AcDbEntity
  8
0
  0
LINE
  5
B4A
330
1F
100
AcDbEntity
  8
0
100
AcDbLine
 10
2567.708551514742
 20
4223.633252229475
 30
0.0
 11
2565.769938590743
 21
4223.529569796975
 31
0.0
  0
LINE
  5
B4B
330
1F
100
AcDbEntity
  8
0
100
AcDbLine
 10
2569.081432572744
 20
4227.174763040475
 30
0.0
 11
2566.912478397743
 21
4227.072463040475
 31
0.0
  0
LINE
  5
B4C
330
1F
100
AcDbEntity
  8
0
100
AcDbLine
 10
2569.081432572744
 20
4227.374763040475
 30
0.0
 11
2566.912478397743
 21
4227.272463040475
 31
0.0
  0
LINE
  5
B4D
330
1F
100
AcDbEntity
  8
0
100
AcDbLine
 10
2567.550203377744
 20
4226.017948175474
 30
0.0
 11
2565.316038391743
 21
4225.914265742974
 31
0.0
  0
LINE
  5
B4E
330
1F
100
AcDbEntity
  8
0
100
AcDbLine
 10
2568.985298431243
 20
4222.366663039974
 30
0.0
 11
2566.654532009742
 21
4222.264363039974
 31
0.0
  0
LINE
  5
B4F
330
1F
100
AcDbEntity
  8
0
100
AcDbLine
 10
2568.985298431243
 20
4222.566663039976
 30
0.0
 11
2566.654532009742
 21
4222.464363039975
 31
0.0
  0
LINE
  5
B50
330
1F
100
AcDbEntity
  8
0
100
AcDbLine
 10
2512.678314514743
 20
4223.798863040475
 30
0.0
 11
2510.246144394242
 21
4223.696563040475
 31
0.0
  0
LINE
  5
B51
330
1F
100
AcDbEntity
  8
0
100
AcDbLine
 10
2512.678314514743
 20
4223.998863040475
 30
0.0
 11
2510.246144394242
 21
4223.896563040475
 31
0.0
  0
POLYLINE
  5
B52
330
1F
100
AcDbEntity
  8
0
100
AcDb2dPolyline
 66
     1
 10
0.0
 20
0.0
 30
0.0
  0
VERTEX
  5
B53
330
B52
100
AcDbEntity
  8
0
100
AcDbVertex
100
AcDb2dVertex
 10
2567.346955200242
 20
4226.102644121475
 30
0.0
  0
VERTEX
  5
B54
330
B52
100
AcDbEntity
  8
0
100
AcDbVertex
100
AcDb2dVertex
 10
2564.820813464244
 20
4225.998961688975
 30
0.0
  0
VERTEX
  5
B55
330
B52
100
AcDbEntity
  8
0
100
AcDbVertex
100
AcDb2dVertex
 10
2560.446478193743
 20
4225.895279256475
 30
0.0
  0
VERTEX
  5
B56
330
B52
100
AcDbEntity
  8
0
100
AcDbVertex
100
AcDb2dVertex
 10
2554.544275069743
 20
4225.791596823975
 30
0.0
  0
VERTEX
  5
B57
330
B52
100
AcDbEntity
  8
0
100
AcDbVertex
100
AcDb2dVertex
 10
2547.546412903742
 20
4225.687914391975
 30
0.0
  0
VERTEX
  5
B58
330
B52
100
AcDbEntity
  8
0
100
AcDbVertex
100
AcDb2dVertex
 10
2532.356187239743
 20
4225.480549526975
 30
0.0
  0
SEQEND
  5
B59
330
B52
100
AcDbEntity
  8
0
  0
POLYLINE
  5
B5A
330
1F
100
AcDbEntity
  8
0
100
AcDb2dPolyline
 66
     1
 10
0.0
 20
0.0
 30
0.0
  0
VERTEX
  5
B5B
330
B5A
100
AcDbEntity
  8
0
100
AcDbVertex
100
AcDb2dVertex
 10
2567.346955200242
 20
4228.402644121476
 30
0.0
  0
VERTEX
  5
B5C
330
B5A
100
AcDbEntity
  8
0
100
AcDbVertex
100
AcDb2dVertex
 10
2564.820813464244
 20
4228.298961688976
 30
0.0
  0
VERTEX
  5
B5D
330
B5A
100
AcDbEntity
  8
0
100
AcDbVertex
100
AcDb2dVertex
 10
2560.446478193743
 20
4228.195279256475
 30
0.0
  0
VERTEX
  5
B5E
330
B5A
100
AcDbEntity
  8
0
100
AcDbVertex
100
AcDb2dVertex
 10
2554.544275069743
 20
4228.091596823975
 30
0.0
  0
VERTEX
  5
B5F
330
B5A
100
AcDbEntity
  8
0
100
AcDbVertex
100
AcDb2dVertex
 10
2547.546412903742
 20
4227.987914391975
 30
0.0
  0
VERTEX
  5
B60
330
B5A
100
AcDbEntity
  8
0
100
AcDbVertex
100
AcDb2dVertex
 10
2532.356187239743
 20
4227.780549526975
 30
0.0
  0
SEQEND
  5
B61
330
B5A
100
AcDbEntity
  8
0
  0
LINE
  5
B62
330
1F
100
AcDbEntity
  8
0
100
AcDbLine
 10
2512.956064704243
 20
4228.606963039974
 30
0.0
 11
2510.363806696242
 21
4228.504663039974
 31
0.0
  0
LINE
  5
B63
330
1F
100
AcDbEntity
  8
0
100
AcDbLine
 10
2512.956064704243
 20
4228.806963039975
 30
0.0
 11
2510.363806696242
 21
4228.704663039974
 31
0.0
  0
LINE
  5
B64
330
1F
100
AcDbEntity
  8
0
100
AcDbLine
 10
2568.338187339743
 20
4229.527663039974
 30
0.0
 11
2565.244089232244
 21
4229.425363039974
 31
0.0
  0
POLYLINE
  5
B65
330
1F
100
AcDbEntity
  8
0
100
AcDb2dPolyline
 66
     1
 10
0.0
 20
0.0
 30
0.0
  0
VERTEX
  5
B66
330
B65
100
AcDbEntity
  8
0
100
AcDbVertex
100
AcDb2dVertex
 10
2568.165931603743
 20
4224.719563040475
 30
0.0
  0
VERTEX
  5
B67
330
B65
100
AcDbEntity
  8
0
100
AcDbVertex
100
AcDb2dVertex
 10
2564.917076125744
 20
4224.617263040475
 30
0.0
  0
VERTEX
  5
B68
330
B65
100
AcDbEntity
  8
0
100
AcDbVertex
100
AcDb2dVertex
 10
2559.861828967243
 20
4224.514963040475
 30
0.0
  0
VERTEX
  5
B69
330
B65
100
AcDbEntity
  8
0
100
AcDbVertex
100
AcDb2dVertex
 10
2553.360629975242
 20
4224.412663040475
 30
0.0
  0
VERTEX
  5
B6A
330
B65
100
AcDbEntity
  8
0
100
AcDbVertex
100
AcDb2dVertex
 10
2545.877015599744
 20
4224.310363040475
 30
0.0
  0
VERTEX
  5
B6B
330
B65
100
AcDbEntity
  8
0
100
AcDbVertex
100
AcDb2dVertex
 10
2537.944568693743
 20
4224.208063040475
 30
0.0
  0
VERTEX
  5
B6C
330
B65
100
AcDbEntity
  8
0
100
AcDbVertex
100
AcDb2dVertex
 10
2530.128873987243
 20
4224.105763040475
 30
0.0
  0
VERTEX
  5
B6D
330
B65
100
AcDbEntity
  8
0
100
AcDbVertex
100
AcDb2dVertex
 10
2522.987191820742
 20
4224.003463040475
 30
0.0
  0
VERTEX
  5
B6E
330
B65
100
AcDbEntity
  8
0
100
AcDbVertex
100
AcDb2dVertex
 10
2517.028725398242
 20
4223.901163040475
 30
0.0
  0
VERTEX
  5
B6F
330
B65
100
AcDbEntity
  8
0
100
AcDbVertex
100
AcDb2dVertex
 10
2512.678314514743
 20
4223.798863040475
 30
0.0
  0
SEQEND
  5
B70
330
B65
100
AcDbEntity
  8
0
  0
POLYLINE
  5
B71
330
1F
100
AcDbEntity
  8
0
100
AcDb2dPolyline
 66
     1
 10
0.0
 20
0.0
 30
0.0
  0
VERTEX
  5
B72
330
B71
100
AcDbEntity
  8
0
100
AcDbVertex
100
AcDb2dVertex
 10
2568.165931603743
 20
4224.919563040475
 30
0.0
  0
VERTEX
  5
B73
330
B71
100
AcDbEntity
  8
0
100
AcDbVertex
100
AcDb2dVertex
 10
2564.917076125744
 20
4224.817263040475
 30
0.0
  0
VERTEX
  5
B74
330
B71
100
AcDbEntity
  8
0
100
AcDbVertex
100
AcDb2dVertex
 10
2559.861828967243
 20
4224.714963040475
 30
0.0
  0
VERTEX
  5
B75
330
B71
100
AcDbEntity
  8
0
100
AcDbVertex
100
AcDb2dVertex
 10
2553.360629975242
 20
4224.612663040475
 30
0.0
  0
VERTEX
  5
B76
330
B71
100
AcDbEntity
  8
0
100
AcDbVertex
100
AcDb2dVertex
 10
2545.877015599744
 20
4224.510363040475
 30
0.0
  0
VERTEX
  5
B77
330
B71
100
AcDbEntity
  8
0
100
AcDbVertex
100
AcDb2dVertex
 10
2537.944568693743
 20
4224.408063040475
 30
0.0
  0
VERTEX
  5
B78
330
B71
100
AcDbEntity
  8
0
100
AcDbVertex
100
AcDb2dVertex
 10
2530.128873987243
 20
4224.305763040475
 30
0.0
  0
VERTEX
  5
B79
330
B71
100
AcDbEntity
  8
0
100
AcDbVertex
100
AcDb2dVertex
 10
2522.987191820742
 20
4224.203463040475
 30
0.0
  0
VERTEX
  5
B7A
330
B71
100
AcDbEntity
  8
0
100
AcDbVertex
100
AcDb2dVertex
 10
2517.028725398242
 20
4224.101163040475
 30
0.0
  0
VERTEX
  5
B7B
330
B71
100
AcDbEntity
  8
0
100
AcDbVertex
100
AcDb2dVertex
 10
2512.678314514743
 20
4223.998863040475
 30
0.0
  0
SEQEND
  5
B7C
330
B71
100
AcDbEntity
  8
0
  0
LINE
  5
B7D
330
1F
100
AcDbEntity
  8
0
100
AcDbLine
 10
2514.458781285742
 20
4221.445963039974
 30
0.0
 11
2511.113218579242
 21
4221.343663039975
 31
0.0
  0
LINE
  5
B7E
330
1F
100
AcDbEntity
  8
0
100
AcDbLine
 10
2514.458781285742
 20
4221.645963039974
 30
0.0
 11
2511.113218579242
 21
4221.543663039976
 31
0.0
  0
POLYLINE
  5
B7F
330
1F
100
AcDbEntity
  8
0
100
AcDb2dPolyline
 66
     1
 10
0.0
 20
0.0
 30
0.0
  0
VERTEX
  5
B80
330
B7F
100
AcDbEntity
  8
0
100
AcDbVertex
100
AcDb2dVertex
 10
2565.769938590743
 20
4223.529569796975
 30
0.0
  0
VERTEX
  5
B81
330
B7F
100
AcDbEntity
  8
0
100
AcDbVertex
100
AcDb2dVertex
 10
2561.913627283744
 20
4223.425887364474
 30
0.0
  0
VERTEX
  5
B82
330
B7F
100
AcDbEntity
  8
0
100
AcDbVertex
100
AcDb2dVertex
 10
2556.422008795243
 20
4223.322204931974
 30
0.0
  0
VERTEX
  5
B83
330
B7F
100
AcDbEntity
  8
0
100
AcDbVertex
100
AcDb2dVertex
 10
2549.697225431744
 20
4223.218522499475
 30
0.0
  0
VERTEX
  5
B84
330
B7F
100
AcDbEntity
  8
0
100
AcDbVertex
100
AcDb2dVertex
 10
2542.231722416743
 20
4223.114840066975
 30
0.0
  0
VERTEX
  5
B85
330
B7F
100
AcDbEntity
  8
0
100
AcDbVertex
100
AcDb2dVertex
 10
2534.572186947743
 20
4223.011157634475
 30
0.0
  0
VERTEX
  5
B86
330
B7F
100
AcDbEntity
  8
0
100
AcDbVertex
100
AcDb2dVertex
 10
2527.279515160743
 20
4222.907475202474
 30
0.0
  0
VERTEX
  5
B87
330
B7F
100
AcDbEntity
  8
0
100
AcDbVertex
100
AcDb2dVertex
 10
2520.887738573242
 20
4222.803792769975
 30
0.0
  0
VERTEX
  5
B88
330
B7F
100
AcDbEntity
  8
0
100
AcDbVertex
100
AcDb2dVertex
 10
2515.864917743743
 20
4222.700110337475
 30
0.0
  0
VERTEX
  5
B89
330
B7F
100
AcDbEntity
  8
0
100
AcDbVertex
100
AcDb2dVertex
 10
2512.578866851743
 20
4222.596427904974
 30
0.0
  0
SEQEND
  5
B8A
330
B7F
100
AcDbEntity
  8
0
  0
POLYLINE
  5
B8B
330
1F
100
AcDbEntity
  8
0
100
AcDb2dPolyline
 66
     1
 10
0.0
 20
0.0
 30
0.0
  0
VERTEX
  5
B8C
330
B8B
100
AcDbEntity
  8
0
100
AcDbVertex
100
AcDb2dVertex
 10
2565.316038391743
 20
4223.614265742974
 30
0.0
  0
VERTEX
  5
B8D
330
B8B
100
AcDbEntity
  8
0
100
AcDbVertex
100
AcDb2dVertex
 10
2561.197417292243
 20
4223.510583310974
 30
0.0
  0
VERTEX
  5
B8E
330
B8B
100
AcDbEntity
  8
0
100
AcDbVertex
100
AcDb2dVertex
 10
2555.495939564243
 20
4223.406900878474
 30
0.0
  0
VERTEX
  5
B8F
330
B8B
100
AcDbEntity
  8
0
100
AcDbVertex
100
AcDb2dVertex
 10
2548.629114570243
 20
4223.303218445975
 30
0.0
  0
VERTEX
  5
B90
330
B8B
100
AcDbEntity
  8
0
100
AcDbVertex
100
AcDb2dVertex
 10
2541.099788074243
 20
4223.199536013475
 30
0.0
  0
VERTEX
  5
B91
330
B8B
100
AcDbEntity
  8
0
100
AcDbVertex
100
AcDb2dVertex
 10
2533.459319730243
 20
4223.095853580974
 30
0.0
  0
VERTEX
  5
B92
330
B8B
100
AcDbEntity
  8
0
100
AcDbVertex
100
AcDb2dVertex
 10
2526.267207974243
 20
4222.992171148475
 30
0.0
  0
VERTEX
  5
B93
330
B8B
100
AcDbEntity
  8
0
100
AcDbVertex
100
AcDb2dVertex
 10
2520.050118923243
 20
4222.888488715975
 30
0.0
  0
VERTEX
  5
B94
330
B8B
100
AcDbEntity
  8
0
100
AcDbVertex
100
AcDb2dVertex
 10
2515.263319517243
 20
4222.784806283474
 30
0.0
  0
VERTEX
  5
B95
330
B8B
100
AcDbEntity
  8
0
100
AcDbVertex
100
AcDb2dVertex
 10
2512.257339090243
 20
4222.681123851475
 30
0.0
  0
SEQEND
  5
B96
330
B8B
100
AcDbEntity
  8
0
  0
POLYLINE
  5
B97
330
1F
100
AcDbEntity
  8
0
100
AcDb2dPolyline
 66
     1
 10
0.0
 20
0.0
 30
0.0
  0
VERTEX
  5
B98
330
B97
100
AcDbEntity
  8
0
100
AcDbVertex
100
AcDb2dVertex
 10
2565.316038391743
 20
4225.914265742974
 30
0.0
  0
VERTEX
  5
B99
330
B97
100
AcDbEntity
  8
0
100
AcDbVertex
100
AcDb2dVertex
 10
2561.197417292243
 20
4225.810583310975
 30
0.0
  0
VERTEX
  5
B9A
330
B97
100
AcDbEntity
  8
0
100
AcDbVertex
100
AcDb2dVertex
 10
2555.495939564243
 20
4225.706900878474
 30
0.0
  0
VERTEX
  5
B9B
330
B97
100
AcDbEntity
  8
0
100
AcDbVertex
100
AcDb2dVertex
 10
2548.629114570243
 20
4225.603218445974
 30
0.0
  0
VERTEX
  5
B9C
330
B97
100
AcDbEntity
  8
0
100
AcDbVertex
100
AcDb2dVertex
 10
2541.099788074243
 20
4225.499536013475
 30
0.0
  0
VERTEX
  5
B9D
330
B97
100
AcDbEntity
  8
0
100
AcDbVertex
100
AcDb2dVertex
 10
2533.459319730243
 20
4225.395853580975
 30
0.0
  0
VERTEX
  5
B9E
330
B97
100
AcDbEntity
  8
0
100
AcDbVertex
100
AcDb2dVertex
 10
2526.267207974243
 20
4225.292171148475
 30
0.0
  0
VERTEX
  5
B9F
330
B97
100
AcDbEntity
  8
0
100
AcDbVertex
100
AcDb2dVertex
 10
2520.050118923243
 20
4225.188488715974
 30
0.0
  0
VERTEX
  5
BA0
330
B97
100
AcDbEntity
  8
0
100
AcDbVertex
100
AcDb2dVertex
 10
2515.263319517243
 20
4225.084806283475
 30
0.0
  0
VERTEX
  5
BA1
330
B97
100
AcDbEntity
  8
0
100
AcDbVertex
100
AcDb2dVertex
 10
2512.257339090243
 20
4224.981123851475
 30
0.0
  0
SEQEND
  5
BA2
330
B97
100
AcDbEntity
  8
0
  0
POLYLINE
  5
BA3
330
1F
100
AcDbEntity
  8
0
100
AcDb2dPolyline
 66
     1
 10
0.0
 20
0.0
 30
0.0
  0
VERTEX
  5
BA4
330
BA3
100
AcDbEntity
  8
0
100
AcDbVertex
100
AcDb2dVertex
 10
2566.912478397743
 20
4227.072463040475
 30
0.0
  0
VERTEX
  5
BA5
330
BA3
100
AcDbEntity
  8
0
100
AcDbVertex
100
AcDb2dVertex
 10
2562.794858002743
 20
4226.970163040475
 30
0.0
  0
VERTEX
  5
BA6
330
BA3
100
AcDbEntity
  8
0
100
AcDbVertex
100
AcDb2dVertex
 10
2557.022158985244
 20
4226.867863040475
 30
0.0
  0
VERTEX
  5
BA7
330
BA3
100
AcDbEntity
  8
0
100
AcDbVertex
100
AcDb2dVertex
 10
2550.005976314243
 20
4226.765563040475
 30
0.0
  0
VERTEX
  5
BA8
330
BA3
100
AcDbEntity
  8
0
100
AcDbVertex
100
AcDb2dVertex
 10
2542.246565487742
 20
4226.663263040475
 30
0.0
  0
VERTEX
  5
BA9
330
BA3
100
AcDbEntity
  8
0
100
AcDbVertex
100
AcDb2dVertex
 10
2534.297174192742
 20
4226.560963040475
 30
0.0
  0
VERTEX
  5
BAA
330
BA3
100
AcDbEntity
  8
0
100
AcDbVertex
100
AcDb2dVertex
 10
2526.724595628744
 20
4226.458663040475
 30
0.0
  0
SEQEND
  5
BAB
330
BA3
100
AcDbEntity
  8
0
  0
POLYLINE
  5
BAC
330
1F
100
AcDbEntity
  8
0
100
AcDb2dPolyline
 66
     1
 10
0.0
 20
0.0
 30
0.0
  0
VERTEX
  5
BAD
330
BAC
100
AcDbEntity
  8
0
100
AcDbVertex
100
AcDb2dVertex
 10
2566.912478397743
 20
4227.272463040475
 30
0.0
  0
VERTEX
  5
BAE
330
BAC
100
AcDbEntity
  8
0
100
AcDbVertex
100
AcDb2dVertex
 10
2562.794858002743
 20
4227.170163040475
 30
0.0
  0
VERTEX
  5
BAF
330
BAC
100
AcDbEntity
  8
0
100
AcDbVertex
100
AcDb2dVertex
 10
2557.022158985244
 20
4227.067863040475
 30
0.0
  0
VERTEX
  5
BB0
330
BAC
100
AcDbEntity
  8
0
100
AcDbVertex
100
AcDb2dVertex
 10
2550.005976314243
 20
4226.965563040475
 30
0.0
  0
VERTEX
  5
BB1
330
BAC
100
AcDbEntity
  8
0
100
AcDbVertex
100
AcDb2dVertex
 10
2542.246565487742
 20
4226.863263040475
 30
0.0
  0
VERTEX
  5
BB2
330
BAC
100
AcDbEntity
  8
0
100
AcDbVertex
100
AcDb2dVertex
 10
2534.297174192742
 20
4226.760963040475
 30
0.0
  0
VERTEX
  5
BB3
330
BAC
100
AcDbEntity
  8
0
100
AcDbVertex
100
AcDb2dVertex
 10
2526.724595628744
 20
4226.658663040475
 30
0.0
  0
SEQEND
  5
BB4
330
BAC
100
AcDbEntity
  8
0
  0
POLYLINE
  5
BB5
330
1F
100
AcDbEntity
  8
0
100
AcDb2dPolyline
 66
     1
 10
0.0
 20
0.0
 30
0.0
  0
VERTEX
  5
BB6
330
BB5
100
AcDbEntity
  8
0
100
AcDbVertex
100
AcDb2dVertex
 10
2566.654532009742
 20
4222.264363039974
 30
0.0
  0
VERTEX
  5
BB7
330
BB5
100
AcDbEntity
  8
0
100
AcDbVertex
100
AcDb2dVertex
 10
2562.393489027745
 20
4222.162063039975
 30
0.0
  0
VERTEX
  5
BB8
330
BB5
100
AcDbEntity
  8
0
100
AcDbVertex
100
AcDb2dVertex
 10
2556.505982714743
 20
4222.059763039974
 30
0.0
  0
VERTEX
  5
BB9
330
BB5
100
AcDbEntity
  8
0
100
AcDbVertex
100
AcDb2dVertex
 10
2549.411793759743
 20
4221.957463039974
 30
0.0
  0
VERTEX
  5
BBA
330
BB5
100
AcDbEntity
  8
0
100
AcDbVertex
100
AcDb2dVertex
 10
2541.616739881743
 20
4221.855163039974
 30
0.0
  0
VERTEX
  5
BBB
330
BB5
100
AcDbEntity
  8
0
100
AcDbVertex
100
AcDb2dVertex
 10
2533.676610917243
 20
4221.752863039974
 30
0.0
  0
VERTEX
  5
BBC
330
BB5
100
AcDbEntity
  8
0
100
AcDbVertex
100
AcDb2dVertex
 10
2526.157540846743
 20
4221.650563039974
 30
0.0
  0
VERTEX
  5
BBD
330
BB5
100
AcDbEntity
  8
0
100
AcDbVertex
100
AcDb2dVertex
 10
2519.595642253743
 20
4221.548263039974
 30
0.0
  0
VERTEX
  5
BBE
330
BB5
100
AcDbEntity
  8
0
100
AcDbVertex
100
AcDb2dVertex
 10
2514.458781285742
 20
4221.445963039974
 30
0.0
  0
SEQEND
  5
BBF
330
BB5
100
AcDbEntity
  8
0
  0
POLYLINE
  5
BC0
330
1F
100
AcDbEntity
  8
0
100
AcDb2dPolyline
 66
     1
 10
0.0
 20
0.0
 30
0.0
  0
VERTEX
  5
BC1
330
BC0
100
AcDbEntity
  8
0
100
AcDbVertex
100
AcDb2dVertex
 10
2566.654532009742
 20
4222.464363039975
 30
0.0
  0
VERTEX
  5
BC2
330
BC0
100
AcDbEntity
  8
0
100
AcDbVertex
100
AcDb2dVertex
 10
2562.393489027745
 20
4222.362063039976
 30
0.0
  0
VERTEX
  5
BC3
330
BC0
100
AcDbEntity
  8
0
100
AcDbVertex
100
AcDb2dVertex
 10
2556.505982714743
 20
4222.259763039975
 30
0.0
  0
VERTEX
  5
BC4
330
BC0
100
AcDbEntity
  8
0
100
AcDbVertex
100
AcDb2dVertex
 10
2549.411793759743
 20
4222.157463039974
 30
0.0
  0
VERTEX
  5
BC5
330
BC0
100
AcDbEntity
  8
0
100
AcDbVertex
100
AcDb2dVertex
 10
2541.616739881743
 20
4222.055163039975
 30
0.0
  0
VERTEX
  5
BC6
330
BC0
100
AcDbEntity
  8
0
100
AcDbVertex
100
AcDb2dVertex
 10
2533.676610917243
 20
4221.952863039976
 30
0.0
  0
VERTEX
  5
BC7
330
BC0
100
AcDbEntity
  8
0
100
AcDbVertex
100
AcDb2dVertex
 10
2526.157540846743
 20
4221.850563039975
 30
0.0
  0
VERTEX
  5
BC8
330
BC0
100
AcDbEntity
  8
0
100
AcDbVertex
100
AcDb2dVertex
 10
2519.595642253743
 20
4221.748263039976
 30
0.0
  0
VERTEX
  5
BC9
330
BC0
100
AcDbEntity
  8
0
100
AcDbVertex
100
AcDb2dVertex
 10
2514.458781285742
 20
4221.645963039974
 30
0.0
  0
SEQEND
  5
BCA
330
BC0
100
AcDbEntity
  8
0
  0
POLYLINE
  5
BCB
330
1F
100
AcDbEntity
  8
0
100
AcDb2dPolyline
 66
     1
 10
0.0
 20
0.0
 30
0.0
  0
VERTEX
  5
BCC
330
BCB
100
AcDbEntity
  8
0
100
AcDbVertex
100
AcDb2dVertex
 10
2565.244089232244
 20
4229.425363039974
 30
0.0
  0
VERTEX
  5
BCD
330
BCB
100
AcDbEntity
  8
0
100
AcDbVertex
100
AcDb2dVertex
 10
2560.320277927743
 20
4229.323063039974
 30
0.0
  0
VERTEX
  5
BCE
330
BCB
100
AcDbEntity
  8
0
100
AcDbVertex
100
AcDb2dVertex
 10
2553.917822490242
 20
4229.220763039974
 30
0.0
  0
VERTEX
  5
BCF
330
BCB
100
AcDbEntity
  8
0
100
AcDbVertex
100
AcDb2dVertex
 10
2546.493220022743
 20
4229.118463039974
 30
0.0
  0
VERTEX
  5
BD0
330
BCB
100
AcDbEntity
  8
0
100
AcDbVertex
100
AcDb2dVertex
 10
2538.575847327243
 20
4229.016163039974
 30
0.0
  0
VERTEX
  5
BD1
330
BCB
100
AcDbEntity
  8
0
100
AcDbVertex
100
AcDb2dVertex
 10
2530.730216179743
 20
4228.913863039975
 30
0.0
  0
SEQEND
  5
BD2
330
BCB
100
AcDbEntity
  8
0
  0
POLYLINE
  5
BD3
330
1F
100
AcDbEntity
  8
0
100
AcDb2dPolyline
 66
     1
 10
0.0
 20
0.0
 30
0.0
  0
VERTEX
  5
BD4
330
BD3
100
AcDbEntity
  8
0
100
AcDbVertex
100
AcDb2dVertex
 10
2565.244089232244
 20
4229.625363039975
 30
0.0
  0
VERTEX
  5
BD5
330
BD3
100
AcDbEntity
  8
0
100
AcDbVertex
100
AcDb2dVertex
 10
2560.320277927743
 20
4229.523063039975
 30
0.0
  0
VERTEX
  5
BD6
330
BD3
100
AcDbEntity
  8
0
100
AcDbVertex
100
AcDb2dVertex
 10
2553.917822490242
 20
4229.420763039975
 30
0.0
  0
VERTEX
  5
BD7
330
BD3
100
AcDbEntity
  8
0
100
AcDbVertex
100
AcDb2dVertex
 10
2546.493220022743
 20
4229.318463039976
 30
0.0
  0
VERTEX
  5
BD8
330
BD3
100
AcDbEntity
  8
0
100
AcDbVertex
100
AcDb2dVertex
 10
2538.575847327243
 20
4229.216163039975
 30
0.0
  0
VERTEX
  5
BD9
330
BD3
100
AcDbEntity
  8
0
100
AcDbVertex
100
AcDb2dVertex
 10
2530.730216179743
 20
4229.113863039976
 30
0.0
  0
SEQEND
  5
BDA
330
BD3
100
AcDbEntity
  8
0
  0
POLYLINE
  5
BDB
330
1F
100
AcDbEntity
  8
0
100
AcDb2dPolyline
 66
     1
 10
0.0
 20
0.0
 30
0.0
  0
VERTEX
  5
BDC
330
BDB
100
AcDbEntity
  8
0
100
AcDbVertex
100
AcDb2dVertex
 10
2524.308256775242
 20
4227.761563039975
 30
0.0
  0
VERTEX
  5
BDD
330
BDB
100
AcDbEntity
  8
0
100
AcDbVertex
100
AcDb2dVertex
 10
2518.470165240741
 20
4227.657880607475
 30
0.0
  0
VERTEX
  5
BDE
330
BDB
100
AcDbEntity
  8
0
100
AcDbVertex
100
AcDb2dVertex
 10
2514.178066774244
 20
4227.554198174974
 30
0.0
  0
VERTEX
  5
BDF
330
BDB
100
AcDbEntity
  8
0
100
AcDbVertex
100
AcDb2dVertex
 10
2511.746264984243
 20
4227.450515742975
 30
0.0
  0
VERTEX
  5
BE0
330
BDB
100
AcDbEntity
  8
0
100
AcDbVertex
100
AcDb2dVertex
 10
2511.252045466244
 20
4227.379063479975
 30
0.0
  0
SEQEND
  5
BE1
330
BDB
100
AcDbEntity
  8
0
  0
POLYLINE
  5
BE2
330
1F
100
AcDbEntity
  8
0
100
AcDb2dPolyline
 66
     1
 10
0.0
 20
0.0
 30
0.0
  0
VERTEX
  5
BE3
330
BE2
100
AcDbEntity
  8
0
100
AcDbVertex
100
AcDb2dVertex
 10
2525.276178641743
 20
4227.676867094475
 30
0.0
  0
VERTEX
  5
BE4
330
BE2
100
AcDbEntity
  8
0
100
AcDbVertex
100
AcDb2dVertex
 10
2519.243764931743
 20
4227.573184661975
 30
0.0
  0
VERTEX
  5
BE5
330
BE2
100
AcDbEntity
  8
0
100
AcDbVertex
100
AcDb2dVertex
 10
2514.700689458742
 20
4227.469502229475
 30
0.0
  0
VERTEX
  5
BE6
330
BE2
100
AcDbEntity
  8
0
100
AcDbVertex
100
AcDb2dVertex
 10
2511.979633782742
 20
4227.365819797475
 30
0.0
  0
SEQEND
  5
BE7
330
BE2
100
AcDbEntity
  8
0
  0
POLYLINE
  5
BE8
330
1F
100
AcDbEntity
  8
0
100
AcDb2dPolyline
 66
     1
 10
0.0
 20
0.0
 30
0.0
  0
VERTEX
  5
BE9
330
BE8
100
AcDbEntity
  8
0
100
AcDbVertex
100
AcDb2dVertex
 10
2523.515723440743
 20
4228.811563039974
 30
0.0
  0
VERTEX
  5
BEA
330
BE8
100
AcDbEntity
  8
0
100
AcDbVertex
100
AcDb2dVertex
 10
2517.446766405744
 20
4228.709263039975
 30
0.0
  0
VERTEX
  5
BEB
330
BE8
100
AcDbEntity
  8
0
100
AcDbVertex
100
AcDb2dVertex
 10
2512.956064704243
 20
4228.606963039974
 30
0.0
  0
SEQEND
  5
BEC
330
BE8
100
AcDbEntity
  8
0
  0
POLYLINE
  5
BED
330
1F
100
AcDbEntity
  8
0
100
AcDb2dPolyline
 66
     1
 10
0.0
 20
0.0
 30
0.0
  0
VERTEX
  5
BEE
330
BED
100
AcDbEntity
  8
0
100
AcDbVertex
100
AcDb2dVertex
 10
2523.515723440743
 20
4229.011563039975
 30
0.0
  0
VERTEX
  5
BEF
330
BED
100
AcDbEntity
  8
0
100
AcDbVertex
100
AcDb2dVertex
 10
2517.446766405744
 20
4228.909263039976
 30
0.0
  0
VERTEX
  5
BF0
330
BED
100
AcDbEntity
  8
0
100
AcDbVertex
100
AcDb2dVertex
 10
2512.956064704243
 20
4228.806963039975
 30
0.0
  0
SEQEND
  5
BF1
330
BED
100
AcDbEntity
  8
0
  0
POLYLINE
  5
BF2
330
1F
100
AcDbEntity
  8
0
100
AcDb2dPolyline
 66
     1
 10
0.0
 20
0.0
 30
0.0
  0
VERTEX
  5
BF3
330
BF2
100
AcDbEntity
  8
0
100
AcDbVertex
100
AcDb2dVertex
 10
2526.724595628744
 20
4226.458663040475
 30
0.0
  0
VERTEX
  5
BF4
330
BF2
100
AcDbEntity
  8
0
100
AcDbVertex
100
AcDb2dVertex
 10
2520.068756053744
 20
4226.356363040475
 30
0.0
  0
VERTEX
  5
BF5
330
BF2
100
AcDbEntity
  8
0
100
AcDbVertex
100
AcDb2dVertex
 10
2514.804217961744
 20
4226.254063040475
 30
0.0
  0
VERTEX
  5
BF6
330
BF2
100
AcDbEntity
  8
0
100
AcDbVertex
100
AcDb2dVertex
 10
2511.306343718242
 20
4226.151763040475
 30
0.0
  0
SEQEND
  5
BF7
330
BF2
100
AcDbEntity
  8
0
  0
POLYLINE
  5
BF8
330
1F
100
AcDbEntity
  8
0
100
AcDb2dPolyline
 66
     1
 10
0.0
 20
0.0
 30
0.0
  0
VERTEX
  5
BF9
330
BF8
100
AcDbEntity
  8
0
100
AcDbVertex
100
AcDb2dVertex
 10
2526.724595628744
 20
4226.658663040475
 30
0.0
  0
VERTEX
  5
BFA
330
BF8
100
AcDbEntity
  8
0
100
AcDbVertex
100
AcDb2dVertex
 10
2520.068756053744
 20
4226.556363040475
 30
0.0
  0
VERTEX
  5
BFB
330
BF8
100
AcDbEntity
  8
0
100
AcDbVertex
100
AcDb2dVertex
 10
2514.804217961744
 20
4226.454063040475
 30
0.0
  0
VERTEX
  5
BFC
330
BF8
100
AcDbEntity
  8
0
100
AcDbVertex
100
AcDb2dVertex
 10
2511.306343718242
 20
4226.351763040475
 30
0.0
  0
SEQEND
  5
BFD
330
BF8
100
AcDbEntity
  8
0
  0
POLYLINE
  5
BFE
330
1F
100
AcDbEntity
  8
0
100
AcDb2dPolyline
 66
     1
 10
0.0
 20
0.0
 30
0.0
  0
VERTEX
  5
BFF
330
BFE
100
AcDbEntity
  8
0
100
AcDbVertex
100
AcDb2dVertex
 10
2532.356187239743
 20
4225.480549526975
 30
0.0
  0
VERTEX
  5
C00
330
BFE
100
AcDbEntity
  8
0
100
AcDbVertex
100
AcDb2dVertex
 10
2525.276178641743
 20
4225.376867094474
 30
0.0
  0
VERTEX
  5
C01
330
BFE
100
AcDbEntity
  8
0
100
AcDbVertex
100
AcDb2dVertex
 10
2519.243764931743
 20
4225.273184661975
 30
0.0
  0
VERTEX
  5
C02
330
BFE
100
AcDbEntity
  8
0
100
AcDbVertex
100
AcDb2dVertex
 10
2514.700689458742
 20
4225.169502229475
 30
0.0
  0
VERTEX
  5
C03
330
BFE
100
AcDbEntity
  8
0
100
AcDbVertex
100
AcDb2dVertex
 10
2511.979633782742
 20
4225.065819797475
 30
0.0
  0
SEQEND
  5
C04
330
BFE
100
AcDbEntity
  8
0
  0
LINE
  5
C05
330
1F
100
AcDbEntity
  8
0
100
AcDbLine
 10
2532.356187239743
 20
4227.780549526975
 30
0.0
 11
2525.276178641743
 21
4227.676867094475
 31
0.0
  0
LINE
  5
C06
330
1F
100
AcDbEntity
  8
0
100
AcDbLine
 10
2530.730216179743
 20
4228.913863039975
 30
0.0
 11
2523.515723440743
 21
4228.811563039974
 31
0.0
  0
LINE
  5
C07
330
1F
100
AcDbEntity
  8
0
100
AcDbLine
 10
2530.730216179743
 20
4229.113863039976
 30
0.0
 11
2523.515723440743
 21
4229.011563039975
 31
0.0
  0
LINE
  5
C08
330
1F
100
AcDbEntity
  8
0
100
AcDbLine
 10
2549.697225431744
 20
4220.918522499475
 30
0.0
 11
2539.572572947243
 21
4220.778844791975
 31
0.0
  0
POLYLINE
  5
C09
330
1F
100
AcDbEntity
  8
0
100
AcDb2dPolyline
 66
     1
 10
0.0
 20
0.0
 30
0.0
  0
VERTEX
  5
C0A
330
C09
100
AcDbEntity
  8
0
100
AcDbVertex
100
AcDb2dVertex
 10
2539.572572947243
 20
4220.778844791975
 30
0.0
  0
VERTEX
  5
C0B
330
C09
100
AcDbEntity
  8
0
100
AcDbVertex
100
AcDb2dVertex
 10
2534.572186947743
 20
4220.711157634474
 30
0.0
  0
VERTEX
  5
C0C
330
C09
100
AcDbEntity
  8
0
100
AcDbVertex
100
AcDb2dVertex
 10
2527.279515160743
 20
4220.607475202475
 30
0.0
  0
VERTEX
  5
C0D
330
C09
100
AcDbEntity
  8
0
100
AcDbVertex
100
AcDb2dVertex
 10
2520.887738573242
 20
4220.503792769974
 30
0.0
  0
VERTEX
  5
C0E
330
C09
100
AcDbEntity
  8
0
100
AcDbVertex
100
AcDb2dVertex
 10
2515.864917743743
 20
4220.400110337474
 30
0.0
  0
VERTEX
  5
C0F
330
C09
100
AcDbEntity
  8
0
100
AcDbVertex
100
AcDb2dVertex
 10
2512.578866851743
 20
4220.296427904974
 30
0.0
  0
SEQEND
  5
C10
330
C09
100
AcDbEntity
  8
0
  0
LINE
  5
C11
330
1F
100
AcDbEntity
  8
0
100
AcDbLine
 10
1733.889957603745
 20
4210.079063039975
 30
0.0
 11
2474.582045463242
 21
4210.079063039975
 31
0.0
  0
LINE
  5
C12
330
1F
100
AcDbEntity
  8
0
100
AcDbLine
 10
2529.582045463242
 20
4210.079063039975
 30
0.0
 11
3545.274133322743
 21
4210.079063039975
 31
0.0
  0
LINE
  5
C13
330
1F
100
AcDbEntity
  8
0
100
AcDbLine
 10
2355.421983188245
 20
4210.079063039975
 30
0.0
 11
2474.582045463242
 21
4210.079063039975
 31
0.0
  0
LINE
  5
C14
330
1F
100
AcDbEntity
  8
0
100
AcDbLine
 10
2529.582045463242
 20
4210.079063039975
 30
0.0
 11
2688.742107738744
 21
4210.079063039975
 31
0.0
  0
LINE
  5
C15
330
1F
100
AcDbEntity
  8
0
 62
     9
100
AcDbLine
 10
2507.082045463242
 20
4218.079063039975
 30
0.0
 11
2572.082045463242
 21
4218.079063039975
 31
0.0
  0
LINE
  5
C16
330
1F
100
AcDbEntity
  8
0
100
AcDbLine
 10
2509.082045463244
 20
4220.079063039975
 30
0.0
 11
2570.082045463242
 21
4220.079063039975
 31
0.0
  0
LINE
  5
C17
330
1F
100
AcDbEntity
  8
0
100
AcDbLine
 10
3617.082045463242
 20
3918.079063039975
 30
0.0
 11
3617.082045463242
 21
4072.079063039975
 31
0.0
  0
LINE
  5
C18
330
1F
100
AcDbEntity
  8
0
100
AcDbLine
 10
3622.582045463242
 20
3035.579063039975
 30
0.0
 11
3622.582045463242
 21
3262.758554964476
 31
0.0
  0
LINE
  5
C19
330
1F
100
AcDbEntity
  8
0
100
AcDbLine
 10
3709.082045463244
 20
3940.079063039976
 30
0.0
 11
3709.082045463244
 21
4050.079063039976
 31
0.0
  0
LINE
  5
C1A
330
1F
100
AcDbEntity
  8
0
100
AcDbLine
 10
3601.882215631743
 20
3891.980076710975
 30
0.0
 11
3601.075017075242
 21
3893.966591154974
 31
0.0
  0
LINE
  5
C1B
330
1F
100
AcDbEntity
  8
0
100
AcDbLine
 10
3601.878962040743
 20
3891.985681626975
 30
0.0
 11
3602.245403585744
 21
3890.429501959975
 31
0.0
  0
LINE
  5
C1C
330
1F
100
AcDbEntity
  8
0
100
AcDbLine
 10
3581.880415209243
 20
4100.691846771474
 30
0.0
 11
3570.011190479242
 21
4188.695415240975
 31
0.0
  0
ARC
  5
C1D
330
1F
100
AcDbEntity
  8
0
100
AcDbCircle
 10
2570.082045463242
 20
4218.079063039975
 30
0.0
 40
2.0
100
AcDbArc
 50
0.0
 51
90.0
  0
ARC
  5
C1E
330
1F
100
AcDbEntity
  8
0
100
AcDbCircle
 10
2509.082045463244
 20
4218.079063039975
 30
0.0
 40
2.0
100
AcDbArc
 50
90.0
 51
180.0
  0
ARC
  5
C1F
330
1F
100
AcDbEntity
  8
0
100
AcDbCircle
 10
1682.082045463244
 20
3035.579063039975
 30
0.0
 40
25.5
100
AcDbArc
 50
180.0
 51
270.0
  0
ARC
  5
C20
330
1F
100
AcDbEntity
  8
0
100
AcDbCircle
 10
1671.582045463244
 20
3262.758554964476
 30
0.0
 40
15.0
100
AcDbArc
 50
120.0000000000038
 51
180.0
  0
ARC
  5
C21
330
1F
100
AcDbEntity
  8
0
100
AcDbCircle
 10
3607.582045463242
 20
3262.758554964476
 30
0.0
 40
15.0
100
AcDbArc
 50
0.0
 51
59.9999999999962
  0
ARC
  5
C22
330
1F
100
AcDbEntity
  8
0
100
AcDbCircle
 10
1673.076731331743
 20
3274.500819431975
 30
0.0
 40
5.578243607999999
100
AcDbArc
 50
90.0
 51
120.0000000000038
  0
ARC
  5
C23
330
1F
100
AcDbEntity
  8
0
100
AcDbCircle
 10
3597.082045463242
 20
3035.579063039975
 30
0.0
 40
25.5
100
AcDbArc
 50
270.0
 51
0.0
  0
ARC
  5
C24
330
1F
100
AcDbEntity
  8
0
100
AcDbCircle
 10
-387.9179545367597
 20
3610.079063039975
 30
0.0
 40
4000.0
100
AcDbArc
 50
355.2677196210169
 51
4.019019245788411
  0
ARC
  5
C25
330
1F
100
AcDbEntity
  8
0
100
AcDbCircle
 10
3545.274133322743
 20
4185.079063039975
 30
0.0
 40
25.0
100
AcDbArc
 50
8.317248712424284
 51
90.0
  0
ARC
  5
C26
330
1F
100
AcDbEntity
  8
0
100
AcDbCircle
 10
-387.9179545367597
 20
3610.079063039975
 30
0.0
 40
4000.0
100
AcDbArc
 50
7.045250917380477
 51
8.317248712424284
  0
ARC
  5
C27
330
1F
100
AcDbEntity
  8
0
100
AcDbCircle
 10
1665.082799381744
 20
3990.079450929975
 30
0.0
 40
19.9998965625
100
AcDbArc
 50
354.5757468471816
 51
90.00000000614901
  0
ARC
  5
C28
330
1F
100
AcDbEntity
  8
0
100
AcDbCircle
 10
1682.173220665744
 20
4140.078740074975
 30
0.0
 40
19.999913876
100
AcDbArc
 50
269.9999999937467
 51
352.423933691608
  0
ARC
  5
C29
330
1F
100
AcDbEntity
  8
0
100
AcDbCircle
 10
5667.082045463246
 20
3610.079063039975
 30
0.0
 40
4000.0
100
AcDbArc
 50
171.6827512875757
 51
172.4240267873202
  0
ARC
  5
C2A
330
1F
100
AcDbEntity
  8
0
100
AcDbCircle
 10
5667.082045463246
 20
3610.079063039975
 30
0.0
 40
4000.0
100
AcDbArc
 50
174.5758775032791
 51
184.7322803789831
  0
ARC
  5
C2B
330
1F
100
AcDbEntity
  8
0
100
AcDbCircle
 10
1733.889957603745
 20
4185.079063039975
 30
0.0
 40
25.0
100
AcDbArc
 50
90.0
 51
171.6827512875757
  0
LINE
  5
C2C
330
1F
100
AcDbEntity
  8
0
100
AcDbLine
 10
3581.880415209723
 20
4100.691846768846
 30
0.0
 11
3584.651710437779
 21
4072.079063039975
 31
0.0
  0
LINE
  5
C2D
330
1F
100
AcDbEntity
  8
0
100
AcDbLine
 10
3599.567402289536
 20
3918.079063039975
 30
0.0
 11
3602.245404445251
 21
3890.429502022005
 31
0.0
  0
LINE
  5
C2E
330
1F
100
AcDbEntity
  8
0
100
AcDbLine
 10
3709.082045463244
 20
3940.079063039976
 30
0.0
 11
3617.082045463242
 21
3940.079063039976
 31
0.0
  0
LINE
  5
C2F
330
1F
100
AcDbEntity
  8
0
100
AcDbLine
 10
3617.082045463242
 20
3918.079063039975
 30
0.0
 11
3599.458006221182
 21
3918.079063039975
 31
0.0
  0
LINE
  5
C30
330
1F
100
AcDbEntity
  8
0
100
AcDbLine
 10
3617.082045463242
 20
4072.079063039975
 30
0.0
 11
3584.651710437779
 21
4072.079063039975
 31
0.0
  0
ARC
  5
C31
330
1F
100
AcDbEntity
  8
0
100
AcDbCircle
 10
1494.648844238715
 20
4080.155396523134
 30
0.0
 40
215.1175953089811
100
AcDbArc
 50
331.8507888005254
 51
15.44441067292826
  0
ARC
  5
C32
330
1F
100
AcDbEntity
  8
0
100
AcDbCircle
 10
3992.492623907975
 20
4033.579063039975
 30
0.0
 40
409.654074433788
100
AcDbArc
 50
174.6072847830108
 51
196.3763346947702
  0
LINE
  5
C33
330
1F
100
AcDbEntity
  8
0
100
AcDbLine
 10
2499.582045463242
 20
3280.079063039976
 30
0.0
 11
2499.582045463242
 21
4185.079063039975
 31
0.0
  0
LINE
  5
C34
330
1F
100
AcDbEntity
  8
0
100
AcDbLine
 10
2504.582045463243
 20
3280.079063039976
 30
0.0
 11
2504.582045463243
 21
4185.079063039975
 31
0.0
  0
ARC
  5
C35
330
1F
100
AcDbEntity
  8
0
100
AcDbCircle
 10
2494.582045463242
 20
3940.079063039976
 30
0.0
 40
10.0
100
AcDbArc
 50
0.0
 51
59.9999999999962
  0
ARC
  5
C36
330
1F
100
AcDbEntity
  8
0
100
AcDbCircle
 10
2529.582045463242
 20
4185.079063039975
 30
0.0
 40
25.0
100
AcDbArc
 50
90.0
 51
180.0
  0
ARC
  5
C37
330
1F
100
AcDbEntity
  8
0
100
AcDbCircle
 10
2474.582045463242
 20
4185.079063039975
 30
0.0
 40
25.0
100
AcDbArc
 50
0.0
 51
90.0
  0
ARC
  5
C38
330
1F
100
AcDbEntity
  8
0
100
AcDbCircle
 10
2504.582045463243
 20
4175.079063039976
 30
0.0
 40
5.0
100
AcDbArc
 50
180.0
 51
270.0
  0
POLYLINE
  5
C39
330
1F
100
AcDbEntity
  8
0
 62
     9
100
AcDb2dPolyline
 66
     1
 10
0.0
 20
0.0
 30
0.0
  0
VERTEX
  5
C3A
330
C39
100
AcDbEntity
  8
0
 62
     9
100
AcDbVertex
100
AcDb2dVertex
 10
2491.764356104094
 20
3335.752094913806
 30
0.0
  0
VERTEX
  5
C3B
330
C39
100
AcDbEntity
  8
0
 62
     9
100
AcDbVertex
100
AcDb2dVertex
 10
2490.932359568093
 20
3340.968762390807
 30
0.0
  0
VERTEX
  5
C3C
330
C39
100
AcDbEntity
  8
0
 62
     9
100
AcDbVertex
100
AcDb2dVertex
 10
2488.517669893593
 20
3345.675000256307
 30
0.0
  0
VERTEX
  5
C3D
330
C39
100
AcDbEntity
  8
0
 62
     9
100
AcDbVertex
100
AcDb2dVertex
 10
2484.756671149592
 20
3349.409873947807
 30
0.0
  0
VERTEX
  5
C3E
330
C39
100
AcDbEntity
  8
0
 62
     9
100
AcDbVertex
100
AcDb2dVertex
 10
2480.017513634094
 20
3351.807790449307
 30
0.0
  0
VERTEX
  5
C3F
330
C39
100
AcDbEntity
  8
0
 62
     9
100
AcDbVertex
100
AcDb2dVertex
 10
2474.764356104092
 20
3352.634007682806
 30
0.0
  0
SEQEND
  5
C40
330
C39
100
AcDbEntity
  8
0
 62
     9
  0
POLYLINE
  5
C41
330
1F
100
AcDbEntity
  8
0
100
AcDb2dPolyline
 66
     1
 10
0.0
 20
0.0
 30
0.0
  0
VERTEX
  5
C42
330
C41
100
AcDbEntity
  8
0
100
AcDbVertex
100
AcDb2dVertex
 10
2491.764356104094
 20
3335.751814933807
 30
0.0
  0
VERTEX
  5
C43
330
C41
100
AcDbEntity
  8
0
100
AcDbVertex
100
AcDb2dVertex
 10
2490.976755604593
 20
3336.158349808807
 30
0.0
  0
VERTEX
  5
C44
330
C41
100
AcDbEntity
  8
0
100
AcDbVertex
100
AcDb2dVertex
 10
2488.595400904594
 20
3336.365930617307
 30
0.0
  0
VERTEX
  5
C45
330
C41
100
AcDbEntity
  8
0
100
AcDbVertex
100
AcDb2dVertex
 10
2484.818821208593
 20
3336.385150725307
 30
0.0
  0
VERTEX
  5
C46
330
C41
100
AcDbEntity
  8
0
100
AcDbVertex
100
AcDb2dVertex
 10
2480.024806241093
 20
3336.256697910807
 30
0.0
  0
VERTEX
  5
C47
330
C41
100
AcDbEntity
  8
0
100
AcDbVertex
100
AcDb2dVertex
 10
2474.699364216594
 20
3336.032479511306
 30
0.0
  0
SEQEND
  5
C48
330
C41
100
AcDbEntity
  8
0
  0
POLYLINE
  5
C49
330
1F
100
AcDbEntity
  8
0
 62
     9
100
AcDb2dPolyline
 66
     1
 10
0.0
 20
0.0
 30
0.0
  0
VERTEX
  5
C4A
330
C49
100
AcDbEntity
  8
0
 62
     9
100
AcDbVertex
100
AcDb2dVertex
 10
3315.568254896743
 20
3364.327435542474
 30
0.0
  0
VERTEX
  5
C4B
330
C49
100
AcDbEntity
  8
0
 62
     9
100
AcDbVertex
100
AcDb2dVertex
 10
3138.897964217743
 20
3357.991396878976
 30
0.0
  0
VERTEX
  5
C4C
330
C49
100
AcDbEntity
  8
0
 62
     9
100
AcDbVertex
100
AcDb2dVertex
 10
2935.275422865743
 20
3354.829807537476
 30
0.0
  0
VERTEX
  5
C4D
330
C49
100
AcDbEntity
  8
0
 62
     9
100
AcDbVertex
100
AcDb2dVertex
 10
2529.399734822392
 20
3352.634007682806
 30
0.0
  0
SEQEND
  5
C4E
330
C49
100
AcDbEntity
  8
0
 62
     9
  0
POLYLINE
  5
C4F
330
1F
100
AcDbEntity
  8
0
 62
     9
100
AcDb2dPolyline
 66
     1
 10
0.0
 20
0.0
 30
0.0
  0
VERTEX
  5
C50
330
C4F
100
AcDbEntity
  8
0
 62
     9
100
AcDbVertex
100
AcDb2dVertex
 10
3317.226020636742
 20
3349.068277384975
 30
0.0
  0
VERTEX
  5
C51
330
C4F
100
AcDbEntity
  8
0
 62
     9
100
AcDbVertex
100
AcDb2dVertex
 10
3140.065533995742
 20
3341.221572595476
 30
0.0
  0
VERTEX
  5
C52
330
C4F
100
AcDbEntity
  8
0
 62
     9
100
AcDbVertex
100
AcDb2dVertex
 10
2529.464726709893
 20
3336.032479511306
 30
0.0
  0
SEQEND
  5
C53
330
C4F
100
AcDbEntity
  8
0
 62
     9
  0
POLYLINE
  5
C54
330
1F
100
AcDbEntity
  8
0
 62
     9
100
AcDb2dPolyline
 66
     1
 10
0.0
 20
0.0
 30
0.0
  0
VERTEX
  5
C55
330
C54
100
AcDbEntity
  8
0
 62
     9
100
AcDbVertex
100
AcDb2dVertex
 10
2529.646753024243
 20
3513.970206940475
 30
0.0
  0
VERTEX
  5
C56
330
C54
100
AcDbEntity
  8
0
 62
     9
100
AcDbVertex
100
AcDb2dVertex
 10
2529.639572142743
 20
3508.202677219475
 30
0.0
  0
VERTEX
  5
C57
330
C54
100
AcDbEntity
  8
0
 62
     9
100
AcDbVertex
100
AcDb2dVertex
 10
2529.625108963242
 20
3503.072430745475
 30
0.0
  0
VERTEX
  5
C58
330
C54
100
AcDbEntity
  8
0
 62
     9
100
AcDbVertex
100
AcDb2dVertex
 10
2529.605022911244
 20
3499.328908435475
 30
0.0
  0
VERTEX
  5
C59
330
C54
100
AcDbEntity
  8
0
 62
     9
100
AcDbVertex
100
AcDb2dVertex
 10
2529.582048834743
 20
3497.511627418975
 30
0.0
  0
SEQEND
  5
C5A
330
C54
100
AcDbEntity
  8
0
 62
     9
  0
POLYLINE
  5
C5B
330
1F
100
AcDbEntity
  8
0
 62
     9
100
AcDb2dPolyline
 66
     1
 10
0.0
 20
0.0
 30
0.0
  0
VERTEX
  5
C5C
330
C5B
100
AcDbEntity
  8
0
 62
     9
100
AcDbVertex
100
AcDb2dVertex
 10
2529.646889626242
 20
3854.402002131975
 30
0.0
  0
VERTEX
  5
C5D
330
C5B
100
AcDbEntity
  8
0
 62
     9
100
AcDbVertex
100
AcDb2dVertex
 10
2529.640041156242
 20
3848.499348541976
 30
0.0
  0
VERTEX
  5
C5E
330
C5B
100
AcDbEntity
  8
0
 62
     9
100
AcDbVertex
100
AcDb2dVertex
 10
2529.625843244742
 20
3843.080104326975
 30
0.0
  0
VERTEX
  5
C5F
330
C5B
100
AcDbEntity
  8
0
 62
     9
100
AcDbVertex
100
AcDb2dVertex
 10
2529.605825814243
 20
3838.941155625974
 30
0.0
  0
VERTEX
  5
C60
330
C5B
100
AcDbEntity
  8
0
 62
     9
100
AcDbVertex
100
AcDb2dVertex
 10
2529.582224808742
 20
3836.685816489975
 30
0.0
  0
SEQEND
  5
C61
330
C5B
100
AcDbEntity
  8
0
 62
     9
  0
LINE
  5
C62
330
1F
100
AcDbEntity
  8
0
 62
     9
100
AcDbLine
 10
2529.646750191244
 20
3513.970216345975
 30
0.0
 11
2529.646596499243
 21
3675.985089822475
 31
0.0
  0
LINE
  5
C63
330
1F
100
AcDbEntity
  8
0
 62
     9
100
AcDbLine
 10
2529.582458649743
 20
3692.586107090976
 30
0.0
 11
2529.582280089743
 21
3836.685854084976
 31
0.0
  0
LINE
  5
C64
330
1F
100
AcDbEntity
  8
0
 62
     9
100
AcDbLine
 10
2529.58204575979
 20
3336.033111710195
 30
0.0
 11
2529.582043989242
 21
3497.511627495475
 31
0.0
  0
POLYLINE
  5
C65
330
1F
100
AcDbEntity
  8
0
 62
     9
100
AcDb2dPolyline
 66
     1
 10
0.0
 20
0.0
 30
0.0
  0
VERTEX
  5
C66
330
C65
100
AcDbEntity
  8
0
 62
     9
100
AcDbVertex
100
AcDb2dVertex
 10
2529.582327345244
 20
3692.586143502976
 30
0.0
  0
VERTEX
  5
C67
330
C65
100
AcDbEntity
  8
0
 62
     9
100
AcDbVertex
100
AcDb2dVertex
 10
2529.605625361742
 20
3690.866827652475
 30
0.0
  0
VERTEX
  5
C68
330
C65
100
AcDbEntity
  8
0
 62
     9
100
AcDbVertex
100
AcDb2dVertex
 10
2529.625496338243
 20
3687.193839053975
 30
0.0
  0
VERTEX
  5
C69
330
C65
100
AcDbEntity
  8
0
 62
     9
100
AcDbVertex
100
AcDb2dVertex
 10
2529.639939962242
 20
3681.992830247476
 30
0.0
  0
VERTEX
  5
C6A
330
C65
100
AcDbEntity
  8
0
 62
     9
100
AcDbVertex
100
AcDb2dVertex
 10
2529.647037350743
 20
3675.984615331476
 30
0.0
  0
SEQEND
  5
C6B
330
C65
100
AcDbEntity
  8
0
 62
     9
  0
POLYLINE
  5
C6C
330
1F
100
AcDbEntity
  8
0
100
AcDb2dPolyline
 66
     1
 10
0.0
 20
0.0
 30
0.0
  0
VERTEX
  5
C6D
330
C6C
100
AcDbEntity
  8
0
100
AcDbVertex
100
AcDb2dVertex
 10
2512.582045463743
 20
3853.361237134976
 30
0.0
  0
VERTEX
  5
C6E
330
C6C
100
AcDbEntity
  8
0
100
AcDbVertex
100
AcDb2dVertex
 10
2513.362545368743
 20
3848.429105430975
 30
0.0
  0
VERTEX
  5
C6F
330
C6C
100
AcDbEntity
  8
0
100
AcDbVertex
100
AcDb2dVertex
 10
2515.730366691244
 20
3843.780412278975
 30
0.0
  0
VERTEX
  5
C70
330
C6C
100
AcDbEntity
  8
0
100
AcDbVertex
100
AcDb2dVertex
 10
2519.492711666742
 20
3840.018348107975
 30
0.0
  0
VERTEX
  5
C71
330
C6C
100
AcDbEntity
  8
0
100
AcDbVertex
100
AcDb2dVertex
 10
2524.271527438744
 20
3837.566893009475
 30
0.0
  0
VERTEX
  5
C72
330
C6C
100
AcDbEntity
  8
0
100
AcDbVertex
100
AcDb2dVertex
 10
2529.582045463242
 20
3836.685816491975
 30
0.0
  0
SEQEND
  5
C73
330
C6C
100
AcDbEntity
  8
0
  0
POLYLINE
  5
C74
330
1F
100
AcDbEntity
  8
0
 62
     9
100
AcDb2dPolyline
 66
     1
 10
0.0
 20
0.0
 30
0.0
  0
VERTEX
  5
C75
330
C74
100
AcDbEntity
  8
0
 62
     9
100
AcDbVertex
100
AcDb2dVertex
 10
2512.582045463242
 20
3514.379487962975
 30
0.0
  0
VERTEX
  5
C76
330
C74
100
AcDbEntity
  8
0
 62
     9
100
AcDbVertex
100
AcDb2dVertex
 10
2513.418088639742
 20
3514.253013030475
 30
0.0
  0
VERTEX
  5
C77
330
C74
100
AcDbEntity
  8
0
 62
     9
100
AcDbVertex
100
AcDb2dVertex
 10
2515.843986036743
 20
3514.138865185475
 30
0.0
  0
VERTEX
  5
C78
330
C74
100
AcDbEntity
  8
0
 62
     9
100
AcDbVertex
100
AcDb2dVertex
 10
2519.621131462243
 20
3514.048273708976
 30
0.0
  0
VERTEX
  5
C79
330
C74
100
AcDbEntity
  8
0
 62
     9
100
AcDbVertex
100
AcDb2dVertex
 10
2524.378012692242
 20
3513.990149140975
 30
0.0
  0
VERTEX
  5
C7A
330
C74
100
AcDbEntity
  8
0
 62
     9
100
AcDbVertex
100
AcDb2dVertex
 10
2529.646753024243
 20
3513.970206940475
 30
0.0
  0
SEQEND
  5
C7B
330
C74
100
AcDbEntity
  8
0
 62
     9
  0
POLYLINE
  5
C7C
330
1F
100
AcDbEntity
  8
0
 62
     9
100
AcDb2dPolyline
 66
     1
 10
0.0
 20
0.0
 30
0.0
  0
VERTEX
  5
C7D
330
C7C
100
AcDbEntity
  8
0
 62
     9
100
AcDbVertex
100
AcDb2dVertex
 10
3316.261718540743
 20
3489.279106282976
 30
0.0
  0
VERTEX
  5
C7E
330
C7C
100
AcDbEntity
  8
0
 62
     9
100
AcDbVertex
100
AcDb2dVertex
 10
3343.644175732242
 20
3487.393929577976
 30
0.0
  0
VERTEX
  5
C7F
330
C7C
100
AcDbEntity
  8
0
 62
     9
100
AcDbVertex
100
AcDb2dVertex
 10
3367.117306666243
 20
3484.367373829975
 30
0.0
  0
VERTEX
  5
C80
330
C7C
100
AcDbEntity
  8
0
 62
     9
100
AcDbVertex
100
AcDb2dVertex
 10
3387.173353722242
 20
3480.191685141976
 30
0.0
  0
VERTEX
  5
C81
330
C7C
100
AcDbEntity
  8
0
 62
     9
100
AcDbVertex
100
AcDb2dVertex
 10
3404.268818093743
 20
3474.772294549975
 30
0.0
  0
VERTEX
  5
C82
330
C7C
100
AcDbEntity
  8
0
 62
     9
100
AcDbVertex
100
AcDb2dVertex
 10
3418.374947987241
 20
3468.119377164475
 30
0.0
  0
VERTEX
  5
C83
330
C7C
100
AcDbEntity
  8
0
 62
     9
100
AcDbVertex
100
AcDb2dVertex
 10
3429.432838945241
 20
3460.362594597975
 30
0.0
  0
VERTEX
  5
C84
330
C7C
100
AcDbEntity
  8
0
 62
     9
100
AcDbVertex
100
AcDb2dVertex
 10
3437.486992911242
 20
3451.704732285975
 30
0.0
  0
VERTEX
  5
C85
330
C7C
100
AcDbEntity
  8
0
 62
     9
100
AcDbVertex
100
AcDb2dVertex
 10
3442.582112051742
 20
3442.539967354975
 30
0.0
  0
VERTEX
  5
C86
330
C7C
100
AcDbEntity
  8
0
 62
     9
100
AcDbVertex
100
AcDb2dVertex
 10
3444.949013014742
 20
3433.220348232475
 30
0.0
  0
VERTEX
  5
C87
330
C7C
100
AcDbEntity
  8
0
 62
     9
100
AcDbVertex
100
AcDb2dVertex
 10
3444.830770058742
 20
3423.831314302976
 30
0.0
  0
VERTEX
  5
C88
330
C7C
100
AcDbEntity
  8
0
 62
     9
100
AcDbVertex
100
AcDb2dVertex
 10
3442.213744883741
 20
3414.339837369975
 30
0.0
  0
VERTEX
  5
C89
330
C7C
100
AcDbEntity
  8
0
 62
     9
100
AcDbVertex
100
AcDb2dVertex
 10
3436.901539247742
 20
3404.935059447475
 30
0.0
  0
VERTEX
  5
C8A
330
C7C
100
AcDbEntity
  8
0
 62
     9
100
AcDbVertex
100
AcDb2dVertex
 10
3428.716525312741
 20
3395.956881130476
 30
0.0
  0
VERTEX
  5
C8B
330
C7C
100
AcDbEntity
  8
0
 62
     9
100
AcDbVertex
100
AcDb2dVertex
 10
3417.452692864742
 20
3387.682814215974
 30
0.0
  0
VERTEX
  5
C8C
330
C7C
100
AcDbEntity
  8
0
 62
     9
100
AcDbVertex
100
AcDb2dVertex
 10
3403.225958658742
 20
3380.504473816476
 30
0.0
  0
VERTEX
  5
C8D
330
C7C
100
AcDbEntity
  8
0
 62
     9
100
AcDbVertex
100
AcDb2dVertex
 10
3386.078168632742
 20
3374.564918154975
 30
0.0
  0
VERTEX
  5
C8E
330
C7C
100
AcDbEntity
  8
0
 62
     9
100
AcDbVertex
100
AcDb2dVertex
 10
3365.924256225243
 20
3369.890000824476
 30
0.0
  0
VERTEX
  5
C8F
330
C7C
100
AcDbEntity
  8
0
 62
     9
100
AcDbVertex
100
AcDb2dVertex
 10
3342.557846811243
 20
3366.471816830975
 30
0.0
  0
VERTEX
  5
C90
330
C7C
100
AcDbEntity
  8
0
 62
     9
100
AcDbVertex
100
AcDb2dVertex
 10
3315.568254896743
 20
3364.327435542474
 30
0.0
  0
SEQEND
  5
C91
330
C7C
100
AcDbEntity
  8
0
 62
     9
  0
POLYLINE
  5
C92
330
1F
100
AcDbEntity
  8
0
 62
     9
100
AcDb2dPolyline
 66
     1
 10
0.0
 20
0.0
 30
0.0
  0
VERTEX
  5
C93
330
C92
100
AcDbEntity
  8
0
 62
     9
100
AcDbVertex
100
AcDb2dVertex
 10
2529.646750011901
 20
3514.159270622254
 30
0.0
  0
VERTEX
  5
C94
330
C92
100
AcDbEntity
  8
0
 62
     9
100
AcDbVertex
100
AcDb2dVertex
 10
2762.896608527741
 20
3513.899877191975
 30
0.0
  0
VERTEX
  5
C95
330
C92
100
AcDbEntity
  8
0
 62
     9
100
AcDbVertex
100
AcDb2dVertex
 10
2831.906629023741
 20
3513.719998604476
 30
0.0
  0
VERTEX
  5
C96
330
C92
100
AcDbEntity
  8
0
 62
     9
100
AcDbVertex
100
AcDb2dVertex
 10
2908.308114787743
 20
3513.356042203476
 30
0.0
  0
VERTEX
  5
C97
330
C92
100
AcDbEntity
  8
0
 62
     9
100
AcDbVertex
100
AcDb2dVertex
 10
2993.624726346242
 20
3512.657586801976
 30
0.0
  0
VERTEX
  5
C98
330
C92
100
AcDbEntity
  8
0
 62
     9
100
AcDbVertex
100
AcDb2dVertex
 10
3089.297635838742
 20
3511.327912153475
 30
0.0
  0
VERTEX
  5
C99
330
C92
100
AcDbEntity
  8
0
 62
     9
100
AcDbVertex
100
AcDb2dVertex
 10
3196.812048283243
 20
3508.777068523976
 30
0.0
  0
VERTEX
  5
C9A
330
C92
100
AcDbEntity
  8
0
 62
     9
100
AcDbVertex
100
AcDb2dVertex
 10
3317.922450037243
 20
3503.777112618475
 30
0.0
  0
SEQEND
  5
C9B
330
C92
100
AcDbEntity
  8
0
 62
     9
  0
POLYLINE
  5
C9C
330
1F
100
AcDbEntity
  8
0
 62
     9
100
AcDb2dPolyline
 66
     1
 10
0.0
 20
0.0
 30
0.0
  0
VERTEX
  5
C9D
330
C9C
100
AcDbEntity
  8
0
 62
     9
100
AcDbVertex
100
AcDb2dVertex
 10
2529.583983449579
 20
3497.664658110572
 30
0.0
  0
VERTEX
  5
C9E
330
C9C
100
AcDbEntity
  8
0
 62
     9
100
AcDbVertex
100
AcDb2dVertex
 10
2762.637826526742
 20
3497.454865287975
 30
0.0
  0
VERTEX
  5
C9F
330
C9C
100
AcDbEntity
  8
0
 62
     9
100
AcDbVertex
100
AcDb2dVertex
 10
2831.446275431742
 20
3497.309701952475
 30
0.0
  0
VERTEX
  5
CA0
330
C9C
100
AcDbEntity
  8
0
 62
     9
100
AcDbVertex
100
AcDb2dVertex
 10
2907.635996857243
 20
3497.015923797475
 30
0.0
  0
VERTEX
  5
CA1
330
C9C
100
AcDbEntity
  8
0
 62
     9
100
AcDbVertex
100
AcDb2dVertex
 10
2992.728480184243
 20
3496.452042433976
 30
0.0
  0
VERTEX
  5
CA2
330
C9C
100
AcDbEntity
  8
0
 62
     9
100
AcDbVertex
100
AcDb2dVertex
 10
3088.163526950243
 20
3495.378339511976
 30
0.0
  0
VERTEX
  5
CA3
330
C9C
100
AcDbEntity
  8
0
 62
     9
100
AcDbVertex
100
AcDb2dVertex
 10
3195.424323257742
 20
3493.318356756975
 30
0.0
  0
VERTEX
  5
CA4
330
C9C
100
AcDbEntity
  8
0
 62
     9
100
AcDbVertex
100
AcDb2dVertex
 10
3316.261718540743
 20
3489.279106282976
 30
0.0
  0
SEQEND
  5
CA5
330
C9C
100
AcDbEntity
  8
0
 62
     9
  0
POLYLINE
  5
CA6
330
1F
100
AcDbEntity
  8
0
 62
     9
100
AcDb2dPolyline
 66
     1
 10
0.0
 20
0.0
 30
0.0
  0
VERTEX
  5
CA7
330
CA6
100
AcDbEntity
  8
0
 62
     9
100
AcDbVertex
100
AcDb2dVertex
 10
2512.582045463242
 20
3675.704230733976
 30
0.0
  0
VERTEX
  5
CA8
330
CA6
100
AcDbEntity
  8
0
 62
     9
100
AcDbVertex
100
AcDb2dVertex
 10
2513.414041999243
 20
3680.920898210975
 30
0.0
  0
VERTEX
  5
CA9
330
CA6
100
AcDbEntity
  8
0
 62
     9
100
AcDbVertex
100
AcDb2dVertex
 10
2515.828731673743
 20
3685.627136076475
 30
0.0
  0
VERTEX
  5
CAA
330
CA6
100
AcDbEntity
  8
0
 62
     9
100
AcDbVertex
100
AcDb2dVertex
 10
2519.589730417743
 20
3689.362009767975
 30
0.0
  0
VERTEX
  5
CAB
330
CA6
100
AcDbEntity
  8
0
 62
     9
100
AcDbVertex
100
AcDb2dVertex
 10
2524.328887933242
 20
3691.759926269475
 30
0.0
  0
VERTEX
  5
CAC
330
CA6
100
AcDbEntity
  8
0
 62
     9
100
AcDbVertex
100
AcDb2dVertex
 10
2529.582045463242
 20
3692.586143502976
 30
0.0
  0
SEQEND
  5
CAD
330
CA6
100
AcDbEntity
  8
0
 62
     9
  0
POLYLINE
  5
CAE
330
1F
100
AcDbEntity
  8
0
100
AcDb2dPolyline
 66
     1
 10
0.0
 20
0.0
 30
0.0
  0
VERTEX
  5
CAF
330
CAE
100
AcDbEntity
  8
0
100
AcDbVertex
100
AcDb2dVertex
 10
2512.582045463242
 20
3514.379430815975
 30
0.0
  0
VERTEX
  5
CB0
330
CAE
100
AcDbEntity
  8
0
100
AcDbVertex
100
AcDb2dVertex
 10
2513.363463555742
 20
3509.363562272476
 30
0.0
  0
VERTEX
  5
CB1
330
CAE
100
AcDbEntity
  8
0
100
AcDbVertex
100
AcDb2dVertex
 10
2515.731821934743
 20
3504.652664380975
 30
0.0
  0
VERTEX
  5
CB2
330
CAE
100
AcDbEntity
  8
0
100
AcDbVertex
100
AcDb2dVertex
 10
2519.494004764242
 20
3500.851331677976
 30
0.0
  0
VERTEX
  5
CB3
330
CAE
100
AcDbEntity
  8
0
100
AcDbVertex
100
AcDb2dVertex
 10
2524.272390344243
 20
3498.384426293475
 30
0.0
  0
VERTEX
  5
CB4
330
CAE
100
AcDbEntity
  8
0
100
AcDbVertex
100
AcDb2dVertex
 10
2529.582045463242
 20
3497.511627418975
 30
0.0
  0
SEQEND
  5
CB5
330
CAE
100
AcDbEntity
  8
0
  0
POLYLINE
  5
CB6
330
1F
100
AcDbEntity
  8
0
 62
     9
100
AcDb2dPolyline
 66
     1
 10
0.0
 20
0.0
 30
0.0
  0
VERTEX
  5
CB7
330
CB6
100
AcDbEntity
  8
0
 62
     9
100
AcDbVertex
100
AcDb2dVertex
 10
3317.922450037243
 20
3503.777112618475
 30
0.0
  0
VERTEX
  5
CB8
330
CB6
100
AcDbEntity
  8
0
 62
     9
100
AcDbVertex
100
AcDb2dVertex
 10
3346.828849914242
 20
3501.447146977976
 30
0.0
  0
VERTEX
  5
CB9
330
CB6
100
AcDbEntity
  8
0
 62
     9
100
AcDbVertex
100
AcDb2dVertex
 10
3371.609297073742
 20
3497.708622890475
 30
0.0
  0
VERTEX
  5
CBA
330
CB6
100
AcDbEntity
  8
0
 62
     9
100
AcDbVertex
100
AcDb2dVertex
 10
3392.791470519743
 20
3492.551331795475
 30
0.0
  0
VERTEX
  5
CBB
330
CB6
100
AcDbEntity
  8
0
 62
     9
100
AcDbVertex
100
AcDb2dVertex
 10
3410.857883173743
 20
3485.857491255976
 30
0.0
  0
VERTEX
  5
CBC
330
CB6
100
AcDbEntity
  8
0
 62
     9
100
AcDbVertex
100
AcDb2dVertex
 10
3425.778862725243
 20
3477.637289759975
 30
0.0
  0
VERTEX
  5
CBD
330
CB6
100
AcDbEntity
  8
0
 62
     9
100
AcDbVertex
100
AcDb2dVertex
 10
3437.492250681741
 20
3468.046099985976
 30
0.0
  0
VERTEX
  5
CBE
330
CB6
100
AcDbEntity
  8
0
 62
     9
100
AcDbVertex
100
AcDb2dVertex
 10
3446.041562619742
 20
3457.327797870476
 30
0.0
  0
VERTEX
  5
CBF
330
CB6
100
AcDbEntity
  8
0
 62
     9
100
AcDbVertex
100
AcDb2dVertex
 10
3451.466118435742
 20
3445.963746259975
 30
0.0
  0
VERTEX
  5
CC0
330
CB6
100
AcDbEntity
  8
0
 62
     9
100
AcDbVertex
100
AcDb2dVertex
 10
3453.998988419243
 20
3434.389752056976
 30
0.0
  0
VERTEX
  5
CC1
330
CB6
100
AcDbEntity
  8
0
 62
     9
100
AcDbVertex
100
AcDb2dVertex
 10
3453.888676163744
 20
3422.721952618975
 30
0.0
  0
VERTEX
  5
CC2
330
CB6
100
AcDbEntity
  8
0
 62
     9
100
AcDbVertex
100
AcDb2dVertex
 10
3451.120375476242
 20
3410.934679133476
 30
0.0
  0
VERTEX
  5
CC3
330
CB6
100
AcDbEntity
  8
0
 62
     9
100
AcDbVertex
100
AcDb2dVertex
 10
3445.492986574743
 20
3399.271878325976
 30
0.0
  0
VERTEX
  5
CC4
330
CB6
100
AcDbEntity
  8
0
 62
     9
100
AcDbVertex
100
AcDb2dVertex
 10
3436.827324349243
 20
3388.155774775475
 30
0.0
  0
VERTEX
  5
CC5
330
CB6
100
AcDbEntity
  8
0
 62
     9
100
AcDbVertex
100
AcDb2dVertex
 10
3424.911365018244
 20
3377.923952917975
 30
0.0
  0
VERTEX
  5
CC6
330
CB6
100
AcDbEntity
  8
0
 62
     9
100
AcDbVertex
100
AcDb2dVertex
 10
3409.867971115243
 20
3369.053121665975
 30
0.0
  0
VERTEX
  5
CC7
330
CB6
100
AcDbEntity
  8
0
 62
     9
100
AcDbVertex
100
AcDb2dVertex
 10
3391.741569739242
 20
3361.715765568475
 30
0.0
  0
VERTEX
  5
CC8
330
CB6
100
AcDbEntity
  8
0
 62
     9
100
AcDbVertex
100
AcDb2dVertex
 10
3370.441511112743
 20
3355.941247992475
 30
0.0
  0
VERTEX
  5
CC9
330
CB6
100
AcDbEntity
  8
0
 62
     9
100
AcDbVertex
100
AcDb2dVertex
 10
3345.749480803744
 20
3351.718634187475
 30
0.0
  0
VERTEX
  5
CCA
330
CB6
100
AcDbEntity
  8
0
 62
     9
100
AcDbVertex
100
AcDb2dVertex
 10
3317.226020636742
 20
3349.068277384975
 30
0.0
  0
SEQEND
  5
CCB
330
CB6
100
AcDbEntity
  8
0
 62
     9
  0
POLYLINE
  5
CCC
330
1F
100
AcDbEntity
  8
0
100
AcDb2dPolyline
 66
     1
 10
0.0
 20
0.0
 30
0.0
  0
VERTEX
  5
CCD
330
CCC
100
AcDbEntity
  8
0
100
AcDbVertex
100
AcDb2dVertex
 10
2512.582045463242
 20
3675.703950753975
 30
0.0
  0
VERTEX
  5
CCE
330
CCC
100
AcDbEntity
  8
0
100
AcDbVertex
100
AcDb2dVertex
 10
2513.369645962742
 20
3676.110485628975
 30
0.0
  0
VERTEX
  5
CCF
330
CCC
100
AcDbEntity
  8
0
100
AcDbVertex
100
AcDb2dVertex
 10
2515.751000662743
 20
3676.318066437475
 30
0.0
  0
VERTEX
  5
CD0
330
CCC
100
AcDbEntity
  8
0
100
AcDbVertex
100
AcDb2dVertex
 10
2519.527580358742
 20
3676.337286545475
 30
0.0
  0
VERTEX
  5
CD1
330
CCC
100
AcDbEntity
  8
0
100
AcDbVertex
100
AcDb2dVertex
 10
2524.321595326244
 20
3676.208833730976
 30
0.0
  0
VERTEX
  5
CD2
330
CCC
100
AcDbEntity
  8
0
100
AcDbVertex
100
AcDb2dVertex
 10
2529.647037350743
 20
3675.984615331476
 30
0.0
  0
SEQEND
  5
CD3
330
CCC
100
AcDbEntity
  8
0
  0
POLYLINE
  5
CD4
330
1F
100
AcDbEntity
  8
0
 62
     9
100
AcDb2dPolyline
 66
     1
 10
0.0
 20
0.0
 30
0.0
  0
VERTEX
  5
CD5
330
CD4
100
AcDbEntity
  8
0
 62
     9
100
AcDbVertex
100
AcDb2dVertex
 10
3316.329429140243
 20
3700.579442255474
 30
0.0
  0
VERTEX
  5
CD6
330
CD4
100
AcDbEntity
  8
0
 62
     9
100
AcDbVertex
100
AcDb2dVertex
 10
3131.265603801742
 20
3695.314540218475
 30
0.0
  0
VERTEX
  5
CD7
330
CD4
100
AcDbEntity
  8
0
 62
     9
100
AcDbVertex
100
AcDb2dVertex
 10
2924.471187098742
 20
3693.142933369975
 30
0.0
  0
VERTEX
  5
CD8
330
CD4
100
AcDbEntity
  8
0
 62
     9
100
AcDbVertex
100
AcDb2dVertex
 10
2529.582458649743
 20
3692.586107090976
 30
0.0
  0
SEQEND
  5
CD9
330
CD4
100
AcDbEntity
  8
0
 62
     9
  0
POLYLINE
  5
CDA
330
1F
100
AcDbEntity
  8
0
 62
     9
100
AcDb2dPolyline
 66
     1
 10
0.0
 20
0.0
 30
0.0
  0
VERTEX
  5
CDB
330
CDA
100
AcDbEntity
  8
0
 62
     9
100
AcDbVertex
100
AcDb2dVertex
 10
3317.990450216242
 20
3685.881789823475
 30
0.0
  0
VERTEX
  5
CDC
330
CDA
100
AcDbEntity
  8
0
 62
     9
100
AcDbVertex
100
AcDb2dVertex
 10
3132.425156308743
 20
3679.362005572976
 30
0.0
  0
VERTEX
  5
CDD
330
CDA
100
AcDbEntity
  8
0
 62
     9
100
AcDbVertex
100
AcDb2dVertex
 10
2925.101163113242
 20
3676.673931769475
 30
0.0
  0
VERTEX
  5
CDE
330
CDA
100
AcDbEntity
  8
0
 62
     9
100
AcDbVertex
100
AcDb2dVertex
 10
2529.668407936292
 20
3675.98371556044
 30
0.0
  0
SEQEND
  5
CDF
330
CDA
100
AcDbEntity
  8
0
 62
     9
  0
POLYLINE
  5
CE0
330
1F
100
AcDbEntity
  8
0
 62
     9
100
AcDb2dPolyline
 66
     1
 10
0.0
 20
0.0
 30
0.0
  0
VERTEX
  5
CE1
330
CE0
100
AcDbEntity
  8
0
 62
     9
100
AcDbVertex
100
AcDb2dVertex
 10
2512.582045463242
 20
3853.361539922975
 30
0.0
  0
VERTEX
  5
CE2
330
CE0
100
AcDbEntity
  8
0
 62
     9
100
AcDbVertex
100
AcDb2dVertex
 10
2513.418102872743
 20
3853.685009927475
 30
0.0
  0
VERTEX
  5
CE3
330
CE0
100
AcDbEntity
  8
0
 62
     9
100
AcDbVertex
100
AcDb2dVertex
 10
2515.844015621243
 20
3853.976210935476
 30
0.0
  0
VERTEX
  5
CE4
330
CE0
100
AcDbEntity
  8
0
 62
     9
100
AcDbVertex
100
AcDb2dVertex
 10
2519.621169790243
 20
3854.206508280475
 30
0.0
  0
VERTEX
  5
CE5
330
CE0
100
AcDbEntity
  8
0
 62
     9
100
AcDbVertex
100
AcDb2dVertex
 10
2524.378075250242
 20
3854.353252145975
 30
0.0
  0
VERTEX
  5
CE6
330
CE0
100
AcDbEntity
  8
0
 62
     9
100
AcDbVertex
100
AcDb2dVertex
 10
2529.646889626242
 20
3854.402002131975
 30
0.0
  0
SEQEND
  5
CE7
330
CE0
100
AcDbEntity
  8
0
 62
     9
  0
POLYLINE
  5
CE8
330
1F
100
AcDbEntity
  8
0
 62
     9
100
AcDb2dPolyline
 66
     1
 10
0.0
 20
0.0
 30
0.0
  0
VERTEX
  5
CE9
330
CE8
100
AcDbEntity
  8
0
 62
     9
100
AcDbVertex
100
AcDb2dVertex
 10
3315.742677319743
 20
3826.766299882976
 30
0.0
  0
VERTEX
  5
CEA
330
CE8
100
AcDbEntity
  8
0
 62
     9
100
AcDbVertex
100
AcDb2dVertex
 10
3343.107283313744
 20
3824.678517262975
 30
0.0
  0
VERTEX
  5
CEB
330
CE8
100
AcDbEntity
  8
0
 62
     9
100
AcDbVertex
100
AcDb2dVertex
 10
3366.796684969241
 20
3821.330403771975
 30
0.0
  0
VERTEX
  5
CEC
330
CE8
100
AcDbEntity
  8
0
 62
     9
100
AcDbVertex
100
AcDb2dVertex
 10
3387.213128120743
 20
3816.731800510975
 30
0.0
  0
VERTEX
  5
CED
330
CE8
100
AcDbEntity
  8
0
 62
     9
100
AcDbVertex
100
AcDb2dVertex
 10
3404.696832559742
 20
3810.819965946475
 30
0.0
  0
VERTEX
  5
CEE
330
CE8
100
AcDbEntity
  8
0
 62
     9
100
AcDbVertex
100
AcDb2dVertex
 10
3419.258090362742
 20
3803.602164707975
 30
0.0
  0
VERTEX
  5
CEF
330
CE8
100
AcDbEntity
  8
0
 62
     9
100
AcDbVertex
100
AcDb2dVertex
 10
3430.818607111242
 20
3795.200560876975
 30
0.0
  0
VERTEX
  5
CF0
330
CE8
100
AcDbEntity
  8
0
 62
     9
100
AcDbVertex
100
AcDb2dVertex
 10
3439.171299205743
 20
3786.071402057475
 30
0.0
  0
VERTEX
  5
CF1
330
CE8
100
AcDbEntity
  8
0
 62
     9
100
AcDbVertex
100
AcDb2dVertex
 10
3444.550071050243
 20
3776.519812720475
 30
0.0
  0
VERTEX
  5
CF2
330
CE8
100
AcDbEntity
  8
0
 62
     9
100
AcDbVertex
100
AcDb2dVertex
 10
3447.174432964242
 20
3766.875243400476
 30
0.0
  0
VERTEX
  5
CF3
330
CE8
100
AcDbEntity
  8
0
 62
     9
100
AcDbVertex
100
AcDb2dVertex
 10
3447.259415238242
 20
3757.373323018475
 30
0.0
  0
VERTEX
  5
CF4
330
CE8
100
AcDbEntity
  8
0
 62
     9
100
AcDbVertex
100
AcDb2dVertex
 10
3444.835772223242
 20
3747.928197514975
 30
0.0
  0
VERTEX
  5
CF5
330
CE8
100
AcDbEntity
  8
0
 62
     9
100
AcDbVertex
100
AcDb2dVertex
 10
3439.616873623742
 20
3738.581239706475
 30
0.0
  0
VERTEX
  5
CF6
330
CE8
100
AcDbEntity
  8
0
 62
     9
100
AcDbVertex
100
AcDb2dVertex
 10
3431.346616438742
 20
3729.733781516975
 30
0.0
  0
VERTEX
  5
CF7
330
CE8
100
AcDbEntity
  8
0
 62
     9
100
AcDbVertex
100
AcDb2dVertex
 10
3420.024071080745
 20
3721.842849374976
 30
0.0
  0
VERTEX
  5
CF8
330
CE8
100
AcDbEntity
  8
0
 62
     9
100
AcDbVertex
100
AcDb2dVertex
 10
3405.583872157741
 20
3715.092686051475
 30
0.0
  0
VERTEX
  5
CF9
330
CE8
100
AcDbEntity
  8
0
 62
     9
100
AcDbVertex
100
AcDb2dVertex
 10
3388.091927092744
 20
3709.616906411975
 30
0.0
  0
VERTEX
  5
CFA
330
CE8
100
AcDbEntity
  8
0
 62
     9
100
AcDbVertex
100
AcDb2dVertex
 10
3367.671261011742
 20
3705.435990391475
 30
0.0
  0
VERTEX
  5
CFB
330
CE8
100
AcDbEntity
  8
0
 62
     9
100
AcDbVertex
100
AcDb2dVertex
 10
3343.901349928244
 20
3702.433462405975
 30
0.0
  0
VERTEX
  5
CFC
330
CE8
100
AcDbEntity
  8
0
 62
     9
100
AcDbVertex
100
AcDb2dVertex
 10
3316.329429140243
 20
3700.579442255474
 30
0.0
  0
SEQEND
  5
CFD
330
CE8
100
AcDbEntity
  8
0
 62
     9
  0
POLYLINE
  5
CFE
330
1F
100
AcDbEntity
  8
0
 62
     9
100
AcDb2dPolyline
 66
     1
 10
0.0
 20
0.0
 30
0.0
  0
VERTEX
  5
CFF
330
CFE
100
AcDbEntity
  8
0
 62
     9
100
AcDbVertex
100
AcDb2dVertex
 10
2529.646889626242
 20
3854.402002131975
 30
0.0
  0
VERTEX
  5
D00
330
CFE
100
AcDbEntity
  8
0
 62
     9
100
AcDbVertex
100
AcDb2dVertex
 10
2932.470345545743
 20
3853.277257826475
 30
0.0
  0
VERTEX
  5
D01
330
CFE
100
AcDbEntity
  8
0
 62
     9
100
AcDbVertex
100
AcDb2dVertex
 10
3136.931769526743
 20
3849.675467309975
 30
0.0
  0
VERTEX
  5
D02
330
CFE
100
AcDbEntity
  8
0
 62
     9
100
AcDbVertex
100
AcDb2dVertex
 10
3317.401189017243
 20
3842.119970950476
 30
0.0
  0
SEQEND
  5
D03
330
CFE
100
AcDbEntity
  8
0
 62
     9
  0
POLYLINE
  5
D04
330
1F
100
AcDbEntity
  8
0
 62
     9
100
AcDb2dPolyline
 66
     1
 10
0.0
 20
0.0
 30
0.0
  0
VERTEX
  5
D05
330
D04
100
AcDbEntity
  8
0
 62
     9
100
AcDbVertex
100
AcDb2dVertex
 10
2529.589194662792
 20
3837.351863731516
 30
0.0
  0
VERTEX
  5
D06
330
D04
100
AcDbEntity
  8
0
 62
     9
100
AcDbVertex
100
AcDb2dVertex
 10
2931.832451997742
 20
3835.775929692976
 30
0.0
  0
VERTEX
  5
D07
330
D04
100
AcDbEntity
  8
0
 62
     9
100
AcDbVertex
100
AcDb2dVertex
 10
3135.768057606242
 20
3832.867317398476
 30
0.0
  0
VERTEX
  5
D08
330
D04
100
AcDbEntity
  8
0
 62
     9
100
AcDbVertex
100
AcDb2dVertex
 10
3315.742677319743
 20
3826.766299882976
 30
0.0
  0
SEQEND
  5
D09
330
D04
100
AcDbEntity
  8
0
 62
     9
  0
POLYLINE
  5
D0A
330
1F
100
AcDbEntity
  8
0
 62
     9
100
AcDb2dPolyline
 66
     1
 10
0.0
 20
0.0
 30
0.0
  0
VERTEX
  5
D0B
330
D0A
100
AcDbEntity
  8
0
 62
     9
100
AcDbVertex
100
AcDb2dVertex
 10
3317.401189017243
 20
3842.119970950476
 30
0.0
  0
VERTEX
  5
D0C
330
D0A
100
AcDbEntity
  8
0
 62
     9
100
AcDbVertex
100
AcDb2dVertex
 10
3346.312242471241
 20
3839.539591936976
 30
0.0
  0
VERTEX
  5
D0D
330
D0A
100
AcDbEntity
  8
0
 62
     9
100
AcDbVertex
100
AcDb2dVertex
 10
3371.338265040241
 20
3835.403640146475
 30
0.0
  0
VERTEX
  5
D0E
330
D0A
100
AcDbEntity
  8
0
 62
     9
100
AcDbVertex
100
AcDb2dVertex
 10
3392.910225696743
 20
3829.723547533975
 30
0.0
  0
VERTEX
  5
D0F
330
D0A
100
AcDbEntity
  8
0
 62
     9
100
AcDbVertex
100
AcDb2dVertex
 10
3411.387564830743
 20
3822.420691661975
 30
0.0
  0
VERTEX
  5
D10
330
D0A
100
AcDbEntity
  8
0
 62
     9
100
AcDbVertex
100
AcDb2dVertex
 10
3426.782038575743
 20
3813.501436939475
 30
0.0
  0
VERTEX
  5
D11
330
D0A
100
AcDbEntity
  8
0
 62
     9
100
AcDbVertex
100
AcDb2dVertex
 10
3439.010374947243
 20
3803.112460478476
 30
0.0
  0
VERTEX
  5
D12
330
D0A
100
AcDbEntity
  8
0
 62
     9
100
AcDbVertex
100
AcDb2dVertex
 10
3447.853502280743
 20
3791.809928332976
 30
0.0
  0
VERTEX
  5
D13
330
D0A
100
AcDbEntity
  8
0
 62
     9
100
AcDbVertex
100
AcDb2dVertex
 10
3453.552655100244
 20
3779.965002551975
 30
0.0
  0
VERTEX
  5
D14
330
D0A
100
AcDbEntity
  8
0
 62
     9
100
AcDbVertex
100
AcDb2dVertex
 10
3456.330545389242
 20
3767.987515431975
 30
0.0
  0
VERTEX
  5
D15
330
D0A
100
AcDbEntity
  8
0
 62
     9
100
AcDbVertex
100
AcDb2dVertex
 10
3456.407833974242
 20
3756.178877400975
 30
0.0
  0
VERTEX
  5
D16
330
D0A
100
AcDbEntity
  8
0
 62
     9
100
AcDbVertex
100
AcDb2dVertex
 10
3453.817170481242
 20
3744.448656833475
 30
0.0
  0
VERTEX
  5
D17
330
D0A
100
AcDbEntity
  8
0
 62
     9
100
AcDbVertex
100
AcDb2dVertex
 10
3448.264245622743
 20
3732.858831887975
 30
0.0
  0
VERTEX
  5
D18
330
D0A
100
AcDbEntity
  8
0
 62
     9
100
AcDbVertex
100
AcDb2dVertex
 10
3439.489426455241
 20
3721.906142582475
 30
0.0
  0
VERTEX
  5
D19
330
D0A
100
AcDbEntity
  8
0
 62
     9
100
AcDbVertex
100
AcDb2dVertex
 10
3427.499446603243
 20
3712.149221717475
 30
0.0
  0
VERTEX
  5
D1A
330
D0A
100
AcDbEntity
  8
0
 62
     9
100
AcDbVertex
100
AcDb2dVertex
 10
3412.228937157742
 20
3703.809049205976
 30
0.0
  0
VERTEX
  5
D1B
330
D0A
100
AcDbEntity
  8
0
 62
     9
100
AcDbVertex
100
AcDb2dVertex
 10
3393.747169783742
 20
3697.045681132975
 30
0.0
  0
VERTEX
  5
D1C
330
D0A
100
AcDbEntity
  8
0
 62
     9
100
AcDbVertex
100
AcDb2dVertex
 10
3372.183303552243
 20
3691.882001387976
 30
0.0
  0
VERTEX
  5
D1D
330
D0A
100
AcDbEntity
  8
0
 62
     9
100
AcDbVertex
100
AcDb2dVertex
 10
3347.093051488744
 20
3688.173212693475
 30
0.0
  0
VERTEX
  5
D1E
330
D0A
100
AcDbEntity
  8
0
 62
     9
100
AcDbVertex
100
AcDb2dVertex
 10
3317.990450216242
 20
3685.881789823475
 30
0.0
  0
SEQEND
  5
D1F
330
D0A
100
AcDbEntity
  8
0
 62
     9
  0
POLYLINE
  5
D20
330
1F
100
AcDbEntity
  8
0
 62
     9
100
AcDb2dPolyline
 66
     1
 10
0.0
 20
0.0
 30
0.0
  0
VERTEX
  5
D21
330
D20
100
AcDbEntity
  8
0
 62
     9
100
AcDbVertex
100
AcDb2dVertex
 10
2512.399734822392
 20
3335.752094913806
 30
0.0
  0
VERTEX
  5
D22
330
D20
100
AcDbEntity
  8
0
 62
     9
100
AcDbVertex
100
AcDb2dVertex
 10
2513.231731358393
 20
3340.968762390807
 30
0.0
  0
VERTEX
  5
D23
330
D20
100
AcDbEntity
  8
0
 62
     9
100
AcDbVertex
100
AcDb2dVertex
 10
2515.646421032891
 20
3345.675000256307
 30
0.0
  0
VERTEX
  5
D24
330
D20
100
AcDbEntity
  8
0
 62
     9
100
AcDbVertex
100
AcDb2dVertex
 10
2519.407419776892
 20
3349.409873947807
 30
0.0
  0
VERTEX
  5
D25
330
D20
100
AcDbEntity
  8
0
 62
     9
100
AcDbVertex
100
AcDb2dVertex
 10
2524.146577292392
 20
3351.807790449307
 30
0.0
  0
VERTEX
  5
D26
330
D20
100
AcDbEntity
  8
0
 62
     9
100
AcDbVertex
100
AcDb2dVertex
 10
2529.399734822392
 20
3352.634007682806
 30
0.0
  0
SEQEND
  5
D27
330
D20
100
AcDbEntity
  8
0
 62
     9
  0
POLYLINE
  5
D28
330
1F
100
AcDbEntity
  8
0
100
AcDb2dPolyline
 66
     1
 10
0.0
 20
0.0
 30
0.0
  0
VERTEX
  5
D29
330
D28
100
AcDbEntity
  8
0
100
AcDbVertex
100
AcDb2dVertex
 10
2512.399734822392
 20
3335.751814933807
 30
0.0
  0
VERTEX
  5
D2A
330
D28
100
AcDbEntity
  8
0
100
AcDbVertex
100
AcDb2dVertex
 10
2513.187335321892
 20
3336.158349808807
 30
0.0
  0
VERTEX
  5
D2B
330
D28
100
AcDbEntity
  8
0
100
AcDbVertex
100
AcDb2dVertex
 10
2515.568690021892
 20
3336.365930617307
 30
0.0
  0
VERTEX
  5
D2C
330
D28
100
AcDbEntity
  8
0
100
AcDbVertex
100
AcDb2dVertex
 10
2519.345269717892
 20
3336.385150725307
 30
0.0
  0
VERTEX
  5
D2D
330
D28
100
AcDbEntity
  8
0
100
AcDbVertex
100
AcDb2dVertex
 10
2524.139284685392
 20
3336.256697910807
 30
0.0
  0
VERTEX
  5
D2E
330
D28
100
AcDbEntity
  8
0
100
AcDbVertex
100
AcDb2dVertex
 10
2529.464726709893
 20
3336.032479511306
 30
0.0
  0
SEQEND
  5
D2F
330
D28
100
AcDbEntity
  8
0
  0
LINE
  5
D30
330
1F
100
AcDbEntity
  8
TEXT
  6
Continuous
 62
     7
100
AcDbLine
 10
2341.582545463246
 20
4244.502063039976
 30
0.0
 11
2348.082545463246
 21
4240.749063039976
 31
0.0
  0
POLYLINE
  5
D31
330
1F
100
AcDbEntity
  8
TEXT
  6
Continuous
 62
     7
100
AcDb2dPolyline
 66
     1
 10
0.0
 20
0.0
 30
0.0
  0
VERTEX
  5
D32
330
D31
100
AcDbEntity
  8
TEXT
  6
Continuous
 62
     7
100
AcDbVertex
100
AcDb2dVertex
 10
2348.082545463246
 20
4253.079063039975
 30
0.0
  0
VERTEX
  5
D33
330
D31
100
AcDbEntity
  8
TEXT
  6
Continuous
 62
     7
100
AcDbVertex
100
AcDb2dVertex
 10
2348.082545463246
 20
4248.326063039976
 30
0.0
  0
VERTEX
  5
D34
330
D31
100
AcDbEntity
  8
TEXT
  6
Continuous
 62
     7
100
AcDbVertex
100
AcDb2dVertex
 10
2341.582545463246
 20
4248.326063039976
 30
0.0
  0
SEQEND
  5
D35
330
D31
100
AcDbEntity
  8
TEXT
  6
Continuous
 62
     7
  0
INSERT
  5
D36
330
1F
100
AcDbEntity
  8
0
100
AcDbBlockReference
  2
NXXXX80
 10
1585.518545463245
 20
2775.451063039977
 30
0.0
  0
LINE
  5
D37
330
1F
100
AcDbEntity
  8
TEXT
  6
Continuous
 62
     7
100
AcDbLine
 10
1969.081545463246
 20
4232.748063039976
 30
0.0
 11
1969.081545463246
 21
4230.079063039976
 31
0.0
  0
LINE
  5
D38
330
1F
100
AcDbEntity
  8
TEXT
  6
Continuous
 62
     7
100
AcDbLine
 10
1975.582545463246
 20
4253.079063039975
 30
0.0
 11
1975.582545463246
 21
4251.501063039976
 31
0.0
  0
LINE
  5
D39
330
1F
100
AcDbEntity
  8
TEXT
  6
Continuous
 62
     7
100
AcDbLine
 10
1975.582545463246
 20
4240.326063039976
 30
0.0
 11
1975.582545463246
 21
4236.501063039976
 31
0.0
  0
LINE
  5
D3A
330
1F
100
AcDbEntity
  8
TEXT
  6
Continuous
 62
     7
100
AcDbLine
 10
2341.582545463246
 20
4248.326063039976
 30
0.0
 11
2341.582545463246
 21
4244.502063039976
 31
0.0
  0
POLYLINE
  5
D3B
330
1F
100
AcDbEntity
  8
TEXT
  6
Continuous
 62
     7
100
AcDb2dPolyline
 66
     1
 10
0.0
 20
0.0
 30
0.0
  0
VERTEX
  5
D3C
330
D3B
100
AcDbEntity
  8
TEXT
  6
Continuous
 62
     7
100
AcDbVertex
100
AcDb2dVertex
 10
1966.081545463245
 20
4220.078063039976
 30
0.0
  0
VERTEX
  5
D3D
330
D3B
100
AcDbEntity
  8
TEXT
  6
Continuous
 62
     7
100
AcDbVertex
100
AcDb2dVertex
 10
1966.081545463245
 20
4230.079063039976
 30
0.0
  0
VERTEX
  5
D3E
330
D3B
100
AcDbEntity
  8
TEXT
  6
Continuous
 62
     7
100
AcDbVertex
100
AcDb2dVertex
 10
1969.081545463246
 20
4230.079063039976
 30
0.0
  0
SEQEND
  5
D3F
330
D3B
100
AcDbEntity
  8
TEXT
  6
Continuous
 62
     7
  0
POLYLINE
  5
D40
330
1F
100
AcDbEntity
  8
TEXT
  6
Continuous
 62
     7
100
AcDb2dPolyline
 66
     1
 10
0.0
 20
0.0
 30
0.0
  0
VERTEX
  5
D41
330
D40
100
AcDbEntity
  8
TEXT
  6
Continuous
 62
     7
100
AcDbVertex
100
AcDb2dVertex
 10
2348.082545463246
 20
4240.749063039976
 30
0.0
  0
VERTEX
  5
D42
330
D40
100
AcDbEntity
  8
TEXT
  6
Continuous
 62
     7
100
AcDbVertex
100
AcDb2dVertex
 10
2348.082545463246
 20
4230.079063039976
 30
0.0
  0
VERTEX
  5
D43
330
D40
100
AcDbEntity
  8
TEXT
  6
Continuous
 62
     7
100
AcDbVertex
100
AcDb2dVertex
 10
2351.082545463246
 20
4230.079063039976
 30
0.0
  0
VERTEX
  5
D44
330
D40
100
AcDbEntity
  8
TEXT
  6
Continuous
 62
     7
100
AcDbVertex
100
AcDb2dVertex
 10
2351.082545463246
 20
4220.079063039975
 30
0.0
  0
SEQEND
  5
D45
330
D40
100
AcDbEntity
  8
TEXT
  6
Continuous
 62
     7
  0
ARC
  5
D46
330
1F
100
AcDbEntity
  8
BILD
  6
Continuous
 62
     7
100
AcDbCircle
 10
2361.082545463248
 20
4220.079063039977
 30
0.0
 40
10.00000000000159
100
AcDbArc
 50
180.0
 51
270.0
  0
ARC
  5
D47
330
1F
100
AcDbEntity
  8
BILD
  6
Continuous
 62
     7
100
AcDbCircle
 10
1956.081545463244
 20
4220.079063039977
 30
0.0
 40
10.00000000000136
100
AcDbArc
 50
270.0
 51
359.9999999999479
  0
LINE
  5
D48
330
1F
100
AcDbEntity
  8
AM_8
  6
Continuous
100
AcDbLine
 10
1969.719545463244
 20
4248.117063039976
 30
0.0
 11
1969.081545463246
 21
4247.479063039977
 31
0.0
  0
INSERT
  5
D49
330
1F
100
AcDbEntity
  8
0
100
AcDbBlockReference
  2
NXXXX93
 10
1573.018545463245
 20
2459.556063039977
 30
0.0
  0
POLYLINE
  5
D4A
330
1F
100
AcDbEntity
  8
TEXT
  6
Continuous
 62
     7
100
AcDb2dPolyline
 66
     1
 10
0.0
 20
0.0
 30
0.0
  0
VERTEX
  5
D4B
330
D4A
100
AcDbEntity
  8
TEXT
  6
Continuous
 62
     7
100
AcDbVertex
100
AcDb2dVertex
 10
1956.082545463246
 20
4253.079063039977
 30
0.0
  0
VERTEX
  5
D4C
330
D4A
100
AcDbEntity
  8
TEXT
  6
Continuous
 62
     7
100
AcDbVertex
100
AcDb2dVertex
 10
1956.082545463246
 20
4255.079063039977
 30
0.0
 42
-0.414213562373
  0
VERTEX
  5
D4D
330
D4A
100
AcDbEntity
  8
TEXT
  6
Continuous
 62
     7
100
AcDbVertex
100
AcDb2dVertex
 10
1959.082545463246
 20
4258.079063039977
 30
0.0
  0
VERTEX
  5
D4E
330
D4A
100
AcDbEntity
  8
TEXT
  6
Continuous
 62
     7
100
AcDbVertex
100
AcDb2dVertex
 10
2158.582545463246
 20
4258.079063039977
 30
0.0
  0
SEQEND
  5
D4F
330
D4A
100
AcDbEntity
  8
TEXT
  6
Continuous
 62
     7
  0
POLYLINE
  5
D50
330
1F
100
AcDbEntity
  8
TEXT
  6
Continuous
 62
     7
100
AcDb2dPolyline
 66
     1
 10
0.0
 20
0.0
 30
0.0
  0
VERTEX
  5
D51
330
D50
100
AcDbEntity
  8
TEXT
  6
Continuous
 62
     7
100
AcDbVertex
100
AcDb2dVertex
 10
1974.581545463246
 20
4325.079063039977
 30
0.0
 42
0.414213562373
  0
VERTEX
  5
D52
330
D50
100
AcDbEntity
  8
TEXT
  6
Continuous
 62
     7
100
AcDbVertex
100
AcDb2dVertex
 10
1971.581545463246
 20
4322.079063039977
 30
0.0
  0
VERTEX
  5
D53
330
D50
100
AcDbEntity
  8
TEXT
  6
Continuous
 62
     7
100
AcDbVertex
100
AcDb2dVertex
 10
1971.581545463246
 20
4311.322063039977
 30
0.0
 42
-0.19891236738
  0
VERTEX
  5
D54
330
D50
100
AcDbEntity
  8
TEXT
  6
Continuous
 62
     7
100
AcDbVertex
100
AcDb2dVertex
 10
1970.702545463245
 20
4309.200063039977
 30
0.0
  0
VERTEX
  5
D55
330
D50
100
AcDbEntity
  8
TEXT
  6
Continuous
 62
     7
100
AcDbVertex
100
AcDb2dVertex
 10
1965.461225119686
 20
4303.957383383536
 30
0.0
 42
0.19891236738
  0
VERTEX
  5
D56
330
D50
100
AcDbEntity
  8
TEXT
  6
Continuous
 62
     7
100
AcDbVertex
100
AcDb2dVertex
 10
1964.582545463246
 20
4301.836063039977
 30
0.0
  0
VERTEX
  5
D57
330
D50
100
AcDbEntity
  8
TEXT
  6
Continuous
 62
     7
100
AcDbVertex
100
AcDb2dVertex
 10
1964.582545463246
 20
4261.079063039977
 30
0.0
 42
-0.414213562373
  0
VERTEX
  5
D58
330
D50
100
AcDbEntity
  8
TEXT
  6
Continuous
 62
     7
100
AcDbVertex
100
AcDb2dVertex
 10
1961.582545463246
 20
4258.079063039977
 30
0.0
  0
SEQEND
  5
D59
330
D50
100
AcDbEntity
  8
TEXT
  6
Continuous
 62
     7
  0
LINE
  5
D5A
330
1F
100
AcDbEntity
  8
AM_4
100
AcDbLine
 10
1971.934545463245
 20
4310.328063039976
 30
0.0
 11
2158.582545463246
 21
4310.328063039976
 31
0.0
  0
LINE
  5
D5B
330
1F
100
AcDbEntity
  8
AM_4
100
AcDbLine
 10
1965.939545463246
 20
4302.397063039977
 30
0.0
 11
2158.581545463245
 21
4302.397063039977
 31
0.0
  0
INSERT
  5
D5C
330
1F
100
AcDbEntity
  8
0
100
AcDbBlockReference
  2
NXXXX95
 10
1573.018545463245
 20
2459.556063039977
 30
0.0
  0
POLYLINE
  5
D5D
330
1F
100
AcDbEntity
  8
TEXT
  6
Continuous
 62
     7
100
AcDb2dPolyline
 66
     1
 10
0.0
 20
0.0
 30
0.0
  0
VERTEX
  5
D5E
330
D5D
100
AcDbEntity
  8
TEXT
  6
Continuous
 62
     7
100
AcDbVertex
100
AcDb2dVertex
 10
2361.082545463244
 20
4253.079063039977
 30
0.0
  0
VERTEX
  5
D5F
330
D5D
100
AcDbEntity
  8
TEXT
  6
Continuous
 62
     7
100
AcDbVertex
100
AcDb2dVertex
 10
2361.082545463244
 20
4255.079063039977
 30
0.0
 42
0.414213562373
  0
VERTEX
  5
D60
330
D5D
100
AcDbEntity
  8
TEXT
  6
Continuous
 62
     7
100
AcDbVertex
100
AcDb2dVertex
 10
2358.082545463244
 20
4258.079063039977
 30
0.0
  0
VERTEX
  5
D61
330
D5D
100
AcDbEntity
  8
TEXT
  6
Continuous
 62
     7
100
AcDbVertex
100
AcDb2dVertex
 10
2158.582545463246
 20
4258.079063039977
 30
0.0
  0
SEQEND
  5
D62
330
D5D
100
AcDbEntity
  8
TEXT
  6
Continuous
 62
     7
  0
POLYLINE
  5
D63
330
1F
100
AcDbEntity
  8
TEXT
  6
Continuous
 62
     7
100
AcDb2dPolyline
 66
     1
 10
0.0
 20
0.0
 30
0.0
  0
VERTEX
  5
D64
330
D63
100
AcDbEntity
  8
TEXT
  6
Continuous
 62
     7
100
AcDbVertex
100
AcDb2dVertex
 10
2355.581545463246
 20
4258.079063039977
 30
0.0
 42
-0.414213562373
  0
VERTEX
  5
D65
330
D63
100
AcDbEntity
  8
TEXT
  6
Continuous
 62
     7
100
AcDbVertex
100
AcDb2dVertex
 10
2352.581545463246
 20
4261.079063039977
 30
0.0
  0
VERTEX
  5
D66
330
D63
100
AcDbEntity
  8
TEXT
  6
Continuous
 62
     7
100
AcDbVertex
100
AcDb2dVertex
 10
2352.581545463246
 20
4301.836063039977
 30
0.0
 42
0.19891236738
  0
VERTEX
  5
D67
330
D63
100
AcDbEntity
  8
TEXT
  6
Continuous
 62
     7
100
AcDbVertex
100
AcDb2dVertex
 10
2351.702865806806
 20
4303.957383383536
 30
0.0
  0
VERTEX
  5
D68
330
D63
100
AcDbEntity
  8
TEXT
  6
Continuous
 62
     7
100
AcDbVertex
100
AcDb2dVertex
 10
2346.461545463245
 20
4309.200063039977
 30
0.0
 42
-0.19891236738
  0
VERTEX
  5
D69
330
D63
100
AcDbEntity
  8
TEXT
  6
Continuous
 62
     7
100
AcDbVertex
100
AcDb2dVertex
 10
2345.582545463244
 20
4311.322063039977
 30
0.0
  0
VERTEX
  5
D6A
330
D63
100
AcDbEntity
  8
TEXT
  6
Continuous
 62
     7
100
AcDbVertex
100
AcDb2dVertex
 10
2345.582545463244
 20
4322.079063039977
 30
0.0
 42
0.414213562373
  0
VERTEX
  5
D6B
330
D63
100
AcDbEntity
  8
TEXT
  6
Continuous
 62
     7
100
AcDbVertex
100
AcDb2dVertex
 10
2342.582545463246
 20
4325.079063039977
 30
0.0
  0
SEQEND
  5
D6C
330
D63
100
AcDbEntity
  8
TEXT
  6
Continuous
 62
     7
  0
LINE
  5
D6D
330
1F
100
AcDbEntity
  8
AM_4
100
AcDbLine
 10
2345.229545463245
 20
4310.328063039976
 30
0.0
 11
2158.582545463246
 21
4310.328063039976
 31
0.0
  0
LINE
  5
D6E
330
1F
100
AcDbEntity
  8
AM_4
100
AcDbLine
 10
2351.225545463246
 20
4302.397063039977
 30
0.0
 11
2158.582545463246
 21
4302.397063039977
 31
0.0
  0
LINE
  5
D6F
330
1F
100
AcDbEntity
  8
0
100
AcDbLine
 10
1966.081545463245
 20
4230.079063039976
 30
0.0
 11
2351.082545463246
 21
4230.079063039976
 31
0.0
  0
LINE
  5
D70
330
1F
100
AcDbEntity
  8
0
100
AcDbLine
 10
1969.081545463246
 20
4232.748063039976
 30
0.0
 11
2348.082545463246
 21
4240.749063039976
 31
0.0
  0
LINE
  5
D71
330
1F
100
AcDbEntity
  8
0
100
AcDbLine
 10
1975.582545463246
 20
4236.501063039976
 30
0.0
 11
2341.582545463246
 21
4244.502063039976
 31
0.0
  0
LINE
  5
D72
330
1F
100
AcDbEntity
  8
0
100
AcDbLine
 10
1969.081545463246
 20
4240.327063039976
 30
0.0
 11
2150.600168260392
 21
4240.327063039976
 31
0.0
  0
LINE
  5
D73
330
1F
100
AcDbEntity
  8
0
100
AcDbLine
 10
1969.081545463246
 20
4247.749063039977
 30
0.0
 11
2221.559401981171
 21
4253.079063039975
 31
0.0
  0
LINE
  5
D74
330
1F
100
AcDbEntity
  8
0
100
AcDbLine
 10
1975.582545463246
 20
4251.502063039976
 30
0.0
 11
2047.721278121663
 21
4253.079063039975
 31
0.0
  0
LINE
  5
D75
330
1F
100
AcDbEntity
  8
0
100
AcDbLine
 10
2348.082545463246
 20
4248.326063039976
 30
0.0
 11
1969.719545463244
 21
4248.117063039976
 31
0.0
  0
LINE
  5
D76
330
1F
100
AcDbEntity
  8
TEXT
  6
Continuous
 62
     7
100
AcDbLine
 10
3068.582545463242
 20
4244.502063039976
 30
0.0
 11
3075.082545463243
 21
4240.749063039976
 31
0.0
  0
POLYLINE
  5
D77
330
1F
100
AcDbEntity
  8
TEXT
  6
Continuous
 62
     7
100
AcDb2dPolyline
 66
     1
 10
0.0
 20
0.0
 30
0.0
  0
VERTEX
  5
D78
330
D77
100
AcDbEntity
  8
TEXT
  6
Continuous
 62
     7
100
AcDbVertex
100
AcDb2dVertex
 10
3075.082545463243
 20
4253.079063039975
 30
0.0
  0
VERTEX
  5
D79
330
D77
100
AcDbEntity
  8
TEXT
  6
Continuous
 62
     7
100
AcDbVertex
100
AcDb2dVertex
 10
3075.082545463243
 20
4248.326063039976
 30
0.0
  0
VERTEX
  5
D7A
330
D77
100
AcDbEntity
  8
TEXT
  6
Continuous
 62
     7
100
AcDbVertex
100
AcDb2dVertex
 10
3068.582545463242
 20
4248.326063039976
 30
0.0
  0
SEQEND
  5
D7B
330
D77
100
AcDbEntity
  8
TEXT
  6
Continuous
 62
     7
  0
INSERT
  5
D7C
330
1F
100
AcDbEntity
  8
0
100
AcDbBlockReference
  2
NXXXX80
 10
2312.518545463244
 20
2775.451063039977
 30
0.0
  0
LINE
  5
D7D
330
1F
100
AcDbEntity
  8
TEXT
  6
Continuous
 62
     7
100
AcDbLine
 10
2696.081545463242
 20
4232.748063039976
 30
0.0
 11
2696.081545463242
 21
4230.079063039976
 31
0.0
  0
LINE
  5
D7E
330
1F
100
AcDbEntity
  8
TEXT
  6
Continuous
 62
     7
100
AcDbLine
 10
2702.582545463242
 20
4253.079063039975
 30
0.0
 11
2702.582545463242
 21
4251.501063039976
 31
0.0
  0
LINE
  5
D7F
330
1F
100
AcDbEntity
  8
TEXT
  6
Continuous
 62
     7
100
AcDbLine
 10
2702.582545463242
 20
4240.326063039976
 30
0.0
 11
2702.582545463242
 21
4236.501063039976
 31
0.0
  0
LINE
  5
D80
330
1F
100
AcDbEntity
  8
TEXT
  6
Continuous
 62
     7
100
AcDbLine
 10
3068.582545463242
 20
4248.326063039976
 30
0.0
 11
3068.582545463242
 21
4244.502063039976
 31
0.0
  0
POLYLINE
  5
D81
330
1F
100
AcDbEntity
  8
TEXT
  6
Continuous
 62
     7
100
AcDb2dPolyline
 66
     1
 10
0.0
 20
0.0
 30
0.0
  0
VERTEX
  5
D82
330
D81
100
AcDbEntity
  8
TEXT
  6
Continuous
 62
     7
100
AcDbVertex
100
AcDb2dVertex
 10
2693.081545463242
 20
4220.078063039976
 30
0.0
  0
VERTEX
  5
D83
330
D81
100
AcDbEntity
  8
TEXT
  6
Continuous
 62
     7
100
AcDbVertex
100
AcDb2dVertex
 10
2693.081545463242
 20
4230.079063039976
 30
0.0
  0
VERTEX
  5
D84
330
D81
100
AcDbEntity
  8
TEXT
  6
Continuous
 62
     7
100
AcDbVertex
100
AcDb2dVertex
 10
2696.081545463242
 20
4230.079063039976
 30
0.0
  0
SEQEND
  5
D85
330
D81
100
AcDbEntity
  8
TEXT
  6
Continuous
 62
     7
  0
POLYLINE
  5
D86
330
1F
100
AcDbEntity
  8
TEXT
  6
Continuous
 62
     7
100
AcDb2dPolyline
 66
     1
 10
0.0
 20
0.0
 30
0.0
  0
VERTEX
  5
D87
330
D86
100
AcDbEntity
  8
TEXT
  6
Continuous
 62
     7
100
AcDbVertex
100
AcDb2dVertex
 10
3075.082545463243
 20
4240.749063039976
 30
0.0
  0
VERTEX
  5
D88
330
D86
100
AcDbEntity
  8
TEXT
  6
Continuous
 62
     7
100
AcDbVertex
100
AcDb2dVertex
 10
3075.082545463243
 20
4230.079063039976
 30
0.0
  0
VERTEX
  5
D89
330
D86
100
AcDbEntity
  8
TEXT
  6
Continuous
 62
     7
100
AcDbVertex
100
AcDb2dVertex
 10
3078.082545463243
 20
4230.079063039976
 30
0.0
  0
VERTEX
  5
D8A
330
D86
100
AcDbEntity
  8
TEXT
  6
Continuous
 62
     7
100
AcDbVertex
100
AcDb2dVertex
 10
3078.082545463243
 20
4220.079063039975
 30
0.0
  0
SEQEND
  5
D8B
330
D86
100
AcDbEntity
  8
TEXT
  6
Continuous
 62
     7
  0
ARC
  5
D8C
330
1F
100
AcDbEntity
  8
BILD
  6
Continuous
 62
     7
100
AcDbCircle
 10
3088.082545463246
 20
4220.079063039977
 30
0.0
 40
10.00000000000159
100
AcDbArc
 50
180.0
 51
270.0
  0
ARC
  5
D8D
330
1F
100
AcDbEntity
  8
BILD
  6
Continuous
 62
     7
100
AcDbCircle
 10
2683.081545463242
 20
4220.079063039977
 30
0.0
 40
10.00000000000136
100
AcDbArc
 50
270.0
 51
359.9999999999479
  0
LINE
  5
D8E
330
1F
100
AcDbEntity
  8
AM_8
  6
Continuous
100
AcDbLine
 10
2696.719545463243
 20
4248.117063039976
 30
0.0
 11
2696.081545463242
 21
4247.479063039977
 31
0.0
  0
INSERT
  5
D8F
330
1F
100
AcDbEntity
  8
0
100
AcDbBlockReference
  2
NXXXX93
 10
2300.018545463244
 20
2459.556063039977
 30
0.0
  0
POLYLINE
  5
D90
330
1F
100
AcDbEntity
  8
TEXT
  6
Continuous
 62
     7
100
AcDb2dPolyline
 66
     1
 10
0.0
 20
0.0
 30
0.0
  0
VERTEX
  5
D91
330
D90
100
AcDbEntity
  8
TEXT
  6
Continuous
 62
     7
100
AcDbVertex
100
AcDb2dVertex
 10
2683.082545463242
 20
4253.079063039977
 30
0.0
  0
VERTEX
  5
D92
330
D90
100
AcDbEntity
  8
TEXT
  6
Continuous
 62
     7
100
AcDbVertex
100
AcDb2dVertex
 10
2683.082545463242
 20
4255.079063039977
 30
0.0
 42
-0.414213562373
  0
VERTEX
  5
D93
330
D90
100
AcDbEntity
  8
TEXT
  6
Continuous
 62
     7
100
AcDbVertex
100
AcDb2dVertex
 10
2686.082545463242
 20
4258.079063039977
 30
0.0
  0
VERTEX
  5
D94
330
D90
100
AcDbEntity
  8
TEXT
  6
Continuous
 62
     7
100
AcDbVertex
100
AcDb2dVertex
 10
2885.582545463242
 20
4258.079063039977
 30
0.0
  0
SEQEND
  5
D95
330
D90
100
AcDbEntity
  8
TEXT
  6
Continuous
 62
     7
  0
POLYLINE
  5
D96
330
1F
100
AcDbEntity
  8
TEXT
  6
Continuous
 62
     7
100
AcDb2dPolyline
 66
     1
 10
0.0
 20
0.0
 30
0.0
  0
VERTEX
  5
D97
330
D96
100
AcDbEntity
  8
TEXT
  6
Continuous
 62
     7
100
AcDbVertex
100
AcDb2dVertex
 10
2701.581545463242
 20
4325.079063039977
 30
0.0
 42
0.414213562373
  0
VERTEX
  5
D98
330
D96
100
AcDbEntity
  8
TEXT
  6
Continuous
 62
     7
100
AcDbVertex
100
AcDb2dVertex
 10
2698.581545463242
 20
4322.079063039977
 30
0.0
  0
VERTEX
  5
D99
330
D96
100
AcDbEntity
  8
TEXT
  6
Continuous
 62
     7
100
AcDbVertex
100
AcDb2dVertex
 10
2698.581545463242
 20
4311.322063039977
 30
0.0
 42
-0.19891236738
  0
VERTEX
  5
D9A
330
D96
100
AcDbEntity
  8
TEXT
  6
Continuous
 62
     7
100
AcDbVertex
100
AcDb2dVertex
 10
2697.702545463243
 20
4309.200063039977
 30
0.0
  0
VERTEX
  5
D9B
330
D96
100
AcDbEntity
  8
TEXT
  6
Continuous
 62
     7
100
AcDbVertex
100
AcDb2dVertex
 10
2692.461225119684
 20
4303.957383383536
 30
0.0
 42
0.19891236738
  0
VERTEX
  5
D9C
330
D96
100
AcDbEntity
  8
TEXT
  6
Continuous
 62
     7
100
AcDbVertex
100
AcDb2dVertex
 10
2691.582545463242
 20
4301.836063039977
 30
0.0
  0
VERTEX
  5
D9D
330
D96
100
AcDbEntity
  8
TEXT
  6
Continuous
 62
     7
100
AcDbVertex
100
AcDb2dVertex
 10
2691.582545463242
 20
4261.079063039977
 30
0.0
 42
-0.414213562373
  0
VERTEX
  5
D9E
330
D96
100
AcDbEntity
  8
TEXT
  6
Continuous
 62
     7
100
AcDbVertex
100
AcDb2dVertex
 10
2688.582545463243
 20
4258.079063039977
 30
0.0
  0
SEQEND
  5
D9F
330
D96
100
AcDbEntity
  8
TEXT
  6
Continuous
 62
     7
  0
LINE
  5
DA0
330
1F
100
AcDbEntity
  8
AM_4
100
AcDbLine
 10
2698.934545463243
 20
4310.328063039976
 30
0.0
 11
2885.582545463242
 21
4310.328063039976
 31
0.0
  0
LINE
  5
DA1
330
1F
100
AcDbEntity
  8
AM_4
100
AcDbLine
 10
2692.939545463242
 20
4302.397063039977
 30
0.0
 11
2885.581545463242
 21
4302.397063039977
 31
0.0
  0
INSERT
  5
DA2
330
1F
100
AcDbEntity
  8
0
100
AcDbBlockReference
  2
NXXXX95
 10
2300.018545463244
 20
2459.556063039977
 30
0.0
  0
POLYLINE
  5
DA3
330
1F
100
AcDbEntity
  8
TEXT
  6
Continuous
 62
     7
100
AcDb2dPolyline
 66
     1
 10
0.0
 20
0.0
 30
0.0
  0
VERTEX
  5
DA4
330
DA3
100
AcDbEntity
  8
TEXT
  6
Continuous
 62
     7
100
AcDbVertex
100
AcDb2dVertex
 10
3088.082545463243
 20
4253.079063039977
 30
0.0
  0
VERTEX
  5
DA5
330
DA3
100
AcDbEntity
  8
TEXT
  6
Continuous
 62
     7
100
AcDbVertex
100
AcDb2dVertex
 10
3088.082545463243
 20
4255.079063039977
 30
0.0
 42
0.414213562373
  0
VERTEX
  5
DA6
330
DA3
100
AcDbEntity
  8
TEXT
  6
Continuous
 62
     7
100
AcDbVertex
100
AcDb2dVertex
 10
3085.082545463242
 20
4258.079063039977
 30
0.0
  0
VERTEX
  5
DA7
330
DA3
100
AcDbEntity
  8
TEXT
  6
Continuous
 62
     7
100
AcDbVertex
100
AcDb2dVertex
 10
2885.582545463242
 20
4258.079063039977
 30
0.0
  0
SEQEND
  5
DA8
330
DA3
100
AcDbEntity
  8
TEXT
  6
Continuous
 62
     7
  0
POLYLINE
  5
DA9
330
1F
100
AcDbEntity
  8
TEXT
  6
Continuous
 62
     7
100
AcDb2dPolyline
 66
     1
 10
0.0
 20
0.0
 30
0.0
  0
VERTEX
  5
DAA
330
DA9
100
AcDbEntity
  8
TEXT
  6
Continuous
 62
     7
100
AcDbVertex
100
AcDb2dVertex
 10
3082.581545463242
 20
4258.079063039977
 30
0.0
 42
-0.414213562373
  0
VERTEX
  5
DAB
330
DA9
100
AcDbEntity
  8
TEXT
  6
Continuous
 62
     7
100
AcDbVertex
100
AcDb2dVertex
 10
3079.581545463242
 20
4261.079063039977
 30
0.0
  0
VERTEX
  5
DAC
330
DA9
100
AcDbEntity
  8
TEXT
  6
Continuous
 62
     7
100
AcDbVertex
100
AcDb2dVertex
 10
3079.581545463242
 20
4301.836063039977
 30
0.0
 42
0.19891236738
  0
VERTEX
  5
DAD
330
DA9
100
AcDbEntity
  8
TEXT
  6
Continuous
 62
     7
100
AcDbVertex
100
AcDb2dVertex
 10
3078.702865806804
 20
4303.957383383536
 30
0.0
  0
VERTEX
  5
DAE
330
DA9
100
AcDbEntity
  8
TEXT
  6
Continuous
 62
     7
100
AcDbVertex
100
AcDb2dVertex
 10
3073.461545463243
 20
4309.200063039977
 30
0.0
 42
-0.19891236738
  0
VERTEX
  5
DAF
330
DA9
100
AcDbEntity
  8
TEXT
  6
Continuous
 62
     7
100
AcDbVertex
100
AcDb2dVertex
 10
3072.582545463243
 20
4311.322063039977
 30
0.0
  0
VERTEX
  5
DB0
330
DA9
100
AcDbEntity
  8
TEXT
  6
Continuous
 62
     7
100
AcDbVertex
100
AcDb2dVertex
 10
3072.582545463243
 20
4322.079063039977
 30
0.0
 42
0.414213562373
  0
VERTEX
  5
DB1
330
DA9
100
AcDbEntity
  8
TEXT
  6
Continuous
 62
     7
100
AcDbVertex
100
AcDb2dVertex
 10
3069.582545463243
 20
4325.079063039977
 30
0.0
  0
SEQEND
  5
DB2
330
DA9
100
AcDbEntity
  8
TEXT
  6
Continuous
 62
     7
  0
LINE
  5
DB3
330
1F
100
AcDbEntity
  8
AM_4
100
AcDbLine
 10
3072.229545463243
 20
4310.328063039976
 30
0.0
 11
2885.582545463242
 21
4310.328063039976
 31
0.0
  0
LINE
  5
DB4
330
1F
100
AcDbEntity
  8
AM_4
100
AcDbLine
 10
3078.225545463242
 20
4302.397063039977
 30
0.0
 11
2885.582545463242
 21
4302.397063039977
 31
0.0
  0
LINE
  5
DB5
330
1F
100
AcDbEntity
  8
0
100
AcDbLine
 10
2693.081545463242
 20
4230.079063039976
 30
0.0
 11
3078.082545463243
 21
4230.079063039976
 31
0.0
  0
LINE
  5
DB6
330
1F
100
AcDbEntity
  8
0
100
AcDbLine
 10
2696.081545463242
 20
4232.748063039976
 30
0.0
 11
3075.082545463243
 21
4240.749063039976
 31
0.0
  0
LINE
  5
DB7
330
1F
100
AcDbEntity
  8
0
100
AcDbLine
 10
2702.582545463242
 20
4236.501063039976
 30
0.0
 11
3068.582545463242
 21
4244.502063039976
 31
0.0
  0
LINE
  5
DB8
330
1F
100
AcDbEntity
  8
0
100
AcDbLine
 10
2696.081545463242
 20
4240.327063039976
 30
0.0
 11
2877.60016826039
 21
4240.327063039976
 31
0.0
  0
LINE
  5
DB9
330
1F
100
AcDbEntity
  8
0
100
AcDbLine
 10
2696.081545463242
 20
4247.749063039977
 30
0.0
 11
2948.559401981168
 21
4253.079063039975
 31
0.0
  0
LINE
  5
DBA
330
1F
100
AcDbEntity
  8
0
100
AcDbLine
 10
2702.582545463242
 20
4251.502063039976
 30
0.0
 11
2774.721278121662
 21
4253.079063039975
 31
0.0
  0
LINE
  5
DBB
330
1F
100
AcDbEntity
  8
0
100
AcDbLine
 10
3075.082545463243
 20
4248.326063039976
 30
0.0
 11
2696.719545463243
 21
4248.117063039976
 31
0.0
  0
LINE
  5
DBC
330
1F
100
AcDbEntity
  8
0
100
AcDbLine
 10
2507.082045463242
 20
4267.572910974773
 30
0.0
 11
2507.082045463242
 21
4229.572910974773
 31
0.0
  0
LINE
  5
DBD
330
1F
100
AcDbEntity
  8
0
100
AcDbLine
 10
2572.082045463242
 20
4267.572910974773
 30
0.0
 11
2572.082045463242
 21
4229.572910974773
 31
0.0
  0
LINE
  5
DBE
330
1F
100
AcDbEntity
  8
0
 62
     9
100
AcDbLine
 10
2507.082045463242
 20
4267.572910974773
 30
0.0
 11
2572.082045463242
 21
4267.572910974773
 31
0.0
  0
LINE
  5
DBF
330
1F
100
AcDbEntity
  8
0
100
AcDbLine
 10
2509.082045463244
 20
4269.572910974773
 30
0.0
 11
2570.082045463242
 21
4269.572910974773
 31
0.0
  0
ARC
  5
DC0
330
1F
100
AcDbEntity
  8
0
100
AcDbCircle
 10
2570.082045463242
 20
4267.572910974773
 30
0.0
 40
2.0
100
AcDbArc
 50
0.0
 51
90.0
  0
ARC
  5
DC1
330
1F
100
AcDbEntity
  8
0
100
AcDbCircle
 10
2509.082045463244
 20
4267.572910974773
 30
0.0
 40
2.0
100
AcDbArc
 50
90.0
 51
180.0
  0
LINE
  5
DC2
330
1F
100
AcDbEntity
  8
0
100
AcDbLine
 10
2507.082045463242
 20
4229.572910974773
 30
0.0
 11
2572.082045463242
 21
4229.572910974773
 31
0.0
  0
LINE
  5
DC3
330
1F
100
AcDbEntity
  8
AM_7
  6
AM_DIN_G_W050x2
100
AcDbLine
 10
1534.582045463244
 20
4065.079063039975
 30
0.0
 11
1770.556149516266
 21
4065.079063039975
 31
0.0
1001
GENIUS_GENODEF_13
1002
{
1000
HIER
1070
     0
1002
}
1002
{
1000
MANEDIT
1070
     0
1002
}
1002
{
1000
NOSEL
1070
     0
1002
}
1002
{
1000
BEHIND
1070
     0
1002
}
1002
{
1000
OTHER
1070
     0
1002
}
1002
{
1000
REACTOR
1002
}
1001
GENIUS_GENOBJ-N-CEN_13
1002
{
1000
OWNER
1000
GEN
1002
}
1001
GENIUS_GENCEN_19
1002
{
1040
30.0
1002
}
  0
LINE
  5
DC4
330
1F
100
AcDbEntity
  8
AM_7
  6
AM_DIN_G_W050x2
100
AcDbLine
 10
3739.082045463244
 20
3995.079063039975
 30
0.0
 11
3505.283965973099
 21
3995.079063039975
 31
0.0
1001
GENIUS_GENOBJ-N-CEN_13
1002
{
1000
OWNER
1000
GEN
1002
}
1001
GENIUS_GENODEF_13
1002
{
1000
HIER
1070
     0
1002
}
1002
{
1000
MANEDIT
1070
     0
1002
}
1002
{
1000
NOSEL
1070
     0
1002
}
1002
{
1000
BEHIND
1070
     0
1002
}
1002
{
1000
OTHER
1070
     0
1002
}
1002
{
1000
REACTOR
1002
}
1001
GENIUS_GENCEN_19
1002
{
1040
30.0
1002
}
  0
DIMENSION
  5
DC5
330
1F
100
AcDbEntity
  8
AM_5
100
AcDbDimension
  2
*D18
 10
1388.86187995072
 20
4015.079063039975
 30
0.0
 11
1388.861879950719
 21
3615.079063035251
 31
0.0
 70
   160
  1
1000
 71
     5
 42
1005.0
  3
AM_ISO$0
100
AcDbAlignedDimension
 13
1687.082045463244
 23
3010.079063039976
 33
0.0
 14
1564.582045463244
 24
4015.079063039975
 34
0.0
 50
90.0
100
AcDbRotatedDimension
1001
ACAD
1000
DSTYLE
1002
{
1070
    40
1040
10.0
1070
   271
1070
     0
1002
}
  0
DIMENSION
  5
DC6
330
1F
100
AcDbEntity
  8
AM_5
100
AcDbDimension
  2
*D19
 10
1458.241664074277
 20
4120.079063035249
 30
0.0
 11
1458.241664074277
 21
4067.29969454558
 31
0.0
 70
   160
  1
%%c<>
 71
     5
 42
109.9999999999977
  3
AM_ISO$0
100
AcDbAlignedDimension
 13
1564.581324501613
 23
4010.079063035251
 33
0.0
 14
1564.581324501613
 24
4120.079063035249
 34
0.0
 50
90.0
100
AcDbRotatedDimension
1001
ACAD
1000
DSTYLE
1002
{
1070
    40
1040
10.0
1070
   271
1070
     0
1002
}
  0
INSERT
  5
DC7
330
1F
100
AcDbEntity
  8
0
100
AcDbBlockReference
  2
asver
 10
21518.69958939355
 20
-822.9679024418151
 30
0.0
  0
DIMENSION
  5
DC8
330
1F
100
AcDbEntity
  8
AM_5
100
AcDbDimension
  2
*D20
 10
4029.098451042297
 20
3945.079063039975
 30
0.0
 11
4029.098451042296
 21
3580.079063039977
 31
0.0
 70
   160
  1
930
 71
     5
 42
933.5221852967183
  3
AM_ISO$0
100
AcDbAlignedDimension
 13
3610.550032170063
 23
3011.556877743257
 33
0.0
 14
3709.082045463244
 24
3945.079063039975
 34
0.0
 50
90.0
100
AcDbRotatedDimension
1001
ACAD
1000
DSTYLE
1002
{
1070
    40
1040
10.0
1070
   271
1070
     0
1002
}
  0
DIMENSION
  5
DC9
330
1F
100
AcDbEntity
  8
AM_5
100
AcDbDimension
  2
*D21
 10
3863.604474411328
 20
4050.079063039976
 30
0.0
 11
3863.604474411327
 21
3995.079063039976
 31
0.0
 70
   160
  1
%%c<>
 71
     5
 42
110.0
  3
AM_ISO$0
100
AcDbAlignedDimension
 13
3709.082045463244
 23
3940.079063039976
 33
0.0
 14
3709.082045463244
 24
4050.079063039976
 34
0.0
 50
90.0
100
AcDbRotatedDimension
1001
ACAD
1000
DSTYLE
1002
{
1070
    40
1040
10.0
1070
   271
1070
     0
1002
}
  0
DIMENSION
  5
DCA
330
1F
100
AcDbEntity
  8
AM_5
100
AcDbDimension
  2
*D22
 10
4119.800770458252
 20
4325.079063039977
 30
0.0
 11
4119.800770458251
 21
3680.079063039976
 31
0.0
 70
   160
  1
1350
 71
     5
 42
1313.52218529672
  3
AM_ISO$0
100
AcDbAlignedDimension
 13
3610.550032170063
 23
3011.556877743257
 33
0.0
 14
3069.582545463243
 24
4325.079063039977
 34
0.0
 50
90.0
100
AcDbRotatedDimension
1001
ACAD
1000
DSTYLE
1002
{
1070
    40
1040
10.0
1070
   271
1070
     0
1002
}
  0
INSERT
  5
DCB
330
1F
100
AcDbEntity
  8
0
100
AcDbBlockReference
  2
asver
 10
23753.19994987436
 20
-892.9677782593884
 30
0.0
  0
DIMENSION
  5
DCC
330
1F
100
AcDbEntity
  8
AM_5
100
AcDbDimension
  2
*D23
 10
3622.582045463242
 20
2911.198206593427
 30
0.0
 11
2639.582045463243
 21
2943.701651475316
 31
0.0
 70
    32
  1
2000
 71
     5
 42
1965.999999999998
  3
AM_ISO$0
100
AcDbAlignedDimension
 13
1656.582045463244
 23
3035.07906303998
 33
0.0
 14
3622.582045463242
 24
3035.579063039975
 34
0.0
100
AcDbRotatedDimension
1001
ACAD
1000
DSTYLE
1002
{
1070
    40
1040
10.0
1070
   271
1070
     0
1002
}
  0
DIMENSION
  5
DCD
330
1F
100
AcDbEntity
  8
AM_5
100
AcDbDimension
  2
*D24
 10
3709.082045463244
 20
1082.822928282642
 30
0.0
 11
2553.840507575936
 21
1082.822928282642
 31
0.0
 70
   160
  1
2160
 71
     5
 42
2144.500000000002
  3
AM_ISO$0
100
AcDbAlignedDimension
 13
1564.582045463242
 23
1621.827498062056
 33
0.0
 14
3709.082045463244
 24
1621.827498062055
 34
0.0
100
AcDbRotatedDimension
1001
ACAD
1000
DSTYLE
1002
{
1070
    40
1040
10.0
1070
   271
1070
     0
1002
}
  0
DIMENSION
  5
DCE
330
1F
100
AcDbEntity
  8
AM_5
100
AcDbDimension
  2
*D25
 10
1304.362090853148
 20
1326.827498062057
 30
0.0
 11
1304.362090853147
 21
1676.827498062056
 31
0.0
 70
   160
 71
     5
 42
700.0
  3
AM_ISO$0
100
AcDbAlignedDimension
 13
2179.582045463244
 23
2026.827498062057
 33
0.0
 14
2174.582045463244
 24
1326.827498062057
 34
0.0
 50
90.0
100
AcDbRotatedDimension
1001
ACAD
1000
DSTYLE
1002
{
1070
    40
1040
10.0
1070
   271
1070
     0
1002
}
  0
TEXT
  5
DCF
330
1F
100
AcDbEntity
  8
AM_6
100
AcDbText
 10
1337.404520321647
 20
1768.475203142051
 30
0.0
 40
27.0
  1
Zulauf
100
AcDbText
  0
TEXT
  5
DD0
330
1F
100
AcDbEntity
  8
AM_6
100
AcDbText
 10
1337.404520321647
 20
1730.975203142051
 30
0.0
 40
27.0
  1
DN 100
100
AcDbText
  0
LINE
  5
DD1
330
1F
100
AcDbEntity
  8
406
  6
AUSGEZOGEN
 62
     7
100
AcDbLine
 10
1495.242346010414
 20
1674.952498062056
 30
0.0
 11
1495.242346010414
 21
1678.703230482054
 31
0.0
  0
LINE
  5
DD2
330
1F
100
AcDbEntity
  8
406
  6
AUSGEZOGEN
 62
     7
100
AcDbLine
 10
1493.992346010414
 20
1673.702498062056
 30
0.0
 11
1493.992346010414
 21
1679.953230482054
 31
0.0
  0
LINE
  5
DD3
330
1F
100
AcDbEntity
  8
406
  6
AUSGEZOGEN
 62
     7
100
AcDbLine
 10
1492.742346010414
 20
1672.452498062056
 30
0.0
 11
1492.742346010414
 21
1681.203230482054
 31
0.0
  0
LINE
  5
DD4
330
1F
100
AcDbEntity
  8
406
  6
AUSGEZOGEN
 62
     7
100
AcDbLine
 10
1491.492346010414
 20
1671.202498062056
 30
0.0
 11
1491.492346010414
 21
1682.453230482054
 31
0.0
  0
LINE
  5
DD5
330
1F
100
AcDbEntity
  8
406
  6
AUSGEZOGEN
 62
     7
100
AcDbLine
 10
1490.242346010413
 20
1669.952498062056
 30
0.0
 11
1490.242346010413
 21
1683.703230482054
 31
0.0
  0
LINE
  5
DD6
330
1F
100
AcDbEntity
  8
406
  6
AUSGEZOGEN
 62
     7
100
AcDbLine
 10
1488.992346010413
 20
1668.702498062056
 30
0.0
 11
1488.992346010413
 21
1684.953230482054
 31
0.0
  0
LINE
  5
DD7
330
1F
100
AcDbEntity
  8
406
  6
AUSGEZOGEN
 62
     7
100
AcDbLine
 10
1487.742346010414
 20
1667.452498062056
 30
0.0
 11
1487.742346010414
 21
1686.203230482054
 31
0.0
  0
LINE
  5
DD8
330
1F
100
AcDbEntity
  8
406
  6
AUSGEZOGEN
 62
     7
100
AcDbLine
 10
1486.492346010414
 20
1666.202498062056
 30
0.0
 11
1486.492346010414
 21
1687.453230482054
 31
0.0
  0
LINE
  5
DD9
330
1F
100
AcDbEntity
  8
406
  6
AUSGEZOGEN
 62
     7
100
AcDbLine
 10
1485.242346010414
 20
1664.952498062056
 30
0.0
 11
1485.242346010414
 21
1688.703230482054
 31
0.0
  0
LINE
  5
DDA
330
1F
100
AcDbEntity
  8
406
  6
AUSGEZOGEN
 62
     7
100
AcDbLine
 10
1483.992346010414
 20
1663.702498062056
 30
0.0
 11
1483.992346010414
 21
1689.953230482054
 31
0.0
  0
LINE
  5
DDB
330
1F
100
AcDbEntity
  8
406
  6
AUSGEZOGEN
 62
     7
100
AcDbLine
 10
1482.742346010414
 20
1662.452498062056
 30
0.0
 11
1482.742346010414
 21
1691.203230482054
 31
0.0
  0
LINE
  5
DDC
330
1F
100
AcDbEntity
  8
406
  6
AUSGEZOGEN
 62
     7
100
AcDbLine
 10
1481.492346010414
 20
1661.201765642051
 30
0.0
 11
1481.492346010414
 21
1692.452253922057
 31
0.0
  0
LINE
  5
DDD
330
1F
100
AcDbEntity
  8
406
  6
AUSGEZOGEN
 62
     7
100
AcDbLine
 10
1480.242346010413
 20
1659.951765642051
 30
0.0
 11
1480.242346010413
 21
1693.702253922057
 31
0.0
  0
LINE
  5
DDE
330
1F
100
AcDbEntity
  8
406
  6
AUSGEZOGEN
 62
     7
100
AcDbLine
 10
1478.992346010414
 20
1658.701765642051
 30
0.0
 11
1478.992346010414
 21
1694.952253922057
 31
0.0
  0
LINE
  5
DDF
330
1F
100
AcDbEntity
  8
406
  6
AUSGEZOGEN
 62
     7
100
AcDbLine
 10
1477.742346010414
 20
1657.451765642051
 30
0.0
 11
1477.742346010414
 21
1696.202253922057
 31
0.0
  0
LINE
  5
DE0
330
1F
100
AcDbEntity
  8
406
  6
AUSGEZOGEN
 62
     7
100
AcDbLine
 10
1476.492346010414
 20
1656.201765642051
 30
0.0
 11
1476.492346010414
 21
1697.452253922057
 31
0.0
  0
LINE
  5
DE1
330
1F
100
AcDbEntity
  8
406
  6
AUSGEZOGEN
 62
     7
100
AcDbLine
 10
1475.242346010413
 20
1654.951765642051
 30
0.0
 11
1475.242346010413
 21
1698.702253922057
 31
0.0
  0
LINE
  5
DE2
330
1F
100
AcDbEntity
  8
406
  6
AUSGEZOGEN
 62
     7
100
AcDbLine
 10
1473.992346010414
 20
1653.701765642051
 30
0.0
 11
1473.992346010414
 21
1699.952253922057
 31
0.0
  0
LINE
  5
DE3
330
1F
100
AcDbEntity
  8
406
  6
AUSGEZOGEN
 62
     7
100
AcDbLine
 10
1472.742346010414
 20
1652.451765642051
 30
0.0
 11
1472.742346010414
 21
1701.202742202055
 31
0.0
  0
LINE
  5
DE4
330
1F
100
AcDbEntity
  8
406
  6
AUSGEZOGEN
 62
     7
100
AcDbLine
 10
1471.492346010413
 20
1651.201765642051
 30
0.0
 11
1471.492346010413
 21
1702.452253922057
 31
0.0
  0
LINE
  5
DE5
330
1F
100
AcDbEntity
  8
406
  6
AUSGEZOGEN
 62
     7
100
AcDbLine
 10
1470.242346010414
 20
1649.951765642051
 30
0.0
 11
1470.242346010414
 21
1703.702253922058
 31
0.0
  0
LINE
  5
DE6
330
1F
100
AcDbEntity
  8
406
  6
AUSGEZOGEN
 62
     7
100
AcDbLine
 10
1468.992346010414
 20
1648.701765642051
 30
0.0
 11
1468.992346010414
 21
1704.952253922056
 31
0.0
  0
LINE
  5
DE7
330
1F
100
AcDbEntity
  8
406
  6
AUSGEZOGEN
 62
     7
100
AcDbLine
 10
1467.742346010421
 20
1647.451765642051
 30
0.0
 11
1467.742346010421
 21
1706.202742202055
 31
0.0
  0
LINE
  5
DE8
330
1F
100
AcDbEntity
  8
406
  6
AUSGEZOGEN
 62
     7
100
AcDbLine
 10
1465.867346010414
 20
1645.577498062056
 30
0.0
 11
1465.867346010414
 21
1708.077498062056
 31
0.0
  0
LINE
  5
DE9
330
1F
100
AcDbEntity
  8
406
  6
AUSGEZOGEN
 62
     7
100
AcDbLine
 10
1466.492346010413
 20
1646.201765642051
 30
0.0
 11
1466.492346010413
 21
1707.452742202055
 31
0.0
  0
LINE
  5
DEA
330
1F
100
AcDbEntity
  8
406
  6
AUSGEZOGEN
 62
     7
100
AcDbLine
 10
1465.867346010414
 20
1708.077498062056
 30
0.0
 11
1497.117346010421
 21
1676.827498062056
 31
0.0
  0
LINE
  5
DEB
330
1F
100
AcDbEntity
  8
406
  6
AUSGEZOGEN
 62
     7
100
AcDbLine
 10
1497.117346010421
 20
1676.827498062056
 30
0.0
 11
1465.867346010414
 21
1645.577498062056
 31
0.0
  0
LINE
  5
DEC
330
1F
100
AcDbEntity
  8
406
  6
AUSGEZOGEN
 62
     7
100
AcDbLine
 10
1465.867346010414
 20
1676.827498062056
 30
0.0
 11
1405.465490540419
 21
1676.827498062056
 31
0.0
  0
TEXT
  5
DED
330
1F
100
AcDbEntity
  8
AM_6
100
AcDbText
 10
3825.651096384103
 20
1766.774031262051
 30
0.0
 40
27.0
  1
Ablauf
100
AcDbText
  0
TEXT
  5
DEE
330
1F
100
AcDbEntity
  8
AM_6
100
AcDbText
 10
3825.651096384103
 20
1729.274031262051
 30
0.0
 40
27.0
  1
DN 100
100
AcDbText
  0
LINE
  5
DEF
330
1F
100
AcDbEntity
  8
406
  6
AUSGEZOGEN
 62
     7
100
AcDbLine
 10
3889.7496071241
 20
1676.827498062055
 30
0.0
 11
3839.081272164101
 21
1676.827498062055
 31
0.0
  0
LINE
  5
DF0
330
1F
100
AcDbEntity
  8
406
  6
AUSGEZOGEN
 62
     7
100
AcDbLine
 10
3920.374607124099
 20
1676.202498062055
 30
0.0
 11
3920.374607124099
 21
1677.453230482053
 31
0.0
  0
LINE
  5
DF1
330
1F
100
AcDbEntity
  8
406
  6
AUSGEZOGEN
 62
     7
100
AcDbLine
 10
3919.1246071241
 20
1674.952498062055
 30
0.0
 11
3919.1246071241
 21
1678.703230482053
 31
0.0
  0
LINE
  5
DF2
330
1F
100
AcDbEntity
  8
406
  6
AUSGEZOGEN
 62
     7
100
AcDbLine
 10
3917.8746071241
 20
1673.702498062055
 30
0.0
 11
3917.8746071241
 21
1679.953230482054
 31
0.0
  0
LINE
  5
DF3
330
1F
100
AcDbEntity
  8
406
  6
AUSGEZOGEN
 62
     7
100
AcDbLine
 10
3916.6246071241
 20
1672.452498062055
 30
0.0
 11
3916.6246071241
 21
1681.203230482054
 31
0.0
  0
LINE
  5
DF4
330
1F
100
AcDbEntity
  8
406
  6
AUSGEZOGEN
 62
     7
100
AcDbLine
 10
3915.3746071241
 20
1671.202498062054
 30
0.0
 11
3915.3746071241
 21
1682.453230482053
 31
0.0
  0
LINE
  5
DF5
330
1F
100
AcDbEntity
  8
406
  6
AUSGEZOGEN
 62
     7
100
AcDbLine
 10
3914.124607124099
 20
1669.952498062055
 30
0.0
 11
3914.124607124099
 21
1683.703230482053
 31
0.0
  0
LINE
  5
DF6
330
1F
100
AcDbEntity
  8
406
  6
AUSGEZOGEN
 62
     7
100
AcDbLine
 10
3912.8746071241
 20
1668.702498062055
 30
0.0
 11
3912.8746071241
 21
1684.953230482053
 31
0.0
  0
LINE
  5
DF7
330
1F
100
AcDbEntity
  8
406
  6
AUSGEZOGEN
 62
     7
100
AcDbLine
 10
3911.6246071241
 20
1667.452498062054
 30
0.0
 11
3911.6246071241
 21
1686.203230482053
 31
0.0
  0
LINE
  5
DF8
330
1F
100
AcDbEntity
  8
406
  6
AUSGEZOGEN
 62
     7
100
AcDbLine
 10
3910.3746071241
 20
1666.202498062055
 30
0.0
 11
3910.3746071241
 21
1687.453230482053
 31
0.0
  0
LINE
  5
DF9
330
1F
100
AcDbEntity
  8
406
  6
AUSGEZOGEN
 62
     7
100
AcDbLine
 10
3909.1246071241
 20
1664.952498062055
 30
0.0
 11
3909.1246071241
 21
1688.703230482053
 31
0.0
  0
LINE
  5
DFA
330
1F
100
AcDbEntity
  8
406
  6
AUSGEZOGEN
 62
     7
100
AcDbLine
 10
3907.874607124099
 20
1663.702498062055
 30
0.0
 11
3907.874607124099
 21
1689.953230482053
 31
0.0
  0
LINE
  5
DFB
330
1F
100
AcDbEntity
  8
406
  6
AUSGEZOGEN
 62
     7
100
AcDbLine
 10
3906.6246071241
 20
1662.452498062055
 30
0.0
 11
3906.6246071241
 21
1691.203230482053
 31
0.0
  0
LINE
  5
DFC
330
1F
100
AcDbEntity
  8
406
  6
AUSGEZOGEN
 62
     7
100
AcDbLine
 10
3905.3746071241
 20
1661.20176564205
 30
0.0
 11
3905.3746071241
 21
1692.452253922056
 31
0.0
  0
LINE
  5
DFD
330
1F
100
AcDbEntity
  8
406
  6
AUSGEZOGEN
 62
     7
100
AcDbLine
 10
3904.1246071241
 20
1659.95176564205
 30
0.0
 11
3904.1246071241
 21
1693.702253922056
 31
0.0
  0
LINE
  5
DFE
330
1F
100
AcDbEntity
  8
406
  6
AUSGEZOGEN
 62
     7
100
AcDbLine
 10
3902.8746071241
 20
1658.70176564205
 30
0.0
 11
3902.8746071241
 21
1694.952253922055
 31
0.0
  0
LINE
  5
DFF
330
1F
100
AcDbEntity
  8
406
  6
AUSGEZOGEN
 62
     7
100
AcDbLine
 10
3901.624607124099
 20
1657.45176564205
 30
0.0
 11
3901.624607124099
 21
1696.202253922056
 31
0.0
  0
LINE
  5
E00
330
1F
100
AcDbEntity
  8
406
  6
AUSGEZOGEN
 62
     7
100
AcDbLine
 10
3900.3746071241
 20
1656.20176564205
 30
0.0
 11
3900.3746071241
 21
1697.452253922056
 31
0.0
  0
LINE
  5
E01
330
1F
100
AcDbEntity
  8
406
  6
AUSGEZOGEN
 62
     7
100
AcDbLine
 10
3899.124607124099
 20
1654.951765642049
 30
0.0
 11
3899.124607124099
 21
1698.702253922056
 31
0.0
  0
LINE
  5
E02
330
1F
100
AcDbEntity
  8
406
  6
AUSGEZOGEN
 62
     7
100
AcDbLine
 10
3897.8746071241
 20
1653.70176564205
 30
0.0
 11
3897.8746071241
 21
1699.952253922055
 31
0.0
  0
LINE
  5
E03
330
1F
100
AcDbEntity
  8
406
  6
AUSGEZOGEN
 62
     7
100
AcDbLine
 10
3896.624607124099
 20
1652.45176564205
 30
0.0
 11
3896.624607124099
 21
1701.202742202054
 31
0.0
  0
LINE
  5
E04
330
1F
100
AcDbEntity
  8
406
  6
AUSGEZOGEN
 62
     7
100
AcDbLine
 10
3920.9996071241
 20
1676.827498062055
 30
0.0
 11
3889.7496071241
 21
1645.577498062055
 31
0.0
  0
LINE
  5
E05
330
1F
100
AcDbEntity
  8
406
  6
AUSGEZOGEN
 62
     7
100
AcDbLine
 10
3889.7496071241
 20
1708.077498062055
 30
0.0
 11
3920.9996071241
 21
1676.827498062055
 31
0.0
  0
LINE
  5
E06
330
1F
100
AcDbEntity
  8
406
  6
AUSGEZOGEN
 62
     7
100
AcDbLine
 10
3889.7496071241
 20
1645.577498062055
 30
0.0
 11
3889.7496071241
 21
1708.077498062055
 31
0.0
  0
LINE
  5
E07
330
1F
100
AcDbEntity
  8
406
  6
AUSGEZOGEN
 62
     7
100
AcDbLine
 10
3895.374607124099
 20
1651.20176564205
 30
0.0
 11
3895.374607124099
 21
1702.452253922056
 31
0.0
  0
LINE
  5
E08
330
1F
100
AcDbEntity
  8
406
  6
AUSGEZOGEN
 62
     7
100
AcDbLine
 10
3894.1246071241
 20
1649.95176564205
 30
0.0
 11
3894.1246071241
 21
1703.702253922056
 31
0.0
  0
LINE
  5
E09
330
1F
100
AcDbEntity
  8
406
  6
AUSGEZOGEN
 62
     7
100
AcDbLine
 10
3892.874607124099
 20
1648.70176564205
 30
0.0
 11
3892.874607124099
 21
1704.952253922056
 31
0.0
  0
LINE
  5
E0A
330
1F
100
AcDbEntity
  8
406
  6
AUSGEZOGEN
 62
     7
100
AcDbLine
 10
3891.6246071241
 20
1647.45176564205
 30
0.0
 11
3891.6246071241
 21
1706.202742202054
 31
0.0
  0
LINE
  5
E0B
330
1F
100
AcDbEntity
  8
406
  6
AUSGEZOGEN
 62
     7
100
AcDbLine
 10
3890.3746071241
 20
1646.20176564205
 30
0.0
 11
3890.3746071241
 21
1707.452742202054
 31
0.0
  0
LINE
  5
E0C
330
1F
100
AcDbEntity
  8
0
100
AcDbLine
 10
1564.582045463244
 20
1731.827498062057
 30
0.0
 11
1564.582045463244
 21
1621.827498062057
 31
0.0
  0
LINE
  5
E0D
330
1F
100
AcDbEntity
  8
0
 62
     9
100
AcDbLine
 10
1695.810527800741
 20
1739.940441177557
 30
0.0
 11
1694.684672392744
 21
1737.091343933056
 31
0.0
  0
LWPOLYLINE
  5
E0E
330
1F
100
AcDbEntity
  8
0
100
AcDbPolyline
 90
        7
 70
     0
 43
0.0
 10
1695.715004829743
 20
1738.236065780557
 10
1695.777008666743
 20
1738.348810042557
 10
1695.090940493743
 20
1737.476771056057
 10
1693.266876300243
 20
1735.746278770056
 10
1690.136489576743
 20
1733.754017859057
 10
1685.659779165743
 20
1732.214931274557
 10
1681.853942237244
 20
1731.827459830557
  0
LWPOLYLINE
  5
E0F
330
1F
100
AcDbEntity
  8
0
 62
     9
100
AcDbPolyline
 90
        5
 70
     0
 43
0.0
 10
1695.585205347742
 20
1614.227251921557
 10
1697.426073367241
 20
1610.450083472557
 10
1698.939355237241
 20
1608.113304920057
 10
1700.168513531243
 20
1606.872003357557
 10
1701.166585292244
 20
1606.497022620057
  0
LINE
  5
E10
330
1F
100
AcDbEntity
  8
0
 62
     9
100
AcDbLine
 10
1694.690768432242
 20
1616.557087524557
 30
0.0
 11
1695.585205347742
 21
1614.227251921557
 31
0.0
  0
LWPOLYLINE
  5
E11
330
1F
100
AcDbEntity
  8
0
 62
     9
100
AcDbPolyline
 90
        6
 70
     0
 43
0.0
 10
1837.827687106243
 20
1962.227969929557
 10
1849.261776987244
 20
1968.262316079056
 10
1863.249237872244
 20
1974.818600685057
 10
1879.884735555744
 20
1981.551265443556
 10
1899.314678403744
 20
1988.073016894557
 10
1921.734999145242
 20
1993.931264213557
  0
LINE
  5
E12
330
1F
100
AcDbEntity
  8
0
 62
     9
100
AcDbLine
 10
1922.672317997242
 20
1989.706106890556
 30
0.0
 11
1922.835935402741
 21
1989.770685303057
 31
0.0
  0
LINE
  5
E13
330
1F
100
AcDbEntity
  8
0
 62
     9
100
AcDbLine
 10
1922.672318849242
 20
1363.948893076557
 30
0.0
 11
1922.835912135742
 21
1363.884317367057
 31
0.0
  0
LWPOLYLINE
  5
E14
330
1F
100
AcDbEntity
  8
0
100
AcDbPolyline
 90
       29
 70
     0
 43
0.0
 10
1819.967562347744
 20
1403.693035507557
 10
1819.896824550243
 20
1403.724805946557
 10
1819.922181091743
 20
1403.710287382556
 10
1820.573419610743
 20
1403.378836986557
 10
1821.704561800244
 20
1402.785010969557
 10
1823.231260337742
 20
1401.970195851557
 10
1825.113937717741
 20
1400.959116947057
 10
1827.322059035744
 20
1399.775184712056
 10
1829.827635636243
 20
1398.441695294057
 10
1832.605312408242
 20
1396.980834693556
 10
1835.640423568241
 20
1395.409923258557
 10
1838.917107206743
 20
1393.746830952557
 10
1842.419269326742
 20
1392.008697832057
 10
1846.138828705242
 20
1390.209153517556
 10
1850.065624597743
 20
1388.362572229057
 10
1854.188172072742
 20
1386.482856902057
 10
1858.500858668244
 20
1384.581502560056
 10
1862.998622626243
 20
1382.669707550057
 10
1867.678450068243
 20
1380.756974466557
 10
1872.540998093743
 20
1378.851565169557
 10
1877.588771223242
 20
1376.961677349057
 10
1882.823041014743
 20
1375.095739528057
 10
1888.245500897242
 20
1373.262077299057
 10
1893.860069965743
 20
1371.469241462556
 10
1899.669639052244
 20
1369.726311994057
 10
1905.677183591745
 20
1368.042328356557
 10
1911.886627052742
 20
1366.426819479557
 10
1918.302210860742
 20
1364.890016426557
 10
1922.836235732243
 20
1363.884247489056
  0
LWPOLYLINE
  5
E15
330
1F
100
AcDbEntity
  8
0
 62
     9
100
AcDbPolyline
 90
        8
 70
     0
 43
0.0
 10
1822.934407935742
 20
1402.196960811057
 10
1829.603067845243
 20
1398.605513736557
 10
1838.593259121741
 20
1393.945893037057
 10
1850.062442826743
 20
1388.396418974057
 10
1864.091553539742
 20
1382.246634199057
 10
1880.741959990241
 20
1375.856046664557
 10
1900.198611440744
 20
1369.602745826557
 10
1922.672320716744
 20
1363.948901495057
  0
LWPOLYLINE
  5
E16
330
1F
100
AcDbEntity
  8
0
 62
     9
100
AcDbPolyline
 90
        9
 70
     0
 43
0.0
 10
3335.479800283741
 20
1358.800980813056
 10
3363.234806627246
 20
1363.265406861556
 10
3387.387358847743
 20
1369.151532942556
 10
3408.315498802745
 20
1375.818247973556
 10
3426.306259431243
 20
1382.759169622556
 10
3441.380125138744
 20
1389.461842837057
 10
3453.595826624245
 20
1395.485280963557
 10
3462.715489249741
 20
1400.294665918057
 10
3468.930805549244
 20
1403.658556634056
  0
LWPOLYLINE
  5
E17
330
1F
100
AcDbEntity
  8
0
100
AcDbPolyline
 90
       32
 70
     0
 43
0.0
 10
3335.398299495245
 20
1358.761923531057
 10
3340.753929992744
 20
1359.434325236057
 10
3348.267143526743
 20
1360.528060624557
 10
3355.536500553243
 20
1361.754774854557
 10
3362.567255787245
 20
1363.100038745556
 10
3369.365058382245
 20
1364.550504537056
 10
3375.934726978743
 20
1366.093971904556
 10
3382.281685434245
 20
1367.718831546556
 10
3388.412347839744
 20
1369.414133887057
 10
3394.332205701244
 20
1371.169768547556
 10
3400.045400463743
 20
1372.976216654556
 10
3405.556871913242
 20
1374.824334350057
 10
3410.871838153743
 20
1376.705332802557
 10
3415.993530224743
 20
1378.610881998056
 10
3420.924104689242
 20
1380.532594343057
 10
3425.666925772245
 20
1382.462291896557
 10
3430.225396120243
 20
1384.392171069056
 10
3434.597674626245
 20
1386.313269764557
 10
3438.778917573741
 20
1388.214704315556
 10
3442.760995780743
 20
1390.083216168557
 10
3446.532836779744
 20
1391.904621027056
 10
3450.078298050244
 20
1393.662007930056
 10
3453.384509355743
 20
1395.338730532057
 10
3456.441390709743
 20
1396.919455486056
 10
3459.229939718745
 20
1398.385093660557
 10
3461.731348673245
 20
1399.716113183556
 10
3463.927132622244
 20
1400.893102449557
 10
3465.795497352744
 20
1401.896387501057
 10
3467.311835899243
 20
1402.706639036557
 10
3468.442273976743
 20
1403.302084026557
 10
3469.146760639741
 20
1403.662857853556
 10
3469.214978403244
 20
1403.696838598556
  0
LWPOLYLINE
  5
E18
330
1F
100
AcDbEntity
  8
0
 62
     9
100
AcDbPolyline
 90
        7
 70
     0
 43
0.0
 10
3336.019643236242
 20
1354.329772148056
 10
3264.476328092241
 20
1346.502055085556
 10
3199.372295011744
 20
1340.847399017056
 10
3140.054231391742
 20
1336.902800511057
 10
3085.832295114741
 20
1334.298692157056
 10
3036.004162860244
 20
1332.746152036557
 10
2989.785373860744
 20
1332.024295680557
  0
LINE
  5
E19
330
1F
100
AcDbEntity
  8
0
100
AcDbLine
 10
2509.582045463244
 20
1326.827498062056
 30
0.0
 11
2514.582045463244
 21
1326.827498062056
 31
0.0
  0
LWPOLYLINE
  5
E1A
330
1F
100
AcDbEntity
  8
0
 62
     9
100
AcDbPolyline
 90
        3
 70
     0
 43
0.0
 10
1964.203007737243
 20
1355.771832819556
 10
2002.257997956744
 20
1349.575446372057
 10
2037.036789200741
 20
1344.995161977557
  0
LWPOLYLINE
  5
E1B
330
1F
100
AcDbEntity
  8
0
100
AcDbPolyline
 90
        4
 70
     0
 43
0.0
 10
1922.835912135742
 20
1363.884317367057
 10
1989.37449485174
 20
1351.503470676057
 10
2066.391248272742
 20
1341.900205740057
 10
2149.04072204024
 20
1337.210880261057
  0
LINE
  5
E1C
330
1F
100
AcDbEntity
  8
0
 62
     9
100
AcDbLine
 10
1922.672320716744
 20
1363.948901495057
 30
0.0
 11
1964.203007737243
 21
1355.771832819556
 31
0.0
  0
LWPOLYLINE
  5
E1D
330
1F
100
AcDbEntity
  8
0
 62
     9
100
AcDbPolyline
 90
        8
 70
     0
 43
0.0
 10
1921.734999145242
 20
1359.723731910557
 10
1899.311261816743
 20
1365.583005354057
 10
1879.878747815742
 20
1372.105957940557
 10
1863.242290626745
 20
1378.839441935557
 10
1849.253657720243
 20
1385.396740395557
 10
1837.819283566742
 20
1391.431705061056
 10
1828.908936078244
 20
1396.617822217556
 10
1822.422427145741
 20
1400.723787962557
  0
LINE
  5
E1E
330
1F
100
AcDbEntity
  8
0
 62
     9
100
AcDbLine
 10
2521.948666854743
 20
2009.319301923556
 30
0.0
 11
2527.173428426743
 21
2013.295537989057
 31
0.0
  0
LINE
  5
E1F
330
1F
100
AcDbEntity
  8
0
 62
     9
100
AcDbLine
 10
2527.173428426743
 20
2013.295537989057
 30
0.0
 11
2533.261875613243
 21
2015.777167482057
 31
0.0
  0
LINE
  5
E20
330
1F
100
AcDbEntity
  8
0
 62
     9
100
AcDbLine
 10
2490.623636089243
 20
1337.977210143556
 30
0.0
 11
2484.033325694242
 21
1337.243142412556
 31
0.0
  0
LINE
  5
E21
330
1F
100
AcDbEntity
  8
0
 62
     9
100
AcDbLine
 10
3179.888195083745
 20
1344.341816075056
 30
0.0
 11
3254.422114182743
 21
1350.319593444556
 31
0.0
  0
LINE
  5
E22
330
1F
100
AcDbEntity
  8
0
 62
     9
100
AcDbLine
 10
3111.337241418244
 20
1340.394991150057
 30
0.0
 11
3179.888195083745
 21
1344.341816075056
 31
0.0
  0
LWPOLYLINE
  5
E23
330
1F
100
AcDbEntity
  8
0
100
AcDbPolyline
 90
        4
 70
     0
 43
0.0
 10
2989.782760942245
 20
1337.035415175057
 10
3112.951471174743
 20
1340.438906038556
 10
3229.795617963245
 20
1348.119731062557
 10
3335.398350850744
 20
1358.761933077057
  0
LINE
  5
E24
330
1F
100
AcDbEntity
  8
0
 62
     9
100
AcDbLine
 10
2515.469374929743
 20
1350.593858353056
 30
0.0
 11
2509.582045463244
 21
1350.538602601557
 31
0.0
  0
LINE
  5
E25
330
1F
100
AcDbEntity
  8
0
 62
     9
100
AcDbLine
 10
2513.963779648241
 20
1368.897623977056
 30
0.0
 11
2514.582436301745
 21
1368.901536913056
 31
0.0
  0
LINE
  5
E26
330
1F
100
AcDbEntity
  8
0
 62
     9
100
AcDbLine
 10
2509.582045463244
 20
1334.327498062056
 30
0.0
 11
2514.582045463244
 21
1334.327498062056
 31
0.0
  0
LINE
  5
E27
330
1F
100
AcDbEntity
  8
0
 62
     9
100
AcDbLine
 10
2514.582045463244
 20
1340.667244024557
 30
0.0
 11
2509.582045463244
 21
1340.667244024557
 31
0.0
  0
LINE
  5
E28
330
1F
100
AcDbEntity
  8
0
100
AcDbLine
 10
2514.582045463244
 20
1343.015530439056
 30
0.0
 11
2509.582045463244
 21
1343.015530439056
 31
0.0
  0
LINE
  5
E29
330
1F
100
AcDbEntity
  8
0
 62
     9
100
AcDbLine
 10
2514.582045463244
 20
1347.840689818555
 30
0.0
 11
2509.582045463244
 21
1347.840689818555
 31
0.0
  0
LINE
  5
E2A
330
1F
100
AcDbEntity
  8
0
 62
     9
100
AcDbLine
 10
2509.582045463244
 20
1368.933622468056
 30
0.0
 11
2513.963779648241
 21
1368.897623977056
 31
0.0
  0
LINE
  5
E2B
330
1F
100
AcDbEntity
  8
0
 62
     9
100
AcDbLine
 10
2513.867248980244
 20
1352.669679983556
 30
0.0
 11
2515.181739922743
 21
1352.647505208057
 31
0.0
  0
LWPOLYLINE
  5
E2C
330
1F
100
AcDbEntity
  8
0
 62
     9
100
AcDbPolyline
 90
        9
 70
     0
 43
0.0
 10
2149.035045815744
 20
1332.201603305556
 10
2128.07366341874
 20
1332.849787541057
 10
2105.503626734243
 20
1333.970305887057
 10
2081.051450434242
 20
1335.680437667557
 10
2054.450456810743
 20
1338.129866812557
 10
2025.445065711744
 20
1341.505373360557
 10
1993.795292401744
 20
1346.036078834556
 10
1959.284674363741
 20
1351.998922425057
 10
1921.734999145242
 20
1359.723731910557
  0
LINE
  5
E2D
330
1F
100
AcDbEntity
  8
0
 62
     9
100
AcDbLine
 10
2509.582045463244
 20
1350.538602601557
 30
0.0
 11
2508.662256182742
 21
1350.572102033056
 31
0.0
  0
LINE
  5
E2E
330
1F
100
AcDbEntity
  8
0
 62
     9
100
AcDbLine
 10
2484.033325871743
 20
2016.411853722557
 30
0.0
 11
2484.055061109742
 21
2016.444422115057
 31
0.0
  0
LINE
  5
E2F
330
1F
100
AcDbEntity
  8
0
 62
     9
100
AcDbLine
 10
2517.937832271745
 20
2004.115352504056
 30
0.0
 11
2521.948666854743
 21
2009.319301923556
 31
0.0
  0
LINE
  5
E30
330
1F
100
AcDbEntity
  8
0
 62
     9
100
AcDbLine
 10
2539.817867137742
 20
2016.619235740057
 30
0.0
 11
2539.785482558243
 21
2016.587419664057
 31
0.0
  0
LWPOLYLINE
  5
E31
330
1F
100
AcDbEntity
  8
0
 62
     9
100
AcDbPolyline
 90
        5
 70
     0
 43
0.0
 10
1701.166585292244
 20
1747.157973504057
 10
1700.209166487743
 20
1746.811208199057
 10
1699.029506033242
 20
1745.655284822056
 10
1697.577390833742
 20
1743.472101469057
 10
1695.810527800741
 20
1739.940441177557
  0
LINE
  5
E32
330
1F
100
AcDbEntity
  8
0
 62
     9
100
AcDbLine
 10
2484.582045463244
 20
1398.919318795057
 30
0.0
 11
2509.582045463244
 21
1398.919318795057
 31
0.0
  0
LINE
  5
E33
330
1F
100
AcDbEntity
  8
0
 62
     9
100
AcDbLine
 10
2549.582045463244
 20
1406.827498062056
 30
0.0
 11
2514.582045463244
 21
1406.827498062056
 31
0.0
  0
LINE
  5
E34
330
1F
100
AcDbEntity
  8
0
100
AcDbLine
 10
2549.582045463244
 20
1421.827498062056
 30
0.0
 11
2529.582045463244
 21
1421.827498062056
 31
0.0
  0
LINE
  5
E35
330
1F
100
AcDbEntity
  8
0
 62
     9
100
AcDbLine
 10
2529.582045463244
 20
1424.012260264056
 30
0.0
 11
2549.582045463244
 21
1424.012260264056
 31
0.0
  0
LWPOLYLINE
  5
E36
330
1F
100
AcDbEntity
  8
0
 62
     9
100
AcDbPolyline
 90
        4
 70
     0
 43
0.0
 10
2539.582045463244
 20
1398.738475894056
 10
2533.164673375744
 20
1398.740496074556
 10
2527.132955553242
 20
1398.736181025057
 10
2522.582045803242
 20
1398.739020250056
  0
LINE
  5
E37
330
1F
100
AcDbEntity
  8
0
 62
     9
100
AcDbLine
 10
2522.582045803242
 20
1398.739020250056
 30
0.0
 11
2514.582045463244
 21
1398.738475894056
 31
0.0
  0
LWPOLYLINE
  5
E38
330
1F
100
AcDbEntity
  8
0
 62
     9
100
AcDbPolyline
 90
        3
 70
     0
 43
0.0
 10
2513.885283985742
 20
1352.597540410556
 10
2514.850948109742
 20
1351.678561434056
 10
2515.367466533745
 20
1351.321460528056
  0
LWPOLYLINE
  5
E39
330
1F
100
AcDbEntity
  8
0
 62
     9
100
AcDbPolyline
 90
        3
 70
     0
 43
0.0
 10
2513.868928903244
 20
1352.669071191057
 10
2513.895347994744
 20
1352.635266760056
 10
2513.885283985742
 20
1352.597540410556
  0
LINE
  5
E3A
330
1F
100
AcDbEntity
  8
0
 62
     9
100
AcDbLine
 10
1902.514439605241
 20
1988.318179621057
 30
0.0
 11
1901.92920703774
 21
1990.473786272557
 31
0.0
  0
LINE
  5
E3B
330
1F
100
AcDbEntity
  8
0
 62
     9
100
AcDbLine
 10
1921.694506060742
 20
1359.541201010557
 30
0.0
 11
1921.734999145242
 21
1359.723731910557
 31
0.0
  0
LINE
  5
E3C
330
1F
100
AcDbEntity
  8
0
 62
     9
100
AcDbLine
 10
1922.672320716744
 20
1363.948901495057
 30
0.0
 11
1936.163566208742
 21
1424.763462724056
 31
0.0
  0
LWPOLYLINE
  5
E3D
330
1F
100
AcDbEntity
  8
0
 62
     9
100
AcDbPolyline
 90
        3
 70
     0
 43
0.0
 10
2514.582045463244
 20
1996.632110965556
 10
2515.420622116744
 20
1998.072322472556
 10
2515.472766568745
 20
1998.100770011056
  0
LWPOLYLINE
  5
E3E
330
1F
100
AcDbEntity
  8
0
100
AcDbPolyline
 90
        4
 70
     0
 43
0.0
 10
2526.359531376743
 20
1912.416042471056
 10
2531.546409170743
 20
1918.045000971556
 10
2538.050863996242
 20
1922.079944075057
 10
2545.398076196244
 20
1924.226328077057
  0
LINE
  5
E3F
330
1F
100
AcDbEntity
  8
0
100
AcDbLine
 10
2525.766274967743
 20
1914.214828388057
 30
0.0
 11
2531.374215677241
 21
1919.874078398557
 31
0.0
  0
LINE
  5
E40
330
1F
100
AcDbEntity
  8
0
100
AcDbLine
 10
2528.290305282745
 20
1917.139266112556
 30
0.0
 11
2534.581918441242
 21
1922.027157564056
 31
0.0
  0
LINE
  5
E41
330
1F
100
AcDbEntity
  8
0
100
AcDbLine
 10
2531.374215677241
 20
1919.874078398557
 30
0.0
 11
2538.278765974744
 21
1923.849391186556
 31
0.0
  0
LINE
  5
E42
330
1F
100
AcDbEntity
  8
0
100
AcDbLine
 10
2534.581918441242
 20
1922.027157564056
 30
0.0
 11
2541.941889025241
 21
1925.077813993056
 31
0.0
  0
LINE
  5
E43
330
1F
100
AcDbEntity
  8
0
 62
     9
100
AcDbLine
 10
2524.946790547743
 20
1423.310186970556
 30
0.0
 11
2529.582045463244
 21
1424.012260264056
 31
0.0
  0
LWPOLYLINE
  5
E44
330
1F
100
AcDbEntity
  8
0
 62
     9
100
AcDbPolyline
 90
        5
 70
     0
 43
0.0
 10
2549.582045463244
 20
1424.012260264056
 10
2558.555480782244
 20
1425.109064188056
 10
2566.982683891743
 20
1428.354575947057
 10
2574.283520843243
 20
1433.579390135056
 10
2579.867151020741
 20
1440.377178537556
  0
LINE
  5
E45
330
1F
100
AcDbEntity
  8
0
 62
     9
100
AcDbLine
 10
2512.041501767744
 20
1355.530277825056
 30
0.0
 11
2513.870265574743
 21
1352.669661425557
 31
0.0
  0
LWPOLYLINE
  5
E46
330
1F
100
AcDbEntity
  8
0
 62
     9
100
AcDbPolyline
 90
        3
 70
     0
 43
0.0
 10
2514.582045463244
 20
1357.022890758057
 10
2515.433897367743
 20
1355.570961619556
 10
2515.607605935743
 20
1355.476857840057
  0
LINE
  5
E47
330
1F
100
AcDbEntity
  8
0
 62
     9
100
AcDbLine
 10
1921.694506060742
 20
1994.113795114057
 30
0.0
 11
1921.734999145242
 21
1993.931264213557
 31
0.0
  0
LINE
  5
E48
330
1F
100
AcDbEntity
  8
0
 62
     9
100
AcDbLine
 10
1936.163566208742
 20
1928.891533400557
 30
0.0
 11
1922.672320716744
 21
1989.706094629557
 31
0.0
  0
LINE
  5
E49
330
1F
100
AcDbEntity
  8
0
 62
     9
100
AcDbLine
 10
2508.919994168743
 20
2001.253393742057
 30
0.0
 11
2509.582045463244
 21
2003.116393522557
 31
0.0
  0
LINE
  5
E4A
330
1F
100
AcDbEntity
  8
0
 62
     9
100
AcDbLine
 10
2515.429347101242
 20
1998.065429003057
 30
0.0
 11
2517.937832271745
 21
2004.115352504056
 31
0.0
  0
LINE
  5
E4B
330
1F
100
AcDbEntity
  8
0
 62
     9
100
AcDbLine
 10
1923.151874882241
 20
1360.964190777057
 30
0.0
 11
1924.414079780242
 21
1363.590667414557
 31
0.0
  0
LINE
  5
E4C
330
1F
100
AcDbEntity
  8
0
100
AcDbLine
 10
2522.868868122244
 20
1905.603973863056
 30
0.0
 11
2526.359531376743
 21
1912.416042471056
 31
0.0
  0
LINE
  5
E4D
330
1F
100
AcDbEntity
  8
0
100
AcDbLine
 10
2521.853997955746
 20
1907.274342828556
 30
0.0
 11
2525.766274967743
 21
1914.214828388057
 31
0.0
  0
LINE
  5
E4E
330
1F
100
AcDbEntity
  8
0
100
AcDbLine
 10
2523.514752255243
 20
1910.761951327557
 30
0.0
 11
2528.290305282745
 21
1917.139266112556
 31
0.0
  0
LINE
  5
E4F
330
1F
100
AcDbEntity
  8
0
100
AcDbLine
 10
2572.294327435243
 20
1876.796231251056
 30
0.0
 11
2566.354902297745
 21
1871.486045219556
 31
0.0
  0
LINE
  5
E50
330
1F
100
AcDbEntity
  8
0
100
AcDbLine
 10
2569.406196182742
 20
1873.857891961056
 30
0.0
 11
2562.792353190241
 21
1869.415811369056
 31
0.0
  0
LINE
  5
E51
330
1F
100
AcDbEntity
  8
0
 62
     9
100
AcDbLine
 10
2563.150088215741
 20
1864.871408651556
 30
0.0
 11
2569.303007165242
 21
1868.819283426056
 31
0.0
  0
LINE
  5
E52
330
1F
100
AcDbEntity
  8
0
100
AcDbLine
 10
2566.354902297745
 20
1871.486045219556
 30
0.0
 11
2559.222916592243
 21
1867.935012253057
 31
0.0
  0
LINE
  5
E53
330
1F
100
AcDbEntity
  8
0
 62
     9
100
AcDbLine
 10
2556.826789485741
 20
1862.613478867556
 30
0.0
 11
2563.150088215741
 21
1864.871408651556
 31
0.0
  0
LINE
  5
E54
330
1F
100
AcDbEntity
  8
0
100
AcDbLine
 10
2562.792353190241
 20
1869.415811369056
 30
0.0
 11
2555.239447260744
 21
1866.880295291056
 31
0.0
  0
LINE
  5
E55
330
1F
100
AcDbEntity
  8
0
100
AcDbLine
 10
2529.582045463244
 20
1491.827498062056
 30
0.0
 11
2549.582045463244
 21
1491.827498062056
 31
0.0
  0
LINE
  5
E56
330
1F
100
AcDbEntity
  8
0
 62
     9
100
AcDbLine
 10
2514.582045463244
 20
1506.827498062056
 30
0.0
 11
2549.582045463244
 21
1506.827498062056
 31
0.0
  0
LINE
  5
E57
330
1F
100
AcDbEntity
  8
0
 62
     9
100
AcDbLine
 10
1923.151874815742
 20
1992.690813496057
 30
0.0
 11
1924.414143193745
 21
1990.064208887557
 31
0.0
  0
LINE
  5
E58
330
1F
100
AcDbEntity
  8
0
 62
     9
100
AcDbLine
 10
2510.460470202243
 20
1359.376497357057
 30
0.0
 11
2512.041501767744
 21
1355.530277825056
 31
0.0
  0
LINE
  5
E59
330
1F
100
AcDbEntity
  8
0
 62
     9
100
AcDbLine
 10
2508.919994784744
 20
1352.401606805056
 30
0.0
 11
2509.582045463244
 21
1350.538609765056
 31
0.0
  0
LINE
  5
E5A
330
1F
100
AcDbEntity
  8
0
 62
     9
100
AcDbLine
 10
2509.582045463244
 20
1362.596387002556
 30
0.0
 11
2510.460470202243
 21
1359.376497357057
 31
0.0
  0
LWPOLYLINE
  5
E5B
330
1F
100
AcDbEntity
  8
0
100
AcDbPolyline
 90
       11
 70
     0
 43
0.0
 10
2514.582045467242
 20
1362.034242682056
 10
2515.060629278242
 20
1357.166391136056
 10
2516.860074314244
 20
1351.608160703056
 10
2520.090767767243
 20
1346.379308452056
 10
2523.622980116742
 20
1342.791263261056
 10
2527.200198216243
 20
1340.316231757556
 10
2530.427428395741
 20
1338.771095424557
 10
2533.167433733742
 20
1337.871601941556
 10
2535.440666430244
 20
1337.380051003557
 10
2538.563564818745
 20
1337.055395121057
 10
2539.782762908245
 20
1337.035444516056
  0
LINE
  5
E5C
330
1F
100
AcDbEntity
  8
0
 62
     9
100
AcDbLine
 10
2484.035045815744
 20
1332.201603305556
 30
0.0
 11
2484.035085679242
 21
1332.107000388057
 31
0.0
  0
LINE
  5
E5D
330
1F
100
AcDbEntity
  8
0
 62
     9
100
AcDbLine
 10
2484.019589125244
 20
1374.188656853556
 30
0.0
 11
2484.033331896745
 21
1337.243143099557
 31
0.0
  0
LINE
  5
E5E
330
1F
100
AcDbEntity
  8
0
 62
     9
100
AcDbLine
 10
2484.030569740243
 20
2008.446347520056
 30
0.0
 11
2484.019589172741
 21
1979.466339272057
 31
0.0
  0
LINE
  5
E5F
330
1F
100
AcDbEntity
  8
0
 62
     9
100
AcDbLine
 10
2484.033330901241
 20
2016.411853806557
 30
0.0
 11
2484.030569740243
 21
2008.446347520056
 31
0.0
  0
LINE
  5
E60
330
1F
100
AcDbEntity
  8
0
 62
     9
100
AcDbLine
 10
2484.035085252744
 20
2021.547995727056
 30
0.0
 11
2484.035045143245
 21
2021.453392793057
 31
0.0
  0
LINE
  5
E61
330
1F
100
AcDbEntity
  8
0
 62
     9
100
AcDbLine
 10
2514.582045463244
 20
1991.620321601056
 30
0.0
 11
2515.429347101242
 21
1998.065429003057
 31
0.0
  0
LWPOLYLINE
  5
E62
330
1F
100
AcDbEntity
  8
0
 62
     9
100
AcDbPolyline
 90
        7
 70
     0
 43
0.0
 10
2514.582045699742
 20
1996.635540919056
 10
2515.442692979246
 20
2003.135158084056
 10
2517.965379181245
 20
2009.190467340556
 10
2521.976412785741
 20
2014.381109795557
 10
2527.199626740242
 20
2018.349700107556
 10
2533.275393476243
 20
2020.822993763556
 10
2539.785385486742
 20
2021.630700064557
  0
LWPOLYLINE
  5
E63
330
1F
100
AcDbEntity
  8
0
 62
     9
100
AcDbPolyline
 90
        7
 70
     0
 43
0.0
 10
2514.582045463244
 20
1954.916520263557
 10
2515.446594096243
 20
1961.365727020557
 10
2517.981670798744
 20
1967.371007441056
 10
2522.006777880742
 20
1972.509376342556
 10
2527.251850000244
 20
1976.435442696556
 10
2533.329867579741
 20
1978.867920968557
 10
2539.786005348745
 20
1979.652736535557
  0
LWPOLYLINE
  5
E64
330
1F
100
AcDbEntity
  8
0
100
AcDbPolyline
 90
        7
 70
     0
 43
0.0
 10
2514.582045463244
 20
1991.620321602556
 10
2515.509122713243
 20
1998.365279427556
 10
2518.065873250743
 20
2004.350387609557
 10
2522.093996420244
 20
2009.485614036056
 10
2527.330740801742
 20
2013.412669772556
 10
2533.892662901241
 20
2015.964361867057
 10
2539.782814659745
 20
2016.619542331057
  0
LWPOLYLINE
  5
E65
330
1F
100
AcDbEntity
  8
0
 62
     9
100
AcDbPolyline
 90
        3
 70
     0
 43
0.0
 10
2509.335509501742
 20
1998.303943071556
 10
2509.784800195244
 20
2001.225248503057
 10
2510.453913524743
 20
2003.108231969557
  0
LWPOLYLINE
  5
E66
330
1F
100
AcDbEntity
  8
0
100
AcDbPolyline
 90
        6
 70
     0
 43
0.0
 10
2521.459191390742
 20
1899.512626992056
 10
2523.370975624245
 20
1906.924377417556
 10
2527.197139360243
 20
1913.553806878556
 10
2532.658376351744
 20
1918.916977964057
 10
2539.356021686744
 20
1922.622388778057
 10
2546.801153893243
 20
1924.399552174557
  0
LINE
  5
E67
330
1F
100
AcDbEntity
  8
0
 62
     9
100
AcDbLine
 10
2574.579000310244
 20
1874.222029900557
 30
0.0
 11
2578.640871236242
 21
1880.854701255556
 31
0.0
  0
LINE
  5
E68
330
1F
100
AcDbEntity
  8
0
100
AcDbLine
 10
2576.618550955743
 20
1883.487700984056
 30
0.0
 11
2572.294327435243
 21
1876.796231251056
 31
0.0
  0
LINE
  5
E69
330
1F
100
AcDbEntity
  8
0
100
AcDbLine
 10
2574.610344447744
 20
1879.890440299056
 30
0.0
 11
2569.406196182742
 21
1873.857891961056
 31
0.0
  0
LINE
  5
E6A
330
1F
100
AcDbEntity
  8
0
 62
     9
100
AcDbLine
 10
2569.303007165242
 20
1868.819283426056
 30
0.0
 11
2574.579000310244
 21
1874.222029900557
 31
0.0
  0
LINE
  5
E6B
330
1F
100
AcDbEntity
  8
0
100
AcDbLine
 10
2510.158822658246
 20
1770.057510990057
 30
0.0
 11
2509.582045463244
 21
1769.811271717556
 31
0.0
  0
LWPOLYLINE
  5
E6C
330
1F
100
AcDbEntity
  8
0
 62
     9
100
AcDbPolyline
 90
       23
 70
     0
 43
0.0
 10
1701.166585292244
 20
1606.497022620057
 10
1701.840528740743
 20
1606.752497396557
 10
1702.431047379242
 20
1607.556378441557
 10
1702.929609020243
 20
1609.049620839057
 10
1703.311359594742
 20
1611.451613598057
 10
1703.538712365243
 20
1615.062539901057
 10
1703.571042131242
 20
1620.253838079557
 10
1703.383953522744
 20
1627.449979801057
 10
1703.001508265744
 20
1636.981740374556
 10
1702.534330751244
 20
1648.723660130057
 10
1702.149159934243
 20
1662.223985987056
 10
1701.998370224744
 20
1676.752517616057
 10
1702.145636909742
 20
1691.257412119557
 10
1702.526688502242
 20
1704.717510522057
 10
1702.992559139743
 20
1716.460821490058
 10
1703.377399399242
 20
1726.020889557057
 10
1703.569272753243
 20
1733.262734968056
 10
1703.541842066242
 20
1738.490527508557
 10
1703.318725739743
 20
1742.132853634057
 10
1702.939739572243
 20
1744.561698808557
 10
1702.441634130743
 20
1746.076806849058
 10
1701.848346942242
 20
1746.896111248057
 10
1701.166585292244
 20
1747.157973504057
  0
LWPOLYLINE
  5
E6D
330
1F
100
AcDbEntity
  8
0
 62
     9
100
AcDbPolyline
 90
        3
 70
     0
 43
0.0
 10
2509.582045463244
 20
1547.579025130556
 10
2509.803396339742
 20
1547.580085754056
 10
2514.582045463244
 20
1547.559158841556
  0
LINE
  5
E6E
330
1F
100
AcDbEntity
  8
0
 62
     9
100
AcDbLine
 10
2509.582045463244
 20
1562.335809624556
 30
0.0
 11
2514.582045463244
 21
1562.335745806556
 31
0.0
  0
LINE
  5
E6F
330
1F
100
AcDbEntity
  8
0
 62
     9
100
AcDbLine
 10
2509.582045463244
 20
1566.713120970557
 30
0.0
 11
2514.582045463244
 21
1566.713120970557
 31
0.0
  0
LINE
  5
E70
330
1F
100
AcDbEntity
  8
0
100
AcDbLine
 10
2509.582045463244
 20
1566.770200499056
 30
0.0
 11
2514.582045463244
 21
1566.770200499056
 31
0.0
  0
LWPOLYLINE
  5
E71
330
1F
100
AcDbEntity
  8
0
100
AcDbPolyline
 90
        6
 70
     0
 43
0.0
 10
1681.854102011241
 20
1621.827538959057
 10
1685.668458648741
 20
1621.438293005558
 10
1690.134029569744
 20
1619.902206758057
 10
1693.262199368741
 20
1617.912465896557
 10
1695.095217849742
 20
1616.173359494557
 10
1695.736396569743
 20
1615.365569633557
  0
LINE
  5
E72
330
1F
100
AcDbEntity
  8
0
100
AcDbLine
 10
2509.582045463244
 20
1583.841781273056
 30
0.0
 11
2510.172214365742
 21
1583.568512489056
 31
0.0
  0
LWPOLYLINE
  5
E73
330
1F
100
AcDbEntity
  8
0
 62
     9
100
AcDbPolyline
 90
        3
 70
     0
 43
0.0
 10
2513.885283985742
 20
1352.597540410556
 10
2514.229313568743
 20
1351.293467381557
 10
2514.582045463244
 20
1350.585429873557
  0
LWPOLYLINE
  5
E74
330
1F
100
AcDbEntity
  8
0
 62
     9
100
AcDbPolyline
 90
        7
 70
     0
 43
0.0
 10
2514.582045463244
 20
1398.738475894056
 10
2515.446593665743
 20
1392.289288819056
 10
2517.981668983243
 20
1386.284021283557
 10
2522.006774562745
 20
1381.145656397556
 10
2527.251844887242
 20
1377.219585701557
 10
2533.329862041744
 20
1374.787094577557
 10
2539.786005348745
 20
1374.002259589057
  0
LWPOLYLINE
  5
E75
330
1F
100
AcDbEntity
  8
0
 62
     9
100
AcDbPolyline
 90
        7
 70
     0
 43
0.0
 10
2514.582045467242
 20
1362.034242682056
 10
2515.442696249745
 20
1355.539853849556
 10
2517.965392723744
 20
1349.492197657556
 10
2521.976443501243
 20
1344.308100434056
 10
2527.199679382742
 20
1340.344500322056
 10
2533.275469226245
 20
1337.874299320557
 10
2539.785482460243
 20
1337.067576456056
  0
LWPOLYLINE
  5
E76
330
1F
100
AcDbEntity
  8
0
 62
     9
100
AcDbPolyline
 90
        7
 70
     0
 43
0.0
 10
2514.582045463244
 20
1357.022894409056
 10
2515.429346972243
 20
1350.569576952056
 10
2517.937824973741
 20
1344.512082384056
 10
2521.948641824244
 20
1339.301469822057
 10
2527.173381840744
 20
1335.320281091556
 10
2533.261803523244
 20
1332.835550885556
 10
2539.785385585742
 20
1332.024296060056
  0
LWPOLYLINE
  5
E77
330
1F
100
AcDbEntity
  8
0
 62
     9
100
AcDbPolyline
 90
        3
 70
     0
 43
0.0
 10
2484.177997163744
 20
2017.884135727557
 10
2484.089031765244
 20
2020.522247354057
 10
2484.035038774243
 20
2021.453392599056
  0
LWPOLYLINE
  5
E78
330
1F
100
AcDbEntity
  8
0
100
AcDbPolyline
 90
        7
 70
     0
 43
0.0
 10
2520.130746914244
 20
1891.324250608056
 10
2519.888296986744
 20
1899.287764863556
 10
2521.759792639244
 20
1907.032039995557
 10
2525.612060031744
 20
1914.006007565556
 10
2531.170976280743
 20
1919.713413351556
 10
2538.040975725241
 20
1923.748130108556
 10
2545.733197890745
 20
1925.823056998056
  0
LINE
  5
E79
330
1F
100
AcDbEntity
  8
0
 62
     9
100
AcDbLine
 10
2484.21875596974
 20
2016.443370851057
 30
0.0
 11
2484.177997163744
 21
2017.884135727557
 31
0.0
  0
LINE
  5
E7A
330
1F
100
AcDbEntity
  8
0
 62
     9
100
AcDbLine
 10
2484.582045463244
 20
1954.735677329056
 30
0.0
 11
2484.020272867244
 21
1979.466354803056
 31
0.0
  0
LWPOLYLINE
  5
E7B
330
1F
100
AcDbEntity
  8
0
100
AcDbPolyline
 90
        3
 70
     0
 43
0.0
 10
2520.08953417724
 20
1891.581183117057
 10
2519.915777293244
 20
1899.546494343556
 10
2521.853997955746
 20
1907.274342828556
  0
LINE
  5
E7C
330
1F
100
AcDbEntity
  8
0
100
AcDbLine
 10
2509.610620632243
 20
1610.350392364557
 30
0.0
 11
2509.616209556242
 21
1586.819578362557
 31
0.0
  0
LINE
  5
E7D
330
1F
100
AcDbEntity
  8
0
100
AcDbLine
 10
2509.586034407242
 20
1743.292076353556
 30
0.0
 11
2509.581980775743
 21
1758.119974262056
 31
0.0
  0
LINE
  5
E7E
330
1F
100
AcDbEntity
  8
0
 62
     9
100
AcDbLine
 10
2484.582045463244
 20
1398.919318795057
 30
0.0
 11
2484.582045463244
 21
1954.735677329557
 31
0.0
  0
LINE
  5
E7F
330
1F
100
AcDbEntity
  8
0
 62
     9
100
AcDbLine
 10
2509.582045463244
 20
1326.827498062056
 30
0.0
 11
2509.582045463244
 21
1350.538602601557
 31
0.0
  0
LINE
  5
E80
330
1F
100
AcDbEntity
  8
0
 62
     9
100
AcDbLine
 10
2509.582045463244
 20
2003.116393522557
 30
0.0
 11
2509.582045463244
 21
2026.827498062056
 31
0.0
  0
LINE
  5
E81
330
1F
100
AcDbEntity
  8
0
100
AcDbLine
 10
2509.613943712742
 20
1610.348699157056
 30
0.0
 11
2509.616587206244
 21
1591.124496992056
 31
0.0
  0
LINE
  5
E82
330
1F
100
AcDbEntity
  8
0
 62
     2
100
AcDbLine
 10
2512.082045463244
 20
1687.339998062057
 30
0.0
 11
2512.082045463244
 21
1666.314998062057
 31
0.0
  0
LINE
  5
E83
330
1F
100
AcDbEntity
  8
DEFAULT_1
 62
     2
100
AcDbLine
 10
2512.082045463244
 20
1624.264998062056
 30
0.0
 11
2512.082045463244
 21
1601.827498062056
 31
0.0
  0
LINE
  5
E84
330
1F
100
AcDbEntity
  8
DEFAULT_1
 62
     2
100
AcDbLine
 10
2512.082045463244
 20
1729.389998062056
 30
0.0
 11
2512.082045463244
 21
1751.827498062056
 31
0.0
  0
LINE
  5
E85
330
1F
100
AcDbEntity
  8
0
 62
     9
100
AcDbLine
 10
2514.582045463244
 20
1326.827498062056
 30
0.0
 11
2514.582045463244
 21
1350.585429873557
 31
0.0
  0
LINE
  5
E86
330
1F
100
AcDbEntity
  8
0
 62
     9
100
AcDbLine
 10
2514.582045463244
 20
2003.082257001556
 30
0.0
 11
2514.582045463244
 21
2026.827498062056
 31
0.0
  0
LINE
  5
E87
330
1F
100
AcDbEntity
  8
0
100
AcDbLine
 10
2517.082045553244
 20
1896.385912978557
 30
0.0
 11
2517.084946888742
 21
1854.934112209056
 31
0.0
  0
LINE
  5
E88
330
1F
100
AcDbEntity
  8
0
 62
     9
100
AcDbLine
 10
2529.582045463244
 20
1421.827498062056
 30
0.0
 11
2529.582045463244
 21
1491.827498062056
 31
0.0
  0
LINE
  5
E89
330
1F
100
AcDbEntity
  8
0
 62
     9
100
AcDbLine
 10
2529.582045463244
 20
1921.976692944056
 30
0.0
 11
2529.582045463244
 21
1931.827498062056
 31
0.0
  0
LINE
  5
E8A
330
1F
100
AcDbEntity
  8
0
100
AcDbLine
 10
2509.582045463244
 20
1996.460064139056
 30
0.0
 11
2509.582045203743
 21
1357.191428395056
 31
0.0
  0
LINE
  5
E8B
330
1F
100
AcDbEntity
  8
0
100
AcDbLine
 10
2514.582045699742
 20
1996.635540919056
 30
0.0
 11
2514.582045463244
 21
1357.022785571056
 31
0.0
  0
LINE
  5
E8C
330
1F
100
AcDbEntity
  8
0
100
AcDbLine
 10
2509.616318783242
 20
1586.787593382557
 30
0.0
 11
2509.616551714745
 21
1591.563454483556
 31
0.0
  0
LINE
  5
E8D
330
1F
100
AcDbEntity
  8
0
100
AcDbLine
 10
2509.616672063242
 20
1587.685911840056
 30
0.0
 11
2509.616317586245
 21
1586.789851615556
 31
0.0
  0
LINE
  5
E8E
330
1F
100
AcDbEntity
  8
0
 62
     9
100
AcDbLine
 10
2513.853411290743
 20
1984.675593296556
 30
0.0
 11
2513.968860102242
 21
1991.557743795557
 31
0.0
  0
LWPOLYLINE
  5
E8F
330
1F
100
AcDbEntity
  8
0
 62
     9
100
AcDbPolyline
 90
        3
 70
     0
 43
0.0
 10
2539.785385486742
 20
2021.630700064557
 10
2539.758355985744
 20
2020.189714572057
 10
2539.717196789744
 20
2016.612243445056
  0
LINE
  5
E90
330
1F
100
AcDbEntity
  8
0
 62
     9
100
AcDbLine
 10
2484.582045463244
 20
1398.919318795057
 30
0.0
 11
2484.020272867244
 21
1374.188641321557
 31
0.0
  0
LINE
  5
E91
330
1F
100
AcDbEntity
  8
0
 62
     9
100
AcDbLine
 10
2484.177998197744
 20
1335.770860397556
 30
0.0
 11
2484.219236168744
 21
1337.228563079057
 31
0.0
  0
LINE
  5
E92
330
1F
100
AcDbEntity
  8
0
 62
     9
100
AcDbLine
 10
2513.968860102242
 20
1991.557743795557
 30
0.0
 11
2514.139661869244
 21
1997.235425828057
 31
0.0
  0
LWPOLYLINE
  5
E93
330
1F
100
AcDbEntity
  8
0
100
AcDbPolyline
 90
        7
 70
     0
 43
0.0
 10
2521.346517835743
 20
1894.069435080557
 10
2521.659229919241
 20
1900.910985300556
 10
2523.938415452743
 20
1908.218127674557
 10
2528.090566936742
 20
1914.648410489556
 10
2533.812580705241
 20
1919.732433582057
 10
2540.686754768743
 20
1923.099072550557
 10
2548.211280684743
 20
1924.502570429557
  0
LWPOLYLINE
  5
E94
330
1F
100
AcDbEntity
  8
0
 62
     9
100
AcDbPolyline
 90
        3
 70
     0
 43
0.0
 10
2514.139661869244
 20
1997.235425828057
 10
2514.350398123242
 20
2001.196108603056
 10
2514.582045463244
 20
2003.082256797557
  0
LWPOLYLINE
  5
E95
330
1F
100
AcDbEntity
  8
0
 62
     9
100
AcDbPolyline
 90
        3
 70
     0
 43
0.0
 10
2484.035038886242
 20
1332.201603523556
 10
2484.089032484741
 20
1333.132748764557
 10
2484.177998197744
 20
1335.770860397556
  0
LWPOLYLINE
  5
E96
330
1F
100
AcDbEntity
  8
0
100
AcDbPolyline
 90
        3
 70
     0
 43
0.0
 10
2519.739052432741
 20
1895.427933238056
 10
2520.595081316743
 20
1903.349010155057
 10
2523.514752255243
 20
1910.761951327557
  0
LWPOLYLINE
  5
E97
330
1F
100
AcDbEntity
  8
0
 62
     9
100
AcDbPolyline
 90
        3
 70
     0
 43
0.0
 10
2578.640871236242
 20
1880.854701255556
 10
2581.213636272743
 20
1888.423499755057
 10
2581.462450566242
 20
1890.706062599057
  0
LINE
  5
E98
330
1F
100
AcDbEntity
  8
0
100
AcDbLine
 10
2578.034478281242
 20
1887.084184156557
 30
0.0
 11
2574.610344447744
 21
1879.890440299056
 31
0.0
  0
LINE
  5
E99
330
1F
100
AcDbEntity
  8
0
 62
     9
100
AcDbLine
 10
3584.333942708242
 20
1775.856862738557
 30
0.0
 11
3583.301582006242
 21
1775.579302686056
 31
0.0
  0
LINE
  5
E9A
330
1F
100
AcDbEntity
  8
0
100
AcDbLine
 10
1564.582045463244
 20
1621.827498062057
 30
0.0
 11
1681.851531938743
 21
1621.827498062057
 31
0.0
  0
LINE
  5
E9B
330
1F
100
AcDbEntity
  8
0
100
AcDbLine
 10
3588.579675468245
 20
1621.827498062056
 30
0.0
 11
3709.082045463244
 21
1621.827498062056
 31
0.0
  0
LINE
  5
E9C
330
1F
100
AcDbEntity
  8
0
 62
     9
100
AcDbLine
 10
2509.615206073241
 20
1588.515302743556
 30
0.0
 11
2509.582045463244
 21
1588.641735445556
 31
0.0
  0
LWPOLYLINE
  5
E9D
330
1F
100
AcDbEntity
  8
0
100
AcDbPolyline
 90
       11
 70
     0
 43
0.0
 10
2509.582045459243
 20
1991.450421823557
 10
2509.094725676742
 20
1996.362054670556
 10
2507.250252950245
 20
2001.992859247556
 10
2503.960480169243
 20
2007.244794638057
 10
2500.388605131745
 20
2010.818835179057
 10
2496.786006123242
 20
2013.268852778057
 10
2493.547314570241
 20
2014.787156486057
 10
2490.804675525745
 20
2015.663173241556
 10
2488.53267564524
 20
2016.135853911057
 10
2485.332351495242
 20
2016.438715254556
 10
2484.040702009744
 20
2016.444115239056
  0
LWPOLYLINE
  5
E9E
330
1F
100
AcDbEntity
  8
0
 62
     9
100
AcDbPolyline
 90
        3
 70
     0
 43
0.0
 10
2539.717268582742
 20
1337.036516246057
 10
2539.758356041245
 20
1333.465281541056
 10
2539.785385585742
 20
1332.024296060056
  0
LINE
  5
E9F
330
1F
100
AcDbEntity
  8
0
 62
     9
100
AcDbLine
 10
2539.582045463244
 20
1398.738475894056
 30
0.0
 11
2539.786005348745
 21
1374.002259588557
 31
0.0
  0
LINE
  5
EA0
330
1F
100
AcDbEntity
  8
0
100
AcDbLine
 10
2549.589580695741
 20
1926.072592789056
 30
0.0
 11
2549.589952704241
 21
1924.535123452056
 31
0.0
  0
LINE
  5
EA1
330
1F
100
AcDbEntity
  8
0
 62
     9
100
AcDbLine
 10
2539.582045463244
 20
1954.916153921056
 30
0.0
 11
2539.582045463244
 21
1931.827498062056
 31
0.0
  0
LINE
  5
EA2
330
1F
100
AcDbEntity
  8
0
 62
     9
100
AcDbLine
 10
2539.582045463244
 20
1491.827498062056
 30
0.0
 11
2539.582045463244
 21
1861.827498062056
 31
0.0
  0
LINE
  5
EA3
330
1F
100
AcDbEntity
  8
0
 62
     9
100
AcDbLine
 10
2539.582045463244
 20
1398.738630166556
 30
0.0
 11
2539.582045463244
 21
1421.827498062056
 31
0.0
  0
LINE
  5
EA4
330
1F
100
AcDbEntity
  8
0
 62
     9
100
AcDbLine
 10
2539.786101307741
 20
1979.652735745057
 30
0.0
 11
2539.785442515243
 21
2016.587414732057
 31
0.0
  0
LINE
  5
EA5
330
1F
100
AcDbEntity
  8
0
 62
     9
100
AcDbLine
 10
2539.785442286745
 20
1337.067581386556
 30
0.0
 11
2539.786101318743
 21
1374.002260379556
 31
0.0
  0
LINE
  5
EA6
330
1F
100
AcDbEntity
  8
0
 62
     9
100
AcDbLine
 10
2539.785370384743
 20
1331.929988754056
 30
0.0
 11
2539.785373860744
 21
1332.024295680557
 31
0.0
  0
LINE
  5
EA7
330
1F
100
AcDbEntity
  8
0
 62
     9
100
AcDbLine
 10
2539.785374012742
 20
2021.630700440556
 30
0.0
 11
2539.785370444245
 21
2021.725007370057
 31
0.0
  0
LINE
  5
EA8
330
1F
100
AcDbEntity
  8
0
 62
     9
100
AcDbLine
 10
2549.582045463244
 20
1406.827498062056
 30
0.0
 11
2549.582045463244
 21
1506.827498062056
 31
0.0
  0
LINE
  5
EA9
330
1F
100
AcDbEntity
  8
0
 62
     9
100
AcDbLine
 10
2549.582045463244
 20
1846.827498062056
 30
0.0
 11
2549.582045463244
 21
1861.827498062056
 31
0.0
  0
LINE
  5
EAA
330
1F
100
AcDbEntity
  8
0
 62
     9
100
AcDbLine
 10
2549.582045463244
 20
1928.886843206056
 30
0.0
 11
2549.582045463244
 21
1946.827498062056
 31
0.0
  0
LINE
  5
EAB
330
1F
100
AcDbEntity
  8
0
 62
     9
100
AcDbLine
 10
2539.582045463244
 20
1954.916520230556
 30
0.0
 11
2539.786005348745
 21
1979.652736536057
 31
0.0
  0
LINE
  5
EAC
330
1F
100
AcDbEntity
  8
0
 62
     9
100
AcDbLine
 10
2509.582045463244
 20
1362.205019496557
 30
0.0
 11
2508.720090650742
 21
1355.705393580057
 31
0.0
  0
LWPOLYLINE
  5
EAD
330
1F
100
AcDbEntity
  8
0
 62
     9
100
AcDbPolyline
 90
        7
 70
     0
 43
0.0
 10
2509.582045463244
 20
1398.919318754556
 10
2508.722693041745
 20
1392.488970303056
 10
2506.173568684745
 20
1386.450118223057
 10
2502.095393856244
 20
1381.266139766057
 10
2496.789698109241
 20
1377.331859624056
 10
2490.616440701243
 20
1374.913718149057
 10
2484.020272867244
 20
1374.188641322557
  0
LWPOLYLINE
  5
EAE
330
1F
100
AcDbEntity
  8
0
 62
     9
100
AcDbPolyline
 90
        7
 70
     0
 43
0.0
 10
2509.582045203743
 20
1357.191428395056
 10
2508.706432878745
 20
1350.636681087056
 10
2506.140930692243
 20
1344.537738092556
 10
2502.065249722742
 20
1339.325426855056
 10
2496.764887438243
 20
1335.364864664557
 10
2490.611128929245
 20
1332.933484988556
 10
2484.035038886242
 20
1332.201603523556
  0
LWPOLYLINE
  5
EAF
330
1F
100
AcDbEntity
  8
0
100
AcDbPolyline
 90
        7
 70
     0
 43
0.0
 10
2509.582045463244
 20
1362.205019495056
 10
2508.641253977242
 20
1355.411310175056
 10
2506.048589648242
 20
1349.391453124056
 10
2501.970182261742
 20
1344.242483375557
 10
2496.657644294245
 20
1340.314840838056
 10
2490.008873915743
 20
1337.801135660056
 10
2484.040565172741
 20
1337.210893215057
  0
LWPOLYLINE
  5
EB0
330
1F
100
AcDbEntity
  8
0
 62
     9
100
AcDbPolyline
 90
        5
 70
     0
 43
0.0
 10
2514.582045463244
 20
1409.667688924556
 10
2515.316197719242
 20
1414.100405245556
 10
2517.446790547742
 20
1418.099216408556
 10
2520.765266679241
 20
1421.272690915056
 10
2524.946790547743
 20
1423.310186970556
  0
LWPOLYLINE
  5
EB1
330
1F
100
AcDbEntity
  8
0
100
AcDbPolyline
 90
        6
 70
     0
 43
0.0
 10
2579.445084379243
 20
1895.182058502057
 10
2578.112328500242
 20
1887.327221898056
 10
2574.750372053742
 20
1880.104201422057
 10
2569.598448063741
 20
1874.026982327557
 10
2563.023161352244
 20
1869.528015818557
 10
2555.492401320741
 20
1866.927446406556
  0
LWPOLYLINE
  5
EB2
330
1F
100
AcDbEntity
  8
0
 62
     9
100
AcDbPolyline
 90
        5
 70
     0
 43
0.0
 10
2514.582045463244
 20
1943.987307200056
 10
2515.316197748743
 20
1939.554590791556
 10
2517.446790626745
 20
1935.555779612056
 10
2520.765266778245
 20
1932.382305140057
 10
2524.946790617243
 20
1930.344809132556
  0
LWPOLYLINE
  5
EB3
330
1F
100
AcDbEntity
  8
0
 62
     9
100
AcDbPolyline
 90
        7
 70
     0
 43
0.0
 10
2509.582045463244
 20
1954.735677329056
 10
2508.722691539245
 20
1961.166012380056
 10
2506.173565539243
 20
1967.204852209056
 10
2502.095390671245
 20
1972.388824205557
 10
2496.789695101244
 20
1976.323106981056
 10
2490.616439162745
 20
1978.741259193056
 10
2484.020272867244
 20
1979.466354802056
  0
LWPOLYLINE
  5
EB4
330
1F
100
AcDbEntity
  8
0
 62
     9
100
AcDbPolyline
 90
        7
 70
     0
 43
0.0
 10
2509.582045459243
 20
1991.450421823557
 10
2508.706357843242
 20
1998.000280291556
 10
2506.140641250243
 20
2004.091716890556
 10
2502.064636965743
 20
2009.297551605056
 10
2496.763889546243
 20
2013.253088852057
 10
2490.609742917746
 20
2015.681224147558
 10
2484.033325871743
 20
2016.411853722557
  0
LWPOLYLINE
  5
EB5
330
1F
100
AcDbEntity
  8
0
 62
     9
100
AcDbPolyline
 90
        7
 70
     0
 43
0.0
 10
2509.582045463244
 20
1996.459965022056
 10
2508.72015936674
 20
2002.967618166556
 10
2506.169239851744
 20
2009.068911455556
 10
2502.093742872242
 20
2014.301654136557
 10
2496.791772414744
 20
2018.275105433557
 10
2490.625016713245
 20
2020.718054375056
 10
2484.035038774243
 20
2021.453392599056
  0
LINE
  5
EB6
330
1F
100
AcDbEntity
  8
0
 62
     9
100
AcDbLine
 10
2583.382635497244
 20
1448.310504692556
 30
0.0
 11
2584.582045463244
 21
1456.827498062056
 31
0.0
  0
LINE
  5
EB7
330
1F
100
AcDbEntity
  8
0
 62
     9
100
AcDbLine
 10
2484.020234556744
 20
1337.211342016057
 30
0.0
 11
2484.033325694242
 21
1337.243142412556
 31
0.0
  0
LINE
  5
EB8
330
1F
100
AcDbEntity
  8
0
 62
     9
100
AcDbLine
 10
1921.734996306742
 20
1359.723719115557
 30
0.0
 11
1923.151874882241
 21
1360.964190777057
 31
0.0
  0
LINE
  5
EB9
330
1F
100
AcDbEntity
  8
0
100
AcDbLine
 10
1564.582045463244
 20
1731.827498062057
 30
0.0
 11
1681.851531938743
 21
1731.827498062057
 31
0.0
  0
LINE
  5
EBA
330
1F
100
AcDbEntity
  8
0
100
AcDbLine
 10
3588.577761855245
 20
1731.827498062056
 30
0.0
 11
3709.082045463244
 21
1731.827498062056
 31
0.0
  0
LINE
  5
EBB
330
1F
100
AcDbEntity
  8
0
 62
     9
100
AcDbLine
 10
3584.333836176745
 20
1577.796985599557
 30
0.0
 11
3583.301549090741
 21
1578.074579944557
 31
0.0
  0
LINE
  5
EBC
330
1F
100
AcDbEntity
  8
0
 62
     9
100
AcDbLine
 10
1921.734997721744
 20
1993.931270630057
 30
0.0
 11
1923.151874815742
 21
1992.690813496057
 31
0.0
  0
LINE
  5
EBD
330
1F
100
AcDbEntity
  8
0
 62
     9
100
AcDbLine
 10
2517.989937271744
 20
1888.248570938556
 30
0.0
 11
2520.670767334245
 21
1880.545646402056
 31
0.0
  0
LINE
  5
EBE
330
1F
100
AcDbEntity
  8
0
100
AcDbLine
 10
2577.519272061741
 20
1906.804644894057
 30
0.0
 11
2579.327402187744
 21
1899.045445590057
 31
0.0
  0
LINE
  5
EBF
330
1F
100
AcDbEntity
  8
0
100
AcDbLine
 10
2577.609464517241
 20
1906.565955140556
 30
0.0
 11
2579.350584499741
 21
1898.791430749056
 31
0.0
  0
LINE
  5
EC0
330
1F
100
AcDbEntity
  8
0
100
AcDbLine
 10
2576.064888591244
 20
1906.307072875056
 30
0.0
 11
2577.844892865745
 21
1898.346024874557
 31
0.0
  0
LINE
  5
EC1
330
1F
100
AcDbEntity
  8
0
 62
     9
100
AcDbLine
 10
2508.720090650742
 20
1355.705393580057
 30
0.0
 11
2506.168963369243
 21
1349.611526790056
 31
0.0
  0
LINE
  5
EC2
330
1F
100
AcDbEntity
  8
0
 62
     9
100
AcDbLine
 10
2579.867151020741
 20
1440.377178537556
 30
0.0
 11
2583.382635497244
 21
1448.310504692556
 31
0.0
  0
LWPOLYLINE
  5
EC3
330
1F
100
AcDbEntity
  8
0
 62
     9
100
AcDbPolyline
 90
        3
 70
     0
 43
0.0
 10
2509.582045463244
 20
1357.195023933057
 10
2508.743733498743
 20
1355.742733210557
 10
2508.682482129741
 20
1355.709029796556
  0
LINE
  5
EC4
330
1F
100
AcDbEntity
  8
0
 62
     9
100
AcDbLine
 10
3336.019644283743
 20
1999.325232652057
 30
0.0
 11
3335.482240531742
 21
1998.424513703557
 31
0.0
  0
LWPOLYLINE
  5
EC5
330
1F
100
AcDbEntity
  8
0
 62
     9
100
AcDbPolyline
 90
       23
 70
     0
 43
0.0
 10
1681.851531938743
 20
1621.827498062057
 10
1682.527622550743
 20
1622.019776633057
 10
1683.111768632242
 20
1622.640489648057
 10
1683.593718594743
 20
1623.799865255557
 10
1683.945977045244
 20
1625.669605892056
 10
1684.127994838744
 20
1628.484915633557
 10
1684.096944423242
 20
1632.537160449057
 10
1683.828719286742
 20
1638.160048580557
 10
1683.353629853241
 20
1645.615254976056
 10
1682.798043008743
 20
1654.806241315057
 10
1682.348244352243
 20
1665.379803146557
 10
1682.173331789744
 20
1676.763130336057
 10
1682.343905439741
 20
1688.128714850557
 10
1682.788674063743
 20
1698.672595276557
 10
1683.342451083742
 20
1707.866889997057
 10
1683.819977840244
 20
1715.346685768557
 10
1684.093458634742
 20
1721.007306291557
 10
1684.129877690243
 20
1725.089167886556
 10
1683.952543487244
 20
1727.929660014056
 10
1683.603445942742
 20
1729.820739067057
 10
1683.122271951742
 20
1730.997382640057
 10
1682.535570539744
 20
1731.630221236057
 10
1681.851531938743
 20
1731.827498062057
  0
LWPOLYLINE
  5
EC6
330
1F
100
AcDbEntity
  8
0
 62
     9
100
AcDbPolyline
 90
        4
 70
     0
 43
0.0
 10
2520.670767334245
 20
1880.545646402056
 10
2524.886313440241
 20
1873.842032022557
 10
2530.360390454243
 20
1868.421490889056
 10
2536.709672807242
 20
1864.541510022557
  0
LINE
  5
EC7
330
1F
100
AcDbEntity
  8
0
 62
     9
100
AcDbLine
 10
3336.019643324244
 20
1354.329771417556
 30
0.0
 11
3335.482240819742
 21
1355.230473819557
 31
0.0
  0
LWPOLYLINE
  5
EC8
330
1F
100
AcDbEntity
  8
0
 62
     9
100
AcDbPolyline
 90
        3
 70
     0
 43
0.0
 10
2509.582045463244
 20
1996.459966252057
 10
2508.730191695744
 20
1997.924272747056
 10
2508.550906483745
 20
1998.022225384056
  0
LINE
  5
EC9
330
1F
100
AcDbEntity
  8
0
100
AcDbLine
 10
2572.395530910245
 20
1913.024466522556
 30
0.0
 11
2576.064888591244
 21
1906.307072875056
 31
0.0
  0
LINE
  5
ECA
330
1F
100
AcDbEntity
  8
0
100
AcDbLine
 10
2573.724141073743
 20
1913.809754701057
 30
0.0
 11
2577.519272061741
 21
1906.804644894057
 31
0.0
  0
LINE
  5
ECB
330
1F
100
AcDbEntity
  8
0
100
AcDbLine
 10
2573.874905305743
 20
1913.603557780056
 30
0.0
 11
2577.609464517241
 21
1906.565955140556
 31
0.0
  0
LINE
  5
ECC
330
1F
100
AcDbEntity
  8
0
100
AcDbLine
 10
2573.206106549245
 20
1911.864802225556
 30
0.0
 11
2576.535775619744
 21
1904.972729674057
 31
0.0
  0
LINE
  5
ECD
330
1F
100
AcDbEntity
  8
0
 62
     9
100
AcDbLine
 10
2579.867151459242
 20
1913.277789437056
 30
0.0
 11
2583.382635729743
 21
1905.344484245556
 31
0.0
  0
LINE
  5
ECE
330
1F
100
AcDbEntity
  8
0
100
AcDbLine
 10
2573.957955427241
 20
1910.666029788556
 30
0.0
 11
2576.939614165242
 21
1903.616416158057
 31
0.0
  0
LINE
  5
ECF
330
1F
100
AcDbEntity
  8
0
100
AcDbLine
 10
2575.917330802243
 20
1910.322276565056
 30
0.0
 11
2578.712079506745
 21
1902.861450736057
 31
0.0
  0
LWPOLYLINE
  5
ED0
330
1F
100
AcDbEntity
  8
0
100
AcDbPolyline
 90
        3
 70
     0
 43
0.0
 10
2574.649059409242
 20
1909.431363513556
 10
2577.275318534244
 20
1902.241769063557
 10
2577.845189802741
 20
1898.342099334556
  0
LINE
  5
ED1
330
1F
100
AcDbEntity
  8
0
 62
     9
100
AcDbLine
 10
2506.168963369243
 20
1349.611526790056
 30
0.0
 11
2502.093142360743
 21
1344.385374500556
 31
0.0
  0
LWPOLYLINE
  5
ED2
330
1F
100
AcDbEntity
  8
0
 62
     9
100
AcDbPolyline
 90
        3
 70
     0
 43
0.0
 10
2514.582045463244
 20
1806.095827157056
 10
2509.800255485242
 20
1806.074910191057
 10
2509.582045463244
 20
1806.075956356056
  0
LINE
  5
ED3
330
1F
100
AcDbEntity
  8
0
100
AcDbLine
 10
2514.582045463244
 20
1786.884795625557
 30
0.0
 11
2509.582045463244
 21
1786.884795625557
 31
0.0
  0
LINE
  5
ED4
330
1F
100
AcDbEntity
  8
0
 62
     9
100
AcDbLine
 10
2514.582045463244
 20
1786.941875154056
 30
0.0
 11
2509.582045463244
 21
1786.941875154056
 31
0.0
  0
LINE
  5
ED5
330
1F
100
AcDbEntity
  8
0
 62
     9
100
AcDbLine
 10
2514.582045463244
 20
1791.319243742056
 30
0.0
 11
2509.582045463244
 21
1791.319196636556
 31
0.0
  0
LWPOLYLINE
  5
ED6
330
1F
100
AcDbEntity
  8
0
100
AcDbPolyline
 90
        5
 70
     0
 43
0.0
 10
2539.737836851243
 20
1868.013470071556
 10
2532.635106940244
 20
1871.622790041557
 10
2526.739278532244
 20
1876.981459712556
 10
2522.469890685242
 20
1883.708166603056
 10
2520.130746914244
 20
1891.324250608056
  0
LWPOLYLINE
  5
ED7
330
1F
100
AcDbEntity
  8
0
100
AcDbPolyline
 90
        5
 70
     0
 43
0.0
 10
2539.494842202744
 20
1868.102162059056
 10
2532.423507971743
 20
1871.772607098556
 10
2526.574116916744
 20
1877.181927297556
 10
2522.362904130244
 20
1883.945206673056
 10
2520.08953417724
 20
1891.581183117057
  0
LINE
  5
ED8
330
1F
100
AcDbEntity
  8
0
100
AcDbLine
 10
2567.061795833244
 20
1918.514361820056
 30
0.0
 11
2572.395530910245
 21
1913.024466522556
 31
0.0
  0
LINE
  5
ED9
330
1F
100
AcDbEntity
  8
0
100
AcDbLine
 10
2568.412654712243
 20
1919.403447204556
 30
0.0
 11
2573.874905305743
 21
1913.603557780056
 31
0.0
  0
LINE
  5
EDA
330
1F
100
AcDbEntity
  8
0
100
AcDbLine
 10
2568.152900874745
 20
1917.613940184056
 30
0.0
 11
2573.206106549245
 21
1911.864802225556
 31
0.0
  0
LINE
  5
EDB
330
1F
100
AcDbEntity
  8
0
 62
     9
100
AcDbLine
 10
2574.283519484743
 20
1920.075618141057
 30
0.0
 11
2579.867151459242
 21
1913.277789437056
 31
0.0
  0
LINE
  5
EDC
330
1F
100
AcDbEntity
  8
0
100
AcDbLine
 10
2569.197882774242
 20
1916.660123669556
 30
0.0
 11
2573.957955427241
 21
1910.666029788556
 31
0.0
  0
LINE
  5
EDD
330
1F
100
AcDbEntity
  8
0
100
AcDbLine
 10
2571.249566381244
 20
1916.778793698057
 30
0.0
 11
2575.917330802243
 21
1910.322276565056
 31
0.0
  0
LINE
  5
EDE
330
1F
100
AcDbEntity
  8
0
100
AcDbLine
 10
2570.193937771243
 20
1915.655470310557
 30
0.0
 11
2574.649059409242
 21
1909.431363513556
 31
0.0
  0
LINE
  5
EDF
330
1F
100
AcDbEntity
  8
0
 62
     9
100
AcDbLine
 10
2539.785482460243
 20
1337.067576456056
 30
0.0
 11
2539.756300384742
 21
1337.035246092057
 31
0.0
  0
LINE
  5
EE0
330
1F
100
AcDbEntity
  8
0
100
AcDbLine
 10
2559.222916592243
 20
1867.935012253057
 30
0.0
 11
2551.405872275245
 21
1866.395822810057
 31
0.0
  0
LINE
  5
EE1
330
1F
100
AcDbEntity
  8
0
100
AcDbLine
 10
2555.492401320741
 20
1866.927446406556
 30
0.0
 11
2547.542047468243
 21
1866.410330900056
 31
0.0
  0
LINE
  5
EE2
330
1F
100
AcDbEntity
  8
0
100
AcDbLine
 10
2555.239447260744
 20
1866.880295291056
 30
0.0
 11
2547.284932777241
 21
1866.431771973556
 31
0.0
  0
LINE
  5
EE3
330
1F
100
AcDbEntity
  8
0
 62
     9
100
AcDbLine
 10
2549.582045463244
 20
1846.827498062056
 30
0.0
 11
2514.582045463244
 21
1846.827498062056
 31
0.0
  0
LINE
  5
EE4
330
1F
100
AcDbEntity
  8
0
100
AcDbLine
 10
2549.582045463244
 20
1861.827498062056
 30
0.0
 11
2529.582045463244
 21
1861.827498062056
 31
0.0
  0
LINE
  5
EE5
330
1F
100
AcDbEntity
  8
0
100
AcDbLine
 10
2551.405872275245
 20
1866.395822810057
 30
0.0
 11
2543.460019079244
 21
1866.978007358556
 31
0.0
  0
LINE
  5
EE6
330
1F
100
AcDbEntity
  8
0
100
AcDbLine
 10
2547.542047468243
 20
1866.410330900056
 30
0.0
 11
2539.737836851243
 21
1868.013470071556
 31
0.0
  0
LINE
  5
EE7
330
1F
100
AcDbEntity
  8
0
100
AcDbLine
 10
2547.284932777241
 20
1866.431771973556
 30
0.0
 11
2539.494842202744
 21
1868.102162059056
 31
0.0
  0
LWPOLYLINE
  5
EE8
330
1F
100
AcDbEntity
  8
0
 62
     9
100
AcDbPolyline
 90
        3
 70
     0
 43
0.0
 10
2536.709672807242
 20
1864.541510022557
 10
2543.390660783741
 20
1862.340165451056
 10
2548.392761451243
 20
1861.827498062056
  0
LWPOLYLINE
  5
EE9
330
1F
100
AcDbEntity
  8
0
100
AcDbPolyline
 90
        5
 70
     0
 43
0.0
 10
2543.460019079244
 20
1866.978007358556
 10
2535.950772564741
 20
1869.640142357057
 10
2529.412479947743
 20
1874.192797907056
 10
2524.310396711243
 20
1880.312017320556
 10
2521.007579683744
 20
1887.562369427056
  0
LINE
  5
EEA
330
1F
100
AcDbEntity
  8
0
100
AcDbLine
 10
2560.453042548742
 20
1922.375997058556
 30
0.0
 11
2567.061795833244
 21
1918.514361820056
 31
0.0
  0
LINE
  5
EEB
330
1F
100
AcDbEntity
  8
0
100
AcDbLine
 10
2561.375277798244
 20
1923.652924310557
 30
0.0
 11
2568.212065679741
 21
1919.562296904057
 31
0.0
  0
LINE
  5
EEC
330
1F
100
AcDbEntity
  8
0
100
AcDbLine
 10
2561.611400946741
 20
1923.552906422557
 30
0.0
 11
2568.412654712243
 21
1919.403447204556
 31
0.0
  0
LINE
  5
EED
330
1F
100
AcDbEntity
  8
0
100
AcDbLine
 10
2561.745037956745
 20
1921.800458305056
 30
0.0
 11
2568.152900874745
 21
1917.613940184056
 31
0.0
  0
LINE
  5
EEE
330
1F
100
AcDbEntity
  8
0
100
AcDbLine
 10
2563.006876861243
 20
1921.161130730556
 30
0.0
 11
2569.197882774242
 21
1916.660123669556
 31
0.0
  0
LINE
  5
EEF
330
1F
100
AcDbEntity
  8
0
100
AcDbLine
 10
2565.040938448742
 20
1921.771561352556
 30
0.0
 11
2571.249566381244
 21
1916.778793698057
 31
0.0
  0
LINE
  5
EF0
330
1F
100
AcDbEntity
  8
0
100
AcDbLine
 10
2564.235173844244
 20
1920.459730007556
 30
0.0
 11
2570.193937771243
 21
1915.655470310557
 31
0.0
  0
LINE
  5
EF1
330
1F
100
AcDbEntity
  8
0
100
AcDbLine
 10
2568.212065679741
 20
1919.562296904057
 30
0.0
 11
2573.724141073743
 21
1913.809754701057
 31
0.0
  0
LWPOLYLINE
  5
EF2
330
1F
100
AcDbEntity
  8
0
 62
     9
100
AcDbPolyline
 90
        3
 70
     0
 43
0.0
 10
3335.482240531742
 20
1998.424513703557
 10
3334.767912881743
 20
1995.803008293556
 10
3334.615914167741
 20
1995.051269002556
  0
LINE
  5
EF3
330
1F
100
AcDbEntity
  8
0
 62
     9
100
AcDbLine
 10
2502.093142360743
 20
1344.385374500556
 30
0.0
 11
2496.790785617744
 21
1340.416905634556
 31
0.0
  0
LINE
  5
EF4
330
1F
100
AcDbEntity
  8
0
100
AcDbLine
 10
2538.278765974744
 20
1923.849391186556
 30
0.0
 11
2545.988606426744
 21
1925.857891838056
 31
0.0
  0
LINE
  5
EF5
330
1F
100
AcDbEntity
  8
0
100
AcDbLine
 10
2541.941889025241
 20
1925.077813993056
 30
0.0
 11
2549.846491460742
 21
1926.074158768556
 31
0.0
  0
LINE
  5
EF6
330
1F
100
AcDbEntity
  8
0
100
AcDbLine
 10
2545.398076196244
 20
1924.226328077057
 30
0.0
 11
2553.051705333243
 21
1924.327472366057
 31
0.0
  0
LINE
  5
EF7
330
1F
100
AcDbEntity
  8
0
 62
     9
100
AcDbLine
 10
2529.582045463244
 20
1929.642735860556
 30
0.0
 11
2549.582045463244
 21
1929.642735860556
 31
0.0
  0
LINE
  5
EF8
330
1F
100
AcDbEntity
  8
0
100
AcDbLine
 10
2529.582045463244
 20
1931.827498062056
 30
0.0
 11
2549.582045463244
 21
1931.827498062056
 31
0.0
  0
LINE
  5
EF9
330
1F
100
AcDbEntity
  8
0
100
AcDbLine
 10
2545.733197890745
 20
1925.823056998056
 30
0.0
 11
2553.700274160244
 21
1925.790549248057
 31
0.0
  0
LINE
  5
EFA
330
1F
100
AcDbEntity
  8
0
100
AcDbLine
 10
2545.988606426744
 20
1925.857891838056
 30
0.0
 11
2553.955113911742
 21
1925.756661302056
 31
0.0
  0
LINE
  5
EFB
330
1F
100
AcDbEntity
  8
0
100
AcDbLine
 10
2546.801153893243
 20
1924.399552174557
 30
0.0
 11
2554.45028568524
 21
1924.118741049556
 31
0.0
  0
LINE
  5
EFC
330
1F
100
AcDbEntity
  8
0
100
AcDbLine
 10
2548.211280684743
 20
1924.502570429557
 30
0.0
 11
2555.836875093743
 21
1923.840477654557
 31
0.0
  0
LINE
  5
EFD
330
1F
100
AcDbEntity
  8
0
 62
     9
100
AcDbLine
 10
2549.582045463244
 20
1929.642735860556
 30
0.0
 11
2558.555481211744
 21
1928.545924599057
 31
0.0
  0
LINE
  5
EFE
330
1F
100
AcDbEntity
  8
0
100
AcDbLine
 10
2549.589580695741
 20
1926.072592789056
 30
0.0
 11
2557.485180925243
 21
1925.011824883556
 31
0.0
  0
LINE
  5
EFF
330
1F
100
AcDbEntity
  8
0
100
AcDbLine
 10
2549.589952704241
 20
1924.535123452056
 30
0.0
 11
2557.207752766742
 21
1923.493430683556
 31
0.0
  0
LINE
  5
F00
330
1F
100
AcDbEntity
  8
0
100
AcDbLine
 10
2549.846491460742
 20
1926.074158768556
 30
0.0
 11
2557.733244876744
 21
1924.945297205556
 31
0.0
  0
LINE
  5
F01
330
1F
100
AcDbEntity
  8
0
 62
     9
100
AcDbLine
 10
2524.946790617243
 20
1930.344809132556
 30
0.0
 11
2529.582045463244
 21
1929.642735860556
 31
0.0
  0
LWPOLYLINE
  5
F02
330
1F
100
AcDbEntity
  8
0
 62
     9
100
AcDbPolyline
 90
        3
 70
     0
 43
0.0
 10
3584.379177342241
 20
1783.271725152556
 10
3585.463207490742
 20
1783.015059471057
 10
3586.762733664243
 20
1781.870806903556
  0
LINE
  5
F03
330
1F
100
AcDbEntity
  8
0
100
AcDbLine
 10
2553.051705333243
 20
1924.327472366057
 30
0.0
 11
2560.453042548742
 21
1922.375997058556
 31
0.0
  0
LINE
  5
F04
330
1F
100
AcDbEntity
  8
0
100
AcDbLine
 10
2553.700274160244
 20
1925.790549248057
 30
0.0
 11
2561.375277798244
 21
1923.652924310557
 31
0.0
  0
LINE
  5
F05
330
1F
100
AcDbEntity
  8
0
100
AcDbLine
 10
2553.955113911742
 20
1925.756661302056
 30
0.0
 11
2561.611400946741
 21
1923.552906422557
 31
0.0
  0
LINE
  5
F06
330
1F
100
AcDbEntity
  8
0
100
AcDbLine
 10
2554.45028568524
 20
1924.118741049556
 30
0.0
 11
2561.745037956745
 21
1921.800458305056
 31
0.0
  0
LINE
  5
F07
330
1F
100
AcDbEntity
  8
0
100
AcDbLine
 10
2555.836875093743
 20
1923.840477654557
 30
0.0
 11
2563.006876861243
 21
1921.161130730556
 31
0.0
  0
LWPOLYLINE
  5
F08
330
1F
100
AcDbEntity
  8
0
 62
     9
100
AcDbPolyline
 90
        3
 70
     0
 43
0.0
 10
2558.555481211744
 20
1928.545924599057
 10
2566.982693571742
 20
1925.300316166556
 10
2574.283519484743
 20
1920.075618141057
  0
LWPOLYLINE
  5
F09
330
1F
100
AcDbEntity
  8
0
100
AcDbPolyline
 90
        5
 70
     0
 43
0.0
 10
2557.485180925243
 20
1925.011824883556
 10
2564.820000883242
 20
1921.901254776557
 10
2571.071486106742
 20
1916.962231633056
 10
2575.794788032242
 20
1910.546215269556
 10
2578.653802079744
 20
1903.109766453056
  0
LINE
  5
F0A
330
1F
100
AcDbEntity
  8
0
100
AcDbLine
 10
2557.207752766742
 20
1923.493430683556
 30
0.0
 11
2564.235173844244
 21
1920.459730007556
 31
0.0
  0
LINE
  5
F0B
330
1F
100
AcDbEntity
  8
0
100
AcDbLine
 10
2557.733244876744
 20
1924.945297205556
 30
0.0
 11
2565.040938448742
 21
1921.771561352556
 31
0.0
  0
LWPOLYLINE
  5
F0C
330
1F
100
AcDbEntity
  8
0
 62
     9
100
AcDbPolyline
 90
        3
 70
     0
 43
0.0
 10
3335.482240819742
 20
1355.230473819557
 10
3334.767913605745
 20
1357.851969151056
 10
3334.615911728243
 20
1358.603723246556
  0
LINE
  5
F0D
330
1F
100
AcDbEntity
  8
0
 62
     9
100
AcDbLine
 10
3336.038841497741
 20
1999.484232135556
 30
0.0
 11
3336.019643236242
 21
1999.325223976057
 31
0.0
  0
LINE
  5
F0E
330
1F
100
AcDbEntity
  8
0
 62
     9
100
AcDbLine
 10
3328.030773169244
 20
1933.158008315056
 30
0.0
 11
3335.479800283741
 21
1994.854015311556
 31
0.0
  0
LINE
  5
F0F
330
1F
100
AcDbEntity
  8
0
 62
     9
100
AcDbLine
 10
2496.790785617744
 20
1340.416905634556
 30
0.0
 11
2490.623636089243
 21
1337.977210143556
 31
0.0
  0
LINE
  5
F10
330
1F
100
AcDbEntity
  8
0
 62
     9
100
AcDbLine
 10
2527.132955553242
 20
1954.918815099557
 30
0.0
 11
2521.933922950745
 21
1954.915571523056
 31
0.0
  0
LWPOLYLINE
  5
F11
330
1F
100
AcDbEntity
  8
0
 62
     9
100
AcDbPolyline
 90
        3
 70
     0
 43
0.0
 10
2539.582045463244
 20
1954.916520230556
 10
2533.164673375744
 20
1954.914500050056
 10
2527.132955553242
 20
1954.918815099557
  0
LINE
  5
F12
330
1F
100
AcDbEntity
  8
0
 62
     9
100
AcDbLine
 10
2514.582045463244
 20
1946.827498062056
 30
0.0
 11
2549.582045463244
 21
1946.827498062056
 31
0.0
  0
LINE
  5
F13
330
1F
100
AcDbEntity
  8
0
 62
     9
100
AcDbLine
 10
2484.582045463244
 20
1954.735677329056
 30
0.0
 11
2509.582045463244
 21
1954.735677329056
 31
0.0
  0
LINE
  5
F14
330
1F
100
AcDbEntity
  8
0
 62
     9
100
AcDbLine
 10
2521.933922950745
 20
1954.915571523056
 30
0.0
 11
2514.582045463244
 21
1954.916520230556
 31
0.0
  0
LINE
  5
F15
330
1F
100
AcDbEntity
  8
0
 62
     9
100
AcDbLine
 10
2509.583267901245
 20
1984.702944221056
 30
0.0
 11
2514.582045463244
 21
1984.671179559057
 31
0.0
  0
LINE
  5
F16
330
1F
100
AcDbEntity
  8
0
 62
     9
100
AcDbLine
 10
3336.038841497741
 20
1354.170763989056
 30
0.0
 11
3336.019643236242
 21
1354.329772148056
 31
0.0
  0
LINE
  5
F17
330
1F
100
AcDbEntity
  8
0
 62
     9
100
AcDbLine
 10
3335.479800283741
 20
1358.800980813056
 30
0.0
 11
3328.030773169244
 21
1420.496987809057
 31
0.0
  0
LINE
  5
F18
330
1F
100
AcDbEntity
  8
0
 62
     9
100
AcDbLine
 10
2001.571639134744
 20
2003.978762565557
 30
0.0
 11
1963.799333335743
 21
1997.810791091057
 31
0.0
  0
LINE
  5
F19
330
1F
100
AcDbEntity
  8
0
 62
     9
100
AcDbLine
 10
2533.261875613243
 20
2015.777167482057
 30
0.0
 11
2539.785482558243
 21
2016.587419664057
 31
0.0
  0
LWPOLYLINE
  5
F1A
330
1F
100
AcDbEntity
  8
0
 62
     9
100
AcDbPolyline
 90
        3
 70
     0
 43
0.0
 10
2067.953855334744
 20
2011.865462492057
 10
2036.198415243743
 20
2008.561564837558
 10
2001.571639134744
 20
2003.978762565557
  0
LWPOLYLINE
  5
F1B
330
1F
100
AcDbEntity
  8
0
100
AcDbPolyline
 90
        4
 70
     0
 43
0.0
 10
2149.040721560246
 20
2016.444115650558
 10
2066.587759660745
 20
2011.772827733057
 10
1989.569214810743
 20
2002.182198820557
 10
1922.835935911242
 20
1989.770683004056
  0
LINE
  5
F1C
330
1F
100
AcDbEntity
  8
0
 62
     9
100
AcDbLine
 10
2508.662256200244
 20
2003.082894037557
 30
0.0
 11
2509.582045463244
 21
2003.116393522557
 31
0.0
  0
LINE
  5
F1D
330
1F
100
AcDbEntity
  8
0
 62
     9
100
AcDbLine
 10
2509.582045463244
 20
2005.814306306057
 30
0.0
 11
2514.582045463244
 21
2005.814306306057
 31
0.0
  0
LINE
  5
F1E
330
1F
100
AcDbEntity
  8
0
100
AcDbLine
 10
2509.582045463244
 20
2010.639465685557
 30
0.0
 11
2514.582045463244
 21
2010.639465685557
 31
0.0
  0
LINE
  5
F1F
330
1F
100
AcDbEntity
  8
0
 62
     9
100
AcDbLine
 10
2509.582045463244
 20
2012.987752100056
 30
0.0
 11
2514.582045463244
 21
2012.987752100056
 31
0.0
  0
LINE
  5
F20
330
1F
100
AcDbEntity
  8
0
 62
     9
100
AcDbLine
 10
2514.582045463244
 20
2019.327498062057
 30
0.0
 11
2509.582045463244
 21
2019.327498062057
 31
0.0
  0
LINE
  5
F21
330
1F
100
AcDbEntity
  8
0
100
AcDbLine
 10
2514.582045463244
 20
2026.827498062056
 30
0.0
 11
2509.582045463244
 21
2026.827498062056
 31
0.0
  0
LINE
  5
F22
330
1F
100
AcDbEntity
  8
0
 62
     9
100
AcDbLine
 10
2514.582045463244
 20
2003.082257001556
 30
0.0
 11
2515.472122038743
 21
2003.080751487557
 31
0.0
  0
LWPOLYLINE
  5
F23
330
1F
100
AcDbEntity
  8
0
 62
     9
100
AcDbPolyline
 90
        3
 70
     0
 43
0.0
 10
2510.453913524743
 20
2003.108231935557
 10
2512.516256607741
 20
2003.092092353057
 10
2514.582045463244
 20
2003.082257001556
  0
LINE
  5
F24
330
1F
100
AcDbEntity
  8
0
 62
     9
100
AcDbLine
 10
2509.582045463244
 20
2003.116393522557
 30
0.0
 11
2510.453913524743
 21
2003.108231935557
 31
0.0
  0
LWPOLYLINE
  5
F25
330
1F
100
AcDbEntity
  8
0
 62
     9
100
AcDbPolyline
 90
        7
 70
     0
 43
0.0
 10
2989.785374012742
 20
2021.630700440556
 10
3035.975184247242
 20
2020.909513140056
 10
3085.781860218244
 20
2019.358282056057
 10
3139.993532907242
 20
2016.755644822556
 10
3199.314791364744
 20
2012.811977237056
 10
3264.437986289743
 20
2007.156681453556
 10
3336.019643236242
 20
1999.325223976057
  0
LWPOLYLINE
  5
F26
330
1F
100
AcDbEntity
  8
0
 62
     9
100
AcDbPolyline
 90
        3
 70
     0
 43
0.0
 10
3179.843681943242
 20
2009.316225914556
 10
3111.294696819244
 20
2013.261991507556
 10
3048.163969688244
 20
2015.576093087057
  0
LINE
  5
F27
330
1F
100
AcDbEntity
  8
0
 62
     9
100
AcDbLine
 10
3254.391010434242
 20
2003.338262542057
 30
0.0
 11
3179.843681943242
 21
2009.316225914556
 31
0.0
  0
LWPOLYLINE
  5
F28
330
1F
100
AcDbEntity
  8
0
100
AcDbPolyline
 90
        4
 70
     0
 43
0.0
 10
3335.398354443241
 20
1994.893062670556
 10
3230.012724751744
 20
2005.516975655557
 10
3113.169097703743
 20
2013.205807721056
 10
2989.782761869744
 20
2016.619581042057
  0
LINE
  5
F29
330
1F
100
AcDbEntity
  8
0
 62
     9
100
AcDbLine
 10
3335.479800283741
 20
1994.854015311556
 30
0.0
 11
3254.391010434242
 21
2003.338262542057
 31
0.0
  0
LWPOLYLINE
  5
F2A
330
1F
100
AcDbEntity
  8
0
 62
     9
100
AcDbPolyline
 90
        8
 70
     0
 43
0.0
 10
1922.672320716744
 20
1989.706094629557
 10
1900.198350509242
 20
1984.052174305557
 10
1880.741312133242
 20
1977.798719083057
 10
1864.08986435674
 20
1971.407663344057
 10
1850.061203543241
 20
1965.258002322556
 10
1838.591828922242
 20
1959.708382379557
 10
1829.601028024742
 20
1955.048398034057
 10
1822.932318362741
 20
1951.456901821057
  0
LWPOLYLINE
  5
F2B
330
1F
100
AcDbEntity
  8
0
100
AcDbPolyline
 90
       19
 70
     0
 43
0.0
 10
1922.83622870274
 20
1989.770748305558
 10
1919.141899700243
 20
1988.956243910057
 10
1913.338009117745
 20
1987.587567268557
 10
1907.701960562243
 20
1986.153370902057
 10
1902.230711059742
 20
1984.661198220557
 10
1896.920965839744
 20
1983.118186227057
 10
1891.770396660241
 20
1981.531000393056
 10
1886.776715566745
 20
1979.906174617057
 10
1881.937642098243
 20
1978.250273127057
 10
1877.250162014242
 20
1976.569339339057
 10
1872.713335874744
 20
1974.869430077556
 10
1868.326128466745
 20
1973.156638479057
 10
1864.086684036242
 20
1971.436920121557
 10
1859.993745167244
 20
1969.716094060556
 10
1856.049175176245
 20
1968.000804275557
 10
1852.256220283743
 20
1966.298764183557
 10
1848.618681786741
 20
1964.618382066056
 10
1845.142746140743
 20
1962.968717597057
 10
1841.837332619244
 20
1961.360371742057
  0
LWPOLYLINE
  5
F2C
330
1F
100
AcDbEntity
  8
0
 62
     9
100
AcDbPolyline
 90
        9
 70
     0
 43
0.0
 10
1921.734999145242
 20
1993.931264213557
 10
1959.514649668242
 20
2001.699383013558
 10
1994.173967459242
 20
2007.678397274057
 10
2025.897580919743
 20
2012.207963848557
 10
2054.910139625244
 20
2015.572691306557
 10
2081.460269738243
 20
2018.007404495558
 10
2105.812656871242
 20
2019.702996861557
 10
2128.243329510743
 20
2020.811971104057
 10
2149.035045143245
 20
2021.453392793057
  0
LINE
  5
F2D
330
1F
100
AcDbEntity
  8
0
 62
     9
100
AcDbLine
 10
1963.799333335743
 20
1997.810791091057
 30
0.0
 11
1922.672320716744
 21
1989.706094629557
 31
0.0
  0
LWPOLYLINE
  5
F2E
330
1F
100
AcDbEntity
  8
0
 62
     9
100
AcDbPolyline
 90
        9
 70
     0
 43
0.0
 10
3336.019643236242
 20
1999.325223976057
 10
3363.746831813244
 20
1994.730227859057
 10
3387.990170277243
 20
1988.625170031056
 10
3408.915957734745
 20
1981.686170561056
 10
3426.790573832243
 20
1974.433007534056
 10
3441.719252413742
 20
1967.346030062557
 10
3453.680018300743
 20
1960.908308750057
 10
3462.755691951744
 20
1955.492631278056
 10
3468.961725932243
 20
1951.437855086057
  0
LWPOLYLINE
  5
F2F
330
1F
100
AcDbEntity
  8
0
 62
     9
100
AcDbPolyline
 90
        3
 70
     0
 43
0.0
 10
3586.762733664243
 20
1571.784189221056
 10
3585.463800681743
 20
1570.640286969557
 10
3584.379177342241
 20
1570.383270972056
  0
LINE
  5
F30
330
1F
100
AcDbEntity
  8
0
 62
     9
100
AcDbLine
 10
3335.479801260742
 20
1358.800972719056
 30
0.0
 11
3335.398351260744
 21
1358.761929605057
 31
0.0
  0
LWPOLYLINE
  5
F31
330
1F
100
AcDbEntity
  8
0
100
AcDbPolyline
 90
       32
 70
     0
 43
0.0
 10
3469.223154297742
 20
1949.950137959056
 10
3469.284055604744
 20
1949.922654864557
 10
3469.225893633243
 20
1949.952754615556
 10
3468.574412334244
 20
1950.284329933057
 10
3467.458579724741
 20
1950.870439656556
 10
3465.922545588742
 20
1951.690484914557
 10
3463.999794568244
 20
1952.722872744556
 10
3461.718569087242
 20
1953.945712544557
 10
3459.105882366744
 20
1955.335542443557
 10
3456.183829445242
 20
1956.869811765557
 10
3452.973773550743
 20
1958.526468846056
 10
3449.496185682244
 20
1960.284477020056
 10
3445.762189330241
 20
1962.126587861557
 10
3441.787031576244
 20
1964.033950463056
 10
3437.588530601744
 20
1965.987987688057
 10
3433.176999412243
 20
1967.973493237056
 10
3428.560968603243
 20
1969.976078789056
 10
3423.744305299245
 20
1971.984541922056
 10
3418.726777097741
 20
1973.989437242556
 10
3413.504081310744
 20
1975.981805423056
 10
3408.073147301743
 20
1977.952279964556
 10
3402.431581199743
 20
1979.891400893057
 10
3396.574125352744
 20
1981.789559036056
 10
3390.495018732242
 20
1983.636589588556
 10
3384.189340176744
 20
1985.421937764056
 10
3377.651686616241
 20
1987.134492883556
 10
3370.874816991243
 20
1988.762175276056
 10
3363.852323765742
 20
1990.292098176056
 10
3356.578806267745
 20
1991.710673832556
 10
3349.048011240745
 20
1993.003130611057
 10
3341.253927418241
 20
1994.153350825557
 10
3335.398297472743
 20
1994.893072383057
  0
LINE
  5
F32
330
1F
100
AcDbEntity
  8
0
 62
     9
100
AcDbLine
 10
3335.479800370743
 20
1994.854016033557
 30
0.0
 11
3335.398354443244
 21
1994.893062670556
 31
0.0
  0
LWPOLYLINE
  5
F33
330
1F
100
AcDbEntity
  8
0
 62
     9
100
AcDbPolyline
 90
        9
 70
     0
 43
0.0
 10
3468.894172666245
 20
1950.016138912556
 10
3462.666399204244
 20
1953.386781965557
 10
3453.537780073744
 20
1958.199538197056
 10
3441.319973391244
 20
1964.221519258056
 10
3426.252749363243
 20
1970.918169852556
 10
3408.271052623741
 20
1977.852492534556
 10
3387.352231941243
 20
1984.513412834057
 10
3363.213304926244
 20
1990.393989435056
 10
3335.479800283741
 20
1994.854015311556
  0
LWPOLYLINE
  5
F34
330
1F
100
AcDbEntity
  8
0
 62
     9
100
AcDbPolyline
 90
        3
 70
     0
 43
0.0
 10
3584.379177342241
 20
1570.383270972056
 10
3583.212274795743
 20
1572.257371093557
 10
3583.002667594242
 20
1577.464462847057
  0
LWPOLYLINE
  5
F35
330
1F
100
AcDbEntity
  8
0
100
AcDbPolyline
 90
        9
 70
     0
 43
0.0
 10
3583.347736616243
 20
1575.155694073556
 10
3583.418326547245
 20
1575.006668167057
 10
3583.387765051745
 20
1575.247056685556
 10
3583.275626915743
 20
1576.831389428556
 10
3583.332246521243
 20
1579.546784917556
 10
3583.629427380742
 20
1583.373513336056
 10
3584.186504706743
 20
1588.370069652557
 10
3585.004937780744
 20
1594.620226038557
 10
3586.055851624245
 20
1602.199840900056
  0
LWPOLYLINE
  5
F36
330
1F
100
AcDbEntity
  8
0
 62
     9
100
AcDbPolyline
 90
        9
 70
     0
 43
0.0
 10
3468.899878042742
 20
1402.174713917056
 10
3462.647382207745
 20
1398.094545173556
 10
3453.517177330242
 20
1392.654019932556
 10
3441.492824015244
 20
1386.193930527556
 10
3426.482832918241
 20
1379.086118304557
 10
3408.556131349243
 20
1371.835744108056
 10
3387.721436610241
 20
1364.951030817557
 10
3363.639444969743
 20
1358.902143856056
 10
3336.019643236242
 20
1354.329772148056
  0
LWPOLYLINE
  5
F37
330
1F
100
AcDbEntity
  8
0
 62
     9
100
AcDbPolyline
 90
        6
 70
     0
 43
0.0
 10
3583.381966992244
 20
1773.450852315057
 10
3585.887210298242
 20
1769.979115888557
 10
3590.531171731745
 20
1761.039691213557
 10
3595.481531608744
 20
1748.712153895557
 10
3600.121786005241
 20
1733.524777620057
 10
3600.491555882243
 20
1731.827498062056
  0
LWPOLYLINE
  5
F38
330
1F
100
AcDbEntity
  8
0
 62
     9
100
AcDbPolyline
 90
        4
 70
     0
 43
0.0
 10
3586.762887299242
 20
1781.870862647057
 10
3586.963907531244
 20
1779.576044475057
 10
3586.090127226743
 20
1777.412588837056
 10
3584.333942708242
 20
1775.856862738557
  0
LWPOLYLINE
  5
F39
330
1F
100
AcDbEntity
  8
0
 62
     9
100
AcDbPolyline
 90
        3
 70
     0
 43
0.0
 10
3583.014989574745
 20
1775.923279419056
 10
3583.182706705243
 20
1781.246506528557
 10
3584.379177342241
 20
1783.271725152556
  0
LWPOLYLINE
  5
F3A
330
1F
100
AcDbEntity
  8
0
 62
     9
100
AcDbPolyline
 90
        4
 70
     0
 43
0.0
 10
3586.763522691744
 20
1571.783903113056
 10
3586.964034180745
 20
1574.078456913557
 10
3586.090012795742
 20
1576.241512914556
 10
3584.333836176745
 20
1577.796985599557
  0
LWPOLYLINE
  5
F3B
330
1F
100
AcDbEntity
  8
0
 62
     9
100
AcDbPolyline
 90
        4
 70
     0
 43
0.0
 10
3583.002667594242
 20
1577.464462847057
 10
3583.740221857744
 20
1585.638758643056
 10
3585.144035784745
 20
1596.206305824056
 10
3586.916789299244
 20
1608.868456947056
  0
LWPOLYLINE
  5
F3C
330
1F
100
AcDbEntity
  8
0
 62
     9
100
AcDbPolyline
 90
        7
 70
     0
 43
0.0
 10
3586.916789299244
 20
1608.868456947056
 10
3589.080051793742
 20
1626.419143232057
 10
3590.811524292242
 20
1645.910664172056
 10
3591.757996807743
 20
1666.401330151057
 10
3591.759114427244
 20
1687.205902030557
 10
3590.814302831742
 20
1707.703802027056
 10
3589.082397336743
 20
1727.214173087056
  0
LWPOLYLINE
  5
F3D
330
1F
100
AcDbEntity
  8
0
100
AcDbPolyline
 90
        8
 70
     0
 43
0.0
 10
3587.037323380743
 20
1609.334875610057
 10
3588.972406232743
 20
1625.008507903557
 10
3590.773875551243
 20
1644.787900050556
 10
3591.784564926245
 20
1665.921842678056
 10
3591.789653730244
 20
1687.523220910557
 10
3590.788061661744
 20
1708.666164515556
 10
3588.992640845742
 20
1728.462921245057
 10
3587.037310708244
 20
1744.320216025556
  0
LINE
  5
F3E
330
1F
100
AcDbEntity
  8
0
100
AcDbLine
 10
3586.055851624245
 20
1602.199840900056
 30
0.0
 11
3587.036762038245
 21
1609.334677880056
 31
0.0
  0
LINE
  5
F3F
330
1F
100
AcDbEntity
  8
0
 62
     9
100
AcDbLine
 10
3586.916787510242
 20
1608.868457367057
 30
0.0
 11
3587.037287314244
 21
1609.334606986556
 31
0.0
  0
LWPOLYLINE
  5
F40
330
1F
100
AcDbEntity
  8
0
 62
     9
100
AcDbPolyline
 90
        6
 70
     0
 43
0.0
 10
3586.762733664243
 20
1781.870806903556
 10
3590.600830239243
 20
1776.241647358057
 10
3595.298275303743
 20
1766.696999562056
 10
3600.310584503742
 20
1753.539238116057
 10
3605.011480726745
 20
1737.332724650556
 10
3606.150761965243
 20
1731.827498062056
  0
LINE
  5
F41
330
1F
100
AcDbEntity
  8
0
 62
     9
100
AcDbLine
 10
3586.915866580245
 20
1744.786322636057
 30
0.0
 11
3587.036560540243
 21
1744.320115675056
 31
0.0
  0
LWPOLYLINE
  5
F42
330
1F
100
AcDbEntity
  8
0
 62
     9
100
AcDbPolyline
 90
        4
 70
     0
 43
0.0
 10
3586.916789299244
 20
1744.786539177056
 10
3585.164047072743
 20
1757.306718423556
 10
3583.768485981745
 20
1767.779669966057
 10
3583.014989574745
 20
1775.923279419056
  0
LWPOLYLINE
  5
F43
330
1F
100
AcDbEntity
  8
0
100
AcDbPolyline
 90
        9
 70
     0
 43
0.0
 10
3587.036562190743
 20
1744.320103419056
 10
3586.077000058743
 20
1751.305070264056
 10
3585.023167041741
 20
1758.899859686556
 10
3584.201261105743
 20
1765.167298962556
 10
3583.638776991243
 20
1770.182397666057
 10
3583.336635895742
 20
1774.027787142056
 10
3583.274687286742
 20
1776.769686275557
 10
3583.383282887243
 20
1778.379886729056
 10
3583.420046246243
 20
1778.597944111056
  0
LINE
  5
F44
330
1F
100
AcDbEntity
  8
0
 62
     9
100
AcDbLine
 10
3589.082397336743
 20
1727.214173087056
 30
0.0
 11
3586.916789299244
 21
1744.786539177056
 31
0.0
  0
LWPOLYLINE
  5
F45
330
1F
100
AcDbEntity
  8
0
 62
     9
100
AcDbPolyline
 90
        6
 70
     0
 43
0.0
 10
3606.150215723744
 20
1621.827498062056
 10
3605.012160758742
 20
1616.325008772056
 10
3600.311481343243
 20
1600.118433265056
 10
3595.299788055744
 20
1586.961482974556
 10
3590.601461872243
 20
1577.414456437057
 10
3586.762733664243
 20
1571.784189221056
  0
LWPOLYLINE
  5
F46
330
1F
100
AcDbEntity
  8
0
 62
     9
100
AcDbPolyline
 90
        6
 70
     0
 43
0.0
 10
3600.491450030244
 20
1621.827498062056
 10
3600.122423827742
 20
1620.132650675557
 10
3595.482414924241
 20
1604.945343616557
 10
3590.532673481244
 20
1592.618586987057
 10
3585.887837383241
 20
1583.676918886057
 10
3583.383461881243
 20
1580.206273132556
  0
LINE
  5
F47
330
1F
100
AcDbEntity
  8
0
100
AcDbLine
 10
3709.082045463244
 20
1731.827498062056
 30
0.0
 11
3709.082045463244
 21
1621.827498062056
 31
0.0
  0
CIRCLE
  5
F48
330
1F
100
AcDbEntity
  8
0
100
AcDbCircle
 10
2549.595902096741
 20
1896.205128622057
 30
0.0
 40
28.33
  0
ARC
  5
F49
330
1F
100
AcDbEntity
  8
0
100
AcDbCircle
 10
2549.569314232743
 20
1896.556653479557
 30
0.0
 40
32.5
100
AcDbArc
 50
3.260577859989327
 51
184.0402039415355
  0
CIRCLE
  5
F4A
330
1F
100
AcDbEntity
  8
0
100
AcDbCircle
 10
2549.594402518741
 20
1896.224954921557
 30
0.0
 40
32.5
  0
CIRCLE
  5
F4B
330
1F
100
AcDbEntity
  8
0
100
AcDbCircle
 10
2549.595987786742
 20
1896.203995690556
 30
0.0
 40
24.33
  0
ARC
  5
F4C
330
1F
100
AcDbEntity
  8
0
100
AcDbCircle
 10
2519.616318553744
 20
1586.789693657557
 30
0.0
 40
10.0
100
AcDbArc
 50
180.0121777323348
 51
239.4474189732518
  0
ARC
  5
F4D
330
1F
100
AcDbEntity
  8
0
100
AcDbCircle
 10
2519.578513603744
 20
1766.789689687556
 30
0.0
 40
10.0
100
AcDbArc
 50
120.3094060006938
 51
180.0119748482707
  0
CIRCLE
  5
F4E
330
1F
100
AcDbEntity
  8
0
 62
     9
100
AcDbCircle
 10
2549.595987786742
 20
1896.203995690556
 30
0.0
 40
26.329938099
  0
CIRCLE
  5
F4F
330
1F
100
AcDbEntity
  8
0
 62
     9
100
AcDbCircle
 10
2549.594488208742
 20
1896.223821990056
 30
0.0
 40
30.4999449825
  0
ARC
  5
F50
330
1F
100
AcDbEntity
  8
0
100
AcDbCircle
 10
1987.082045463244
 20
1676.827498062056
 30
0.0
 40
325.0
100
AcDbArc
 50
105.1892867372409
 51
170.2393036587108
  0
ARC
  5
F51
330
1F
100
AcDbEntity
  8
0
100
AcDbCircle
 10
1987.082045463244
 20
1676.827498062056
 30
0.0
 40
325.0
100
AcDbArc
 50
189.7607132611677
 51
254.8107132627591
  0
ARC
  5
F52
330
1F
100
AcDbEntity
  8
0
100
AcDbCircle
 10
2964.582045463244
 20
3942.452498062055
 30
0.0
 40
2615.625
100
AcDbArc
 50
270.0
 51
278.4727895980637
  0
ARC
  5
F53
330
1F
100
AcDbEntity
  8
0
100
AcDbCircle
 10
3302.082045463244
 20
1676.827498062056
 30
0.0
 40
325.0
100
AcDbArc
 50
278.4727895980637
 51
350.2326847629912
  0
ARC
  5
F54
330
1F
100
AcDbEntity
  8
0
100
AcDbCircle
 10
3302.082045463244
 20
1676.827498062056
 30
0.0
 40
325.0
100
AcDbArc
 50
9.767346449206065
 51
81.52721040193636
  0
ARC
  5
F55
330
1F
100
AcDbEntity
  8
0
100
AcDbCircle
 10
2964.582045463244
 20
-588.7975019379437
 30
0.0
 40
2615.625
100
AcDbArc
 50
81.52721040193636
 51
90.0
  0
ARC
  5
F56
330
1F
100
AcDbEntity
  8
0
100
AcDbCircle
 10
2174.582045463244
 20
986.2024980620567
 30
0.0
 40
1040.625
100
AcDbArc
 50
90.0
 51
105.1892867372409
  0
ARC
  5
F57
330
1F
100
AcDbEntity
  8
0
100
AcDbCircle
 10
2174.582045463244
 20
2367.452498062057
 30
0.0
 40
1040.625
100
AcDbArc
 50
254.8107132627591
 51
270.0
  0
ARC
  5
F58
330
1F
100
AcDbEntity
  8
0
 62
     9
100
AcDbCircle
 10
2509.582045463244
 20
986.2024980620562
 30
0.0
 40
1026.7852594095
100
AcDbArc
 50
90.0
 51
90.34880448892682
  0
ARC
  5
F59
330
1F
100
AcDbEntity
  8
0
100
AcDbCircle
 10
2509.582045463244
 20
986.2024980620562
 30
0.0
 40
1024.436967623
100
AcDbArc
 50
90.0
 51
90.24284898248151
  0
ARC
  5
F5A
330
1F
100
AcDbEntity
  8
0
 62
     9
100
AcDbCircle
 10
2514.582045463244
 20
-588.7975019379437
 30
0.0
 40
2601.785254969
100
AcDbArc
 50
89.86348294159691
 51
90.0
  0
ARC
  5
F5B
330
1F
100
AcDbEntity
  8
0
100
AcDbCircle
 10
2514.582045463244
 20
-588.7975019379437
 30
0.0
 40
2599.436967623001
100
AcDbArc
 50
89.90573082504763
 51
90.0
  0
ARC
  5
F5C
330
1F
100
AcDbEntity
  8
0
 62
     9
100
AcDbCircle
 10
2514.582045463244
 20
3942.452498062055
 30
0.0
 40
2601.785254969
100
AcDbArc
 50
270.0
 51
270.1365170563187
  0
ARC
  5
F5D
330
1F
100
AcDbEntity
  8
0
100
AcDbCircle
 10
2514.582045463244
 20
3942.452498062055
 30
0.0
 40
2599.436967623001
100
AcDbArc
 50
270.0
 51
270.0942691749524
  0
ARC
  5
F5E
330
1F
100
AcDbEntity
  8
0
 62
     9
100
AcDbCircle
 10
2509.582045463244
 20
2367.452498062057
 30
0.0
 40
1026.7852594095
100
AcDbArc
 50
269.6511954979412
 51
270.0
  0
ARC
  5
F5F
330
1F
100
AcDbEntity
  8
0
100
AcDbCircle
 10
2509.582045463244
 20
2367.452498062057
 30
0.0
 40
1024.436967623
100
AcDbArc
 50
269.7571510185607
 51
270.0
  0
ARC
  5
F60
330
1F
100
AcDbEntity
  8
0
 62
     9
100
AcDbCircle
 10
2509.582045463244
 20
986.2024980620562
 30
0.0
 40
1019.6118083235
100
AcDbArc
 50
90.0
 51
90.11162973589758
  0
ARC
  5
F61
330
1F
100
AcDbEntity
  8
0
 62
     9
100
AcDbCircle
 10
2514.582045463244
 20
-588.7975019379437
 30
0.0
 40
2594.6118082575
100
AcDbArc
 50
89.9574610043119
 51
90.0
  0
ARC
  5
F62
330
1F
100
AcDbEntity
  8
0
 62
     9
100
AcDbCircle
 10
2514.582045463244
 20
3942.452498062055
 30
0.0
 40
2594.6118082575
100
AcDbArc
 50
270.0
 51
270.0425390094452
  0
ARC
  5
F63
330
1F
100
AcDbEntity
  8
0
 62
     9
100
AcDbCircle
 10
2509.582045463244
 20
2367.452498062057
 30
0.0
 40
1019.6118083235
100
AcDbArc
 50
269.8883706042785
 51
270.0
  0
ARC
  5
F64
330
1F
100
AcDbEntity
  8
0
 62
     9
100
AcDbCircle
 10
2509.582045463244
 20
2367.452498062057
 30
0.0
 40
1033.1250051925
100
AcDbArc
 50
269.2442143632859
 51
270.0
  0
ARC
  5
F65
330
1F
100
AcDbEntity
  8
0
 62
     9
100
AcDbCircle
 10
2514.582045463244
 20
3942.452498062055
 30
0.0
 40
2608.1250009055
100
AcDbArc
 50
270.0
 51
270.3013644439544
  0
ARC
  5
F66
330
1F
100
AcDbEntity
  8
0
 62
     9
100
AcDbCircle
 10
2964.582045463244
 20
-588.7975019379437
 30
0.0
 40
2608.1250009055
100
AcDbArc
 50
84.09483116954383
 51
89.44506596467158
  0
ARC
  5
F67
330
1F
100
AcDbEntity
  8
0
 62
     9
100
AcDbCircle
 10
2514.582045463244
 20
-588.7975019379437
 30
0.0
 40
2608.1250009055
100
AcDbArc
 50
89.69863543473129
 51
90.0
  0
ARC
  5
F68
330
1F
100
AcDbEntity
  8
0
 62
     9
100
AcDbCircle
 10
2509.582045463244
 20
986.2024980620562
 30
0.0
 40
1033.1250051925
100
AcDbArc
 50
90.0
 51
90.75578443911728
  0
ARC
  5
F69
330
1F
100
AcDbEntity
  8
0
100
AcDbCircle
 10
2514.582045463244
 20
1696.827498062056
 30
0.0
 40
5.0
100
AcDbArc
 50
180.0000004743071
 51
270.0
  0
ARC
  5
F6A
330
1F
100
AcDbEntity
  8
0
100
AcDbCircle
 10
2514.582045463244
 20
1656.827498062056
 30
0.0
 40
5.0
100
AcDbArc
 50
90.0
 51
179.9999990929697
  0
ARC
  5
F6B
330
1F
100
AcDbEntity
  8
0
100
AcDbCircle
 10
2514.582045463244
 20
1481.827498062056
 30
0.0
 40
5.0
100
AcDbArc
 50
180.0000004743071
 51
270.0
  0
ARC
  5
F6C
330
1F
100
AcDbEntity
  8
0
100
AcDbCircle
 10
2514.582045463244
 20
1441.827498062056
 30
0.0
 40
5.0
100
AcDbArc
 50
90.0
 51
179.9999990929697
  0
ARC
  5
F6D
330
1F
100
AcDbEntity
  8
0
100
AcDbCircle
 10
2514.582045463244
 20
1911.827498062056
 30
0.0
 40
5.0
100
AcDbArc
 50
180.0000004743071
 51
270.0
  0
ARC
  5
F6E
330
1F
100
AcDbEntity
  8
0
100
AcDbCircle
 10
2514.582045463244
 20
1871.827498062056
 30
0.0
 40
5.0
100
AcDbArc
 50
90.0
 51
179.9999990929697
  0
ARC
  5
F6F
330
1F
100
AcDbEntity
  8
0
100
AcDbCircle
 10
2484.582045463244
 20
1357.101038193056
 30
0.0
 40
25.0
100
AcDbArc
 50
268.7463344010768
 51
0.0
  0
ARC
  5
F70
330
1F
100
AcDbEntity
  8
0
100
AcDbCircle
 10
2484.582045463244
 20
1996.553957931556
 30
0.0
 40
25.0
100
AcDbArc
 50
0.0
 51
91.25366559892318
  0
ARC
  5
F71
330
1F
100
AcDbEntity
  8
0
100
AcDbCircle
 10
2174.582045463244
 20
2499.483748062056
 30
0.0
 40
1167.65625
100
AcDbArc
 50
257.4919345121439
 51
268.7461258696746
  0
ARC
  5
F72
330
1F
100
AcDbEntity
  8
0
100
AcDbCircle
 10
1992.082045463244
 20
1676.827498062056
 30
0.0
 40
325.0
100
AcDbArc
 50
102.508065487856
 51
170.2413125240675
  0
ARC
  5
F73
330
1F
100
AcDbEntity
  8
0
100
AcDbCircle
 10
1992.082045463244
 20
1676.827498062056
 30
0.0
 40
325.0
100
AcDbArc
 50
189.7586874759324
 51
257.4919345121439
  0
ARC
  5
F74
330
1F
100
AcDbEntity
  8
0
100
AcDbCircle
 10
2174.582045463244
 20
854.1712480620567
 30
0.0
 40
1167.65625
100
AcDbArc
 50
91.25387415242538
 51
102.508065487856
  0
ARC
  5
F75
330
1F
100
AcDbEntity
  8
0
 62
     9
100
AcDbCircle
 10
2174.582045463244
 20
854.1712480620567
 30
0.0
 40
1100.8483378595
100
AcDbArc
 50
91.30128519008543
 51
102.508065487856
  0
ARC
  5
F76
330
1F
100
AcDbEntity
  8
0
 62
     9
100
AcDbCircle
 10
2174.582045463244
 20
854.1712480620567
 30
0.0
 40
1125.585395016
100
AcDbArc
 50
91.30128519008543
 51
102.5080654876412
  0
ARC
  5
F77
330
1F
100
AcDbEntity
  8
0
 62
     9
100
AcDbCircle
 10
1992.082045463244
 20
1676.827498062056
 30
0.0
 40
258.192087749
100
AcDbArc
 50
102.508065487856
 51
180.0
  0
ARC
  5
F78
330
1F
100
AcDbEntity
  8
0
 62
     9
100
AcDbCircle
 10
1992.082045463244
 20
1676.827498062056
 30
0.0
 40
258.192087749
100
AcDbArc
 50
180.0
 51
257.4919345121439
  0
ARC
  5
F79
330
1F
100
AcDbEntity
  8
0
 62
     9
100
AcDbCircle
 10
1992.082045463244
 20
1676.827498062056
 30
0.0
 40
282.9291450045
100
AcDbArc
 50
102.5080654874293
 51
257.4919345129974
  0
ARC
  5
F7A
330
1F
100
AcDbEntity
  8
0
 62
     9
100
AcDbCircle
 10
2174.582045463244
 20
2499.483748062056
 30
0.0
 40
1100.8483378595
100
AcDbArc
 50
257.4919345121439
 51
268.6987148099146
  0
ARC
  5
F7B
330
1F
100
AcDbEntity
  8
0
 62
     9
100
AcDbCircle
 10
2174.582045463244
 20
2499.483748062056
 30
0.0
 40
1125.585395016
100
AcDbArc
 50
257.4919345121439
 51
268.6987148099146
  0
ARC
  5
F7C
330
1F
100
AcDbEntity
  8
0
100
AcDbCircle
 10
2529.582045463244
 20
1506.827498062056
 30
0.0
 40
15.0
100
AcDbArc
 50
180.0
 51
270.0
  0
ARC
  5
F7D
330
1F
100
AcDbEntity
  8
0
100
AcDbCircle
 10
2549.582045463244
 20
1456.827498062056
 30
0.0
 40
35.0
100
AcDbArc
 50
270.0
 51
90.0
  0
ARC
  5
F7E
330
1F
100
AcDbEntity
  8
0
100
AcDbCircle
 10
2529.582045463244
 20
1406.827498062056
 30
0.0
 40
15.0
100
AcDbArc
 50
90.0
 51
180.0
  0
ARC
  5
F7F
330
1F
100
AcDbEntity
  8
0
100
AcDbCircle
 10
2539.582045463244
 20
1996.725812370057
 30
0.0
 40
25.0
100
AcDbArc
 50
89.5340097622874
 51
180.0
  0
ARC
  5
F80
330
1F
100
AcDbEntity
  8
0
100
AcDbCircle
 10
2529.582045463244
 20
1946.827498062056
 30
0.0
 40
15.0
100
AcDbArc
 50
180.0
 51
270.0
  0
ARC
  5
F81
330
1F
100
AcDbEntity
  8
0
100
AcDbCircle
 10
2549.582045463244
 20
1896.827498062056
 30
0.0
 40
35.0
100
AcDbArc
 50
270.0
 51
90.0
  0
ARC
  5
F82
330
1F
100
AcDbEntity
  8
0
100
AcDbCircle
 10
2529.582045463244
 20
1846.827498062056
 30
0.0
 40
15.0
100
AcDbArc
 50
90.0
 51
180.0
  0
ARC
  5
F83
330
1F
100
AcDbEntity
  8
0
100
AcDbCircle
 10
2539.582045463244
 20
1356.929183754556
 30
0.0
 40
25.0
100
AcDbArc
 50
180.0
 51
270.4659902377126
  0
ARC
  5
F84
330
1F
100
AcDbEntity
  8
0
100
AcDbCircle
 10
2504.582045463244
 20
1601.827498062056
 30
0.0
 40
10.0
100
AcDbArc
 50
0.0000000161020542
 51
59.66826080775028
  0
ARC
  5
F85
330
1F
100
AcDbEntity
  8
0
100
AcDbCircle
 10
2504.582045463244
 20
1751.827498062056
 30
0.0
 40
10.0
100
AcDbArc
 50
300.3317391922497
 51
359.9999999593019
  0
ARC
  5
F86
330
1F
100
AcDbEntity
  8
0
100
AcDbCircle
 10
2964.582045463244
 20
-1077.078751937944
 30
0.0
 40
3098.90625
100
AcDbArc
 50
83.11556942823704
 51
89.5339809533525
  0
ARC
  5
F87
330
1F
100
AcDbEntity
  8
0
100
AcDbCircle
 10
3297.082045463244
 20
1676.827498062056
 30
0.0
 40
325.0
100
AcDbArc
 50
276.8844305717629
 51
350.2316019180215
  0
ARC
  5
F88
330
1F
100
AcDbEntity
  8
0
100
AcDbCircle
 10
3297.082045463244
 20
1676.827498062056
 30
0.0
 40
325.0
100
AcDbArc
 50
9.768398081978544
 51
83.11556942823704
  0
ARC
  5
F89
330
1F
100
AcDbEntity
  8
0
100
AcDbCircle
 10
2964.582045463244
 20
4430.733748062055
 30
0.0
 40
3098.90625
100
AcDbArc
 50
270.4660190447715
 51
276.8844305717629
  0
ARC
  5
F8A
330
1F
100
AcDbEntity
  8
0
 62
     9
100
AcDbCircle
 10
2549.582045463244
 20
1456.827498062056
 30
0.0
 40
49.9998685345
100
AcDbArc
 50
270.0
 51
90.0
  0
ARC
  5
F8B
330
1F
100
AcDbEntity
  8
0
 62
     9
100
AcDbCircle
 10
2549.582045463244
 20
1896.827498062056
 30
0.0
 40
49.9998685395
100
AcDbArc
 50
270.0
 51
90.0
  0
ARC
  5
F8C
330
1F
100
AcDbEntity
  8
0
 62
     9
100
AcDbCircle
 10
2964.582045463244
 20
4430.733748062055
 30
0.0
 40
3032.0983378595
100
AcDbArc
 50
270.4724156776521
 51
276.8844305717629
  0
ARC
  5
F8D
330
1F
100
AcDbEntity
  8
0
 62
     9
100
AcDbCircle
 10
2964.582045463244
 20
4430.733748062055
 30
0.0
 40
3056.835395016
100
AcDbArc
 50
270.4724156534722
 51
276.8844305717629
  0
ARC
  5
F8E
330
1F
100
AcDbEntity
  8
0
 62
     9
100
AcDbCircle
 10
3297.082045463244
 20
1676.827498062056
 30
0.0
 40
258.192080916
100
AcDbArc
 50
276.8844305717629
 51
83.11556942823704
  0
ARC
  5
F8F
330
1F
100
AcDbEntity
  8
0
 62
     9
100
AcDbCircle
 10
3297.082045463244
 20
1676.827498062056
 30
0.0
 40
282.9291448335
100
AcDbArc
 50
276.8844305715529
 51
83.11556942865715
  0
ARC
  5
F90
330
1F
100
AcDbEntity
  8
0
 62
     9
100
AcDbCircle
 10
2964.582045463244
 20
-1077.078751937944
 30
0.0
 40
3032.0983378595
100
AcDbArc
 50
83.11556942823704
 51
89.52758428941313
  0
ARC
  5
F91
330
1F
100
AcDbEntity
  8
0
 62
     9
100
AcDbCircle
 10
2964.582045463244
 20
-1077.078751937944
 30
0.0
 40
3056.835395016
100
AcDbArc
 50
83.11556942823704
 51
89.52758434652784
  0
LINE
  5
F92
330
1F
100
AcDbEntity
  8
TEXT
  6
Continuous
 62
     7
100
AcDbLine
 10
1978.754545463248
 20
1625.537498062058
 30
0.0
 11
1963.780545463246
 21
1621.524498062057
 31
0.0
  0
LINE
  5
F93
330
1F
100
AcDbEntity
  8
TEXT
  6
Continuous
 62
     7
100
AcDbLine
 10
1977.200545463244
 20
1631.332498062057
 30
0.0
 11
1962.227545463246
 21
1627.320498062057
 31
0.0
  0
LINE
  5
F94
330
1F
100
AcDbEntity
  8
TEXT
  6
Continuous
 62
     7
100
AcDbLine
 10
1998.156545463246
 20
1580.742498062057
 30
0.0
 11
1984.732545463243
 21
1572.991498062057
 31
0.0
  0
LINE
  5
F95
330
1F
100
AcDbEntity
  8
TEXT
  6
Continuous
 62
     7
100
AcDbLine
 10
1995.155545463246
 20
1585.938498062057
 30
0.0
 11
1981.731545463247
 21
1578.187498062057
 31
0.0
  0
LINE
  5
F96
330
1F
100
AcDbEntity
  8
TEXT
  6
Continuous
 62
     7
100
AcDbLine
 10
2028.491545463245
 20
1542.494498062057
 30
0.0
 11
2017.530545463246
 21
1531.533498062057
 31
0.0
  0
LINE
  5
F97
330
1F
100
AcDbEntity
  8
TEXT
  6
Continuous
 62
     7
100
AcDbLine
 10
2024.248545463247
 20
1546.736498062056
 30
0.0
 11
2013.287545463244
 21
1535.775498062057
 31
0.0
  0
LINE
  5
F98
330
1F
100
AcDbEntity
  8
TEXT
  6
Continuous
 62
     7
100
AcDbLine
 10
2067.692545463247
 20
1513.402498062057
 30
0.0
 11
2059.942545463246
 21
1499.977498062056
 31
0.0
  0
LINE
  5
F99
330
1F
100
AcDbEntity
  8
TEXT
  6
Continuous
 62
     7
100
AcDbLine
 10
2062.495545463246
 20
1516.401498062057
 30
0.0
 11
2054.745545463246
 21
1502.977498062056
 31
0.0
  0
LINE
  5
F9A
330
1F
100
AcDbEntity
  8
TEXT
  6
Continuous
 62
     7
100
AcDbLine
 10
2113.086545463247
 20
1495.447498062057
 30
0.0
 11
2109.074545463248
 21
1480.474498062057
 31
0.0
  0
LINE
  5
F9B
330
1F
100
AcDbEntity
  8
TEXT
  6
Continuous
 62
     7
100
AcDbLine
 10
2107.290545463248
 20
1496.999498062057
 30
0.0
 11
2103.278545463246
 21
1482.025498062057
 31
0.0
  0
LINE
  5
F9C
330
1F
100
AcDbEntity
  8
TEXT
  6
Continuous
 62
     7
100
AcDbLine
 10
2161.581545463246
 20
1489.852498062056
 30
0.0
 11
2161.581545463246
 21
1474.351498062057
 31
0.0
  0
LINE
  5
F9D
330
1F
100
AcDbEntity
  8
TEXT
  6
Continuous
 62
     7
100
AcDbLine
 10
2155.581545463246
 20
1489.851498062057
 30
0.0
 11
2155.581545463246
 21
1474.350498062057
 31
0.0
  0
LINE
  5
F9E
330
1F
100
AcDbEntity
  8
TEXT
  6
Continuous
 62
     7
100
AcDbLine
 10
2209.872545463243
 20
1496.999498062057
 30
0.0
 11
2213.884545463246
 21
1482.026498062057
 31
0.0
  0
LINE
  5
F9F
330
1F
100
AcDbEntity
  8
TEXT
  6
Continuous
 62
     7
100
AcDbLine
 10
2204.077545463245
 20
1495.445498062057
 30
0.0
 11
2208.089545463247
 21
1480.472498062057
 31
0.0
  0
LINE
  5
FA0
330
1F
100
AcDbEntity
  8
TEXT
  6
Continuous
 62
     7
100
AcDbLine
 10
2254.667545463245
 20
1516.402498062057
 30
0.0
 11
2262.417545463245
 21
1502.977498062056
 31
0.0
  0
LINE
  5
FA1
330
1F
100
AcDbEntity
  8
TEXT
  6
Continuous
 62
     7
100
AcDbLine
 10
2249.472545463246
 20
1513.401498062057
 30
0.0
 11
2257.222545463245
 21
1499.976498062057
 31
0.0
  0
LINE
  5
FA2
330
1F
100
AcDbEntity
  8
TEXT
  6
Continuous
 62
     7
100
AcDbLine
 10
2292.914545463244
 20
1546.737498062056
 30
0.0
 11
2303.875545463248
 21
1535.776498062057
 31
0.0
  0
LINE
  5
FA3
330
1F
100
AcDbEntity
  8
TEXT
  6
Continuous
 62
     7
100
AcDbLine
 10
2288.672545463246
 20
1542.494498062057
 30
0.0
 11
2299.633545463246
 21
1531.533498062057
 31
0.0
  0
LINE
  5
FA4
330
1F
100
AcDbEntity
  8
TEXT
  6
Continuous
 62
     7
100
AcDbLine
 10
2322.007545463245
 20
1585.938498062057
 30
0.0
 11
2335.432545463248
 21
1578.187498062057
 31
0.0
  0
LINE
  5
FA5
330
1F
100
AcDbEntity
  8
TEXT
  6
Continuous
 62
     7
100
AcDbLine
 10
2319.007545463245
 20
1580.741498062057
 30
0.0
 11
2332.432545463248
 21
1572.991498062057
 31
0.0
  0
LINE
  5
FA6
330
1F
100
AcDbEntity
  8
TEXT
  6
Continuous
 62
     7
100
AcDbLine
 10
2339.963545463243
 20
1631.333498062057
 30
0.0
 11
2354.937545463245
 21
1627.321498062057
 31
0.0
  0
LINE
  5
FA7
330
1F
100
AcDbEntity
  8
TEXT
  6
Continuous
 62
     7
100
AcDbLine
 10
2338.410545463244
 20
1625.537498062058
 30
0.0
 11
2353.384545463246
 21
1621.525498062057
 31
0.0
  0
LINE
  5
FA8
330
1F
100
AcDbEntity
  8
TEXT
  6
Continuous
 62
     7
100
AcDbLine
 10
2345.558545463245
 20
1679.828498062057
 30
0.0
 11
2361.060545463245
 21
1679.828498062057
 31
0.0
  0
LINE
  5
FA9
330
1F
100
AcDbEntity
  8
TEXT
  6
Continuous
 62
     7
100
AcDbLine
 10
2345.558545463245
 20
1673.828498062057
 30
0.0
 11
2361.060545463245
 21
1673.828498062057
 31
0.0
  0
LINE
  5
FAA
330
1F
100
AcDbEntity
  8
TEXT
  6
Continuous
 62
     7
100
AcDbLine
 10
2338.410545463244
 20
1728.119498062057
 30
0.0
 11
2353.384545463246
 21
1732.131498062057
 31
0.0
  0
LINE
  5
FAB
330
1F
100
AcDbEntity
  8
TEXT
  6
Continuous
 62
     7
100
AcDbLine
 10
2339.963545463243
 20
1722.323498062056
 30
0.0
 11
2354.937545463245
 21
1726.335498062056
 31
0.0
  0
LINE
  5
FAC
330
1F
100
AcDbEntity
  8
TEXT
  6
Continuous
 62
     7
100
AcDbLine
 10
2319.008545463245
 20
1772.914498062056
 30
0.0
 11
2332.433545463245
 21
1780.665498062056
 31
0.0
  0
LINE
  5
FAD
330
1F
100
AcDbEntity
  8
TEXT
  6
Continuous
 62
     7
100
AcDbLine
 10
2322.008545463245
 20
1767.717498062057
 30
0.0
 11
2335.433545463245
 21
1775.469498062056
 31
0.0
  0
LINE
  5
FAE
330
1F
100
AcDbEntity
  8
TEXT
  6
Continuous
 62
     7
100
AcDbLine
 10
2288.673545463246
 20
1811.161498062057
 30
0.0
 11
2299.634545463246
 21
1822.123498062057
 31
0.0
  0
LINE
  5
FAF
330
1F
100
AcDbEntity
  8
TEXT
  6
Continuous
 62
     7
100
AcDbLine
 10
2292.915545463248
 20
1806.918498062057
 30
0.0
 11
2303.876545463244
 21
1817.880498062056
 31
0.0
  0
LINE
  5
FB0
330
1F
100
AcDbEntity
  8
TEXT
  6
Continuous
 62
     7
100
AcDbLine
 10
2249.472545463246
 20
1840.254498062056
 30
0.0
 11
2257.222545463245
 21
1853.680498062057
 31
0.0
  0
LINE
  5
FB1
330
1F
100
AcDbEntity
  8
TEXT
  6
Continuous
 62
     7
100
AcDbLine
 10
2254.667545463245
 20
1837.254498062056
 30
0.0
 11
2262.417545463245
 21
1850.679498062057
 31
0.0
  0
LINE
  5
FB2
330
1F
100
AcDbEntity
  8
TEXT
  6
Continuous
 62
     7
100
AcDbLine
 10
2204.076545463248
 20
1858.210498062057
 30
0.0
 11
2208.088545463243
 21
1873.183498062056
 31
0.0
  0
LINE
  5
FB3
330
1F
100
AcDbEntity
  8
TEXT
  6
Continuous
 62
     7
100
AcDbLine
 10
2209.871545463247
 20
1856.656498062056
 30
0.0
 11
2213.883545463245
 21
1871.630498062057
 31
0.0
  0
LINE
  5
FB4
330
1F
100
AcDbEntity
  8
TEXT
  6
Continuous
 62
     7
100
AcDbLine
 10
2155.581545463246
 20
1863.805498062057
 30
0.0
 11
2155.581545463246
 21
1879.306498062057
 31
0.0
  0
LINE
  5
FB5
330
1F
100
AcDbEntity
  8
TEXT
  6
Continuous
 62
     7
100
AcDbLine
 10
2161.581545463246
 20
1863.804498062057
 30
0.0
 11
2161.581545463246
 21
1879.305498062057
 31
0.0
  0
LINE
  5
FB6
330
1F
100
AcDbEntity
  8
TEXT
  6
Continuous
 62
     7
100
AcDbLine
 10
2107.290545463248
 20
1856.658498062057
 30
0.0
 11
2103.278545463246
 21
1871.631498062057
 31
0.0
  0
LINE
  5
FB7
330
1F
100
AcDbEntity
  8
TEXT
  6
Continuous
 62
     7
100
AcDbLine
 10
2113.086545463247
 20
1858.210498062057
 30
0.0
 11
2109.074545463248
 21
1873.183498062056
 31
0.0
  0
LINE
  5
FB8
330
1F
100
AcDbEntity
  8
TEXT
  6
Continuous
 62
     7
100
AcDbLine
 10
2062.494545463247
 20
1837.254498062056
 30
0.0
 11
2054.744545463246
 21
1850.679498062057
 31
0.0
  0
LINE
  5
FB9
330
1F
100
AcDbEntity
  8
TEXT
  6
Continuous
 62
     7
100
AcDbLine
 10
2067.691545463246
 20
1840.254498062056
 30
0.0
 11
2059.941545463246
 21
1853.679498062058
 31
0.0
  0
LINE
  5
FBA
330
1F
100
AcDbEntity
  8
TEXT
  6
Continuous
 62
     7
100
AcDbLine
 10
2024.247545463243
 20
1806.919498062057
 30
0.0
 11
2013.286545463248
 21
1817.880498062056
 31
0.0
  0
LINE
  5
FBB
330
1F
100
AcDbEntity
  8
TEXT
  6
Continuous
 62
     7
100
AcDbLine
 10
2028.490545463245
 20
1811.161498062057
 30
0.0
 11
2017.529545463246
 21
1822.122498062057
 31
0.0
  0
LINE
  5
FBC
330
1F
100
AcDbEntity
  8
TEXT
  6
Continuous
 62
     7
100
AcDbLine
 10
1995.154545463246
 20
1767.718498062056
 30
0.0
 11
1981.730545463243
 21
1775.469498062056
 31
0.0
  0
LINE
  5
FBD
330
1F
100
AcDbEntity
  8
TEXT
  6
Continuous
 62
     7
100
AcDbLine
 10
1998.155545463246
 20
1772.914498062056
 30
0.0
 11
1984.731545463247
 21
1780.664498062056
 31
0.0
  0
LINE
  5
FBE
330
1F
100
AcDbEntity
  8
TEXT
  6
Continuous
 62
     7
100
AcDbLine
 10
1977.198545463244
 20
1722.323498062056
 30
0.0
 11
1962.225545463246
 21
1726.335498062056
 31
0.0
  0
LINE
  5
FBF
330
1F
100
AcDbEntity
  8
TEXT
  6
Continuous
 62
     7
100
AcDbLine
 10
1978.752545463248
 20
1728.119498062057
 30
0.0
 11
1963.778545463245
 21
1732.131498062057
 31
0.0
  0
LINE
  5
FC0
330
1F
100
AcDbEntity
  8
TEXT
  6
Continuous
 62
     7
100
AcDbLine
 10
1971.606545463247
 20
1673.827498062056
 30
0.0
 11
1956.104545463247
 21
1673.827498062056
 31
0.0
  0
LINE
  5
FC1
330
1F
100
AcDbEntity
  8
TEXT
  6
Continuous
 62
     7
100
AcDbLine
 10
1971.606545463247
 20
1679.827498062057
 30
0.0
 11
1956.104545463247
 21
1679.827498062057
 31
0.0
  0
CIRCLE
  5
FC2
330
1F
100
AcDbEntity
  8
TEXT
  6
Continuous
 62
     7
100
AcDbCircle
 10
2158.581545463245
 20
1676.827498062056
 30
0.0
 40
174.0
  0
CIRCLE
  5
FC3
330
1F
100
AcDbEntity
  8
TEXT
  6
Continuous
 62
     7
100
AcDbCircle
 10
2158.581545463245
 20
1676.827498062056
 30
0.0
 40
187.0
  0
CIRCLE
  5
FC4
330
1F
100
AcDbEntity
  8
TEXT
  6
Continuous
 62
     7
100
AcDbCircle
 10
2158.581545463245
 20
1676.827498062056
 30
0.0
 40
202.5
  0
ARC
  5
FC5
330
1F
100
AcDbEntity
  8
TEXT
  6
Continuous
 62
     7
100
AcDbCircle
 10
2158.581545463245
 20
1676.827498062056
 30
0.0
 40
194.0
100
AcDbArc
 50
150.8860000000265
 51
164.1140000000381
  0
ARC
  5
FC6
330
1F
100
AcDbEntity
  8
TEXT
  6
Continuous
 62
     7
100
AcDbCircle
 10
2158.581545463245
 20
1676.827498062056
 30
0.0
 40
194.0
100
AcDbArc
 50
135.8860000000315
 51
149.1140000000266
  0
ARC
  5
FC7
330
1F
100
AcDbEntity
  8
TEXT
  6
Continuous
 62
     7
100
AcDbCircle
 10
2158.581545463245
 20
1676.827498062056
 30
0.0
 40
194.0
100
AcDbArc
 50
120.8860000000493
 51
134.1139999999684
  0
ARC
  5
FC8
330
1F
100
AcDbEntity
  8
TEXT
  6
Continuous
 62
     7
100
AcDbCircle
 10
2158.581545463245
 20
1676.827498062056
 30
0.0
 40
194.0
100
AcDbArc
 50
105.8859999999743
 51
119.1139999999911
  0
ARC
  5
FC9
330
1F
100
AcDbEntity
  8
TEXT
  6
Continuous
 62
     7
100
AcDbCircle
 10
2158.581545463245
 20
1676.827498062056
 30
0.0
 40
194.0
100
AcDbArc
 50
90.88600000001317
 51
104.1140000000029
  0
ARC
  5
FCA
330
1F
100
AcDbEntity
  8
TEXT
  6
Continuous
 62
     7
100
AcDbCircle
 10
2158.581545463245
 20
1676.827498062056
 30
0.0
 40
194.0
100
AcDbArc
 50
165.8859999999845
 51
179.1139999999868
  0
ARC
  5
FCB
330
1F
100
AcDbEntity
  8
TEXT
  6
Continuous
 62
     7
100
AcDbCircle
 10
2158.581545463245
 20
1676.827498062056
 30
0.0
 40
194.0
100
AcDbArc
 50
75.88599999999711
 51
89.11399999998684
  0
ARC
  5
FCC
330
1F
100
AcDbEntity
  8
TEXT
  6
Continuous
 62
     7
100
AcDbCircle
 10
2158.581545463245
 20
1676.827498062056
 30
0.0
 40
194.0
100
AcDbArc
 50
60.88600000000885
 51
74.11400000002565
  0
ARC
  5
FCD
330
1F
100
AcDbEntity
  8
TEXT
  6
Continuous
 62
     7
100
AcDbCircle
 10
2158.581545463245
 20
1676.827498062056
 30
0.0
 40
194.0
100
AcDbArc
 50
45.88600000003159
 51
59.11399999995065
  0
ARC
  5
FCE
330
1F
100
AcDbEntity
  8
TEXT
  6
Continuous
 62
     7
100
AcDbCircle
 10
2158.581545463245
 20
1676.827498062056
 30
0.0
 40
194.0
100
AcDbArc
 50
30.88599999997339
 51
44.11399999996842
  0
ARC
  5
FCF
330
1F
100
AcDbEntity
  8
TEXT
  6
Continuous
 62
     7
100
AcDbCircle
 10
2158.581545463245
 20
1676.827498062056
 30
0.0
 40
194.0
100
AcDbArc
 50
15.88599999996181
 51
29.11399999997343
  0
ARC
  5
FD0
330
1F
100
AcDbEntity
  8
TEXT
  6
Continuous
 62
     7
100
AcDbCircle
 10
2158.581545463245
 20
1676.827498062056
 30
0.0
 40
194.0
100
AcDbArc
 50
0.8859999999610728
 51
14.11400000001553
  0
ARC
  5
FD1
330
1F
100
AcDbEntity
  8
TEXT
  6
Continuous
 62
     7
100
AcDbCircle
 10
2158.581545463245
 20
1676.827498062056
 30
0.0
 40
194.0
100
AcDbArc
 50
345.8859999999845
 51
359.1139999999868
  0
ARC
  5
FD2
330
1F
100
AcDbEntity
  8
TEXT
  6
Continuous
 62
     7
100
AcDbCircle
 10
2158.581545463245
 20
1676.827498062056
 30
0.0
 40
194.0
100
AcDbArc
 50
255.8859999999971
 51
269.1139999999868
  0
ARC
  5
FD3
330
1F
100
AcDbEntity
  8
TEXT
  6
Continuous
 62
     7
100
AcDbCircle
 10
2158.581545463245
 20
1676.827498062056
 30
0.0
 40
194.0
100
AcDbArc
 50
270.8860000000132
 51
284.1140000000029
  0
ARC
  5
FD4
330
1F
100
AcDbEntity
  8
TEXT
  6
Continuous
 62
     7
100
AcDbCircle
 10
2158.581545463245
 20
1676.827498062056
 30
0.0
 40
194.0
100
AcDbArc
 50
285.8859999999743
 51
299.1139999999912
  0
ARC
  5
FD5
330
1F
100
AcDbEntity
  8
TEXT
  6
Continuous
 62
     7
100
AcDbCircle
 10
2158.581545463245
 20
1676.827498062056
 30
0.0
 40
194.0
100
AcDbArc
 50
300.8860000000493
 51
314.1139999999684
  0
ARC
  5
FD6
330
1F
100
AcDbEntity
  8
TEXT
  6
Continuous
 62
     7
100
AcDbCircle
 10
2158.581545463245
 20
1676.827498062056
 30
0.0
 40
194.0
100
AcDbArc
 50
315.8860000000316
 51
329.1140000000266
  0
ARC
  5
FD7
330
1F
100
AcDbEntity
  8
TEXT
  6
Continuous
 62
     7
100
AcDbCircle
 10
2158.581545463245
 20
1676.827498062056
 30
0.0
 40
194.0
100
AcDbArc
 50
330.8860000000266
 51
344.1140000000382
  0
ARC
  5
FD8
330
1F
100
AcDbEntity
  8
TEXT
  6
Continuous
 62
     7
100
AcDbCircle
 10
2158.581545463245
 20
1676.827498062056
 30
0.0
 40
194.0
100
AcDbArc
 50
240.8860000000089
 51
254.1140000000257
  0
ARC
  5
FD9
330
1F
100
AcDbEntity
  8
TEXT
  6
Continuous
 62
     7
100
AcDbCircle
 10
2158.581545463245
 20
1676.827498062056
 30
0.0
 40
194.0
100
AcDbArc
 50
225.8860000000316
 51
239.1139999999506
  0
ARC
  5
FDA
330
1F
100
AcDbEntity
  8
TEXT
  6
Continuous
 62
     7
100
AcDbCircle
 10
2158.581545463245
 20
1676.827498062056
 30
0.0
 40
194.0
100
AcDbArc
 50
210.8859999999734
 51
224.1139999999684
  0
ARC
  5
FDB
330
1F
100
AcDbEntity
  8
TEXT
  6
Continuous
 62
     7
100
AcDbCircle
 10
2158.581545463245
 20
1676.827498062056
 30
0.0
 40
194.0
100
AcDbArc
 50
195.8859999999618
 51
209.1139999999734
  0
ARC
  5
FDC
330
1F
100
AcDbEntity
  8
TEXT
  6
Continuous
 62
     7
100
AcDbCircle
 10
2158.581545463245
 20
1676.827498062056
 30
0.0
 40
194.0
100
AcDbArc
 50
180.8859999999611
 51
194.1140000000155
  0
LINE
  5
FDD
330
1F
100
AcDbEntity
  8
AM_7
100
AcDbLine
 10
2158.581545463245
 20
1891.547498062057
 30
0.0
 11
2158.581545463245
 21
1464.454498062057
 31
0.0
  0
LINE
  5
FDE
330
1F
100
AcDbEntity
  8
TEXT
  6
Continuous
 62
     7
100
AcDbLine
 10
2705.755545463245
 20
1625.537498062057
 30
0.0
 11
2690.781545463243
 21
1621.524498062056
 31
0.0
  0
LINE
  5
FDF
330
1F
100
AcDbEntity
  8
TEXT
  6
Continuous
 62
     7
100
AcDbLine
 10
2704.201545463241
 20
1631.332498062056
 30
0.0
 11
2689.228545463243
 21
1627.320498062056
 31
0.0
  0
LINE
  5
FE0
330
1F
100
AcDbEntity
  8
TEXT
  6
Continuous
 62
     7
100
AcDbLine
 10
2725.157545463243
 20
1580.742498062057
 30
0.0
 11
2711.73354546324
 21
1572.991498062057
 31
0.0
  0
LINE
  5
FE1
330
1F
100
AcDbEntity
  8
TEXT
  6
Continuous
 62
     7
100
AcDbLine
 10
2722.156545463243
 20
1585.938498062057
 30
0.0
 11
2708.732545463244
 21
1578.187498062057
 31
0.0
  0
LINE
  5
FE2
330
1F
100
AcDbEntity
  8
TEXT
  6
Continuous
 62
     7
100
AcDbLine
 10
2755.492545463242
 20
1542.494498062057
 30
0.0
 11
2744.531545463243
 21
1531.533498062056
 31
0.0
  0
LINE
  5
FE3
330
1F
100
AcDbEntity
  8
TEXT
  6
Continuous
 62
     7
100
AcDbLine
 10
2751.249545463244
 20
1546.736498062056
 30
0.0
 11
2740.288545463241
 21
1535.775498062056
 31
0.0
  0
LINE
  5
FE4
330
1F
100
AcDbEntity
  8
TEXT
  6
Continuous
 62
     7
100
AcDbLine
 10
2794.693545463243
 20
1513.402498062057
 30
0.0
 11
2786.943545463243
 21
1499.977498062056
 31
0.0
  0
LINE
  5
FE5
330
1F
100
AcDbEntity
  8
TEXT
  6
Continuous
 62
     7
100
AcDbLine
 10
2789.496545463243
 20
1516.401498062057
 30
0.0
 11
2781.746545463243
 21
1502.977498062056
 31
0.0
  0
LINE
  5
FE6
330
1F
100
AcDbEntity
  8
TEXT
  6
Continuous
 62
     7
100
AcDbLine
 10
2840.087545463243
 20
1495.447498062057
 30
0.0
 11
2836.075545463245
 21
1480.474498062057
 31
0.0
  0
LINE
  5
FE7
330
1F
100
AcDbEntity
  8
TEXT
  6
Continuous
 62
     7
100
AcDbLine
 10
2834.291545463245
 20
1496.999498062057
 30
0.0
 11
2830.279545463243
 21
1482.025498062056
 31
0.0
  0
LINE
  5
FE8
330
1F
100
AcDbEntity
  8
TEXT
  6
Continuous
 62
     7
100
AcDbLine
 10
2888.582545463243
 20
1489.852498062056
 30
0.0
 11
2888.582545463243
 21
1474.351498062057
 31
0.0
  0
LINE
  5
FE9
330
1F
100
AcDbEntity
  8
TEXT
  6
Continuous
 62
     7
100
AcDbLine
 10
2882.582545463242
 20
1489.851498062057
 30
0.0
 11
2882.582545463242
 21
1474.350498062056
 31
0.0
  0
LINE
  5
FEA
330
1F
100
AcDbEntity
  8
TEXT
  6
Continuous
 62
     7
100
AcDbLine
 10
2936.87354546324
 20
1496.999498062057
 30
0.0
 11
2940.885545463242
 21
1482.026498062056
 31
0.0
  0
LINE
  5
FEB
330
1F
100
AcDbEntity
  8
TEXT
  6
Continuous
 62
     7
100
AcDbLine
 10
2931.078545463242
 20
1495.445498062057
 30
0.0
 11
2935.090545463244
 21
1480.472498062057
 31
0.0
  0
LINE
  5
FEC
330
1F
100
AcDbEntity
  8
TEXT
  6
Continuous
 62
     7
100
AcDbLine
 10
2981.668545463242
 20
1516.402498062057
 30
0.0
 11
2989.418545463242
 21
1502.977498062056
 31
0.0
  0
LINE
  5
FED
330
1F
100
AcDbEntity
  8
TEXT
  6
Continuous
 62
     7
100
AcDbLine
 10
2976.473545463242
 20
1513.401498062057
 30
0.0
 11
2984.223545463242
 21
1499.976498062056
 31
0.0
  0
LINE
  5
FEE
330
1F
100
AcDbEntity
  8
TEXT
  6
Continuous
 62
     7
100
AcDbLine
 10
3019.915545463241
 20
1546.737498062056
 30
0.0
 11
3030.876545463244
 21
1535.776498062057
 31
0.0
  0
LINE
  5
FEF
330
1F
100
AcDbEntity
  8
TEXT
  6
Continuous
 62
     7
100
AcDbLine
 10
3015.673545463243
 20
1542.494498062057
 30
0.0
 11
3026.634545463242
 21
1531.533498062056
 31
0.0
  0
LINE
  5
FF0
330
1F
100
AcDbEntity
  8
TEXT
  6
Continuous
 62
     7
100
AcDbLine
 10
3049.008545463242
 20
1585.938498062057
 30
0.0
 11
3062.433545463245
 21
1578.187498062057
 31
0.0
  0
LINE
  5
FF1
330
1F
100
AcDbEntity
  8
TEXT
  6
Continuous
 62
     7
100
AcDbLine
 10
3046.008545463242
 20
1580.741498062057
 30
0.0
 11
3059.433545463245
 21
1572.991498062057
 31
0.0
  0
LINE
  5
FF2
330
1F
100
AcDbEntity
  8
TEXT
  6
Continuous
 62
     7
100
AcDbLine
 10
3066.96454546324
 20
1631.333498062057
 30
0.0
 11
3081.938545463242
 21
1627.321498062057
 31
0.0
  0
LINE
  5
FF3
330
1F
100
AcDbEntity
  8
TEXT
  6
Continuous
 62
     7
100
AcDbLine
 10
3065.41154546324
 20
1625.537498062057
 30
0.0
 11
3080.385545463242
 21
1621.525498062057
 31
0.0
  0
LINE
  5
FF4
330
1F
100
AcDbEntity
  8
TEXT
  6
Continuous
 62
     7
100
AcDbLine
 10
3072.559545463241
 20
1679.828498062056
 30
0.0
 11
3088.061545463242
 21
1679.828498062056
 31
0.0
  0
LINE
  5
FF5
330
1F
100
AcDbEntity
  8
TEXT
  6
Continuous
 62
     7
100
AcDbLine
 10
3072.559545463241
 20
1673.828498062056
 30
0.0
 11
3088.061545463242
 21
1673.828498062056
 31
0.0
  0
LINE
  5
FF6
330
1F
100
AcDbEntity
  8
TEXT
  6
Continuous
 62
     7
100
AcDbLine
 10
3065.41154546324
 20
1728.119498062056
 30
0.0
 11
3080.385545463242
 21
1732.131498062056
 31
0.0
  0
LINE
  5
FF7
330
1F
100
AcDbEntity
  8
TEXT
  6
Continuous
 62
     7
100
AcDbLine
 10
3066.96454546324
 20
1722.323498062056
 30
0.0
 11
3081.938545463242
 21
1726.335498062056
 31
0.0
  0
LINE
  5
FF8
330
1F
100
AcDbEntity
  8
TEXT
  6
Continuous
 62
     7
100
AcDbLine
 10
3046.009545463242
 20
1772.914498062055
 30
0.0
 11
3059.434545463242
 21
1780.665498062056
 31
0.0
  0
LINE
  5
FF9
330
1F
100
AcDbEntity
  8
TEXT
  6
Continuous
 62
     7
100
AcDbLine
 10
3049.009545463242
 20
1767.717498062056
 30
0.0
 11
3062.434545463241
 21
1775.469498062056
 31
0.0
  0
LINE
  5
FFA
330
1F
100
AcDbEntity
  8
TEXT
  6
Continuous
 62
     7
100
AcDbLine
 10
3015.674545463243
 20
1811.161498062057
 30
0.0
 11
3026.635545463242
 21
1822.123498062056
 31
0.0
  0
LINE
  5
FFB
330
1F
100
AcDbEntity
  8
TEXT
  6
Continuous
 62
     7
100
AcDbLine
 10
3019.916545463245
 20
1806.918498062056
 30
0.0
 11
3030.877545463241
 21
1817.880498062056
 31
0.0
  0
LINE
  5
FFC
330
1F
100
AcDbEntity
  8
TEXT
  6
Continuous
 62
     7
100
AcDbLine
 10
2976.473545463242
 20
1840.254498062056
 30
0.0
 11
2984.223545463242
 21
1853.680498062056
 31
0.0
  0
LINE
  5
FFD
330
1F
100
AcDbEntity
  8
TEXT
  6
Continuous
 62
     7
100
AcDbLine
 10
2981.668545463242
 20
1837.254498062056
 30
0.0
 11
2989.418545463242
 21
1850.679498062057
 31
0.0
  0
LINE
  5
FFE
330
1F
100
AcDbEntity
  8
TEXT
  6
Continuous
 62
     7
100
AcDbLine
 10
2931.077545463245
 20
1858.210498062056
 30
0.0
 11
2935.08954546324
 21
1873.183498062056
 31
0.0
  0
LINE
  5
FFF
330
1F
100
AcDbEntity
  8
TEXT
  6
Continuous
 62
     7
100
AcDbLine
 10
2936.872545463243
 20
1856.656498062056
 30
0.0
 11
2940.884545463242
 21
1871.630498062056
 31
0.0
  0
LINE
  5
1000
330
1F
100
AcDbEntity
  8
TEXT
  6
Continuous
 62
     7
100
AcDbLine
 10
2882.582545463242
 20
1863.805498062056
 30
0.0
 11
2882.582545463242
 21
1879.306498062057
 31
0.0
  0
LINE
  5
1001
330
1F
100
AcDbEntity
  8
TEXT
  6
Continuous
 62
     7
100
AcDbLine
 10
2888.582545463243
 20
1863.804498062057
 30
0.0
 11
2888.582545463243
 21
1879.305498062056
 31
0.0
  0
LINE
  5
1002
330
1F
100
AcDbEntity
  8
TEXT
  6
Continuous
 62
     7
100
AcDbLine
 10
2834.291545463245
 20
1856.658498062056
 30
0.0
 11
2830.279545463243
 21
1871.631498062056
 31
0.0
  0
LINE
  5
1003
330
1F
100
AcDbEntity
  8
TEXT
  6
Continuous
 62
     7
100
AcDbLine
 10
2840.087545463243
 20
1858.210498062056
 30
0.0
 11
2836.075545463245
 21
1873.183498062056
 31
0.0
  0
LINE
  5
1004
330
1F
100
AcDbEntity
  8
TEXT
  6
Continuous
 62
     7
100
AcDbLine
 10
2789.495545463243
 20
1837.254498062056
 30
0.0
 11
2781.745545463243
 21
1850.679498062057
 31
0.0
  0
LINE
  5
1005
330
1F
100
AcDbEntity
  8
TEXT
  6
Continuous
 62
     7
100
AcDbLine
 10
2794.692545463243
 20
1840.254498062056
 30
0.0
 11
2786.942545463243
 21
1853.679498062057
 31
0.0
  0
LINE
  5
1006
330
1F
100
AcDbEntity
  8
TEXT
  6
Continuous
 62
     7
100
AcDbLine
 10
2751.24854546324
 20
1806.919498062057
 30
0.0
 11
2740.287545463244
 21
1817.880498062056
 31
0.0
  0
LINE
  5
1007
330
1F
100
AcDbEntity
  8
TEXT
  6
Continuous
 62
     7
100
AcDbLine
 10
2755.491545463242
 20
1811.161498062057
 30
0.0
 11
2744.530545463243
 21
1822.122498062056
 31
0.0
  0
LINE
  5
1008
330
1F
100
AcDbEntity
  8
TEXT
  6
Continuous
 62
     7
100
AcDbLine
 10
2722.155545463243
 20
1767.718498062056
 30
0.0
 11
2708.73154546324
 21
1775.469498062056
 31
0.0
  0
LINE
  5
1009
330
1F
100
AcDbEntity
  8
TEXT
  6
Continuous
 62
     7
100
AcDbLine
 10
2725.156545463243
 20
1772.914498062055
 30
0.0
 11
2711.732545463244
 21
1780.664498062056
 31
0.0
  0
LINE
  5
100A
330
1F
100
AcDbEntity
  8
TEXT
  6
Continuous
 62
     7
100
AcDbLine
 10
2704.199545463241
 20
1722.323498062056
 30
0.0
 11
2689.226545463243
 21
1726.335498062056
 31
0.0
  0
LINE
  5
100B
330
1F
100
AcDbEntity
  8
TEXT
  6
Continuous
 62
     7
100
AcDbLine
 10
2705.753545463244
 20
1728.119498062056
 30
0.0
 11
2690.779545463243
 21
1732.131498062056
 31
0.0
  0
LINE
  5
100C
330
1F
100
AcDbEntity
  8
TEXT
  6
Continuous
 62
     7
100
AcDbLine
 10
2698.607545463244
 20
1673.827498062056
 30
0.0
 11
2683.105545463244
 21
1673.827498062056
 31
0.0
  0
LINE
  5
100D
330
1F
100
AcDbEntity
  8
TEXT
  6
Continuous
 62
     7
100
AcDbLine
 10
2698.607545463244
 20
1679.827498062056
 30
0.0
 11
2683.105545463244
 21
1679.827498062056
 31
0.0
  0
CIRCLE
  5
100E
330
1F
100
AcDbEntity
  8
TEXT
  6
Continuous
 62
     7
100
AcDbCircle
 10
2885.582545463242
 20
1676.827498062056
 30
0.0
 40
174.0
  0
CIRCLE
  5
100F
330
1F
100
AcDbEntity
  8
TEXT
  6
Continuous
 62
     7
100
AcDbCircle
 10
2885.582545463242
 20
1676.827498062056
 30
0.0
 40
187.0
  0
CIRCLE
  5
1010
330
1F
100
AcDbEntity
  8
TEXT
  6
Continuous
 62
     7
100
AcDbCircle
 10
2885.582545463242
 20
1676.827498062056
 30
0.0
 40
202.5
  0
ARC
  5
1011
330
1F
100
AcDbEntity
  8
TEXT
  6
Continuous
 62
     7
100
AcDbCircle
 10
2885.582545463242
 20
1676.827498062056
 30
0.0
 40
194.0
100
AcDbArc
 50
150.8860000000265
 51
164.1140000000381
  0
ARC
  5
1012
330
1F
100
AcDbEntity
  8
TEXT
  6
Continuous
 62
     7
100
AcDbCircle
 10
2885.582545463242
 20
1676.827498062056
 30
0.0
 40
194.0
100
AcDbArc
 50
135.8860000000315
 51
149.1140000000266
  0
ARC
  5
1013
330
1F
100
AcDbEntity
  8
TEXT
  6
Continuous
 62
     7
100
AcDbCircle
 10
2885.582545463242
 20
1676.827498062056
 30
0.0
 40
194.0
100
AcDbArc
 50
120.8860000000493
 51
134.1139999999684
  0
ARC
  5
1014
330
1F
100
AcDbEntity
  8
TEXT
  6
Continuous
 62
     7
100
AcDbCircle
 10
2885.582545463242
 20
1676.827498062056
 30
0.0
 40
194.0
100
AcDbArc
 50
105.8859999999743
 51
119.1139999999911
  0
ARC
  5
1015
330
1F
100
AcDbEntity
  8
TEXT
  6
Continuous
 62
     7
100
AcDbCircle
 10
2885.582545463242
 20
1676.827498062056
 30
0.0
 40
194.0
100
AcDbArc
 50
90.88600000001317
 51
104.1140000000029
  0
ARC
  5
1016
330
1F
100
AcDbEntity
  8
TEXT
  6
Continuous
 62
     7
100
AcDbCircle
 10
2885.582545463242
 20
1676.827498062056
 30
0.0
 40
194.0
100
AcDbArc
 50
165.8859999999845
 51
179.1139999999868
  0
ARC
  5
1017
330
1F
100
AcDbEntity
  8
TEXT
  6
Continuous
 62
     7
100
AcDbCircle
 10
2885.582545463242
 20
1676.827498062056
 30
0.0
 40
194.0
100
AcDbArc
 50
75.88599999999711
 51
89.11399999998684
  0
ARC
  5
1018
330
1F
100
AcDbEntity
  8
TEXT
  6
Continuous
 62
     7
100
AcDbCircle
 10
2885.582545463242
 20
1676.827498062056
 30
0.0
 40
194.0
100
AcDbArc
 50
60.88600000000885
 51
74.11400000002565
  0
ARC
  5
1019
330
1F
100
AcDbEntity
  8
TEXT
  6
Continuous
 62
     7
100
AcDbCircle
 10
2885.582545463242
 20
1676.827498062056
 30
0.0
 40
194.0
100
AcDbArc
 50
45.88600000003159
 51
59.11399999995065
  0
ARC
  5
101A
330
1F
100
AcDbEntity
  8
TEXT
  6
Continuous
 62
     7
100
AcDbCircle
 10
2885.582545463242
 20
1676.827498062056
 30
0.0
 40
194.0
100
AcDbArc
 50
30.88599999997339
 51
44.11399999996842
  0
ARC
  5
101B
330
1F
100
AcDbEntity
  8
TEXT
  6
Continuous
 62
     7
100
AcDbCircle
 10
2885.582545463242
 20
1676.827498062056
 30
0.0
 40
194.0
100
AcDbArc
 50
15.88599999996181
 51
29.11399999997343
  0
ARC
  5
101C
330
1F
100
AcDbEntity
  8
TEXT
  6
Continuous
 62
     7
100
AcDbCircle
 10
2885.582545463242
 20
1676.827498062056
 30
0.0
 40
194.0
100
AcDbArc
 50
0.8859999999610728
 51
14.11400000001553
  0
ARC
  5
101D
330
1F
100
AcDbEntity
  8
TEXT
  6
Continuous
 62
     7
100
AcDbCircle
 10
2885.582545463242
 20
1676.827498062056
 30
0.0
 40
194.0
100
AcDbArc
 50
345.8859999999845
 51
359.1139999999868
  0
ARC
  5
101E
330
1F
100
AcDbEntity
  8
TEXT
  6
Continuous
 62
     7
100
AcDbCircle
 10
2885.582545463242
 20
1676.827498062056
 30
0.0
 40
194.0
100
AcDbArc
 50
255.8859999999971
 51
269.1139999999868
  0
ARC
  5
101F
330
1F
100
AcDbEntity
  8
TEXT
  6
Continuous
 62
     7
100
AcDbCircle
 10
2885.582545463242
 20
1676.827498062056
 30
0.0
 40
194.0
100
AcDbArc
 50
270.8860000000132
 51
284.1140000000029
  0
ARC
  5
1020
330
1F
100
AcDbEntity
  8
TEXT
  6
Continuous
 62
     7
100
AcDbCircle
 10
2885.582545463242
 20
1676.827498062056
 30
0.0
 40
194.0
100
AcDbArc
 50
285.8859999999743
 51
299.1139999999912
  0
ARC
  5
1021
330
1F
100
AcDbEntity
  8
TEXT
  6
Continuous
 62
     7
100
AcDbCircle
 10
2885.582545463242
 20
1676.827498062056
 30
0.0
 40
194.0
100
AcDbArc
 50
300.8860000000493
 51
314.1139999999684
  0
ARC
  5
1022
330
1F
100
AcDbEntity
  8
TEXT
  6
Continuous
 62
     7
100
AcDbCircle
 10
2885.582545463242
 20
1676.827498062056
 30
0.0
 40
194.0
100
AcDbArc
 50
315.8860000000316
 51
329.1140000000266
  0
ARC
  5
1023
330
1F
100
AcDbEntity
  8
TEXT
  6
Continuous
 62
     7
100
AcDbCircle
 10
2885.582545463242
 20
1676.827498062056
 30
0.0
 40
194.0
100
AcDbArc
 50
330.8860000000266
 51
344.1140000000382
  0
ARC
  5
1024
330
1F
100
AcDbEntity
  8
TEXT
  6
Continuous
 62
     7
100
AcDbCircle
 10
2885.582545463242
 20
1676.827498062056
 30
0.0
 40
194.0
100
AcDbArc
 50
240.8860000000089
 51
254.1140000000257
  0
ARC
  5
1025
330
1F
100
AcDbEntity
  8
TEXT
  6
Continuous
 62
     7
100
AcDbCircle
 10
2885.582545463242
 20
1676.827498062056
 30
0.0
 40
194.0
100
AcDbArc
 50
225.8860000000316
 51
239.1139999999506
  0
ARC
  5
1026
330
1F
100
AcDbEntity
  8
TEXT
  6
Continuous
 62
     7
100
AcDbCircle
 10
2885.582545463242
 20
1676.827498062056
 30
0.0
 40
194.0
100
AcDbArc
 50
210.8859999999734
 51
224.1139999999684
  0
ARC
  5
1027
330
1F
100
AcDbEntity
  8
TEXT
  6
Continuous
 62
     7
100
AcDbCircle
 10
2885.582545463242
 20
1676.827498062056
 30
0.0
 40
194.0
100
AcDbArc
 50
195.8859999999618
 51
209.1139999999734
  0
ARC
  5
1028
330
1F
100
AcDbEntity
  8
TEXT
  6
Continuous
 62
     7
100
AcDbCircle
 10
2885.582545463242
 20
1676.827498062056
 30
0.0
 40
194.0
100
AcDbArc
 50
180.8859999999611
 51
194.1140000000155
  0
LINE
  5
1029
330
1F
100
AcDbEntity
  8
AM_7
100
AcDbLine
 10
2885.582545463242
 20
1891.547498062056
 30
0.0
 11
2885.582545463242
 21
1464.454498062057
 31
0.0
  0
LINE
  5
102A
330
1F
100
AcDbEntity
  8
0
 62
     9
100
AcDbLine
 10
2989.582046740349
 20
1398.738475904381
 30
0.0
 11
2539.582045463244
 21
1398.738475894056
 31
0.0
  0
LINE
  5
102B
330
1F
100
AcDbEntity
  8
0
 62
     9
100
AcDbLine
 10
2539.786101318743
 20
1374.002260379556
 30
0.0
 11
2989.786005345971
 21
1374.002259587993
 31
0.0
  0
LINE
  5
102C
330
1F
100
AcDbEntity
  8
0
100
AcDbLine
 10
2989.782760942245
 20
1337.035415175057
 30
0.0
 11
2539.785441856067
 21
1337.043444556658
 31
0.0
  0
LINE
  5
102D
330
1F
100
AcDbEntity
  8
0
100
AcDbLine
 10
2964.582045463244
 20
1326.827498062055
 30
0.0
 11
2514.582045463244
 21
1326.827498062055
 31
0.0
  0
LINE
  5
102E
330
1F
100
AcDbEntity
  8
0
100
AcDbLine
 10
2989.786928263674
 20
1331.930001424963
 30
0.0
 11
2539.784911263635
 21
1332.049582881624
 31
0.0
  0
LINE
  5
102F
330
1F
100
AcDbEntity
  8
0
 62
     9
100
AcDbLine
 10
2989.582046740349
 20
1954.91652021973
 30
0.0
 11
2539.582045463244
 21
1954.916520230055
 31
0.0
  0
LINE
  5
1030
330
1F
100
AcDbEntity
  8
0
 62
     9
100
AcDbLine
 10
2539.786101318743
 20
1979.652735744555
 30
0.0
 11
2989.786005345971
 21
1979.652736536118
 31
0.0
  0
LINE
  5
1031
330
1F
100
AcDbEntity
  8
0
100
AcDbLine
 10
2989.782760942245
 20
2016.619580949054
 30
0.0
 11
2539.785441856067
 21
2016.611551567454
 31
0.0
  0
LINE
  5
1032
330
1F
100
AcDbEntity
  8
0
100
AcDbLine
 10
2964.582045463244
 20
2026.827498062056
 30
0.0
 11
2514.582045463244
 21
2026.827498062056
 31
0.0
  0
LINE
  5
1033
330
1F
100
AcDbEntity
  8
0
100
AcDbLine
 10
2989.786928263674
 20
2021.724994699148
 30
0.0
 11
2539.784911263635
 21
2021.605413242488
 31
0.0
  0
LINE
  5
1034
330
1F
100
AcDbEntity
  8
AM_7
100
AcDbLine
 10
1429.582045463242
 20
1676.827498062056
 30
0.0
 11
3739.082045463243
 21
1676.827498062056
 31
0.0
1001
GENIUS_GENOBJ-N-CEN_13
1002
{
1000
OWNER
1000
GEN
1002
}
1001
GENIUS_GENODEF_13
1002
{
1000
HIER
1070
     0
1002
}
1002
{
1000
MANEDIT
1070
     0
1002
}
1002
{
1000
NOSEL
1070
     0
1002
}
1002
{
1000
BEHIND
1070
     0
1002
}
1002
{
1000
OTHER
1070
     0
1002
}
1002
{
1000
REACTOR
1002
}
1001
GENIUS_GENCEN_19
1002
{
1040
30.0
1002
}
  0
LINE
  5
1035
330
1F
100
AcDbEntity
  8
0
100
AcDbLine
 10
2174.582045463244
 20
1326.827498062057
 30
0.0
 11
2509.582045463244
 21
1326.827498062056
 31
0.0
  0
LINE
  5
1036
330
1F
100
AcDbEntity
  8
0
100
AcDbLine
 10
2149.030824826358
 20
1332.107093640688
 30
0.0
 11
2484.035085679242
 21
1332.107000388057
 31
0.0
  0
LINE
  5
1037
330
1F
100
AcDbEntity
  8
0
100
AcDbLine
 10
2149.04072204024
 20
1337.210880261057
 30
0.0
 11
2484.020234556744
 21
1337.211342016057
 31
0.0
  0
LINE
  5
1038
330
1F
100
AcDbEntity
  8
0
 62
     9
100
AcDbLine
 10
2149.020272867637
 20
1374.18864132112
 30
0.0
 11
2484.019542778956
 21
1374.313252348329
 31
0.0
  0
LINE
  5
1039
330
1F
100
AcDbEntity
  8
0
 62
     9
100
AcDbLine
 10
2149.582045463941
 20
1398.919318794938
 30
0.0
 11
2484.582045463244
 21
1398.919318795057
 31
0.0
  0
LINE
  5
103A
330
1F
100
AcDbEntity
  8
0
100
AcDbLine
 10
2174.582045463244
 20
2026.827498062056
 30
0.0
 11
2509.582045463244
 21
2026.827498062057
 31
0.0
  0
LINE
  5
103B
330
1F
100
AcDbEntity
  8
0
100
AcDbLine
 10
2149.030824826358
 20
2021.547902483425
 30
0.0
 11
2484.035085679242
 21
2021.547995736057
 31
0.0
  0
LINE
  5
103C
330
1F
100
AcDbEntity
  8
0
100
AcDbLine
 10
2149.04072204024
 20
2016.444115863056
 30
0.0
 11
2484.020234556744
 21
2016.443654108056
 31
0.0
  0
LINE
  5
103D
330
1F
100
AcDbEntity
  8
0
 62
     9
100
AcDbLine
 10
2149.020272867637
 20
1979.466354802993
 30
0.0
 11
2484.019542778956
 21
1979.341743775784
 31
0.0
  0
LINE
  5
103E
330
1F
100
AcDbEntity
  8
0
 62
     9
100
AcDbLine
 10
2149.582045463941
 20
1954.735677329175
 30
0.0
 11
2484.582045463244
 21
1954.735677329056
 31
0.0
  0
ENDSEC
  0
SECTION
  2
OBJECTS
  0
DICTIONARY
  5
C
330
0
100
AcDbDictionary
281
     1
  3
ACAD_COLOR
350
D7
  3
ACAD_GROUP
350
D
  3
ACAD_LAYOUT
350
1A
  3
ACAD_MATERIAL
350
D6
  3
ACAD_MLINESTYLE
350
17
  3
ACAD_PLOTSETTINGS
350
19
  3
ACAD_PLOTSTYLENAME
350
E
  3
ACAD_TABLESTYLE
350
133
  3
ACDBHEADERROUNDTRIPXREC
350
10EB
  3
AcDbVariableDictionary
350
34
  3
AcmDictionary
350
49
  3
AMG
350
2B
  3
AMGSNAPSETTINGS
350
2C4
  3
DWGPROPS
350
10EA
  0
DICTIONARY
  5
C0
330
2
100
AcDbDictionary
280
     1
281
     1
  3
ACAD_LAYERSTATES
360
3C9
  3
AMLAYER_GROUPCOLORS
360
C1
  0
DICTIONARY
  5
83
330
1F
100
AcDbDictionary
280
     1
281
     1
  0
DICTIONARY
  5
D7
102
{ACAD_REACTORS
330
C
102
}
330
C
100
AcDbDictionary
281
     1
  0
DICTIONARY
  5
D
102
{ACAD_REACTORS
330
C
102
}
330
C
100
AcDbDictionary
281
     1
  0
DICTIONARY
  5
1A
102
{ACAD_REACTORS
330
C
102
}
330
C
100
AcDbDictionary
281
     1
  3
Layout1
350
1E
  3
Layout2
350
26
  3
Model
350
22
  0
DICTIONARY
  5
D6
102
{ACAD_REACTORS
330
C
102
}
330
C
100
AcDbDictionary
281
     1
  0
DICTIONARY
  5
17
102
{ACAD_REACTORS
330
C
102
}
330
C
100
AcDbDictionary
281
     1
  3
Standard
350
18
  0
DICTIONARY
  5
19
102
{ACAD_REACTORS
330
C
102
}
330
C
100
AcDbDictionary
281
     1
  0
ACDBDICTIONARYWDFLT
  5
E
102
{ACAD_REACTORS
330
C
102
}
330
C
100
AcDbDictionary
281
     1
  3
Normal
350
F
100
AcDbDictionaryWithDefault
340
F
  0
DICTIONARY
  5
133
102
{ACAD_REACTORS
330
C
102
}
330
C
100
AcDbDictionary
281
     1
  3
Standard
350
134
  0
DICTIONARY
  5
10EB
102
{ACAD_REACTORS
330
C
102
}
330
C
100
AcDbDictionary
281
     1
  0
DICTIONARY
  5
34
102
{ACAD_REACTORS
330
C
102
}
330
C
100
AcDbDictionary
281
     1
  3
CTABLESTYLE
350
152
  3
DIMASSOC
350
AD
  3
INDEXCTL
350
35
  3
PROJECTNAME
350
10E8
  0
DICTIONARY
  5
49
102
{ACAD_REACTORS
330
C
102
}
330
C
100
AcDbDictionary
281
     1
  3
AcmBOM
350
2CB
  3
AcmStdDictionary
350
4A
  3
AMDTSECTSYM_ARROWCOLOR
350
13D
  0
DICTIONARY
  5
2B
102
{ACAD_REACTORS
330
C
102
}
330
C
100
AcDbDictionary
281
     1
  0
DICTIONARY
  5
2C4
102
{ACAD_REACTORS
330
C
102
}
330
C
100
AcDbDictionary
281
     1
  0
XRECORD
  5
10EA
102
{ACAD_REACTORS
330
C
102
}
330
C
100
AcDbXrecord
280
     1
  1
DWGPROPS COOKIE
  2

  3

  4

  6

  7

  8

  9

300
AmdtFileType=84
301
=
302
=
303
=
304
=
305
=
306
=
307
=
308
=
309
=
 40
0.0001906134259259
 41
2454026.52803566
 42
2454026.528226088
  1

 90
        1
  0
DICTIONARY
  5
3C9
102
{ACAD_REACTORS
330
C0
102
}
330
C0
100
AcDbDictionary
281
     1
  0
DICTIONARY
  5
C1
102
{ACAD_REACTORS
330
C0
102
}
330
C0
100
AcDbDictionary
280
     1
281
     1
  0
LAYOUT
  5
1E
102
{ACAD_XDICTIONARY
360
10EC
102
}
102
{ACAD_REACTORS
330
1A
102
}
330
1A
100
AcDbPlotSettings
  1

  2
none_device
  4
Letter_(8.50_x_11.00_Inches)
  6

 40
6.349999904632568
 41
6.349999904632568
 42
6.350006103515625
 43
6.350006103515625
 44
215.8999938964844
 45
279.3999938964844
 46
0.0
 47
0.0
 48
0.0
 49
0.0
140
0.0
141
0.0
142
1.0
143
1.0
 70
 15024
 72
     1
 73
     1
 74
     5
  7

 75
    16
147
1.0
148
0.0
149
0.0
100
AcDbLayout
  1
Layout1
 70
     1
 71
     1
 10
0.0
 20
0.0
 11
420.0
 21
297.0
 12
0.0
 22
0.0
 32
0.0
 14
1.000000000000000E+20
 24
1.000000000000000E+20
 34
1.000000000000000E+20
 15
-1.000000000000000E+20
 25
-1.000000000000000E+20
 35
-1.000000000000000E+20
146
0.0
 13
0.0
 23
0.0
 33
0.0
 16
1.0
 26
0.0
 36
0.0
 17
0.0
 27
1.0
 37
0.0
 76
     0
330
1B
  0
LAYOUT
  5
26
102
{ACAD_XDICTIONARY
360
10F0
102
}
102
{ACAD_REACTORS
330
1A
102
}
330
1A
100
AcDbPlotSettings
  1

  2
none_device
  4
Letter_(8.50_x_11.00_Inches)
  6

 40
6.349999904632568
 41
6.349999904632568
 42
6.350006103515625
 43
6.350006103515625
 44
215.8999938964844
 45
279.3999938964844
 46
0.0
 47
0.0
 48
0.0
 49
0.0
140
0.0
141
0.0
142
1.0
143
1.0
 70
 15024
 72
     1
 73
     1
 74
     5
  7

 75
    16
147
1.0
148
0.0
149
0.0
100
AcDbLayout
  1
Layout2
 70
     1
 71
     2
 10
0.0
 20
0.0
 11
12.0
 21
9.0
 12
0.0
 22
0.0
 32
0.0
 14
0.0
 24
0.0
 34
0.0
 15
0.0
 25
0.0
 35
0.0
146
0.0
 13
0.0
 23
0.0
 33
0.0
 16
1.0
 26
0.0
 36
0.0
 17
0.0
 27
1.0
 37
0.0
 76
     0
330
23
  0
LAYOUT
  5
22
102
{ACAD_XDICTIONARY
360
10EE
102
}
102
{ACAD_REACTORS
330
1A
102
}
330
1A
100
AcDbPlotSettings
  1

  2
none_device
  4
Letter_(8.50_x_11.00_Inches)
  6

 40
6.349999904632568
 41
6.349999904632568
 42
6.350006103515625
 43
6.350006103515625
 44
215.8999938964844
 45
279.3999938964844
 46
0.0
 47
0.0
 48
0.0
 49
0.0
140
0.0
141
0.0
142
1.0
143
1.0
 70
 11952
 72
     1
 73
     1
 74
     0
  7

 75
     0
147
1.0
148
-131.3052631578947
149
0.0
100
AcDbLayout
  1
Model
 70
     1
 71
     0
 10
0.0
 20
0.0
 11
12.0
 21
9.0
 12
0.0
 22
0.0
 32
0.0
 14
0.0
 24
0.0
 34
0.0
 15
0.0
 25
0.0
 35
0.0
146
0.0
 13
0.0
 23
0.0
 33
0.0
 16
1.0
 26
0.0
 36
0.0
 17
0.0
 27
1.0
 37
0.0
 76
     0
330
1F
  0
MLINESTYLE
  5
18
102
{ACAD_REACTORS
330
17
102
}
330
17
100
AcDbMlineStyle
  2
STANDARD
 70
     0
  3

 62
   256
 51
90.0
 52
90.0
 71
     2
 49
0.5
 62
   256
  6
BYLAYER
 49
-0.5
 62
   256
  6
BYLAYER
  0
ACDBPLACEHOLDER
  5
F
102
{ACAD_REACTORS
330
E
102
}
330
E
  0
TABLESTYLE
  5
134
102
{ACAD_REACTORS
330
133
102
}
330
133
100
AcDbTableStyle
  3
Standard
 70
     0
 71
     0
 40
1.5
 41
1.5
280
     0
281
     0
  7
STANDARD
140
4.5
170
     2
 62
     0
 63
     7
283
     0
274
    -2
284
     1
 64
     0
275
    -2
285
     1
 65
     0
276
    -2
286
     1
 66
     0
277
    -2
287
     1
 67
     0
278
    -2
288
     1
 68
     0
279
    -2
289
     1
 69
     0
  7
STANDARD
140
6.0
170
     5
 62
     0
 63
     7
283
     0
274
    -2
284
     1
 64
     0
275
    -2
285
     1
 65
     0
276
    -2
286
     1
 66
     0
277
    -2
287
     1
 67
     0
278
    -2
288
     1
 68
     0
279
    -2
289
     1
 69
     0
  7
STANDARD
140
4.5
170
     5
 62
     0
 63
     7
283
     0
274
    -2
284
     1
 64
     0
275
    -2
285
     1
 65
     0
276
    -2
286
     1
 66
     0
277
    -2
287
     1
 67
     0
278
    -2
288
     1
 68
     0
279
    -2
289
     1
 69
     0
  0
DICTIONARYVAR
  5
152
102
{ACAD_REACTORS
330
34
102
}
330
34
100
DictionaryVariables
280
     0
  1
STANDARD
  0
DICTIONARYVAR
  5
AD
102
{ACAD_REACTORS
330
34
102
}
330
34
100
DictionaryVariables
280
     0
  1
2
  0
DICTIONARYVAR
  5
35
102
{ACAD_REACTORS
330
34
102
}
330
34
100
DictionaryVariables
280
     0
  1
0
  0
DICTIONARYVAR
  5
10E8
102
{ACAD_REACTORS
330
34
102
}
330
34
100
DictionaryVariables
280
     0
  1

  0
DICTIONARY
  5
2CB
102
{ACAD_REACTORS
330
49
102
}
330
49
100
AcDbDictionary
281
     1
  0
DICTIONARY
  5
4A
102
{ACAD_REACTORS
330
49
102
}
330
49
100
AcDbDictionary
281
     1
  0
XRECORD
  5
13D
102
{ACAD_REACTORS
330
49
102
}
330
49
100
AcDbXrecord
280
     1
 90
-1023410169
  0
DICTIONARY
  5
10EC
330
1E
100
AcDbDictionary
280
     1
281
     1
  3
ACAD_XREC_ROUNDTRIP
360
10ED
  0
DICTIONARY
  5
10F0
330
26
100
AcDbDictionary
280
     1
281
     1
  3
ACAD_XREC_ROUNDTRIP
360
10F1
  0
DICTIONARY
  5
10EE
330
22
100
AcDbDictionary
280
     1
281
     1
  3
ACAD_XREC_ROUNDTRIP
360
10EF
  0
XRECORD
  5
10ED
102
{ACAD_REACTORS
330
10EC
102
}
330
10EC
100
AcDbXrecord
280
     1
102
SHADEPLOT
 70
     0
102
SHADEPLOTRESLEVEL
 70
     2
102
SHADEPLOTCUSTOMDPI
 70
   300
  0
XRECORD
  5
10F1
102
{ACAD_REACTORS
330
10F0
102
}
330
10F0
100
AcDbXrecord
280
     1
102
SHADEPLOT
 70
     0
102
SHADEPLOTRESLEVEL
 70
     2
102
SHADEPLOTCUSTOMDPI
 70
   300
  0
XRECORD
  5
10EF
102
{ACAD_REACTORS
330
10EE
102
}
330
10EE
100
AcDbXrecord
280
     1
102
SHADEPLOT
 70
     0
102
SHADEPLOTRESLEVEL
 70
     2
102
SHADEPLOTCUSTOMDPI
 70
   300
  0
ENDSEC
  0
EOF
