  0
SECTION
  2
HEADER
  9
$ACADVER
  1
AC1015
  9
$ACADMAINTVER
 70
    20
  9
$DWGCODEPAGE
  3
ANSI_1252
  9
$INSBASE
 10
0.0
 20
0.0
 30
0.0
  9
$EXTMIN
 10
249.9568176022563
 20
-0.0147459523077487
 30
-0.0015258207003583
  9
$EXTMAX
 10
1306.972136042231
 20
483.1484903587099
 30
0.0000000349246037
  9
$LIMMIN
 10
0.0
 20
0.0
  9
$LIMMAX
 10
420.0
 20
297.0
  9
$ORTHOMODE
 70
     1
  9
$REGENMODE
 70
     1
  9
$FILLMODE
 70
     1
  9
$QTEXTMODE
 70
     0
  9
$MIRRTEXT
 70
     1
  9
$LTSCALE
 40
1.0
  9
$ATTMODE
 70
     1
  9
$TEXTSIZE
 40
2.5
  9
$TRACEWID
 40
1.0
  9
$TEXTSTYLE
  7
STANDARD
  9
$CLAYER
  8
0
  9
$CELTYPE
  6
ByLayer
  9
$CECOLOR
 62
   256
  9
$CELTSCALE
 40
1.0
  9
$DISPSILH
 70
     0
  9
$DIMSCALE
 40
1.0
  9
$DIMASZ
 40
3.5
  9
$DIMEXO
 40
1.0
  9
$DIMDLI
 40
10.0
  9
$DIMRND
 40
0.0
  9
$DIMDLE
 40
0.0
  9
$DIMEXE
 40
1.0
  9
$DIMTP
 40
0.1
  9
$DIMTM
 40
0.1
  9
$DIMTXT
 40
3.5
  9
$DIMCEN
 40
0.0
  9
$DIMTSZ
 40
0.0
  9
$DIMTOL
 70
     0
  9
$DIMLIM
 70
     0
  9
$DIMTIH
 70
     0
  9
$DIMTOH
 70
     0
  9
$DIMSE1
 70
     0
  9
$DIMSE2
 70
     0
  9
$DIMTAD
 70
     1
  9
$DIMZIN
 70
     8
  9
$DIMBLK
  1

  9
$DIMASO
 70
     1
  9
$DIMSHO
 70
     1
  9
$DIMPOST
  1

  9
$DIMAPOST
  1
"
  9
$DIMALT
 70
     0
  9
$DIMALTD
 70
     2
  9
$DIMALTF
 40
0.0393701
  9
$DIMLFAC
 40
1.0
  9
$DIMTOFL
 70
     1
  9
$DIMTVP
 40
0.0
  9
$DIMTIX
 70
     0
  9
$DIMSOXD
 70
     0
  9
$DIMSAH
 70
     0
  9
$DIMBLK1
  1

  9
$DIMBLK2
  1

  9
$DIMSTYLE
  2
AM_ISO
  9
$DIMCLRD
 70
   256
  9
$DIMCLRE
 70
   256
  9
$DIMCLRT
 70
   140
  9
$DIMTFAC
 40
0.71
  9
$DIMGAP
 40
1.5
  9
$DIMJUST
 70
     0
  9
$DIMSD1
 70
     0
  9
$DIMSD2
 70
     0
  9
$DIMTOLJ
 70
     0
  9
$DIMTZIN
 70
     8
  9
$DIMALTZ
 70
     0
  9
$DIMALTTZ
 70
     0
  9
$DIMUPT
 70
     0
  9
$DIMDEC
 70
     2
  9
$DIMTDEC
 70
     3
  9
$DIMALTU
 70
     2
  9
$DIMALTTD
 70
     4
  9
$DIMTXSTY
  7
STANDARD
  9
$DIMAUNIT
 70
     0
  9
$DIMADEC
 70
     0
  9
$DIMALTRND
 40
0.0
  9
$DIMAZIN
 70
     2
  9
$DIMDSEP
 70
    46
  9
$DIMATFIT
 70
     3
  9
$DIMFRAC
 70
     0
  9
$DIMLDRBLK
  1

  9
$DIMLUNIT
 70
     2
  9
$DIMLWD
 70
    -1
  9
$DIMLWE
 70
    -1
  9
$DIMTMOVE
 70
     0
  9
$LUNITS
 70
     2
  9
$LUPREC
 70
     2
  9
$SKETCHINC
 40
1.0
  9
$FILLETRAD
 40
2.5
  9
$AUNITS
 70
     0
  9
$AUPREC
 70
     0
  9
$MENU
  1
.
  9
$ELEVATION
 40
0.0
  9
$PELEVATION
 40
0.0
  9
$THICKNESS
 40
0.0
  9
$LIMCHECK
 70
     0
  9
$CHAMFERA
 40
2.5
  9
$CHAMFERB
 40
2.5
  9
$CHAMFERC
 40
20.0
  9
$CHAMFERD
 40
0.0
  9
$SKPOLY
 70
     0
  9
$TDCREATE
 40
2455096.488359907
  9
$TDUCREATE
 40
2455096.405026574
  9
$TDUPDATE
 40
2455096.500603797
  9
$TDUUPDATE
 40
2455096.417270463
  9
$TDINDWG
 40
0.0122449769
  9
$TDUSRTIMER
 40
0.0122447917
  9
$USRTIMER
 70
     1
  9
$ANGBASE
 50
0.0
  9
$ANGDIR
 70
     0
  9
$PDMODE
 70
     0
  9
$PDSIZE
 40
0.0
  9
$PLINEWID
 40
0.0
  9
$SPLFRAME
 70
     0
  9
$SPLINETYPE
 70
     6
  9
$SPLINESEGS
 70
     8
  9
$HANDSEED
  5
D45
  9
$SURFTAB1
 70
     6
  9
$SURFTAB2
 70
     6
  9
$SURFTYPE
 70
     6
  9
$SURFU
 70
     6
  9
$SURFV
 70
     6
  9
$UCSBASE
  2

  9
$UCSNAME
  2

  9
$UCSORG
 10
0.0
 20
0.0
 30
0.0
  9
$UCSXDIR
 10
1.0
 20
0.0
 30
0.0
  9
$UCSYDIR
 10
0.0
 20
1.0
 30
0.0
  9
$UCSORTHOREF
  2

  9
$UCSORTHOVIEW
 70
     0
  9
$UCSORGTOP
 10
0.0
 20
0.0
 30
0.0
  9
$UCSORGBOTTOM
 10
0.0
 20
0.0
 30
0.0
  9
$UCSORGLEFT
 10
0.0
 20
0.0
 30
0.0
  9
$UCSORGRIGHT
 10
0.0
 20
0.0
 30
0.0
  9
$UCSORGFRONT
 10
0.0
 20
0.0
 30
0.0
  9
$UCSORGBACK
 10
0.0
 20
0.0
 30
0.0
  9
$PUCSBASE
  2

  9
$PUCSNAME
  2

  9
$PUCSORG
 10
0.0
 20
0.0
 30
0.0
  9
$PUCSXDIR
 10
1.0
 20
0.0
 30
0.0
  9
$PUCSYDIR
 10
0.0
 20
1.0
 30
0.0
  9
$PUCSORTHOREF
  2

  9
$PUCSORTHOVIEW
 70
     0
  9
$PUCSORGTOP
 10
0.0
 20
0.0
 30
0.0
  9
$PUCSORGBOTTOM
 10
0.0
 20
0.0
 30
0.0
  9
$PUCSORGLEFT
 10
0.0
 20
0.0
 30
0.0
  9
$PUCSORGRIGHT
 10
0.0
 20
0.0
 30
0.0
  9
$PUCSORGFRONT
 10
0.0
 20
0.0
 30
0.0
  9
$PUCSORGBACK
 10
0.0
 20
0.0
 30
0.0
  9
$USERI1
 70
     0
  9
$USERI2
 70
     0
  9
$USERI3
 70
     0
  9
$USERI4
 70
     0
  9
$USERI5
 70
     0
  9
$USERR1
 40
0.0
  9
$USERR2
 40
0.0
  9
$USERR3
 40
0.0
  9
$USERR4
 40
0.0
  9
$USERR5
 40
0.0
  9
$WORLDVIEW
 70
     1
  9
$SHADEDGE
 70
     3
  9
$SHADEDIF
 70
    70
  9
$TILEMODE
 70
     1
  9
$MAXACTVP
 70
    64
  9
$PINSBASE
 10
0.0
 20
0.0
 30
0.0
  9
$PLIMCHECK
 70
     0
  9
$PEXTMIN
 10
1.000000000000000E+20
 20
1.000000000000000E+20
 30
1.000000000000000E+20
  9
$PEXTMAX
 10
-1.000000000000000E+20
 20
-1.000000000000000E+20
 30
-1.000000000000000E+20
  9
$PLIMMIN
 10
0.0
 20
0.0
  9
$PLIMMAX
 10
420.0
 20
297.0
  9
$UNITMODE
 70
     0
  9
$VISRETAIN
 70
     1
  9
$PLINEGEN
 70
     0
  9
$PSLTSCALE
 70
     1
  9
$TREEDEPTH
 70
  3020
  9
$CMLSTYLE
  2
Standard
  9
$CMLJUST
 70
     0
  9
$CMLSCALE
 40
20.0
  9
$PROXYGRAPHICS
 70
     1
  9
$MEASUREMENT
 70
     1
  9
$CELWEIGHT
370
    -1
  9
$ENDCAPS
280
     0
  9
$JOINSTYLE
280
     0
  9
$LWDISPLAY
290
     0
  9
$INSUNITS
 70
     4
  9
$HYPERLINKBASE
  1

  9
$STYLESHEET
  1

  9
$XEDIT
290
     1
  9
$CEPSNTYPE
380
     0
  9
$PSTYLEMODE
290
     1
  9
$FINGERPRINTGUID
  2
{F193C737-A256-48F5-A262-8441A79C2B3F}
  9
$VERSIONGUID
  2
{9160BC00-3BFA-454C-A251-AEE0407C6636}
  9
$EXTNAMES
290
     1
  9
$PSVPSCALE
 40
0.0
  9
$OLESTARTUP
290
     0
  0
ENDSEC
  0
SECTION
  2
CLASSES
  0
CLASS
  1
ACDBDICTIONARYWDFLT
  2
AcDbDictionaryWithDefault
  3
ObjectDBX Classes
 90
        0
280
     0
281
     0
  0
CLASS
  1
ACDBPLACEHOLDER
  2
AcDbPlaceHolder
  3
ObjectDBX Classes
 90
        0
280
     0
281
     0
  0
CLASS
  1
LAYOUT
  2
AcDbLayout
  3
ObjectDBX Classes
 90
        0
280
     0
281
     0
  0
CLASS
  1
ACME_DOCUMENT
  2
AcMeDbDoc
  3
AcMeServices
 90
     1024
280
     0
281
     0
  0
CLASS
  1
AMGSETTINGSOBJ
  2
AmgSettingsObj
  3
"AcadM|Product Description: AutoCAD Mechanical|Company: Autodesk, Inc."
 90
     1024
280
     0
281
     0
  0
CLASS
  1
ACMESCOPE
  2
AcMeScope
  3
AcMeServices
 90
     1024
280
     0
281
     0
  0
CLASS
  1
ACMECOMMANDHISTORY
  2
AcMeCommandHistory
  3
AcMeServices
 90
     1024
280
     0
281
     0
  0
CLASS
  1
ACIMSYSVARMAN
  2
AcImSysVarManager
  3
AcMeServices
 90
     1024
280
     0
281
     0
  0
CLASS
  1
ACIMREALSYSVAR
  2
AcImRealSysVar
  3
AcMeServices
 90
     1024
280
     0
281
     0
  0
CLASS
  1
ACIMINTSYSVAR
  2
AcImIntSysVar
  3
AcMeServices
 90
     1024
280
     0
281
     0
  0
CLASS
  1
ACMEDRAWINGMAN
  2
AcMeDrawingMan
  3
AcMeServices
 90
     1024
280
     0
281
     0
  0
CLASS
  1
ACMEVIEW
  2
AcMeView
  3
AcMeServices
 90
     1024
280
     0
281
     0
  0
CLASS
  1
ACDBENTITYCACHE
  2
AcMeEntityCache
  3
AcMeServices
 90
     1024
280
     0
281
     0
  0
CLASS
  1
GSMANAGER
  2
AcMeGSManager
  3
AcMeServices
 90
     1024
280
     0
281
     0
  0
CLASS
  1
AMDTINTERNALREACTOR
  2
AmdtInternalReactor
  3
AcMeServices
 90
     1024
280
     0
281
     0
  0
CLASS
  1
ACMESTATEMGR
  2
AcMeStateMgr
  3
AcMeServices
 90
     1024
280
     0
281
     0
  0
CLASS
  1
ACGREFMASTER
  2
AcGrefMaster
  3
AcAttribServices
 90
     1024
280
     0
281
     0
  0
CLASS
  1
ACME_DATABASE
  2
AcMeDbDatabase
  3
AcMeServices
 90
     1024
280
     0
281
     0
  0
CLASS
  1
ACRFINSADJUSTERMGR
  2
AcRfInsAdjusterMgr
  3
AcMeServices
 90
     1024
280
     0
281
     0
  0
CLASS
  1
ACGREFACADMASTER
  2
AcGrefacadMaster
  3
AcGrefServices
 90
     1024
280
     0
281
     0
  0
CLASS
  1
AMIMASTER
  2
AmiMaster
  3
AmiServices
 90
     1024
280
     0
281
     0
  0
CLASS
  1
ACMDATADICTIONARY
  2
AcmDataDictionary
  3
"AcmSymBB|Product Description: AutoCAD Mechanical|Company: Autodesk, Inc."
 90
     1024
280
     0
281
     0
  0
CLASS
  1
ACMDATAENTRYBLOCK
  2
AcmDataEntryBlock
  3
AcmSymBB|Product Description: AutoCAD Mechanical|Company: Autodesk, Inc.
 90
     1024
280
     0
281
     0
  0
CLASS
  1
ACIMSTRSYSVAR
  2
AcImStrSysVar
  3
AcMeServices
 90
     1024
280
     0
281
     0
  0
CLASS
  1
ACMSTANDARDISO
  2
AcmStandardISO
  3
"Amdt_StdImp|Product Description: AutoCAD Mechanical|Company: Autodesk, Inc."
 90
     1024
280
     0
281
     0
  0
CLASS
  1
AMGOBJPROPCFG
  2
AmgObjPropCfg
  3
"AmgLay|Product Description: AutoCAD Mechanical|Company: Autodesk, Inc."
 90
     1025
280
     0
281
     0
  0
CLASS
  1
AMDTEDGESTANDARDISO
  2
AmdtEdgeStdISO
  3
"Amdt_StdImp|Product Description: AutoCAD Mechanical|Company: Autodesk, Inc."
 90
    33792
280
     0
281
     0
  0
CLASS
  1
ACMSURFSTANDARDISO
  2
AcmSurfTextStdISO
  3
"Amdt_StdImp|Product Description: AutoCAD Mechanical|Company: Autodesk, Inc."
 90
    33792
280
     0
281
     0
  0
CLASS
  1
ACMFCFSTANDARDISO
  2
AcmFCFStdISO
  3
"Amdt_StdImp|Product Description: AutoCAD Mechanical|Company: Autodesk, Inc."
 90
     1024
280
     0
281
     0
  0
CLASS
  1
ACMWELDSTANDARDISO
  2
AcmWeldingStdISO
  3
"Amdt_StdImp|Product Description: AutoCAD Mechanical|Company: Autodesk, Inc."
 90
     1024
280
     0
281
     0
  0
CLASS
  1
ACMIDSTANDARDISO
  2
AcmIdStdISO
  3
"Amdt_StdImp|Product Description: AutoCAD Mechanical|Company: Autodesk, Inc."
 90
     1024
280
     0
281
     0
  0
CLASS
  1
ACMDATUMSTANDARDISO
  2
AcmDatumStdISO
  3
"Amdt_StdImp|Product Description: AutoCAD Mechanical|Company: Autodesk, Inc."
 90
     1024
280
     0
281
     0
  0
CLASS
  1
ACMBOMSTANDARDISO
  2
AcmBOMStdISO
  3
"Amdt_StdImp|Product Description: AutoCAD Mechanical|Company: Autodesk, Inc."
 90
     1024
280
     0
281
     0
  0
CLASS
  1
ACMDETAILSTANDARDISO
  2
AmdtDetailSymStdISO
  3
"Amdt_StdImp|Product Description: AutoCAD Mechanical|Company: Autodesk, Inc."
 90
     1024
280
     0
281
     0
  0
CLASS
  1
ACMSECTIONSTANDARDISO
  2
AmdtSectionSymStdISO
  3
"Amdt_StdImp|Product Description: AutoCAD Mechanical|Company: Autodesk, Inc."
 90
    33792
280
     0
281
     0
  0
CLASS
  1
ACMCENTERLINESTANDARDISO
  2
AmdtCenterLineStdISO
  3
"Amdt_StdImp|Product Description: AutoCAD Mechanical|Company: Autodesk, Inc."
 90
     1024
280
     0
281
     0
  0
CLASS
  1
ACMNOTESTANDARDISO
  2
AmdtNoteStdISO
  3
"Amdt_StdImp|Product Description: AutoCAD Mechanical|Company: Autodesk, Inc."
 90
     1024
280
     0
281
     0
  0
CLASS
  1
ACAMGLAYSTD
  2
AcAmgLayStd
  3
"AmgLay|Product Description: AutoCAD Mechanical|Company: Autodesk, Inc."
 90
     1024
280
     0
281
     0
  0
CLASS
  1
ACAMGDIMSTD
  2
AcAmgDimStd
  3
"AmgDim|Product Description: AutoCAD Mechanical|Company: Autodesk, Inc."
 90
     1024
280
     0
281
     0
  0
CLASS
  1
ACAMGHOLECHARTSTDISO
  2
AcAmgHoleChartStdISO
  3
AmgDim|Product Description: AutoCAD Mechanical|Company: Autodesk, Inc.
 90
     1024
280
     0
281
     0
  0
CLASS
  1
ACAMGTITLESTD
  2
AcAmgTitleStd
  3
"AmgTitle|Product Description: AutoCAD Mechanical|Company: Autodesk, Inc."
 90
     4095
280
     0
281
     0
  0
CLASS
  1
LAYER_INDEX
  2
AcDbLayerIndex
  3
ObjectDBX Classes
 90
    32768
280
     0
281
     0
  0
CLASS
  1
IDBUFFER
  2
AcDbIdBuffer
  3
ObjectDBX Classes
 90
    32768
280
     0
281
     0
  0
CLASS
  1
DICTIONARYVAR
  2
AcDbDictionaryVar
  3
ObjectDBX Classes
 90
        0
280
     0
281
     0
  0
CLASS
  1
AM_DRAWING_MGR
  2
AcDmDwgMgr
  3
AcMechDwgViewMgmt
 90
     1024
280
     0
281
     0
  0
CLASS
  1
AM_DWG_DOCUMENT
  2
AcDmDwgDocument
  3
AcMechDwgViewMgmt
 90
     1024
280
     0
281
     0
  0
CLASS
  1
AM_DWG_SHEET
  2
AcDmSheet
  3
AcMechDwgViewMgmt
 90
     1024
280
     0
281
     0
  0
CLASS
  1
AM_VIEWDIMPARMAP
  2
AcDmViewDimParMap
  3
AcMechDwgViewMgmt
 90
     1024
280
     0
281
     0
  0
CLASS
  1
AM_DWGMGR_NAME
  2
AcDmDwgMgrName
  3
AcMechDwgViewMgmt
 90
     1024
280
     0
281
     0
  0
CLASS
  1
AMDTMENUSTATEMGR
  2
AmdtMenuStateMgr
  3
McadcomServices
 90
     1024
280
     0
281
     0
  0
CLASS
  1
AMDTMCOMMENUSTATE
  2
AmdtMcomMenuState
  3
McadcomServices
 90
     1024
280
     0
281
     0
  0
CLASS
  1
MAPIAMMOUDLE
  2
MApiAmModule
  3
MApiAmServices
 90
     1024
280
     0
281
     0
  0
CLASS
  1
AMDTADMENUSTATE
  2
AmdtAdMenuState
  3
DesignerServices
 90
     1024
280
     0
281
     0
  0
CLASS
  1
ADAPPL
  2
AcAdAppl
  3
DesignerServices
 90
     1024
280
     0
281
     0
  0
CLASS
  1
DEPMGR
  2
AcAdDepMgr
  3
DesignerServices
 90
     1024
280
     0
281
     0
  0
CLASS
  1
PARAMMGR
  2
AcAdParamMgr
  3
DesignerServices
 90
     1024
280
     0
281
     0
  0
CLASS
  1
PARAMSCOPE
  2
AcAdParamScope
  3
DesignerServices
 90
     1024
280
     0
281
     0
  0
CLASS
  1
NAMEDAPPL
  2
AcAdNamedAppl
  3
DesignerServices
 90
     1024
280
     0
281
     0
  0
CLASS
  1
AMDTDMMENUSTATE
  2
AmdtDmMenuState
  3
AcMechDwgViewMgmt
 90
     1024
280
     0
281
     0
  0
CLASS
  1
AMDTAMMENUSTATE
  2
AmdtAmMenuState
  3
DesignerAssemblies
 90
     1024
280
     0
281
     0
  0
CLASS
  1
ACAMPROJECT
  2
AcAmProject
  3
DesignerAssemblies
 90
     1024
280
     0
281
     0
  0
CLASS
  1
ACAMGRCOMPDEF
  2
AcAmGrCompDef
  3
DesignerAssemblies
 90
     1024
280
     0
281
     0
  0
CLASS
  1
ACCMCONTEXT
  2
AcCmContext
  3
DesignerAssemblies
 90
     1024
280
     0
281
     0
  0
CLASS
  1
ACAMCOMPDEF
  2
AcAmCompDef
  3
DesignerAssemblies
 90
     1024
280
     0
281
     0
  0
CLASS
  1
ACAMCOMPDEFMGR
  2
AcAmCompDefMgr
  3
DesignerAssemblies
 90
     1024
280
     0
281
     0
  0
CLASS
  1
AMCONTEXTMGR
  2
AcAmContextMgr
  3
DesignerAssemblies
 90
     1024
280
     0
281
     0
  0
CLASS
  1
ACAMCONTEXTMODELER
  2
AcAmContextModeler
  3
DesignerAssemblies
 90
     1024
280
     0
281
     0
  0
CLASS
  1
ACMTHREADLINESTANDARDISO
  2
AmdtThreadLineStdISO
  3
"Amdt_StdImp|Product Description: AutoCAD Mechanical|Company: Autodesk, Inc."
 90
     1024
280
     0
281
     0
  0
CLASS
  1
CATALOGSTATE
  2
AcAmCatalogState
  3
DesignerAssemblies
 90
     1024
280
     0
281
     0
  0
CLASS
  1
ACAMGRCOMPDEFSET
  2
AcAmGrCompDefSet
  3
DesignerAssemblies
 90
     1024
280
     0
281
     0
  0
CLASS
  1
AMDTBROWSERDBTAB
  2
AmdtBrowserDbTab
  3
McadcomServices
 90
     1024
280
     0
281
     0
  0
CLASS
  1
CBROWSERAPPOBJECT
  2
CBrowserAppObject
  3
McadcomServices
 90
     1024
280
     0
281
     0
  0
CLASS
  1
DM_PLACEHOLDER
  2
AcDmSelsetPlaceholder
  3
AcMechDwgViewMgmt
 90
     1024
280
     0
281
     0
  0
CLASS
  1
TABLESTYLE
  2
AcDbTableStyle
  3
ObjectDBX Classes
 90
     4095
280
     0
281
     0
  0
CLASS
  1
VAACXREFPANELOBJECT
  2
VaAcXREFPanelObject
  3
VAAC_ADDIN
 90
    32768
280
     0
281
     0
  0
CLASS
  1
VAACIMAGEINVENTORY
  2
VaAcImageInventory
  3
VAAC_ADDIN
 90
    32768
280
     0
281
     0
  0
CLASS
  1
AMDTNOTETEMPLATEDB
  2
AmdtNoteTemplateDB
  3
AcmSymBB|Product Description: AutoCAD Mechanical|Company: Autodesk, Inc.
 90
     1024
280
     0
281
     0
  0
CLASS
  1
MATERIAL
  2
AcDbMaterial
  3
ObjectDBX Classes
 90
     1153
280
     0
281
     0
  0
CLASS
  1
VISUALSTYLE
  2
AcDbVisualStyle
  3
ObjectDBX Classes
 90
     4095
280
     0
281
     0
  0
CLASS
  1
ACRFATTGENMGR
  2
AcRfAttGeneralMgr
  3
AcAttribServices
 90
     1024
280
     0
281
     0
  0
CLASS
  1
ACRFOBJATTMGR
  2
AcRfObjAttGroupMgr
  3
AcAttribServices
 90
     1024
280
     0
281
     0
  0
CLASS
  1
ACRFMCADAPIATTHOLDER
  2
AcRfMCADAPIAttHolder
  3
AcAttribServices
 90
     1024
280
     0
281
     0
  0
CLASS
  1
AMDTSYSATTR
  2
AmdtSystemAttribute
  3
AcAttribServices
 90
     1024
280
     0
281
     0
  0
CLASS
  1
ACMTAPERSTANDARDISO
  2
AcmTaperStdISO
  3
"Amdt_StdImp|Product Description: AutoCAD Mechanical|Company: Autodesk, Inc."
 90
     1024
280
     0
281
     0
  0
CLASS
  1
CAMSSTRUCTBTNSTATE
  2
StructBtnState
  3
DesignerAssemblies
 90
     1024
280
     0
281
     0
  0
CLASS
  1
SCALE
  2
AcDbScale
  3
ObjectDBX Classes
 90
     1153
280
     0
281
     0
  0
CLASS
  1
MLEADERSTYLE
  2
AcDbMLeaderStyle
  3
ACDB_MLEADERSTYLE_CLASS
 90
     4095
280
     0
281
     0
  0
CLASS
  1
ACMANOOTATIONVIEWSTANDARDISO
  2
AmdtAnViewStdISO
  3
"Amdt_StdImp|Product Description: AutoCAD Mechanical|Company: Autodesk, Inc."
 90
     1024
280
     0
281
     0
  0
CLASS
  1
ACMSURFSTANDARDISO2002
  2
AcmSurfTextStdISO2002
  3
"Amdt_StdImp|Product Description: AutoCAD Mechanical|Company: Autodesk, Inc."
 90
     1024
280
     0
281
     0
  0
CLASS
  1
CELLSTYLEMAP
  2
AcDbCellStyleMap
  3
ObjectDBX Classes
 90
     1152
280
     0
281
     0
  0
CLASS
  1
ACMSECTIONSTANDARDISO2001
  2
AmdtSectionSymStdISO2001
  3
"Amdt_StdImp|Product Description: AutoCAD Mechanical|Company: Autodesk, Inc."
 90
     1024
280
     0
281
     0
  0
CLASS
  1
EXACXREFPANELOBJECT
  2
ExAcXREFPanelObject
  3
EXAC_ESW
 90
     1025
280
     0
281
     0
  0
CLASS
  1
NPOCOLLECTION
  2
AcDbImpNonPersistentObjectsCollection
  3
ObjectDBX Classes
 90
     1153
280
     0
281
     0
  0
CLASS
  1
AMDTEDGESTANDARDISO13715
  2
AmdtEdgeStdISO13715
  3
"Amdt_StdImp|Product Description: AutoCAD Mechanical|Company: Autodesk, Inc."
 90
     1024
280
     0
281
     0
  0
CLASS
  1
ACAMGFILTERDAT
  2
AcAmgFilterDat
  3
"AcadM|Product Description: AutoCAD Mechanical|Company: Autodesk, Inc."
 90
     1024
280
     0
281
     0
  0
CLASS
  1
ACMBOM
  2
AcmBom
  3
"AcmSymBB|Product Description: AutoCAD Mechanical|Company: Autodesk, Inc."
 90
    33792
280
     0
281
     0
  0
CLASS
  1
AMDTFORMULAUPDATEDISPATCHER
  2
AmdtFormulaUpdateDispatcher
  3
AcMeServices
 90
    33792
280
     0
281
     0
  0
CLASS
  1
DIMASSOC
  2
AcDbDimAssoc
  3
"AcDbDimAssoc|Product Desc:     AcDim ARX App For Dimension|Company:          Autodesk, Inc.|WEB Address:      www.autodesk.com"
 90
        0
280
     0
281
     0
  0
CLASS
  1
ACMDIMBREAKPERSREACTOR
  2
AcmDimBreakPersReactor
  3
AmgDim|Product Description: AutoCAD Mechanical|Company: Autodesk, Inc.
 90
     4095
280
     0
281
     0
  0
CLASS
  1
ACMSTANDARDDIN
  2
AcmStandardDIN
  3
"Amdt_StdImp|Product Description: AutoCAD Mechanical|Company: Autodesk, Inc."
 90
     1024
280
     0
281
     0
  0
CLASS
  1
AMDTEDGESTANDARDDIN
  2
AmdtEdgeStdDIN
  3
"Amdt_StdImp|Product Description: AutoCAD Mechanical|Company: Autodesk, Inc."
 90
     1024
280
     0
281
     0
  0
CLASS
  1
ACMSURFSTANDARDDIN
  2
AcmSurfTextStdDIN
  3
"Amdt_StdImp|Product Description: AutoCAD Mechanical|Company: Autodesk, Inc."
 90
     1024
280
     0
281
     0
  0
CLASS
  1
ACMFCFSTANDARDDIN
  2
AcmFCFStdDIN
  3
"Amdt_StdImp|Product Description: AutoCAD Mechanical|Company: Autodesk, Inc."
 90
     1024
280
     0
281
     0
  0
CLASS
  1
ACMWELDSTANDARDDIN
  2
AcmWeldingStdDIN
  3
"Amdt_StdImp|Product Description: AutoCAD Mechanical|Company: Autodesk, Inc."
 90
     1024
280
     0
281
     0
  0
CLASS
  1
ACMIDSTANDARDDIN
  2
AcmIdStdDIN
  3
"Amdt_StdImp|Product Description: AutoCAD Mechanical|Company: Autodesk, Inc."
 90
     1024
280
     0
281
     0
  0
CLASS
  1
ACMDATUMSTANDARDDIN
  2
AcmDatumStdDIN
  3
"Amdt_StdImp|Product Description: AutoCAD Mechanical|Company: Autodesk, Inc."
 90
     1024
280
     0
281
     0
  0
CLASS
  1
ACMBOMSTANDARDDIN
  2
AcmBOMStdDIN
  3
"Amdt_StdImp|Product Description: AutoCAD Mechanical|Company: Autodesk, Inc."
 90
     1024
280
     0
281
     0
  0
CLASS
  1
ACMDETAILSTANDARDDIN
  2
AmdtDetailSymStdDIN
  3
"Amdt_StdImp|Product Description: AutoCAD Mechanical|Company: Autodesk, Inc."
 90
     1024
280
     0
281
     0
  0
CLASS
  1
ACMSECTIONSTANDARDDIN
  2
AmdtSectionSymStdDIN
  3
"Amdt_StdImp|Product Description: AutoCAD Mechanical|Company: Autodesk, Inc."
 90
     1024
280
     0
281
     0
  0
CLASS
  1
ACMCENTERLINESTANDARDDIN
  2
AmdtCenterLineStdDIN
  3
"Amdt_StdImp|Product Description: AutoCAD Mechanical|Company: Autodesk, Inc."
 90
     1024
280
     0
281
     0
  0
CLASS
  1
ACMTHREADLINESTANDARDDIN
  2
AmdtThreadLineStdDIN
  3
"Amdt_StdImp|Product Description: AutoCAD Mechanical|Company: Autodesk, Inc."
 90
     1024
280
     0
281
     0
  0
CLASS
  1
ACMNOTESTANDARDDIN
  2
AmdtNoteStdDIN
  3
"Amdt_StdImp|Product Description: AutoCAD Mechanical|Company: Autodesk, Inc."
 90
     1024
280
     0
281
     0
  0
CLASS
  1
ACMTAPERSTANDARDDIN
  2
AcmTaperStdDIN
  3
"Amdt_StdImp|Product Description: AutoCAD Mechanical|Company: Autodesk, Inc."
 90
     1024
280
     0
281
     0
  0
CLASS
  1
ACMANOOTATIONVIEWSTANDARDDIN
  2
AmdtAnViewStdDIN
  3
"Amdt_StdImp|Product Description: AutoCAD Mechanical|Company: Autodesk, Inc."
 90
     1024
280
     0
281
     0
  0
ENDSEC
  0
SECTION
  2
TABLES
  0
TABLE
  2
VPORT
  5
8
330
0
100
AcDbSymbolTable
 70
     1
  0
VPORT
  5
269
330
8
100
AcDbSymbolTableRecord
100
AcDbViewportTableRecord
  2
*Active
 70
     0
 10
0.0
 20
0.0
 11
1.0
 21
1.0
 12
778.4644768222437
 22
241.5668722032011
 13
0.0
 23
0.0
 14
2.5
 24
2.5
 15
10.0
 25
10.0
 16
0.0
 26
0.0
 36
1.0
 17
0.0
 27
0.0
 37
0.0
 40
551.4477406985412
 41
1.923900118906064
 42
50.0
 43
0.0
 44
0.0
 50
0.0
 51
0.0
 71
     0
 72
   100
 73
     1
 74
     3
 75
     0
 76
     0
 77
     0
 78
     0
281
     0
 65
     1
110
0.0
120
0.0
130
0.0
111
1.0
121
0.0
131
0.0
112
0.0
122
1.0
132
0.0
 79
     0
146
0.0
  0
ENDTAB
  0
TABLE
  2
LTYPE
  5
5
330
0
100
AcDbSymbolTable
 70
    26
  0
LTYPE
  5
14
330
5
100
AcDbSymbolTableRecord
100
AcDbLinetypeTableRecord
  2
ByBlock
 70
     0
  3

 72
    65
 73
     0
 40
0.0
  0
LTYPE
  5
15
330
5
100
AcDbSymbolTableRecord
100
AcDbLinetypeTableRecord
  2
ByLayer
 70
     0
  3

 72
    65
 73
     0
 40
0.0
  0
LTYPE
  5
16
330
5
100
AcDbSymbolTableRecord
100
AcDbLinetypeTableRecord
  2
Continuous
 70
     0
  3
Solid line
 72
    65
 73
     0
 40
0.0
  0
LTYPE
  5
64
330
5
100
AcDbSymbolTableRecord
100
AcDbLinetypeTableRecord
  2
AM_ISO02W050
 70
     0
  3
__ __ __ __ __ __ __ __ __ __ __ __ __ __ __
 72
    65
 73
     2
 40
7.5
 49
6.0
 74
     0
 49
-1.5
 74
     0
  0
LTYPE
  5
65
330
5
100
AcDbSymbolTableRecord
100
AcDbLinetypeTableRecord
  2
AM_ISO08W050
 70
     0
  3
____ . ____ . ____ . ____ . ____ . ____ . ____
 72
    65
 73
     4
 40
18.0
 49
12.0
 74
     0
 49
-1.5
 74
     0
 49
3.0
 74
     0
 49
-1.5
 74
     0
  0
LTYPE
  5
66
330
5
100
AcDbSymbolTableRecord
100
AcDbLinetypeTableRecord
  2
AM_ISO09W050
 70
     0
  3
_____ . . _____ . . _____ . . ____ .. ____
 72
    65
 73
     6
 40
22.5
 49
12.0
 74
     0
 49
-1.5
 74
     0
 49
3.0
 74
     0
 49
-1.5
 74
     0
 49
3.0
 74
     0
 49
-1.5
 74
     0
  0
LTYPE
  5
67
330
5
100
AcDbSymbolTableRecord
100
AcDbLinetypeTableRecord
  2
Amconstr
 70
     0
  3
_______________________
 72
    65
 73
     2
 40
9999.0
 49
9999.0
 74
     0
 49
0.0
 74
     0
  0
LTYPE
  5
68
330
5
100
AcDbSymbolTableRecord
100
AcDbLinetypeTableRecord
  2
AM_ISO08W050x2
 70
     0
  3
__ . __ . __ . __ . __ . __
 72
    65
 73
     4
 40
9.0
 49
6.0
 74
     0
 49
-0.75
 74
     0
 49
1.5
 74
     0
 49
-0.75
 74
     0
  0
LTYPE
  5
69
330
5
100
AcDbSymbolTableRecord
100
AcDbLinetypeTableRecord
  2
AM_ISO02W050x2
 70
     0
  3
 _ _ _ _ _ _ _ _ _ _ _ _
 72
    65
 73
     2
 40
3.75
 49
3.0
 74
     0
 49
-0.75
 74
     0
  0
LTYPE
  5
6C
330
5
100
AcDbSymbolTableRecord
100
AcDbLinetypeTableRecord
  2
Amzigzag
 70
     0
  3
/\/-/\/-/\/-/\/-/\/-/\/
 72
    65
 73
     2
 40
11.0001
 49
0.0001
 74
     4
 75
   136
340
22C
 46
0.04
 50
0.0
 44
0.0
 45
0.0
 49
-11.0
 74
     0
  0
LTYPE
  5
7A
330
5
100
AcDbSymbolTableRecord
100
AcDbLinetypeTableRecord
  2
ACISOWELD
 70
     0
  3
_ _ _ _ _
 72
    65
 73
     2
 40
2.0
 49
2.0
 74
     0
 49
-1.0
 74
     0
  0
LTYPE
  5
7B
330
5
100
AcDbSymbolTableRecord
100
AcDbLinetypeTableRecord
  2
ACISOTGB
 70
     0
  3
__ . . __ . .
 72
    65
 73
     6
 40
9.0
 49
4.0
 74
     0
 49
-1.0
 74
     0
 49
1.0
 74
     0
 49
-1.0
 74
     0
 49
1.0
 74
     0
 49
-1.0
 74
     0
  0
LTYPE
  5
7C
330
5
100
AcDbSymbolTableRecord
100
AcDbLinetypeTableRecord
  2
ACISOTGL
 70
     0
  3
_ _ _ _ _
 72
    65
 73
     2
 40
3.0
 49
2.0
 74
     0
 49
-1.0
 74
     0
  0
LTYPE
  5
7E
330
5
100
AcDbSymbolTableRecord
100
AcDbLinetypeTableRecord
  2
CENTER
 70
     0
  3
__ . __
 72
    65
 73
     4
 40
7.0
 49
4.0
 74
     0
 49
-1.0
 74
     0
 49
1.0
 74
     0
 49
-1.0
 74
     0
  0
LTYPE
  5
D8
330
5
100
AcDbSymbolTableRecord
100
AcDbLinetypeTableRecord
  2
HIDDEN
 70
     0
  3
Hidden __ __ __ __ __ __ __ __ __ __ __ __ __ _
 72
    65
 73
     2
 40
9.524999999999998
 49
6.349999999999999
 74
     0
 49
-3.174999999999999
 74
     0
  0
LTYPE
  5
D9
330
5
100
AcDbSymbolTableRecord
100
AcDbLinetypeTableRecord
  2
PHANTOM2
 70
     0
  3
Phantom (.5x) ___ _ _ ___ _ _ ___ _ _ ___ _ _
 72
    65
 73
     6
 40
31.75
 49
15.875
 74
     0
 49
-3.174999999999999
 74
     0
 49
3.174999999999999
 74
     0
 49
-3.174999999999999
 74
     0
 49
3.174999999999999
 74
     0
 49
-3.174999999999999
 74
     0
  0
LTYPE
  5
430
330
5
100
AcDbSymbolTableRecord
100
AcDbLinetypeTableRecord
  2
GEN7A
 70
     0
  3
__ . __ . __
 72
    65
 73
     4
 40
6.875
 49
5.0
 74
     0
 49
-0.625
 74
     0
 49
0.625
 74
     0
 49
-0.625
 74
     0
  0
LTYPE
  5
431
330
5
100
AcDbSymbolTableRecord
100
AcDbLinetypeTableRecord
  2
GEN3
 70
     0
  3
-- -- -- -- -- -- -- -- -- -- -- -- -- -- --
 72
    65
 73
     2
 40
6.25
 49
5.0
 74
     0
 49
-1.25
 74
     0
  0
LTYPE
  5
78F
330
5
100
AcDbSymbolTableRecord
100
AcDbLinetypeTableRecord
  2
AM_DIN_F_W050
 70
     0
  3
__ __ __ __ __ __ __ __ __ __ __ __ __ __ __
 72
    65
 73
     2
 40
6.25
 49
4.75
 74
     0
 49
-1.5
 74
     0
  0
LTYPE
  5
790
330
5
100
AcDbSymbolTableRecord
100
AcDbLinetypeTableRecord
  2
AM_DIN_G_W050
 70
     0
  3
____ . ____ . ____ . ____ . ____ . ____ . ____
 72
    65
 73
     4
 40
13.75
 49
9.75
 74
     0
 49
-1.5
 74
     0
 49
1.0
 74
     0
 49
-1.5
 74
     0
  0
LTYPE
  5
791
330
5
100
AcDbSymbolTableRecord
100
AcDbLinetypeTableRecord
  2
AM_DIN_K_W050
 70
     0
  3
_____ . . _____ . . _____ . . ____ .. ____
 72
    65
 73
     6
 40
16.25
 49
9.75
 74
     0
 49
-1.5
 74
     0
 49
1.0
 74
     0
 49
-1.5
 74
     0
 49
1.0
 74
     0
 49
-1.5
 74
     0
  0
LTYPE
  5
792
330
5
100
AcDbSymbolTableRecord
100
AcDbLinetypeTableRecord
  2
AM_DIN_G_W050x2
 70
     0
  3
__ . __ . __ . __ . __ . __
 72
    65
 73
     4
 40
6.875
 49
4.75
 74
     0
 49
-0.875
 74
     0
 49
0.375
 74
     0
 49
-0.875
 74
     0
  0
LTYPE
  5
793
330
5
100
AcDbSymbolTableRecord
100
AcDbLinetypeTableRecord
  2
AM_DIN_F_W050x2
 70
     0
  3
 _ _ _ _ _ _ _ _ _ _ _ _
 72
    65
 73
     2
 40
3.125
 49
2.25
 74
     0
 49
-0.875
 74
     0
  0
LTYPE
  5
794
330
5
100
AcDbSymbolTableRecord
100
AcDbLinetypeTableRecord
  2
ACDINWELD
 70
     0
  3
_ _ _ _ _
 72
    65
 73
     2
 40
2.0
 49
2.0
 74
     0
 49
-1.0
 74
     0
  0
LTYPE
  5
795
330
5
100
AcDbSymbolTableRecord
100
AcDbLinetypeTableRecord
  2
ACDINTGB
 70
     0
  3
__ . . __ . .
 72
    65
 73
     6
 40
9.0
 49
4.0
 74
     0
 49
-1.0
 74
     0
 49
1.0
 74
     0
 49
-1.0
 74
     0
 49
1.0
 74
     0
 49
-1.0
 74
     0
  0
LTYPE
  5
796
330
5
100
AcDbSymbolTableRecord
100
AcDbLinetypeTableRecord
  2
ACDINTGL
 70
     0
  3
_ _ _ _ _
 72
    65
 73
     2
 40
3.0
 49
2.0
 74
     0
 49
-1.0
 74
     0
  0
LTYPE
  5
797
330
5
100
AcDbSymbolTableRecord
100
AcDbLinetypeTableRecord
  2
GEN7
 70
     0
  3
____ . ____ . ____ . ____ . ____ . ____ . ____
 72
    65
 73
     4
 40
13.75
 49
10.0
 74
     0
 49
-1.25
 74
     0
 49
1.25
 74
     0
 49
-1.25
 74
     0
  0
ENDTAB
  0
TABLE
  2
LAYER
  5
2
102
{ACAD_XDICTIONARY
360
453
102
}
330
0
100
AcDbSymbolTable
 70
    15
  0
LAYER
  5
10
102
{ACAD_XDICTIONARY
360
D1A
102
}
330
2
100
AcDbSymbolTableRecord
100
AcDbLayerTableRecord
  2
0
 70
     0
 62
     7
  6
Continuous
370
    -3
390
F
  0
LAYER
  5
432
102
{ACAD_XDICTIONARY
360
433
102
}
330
2
100
AcDbSymbolTableRecord
100
AcDbLayerTableRecord
  2
AM_7
 70
     0
 62
     4
  6
AM_ISO08W050
370
    25
390
F
1001
AcAecLayerStandard
1000

1000

  0
LAYER
  5
434
102
{ACAD_XDICTIONARY
360
435
102
}
330
2
100
AcDbSymbolTableRecord
100
AcDbLayerTableRecord
  2
AM_5
 70
     0
 62
     3
  6
Continuous
370
    25
390
F
1001
AcAecLayerStandard
1000

1000

  0
LAYER
  5
436
330
2
100
AcDbSymbolTableRecord
100
AcDbLayerTableRecord
  2
Defpoints
 70
     0
 62
     7
  6
Continuous
290
     0
370
    -3
390
F
  0
LAYER
  5
437
102
{ACAD_XDICTIONARY
360
438
102
}
330
2
100
AcDbSymbolTableRecord
100
AcDbLayerTableRecord
  2
7A
 70
     0
 62
     4
  6
GEN7A
370
    -3
390
F
  0
LAYER
  5
439
102
{ACAD_XDICTIONARY
360
43A
102
}
330
2
100
AcDbSymbolTableRecord
100
AcDbLayerTableRecord
  2
KLIN
 70
     0
 62
     1
  6
Continuous
370
    -3
390
F
  0
LAYER
  5
43B
102
{ACAD_XDICTIONARY
360
43C
102
}
330
2
100
AcDbSymbolTableRecord
100
AcDbLayerTableRecord
  2
AM_0N
 70
     0
 62
     7
  6
Continuous
370
    50
390
F
1001
AcAecLayerStandard
1000

1000

  0
LAYER
  5
43D
102
{ACAD_XDICTIONARY
360
43E
102
}
330
2
100
AcDbSymbolTableRecord
100
AcDbLayerTableRecord
  2
AM_7N
 70
     0
 62
   142
  6
AM_ISO08W050
370
    25
390
F
1001
AcAecLayerStandard
1000

1000

  0
LAYER
  5
43F
102
{ACAD_XDICTIONARY
360
440
102
}
330
2
100
AcDbSymbolTableRecord
100
AcDbLayerTableRecord
  2
AM_4N
 70
     0
 62
    92
  6
Continuous
370
    25
390
F
1001
AcAecLayerStandard
1000

1000

  0
LAYER
  5
441
102
{ACAD_XDICTIONARY
360
442
102
}
330
2
100
AcDbSymbolTableRecord
100
AcDbLayerTableRecord
  2
AM_9N
 70
     0
 62
  -253
  6
Continuous
370
     0
390
F
1001
AcAecLayerStandard
1000

1000

  0
LAYER
  5
443
102
{ACAD_XDICTIONARY
360
444
102
}
330
2
100
AcDbSymbolTableRecord
100
AcDbLayerTableRecord
  2
8
 70
     0
 62
     1
  6
Continuous
370
    -3
390
F
  0
LAYER
  5
445
102
{ACAD_XDICTIONARY
360
446
102
}
330
2
100
AcDbSymbolTableRecord
100
AcDbLayerTableRecord
  2
3
 70
     0
 62
     6
  6
GEN3
370
    -3
390
F
  0
LAYER
  5
798
102
{ACAD_XDICTIONARY
360
799
102
}
330
2
100
AcDbSymbolTableRecord
100
AcDbLayerTableRecord
  2
5
 70
     0
 62
     3
  6
Continuous
370
    -3
390
F
  0
LAYER
  5
79A
102
{ACAD_XDICTIONARY
360
D27
102
}
330
2
100
AcDbSymbolTableRecord
100
AcDbLayerTableRecord
  2
7
 70
     0
 62
     4
  6
GEN7
370
    -3
390
F
  0
LAYER
  5
A4A
102
{ACAD_XDICTIONARY
360
D29
102
}
330
2
100
AcDbSymbolTableRecord
100
AcDbLayerTableRecord
  2
AM_CL
 70
     0
 62
     1
  6
Amconstr
370
    25
390
F
1001
AcAecLayerStandard
1000

1000

  0
ENDTAB
  0
TABLE
  2
STYLE
  5
3
330
0
100
AcDbSymbolTable
 70
    10
  0
STYLE
  5
11
330
3
100
AcDbSymbolTableRecord
100
AcDbTextStyleTableRecord
  2
STANDARD
 70
     0
 40
0.0
 41
1.0
 50
0.0
 71
     0
 42
2.5
  3
ISOCP.SHX
  4

  0
STYLE
  5
6B
330
3
100
AcDbSymbolTableRecord
100
AcDbTextStyleTableRecord
  2

 70
     1
 40
0.0
 41
1.0
 50
0.0
 71
     0
 42
2.5
  3
ltypeshp.shx
  4

  0
STYLE
  5
6D
330
3
100
AcDbSymbolTableRecord
100
AcDbTextStyleTableRecord
  2
ACISOTS
 70
     0
 40
1.0
 41
1.0
 50
0.0
 71
     0
 42
2.5
  3
isocp.shx
  4

  0
STYLE
  5
79
330
3
100
AcDbSymbolTableRecord
100
AcDbTextStyleTableRecord
  2
ACISOGDT
 70
     0
 40
0.0
 41
1.0
 50
0.0
 71
     0
 42
2.5
  3
amgdt.shx
  4

  0
STYLE
  5
1ED
330
3
100
AcDbSymbolTableRecord
100
AcDbTextStyleTableRecord
  2
USER1
 70
     0
 40
0.0
 41
1.0
 50
0.0
 71
     0
 42
2.5
  3
TXT.SHX
  4

  0
STYLE
  5
1EE
330
3
100
AcDbSymbolTableRecord
100
AcDbTextStyleTableRecord
  2
USER2
 70
     0
 40
0.0
 41
1.0
 50
0.0
 71
     0
 42
2.5
  3
SIMPLEX.SHX
  4

  0
STYLE
  5
1EF
330
3
100
AcDbSymbolTableRecord
100
AcDbTextStyleTableRecord
  2
USER3
 70
     0
 40
0.0
 41
1.0
 50
0.0
 71
     0
 42
2.5
  3
ITALIC.SHX
  4

  0
STYLE
  5
22C
330
3
100
AcDbSymbolTableRecord
100
AcDbTextStyleTableRecord
  2

 70
     1
 40
0.0
 41
1.0
 50
0.0
 71
     0
 42
2.5
  3
genltshp.shx
  4

  0
STYLE
  5
79B
330
3
100
AcDbSymbolTableRecord
100
AcDbTextStyleTableRecord
  2
ACDINTS
 70
     0
 40
1.0
 41
1.0
 50
0.0
 71
     0
 42
2.5
  3
isocp.shx
  4

  0
STYLE
  5
79C
330
3
100
AcDbSymbolTableRecord
100
AcDbTextStyleTableRecord
  2
ACDINGDT
 70
     0
 40
0.0
 41
1.0
 50
0.0
 71
     0
 42
2.5
  3
amgdt.shx
  4

  0
ENDTAB
  0
TABLE
  2
VIEW
  5
6
330
0
100
AcDbSymbolTable
 70
     0
  0
ENDTAB
  0
TABLE
  2
UCS
  5
7
330
0
100
AcDbSymbolTable
 70
     0
  0
ENDTAB
  0
TABLE
  2
APPID
  5
9
330
0
100
AcDbSymbolTable
 70
    28
  0
APPID
  5
12
330
9
100
AcDbSymbolTableRecord
100
AcDbRegAppTableRecord
  2
ACAD
 70
     0
  0
APPID
  5
46
330
9
100
AcDbSymbolTableRecord
100
AcDbRegAppTableRecord
  2
MCAD_NO_VIS
 70
     0
  0
APPID
  5
47
330
9
100
AcDbSymbolTableRecord
100
AcDbRegAppTableRecord
  2
ACAD_TEMP_GRAPHIC
 70
     0
  0
APPID
  5
58
330
9
100
AcDbSymbolTableRecord
100
AcDbRegAppTableRecord
  2
ACATTRIBSERVICES
 70
     0
  0
APPID
  5
EE
330
9
100
AcDbSymbolTableRecord
100
AcDbRegAppTableRecord
  2
AD_DRAW
 70
     0
  0
APPID
  5
10C
330
9
100
AcDbSymbolTableRecord
100
AcDbRegAppTableRecord
  2
DESIGNERASSEMBLIES
 70
     0
  0
APPID
  5
111
330
9
100
AcDbSymbolTableRecord
100
AcDbRegAppTableRecord
  2
ACADM_DIM_EDIT
 70
     0
  0
APPID
  5
112
330
9
100
AcDbSymbolTableRecord
100
AcDbRegAppTableRecord
  2
AMDT_DM_ADJ
 70
     0
  0
APPID
  5
1A3
330
9
100
AcDbSymbolTableRecord
100
AcDbRegAppTableRecord
  2
ACAD_DSTYLE_DIMARC_LENGTH_SYMBOL
 70
     0
  0
APPID
  5
1A4
330
9
100
AcDbSymbolTableRecord
100
AcDbRegAppTableRecord
  2
ACAD_DSTYLE_DIMJOGGED_JOGANGLE_SYMBOL
 70
     0
  0
APPID
  5
2C6
330
9
100
AcDbSymbolTableRecord
100
AcDbRegAppTableRecord
  2
ACAD_MLEADERVER
 70
     0
  0
APPID
  5
36E
330
9
100
AcDbSymbolTableRecord
100
AcDbRegAppTableRecord
  2
ACAD_EXEMPT_FROM_CAD_STANDARDS
 70
     0
  0
APPID
  5
448
330
9
100
AcDbSymbolTableRecord
100
AcDbRegAppTableRecord
  2
AcAecLayerStandard
 70
     0
  0
APPID
  5
449
330
9
100
AcDbSymbolTableRecord
100
AcDbRegAppTableRecord
  2
GENIUS_GENOENT_13
 70
     0
  0
APPID
  5
44A
330
9
100
AcDbSymbolTableRecord
100
AcDbRegAppTableRecord
  2
GENIUS_GENOLIS_13
 70
     0
  0
APPID
  5
44B
330
9
100
AcDbSymbolTableRecord
100
AcDbRegAppTableRecord
  2
GENIUS_GENODEF_13
 70
     0
  0
APPID
  5
44C
330
9
100
AcDbSymbolTableRecord
100
AcDbRegAppTableRecord
  2
GENIUS_GENOBJ-N-CRS_13
 70
     0
  0
APPID
  5
44D
330
9
100
AcDbSymbolTableRecord
100
AcDbRegAppTableRecord
  2
GENIUS_GENOREF_13
 70
     0
  0
APPID
  5
44E
330
9
100
AcDbSymbolTableRecord
100
AcDbRegAppTableRecord
  2
ACAD_DSTYLE_DIMINSPECT
 70
     0
  0
APPID
  5
44F
330
9
100
AcDbSymbolTableRecord
100
AcDbRegAppTableRecord
  2
GENIUS_GENOBJ-N-CEN_13
 70
     0
  0
APPID
  5
450
330
9
100
AcDbSymbolTableRecord
100
AcDbRegAppTableRecord
  2
GENIUS_GENOBJ-N-FIL_13
 70
     0
  0
APPID
  5
451
330
9
100
AcDbSymbolTableRecord
100
AcDbRegAppTableRecord
  2
GENIUS_GENOBJ-N-HTC_13
 70
     0
  0
APPID
  5
452
330
9
100
AcDbSymbolTableRecord
100
AcDbRegAppTableRecord
  2
GENIUS_GENHATCH_13
 70
     0
  0
APPID
  5
7A5
330
9
100
AcDbSymbolTableRecord
100
AcDbRegAppTableRecord
  2
GENIUS_GENDTOL_13
 70
     0
  0
APPID
  5
7A6
330
9
100
AcDbSymbolTableRecord
100
AcDbRegAppTableRecord
  2
ACAD_PSEXT
 70
     0
  0
APPID
  5
D39
330
9
100
AcDbSymbolTableRecord
100
AcDbRegAppTableRecord
  2
ACAD_DSTYLE_DIM_LINETYPE
 70
     0
  0
APPID
  5
D3A
330
9
100
AcDbSymbolTableRecord
100
AcDbRegAppTableRecord
  2
ACAD_DSTYLE_DIM_EXT1_LINETYPE
 70
     0
  0
APPID
  5
D3B
330
9
100
AcDbSymbolTableRecord
100
AcDbRegAppTableRecord
  2
ACAD_DSTYLE_DIM_EXT2_LINETYPE
 70
     0
  0
ENDTAB
  0
TABLE
  2
DIMSTYLE
  5
A
330
0
100
AcDbSymbolTable
 70
    18
100
AcDbDimStyleTable
 71
     1
340
81
  0
DIMSTYLE
105
27
330
A
100
AcDbSymbolTableRecord
100
AcDbDimStyleTableRecord
  2
ISO-25
 70
     0
 41
2.5
 42
0.625
 43
3.75
 44
1.25
 73
     0
 74
     0
 77
     1
 78
     8
140
2.5
141
2.5
143
0.03937007874016
147
0.625
171
     3
172
     1
271
     2
272
     2
274
     3
278
    44
283
     0
284
     8
340
11
  0
DIMSTYLE
105
81
102
{ACAD_REACTORS
330
62
102
}
330
A
100
AcDbSymbolTableRecord
100
AcDbDimStyleTableRecord
  2
AM_ISO
 70
     0
  4
"
 41
3.5
 42
1.0
 43
10.0
 44
1.0
 47
0.1
 48
0.1
 73
     0
 74
     0
 77
     1
 78
     8
 79
     2
140
3.5
141
0.0
143
0.0393701
146
0.71
147
1.5
172
     1
176
   256
177
   256
178
   140
271
     2
272
     3
274
     4
283
     0
284
     8
340
11
371
    -1
372
    -1
1001
ACAD_DSTYLE_DIMJOGGED_JOGANGLE_SYMBOL
1070
   384
1040
0.7853981633974483
1001
ACAD_DSTYLE_DIMARC_LENGTH_SYMBOL
1070
   379
1070
     1
1001
ACAD_DSTYLE_DIM_LINETYPE
1070
   380
1005
14
1001
ACAD_DSTYLE_DIM_EXT1_LINETYPE
1070
   381
1005
14
1001
ACAD_DSTYLE_DIM_EXT2_LINETYPE
1070
   382
1005
14
  0
DIMSTYLE
105
82
330
A
100
AcDbSymbolTableRecord
100
AcDbDimStyleTableRecord
  2
AM_ISO$3
 70
     0
  4
"
 41
3.5
 42
1.0
 43
10.0
 44
1.0
 47
0.1
 48
0.1
 73
     0
 77
     1
 78
     8
 79
     2
140
3.5
141
0.0
143
0.0393701
146
0.71
147
1.5
176
   256
177
   256
178
   140
271
     2
272
     3
274
     4
283
     0
284
     8
288
     1
289
     0
340
11
371
    -1
372
    -1
1001
ACAD_DSTYLE_DIMJOGGED_JOGANGLE_SYMBOL
1070
   384
1040
0.7853981633974483
1001
ACAD_DSTYLE_DIMARC_LENGTH_SYMBOL
1070
   379
1070
     1
1001
ACAD_DSTYLE_DIM_LINETYPE
1070
   380
1005
14
1001
ACAD_DSTYLE_DIM_EXT1_LINETYPE
1070
   381
1005
14
1001
ACAD_DSTYLE_DIM_EXT2_LINETYPE
1070
   382
1005
14
  0
DIMSTYLE
105
83
330
A
100
AcDbSymbolTableRecord
100
AcDbDimStyleTableRecord
  2
AM_ISO$4
 70
     0
  4
"
 41
3.5
 42
1.0
 43
10.0
 44
1.0
 47
0.1
 48
0.1
 73
     0
 74
     0
 77
     1
 78
     8
 79
     2
140
3.5
141
0.0
143
0.0393701
146
0.71
147
1.5
172
     1
176
   256
177
   256
178
   140
271
     2
272
     3
274
     4
283
     0
284
     8
340
11
371
    -1
372
    -1
1001
ACAD_DSTYLE_DIMJOGGED_JOGANGLE_SYMBOL
1070
   384
1040
0.7853981633974483
1001
ACAD_DSTYLE_DIMARC_LENGTH_SYMBOL
1070
   379
1070
     1
1001
ACAD_DSTYLE_DIM_LINETYPE
1070
   380
1005
14
1001
ACAD_DSTYLE_DIM_EXT1_LINETYPE
1070
   381
1005
14
1001
ACAD_DSTYLE_DIM_EXT2_LINETYPE
1070
   382
1005
14
  0
DIMSTYLE
105
84
330
A
100
AcDbSymbolTableRecord
100
AcDbDimStyleTableRecord
  2
AM_ISO$6
 70
     0
  4
"
 41
3.5
 42
1.0
 43
10.0
 44
1.0
 47
0.1
 48
0.1
 73
     0
 74
     0
 78
     8
 79
     2
140
3.5
141
0.0
143
0.0393701
146
0.71
147
1.5
172
     1
176
   256
177
   256
178
   140
271
     2
272
     3
274
     4
283
     0
284
     8
340
11
371
    -1
372
    -1
1001
ACAD_DSTYLE_DIMJOGGED_JOGANGLE_SYMBOL
1070
   384
1040
0.7853981633974483
1001
ACAD_DSTYLE_DIMARC_LENGTH_SYMBOL
1070
   379
1070
     1
1001
ACAD_DSTYLE_DIM_LINETYPE
1070
   380
1005
14
1001
ACAD_DSTYLE_DIM_EXT1_LINETYPE
1070
   381
1005
14
1001
ACAD_DSTYLE_DIM_EXT2_LINETYPE
1070
   382
1005
14
  0
DIMSTYLE
105
85
330
A
100
AcDbSymbolTableRecord
100
AcDbDimStyleTableRecord
  2
AM_ISO$7
 70
     0
  4
"
 41
3.5
 42
1.0
 43
10.0
 44
1.0
 47
0.1
 48
0.1
 73
     0
 74
     0
 77
     1
 78
     8
 79
     2
140
3.5
141
0.0
143
0.0393701
146
0.71
147
1.5
172
     1
176
   256
177
   256
178
   140
271
     2
272
     3
274
     4
283
     0
284
     8
340
11
371
    -1
372
    -1
1001
ACAD_DSTYLE_DIMJOGGED_JOGANGLE_SYMBOL
1070
   384
1040
0.7853981633974483
1001
ACAD_DSTYLE_DIMARC_LENGTH_SYMBOL
1070
   379
1070
     1
1001
ACAD_DSTYLE_DIM_LINETYPE
1070
   380
1005
14
1001
ACAD_DSTYLE_DIM_EXT1_LINETYPE
1070
   381
1005
14
1001
ACAD_DSTYLE_DIM_EXT2_LINETYPE
1070
   382
1005
14
  0
DIMSTYLE
105
86
330
A
100
AcDbSymbolTableRecord
100
AcDbDimStyleTableRecord
  2
AM_ISO$SF
 70
     0
  4
"
 41
3.5
 42
1.0
 43
10.0
 44
1.0
 47
0.1
 48
0.1
 73
     0
 74
     0
 75
     1
 76
     1
 77
     1
 78
     8
 79
     2
140
3.5
141
0.0
143
0.0393701
146
0.71
147
1.5
172
     1
176
   256
177
   256
178
   140
271
     2
272
     3
274
     4
283
     0
284
     8
340
11
371
    -1
372
    -1
1001
ACAD_DSTYLE_DIMJOGGED_JOGANGLE_SYMBOL
1070
   384
1040
0.7853981633974483
1001
ACAD_DSTYLE_DIMARC_LENGTH_SYMBOL
1070
   379
1070
     1
1001
ACAD_DSTYLE_DIM_LINETYPE
1070
   380
1005
14
1001
ACAD_DSTYLE_DIM_EXT1_LINETYPE
1070
   381
1005
14
1001
ACAD_DSTYLE_DIM_EXT2_LINETYPE
1070
   382
1005
14
  0
DIMSTYLE
105
8B
330
A
100
AcDbSymbolTableRecord
100
AcDbDimStyleTableRecord
  2
AM_ISO$SH
 70
     0
  4
"
 41
3.5
 42
1.0
 43
10.0
 44
1.0
 47
0.1
 48
0.1
 73
     0
 74
     0
 75
     1
 76
     1
 77
     1
 78
     8
 79
     2
140
3.5
141
0.0
143
0.0393701
144
2.0
146
0.71
147
1.5
172
     1
173
     1
176
   256
177
   256
178
   140
271
     2
272
     3
274
     4
283
     0
284
     8
340
11
343
87
371
    -1
372
    -1
1001
ACAD_DSTYLE_DIMJOGGED_JOGANGLE_SYMBOL
1070
   384
1040
0.7853981633974483
1001
ACAD_DSTYLE_DIMARC_LENGTH_SYMBOL
1070
   379
1070
     1
1001
ACAD_DSTYLE_DIM_LINETYPE
1070
   380
1005
14
1001
ACAD_DSTYLE_DIM_EXT1_LINETYPE
1070
   381
1005
14
1001
ACAD_DSTYLE_DIM_EXT2_LINETYPE
1070
   382
1005
14
  0
DIMSTYLE
105
447
102
{ACAD_REACTORS
330
4DD
330
521
330
522
330
525
330
528
330
52B
330
60D
330
651
330
652
330
655
330
658
330
65B
102
}
330
A
100
AcDbSymbolTableRecord
100
AcDbDimStyleTableRecord
  2
AM_DIN$0
 70
     0
  4
"
 41
3.5
 42
1.0
 43
10.0
 44
1.0
 47
0.1
 48
0.1
 73
     0
 74
     0
 77
     1
 78
     8
 79
     2
140
3.5
141
0.0
143
0.0393701
146
0.71
147
1.5
172
     1
176
   256
177
   256
178
     2
271
     2
272
     3
274
     4
283
     0
284
     8
340
11
371
    -1
372
    -1
1001
ACAD_DSTYLE_DIMJOGGED_JOGANGLE_SYMBOL
1070
   384
1040
1.570796326794896
1001
ACAD_DSTYLE_DIM_LINETYPE
1070
   380
1005
14
1001
ACAD_DSTYLE_DIM_EXT1_LINETYPE
1070
   381
1005
14
1001
ACAD_DSTYLE_DIM_EXT2_LINETYPE
1070
   382
1005
14
  0
DIMSTYLE
105
79D
330
A
100
AcDbSymbolTableRecord
100
AcDbDimStyleTableRecord
  2
AM_DIN
 70
     0
  4
"
 41
2.5
 42
1.0
 43
10.0
 44
1.0
 47
0.1
 48
0.1
 73
     0
 74
     0
 77
     1
 78
     8
 79
     2
140
3.5
141
0.0
143
0.0393701
146
0.71
147
1.5
172
     1
176
   256
177
   256
178
     2
271
     2
272
     3
274
     4
283
     0
284
     8
340
11
371
    -1
372
    -1
1001
ACAD_DSTYLE_DIMJOGGED_JOGANGLE_SYMBOL
1070
   384
1040
1.570796326794896
  0
DIMSTYLE
105
79E
330
A
100
AcDbSymbolTableRecord
100
AcDbDimStyleTableRecord
  2
AM_DIN$3
 70
     0
  4
"
 41
2.5
 42
1.0
 43
10.0
 44
1.0
 47
0.1
 48
0.1
 73
     0
 77
     1
 78
     8
 79
     2
140
3.5
141
0.0
143
0.0393701
146
0.71
147
1.5
176
   256
177
   256
178
     2
271
     2
272
     3
274
     4
283
     0
284
     8
288
     1
289
     0
340
11
371
    -1
372
    -1
1001
ACAD_DSTYLE_DIMJOGGED_JOGANGLE_SYMBOL
1070
   384
1040
1.570796326794896
  0
DIMSTYLE
105
79F
330
A
100
AcDbSymbolTableRecord
100
AcDbDimStyleTableRecord
  2
AM_DIN$4
 70
     0
  4
"
 41
2.5
 42
1.0
 43
10.0
 44
1.0
 47
0.1
 48
0.1
 73
     0
 77
     1
 78
     8
 79
     2
140
3.5
141
0.0
143
0.0393701
146
0.71
147
1.5
176
   256
177
   256
178
     2
271
     2
272
     3
274
     4
283
     0
284
     8
288
     1
289
     0
340
11
371
    -1
372
    -1
1001
ACAD_DSTYLE_DIMJOGGED_JOGANGLE_SYMBOL
1070
   384
1040
1.570796326794896
  0
DIMSTYLE
105
7A0
330
A
100
AcDbSymbolTableRecord
100
AcDbDimStyleTableRecord
  2
AM_DIN$6
 70
     0
  4
"
 41
2.5
 42
1.0
 43
10.0
 44
1.0
 47
0.1
 48
0.1
 73
     0
 74
     0
 78
     8
 79
     2
140
3.5
141
0.0
143
0.0393701
146
0.71
147
1.5
172
     1
176
   256
177
   256
178
     2
271
     2
272
     3
274
     4
283
     0
284
     8
340
11
371
    -1
372
    -1
1001
ACAD_DSTYLE_DIMJOGGED_JOGANGLE_SYMBOL
1070
   384
1040
1.570796326794896
  0
DIMSTYLE
105
7A1
330
A
100
AcDbSymbolTableRecord
100
AcDbDimStyleTableRecord
  2
AM_DIN$7
 70
     0
  4
"
 41
2.5
 42
1.0
 43
10.0
 44
1.0
 47
0.1
 48
0.1
 73
     0
 74
     0
 77
     1
 78
     8
 79
     2
140
5.0
141
0.0
143
0.0393701
146
0.71
147
1.5
172
     1
176
   256
177
   256
178
     2
271
     2
272
     3
274
     4
283
     0
284
     8
340
11
371
    -1
372
    -1
1001
ACAD_DSTYLE_DIMJOGGED_JOGANGLE_SYMBOL
1070
   384
1040
1.570796326794896
  0
DIMSTYLE
105
7A2
330
A
100
AcDbSymbolTableRecord
100
AcDbDimStyleTableRecord
  2
AM_DIN$SF
 70
     0
  4
"
 41
2.5
 42
1.0
 43
10.0
 44
1.0
 47
0.1
 48
0.1
 73
     0
 74
     0
 75
     1
 76
     1
 77
     1
 78
     8
 79
     2
140
3.5
141
0.0
143
0.0393701
146
0.71
147
1.5
172
     1
176
   256
177
   256
178
     2
271
     2
272
     3
274
     4
283
     0
284
     8
340
11
371
    -1
372
    -1
1001
ACAD_DSTYLE_DIMJOGGED_JOGANGLE_SYMBOL
1070
   384
1040
1.570796326794896
  0
DIMSTYLE
105
7A3
330
A
100
AcDbSymbolTableRecord
100
AcDbDimStyleTableRecord
  2
AM_DIN$SH
 70
     0
  4
"
 41
2.5
 42
1.0
 43
10.0
 44
1.0
 47
0.1
 48
0.1
 73
     0
 74
     0
 75
     1
 76
     1
 77
     1
 78
     8
 79
     2
140
3.5
141
0.0
143
0.0393701
144
2.0
146
0.71
147
1.5
172
     1
173
     1
176
   256
177
   256
178
     2
271
     2
272
     3
274
     4
283
     0
284
     8
340
11
343
87
371
    -1
372
    -1
1001
ACAD_DSTYLE_DIMJOGGED_JOGANGLE_SYMBOL
1070
   384
1040
1.570796326794896
  0
DIMSTYLE
105
7A4
102
{ACAD_REACTORS
330
7E2
330
82B
330
82E
330
82F
330
832
330
835
330
837
330
838
330
839
330
83A
330
83B
102
}
330
A
100
AcDbSymbolTableRecord
100
AcDbDimStyleTableRecord
  2
GEN-ISO$0
 70
     0
  3
<>
  4
"
 40
20.0
 41
2.5
 42
1.0
 43
7.0
 44
1.0
 47
0.1
 48
0.1
 73
     0
 74
     0
 77
     1
 78
     8
140
3.5
141
0.0
143
0.0393701
146
0.71
147
0.6
172
     1
176
   256
177
   256
178
     2
271
     2
272
     3
274
     4
283
     0
340
11
  0
ENDTAB
  0
TABLE
  2
BLOCK_RECORD
  5
1
330
0
100
AcDbSymbolTable
 70
    59
  0
BLOCK_RECORD
  5
1F
102
{ACAD_XDICTIONARY
360
8F
102
}
330
1
100
AcDbSymbolTableRecord
100
AcDbBlockTableRecord
  2
*Model_Space
340
22
  0
BLOCK_RECORD
  5
1B
330
1
100
AcDbSymbolTableRecord
100
AcDbBlockTableRecord
  2
*Paper_Space
340
1E
  0
BLOCK_RECORD
  5
23
330
1
100
AcDbSymbolTableRecord
100
AcDbBlockTableRecord
  2
*Paper_Space0
340
26
  0
BLOCK_RECORD
  5
87
330
1
100
AcDbSymbolTableRecord
100
AcDbBlockTableRecord
  2
GENAXEH
340
0
  0
BLOCK_RECORD
  5
3AE
330
1
100
AcDbSymbolTableRecord
100
AcDbBlockTableRecord
  2
befestigung
340
0
310
2800000020000000200000000100080000000000000400000000000000000000000000000000000000000000000080000080000000808000800000008000800080800000C0C0C000C0DCC000F0CAA6000020400000206000002080000020A0000020C0000020E00000400000004020000040400000406000004080000040A0
310
000040C0000040E00000600000006020000060400000606000006080000060A0000060C0000060E00000800000008020000080400000806000008080000080A0000080C0000080E00000A0000000A0200000A0400000A0600000A0800000A0A00000A0C00000A0E00000C0000000C0200000C0400000C0600000C0800000C0
310
A00000C0C00000C0E00000E0000000E0200000E0400000E0600000E0800000E0A00000E0C00000E0E00040000000400020004000400040006000400080004000A0004000C0004000E00040200000402020004020400040206000402080004020A0004020C0004020E000404000004040200040404000404060004040800040
310
40A0004040C0004040E00040600000406020004060400040606000406080004060A0004060C0004060E00040800000408020004080400040806000408080004080A0004080C0004080E00040A0000040A0200040A0400040A0600040A0800040A0A00040A0C00040A0E00040C0000040C0200040C0400040C0600040C08000
310
40C0A00040C0C00040C0E00040E0000040E0200040E0400040E0600040E0800040E0A00040E0C00040E0E00080000000800020008000400080006000800080008000A0008000C0008000E00080200000802020008020400080206000802080008020A0008020C0008020E00080400000804020008040400080406000804080
310
008040A0008040C0008040E00080600000806020008060400080606000806080008060A0008060C0008060E00080800000808020008080400080806000808080008080A0008080C0008080E00080A0000080A0200080A0400080A0600080A0800080A0A00080A0C00080A0E00080C0000080C0200080C0400080C0600080C0
310
800080C0A00080C0C00080C0E00080E0000080E0200080E0400080E0600080E0800080E0A00080E0C00080E0E000C0000000C0002000C0004000C0006000C0008000C000A000C000C000C000E000C0200000C0202000C0204000C0206000C0208000C020A000C020C000C020E000C0400000C0402000C0404000C0406000C0
310
408000C040A000C040C000C040E000C0600000C0602000C0604000C0606000C0608000C060A000C060C000C060E000C0800000C0802000C0804000C0806000C0808000C080A000C080C000C080E000C0A00000C0A02000C0A04000C0A06000C0A08000C0A0A000C0A0C000C0A0E000C0C00000C0C02000C0C04000C0C06000
310
C0C08000C0C0A000F0FBFF00A4A0A000808080000000FF0000FF000000FFFF00FF000000FF00FF00FFFF0000FFFFFF00000000000000000000000000000000000000000000000000000000000000000000000000000000000000000000000000000000000000FF000000000000000000000000000000000000000000000000
310
000000000000FF00FFFFFF00000000000000000000000000000000000000000000000000FFFF0000000000FF0000000000000000000000000000000000000000000000FF00000000000000FF00000000000000000000000000000000000000000000FF000000000000000000FF000000000000000000000000000000000000
310
0000FF00000000000000000000FF00000000000000000000000000000000000000FF0000000000000000000000FF000000000000000000000000000000000000FF0000000000000000000000FF00000000000000000000000000000000FFFFFF0000000000000000000000FF0000000000000000000000FFFFFFFFFF00FFFF
310
FFFFFF00000000000000FFFF0000000000000000000000FFFF000000FF00FFFF000000FFFFFFFFFFFFFF00000000000000000000000000FFFF000000FF00FFFF00000000000000FF000000000000000000000000000000FFFFFFFFFFFF00FFFF00000000000000FF3030303030FFFF0000000000000000FFFF000000FF00FF
310
FF00000000000000FF0000000000FFFF0000000000000000FFFF000000FF00FFFF00000000000000FF0000000000FFFF000000000000E8E8FFFFE8E8E8E8E8FFFFE8E8E8E8E8E8E8FFE8E8E8E8E8FFFFE8E8000000000000FFFF000000FF00FFFF00000000000000FF0000000000FFFF0000000000000000FFFFFFFFFFFF00
310
FFFF00000000000000FFFFFFFFFFFFFFFF0000000000000000FFFF000000FF00FFFF00000000000000FF000000000000000000000000000000FFFF000000FF00FFFF00000000FFFFFFFFFF000000000000000000000000000000FFFFFFFFFF00FFFFFFFFFFFF0000000000FFFFFF0000000000000000000000000000000000
310
00FFFFFF0000000000000000000000FF0000000000000000000000000000000000000000FF0000000000000000000000FF0000000000000000000000000000000000000000FF0000000000000000000000FF0000000000000000000000000000000000000000FF00000000000000000000FF00000000000000000000000000
310
0000000000000000FF000000000000000000FF00000000000000000000000000000000000000000000FF00000000000000FF000000000000000000000000000000000000000000000000FF000000000000FF00000000000000000000000000000000000000000000000000FFFF0000FFFF0000000000000000000000000000
310
0000000000000000000000000000FFFF00000000000000000000000000000000000000000000000000000000000000000000000000000000
102
{BLKREFS
331
52F
331
530
331
65F
331
660
331
B48
102
}
1001
ACAD
1000
DesignCenter Data
1002
{
1070
     1
1070
     4
1002
}
  0
BLOCK_RECORD
  5
3D2
330
1
100
AcDbSymbolTableRecord
100
AcDbBlockTableRecord
  2
*U4
340
0
102
{BLKREFS
331
3CF
102
}
  0
BLOCK_RECORD
  5
3E0
330
1
100
AcDbSymbolTableRecord
100
AcDbBlockTableRecord
  2
*U5
340
0
102
{BLKREFS
331
3D0
102
}
  0
BLOCK_RECORD
  5
3E8
330
1
100
AcDbSymbolTableRecord
100
AcDbBlockTableRecord
  2
*D6
340
0
  0
BLOCK_RECORD
  5
3F4
330
1
100
AcDbSymbolTableRecord
100
AcDbBlockTableRecord
  2
*D7
340
0
  0
BLOCK_RECORD
  5
400
330
1
100
AcDbSymbolTableRecord
100
AcDbBlockTableRecord
  2
*D8
340
0
  0
BLOCK_RECORD
  5
40C
330
1
100
AcDbSymbolTableRecord
100
AcDbBlockTableRecord
  2
*D9
340
0
  0
BLOCK_RECORD
  5
418
330
1
100
AcDbSymbolTableRecord
100
AcDbBlockTableRecord
  2
*D10
340
0
  0
BLOCK_RECORD
  5
424
330
1
100
AcDbSymbolTableRecord
100
AcDbBlockTableRecord
  2
*D11
340
0
  0
BLOCK_RECORD
  5
6B1
330
1
100
AcDbSymbolTableRecord
100
AcDbBlockTableRecord
  2
*D13
340
0
  0
BLOCK_RECORD
  5
6BD
330
1
100
AcDbSymbolTableRecord
100
AcDbBlockTableRecord
  2
*D14
340
0
  0
BLOCK_RECORD
  5
6C9
330
1
100
AcDbSymbolTableRecord
100
AcDbBlockTableRecord
  2
*D15
340
0
  0
BLOCK_RECORD
  5
6D5
330
1
100
AcDbSymbolTableRecord
100
AcDbBlockTableRecord
  2
*D16
340
0
  0
BLOCK_RECORD
  5
6E1
330
1
100
AcDbSymbolTableRecord
100
AcDbBlockTableRecord
  2
*D17
340
0
  0
BLOCK_RECORD
  5
6ED
330
1
100
AcDbSymbolTableRecord
100
AcDbBlockTableRecord
  2
*D18
340
0
  0
BLOCK_RECORD
  5
6FA
330
1
100
AcDbSymbolTableRecord
100
AcDbBlockTableRecord
  2
*D19
340
0
  0
BLOCK_RECORD
  5
706
330
1
100
AcDbSymbolTableRecord
100
AcDbBlockTableRecord
  2
*D20
340
0
  0
BLOCK_RECORD
  5
712
330
1
100
AcDbSymbolTableRecord
100
AcDbBlockTableRecord
  2
*D21
340
0
  0
BLOCK_RECORD
  5
71E
330
1
100
AcDbSymbolTableRecord
100
AcDbBlockTableRecord
  2
*D22
340
0
  0
BLOCK_RECORD
  5
72C
330
1
100
AcDbSymbolTableRecord
100
AcDbBlockTableRecord
  2
*D23
340
0
  0
BLOCK_RECORD
  5
739
330
1
100
AcDbSymbolTableRecord
100
AcDbBlockTableRecord
  2
*D24
340
0
  0
BLOCK_RECORD
  5
746
330
1
100
AcDbSymbolTableRecord
100
AcDbBlockTableRecord
  2
*D25
340
0
  0
BLOCK_RECORD
  5
752
330
1
100
AcDbSymbolTableRecord
100
AcDbBlockTableRecord
  2
*D26
340
0
  0
BLOCK_RECORD
  5
75E
330
1
100
AcDbSymbolTableRecord
100
AcDbBlockTableRecord
  2
*D27
340
0
  0
BLOCK_RECORD
  5
76A
330
1
100
AcDbSymbolTableRecord
100
AcDbBlockTableRecord
  2
*D28
340
0
  0
BLOCK_RECORD
  5
776
330
1
100
AcDbSymbolTableRecord
100
AcDbBlockTableRecord
  2
*D29
340
0
  0
BLOCK_RECORD
  5
782
330
1
100
AcDbSymbolTableRecord
100
AcDbBlockTableRecord
  2
*D30
340
0
  0
BLOCK_RECORD
  5
8F3
330
1
100
AcDbSymbolTableRecord
100
AcDbBlockTableRecord
  2
*D32
340
0
  0
BLOCK_RECORD
  5
8FF
330
1
100
AcDbSymbolTableRecord
100
AcDbBlockTableRecord
  2
*D33
340
0
  0
BLOCK_RECORD
  5
90D
330
1
100
AcDbSymbolTableRecord
100
AcDbBlockTableRecord
  2
*D34
340
0
  0
BLOCK_RECORD
  5
919
330
1
100
AcDbSymbolTableRecord
100
AcDbBlockTableRecord
  2
*D35
340
0
  0
BLOCK_RECORD
  5
925
330
1
100
AcDbSymbolTableRecord
100
AcDbBlockTableRecord
  2
*D36
340
0
  0
BLOCK_RECORD
  5
931
330
1
100
AcDbSymbolTableRecord
100
AcDbBlockTableRecord
  2
*D37
340
0
  0
BLOCK_RECORD
  5
93D
330
1
100
AcDbSymbolTableRecord
100
AcDbBlockTableRecord
  2
*D38
340
0
  0
BLOCK_RECORD
  5
949
330
1
100
AcDbSymbolTableRecord
100
AcDbBlockTableRecord
  2
*D39
340
0
  0
BLOCK_RECORD
  5
955
330
1
100
AcDbSymbolTableRecord
100
AcDbBlockTableRecord
  2
*D40
340
0
  0
BLOCK_RECORD
  5
961
330
1
100
AcDbSymbolTableRecord
100
AcDbBlockTableRecord
  2
*D41
340
0
  0
BLOCK_RECORD
  5
96D
330
1
100
AcDbSymbolTableRecord
100
AcDbBlockTableRecord
  2
*D42
340
0
  0
BLOCK_RECORD
  5
979
330
1
100
AcDbSymbolTableRecord
100
AcDbBlockTableRecord
  2
*D43
340
0
  0
BLOCK_RECORD
  5
985
330
1
100
AcDbSymbolTableRecord
100
AcDbBlockTableRecord
  2
*D44
340
0
  0
BLOCK_RECORD
  5
99A
330
1
100
AcDbSymbolTableRecord
100
AcDbBlockTableRecord
  2
*D45
340
0
  0
BLOCK_RECORD
  5
9AF
330
1
100
AcDbSymbolTableRecord
100
AcDbBlockTableRecord
  2
*D46
340
0
  0
BLOCK_RECORD
  5
A9C
330
1
100
AcDbSymbolTableRecord
100
AcDbBlockTableRecord
  2
*U48
340
0
  0
BLOCK_RECORD
  5
AAA
330
1
100
AcDbSymbolTableRecord
100
AcDbBlockTableRecord
  2
*U49
340
0
  0
BLOCK_RECORD
  5
AB2
330
1
100
AcDbSymbolTableRecord
100
AcDbBlockTableRecord
  2
*D50
340
0
  0
BLOCK_RECORD
  5
ABE
330
1
100
AcDbSymbolTableRecord
100
AcDbBlockTableRecord
  2
*D51
340
0
  0
BLOCK_RECORD
  5
ACA
330
1
100
AcDbSymbolTableRecord
100
AcDbBlockTableRecord
  2
*D52
340
0
  0
BLOCK_RECORD
  5
AD6
330
1
100
AcDbSymbolTableRecord
100
AcDbBlockTableRecord
  2
*D53
340
0
  0
BLOCK_RECORD
  5
C4B
330
1
100
AcDbSymbolTableRecord
100
AcDbBlockTableRecord
  2
*D55
340
0
  0
BLOCK_RECORD
  5
C57
330
1
100
AcDbSymbolTableRecord
100
AcDbBlockTableRecord
  2
*D56
340
0
  0
BLOCK_RECORD
  5
C63
330
1
100
AcDbSymbolTableRecord
100
AcDbBlockTableRecord
  2
*D57
340
0
  0
BLOCK_RECORD
  5
C6F
330
1
100
AcDbSymbolTableRecord
100
AcDbBlockTableRecord
  2
*D58
340
0
  0
ENDTAB
  0
ENDSEC
  0
SECTION
  2
BLOCKS
  0
BLOCK
  5
20
330
1F
100
AcDbEntity
  8
0
100
AcDbBlockBegin
  2
*Model_Space
 70
     0
 10
0.0
 20
0.0
 30
0.0
  3
*Model_Space
  1

  0
ENDBLK
  5
21
330
1F
100
AcDbEntity
  8
0
100
AcDbBlockEnd
  0
BLOCK
  5
1C
330
1B
100
AcDbEntity
 67
     1
  8
0
100
AcDbBlockBegin
  2
*Paper_Space
 70
     0
 10
0.0
 20
0.0
 30
0.0
  3
*Paper_Space
  1

  0
ENDBLK
  5
1D
330
1B
100
AcDbEntity
 67
     1
  8
0
100
AcDbBlockEnd
  0
BLOCK
  5
24
330
23
100
AcDbEntity
 67
     1
  8
0
100
AcDbBlockBegin
  2
*Paper_Space0
 70
     0
 10
0.0
 20
0.0
 30
0.0
  3
*Paper_Space0
  1

  0
ENDBLK
  5
25
330
23
100
AcDbEntity
 67
     1
  8
0
100
AcDbBlockEnd
  0
BLOCK
  5
89
330
87
100
AcDbEntity
  8
0
100
AcDbBlockBegin
  2
GENAXEH
 70
     0
 10
0.0
 20
0.0
 30
0.0
  3
GENAXEH
  1

  0
LINE
  5
88
330
87
100
AcDbEntity
  8
0
100
AcDbLine
 10
-1.0
 20
0.0
 30
0.0
 11
1.0
 21
0.0
 31
0.0
  0
ENDBLK
  5
8A
330
87
100
AcDbEntity
  8
0
100
AcDbBlockEnd
  0
BLOCK
  5
3AF
330
3AE
100
AcDbEntity
  8
0
100
AcDbBlockBegin
  2
befestigung
 70
     0
 10
0.0
 20
0.0
 30
0.0
  3
befestigung
  1

  0
LINE
  5
3B0
330
3AE
100
AcDbEntity
  8
AM_7N
  6
AM_ISO08W050x2
100
AcDbLine
 10
2003.869006815402
 20
1351.458312600669
 30
0.0
 11
2040.549006815402
 21
1351.458312600669
 31
0.0
1001
GENIUS_GENOREF_13
1005
0
1005
0
1005
0
  0
LINE
  5
3B1
330
3AE
100
AcDbEntity
  8
AM_9N
100
AcDbLine
 10
2015.674006815402
 20
1347.458312600669
 30
0.0
 11
2017.974006815402
 21
1347.458312600669
 31
0.0
1001
GENIUS_GENOREF_13
1005
0
1005
0
1005
0
  0
LINE
  5
3B2
330
3AE
100
AcDbEntity
  8
AM_9N
100
AcDbLine
 10
2022.209006815402
 20
1347.458312600669
 30
0.0
 11
2032.209006815401
 21
1347.458312600669
 31
0.0
1001
GENIUS_GENOREF_13
1005
0
1005
0
1005
0
  0
LINE
  5
3B3
330
3AE
100
AcDbEntity
  8
AM_0N
100
AcDbLine
 10
2027.974006815401
 20
1347.458312600669
 30
0.0
 11
2036.782194315402
 21
1347.458312600669
 31
0.0
1001
GENIUS_GENOREF_13
1005
0
1005
0
1005
0
  0
LINE
  5
3B4
330
3AE
100
AcDbEntity
  8
AM_9N
100
AcDbLine
 10
2015.674006815402
 20
1348.225125100669
 30
0.0
 11
2017.974006815402
 21
1348.225125100669
 31
0.0
1001
GENIUS_GENOREF_13
1005
0
1005
0
1005
0
  0
LINE
  5
3B5
330
3AE
100
AcDbEntity
  8
AM_9N
100
AcDbLine
 10
2022.209006815402
 20
1348.225125100669
 30
0.0
 11
2032.209006815401
 21
1348.225125100669
 31
0.0
1001
GENIUS_GENOREF_13
1005
0
1005
0
1005
0
  0
LINE
  5
3B6
330
3AE
100
AcDbEntity
  8
AM_4N
100
AcDbLine
 10
2027.974006815401
 20
1348.225125100669
 30
0.0
 11
2037.549006815402
 21
1348.225125100669
 31
0.0
1001
GENIUS_GENOREF_13
1005
0
1005
0
1005
0
  0
LINE
  5
3B7
330
3AE
100
AcDbEntity
  8
AM_9N
100
AcDbLine
 10
2015.674006815402
 20
1354.691500100669
 30
0.0
 11
2017.974006815402
 21
1354.691500100669
 31
0.0
1001
GENIUS_GENOREF_13
1005
0
1005
0
1005
0
  0
LINE
  5
3B8
330
3AE
100
AcDbEntity
  8
AM_9N
100
AcDbLine
 10
2027.974006815401
 20
1354.691500100669
 30
0.0
 11
2032.209006815401
 21
1354.691500100669
 31
0.0
1001
GENIUS_GENOREF_13
1005
0
1005
0
1005
0
  0
LINE
  5
3B9
330
3AE
100
AcDbEntity
  8
AM_4N
100
AcDbLine
 10
2027.974006815401
 20
1354.691500100669
 30
0.0
 11
2037.549006815402
 21
1354.691500100669
 31
0.0
1001
GENIUS_GENOREF_13
1005
0
1005
0
1005
0
  0
LINE
  5
3BA
330
3AE
100
AcDbEntity
  8
AM_9N
100
AcDbLine
 10
2015.674006815402
 20
1355.458312600669
 30
0.0
 11
2017.974006815402
 21
1355.458312600669
 31
0.0
1001
GENIUS_GENOREF_13
1005
0
1005
0
1005
0
  0
LINE
  5
3BB
330
3AE
100
AcDbEntity
  8
AM_9N
100
AcDbLine
 10
2027.974006815401
 20
1355.458312600669
 30
0.0
 11
2032.209006815401
 21
1355.458312600669
 31
0.0
1001
GENIUS_GENOREF_13
1005
0
1005
0
1005
0
  0
LINE
  5
3BC
330
3AE
100
AcDbEntity
  8
AM_0N
100
AcDbLine
 10
2027.974006815401
 20
1355.458312600669
 30
0.0
 11
2036.782194315402
 21
1355.458312600669
 31
0.0
1001
GENIUS_GENOREF_13
1005
0
1005
0
1005
0
  0
ARC
  5
3BD
330
3AE
100
AcDbEntity
  8
AM_0N
100
AcDbCircle
 10
2019.27813978905
 20
1351.458312600669
 30
0.0
 40
12.4091329736479
100
AcDbArc
 50
162.3875260144767
 51
197.6124739855233
1001
GENIUS_GENOREF_13
1005
0
1005
0
1005
0
  0
LINE
  5
3BE
330
3AE
100
AcDbEntity
  8
AM_0N
100
AcDbLine
 10
2012.549006815402
 20
1347.458312600669
 30
0.0
 11
2012.549006815402
 21
1355.458312600669
 31
0.0
1001
GENIUS_GENOREF_13
1005
0
1005
0
1005
0
  0
LINE
  5
3BF
330
3AE
100
AcDbEntity
  8
AM_0N
100
AcDbLine
 10
2012.549006815402
 20
1355.458312600669
 30
0.0
 11
2012.549006815402
 21
1347.458312600669
 31
0.0
1001
GENIUS_GENOREF_13
1005
0
1005
0
1005
0
  0
LINE
  5
3C0
330
3AE
100
AcDbEntity
  8
AM_0N
100
AcDbLine
 10
2006.869006815402
 20
1357.958312600669
 30
0.0
 11
2006.869006815402
 21
1344.958312600669
 31
0.0
1001
GENIUS_GENOREF_13
1005
0
1005
0
1005
0
  0
LINE
  5
3C1
330
3AE
100
AcDbEntity
  8
AM_0N
100
AcDbLine
 10
2007.45068721161
 20
1343.950812600669
 30
0.0
 11
2012.549006815402
 21
1343.950812600669
 31
0.0
1001
GENIUS_GENOREF_13
1005
0
1005
0
1005
0
  0
LINE
  5
3C2
330
3AE
100
AcDbEntity
  8
AM_0N
100
AcDbLine
 10
2007.45068721161
 20
1347.703589350401
 30
0.0
 11
2012.549006815402
 21
1347.703589350401
 31
0.0
1001
GENIUS_GENOREF_13
1005
0
1005
0
1005
0
  0
ARC
  5
3C3
330
3AE
100
AcDbEntity
  8
AM_0N
100
AcDbCircle
 10
2010.186279876194
 20
1345.827200975535
 30
0.0
 40
3.317273060791837
100
AcDbArc
 50
145.5531276177371
 51
205.5531276177362
1001
GENIUS_GENOREF_13
1005
0
1005
0
1005
0
  0
LINE
  5
3C4
330
3AE
100
AcDbEntity
  8
AM_0N
100
AcDbLine
 10
2007.45068721161
 20
1343.950812600669
 30
0.0
 11
2006.869006815402
 21
1344.958312600669
 31
0.0
1001
GENIUS_GENOREF_13
1005
0
1005
0
1005
0
  0
LINE
  5
3C5
330
3AE
100
AcDbEntity
  8
AM_0N
100
AcDbLine
 10
2012.549006815402
 20
1343.950812600669
 30
0.0
 11
2012.549006815402
 21
1347.458312600669
 31
0.0
1001
GENIUS_GENOREF_13
1005
0
1005
0
1005
0
  0
LINE
  5
3C6
330
3AE
100
AcDbEntity
  8
AM_0N
100
AcDbLine
 10
2012.549006815402
 20
1355.458312600669
 30
0.0
 11
2012.549006815402
 21
1358.965812600669
 31
0.0
1001
GENIUS_GENOREF_13
1005
0
1005
0
1005
0
  0
LINE
  5
3C7
330
3AE
100
AcDbEntity
  8
AM_0N
100
AcDbLine
 10
2007.45068721161
 20
1358.965812600669
 30
0.0
 11
2006.869006815402
 21
1357.958312600669
 31
0.0
1001
GENIUS_GENOREF_13
1005
0
1005
0
1005
0
  0
LINE
  5
3C8
330
3AE
100
AcDbEntity
  8
AM_0N
100
AcDbLine
 10
2007.45068721161
 20
1355.213035850936
 30
0.0
 11
2012.549006815402
 21
1355.213035850936
 31
0.0
1001
GENIUS_GENOREF_13
1005
0
1005
0
1005
0
  0
ARC
  5
3C9
330
3AE
100
AcDbEntity
  8
AM_0N
100
AcDbCircle
 10
2010.186279876194
 20
1357.089424225803
 30
0.0
 40
3.317273060791837
100
AcDbArc
 50
154.4468723822637
 51
214.4468723822629
1001
GENIUS_GENOREF_13
1005
0
1005
0
1005
0
  0
LINE
  5
3CA
330
3AE
100
AcDbEntity
  8
AM_0N
100
AcDbLine
 10
2007.45068721161
 20
1358.965812600669
 30
0.0
 11
2012.549006815402
 21
1358.965812600669
 31
0.0
1001
GENIUS_GENOREF_13
1005
0
1005
0
1005
0
  0
LINE
  5
3CB
330
3AE
100
AcDbEntity
  8
AM_0N
100
AcDbLine
 10
2036.782194315402
 20
1347.458312600669
 30
0.0
 11
2036.782194315402
 21
1355.458312600669
 31
0.0
1001
GENIUS_GENOREF_13
1005
0
1005
0
1005
0
  0
LINE
  5
3CC
330
3AE
100
AcDbEntity
  8
AM_0N
100
AcDbLine
 10
2037.549006815402
 20
1348.225125100669
 30
0.0
 11
2036.782194315402
 21
1347.458312600669
 31
0.0
1001
GENIUS_GENOREF_13
1005
0
1005
0
1005
0
  0
LINE
  5
3CD
330
3AE
100
AcDbEntity
  8
AM_0N
100
AcDbLine
 10
2037.549006815402
 20
1348.225125100669
 30
0.0
 11
2037.549006815402
 21
1354.691500100669
 31
0.0
1001
GENIUS_GENOREF_13
1005
0
1005
0
1005
0
  0
LINE
  5
3CE
330
3AE
100
AcDbEntity
  8
AM_0N
100
AcDbLine
 10
2036.782194315402
 20
1355.458312600669
 30
0.0
 11
2037.549006815402
 21
1354.691500100669
 31
0.0
1001
GENIUS_GENOREF_13
1005
0
1005
0
1005
0
  0
INSERT
  5
3CF
330
3AE
100
AcDbEntity
  8
AM_0N
100
AcDbBlockReference
  2
*U4
 10
0.0
 20
0.0
 30
0.0
1001
GENIUS_GENOREF_13
1005
0
  0
INSERT
  5
3D0
330
3AE
100
AcDbEntity
  8
AM_0N
100
AcDbBlockReference
  2
*U5
 10
0.0
 20
0.0
 30
0.0
1001
GENIUS_GENOREF_13
1005
0
  0
ENDBLK
  5
3D1
330
3AE
100
AcDbEntity
  8
0
100
AcDbBlockEnd
  0
BLOCK
  5
3D3
330
3D2
100
AcDbEntity
  8
0
100
AcDbBlockBegin
  2
*U4
 70
     1
 10
0.0
 20
0.0
 30
0.0
  3
*U4
  1

  0
ARC
  5
3D4
330
3D2
100
AcDbEntity
  8
AM_0N
100
AcDbCircle
 10
2031.974006815402
 20
1364.958312600669
 30
0.0
 40
6.0
100
AcDbArc
 50
284.6765041088877
 51
134.956760177952
  0
LINE
  5
3D5
330
3D2
100
AcDbEntity
  8
AM_0N
100
AcDbLine
 10
2017.974006815402
 20
1359.458312600669
 30
0.0
 11
2027.734569160611
 21
1369.204153903773
 31
0.0
  0
LINE
  5
3D6
330
3D2
100
AcDbEntity
  8
AM_0N
100
AcDbLine
 10
2027.974006815401
 20
1357.708312600669
 30
0.0
 11
2033.494174408163
 21
1359.154082204663
 31
0.0
  0
ARC
  5
3D7
330
3D2
100
AcDbEntity
  8
AM_0N
100
AcDbCircle
 10
2031.974006815402
 20
1337.958312600669
 30
0.0
 40
6.0
100
AcDbArc
 50
225.043239822048
 51
75.3234958911123
  0
LINE
  5
3D8
330
3D2
100
AcDbEntity
  8
AM_0N
100
AcDbLine
 10
2017.974006815402
 20
1343.458312600669
 30
0.0
 11
2027.734569160611
 21
1333.712471297565
 31
0.0
  0
LINE
  5
3D9
330
3D2
100
AcDbEntity
  8
AM_7N
  6
AM_ISO08W050x2
100
AcDbLine
 10
2030.974006815402
 20
1351.458312600669
 30
0.0
 11
2014.974006815402
 21
1351.458312600669
 31
0.0
  0
LINE
  5
3DA
330
3D2
100
AcDbEntity
  8
AM_0N
100
AcDbLine
 10
2017.974006815402
 20
1343.458312600669
 30
0.0
 11
2017.974006815402
 21
1359.458312600669
 31
0.0
  0
LINE
  5
3DB
330
3D2
100
AcDbEntity
  8
AM_0N
100
AcDbLine
 10
2027.974006815401
 20
1357.708312600669
 30
0.0
 11
2027.974006815401
 21
1345.208312600669
 31
0.0
  0
LINE
  5
3DC
330
3D2
100
AcDbEntity
  8
AM_0N
100
AcDbLine
 10
2027.974006815401
 20
1345.208312600669
 30
0.0
 11
2017.974006815402
 21
1343.458312600669
 31
0.0
  0
LINE
  5
3DD
330
3D2
100
AcDbEntity
  8
AM_0N
100
AcDbLine
 10
2027.974006815401
 20
1345.208312600669
 30
0.0
 11
2033.494174408163
 21
1343.762542996675
 31
0.0
  0
LINE
  5
3DE
330
3D2
100
AcDbEntity
  8
AM_0N
100
AcDbLine
 10
2017.974006815402
 20
1359.458312600669
 30
0.0
 11
2027.974006815401
 21
1357.708312600669
 31
0.0
  0
ENDBLK
  5
3DF
330
3D2
100
AcDbEntity
  8
0
100
AcDbBlockEnd
  0
BLOCK
  5
3E1
330
3E0
100
AcDbEntity
  8
0
100
AcDbBlockBegin
  2
*U5
 70
     1
 10
0.0
 20
0.0
 30
0.0
  3
*U5
  1

  0
LINE
  5
3E2
330
3E0
100
AcDbEntity
  8
AM_7N
  6
AM_ISO08W050x2
100
AcDbLine
 10
2012.674006815402
 20
1351.458312600669
 30
0.0
 11
2020.974006815402
 21
1351.458312600669
 31
0.0
  0
LINE
  5
3E3
330
3E0
100
AcDbEntity
  8
AM_0N
100
AcDbLine
 10
2015.674006815402
 20
1360.858312600669
 30
0.0
 11
2015.674006815402
 21
1342.058312600669
 31
0.0
  0
LINE
  5
3E4
330
3E0
100
AcDbEntity
  8
AM_0N
100
AcDbLine
 10
2017.974006815402
 20
1342.058312600669
 30
0.0
 11
2017.974006815402
 21
1360.858312600669
 31
0.0
  0
LINE
  5
3E5
330
3E0
100
AcDbEntity
  8
AM_0N
100
AcDbLine
 10
2015.674006815402
 20
1342.058312600669
 30
0.0
 11
2017.974006815402
 21
1342.058312600669
 31
0.0
  0
LINE
  5
3E6
330
3E0
100
AcDbEntity
  8
AM_0N
100
AcDbLine
 10
2017.974006815402
 20
1360.858312600669
 30
0.0
 11
2015.674006815402
 21
1360.858312600669
 31
0.0
  0
ENDBLK
  5
3E7
330
3E0
100
AcDbEntity
  8
0
100
AcDbBlockEnd
  0
BLOCK
  5
3E9
330
3E8
100
AcDbEntity
  8
0
100
AcDbBlockBegin
  2
*D6
 70
     1
 10
0.0
 20
0.0
 30
0.0
  3
*D6
  1

  0
LINE
  5
3EA
330
3E8
100
AcDbEntity
  8
AM_5
  6
ByBlock
100
AcDbLine
 10
1113.271144060462
 20
169.9231996853383
 30
0.0
 11
1205.981144060463
 21
169.9231996853383
 31
0.0
  0
LINE
  5
3EB
330
3E8
100
AcDbEntity
  8
AM_5
  6
ByBlock
100
AcDbLine
 10
1113.271144060462
 20
25.96479968533947
 30
0.0
 11
1205.981144060463
 21
25.96479968533945
 31
0.0
  0
LINE
  5
3EC
330
3E8
100
AcDbEntity
  8
AM_5
  6
ByBlock
100
AcDbLine
 10
1204.981144060463
 20
162.9231996853383
 30
0.0
 11
1204.981144060463
 21
32.96479968533944
 31
0.0
  0
SOLID
  5
3ED
330
3E8
100
AcDbEntity
  8
AM_5
100
AcDbTrace
 10
1203.814477393796
 20
162.9231996853383
 30
0.0
 11
1206.14781072713
 21
162.9231996853383
 31
0.0
 12
1204.981144060463
 22
169.9231996853383
 32
0.0
 13
1204.981144060463
 23
169.9231996853383
 33
0.0
  0
SOLID
  5
3EE
330
3E8
100
AcDbEntity
  8
AM_5
100
AcDbTrace
 10
1203.814477393796
 20
32.96479968533944
 30
0.0
 11
1206.14781072713
 21
32.96479968533944
 31
0.0
 12
1204.981144060463
 22
25.96479968533945
 32
0.0
 13
1204.981144060463
 23
25.96479968533945
 33
0.0
  0
MTEXT
  5
3EF
330
3E8
100
AcDbEntity
  8
AM_5
 62
     2
100
AcDbMText
 10
1198.481144060463
 20
97.94399968533902
 30
0.0
 40
10.0
 41
0.0
 71
     5
 72
     1
  1
144
 11
0.0000000000000001
 21
1.0
 31
0.0
 73
     1
 44
1.0
1001
ACAD
1000
MTEXTBEGIN
1070
    73
1070
     1
1070
    44
1040
1.0
1070
    74
1070
     0
1000
MTEXTEND
  0
POINT
  5
3F0
330
3E8
100
AcDbEntity
  8
Defpoints
 62
     0
100
AcDbPoint
 10
1112.271144060462
 20
169.9231996853383
 30
0.0
  0
POINT
  5
3F1
330
3E8
100
AcDbEntity
  8
Defpoints
 62
     0
100
AcDbPoint
 10
1112.271144060462
 20
25.96479968533947
 30
0.0
  0
POINT
  5
3F2
330
3E8
100
AcDbEntity
  8
Defpoints
 62
     0
100
AcDbPoint
 10
1204.981144060463
 20
25.96479968533945
 30
0.0
  0
ENDBLK
  5
3F3
330
3E8
100
AcDbEntity
  8
0
100
AcDbBlockEnd
  0
BLOCK
  5
3F5
330
3F4
100
AcDbEntity
  8
0
100
AcDbBlockBegin
  2
*D7
 70
     1
 10
0.0
 20
0.0
 30
0.0
  3
*D7
  1

  0
LINE
  5
3F6
330
3F4
100
AcDbEntity
  8
AM_5
  6
ByBlock
100
AcDbLine
 10
-99.99999879701476
 20
170.9231996853383
 30
0.0
 11
-99.99999879701476
 21
228.9493182246184
 31
0.0
  0
LINE
  5
3F7
330
3F4
100
AcDbEntity
  8
AM_5
  6
ByBlock
100
AcDbLine
 10
1159.981144060463
 20
170.9231996853383
 30
0.0
 11
1159.981144060463
 21
228.9493182246184
 31
0.0
  0
LINE
  5
3F8
330
3F4
100
AcDbEntity
  8
AM_5
  6
ByBlock
100
AcDbLine
 10
-92.99999879701477
 20
227.9493182246184
 30
0.0
 11
1152.981144060463
 21
227.9493182246184
 31
0.0
  0
SOLID
  5
3F9
330
3F4
100
AcDbEntity
  8
AM_5
100
AcDbTrace
 10
-92.99999879701477
 20
229.1159848912851
 30
0.0
 11
-92.99999879701477
 21
226.7826515579518
 31
0.0
 12
-99.99999879701476
 22
227.9493182246184
 32
0.0
 13
-99.99999879701476
 23
227.9493182246184
 33
0.0
  0
SOLID
  5
3FA
330
3F4
100
AcDbEntity
  8
AM_5
100
AcDbTrace
 10
1152.981144060463
 20
229.1159848912851
 30
0.0
 11
1152.981144060463
 21
226.7826515579518
 31
0.0
 12
1159.981144060463
 22
227.9493182246184
 32
0.0
 13
1159.981144060463
 23
227.9493182246184
 33
0.0
  0
MTEXT
  5
3FB
330
3F4
100
AcDbEntity
  8
AM_5
 62
     2
100
AcDbMText
 10
529.9905726317243
 20
234.4503024765869
 30
0.0
 40
10.0
 41
0.0
 71
     5
 72
     1
  1
1260
 73
     1
 44
1.0
1001
ACAD
1000
MTEXTBEGIN
1070
    73
1070
     1
1070
    44
1040
1.0
1070
    74
1070
     0
1000
MTEXTEND
  0
POINT
  5
3FC
330
3F4
100
AcDbEntity
  8
Defpoints
 62
     0
100
AcDbPoint
 10
-99.99999879701476
 20
169.9231996853383
 30
0.0
  0
POINT
  5
3FD
330
3F4
100
AcDbEntity
  8
Defpoints
 62
     0
100
AcDbPoint
 10
1159.981144060463
 20
169.9231996853383
 30
0.0
  0
POINT
  5
3FE
330
3F4
100
AcDbEntity
  8
Defpoints
 62
     0
100
AcDbPoint
 10
1159.981144060463
 20
227.9493182246184
 30
0.0
  0
ENDBLK
  5
3FF
330
3F4
100
AcDbEntity
  8
0
100
AcDbBlockEnd
  0
BLOCK
  5
401
330
400
100
AcDbEntity
  8
0
100
AcDbBlockBegin
  2
*D8
 70
     1
 10
0.0
 20
0.0
 30
0.0
  3
*D8
  1

  0
LINE
  5
402
330
400
100
AcDbEntity
  8
AM_5
  6
ByBlock
100
AcDbLine
 10
-70.01714165390854
 20
140.5405711140762
 30
0.0
 11
-70.01714165390854
 21
203.3113176275126
 31
0.0
  0
LINE
  5
403
330
400
100
AcDbEntity
  8
AM_5
  6
ByBlock
100
AcDbLine
 10
1129.998286917357
 20
140.5405711140762
 30
0.0
 11
1129.998286917357
 21
203.3113176275126
 31
0.0
  0
LINE
  5
404
330
400
100
AcDbEntity
  8
AM_5
  6
ByBlock
100
AcDbLine
 10
-63.01714165390854
 20
202.3113176275126
 30
0.0
 11
1122.998286917358
 21
202.3113176275126
 31
0.0
  0
SOLID
  5
405
330
400
100
AcDbEntity
  8
AM_5
100
AcDbTrace
 10
-63.01714165390854
 20
203.4779842941793
 30
0.0
 11
-63.01714165390854
 21
201.144650960846
 31
0.0
 12
-70.01714165390854
 22
202.3113176275126
 32
0.0
 13
-70.01714165390854
 23
202.3113176275126
 33
0.0
  0
SOLID
  5
406
330
400
100
AcDbEntity
  8
AM_5
100
AcDbTrace
 10
1122.998286917358
 20
203.4779842941793
 30
0.0
 11
1122.998286917358
 21
201.144650960846
 31
0.0
 12
1129.998286917357
 22
202.3113176275126
 32
0.0
 13
1129.998286917357
 23
202.3113176275126
 33
0.0
  0
MTEXT
  5
407
330
400
100
AcDbEntity
  8
AM_5
 62
     2
100
AcDbMText
 10
529.9905726317246
 20
208.8123018794811
 30
0.0
 40
10.0
 41
0.0
 71
     5
 72
     1
  1
1200
 73
     1
 44
1.0
1001
ACAD
1000
MTEXTBEGIN
1070
    73
1070
     1
1070
    44
1040
1.0
1070
    74
1070
     0
1000
MTEXTEND
  0
POINT
  5
408
330
400
100
AcDbEntity
  8
Defpoints
 62
     0
100
AcDbPoint
 10
-70.01714165390854
 20
139.5405711140762
 30
0.0
  0
POINT
  5
409
330
400
100
AcDbEntity
  8
Defpoints
 62
     0
100
AcDbPoint
 10
1129.998286917357
 20
139.5405711140762
 30
0.0
  0
POINT
  5
40A
330
400
100
AcDbEntity
  8
Defpoints
 62
     0
100
AcDbPoint
 10
1129.998286917357
 20
202.3113176275126
 30
0.0
  0
ENDBLK
  5
40B
330
400
100
AcDbEntity
  8
0
100
AcDbBlockEnd
  0
BLOCK
  5
40D
330
40C
100
AcDbEntity
  8
0
100
AcDbBlockBegin
  2
*D9
 70
     1
 10
0.0
 20
0.0
 30
0.0
  3
*D9
  1

  0
LINE
  5
40E
330
40C
100
AcDbEntity
  8
AM_5
  6
ByBlock
100
AcDbLine
 10
1129.998858346093
 20
435.1661358021455
 30
0.0
 11
1185.424051809784
 21
435.1661358021454
 31
0.0
  0
LINE
  5
40F
330
40C
100
AcDbEntity
  8
AM_5
  6
ByBlock
100
AcDbLine
 10
1125.001715489202
 20
308.2387072308815
 30
0.0
 11
1185.424051809784
 21
308.2387072308814
 31
0.0
  0
LINE
  5
410
330
40C
100
AcDbEntity
  8
AM_5
  6
ByBlock
100
AcDbLine
 10
1184.424051809784
 20
428.1661358021454
 30
0.0
 11
1184.424051809784
 21
315.2387072308814
 31
0.0
  0
SOLID
  5
411
330
40C
100
AcDbEntity
  8
AM_5
100
AcDbTrace
 10
1183.257385143118
 20
428.1661358021454
 30
0.0
 11
1185.590718476451
 21
428.1661358021454
 31
0.0
 12
1184.424051809784
 22
435.1661358021454
 32
0.0
 13
1184.424051809784
 23
435.1661358021454
 33
0.0
  0
SOLID
  5
412
330
40C
100
AcDbEntity
  8
AM_5
100
AcDbTrace
 10
1183.257385143118
 20
315.2387072308814
 30
0.0
 11
1185.590718476451
 21
315.2387072308814
 31
0.0
 12
1184.424051809784
 22
308.2387072308814
 32
0.0
 13
1184.424051809784
 23
308.2387072308814
 33
0.0
  0
MTEXT
  5
413
330
40C
100
AcDbEntity
  8
AM_5
 62
     2
100
AcDbMText
 10
1177.924051809784
 20
371.7024215165137
 30
0.0
 40
10.0
 41
0.0
 71
     5
 72
     1
  1
105-160
 11
0.0000000000000001
 21
1.0
 31
0.0
 73
     1
 44
1.0
1001
ACAD
1000
MTEXTBEGIN
1070
    73
1070
     1
1070
    44
1040
1.0
1070
    74
1070
     0
1000
MTEXTEND
  0
POINT
  5
414
330
40C
100
AcDbEntity
  8
Defpoints
 62
     0
100
AcDbPoint
 10
1128.998858346093
 20
435.1661358021455
 30
0.0
  0
POINT
  5
415
330
40C
100
AcDbEntity
  8
Defpoints
 62
     0
100
AcDbPoint
 10
1124.001715489201
 20
308.2387072308815
 30
0.0
  0
POINT
  5
416
330
40C
100
AcDbEntity
  8
Defpoints
 62
     0
100
AcDbPoint
 10
1184.424051809784
 20
308.2387072308814
 30
0.0
  0
ENDBLK
  5
417
330
40C
100
AcDbEntity
  8
0
100
AcDbBlockEnd
  0
BLOCK
  5
419
330
418
100
AcDbEntity
  8
0
100
AcDbBlockBegin
  2
*D10
 70
     1
 10
0.0
 20
0.0
 30
0.0
  3
*D10
  1

  0
LINE
  5
41A
330
418
100
AcDbEntity
  8
AM_5
  6
ByBlock
100
AcDbLine
 10
1396.290613001133
 20
435.2272786597244
 30
0.0
 11
1396.290613001133
 21
455.6914860653854
 31
0.0
  0
LINE
  5
41B
330
418
100
AcDbEntity
  8
AM_5
  6
ByBlock
100
AcDbLine
 10
1316.290613001231
 20
435.2272786596143
 30
0.0
 11
1316.290613001231
 21
455.6914860653854
 31
0.0
  0
LINE
  5
41C
330
418
100
AcDbEntity
  8
AM_5
  6
ByBlock
100
AcDbLine
 10
1389.290613001133
 20
454.6914860653854
 30
0.0
 11
1323.290613001231
 21
454.6914860653854
 31
0.0
  0
SOLID
  5
41D
330
418
100
AcDbEntity
  8
AM_5
100
AcDbTrace
 10
1389.290613001133
 20
455.8581527320521
 30
0.0
 11
1389.290613001133
 21
453.5248193987187
 31
0.0
 12
1396.290613001133
 22
454.6914860653854
 32
0.0
 13
1396.290613001133
 23
454.6914860653854
 33
0.0
  0
SOLID
  5
41E
330
418
100
AcDbEntity
  8
AM_5
100
AcDbTrace
 10
1323.290613001231
 20
455.8581527320521
 30
0.0
 11
1323.290613001231
 21
453.5248193987187
 31
0.0
 12
1316.290613001231
 22
454.6914860653854
 32
0.0
 13
1316.290613001231
 23
454.6914860653854
 33
0.0
  0
MTEXT
  5
41F
330
418
100
AcDbEntity
  8
AM_5
 62
     2
100
AcDbMText
 10
1356.290613001182
 20
461.1914860653854
 30
0.0
 40
10.0
 41
0.0
 71
     5
 72
     1
  1
80
 73
     1
 44
1.0
1001
ACAD
1000
MTEXTBEGIN
1070
    73
1070
     1
1070
    44
1040
1.0
1070
    74
1070
     0
1000
MTEXTEND
  0
POINT
  5
420
330
418
100
AcDbEntity
  8
Defpoints
 62
     0
100
AcDbPoint
 10
1396.290613001133
 20
434.2272786597244
 30
0.0
  0
POINT
  5
421
330
418
100
AcDbEntity
  8
Defpoints
 62
     0
100
AcDbPoint
 10
1316.290613001231
 20
434.2272786596144
 30
0.0
  0
POINT
  5
422
330
418
100
AcDbEntity
  8
Defpoints
 62
     0
100
AcDbPoint
 10
1316.290613001231
 20
454.6914860653854
 30
0.0
  0
ENDBLK
  5
423
330
418
100
AcDbEntity
  8
0
100
AcDbBlockEnd
  0
BLOCK
  5
425
330
424
100
AcDbEntity
  8
0
100
AcDbBlockBegin
  2
*D11
 70
     1
 10
0.0
 20
0.0
 30
0.0
  3
*D11
  1

  0
LINE
  5
426
330
424
100
AcDbEntity
  8
AM_5
  6
ByBlock
100
AcDbLine
 10
1314.290613001154
 20
435.2272786596173
 30
0.0
 11
1314.290613001154
 21
473.2074749620393
 31
0.0
  0
LINE
  5
427
330
424
100
AcDbEntity
  8
AM_5
  6
ByBlock
100
AcDbLine
 10
1398.290613001104
 20
435.2272786597215
 30
0.0
 11
1398.290613001104
 21
473.2074749620393
 31
0.0
  0
LINE
  5
428
330
424
100
AcDbEntity
  8
AM_5
  6
ByBlock
100
AcDbLine
 10
1321.290613001154
 20
472.2074749620393
 30
0.0
 11
1391.290613001104
 21
472.2074749620393
 31
0.0
  0
SOLID
  5
429
330
424
100
AcDbEntity
  8
AM_5
100
AcDbTrace
 10
1321.290613001154
 20
473.374141628706
 30
0.0
 11
1321.290613001154
 21
471.0408082953726
 31
0.0
 12
1314.290613001154
 22
472.2074749620393
 32
0.0
 13
1314.290613001154
 23
472.2074749620393
 33
0.0
  0
SOLID
  5
42A
330
424
100
AcDbEntity
  8
AM_5
100
AcDbTrace
 10
1391.290613001104
 20
473.374141628706
 30
0.0
 11
1391.290613001104
 21
471.0408082953726
 31
0.0
 12
1398.290613001104
 22
472.2074749620393
 32
0.0
 13
1398.290613001104
 23
472.2074749620393
 33
0.0
  0
MTEXT
  5
42B
330
424
100
AcDbEntity
  8
AM_5
 62
     2
100
AcDbMText
 10
1356.290613001129
 20
478.7074749620393
 30
0.0
 40
10.0
 41
0.0
 71
     5
 72
     1
  1
84
 73
     1
 44
1.0
1001
ACAD
1000
MTEXTBEGIN
1070
    73
1070
     1
1070
    44
1040
1.0
1070
    74
1070
     0
1000
MTEXTEND
  0
POINT
  5
42C
330
424
100
AcDbEntity
  8
Defpoints
 62
     0
100
AcDbPoint
 10
1314.290613001154
 20
434.2272786596173
 30
0.0
  0
POINT
  5
42D
330
424
100
AcDbEntity
  8
Defpoints
 62
     0
100
AcDbPoint
 10
1398.290613001104
 20
434.2272786597215
 30
0.0
  0
POINT
  5
42E
330
424
100
AcDbEntity
  8
Defpoints
 62
     0
100
AcDbPoint
 10
1398.290613001104
 20
472.2074749620393
 30
0.0
  0
ENDBLK
  5
42F
330
424
100
AcDbEntity
  8
0
100
AcDbBlockEnd
  0
BLOCK
  5
6B2
330
6B1
100
AcDbEntity
  8
0
100
AcDbBlockBegin
  2
*D13
 70
     1
 10
0.0
 20
0.0
 30
0.0
  3
*D13
  1

  0
LINE
  5
CC0
330
6B1
100
AcDbEntity
  8
AM_5
  6
ByBlock
100
AcDbLine
 10
963.2711424943401
 20
169.9231992445319
 30
0.0
 11
1055.98114249434
 21
169.9231992445319
 31
0.0
  0
LINE
  5
CC1
330
6B1
100
AcDbEntity
  8
AM_5
  6
ByBlock
100
AcDbLine
 10
963.2711424943401
 20
25.96479924453308
 30
0.0
 11
1055.98114249434
 21
25.96479924453305
 31
0.0
  0
LINE
  5
CC2
330
6B1
100
AcDbEntity
  8
AM_5
  6
ByBlock
100
AcDbLine
 10
1054.98114249434
 20
162.9231992445319
 30
0.0
 11
1054.98114249434
 21
32.96479924453306
 31
0.0
  0
SOLID
  5
CC3
330
6B1
100
AcDbEntity
  8
AM_5
100
AcDbTrace
 10
1053.814475827674
 20
162.9231992445319
 30
0.0
 11
1056.147809161007
 21
162.9231992445319
 31
0.0
 12
1054.98114249434
 22
169.9231992445319
 32
0.0
 13
1054.98114249434
 23
169.9231992445319
 33
0.0
  0
SOLID
  5
CC4
330
6B1
100
AcDbEntity
  8
AM_5
100
AcDbTrace
 10
1053.814475827674
 20
32.96479924453306
 30
0.0
 11
1056.147809161007
 21
32.96479924453306
 31
0.0
 12
1054.98114249434
 22
25.96479924453305
 32
0.0
 13
1054.98114249434
 23
25.96479924453305
 33
0.0
  0
MTEXT
  5
CC5
330
6B1
100
AcDbEntity
  8
AM_5
 62
     2
100
AcDbMText
 10
1048.48114249434
 20
97.94399924453264
 30
0.0
 40
10.0
 41
0.0
 71
     5
 72
     1
  1
144
 11
0.0000000000000001
 21
1.0
 31
0.0
 73
     1
 44
1.0
1001
ACAD
1000
MTEXTBEGIN
1070
    73
1070
     1
1070
    44
1040
1.0
1070
    74
1070
     0
1000
MTEXTEND
  0
POINT
  5
CC6
330
6B1
100
AcDbEntity
  8
Defpoints
 62
     0
100
AcDbPoint
 10
962.2711424943402
 20
169.9231992445319
 30
0.0
  0
POINT
  5
CC7
330
6B1
100
AcDbEntity
  8
Defpoints
 62
     0
100
AcDbPoint
 10
962.2711424943402
 20
25.96479924453308
 30
0.0
  0
POINT
  5
CC8
330
6B1
100
AcDbEntity
  8
Defpoints
 62
     0
100
AcDbPoint
 10
1054.98114249434
 20
25.96479924453305
 30
0.0
  0
ENDBLK
  5
6B3
330
6B1
100
AcDbEntity
  8
0
100
AcDbBlockEnd
  0
BLOCK
  5
6BE
330
6BD
100
AcDbEntity
  8
0
100
AcDbBlockBegin
  2
*D14
 70
     1
 10
0.0
 20
0.0
 30
0.0
  3
*D14
  1

  0
LINE
  5
CF6
330
6BD
100
AcDbEntity
  8
AM_5
  6
ByBlock
100
AcDbLine
 10
249.9999996368627
 20
170.9231992445343
 30
0.0
 11
249.9999996368627
 21
228.9493177838144
 31
0.0
  0
LINE
  5
CF7
330
6BD
100
AcDbEntity
  8
AM_5
  6
ByBlock
100
AcDbLine
 10
1009.981142494341
 20
170.9231992445319
 30
0.0
 11
1009.981142494341
 21
228.9493177838144
 31
0.0
  0
LINE
  5
CF8
330
6BD
100
AcDbEntity
  8
AM_5
  6
ByBlock
100
AcDbLine
 10
256.9999996368626
 20
227.9493177838144
 30
0.0
 11
1002.981142494341
 21
227.9493177838144
 31
0.0
  0
SOLID
  5
CF9
330
6BD
100
AcDbEntity
  8
AM_5
100
AcDbTrace
 10
256.9999996368626
 20
229.115984450481
 30
0.0
 11
256.9999996368626
 21
226.7826511171477
 31
0.0
 12
249.9999996368627
 22
227.9493177838144
 32
0.0
 13
249.9999996368627
 23
227.9493177838144
 33
0.0
  0
SOLID
  5
CFA
330
6BD
100
AcDbEntity
  8
AM_5
100
AcDbTrace
 10
1002.981142494341
 20
229.115984450481
 30
0.0
 11
1002.981142494341
 21
226.7826511171477
 31
0.0
 12
1009.981142494341
 22
227.9493177838144
 32
0.0
 13
1009.981142494341
 23
227.9493177838144
 33
0.0
  0
MTEXT
  5
CFB
330
6BD
100
AcDbEntity
  8
AM_5
 62
     2
100
AcDbMText
 10
629.9905710656019
 20
234.4493177838144
 30
0.0
 40
10.0
 41
0.0
 71
     5
 72
     1
  1
760
 73
     1
 44
1.0
1001
ACAD
1000
MTEXTBEGIN
1070
    73
1070
     1
1070
    44
1040
1.0
1070
    74
1070
     0
1000
MTEXTEND
  0
POINT
  5
CFC
330
6BD
100
AcDbEntity
  8
Defpoints
 62
     0
100
AcDbPoint
 10
249.9999996368627
 20
169.9231992445343
 30
0.0
  0
POINT
  5
CFD
330
6BD
100
AcDbEntity
  8
Defpoints
 62
     0
100
AcDbPoint
 10
1009.981142494341
 20
169.9231992445319
 30
0.0
  0
POINT
  5
CFE
330
6BD
100
AcDbEntity
  8
Defpoints
 62
     0
100
AcDbPoint
 10
1009.981142494341
 20
227.9493177838144
 30
0.0
  0
ENDBLK
  5
6BF
330
6BD
100
AcDbEntity
  8
0
100
AcDbBlockEnd
  0
BLOCK
  5
6CA
330
6C9
100
AcDbEntity
  8
0
100
AcDbBlockBegin
  2
*D15
 70
     1
 10
0.0
 20
0.0
 30
0.0
  3
*D15
  1

  0
LINE
  5
CED
330
6C9
100
AcDbEntity
  8
AM_5
  6
ByBlock
100
AcDbLine
 10
279.9828567799689
 20
140.5405706732722
 30
0.0
 11
279.9828567799689
 21
203.3113171867085
 31
0.0
  0
LINE
  5
CEE
330
6C9
100
AcDbEntity
  8
AM_5
  6
ByBlock
100
AcDbLine
 10
979.9982853512354
 20
140.5405706732698
 30
0.0
 11
979.9982853512354
 21
203.3113171867085
 31
0.0
  0
LINE
  5
CEF
330
6C9
100
AcDbEntity
  8
AM_5
  6
ByBlock
100
AcDbLine
 10
286.9828567799689
 20
202.3113171867085
 30
0.0
 11
972.9982853512353
 21
202.3113171867085
 31
0.0
  0
SOLID
  5
CF0
330
6C9
100
AcDbEntity
  8
AM_5
100
AcDbTrace
 10
286.9828567799689
 20
203.4779838533752
 30
0.0
 11
286.9828567799689
 21
201.1446505200418
 31
0.0
 12
279.9828567799689
 22
202.3113171867085
 32
0.0
 13
279.9828567799689
 23
202.3113171867085
 33
0.0
  0
SOLID
  5
CF1
330
6C9
100
AcDbEntity
  8
AM_5
100
AcDbTrace
 10
972.9982853512353
 20
203.4779838533752
 30
0.0
 11
972.9982853512353
 21
201.1446505200418
 31
0.0
 12
979.9982853512354
 22
202.3113171867085
 32
0.0
 13
979.9982853512354
 23
202.3113171867085
 33
0.0
  0
MTEXT
  5
CF2
330
6C9
100
AcDbEntity
  8
AM_5
 62
     2
100
AcDbMText
 10
629.9905710656021
 20
208.8113171867085
 30
0.0
 40
10.0
 41
0.0
 71
     5
 72
     1
  1
700
 73
     1
 44
1.0
1001
ACAD
1000
MTEXTBEGIN
1070
    73
1070
     1
1070
    44
1040
1.0
1070
    74
1070
     0
1000
MTEXTEND
  0
POINT
  5
CF3
330
6C9
100
AcDbEntity
  8
Defpoints
 62
     0
100
AcDbPoint
 10
279.9828567799689
 20
139.5405706732722
 30
0.0
  0
POINT
  5
CF4
330
6C9
100
AcDbEntity
  8
Defpoints
 62
     0
100
AcDbPoint
 10
979.9982853512354
 20
139.5405706732698
 30
0.0
  0
POINT
  5
CF5
330
6C9
100
AcDbEntity
  8
Defpoints
 62
     0
100
AcDbPoint
 10
979.9982853512354
 20
202.3113171867085
 30
0.0
  0
ENDBLK
  5
6CB
330
6C9
100
AcDbEntity
  8
0
100
AcDbBlockEnd
  0
BLOCK
  5
6D6
330
6D5
100
AcDbEntity
  8
0
100
AcDbBlockBegin
  2
*D16
 70
     1
 10
0.0
 20
0.0
 30
0.0
  3
*D16
  1

  0
LINE
  5
CFF
330
6D5
100
AcDbEntity
  8
AM_5
  6
ByBlock
100
AcDbLine
 10
979.998856779971
 20
435.1661353613391
 30
0.0
 11
1035.424050243686
 21
435.1661353613391
 31
0.0
  0
LINE
  5
D00
330
6D5
100
AcDbEntity
  8
AM_5
  6
ByBlock
100
AcDbLine
 10
975.001713923079
 20
335.2020904552911
 30
0.0
 11
1035.424050243686
 21
335.2020904552911
 31
0.0
  0
LINE
  5
D01
330
6D5
100
AcDbEntity
  8
AM_5
  6
ByBlock
100
AcDbLine
 10
1034.424050243686
 20
428.1661353613391
 30
0.0
 11
1034.424050243686
 21
342.2020904552911
 31
0.0
  0
SOLID
  5
D02
330
6D5
100
AcDbEntity
  8
AM_5
100
AcDbTrace
 10
1033.25738357702
 20
428.1661353613391
 30
0.0
 11
1035.590716910353
 21
428.1661353613391
 31
0.0
 12
1034.424050243686
 22
435.1661353613391
 32
0.0
 13
1034.424050243686
 23
435.1661353613391
 33
0.0
  0
SOLID
  5
D03
330
6D5
100
AcDbEntity
  8
AM_5
100
AcDbTrace
 10
1033.25738357702
 20
342.2020904552911
 30
0.0
 11
1035.590716910353
 21
342.2020904552911
 31
0.0
 12
1034.424050243686
 22
335.2020904552911
 32
0.0
 13
1034.424050243686
 23
335.2020904552911
 33
0.0
  0
MTEXT
  5
D04
330
6D5
100
AcDbEntity
  8
AM_5
 62
     2
100
AcDbMText
 10
1027.924050243686
 20
385.1841129083153
 30
0.0
 40
10.0
 41
0.0
 71
     5
 72
     1
  1
79-134
 11
0.0000000000000001
 21
1.0
 31
0.0
 73
     1
 44
1.0
1001
ACAD
1000
MTEXTBEGIN
1070
    73
1070
     1
1070
    44
1040
1.0
1070
    74
1070
     0
1000
MTEXTEND
  0
POINT
  5
D05
330
6D5
100
AcDbEntity
  8
Defpoints
 62
     0
100
AcDbPoint
 10
978.998856779971
 20
435.1661353613391
 30
0.0
  0
POINT
  5
D06
330
6D5
100
AcDbEntity
  8
Defpoints
 62
     0
100
AcDbPoint
 10
974.001713923079
 20
335.2020904552911
 30
0.0
  0
POINT
  5
D07
330
6D5
100
AcDbEntity
  8
Defpoints
 62
     0
100
AcDbPoint
 10
1034.424050243686
 20
335.2020904552911
 30
0.0
  0
ENDBLK
  5
6D7
330
6D5
100
AcDbEntity
  8
0
100
AcDbBlockEnd
  0
BLOCK
  5
6E2
330
6E1
100
AcDbEntity
  8
0
100
AcDbBlockBegin
  2
*D17
 70
     1
 10
0.0
 20
0.0
 30
0.0
  3
*D17
  1

  0
LINE
  5
D08
330
6E1
100
AcDbEntity
  8
AM_5
  6
ByBlock
100
AcDbLine
 10
1246.981150788025
 20
435.1660904552633
 30
0.0
 11
1246.981150788025
 21
455.6302978609243
 31
0.0
  0
LINE
  5
D09
330
6E1
100
AcDbEntity
  8
AM_5
  6
ByBlock
100
AcDbLine
 10
1166.981150788123
 20
435.1660904551533
 30
0.0
 11
1166.981150788123
 21
455.6302978609243
 31
0.0
  0
LINE
  5
D0A
330
6E1
100
AcDbEntity
  8
AM_5
  6
ByBlock
100
AcDbLine
 10
1239.981150788025
 20
454.6302978609243
 30
0.0
 11
1173.981150788123
 21
454.6302978609243
 31
0.0
  0
SOLID
  5
D0B
330
6E1
100
AcDbEntity
  8
AM_5
100
AcDbTrace
 10
1239.981150788025
 20
455.7969645275909
 30
0.0
 11
1239.981150788025
 21
453.4636311942576
 31
0.0
 12
1246.981150788025
 22
454.6302978609243
 32
0.0
 13
1246.981150788025
 23
454.6302978609243
 33
0.0
  0
SOLID
  5
D0C
330
6E1
100
AcDbEntity
  8
AM_5
100
AcDbTrace
 10
1173.981150788123
 20
455.7969645275909
 30
0.0
 11
1173.981150788123
 21
453.4636311942576
 31
0.0
 12
1166.981150788123
 22
454.6302978609243
 32
0.0
 13
1166.981150788123
 23
454.6302978609243
 33
0.0
  0
MTEXT
  5
D0D
330
6E1
100
AcDbEntity
  8
AM_5
 62
     2
100
AcDbMText
 10
1206.981150788074
 20
461.1302978609243
 30
0.0
 40
10.0
 41
0.0
 71
     5
 72
     1
  1
80
 73
     1
 44
1.0
1001
ACAD
1000
MTEXTBEGIN
1070
    73
1070
     1
1070
    44
1040
1.0
1070
    74
1070
     0
1000
MTEXTEND
  0
POINT
  5
D0E
330
6E1
100
AcDbEntity
  8
Defpoints
 62
     0
100
AcDbPoint
 10
1246.981150788025
 20
434.1660904552632
 30
0.0
  0
POINT
  5
D0F
330
6E1
100
AcDbEntity
  8
Defpoints
 62
     0
100
AcDbPoint
 10
1166.981150788123
 20
434.1660904551532
 30
0.0
  0
POINT
  5
D10
330
6E1
100
AcDbEntity
  8
Defpoints
 62
     0
100
AcDbPoint
 10
1166.981150788123
 20
454.6302978609243
 30
0.0
  0
ENDBLK
  5
6E3
330
6E1
100
AcDbEntity
  8
0
100
AcDbBlockEnd
  0
BLOCK
  5
6EE
330
6ED
100
AcDbEntity
  8
0
100
AcDbBlockBegin
  2
*D18
 70
     1
 10
0.0
 20
0.0
 30
0.0
  3
*D18
  1

  0
LINE
  5
D11
330
6ED
100
AcDbEntity
  8
AM_5
  6
ByBlock
100
AcDbLine
 10
1164.981150788046
 20
435.1660904551562
 30
0.0
 11
1164.981150788046
 21
473.1462867575782
 31
0.0
  0
LINE
  5
D12
330
6ED
100
AcDbEntity
  8
AM_5
  6
ByBlock
100
AcDbLine
 10
1248.981150787996
 20
435.1660904552603
 30
0.0
 11
1248.981150787996
 21
473.1462867575782
 31
0.0
  0
LINE
  5
D13
330
6ED
100
AcDbEntity
  8
AM_5
  6
ByBlock
100
AcDbLine
 10
1171.981150788046
 20
472.1462867575781
 30
0.0
 11
1241.981150787996
 21
472.1462867575781
 31
0.0
  0
SOLID
  5
D14
330
6ED
100
AcDbEntity
  8
AM_5
100
AcDbTrace
 10
1171.981150788046
 20
473.3129534242449
 30
0.0
 11
1171.981150788046
 21
470.9796200909114
 31
0.0
 12
1164.981150788046
 22
472.1462867575781
 32
0.0
 13
1164.981150788046
 23
472.1462867575781
 33
0.0
  0
SOLID
  5
D15
330
6ED
100
AcDbEntity
  8
AM_5
100
AcDbTrace
 10
1241.981150787996
 20
473.3129534242449
 30
0.0
 11
1241.981150787996
 21
470.9796200909114
 31
0.0
 12
1248.981150787996
 22
472.1462867575781
 32
0.0
 13
1248.981150787996
 23
472.1462867575781
 33
0.0
  0
MTEXT
  5
D16
330
6ED
100
AcDbEntity
  8
AM_5
 62
     2
100
AcDbMText
 10
1206.981150788021
 20
478.6462867575782
 30
0.0
 40
10.0
 41
0.0
 71
     5
 72
     1
  1
84
 73
     1
 44
1.0
1001
ACAD
1000
MTEXTBEGIN
1070
    73
1070
     1
1070
    44
1040
1.0
1070
    74
1070
     0
1000
MTEXTEND
  0
POINT
  5
D17
330
6ED
100
AcDbEntity
  8
Defpoints
 62
     0
100
AcDbPoint
 10
1164.981150788046
 20
434.1660904551562
 30
0.0
  0
POINT
  5
D18
330
6ED
100
AcDbEntity
  8
Defpoints
 62
     0
100
AcDbPoint
 10
1248.981150787996
 20
434.1660904552603
 30
0.0
  0
POINT
  5
D19
330
6ED
100
AcDbEntity
  8
Defpoints
 62
     0
100
AcDbPoint
 10
1248.981150787996
 20
472.1462867575781
 30
0.0
  0
ENDBLK
  5
6EF
330
6ED
100
AcDbEntity
  8
0
100
AcDbBlockEnd
  0
BLOCK
  5
6FB
330
6FA
100
AcDbEntity
  8
0
100
AcDbBlockBegin
  2
*D19
 70
     1
 10
0.0
 20
0.0
 30
0.0
  3
*D19
  1

  0
LINE
  5
6FC
330
6FA
100
AcDbEntity
  8
AM_5
100
AcDbLine
 10
1699.497214893243
 20
2238.2722688177
 30
0.0
 11
1180.154611259044
 21
2238.2722688177
 31
0.0
  0
LINE
  5
6FD
330
6FA
100
AcDbEntity
  8
AM_5
100
AcDbLine
 10
1634.497214892777
 20
2723.272268817147
 30
0.0
 11
1180.154611259044
 21
2723.272268817147
 31
0.0
  0
LINE
  5
6FE
330
6FA
100
AcDbEntity
  8
AM_5
100
AcDbLine
 10
1200.154611259043
 20
2288.2722688177
 30
0.0
 11
1200.154611259044
 21
2673.272268817147
 31
0.0
  0
SOLID
  5
6FF
330
6FA
100
AcDbEntity
  8
AM_5
100
AcDbTrace
 10
1191.82127792571
 20
2288.2722688177
 30
0.0
 11
1208.487944592377
 21
2288.2722688177
 31
0.0
 12
1200.154611259043
 22
2238.2722688177
 32
0.0
 13
1200.154611259043
 23
2238.2722688177
 33
0.0
  0
SOLID
  5
700
330
6FA
100
AcDbEntity
  8
AM_5
100
AcDbTrace
 10
1191.82127792571
 20
2673.272268817147
 30
0.0
 11
1208.487944592377
 21
2673.272268817147
 31
0.0
 12
1200.154611259044
 22
2723.272268817147
 32
0.0
 13
1200.154611259044
 23
2723.272268817147
 33
0.0
  0
MTEXT
  5
701
330
6FA
100
AcDbEntity
  8
AM_5
 62
     2
100
AcDbMText
 10
1135.154611259043
 20
2480.772268817424
 30
0.0
 40
70.0
 41
0.0
 71
     5
 72
     1
  1
48.5
 11
0.0000000000000001
 21
1.0
 31
0.0
 73
     1
 44
1.0
1001
ACAD
1000
MTEXTBEGIN
1070
    73
1070
     1
1070
    44
1040
1.0
1070
    74
1070
     0
1000
MTEXTEND
  0
POINT
  5
702
330
6FA
100
AcDbEntity
  8
Defpoints
 62
     0
100
AcDbPoint
 10
1719.497214893243
 20
2238.2722688177
 30
0.0
  0
POINT
  5
703
330
6FA
100
AcDbEntity
  8
Defpoints
 62
     0
100
AcDbPoint
 10
1654.497214892777
 20
2723.272268817147
 30
0.0
  0
POINT
  5
704
330
6FA
100
AcDbEntity
  8
Defpoints
 62
     0
100
AcDbPoint
 10
1200.154611259044
 20
2723.272268817147
 30
0.0
  0
ENDBLK
  5
705
330
6FA
100
AcDbEntity
  8
0
100
AcDbBlockEnd
  0
BLOCK
  5
707
330
706
100
AcDbEntity
  8
0
100
AcDbBlockBegin
  2
*D20
 70
     1
 10
0.0
 20
0.0
 30
0.0
  3
*D20
  1

  0
LINE
  5
708
330
706
100
AcDbEntity
  8
5
370
    -2
100
AcDbLine
 10
2009.497214893199
 20
2238.2722688177
 30
0.0
 11
810.8483356826477
 21
2238.2722688177
 31
0.0
  0
LINE
  5
709
330
706
100
AcDbEntity
  8
5
370
    -2
100
AcDbLine
 10
2009.497214892675
 20
3028.2722688177
 30
0.0
 11
810.8483356826477
 21
3028.272268817701
 31
0.0
  0
LINE
  5
70A
330
706
100
AcDbEntity
  8
5
370
    -2
100
AcDbLine
 10
830.8483356826476
 20
2288.272268817701
 30
0.0
 11
830.8483356826478
 21
2978.272268817701
 31
0.0
  0
SOLID
  5
70B
330
706
100
AcDbEntity
  8
5
100
AcDbTrace
 10
822.5150023493142
 20
2288.272268817701
 30
0.0
 11
839.181669015981
 21
2288.272268817701
 31
0.0
 12
830.8483356826476
 22
2238.2722688177
 32
0.0
 13
830.8483356826476
 23
2238.2722688177
 33
0.0
  0
SOLID
  5
70C
330
706
100
AcDbEntity
  8
5
100
AcDbTrace
 10
822.5150023493144
 20
2978.272268817701
 30
0.0
 11
839.1816690159812
 21
2978.272268817701
 31
0.0
 12
830.8483356826478
 22
3028.272268817701
 32
0.0
 13
830.8483356826478
 23
3028.272268817701
 33
0.0
  0
MTEXT
  5
70D
330
706
100
AcDbEntity
  8
5
 62
     2
100
AcDbMText
 10
764.5827188847469
 20
2633.272268817702
 30
0.0
 40
70.0
 41
0.0
 71
     5
 72
     1
  1
79{}{\H0.71x;\C3;\S 0^ -1;}
 11
0.0000000000000001
 21
1.0
 31
0.0
 73
     1
 44
1.0
1001
ACAD
1000
MTEXTBEGIN
1070
    73
1070
     1
1070
    44
1040
1.0
1070
    74
1070
     0
1000
MTEXTEND
  0
POINT
  5
70E
330
706
100
AcDbEntity
  8
Defpoints
 62
     0
100
AcDbPoint
 10
2029.497214893199
 20
2238.2722688177
 30
0.0
  0
POINT
  5
70F
330
706
100
AcDbEntity
  8
Defpoints
 62
     0
100
AcDbPoint
 10
2029.497214892675
 20
3028.2722688177
 30
0.0
  0
POINT
  5
710
330
706
100
AcDbEntity
  8
Defpoints
 62
     0
100
AcDbPoint
 10
830.8483356826478
 20
3028.272268817701
 30
0.0
  0
ENDBLK
  5
711
330
706
100
AcDbEntity
  8
0
100
AcDbBlockEnd
  0
BLOCK
  5
713
330
712
100
AcDbEntity
  8
0
100
AcDbBlockBegin
  2
*D21
 70
     1
 10
0.0
 20
0.0
 30
0.0
  3
*D21
  1

  0
LINE
  5
714
330
712
100
AcDbEntity
  8
5
370
    -2
100
AcDbLine
 10
1824.497214892864
 20
2405.595399451149
 30
0.0
 11
1365.562080049371
 21
2405.595399451149
 31
0.0
  0
LINE
  5
715
330
712
100
AcDbEntity
  8
5
370
    -2
100
AcDbLine
 10
1729.497214892864
 20
2655.595399451149
 30
0.0
 11
1365.562080049371
 21
2655.595399451149
 31
0.0
  0
LINE
  5
716
330
712
100
AcDbEntity
  8
5
370
    -2
100
AcDbLine
 10
1385.562080049371
 20
2455.59539945115
 30
0.0
 11
1385.562080049371
 21
2605.59539945115
 31
0.0
  0
SOLID
  5
717
330
712
100
AcDbEntity
  8
5
100
AcDbTrace
 10
1377.228746716038
 20
2455.59539945115
 30
0.0
 11
1393.895413382704
 21
2455.59539945115
 31
0.0
 12
1385.562080049371
 22
2405.595399451149
 32
0.0
 13
1385.562080049371
 23
2405.595399451149
 33
0.0
  0
SOLID
  5
718
330
712
100
AcDbEntity
  8
5
100
AcDbTrace
 10
1377.228746716038
 20
2605.59539945115
 30
0.0
 11
1393.895413382704
 21
2605.59539945115
 31
0.0
 12
1385.562080049371
 22
2655.595399451149
 32
0.0
 13
1385.562080049371
 23
2655.595399451149
 33
0.0
  0
MTEXT
  5
719
330
712
100
AcDbEntity
  8
5
 62
     2
100
AcDbMText
 10
1338.437711378606
 20
2546.310675935496
 30
0.0
 40
70.0
 41
0.0
 71
     5
 72
     1
  1
GV 25
 11
0.0000000000000001
 21
1.0
 31
0.0
 73
     1
 44
1.0
1001
ACAD
1000
MTEXTBEGIN
1070
    73
1070
     1
1070
    44
1040
1.0
1070
    74
1070
     0
1000
MTEXTEND
  0
POINT
  5
71A
330
712
100
AcDbEntity
  8
Defpoints
 62
     0
100
AcDbPoint
 10
1844.497214892864
 20
2405.595399451149
 30
0.0
  0
POINT
  5
71B
330
712
100
AcDbEntity
  8
Defpoints
 62
     0
100
AcDbPoint
 10
1749.497214892864
 20
2655.595399451149
 30
0.0
  0
POINT
  5
71C
330
712
100
AcDbEntity
  8
Defpoints
 62
     0
100
AcDbPoint
 10
1385.562080049371
 20
2655.595399451149
 30
0.0
  0
ENDBLK
  5
71D
330
712
100
AcDbEntity
  8
0
100
AcDbBlockEnd
  0
BLOCK
  5
71F
330
71E
100
AcDbEntity
  8
0
100
AcDbBlockBegin
  2
*D22
 70
     1
 10
0.0
 20
0.0
 30
0.0
  3
*D22
  1

  0
LINE
  5
720
330
71E
100
AcDbEntity
  8
5
370
    -2
100
AcDbLine
 10
2441.026135483073
 20
2238.2722688177
 30
0.0
 11
2531.300171110299
 21
2238.2722688177
 31
0.0
  0
LINE
  5
721
330
71E
100
AcDbEntity
  8
5
370
    -2
100
AcDbLine
 10
2441.026135483073
 20
2303.272268817704
 30
0.0
 11
2531.300171110299
 21
2303.272268817704
 31
0.0
  0
LINE
  5
722
330
71E
100
AcDbEntity
  8
5
370
    -2
100
AcDbLine
 10
2511.300171110299
 20
2188.2722688177
 30
0.0
 11
2511.300171110299
 21
2138.2722688177
 31
0.0
  0
LINE
  5
723
330
71E
100
AcDbEntity
  8
5
370
    -2
100
AcDbLine
 10
2511.300171110299
 20
2353.272268817704
 30
0.0
 11
2511.300171110299
 21
2403.272268817704
 31
0.0
  0
LINE
  5
724
330
71E
100
AcDbEntity
  8
5
370
    -2
100
AcDbLine
 10
2511.300171110299
 20
2238.2722688177
 30
0.0
 11
2511.300171110299
 21
2303.272268817704
 31
0.0
  0
SOLID
  5
725
330
71E
100
AcDbEntity
  8
5
100
AcDbTrace
 10
2502.966837776965
 20
2188.2722688177
 30
0.0
 11
2519.633504443632
 21
2188.2722688177
 31
0.0
 12
2511.300171110299
 22
2238.2722688177
 32
0.0
 13
2511.300171110299
 23
2238.2722688177
 33
0.0
  0
SOLID
  5
726
330
71E
100
AcDbEntity
  8
5
100
AcDbTrace
 10
2502.966837776965
 20
2353.272268817704
 30
0.0
 11
2519.633504443632
 21
2353.272268817704
 31
0.0
 12
2511.300171110299
 22
2303.272268817704
 32
0.0
 13
2511.300171110299
 23
2303.272268817704
 33
0.0
  0
MTEXT
  5
727
330
71E
100
AcDbEntity
  8
5
 62
     2
100
AcDbMText
 10
2464.300171110298
 20
2270.772268817703
 30
0.0
 40
70.0
 41
0.0
 71
     5
 72
     1
  1
6
 11
0.0000000000000001
 21
1.0
 31
0.0
 73
     1
 44
1.0
1001
ACAD
1000
MTEXTBEGIN
1070
    73
1070
     1
1070
    44
1040
1.0
1070
    74
1070
     0
1000
MTEXTEND
  0
POINT
  5
728
330
71E
100
AcDbEntity
  8
Defpoints
 62
     0
100
AcDbPoint
 10
2421.026135483073
 20
2238.2722688177
 30
0.0
  0
POINT
  5
729
330
71E
100
AcDbEntity
  8
Defpoints
 62
     0
100
AcDbPoint
 10
2421.026135483073
 20
2303.272268817704
 30
0.0
  0
POINT
  5
72A
330
71E
100
AcDbEntity
  8
Defpoints
 62
     0
100
AcDbPoint
 10
2511.300171110299
 20
2303.272268817704
 30
0.0
  0
ENDBLK
  5
72B
330
71E
100
AcDbEntity
  8
0
100
AcDbBlockEnd
  0
BLOCK
  5
72D
330
72C
100
AcDbEntity
  8
0
100
AcDbBlockBegin
  2
*D23
 70
     1
 10
0.0
 20
0.0
 30
0.0
  3
*D23
  1

  0
LINE
  5
72E
330
72C
100
AcDbEntity
  8
5
370
    -2
100
AcDbLine
 10
1259.309660520885
 20
2238.2722688177
 30
0.0
 11
1006.380855223586
 21
2238.2722688177
 31
0.0
  0
LINE
  5
72F
330
72C
100
AcDbEntity
  8
5
370
    -2
100
AcDbLine
 10
1289.497214892923
 20
2868.272268816864
 30
0.0
 11
1209.629491205676
 21
2868.272268816864
 31
0.0
  0
LINE
  5
730
330
72C
100
AcDbEntity
  8
5
370
    -2
100
AcDbLine
 10
1026.380855223586
 20
2288.2722688177
 30
0.0
 11
1026.380855223586
 21
2818.272268816864
 31
0.0
  0
SOLID
  5
731
330
72C
100
AcDbEntity
  8
5
100
AcDbTrace
 10
1018.047521890252
 20
2288.272268817701
 30
0.0
 11
1034.714188556919
 21
2288.2722688177
 31
0.0
 12
1026.380855223586
 22
2238.2722688177
 32
0.0
 13
1026.380855223586
 23
2238.2722688177
 33
0.0
  0
SOLID
  5
732
330
72C
100
AcDbEntity
  8
5
100
AcDbTrace
 10
1018.047521890252
 20
2818.272268816864
 30
0.0
 11
1034.714188556919
 21
2818.272268816864
 31
0.0
 12
1026.380855223586
 22
2868.272268816864
 32
0.0
 13
1026.380855223586
 23
2868.272268816864
 33
0.0
  0
MTEXT
  5
733
330
72C
100
AcDbEntity
  8
5
 62
     2
100
AcDbMText
 10
979.3808552235853
 20
2553.272268817282
 30
0.0
 40
70.0
 41
0.0
 71
     5
 72
     1
  1
63
 11
0.0000000000000001
 21
1.0
 31
0.0
 73
     1
 44
1.0
1001
ACAD
1000
MTEXTBEGIN
1070
    73
1070
     1
1070
    44
1040
1.0
1070
    74
1070
     0
1000
MTEXTEND
  0
POINT
  5
734
330
72C
100
AcDbEntity
  8
Defpoints
 62
     0
100
AcDbPoint
 10
1279.309660520885
 20
2238.2722688177
 30
0.0
  0
POINT
  5
735
330
72C
100
AcDbEntity
  8
Defpoints
 62
     0
100
AcDbPoint
 10
1309.497214892923
 20
2868.272268816864
 30
0.0
  0
POINT
  5
736
330
72C
100
AcDbEntity
  8
Defpoints
 62
     0
100
AcDbPoint
 10
1026.380855223586
 20
2868.272268816864
 30
0.0
  0
LINE
  5
737
330
72C
100
AcDbEntity
  8
5
370
    -2
100
AcDbLine
 10
1108.352472082752
 20
2868.272268816864
 30
0.0
 11
1006.380855223586
 21
2868.272268816864
 31
0.0
  0
ENDBLK
  5
738
330
72C
100
AcDbEntity
  8
0
100
AcDbBlockEnd
  0
BLOCK
  5
73A
330
739
100
AcDbEntity
  8
0
100
AcDbBlockBegin
  2
*D24
 70
     1
 10
0.0
 20
0.0
 30
0.0
  3
*D24
  1

  0
LINE
  5
73B
330
739
100
AcDbEntity
  8
5
370
    -2
100
AcDbLine
 10
1289.497214892952
 20
2878.272268816871
 30
0.0
 11
1209.171218266201
 21
2878.272268816871
 31
0.0
  0
LINE
  5
73C
330
739
100
AcDbEntity
  8
5
370
    -2
100
AcDbLine
 10
1599.497131956494
 20
3028.272268817155
 30
0.0
 11
1006.380855223586
 21
3028.272268817155
 31
0.0
  0
LINE
  5
73D
330
739
100
AcDbEntity
  8
5
370
    -2
100
AcDbLine
 10
1026.380855223586
 20
2928.272268816871
 30
0.0
 11
1026.380855223586
 21
2978.272268817154
 31
0.0
  0
SOLID
  5
73E
330
739
100
AcDbEntity
  8
5
100
AcDbTrace
 10
1018.047521890252
 20
2928.272268816871
 30
0.0
 11
1034.714188556919
 21
2928.272268816871
 31
0.0
 12
1026.380855223586
 22
2878.272268816871
 32
0.0
 13
1026.380855223586
 23
2878.272268816871
 33
0.0
  0
SOLID
  5
73F
330
739
100
AcDbEntity
  8
5
100
AcDbTrace
 10
1018.047521890252
 20
2978.272268817155
 30
0.0
 11
1034.714188556919
 21
2978.272268817154
 31
0.0
 12
1026.380855223586
 22
3028.272268817155
 32
0.0
 13
1026.380855223586
 23
3028.272268817155
 33
0.0
  0
MTEXT
  5
740
330
739
100
AcDbEntity
  8
5
 62
     2
100
AcDbMText
 10
979.3808552235855
 20
2953.272268817013
 30
0.0
 40
70.0
 41
0.0
 71
     5
 72
     1
  1
15
 11
0.0000000000000001
 21
1.0
 31
0.0
 73
     1
 44
1.0
1001
ACAD
1000
MTEXTBEGIN
1070
    73
1070
     1
1070
    44
1040
1.0
1070
    74
1070
     0
1000
MTEXTEND
  0
POINT
  5
741
330
739
100
AcDbEntity
  8
Defpoints
 62
     0
100
AcDbPoint
 10
1309.497214892952
 20
2878.272268816871
 30
0.0
  0
POINT
  5
742
330
739
100
AcDbEntity
  8
Defpoints
 62
     0
100
AcDbPoint
 10
1619.497131956494
 20
3028.272268817155
 30
0.0
  0
POINT
  5
743
330
739
100
AcDbEntity
  8
Defpoints
 62
     0
100
AcDbPoint
 10
1026.380855223586
 20
3028.272268817155
 30
0.0
  0
LINE
  5
744
330
739
100
AcDbEntity
  8
5
370
    -2
100
AcDbLine
 10
1107.894199143276
 20
2878.272268816871
 30
0.0
 11
1006.380855223586
 21
2878.272268816871
 31
0.0
  0
ENDBLK
  5
745
330
739
100
AcDbEntity
  8
0
100
AcDbBlockEnd
  0
BLOCK
  5
747
330
746
100
AcDbEntity
  8
0
100
AcDbBlockBegin
  2
*D25
 70
     1
 10
0.0
 20
0.0
 30
0.0
  3
*D25
  1

  0
LINE
  5
748
330
746
100
AcDbEntity
  8
5
370
    -2
100
AcDbLine
 10
1649.497214892835
 20
2723.272268816456
 30
0.0
 11
1179.810187002047
 21
2723.272268816456
 31
0.0
  0
LINE
  5
749
330
746
100
AcDbEntity
  8
5
370
    -2
100
AcDbLine
 10
1599.49721489349
 20
3028.2722688175
 30
0.0
 11
1179.810187002047
 21
3028.2722688175
 31
0.0
  0
LINE
  5
74A
330
746
100
AcDbEntity
  8
5
370
    -2
100
AcDbLine
 10
1199.810187002047
 20
2773.272268816456
 30
0.0
 11
1199.810187002047
 21
2978.2722688175
 31
0.0
  0
SOLID
  5
74B
330
746
100
AcDbEntity
  8
5
100
AcDbTrace
 10
1191.476853668714
 20
2773.272268816456
 30
0.0
 11
1208.14352033538
 21
2773.272268816456
 31
0.0
 12
1199.810187002047
 22
2723.272268816456
 32
0.0
 13
1199.810187002047
 23
2723.272268816456
 33
0.0
  0
SOLID
  5
74C
330
746
100
AcDbEntity
  8
5
100
AcDbTrace
 10
1191.476853668714
 20
2978.2722688175
 30
0.0
 11
1208.14352033538
 21
2978.2722688175
 31
0.0
 12
1199.810187002047
 22
3028.2722688175
 32
0.0
 13
1199.810187002047
 23
3028.2722688175
 33
0.0
  0
MTEXT
  5
74D
330
746
100
AcDbEntity
  8
5
 62
     2
100
AcDbMText
 10
1133.544570204146
 20
2875.772268816979
 30
0.0
 40
70.0
 41
0.0
 71
     5
 72
     1
  1
30{}{\H0.71x;\C3;\S 0^ -1;}
 11
0.0000000000000001
 21
1.0
 31
0.0
 73
     1
 44
1.0
1001
ACAD
1000
MTEXTBEGIN
1070
    73
1070
     1
1070
    44
1040
1.0
1070
    74
1070
     0
1000
MTEXTEND
  0
POINT
  5
74E
330
746
100
AcDbEntity
  8
Defpoints
 62
     0
100
AcDbPoint
 10
1669.497214892835
 20
2723.272268816456
 30
0.0
  0
POINT
  5
74F
330
746
100
AcDbEntity
  8
Defpoints
 62
     0
100
AcDbPoint
 10
1619.49721489349
 20
3028.2722688175
 30
0.0
  0
POINT
  5
750
330
746
100
AcDbEntity
  8
Defpoints
 62
     0
100
AcDbPoint
 10
1199.810187002047
 20
3028.2722688175
 30
0.0
  0
ENDBLK
  5
751
330
746
100
AcDbEntity
  8
0
100
AcDbBlockEnd
  0
BLOCK
  5
753
330
752
100
AcDbEntity
  8
0
100
AcDbBlockBegin
  2
*D26
 70
     1
 10
0.0
 20
0.0
 30
0.0
  3
*D26
  1

  0
LINE
  5
754
330
752
100
AcDbEntity
  8
5
370
    -2
100
AcDbLine
 10
1629.497214893839
 20
3038.272268817089
 30
0.0
 11
1629.497214893839
 21
3228.552951666858
 31
0.0
  0
LINE
  5
755
330
752
100
AcDbEntity
  8
5
370
    -2
100
AcDbLine
 10
2429.49721489285
 20
3038.272268814517
 30
0.0
 11
2429.49721489285
 21
3228.552951666858
 31
0.0
  0
LINE
  5
756
330
752
100
AcDbEntity
  8
5
370
    -2
100
AcDbLine
 10
1679.497214893839
 20
3208.552951666858
 30
0.0
 11
2379.49721489285
 21
3208.552951666858
 31
0.0
  0
SOLID
  5
757
330
752
100
AcDbEntity
  8
5
100
AcDbTrace
 10
1679.497214893839
 20
3216.886285000191
 30
0.0
 11
1679.497214893839
 21
3200.219618333524
 31
0.0
 12
1629.497214893839
 22
3208.552951666858
 32
0.0
 13
1629.497214893839
 23
3208.552951666858
 33
0.0
  0
SOLID
  5
758
330
752
100
AcDbEntity
  8
5
100
AcDbTrace
 10
2379.49721489285
 20
3216.886285000191
 30
0.0
 11
2379.49721489285
 21
3200.219618333524
 31
0.0
 12
2429.49721489285
 22
3208.552951666858
 32
0.0
 13
2429.49721489285
 23
3208.552951666858
 33
0.0
  0
MTEXT
  5
759
330
752
100
AcDbEntity
  8
5
 62
     2
100
AcDbMText
 10
2029.497214893345
 20
3275.644493334319
 30
0.0
 40
70.0
 41
0.0
 71
     5
 72
     1
  1
80{}{\H0.71x;\C3;\S+0.5^ -0.5;}
 73
     1
 44
1.0
1001
ACAD
1000
MTEXTBEGIN
1070
    73
1070
     1
1070
    44
1040
1.0
1070
    74
1070
     0
1000
MTEXTEND
  0
POINT
  5
75A
330
752
100
AcDbEntity
  8
Defpoints
 62
     0
100
AcDbPoint
 10
1629.497214893839
 20
3018.272268817089
 30
0.0
  0
POINT
  5
75B
330
752
100
AcDbEntity
  8
Defpoints
 62
     0
100
AcDbPoint
 10
2429.49721489285
 20
3018.272268814517
 30
0.0
  0
POINT
  5
75C
330
752
100
AcDbEntity
  8
Defpoints
 62
     0
100
AcDbPoint
 10
2429.49721489285
 20
3208.552951666858
 30
0.0
  0
ENDBLK
  5
75D
330
752
100
AcDbEntity
  8
0
100
AcDbBlockEnd
  0
BLOCK
  5
75F
330
75E
100
AcDbEntity
  8
0
100
AcDbBlockBegin
  2
*D27
 70
     1
 10
0.0
 20
0.0
 30
0.0
  3
*D27
  1

  0
LINE
  5
760
330
75E
100
AcDbEntity
  8
5
370
    -2
100
AcDbLine
 10
2449.497214892545
 20
3038.272268818181
 30
0.0
 11
2449.497214892545
 21
3393.469316966239
 31
0.0
  0
LINE
  5
761
330
75E
100
AcDbEntity
  8
5
370
    -2
100
AcDbLine
 10
1609.497214893068
 20
3038.2722688171
 30
0.0
 11
1609.497214893068
 21
3393.469316966239
 31
0.0
  0
LINE
  5
762
330
75E
100
AcDbEntity
  8
5
370
    -2
100
AcDbLine
 10
2399.497214892544
 20
3373.469316966239
 30
0.0
 11
1659.497214893068
 21
3373.469316966239
 31
0.0
  0
SOLID
  5
763
330
75E
100
AcDbEntity
  8
5
100
AcDbTrace
 10
2399.497214892544
 20
3381.802650299572
 30
0.0
 11
2399.497214892544
 21
3365.135983632905
 31
0.0
 12
2449.497214892545
 22
3373.469316966239
 32
0.0
 13
2449.497214892545
 23
3373.469316966239
 33
0.0
  0
SOLID
  5
764
330
75E
100
AcDbEntity
  8
5
100
AcDbTrace
 10
1659.497214893068
 20
3381.802650299572
 30
0.0
 11
1659.497214893068
 21
3365.135983632905
 31
0.0
 12
1609.497214893068
 22
3373.469316966239
 32
0.0
 13
1609.497214893068
 23
3373.469316966239
 33
0.0
  0
MTEXT
  5
765
330
75E
100
AcDbEntity
  8
5
 62
     2
100
AcDbMText
 10
2029.497214892806
 20
3420.469316966239
 30
0.0
 40
70.0
 41
0.0
 71
     5
 72
     1
  1
84
 73
     1
 44
1.0
1001
ACAD
1000
MTEXTBEGIN
1070
    73
1070
     1
1070
    44
1040
1.0
1070
    74
1070
     0
1000
MTEXTEND
  0
POINT
  5
766
330
75E
100
AcDbEntity
  8
Defpoints
 62
     0
100
AcDbPoint
 10
2449.497214892545
 20
3018.27226881818
 30
0.0
  0
POINT
  5
767
330
75E
100
AcDbEntity
  8
Defpoints
 62
     0
100
AcDbPoint
 10
1609.497214893068
 20
3018.2722688171
 30
0.0
  0
POINT
  5
768
330
75E
100
AcDbEntity
  8
Defpoints
 62
     0
100
AcDbPoint
 10
1609.497214893068
 20
3373.469316966239
 30
0.0
  0
ENDBLK
  5
769
330
75E
100
AcDbEntity
  8
0
100
AcDbBlockEnd
  0
BLOCK
  5
76B
330
76A
100
AcDbEntity
  8
0
100
AcDbBlockBegin
  2
*D28
 70
     1
 10
0.0
 20
0.0
 30
0.0
  3
*D28
  1

  0
LINE
  5
76C
330
76A
100
AcDbEntity
  8
5
370
    -2
100
AcDbLine
 10
1309.497214892952
 20
2898.272268816871
 30
0.0
 11
1309.497214892952
 21
3228.552951666858
 31
0.0
  0
LINE
  5
76D
330
76A
100
AcDbEntity
  8
5
370
    -2
100
AcDbLine
 10
1609.49721489285
 20
2973.272268817126
 30
0.0
 11
1609.49721489285
 21
3228.552951666858
 31
0.0
  0
LINE
  5
76E
330
76A
100
AcDbEntity
  8
5
370
    -2
100
AcDbLine
 10
1359.497214892952
 20
3208.552951666858
 30
0.0
 11
1559.49721489285
 21
3208.552951666858
 31
0.0
  0
SOLID
  5
76F
330
76A
100
AcDbEntity
  8
5
100
AcDbTrace
 10
1359.497214892952
 20
3216.886285000191
 30
0.0
 11
1359.497214892952
 21
3200.219618333524
 31
0.0
 12
1309.497214892952
 22
3208.552951666858
 32
0.0
 13
1309.497214892952
 23
3208.552951666858
 33
0.0
  0
SOLID
  5
770
330
76A
100
AcDbEntity
  8
5
100
AcDbTrace
 10
1559.49721489285
 20
3216.886285000191
 30
0.0
 11
1559.49721489285
 21
3200.219618333524
 31
0.0
 12
1609.49721489285
 22
3208.552951666858
 32
0.0
 13
1609.49721489285
 23
3208.552951666858
 33
0.0
  0
MTEXT
  5
771
330
76A
100
AcDbEntity
  8
5
 62
     2
100
AcDbMText
 10
1459.497214892901
 20
3275.644493334319
 30
0.0
 40
70.0
 41
0.0
 71
     5
 72
     1
  1
30{}{\H0.71x;\C3;\S+0.5^ -0.5;}
 73
     1
 44
1.0
1001
ACAD
1000
MTEXTBEGIN
1070
    73
1070
     1
1070
    44
1040
1.0
1070
    74
1070
     0
1000
MTEXTEND
  0
POINT
  5
772
330
76A
100
AcDbEntity
  8
Defpoints
 62
     0
100
AcDbPoint
 10
1309.497214892952
 20
2878.272268816871
 30
0.0
  0
POINT
  5
773
330
76A
100
AcDbEntity
  8
Defpoints
 62
     0
100
AcDbPoint
 10
1609.49721489285
 20
2953.272268817125
 30
0.0
  0
POINT
  5
774
330
76A
100
AcDbEntity
  8
Defpoints
 62
     0
100
AcDbPoint
 10
1609.49721489285
 20
3208.552951666858
 30
0.0
  0
ENDBLK
  5
775
330
76A
100
AcDbEntity
  8
0
100
AcDbBlockEnd
  0
BLOCK
  5
777
330
776
100
AcDbEntity
  8
0
100
AcDbBlockBegin
  2
*D29
 70
     1
 10
0.0
 20
0.0
 30
0.0
  3
*D29
  1

  0
LINE
  5
778
330
776
100
AcDbEntity
  8
5
370
    -2
100
AcDbLine
 10
3024.497214892806
 20
2508.272268818799
 30
0.0
 11
3207.374985184138
 21
2508.272268818798
 31
0.0
  0
LINE
  5
779
330
776
100
AcDbEntity
  8
5
370
    -2
100
AcDbLine
 10
2459.497214892705
 20
3028.272268818049
 30
0.0
 11
3207.374985184138
 21
3028.272268818049
 31
0.0
  0
LINE
  5
77A
330
776
100
AcDbEntity
  8
5
370
    -2
100
AcDbLine
 10
3187.374985184139
 20
2558.272268818798
 30
0.0
 11
3187.374985184139
 21
2978.272268818049
 31
0.0
  0
SOLID
  5
77B
330
776
100
AcDbEntity
  8
5
100
AcDbTrace
 10
3179.041651850805
 20
2558.272268818798
 30
0.0
 11
3195.708318517472
 21
2558.272268818798
 31
0.0
 12
3187.374985184139
 22
2508.272268818798
 32
0.0
 13
3187.374985184139
 23
2508.272268818798
 33
0.0
  0
SOLID
  5
77C
330
776
100
AcDbEntity
  8
5
100
AcDbTrace
 10
3179.041651850805
 20
2978.272268818049
 30
0.0
 11
3195.708318517472
 21
2978.272268818049
 31
0.0
 12
3187.374985184139
 22
3028.272268818049
 32
0.0
 13
3187.374985184139
 23
3028.272268818049
 33
0.0
  0
MTEXT
  5
77D
330
776
100
AcDbEntity
  8
5
 62
     2
100
AcDbMText
 10
3122.361651850805
 20
2768.272268818425
 30
0.0
 40
70.0
 41
0.0
 71
     5
 72
     1
  1
52{}{\H0.71x;\C3;\S+1^ -1;}
 11
0.0000000000000001
 21
1.0
 31
0.0
 73
     1
 44
1.0
1001
ACAD
1000
MTEXTBEGIN
1070
    73
1070
     1
1070
    44
1040
1.0
1070
    74
1070
     0
1000
MTEXTEND
  0
POINT
  5
77E
330
776
100
AcDbEntity
  8
Defpoints
 62
     0
100
AcDbPoint
 10
3004.497214892806
 20
2508.272268818799
 30
0.0
  0
POINT
  5
77F
330
776
100
AcDbEntity
  8
Defpoints
 62
     0
100
AcDbPoint
 10
2439.497214892705
 20
3028.272268818049
 30
0.0
  0
POINT
  5
780
330
776
100
AcDbEntity
  8
Defpoints
 62
     0
100
AcDbPoint
 10
3187.374985184139
 20
3028.272268818049
 30
0.0
  0
ENDBLK
  5
781
330
776
100
AcDbEntity
  8
0
100
AcDbBlockEnd
  0
BLOCK
  5
783
330
782
100
AcDbEntity
  8
0
100
AcDbBlockBegin
  2
*D30
 70
     1
 10
0.0
 20
0.0
 30
0.0
  3
*D30
  1

  0
LINE
  5
784
330
782
100
AcDbEntity
  8
5
370
    -2
100
AcDbLine
 10
3024.497214893141
 20
2703.2722688177
 30
0.0
 11
3085.598817412691
 21
2703.2722688177
 31
0.0
  0
LINE
  5
785
330
782
100
AcDbEntity
  8
5
370
    -2
100
AcDbLine
 10
3024.497214893141
 20
2303.272268817696
 30
0.0
 11
3355.977383238016
 21
2303.272268817696
 31
0.0
  0
LINE
  5
786
330
782
100
AcDbEntity
  8
5
370
    -2
100
AcDbLine
 10
3335.977383238017
 20
2653.2722688177
 30
0.0
 11
3335.977383238017
 21
2353.272268817696
 31
0.0
  0
SOLID
  5
787
330
782
100
AcDbEntity
  8
5
100
AcDbTrace
 10
3327.644049904683
 20
2653.2722688177
 30
0.0
 11
3344.31071657135
 21
2653.2722688177
 31
0.0
 12
3335.977383238017
 22
2703.2722688177
 32
0.0
 13
3335.977383238017
 23
2703.2722688177
 33
0.0
  0
SOLID
  5
788
330
782
100
AcDbEntity
  8
5
100
AcDbTrace
 10
3327.644049904683
 20
2353.272268817696
 30
0.0
 11
3344.31071657135
 21
2353.272268817696
 31
0.0
 12
3335.977383238017
 22
2303.272268817696
 32
0.0
 13
3335.977383238017
 23
2303.272268817696
 33
0.0
  0
MTEXT
  5
789
330
782
100
AcDbEntity
  8
5
 62
     2
100
AcDbMText
 10
3288.977383238016
 20
2503.272268817699
 30
0.0
 40
70.0
 41
0.0
 71
     5
 72
     1
  1
%%c40
 11
0.0000000000000001
 21
1.0
 31
0.0
 73
     1
 44
1.0
1001
ACAD
1000
MTEXTBEGIN
1070
    73
1070
     1
1070
    44
1040
1.0
1070
    74
1070
     0
1000
MTEXTEND
  0
POINT
  5
78A
330
782
100
AcDbEntity
  8
Defpoints
 62
     0
100
AcDbPoint
 10
3004.497214893141
 20
2703.2722688177
 30
0.0
  0
POINT
  5
78B
330
782
100
AcDbEntity
  8
Defpoints
 62
     0
100
AcDbPoint
 10
3004.497214893141
 20
2303.272268817696
 30
0.0
  0
POINT
  5
78C
330
782
100
AcDbEntity
  8
Defpoints
 62
     0
100
AcDbPoint
 10
3335.977383238017
 20
2303.272268817696
 30
0.0
  0
LINE
  5
78D
330
782
100
AcDbEntity
  8
5
370
    -2
100
AcDbLine
 10
3221.190763776875
 20
2703.2722688177
 30
0.0
 11
3355.977383238016
 21
2703.2722688177
 31
0.0
  0
ENDBLK
  5
78E
330
782
100
AcDbEntity
  8
0
100
AcDbBlockEnd
  0
BLOCK
  5
8F4
330
8F3
100
AcDbEntity
  8
0
100
AcDbBlockBegin
  2
*D32
 70
     1
 10
0.0
 20
0.0
 30
0.0
  3
*D32
  1

  0
LINE
  5
8F6
330
8F3
100
AcDbEntity
  8
5
370
    -2
100
AcDbLine
 10
2620.039089318725
 20
-325.9381558623418
 30
0.0
 11
2161.103954475231
 21
-325.9381558623416
 31
0.0
  0
LINE
  5
8F7
330
8F3
100
AcDbEntity
  8
5
370
    -2
100
AcDbLine
 10
2525.039089318724
 20
-75.93815586234176
 30
0.0
 11
2161.103954475231
 21
-75.93815586234166
 31
0.0
  0
LINE
  5
8F8
330
8F3
100
AcDbEntity
  8
5
370
    -2
100
AcDbLine
 10
2181.103954475231
 20
-275.9381558623417
 30
0.0
 11
2181.103954475231
 21
-125.9381558623416
 31
0.0
  0
SOLID
  5
8F9
330
8F3
100
AcDbEntity
  8
5
100
AcDbTrace
 10
2172.770621141897
 20
-275.9381558623417
 30
0.0
 11
2189.437287808564
 21
-275.9381558623417
 31
0.0
 12
2181.103954475231
 22
-325.9381558623417
 32
0.0
 13
2181.103954475231
 23
-325.9381558623417
 33
0.0
  0
SOLID
  5
8FA
330
8F3
100
AcDbEntity
  8
5
100
AcDbTrace
 10
2172.770621141897
 20
-125.9381558623416
 30
0.0
 11
2189.437287808564
 21
-125.9381558623416
 31
0.0
 12
2181.103954475231
 22
-75.93815586234166
 32
0.0
 13
2181.103954475231
 23
-75.93815586234166
 33
0.0
  0
MTEXT
  5
8FB
330
8F3
100
AcDbEntity
  8
5
 62
     2
100
AcDbMText
 10
2133.979585804466
 20
-185.222879377995
 30
0.0
 40
70.0
 41
0.0
 71
     5
 72
     1
  1
GV 25
 11
0.0000000000000001
 21
1.0
 31
0.0
 73
     1
 44
1.0
1001
ACAD
1000
MTEXTBEGIN
1070
    73
1070
     1
1070
    44
1040
1.0
1070
    74
1070
     0
1000
MTEXTEND
  0
POINT
  5
8FC
330
8F3
100
AcDbEntity
  8
Defpoints
 62
     0
100
AcDbPoint
 10
2640.039089318725
 20
-325.9381558623418
 30
0.0
  0
POINT
  5
8FD
330
8F3
100
AcDbEntity
  8
Defpoints
 62
     0
100
AcDbPoint
 10
2545.039089318725
 20
-75.93815586234177
 30
0.0
  0
POINT
  5
8FE
330
8F3
100
AcDbEntity
  8
Defpoints
 62
     0
100
AcDbPoint
 10
2181.103954475231
 20
-75.93815586234166
 30
0.0
  0
ENDBLK
  5
8F5
330
8F3
100
AcDbEntity
  8
0
100
AcDbBlockEnd
  0
BLOCK
  5
900
330
8FF
100
AcDbEntity
  8
0
100
AcDbBlockBegin
  2
*D33
 70
     1
 10
0.0
 20
0.0
 30
0.0
  3
*D33
  1

  0
LINE
  5
902
330
8FF
100
AcDbEntity
  8
5
370
    -2
100
AcDbLine
 10
3236.568009908932
 20
-493.2612864957909
 30
0.0
 11
3326.842045536159
 21
-493.2612864957909
 31
0.0
  0
LINE
  5
903
330
8FF
100
AcDbEntity
  8
5
370
    -2
100
AcDbLine
 10
3236.568009908932
 20
-428.2612864957873
 30
0.0
 11
3326.842045536159
 21
-428.2612864957873
 31
0.0
  0
LINE
  5
904
330
8FF
100
AcDbEntity
  8
5
370
    -2
100
AcDbLine
 10
3306.842045536159
 20
-543.2612864957909
 30
0.0
 11
3306.842045536159
 21
-593.2612864957909
 31
0.0
  0
LINE
  5
905
330
8FF
100
AcDbEntity
  8
5
370
    -2
100
AcDbLine
 10
3306.842045536159
 20
-378.2612864957873
 30
0.0
 11
3306.842045536159
 21
-328.2612864957873
 31
0.0
  0
LINE
  5
906
330
8FF
100
AcDbEntity
  8
5
370
    -2
100
AcDbLine
 10
3306.842045536159
 20
-493.2612864957909
 30
0.0
 11
3306.842045536159
 21
-428.2612864957873
 31
0.0
  0
SOLID
  5
907
330
8FF
100
AcDbEntity
  8
5
100
AcDbTrace
 10
3298.508712202826
 20
-543.2612864957909
 30
0.0
 11
3315.175378869493
 21
-543.2612864957909
 31
0.0
 12
3306.842045536159
 22
-493.2612864957909
 32
0.0
 13
3306.842045536159
 23
-493.2612864957909
 33
0.0
  0
SOLID
  5
908
330
8FF
100
AcDbEntity
  8
5
100
AcDbTrace
 10
3298.508712202826
 20
-378.2612864957873
 30
0.0
 11
3315.175378869493
 21
-378.2612864957873
 31
0.0
 12
3306.842045536159
 22
-428.2612864957873
 32
0.0
 13
3306.842045536159
 23
-428.2612864957873
 33
0.0
  0
MTEXT
  5
909
330
8FF
100
AcDbEntity
  8
5
 62
     2
100
AcDbMText
 10
3259.842045536159
 20
-460.7612864957886
 30
0.0
 40
70.0
 41
0.0
 71
     5
 72
     1
  1
6
 11
0.0000000000000001
 21
1.0
 31
0.0
 73
     1
 44
1.0
1001
ACAD
1000
MTEXTBEGIN
1070
    73
1070
     1
1070
    44
1040
1.0
1070
    74
1070
     0
1000
MTEXTEND
  0
POINT
  5
90A
330
8FF
100
AcDbEntity
  8
Defpoints
 62
     0
100
AcDbPoint
 10
3216.568009908933
 20
-493.2612864957909
 30
0.0
  0
POINT
  5
90B
330
8FF
100
AcDbEntity
  8
Defpoints
 62
     0
100
AcDbPoint
 10
3216.568009908933
 20
-428.2612864957873
 30
0.0
  0
POINT
  5
90C
330
8FF
100
AcDbEntity
  8
Defpoints
 62
     0
100
AcDbPoint
 10
3306.842045536159
 20
-428.2612864957873
 30
0.0
  0
ENDBLK
  5
901
330
8FF
100
AcDbEntity
  8
0
100
AcDbBlockEnd
  0
BLOCK
  5
90E
330
90D
100
AcDbEntity
  8
0
100
AcDbBlockBegin
  2
*D34
 70
     1
 10
0.0
 20
0.0
 30
0.0
  3
*D34
  1

  0
LINE
  5
9CD
330
90D
100
AcDbEntity
  8
5
370
    -2
100
AcDbLine
 10
2054.851534946745
 20
-493.2612864957909
 30
0.0
 11
1801.922729649446
 21
-493.2612864957909
 31
0.0
  0
LINE
  5
9CE
330
90D
100
AcDbEntity
  8
5
370
    -2
100
AcDbLine
 10
2085.039089318783
 20
136.7387135033723
 30
0.0
 11
1801.922729649446
 21
136.7387135033724
 31
0.0
  0
LINE
  5
9CF
330
90D
100
AcDbEntity
  8
5
370
    -2
100
AcDbLine
 10
1821.922729649446
 20
-443.2612864957909
 30
0.0
 11
1821.922729649446
 21
86.7387135033724
 31
0.0
  0
SOLID
  5
9D0
330
90D
100
AcDbEntity
  8
5
100
AcDbTrace
 10
1813.589396316112
 20
-443.2612864957909
 30
0.0
 11
1830.256062982779
 21
-443.2612864957909
 31
0.0
 12
1821.922729649446
 22
-493.2612864957909
 32
0.0
 13
1821.922729649446
 23
-493.2612864957909
 33
0.0
  0
SOLID
  5
9D1
330
90D
100
AcDbEntity
  8
5
100
AcDbTrace
 10
1813.589396316112
 20
86.7387135033724
 30
0.0
 11
1830.256062982779
 21
86.73871350337238
 31
0.0
 12
1821.922729649446
 22
136.7387135033724
 32
0.0
 13
1821.922729649446
 23
136.7387135033724
 33
0.0
  0
MTEXT
  5
9D2
330
90D
100
AcDbEntity
  8
5
 62
     2
100
AcDbMText
 10
1774.922729649446
 20
-178.2612864962089
 30
0.0
 40
70.0
 41
0.0
 71
     5
 72
     1
  1
63
 11
0.0000000000000001
 21
1.0
 31
0.0
 73
     1
 44
1.0
1001
ACAD
1000
MTEXTBEGIN
1070
    73
1070
     1
1070
    44
1040
1.0
1070
    74
1070
     0
1000
MTEXTEND
  0
POINT
  5
9D3
330
90D
100
AcDbEntity
  8
Defpoints
 62
     0
100
AcDbPoint
 10
2074.851534946745
 20
-493.2612864957909
 30
0.0
  0
POINT
  5
9D4
330
90D
100
AcDbEntity
  8
Defpoints
 62
     0
100
AcDbPoint
 10
2105.039089318783
 20
136.7387135033723
 30
0.0
  0
POINT
  5
9D5
330
90D
100
AcDbEntity
  8
Defpoints
 62
     0
100
AcDbPoint
 10
1821.922729649446
 20
136.7387135033724
 30
0.0
  0
ENDBLK
  5
90F
330
90D
100
AcDbEntity
  8
0
100
AcDbBlockEnd
  0
BLOCK
  5
91A
330
919
100
AcDbEntity
  8
0
100
AcDbBlockBegin
  2
*D35
 70
     1
 10
0.0
 20
0.0
 30
0.0
  3
*D35
  1

  0
LINE
  5
9DF
330
919
100
AcDbEntity
  8
5
370
    -2
100
AcDbLine
 10
2085.039089318812
 20
146.7387135033796
 30
0.0
 11
1801.922729649446
 21
146.7387135033797
 31
0.0
  0
LINE
  5
9E0
330
919
100
AcDbEntity
  8
5
370
    -2
100
AcDbLine
 10
2395.039006382354
 20
296.7387135036633
 30
0.0
 11
1801.922729649446
 21
296.7387135036635
 31
0.0
  0
LINE
  5
9E1
330
919
100
AcDbEntity
  8
5
370
    -2
100
AcDbLine
 10
1821.922729649446
 20
196.7387135033797
 30
0.0
 11
1821.922729649446
 21
246.7387135036635
 31
0.0
  0
SOLID
  5
9E2
330
919
100
AcDbEntity
  8
5
100
AcDbTrace
 10
1813.589396316112
 20
196.7387135033797
 30
0.0
 11
1830.256062982779
 21
196.7387135033797
 31
0.0
 12
1821.922729649446
 22
146.7387135033797
 32
0.0
 13
1821.922729649446
 23
146.7387135033797
 33
0.0
  0
SOLID
  5
9E3
330
919
100
AcDbEntity
  8
5
100
AcDbTrace
 10
1813.589396316112
 20
246.7387135036635
 30
0.0
 11
1830.256062982779
 21
246.7387135036635
 31
0.0
 12
1821.922729649446
 22
296.7387135036635
 32
0.0
 13
1821.922729649446
 23
296.7387135036635
 33
0.0
  0
MTEXT
  5
9E4
330
919
100
AcDbEntity
  8
5
 62
     2
100
AcDbMText
 10
1774.922729649446
 20
221.7387135035219
 30
0.0
 40
70.0
 41
0.0
 71
     5
 72
     1
  1
15
 11
0.0000000000000001
 21
1.0
 31
0.0
 73
     1
 44
1.0
1001
ACAD
1000
MTEXTBEGIN
1070
    73
1070
     1
1070
    44
1040
1.0
1070
    74
1070
     0
1000
MTEXTEND
  0
POINT
  5
9E5
330
919
100
AcDbEntity
  8
Defpoints
 62
     0
100
AcDbPoint
 10
2105.039089318812
 20
146.7387135033796
 30
0.0
  0
POINT
  5
9E6
330
919
100
AcDbEntity
  8
Defpoints
 62
     0
100
AcDbPoint
 10
2415.039006382354
 20
296.7387135036633
 30
0.0
  0
POINT
  5
9E7
330
919
100
AcDbEntity
  8
Defpoints
 62
     0
100
AcDbPoint
 10
1821.922729649446
 20
296.7387135036635
 30
0.0
  0
ENDBLK
  5
91B
330
919
100
AcDbEntity
  8
0
100
AcDbBlockEnd
  0
BLOCK
  5
926
330
925
100
AcDbEntity
  8
0
100
AcDbBlockBegin
  2
*D36
 70
     1
 10
0.0
 20
0.0
 30
0.0
  3
*D36
  1

  0
LINE
  5
928
330
925
100
AcDbEntity
  8
5
370
    -2
100
AcDbLine
 10
2445.039089318696
 20
-8.261286497035138
 30
0.0
 11
1975.352061427907
 21
-8.261286497035005
 31
0.0
  0
LINE
  5
929
330
925
100
AcDbEntity
  8
5
370
    -2
100
AcDbLine
 10
2395.03908931935
 20
296.738713504009
 30
0.0
 11
1975.352061427907
 21
296.738713504009
 31
0.0
  0
LINE
  5
92A
330
925
100
AcDbEntity
  8
5
370
    -2
100
AcDbLine
 10
1995.352061427907
 20
41.73871350296499
 30
0.0
 11
1995.352061427907
 21
246.738713504009
 31
0.0
  0
SOLID
  5
92B
330
925
100
AcDbEntity
  8
5
100
AcDbTrace
 10
1987.018728094574
 20
41.73871350296499
 30
0.0
 11
2003.685394761241
 21
41.73871350296498
 31
0.0
 12
1995.352061427907
 22
-8.26128649703501
 32
0.0
 13
1995.352061427907
 23
-8.26128649703501
 33
0.0
  0
SOLID
  5
92C
330
925
100
AcDbEntity
  8
5
100
AcDbTrace
 10
1987.018728094574
 20
246.738713504009
 30
0.0
 11
2003.685394761241
 21
246.738713504009
 31
0.0
 12
1995.352061427907
 22
296.738713504009
 32
0.0
 13
1995.352061427907
 23
296.738713504009
 33
0.0
  0
MTEXT
  5
92D
330
925
100
AcDbEntity
  8
5
 62
     2
100
AcDbMText
 10
1929.086444630007
 20
144.2387135034873
 30
0.0
 40
70.0
 41
0.0
 71
     5
 72
     1
  1
30{}{\H0.71x;\C3;\S 0^ -1;}
 11
0.0000000000000001
 21
1.0
 31
0.0
 73
     1
 44
1.0
1001
ACAD
1000
MTEXTBEGIN
1070
    73
1070
     1
1070
    44
1040
1.0
1070
    74
1070
     0
1000
MTEXTEND
  0
POINT
  5
92E
330
925
100
AcDbEntity
  8
Defpoints
 62
     0
100
AcDbPoint
 10
2465.039089318695
 20
-8.261286497035143
 30
0.0
  0
POINT
  5
92F
330
925
100
AcDbEntity
  8
Defpoints
 62
     0
100
AcDbPoint
 10
2415.03908931935
 20
296.738713504009
 30
0.0
  0
POINT
  5
930
330
925
100
AcDbEntity
  8
Defpoints
 62
     0
100
AcDbPoint
 10
1995.352061427907
 20
296.738713504009
 30
0.0
  0
ENDBLK
  5
927
330
925
100
AcDbEntity
  8
0
100
AcDbBlockEnd
  0
BLOCK
  5
932
330
931
100
AcDbEntity
  8
0
100
AcDbBlockBegin
  2
*D37
 70
     1
 10
0.0
 20
0.0
 30
0.0
  3
*D37
  1

  0
LINE
  5
934
330
931
100
AcDbEntity
  8
5
370
    -2
100
AcDbLine
 10
2425.0390893197
 20
306.7387135035979
 30
0.0
 11
2425.0390893197
 21
497.0193963533666
 31
0.0
  0
LINE
  5
935
330
931
100
AcDbEntity
  8
5
370
    -2
100
AcDbLine
 10
3225.03908931871
 20
306.7387135010258
 30
0.0
 11
3225.03908931871
 21
497.0193963533666
 31
0.0
  0
LINE
  5
936
330
931
100
AcDbEntity
  8
5
370
    -2
100
AcDbLine
 10
2475.0390893197
 20
477.0193963533666
 30
0.0
 11
3175.039089318711
 21
477.0193963533666
 31
0.0
  0
SOLID
  5
937
330
931
100
AcDbEntity
  8
5
100
AcDbTrace
 10
2475.0390893197
 20
485.3527296866999
 30
0.0
 11
2475.0390893197
 21
468.6860630200333
 31
0.0
 12
2425.0390893197
 22
477.0193963533666
 32
0.0
 13
2425.0390893197
 23
477.0193963533666
 33
0.0
  0
SOLID
  5
938
330
931
100
AcDbEntity
  8
5
100
AcDbTrace
 10
3175.039089318711
 20
485.3527296866999
 30
0.0
 11
3175.039089318711
 21
468.6860630200333
 31
0.0
 12
3225.03908931871
 22
477.0193963533666
 32
0.0
 13
3225.03908931871
 23
477.0193963533666
 33
0.0
  0
MTEXT
  5
939
330
931
100
AcDbEntity
  8
5
 62
     2
100
AcDbMText
 10
2825.039089319205
 20
544.110938020828
 30
0.0
 40
70.0
 41
0.0
 71
     5
 72
     1
  1
80{}{\H0.71x;\C3;\S+0.5^ -0.5;}
 73
     1
 44
1.0
1001
ACAD
1000
MTEXTBEGIN
1070
    73
1070
     1
1070
    44
1040
1.0
1070
    74
1070
     0
1000
MTEXTEND
  0
POINT
  5
93A
330
931
100
AcDbEntity
  8
Defpoints
 62
     0
100
AcDbPoint
 10
2425.0390893197
 20
286.7387135035979
 30
0.0
  0
POINT
  5
93B
330
931
100
AcDbEntity
  8
Defpoints
 62
     0
100
AcDbPoint
 10
3225.03908931871
 20
286.7387135010258
 30
0.0
  0
POINT
  5
93C
330
931
100
AcDbEntity
  8
Defpoints
 62
     0
100
AcDbPoint
 10
3225.03908931871
 20
477.0193963533666
 30
0.0
  0
ENDBLK
  5
933
330
931
100
AcDbEntity
  8
0
100
AcDbBlockEnd
  0
BLOCK
  5
93E
330
93D
100
AcDbEntity
  8
0
100
AcDbBlockBegin
  2
*D38
 70
     1
 10
0.0
 20
0.0
 30
0.0
  3
*D38
  1

  0
LINE
  5
940
330
93D
100
AcDbEntity
  8
5
370
    -2
100
AcDbLine
 10
3245.039089318404
 20
306.7387135046893
 30
0.0
 11
3245.039089318404
 21
661.9357616527477
 31
0.0
  0
LINE
  5
941
330
93D
100
AcDbEntity
  8
5
370
    -2
100
AcDbLine
 10
2405.039089318929
 20
306.7387135036088
 30
0.0
 11
2405.039089318929
 21
661.9357616527477
 31
0.0
  0
LINE
  5
942
330
93D
100
AcDbEntity
  8
5
370
    -2
100
AcDbLine
 10
3195.039089318405
 20
641.9357616527477
 30
0.0
 11
2455.039089318928
 21
641.9357616527477
 31
0.0
  0
SOLID
  5
943
330
93D
100
AcDbEntity
  8
5
100
AcDbTrace
 10
3195.039089318405
 20
650.269094986081
 30
0.0
 11
3195.039089318405
 21
633.6024283194143
 31
0.0
 12
3245.039089318404
 22
641.9357616527477
 32
0.0
 13
3245.039089318404
 23
641.9357616527477
 33
0.0
  0
SOLID
  5
944
330
93D
100
AcDbEntity
  8
5
100
AcDbTrace
 10
2455.039089318928
 20
650.269094986081
 30
0.0
 11
2455.039089318928
 21
633.6024283194143
 31
0.0
 12
2405.039089318929
 22
641.9357616527477
 32
0.0
 13
2405.039089318929
 23
641.9357616527477
 33
0.0
  0
MTEXT
  5
945
330
93D
100
AcDbEntity
  8
5
 62
     2
100
AcDbMText
 10
2825.039089318666
 20
688.9357616527477
 30
0.0
 40
70.0
 41
0.0
 71
     5
 72
     1
  1
84
 73
     1
 44
1.0
1001
ACAD
1000
MTEXTBEGIN
1070
    73
1070
     1
1070
    44
1040
1.0
1070
    74
1070
     0
1000
MTEXTEND
  0
POINT
  5
946
330
93D
100
AcDbEntity
  8
Defpoints
 62
     0
100
AcDbPoint
 10
3245.039089318404
 20
286.7387135046893
 30
0.0
  0
POINT
  5
947
330
93D
100
AcDbEntity
  8
Defpoints
 62
     0
100
AcDbPoint
 10
2405.039089318929
 20
286.7387135036088
 30
0.0
  0
POINT
  5
948
330
93D
100
AcDbEntity
  8
Defpoints
 62
     0
100
AcDbPoint
 10
2405.039089318929
 20
641.9357616527477
 30
0.0
  0
ENDBLK
  5
93F
330
93D
100
AcDbEntity
  8
0
100
AcDbBlockEnd
  0
BLOCK
  5
94A
330
949
100
AcDbEntity
  8
0
100
AcDbBlockBegin
  2
*D39
 70
     1
 10
0.0
 20
0.0
 30
0.0
  3
*D39
  1

  0
LINE
  5
94C
330
949
100
AcDbEntity
  8
5
370
    -2
100
AcDbLine
 10
2105.039089318812
 20
166.7387135033796
 30
0.0
 11
2105.039089318812
 21
497.0193963533666
 31
0.0
  0
LINE
  5
94D
330
949
100
AcDbEntity
  8
5
370
    -2
100
AcDbLine
 10
2405.03908931871
 20
241.7387135036342
 30
0.0
 11
2405.03908931871
 21
497.0193963533666
 31
0.0
  0
LINE
  5
94E
330
949
100
AcDbEntity
  8
5
370
    -2
100
AcDbLine
 10
2155.039089318812
 20
477.0193963533666
 30
0.0
 11
2355.03908931871
 21
477.0193963533666
 31
0.0
  0
SOLID
  5
94F
330
949
100
AcDbEntity
  8
5
100
AcDbTrace
 10
2155.039089318812
 20
485.3527296866999
 30
0.0
 11
2155.039089318812
 21
468.6860630200333
 31
0.0
 12
2105.039089318812
 22
477.0193963533666
 32
0.0
 13
2105.039089318812
 23
477.0193963533666
 33
0.0
  0
SOLID
  5
950
330
949
100
AcDbEntity
  8
5
100
AcDbTrace
 10
2355.03908931871
 20
485.3527296866999
 30
0.0
 11
2355.03908931871
 21
468.6860630200333
 31
0.0
 12
2405.03908931871
 22
477.0193963533666
 32
0.0
 13
2405.03908931871
 23
477.0193963533666
 33
0.0
  0
MTEXT
  5
951
330
949
100
AcDbEntity
  8
5
 62
     2
100
AcDbMText
 10
2255.039089318761
 20
544.110938020828
 30
0.0
 40
70.0
 41
0.0
 71
     5
 72
     1
  1
30{}{\H0.71x;\C3;\S+0.5^ -0.5;}
 73
     1
 44
1.0
1001
ACAD
1000
MTEXTBEGIN
1070
    73
1070
     1
1070
    44
1040
1.0
1070
    74
1070
     0
1000
MTEXTEND
  0
POINT
  5
952
330
949
100
AcDbEntity
  8
Defpoints
 62
     0
100
AcDbPoint
 10
2105.039089318812
 20
146.7387135033796
 30
0.0
  0
POINT
  5
953
330
949
100
AcDbEntity
  8
Defpoints
 62
     0
100
AcDbPoint
 10
2405.03908931871
 20
221.7387135036342
 30
0.0
  0
POINT
  5
954
330
949
100
AcDbEntity
  8
Defpoints
 62
     0
100
AcDbPoint
 10
2405.03908931871
 20
477.0193963533666
 30
0.0
  0
ENDBLK
  5
94B
330
949
100
AcDbEntity
  8
0
100
AcDbBlockEnd
  0
BLOCK
  5
956
330
955
100
AcDbEntity
  8
0
100
AcDbBlockBegin
  2
*D40
 70
     1
 10
0.0
 20
0.0
 30
0.0
  3
*D40
  1

  0
LINE
  5
958
330
955
100
AcDbEntity
  8
5
370
    -2
100
AcDbLine
 10
3820.039089318667
 20
-223.2612864946923
 30
0.0
 11
4002.916859609999
 21
-223.2612864946923
 31
0.0
  0
LINE
  5
959
330
955
100
AcDbEntity
  8
5
370
    -2
100
AcDbLine
 10
3255.039089318565
 20
296.7387135045583
 30
0.0
 11
4002.916859609999
 21
296.738713504558
 31
0.0
  0
LINE
  5
95A
330
955
100
AcDbEntity
  8
5
370
    -2
100
AcDbLine
 10
3982.916859609998
 20
-173.2612864946923
 30
0.0
 11
3982.916859609998
 21
246.7387135045581
 31
0.0
  0
SOLID
  5
95B
330
955
100
AcDbEntity
  8
5
100
AcDbTrace
 10
3974.583526276666
 20
-173.2612864946923
 30
0.0
 11
3991.250192943332
 21
-173.2612864946923
 31
0.0
 12
3982.916859609998
 22
-223.2612864946923
 32
0.0
 13
3982.916859609998
 23
-223.2612864946923
 33
0.0
  0
SOLID
  5
95C
330
955
100
AcDbEntity
  8
5
100
AcDbTrace
 10
3974.583526276666
 20
246.7387135045581
 30
0.0
 11
3991.250192943332
 21
246.7387135045581
 31
0.0
 12
3982.916859609998
 22
296.738713504558
 32
0.0
 13
3982.916859609998
 23
296.738713504558
 33
0.0
  0
MTEXT
  5
95D
330
955
100
AcDbEntity
  8
5
 62
     2
100
AcDbMText
 10
3917.903526276666
 20
36.73871350493354
 30
0.0
 40
70.0
 41
0.0
 71
     5
 72
     1
  1
52{}{\H0.71x;\C3;\S+1^ -1;}
 11
0.0000000000000001
 21
1.0
 31
0.0
 73
     1
 44
1.0
1001
ACAD
1000
MTEXTBEGIN
1070
    73
1070
     1
1070
    44
1040
1.0
1070
    74
1070
     0
1000
MTEXTEND
  0
POINT
  5
95E
330
955
100
AcDbEntity
  8
Defpoints
 62
     0
100
AcDbPoint
 10
3800.039089318666
 20
-223.2612864946923
 30
0.0
  0
POINT
  5
95F
330
955
100
AcDbEntity
  8
Defpoints
 62
     0
100
AcDbPoint
 10
3235.039089318565
 20
296.7387135045583
 30
0.0
  0
POINT
  5
960
330
955
100
AcDbEntity
  8
Defpoints
 62
     0
100
AcDbPoint
 10
3982.916859609998
 20
296.738713504558
 30
0.0
  0
ENDBLK
  5
957
330
955
100
AcDbEntity
  8
0
100
AcDbBlockEnd
  0
BLOCK
  5
962
330
961
100
AcDbEntity
  8
0
100
AcDbBlockBegin
  2
*D41
 70
     1
 10
0.0
 20
0.0
 30
0.0
  3
*D41
  1

  0
LINE
  5
9F1
330
961
100
AcDbEntity
  8
5
370
    -2
100
AcDbLine
 10
3820.039089319001
 20
-28.26128649579096
 30
0.0
 11
4151.519257663877
 21
-28.26128649579105
 31
0.0
  0
LINE
  5
9F2
330
961
100
AcDbEntity
  8
5
370
    -2
100
AcDbLine
 10
3820.039089319001
 20
-428.2612864957946
 30
0.0
 11
4151.519257663877
 21
-428.2612864957946
 31
0.0
  0
LINE
  5
9F3
330
961
100
AcDbEntity
  8
5
370
    -2
100
AcDbLine
 10
4131.519257663876
 20
-78.26128649579105
 30
0.0
 11
4131.519257663876
 21
-378.2612864957946
 31
0.0
  0
SOLID
  5
9F4
330
961
100
AcDbEntity
  8
5
100
AcDbTrace
 10
4123.185924330543
 20
-78.26128649579104
 30
0.0
 11
4139.852590997209
 21
-78.26128649579105
 31
0.0
 12
4131.519257663876
 22
-28.26128649579105
 32
0.0
 13
4131.519257663876
 23
-28.26128649579105
 33
0.0
  0
SOLID
  5
9F5
330
961
100
AcDbEntity
  8
5
100
AcDbTrace
 10
4123.185924330543
 20
-378.2612864957946
 30
0.0
 11
4139.852590997209
 21
-378.2612864957946
 31
0.0
 12
4131.519257663876
 22
-428.2612864957946
 32
0.0
 13
4131.519257663876
 23
-428.2612864957946
 33
0.0
  0
MTEXT
  5
9F6
330
961
100
AcDbEntity
  8
5
 62
     2
100
AcDbMText
 10
4084.519257663877
 20
-228.2612864957922
 30
0.0
 40
70.0
 41
0.0
 71
     5
 72
     1
  1
%%c40
 11
0.0000000000000001
 21
1.0
 31
0.0
 73
     1
 44
1.0
1001
ACAD
1000
MTEXTBEGIN
1070
    73
1070
     1
1070
    44
1040
1.0
1070
    74
1070
     0
1000
MTEXTEND
  0
POINT
  5
9F7
330
961
100
AcDbEntity
  8
Defpoints
 62
     0
100
AcDbPoint
 10
3800.039089319001
 20
-28.26128649579096
 30
0.0
  0
POINT
  5
9F8
330
961
100
AcDbEntity
  8
Defpoints
 62
     0
100
AcDbPoint
 10
3800.039089319001
 20
-428.2612864957946
 30
0.0
  0
POINT
  5
9F9
330
961
100
AcDbEntity
  8
Defpoints
 62
     0
100
AcDbPoint
 10
4131.519257663876
 20
-428.2612864957946
 30
0.0
  0
ENDBLK
  5
963
330
961
100
AcDbEntity
  8
0
100
AcDbBlockEnd
  0
BLOCK
  5
96E
330
96D
100
AcDbEntity
  8
0
100
AcDbBlockBegin
  2
*D42
 70
     1
 10
0.0
 20
0.0
 30
0.0
  3
*D42
  1

  0
LINE
  5
970
330
96D
100
AcDbEntity
  8
AM_5
  6
ByBlock
100
AcDbLine
 10
2495.039089319103
 20
-493.2612864957909
 30
0.0
 11
1975.696485684904
 21
-493.2612864957907
 31
0.0
  0
LINE
  5
971
330
96D
100
AcDbEntity
  8
AM_5
  6
ByBlock
100
AcDbLine
 10
2430.039089318638
 20
-8.261286496343922
 30
0.0
 11
1975.696485684904
 21
-8.261286496343794
 31
0.0
  0
LINE
  5
972
330
96D
100
AcDbEntity
  8
AM_5
  6
ByBlock
100
AcDbLine
 10
1995.696485684904
 20
-423.2612864957907
 30
0.0
 11
1995.696485684904
 21
-78.2612864963438
 31
0.0
  0
SOLID
  5
973
330
96D
100
AcDbEntity
  8
AM_5
100
AcDbTrace
 10
1984.029819018237
 20
-423.2612864957907
 30
0.0
 11
2007.363152351571
 21
-423.2612864957907
 31
0.0
 12
1995.696485684904
 22
-493.2612864957907
 32
0.0
 13
1995.696485684904
 23
-493.2612864957907
 33
0.0
  0
SOLID
  5
974
330
96D
100
AcDbEntity
  8
AM_5
100
AcDbTrace
 10
1984.029819018237
 20
-78.2612864963438
 30
0.0
 11
2007.363152351571
 21
-78.2612864963438
 31
0.0
 12
1995.696485684904
 22
-8.261286496343798
 32
0.0
 13
1995.696485684904
 23
-8.261286496343798
 33
0.0
  0
MTEXT
  5
975
330
96D
100
AcDbEntity
  8
AM_5
 62
     2
100
AcDbMText
 10
1930.696485684904
 20
-250.761286496067
 30
0.0
 40
70.0
 41
0.0
 71
     5
 72
     1
  1
48.5
 11
0.0000000000000001
 21
1.0
 31
0.0
 73
     1
 44
1.0
1001
ACAD
1000
MTEXTBEGIN
1070
    73
1070
     1
1070
    44
1040
1.0
1070
    74
1070
     0
1000
MTEXTEND
  0
POINT
  5
976
330
96D
100
AcDbEntity
  8
Defpoints
 62
     0
100
AcDbPoint
 10
2515.039089319103
 20
-493.2612864957909
 30
0.0
  0
POINT
  5
977
330
96D
100
AcDbEntity
  8
Defpoints
 62
     0
100
AcDbPoint
 10
2450.039089318638
 20
-8.261286496343927
 30
0.0
  0
POINT
  5
978
330
96D
100
AcDbEntity
  8
Defpoints
 62
     0
100
AcDbPoint
 10
1995.696485684904
 20
-8.261286496343798
 30
0.0
  0
ENDBLK
  5
96F
330
96D
100
AcDbEntity
  8
0
100
AcDbBlockEnd
  0
BLOCK
  5
97A
330
979
100
AcDbEntity
  8
0
100
AcDbBlockBegin
  2
*D43
 70
     1
 10
0.0
 20
0.0
 30
0.0
  3
*D43
  1

  0
LINE
  5
97C
330
979
100
AcDbEntity
  8
5
370
    -2
100
AcDbLine
 10
2805.039089319059
 20
-493.2612864957909
 30
0.0
 11
1606.390210108507
 21
-493.2612864957905
 31
0.0
  0
LINE
  5
97D
330
979
100
AcDbEntity
  8
5
370
    -2
100
AcDbLine
 10
2805.039089318535
 20
296.738713504209
 30
0.0
 11
1606.390210108507
 21
296.7387135042094
 31
0.0
  0
LINE
  5
97E
330
979
100
AcDbEntity
  8
5
370
    -2
100
AcDbLine
 10
1626.390210108507
 20
-443.2612864957905
 30
0.0
 11
1626.390210108507
 21
246.7387135042093
 31
0.0
  0
SOLID
  5
97F
330
979
100
AcDbEntity
  8
5
100
AcDbTrace
 10
1618.056876775174
 20
-443.2612864957905
 30
0.0
 11
1634.72354344184
 21
-443.2612864957905
 31
0.0
 12
1626.390210108507
 22
-493.2612864957905
 32
0.0
 13
1626.390210108507
 23
-493.2612864957905
 33
0.0
  0
SOLID
  5
980
330
979
100
AcDbEntity
  8
5
100
AcDbTrace
 10
1618.056876775174
 20
246.7387135042093
 30
0.0
 11
1634.72354344184
 21
246.7387135042093
 31
0.0
 12
1626.390210108507
 22
296.7387135042094
 32
0.0
 13
1626.390210108507
 23
296.7387135042094
 33
0.0
  0
MTEXT
  5
981
330
979
100
AcDbEntity
  8
5
 62
     2
100
AcDbMText
 10
1560.124593310607
 20
-98.26128649578913
 30
0.0
 40
70.0
 41
0.0
 71
     5
 72
     1
  1
79{}{\H0.71x;\C3;\S 0^ -1;}
 11
0.0000000000000001
 21
1.0
 31
0.0
 73
     1
 44
1.0
1001
ACAD
1000
MTEXTBEGIN
1070
    73
1070
     1
1070
    44
1040
1.0
1070
    74
1070
     0
1000
MTEXTEND
  0
POINT
  5
982
330
979
100
AcDbEntity
  8
Defpoints
 62
     0
100
AcDbPoint
 10
2825.03908931906
 20
-493.2612864957909
 30
0.0
  0
POINT
  5
983
330
979
100
AcDbEntity
  8
Defpoints
 62
     0
100
AcDbPoint
 10
2825.039089318535
 20
296.738713504209
 30
0.0
  0
POINT
  5
984
330
979
100
AcDbEntity
  8
Defpoints
 62
     0
100
AcDbPoint
 10
1626.390210108507
 20
296.7387135042094
 30
0.0
  0
ENDBLK
  5
97B
330
979
100
AcDbEntity
  8
0
100
AcDbBlockEnd
  0
BLOCK
  5
986
330
985
100
AcDbEntity
  8
0
100
AcDbBlockBegin
  2
*D44
 70
     1
 10
0.0
 20
0.0
 30
0.0
  3
*D44
  1

  0
LINE
  5
991
330
985
100
AcDbEntity
  8
5
370
    -2
100
AcDbLine
 10
548.992546965379
 20
99.99999796497831
 30
0.0
 11
296.06374166808
 21
99.99999796497839
 31
0.0
  0
LINE
  5
992
330
985
100
AcDbEntity
  8
5
370
    -2
100
AcDbLine
 10
579.1801013374169
 20
729.9999979641415
 30
0.0
 11
296.0637416680802
 21
729.9999979641415
 31
0.0
  0
LINE
  5
993
330
985
100
AcDbEntity
  8
5
370
    -2
100
AcDbLine
 10
316.0637416680801
 20
149.9999979649784
 30
0.0
 11
316.0637416680802
 21
679.9999979641415
 31
0.0
  0
SOLID
  5
994
330
985
100
AcDbEntity
  8
5
100
AcDbTrace
 10
307.7304083347467
 20
149.9999979649784
 30
0.0
 11
324.3970750014134
 21
149.9999979649784
 31
0.0
 12
316.06374166808
 22
99.99999796497839
 32
0.0
 13
316.06374166808
 23
99.99999796497839
 33
0.0
  0
SOLID
  5
995
330
985
100
AcDbEntity
  8
5
100
AcDbTrace
 10
307.7304083347469
 20
679.9999979641415
 30
0.0
 11
324.3970750014135
 21
679.9999979641415
 31
0.0
 12
316.0637416680802
 22
729.9999979641415
 32
0.0
 13
316.0637416680802
 23
729.9999979641415
 33
0.0
  0
MTEXT
  5
996
330
985
100
AcDbEntity
  8
5
 62
     2
100
AcDbMText
 10
269.06374166808
 20
414.99999796456
 30
0.0
 40
70.0
 41
0.0
 71
     5
 72
     1
  1
63
 11
0.0000000000000001
 21
1.0
 31
0.0
 73
     1
 44
1.0
1001
ACAD
1000
MTEXTBEGIN
1070
    73
1070
     1
1070
    44
1040
1.0
1070
    74
1070
     0
1000
MTEXTEND
  0
POINT
  5
997
330
985
100
AcDbEntity
  8
Defpoints
 62
     0
100
AcDbPoint
 10
568.992546965379
 20
99.99999796497831
 30
0.0
  0
POINT
  5
998
330
985
100
AcDbEntity
  8
Defpoints
 62
     0
100
AcDbPoint
 10
599.1801013374169
 20
729.9999979641415
 30
0.0
  0
POINT
  5
999
330
985
100
AcDbEntity
  8
Defpoints
 62
     0
100
AcDbPoint
 10
316.0637416680802
 20
729.9999979641415
 30
0.0
  0
ENDBLK
  5
987
330
985
100
AcDbEntity
  8
0
100
AcDbBlockEnd
  0
BLOCK
  5
99B
330
99A
100
AcDbEntity
  8
0
100
AcDbBlockBegin
  2
*D45
 70
     1
 10
0.0
 20
0.0
 30
0.0
  3
*D45
  1

  0
LINE
  5
9A6
330
99A
100
AcDbEntity
  8
5
370
    -2
100
AcDbLine
 10
579.1801013374461
 20
739.9999979641489
 30
0.0
 11
296.0637416680802
 21
739.9999979641489
 31
0.0
  0
LINE
  5
9A7
330
99A
100
AcDbEntity
  8
5
370
    -2
100
AcDbLine
 10
889.1800184009881
 20
889.9999979644325
 30
0.0
 11
296.0637416680801
 21
889.9999979644327
 31
0.0
  0
LINE
  5
9A8
330
99A
100
AcDbEntity
  8
5
370
    -2
100
AcDbLine
 10
316.0637416680802
 20
789.9999979641489
 30
0.0
 11
316.0637416680802
 21
839.9999979644327
 31
0.0
  0
SOLID
  5
9A9
330
99A
100
AcDbEntity
  8
5
100
AcDbTrace
 10
307.7304083347469
 20
789.9999979641489
 30
0.0
 11
324.3970750014135
 21
789.9999979641489
 31
0.0
 12
316.0637416680802
 22
739.9999979641489
 32
0.0
 13
316.0637416680802
 23
739.9999979641489
 33
0.0
  0
SOLID
  5
9AA
330
99A
100
AcDbEntity
  8
5
100
AcDbTrace
 10
307.7304083347469
 20
839.9999979644327
 30
0.0
 11
324.3970750014135
 21
839.9999979644327
 31
0.0
 12
316.0637416680802
 22
889.9999979644327
 32
0.0
 13
316.0637416680802
 23
889.9999979644327
 33
0.0
  0
MTEXT
  5
9AB
330
99A
100
AcDbEntity
  8
5
 62
     2
100
AcDbMText
 10
269.0637416680801
 20
814.999997964291
 30
0.0
 40
70.0
 41
0.0
 71
     5
 72
     1
  1
15
 11
0.0000000000000001
 21
1.0
 31
0.0
 73
     1
 44
1.0
1001
ACAD
1000
MTEXTBEGIN
1070
    73
1070
     1
1070
    44
1040
1.0
1070
    74
1070
     0
1000
MTEXTEND
  0
POINT
  5
9AC
330
99A
100
AcDbEntity
  8
Defpoints
 62
     0
100
AcDbPoint
 10
599.1801013374461
 20
739.9999979641489
 30
0.0
  0
POINT
  5
9AD
330
99A
100
AcDbEntity
  8
Defpoints
 62
     0
100
AcDbPoint
 10
909.180018400988
 20
889.9999979644325
 30
0.0
  0
POINT
  5
9AE
330
99A
100
AcDbEntity
  8
Defpoints
 62
     0
100
AcDbPoint
 10
316.0637416680802
 20
889.9999979644327
 30
0.0
  0
ENDBLK
  5
99C
330
99A
100
AcDbEntity
  8
0
100
AcDbBlockEnd
  0
BLOCK
  5
9B0
330
9AF
100
AcDbEntity
  8
0
100
AcDbBlockBegin
  2
*D46
 70
     1
 10
0.0
 20
0.0
 30
0.0
  3
*D46
  1

  0
LINE
  5
9BB
330
9AF
100
AcDbEntity
  8
5
370
    -2
100
AcDbLine
 10
2314.180101337635
 20
564.9999979649781
 30
0.0
 11
2645.66026968251
 21
564.9999979649781
 31
0.0
  0
LINE
  5
9BC
330
9AF
100
AcDbEntity
  8
5
370
    -2
100
AcDbLine
 10
2314.180101337635
 20
164.9999979649747
 30
0.0
 11
2645.66026968251
 21
164.9999979649745
 31
0.0
  0
LINE
  5
9BD
330
9AF
100
AcDbEntity
  8
5
370
    -2
100
AcDbLine
 10
2625.66026968251
 20
514.9999979649781
 30
0.0
 11
2625.66026968251
 21
214.9999979649745
 31
0.0
  0
SOLID
  5
9BE
330
9AF
100
AcDbEntity
  8
5
100
AcDbTrace
 10
2617.326936349177
 20
514.9999979649781
 30
0.0
 11
2633.993603015844
 21
514.9999979649781
 31
0.0
 12
2625.66026968251
 22
564.9999979649781
 32
0.0
 13
2625.66026968251
 23
564.9999979649781
 33
0.0
  0
SOLID
  5
9BF
330
9AF
100
AcDbEntity
  8
5
100
AcDbTrace
 10
2617.326936349177
 20
214.9999979649746
 30
0.0
 11
2633.993603015844
 21
214.9999979649745
 31
0.0
 12
2625.66026968251
 22
164.9999979649745
 32
0.0
 13
2625.66026968251
 23
164.9999979649745
 33
0.0
  0
MTEXT
  5
9C0
330
9AF
100
AcDbEntity
  8
5
 62
     2
100
AcDbMText
 10
2578.66026968251
 20
364.9999979649768
 30
0.0
 40
70.0
 41
0.0
 71
     5
 72
     1
  1
%%c40
 11
0.0000000000000001
 21
1.0
 31
0.0
 73
     1
 44
1.0
1001
ACAD
1000
MTEXTBEGIN
1070
    73
1070
     1
1070
    44
1040
1.0
1070
    74
1070
     0
1000
MTEXTEND
  0
POINT
  5
9C1
330
9AF
100
AcDbEntity
  8
Defpoints
 62
     0
100
AcDbPoint
 10
2294.180101337635
 20
564.9999979649783
 30
0.0
  0
POINT
  5
9C2
330
9AF
100
AcDbEntity
  8
Defpoints
 62
     0
100
AcDbPoint
 10
2294.180101337635
 20
164.9999979649747
 30
0.0
  0
POINT
  5
9C3
330
9AF
100
AcDbEntity
  8
Defpoints
 62
     0
100
AcDbPoint
 10
2625.66026968251
 20
164.9999979649745
 30
0.0
  0
ENDBLK
  5
9B1
330
9AF
100
AcDbEntity
  8
0
100
AcDbBlockEnd
  0
BLOCK
  5
A9D
330
A9C
100
AcDbEntity
  8
0
100
AcDbBlockBegin
  2
*U48
 70
     1
 10
0.0
 20
0.0
 30
0.0
  3
*U48
  1

  0
ARC
  5
A9E
330
A9C
100
AcDbEntity
  8
AM_0N
100
AcDbCircle
 10
2031.974006815402
 20
1364.958312600669
 30
0.0
 40
6.0
100
AcDbArc
 50
284.6765041088877
 51
134.956760177952
  0
LINE
  5
A9F
330
A9C
100
AcDbEntity
  8
AM_0N
100
AcDbLine
 10
2017.974006815402
 20
1359.458312600669
 30
0.0
 11
2027.734569160611
 21
1369.204153903773
 31
0.0
  0
LINE
  5
AA0
330
A9C
100
AcDbEntity
  8
AM_0N
100
AcDbLine
 10
2027.974006815401
 20
1357.708312600669
 30
0.0
 11
2033.494174408163
 21
1359.154082204663
 31
0.0
  0
ARC
  5
AA1
330
A9C
100
AcDbEntity
  8
AM_0N
100
AcDbCircle
 10
2031.974006815402
 20
1337.958312600669
 30
0.0
 40
6.0
100
AcDbArc
 50
225.043239822048
 51
75.3234958911123
  0
LINE
  5
AA2
330
A9C
100
AcDbEntity
  8
AM_0N
100
AcDbLine
 10
2017.974006815402
 20
1343.458312600669
 30
0.0
 11
2027.734569160611
 21
1333.712471297565
 31
0.0
  0
LINE
  5
AA3
330
A9C
100
AcDbEntity
  8
AM_7N
  6
AM_ISO08W050x2
100
AcDbLine
 10
2030.974006815402
 20
1351.458312600669
 30
0.0
 11
2014.974006815402
 21
1351.458312600669
 31
0.0
  0
LINE
  5
AA4
330
A9C
100
AcDbEntity
  8
AM_0N
100
AcDbLine
 10
2017.974006815402
 20
1343.458312600669
 30
0.0
 11
2017.974006815402
 21
1359.458312600669
 31
0.0
  0
LINE
  5
AA5
330
A9C
100
AcDbEntity
  8
AM_0N
100
AcDbLine
 10
2027.974006815401
 20
1357.708312600669
 30
0.0
 11
2027.974006815401
 21
1345.208312600669
 31
0.0
  0
LINE
  5
AA6
330
A9C
100
AcDbEntity
  8
AM_0N
100
AcDbLine
 10
2027.974006815401
 20
1345.208312600669
 30
0.0
 11
2017.974006815402
 21
1343.458312600669
 31
0.0
  0
LINE
  5
AA7
330
A9C
100
AcDbEntity
  8
AM_0N
100
AcDbLine
 10
2027.974006815401
 20
1345.208312600669
 30
0.0
 11
2033.494174408163
 21
1343.762542996675
 31
0.0
  0
LINE
  5
AA8
330
A9C
100
AcDbEntity
  8
AM_0N
100
AcDbLine
 10
2017.974006815402
 20
1359.458312600669
 30
0.0
 11
2027.974006815401
 21
1357.708312600669
 31
0.0
  0
ENDBLK
  5
AA9
330
A9C
100
AcDbEntity
  8
0
100
AcDbBlockEnd
  0
BLOCK
  5
AAB
330
AAA
100
AcDbEntity
  8
0
100
AcDbBlockBegin
  2
*U49
 70
     1
 10
0.0
 20
0.0
 30
0.0
  3
*U49
  1

  0
LINE
  5
AAC
330
AAA
100
AcDbEntity
  8
AM_7N
  6
AM_ISO08W050x2
100
AcDbLine
 10
2012.674006815402
 20
1351.458312600669
 30
0.0
 11
2020.974006815402
 21
1351.458312600669
 31
0.0
  0
LINE
  5
AAD
330
AAA
100
AcDbEntity
  8
AM_0N
100
AcDbLine
 10
2015.674006815402
 20
1360.858312600669
 30
0.0
 11
2015.674006815402
 21
1342.058312600669
 31
0.0
  0
LINE
  5
AAE
330
AAA
100
AcDbEntity
  8
AM_0N
100
AcDbLine
 10
2017.974006815402
 20
1342.058312600669
 30
0.0
 11
2017.974006815402
 21
1360.858312600669
 31
0.0
  0
LINE
  5
AAF
330
AAA
100
AcDbEntity
  8
AM_0N
100
AcDbLine
 10
2015.674006815402
 20
1342.058312600669
 30
0.0
 11
2017.974006815402
 21
1342.058312600669
 31
0.0
  0
LINE
  5
AB0
330
AAA
100
AcDbEntity
  8
AM_0N
100
AcDbLine
 10
2017.974006815402
 20
1360.858312600669
 30
0.0
 11
2015.674006815402
 21
1360.858312600669
 31
0.0
  0
ENDBLK
  5
AB1
330
AAA
100
AcDbEntity
  8
0
100
AcDbBlockEnd
  0
BLOCK
  5
AB3
330
AB2
100
AcDbEntity
  8
0
100
AcDbBlockBegin
  2
*D50
 70
     1
 10
0.0
 20
0.0
 30
0.0
  3
*D50
  1

  0
LINE
  5
AB4
330
AB2
100
AcDbEntity
  8
AM_5
  6
ByBlock
100
AcDbLine
 10
-99.99999879701476
 20
170.9231996853383
 30
0.0
 11
-99.99999879701476
 21
228.9493182246184
 31
0.0
  0
LINE
  5
AB5
330
AB2
100
AcDbEntity
  8
AM_5
  6
ByBlock
100
AcDbLine
 10
1159.981144060463
 20
170.9231996853383
 30
0.0
 11
1159.981144060463
 21
228.9493182246184
 31
0.0
  0
LINE
  5
AB6
330
AB2
100
AcDbEntity
  8
AM_5
  6
ByBlock
100
AcDbLine
 10
-92.99999879701477
 20
227.9493182246184
 30
0.0
 11
1152.981144060463
 21
227.9493182246184
 31
0.0
  0
SOLID
  5
AB7
330
AB2
100
AcDbEntity
  8
AM_5
100
AcDbTrace
 10
-92.99999879701477
 20
229.1159848912851
 30
0.0
 11
-92.99999879701477
 21
226.7826515579518
 31
0.0
 12
-99.99999879701476
 22
227.9493182246184
 32
0.0
 13
-99.99999879701476
 23
227.9493182246184
 33
0.0
  0
SOLID
  5
AB8
330
AB2
100
AcDbEntity
  8
AM_5
100
AcDbTrace
 10
1152.981144060463
 20
229.1159848912851
 30
0.0
 11
1152.981144060463
 21
226.7826515579518
 31
0.0
 12
1159.981144060463
 22
227.9493182246184
 32
0.0
 13
1159.981144060463
 23
227.9493182246184
 33
0.0
  0
MTEXT
  5
AB9
330
AB2
100
AcDbEntity
  8
AM_5
 62
     2
100
AcDbMText
 10
529.9905726317243
 20
234.4503024765869
 30
0.0
 40
10.0
 41
0.0
 71
     5
 72
     1
  1
1260
 73
     1
 44
1.0
1001
ACAD
1000
MTEXTBEGIN
1070
    73
1070
     1
1070
    44
1040
1.0
1070
    74
1070
     0
1000
MTEXTEND
  0
POINT
  5
ABA
330
AB2
100
AcDbEntity
  8
Defpoints
 62
     0
100
AcDbPoint
 10
-99.99999879701476
 20
169.9231996853383
 30
0.0
  0
POINT
  5
ABB
330
AB2
100
AcDbEntity
  8
Defpoints
 62
     0
100
AcDbPoint
 10
1159.981144060463
 20
169.9231996853383
 30
0.0
  0
POINT
  5
ABC
330
AB2
100
AcDbEntity
  8
Defpoints
 62
     0
100
AcDbPoint
 10
1159.981144060463
 20
227.9493182246184
 30
0.0
  0
ENDBLK
  5
ABD
330
AB2
100
AcDbEntity
  8
0
100
AcDbBlockEnd
  0
BLOCK
  5
ABF
330
ABE
100
AcDbEntity
  8
0
100
AcDbBlockBegin
  2
*D51
 70
     1
 10
0.0
 20
0.0
 30
0.0
  3
*D51
  1

  0
LINE
  5
AC0
330
ABE
100
AcDbEntity
  8
AM_5
  6
ByBlock
100
AcDbLine
 10
1129.998858346093
 20
435.1661358021454
 30
0.0
 11
1185.424051809784
 21
435.1661358021454
 31
0.0
  0
LINE
  5
AC1
330
ABE
100
AcDbEntity
  8
AM_5
  6
ByBlock
100
AcDbLine
 10
1125.001715489202
 20
308.2387072308815
 30
0.0
 11
1185.424051809784
 21
308.2387072308814
 31
0.0
  0
LINE
  5
AC2
330
ABE
100
AcDbEntity
  8
AM_5
  6
ByBlock
100
AcDbLine
 10
1184.424051809784
 20
428.1661358021453
 30
0.0
 11
1184.424051809784
 21
315.2387072308814
 31
0.0
  0
SOLID
  5
AC3
330
ABE
100
AcDbEntity
  8
AM_5
100
AcDbTrace
 10
1183.257385143118
 20
428.1661358021453
 30
0.0
 11
1185.590718476451
 21
428.1661358021453
 31
0.0
 12
1184.424051809784
 22
435.1661358021454
 32
0.0
 13
1184.424051809784
 23
435.1661358021454
 33
0.0
  0
SOLID
  5
AC4
330
ABE
100
AcDbEntity
  8
AM_5
100
AcDbTrace
 10
1183.257385143118
 20
315.2387072308814
 30
0.0
 11
1185.590718476451
 21
315.2387072308814
 31
0.0
 12
1184.424051809784
 22
308.2387072308814
 32
0.0
 13
1184.424051809784
 23
308.2387072308814
 33
0.0
  0
MTEXT
  5
AC5
330
ABE
100
AcDbEntity
  8
AM_5
 62
     2
100
AcDbMText
 10
1177.924051809784
 20
371.7024215165137
 30
0.0
 40
10.0
 41
0.0
 71
     5
 72
     1
  1
105-160
 11
0.0000000000000001
 21
1.0
 31
0.0
 73
     1
 44
1.0
1001
ACAD
1000
MTEXTBEGIN
1070
    73
1070
     1
1070
    44
1040
1.0
1070
    74
1070
     0
1000
MTEXTEND
  0
POINT
  5
AC6
330
ABE
100
AcDbEntity
  8
Defpoints
 62
     0
100
AcDbPoint
 10
1128.998858346093
 20
435.1661358021454
 30
0.0
  0
POINT
  5
AC7
330
ABE
100
AcDbEntity
  8
Defpoints
 62
     0
100
AcDbPoint
 10
1124.001715489201
 20
308.2387072308815
 30
0.0
  0
POINT
  5
AC8
330
ABE
100
AcDbEntity
  8
Defpoints
 62
     0
100
AcDbPoint
 10
1184.424051809784
 20
308.2387072308814
 30
0.0
  0
ENDBLK
  5
AC9
330
ABE
100
AcDbEntity
  8
0
100
AcDbBlockEnd
  0
BLOCK
  5
ACB
330
ACA
100
AcDbEntity
  8
0
100
AcDbBlockBegin
  2
*D52
 70
     1
 10
0.0
 20
0.0
 30
0.0
  3
*D52
  1

  0
LINE
  5
ACC
330
ACA
100
AcDbEntity
  8
AM_5
  6
ByBlock
100
AcDbLine
 10
1396.290613001133
 20
435.2272786597243
 30
0.0
 11
1396.290613001133
 21
455.6914860653853
 31
0.0
  0
LINE
  5
ACD
330
ACA
100
AcDbEntity
  8
AM_5
  6
ByBlock
100
AcDbLine
 10
1316.290613001231
 20
435.2272786596143
 30
0.0
 11
1316.290613001231
 21
455.6914860653853
 31
0.0
  0
LINE
  5
ACE
330
ACA
100
AcDbEntity
  8
AM_5
  6
ByBlock
100
AcDbLine
 10
1389.290613001133
 20
454.6914860653853
 30
0.0
 11
1323.290613001231
 21
454.6914860653853
 31
0.0
  0
SOLID
  5
ACF
330
ACA
100
AcDbEntity
  8
AM_5
100
AcDbTrace
 10
1389.290613001133
 20
455.8581527320521
 30
0.0
 11
1389.290613001133
 21
453.5248193987187
 31
0.0
 12
1396.290613001133
 22
454.6914860653853
 32
0.0
 13
1396.290613001133
 23
454.6914860653853
 33
0.0
  0
SOLID
  5
AD0
330
ACA
100
AcDbEntity
  8
AM_5
100
AcDbTrace
 10
1323.290613001231
 20
455.8581527320521
 30
0.0
 11
1323.290613001231
 21
453.5248193987187
 31
0.0
 12
1316.290613001231
 22
454.6914860653853
 32
0.0
 13
1316.290613001231
 23
454.6914860653853
 33
0.0
  0
MTEXT
  5
AD1
330
ACA
100
AcDbEntity
  8
AM_5
 62
     2
100
AcDbMText
 10
1356.290613001182
 20
461.1914860653853
 30
0.0
 40
10.0
 41
0.0
 71
     5
 72
     1
  1
80
 73
     1
 44
1.0
1001
ACAD
1000
MTEXTBEGIN
1070
    73
1070
     1
1070
    44
1040
1.0
1070
    74
1070
     0
1000
MTEXTEND
  0
POINT
  5
AD2
330
ACA
100
AcDbEntity
  8
Defpoints
 62
     0
100
AcDbPoint
 10
1396.290613001133
 20
434.2272786597243
 30
0.0
  0
POINT
  5
AD3
330
ACA
100
AcDbEntity
  8
Defpoints
 62
     0
100
AcDbPoint
 10
1316.290613001231
 20
434.2272786596144
 30
0.0
  0
POINT
  5
AD4
330
ACA
100
AcDbEntity
  8
Defpoints
 62
     0
100
AcDbPoint
 10
1316.290613001231
 20
454.6914860653853
 30
0.0
  0
ENDBLK
  5
AD5
330
ACA
100
AcDbEntity
  8
0
100
AcDbBlockEnd
  0
BLOCK
  5
AD7
330
AD6
100
AcDbEntity
  8
0
100
AcDbBlockBegin
  2
*D53
 70
     1
 10
0.0
 20
0.0
 30
0.0
  3
*D53
  1

  0
LINE
  5
AD8
330
AD6
100
AcDbEntity
  8
AM_5
  6
ByBlock
100
AcDbLine
 10
1314.290613001154
 20
435.2272786596173
 30
0.0
 11
1314.290613001154
 21
473.2074749620393
 31
0.0
  0
LINE
  5
AD9
330
AD6
100
AcDbEntity
  8
AM_5
  6
ByBlock
100
AcDbLine
 10
1398.290613001104
 20
435.2272786597215
 30
0.0
 11
1398.290613001104
 21
473.2074749620393
 31
0.0
  0
LINE
  5
ADA
330
AD6
100
AcDbEntity
  8
AM_5
  6
ByBlock
100
AcDbLine
 10
1321.290613001154
 20
472.2074749620393
 30
0.0
 11
1391.290613001104
 21
472.2074749620393
 31
0.0
  0
SOLID
  5
ADB
330
AD6
100
AcDbEntity
  8
AM_5
100
AcDbTrace
 10
1321.290613001154
 20
473.3741416287059
 30
0.0
 11
1321.290613001154
 21
471.0408082953726
 31
0.0
 12
1314.290613001154
 22
472.2074749620393
 32
0.0
 13
1314.290613001154
 23
472.2074749620393
 33
0.0
  0
SOLID
  5
ADC
330
AD6
100
AcDbEntity
  8
AM_5
100
AcDbTrace
 10
1391.290613001104
 20
473.3741416287059
 30
0.0
 11
1391.290613001104
 21
471.0408082953726
 31
0.0
 12
1398.290613001104
 22
472.2074749620393
 32
0.0
 13
1398.290613001104
 23
472.2074749620393
 33
0.0
  0
MTEXT
  5
ADD
330
AD6
100
AcDbEntity
  8
AM_5
 62
     2
100
AcDbMText
 10
1356.290613001129
 20
478.7074749620393
 30
0.0
 40
10.0
 41
0.0
 71
     5
 72
     1
  1
84
 73
     1
 44
1.0
1001
ACAD
1000
MTEXTBEGIN
1070
    73
1070
     1
1070
    44
1040
1.0
1070
    74
1070
     0
1000
MTEXTEND
  0
POINT
  5
ADE
330
AD6
100
AcDbEntity
  8
Defpoints
 62
     0
100
AcDbPoint
 10
1314.290613001154
 20
434.2272786596173
 30
0.0
  0
POINT
  5
ADF
330
AD6
100
AcDbEntity
  8
Defpoints
 62
     0
100
AcDbPoint
 10
1398.290613001104
 20
434.2272786597215
 30
0.0
  0
POINT
  5
AE0
330
AD6
100
AcDbEntity
  8
Defpoints
 62
     0
100
AcDbPoint
 10
1398.290613001104
 20
472.2074749620393
 30
0.0
  0
ENDBLK
  5
AE1
330
AD6
100
AcDbEntity
  8
0
100
AcDbBlockEnd
  0
BLOCK
  5
C4C
330
C4B
100
AcDbEntity
  8
0
100
AcDbBlockBegin
  2
*D55
 70
     1
 10
0.0
 20
0.0
 30
0.0
  3
*D55
  1

  0
LINE
  5
C4E
330
C4B
100
AcDbEntity
  8
AM_5
  6
ByBlock
100
AcDbLine
 10
140.7773646393577
 20
632.6250476320389
 30
0.0
 11
140.7773646393577
 21
690.651166171319
 31
0.0
  0
LINE
  5
C4F
330
C4B
100
AcDbEntity
  8
AM_5
  6
ByBlock
100
AcDbLine
 10
1400.758507496835
 20
632.6250476320389
 30
0.0
 11
1400.758507496835
 21
690.651166171319
 31
0.0
  0
LINE
  5
C50
330
C4B
100
AcDbEntity
  8
AM_5
  6
ByBlock
100
AcDbLine
 10
147.7773646393577
 20
689.651166171319
 30
0.0
 11
1393.758507496835
 21
689.651166171319
 31
0.0
  0
SOLID
  5
C51
330
C4B
100
AcDbEntity
  8
AM_5
100
AcDbTrace
 10
147.7773646393577
 20
690.8178328379856
 30
0.0
 11
147.7773646393577
 21
688.4844995046523
 31
0.0
 12
140.7773646393577
 22
689.651166171319
 32
0.0
 13
140.7773646393577
 23
689.651166171319
 33
0.0
  0
SOLID
  5
C52
330
C4B
100
AcDbEntity
  8
AM_5
100
AcDbTrace
 10
1393.758507496835
 20
690.8178328379856
 30
0.0
 11
1393.758507496835
 21
688.4844995046523
 31
0.0
 12
1400.758507496835
 22
689.651166171319
 32
0.0
 13
1400.758507496835
 23
689.651166171319
 33
0.0
  0
MTEXT
  5
C53
330
C4B
100
AcDbEntity
  8
AM_5
 62
     2
100
AcDbMText
 10
770.7679360680965
 20
696.1521504232875
 30
0.0
 40
10.0
 41
0.0
 71
     5
 72
     1
  1
1260
 73
     1
 44
1.0
1001
ACAD
1000
MTEXTBEGIN
1070
    73
1070
     1
1070
    44
1040
1.0
1070
    74
1070
     0
1000
MTEXTEND
  0
POINT
  5
C54
330
C4B
100
AcDbEntity
  8
Defpoints
 62
     0
100
AcDbPoint
 10
140.7773646393577
 20
631.6250476320389
 30
0.0
  0
POINT
  5
C55
330
C4B
100
AcDbEntity
  8
Defpoints
 62
     0
100
AcDbPoint
 10
1400.758507496835
 20
631.6250476320389
 30
0.0
  0
POINT
  5
C56
330
C4B
100
AcDbEntity
  8
Defpoints
 62
     0
100
AcDbPoint
 10
1400.758507496835
 20
689.651166171319
 30
0.0
  0
ENDBLK
  5
C4D
330
C4B
100
AcDbEntity
  8
0
100
AcDbBlockEnd
  0
BLOCK
  5
C58
330
C57
100
AcDbEntity
  8
0
100
AcDbBlockBegin
  2
*D56
 70
     1
 10
0.0
 20
0.0
 30
0.0
  3
*D56
  1

  0
LINE
  5
C5A
330
C57
100
AcDbEntity
  8
AM_5
  6
ByBlock
100
AcDbLine
 10
1370.776221782465
 20
896.867983748846
 30
0.0
 11
1426.201415246156
 21
896.867983748846
 31
0.0
  0
LINE
  5
C5B
330
C57
100
AcDbEntity
  8
AM_5
  6
ByBlock
100
AcDbLine
 10
1365.779078925573
 20
769.9405551775821
 30
0.0
 11
1426.201415246156
 21
769.9405551775821
 31
0.0
  0
LINE
  5
C5C
330
C57
100
AcDbEntity
  8
AM_5
  6
ByBlock
100
AcDbLine
 10
1425.201415246156
 20
889.867983748846
 30
0.0
 11
1425.201415246156
 21
776.9405551775821
 31
0.0
  0
SOLID
  5
C5D
330
C57
100
AcDbEntity
  8
AM_5
100
AcDbTrace
 10
1424.03474857949
 20
889.867983748846
 30
0.0
 11
1426.368081912823
 21
889.867983748846
 31
0.0
 12
1425.201415246156
 22
896.867983748846
 32
0.0
 13
1425.201415246156
 23
896.867983748846
 33
0.0
  0
SOLID
  5
C5E
330
C57
100
AcDbEntity
  8
AM_5
100
AcDbTrace
 10
1424.03474857949
 20
776.9405551775821
 30
0.0
 11
1426.368081912823
 21
776.9405551775821
 31
0.0
 12
1425.201415246156
 22
769.9405551775821
 32
0.0
 13
1425.201415246156
 23
769.9405551775821
 33
0.0
  0
MTEXT
  5
C5F
330
C57
100
AcDbEntity
  8
AM_5
 62
     2
100
AcDbMText
 10
1418.701415246156
 20
833.4042694632142
 30
0.0
 40
10.0
 41
0.0
 71
     5
 72
     1
  1
105-160
 11
0.0000000000000001
 21
1.0
 31
0.0
 73
     1
 44
1.0
1001
ACAD
1000
MTEXTBEGIN
1070
    73
1070
     1
1070
    44
1040
1.0
1070
    74
1070
     0
1000
MTEXTEND
  0
POINT
  5
C60
330
C57
100
AcDbEntity
  8
Defpoints
 62
     0
100
AcDbPoint
 10
1369.776221782465
 20
896.867983748846
 30
0.0
  0
POINT
  5
C61
330
C57
100
AcDbEntity
  8
Defpoints
 62
     0
100
AcDbPoint
 10
1364.779078925574
 20
769.9405551775821
 30
0.0
  0
POINT
  5
C62
330
C57
100
AcDbEntity
  8
Defpoints
 62
     0
100
AcDbPoint
 10
1425.201415246156
 20
769.9405551775821
 30
0.0
  0
ENDBLK
  5
C59
330
C57
100
AcDbEntity
  8
0
100
AcDbBlockEnd
  0
BLOCK
  5
C64
330
C63
100
AcDbEntity
  8
0
100
AcDbBlockBegin
  2
*D57
 70
     1
 10
0.0
 20
0.0
 30
0.0
  3
*D57
  1

  0
LINE
  5
C66
330
C63
100
AcDbEntity
  8
AM_5
  6
ByBlock
100
AcDbLine
 10
1637.067976437506
 20
896.9291266064249
 30
0.0
 11
1637.067976437506
 21
917.3933340120859
 31
0.0
  0
LINE
  5
C67
330
C63
100
AcDbEntity
  8
AM_5
  6
ByBlock
100
AcDbLine
 10
1557.067976437603
 20
896.929126606315
 30
0.0
 11
1557.067976437603
 21
917.3933340120859
 31
0.0
  0
LINE
  5
C68
330
C63
100
AcDbEntity
  8
AM_5
  6
ByBlock
100
AcDbLine
 10
1630.067976437506
 20
916.3933340120859
 30
0.0
 11
1564.067976437603
 21
916.3933340120859
 31
0.0
  0
SOLID
  5
C69
330
C63
100
AcDbEntity
  8
AM_5
100
AcDbTrace
 10
1630.067976437506
 20
917.5600006787526
 30
0.0
 11
1630.067976437506
 21
915.2266673454192
 31
0.0
 12
1637.067976437506
 22
916.3933340120859
 32
0.0
 13
1637.067976437506
 23
916.3933340120859
 33
0.0
  0
SOLID
  5
C6A
330
C63
100
AcDbEntity
  8
AM_5
100
AcDbTrace
 10
1564.067976437603
 20
917.5600006787526
 30
0.0
 11
1564.067976437603
 21
915.2266673454192
 31
0.0
 12
1557.067976437603
 22
916.3933340120859
 32
0.0
 13
1557.067976437603
 23
916.3933340120859
 33
0.0
  0
MTEXT
  5
C6B
330
C63
100
AcDbEntity
  8
AM_5
 62
     2
100
AcDbMText
 10
1597.067976437555
 20
922.8933340120859
 30
0.0
 40
10.0
 41
0.0
 71
     5
 72
     1
  1
80
 73
     1
 44
1.0
1001
ACAD
1000
MTEXTBEGIN
1070
    73
1070
     1
1070
    44
1040
1.0
1070
    74
1070
     0
1000
MTEXTEND
  0
POINT
  5
C6C
330
C63
100
AcDbEntity
  8
Defpoints
 62
     0
100
AcDbPoint
 10
1637.067976437506
 20
895.929126606425
 30
0.0
  0
POINT
  5
C6D
330
C63
100
AcDbEntity
  8
Defpoints
 62
     0
100
AcDbPoint
 10
1557.067976437603
 20
895.929126606315
 30
0.0
  0
POINT
  5
C6E
330
C63
100
AcDbEntity
  8
Defpoints
 62
     0
100
AcDbPoint
 10
1557.067976437603
 20
916.3933340120859
 30
0.0
  0
ENDBLK
  5
C65
330
C63
100
AcDbEntity
  8
0
100
AcDbBlockEnd
  0
BLOCK
  5
C70
330
C6F
100
AcDbEntity
  8
0
100
AcDbBlockBegin
  2
*D58
 70
     1
 10
0.0
 20
0.0
 30
0.0
  3
*D58
  1

  0
LINE
  5
C72
330
C6F
100
AcDbEntity
  8
AM_5
  6
ByBlock
100
AcDbLine
 10
1555.067976437526
 20
896.9291266063178
 30
0.0
 11
1555.067976437526
 21
934.9093229087399
 31
0.0
  0
LINE
  5
C73
330
C6F
100
AcDbEntity
  8
AM_5
  6
ByBlock
100
AcDbLine
 10
1639.067976437476
 20
896.9291266064221
 30
0.0
 11
1639.067976437476
 21
934.9093229087399
 31
0.0
  0
LINE
  5
C74
330
C6F
100
AcDbEntity
  8
AM_5
  6
ByBlock
100
AcDbLine
 10
1562.067976437526
 20
933.9093229087399
 30
0.0
 11
1632.067976437476
 21
933.9093229087399
 31
0.0
  0
SOLID
  5
C75
330
C6F
100
AcDbEntity
  8
AM_5
100
AcDbTrace
 10
1562.067976437526
 20
935.0759895754064
 30
0.0
 11
1562.067976437526
 21
932.7426562420733
 31
0.0
 12
1555.067976437526
 22
933.9093229087399
 32
0.0
 13
1555.067976437526
 23
933.9093229087399
 33
0.0
  0
SOLID
  5
C76
330
C6F
100
AcDbEntity
  8
AM_5
100
AcDbTrace
 10
1632.067976437476
 20
935.0759895754064
 30
0.0
 11
1632.067976437476
 21
932.7426562420733
 31
0.0
 12
1639.067976437476
 22
933.9093229087399
 32
0.0
 13
1639.067976437476
 23
933.9093229087399
 33
0.0
  0
MTEXT
  5
C77
330
C6F
100
AcDbEntity
  8
AM_5
 62
     2
100
AcDbMText
 10
1597.067976437501
 20
940.4093229087399
 30
0.0
 40
10.0
 41
0.0
 71
     5
 72
     1
  1
84
 73
     1
 44
1.0
1001
ACAD
1000
MTEXTBEGIN
1070
    73
1070
     1
1070
    44
1040
1.0
1070
    74
1070
     0
1000
MTEXTEND
  0
POINT
  5
C78
330
C6F
100
AcDbEntity
  8
Defpoints
 62
     0
100
AcDbPoint
 10
1555.067976437526
 20
895.9291266063178
 30
0.0
  0
POINT
  5
C79
330
C6F
100
AcDbEntity
  8
Defpoints
 62
     0
100
AcDbPoint
 10
1639.067976437476
 20
895.9291266064221
 30
0.0
  0
POINT
  5
C7A
330
C6F
100
AcDbEntity
  8
Defpoints
 62
     0
100
AcDbPoint
 10
1639.067976437476
 20
933.9093229087399
 30
0.0
  0
ENDBLK
  5
C71
330
C6F
100
AcDbEntity
  8
0
100
AcDbBlockEnd
  0
ENDSEC
  0
SECTION
  2
ENTITIES
  0
LINE
  5
586
330
1F
100
AcDbEntity
  8
0
  6
Continuous
 62
     7
100
AcDbLine
 10
249.9999996368627
 20
420.174706790075
 30
0.0
 11
249.9999996368627
 21
419.1752782188128
 31
0.0
  0
LINE
  5
587
330
1F
100
AcDbEntity
  8
0
  6
Continuous
 62
     7
100
AcDbLine
 10
279.9828567799689
 20
421.174135361921
 30
0.0
 11
279.9828567799689
 21
434.166706790075
 31
0.0
  0
LINE
  5
588
330
1F
100
AcDbEntity
  8
0
  6
Continuous
 62
     7
100
AcDbLine
 10
280.9822853512328
 20
342.1460104213425
 30
0.0
 11
280.9822853512328
 21
363.5666099594549
 31
0.0
  0
LINE
  5
589
330
1F
100
AcDbEntity
  8
0
  6
Continuous
 62
     7
100
AcDbLine
 10
280.9822853512328
 20
363.5666099594549
 30
0.0
 11
280.9822853512337
 21
419.1752782188128
 31
0.0
  0
LINE
  5
58A
330
1F
100
AcDbEntity
  8
0
  6
Continuous
 62
     7
100
AcDbLine
 10
280.9822853512337
 20
420.174706790075
 30
0.0
 11
280.9822853512328
 21
434.166706790075
 31
0.0
  0
LINE
  5
58B
330
1F
100
AcDbEntity
  8
0
  6
Continuous
 62
     7
100
AcDbLine
 10
278.1917139224947
 20
420.174706790075
 30
0.0
 11
278.1917139224947
 21
419.1752782188128
 31
0.0
  0
LINE
  5
58D
330
1F
100
AcDbEntity
  8
0
  6
Continuous
 62
     7
100
AcDbLine
 10
281.981713922494
 20
339.1998047415051
 30
0.0
 11
281.9817139224947
 21
363.5666099594549
 31
0.0
  0
LINE
  5
58E
330
1F
100
AcDbEntity
  8
0
  6
Continuous
 62
     7
100
AcDbLine
 10
281.9817139224947
 20
363.5666099594549
 30
0.0
 11
281.9817139224947
 21
419.1752782188128
 31
0.0
  0
LINE
  5
58F
330
1F
100
AcDbEntity
  8
0
  6
Continuous
 62
     7
100
AcDbLine
 10
281.9817139224947
 20
420.174706790075
 30
0.0
 11
281.9817139224947
 21
435.1660904551791
 31
0.0
  0
LINE
  5
590
330
1F
100
AcDbEntity
  8
0
  6
Continuous
 62
     7
100
AcDbLine
 10
283.9805710656008
 20
408.0317089411381
 30
0.0
 11
283.9805710656008
 21
368.966609959455
 31
0.0
1001
GENIUS_GENOREF_13
1005
0
  0
LINE
  5
591
330
1F
100
AcDbEntity
  8
0
  6
Continuous
 62
     7
100
AcDbLine
 10
343.9462853512328
 20
337.2009475983981
 30
0.0
 11
343.9462853512328
 21
335.2020904552911
 31
0.0
  0
LINE
  5
592
330
1F
100
AcDbEntity
  8
0
  6
Continuous
 62
     7
100
AcDbLine
 10
285.979428208125
 20
335.2020904552911
 30
0.0
 11
343.9462853512328
 21
335.2020904552911
 31
0.0
  0
LINE
  5
593
330
1F
100
AcDbEntity
  8
0
  6
Continuous
 62
     7
100
AcDbLine
 10
285.979428208125
 20
337.2009475983981
 30
0.0
 11
343.9462853512328
 21
337.2009475983981
 31
0.0
  0
LINE
  5
594
330
1F
100
AcDbEntity
  8
0
  6
Continuous
 62
     7
100
AcDbLine
 10
593.0098517470368
 20
409.7984205247079
 30
0.0
 11
593.0117137889864
 21
409.7374417201621
 31
0.0
  0
LINE
  5
595
330
1F
100
AcDbEntity
  8
0
  6
Continuous
 62
     7
100
AcDbLine
 10
592.5119996368616
 20
404.183849647551
 30
0.0
 11
592.5119996368616
 21
362.6623761695481
 31
0.0
  0
LINE
  5
596
330
1F
100
AcDbEntity
  8
0
  6
Continuous
 62
     7
100
AcDbLine
 10
593.0117139224948
 20
409.7374408468279
 30
0.0
 11
593.0117139224948
 21
404.183849647551
 31
0.0
  0
LINE
  5
597
330
1F
100
AcDbEntity
  8
0
  6
Continuous
 62
     7
100
AcDbLine
 10
629.9905710656016
 20
356.1660904551792
 30
0.0
 11
599.0082853512335
 21
356.1660904551792
 31
0.0
  0
LINE
  5
598
330
1F
100
AcDbEntity
  8
0
  6
Continuous
 62
     7
100
AcDbLine
 10
281.9817139224947
 20
342.1460104213425
 30
0.0
 11
280.9822853512328
 21
342.1460104213425
 31
0.0
  0
LINE
  5
599
330
1F
100
AcDbEntity
  8
0
  6
Continuous
 62
     7
100
AcDbLine
 10
592.9990852026981
 20
409.895818063651
 30
0.0
 11
593.0098517470368
 21
409.7984205247079
 31
0.0
  0
LINE
  5
59A
330
1F
100
AcDbEntity
  8
0
  6
Continuous
 62
     7
100
AcDbLine
 10
281.9817139224947
 20
408.0317089411381
 30
0.0
 11
283.9805710656008
 21
408.0317089411381
 31
0.0
  0
LINE
  5
59B
330
1F
100
AcDbEntity
  8
0
  6
Continuous
 62
     7
100
AcDbLine
 10
592.511971282659
 20
404.183849647551
 30
0.0
 11
629.9905710656016
 21
404.183849647551
 31
0.0
  0
LINE
  5
59C
330
1F
100
AcDbEntity
  8
0
  6
Continuous
 62
     7
100
AcDbLine
 10
281.9817139224947
 20
410.7368694180898
 30
0.0
 11
879.9905710656016
 21
410.7368694180897
 31
0.0
  0
LINE
  5
59D
330
1F
100
AcDbEntity
  8
0
  6
Continuous
 62
     7
100
AcDbLine
 10
280.4817139224947
 20
419.1752782188128
 30
0.0
 11
249.9999996368627
 21
419.1752782188128
 31
0.0
  0
LINE
  5
59E
330
1F
100
AcDbEntity
  8
0
  6
Continuous
 62
     7
100
AcDbLine
 10
278.1917139224947
 20
419.1752782188128
 30
0.0
 11
879.9905710656016
 21
419.1752782188128
 31
0.0
  0
LINE
  5
59F
330
1F
100
AcDbEntity
  8
0
  6
Continuous
 62
     7
100
AcDbLine
 10
280.4817139224947
 20
420.174706790075
 30
0.0
 11
249.9999996368627
 21
420.174706790075
 31
0.0
  0
LINE
  5
5A0
330
1F
100
AcDbEntity
  8
0
  6
Continuous
 62
     7
100
AcDbLine
 10
278.1917139224947
 20
420.174706790075
 30
0.0
 11
879.9905710656016
 21
420.1747067900749
 31
0.0
  0
LWPOLYLINE
  5
5A1
330
1F
100
AcDbEntity
  8
0
  6
Continuous
 62
     7
100
AcDbPolyline
 90
       16
 70
     0
 43
0.0
 10
592.012285351233
 20
410.73686959299
 10
592.0477282007619
 20
410.736240939426
 10
592.1455985847687
 20
410.7279383996978
 10
592.2421780627756
 20
410.7100698373927
 10
592.3365361930136
 20
410.6828080706178
 10
592.4277638382927
 20
410.6464157636129
 10
592.5149818789178
 20
410.6012428743671
 10
592.5973489158777
 20
410.547723717478
 10
592.6740723659236
 20
410.486370489927
 10
592.744403701945
 20
410.417779245667
 10
592.807661993932
 20
410.3426131874249
 10
592.863228215399
 20
410.2616104322629
 10
592.9105638935588
 20
410.175565392302
 10
592.9492141589816
 20
410.0853227383498
 10
592.9788128165419
 20
409.9917674154339
 10
592.9990852026981
 20
409.895818063651
  0
LINE
  5
5A2
330
1F
100
AcDbEntity
  8
0
  6
Continuous
 62
     7
100
AcDbLine
 10
879.9905710656016
 20
435.1661353618384
 30
0.0
 11
280.9822853512328
 21
435.1661353613391
 31
0.0
  0
LINE
  5
5A3
330
1F
100
AcDbEntity
  8
0
  6
Continuous
 62
     7
100
AcDbLine
 10
249.9999996368627
 20
169.9231992445343
 30
0.0
 11
249.999999636864
 21
25.96479924453544
 31
0.0
  0
LINE
  5
5A4
102
{ACAD_REACTORS
330
654
102
}
330
1F
100
AcDbEntity
  8
0
  6
Continuous
 62
     7
100
AcDbLine
 10
279.9828567799689
 20
56.34742781637939
 30
0.0
 11
279.9828567799689
 21
139.5405706732722
 31
0.0
  0
LINE
  5
5A5
330
1F
100
AcDbEntity
  8
0
  6
Continuous
 62
     7
100
AcDbLine
 10
281.9817139224938
 20
25.96479924453431
 30
0.0
 11
281.9817139224947
 21
169.9231992445343
 31
0.0
  0
LINE
  5
5A6
330
1F
100
AcDbEntity
  8
0
  6
Continuous
 62
     7
100
AcDbLine
 10
605.0048567799694
 20
-0.0000007554683634
 30
0.0
 11
629.9905710656016
 21
-0.0000007554683634
 31
0.0
  0
LINE
  5
5A8
330
1F
100
AcDbEntity
  8
0
  6
Continuous
 62
     7
100
AcDbLine
 10
249.999999636864
 20
25.96479924453544
 30
0.0
 11
629.9905710656016
 21
25.96479924453308
 31
0.0
  0
LINE
  5
5A9
330
1F
100
AcDbEntity
  8
0
  6
Continuous
 62
     7
100
AcDbLine
 10
605.0048567799694
 20
-0.0000007554683634
 30
0.0
 11
605.0048567799694
 21
26.58479924453195
 31
0.0
  0
LINE
  5
5AA
330
1F
100
AcDbEntity
  8
0
  6
Continuous
 62
     7
100
AcDbLine
 10
629.9905710656016
 20
55.94765638763909
 30
0.0
 11
281.981713922494
 21
55.94765638763908
 31
0.0
  0
LINE
  5
5AB
330
1F
100
AcDbEntity
  8
0
  6
Continuous
 62
     7
100
AcDbLine
 10
279.9828567799689
 20
56.34742781637939
 30
0.0
 11
281.9817139224947
 21
56.34742781637939
 31
0.0
  0
LINE
  5
5AC
330
1F
100
AcDbEntity
  8
0
  6
Continuous
 62
     7
100
AcDbLine
 10
629.9905710656016
 20
57.94651353074607
 30
0.0
 11
281.981713922494
 21
57.94651353074607
 31
0.0
  0
LINE
  5
5AD
330
1F
100
AcDbEntity
  8
0
  6
Continuous
 62
     7
100
AcDbLine
 10
629.9905710656016
 20
137.941484958901
 30
0.0
 11
281.9817139224945
 21
137.941484958901
 31
0.0
  0
LINE
  5
5AE
330
1F
100
AcDbEntity
  8
0
  6
Continuous
 62
     7
100
AcDbLine
 10
279.9828567799689
 20
139.5405706732722
 30
0.0
 11
281.9817139224947
 21
139.5405706732722
 31
0.0
  0
LINE
  5
5AF
330
1F
100
AcDbEntity
  8
0
  6
Continuous
 62
     7
100
AcDbLine
 10
977.9994282087091
 20
139.9403421020075
 30
0.0
 11
281.9817139224945
 21
139.9403421020078
 31
0.0
  0
LINE
  5
5B1
330
1F
100
AcDbEntity
  8
0
  6
Continuous
 62
     7
100
AcDbLine
 10
249.9999996368627
 20
169.9231992445343
 30
0.0
 11
629.9905710656016
 21
169.9231992445319
 31
0.0
  0
ARC
  5
5B4
330
1F
100
AcDbEntity
  8
0
  6
Continuous
 62
     7
100
AcDbCircle
 10
278.9834282081249
 20
421.174135361921
 30
0.0
 40
1.998857143106999
100
AcDbArc
 50
329.9616926244011
 51
0.0
  0
ARC
  5
5B5
330
1F
100
AcDbEntity
  8
0
  6
Continuous
 62
     7
100
AcDbCircle
 10
285.979428208125
 20
339.1998047415051
 30
0.0
 40
3.997714285630998
100
AcDbArc
 50
180.0
 51
270.0
  0
ARC
  5
5B6
330
1F
100
AcDbEntity
  8
0
  6
Continuous
 62
     7
100
AcDbCircle
 10
599.0082853512335
 20
362.6623761695481
 30
0.0
 40
6.496285714368996
100
AcDbArc
 50
180.0
 51
270.0
  0
ARC
  5
5B8
330
1F
100
AcDbEntity
  8
0
  6
Continuous
 62
     7
100
AcDbCircle
 10
280.9822853512328
 20
434.166706790075
 30
0.0
 40
0.9994285712619999
100
AcDbArc
 50
0.0
 51
180.0
  0
ARC
  5
5B9
330
1F
100
AcDbEntity
  8
0
  6
Continuous
 62
     7
100
AcDbCircle
 10
278.9834282081249
 20
421.174135361921
 30
0.0
 40
0.9994285712619999
100
AcDbArc
 50
270.0
 51
0.0
  0
ARC
  5
5BA
330
1F
100
AcDbEntity
  8
0
  6
Continuous
 62
     7
100
AcDbCircle
 10
285.979428208125
 20
339.1998047415051
 30
0.0
 40
1.998857143106999
100
AcDbArc
 50
180.0
 51
270.0
  0
ARC
  5
5BB
330
1F
100
AcDbEntity
  8
0
  6
Continuous
 62
     7
100
AcDbCircle
 10
629.9905710656016
 20
97.94399924453195
 30
0.0
 40
35.97942857126201
100
AcDbArc
 50
90.0
 51
270.0
  0
LINE
  5
5BC
330
1F
100
AcDbEntity
  8
AM_7
100
AcDbLine
 10
629.9905710656016
 20
383.1660904552891
 30
0.0
 11
655.0762282087089
 21
383.1660904552891
 31
0.0
1001
GENIUS_GENOREF_13
1005
6B0
  0
LINE
  5
5BD
330
1F
100
AcDbEntity
  8
AM_7
100
AcDbLine
 10
629.9905710656016
 20
371.202706790075
 30
0.0
 11
629.9905710656016
 21
440.6275543280732
 31
0.0
1001
GENIUS_GENOREF_13
1005
6B0
  0
LINE
  5
5BF
330
1F
100
AcDbEntity
  8
AM_7
100
AcDbLine
 10
629.9905710656016
 20
371.202706790075
 30
0.0
 11
629.9905710656016
 21
347.765661050337
 31
0.0
1001
GENIUS_GENOREF_13
1005
6B0
  0
ARC
  5
5C0
330
1F
100
AcDbEntity
  8
0
100
AcDbCircle
 10
629.9905710656016
 20
97.94399924453195
 30
0.0
 40
17.5
100
AcDbArc
 50
90.0
 51
270.0
  0
ARC
  5
5C1
330
1F
100
AcDbEntity
  8
0
100
AcDbCircle
 10
629.9905710656016
 20
97.94399924453195
 30
0.0
 40
30.0
100
AcDbArc
 50
90.0
 51
270.0
  0
LINE
  5
5C2
330
1F
100
AcDbEntity
  8
0
100
AcDbLine
 10
630.9905710656017
 20
115.415404454188
 30
0.0
 11
630.9905710656017
 21
80.47259403487613
 31
0.0
  0
LINE
  5
5C3
330
1F
100
AcDbEntity
  8
0
100
AcDbLine
 10
628.9905710656016
 20
115.415404454188
 30
0.0
 11
628.9905710656016
 21
80.47259403487613
 31
0.0
  0
LINE
  5
607
330
1F
100
AcDbEntity
  8
AM_7
100
AcDbLine
 10
629.9905710656016
 20
371.202706790075
 30
0.0
 11
629.9905710656016
 21
440.6275543280732
 31
0.0
1001
GENIUS_GENOREF_13
1005
6AF
  0
LINE
  5
608
330
1F
100
AcDbEntity
  8
AM_7
100
AcDbLine
 10
629.9905710656016
 20
383.1660904552891
 30
0.0
 11
655.0762282087089
 21
383.1660904552891
 31
0.0
1001
GENIUS_GENOREF_13
1005
6AF
  0
LINE
  5
609
330
1F
100
AcDbEntity
  8
AM_7
100
AcDbLine
 10
629.9905710656016
 20
371.202706790075
 30
0.0
 11
629.9905710656016
 21
347.765661050337
 31
0.0
1001
GENIUS_GENOREF_13
1005
6AF
  0
LINE
  5
60A
330
1F
100
AcDbEntity
  8
0
100
AcDbLine
 10
628.9905710656016
 20
115.415404454188
 30
0.0
 11
628.9905710656016
 21
80.47259403487613
 31
0.0
  0
LINE
  5
60B
330
1F
100
AcDbEntity
  8
0
100
AcDbLine
 10
630.9905710656017
 20
115.415404454188
 30
0.0
 11
630.9905710656017
 21
80.47259403487613
 31
0.0
  0
LINE
  5
60C
330
1F
100
AcDbEntity
  8
0
100
AcDbLine
 10
281.9817139224942
 20
97.94399924453195
 30
0.0
 11
594.0111424943396
 21
97.94399924453195
 31
0.0
  0
DIMENSION
  5
60D
330
1F
100
AcDbEntity
  8
AM_5
100
AcDbDimension
  2
*D13
 10
1054.98114249434
 20
25.96479924453305
 30
0.0
 11
1054.98114249434
 21
97.94399924453264
 31
0.0
 70
   160
 71
     5
 42
143.9583999999988
  3
AM_DIN$0
100
AcDbAlignedDimension
 13
962.2711424943402
 23
169.9231992445319
 33
0.0
 14
962.2711424943402
 24
25.96479924453308
 34
0.0
 50
90.0
100
AcDbRotatedDimension
1001
ACAD_DSTYLE_DIMINSPECT
1070
   396
1000
100%
1070
   395
1000

1070
   394
1070
    33
1070
   393
1070
     0
1001
ACAD
1000
DSTYLE
1002
{
1070
    41
1040
7.0
1070
   140
1040
10.0
1070
   271
1070
     0
1002
}
  0
LINE
  5
60E
330
1F
100
AcDbEntity
  8
0
  6
Continuous
 62
     7
100
AcDbLine
 10
1009.98114249434
 20
420.174706790075
 30
0.0
 11
1009.98114249434
 21
419.1752782188128
 31
0.0
  0
LINE
  5
60F
330
1F
100
AcDbEntity
  8
0
  6
Continuous
 62
     7
100
AcDbLine
 10
979.9982853512352
 20
421.174135361921
 30
0.0
 11
979.9982853512352
 21
434.166706790075
 31
0.0
  0
LINE
  5
610
330
1F
100
AcDbEntity
  8
0
  6
Continuous
 62
     7
100
AcDbLine
 10
978.998856779971
 20
342.1460104213425
 30
0.0
 11
978.9988567799696
 21
419.1752782188128
 31
0.0
  0
LINE
  5
611
330
1F
100
AcDbEntity
  8
0
  6
Continuous
 62
     7
100
AcDbLine
 10
978.9988567799696
 20
420.174706790075
 30
0.0
 11
978.998856779971
 21
434.166706790075
 31
0.0
  0
LINE
  5
612
330
1F
100
AcDbEntity
  8
0
  6
Continuous
 62
     7
100
AcDbLine
 10
981.7894282087099
 20
420.174706790075
 30
0.0
 11
981.7894282087099
 21
419.1752782188128
 31
0.0
  0
LINE
  5
614
330
1F
100
AcDbEntity
  8
0
  6
Continuous
 62
     7
100
AcDbLine
 10
977.99942820871
 20
339.1998047415051
 30
0.0
 11
977.9994282087086
 21
419.1752782188128
 31
0.0
  0
LINE
  5
615
330
1F
100
AcDbEntity
  8
0
  6
Continuous
 62
     7
100
AcDbLine
 10
977.9994282087086
 20
420.174706790075
 30
0.0
 11
977.9994282087086
 21
435.1660904551791
 31
0.0
  0
LINE
  5
616
330
1F
100
AcDbEntity
  8
0
  6
Continuous
 62
     7
100
AcDbLine
 10
976.0005710656018
 20
408.0317089411381
 30
0.0
 11
976.0005710656018
 21
339.1997564193989
 31
0.0
  0
LINE
  5
617
330
1F
100
AcDbEntity
  8
0
  6
Continuous
 62
     7
100
AcDbLine
 10
916.034856779971
 20
337.2009475983981
 30
0.0
 11
916.034856779971
 21
335.2020904552911
 31
0.0
  0
LINE
  5
618
102
{ACAD_REACTORS
330
657
102
}
330
1F
100
AcDbEntity
  8
0
  6
Continuous
 62
     7
100
AcDbLine
 10
974.001713923079
 20
335.2020904552911
 30
0.0
 11
916.034856779971
 21
335.2020904552911
 31
0.0
  0
LINE
  5
619
330
1F
100
AcDbEntity
  8
0
  6
Continuous
 62
     7
100
AcDbLine
 10
974.001713923079
 20
337.2009475983981
 30
0.0
 11
916.034856779971
 21
337.2009475983981
 31
0.0
  0
LINE
  5
61A
330
1F
100
AcDbEntity
  8
0
  6
Continuous
 62
     7
100
AcDbLine
 10
666.9712903841668
 20
409.7984205247079
 30
0.0
 11
666.9694283422168
 21
409.7374417201621
 31
0.0
  0
LINE
  5
61B
330
1F
100
AcDbEntity
  8
0
  6
Continuous
 62
     7
100
AcDbLine
 10
667.4691424943421
 20
404.183849647551
 30
0.0
 11
667.4691424943421
 21
362.6623761695481
 31
0.0
  0
LINE
  5
61C
330
1F
100
AcDbEntity
  8
0
  6
Continuous
 62
     7
100
AcDbLine
 10
666.9694282087089
 20
409.7374408468279
 30
0.0
 11
666.9694282087089
 21
404.183849647551
 31
0.0
  0
LINE
  5
61D
330
1F
100
AcDbEntity
  8
0
  6
Continuous
 62
     7
100
AcDbLine
 10
629.9905710656016
 20
356.1660904551792
 30
0.0
 11
660.9728567799698
 21
356.1660904551792
 31
0.0
  0
LINE
  5
61E
330
1F
100
AcDbEntity
  8
0
  6
Continuous
 62
     7
100
AcDbLine
 10
977.9994282087086
 20
335.2232782188131
 30
0.0
 11
978.998856779971
 21
335.2232782188131
 31
0.0
  0
LINE
  5
61F
330
1F
100
AcDbEntity
  8
0
  6
Continuous
 62
     7
100
AcDbLine
 10
666.9820569285056
 20
409.895818063651
 30
0.0
 11
666.9712903841668
 21
409.7984205247079
 31
0.0
  0
LINE
  5
620
330
1F
100
AcDbEntity
  8
0
  6
Continuous
 62
     7
100
AcDbLine
 10
977.9994282087086
 20
408.0317089411381
 30
0.0
 11
976.0005710656018
 21
408.0317089411381
 31
0.0
  0
LINE
  5
621
330
1F
100
AcDbEntity
  8
0
  6
Continuous
 62
     7
100
AcDbLine
 10
667.4691708485447
 20
404.183849647551
 30
0.0
 11
629.9905710656016
 21
404.183849647551
 31
0.0
  0
LINE
  5
622
330
1F
100
AcDbEntity
  8
0
  6
Continuous
 62
     7
100
AcDbLine
 10
977.9994282087086
 20
410.7368694180898
 30
0.0
 11
379.9905710656017
 21
410.7368694180898
 31
0.0
  0
LINE
  5
623
330
1F
100
AcDbEntity
  8
0
  6
Continuous
 62
     7
100
AcDbLine
 10
979.4994282087087
 20
419.1752782188128
 30
0.0
 11
1009.98114249434
 21
419.1752782188128
 31
0.0
  0
LINE
  5
624
330
1F
100
AcDbEntity
  8
0
  6
Continuous
 62
     7
100
AcDbLine
 10
981.7894282087099
 20
419.1752782188128
 30
0.0
 11
379.9905710656017
 21
419.1752782188127
 31
0.0
  0
LINE
  5
625
330
1F
100
AcDbEntity
  8
0
  6
Continuous
 62
     7
100
AcDbLine
 10
979.4994282087087
 20
420.174706790075
 30
0.0
 11
1009.98114249434
 21
420.174706790075
 31
0.0
  0
LINE
  5
626
330
1F
100
AcDbEntity
  8
0
  6
Continuous
 62
     7
100
AcDbLine
 10
981.7894282087099
 20
420.174706790075
 30
0.0
 11
379.9905710656017
 21
420.174706790075
 31
0.0
  0
LWPOLYLINE
  5
627
330
1F
100
AcDbEntity
  8
0
  6
Continuous
 62
     7
100
AcDbPolyline
 90
       16
 70
     0
 43
0.0
 10
667.9688567799708
 20
410.73686959299
 10
667.9334139304419
 20
410.736240939426
 10
667.835543546435
 20
410.7279383996978
 10
667.7389640684268
 20
410.7100698373927
 10
667.6446059381888
 20
410.6828080706178
 10
667.5533782929106
 20
410.6464157636129
 10
667.466160252286
 20
410.6012428743671
 10
667.3837932153251
 20
410.547723717478
 10
667.3070697652796
 20
410.486370489927
 10
667.2367384292588
 20
410.417779245667
 10
667.1734801372718
 20
410.3426131874249
 10
667.1179139158048
 20
410.2616104322629
 10
667.0705782376448
 20
410.175565392302
 10
667.0319279722221
 20
410.0853227383498
 10
667.0023293146619
 20
409.9917674154339
 10
666.9820569285056
 20
409.895818063651
  0
LINE
  5
628
102
{ACAD_REACTORS
330
657
102
}
330
1F
100
AcDbEntity
  8
0
  6
Continuous
 62
     7
100
AcDbLine
 10
379.9905710656018
 20
435.166135361838
 30
0.0
 11
978.998856779971
 21
435.1661353613391
 31
0.0
  0
LINE
  5
629
330
1F
100
AcDbEntity
  8
0
  6
Continuous
 62
     7
100
AcDbLine
 10
1009.981142494341
 20
169.9231992445319
 30
0.0
 11
1009.98114249434
 21
25.96479924453308
 31
0.0
  0
LINE
  5
62A
330
1F
100
AcDbEntity
  8
0
  6
Continuous
 62
     7
100
AcDbLine
 10
979.9982853512354
 20
56.34742781637704
 30
0.0
 11
979.9982853512354
 21
139.5405706732698
 31
0.0
  0
LINE
  5
62B
330
1F
100
AcDbEntity
  8
0
  6
Continuous
 62
     7
100
AcDbLine
 10
977.9994282087102
 20
25.96479924453195
 30
0.0
 11
977.9994282087088
 21
169.9231992445319
 31
0.0
  0
LINE
  5
62C
330
1F
100
AcDbEntity
  8
0
  6
Continuous
 62
     7
100
AcDbLine
 10
654.9762853512338
 20
-0.0000007554683634
 30
0.0
 11
629.9905710656016
 21
-0.0000007554683634
 31
0.0
  0
LINE
  5
62E
330
1F
100
AcDbEntity
  8
0
  6
Continuous
 62
     7
100
AcDbLine
 10
977.9994282087102
 20
25.96479924453195
 30
0.0
 11
629.9905710656016
 21
25.96479924453308
 31
0.0
  0
LINE
  5
62F
330
1F
100
AcDbEntity
  8
0
  6
Continuous
 62
     7
100
AcDbLine
 10
654.9762853512338
 20
-0.0000007554683634
 30
0.0
 11
654.9762853512338
 21
26.58479924453195
 31
0.0
  0
LINE
  5
630
330
1F
100
AcDbEntity
  8
0
  6
Continuous
 62
     7
100
AcDbLine
 10
629.9905710656016
 20
55.94765638763909
 30
0.0
 11
977.99942820871
 21
55.94765638763909
 31
0.0
  0
LINE
  5
631
330
1F
100
AcDbEntity
  8
0
  6
Continuous
 62
     7
100
AcDbLine
 10
979.9982853512354
 20
56.34742781637704
 30
0.0
 11
977.9994282087088
 21
56.34742781637704
 31
0.0
  0
LINE
  5
632
330
1F
100
AcDbEntity
  8
0
  6
Continuous
 62
     7
100
AcDbLine
 10
629.9905710656016
 20
57.94651353074607
 30
0.0
 11
977.99942820871
 21
57.94651353074609
 31
0.0
  0
LINE
  5
633
330
1F
100
AcDbEntity
  8
0
  6
Continuous
 62
     7
100
AcDbLine
 10
629.9905710656016
 20
137.941484958901
 30
0.0
 11
977.9994282087091
 21
137.941484958901
 31
0.0
  0
LINE
  5
634
102
{ACAD_REACTORS
330
654
102
}
330
1F
100
AcDbEntity
  8
0
  6
Continuous
 62
     7
100
AcDbLine
 10
979.9982853512354
 20
139.5405706732698
 30
0.0
 11
977.9994282087088
 21
139.5405706732698
 31
0.0
  0
LINE
  5
637
330
1F
100
AcDbEntity
  8
0
  6
Continuous
 62
     7
100
AcDbLine
 10
1009.981142494341
 20
169.9231992445319
 30
0.0
 11
629.9905710656016
 21
169.9231992445319
 31
0.0
  0
ARC
  5
63A
330
1F
100
AcDbEntity
  8
0
  6
Continuous
 62
     7
100
AcDbCircle
 10
980.9977139230786
 20
421.174135361921
 30
0.0
 40
1.998857143106999
100
AcDbArc
 50
180.0
 51
210.0383073755924
  0
ARC
  5
63B
330
1F
100
AcDbEntity
  8
0
  6
Continuous
 62
     7
100
AcDbCircle
 10
974.001713923079
 20
339.1998047415051
 30
0.0
 40
3.997714285630998
100
AcDbArc
 50
270.0
 51
0.0
  0
ARC
  5
63C
330
1F
100
AcDbEntity
  8
0
  6
Continuous
 62
     7
100
AcDbCircle
 10
660.9728567799698
 20
362.6623761695481
 30
0.0
 40
6.496285714368996
100
AcDbArc
 50
270.0
 51
0.0
  0
ARC
  5
63E
330
1F
100
AcDbEntity
  8
0
  6
Continuous
 62
     7
100
AcDbCircle
 10
978.998856779971
 20
434.166706790075
 30
0.0
 40
0.9994285712619999
100
AcDbArc
 50
0.0
 51
180.0
  0
ARC
  5
63F
330
1F
100
AcDbEntity
  8
0
  6
Continuous
 62
     7
100
AcDbCircle
 10
980.9977139230786
 20
421.174135361921
 30
0.0
 40
0.9994285712619999
100
AcDbArc
 50
180.0
 51
270.0
  0
ARC
  5
640
330
1F
100
AcDbEntity
  8
0
  6
Continuous
 62
     7
100
AcDbCircle
 10
974.001713923079
 20
339.1998047415051
 30
0.0
 40
1.998857143106999
100
AcDbArc
 50
270.0
 51
0.0
  0
ARC
  5
641
330
1F
100
AcDbEntity
  8
0
  6
Continuous
 62
     7
100
AcDbCircle
 10
629.9905710656016
 20
97.94399924453195
 30
0.0
 40
35.97942857126201
100
AcDbArc
 50
270.0
 51
90.0
  0
LINE
  5
643
330
1F
100
AcDbEntity
  8
AM_7
100
AcDbLine
 10
629.9905710656016
 20
371.202706790075
 30
0.0
 11
629.9905710656016
 21
440.6275543280732
 31
0.0
1001
GENIUS_GENOREF_13
1005
6AE
  0
LINE
  5
644
330
1F
100
AcDbEntity
  8
AM_7
100
AcDbLine
 10
629.9905710656016
 20
383.1660904552891
 30
0.0
 11
655.0762282087089
 21
383.1660904552891
 31
0.0
1001
GENIUS_GENOREF_13
1005
6AE
  0
LINE
  5
645
330
1F
100
AcDbEntity
  8
AM_7
100
AcDbLine
 10
629.9905710656016
 20
371.202706790075
 30
0.0
 11
629.9905710656016
 21
347.765661050337
 31
0.0
1001
GENIUS_GENOREF_13
1005
6AE
  0
ARC
  5
646
330
1F
100
AcDbEntity
  8
0
100
AcDbCircle
 10
629.9905710656016
 20
97.94399924453195
 30
0.0
 40
17.5
100
AcDbArc
 50
270.0
 51
90.0
  0
ARC
  5
647
330
1F
100
AcDbEntity
  8
0
100
AcDbCircle
 10
629.9905710656016
 20
97.94399924453195
 30
0.0
 40
30.0
100
AcDbArc
 50
270.0
 51
90.0
  0
LINE
  5
648
330
1F
100
AcDbEntity
  8
0
100
AcDbLine
 10
628.9905710656016
 20
115.415404454188
 30
0.0
 11
628.9905710656016
 21
80.47259403487613
 31
0.0
  0
LINE
  5
649
330
1F
100
AcDbEntity
  8
0
100
AcDbLine
 10
630.9905710656017
 20
115.415404454188
 30
0.0
 11
630.9905710656017
 21
80.47259403487613
 31
0.0
  0
LINE
  5
64A
330
1F
100
AcDbEntity
  8
AM_7
100
AcDbLine
 10
629.9905710656016
 20
383.1660904552891
 30
0.0
 11
655.0762282087089
 21
383.1660904552891
 31
0.0
1001
GENIUS_GENOREF_13
1005
6AD
  0
LINE
  5
64B
330
1F
100
AcDbEntity
  8
AM_7
100
AcDbLine
 10
629.9905710656016
 20
371.202706790075
 30
0.0
 11
629.9905710656016
 21
440.6275543280732
 31
0.0
1001
GENIUS_GENOREF_13
1005
6AD
  0
LINE
  5
64C
330
1F
100
AcDbEntity
  8
AM_7
100
AcDbLine
 10
629.9905710656016
 20
383.1660904552891
 30
0.0
 11
604.9049139224949
 21
383.1660904552891
 31
0.0
1001
GENIUS_GENOREF_13
1005
6AD
  0
LINE
  5
64D
330
1F
100
AcDbEntity
  8
AM_7
100
AcDbLine
 10
629.9905710656016
 20
371.202706790075
 30
0.0
 11
629.9905710656016
 21
347.765661050337
 31
0.0
1001
GENIUS_GENOREF_13
1005
6AD
  0
LINE
  5
64E
330
1F
100
AcDbEntity
  8
0
100
AcDbLine
 10
630.9905710656017
 20
115.415404454188
 30
0.0
 11
630.9905710656017
 21
80.47259403487613
 31
0.0
  0
LINE
  5
64F
330
1F
100
AcDbEntity
  8
0
100
AcDbLine
 10
628.9905710656016
 20
115.415404454188
 30
0.0
 11
628.9905710656016
 21
80.47259403487613
 31
0.0
  0
LINE
  5
650
330
1F
100
AcDbEntity
  8
0
100
AcDbLine
 10
977.9994282087095
 20
97.94399924453195
 30
0.0
 11
665.9699996368637
 21
97.94399924453195
 31
0.0
  0
DIMENSION
  5
651
330
1F
100
AcDbEntity
  8
AM_5
100
AcDbDimension
  2
*D14
 10
1009.981142494341
 20
227.9493177838144
 30
0.0
 11
629.9905710656019
 21
234.4493177838144
 31
0.0
 70
    32
 71
     5
 42
759.9811428574785
  3
AM_DIN$0
100
AcDbAlignedDimension
 13
249.9999996368627
 23
169.9231992445343
 33
0.0
 14
1009.981142494341
 24
169.9231992445319
 34
0.0
100
AcDbRotatedDimension
1001
ACAD_DSTYLE_DIMINSPECT
1070
   396
1000
100%
1070
   395
1000

1070
   394
1070
    33
1070
   393
1070
     0
1001
ACAD
1000
DSTYLE
1002
{
1070
    41
1040
7.0
1070
   140
1040
10.0
1070
   271
1070
     0
1002
}
  0
DIMENSION
  5
652
102
{ACAD_XDICTIONARY
360
653
102
}
102
{ACAD_REACTORS
330
654
102
}
330
1F
100
AcDbEntity
  8
AM_5
100
AcDbDimension
  2
*D15
 10
979.9982853512354
 20
202.3113171867085
 30
0.0
 11
629.9905710656021
 21
208.8113171867085
 31
0.0
 70
    32
 71
     5
 42
700.0154285712665
  3
AM_DIN$0
100
AcDbAlignedDimension
 13
279.9828567799689
 23
139.5405706732722
 33
0.0
 14
979.9982853512354
 24
139.5405706732698
 34
0.0
100
AcDbRotatedDimension
1001
ACAD_DSTYLE_DIMINSPECT
1070
   396
1000
100%
1070
   395
1000

1070
   394
1070
    33
1070
   393
1070
     0
1001
ACAD
1000
DSTYLE
1002
{
1070
    41
1040
7.0
1070
   140
1040
10.0
1070
   271
1070
     0
1002
}
  0
DIMENSION
  5
655
102
{ACAD_XDICTIONARY
360
656
102
}
102
{ACAD_REACTORS
330
657
102
}
330
1F
100
AcDbEntity
  8
AM_5
100
AcDbDimension
  2
*D16
 10
1034.424050243686
 20
335.2020904552911
 30
0.0
 11
1027.924050243686
 21
385.1841129083153
 31
0.0
 70
    32
  1
79-134
 71
     5
 42
99.96404490604801
  3
AM_DIN$0
100
AcDbAlignedDimension
 13
978.998856779971
 23
435.1661353613391
 33
0.0
 14
974.001713923079
 24
335.2020904552911
 34
0.0
 50
89.99999999994789
100
AcDbRotatedDimension
1001
ACAD
1000
DSTYLE
1002
{
1070
    41
1040
7.0
1070
   140
1040
10.0
1070
   271
1070
     0
1002
}
1001
ACAD_DSTYLE_DIMINSPECT
1070
   396
1000
100%
1070
   395
1000

1070
   394
1070
    33
1070
   393
1070
     0
  0
DIMENSION
  5
658
330
1F
100
AcDbEntity
  8
AM_5
100
AcDbDimension
  2
*D17
 10
1166.981150788123
 20
454.6302978609243
 30
0.0
 11
1206.981150788074
 21
461.1302978609243
 31
0.0
 70
    32
 71
     5
 42
79.99999999990222
  3
AM_DIN$0
100
AcDbAlignedDimension
 13
1246.981150788025
 23
434.1660904552632
 33
0.0
 14
1166.981150788123
 24
434.1660904551532
 34
0.0
100
AcDbRotatedDimension
1001
ACAD_DSTYLE_DIMINSPECT
1070
   396
1000
100%
1070
   395
1000

1070
   394
1070
    33
1070
   393
1070
     0
1001
ACAD
1000
DSTYLE
1002
{
1070
    41
1040
7.0
1070
   140
1040
10.0
1070
   271
1070
     0
1002
}
  0
DIMENSION
  5
65B
330
1F
100
AcDbEntity
  8
AM_5
100
AcDbDimension
  2
*D18
 10
1248.981150787996
 20
472.1462867575781
 30
0.0
 11
1206.981150788021
 21
478.6462867575782
 31
0.0
 70
    32
 71
     5
 42
83.99999999994951
  3
AM_DIN$0
100
AcDbAlignedDimension
 13
1164.981150788046
 23
434.1660904551562
 33
0.0
 14
1248.981150787996
 24
434.1660904552603
 34
0.0
100
AcDbRotatedDimension
1001
ACAD_DSTYLE_DIMINSPECT
1070
   396
1000
100%
1070
   395
1000

1070
   394
1070
    33
1070
   393
1070
     0
1001
ACAD
1000
DSTYLE
1002
{
1070
    41
1040
7.0
1070
   140
1040
10.0
1070
   271
1070
     0
1002
}
  0
LINE
  5
65E
330
1F
100
AcDbEntity
  8
0
  6
Continuous
 62
     7
100
AcDbLine
 10
283.9805710656008
 20
350.1666099594548
 30
0.0
 11
283.9805710656008
 21
339.1997564742494
 31
0.0
1001
GENIUS_GENOREF_13
1005
0
  0
INSERT
  5
65F
330
1F
100
AcDbEntity
  8
0
100
AcDbBlockReference
  2
befestigung
 10
-1731.734892402694
 20
-991.891702641214
 30
0.0
  0
INSERT
  5
660
330
1F
100
AcDbEntity
  8
0
100
AcDbBlockReference
  2
befestigung
 10
2991.716034533898
 20
-991.891702641214
 30
0.0
 41
-1.0
  0
LINE
  5
661
330
1F
100
AcDbEntity
  8
0
100
AcDbLine
 10
1181.981142494373
 20
335.2020904552911
 30
0.0
 11
1231.981142494373
 21
335.2020904552911
 31
0.0
  0
LINE
  5
662
330
1F
100
AcDbEntity
  8
0
100
AcDbLine
 10
1181.98114249437
 20
337.2009475983981
 30
0.0
 11
1231.981142494373
 21
337.2009475983981
 31
0.0
  0
LINE
  5
663
330
1F
100
AcDbEntity
  8
0
100
AcDbLine
 10
1181.981142494373
 20
335.2020904552911
 30
0.0
 11
1181.981142494363
 21
356.1660904551792
 31
0.0
  0
LINE
  5
664
330
1F
100
AcDbEntity
  8
0
100
AcDbLine
 10
1231.981142494373
 20
335.2020904552911
 30
0.0
 11
1231.981142494364
 21
356.1660904551792
 31
0.0
  0
POINT
  5
6AD
330
1F
100
AcDbEntity
  8
0
 60
     1
100
AcDbPoint
 10
-779.7398027349827
 20
-846.6203805353847
 30
0.0
 50
0.000000000000007
1001
GENIUS_GENOENT_13
1002
{
1000
MYREF
1005
6AD
1002
}
1002
{
1000
GRP
1005
0
1002
}
1001
GENIUS_GENOLIS_13
1002
{
1000
ENT
1005
64D
1005
64C
1005
64B
1005
64A
1002
}
1001
GENIUS_GENODEF_13
1002
{
1000
HIER
1070
    10
1002
}
1002
{
1000
MANEDIT
1070
     0
1002
}
1002
{
1000
NOSEL
1070
     0
1002
}
1002
{
1000
BEHIND
1070
     0
1002
}
1002
{
1000
OTHER
1070
     0
1002
}
1002
{
1000
REACTOR
1002
}
1001
GENIUS_GENOBJ-N-CRS_13
1002
{
1000
OWNER
1000
GEN
1002
}
  0
POINT
  5
6AE
330
1F
100
AcDbEntity
  8
0
 60
     1
100
AcDbPoint
 10
2039.720944866187
 20
-846.6203805353847
 30
0.0
 50
180.0
1001
GENIUS_GENOENT_13
1002
{
1000
MYREF
1005
6AE
1002
}
1002
{
1000
GRP
1005
0
1002
}
1001
GENIUS_GENOLIS_13
1002
{
1000
ENT
1005
645
1005
644
1005
643
1005
642
1002
}
1001
GENIUS_GENOBJ-N-CRS_13
1002
{
1000
OWNER
1000
GEN
1002
}
1001
GENIUS_GENODEF_13
1002
{
1000
HIER
1070
    10
1002
}
1002
{
1000
MANEDIT
1070
     1
1002
}
1002
{
1000
NOSEL
1070
     0
1002
}
1002
{
1000
BEHIND
1070
     0
1002
}
1002
{
1000
OTHER
1070
     0
1002
}
1002
{
1000
REACTOR
1002
}
  0
POINT
  5
6AF
330
1F
100
AcDbEntity
  8
0
 60
     1
100
AcDbPoint
 10
2039.720944866187
 20
-846.6203805353847
 30
0.0
 50
180.0
1001
GENIUS_GENOENT_13
1002
{
1000
MYREF
1005
6AF
1002
}
1002
{
1000
GRP
1005
0
1002
}
1001
GENIUS_GENOLIS_13
1002
{
1000
ENT
1005
609
1005
608
1005
607
1005
606
1002
}
1001
GENIUS_GENOBJ-N-CRS_13
1002
{
1000
OWNER
1000
GEN
1002
}
1001
GENIUS_GENODEF_13
1002
{
1000
HIER
1070
    10
1002
}
1002
{
1000
MANEDIT
1070
     1
1002
}
1002
{
1000
NOSEL
1070
     0
1002
}
1002
{
1000
BEHIND
1070
     0
1002
}
1002
{
1000
OTHER
1070
     0
1002
}
1002
{
1000
REACTOR
1002
}
  0
POINT
  5
6B0
330
1F
100
AcDbEntity
  8
0
 60
     1
100
AcDbPoint
 10
-779.7398027349827
 20
-846.6203805353847
 30
0.0
1001
GENIUS_GENOENT_13
1002
{
1000
MYREF
1005
6B0
1002
}
1002
{
1000
GRP
1005
0
1002
}
1001
GENIUS_GENOLIS_13
1002
{
1000
ENT
1005
5BF
1005
5BE
1005
5BD
1005
5BC
1002
}
1001
GENIUS_GENOBJ-N-CRS_13
1002
{
1000
OWNER
1000
GEN
1002
}
1001
GENIUS_GENODEF_13
1002
{
1000
HIER
1070
    10
1002
}
1002
{
1000
MANEDIT
1070
     1
1002
}
1002
{
1000
NOSEL
1070
     0
1002
}
1002
{
1000
BEHIND
1070
     0
1002
}
1002
{
1000
OTHER
1070
     0
1002
}
1002
{
1000
REACTOR
1002
}
  0
LINE
  5
85C
330
1F
100
AcDbEntity
  8
0
100
AcDbLine
 10
1249.981142494337
 20
420.1660904551228
 30
0.0
 11
1278.981142494311
 21
420.1660904550962
 31
0.0
  0
LINE
  5
85D
330
1F
100
AcDbEntity
  8
0
100
AcDbLine
 10
1249.981142494286
 20
419.1660904551228
 30
0.0
 11
1278.981142494314
 21
419.1660904550962
 31
0.0
  0
HATCH
  5
85E
330
1F
100
AcDbEntity
  8
KLIN
  6
ByBlock
100
AcDbHatch
 10
0.0
 20
0.0
 30
0.0
210
0.0
220
0.0
230
1.0
  2
LINE
 70
     0
 71
     0
 91
        2
 92
        1
 93
       18
 72
     1
 10
1242.981142494321
 20
408.1660904551238
 11
1243.981142494321
 21
408.1660904551238
 72
     1
 10
1243.981142494321
 20
408.1660904551238
 11
1243.981142494321
 21
412.9924913586658
 72
     2
 10
1244.981142494321
 20
412.9924913586656
 40
0.9999999999999847
 50
180.0
 51
265.2363583093169
 73
     0
 72
     1
 10
1244.898097014469
 20
413.9890371169102
 11
1246.147233453979
 21
414.0931318202019
 72
     2
 10
1245.981142494273
 20
416.0862233366927
 40
1.999999999999975
 50
274.7636416906831
 51
359.9999999998306
 73
     1
 72
     1
 10
1247.981142494273
 20
416.0862233366861
 11
1247.981142494287
 21
421.1660904551282
 72
     2
 10
1249.981142494287
 20
421.1660904551227
 40
1.99999999999998
 50
179.9999999998293
 51
269.9999999999479
 73
     1
 72
     1
 10
1249.981142494286
 20
419.1660904551228
 11
1278.981142494314
 21
419.1660904550968
 72
     1
 10
1278.981142494314
 20
419.1660904550962
 11
1278.981142494312
 21
420.1660904550962
 72
     1
 10
1278.981142494311
 20
420.1660904550962
 11
1249.981142494336
 21
420.1660904551221
 72
     2
 10
1249.981142494337
 20
421.1660904551227
 40
0.9999999999999875
 50
90.00000000005211
 51
179.9999999998437
 73
     0
 72
     1
 10
1248.981142494337
 20
421.1660904551202
 11
1248.981142494301
 21
434.1660904552325
 72
     2
 10
1247.981142494315
 20
434.1660904552337
 40
0.9999999999861756
 50
359.9999999999062
 51
539.9999999999035
 73
     1
 72
     1
 10
1246.98114249433
 20
434.1660904552355
 11
1246.981142494274
 21
416.0862233366893
 72
     2
 10
1245.981142494272
 20
416.0862233366927
 40
0.9999999999999511
 50
0.0000000001823857
 51
85.23635830932205
 73
     0
 72
     1
 10
1246.064187974126
 20
415.0896775784477
 11
1244.815051534616
 21
414.9855828751562
 72
     2
 10
1244.981142494321
 20
412.9924913586656
 40
1.999999999999949
 50
94.76364169068052
 51
180.0000000000025
 73
     1
 72
     1
 10
1242.981142494321
 20
412.9924913586656
 11
1242.981142494321
 21
408.1660904551236
 97
        0
 92
        1
 93
       18
 72
     1
 10
1169.981142494321
 20
408.1660904551238
 11
1170.981142494321
 21
408.1660904551238
 72
     1
 10
1170.981142494321
 20
408.1660904551238
 11
1170.981142494321
 21
412.9924913586667
 72
     2
 10
1168.981142494321
 20
412.9924913586664
 40
2.00000000000006
 50
0.0000000000026017
 51
85.2363583093197
 73
     1
 72
     1
 10
1169.147233454028
 20
414.9855828751563
 11
1167.898097014523
 21
415.0896775784475
 72
     2
 10
1167.981142494375
 20
416.0862233366927
 40
1.000000000000057
 50
94.76364169067748
 51
180.0000000001563
 73
     0
 72
     1
 10
1166.981142494375
 20
416.0862233366953
 11
1166.981142494424
 21
434.1660904551178
 72
     2
 10
1165.981142494386
 20
434.166090455121
 40
1.00000000003838
 50
359.9999999998411
 51
539.999999999841
 73
     1
 72
     1
 10
1164.981142494348
 20
434.1660904551239
 11
1164.981142494312
 21
421.1660904551202
 72
     2
 10
1163.981142494312
 20
421.1660904551227
 40
0.9999999999999072
 50
0.0000000001536844
 51
89.99999999994271
 73
     0
 72
     1
 10
1163.981142494313
 20
420.1660904551228
 11
1134.981142494339
 21
420.1660904550968
 72
     1
 10
1134.98114249434
 20
420.1660904550962
 11
1134.981142494338
 21
419.1660904550962
 72
     1
 10
1134.981142494337
 20
419.1660904550962
 11
1163.981142494364
 21
419.1660904551222
 72
     2
 10
1163.981142494363
 20
421.1660904551227
 40
1.999999999999919
 50
270.0000000000547
 51
360.0000000001732
 73
     1
 72
     1
 10
1165.981142494363
 20
421.1660904551282
 11
1165.981142494378
 21
416.0862233366861
 72
     2
 10
1167.981142494378
 20
416.0862233366927
 40
1.999999999999955
 50
180.0000000001693
 51
265.2363583093169
 73
     1
 72
     1
 10
1167.815051534671
 20
414.093131820202
 11
1169.064187974174
 21
413.9890371169114
 72
     2
 10
1168.981142494321
 20
412.9924913586664
 40
0.9999999999999587
 50
274.7636416906831
 51
360.0
 73
     0
 72
     1
 10
1169.981142494321
 20
412.9924913586664
 11
1169.981142494321
 21
408.166090455124
 97
        0
 75
     0
 76
     1
 52
45.0
 41
1.0
 77
     0
 78
     1
 53
45.0
 43
984.8934307265126
 44
147.3248308353789
 45
-2.245064030267287
 46
2.245064030267288
 79
     0
 98
        2
 10
1159.068098399592
 20
419.6800070465791
 10
1257.256765911791
 20
419.6800070465791
  0
LINE
  5
85F
330
1F
100
AcDbEntity
  8
0
100
AcDbLine
 10
1163.981142494313
 20
420.1660904551228
 30
0.0
 11
1134.98114249434
 21
420.1660904550962
 31
0.0
  0
LINE
  5
860
330
1F
100
AcDbEntity
  8
0
100
AcDbLine
 10
1163.981142494364
 20
419.1660904551228
 30
0.0
 11
1134.981142494337
 21
419.1660904550962
 31
0.0
  0
LINE
  5
861
330
1F
100
AcDbEntity
  8
0
100
AcDbLine
 10
1134.98114249434
 20
420.1660904550863
 30
0.0
 11
1134.981142494337
 21
419.1660904550955
 31
0.0
  0
LINE
  5
862
330
1F
100
AcDbEntity
  8
0
100
AcDbLine
 10
1170.981142494321
 20
412.9924913586696
 30
0.0
 11
1170.981142494369
 21
362.6660904551792
 31
0.0
1001
GENIUS_GENODEF_13
1002
{
1000
HIER
1070
     0
1002
}
1002
{
1000
MANEDIT
1070
     0
1002
}
1002
{
1000
NOSEL
1070
     0
1002
}
1002
{
1000
BEHIND
1070
     0
1002
}
1002
{
1000
REACTOR
1002
}
1001
GENIUS_GENOBJ-N-CEN_13
1002
{
1000
OWNER
1000
GEN
1002
}
  0
LINE
  5
863
330
1F
100
AcDbEntity
  8
7A
100
AcDbLine
 10
1206.981142494372
 20
346.2240593551688
 30
0.0
 11
1206.981142494306
 21
444.6660904551792
 31
0.0
1001
GENIUS_GENOBJ-N-CEN_13
1002
{
1000
OWNER
1000
GEN
1002
}
1001
GENIUS_GENODEF_13
1002
{
1000
HIER
1070
     0
1002
}
1002
{
1000
MANEDIT
1070
     0
1002
}
1002
{
1000
NOSEL
1070
     0
1002
}
1002
{
1000
BEHIND
1070
     0
1002
}
1002
{
1000
OTHER
1070
     0
1002
}
1002
{
1000
REACTOR
1002
}
  0
LINE
  5
864
330
1F
100
AcDbEntity
  8
0
  6
ByBlock
100
AcDbLine
 10
1169.481142494323
 20
404.6660904551238
 30
0.0
 11
1177.410394747935
 21
404.6660904551238
 31
0.0
  0
LINE
  5
865
330
1F
100
AcDbEntity
  8
0
  6
ByBlock
100
AcDbLine
 10
1236.55189024073
 20
404.6660904551238
 30
0.0
 11
1244.481142494369
 21
404.6660904551238
 31
0.0
  0
LINE
  5
866
330
1F
100
AcDbEntity
  8
0
100
AcDbLine
 10
1247.981142494313
 20
435.1660904552337
 30
0.0
 11
1165.981134200694
 21
435.1660904551246
 31
0.0
  0
LINE
  5
867
330
1F
100
AcDbEntity
  8
0
  6
ByBlock
100
AcDbLine
 10
1244.815051534616
 20
414.9855828751563
 30
0.0
 11
1206.981142494325
 21
411.8327571218296
 31
0.0
  0
LINE
  5
868
330
1F
100
AcDbEntity
  8
0
100
AcDbLine
 10
1206.939619754399
 20
410.8258306786029
 30
0.0
 11
1243.172029129121
 21
413.8451981264662
 31
0.0
  0
LINE
  5
869
330
1F
100
AcDbEntity
  8
0
  6
ByBlock
100
AcDbLine
 10
1169.147233454028
 20
414.9855828751563
 30
0.0
 11
1206.981142494325
 21
411.8327571218296
 31
0.0
  0
LINE
  5
86A
330
1F
100
AcDbEntity
  8
0
100
AcDbLine
 10
1207.022665234251
 20
410.8258306786029
 30
0.0
 11
1170.790255859522
 21
413.845198126467
 31
0.0
  0
LINE
  5
86B
330
1F
100
AcDbEntity
  8
0
100
AcDbLine
 10
1165.981142494378
 20
416.0862233366861
 30
0.0
 11
1165.981142494322
 21
434.1660904551246
 31
0.0
  0
LINE
  5
86C
330
1F
100
AcDbEntity
  8
0
100
AcDbLine
 10
1166.981142494375
 20
416.0862233366953
 30
0.0
 11
1166.981142494424
 21
434.166090455118
 31
0.0
  0
ARC
  5
86D
330
1F
100
AcDbEntity
  8
0
100
AcDbCircle
 10
1163.981142494312
 20
421.1660904551227
 30
0.0
 40
1.0
100
AcDbArc
 50
270.0
 51
359.9999999998697
  0
ARC
  5
86E
330
1F
100
AcDbEntity
  8
0
100
AcDbCircle
 10
1163.981142494363
 20
421.1660904551227
 30
0.0
 40
2.0
100
AcDbArc
 50
270.0
 51
0.0000000001302755
  0
ARC
  5
86F
330
1F
100
AcDbEntity
  8
0
100
AcDbCircle
 10
1167.981142494378
 20
416.0862233366927
 30
0.0
 40
2.0
100
AcDbArc
 50
180.0000000001302
 51
265.2363583089299
  0
LINE
  5
870
330
1F
100
AcDbEntity
  8
0
100
AcDbLine
 10
1169.981142494321
 20
412.9924913586664
 30
0.0
 11
1169.981142494317
 21
404.6660904551238
 31
0.0
1001
GENIUS_GENODEF_13
1002
{
1000
HIER
1070
     0
1002
}
1002
{
1000
MANEDIT
1070
     0
1002
}
1002
{
1000
NOSEL
1070
     0
1002
}
1002
{
1000
BEHIND
1070
     0
1002
}
1002
{
1000
REACTOR
1002
}
1001
GENIUS_GENOBJ-N-CEN_13
1002
{
1000
OWNER
1000
GEN
1002
}
  0
LINE
  5
871
330
1F
100
AcDbEntity
  8
0
100
AcDbLine
 10
1169.064187974175
 20
413.9890371169114
 30
0.0
 11
1167.815051534671
 21
414.093131820202
 31
0.0
  0
ARC
  5
872
330
1F
100
AcDbEntity
  8
0
100
AcDbCircle
 10
1168.981142494321
 20
412.9924913586664
 30
0.0
 40
1.0
100
AcDbArc
 50
0.0
 51
85.23635830892999
1001
GENIUS_GENODEF_13
1002
{
1000
HIER
1070
     0
1002
}
1002
{
1000
MANEDIT
1070
     0
1002
}
1002
{
1000
NOSEL
1070
     0
1002
}
1002
{
1000
BEHIND
1070
     0
1002
}
1002
{
1000
REACTOR
1002
}
1001
GENIUS_GENOBJ-N-CEN_13
1002
{
1000
OWNER
1000
GEN
1002
}
  0
ARC
  5
873
330
1F
100
AcDbEntity
  8
0
100
AcDbCircle
 10
1168.981142494321
 20
412.9924913586664
 30
0.0
 40
2.0
100
AcDbArc
 50
0.0
 51
85.23635830892999
1001
GENIUS_GENODEF_13
1002
{
1000
HIER
1070
     0
1002
}
1002
{
1000
MANEDIT
1070
     0
1002
}
1002
{
1000
NOSEL
1070
     0
1002
}
1002
{
1000
BEHIND
1070
     0
1002
}
1002
{
1000
REACTOR
1002
}
1001
GENIUS_GENOBJ-N-CEN_13
1002
{
1000
OWNER
1000
GEN
1002
}
  0
LINE
  5
874
330
1F
100
AcDbEntity
  8
0
100
AcDbLine
 10
1169.147233454028
 20
414.9855828751563
 30
0.0
 11
1167.898097014523
 21
415.0896775784477
 31
0.0
  0
ARC
  5
875
330
1F
100
AcDbEntity
  8
0
100
AcDbCircle
 10
1167.981142494375
 20
416.0862233366927
 30
0.0
 40
1.0
100
AcDbArc
 50
179.9999999998697
 51
265.2363583089299
  0
ARC
  5
876
330
1F
100
AcDbEntity
  8
0
100
AcDbCircle
 10
1165.981142494389
 20
434.166090455121
 30
0.0
 40
1.00000000003844
100
AcDbArc
 50
359.9999999998697
 51
179.9999999998697
  0
LINE
  5
877
330
1F
100
AcDbEntity
  8
0
100
AcDbLine
 10
1164.981142494348
 20
434.1660904551239
 30
0.0
 11
1164.981142494312
 21
421.1660904551202
 31
0.0
  0
LINE
  5
878
330
1F
100
AcDbEntity
  8
0
100
AcDbLine
 10
1242.981142494321
 20
412.9924913586649
 30
0.0
 11
1242.981142494323
 21
402.6660904551788
 31
0.0
1001
GENIUS_GENODEF_13
1002
{
1000
HIER
1070
     0
1002
}
1002
{
1000
MANEDIT
1070
     0
1002
}
1002
{
1000
NOSEL
1070
     0
1002
}
1002
{
1000
BEHIND
1070
     0
1002
}
1002
{
1000
REACTOR
1002
}
1001
GENIUS_GENOBJ-N-CEN_13
1002
{
1000
OWNER
1000
GEN
1002
}
  0
ARC
  5
879
330
1F
100
AcDbEntity
  8
0
100
AcDbCircle
 10
1249.981142494337
 20
421.1660904551227
 30
0.0
 40
1.0
100
AcDbArc
 50
180.0000000001302
 51
270.0
  0
LINE
  5
87A
330
1F
100
AcDbEntity
  8
0
100
AcDbLine
 10
1246.981142494272
 20
416.086223336689
 30
0.0
 11
1246.98114249433
 21
434.1660904552319
 31
0.0
  0
LINE
  5
87B
330
1F
100
AcDbEntity
  8
0
100
AcDbLine
 10
1247.981142494273
 20
416.0862233366861
 30
0.0
 11
1247.981142494327
 21
434.1660904552337
 31
0.0
  0
ARC
  5
87C
330
1F
100
AcDbEntity
  8
0
100
AcDbCircle
 10
1249.981142494287
 20
421.1660904551227
 30
0.0
 40
2.0
100
AcDbArc
 50
179.9999999998697
 51
270.0
  0
LINE
  5
87D
330
1F
100
AcDbEntity
  8
0
100
AcDbLine
 10
1243.981142494321
 20
412.9924913586656
 30
0.0
 11
1243.981142494319
 21
404.6660904551238
 31
0.0
1001
GENIUS_GENODEF_13
1002
{
1000
HIER
1070
     0
1002
}
1002
{
1000
MANEDIT
1070
     0
1002
}
1002
{
1000
NOSEL
1070
     0
1002
}
1002
{
1000
BEHIND
1070
     0
1002
}
1002
{
1000
REACTOR
1002
}
1001
GENIUS_GENOBJ-N-CEN_13
1002
{
1000
OWNER
1000
GEN
1002
}
  0
LINE
  5
87E
330
1F
100
AcDbEntity
  8
0
100
AcDbLine
 10
1244.815051534616
 20
414.9855828751563
 30
0.0
 11
1246.064187974126
 21
415.0896775784477
 31
0.0
  0
LINE
  5
87F
330
1F
100
AcDbEntity
  8
0
100
AcDbLine
 10
1244.898097014469
 20
413.9890371169102
 30
0.0
 11
1246.147233453979
 21
414.093131820202
 31
0.0
  0
ARC
  5
880
330
1F
100
AcDbEntity
  8
0
100
AcDbCircle
 10
1244.981142494321
 20
412.9924913586656
 30
0.0
 40
2.0
100
AcDbArc
 50
94.76364169107
 51
180.0
1001
GENIUS_GENODEF_13
1002
{
1000
HIER
1070
     0
1002
}
1002
{
1000
MANEDIT
1070
     0
1002
}
1002
{
1000
NOSEL
1070
     0
1002
}
1002
{
1000
BEHIND
1070
     0
1002
}
1002
{
1000
REACTOR
1002
}
1001
GENIUS_GENOBJ-N-CEN_13
1002
{
1000
OWNER
1000
GEN
1002
}
  0
ARC
  5
881
330
1F
100
AcDbEntity
  8
0
100
AcDbCircle
 10
1244.981142494321
 20
412.9924913586656
 30
0.0
 40
1.0
100
AcDbArc
 50
94.76364169107
 51
180.0
  0
ARC
  5
882
330
1F
100
AcDbEntity
  8
0
100
AcDbCircle
 10
1245.981142494272
 20
416.0862233366927
 30
0.0
 40
1.0
100
AcDbArc
 50
274.76364169107
 51
359.9999999998697
  0
ARC
  5
883
330
1F
100
AcDbEntity
  8
0
100
AcDbCircle
 10
1245.981142494273
 20
416.0862233366927
 30
0.0
 40
2.0
100
AcDbArc
 50
274.76364169107
 51
359.9999999998697
  0
LINE
  5
884
330
1F
100
AcDbEntity
  8
0
100
AcDbLine
 10
1248.981142494302
 20
434.1660904552319
 30
0.0
 11
1248.981142494337
 21
421.1660904551202
 31
0.0
  0
ARC
  5
885
330
1F
100
AcDbEntity
  8
0
100
AcDbCircle
 10
1247.981142494313
 20
434.1660904552293
 30
0.0
 40
0.9999999999848341
100
AcDbArc
 50
359.9999999998697
 51
179.9999999998697
  0
LINE
  5
886
330
1F
100
AcDbEntity
  8
0
100
AcDbLine
 10
1278.981142494311
 20
419.1660904550864
 30
0.0
 11
1278.981142494311
 21
420.1660904550962
 31
0.0
  0
LINE
  5
887
330
1F
100
AcDbEntity
  8
0
100
AcDbLine
 10
1242.981142494325
 20
402.6660904551792
 30
0.0
 11
1304.481142494359
 21
402.6660904551792
 31
0.0
1001
GENIUS_GENOBJ-N-CEN_13
1002
{
1000
OWNER
1000
GEN
1002
}
1001
GENIUS_GENODEF_13
1002
{
1000
HIER
1070
     0
1002
}
1002
{
1000
MANEDIT
1070
     0
1002
}
1002
{
1000
NOSEL
1070
     0
1002
}
1002
{
1000
BEHIND
1070
     0
1002
}
1002
{
1000
OTHER
1070
     0
1002
}
1002
{
1000
REACTOR
1002
}
  0
LINE
  5
888
330
1F
100
AcDbEntity
  8
0
100
AcDbLine
 10
1244.245567659102
 20
401.1660904551791
 30
0.0
 11
1304.481142494357
 21
401.1660904551791
 31
0.0
1001
GENIUS_GENOBJ-N-CEN_13
1002
{
1000
OWNER
1000
GEN
1002
}
1001
GENIUS_GENODEF_13
1002
{
1000
HIER
1070
     0
1002
}
1002
{
1000
MANEDIT
1070
     0
1002
}
1002
{
1000
NOSEL
1070
     0
1002
}
1002
{
1000
BEHIND
1070
     0
1002
}
1002
{
1000
OTHER
1070
     0
1002
}
1002
{
1000
REACTOR
1002
}
  0
LINE
  5
889
330
1F
100
AcDbEntity
  8
0
100
AcDbLine
 10
1244.245567659102
 20
364.1660904551792
 30
0.0
 11
1304.48114249429
 21
364.1660904551792
 31
0.0
1001
GENIUS_GENOBJ-N-CEN_13
1002
{
1000
OWNER
1000
GEN
1002
}
1001
GENIUS_GENODEF_13
1002
{
1000
HIER
1070
     0
1002
}
1002
{
1000
MANEDIT
1070
     0
1002
}
1002
{
1000
NOSEL
1070
     0
1002
}
1002
{
1000
BEHIND
1070
     0
1002
}
1002
{
1000
OTHER
1070
     0
1002
}
1002
{
1000
REACTOR
1002
}
  0
LINE
  5
88A
330
1F
100
AcDbEntity
  8
0
100
AcDbLine
 10
1242.981142494366
 20
362.6660904551792
 30
0.0
 11
1304.481142494286
 21
362.6660904551792
 31
0.0
1001
GENIUS_GENOBJ-N-CEN_13
1002
{
1000
OWNER
1000
GEN
1002
}
1001
GENIUS_GENODEF_13
1002
{
1000
HIER
1070
     0
1002
}
1002
{
1000
MANEDIT
1070
     0
1002
}
1002
{
1000
NOSEL
1070
     0
1002
}
1002
{
1000
BEHIND
1070
     0
1002
}
1002
{
1000
OTHER
1070
     0
1002
}
1002
{
1000
REACTOR
1002
}
  0
LINE
  5
88B
330
1F
100
AcDbEntity
  8
7A
100
AcDbLine
 10
1234.778691261927
 20
383.1660904552891
 30
0.0
 11
1306.880745801529
 21
383.1660904552891
 31
0.0
1001
GENIUS_GENOBJ-N-CEN_13
1002
{
1000
OWNER
1000
GEN
1002
}
1001
GENIUS_GENODEF_13
1002
{
1000
HIER
1070
     0
1002
}
1002
{
1000
MANEDIT
1070
     0
1002
}
1002
{
1000
NOSEL
1070
     0
1002
}
1002
{
1000
BEHIND
1070
     0
1002
}
1002
{
1000
OTHER
1070
     0
1002
}
1002
{
1000
REACTOR
1002
}
  0
LINE
  5
88C
330
1F
100
AcDbEntity
  8
0
100
AcDbLine
 10
1169.481142494326
 20
404.6660904551238
 30
0.0
 11
1169.481142494369
 21
362.6660904551799
 31
0.0
1001
GENIUS_GENODEF_13
1002
{
1000
HIER
1070
     0
1002
}
1002
{
1000
MANEDIT
1070
     0
1002
}
1002
{
1000
NOSEL
1070
     0
1002
}
1002
{
1000
BEHIND
1070
     0
1002
}
1002
{
1000
REACTOR
1002
}
1001
GENIUS_GENOBJ-N-CEN_13
1002
{
1000
OWNER
1000
GEN
1002
}
  0
ARC
  5
88D
330
1F
100
AcDbEntity
  8
0
100
AcDbCircle
 10
1269.385524807895
 20
382.6660904552847
 30
0.0
 40
31.21325752700308
100
AcDbArc
 50
143.6513793379416
 51
216.3486206625045
  0
ARC
  5
88E
330
1F
100
AcDbEntity
  8
0
100
AcDbCircle
 10
1275.436767546098
 20
382.6660904551202
 30
0.0
 40
38.1230586062579
100
AcDbArc
 50
148.3575447252349
 51
211.6424552744477
  0
LINE
  5
88F
330
1F
100
AcDbEntity
  8
0
100
AcDbLine
 10
1175.981142494369
 20
356.1660904551792
 30
0.0
 11
1237.981142494356
 21
356.1660904551792
 31
0.0
  0
LINE
  5
890
330
1F
100
AcDbEntity
  8
0
100
AcDbLine
 10
1175.981142494369
 20
357.6660904551792
 30
0.0
 11
1237.981142494356
 21
357.6660904551792
 31
0.0
  0
ARC
  5
891
330
1F
100
AcDbEntity
  8
0
100
AcDbCircle
 10
1175.981142494369
 20
362.6660904551792
 30
0.0
 40
6.5
100
AcDbArc
 50
180.0
 51
270.0
  0
ARC
  5
892
330
1F
100
AcDbEntity
  8
0
100
AcDbCircle
 10
1175.981142494369
 20
362.6660904551792
 30
0.0
 40
5.0
100
AcDbArc
 50
180.0
 51
270.0
  0
LINE
  5
893
330
1F
100
AcDbEntity
  8
0
100
AcDbLine
 10
1242.981142494366
 20
362.6660904551792
 30
0.0
 11
1244.245567659102
 21
364.1660904551792
 31
0.0
  0
LINE
  5
894
330
1F
100
AcDbEntity
  8
0
100
AcDbLine
 10
1244.481142494363
 20
404.6660904551238
 30
0.0
 11
1244.48114249436
 21
402.6660904551792
 31
0.0
1001
GENIUS_GENODEF_13
1002
{
1000
HIER
1070
     0
1002
}
1002
{
1000
MANEDIT
1070
     0
1002
}
1002
{
1000
NOSEL
1070
     0
1002
}
1002
{
1000
BEHIND
1070
     0
1002
}
1002
{
1000
REACTOR
1002
}
1001
GENIUS_GENOBJ-N-CEN_13
1002
{
1000
OWNER
1000
GEN
1002
}
  0
LINE
  5
895
330
1F
100
AcDbEntity
  8
0
100
AcDbLine
 10
1242.981142494359
 20
402.6660904550046
 30
0.0
 11
1244.245567659095
 21
401.1660904550045
 31
0.0
  0
ARC
  5
897
330
1F
100
AcDbEntity
  8
0
100
AcDbCircle
 10
1237.981142494356
 20
362.6660904552221
 30
0.0
 40
6.5
100
AcDbArc
 50
270.0
 51
0.0000000000781653
  0
ARC
  5
898
330
1F
100
AcDbEntity
  8
0
100
AcDbCircle
 10
1237.981142494356
 20
362.6660904552221
 30
0.0
 40
5.0
100
AcDbArc
 50
270.0
 51
0.0000000000781653
  0
LINE
  5
899
330
1F
100
AcDbEntity
  8
0
100
AcDbLine
 10
1186.981142494331
 20
404.8984035185241
 30
0.0
 11
1186.981142494331
 21
372.8984035185241
 31
0.0
  0
LINE
  5
89A
330
1F
100
AcDbEntity
  8
0
100
AcDbLine
 10
1186.981142494331
 20
372.8984035185241
 30
0.0
 11
1226.981142494331
 21
372.8984035185241
 31
0.0
  0
LINE
  5
89B
330
1F
100
AcDbEntity
  8
0
100
AcDbLine
 10
1226.981142494331
 20
372.8984035185241
 30
0.0
 11
1226.981142494331
 21
404.8984035185241
 31
0.0
  0
LINE
  5
89C
330
1F
100
AcDbEntity
  8
0
100
AcDbLine
 10
1188.481142494331
 20
404.8984035185241
 30
0.0
 11
1188.481142494331
 21
372.8984035185241
 31
0.0
  0
LINE
  5
89D
330
1F
100
AcDbEntity
  8
0
100
AcDbLine
 10
1225.481142494331
 20
372.8984035185241
 30
0.0
 11
1225.481142494331
 21
404.8984035185241
 31
0.0
  0
LINE
  5
89E
330
1F
100
AcDbEntity
  8
0
100
AcDbLine
 10
1178.481142494331
 20
394.8984035185241
 30
0.0
 11
1178.481142494331
 21
363.8984035185241
 31
0.0
  0
LINE
  5
89F
330
1F
100
AcDbEntity
  8
0
100
AcDbLine
 10
1235.481142494331
 20
363.8984035185241
 30
0.0
 11
1235.481142494331
 21
394.8984035185241
 31
0.0
  0
LINE
  5
8A0
330
1F
100
AcDbEntity
  8
0
100
AcDbLine
 10
1184.481142494331
 20
357.8984035185241
 30
0.0
 11
1229.481142494331
 21
357.8984035185241
 31
0.0
  0
LINE
  5
8A1
330
1F
100
AcDbEntity
  8
0
100
AcDbLine
 10
1226.981142494331
 20
397.8984035185241
 30
0.0
 11
1234.981142494331
 21
397.8984035185241
 31
0.0
  0
LINE
  5
8A2
330
1F
100
AcDbEntity
  8
0
100
AcDbLine
 10
1174.481142494331
 20
408.3984035185241
 30
0.0
 11
1174.481142494331
 21
406.898403518524
 31
0.0
  0
LINE
  5
8A3
330
1F
100
AcDbEntity
  8
0
100
AcDbLine
 10
1170.481142494331
 20
406.898403518524
 30
0.0
 11
1173.481142494331
 21
406.898403518524
 31
0.0
  0
LINE
  5
8A4
330
1F
100
AcDbEntity
  8
0
100
AcDbLine
 10
1239.481142494331
 20
406.898403518524
 30
0.0
 11
1239.481142494331
 21
408.3984035185241
 31
0.0
  0
LINE
  5
8A5
330
1F
100
AcDbEntity
  8
0
100
AcDbLine
 10
1239.481142494331
 20
408.3984035185241
 30
0.0
 11
1174.481142494331
 21
408.3984035185241
 31
0.0
  0
LINE
  5
8A6
330
1F
100
AcDbEntity
  8
7
100
AcDbLine
 10
1206.981142494331
 20
411.398403518524
 30
0.0
 11
1206.981142494331
 21
357.8984035185241
 31
0.0
1001
GENIUS_GENOBJ-N-CEN_13
1002
{
1000
OWNER
1000
GEN
1002
}
1001
GENIUS_GENODEF_13
1002
{
1000
HIER
1070
     0
1002
}
1002
{
1000
MANEDIT
1070
     0
1002
}
1002
{
1000
NOSEL
1070
     0
1002
}
1002
{
1000
BEHIND
1070
     0
1002
}
1002
{
1000
OTHER
1070
     0
1002
}
1002
{
1000
REACTOR
1002
}
  0
CIRCLE
  5
8A7
330
1F
100
AcDbEntity
  8
0
100
AcDbCircle
 10
1206.981142494331
 20
405.3984035185241
 30
0.0
 40
1.5
  0
LINE
  5
8A8
330
1F
100
AcDbEntity
  8
7A
100
AcDbLine
 10
1202.481142494331
 20
405.3984035185241
 30
0.0
 11
1211.481142494331
 21
405.3984035185241
 31
0.0
1001
GENIUS_GENOBJ-N-CEN_13
1002
{
1000
OWNER
1000
GEN
1002
}
1001
GENIUS_GENODEF_13
1002
{
1000
HIER
1070
     0
1002
}
1002
{
1000
MANEDIT
1070
     0
1002
}
1002
{
1000
NOSEL
1070
     0
1002
}
1002
{
1000
BEHIND
1070
     0
1002
}
1002
{
1000
OTHER
1070
     0
1002
}
1002
{
1000
REACTOR
1002
}
  0
LINE
  5
8A9
330
1F
100
AcDbEntity
  8
0
100
AcDbLine
 10
1235.481142494331
 20
410.898403518524
 30
0.0
 11
1178.481142494331
 21
410.898403518524
 31
0.0
  0
LINE
  5
8AA
330
1F
100
AcDbEntity
  8
0
100
AcDbLine
 10
1178.481142494331
 20
410.898403518524
 30
0.0
 11
1178.481142494331
 21
408.3984035185241
 31
0.0
  0
LINE
  5
8AB
330
1F
100
AcDbEntity
  8
0
100
AcDbLine
 10
1178.481142494331
 20
406.898403518524
 30
0.0
 11
1178.481142494331
 21
404.3984035185241
 31
0.0
  0
LINE
  5
8AC
330
1F
100
AcDbEntity
  8
0
100
AcDbLine
 10
1235.481142494331
 20
410.898403518524
 30
0.0
 11
1235.481142494331
 21
408.3984035185241
 31
0.0
  0
LINE
  5
8AD
330
1F
100
AcDbEntity
  8
0
100
AcDbLine
 10
1235.481142494331
 20
406.898403518524
 30
0.0
 11
1235.481142494331
 21
404.3984035185241
 31
0.0
  0
LINE
  5
8AE
330
1F
100
AcDbEntity
  8
0
100
AcDbLine
 10
1226.981142494331
 20
404.3984035185241
 30
0.0
 11
1235.481142494331
 21
404.3984035185241
 31
0.0
  0
LINE
  5
8AF
330
1F
100
AcDbEntity
  8
0
100
AcDbLine
 10
1173.481142494331
 20
408.3984035185241
 30
0.0
 11
1173.481142494331
 21
406.898403518524
 31
0.0
  0
LINE
  5
8B0
330
1F
100
AcDbEntity
  8
0
100
AcDbLine
 10
1170.481142494331
 20
408.3984035185241
 30
0.0
 11
1172.481142494331
 21
409.3984035185241
 31
0.0
  0
LINE
  5
8B1
330
1F
100
AcDbEntity
  8
0
100
AcDbLine
 10
1172.481142494331
 20
409.3984035185241
 30
0.0
 11
1178.481142494331
 21
410.898403518524
 31
0.0
  0
LINE
  5
8B2
330
1F
100
AcDbEntity
  8
0
100
AcDbLine
 10
1172.481142494331
 20
405.8984035185241
 30
0.0
 11
1178.481142494331
 21
404.3984035185241
 31
0.0
  0
LINE
  5
8B3
330
1F
100
AcDbEntity
  8
0
100
AcDbLine
 10
1170.481142494331
 20
406.898403518524
 30
0.0
 11
1172.481142494331
 21
405.8984035185241
 31
0.0
  0
LINE
  5
8B4
330
1F
100
AcDbEntity
  8
0
100
AcDbLine
 10
1173.481142494331
 20
408.3984035185241
 30
0.0
 11
1170.481142494331
 21
408.3984035185241
 31
0.0
  0
LINE
  5
8B5
330
1F
100
AcDbEntity
  8
0
100
AcDbLine
 10
1174.481142494331
 20
406.898403518524
 30
0.0
 11
1184.981142494331
 21
406.898403518524
 31
0.0
  0
LINE
  5
8B6
330
1F
100
AcDbEntity
  8
0
100
AcDbLine
 10
1243.481142494331
 20
406.898403518524
 30
0.0
 11
1240.481142494331
 21
406.898403518524
 31
0.0
  0
LINE
  5
8B7
330
1F
100
AcDbEntity
  8
0
100
AcDbLine
 10
1240.481142494331
 20
408.3984035185241
 30
0.0
 11
1243.481142494331
 21
408.3984035185241
 31
0.0
  0
LINE
  5
8B8
330
1F
100
AcDbEntity
  8
0
100
AcDbLine
 10
1243.481142494331
 20
406.898403518524
 30
0.0
 11
1241.481142494331
 21
405.8984035185241
 31
0.0
  0
LINE
  5
8B9
330
1F
100
AcDbEntity
  8
0
100
AcDbLine
 10
1243.481142494331
 20
408.3984035185241
 30
0.0
 11
1241.481142494331
 21
409.3984035185241
 31
0.0
  0
LINE
  5
8BA
330
1F
100
AcDbEntity
  8
0
100
AcDbLine
 10
1240.481142494331
 20
408.3984035185241
 30
0.0
 11
1240.481142494331
 21
406.898403518524
 31
0.0
  0
LINE
  5
8BB
330
1F
100
AcDbEntity
  8
0
100
AcDbLine
 10
1241.481142494331
 20
409.3984035185241
 30
0.0
 11
1235.481142494331
 21
410.898403518524
 31
0.0
  0
LINE
  5
8BC
330
1F
100
AcDbEntity
  8
0
100
AcDbLine
 10
1241.481142494331
 20
405.8984035185241
 30
0.0
 11
1235.481142494331
 21
404.3984035185241
 31
0.0
  0
HATCH
  5
8BD
330
1F
100
AcDbEntity
  8
8
100
AcDbHatch
 10
0.0
 20
0.0
 30
0.0
210
0.0
220
0.0
230
1.0
  2
NET
 70
     0
 71
     0
 91
        2
 92
        7
 72
     0
 73
     1
 93
       12
 10
1170.481142494331
 20
406.898403518524
 10
1172.481142494331
 20
405.8984035185241
 10
1178.481142494331
 20
404.3984035185241
 10
1178.481142494331
 20
406.898403518524
 10
1174.481142494331
 20
406.898403518524
 10
1174.481142494331
 20
408.3984035185241
 10
1178.481142494331
 20
408.3984035185241
 10
1178.481142494331
 20
410.898403518524
 10
1172.481142494331
 20
409.3984035185241
 10
1170.481142494331
 20
408.3984035185241
 10
1173.481142494331
 20
408.3984035185241
 10
1173.481142494331
 20
406.898403518524
 97
        0
 92
        7
 72
     0
 73
     1
 93
       12
 10
1239.481142494331
 20
406.898403518524
 10
1235.481142494331
 20
406.898403518524
 10
1235.481142494331
 20
404.3984035185241
 10
1241.481142494331
 20
405.8984035185241
 10
1243.481142494331
 20
406.898403518524
 10
1240.481142494331
 20
406.898403518524
 10
1240.481142494331
 20
408.3984035185241
 10
1243.481142494331
 20
408.3984035185241
 10
1241.481142494331
 20
409.3984035185241
 10
1235.481142494331
 20
410.898403518524
 10
1235.481142494331
 20
408.3984035185241
 10
1239.481142494331
 20
408.3984035185241
 97
        0
 75
     0
 76
     1
 52
135.0
 41
0.5
 77
     0
 78
     2
 53
135.0
 43
1088.917535499454
 44
206.094014474085
 45
-1.122532015133644
 46
-1.122532015133643
 79
     0
 53
225.0
 43
1088.917535499454
 44
206.094014474085
 45
1.122532015133643
 46
-1.122532015133644
 79
     0
 47
0.1492324330864038
 98
        2
 10
1177.013531637755
 20
405.8640467744292
 10
1237.934539520282
 20
405.7148133292024
  0
LINE
  5
8BE
330
1F
100
AcDbEntity
  8
0
100
AcDbLine
 10
1179.481142494331
 20
394.8984035185241
 30
0.0
 11
1179.481142494331
 21
363.8984035185241
 31
0.0
  0
LINE
  5
8BF
330
1F
100
AcDbEntity
  8
0
100
AcDbLine
 10
1184.481142494331
 20
358.8984035185241
 30
0.0
 11
1229.481142494331
 21
358.8984035185241
 31
0.0
  0
LINE
  5
8C0
330
1F
100
AcDbEntity
  8
0
100
AcDbLine
 10
1234.481142494331
 20
363.8984035185241
 30
0.0
 11
1234.481142494331
 21
394.8984035185241
 31
0.0
  0
ARC
  5
8C1
330
1F
100
AcDbEntity
  8
0
100
AcDbCircle
 10
1184.481142494331
 20
363.8984035185241
 30
0.0
 40
5.0
100
AcDbArc
 50
180.0
 51
270.0
1001
GENIUS_GENOBJ-N-FIL_13
1002
{
1000
OWNER
1000
GEN
1002
}
1001
GENIUS_GENODEF_13
1002
{
1000
HIER
1070
     0
1002
}
1002
{
1000
MANEDIT
1070
     0
1002
}
1002
{
1000
NOSEL
1070
     0
1002
}
1002
{
1000
BEHIND
1070
     0
1002
}
1002
{
1000
OTHER
1070
     0
1002
}
1002
{
1000
REACTOR
1002
}
  0
ARC
  5
8C2
330
1F
100
AcDbEntity
  8
0
100
AcDbCircle
 10
1229.481142494331
 20
363.8984035185241
 30
0.0
 40
5.0
100
AcDbArc
 50
270.0
 51
0.0
1001
GENIUS_GENOBJ-N-FIL_13
1002
{
1000
OWNER
1000
GEN
1002
}
1001
GENIUS_GENODEF_13
1002
{
1000
HIER
1070
     0
1002
}
1002
{
1000
MANEDIT
1070
     0
1002
}
1002
{
1000
NOSEL
1070
     0
1002
}
1002
{
1000
BEHIND
1070
     0
1002
}
1002
{
1000
OTHER
1070
     0
1002
}
1002
{
1000
REACTOR
1002
}
  0
ARC
  5
8C3
330
1F
100
AcDbEntity
  8
0
100
AcDbCircle
 10
1184.481142494331
 20
363.8984035185241
 30
0.0
 40
6.0
100
AcDbArc
 50
180.0
 51
270.0
1001
GENIUS_GENOBJ-N-FIL_13
1002
{
1000
OWNER
1000
GEN
1002
}
1001
GENIUS_GENODEF_13
1002
{
1000
HIER
1070
     0
1002
}
1002
{
1000
MANEDIT
1070
     0
1002
}
1002
{
1000
NOSEL
1070
     0
1002
}
1002
{
1000
BEHIND
1070
     0
1002
}
1002
{
1000
OTHER
1070
     0
1002
}
1002
{
1000
REACTOR
1002
}
  0
ARC
  5
8C4
330
1F
100
AcDbEntity
  8
0
100
AcDbCircle
 10
1229.481142494331
 20
363.8984035185241
 30
0.0
 40
6.0
100
AcDbArc
 50
270.0
 51
0.0
1001
GENIUS_GENODEF_13
1002
{
1000
HIER
1070
     0
1002
}
1002
{
1000
MANEDIT
1070
     0
1002
}
1002
{
1000
NOSEL
1070
     0
1002
}
1002
{
1000
BEHIND
1070
     0
1002
}
1002
{
1000
OTHER
1070
     0
1002
}
1002
{
1000
REACTOR
1002
}
1001
GENIUS_GENOBJ-N-FIL_13
1002
{
1000
OWNER
1000
GEN
1002
}
  0
ARC
  5
8C5
330
1F
100
AcDbEntity
  8
0
100
AcDbCircle
 10
1184.981142494331
 20
404.8984035185241
 30
0.0
 40
2.0
100
AcDbArc
 50
0.0
 51
90.0
1001
GENIUS_GENODEF_13
1002
{
1000
HIER
1070
     0
1002
}
1002
{
1000
MANEDIT
1070
     0
1002
}
1002
{
1000
NOSEL
1070
     0
1002
}
1002
{
1000
BEHIND
1070
     0
1002
}
1002
{
1000
OTHER
1070
     0
1002
}
1002
{
1000
REACTOR
1002
}
1001
GENIUS_GENOBJ-N-FIL_13
1002
{
1000
OWNER
1000
GEN
1002
}
  0
LINE
  5
8C6
330
1F
100
AcDbEntity
  8
0
100
AcDbLine
 10
1239.481142494331
 20
406.898403518524
 30
0.0
 11
1228.981142494331
 21
406.898403518524
 31
0.0
  0
ARC
  5
8C7
330
1F
100
AcDbEntity
  8
0
100
AcDbCircle
 10
1228.981142494331
 20
404.8984035185241
 30
0.0
 40
2.0
100
AcDbArc
 50
90.0
 51
180.0
1001
GENIUS_GENODEF_13
1002
{
1000
HIER
1070
     0
1002
}
1002
{
1000
MANEDIT
1070
     0
1002
}
1002
{
1000
NOSEL
1070
     0
1002
}
1002
{
1000
BEHIND
1070
     0
1002
}
1002
{
1000
OTHER
1070
     0
1002
}
1002
{
1000
REACTOR
1002
}
1001
GENIUS_GENOBJ-N-FIL_13
1002
{
1000
OWNER
1000
GEN
1002
}
  0
ARC
  5
8C8
330
1F
100
AcDbEntity
  8
0
100
AcDbCircle
 10
1184.981142494331
 20
404.8984035185241
 30
0.0
 40
3.5
100
AcDbArc
 50
0.0
 51
90.0
1001
GENIUS_GENODEF_13
1002
{
1000
HIER
1070
     0
1002
}
1002
{
1000
MANEDIT
1070
     0
1002
}
1002
{
1000
NOSEL
1070
     0
1002
}
1002
{
1000
BEHIND
1070
     0
1002
}
1002
{
1000
OTHER
1070
     0
1002
}
1002
{
1000
REACTOR
1002
}
1001
GENIUS_GENOBJ-N-FIL_13
1002
{
1000
OWNER
1000
GEN
1002
}
  0
ARC
  5
8C9
330
1F
100
AcDbEntity
  8
0
100
AcDbCircle
 10
1228.981142494331
 20
404.8984035185241
 30
0.0
 40
3.5
100
AcDbArc
 50
90.0
 51
180.0
1001
GENIUS_GENODEF_13
1002
{
1000
HIER
1070
     0
1002
}
1002
{
1000
MANEDIT
1070
     0
1002
}
1002
{
1000
NOSEL
1070
     0
1002
}
1002
{
1000
BEHIND
1070
     0
1002
}
1002
{
1000
OTHER
1070
     0
1002
}
1002
{
1000
REACTOR
1002
}
1001
GENIUS_GENOBJ-N-FIL_13
1002
{
1000
OWNER
1000
GEN
1002
}
  0
LINE
  5
8CA
330
1F
100
AcDbEntity
  8
0
100
AcDbLine
 10
1178.481142494331
 20
397.8984035185241
 30
0.0
 11
1179.481142494331
 21
397.8984035185241
 31
0.0
  0
LINE
  5
8CB
330
1F
100
AcDbEntity
  8
0
100
AcDbLine
 10
1178.481142494331
 20
406.898403518524
 30
0.0
 11
1184.981142494331
 21
406.898403518524
 31
0.0
  0
LINE
  5
8CC
330
1F
100
AcDbEntity
  8
0
100
AcDbLine
 10
1178.481142494331
 20
397.8984035185241
 30
0.0
 11
1180.241847050146
 21
397.8984035185241
 31
0.0
  0
LINE
  5
8CD
330
1F
100
AcDbEntity
  8
0
100
AcDbLine
 10
1186.981142494331
 20
404.8984035185241
 30
0.0
 11
1186.981142494331
 21
386.8984035185241
 31
0.0
  0
LINE
  5
8CE
330
1F
100
AcDbEntity
  8
0
100
AcDbLine
 10
1179.981142494331
 20
395.4184035185246
 30
0.0
 11
1179.981142494331
 21
393.4184035185245
 31
0.0
  0
LINE
  5
8CF
330
1F
100
AcDbEntity
  8
0
100
AcDbLine
 10
1186.981142494331
 20
386.8984035185241
 30
0.0
 11
1183.745466249449
 21
386.8984035185241
 31
0.0
  0
LINE
  5
8D0
330
1F
100
AcDbEntity
  8
0
100
AcDbLine
 10
1178.481142494331
 20
397.8984035185241
 30
0.0
 11
1178.481142494331
 21
406.898403518524
 31
0.0
  0
LINE
  5
8D1
330
1F
100
AcDbEntity
  8
0
100
AcDbLine
 10
1179.981142494331
 20
395.4184035185246
 30
0.0
 11
1180.70543897743
 21
397.2111002218161
 31
0.0
  0
ARC
  5
8D2
330
1F
100
AcDbEntity
  8
0
100
AcDbCircle
 10
1180.241847050146
 20
397.3984035185241
 30
0.0
 40
0.5
100
AcDbArc
 50
337.9999999999461
 51
90.0
  0
LINE
  5
8D3
330
1F
100
AcDbEntity
  8
0
100
AcDbLine
 10
1179.981142494331
 20
393.4184035185242
 30
0.0
 11
1183.745466249449
 21
386.8984035185241
 31
0.0
  0
LINE
  5
8D4
330
1F
100
AcDbEntity
  8
0
100
AcDbLine
 10
1184.981142494331
 20
406.898403518524
 30
0.0
 11
1186.981142494331
 21
404.8984035185241
 31
0.0
  0
LINE
  5
8D5
330
1F
100
AcDbEntity
  8
3
100
AcDbLine
 10
1178.481142494331
 20
404.3984035185241
 30
0.0
 11
1186.981142494331
 21
404.3984035185241
 31
0.0
  0
LINE
  5
8D6
330
1F
100
AcDbEntity
  8
3
100
AcDbLine
 10
1180.241847050146
 20
397.8984035185241
 30
0.0
 11
1186.981142494331
 21
397.8984035185241
 31
0.0
  0
LINE
  5
8D7
330
1F
100
AcDbEntity
  8
0
100
AcDbLine
 10
1179.481142494331
 20
394.8984035185241
 30
0.0
 11
1179.954115467304
 21
397.7362413563621
 31
0.0
  0
LINE
  5
8D8
330
1F
100
AcDbEntity
  8
0
100
AcDbLine
 10
1178.481142494331
 20
394.8984035185241
 30
0.0
 11
1178.981142494331
 21
397.8984035185241
 31
0.0
  0
LINE
  5
8D9
330
1F
100
AcDbEntity
  8
0
100
AcDbLine
 10
1178.981142494331
 20
397.8984035185241
 30
0.0
 11
1179.954115467304
 21
397.7362413563621
 31
0.0
  0
LINE
  5
8DA
330
1F
100
AcDbEntity
  8
0
100
AcDbLine
 10
1179.954115467304
 20
397.7362413563621
 30
0.0
 11
1180.61044655547
 21
397.7362413563621
 31
0.0
  0
LINE
  5
8DB
330
1F
100
AcDbEntity
  8
0
100
AcDbLine
 10
1234.481142494331
 20
394.8984035185241
 30
0.0
 11
1234.008169521358
 21
397.7362413563621
 31
0.0
  0
LINE
  5
8DC
330
1F
100
AcDbEntity
  8
0
100
AcDbLine
 10
1235.481142494331
 20
394.8984035185241
 30
0.0
 11
1234.981142494331
 21
397.8984035185241
 31
0.0
  0
LINE
  5
8DD
330
1F
100
AcDbEntity
  8
0
100
AcDbLine
 10
1234.981142494331
 20
397.8984035185241
 30
0.0
 11
1234.008169521358
 21
397.7362413563621
 31
0.0
  0
LINE
  5
8DE
330
1F
100
AcDbEntity
  8
0
100
AcDbLine
 10
1234.008169521358
 20
397.7362413563621
 30
0.0
 11
1226.981142494331
 21
397.7362413563621
 31
0.0
  0
LINE
  5
8EA
330
1F
100
AcDbEntity
  8
0
100
AcDbLine
 10
1304.481142494359
 20
402.6660904551792
 30
0.0
 11
1304.481142494286
 21
362.6660904551792
 31
0.0
  0
CIRCLE
  5
A61
330
1F
100
AcDbEntity
  8
0
100
AcDbCircle
 10
629.9905710656016
 20
383.1660904552891
 30
0.0
 40
20.0
  0
CIRCLE
  5
A62
330
1F
100
AcDbEntity
  8
0
100
AcDbCircle
 10
629.9905710656016
 20
383.1660904552891
 30
0.0
 40
18.5
  0
LINE
  5
A7C
330
1F
100
AcDbEntity
  8
0
100
AcDbLine
 10
977.99942820871
 20
342.1460104213425
 30
0.0
 11
978.998856779971
 21
342.1460104213425
 31
0.0
  0
ENDSEC
  0
SECTION
  2
OBJECTS
  0
DICTIONARY
  5
C
330
0
100
AcDbDictionary
281
     1
  3
ACAD_2007HEADERVARS_RT
350
D2E
  3
ACAD_COLOR
350
BE
  3
ACAD_GROUP
350
D
  3
ACAD_LAYOUT
350
1A
  3
ACAD_MATERIAL
350
BD
  3
ACAD_MLEADERSTYLE
350
2C4
  3
ACAD_MLINESTYLE
350
17
  3
ACAD_PLOTSETTINGS
350
19
  3
ACAD_PLOTSTYLENAME
350
E
  3
ACAD_SCALELIST
350
2A2
  3
ACAD_TABLESTYLE
350
11A
  3
ACAD_VISUALSTYLE
350
26E
  3
ACDB_RECOMPOSE_DATA
350
2E6
  3
AcDbVariableDictionary
350
94
  3
AcmDictionary
350
5B
  3
AcmSystemVariableManager
350
D3C
  3
AMG
350
41
  3
AMGSNAPSETTINGS
350
364
  3
DWGPROPS
350
D2D
  0
DICTIONARY
  5
453
330
2
100
AcDbDictionary
280
     1
281
     1
  3
ACAD_LAYERSTATES
360
454
  0
DICTIONARY
  5
D1A
330
10
100
AcDbDictionary
280
     1
281
     1
  3
ADSK_XREC_LAYER_RECONCILED
360
D1B
  0
DICTIONARY
  5
433
330
432
100
AcDbDictionary
280
     1
281
     1
  3
ADSK_XREC_LAYER_RECONCILED
360
D1C
  0
DICTIONARY
  5
435
330
434
100
AcDbDictionary
280
     1
281
     1
  3
ADSK_XREC_LAYER_RECONCILED
360
D1D
  0
DICTIONARY
  5
438
330
437
100
AcDbDictionary
280
     1
281
     1
  3
ADSK_XREC_LAYER_RECONCILED
360
D1E
  0
DICTIONARY
  5
43A
330
439
100
AcDbDictionary
280
     1
281
     1
  3
ADSK_XREC_LAYER_RECONCILED
360
D1F
  0
DICTIONARY
  5
43C
330
43B
100
AcDbDictionary
280
     1
281
     1
  3
ADSK_XREC_LAYER_RECONCILED
360
D20
  0
DICTIONARY
  5
43E
330
43D
100
AcDbDictionary
280
     1
281
     1
  3
ADSK_XREC_LAYER_RECONCILED
360
D21
  0
DICTIONARY
  5
440
330
43F
100
AcDbDictionary
280
     1
281
     1
  3
ADSK_XREC_LAYER_RECONCILED
360
D22
  0
DICTIONARY
  5
442
330
441
100
AcDbDictionary
280
     1
281
     1
  3
ADSK_XREC_LAYER_RECONCILED
360
D23
  0
DICTIONARY
  5
444
330
443
100
AcDbDictionary
280
     1
281
     1
  3
ADSK_XREC_LAYER_RECONCILED
360
D24
  0
DICTIONARY
  5
446
330
445
100
AcDbDictionary
280
     1
281
     1
  3
ADSK_XREC_LAYER_RECONCILED
360
D25
  0
DICTIONARY
  5
799
330
798
100
AcDbDictionary
280
     1
281
     1
  3
ADSK_XREC_LAYER_RECONCILED
360
D26
  0
DICTIONARY
  5
D27
330
79A
100
AcDbDictionary
280
     1
281
     1
  3
ADSK_XREC_LAYER_RECONCILED
360
D28
  0
DICTIONARY
  5
D29
330
A4A
100
AcDbDictionary
280
     1
281
     1
  3
ADSK_XREC_LAYER_RECONCILED
360
D2A
  0
DICTIONARY
  5
8F
330
1F
100
AcDbDictionary
280
     1
281
     1
  0
DICTIONARY
  5
653
330
652
100
AcDbDictionary
280
     1
281
     1
  3
ACAD_DIMASSOC
360
654
  0
DICTIONARY
  5
656
330
655
100
AcDbDictionary
280
     1
281
     1
  3
ACAD_DIMASSOC
360
657
  0
DICTIONARY
  5
D2E
102
{ACAD_REACTORS
330
C
102
}
330
C
100
AcDbDictionary
281
     1
  3
DIMARCSYM
350
D2F
  3
DIMLTEX1
350
D31
  3
DIMLTEX2
350
D32
  3
DIMLTYPE
350
D30
  0
DICTIONARY
  5
BE
102
{ACAD_REACTORS
330
C
102
}
330
C
100
AcDbDictionary
281
     1
  0
DICTIONARY
  5
D
102
{ACAD_REACTORS
330
C
102
}
330
C
100
AcDbDictionary
281
     1
  0
DICTIONARY
  5
1A
102
{ACAD_REACTORS
330
C
102
}
330
C
100
AcDbDictionary
281
     1
  3
Layout1
350
1E
  3
Layout2
350
26
  3
Model
350
22
  0
DICTIONARY
  5
BD
102
{ACAD_REACTORS
330
C
102
}
330
C
100
AcDbDictionary
281
     1
  3
ByBlock
350
26C
  3
ByLayer
350
26B
  3
Global
350
26D
  0
DICTIONARY
  5
2C4
102
{ACAD_REACTORS
330
C
102
}
330
C
100
AcDbDictionary
281
     1
  3
Standard
350
2C5
  0
DICTIONARY
  5
17
102
{ACAD_REACTORS
330
C
102
}
330
C
100
AcDbDictionary
281
     1
  3
Standard
350
18
  0
DICTIONARY
  5
19
102
{ACAD_REACTORS
330
C
102
}
330
C
100
AcDbDictionary
281
     1
  0
ACDBDICTIONARYWDFLT
  5
E
102
{ACAD_REACTORS
330
C
102
}
330
C
100
AcDbDictionary
281
     1
  3
Normal
350
F
100
AcDbDictionaryWithDefault
340
F
  0
DICTIONARY
  5
2A2
102
{ACAD_REACTORS
330
C
102
}
330
C
100
AcDbDictionary
281
     1
  3
A0
350
2A3
  3
A1
350
2A4
  3
A2
350
2A5
  3
A3
350
2A6
  3
A4
350
2A7
  3
A5
350
2A8
  3
A6
350
2A9
  3
A7
350
2AA
  3
A8
350
2AB
  3
A9
350
2AC
  3
B0
350
2AD
  3
B1
350
2AE
  3
B2
350
2AF
  3
B3
350
2B0
  3
B4
350
2B1
  3
B5
350
2B2
  3
B6
350
2B3
  3
B7
350
2B4
  3
B8
350
2B5
  3
B9
350
2B6
  3
C0
350
2B7
  3
C1
350
2B8
  3
C2
350
2B9
  3
C3
350
2BA
  3
C4
350
2BB
  3
C5
350
2BC
  3
C6
350
2BD
  3
C7
350
2BE
  3
C8
350
2BF
  3
C9
350
2C0
  3
D0
350
2C1
  3
D1
350
2C2
  3
D2
350
2C3
  0
DICTIONARY
  5
11A
102
{ACAD_REACTORS
330
C
102
}
330
C
100
AcDbDictionary
281
     1
  3
Standard
350
11B
  0
DICTIONARY
  5
26E
102
{ACAD_REACTORS
330
C
102
}
330
C
100
AcDbDictionary
281
     1
  3
2dWireframe
350
274
  3
3D Hidden
350
276
  3
3dWireframe
350
275
  3
Basic
350
273
  3
Brighten
350
27A
  3
ColorChange
350
27E
  3
Conceptual
350
277
  3
Dim
350
279
  3
Facepattern
350
27D
  3
Flat
350
26F
  3
FlatWithEdges
350
270
  3
Gouraud
350
271
  3
GouraudWithEdges
350
272
  3
Linepattern
350
27C
  3
Realistic
350
278
  3
Thicken
350
27B
  0
XRECORD
  5
2E6
102
{ACAD_REACTORS
330
C
102
}
330
C
100
AcDbXrecord
280
     1
 90
        1
330
11B
  0
DICTIONARY
  5
94
102
{ACAD_REACTORS
330
C
102
}
330
C
100
AcDbDictionary
281
     1
  3
CANNOSCALE
350
2E9
  3
CMLEADERSTYLE
350
2E7
  3
CTABLESTYLE
350
138
  3
DIMASSOC
350
96
  3
INDEXCTL
350
95
  3
LAYEREVAL
350
346
  3
LAYERNOTIFY
350
347
  3
LIGHTINGUNITS
350
2EA
  3
MSLTSCALE
350
2E8
  3
SORTENTS
350
D2B
  0
DICTIONARY
  5
5B
102
{ACAD_REACTORS
330
C
102
}
330
C
100
AcDbDictionary
281
     1
  3
AcmBOM
350
36B
  3
AcmStdDictionary
350
61
  3
AMDTSECTSYM_ARROWCOLOR
350
123
  0
DICTIONARY
  5
41
102
{ACAD_REACTORS
330
C
102
}
330
C
100
AcDbDictionary
281
     1
  0
DICTIONARY
  5
364
102
{ACAD_REACTORS
330
C
102
}
330
C
100
AcDbDictionary
281
     1
  0
XRECORD
  5
D2D
102
{ACAD_REACTORS
330
C
102
}
330
C
100
AcDbXrecord
280
     1
  1
DWGPROPS COOKIE
  2

  3

  4

  6

  7

  8
nlazaar
  9

300
AmdtFileType=84
301
=
302
=
303
=
304
=
305
=
306
=
307
=
308
=
309
=
 40
0.0122446180555556
 41
2455096.488359907
 42
2455096.500603797
  1

 90
        1
  0
DICTIONARY
  5
454
102
{ACAD_REACTORS
330
453
102
}
330
453
100
AcDbDictionary
281
     1
  0
XRECORD
  5
D1B
102
{ACAD_REACTORS
330
D1A
102
}
330
D1A
100
AcDbXrecord
280
     1
290
     1
  0
XRECORD
  5
D1C
102
{ACAD_REACTORS
330
433
102
}
330
433
100
AcDbXrecord
280
     1
290
     1
  0
XRECORD
  5
D1D
102
{ACAD_REACTORS
330
435
102
}
330
435
100
AcDbXrecord
280
     1
290
     1
  0
XRECORD
  5
D1E
102
{ACAD_REACTORS
330
438
102
}
330
438
100
AcDbXrecord
280
     1
290
     1
  0
XRECORD
  5
D1F
102
{ACAD_REACTORS
330
43A
102
}
330
43A
100
AcDbXrecord
280
     1
290
     1
  0
XRECORD
  5
D20
102
{ACAD_REACTORS
330
43C
102
}
330
43C
100
AcDbXrecord
280
     1
290
     1
  0
XRECORD
  5
D21
102
{ACAD_REACTORS
330
43E
102
}
330
43E
100
AcDbXrecord
280
     1
290
     1
  0
XRECORD
  5
D22
102
{ACAD_REACTORS
330
440
102
}
330
440
100
AcDbXrecord
280
     1
290
     1
  0
XRECORD
  5
D23
102
{ACAD_REACTORS
330
442
102
}
330
442
100
AcDbXrecord
280
     1
290
     1
  0
XRECORD
  5
D24
102
{ACAD_REACTORS
330
444
102
}
330
444
100
AcDbXrecord
280
     1
290
     1
  0
XRECORD
  5
D25
102
{ACAD_REACTORS
330
446
102
}
330
446
100
AcDbXrecord
280
     1
290
     1
  0
XRECORD
  5
D26
102
{ACAD_REACTORS
330
799
102
}
330
799
100
AcDbXrecord
280
     1
290
     1
  0
XRECORD
  5
D28
102
{ACAD_REACTORS
330
D27
102
}
330
D27
100
AcDbXrecord
280
     1
290
     1
  0
XRECORD
  5
D2A
102
{ACAD_REACTORS
330
D29
102
}
330
D29
100
AcDbXrecord
280
     1
290
     1
  0
DIMASSOC
  5
654
102
{ACAD_REACTORS
330
653
102
}
330
653
100
AcDbDimAssoc
330
652
 90
        3
 70
     0
 71
     0
  1
AcDbOsnapPointRef
 72
     1
331
5A4
 73
     0
 91
        0
 40
0.0
 10
0.0
 20
0.0
 30
2.000000000000000E+50
 75
     0
  1
AcDbOsnapPointRef
 72
    13
331
634
 73
     0
 91
        0
 40
0.0
 10
0.0
 20
0.0
 30
2.000000000000000E+50
 75
     0
  0
DIMASSOC
  5
657
102
{ACAD_REACTORS
330
656
102
}
330
656
100
AcDbDimAssoc
330
655
 90
        3
 70
     0
 71
     0
  1
AcDbOsnapPointRef
 72
     1
331
628
 73
     0
 91
        0
 40
0.0
 10
0.0
 20
0.0
 30
2.000000000000000E+50
 75
     0
  1
AcDbOsnapPointRef
 72
    13
331
618
 73
     0
 91
        0
 40
0.0
 10
0.0
 20
0.0
 30
2.000000000000000E+50
 75
     0
  0
XRECORD
  5
D2F
102
{ACAD_REACTORS
330
D2E
102
}
330
D2E
100
AcDbXrecord
280
     1
 70
     1
  0
XRECORD
  5
D31
102
{ACAD_REACTORS
330
D2E
102
}
330
D2E
100
AcDbXrecord
280
     1
340
14
  0
XRECORD
  5
D32
102
{ACAD_REACTORS
330
D2E
102
}
330
D2E
100
AcDbXrecord
280
     1
340
14
  0
XRECORD
  5
D30
102
{ACAD_REACTORS
330
D2E
102
}
330
D2E
100
AcDbXrecord
280
     1
340
14
  0
LAYOUT
  5
1E
102
{ACAD_XDICTIONARY
360
D33
102
}
102
{ACAD_REACTORS
330
1A
102
}
330
1A
100
AcDbPlotSettings
  1

  2

  4

  6

 40
0.0
 41
0.0
 42
0.0
 43
0.0
 44
0.0
 45
0.0
 46
0.0
 47
0.0
 48
0.0
 49
0.0
140
0.0
141
0.0
142
1.0
143
1.0
 70
   688
 72
     0
 73
     0
 74
     5
  7

 75
    16
147
1.0
148
0.0
149
0.0
100
AcDbLayout
  1
Layout1
 70
     1
 71
     1
 10
0.0
 20
0.0
 11
420.0
 21
297.0
 12
0.0
 22
0.0
 32
0.0
 14
1.000000000000000E+20
 24
1.000000000000000E+20
 34
1.000000000000000E+20
 15
-1.000000000000000E+20
 25
-1.000000000000000E+20
 35
-1.000000000000000E+20
146
0.0
 13
0.0
 23
0.0
 33
0.0
 16
1.0
 26
0.0
 36
0.0
 17
0.0
 27
1.0
 37
0.0
 76
     0
330
1B
  0
LAYOUT
  5
26
102
{ACAD_XDICTIONARY
360
D37
102
}
102
{ACAD_REACTORS
330
1A
102
}
330
1A
100
AcDbPlotSettings
  1

  2

  4

  6

 40
0.0
 41
0.0
 42
0.0
 43
0.0
 44
0.0
 45
0.0
 46
0.0
 47
0.0
 48
0.0
 49
0.0
140
0.0
141
0.0
142
1.0
143
1.0
 70
   688
 72
     0
 73
     0
 74
     5
  7

 75
    16
147
1.0
148
0.0
149
0.0
100
AcDbLayout
  1
Layout2
 70
     1
 71
     2
 10
0.0
 20
0.0
 11
12.0
 21
9.0
 12
0.0
 22
0.0
 32
0.0
 14
0.0
 24
0.0
 34
0.0
 15
0.0
 25
0.0
 35
0.0
146
0.0
 13
0.0
 23
0.0
 33
0.0
 16
1.0
 26
0.0
 36
0.0
 17
0.0
 27
1.0
 37
0.0
 76
     0
330
23
  0
LAYOUT
  5
22
102
{ACAD_XDICTIONARY
360
D35
102
}
102
{ACAD_REACTORS
330
1A
102
}
330
1A
100
AcDbPlotSettings
  1

  2

  4

  6

 40
0.0
 41
0.0
 42
0.0
 43
0.0
 44
0.0
 45
0.0
 46
0.0
 47
0.0
 48
0.0
 49
0.0
140
0.0
141
0.0
142
1.0
143
1.0
 70
  1712
 72
     0
 73
     0
 74
     0
  7

 75
     0
147
1.0
148
0.0
149
0.0
100
AcDbLayout
  1
Model
 70
     1
 71
     0
 10
0.0
 20
0.0
 11
12.0
 21
9.0
 12
0.0
 22
0.0
 32
0.0
 14
0.0
 24
0.0
 34
0.0
 15
0.0
 25
0.0
 35
0.0
146
0.0
 13
0.0
 23
0.0
 33
0.0
 16
1.0
 26
0.0
 36
0.0
 17
0.0
 27
1.0
 37
0.0
 76
     0
330
1F
331
269
  0
MATERIAL
  5
26C
102
{ACAD_XDICTIONARY
360
D41
102
}
102
{ACAD_REACTORS
330
BD
102
}
330
BD
100
AcDbMaterial
  1
ByBlock
 73
     1
 78
     1
172
     1
176
     1
270
     1
274
     1
  0
MATERIAL
  5
26B
102
{ACAD_XDICTIONARY
360
D3F
102
}
102
{ACAD_REACTORS
330
BD
102
}
330
BD
100
AcDbMaterial
  1
ByLayer
 73
     1
 78
     1
172
     1
176
     1
270
     1
274
     1
  0
MATERIAL
  5
26D
102
{ACAD_XDICTIONARY
360
D43
102
}
102
{ACAD_REACTORS
330
BD
102
}
330
BD
100
AcDbMaterial
  1
Global
 73
     1
 78
     1
172
     1
176
     1
270
     1
274
     1
  0
MLEADERSTYLE
  5
2C5
102
{ACAD_REACTORS
330
2C4
102
}
330
2C4
100
AcDbMLeaderStyle
170
     2
171
     1
172
     0
 90
        2
 40
0.0
 41
0.0
173
     1
 91
-1056964608
340
14
 92
       -2
290
     1
 42
2.0
291
     1
 43
0.36
  3
Standard
 44
4.0
300

342
11
174
     1
178
     6
175
     1
176
     0
 93
-1056964608
 45
4.0
292
     0
297
     0
 46
4.0
 94
-1056964608
 47
1.0
 49
1.0
140
1.0
293
     1
141
0.0
294
     1
177
     0
142
1.0
295
     0
296
     0
143
0.125
1001
ACAD_MLEADERVER
1070
     2
  0
MLINESTYLE
  5
18
102
{ACAD_REACTORS
330
17
102
}
330
17
100
AcDbMlineStyle
  2
STANDARD
 70
     0
  3

 62
   256
 51
90.0
 52
90.0
 71
     2
 49
0.5
 62
   256
  6
BYLAYER
 49
-0.5
 62
   256
  6
BYLAYER
  0
ACDBPLACEHOLDER
  5
F
102
{ACAD_REACTORS
330
E
102
}
330
E
  0
SCALE
  5
2A3
102
{ACAD_REACTORS
330
2A2
102
}
330
2A2
100
AcDbScale
 70
     0
300
1:1
140
1.0
141
1.0
290
     1
  0
SCALE
  5
2A4
102
{ACAD_REACTORS
330
2A2
102
}
330
2A2
100
AcDbScale
 70
     0
300
1:2
140
1.0
141
2.0
290
     0
  0
SCALE
  5
2A5
102
{ACAD_REACTORS
330
2A2
102
}
330
2A2
100
AcDbScale
 70
     0
300
1:4
140
1.0
141
4.0
290
     0
  0
SCALE
  5
2A6
102
{ACAD_REACTORS
330
2A2
102
}
330
2A2
100
AcDbScale
 70
     0
300
1:5
140
1.0
141
5.0
290
     0
  0
SCALE
  5
2A7
102
{ACAD_REACTORS
330
2A2
102
}
330
2A2
100
AcDbScale
 70
     0
300
1:8
140
1.0
141
8.0
290
     0
  0
SCALE
  5
2A8
102
{ACAD_REACTORS
330
2A2
102
}
330
2A2
100
AcDbScale
 70
     0
300
1:10
140
1.0
141
10.0
290
     0
  0
SCALE
  5
2A9
102
{ACAD_REACTORS
330
2A2
102
}
330
2A2
100
AcDbScale
 70
     0
300
1:16
140
1.0
141
16.0
290
     0
  0
SCALE
  5
2AA
102
{ACAD_REACTORS
330
2A2
102
}
330
2A2
100
AcDbScale
 70
     0
300
1:20
140
1.0
141
20.0
290
     0
  0
SCALE
  5
2AB
102
{ACAD_REACTORS
330
2A2
102
}
330
2A2
100
AcDbScale
 70
     0
300
1:30
140
1.0
141
30.0
290
     0
  0
SCALE
  5
2AC
102
{ACAD_REACTORS
330
2A2
102
}
330
2A2
100
AcDbScale
 70
     0
300
1:40
140
1.0
141
40.0
290
     0
  0
SCALE
  5
2AD
102
{ACAD_REACTORS
330
2A2
102
}
330
2A2
100
AcDbScale
 70
     0
300
1:50
140
1.0
141
50.0
290
     0
  0
SCALE
  5
2AE
102
{ACAD_REACTORS
330
2A2
102
}
330
2A2
100
AcDbScale
 70
     0
300
1:100
140
1.0
141
100.0
290
     0
  0
SCALE
  5
2AF
102
{ACAD_REACTORS
330
2A2
102
}
330
2A2
100
AcDbScale
 70
     0
300
2:1
140
2.0
141
1.0
290
     0
  0
SCALE
  5
2B0
102
{ACAD_REACTORS
330
2A2
102
}
330
2A2
100
AcDbScale
 70
     0
300
4:1
140
4.0
141
1.0
290
     0
  0
SCALE
  5
2B1
102
{ACAD_REACTORS
330
2A2
102
}
330
2A2
100
AcDbScale
 70
     0
300
8:1
140
8.0
141
1.0
290
     0
  0
SCALE
  5
2B2
102
{ACAD_REACTORS
330
2A2
102
}
330
2A2
100
AcDbScale
 70
     0
300
10:1
140
10.0
141
1.0
290
     0
  0
SCALE
  5
2B3
102
{ACAD_REACTORS
330
2A2
102
}
330
2A2
100
AcDbScale
 70
     0
300
100:1
140
100.0
141
1.0
290
     0
  0
SCALE
  5
2B4
102
{ACAD_REACTORS
330
2A2
102
}
330
2A2
100
AcDbScale
 70
     0
300
1/128" = 1'-0"
140
0.0078125
141
12.0
290
     0
  0
SCALE
  5
2B5
102
{ACAD_REACTORS
330
2A2
102
}
330
2A2
100
AcDbScale
 70
     0
300
1/64" = 1'-0"
140
0.015625
141
12.0
290
     0
  0
SCALE
  5
2B6
102
{ACAD_REACTORS
330
2A2
102
}
330
2A2
100
AcDbScale
 70
     0
300
1/32" = 1'-0"
140
0.03125
141
12.0
290
     0
  0
SCALE
  5
2B7
102
{ACAD_REACTORS
330
2A2
102
}
330
2A2
100
AcDbScale
 70
     0
300
1/16" = 1'-0"
140
0.0625
141
12.0
290
     0
  0
SCALE
  5
2B8
102
{ACAD_REACTORS
330
2A2
102
}
330
2A2
100
AcDbScale
 70
     0
300
3/32" = 1'-0"
140
0.09375
141
12.0
290
     0
  0
SCALE
  5
2B9
102
{ACAD_REACTORS
330
2A2
102
}
330
2A2
100
AcDbScale
 70
     0
300
1/8" = 1'-0"
140
0.125
141
12.0
290
     0
  0
SCALE
  5
2BA
102
{ACAD_REACTORS
330
2A2
102
}
330
2A2
100
AcDbScale
 70
     0
300
3/16" = 1'-0"
140
0.1875
141
12.0
290
     0
  0
SCALE
  5
2BB
102
{ACAD_REACTORS
330
2A2
102
}
330
2A2
100
AcDbScale
 70
     0
300
1/4" = 1'-0"
140
0.25
141
12.0
290
     0
  0
SCALE
  5
2BC
102
{ACAD_REACTORS
330
2A2
102
}
330
2A2
100
AcDbScale
 70
     0
300
3/8" = 1'-0"
140
0.375
141
12.0
290
     0
  0
SCALE
  5
2BD
102
{ACAD_REACTORS
330
2A2
102
}
330
2A2
100
AcDbScale
 70
     0
300
1/2" = 1'-0"
140
0.5
141
12.0
290
     0
  0
SCALE
  5
2BE
102
{ACAD_REACTORS
330
2A2
102
}
330
2A2
100
AcDbScale
 70
     0
300
3/4" = 1'-0"
140
0.75
141
12.0
290
     0
  0
SCALE
  5
2BF
102
{ACAD_REACTORS
330
2A2
102
}
330
2A2
100
AcDbScale
 70
     0
300
1" = 1'-0"
140
1.0
141
12.0
290
     0
  0
SCALE
  5
2C0
102
{ACAD_REACTORS
330
2A2
102
}
330
2A2
100
AcDbScale
 70
     0
300
1-1/2" = 1'-0"
140
1.5
141
12.0
290
     0
  0
SCALE
  5
2C1
102
{ACAD_REACTORS
330
2A2
102
}
330
2A2
100
AcDbScale
 70
     0
300
3" = 1'-0"
140
3.0
141
12.0
290
     0
  0
SCALE
  5
2C2
102
{ACAD_REACTORS
330
2A2
102
}
330
2A2
100
AcDbScale
 70
     0
300
6" = 1'-0"
140
6.0
141
12.0
290
     0
  0
SCALE
  5
2C3
102
{ACAD_REACTORS
330
2A2
102
}
330
2A2
100
AcDbScale
 70
     0
300
1'-0" = 1'-0"
140
12.0
141
12.0
290
     0
  0
TABLESTYLE
  5
11B
102
{ACAD_XDICTIONARY
360
2E4
102
}
102
{ACAD_REACTORS
330
11A
102
}
330
11A
100
AcDbTableStyle
  3
Standard
 70
     0
 71
     0
 40
1.5
 41
1.5
280
     0
281
     0
  7
STANDARD
140
4.5
170
     2
 62
     0
 63
     7
283
     0
274
    -2
284
     1
 64
     0
275
    -2
285
     1
 65
     0
276
    -2
286
     1
 66
     0
277
    -2
287
     1
 67
     0
278
    -2
288
     1
 68
     0
279
    -2
289
     1
 69
     0
  7
STANDARD
140
6.0
170
     5
 62
     0
 63
     7
283
     0
274
    -2
284
     1
 64
     0
275
    -2
285
     1
 65
     0
276
    -2
286
     1
 66
     0
277
    -2
287
     1
 67
     0
278
    -2
288
     1
 68
     0
279
    -2
289
     1
 69
     0
  7
STANDARD
140
4.5
170
     5
 62
     0
 63
     7
283
     0
274
    -2
284
     1
 64
     0
275
    -2
285
     1
 65
     0
276
    -2
286
     1
 66
     0
277
    -2
287
     1
 67
     0
278
    -2
288
     1
 68
     0
279
    -2
289
     1
 69
     0
  0
VISUALSTYLE
  5
274
102
{ACAD_REACTORS
330
26E
102
}
330
26E
100
AcDbVisualStyle
  2
2dWireframe
 70
     4
 71
     0
 72
     2
 73
     0
 90
        0
 40
-0.6
 41
-30.0
 62
     5
 63
     7
 74
     1
 91
        4
 64
     7
 65
   257
 75
     1
175
     1
 42
1.0
 92
        0
 66
   257
 43
1.0
 76
     1
 77
     6
 78
     2
 67
     7
 79
     5
170
     0
171
     0
290
     0
174
     0
 93
        1
 44
0.0
173
     0
291
     0
 45
0.0
1001
ACAD
1000
AcDbSavedByObjectVersion
1070
     0
  0
VISUALSTYLE
  5
276
102
{ACAD_REACTORS
330
26E
102
}
330
26E
100
AcDbVisualStyle
  2
3D Hidden
 70
     6
 71
     1
 72
     2
 73
     2
 90
        0
 40
-0.6
 41
-30.0
 62
     5
 63
     7
 74
     2
 91
        2
 64
     7
 65
   257
 75
     2
175
     1
 42
40.0
 92
        0
 66
   257
 43
1.0
 76
     1
 77
     6
 78
     2
 67
     7
 79
     3
170
     0
171
     0
290
     0
174
     0
 93
        1
 44
0.0
173
     0
291
     0
 45
0.0
1001
ACAD
1000
AcDbSavedByObjectVersion
1070
     0
  0
VISUALSTYLE
  5
275
102
{ACAD_REACTORS
330
26E
102
}
330
26E
100
AcDbVisualStyle
  2
3dWireframe
 70
     5
 71
     0
 72
     2
 73
     0
 90
        0
 40
-0.6
 41
-30.0
 62
     5
 63
     7
 74
     1
 91
        4
 64
     7
 65
   257
 75
     1
175
     1
 42
1.0
 92
        0
 66
   257
 43
1.0
 76
     1
 77
     6
 78
     2
 67
     7
 79
     5
170
     0
171
     0
290
     0
174
     0
 93
        1
 44
0.0
173
     0
291
     0
 45
0.0
1001
ACAD
1000
AcDbSavedByObjectVersion
1070
     0
  0
VISUALSTYLE
  5
273
102
{ACAD_REACTORS
330
26E
102
}
330
26E
100
AcDbVisualStyle
  2
Basic
 70
     7
 71
     1
 72
     0
 73
     1
 90
        0
 40
-0.6
 41
-30.0
 62
     5
 63
     7
 74
     0
 91
        4
 64
     7
 65
   257
 75
     1
175
     1
 42
1.0
 92
        8
 66
     7
 43
1.0
 76
     1
 77
     6
 78
     2
 67
     7
 79
     5
170
     0
171
     0
290
     0
174
     0
 93
        1
 44
0.0
173
     0
291
     1
 45
0.0
1001
ACAD
1000
AcDbSavedByObjectVersion
1070
     0
  0
VISUALSTYLE
  5
27A
102
{ACAD_REACTORS
330
26E
102
}
330
26E
100
AcDbVisualStyle
  2
Brighten
 70
    12
 71
     2
 72
     2
 73
     0
 90
        0
 40
-0.6
 41
-30.0
 62
     5
 63
     7
 74
     1
 91
        4
 64
     7
 65
   257
 75
     1
175
     1
 42
1.0
 92
        8
 66
     7
 43
1.0
 76
     1
 77
     6
 78
     2
 67
     7
 79
     5
170
     0
171
     0
290
     0
174
     0
 93
        1
 44
50.0
173
     0
291
     1
 45
0.0
1001
ACAD
1000
AcDbSavedByObjectVersion
1070
     0
  0
VISUALSTYLE
  5
27E
102
{ACAD_REACTORS
330
26E
102
}
330
26E
100
AcDbVisualStyle
  2
ColorChange
 70
    16
 71
     2
 72
     2
 73
     3
 90
        0
 40
-0.6
 41
-30.0
 62
     5
 63
     8
 74
     1
 91
        4
 64
     7
 65
   257
 75
     1
175
     1
 42
1.0
 92
        8
 66
     8
 43
1.0
 76
     1
 77
     6
 78
     2
 67
     7
 79
     5
170
     0
171
     0
290
     0
174
     0
 93
        1
 44
0.0
173
     0
291
     1
 45
0.0
1001
ACAD
1000
AcDbSavedByObjectVersion
1070
     0
  0
VISUALSTYLE
  5
277
102
{ACAD_REACTORS
330
26E
102
}
330
26E
100
AcDbVisualStyle
  2
Conceptual
 70
     9
 71
     3
 72
     2
 73
     0
 90
        0
 40
-0.6
 41
-30.0
 62
     5
 63
     7
 74
     2
 91
        2
 64
     7
 65
   257
 75
     1
175
     1
 42
40.0
 92
        8
 66
     7
 43
1.0
 76
     1
 77
     6
 78
     2
 67
     7
 79
     3
170
     0
171
     0
290
     0
174
     0
 93
        1
 44
0.0
173
     0
291
     0
 45
0.0
1001
ACAD
1000
AcDbSavedByObjectVersion
1070
     0
  0
VISUALSTYLE
  5
279
102
{ACAD_REACTORS
330
26E
102
}
330
26E
100
AcDbVisualStyle
  2
Dim
 70
    11
 71
     2
 72
     2
 73
     0
 90
        0
 40
-0.6
 41
-30.0
 62
     5
 63
     7
 74
     1
 91
        4
 64
     7
 65
   257
 75
     1
175
     1
 42
1.0
 92
        8
 66
     7
 43
1.0
 76
     1
 77
     6
 78
     2
 67
     7
 79
     5
170
     0
171
     0
290
     0
174
     0
 93
        1
 44
-50.0
173
     0
291
     1
 45
0.0
1001
ACAD
1000
AcDbSavedByObjectVersion
1070
     0
  0
VISUALSTYLE
  5
27D
102
{ACAD_REACTORS
330
26E
102
}
330
26E
100
AcDbVisualStyle
  2
Facepattern
 70
    15
 71
     2
 72
     2
 73
     0
 90
        0
 40
-0.6
 41
-30.0
 62
     5
 63
     7
 74
     1
 91
        4
 64
     7
 65
   257
 75
     1
175
     1
 42
1.0
 92
        8
 66
     7
 43
1.0
 76
     1
 77
     6
 78
     2
 67
     7
 79
     5
170
     0
171
     0
290
     0
174
     0
 93
        1
 44
0.0
173
     0
291
     1
 45
0.0
1001
ACAD
1000
AcDbSavedByObjectVersion
1070
     0
  0
VISUALSTYLE
  5
26F
102
{ACAD_REACTORS
330
26E
102
}
330
26E
100
AcDbVisualStyle
  2
Flat
 70
     0
 71
     2
 72
     1
 73
     1
 90
        2
 40
-0.6
 41
30.0
 62
     5
 63
     7
 74
     0
 91
        4
 64
     7
 65
   257
 75
     1
175
     1
 42
1.0
 92
        8
 66
     7
 43
1.0
 76
     1
 77
     6
 78
     2
 67
     7
 79
     5
170
     0
171
     0
290
     0
174
     0
 93
       13
 44
0.0
173
     0
291
     1
 45
0.0
1001
ACAD
1000
AcDbSavedByObjectVersion
1070
     0
  0
VISUALSTYLE
  5
270
102
{ACAD_REACTORS
330
26E
102
}
330
26E
100
AcDbVisualStyle
  2
FlatWithEdges
 70
     1
 71
     2
 72
     1
 73
     1
 90
        2
 40
-0.6
 41
30.0
 62
     5
 63
     7
 74
     1
 91
        4
 64
     7
 65
   257
 75
     1
175
     1
 42
1.0
 92
        0
 66
   257
 43
1.0
 76
     1
 77
     6
 78
     2
 67
     7
 79
     5
170
     0
171
     0
290
     0
174
     0
 93
       13
 44
0.0
173
     0
291
     1
 45
0.0
1001
ACAD
1000
AcDbSavedByObjectVersion
1070
     0
  0
VISUALSTYLE
  5
271
102
{ACAD_REACTORS
330
26E
102
}
330
26E
100
AcDbVisualStyle
  2
Gouraud
 70
     2
 71
     2
 72
     2
 73
     1
 90
        2
 40
-0.6
 41
30.0
 62
     5
 63
     7
 74
     0
 91
        4
 64
     7
 65
   257
 75
     1
175
     1
 42
1.0
 92
        0
 66
     7
 43
1.0
 76
     1
 77
     6
 78
     2
 67
     7
 79
     5
170
     0
171
     0
290
     0
174
     0
 93
       13
 44
0.0
173
     0
291
     1
 45
0.0
1001
ACAD
1000
AcDbSavedByObjectVersion
1070
     0
  0
VISUALSTYLE
  5
272
102
{ACAD_REACTORS
330
26E
102
}
330
26E
100
AcDbVisualStyle
  2
GouraudWithEdges
 70
     3
 71
     2
 72
     2
 73
     1
 90
        2
 40
-0.6
 41
30.0
 62
     5
 63
     7
 74
     1
 91
        4
 64
     7
 65
   257
 75
     1
175
     1
 42
1.0
 92
        0
 66
   257
 43
1.0
 76
     1
 77
     6
 78
     2
 67
     7
 79
     5
170
     0
171
     0
290
     0
174
     0
 93
       13
 44
0.0
173
     0
291
     1
 45
0.0
1001
ACAD
1000
AcDbSavedByObjectVersion
1070
     0
  0
VISUALSTYLE
  5
27C
102
{ACAD_REACTORS
330
26E
102
}
330
26E
100
AcDbVisualStyle
  2
Linepattern
 70
    14
 71
     2
 72
     2
 73
     0
 90
        0
 40
-0.6
 41
-30.0
 62
     5
 63
     7
 74
     1
 91
        4
 64
     7
 65
   257
 75
     7
175
     7
 42
1.0
 92
        8
 66
     7
 43
1.0
 76
     1
 77
     6
 78
     2
 67
     7
 79
     5
170
     0
171
     0
290
     0
174
     0
 93
        1
 44
0.0
173
     0
291
     1
 45
0.0
1001
ACAD
1000
AcDbSavedByObjectVersion
1070
     0
  0
VISUALSTYLE
  5
278
102
{ACAD_REACTORS
330
26E
102
}
330
26E
100
AcDbVisualStyle
  2
Realistic
 70
     8
 71
     2
 72
     2
 73
     0
 90
        0
 40
-0.6
 41
-30.0
 62
     5
 63
     7
 74
     1
 91
        0
 64
     7
 65
   257
 75
     1
175
     1
 42
1.0
 92
        8
 66
     8
 43
1.0
 76
     1
 77
     6
 78
     2
 67
     7
 79
     5
170
     0
171
     0
290
     0
174
     0
 93
       13
 44
0.0
173
     0
291
     0
 45
0.0
1001
ACAD
1000
AcDbSavedByObjectVersion
1070
     0
  0
VISUALSTYLE
  5
27B
102
{ACAD_REACTORS
330
26E
102
}
330
26E
100
AcDbVisualStyle
  2
Thicken
 70
    13
 71
     2
 72
     2
 73
     0
 90
        0
 40
-0.6
 41
-30.0
 62
     5
 63
     7
 74
     1
 91
        4
 64
     7
 65
   257
 75
     1
175
     1
 42
1.0
 92
       12
 66
     7
 43
1.0
 76
     1
 77
     6
 78
     2
 67
     7
 79
     5
170
     0
171
     0
290
     0
174
     0
 93
        1
 44
0.0
173
     0
291
     1
 45
0.0
1001
ACAD
1000
AcDbSavedByObjectVersion
1070
     0
  0
DICTIONARYVAR
  5
2E9
102
{ACAD_REACTORS
330
94
102
}
330
94
100
DictionaryVariables
280
     0
  1
1:1
  0
DICTIONARYVAR
  5
2E7
102
{ACAD_REACTORS
330
94
102
}
330
94
100
DictionaryVariables
280
     0
  1
STANDARD
  0
DICTIONARYVAR
  5
138
102
{ACAD_REACTORS
330
94
102
}
330
94
100
DictionaryVariables
280
     0
  1
STANDARD
  0
DICTIONARYVAR
  5
96
102
{ACAD_REACTORS
330
94
102
}
330
94
100
DictionaryVariables
280
     0
  1
2
  0
DICTIONARYVAR
  5
95
102
{ACAD_REACTORS
330
94
102
}
330
94
100
DictionaryVariables
280
     0
  1
0
  0
DICTIONARYVAR
  5
346
102
{ACAD_REACTORS
330
94
102
}
330
94
100
DictionaryVariables
280
     0
  1
1
  0
DICTIONARYVAR
  5
347
102
{ACAD_REACTORS
330
94
102
}
330
94
100
DictionaryVariables
280
     0
  1
15
  0
DICTIONARYVAR
  5
2EA
102
{ACAD_REACTORS
330
94
102
}
330
94
100
DictionaryVariables
280
     0
  1
0
  0
DICTIONARYVAR
  5
2E8
102
{ACAD_REACTORS
330
94
102
}
330
94
100
DictionaryVariables
280
     0
  1
0
  0
DICTIONARYVAR
  5
D2B
102
{ACAD_REACTORS
330
94
102
}
330
94
100
DictionaryVariables
280
     0
  1
127
  0
DICTIONARY
  5
36B
102
{ACAD_REACTORS
330
5B
102
}
330
5B
100
AcDbDictionary
281
     1
  0
DICTIONARY
  5
61
102
{ACAD_REACTORS
330
5B
102
}
330
5B
100
AcDbDictionary
281
     1
  0
XRECORD
  5
123
102
{ACAD_REACTORS
330
5B
102
}
330
5B
100
AcDbXrecord
280
     1
 90
-1023410169
  0
DICTIONARY
  5
D33
330
1E
100
AcDbDictionary
280
     1
281
     1
  3
ACAD_XREC_ROUNDTRIP
360
D34
  0
DICTIONARY
  5
D37
330
26
100
AcDbDictionary
280
     1
281
     1
  3
ACAD_XREC_ROUNDTRIP
360
D38
  0
DICTIONARY
  5
D35
330
22
100
AcDbDictionary
280
     1
281
     1
  3
ACAD_XREC_ROUNDTRIP
360
D36
  0
DICTIONARY
  5
D41
330
26C
100
AcDbDictionary
280
     1
281
     1
  3
ACAD_XREC_ROUNDTRIP
360
D42
  0
DICTIONARY
  5
D3F
330
26B
100
AcDbDictionary
280
     1
281
     1
  3
ACAD_XREC_ROUNDTRIP
360
D40
  0
DICTIONARY
  5
D43
330
26D
100
AcDbDictionary
280
     1
281
     1
  3
ACAD_XREC_ROUNDTRIP
360
D44
  0
DICTIONARY
  5
2E4
330
11B
100
AcDbDictionary
280
     1
281
     1
  3
ACAD_ROUNDTRIP_2008_TABLESTYLE_CELLSTYLEMAP
360
D2C
  3
ACAD_XREC_ROUNDTRIP
360
D3E
  0
XRECORD
  5
D34
102
{ACAD_REACTORS
330
D33
102
}
330
D33
100
AcDbXrecord
280
     1
102
SHADEPLOT
 70
     0
102
SHADEPLOTRESLEVEL
 70
     2
102
SHADEPLOTCUSTOMDPI
 70
   300
  0
XRECORD
  5
D38
102
{ACAD_REACTORS
330
D37
102
}
330
D37
100
AcDbXrecord
280
     1
102
SHADEPLOT
 70
     0
102
SHADEPLOTRESLEVEL
 70
     2
102
SHADEPLOTCUSTOMDPI
 70
   300
  0
XRECORD
  5
D36
102
{ACAD_REACTORS
330
D35
102
}
330
D35
100
AcDbXrecord
280
     1
102
SHADEPLOT
 70
     0
102
SHADEPLOTRESLEVEL
 70
     2
102
SHADEPLOTCUSTOMDPI
 70
   300
  0
XRECORD
  5
D42
102
{ACAD_REACTORS
330
D41
102
}
330
D41
100
AcDbXrecord
280
     1
102
MATERIAL
148
0.0
149
0.0
149
0.0
 93
        0
 94
       63
282
     0
 72
     1
 77
     1
171
     1
175
     1
179
     1
273
     0
  0
XRECORD
  5
D40
102
{ACAD_REACTORS
330
D3F
102
}
330
D3F
100
AcDbXrecord
280
     1
102
MATERIAL
148
0.0
149
0.0
149
0.0
 93
        0
 94
       63
282
     0
 72
     1
 77
     1
171
     1
175
     1
179
     1
273
     0
  0
XRECORD
  5
D44
102
{ACAD_REACTORS
330
D43
102
}
330
D43
100
AcDbXrecord
280
     1
102
MATERIAL
148
0.0
149
0.0
149
0.0
 93
        0
 94
       63
282
     0
 72
     1
 77
     1
171
     1
175
     1
179
     1
273
     0
  0
CELLSTYLEMAP
  5
D2C
102
{ACAD_REACTORS
330
2E4
102
}
330
2E4
100
AcDbCellStyleMap
 90
        3
300
CELLSTYLE
  1
TABLEFORMAT_BEGIN
 90
        5
170
     1
 91
        0
 92
    32768
 62
   257
 93
        1
300
CONTENTFORMAT
  1
CONTENTFORMAT_BEGIN
 90
        0
 91
        0
 92
      512
 93
        0
300

 40
0.0
140
1.0
 94
        5
 62
     0
340
11
144
6.0
309
CONTENTFORMAT_END
171
     1
301
MARGIN
  1
CELLMARGIN_BEGIN
 40
1.5
 40
1.5
 40
1.5
 40
1.5
 40
0.18
 40
0.18
309
CELLMARGIN_END
 94
        6
 95
        1
302
GRIDFORMAT
  1
GRIDFORMAT_BEGIN
 90
        0
 91
        1
 62
     0
 92
       -2
340
0
 93
        0
 40
0.045
309
GRIDFORMAT_END
 95
        2
302
GRIDFORMAT
  1
GRIDFORMAT_BEGIN
 90
        0
 91
        1
 62
     0
 92
       -2
340
0
 93
        0
 40
0.045
309
GRIDFORMAT_END
 95
        4
302
GRIDFORMAT
  1
GRIDFORMAT_BEGIN
 90
        0
 91
        1
 62
     0
 92
       -2
340
0
 93
        0
 40
0.045
309
GRIDFORMAT_END
 95
        8
302
GRIDFORMAT
  1
GRIDFORMAT_BEGIN
 90
        0
 91
        1
 62
     0
 92
       -2
340
0
 93
        0
 40
0.045
309
GRIDFORMAT_END
 95
       16
302
GRIDFORMAT
  1
GRIDFORMAT_BEGIN
 90
        0
 91
        1
 62
     0
 92
       -2
340
0
 93
        0
 40
0.045
309
GRIDFORMAT_END
 95
       32
302
GRIDFORMAT
  1
GRIDFORMAT_BEGIN
 90
        0
 91
        1
 62
     0
 92
       -2
340
0
 93
        0
 40
0.045
309
GRIDFORMAT_END
309
TABLEFORMAT_END
  1
CELLSTYLE_BEGIN
 90
        1
 91
        1
300
_TITLE
309
CELLSTYLE_END
300
CELLSTYLE
  1
TABLEFORMAT_BEGIN
 90
        5
170
     1
 91
        0
 92
        0
 62
   257
 93
        1
300
CONTENTFORMAT
  1
CONTENTFORMAT_BEGIN
 90
        0
 91
        0
 92
      512
 93
        0
300

 40
0.0
140
1.0
 94
        5
 62
     0
340
11
144
4.5
309
CONTENTFORMAT_END
171
     1
301
MARGIN
  1
CELLMARGIN_BEGIN
 40
1.5
 40
1.5
 40
1.5
 40
1.5
 40
0.18
 40
0.18
309
CELLMARGIN_END
 94
        6
 95
        1
302
GRIDFORMAT
  1
GRIDFORMAT_BEGIN
 90
        0
 91
        1
 62
     0
 92
       -2
340
0
 93
        0
 40
0.045
309
GRIDFORMAT_END
 95
        2
302
GRIDFORMAT
  1
GRIDFORMAT_BEGIN
 90
        0
 91
        1
 62
     0
 92
       -2
340
0
 93
        0
 40
0.045
309
GRIDFORMAT_END
 95
        4
302
GRIDFORMAT
  1
GRIDFORMAT_BEGIN
 90
        0
 91
        1
 62
     0
 92
       -2
340
0
 93
        0
 40
0.045
309
GRIDFORMAT_END
 95
        8
302
GRIDFORMAT
  1
GRIDFORMAT_BEGIN
 90
        0
 91
        1
 62
     0
 92
       -2
340
0
 93
        0
 40
0.045
309
GRIDFORMAT_END
 95
       16
302
GRIDFORMAT
  1
GRIDFORMAT_BEGIN
 90
        0
 91
        1
 62
     0
 92
       -2
340
0
 93
        0
 40
0.045
309
GRIDFORMAT_END
 95
       32
302
GRIDFORMAT
  1
GRIDFORMAT_BEGIN
 90
        0
 91
        1
 62
     0
 92
       -2
340
0
 93
        0
 40
0.045
309
GRIDFORMAT_END
309
TABLEFORMAT_END
  1
CELLSTYLE_BEGIN
 90
        2
 91
        1
300
_HEADER
309
CELLSTYLE_END
300
CELLSTYLE
  1
TABLEFORMAT_BEGIN
 90
        5
170
     1
 91
        0
 92
        0
 62
   257
 93
        1
300
CONTENTFORMAT
  1
CONTENTFORMAT_BEGIN
 90
        0
 91
        0
 92
      512
 93
        0
300

 40
0.0
140
1.0
 94
        2
 62
     0
340
11
144
4.5
309
CONTENTFORMAT_END
171
     1
301
MARGIN
  1
CELLMARGIN_BEGIN
 40
1.5
 40
1.5
 40
1.5
 40
1.5
 40
0.18
 40
0.18
309
CELLMARGIN_END
 94
        6
 95
        1
302
GRIDFORMAT
  1
GRIDFORMAT_BEGIN
 90
        0
 91
        1
 62
     0
 92
       -2
340
0
 93
        0
 40
0.045
309
GRIDFORMAT_END
 95
        2
302
GRIDFORMAT
  1
GRIDFORMAT_BEGIN
 90
        0
 91
        1
 62
     0
 92
       -2
340
0
 93
        0
 40
0.045
309
GRIDFORMAT_END
 95
        4
302
GRIDFORMAT
  1
GRIDFORMAT_BEGIN
 90
        0
 91
        1
 62
     0
 92
       -2
340
0
 93
        0
 40
0.045
309
GRIDFORMAT_END
 95
        8
302
GRIDFORMAT
  1
GRIDFORMAT_BEGIN
 90
        0
 91
        1
 62
     0
 92
       -2
340
0
 93
        0
 40
0.045
309
GRIDFORMAT_END
 95
       16
302
GRIDFORMAT
  1
GRIDFORMAT_BEGIN
 90
        0
 91
        1
 62
     0
 92
       -2
340
0
 93
        0
 40
0.045
309
GRIDFORMAT_END
 95
       32
302
GRIDFORMAT
  1
GRIDFORMAT_BEGIN
 90
        0
 91
        1
 62
     0
 92
       -2
340
0
 93
        0
 40
0.045
309
GRIDFORMAT_END
309
TABLEFORMAT_END
  1
CELLSTYLE_BEGIN
 90
        3
 91
        2
300
_DATA
309
CELLSTYLE_END
  0
XRECORD
  5
D3E
102
{ACAD_REACTORS
330
2E4
102
}
330
2E4
100
AcDbXrecord
280
     1
102
ACAD_ROUNDTRIP_PRE2007_TABLESTYLE
 90
      512
 91
        0
  1

 92
      512
 93
        0
  2

 94
      512
 95
        0
  3

  0
ENDSEC
  0
EOF
