  0
SECTION
  2
HEADER
  9
$ACADVER
  1
AC1015
  9
$ACADMAINTVER
 70
    20
  9
$DWGCODEPAGE
  3
ANSI_1252
  9
$INSBASE
 10
0.0
 20
0.0
 30
0.0
  9
$EXTMIN
 10
-50.06624965496576
 20
-0.02380898264812
 30
-0.0000000349181948
  9
$EXTMAX
 10
1109.744120069298
 20
483.2379546783728
 30
0.0000000814935746
  9
$LIMMIN
 10
0.0
 20
0.0
  9
$LIMMAX
 10
420.0
 20
297.0
  9
$ORTHOMODE
 70
     1
  9
$REGENMODE
 70
     1
  9
$FILLMODE
 70
     1
  9
$QTEXTMODE
 70
     0
  9
$MIRRTEXT
 70
     1
  9
$LTSCALE
 40
1.0
  9
$ATTMODE
 70
     1
  9
$TEXTSIZE
 40
2.5
  9
$TRACEWID
 40
1.0
  9
$TEXTSTYLE
  7
STANDARD
  9
$CLAYER
  8
0
  9
$CELTYPE
  6
ByLayer
  9
$CECOLOR
 62
   256
  9
$CELTSCALE
 40
1.0
  9
$DISPSILH
 70
     0
  9
$DIMSCALE
 40
1.0
  9
$DIMASZ
 40
3.5
  9
$DIMEXO
 40
1.0
  9
$DIMDLI
 40
10.0
  9
$DIMRND
 40
0.0
  9
$DIMDLE
 40
0.0
  9
$DIMEXE
 40
1.0
  9
$DIMTP
 40
0.1
  9
$DIMTM
 40
0.1
  9
$DIMTXT
 40
3.5
  9
$DIMCEN
 40
0.0
  9
$DIMTSZ
 40
0.0
  9
$DIMTOL
 70
     0
  9
$DIMLIM
 70
     0
  9
$DIMTIH
 70
     0
  9
$DIMTOH
 70
     0
  9
$DIMSE1
 70
     0
  9
$DIMSE2
 70
     0
  9
$DIMTAD
 70
     1
  9
$DIMZIN
 70
     8
  9
$DIMBLK
  1

  9
$DIMASO
 70
     1
  9
$DIMSHO
 70
     1
  9
$DIMPOST
  1

  9
$DIMAPOST
  1
"
  9
$DIMALT
 70
     0
  9
$DIMALTD
 70
     2
  9
$DIMALTF
 40
0.0393701
  9
$DIMLFAC
 40
1.0
  9
$DIMTOFL
 70
     1
  9
$DIMTVP
 40
0.0
  9
$DIMTIX
 70
     0
  9
$DIMSOXD
 70
     0
  9
$DIMSAH
 70
     0
  9
$DIMBLK1
  1

  9
$DIMBLK2
  1

  9
$DIMSTYLE
  2
AM_ISO
  9
$DIMCLRD
 70
   256
  9
$DIMCLRE
 70
   256
  9
$DIMCLRT
 70
   140
  9
$DIMTFAC
 40
0.71
  9
$DIMGAP
 40
1.5
  9
$DIMJUST
 70
     0
  9
$DIMSD1
 70
     0
  9
$DIMSD2
 70
     0
  9
$DIMTOLJ
 70
     0
  9
$DIMTZIN
 70
     8
  9
$DIMALTZ
 70
     0
  9
$DIMALTTZ
 70
     0
  9
$DIMUPT
 70
     0
  9
$DIMDEC
 70
     2
  9
$DIMTDEC
 70
     3
  9
$DIMALTU
 70
     2
  9
$DIMALTTD
 70
     4
  9
$DIMTXSTY
  7
STANDARD
  9
$DIMAUNIT
 70
     0
  9
$DIMADEC
 70
     0
  9
$DIMALTRND
 40
0.0
  9
$DIMAZIN
 70
     2
  9
$DIMDSEP
 70
    46
  9
$DIMATFIT
 70
     3
  9
$DIMFRAC
 70
     0
  9
$DIMLDRBLK
  1

  9
$DIMLUNIT
 70
     2
  9
$DIMLWD
 70
    -1
  9
$DIMLWE
 70
    -1
  9
$DIMTMOVE
 70
     0
  9
$LUNITS
 70
     2
  9
$LUPREC
 70
     2
  9
$SKETCHINC
 40
1.0
  9
$FILLETRAD
 40
2.5
  9
$AUNITS
 70
     0
  9
$AUPREC
 70
     0
  9
$MENU
  1
.
  9
$ELEVATION
 40
0.0
  9
$PELEVATION
 40
0.0
  9
$THICKNESS
 40
0.0
  9
$LIMCHECK
 70
     0
  9
$CHAMFERA
 40
2.5
  9
$CHAMFERB
 40
2.5
  9
$CHAMFERC
 40
20.0
  9
$CHAMFERD
 40
0.0
  9
$SKPOLY
 70
     0
  9
$TDCREATE
 40
2455096.454922651
  9
$TDUCREATE
 40
2455096.371589317
  9
$TDUPDATE
 40
2455096.462068472
  9
$TDUUPDATE
 40
2455096.378735139
  9
$TDINDWG
 40
0.0071467130
  9
$TDUSRTIMER
 40
0.0071465394
  9
$USRTIMER
 70
     1
  9
$ANGBASE
 50
0.0
  9
$ANGDIR
 70
     0
  9
$PDMODE
 70
     0
  9
$PDSIZE
 40
0.0
  9
$PLINEWID
 40
0.0
  9
$SPLFRAME
 70
     0
  9
$SPLINETYPE
 70
     6
  9
$SPLINESEGS
 70
     8
  9
$HANDSEED
  5
84B
  9
$SURFTAB1
 70
     6
  9
$SURFTAB2
 70
     6
  9
$SURFTYPE
 70
     6
  9
$SURFU
 70
     6
  9
$SURFV
 70
     6
  9
$UCSBASE
  2

  9
$UCSNAME
  2

  9
$UCSORG
 10
0.0
 20
0.0
 30
0.0
  9
$UCSXDIR
 10
1.0
 20
0.0
 30
0.0
  9
$UCSYDIR
 10
0.0
 20
1.0
 30
0.0
  9
$UCSORTHOREF
  2

  9
$UCSORTHOVIEW
 70
     0
  9
$UCSORGTOP
 10
0.0
 20
0.0
 30
0.0
  9
$UCSORGBOTTOM
 10
0.0
 20
0.0
 30
0.0
  9
$UCSORGLEFT
 10
0.0
 20
0.0
 30
0.0
  9
$UCSORGRIGHT
 10
0.0
 20
0.0
 30
0.0
  9
$UCSORGFRONT
 10
0.0
 20
0.0
 30
0.0
  9
$UCSORGBACK
 10
0.0
 20
0.0
 30
0.0
  9
$PUCSBASE
  2

  9
$PUCSNAME
  2

  9
$PUCSORG
 10
0.0
 20
0.0
 30
0.0
  9
$PUCSXDIR
 10
1.0
 20
0.0
 30
0.0
  9
$PUCSYDIR
 10
0.0
 20
1.0
 30
0.0
  9
$PUCSORTHOREF
  2

  9
$PUCSORTHOVIEW
 70
     0
  9
$PUCSORGTOP
 10
0.0
 20
0.0
 30
0.0
  9
$PUCSORGBOTTOM
 10
0.0
 20
0.0
 30
0.0
  9
$PUCSORGLEFT
 10
0.0
 20
0.0
 30
0.0
  9
$PUCSORGRIGHT
 10
0.0
 20
0.0
 30
0.0
  9
$PUCSORGFRONT
 10
0.0
 20
0.0
 30
0.0
  9
$PUCSORGBACK
 10
0.0
 20
0.0
 30
0.0
  9
$USERI1
 70
     0
  9
$USERI2
 70
     0
  9
$USERI3
 70
     0
  9
$USERI4
 70
     0
  9
$USERI5
 70
     0
  9
$USERR1
 40
0.0
  9
$USERR2
 40
0.0
  9
$USERR3
 40
0.0
  9
$USERR4
 40
0.0
  9
$USERR5
 40
0.0
  9
$WORLDVIEW
 70
     1
  9
$SHADEDGE
 70
     3
  9
$SHADEDIF
 70
    70
  9
$TILEMODE
 70
     1
  9
$MAXACTVP
 70
    64
  9
$PINSBASE
 10
0.0
 20
0.0
 30
0.0
  9
$PLIMCHECK
 70
     0
  9
$PEXTMIN
 10
1.000000000000000E+20
 20
1.000000000000000E+20
 30
1.000000000000000E+20
  9
$PEXTMAX
 10
-1.000000000000000E+20
 20
-1.000000000000000E+20
 30
-1.000000000000000E+20
  9
$PLIMMIN
 10
0.0
 20
0.0
  9
$PLIMMAX
 10
420.0
 20
297.0
  9
$UNITMODE
 70
     0
  9
$VISRETAIN
 70
     1
  9
$PLINEGEN
 70
     0
  9
$PSLTSCALE
 70
     1
  9
$TREEDEPTH
 70
  3020
  9
$CMLSTYLE
  2
Standard
  9
$CMLJUST
 70
     0
  9
$CMLSCALE
 40
20.0
  9
$PROXYGRAPHICS
 70
     1
  9
$MEASUREMENT
 70
     1
  9
$CELWEIGHT
370
    -1
  9
$ENDCAPS
280
     0
  9
$JOINSTYLE
280
     0
  9
$LWDISPLAY
290
     0
  9
$INSUNITS
 70
     4
  9
$HYPERLINKBASE
  1

  9
$STYLESHEET
  1

  9
$XEDIT
290
     1
  9
$CEPSNTYPE
380
     0
  9
$PSTYLEMODE
290
     1
  9
$FINGERPRINTGUID
  2
{781CF51A-7D95-46B1-9E9C-EC3EF4332092}
  9
$VERSIONGUID
  2
{A38DC54C-99D4-4F74-98A1-1DA44813AEA5}
  9
$EXTNAMES
290
     1
  9
$PSVPSCALE
 40
0.0
  9
$OLESTARTUP
290
     0
  0
ENDSEC
  0
SECTION
  2
CLASSES
  0
CLASS
  1
ACDBDICTIONARYWDFLT
  2
AcDbDictionaryWithDefault
  3
ObjectDBX Classes
 90
        0
280
     0
281
     0
  0
CLASS
  1
ACDBPLACEHOLDER
  2
AcDbPlaceHolder
  3
ObjectDBX Classes
 90
        0
280
     0
281
     0
  0
CLASS
  1
LAYOUT
  2
AcDbLayout
  3
ObjectDBX Classes
 90
        0
280
     0
281
     0
  0
CLASS
  1
ACME_DOCUMENT
  2
AcMeDbDoc
  3
AcMeServices
 90
     1024
280
     0
281
     0
  0
CLASS
  1
AMGSETTINGSOBJ
  2
AmgSettingsObj
  3
"AcadM|Product Description: AutoCAD Mechanical|Company: Autodesk, Inc."
 90
     1024
280
     0
281
     0
  0
CLASS
  1
ACMESCOPE
  2
AcMeScope
  3
AcMeServices
 90
     1024
280
     0
281
     0
  0
CLASS
  1
ACMECOMMANDHISTORY
  2
AcMeCommandHistory
  3
AcMeServices
 90
     1024
280
     0
281
     0
  0
CLASS
  1
ACIMSYSVARMAN
  2
AcImSysVarManager
  3
AcMeServices
 90
     1024
280
     0
281
     0
  0
CLASS
  1
ACIMREALSYSVAR
  2
AcImRealSysVar
  3
AcMeServices
 90
     1024
280
     0
281
     0
  0
CLASS
  1
ACIMINTSYSVAR
  2
AcImIntSysVar
  3
AcMeServices
 90
     1024
280
     0
281
     0
  0
CLASS
  1
ACMEDRAWINGMAN
  2
AcMeDrawingMan
  3
AcMeServices
 90
     1024
280
     0
281
     0
  0
CLASS
  1
ACMEVIEW
  2
AcMeView
  3
AcMeServices
 90
     1024
280
     0
281
     0
  0
CLASS
  1
ACDBENTITYCACHE
  2
AcMeEntityCache
  3
AcMeServices
 90
     1024
280
     0
281
     0
  0
CLASS
  1
GSMANAGER
  2
AcMeGSManager
  3
AcMeServices
 90
     1024
280
     0
281
     0
  0
CLASS
  1
AMDTINTERNALREACTOR
  2
AmdtInternalReactor
  3
AcMeServices
 90
     1024
280
     0
281
     0
  0
CLASS
  1
ACMESTATEMGR
  2
AcMeStateMgr
  3
AcMeServices
 90
     1024
280
     0
281
     0
  0
CLASS
  1
ACGREFMASTER
  2
AcGrefMaster
  3
AcAttribServices
 90
     1024
280
     0
281
     0
  0
CLASS
  1
ACME_DATABASE
  2
AcMeDbDatabase
  3
AcMeServices
 90
     1024
280
     0
281
     0
  0
CLASS
  1
ACRFINSADJUSTERMGR
  2
AcRfInsAdjusterMgr
  3
AcMeServices
 90
     1024
280
     0
281
     0
  0
CLASS
  1
ACGREFACADMASTER
  2
AcGrefacadMaster
  3
AcGrefServices
 90
     1024
280
     0
281
     0
  0
CLASS
  1
AMIMASTER
  2
AmiMaster
  3
AmiServices
 90
     1024
280
     0
281
     0
  0
CLASS
  1
ACMDATADICTIONARY
  2
AcmDataDictionary
  3
"AcmSymBB|Product Description: AutoCAD Mechanical|Company: Autodesk, Inc."
 90
     1024
280
     0
281
     0
  0
CLASS
  1
ACMDATAENTRYBLOCK
  2
AcmDataEntryBlock
  3
AcmSymBB|Product Description: AutoCAD Mechanical|Company: Autodesk, Inc.
 90
     1024
280
     0
281
     0
  0
CLASS
  1
ACIMSTRSYSVAR
  2
AcImStrSysVar
  3
AcMeServices
 90
     1024
280
     0
281
     0
  0
CLASS
  1
ACMSTANDARDISO
  2
AcmStandardISO
  3
"Amdt_StdImp|Product Description: AutoCAD Mechanical|Company: Autodesk, Inc."
 90
     1024
280
     0
281
     0
  0
CLASS
  1
AMGOBJPROPCFG
  2
AmgObjPropCfg
  3
"AmgLay|Product Description: AutoCAD Mechanical|Company: Autodesk, Inc."
 90
     1025
280
     0
281
     0
  0
CLASS
  1
AMDTEDGESTANDARDISO
  2
AmdtEdgeStdISO
  3
"Amdt_StdImp|Product Description: AutoCAD Mechanical|Company: Autodesk, Inc."
 90
    33792
280
     0
281
     0
  0
CLASS
  1
ACMSURFSTANDARDISO
  2
AcmSurfTextStdISO
  3
"Amdt_StdImp|Product Description: AutoCAD Mechanical|Company: Autodesk, Inc."
 90
    33792
280
     0
281
     0
  0
CLASS
  1
ACMFCFSTANDARDISO
  2
AcmFCFStdISO
  3
"Amdt_StdImp|Product Description: AutoCAD Mechanical|Company: Autodesk, Inc."
 90
     1024
280
     0
281
     0
  0
CLASS
  1
ACMWELDSTANDARDISO
  2
AcmWeldingStdISO
  3
"Amdt_StdImp|Product Description: AutoCAD Mechanical|Company: Autodesk, Inc."
 90
     1024
280
     0
281
     0
  0
CLASS
  1
ACMIDSTANDARDISO
  2
AcmIdStdISO
  3
"Amdt_StdImp|Product Description: AutoCAD Mechanical|Company: Autodesk, Inc."
 90
     1024
280
     0
281
     0
  0
CLASS
  1
ACMDATUMSTANDARDISO
  2
AcmDatumStdISO
  3
"Amdt_StdImp|Product Description: AutoCAD Mechanical|Company: Autodesk, Inc."
 90
     1024
280
     0
281
     0
  0
CLASS
  1
ACMBOMSTANDARDISO
  2
AcmBOMStdISO
  3
"Amdt_StdImp|Product Description: AutoCAD Mechanical|Company: Autodesk, Inc."
 90
     1024
280
     0
281
     0
  0
CLASS
  1
ACMDETAILSTANDARDISO
  2
AmdtDetailSymStdISO
  3
"Amdt_StdImp|Product Description: AutoCAD Mechanical|Company: Autodesk, Inc."
 90
     1024
280
     0
281
     0
  0
CLASS
  1
ACMSECTIONSTANDARDISO
  2
AmdtSectionSymStdISO
  3
"Amdt_StdImp|Product Description: AutoCAD Mechanical|Company: Autodesk, Inc."
 90
    33792
280
     0
281
     0
  0
CLASS
  1
ACMCENTERLINESTANDARDISO
  2
AmdtCenterLineStdISO
  3
"Amdt_StdImp|Product Description: AutoCAD Mechanical|Company: Autodesk, Inc."
 90
     1024
280
     0
281
     0
  0
CLASS
  1
ACMNOTESTANDARDISO
  2
AmdtNoteStdISO
  3
"Amdt_StdImp|Product Description: AutoCAD Mechanical|Company: Autodesk, Inc."
 90
     1024
280
     0
281
     0
  0
CLASS
  1
ACAMGLAYSTD
  2
AcAmgLayStd
  3
"AmgLay|Product Description: AutoCAD Mechanical|Company: Autodesk, Inc."
 90
     1024
280
     0
281
     0
  0
CLASS
  1
ACAMGDIMSTD
  2
AcAmgDimStd
  3
"AmgDim|Product Description: AutoCAD Mechanical|Company: Autodesk, Inc."
 90
     1024
280
     0
281
     0
  0
CLASS
  1
ACAMGHOLECHARTSTDISO
  2
AcAmgHoleChartStdISO
  3
AmgDim|Product Description: AutoCAD Mechanical|Company: Autodesk, Inc.
 90
     1024
280
     0
281
     0
  0
CLASS
  1
ACAMGTITLESTD
  2
AcAmgTitleStd
  3
"AmgTitle|Product Description: AutoCAD Mechanical|Company: Autodesk, Inc."
 90
     4095
280
     0
281
     0
  0
CLASS
  1
LAYER_INDEX
  2
AcDbLayerIndex
  3
ObjectDBX Classes
 90
    32768
280
     0
281
     0
  0
CLASS
  1
IDBUFFER
  2
AcDbIdBuffer
  3
ObjectDBX Classes
 90
    32768
280
     0
281
     0
  0
CLASS
  1
DICTIONARYVAR
  2
AcDbDictionaryVar
  3
ObjectDBX Classes
 90
        0
280
     0
281
     0
  0
CLASS
  1
AM_DRAWING_MGR
  2
AcDmDwgMgr
  3
AcMechDwgViewMgmt
 90
     1024
280
     0
281
     0
  0
CLASS
  1
AM_DWG_DOCUMENT
  2
AcDmDwgDocument
  3
AcMechDwgViewMgmt
 90
     1024
280
     0
281
     0
  0
CLASS
  1
AM_DWG_SHEET
  2
AcDmSheet
  3
AcMechDwgViewMgmt
 90
     1024
280
     0
281
     0
  0
CLASS
  1
AM_VIEWDIMPARMAP
  2
AcDmViewDimParMap
  3
AcMechDwgViewMgmt
 90
     1024
280
     0
281
     0
  0
CLASS
  1
AM_DWGMGR_NAME
  2
AcDmDwgMgrName
  3
AcMechDwgViewMgmt
 90
     1024
280
     0
281
     0
  0
CLASS
  1
AMDTMENUSTATEMGR
  2
AmdtMenuStateMgr
  3
McadcomServices
 90
     1024
280
     0
281
     0
  0
CLASS
  1
AMDTMCOMMENUSTATE
  2
AmdtMcomMenuState
  3
McadcomServices
 90
     1024
280
     0
281
     0
  0
CLASS
  1
MAPIAMMOUDLE
  2
MApiAmModule
  3
MApiAmServices
 90
     1024
280
     0
281
     0
  0
CLASS
  1
AMDTADMENUSTATE
  2
AmdtAdMenuState
  3
DesignerServices
 90
     1024
280
     0
281
     0
  0
CLASS
  1
ADAPPL
  2
AcAdAppl
  3
DesignerServices
 90
     1024
280
     0
281
     0
  0
CLASS
  1
DEPMGR
  2
AcAdDepMgr
  3
DesignerServices
 90
     1024
280
     0
281
     0
  0
CLASS
  1
PARAMMGR
  2
AcAdParamMgr
  3
DesignerServices
 90
     1024
280
     0
281
     0
  0
CLASS
  1
PARAMSCOPE
  2
AcAdParamScope
  3
DesignerServices
 90
     1024
280
     0
281
     0
  0
CLASS
  1
NAMEDAPPL
  2
AcAdNamedAppl
  3
DesignerServices
 90
     1024
280
     0
281
     0
  0
CLASS
  1
AMDTDMMENUSTATE
  2
AmdtDmMenuState
  3
AcMechDwgViewMgmt
 90
     1024
280
     0
281
     0
  0
CLASS
  1
AMDTAMMENUSTATE
  2
AmdtAmMenuState
  3
DesignerAssemblies
 90
     1024
280
     0
281
     0
  0
CLASS
  1
ACAMPROJECT
  2
AcAmProject
  3
DesignerAssemblies
 90
     1024
280
     0
281
     0
  0
CLASS
  1
ACAMGRCOMPDEF
  2
AcAmGrCompDef
  3
DesignerAssemblies
 90
     1024
280
     0
281
     0
  0
CLASS
  1
ACCMCONTEXT
  2
AcCmContext
  3
DesignerAssemblies
 90
     1024
280
     0
281
     0
  0
CLASS
  1
ACAMCOMPDEF
  2
AcAmCompDef
  3
DesignerAssemblies
 90
     1024
280
     0
281
     0
  0
CLASS
  1
ACAMCOMPDEFMGR
  2
AcAmCompDefMgr
  3
DesignerAssemblies
 90
     1024
280
     0
281
     0
  0
CLASS
  1
AMCONTEXTMGR
  2
AcAmContextMgr
  3
DesignerAssemblies
 90
     1024
280
     0
281
     0
  0
CLASS
  1
ACAMCONTEXTMODELER
  2
AcAmContextModeler
  3
DesignerAssemblies
 90
     1024
280
     0
281
     0
  0
CLASS
  1
ACMTHREADLINESTANDARDISO
  2
AmdtThreadLineStdISO
  3
"Amdt_StdImp|Product Description: AutoCAD Mechanical|Company: Autodesk, Inc."
 90
     1024
280
     0
281
     0
  0
CLASS
  1
CATALOGSTATE
  2
AcAmCatalogState
  3
DesignerAssemblies
 90
     1024
280
     0
281
     0
  0
CLASS
  1
ACAMGRCOMPDEFSET
  2
AcAmGrCompDefSet
  3
DesignerAssemblies
 90
     1024
280
     0
281
     0
  0
CLASS
  1
AMDTBROWSERDBTAB
  2
AmdtBrowserDbTab
  3
McadcomServices
 90
     1024
280
     0
281
     0
  0
CLASS
  1
CBROWSERAPPOBJECT
  2
CBrowserAppObject
  3
McadcomServices
 90
     1024
280
     0
281
     0
  0
CLASS
  1
DM_PLACEHOLDER
  2
AcDmSelsetPlaceholder
  3
AcMechDwgViewMgmt
 90
     1024
280
     0
281
     0
  0
CLASS
  1
TABLESTYLE
  2
AcDbTableStyle
  3
ObjectDBX Classes
 90
     4095
280
     0
281
     0
  0
CLASS
  1
VAACXREFPANELOBJECT
  2
VaAcXREFPanelObject
  3
VAAC_ADDIN
 90
    32768
280
     0
281
     0
  0
CLASS
  1
VAACIMAGEINVENTORY
  2
VaAcImageInventory
  3
VAAC_ADDIN
 90
    32768
280
     0
281
     0
  0
CLASS
  1
AMDTNOTETEMPLATEDB
  2
AmdtNoteTemplateDB
  3
AcmSymBB|Product Description: AutoCAD Mechanical|Company: Autodesk, Inc.
 90
     1024
280
     0
281
     0
  0
CLASS
  1
MATERIAL
  2
AcDbMaterial
  3
ObjectDBX Classes
 90
     1153
280
     0
281
     0
  0
CLASS
  1
VISUALSTYLE
  2
AcDbVisualStyle
  3
ObjectDBX Classes
 90
     4095
280
     0
281
     0
  0
CLASS
  1
ACRFATTGENMGR
  2
AcRfAttGeneralMgr
  3
AcAttribServices
 90
     1024
280
     0
281
     0
  0
CLASS
  1
ACRFOBJATTMGR
  2
AcRfObjAttGroupMgr
  3
AcAttribServices
 90
     1024
280
     0
281
     0
  0
CLASS
  1
ACRFMCADAPIATTHOLDER
  2
AcRfMCADAPIAttHolder
  3
AcAttribServices
 90
     1024
280
     0
281
     0
  0
CLASS
  1
AMDTSYSATTR
  2
AmdtSystemAttribute
  3
AcAttribServices
 90
     1024
280
     0
281
     0
  0
CLASS
  1
ACMTAPERSTANDARDISO
  2
AcmTaperStdISO
  3
"Amdt_StdImp|Product Description: AutoCAD Mechanical|Company: Autodesk, Inc."
 90
     1024
280
     0
281
     0
  0
CLASS
  1
CAMSSTRUCTBTNSTATE
  2
StructBtnState
  3
DesignerAssemblies
 90
     1024
280
     0
281
     0
  0
CLASS
  1
SCALE
  2
AcDbScale
  3
ObjectDBX Classes
 90
     1153
280
     0
281
     0
  0
CLASS
  1
MLEADERSTYLE
  2
AcDbMLeaderStyle
  3
ACDB_MLEADERSTYLE_CLASS
 90
     4095
280
     0
281
     0
  0
CLASS
  1
ACMANOOTATIONVIEWSTANDARDISO
  2
AmdtAnViewStdISO
  3
"Amdt_StdImp|Product Description: AutoCAD Mechanical|Company: Autodesk, Inc."
 90
     1024
280
     0
281
     0
  0
CLASS
  1
ACMSURFSTANDARDISO2002
  2
AcmSurfTextStdISO2002
  3
"Amdt_StdImp|Product Description: AutoCAD Mechanical|Company: Autodesk, Inc."
 90
     1024
280
     0
281
     0
  0
CLASS
  1
CELLSTYLEMAP
  2
AcDbCellStyleMap
  3
ObjectDBX Classes
 90
     1152
280
     0
281
     0
  0
CLASS
  1
ACMSECTIONSTANDARDISO2001
  2
AmdtSectionSymStdISO2001
  3
"Amdt_StdImp|Product Description: AutoCAD Mechanical|Company: Autodesk, Inc."
 90
     1024
280
     0
281
     0
  0
CLASS
  1
EXACXREFPANELOBJECT
  2
ExAcXREFPanelObject
  3
EXAC_ESW
 90
     1025
280
     0
281
     0
  0
CLASS
  1
NPOCOLLECTION
  2
AcDbImpNonPersistentObjectsCollection
  3
ObjectDBX Classes
 90
     1153
280
     0
281
     0
  0
CLASS
  1
AMDTEDGESTANDARDISO13715
  2
AmdtEdgeStdISO13715
  3
"Amdt_StdImp|Product Description: AutoCAD Mechanical|Company: Autodesk, Inc."
 90
     1024
280
     0
281
     0
  0
CLASS
  1
ACAMGFILTERDAT
  2
AcAmgFilterDat
  3
"AcadM|Product Description: AutoCAD Mechanical|Company: Autodesk, Inc."
 90
     1024
280
     0
281
     0
  0
CLASS
  1
ACMBOM
  2
AcmBom
  3
"AcmSymBB|Product Description: AutoCAD Mechanical|Company: Autodesk, Inc."
 90
    33792
280
     0
281
     0
  0
CLASS
  1
AMDTFORMULAUPDATEDISPATCHER
  2
AmdtFormulaUpdateDispatcher
  3
AcMeServices
 90
    33792
280
     0
281
     0
  0
CLASS
  1
DIMASSOC
  2
AcDbDimAssoc
  3
"AcDbDimAssoc|Product Desc:     AcDim ARX App For Dimension|Company:          Autodesk, Inc.|WEB Address:      www.autodesk.com"
 90
        0
280
     0
281
     0
  0
CLASS
  1
SORTENTSTABLE
  2
AcDbSortentsTable
  3
ObjectDBX Classes
 90
        0
280
     0
281
     0
  0
ENDSEC
  0
SECTION
  2
TABLES
  0
TABLE
  2
VPORT
  5
8
330
0
100
AcDbSymbolTable
 70
     1
  0
VPORT
  5
269
330
8
100
AcDbSymbolTableRecord
100
AcDbViewportTableRecord
  2
*Active
 70
     0
 10
0.0
 20
0.0
 11
1.0
 21
1.0
 12
529.8389352071661
 22
241.6070728478624
 13
0.0
 23
0.0
 14
2.5
 24
2.5
 15
10.0
 25
10.0
 16
0.0
 26
0.0
 36
1.0
 17
0.0
 27
0.0
 37
0.0
 40
605.076196026297
 41
1.923900118906064
 42
50.0
 43
0.0
 44
0.0
 50
0.0
 51
0.0
 71
     0
 72
   100
 73
     1
 74
     3
 75
     0
 76
     0
 77
     0
 78
     0
281
     0
 65
     1
110
0.0
120
0.0
130
0.0
111
1.0
121
0.0
131
0.0
112
0.0
122
1.0
132
0.0
 79
     0
146
0.0
  0
ENDTAB
  0
TABLE
  2
LTYPE
  5
5
330
0
100
AcDbSymbolTable
 70
    16
  0
LTYPE
  5
14
330
5
100
AcDbSymbolTableRecord
100
AcDbLinetypeTableRecord
  2
ByBlock
 70
     0
  3

 72
    65
 73
     0
 40
0.0
  0
LTYPE
  5
15
330
5
100
AcDbSymbolTableRecord
100
AcDbLinetypeTableRecord
  2
ByLayer
 70
     0
  3

 72
    65
 73
     0
 40
0.0
  0
LTYPE
  5
16
330
5
100
AcDbSymbolTableRecord
100
AcDbLinetypeTableRecord
  2
Continuous
 70
     0
  3
Solid line
 72
    65
 73
     0
 40
0.0
  0
LTYPE
  5
64
330
5
100
AcDbSymbolTableRecord
100
AcDbLinetypeTableRecord
  2
AM_ISO02W050
 70
     0
  3
__ __ __ __ __ __ __ __ __ __ __ __ __ __ __
 72
    65
 73
     2
 40
7.5
 49
6.0
 74
     0
 49
-1.5
 74
     0
  0
LTYPE
  5
65
330
5
100
AcDbSymbolTableRecord
100
AcDbLinetypeTableRecord
  2
AM_ISO08W050
 70
     0
  3
____ . ____ . ____ . ____ . ____ . ____ . ____
 72
    65
 73
     4
 40
18.0
 49
12.0
 74
     0
 49
-1.5
 74
     0
 49
3.0
 74
     0
 49
-1.5
 74
     0
  0
LTYPE
  5
66
330
5
100
AcDbSymbolTableRecord
100
AcDbLinetypeTableRecord
  2
AM_ISO09W050
 70
     0
  3
_____ . . _____ . . _____ . . ____ .. ____
 72
    65
 73
     6
 40
22.5
 49
12.0
 74
     0
 49
-1.5
 74
     0
 49
3.0
 74
     0
 49
-1.5
 74
     0
 49
3.0
 74
     0
 49
-1.5
 74
     0
  0
LTYPE
  5
67
330
5
100
AcDbSymbolTableRecord
100
AcDbLinetypeTableRecord
  2
Amconstr
 70
     0
  3
_______________________
 72
    65
 73
     2
 40
9999.0
 49
9999.0
 74
     0
 49
0.0
 74
     0
  0
LTYPE
  5
68
330
5
100
AcDbSymbolTableRecord
100
AcDbLinetypeTableRecord
  2
AM_ISO08W050x2
 70
     0
  3
__ . __ . __ . __ . __ . __
 72
    65
 73
     4
 40
9.0
 49
6.0
 74
     0
 49
-0.75
 74
     0
 49
1.5
 74
     0
 49
-0.75
 74
     0
  0
LTYPE
  5
69
330
5
100
AcDbSymbolTableRecord
100
AcDbLinetypeTableRecord
  2
AM_ISO02W050x2
 70
     0
  3
 _ _ _ _ _ _ _ _ _ _ _ _
 72
    65
 73
     2
 40
3.75
 49
3.0
 74
     0
 49
-0.75
 74
     0
  0
LTYPE
  5
6C
330
5
100
AcDbSymbolTableRecord
100
AcDbLinetypeTableRecord
  2
Amzigzag
 70
     0
  3
/\/-/\/-/\/-/\/-/\/-/\/
 72
    65
 73
     2
 40
11.0001
 49
0.0001
 74
     4
 75
   136
340
22C
 46
0.04
 50
0.0
 44
0.0
 45
0.0
 49
-11.0
 74
     0
  0
LTYPE
  5
7A
330
5
100
AcDbSymbolTableRecord
100
AcDbLinetypeTableRecord
  2
ACISOWELD
 70
     0
  3
_ _ _ _ _
 72
    65
 73
     2
 40
2.0
 49
2.0
 74
     0
 49
-1.0
 74
     0
  0
LTYPE
  5
7B
330
5
100
AcDbSymbolTableRecord
100
AcDbLinetypeTableRecord
  2
ACISOTGB
 70
     0
  3
__ . . __ . .
 72
    65
 73
     6
 40
9.0
 49
4.0
 74
     0
 49
-1.0
 74
     0
 49
1.0
 74
     0
 49
-1.0
 74
     0
 49
1.0
 74
     0
 49
-1.0
 74
     0
  0
LTYPE
  5
7C
330
5
100
AcDbSymbolTableRecord
100
AcDbLinetypeTableRecord
  2
ACISOTGL
 70
     0
  3
_ _ _ _ _
 72
    65
 73
     2
 40
3.0
 49
2.0
 74
     0
 49
-1.0
 74
     0
  0
LTYPE
  5
7E
330
5
100
AcDbSymbolTableRecord
100
AcDbLinetypeTableRecord
  2
CENTER
 70
     0
  3
__ . __
 72
    65
 73
     4
 40
7.0
 49
4.0
 74
     0
 49
-1.0
 74
     0
 49
1.0
 74
     0
 49
-1.0
 74
     0
  0
LTYPE
  5
D8
330
5
100
AcDbSymbolTableRecord
100
AcDbLinetypeTableRecord
  2
HIDDEN
 70
     0
  3
Hidden __ __ __ __ __ __ __ __ __ __ __ __ __ _
 72
    65
 73
     2
 40
9.524999999999998
 49
6.349999999999999
 74
     0
 49
-3.174999999999999
 74
     0
  0
LTYPE
  5
D9
330
5
100
AcDbSymbolTableRecord
100
AcDbLinetypeTableRecord
  2
PHANTOM2
 70
     0
  3
Phantom (.5x) ___ _ _ ___ _ _ ___ _ _ ___ _ _
 72
    65
 73
     6
 40
31.75
 49
15.875
 74
     0
 49
-3.174999999999999
 74
     0
 49
3.174999999999999
 74
     0
 49
-3.174999999999999
 74
     0
 49
3.174999999999999
 74
     0
 49
-3.174999999999999
 74
     0
  0
LTYPE
  5
434
330
5
100
AcDbSymbolTableRecord
100
AcDbLinetypeTableRecord
  2
GEN7A
 70
     0
  3
__ . __ . __
 72
    65
 73
     4
 40
6.875
 49
5.0
 74
     0
 49
-0.625
 74
     0
 49
0.625
 74
     0
 49
-0.625
 74
     0
  0
LTYPE
  5
435
330
5
100
AcDbSymbolTableRecord
100
AcDbLinetypeTableRecord
  2
GEN3
 70
     0
  3
-- -- -- -- -- -- -- -- -- -- -- -- -- -- --
 72
    65
 73
     2
 40
6.25
 49
5.0
 74
     0
 49
-1.25
 74
     0
  0
ENDTAB
  0
TABLE
  2
LAYER
  5
2
102
{ACAD_XDICTIONARY
360
459
102
}
330
0
100
AcDbSymbolTable
 70
    13
  0
LAYER
  5
10
102
{ACAD_XDICTIONARY
360
805
102
}
330
2
100
AcDbSymbolTableRecord
100
AcDbLayerTableRecord
  2
0
 70
     0
 62
     7
  6
Continuous
370
    -3
390
F
  0
LAYER
  5
436
102
{ACAD_XDICTIONARY
360
437
102
}
330
2
100
AcDbSymbolTableRecord
100
AcDbLayerTableRecord
  2
AM_7
 70
     0
 62
     4
  6
AM_ISO08W050
370
    25
390
F
1001
AcAecLayerStandard
1000

1000

  0
LAYER
  5
438
102
{ACAD_XDICTIONARY
360
439
102
}
330
2
100
AcDbSymbolTableRecord
100
AcDbLayerTableRecord
  2
AM_5
 70
     0
 62
     3
  6
Continuous
370
    25
390
F
1001
AcAecLayerStandard
1000

1000

  0
LAYER
  5
43A
330
2
100
AcDbSymbolTableRecord
100
AcDbLayerTableRecord
  2
Defpoints
 70
     0
 62
     7
  6
Continuous
290
     0
370
    -3
390
F
  0
LAYER
  5
43B
102
{ACAD_XDICTIONARY
360
43C
102
}
330
2
100
AcDbSymbolTableRecord
100
AcDbLayerTableRecord
  2
7A
 70
     0
 62
     4
  6
GEN7A
370
    -3
390
F
  0
LAYER
  5
43D
102
{ACAD_XDICTIONARY
360
43E
102
}
330
2
100
AcDbSymbolTableRecord
100
AcDbLayerTableRecord
  2
KLIN
 70
     0
 62
     1
  6
Continuous
370
    -3
390
F
  0
LAYER
  5
43F
102
{ACAD_XDICTIONARY
360
440
102
}
330
2
100
AcDbSymbolTableRecord
100
AcDbLayerTableRecord
  2
AM_0N
 70
     0
 62
     7
  6
Continuous
370
    50
390
F
1001
AcAecLayerStandard
1000

1000

  0
LAYER
  5
441
102
{ACAD_XDICTIONARY
360
442
102
}
330
2
100
AcDbSymbolTableRecord
100
AcDbLayerTableRecord
  2
AM_7N
 70
     0
 62
   142
  6
AM_ISO08W050
370
    25
390
F
1001
AcAecLayerStandard
1000

1000

  0
LAYER
  5
443
102
{ACAD_XDICTIONARY
360
444
102
}
330
2
100
AcDbSymbolTableRecord
100
AcDbLayerTableRecord
  2
AM_4N
 70
     0
 62
    92
  6
Continuous
370
    25
390
F
1001
AcAecLayerStandard
1000

1000

  0
LAYER
  5
445
102
{ACAD_XDICTIONARY
360
446
102
}
330
2
100
AcDbSymbolTableRecord
100
AcDbLayerTableRecord
  2
AM_9N
 70
     0
 62
  -253
  6
Continuous
370
     0
390
F
1001
AcAecLayerStandard
1000

1000

  0
LAYER
  5
447
102
{ACAD_XDICTIONARY
360
80F
102
}
330
2
100
AcDbSymbolTableRecord
100
AcDbLayerTableRecord
  2
8
 70
     0
 62
     1
  6
Continuous
370
    -3
390
F
  0
LAYER
  5
448
102
{ACAD_XDICTIONARY
360
811
102
}
330
2
100
AcDbSymbolTableRecord
100
AcDbLayerTableRecord
  2
3
 70
     0
 62
     6
  6
GEN3
370
    -3
390
F
  0
LAYER
  5
7DF
102
{ACAD_XDICTIONARY
360
813
102
}
330
2
100
AcDbSymbolTableRecord
100
AcDbLayerTableRecord
  2
AM_CL
 70
     0
 62
     1
  6
Amconstr
370
    25
390
F
1001
AcAecLayerStandard
1000

1000

  0
ENDTAB
  0
TABLE
  2
STYLE
  5
3
330
0
100
AcDbSymbolTable
 70
     8
  0
STYLE
  5
11
330
3
100
AcDbSymbolTableRecord
100
AcDbTextStyleTableRecord
  2
STANDARD
 70
     0
 40
0.0
 41
1.0
 50
0.0
 71
     0
 42
2.5
  3
ISOCP.SHX
  4

  0
STYLE
  5
6B
330
3
100
AcDbSymbolTableRecord
100
AcDbTextStyleTableRecord
  2

 70
     1
 40
0.0
 41
1.0
 50
0.0
 71
     0
 42
2.5
  3
ltypeshp.shx
  4

  0
STYLE
  5
6D
330
3
100
AcDbSymbolTableRecord
100
AcDbTextStyleTableRecord
  2
ACISOTS
 70
     0
 40
1.0
 41
1.0
 50
0.0
 71
     0
 42
2.5
  3
isocp.shx
  4

  0
STYLE
  5
79
330
3
100
AcDbSymbolTableRecord
100
AcDbTextStyleTableRecord
  2
ACISOGDT
 70
     0
 40
0.0
 41
1.0
 50
0.0
 71
     0
 42
2.5
  3
amgdt.shx
  4

  0
STYLE
  5
1ED
330
3
100
AcDbSymbolTableRecord
100
AcDbTextStyleTableRecord
  2
USER1
 70
     0
 40
0.0
 41
1.0
 50
0.0
 71
     0
 42
2.5
  3
TXT.SHX
  4

  0
STYLE
  5
1EE
330
3
100
AcDbSymbolTableRecord
100
AcDbTextStyleTableRecord
  2
USER2
 70
     0
 40
0.0
 41
1.0
 50
0.0
 71
     0
 42
2.5
  3
SIMPLEX.SHX
  4

  0
STYLE
  5
1EF
330
3
100
AcDbSymbolTableRecord
100
AcDbTextStyleTableRecord
  2
USER3
 70
     0
 40
0.0
 41
1.0
 50
0.0
 71
     0
 42
2.5
  3
ITALIC.SHX
  4

  0
STYLE
  5
22C
330
3
100
AcDbSymbolTableRecord
100
AcDbTextStyleTableRecord
  2

 70
     1
 40
0.0
 41
1.0
 50
0.0
 71
     0
 42
2.5
  3
genltshp.shx
  4

  0
ENDTAB
  0
TABLE
  2
VIEW
  5
6
330
0
100
AcDbSymbolTable
 70
     0
  0
ENDTAB
  0
TABLE
  2
UCS
  5
7
330
0
100
AcDbSymbolTable
 70
     0
  0
ENDTAB
  0
TABLE
  2
APPID
  5
9
330
0
100
AcDbSymbolTable
 70
    29
  0
APPID
  5
12
330
9
100
AcDbSymbolTableRecord
100
AcDbRegAppTableRecord
  2
ACAD
 70
     0
  0
APPID
  5
46
330
9
100
AcDbSymbolTableRecord
100
AcDbRegAppTableRecord
  2
MCAD_NO_VIS
 70
     0
  0
APPID
  5
47
330
9
100
AcDbSymbolTableRecord
100
AcDbRegAppTableRecord
  2
ACAD_TEMP_GRAPHIC
 70
     0
  0
APPID
  5
58
330
9
100
AcDbSymbolTableRecord
100
AcDbRegAppTableRecord
  2
ACATTRIBSERVICES
 70
     0
  0
APPID
  5
EE
330
9
100
AcDbSymbolTableRecord
100
AcDbRegAppTableRecord
  2
AD_DRAW
 70
     0
  0
APPID
  5
10C
330
9
100
AcDbSymbolTableRecord
100
AcDbRegAppTableRecord
  2
DESIGNERASSEMBLIES
 70
     0
  0
APPID
  5
111
330
9
100
AcDbSymbolTableRecord
100
AcDbRegAppTableRecord
  2
ACADM_DIM_EDIT
 70
     0
  0
APPID
  5
112
330
9
100
AcDbSymbolTableRecord
100
AcDbRegAppTableRecord
  2
AMDT_DM_ADJ
 70
     0
  0
APPID
  5
1A3
330
9
100
AcDbSymbolTableRecord
100
AcDbRegAppTableRecord
  2
ACAD_DSTYLE_DIMARC_LENGTH_SYMBOL
 70
     0
  0
APPID
  5
1A4
330
9
100
AcDbSymbolTableRecord
100
AcDbRegAppTableRecord
  2
ACAD_DSTYLE_DIMJOGGED_JOGANGLE_SYMBOL
 70
     0
  0
APPID
  5
2C6
330
9
100
AcDbSymbolTableRecord
100
AcDbRegAppTableRecord
  2
ACAD_MLEADERVER
 70
     0
  0
APPID
  5
36E
330
9
100
AcDbSymbolTableRecord
100
AcDbRegAppTableRecord
  2
ACAD_EXEMPT_FROM_CAD_STANDARDS
 70
     0
  0
APPID
  5
44B
330
9
100
AcDbSymbolTableRecord
100
AcDbRegAppTableRecord
  2
AcAecLayerStandard
 70
     0
  0
APPID
  5
44C
330
9
100
AcDbSymbolTableRecord
100
AcDbRegAppTableRecord
  2
GENIUS_GENOENT_13
 70
     0
  0
APPID
  5
44D
330
9
100
AcDbSymbolTableRecord
100
AcDbRegAppTableRecord
  2
GENIUS_GENOLIS_13
 70
     0
  0
APPID
  5
44E
330
9
100
AcDbSymbolTableRecord
100
AcDbRegAppTableRecord
  2
GENIUS_GENODEF_13
 70
     0
  0
APPID
  5
44F
330
9
100
AcDbSymbolTableRecord
100
AcDbRegAppTableRecord
  2
GENIUS_GENOBJ-N-CRS_13
 70
     0
  0
APPID
  5
450
330
9
100
AcDbSymbolTableRecord
100
AcDbRegAppTableRecord
  2
GENIUS_GENOREF_13
 70
     0
  0
APPID
  5
451
330
9
100
AcDbSymbolTableRecord
100
AcDbRegAppTableRecord
  2
ACAD_DSTYLE_DIMINSPECT
 70
     0
  0
APPID
  5
452
330
9
100
AcDbSymbolTableRecord
100
AcDbRegAppTableRecord
  2
GENIUS_GENOBJ-N-CEN_13
 70
     0
  0
APPID
  5
453
330
9
100
AcDbSymbolTableRecord
100
AcDbRegAppTableRecord
  2
GENIUS_GENBH_13
 70
     0
  0
APPID
  5
454
330
9
100
AcDbSymbolTableRecord
100
AcDbRegAppTableRecord
  2
GENIUS_GENOBJ-NBEHI-BHF_13
 70
     0
  0
APPID
  5
455
330
9
100
AcDbSymbolTableRecord
100
AcDbRegAppTableRecord
  2
GENIUS_GENOBJ-NBEHI-BHB_13
 70
     0
  0
APPID
  5
456
330
9
100
AcDbSymbolTableRecord
100
AcDbRegAppTableRecord
  2
GENIUS_GENOBJ-N-FIL_13
 70
     0
  0
APPID
  5
457
330
9
100
AcDbSymbolTableRecord
100
AcDbRegAppTableRecord
  2
GENIUS_GENOBJ-N-HTC_13
 70
     0
  0
APPID
  5
458
330
9
100
AcDbSymbolTableRecord
100
AcDbRegAppTableRecord
  2
GENIUS_GENHATCH_13
 70
     0
  0
APPID
  5
83F
330
9
100
AcDbSymbolTableRecord
100
AcDbRegAppTableRecord
  2
ACAD_DSTYLE_DIM_LINETYPE
 70
     0
  0
APPID
  5
840
330
9
100
AcDbSymbolTableRecord
100
AcDbRegAppTableRecord
  2
ACAD_DSTYLE_DIM_EXT1_LINETYPE
 70
     0
  0
APPID
  5
841
330
9
100
AcDbSymbolTableRecord
100
AcDbRegAppTableRecord
  2
ACAD_DSTYLE_DIM_EXT2_LINETYPE
 70
     0
  0
ENDTAB
  0
TABLE
  2
DIMSTYLE
  5
A
330
0
100
AcDbSymbolTable
 70
    10
100
AcDbDimStyleTable
 71
     1
340
81
  0
DIMSTYLE
105
27
330
A
100
AcDbSymbolTableRecord
100
AcDbDimStyleTableRecord
  2
ISO-25
 70
     0
 41
2.5
 42
0.625
 43
3.75
 44
1.25
 73
     0
 74
     0
 77
     1
 78
     8
140
2.5
141
2.5
143
0.03937007874016
147
0.625
171
     3
172
     1
271
     2
272
     2
274
     3
278
    44
283
     0
284
     8
340
11
  0
DIMSTYLE
105
81
102
{ACAD_REACTORS
330
62
102
}
330
A
100
AcDbSymbolTableRecord
100
AcDbDimStyleTableRecord
  2
AM_ISO
 70
     0
  4
"
 41
3.5
 42
1.0
 43
10.0
 44
1.0
 47
0.1
 48
0.1
 73
     0
 74
     0
 77
     1
 78
     8
 79
     2
140
3.5
141
0.0
143
0.0393701
146
0.71
147
1.5
172
     1
176
   256
177
   256
178
   140
271
     2
272
     3
274
     4
283
     0
284
     8
340
11
371
    -1
372
    -1
1001
ACAD_DSTYLE_DIMJOGGED_JOGANGLE_SYMBOL
1070
   384
1040
0.7853981633974483
1001
ACAD_DSTYLE_DIMARC_LENGTH_SYMBOL
1070
   379
1070
     1
1001
ACAD_DSTYLE_DIM_LINETYPE
1070
   380
1005
14
1001
ACAD_DSTYLE_DIM_EXT1_LINETYPE
1070
   381
1005
14
1001
ACAD_DSTYLE_DIM_EXT2_LINETYPE
1070
   382
1005
14
  0
DIMSTYLE
105
82
330
A
100
AcDbSymbolTableRecord
100
AcDbDimStyleTableRecord
  2
AM_ISO$3
 70
     0
  4
"
 41
3.5
 42
1.0
 43
10.0
 44
1.0
 47
0.1
 48
0.1
 73
     0
 77
     1
 78
     8
 79
     2
140
3.5
141
0.0
143
0.0393701
146
0.71
147
1.5
176
   256
177
   256
178
   140
271
     2
272
     3
274
     4
283
     0
284
     8
288
     1
289
     0
340
11
371
    -1
372
    -1
1001
ACAD_DSTYLE_DIMJOGGED_JOGANGLE_SYMBOL
1070
   384
1040
0.7853981633974483
1001
ACAD_DSTYLE_DIMARC_LENGTH_SYMBOL
1070
   379
1070
     1
1001
ACAD_DSTYLE_DIM_LINETYPE
1070
   380
1005
14
1001
ACAD_DSTYLE_DIM_EXT1_LINETYPE
1070
   381
1005
14
1001
ACAD_DSTYLE_DIM_EXT2_LINETYPE
1070
   382
1005
14
  0
DIMSTYLE
105
83
330
A
100
AcDbSymbolTableRecord
100
AcDbDimStyleTableRecord
  2
AM_ISO$4
 70
     0
  4
"
 41
3.5
 42
1.0
 43
10.0
 44
1.0
 47
0.1
 48
0.1
 73
     0
 74
     0
 77
     1
 78
     8
 79
     2
140
3.5
141
0.0
143
0.0393701
146
0.71
147
1.5
172
     1
176
   256
177
   256
178
   140
271
     2
272
     3
274
     4
283
     0
284
     8
340
11
371
    -1
372
    -1
1001
ACAD_DSTYLE_DIMJOGGED_JOGANGLE_SYMBOL
1070
   384
1040
0.7853981633974483
1001
ACAD_DSTYLE_DIMARC_LENGTH_SYMBOL
1070
   379
1070
     1
1001
ACAD_DSTYLE_DIM_LINETYPE
1070
   380
1005
14
1001
ACAD_DSTYLE_DIM_EXT1_LINETYPE
1070
   381
1005
14
1001
ACAD_DSTYLE_DIM_EXT2_LINETYPE
1070
   382
1005
14
  0
DIMSTYLE
105
84
330
A
100
AcDbSymbolTableRecord
100
AcDbDimStyleTableRecord
  2
AM_ISO$6
 70
     0
  4
"
 41
3.5
 42
1.0
 43
10.0
 44
1.0
 47
0.1
 48
0.1
 73
     0
 74
     0
 78
     8
 79
     2
140
3.5
141
0.0
143
0.0393701
146
0.71
147
1.5
172
     1
176
   256
177
   256
178
   140
271
     2
272
     3
274
     4
283
     0
284
     8
340
11
371
    -1
372
    -1
1001
ACAD_DSTYLE_DIMJOGGED_JOGANGLE_SYMBOL
1070
   384
1040
0.7853981633974483
1001
ACAD_DSTYLE_DIMARC_LENGTH_SYMBOL
1070
   379
1070
     1
1001
ACAD_DSTYLE_DIM_LINETYPE
1070
   380
1005
14
1001
ACAD_DSTYLE_DIM_EXT1_LINETYPE
1070
   381
1005
14
1001
ACAD_DSTYLE_DIM_EXT2_LINETYPE
1070
   382
1005
14
  0
DIMSTYLE
105
85
330
A
100
AcDbSymbolTableRecord
100
AcDbDimStyleTableRecord
  2
AM_ISO$7
 70
     0
  4
"
 41
3.5
 42
1.0
 43
10.0
 44
1.0
 47
0.1
 48
0.1
 73
     0
 74
     0
 77
     1
 78
     8
 79
     2
140
3.5
141
0.0
143
0.0393701
146
0.71
147
1.5
172
     1
176
   256
177
   256
178
   140
271
     2
272
     3
274
     4
283
     0
284
     8
340
11
371
    -1
372
    -1
1001
ACAD_DSTYLE_DIMJOGGED_JOGANGLE_SYMBOL
1070
   384
1040
0.7853981633974483
1001
ACAD_DSTYLE_DIMARC_LENGTH_SYMBOL
1070
   379
1070
     1
1001
ACAD_DSTYLE_DIM_LINETYPE
1070
   380
1005
14
1001
ACAD_DSTYLE_DIM_EXT1_LINETYPE
1070
   381
1005
14
1001
ACAD_DSTYLE_DIM_EXT2_LINETYPE
1070
   382
1005
14
  0
DIMSTYLE
105
86
330
A
100
AcDbSymbolTableRecord
100
AcDbDimStyleTableRecord
  2
AM_ISO$SF
 70
     0
  4
"
 41
3.5
 42
1.0
 43
10.0
 44
1.0
 47
0.1
 48
0.1
 73
     0
 74
     0
 75
     1
 76
     1
 77
     1
 78
     8
 79
     2
140
3.5
141
0.0
143
0.0393701
146
0.71
147
1.5
172
     1
176
   256
177
   256
178
   140
271
     2
272
     3
274
     4
283
     0
284
     8
340
11
371
    -1
372
    -1
1001
ACAD_DSTYLE_DIMJOGGED_JOGANGLE_SYMBOL
1070
   384
1040
0.7853981633974483
1001
ACAD_DSTYLE_DIMARC_LENGTH_SYMBOL
1070
   379
1070
     1
1001
ACAD_DSTYLE_DIM_LINETYPE
1070
   380
1005
14
1001
ACAD_DSTYLE_DIM_EXT1_LINETYPE
1070
   381
1005
14
1001
ACAD_DSTYLE_DIM_EXT2_LINETYPE
1070
   382
1005
14
  0
DIMSTYLE
105
8B
330
A
100
AcDbSymbolTableRecord
100
AcDbDimStyleTableRecord
  2
AM_ISO$SH
 70
     0
  4
"
 41
3.5
 42
1.0
 43
10.0
 44
1.0
 47
0.1
 48
0.1
 73
     0
 74
     0
 75
     1
 76
     1
 77
     1
 78
     8
 79
     2
140
3.5
141
0.0
143
0.0393701
144
2.0
146
0.71
147
1.5
172
     1
173
     1
176
   256
177
   256
178
   140
271
     2
272
     3
274
     4
283
     0
284
     8
340
11
343
87
371
    -1
372
    -1
1001
ACAD_DSTYLE_DIMJOGGED_JOGANGLE_SYMBOL
1070
   384
1040
0.7853981633974483
1001
ACAD_DSTYLE_DIMARC_LENGTH_SYMBOL
1070
   379
1070
     1
1001
ACAD_DSTYLE_DIM_LINETYPE
1070
   380
1005
14
1001
ACAD_DSTYLE_DIM_EXT1_LINETYPE
1070
   381
1005
14
1001
ACAD_DSTYLE_DIM_EXT2_LINETYPE
1070
   382
1005
14
  0
DIMSTYLE
105
449
330
A
100
AcDbSymbolTableRecord
100
AcDbDimStyleTableRecord
  2
AM_DIN
 70
     0
  4
"
 41
3.5
 42
1.0
 43
10.0
 44
1.0
 47
0.1
 48
0.1
 73
     0
 74
     0
 77
     1
 78
     8
 79
     2
140
3.5
141
0.0
143
0.0393701
146
0.71
147
1.5
172
     1
176
   256
177
   256
178
     2
271
     2
272
     3
274
     4
283
     0
284
     8
340
11
371
    -1
372
    -1
1001
ACAD_DSTYLE_DIMJOGGED_JOGANGLE_SYMBOL
1070
   384
1040
1.570796326794896
1001
ACAD_DSTYLE_DIM_LINETYPE
1070
   380
1005
14
1001
ACAD_DSTYLE_DIM_EXT1_LINETYPE
1070
   381
1005
14
1001
ACAD_DSTYLE_DIM_EXT2_LINETYPE
1070
   382
1005
14
  0
DIMSTYLE
105
44A
102
{ACAD_REACTORS
330
4E3
330
52A
330
527
330
52D
330
533
330
530
330
616
330
65A
330
65D
330
660
330
663
330
666
102
}
330
A
100
AcDbSymbolTableRecord
100
AcDbDimStyleTableRecord
  2
AM_DIN$0
 70
     0
  4
"
 41
3.5
 42
1.0
 43
10.0
 44
1.0
 47
0.1
 48
0.1
 73
     0
 74
     0
 77
     1
 78
     8
 79
     2
140
3.5
141
0.0
143
0.0393701
146
0.71
147
1.5
172
     1
176
   256
177
   256
178
     2
271
     2
272
     3
274
     4
283
     0
284
     8
340
11
371
    -1
372
    -1
1001
ACAD_DSTYLE_DIMJOGGED_JOGANGLE_SYMBOL
1070
   384
1040
1.570796326794896
1001
ACAD_DSTYLE_DIM_LINETYPE
1070
   380
1005
14
1001
ACAD_DSTYLE_DIM_EXT1_LINETYPE
1070
   381
1005
14
1001
ACAD_DSTYLE_DIM_EXT2_LINETYPE
1070
   382
1005
14
  0
ENDTAB
  0
TABLE
  2
BLOCK_RECORD
  5
1
330
0
100
AcDbSymbolTable
 70
    26
  0
BLOCK_RECORD
  5
1F
102
{ACAD_XDICTIONARY
360
8F
102
}
330
1
100
AcDbSymbolTableRecord
100
AcDbBlockTableRecord
  2
*Model_Space
340
22
  0
BLOCK_RECORD
  5
1B
330
1
100
AcDbSymbolTableRecord
100
AcDbBlockTableRecord
  2
*Paper_Space
340
1E
  0
BLOCK_RECORD
  5
23
330
1
100
AcDbSymbolTableRecord
100
AcDbBlockTableRecord
  2
*Paper_Space0
340
26
  0
BLOCK_RECORD
  5
87
330
1
100
AcDbSymbolTableRecord
100
AcDbBlockTableRecord
  2
GENAXEH
340
0
  0
BLOCK_RECORD
  5
3AE
330
1
100
AcDbSymbolTableRecord
100
AcDbBlockTableRecord
  2
*D3
340
0
  0
BLOCK_RECORD
  5
3BA
330
1
100
AcDbSymbolTableRecord
100
AcDbBlockTableRecord
  2
*D4
340
0
  0
BLOCK_RECORD
  5
3C6
330
1
100
AcDbSymbolTableRecord
100
AcDbBlockTableRecord
  2
*D5
340
0
  0
BLOCK_RECORD
  5
3D2
330
1
100
AcDbSymbolTableRecord
100
AcDbBlockTableRecord
  2
*D6
340
0
  0
BLOCK_RECORD
  5
3DE
330
1
100
AcDbSymbolTableRecord
100
AcDbBlockTableRecord
  2
*D7
340
0
  0
BLOCK_RECORD
  5
3EA
330
1
100
AcDbSymbolTableRecord
100
AcDbBlockTableRecord
  2
*D8
340
0
  0
BLOCK_RECORD
  5
3F6
330
1
100
AcDbSymbolTableRecord
100
AcDbBlockTableRecord
  2
befestigung
340
0
310
2800000020000000200000000100080000000000000400000000000000000000000000000000000000000000000080000080000000808000800000008000800080800000C0C0C000C0DCC000F0CAA6000020400000206000002080000020A0000020C0000020E00000400000004020000040400000406000004080000040A0
310
000040C0000040E00000600000006020000060400000606000006080000060A0000060C0000060E00000800000008020000080400000806000008080000080A0000080C0000080E00000A0000000A0200000A0400000A0600000A0800000A0A00000A0C00000A0E00000C0000000C0200000C0400000C0600000C0800000C0
310
A00000C0C00000C0E00000E0000000E0200000E0400000E0600000E0800000E0A00000E0C00000E0E00040000000400020004000400040006000400080004000A0004000C0004000E00040200000402020004020400040206000402080004020A0004020C0004020E000404000004040200040404000404060004040800040
310
40A0004040C0004040E00040600000406020004060400040606000406080004060A0004060C0004060E00040800000408020004080400040806000408080004080A0004080C0004080E00040A0000040A0200040A0400040A0600040A0800040A0A00040A0C00040A0E00040C0000040C0200040C0400040C0600040C08000
310
40C0A00040C0C00040C0E00040E0000040E0200040E0400040E0600040E0800040E0A00040E0C00040E0E00080000000800020008000400080006000800080008000A0008000C0008000E00080200000802020008020400080206000802080008020A0008020C0008020E00080400000804020008040400080406000804080
310
008040A0008040C0008040E00080600000806020008060400080606000806080008060A0008060C0008060E00080800000808020008080400080806000808080008080A0008080C0008080E00080A0000080A0200080A0400080A0600080A0800080A0A00080A0C00080A0E00080C0000080C0200080C0400080C0600080C0
310
800080C0A00080C0C00080C0E00080E0000080E0200080E0400080E0600080E0800080E0A00080E0C00080E0E000C0000000C0002000C0004000C0006000C0008000C000A000C000C000C000E000C0200000C0202000C0204000C0206000C0208000C020A000C020C000C020E000C0400000C0402000C0404000C0406000C0
310
408000C040A000C040C000C040E000C0600000C0602000C0604000C0606000C0608000C060A000C060C000C060E000C0800000C0802000C0804000C0806000C0808000C080A000C080C000C080E000C0A00000C0A02000C0A04000C0A06000C0A08000C0A0A000C0A0C000C0A0E000C0C00000C0C02000C0C04000C0C06000
310
C0C08000C0C0A000F0FBFF00A4A0A000808080000000FF0000FF000000FFFF00FF000000FF00FF00FFFF0000FFFFFF00000000000000000000000000000000000000000000000000000000000000000000000000000000000000000000000000000000000000FF000000000000000000000000000000000000000000000000
310
000000000000FF00FFFFFF00000000000000000000000000000000000000000000000000FFFF0000000000FF0000000000000000000000000000000000000000000000FF00000000000000FF00000000000000000000000000000000000000000000FF000000000000000000FF000000000000000000000000000000000000
310
0000FF00000000000000000000FF00000000000000000000000000000000000000FF0000000000000000000000FF000000000000000000000000000000000000FF0000000000000000000000FF00000000000000000000000000000000FFFFFF0000000000000000000000FF0000000000000000000000FFFFFFFFFF00FFFF
310
FFFFFF00000000000000FFFF0000000000000000000000FFFF000000FF00FFFF000000FFFFFFFFFFFFFF00000000000000000000000000FFFF000000FF00FFFF00000000000000FF000000000000000000000000000000FFFFFFFFFFFF00FFFF00000000000000FF3030303030FFFF0000000000000000FFFF000000FF00FF
310
FF00000000000000FF0000000000FFFF0000000000000000FFFF000000FF00FFFF00000000000000FF0000000000FFFF000000000000E8E8FFFFE8E8E8E8E8FFFFE8E8E8E8E8E8E8FFE8E8E8E8E8FFFFE8E8000000000000FFFF000000FF00FFFF00000000000000FF0000000000FFFF0000000000000000FFFFFFFFFFFF00
310
FFFF00000000000000FFFFFFFFFFFFFFFF0000000000000000FFFF000000FF00FFFF00000000000000FF000000000000000000000000000000FFFF000000FF00FFFF00000000FFFFFFFFFF000000000000000000000000000000FFFFFFFFFF00FFFFFFFFFFFF0000000000FFFFFF0000000000000000000000000000000000
310
00FFFFFF0000000000000000000000FF0000000000000000000000000000000000000000FF0000000000000000000000FF0000000000000000000000000000000000000000FF0000000000000000000000FF0000000000000000000000000000000000000000FF00000000000000000000FF00000000000000000000000000
310
0000000000000000FF000000000000000000FF00000000000000000000000000000000000000000000FF00000000000000FF000000000000000000000000000000000000000000000000FF000000000000FF00000000000000000000000000000000000000000000000000FFFF0000FFFF0000000000000000000000000000
310
0000000000000000000000000000FFFF00000000000000000000000000000000000000000000000000000000000000000000000000000000
102
{BLKREFS
331
537
331
538
331
66A
331
66B
102
}
1001
ACAD
1000
DesignCenter Data
1002
{
1070
     1
1070
     4
1002
}
  0
BLOCK_RECORD
  5
41E
330
1
100
AcDbSymbolTableRecord
100
AcDbBlockTableRecord
  2
*U10
340
0
102
{BLKREFS
331
417
102
}
  0
BLOCK_RECORD
  5
42C
330
1
100
AcDbSymbolTableRecord
100
AcDbBlockTableRecord
  2
*U11
340
0
102
{BLKREFS
331
418
102
}
  0
BLOCK_RECORD
  5
6BD
330
1
100
AcDbSymbolTableRecord
100
AcDbBlockTableRecord
  2
*D13
340
0
  0
BLOCK_RECORD
  5
6C9
330
1
100
AcDbSymbolTableRecord
100
AcDbBlockTableRecord
  2
*D14
340
0
  0
BLOCK_RECORD
  5
6D5
330
1
100
AcDbSymbolTableRecord
100
AcDbBlockTableRecord
  2
*D15
340
0
  0
BLOCK_RECORD
  5
6E1
330
1
100
AcDbSymbolTableRecord
100
AcDbBlockTableRecord
  2
*D16
340
0
  0
BLOCK_RECORD
  5
6ED
330
1
100
AcDbSymbolTableRecord
100
AcDbBlockTableRecord
  2
*D17
340
0
  0
BLOCK_RECORD
  5
6F9
330
1
100
AcDbSymbolTableRecord
100
AcDbBlockTableRecord
  2
*D18
340
0
  0
BLOCK_RECORD
  5
718
330
1
100
AcDbSymbolTableRecord
100
AcDbBlockTableRecord
  2
*D19
340
0
  0
BLOCK_RECORD
  5
724
330
1
100
AcDbSymbolTableRecord
100
AcDbBlockTableRecord
  2
*D20
340
0
  0
BLOCK_RECORD
  5
730
330
1
100
AcDbSymbolTableRecord
100
AcDbBlockTableRecord
  2
*D21
340
0
  0
BLOCK_RECORD
  5
76C
330
1
100
AcDbSymbolTableRecord
100
AcDbBlockTableRecord
  2
*D23
340
0
  0
BLOCK_RECORD
  5
778
330
1
100
AcDbSymbolTableRecord
100
AcDbBlockTableRecord
  2
*D24
340
0
  0
BLOCK_RECORD
  5
784
330
1
100
AcDbSymbolTableRecord
100
AcDbBlockTableRecord
  2
*D25
340
0
  0
ENDTAB
  0
ENDSEC
  0
SECTION
  2
BLOCKS
  0
BLOCK
  5
20
330
1F
100
AcDbEntity
  8
0
100
AcDbBlockBegin
  2
*Model_Space
 70
     0
 10
0.0
 20
0.0
 30
0.0
  3
*Model_Space
  1

  0
ENDBLK
  5
21
330
1F
100
AcDbEntity
  8
0
100
AcDbBlockEnd
  0
BLOCK
  5
1C
330
1B
100
AcDbEntity
 67
     1
  8
0
100
AcDbBlockBegin
  2
*Paper_Space
 70
     0
 10
0.0
 20
0.0
 30
0.0
  3
*Paper_Space
  1

  0
ENDBLK
  5
1D
330
1B
100
AcDbEntity
 67
     1
  8
0
100
AcDbBlockEnd
  0
BLOCK
  5
24
330
23
100
AcDbEntity
 67
     1
  8
0
100
AcDbBlockBegin
  2
*Paper_Space0
 70
     0
 10
0.0
 20
0.0
 30
0.0
  3
*Paper_Space0
  1

  0
ENDBLK
  5
25
330
23
100
AcDbEntity
 67
     1
  8
0
100
AcDbBlockEnd
  0
BLOCK
  5
89
330
87
100
AcDbEntity
  8
0
100
AcDbBlockBegin
  2
GENAXEH
 70
     0
 10
0.0
 20
0.0
 30
0.0
  3
GENAXEH
  1

  0
LINE
  5
88
330
87
100
AcDbEntity
  8
0
100
AcDbLine
 10
-1.0
 20
0.0
 30
0.0
 11
1.0
 21
0.0
 31
0.0
  0
ENDBLK
  5
8A
330
87
100
AcDbEntity
  8
0
100
AcDbBlockEnd
  0
BLOCK
  5
3AF
330
3AE
100
AcDbEntity
  8
0
100
AcDbBlockBegin
  2
*D3
 70
     1
 10
0.0
 20
0.0
 30
0.0
  3
*D3
  1

  0
LINE
  5
3B0
330
3AE
100
AcDbEntity
  8
AM_5
  6
ByBlock
100
AcDbLine
 10
2745.006034897035
 20
1161.814901885746
 30
0.0
 11
2786.398623682749
 21
1161.814901885746
 31
0.0
  0
LINE
  5
3B1
330
3AE
100
AcDbEntity
  8
AM_5
  6
ByBlock
100
AcDbLine
 10
2745.006034897035
 20
1017.856501885747
 30
0.0
 11
2786.398623682748
 21
1017.856501885747
 31
0.0
  0
LINE
  5
3B2
330
3AE
100
AcDbEntity
  8
AM_5
  6
ByBlock
100
AcDbLine
 10
2785.398623682749
 20
1154.814901885746
 30
0.0
 11
2785.398623682749
 21
1024.856501885747
 31
0.0
  0
SOLID
  5
3B3
330
3AE
100
AcDbEntity
  8
AM_5
100
AcDbTrace
 10
2784.231957016082
 20
1154.814901885746
 30
0.0
 11
2786.565290349415
 21
1154.814901885746
 31
0.0
 12
2785.398623682749
 22
1161.814901885746
 32
0.0
 13
2785.398623682749
 23
1161.814901885746
 33
0.0
  0
SOLID
  5
3B4
330
3AE
100
AcDbEntity
  8
AM_5
100
AcDbTrace
 10
2784.231957016082
 20
1024.856501885747
 30
0.0
 11
2786.565290349415
 21
1024.856501885747
 31
0.0
 12
2785.398623682748
 22
1017.856501885747
 32
0.0
 13
2785.398623682748
 23
1017.856501885747
 33
0.0
  0
MTEXT
  5
3B5
330
3AE
100
AcDbEntity
  8
AM_5
 62
     2
100
AcDbMText
 10
2778.898623682748
 20
1089.835701885747
 30
0.0
 40
10.0
 41
0.0
 71
     5
 72
     1
  1
144
 11
0.0000000000000001
 21
1.0
 31
0.0
 73
     1
 44
1.0
1001
ACAD
1000
MTEXTBEGIN
1070
    73
1070
     1
1070
    44
1040
1.0
1070
    74
1070
     0
1000
MTEXTEND
  0
POINT
  5
3B6
330
3AE
100
AcDbEntity
  8
Defpoints
 62
     0
100
AcDbPoint
 10
2744.006034897034
 20
1161.814901885746
 30
0.0
  0
POINT
  5
3B7
330
3AE
100
AcDbEntity
  8
Defpoints
 62
     0
100
AcDbPoint
 10
2744.006034897034
 20
1017.856501885747
 30
0.0
  0
POINT
  5
3B8
330
3AE
100
AcDbEntity
  8
Defpoints
 62
     0
100
AcDbPoint
 10
2785.398623682748
 20
1017.856501885747
 30
0.0
  0
ENDBLK
  5
3B9
330
3AE
100
AcDbEntity
  8
0
100
AcDbBlockEnd
  0
BLOCK
  5
3BB
330
3BA
100
AcDbEntity
  8
0
100
AcDbBlockBegin
  2
*D4
 70
     1
 10
0.0
 20
0.0
 30
0.0
  3
*D4
  1

  0
LINE
  5
3BC
330
3BA
100
AcDbEntity
  8
AM_5
  6
ByBlock
100
AcDbLine
 10
1981.734892039557
 20
1162.814901885746
 30
0.0
 11
1981.734892039557
 21
1220.841020425025
 31
0.0
  0
LINE
  5
3BD
330
3BA
100
AcDbEntity
  8
AM_5
  6
ByBlock
100
AcDbLine
 10
2741.716034897035
 20
1162.814901885745
 30
0.0
 11
2741.716034897035
 21
1220.841020425025
 31
0.0
  0
LINE
  5
3BE
330
3BA
100
AcDbEntity
  8
AM_5
  6
ByBlock
100
AcDbLine
 10
1988.734892039557
 20
1219.841020425026
 30
0.0
 11
2734.716034897035
 21
1219.841020425026
 31
0.0
  0
SOLID
  5
3BF
330
3BA
100
AcDbEntity
  8
AM_5
100
AcDbTrace
 10
1988.734892039557
 20
1221.007687091692
 30
0.0
 11
1988.734892039557
 21
1218.674353758359
 31
0.0
 12
1981.734892039557
 22
1219.841020425026
 32
0.0
 13
1981.734892039557
 23
1219.841020425026
 33
0.0
  0
SOLID
  5
3C0
330
3BA
100
AcDbEntity
  8
AM_5
100
AcDbTrace
 10
2734.716034897035
 20
1221.007687091692
 30
0.0
 11
2734.716034897035
 21
1218.674353758359
 31
0.0
 12
2741.716034897035
 22
1219.841020425026
 32
0.0
 13
2741.716034897035
 23
1219.841020425026
 33
0.0
  0
MTEXT
  5
3C1
330
3BA
100
AcDbEntity
  8
AM_5
 62
     2
100
AcDbMText
 10
2361.725463468296
 20
1226.341020425026
 30
0.0
 40
10.0
 41
0.0
 71
     5
 72
     1
  1
760
 73
     1
 44
1.0
1001
ACAD
1000
MTEXTBEGIN
1070
    73
1070
     1
1070
    44
1040
1.0
1070
    74
1070
     0
1000
MTEXTEND
  0
POINT
  5
3C2
330
3BA
100
AcDbEntity
  8
Defpoints
 62
     0
100
AcDbPoint
 10
1981.734892039557
 20
1161.814901885746
 30
0.0
  0
POINT
  5
3C3
330
3BA
100
AcDbEntity
  8
Defpoints
 62
     0
100
AcDbPoint
 10
2741.716034897035
 20
1161.814901885745
 30
0.0
  0
POINT
  5
3C4
330
3BA
100
AcDbEntity
  8
Defpoints
 62
     0
100
AcDbPoint
 10
2741.716034897035
 20
1219.841020425026
 30
0.0
  0
ENDBLK
  5
3C5
330
3BA
100
AcDbEntity
  8
0
100
AcDbBlockEnd
  0
BLOCK
  5
3C7
330
3C6
100
AcDbEntity
  8
0
100
AcDbBlockBegin
  2
*D5
 70
     1
 10
0.0
 20
0.0
 30
0.0
  3
*D5
  1

  0
LINE
  5
3C8
330
3C6
100
AcDbEntity
  8
AM_5
  6
ByBlock
100
AcDbLine
 10
2011.717749182663
 20
1132.432273314484
 30
0.0
 11
2011.717749182663
 21
1195.20301982792
 31
0.0
  0
LINE
  5
3C9
330
3C6
100
AcDbEntity
  8
AM_5
  6
ByBlock
100
AcDbLine
 10
2711.733177753929
 20
1132.432273314484
 30
0.0
 11
2711.733177753929
 21
1195.20301982792
 31
0.0
  0
LINE
  5
3CA
330
3C6
100
AcDbEntity
  8
AM_5
  6
ByBlock
100
AcDbLine
 10
2018.717749182664
 20
1194.20301982792
 30
0.0
 11
2704.733177753928
 21
1194.20301982792
 31
0.0
  0
SOLID
  5
3CB
330
3C6
100
AcDbEntity
  8
AM_5
100
AcDbTrace
 10
2018.717749182664
 20
1195.369686494586
 30
0.0
 11
2018.717749182664
 21
1193.036353161253
 31
0.0
 12
2011.717749182663
 22
1194.20301982792
 32
0.0
 13
2011.717749182663
 23
1194.20301982792
 33
0.0
  0
SOLID
  5
3CC
330
3C6
100
AcDbEntity
  8
AM_5
100
AcDbTrace
 10
2704.733177753928
 20
1195.369686494586
 30
0.0
 11
2704.733177753928
 21
1193.036353161253
 31
0.0
 12
2711.733177753929
 22
1194.20301982792
 32
0.0
 13
2711.733177753929
 23
1194.20301982792
 33
0.0
  0
MTEXT
  5
3CD
330
3C6
100
AcDbEntity
  8
AM_5
 62
     2
100
AcDbMText
 10
2361.725463468296
 20
1200.70301982792
 30
0.0
 40
10.0
 41
0.0
 71
     5
 72
     1
  1
700
 73
     1
 44
1.0
1001
ACAD
1000
MTEXTBEGIN
1070
    73
1070
     1
1070
    44
1040
1.0
1070
    74
1070
     0
1000
MTEXTEND
  0
POINT
  5
3CE
330
3C6
100
AcDbEntity
  8
Defpoints
 62
     0
100
AcDbPoint
 10
2011.717749182663
 20
1131.432273314484
 30
0.0
  0
POINT
  5
3CF
330
3C6
100
AcDbEntity
  8
Defpoints
 62
     0
100
AcDbPoint
 10
2711.733177753929
 20
1131.432273314484
 30
0.0
  0
POINT
  5
3D0
330
3C6
100
AcDbEntity
  8
Defpoints
 62
     0
100
AcDbPoint
 10
2711.733177753929
 20
1194.20301982792
 30
0.0
  0
ENDBLK
  5
3D1
330
3C6
100
AcDbEntity
  8
0
100
AcDbBlockEnd
  0
BLOCK
  5
3D3
330
3D2
100
AcDbEntity
  8
0
100
AcDbBlockBegin
  2
*D6
 70
     1
 10
0.0
 20
0.0
 30
0.0
  3
*D6
  1

  0
LINE
  5
3D4
330
3D2
100
AcDbEntity
  8
AM_5
  6
ByBlock
100
AcDbLine
 10
2711.733749182665
 20
1427.057838002553
 30
0.0
 11
2767.158942646357
 21
1427.057838002553
 31
0.0
  0
LINE
  5
3D5
330
3D2
100
AcDbEntity
  8
AM_5
  6
ByBlock
100
AcDbLine
 10
2706.736606325772
 20
1300.130409431289
 30
0.0
 11
2767.158942646357
 21
1300.130409431289
 31
0.0
  0
LINE
  5
3D6
330
3D2
100
AcDbEntity
  8
AM_5
  6
ByBlock
100
AcDbLine
 10
2766.158942646356
 20
1420.057838002553
 30
0.0
 11
2766.158942646356
 21
1307.130409431289
 31
0.0
  0
SOLID
  5
3D7
330
3D2
100
AcDbEntity
  8
AM_5
100
AcDbTrace
 10
2764.99227597969
 20
1420.057838002553
 30
0.0
 11
2767.325609313023
 21
1420.057838002553
 31
0.0
 12
2766.158942646356
 22
1427.057838002553
 32
0.0
 13
2766.158942646356
 23
1427.057838002553
 33
0.0
  0
SOLID
  5
3D8
330
3D2
100
AcDbEntity
  8
AM_5
100
AcDbTrace
 10
2764.99227597969
 20
1307.130409431289
 30
0.0
 11
2767.325609313023
 21
1307.130409431289
 31
0.0
 12
2766.158942646356
 22
1300.130409431289
 32
0.0
 13
2766.158942646356
 23
1300.130409431289
 33
0.0
  0
MTEXT
  5
3D9
330
3D2
100
AcDbEntity
  8
AM_5
 62
     2
100
AcDbMText
 10
2759.658942646356
 20
1363.594123716922
 30
0.0
 40
10.0
 41
0.0
 71
     5
 72
     1
  1
105-160
 11
0.0000000000000001
 21
1.0
 31
0.0
 73
     1
 44
1.0
1001
ACAD
1000
MTEXTBEGIN
1070
    73
1070
     1
1070
    44
1040
1.0
1070
    74
1070
     0
1000
MTEXTEND
  0
POINT
  5
3DA
330
3D2
100
AcDbEntity
  8
Defpoints
 62
     0
100
AcDbPoint
 10
2710.733749182665
 20
1427.057838002553
 30
0.0
  0
POINT
  5
3DB
330
3D2
100
AcDbEntity
  8
Defpoints
 62
     0
100
AcDbPoint
 10
2705.736606325773
 20
1300.130409431289
 30
0.0
  0
POINT
  5
3DC
330
3D2
100
AcDbEntity
  8
Defpoints
 62
     0
100
AcDbPoint
 10
2766.158942646356
 20
1300.130409431289
 30
0.0
  0
ENDBLK
  5
3DD
330
3D2
100
AcDbEntity
  8
0
100
AcDbBlockEnd
  0
BLOCK
  5
3DF
330
3DE
100
AcDbEntity
  8
0
100
AcDbBlockBegin
  2
*D7
 70
     1
 10
0.0
 20
0.0
 30
0.0
  3
*D7
  1

  0
LINE
  5
3E0
330
3DE
100
AcDbEntity
  8
AM_5
  6
ByBlock
100
AcDbLine
 10
2978.025503837705
 20
1427.118980860132
 30
0.0
 11
2978.025503837705
 21
1447.583188265793
 31
0.0
  0
LINE
  5
3E1
330
3DE
100
AcDbEntity
  8
AM_5
  6
ByBlock
100
AcDbLine
 10
2898.025503837803
 20
1427.118980860022
 30
0.0
 11
2898.025503837803
 21
1447.583188265793
 31
0.0
  0
LINE
  5
3E2
330
3DE
100
AcDbEntity
  8
AM_5
  6
ByBlock
100
AcDbLine
 10
2971.025503837705
 20
1446.583188265793
 30
0.0
 11
2905.025503837804
 21
1446.583188265793
 31
0.0
  0
SOLID
  5
3E3
330
3DE
100
AcDbEntity
  8
AM_5
100
AcDbTrace
 10
2971.025503837705
 20
1447.74985493246
 30
0.0
 11
2971.025503837705
 21
1445.416521599126
 31
0.0
 12
2978.025503837705
 22
1446.583188265793
 32
0.0
 13
2978.025503837705
 23
1446.583188265793
 33
0.0
  0
SOLID
  5
3E4
330
3DE
100
AcDbEntity
  8
AM_5
100
AcDbTrace
 10
2905.025503837804
 20
1447.74985493246
 30
0.0
 11
2905.025503837804
 21
1445.416521599126
 31
0.0
 12
2898.025503837803
 22
1446.583188265793
 32
0.0
 13
2898.025503837803
 23
1446.583188265793
 33
0.0
  0
MTEXT
  5
3E5
330
3DE
100
AcDbEntity
  8
AM_5
 62
     2
100
AcDbMText
 10
2938.025503837754
 20
1453.083188265793
 30
0.0
 40
10.0
 41
0.0
 71
     5
 72
     1
  1
80
 73
     1
 44
1.0
1001
ACAD
1000
MTEXTBEGIN
1070
    73
1070
     1
1070
    44
1040
1.0
1070
    74
1070
     0
1000
MTEXTEND
  0
POINT
  5
3E6
330
3DE
100
AcDbEntity
  8
Defpoints
 62
     0
100
AcDbPoint
 10
2978.025503837705
 20
1426.118980860132
 30
0.0
  0
POINT
  5
3E7
330
3DE
100
AcDbEntity
  8
Defpoints
 62
     0
100
AcDbPoint
 10
2898.025503837803
 20
1426.118980860022
 30
0.0
  0
POINT
  5
3E8
330
3DE
100
AcDbEntity
  8
Defpoints
 62
     0
100
AcDbPoint
 10
2898.025503837803
 20
1446.583188265793
 30
0.0
  0
ENDBLK
  5
3E9
330
3DE
100
AcDbEntity
  8
0
100
AcDbBlockEnd
  0
BLOCK
  5
3EB
330
3EA
100
AcDbEntity
  8
0
100
AcDbBlockBegin
  2
*D8
 70
     1
 10
0.0
 20
0.0
 30
0.0
  3
*D8
  1

  0
LINE
  5
3EC
330
3EA
100
AcDbEntity
  8
AM_5
  6
ByBlock
100
AcDbLine
 10
2896.025503837726
 20
1427.118980860025
 30
0.0
 11
2896.025503837726
 21
1465.099177162447
 31
0.0
  0
LINE
  5
3ED
330
3EA
100
AcDbEntity
  8
AM_5
  6
ByBlock
100
AcDbLine
 10
2980.025503837675
 20
1427.118980860129
 30
0.0
 11
2980.025503837675
 21
1465.099177162447
 31
0.0
  0
LINE
  5
3EE
330
3EA
100
AcDbEntity
  8
AM_5
  6
ByBlock
100
AcDbLine
 10
2903.025503837726
 20
1464.099177162447
 30
0.0
 11
2973.025503837675
 21
1464.099177162447
 31
0.0
  0
SOLID
  5
3EF
330
3EA
100
AcDbEntity
  8
AM_5
100
AcDbTrace
 10
2903.025503837726
 20
1465.265843829114
 30
0.0
 11
2903.025503837726
 21
1462.93251049578
 31
0.0
 12
2896.025503837726
 22
1464.099177162447
 32
0.0
 13
2896.025503837726
 23
1464.099177162447
 33
0.0
  0
SOLID
  5
3F0
330
3EA
100
AcDbEntity
  8
AM_5
100
AcDbTrace
 10
2973.025503837675
 20
1465.265843829114
 30
0.0
 11
2973.025503837675
 21
1462.93251049578
 31
0.0
 12
2980.025503837675
 22
1464.099177162447
 32
0.0
 13
2980.025503837675
 23
1464.099177162447
 33
0.0
  0
MTEXT
  5
3F1
330
3EA
100
AcDbEntity
  8
AM_5
 62
     2
100
AcDbMText
 10
2938.025503837701
 20
1470.599177162447
 30
0.0
 40
10.0
 41
0.0
 71
     5
 72
     1
  1
84
 73
     1
 44
1.0
1001
ACAD
1000
MTEXTBEGIN
1070
    73
1070
     1
1070
    44
1040
1.0
1070
    74
1070
     0
1000
MTEXTEND
  0
POINT
  5
3F2
330
3EA
100
AcDbEntity
  8
Defpoints
 62
     0
100
AcDbPoint
 10
2896.025503837726
 20
1426.118980860025
 30
0.0
  0
POINT
  5
3F3
330
3EA
100
AcDbEntity
  8
Defpoints
 62
     0
100
AcDbPoint
 10
2980.025503837675
 20
1426.118980860129
 30
0.0
  0
POINT
  5
3F4
330
3EA
100
AcDbEntity
  8
Defpoints
 62
     0
100
AcDbPoint
 10
2980.025503837675
 20
1464.099177162447
 30
0.0
  0
ENDBLK
  5
3F5
330
3EA
100
AcDbEntity
  8
0
100
AcDbBlockEnd
  0
BLOCK
  5
3F7
330
3F6
100
AcDbEntity
  8
0
100
AcDbBlockBegin
  2
befestigung
 70
     0
 10
0.0
 20
0.0
 30
0.0
  3
befestigung
  1

  0
LINE
  5
3F8
330
3F6
100
AcDbEntity
  8
AM_7N
  6
AM_ISO08W050x2
100
AcDbLine
 10
2003.869006815402
 20
1351.458312600669
 30
0.0
 11
2040.549006815402
 21
1351.458312600669
 31
0.0
1001
GENIUS_GENOREF_13
1005
0
1005
41A
1005
419
  0
LINE
  5
3F9
330
3F6
100
AcDbEntity
  8
AM_9N
100
AcDbLine
 10
2015.674006815402
 20
1347.458312600669
 30
0.0
 11
2017.974006815402
 21
1347.458312600669
 31
0.0
1001
GENIUS_GENOREF_13
1005
0
1005
41A
1005
419
  0
LINE
  5
3FA
330
3F6
100
AcDbEntity
  8
AM_9N
100
AcDbLine
 10
2022.209006815402
 20
1347.458312600669
 30
0.0
 11
2032.209006815401
 21
1347.458312600669
 31
0.0
1001
GENIUS_GENOREF_13
1005
0
1005
41A
1005
419
  0
LINE
  5
3FB
330
3F6
100
AcDbEntity
  8
AM_0N
100
AcDbLine
 10
2027.974006815401
 20
1347.458312600669
 30
0.0
 11
2036.782194315402
 21
1347.458312600669
 31
0.0
1001
GENIUS_GENOREF_13
1005
0
1005
41A
1005
419
  0
LINE
  5
3FC
330
3F6
100
AcDbEntity
  8
AM_9N
100
AcDbLine
 10
2015.674006815402
 20
1348.225125100669
 30
0.0
 11
2017.974006815402
 21
1348.225125100669
 31
0.0
1001
GENIUS_GENOREF_13
1005
0
1005
41A
1005
419
  0
LINE
  5
3FD
330
3F6
100
AcDbEntity
  8
AM_9N
100
AcDbLine
 10
2022.209006815402
 20
1348.225125100669
 30
0.0
 11
2032.209006815401
 21
1348.225125100669
 31
0.0
1001
GENIUS_GENOREF_13
1005
0
1005
41A
1005
419
  0
LINE
  5
3FE
330
3F6
100
AcDbEntity
  8
AM_4N
100
AcDbLine
 10
2027.974006815401
 20
1348.225125100669
 30
0.0
 11
2037.549006815402
 21
1348.225125100669
 31
0.0
1001
GENIUS_GENOREF_13
1005
0
1005
41A
1005
419
  0
LINE
  5
3FF
330
3F6
100
AcDbEntity
  8
AM_9N
100
AcDbLine
 10
2015.674006815402
 20
1354.691500100669
 30
0.0
 11
2017.974006815402
 21
1354.691500100669
 31
0.0
1001
GENIUS_GENOREF_13
1005
0
1005
41A
1005
419
  0
LINE
  5
400
330
3F6
100
AcDbEntity
  8
AM_9N
100
AcDbLine
 10
2027.974006815401
 20
1354.691500100669
 30
0.0
 11
2032.209006815401
 21
1354.691500100669
 31
0.0
1001
GENIUS_GENOREF_13
1005
0
1005
41A
1005
419
  0
LINE
  5
401
330
3F6
100
AcDbEntity
  8
AM_4N
100
AcDbLine
 10
2027.974006815401
 20
1354.691500100669
 30
0.0
 11
2037.549006815402
 21
1354.691500100669
 31
0.0
1001
GENIUS_GENOREF_13
1005
0
1005
41A
1005
419
  0
LINE
  5
402
330
3F6
100
AcDbEntity
  8
AM_9N
100
AcDbLine
 10
2015.674006815402
 20
1355.458312600669
 30
0.0
 11
2017.974006815402
 21
1355.458312600669
 31
0.0
1001
GENIUS_GENOREF_13
1005
0
1005
41A
1005
419
  0
LINE
  5
403
330
3F6
100
AcDbEntity
  8
AM_9N
100
AcDbLine
 10
2027.974006815401
 20
1355.458312600669
 30
0.0
 11
2032.209006815401
 21
1355.458312600669
 31
0.0
1001
GENIUS_GENOREF_13
1005
0
1005
41A
1005
419
  0
LINE
  5
404
330
3F6
100
AcDbEntity
  8
AM_0N
100
AcDbLine
 10
2027.974006815401
 20
1355.458312600669
 30
0.0
 11
2036.782194315402
 21
1355.458312600669
 31
0.0
1001
GENIUS_GENOREF_13
1005
0
1005
41A
1005
419
  0
ARC
  5
405
330
3F6
100
AcDbEntity
  8
AM_0N
100
AcDbCircle
 10
2019.27813978905
 20
1351.458312600669
 30
0.0
 40
12.4091329736479
100
AcDbArc
 50
162.3875260144767
 51
197.6124739855233
1001
GENIUS_GENOREF_13
1005
0
1005
41A
1005
419
  0
LINE
  5
406
330
3F6
100
AcDbEntity
  8
AM_0N
100
AcDbLine
 10
2012.549006815402
 20
1347.458312600669
 30
0.0
 11
2012.549006815402
 21
1355.458312600669
 31
0.0
1001
GENIUS_GENOREF_13
1005
0
1005
41A
1005
419
  0
LINE
  5
407
330
3F6
100
AcDbEntity
  8
AM_0N
100
AcDbLine
 10
2012.549006815402
 20
1355.458312600669
 30
0.0
 11
2012.549006815402
 21
1347.458312600669
 31
0.0
1001
GENIUS_GENOREF_13
1005
0
1005
41A
1005
419
  0
LINE
  5
408
330
3F6
100
AcDbEntity
  8
AM_0N
100
AcDbLine
 10
2006.869006815402
 20
1357.958312600669
 30
0.0
 11
2006.869006815402
 21
1344.958312600669
 31
0.0
1001
GENIUS_GENOREF_13
1005
0
1005
41A
1005
419
  0
LINE
  5
409
330
3F6
100
AcDbEntity
  8
AM_0N
100
AcDbLine
 10
2007.45068721161
 20
1343.950812600669
 30
0.0
 11
2012.549006815402
 21
1343.950812600669
 31
0.0
1001
GENIUS_GENOREF_13
1005
0
1005
41A
1005
419
  0
LINE
  5
40A
330
3F6
100
AcDbEntity
  8
AM_0N
100
AcDbLine
 10
2007.45068721161
 20
1347.703589350401
 30
0.0
 11
2012.549006815402
 21
1347.703589350401
 31
0.0
1001
GENIUS_GENOREF_13
1005
0
1005
41A
1005
419
  0
ARC
  5
40B
330
3F6
100
AcDbEntity
  8
AM_0N
100
AcDbCircle
 10
2010.186279876194
 20
1345.827200975535
 30
0.0
 40
3.317273060791837
100
AcDbArc
 50
145.5531276177371
 51
205.5531276177362
1001
GENIUS_GENOREF_13
1005
0
1005
41A
1005
419
  0
LINE
  5
40C
330
3F6
100
AcDbEntity
  8
AM_0N
100
AcDbLine
 10
2007.45068721161
 20
1343.950812600669
 30
0.0
 11
2006.869006815402
 21
1344.958312600669
 31
0.0
1001
GENIUS_GENOREF_13
1005
0
1005
41A
1005
419
  0
LINE
  5
40D
330
3F6
100
AcDbEntity
  8
AM_0N
100
AcDbLine
 10
2012.549006815402
 20
1343.950812600669
 30
0.0
 11
2012.549006815402
 21
1347.458312600669
 31
0.0
1001
GENIUS_GENOREF_13
1005
0
1005
41A
1005
419
  0
LINE
  5
40E
330
3F6
100
AcDbEntity
  8
AM_0N
100
AcDbLine
 10
2012.549006815402
 20
1355.458312600669
 30
0.0
 11
2012.549006815402
 21
1358.965812600669
 31
0.0
1001
GENIUS_GENOREF_13
1005
0
1005
41A
1005
419
  0
LINE
  5
40F
330
3F6
100
AcDbEntity
  8
AM_0N
100
AcDbLine
 10
2007.45068721161
 20
1358.965812600669
 30
0.0
 11
2006.869006815402
 21
1357.958312600669
 31
0.0
1001
GENIUS_GENOREF_13
1005
0
1005
41A
1005
419
  0
LINE
  5
410
330
3F6
100
AcDbEntity
  8
AM_0N
100
AcDbLine
 10
2007.45068721161
 20
1355.213035850936
 30
0.0
 11
2012.549006815402
 21
1355.213035850936
 31
0.0
1001
GENIUS_GENOREF_13
1005
0
1005
41A
1005
419
  0
ARC
  5
411
330
3F6
100
AcDbEntity
  8
AM_0N
100
AcDbCircle
 10
2010.186279876194
 20
1357.089424225803
 30
0.0
 40
3.317273060791837
100
AcDbArc
 50
154.4468723822637
 51
214.4468723822629
1001
GENIUS_GENOREF_13
1005
0
1005
41A
1005
419
  0
LINE
  5
412
330
3F6
100
AcDbEntity
  8
AM_0N
100
AcDbLine
 10
2007.45068721161
 20
1358.965812600669
 30
0.0
 11
2012.549006815402
 21
1358.965812600669
 31
0.0
1001
GENIUS_GENOREF_13
1005
0
1005
41A
1005
419
  0
LINE
  5
413
330
3F6
100
AcDbEntity
  8
AM_0N
100
AcDbLine
 10
2036.782194315402
 20
1347.458312600669
 30
0.0
 11
2036.782194315402
 21
1355.458312600669
 31
0.0
1001
GENIUS_GENOREF_13
1005
0
1005
41A
1005
419
  0
LINE
  5
414
330
3F6
100
AcDbEntity
  8
AM_0N
100
AcDbLine
 10
2037.549006815402
 20
1348.225125100669
 30
0.0
 11
2036.782194315402
 21
1347.458312600669
 31
0.0
1001
GENIUS_GENOREF_13
1005
0
1005
41A
1005
419
  0
LINE
  5
415
330
3F6
100
AcDbEntity
  8
AM_0N
100
AcDbLine
 10
2037.549006815402
 20
1348.225125100669
 30
0.0
 11
2037.549006815402
 21
1354.691500100669
 31
0.0
1001
GENIUS_GENOREF_13
1005
0
1005
41A
1005
419
  0
LINE
  5
416
330
3F6
100
AcDbEntity
  8
AM_0N
100
AcDbLine
 10
2036.782194315402
 20
1355.458312600669
 30
0.0
 11
2037.549006815402
 21
1354.691500100669
 31
0.0
1001
GENIUS_GENOREF_13
1005
0
1005
41A
1005
419
  0
INSERT
  5
417
330
3F6
100
AcDbEntity
  8
AM_0N
100
AcDbBlockReference
  2
*U10
 10
0.0
 20
0.0
 30
0.0
1001
GENIUS_GENOREF_13
1005
41C
  0
INSERT
  5
418
330
3F6
100
AcDbEntity
  8
AM_0N
100
AcDbBlockReference
  2
*U11
 10
0.0
 20
0.0
 30
0.0
1001
GENIUS_GENOREF_13
1005
41B
  0
ENDBLK
  5
41D
330
3F6
100
AcDbEntity
  8
0
100
AcDbBlockEnd
  0
BLOCK
  5
41F
330
41E
100
AcDbEntity
  8
0
100
AcDbBlockBegin
  2
*U10
 70
     1
 10
0.0
 20
0.0
 30
0.0
  3
*U10
  1

  0
ARC
  5
420
330
41E
100
AcDbEntity
  8
AM_0N
100
AcDbCircle
 10
2031.974006815402
 20
1364.958312600669
 30
0.0
 40
6.0
100
AcDbArc
 50
284.6765041088877
 51
134.956760177952
  0
LINE
  5
421
330
41E
100
AcDbEntity
  8
AM_0N
100
AcDbLine
 10
2017.974006815402
 20
1359.458312600669
 30
0.0
 11
2027.734569160611
 21
1369.204153903773
 31
0.0
  0
LINE
  5
422
330
41E
100
AcDbEntity
  8
AM_0N
100
AcDbLine
 10
2027.974006815401
 20
1357.708312600669
 30
0.0
 11
2033.494174408163
 21
1359.154082204663
 31
0.0
  0
ARC
  5
423
330
41E
100
AcDbEntity
  8
AM_0N
100
AcDbCircle
 10
2031.974006815402
 20
1337.958312600669
 30
0.0
 40
6.0
100
AcDbArc
 50
225.043239822048
 51
75.3234958911123
  0
LINE
  5
424
330
41E
100
AcDbEntity
  8
AM_0N
100
AcDbLine
 10
2017.974006815402
 20
1343.458312600669
 30
0.0
 11
2027.734569160611
 21
1333.712471297565
 31
0.0
  0
LINE
  5
425
330
41E
100
AcDbEntity
  8
AM_7N
  6
AM_ISO08W050x2
100
AcDbLine
 10
2030.974006815402
 20
1351.458312600669
 30
0.0
 11
2014.974006815402
 21
1351.458312600669
 31
0.0
  0
LINE
  5
426
330
41E
100
AcDbEntity
  8
AM_0N
100
AcDbLine
 10
2017.974006815402
 20
1343.458312600669
 30
0.0
 11
2017.974006815402
 21
1359.458312600669
 31
0.0
  0
LINE
  5
427
330
41E
100
AcDbEntity
  8
AM_0N
100
AcDbLine
 10
2027.974006815401
 20
1357.708312600669
 30
0.0
 11
2027.974006815401
 21
1345.208312600669
 31
0.0
  0
LINE
  5
428
330
41E
100
AcDbEntity
  8
AM_0N
100
AcDbLine
 10
2027.974006815401
 20
1345.208312600669
 30
0.0
 11
2017.974006815402
 21
1343.458312600669
 31
0.0
  0
LINE
  5
429
330
41E
100
AcDbEntity
  8
AM_0N
100
AcDbLine
 10
2027.974006815401
 20
1345.208312600669
 30
0.0
 11
2033.494174408163
 21
1343.762542996675
 31
0.0
  0
LINE
  5
42A
330
41E
100
AcDbEntity
  8
AM_0N
100
AcDbLine
 10
2017.974006815402
 20
1359.458312600669
 30
0.0
 11
2027.974006815401
 21
1357.708312600669
 31
0.0
  0
ENDBLK
  5
42B
330
41E
100
AcDbEntity
  8
0
100
AcDbBlockEnd
  0
BLOCK
  5
42D
330
42C
100
AcDbEntity
  8
0
100
AcDbBlockBegin
  2
*U11
 70
     1
 10
0.0
 20
0.0
 30
0.0
  3
*U11
  1

  0
LINE
  5
42E
330
42C
100
AcDbEntity
  8
AM_7N
  6
AM_ISO08W050x2
100
AcDbLine
 10
2012.674006815402
 20
1351.458312600669
 30
0.0
 11
2020.974006815402
 21
1351.458312600669
 31
0.0
  0
LINE
  5
42F
330
42C
100
AcDbEntity
  8
AM_0N
100
AcDbLine
 10
2015.674006815402
 20
1360.858312600669
 30
0.0
 11
2015.674006815402
 21
1342.058312600669
 31
0.0
  0
LINE
  5
430
330
42C
100
AcDbEntity
  8
AM_0N
100
AcDbLine
 10
2017.974006815402
 20
1342.058312600669
 30
0.0
 11
2017.974006815402
 21
1360.858312600669
 31
0.0
  0
LINE
  5
431
330
42C
100
AcDbEntity
  8
AM_0N
100
AcDbLine
 10
2015.674006815402
 20
1342.058312600669
 30
0.0
 11
2017.974006815402
 21
1342.058312600669
 31
0.0
  0
LINE
  5
432
330
42C
100
AcDbEntity
  8
AM_0N
100
AcDbLine
 10
2017.974006815402
 20
1360.858312600669
 30
0.0
 11
2015.674006815402
 21
1360.858312600669
 31
0.0
  0
ENDBLK
  5
433
330
42C
100
AcDbEntity
  8
0
100
AcDbBlockEnd
  0
BLOCK
  5
6BE
330
6BD
100
AcDbEntity
  8
0
100
AcDbBlockBegin
  2
*D13
 70
     1
 10
0.0
 20
0.0
 30
0.0
  3
*D13
  1

  0
LINE
  5
7E1
330
6BD
100
AcDbEntity
  8
AM_5
  6
ByBlock
100
AcDbLine
 10
763.2711440957268
 20
169.9232007249464
 30
0.0
 11
855.9811440957274
 21
169.9232007249464
 31
0.0
  0
LINE
  5
7E2
330
6BD
100
AcDbEntity
  8
AM_5
  6
ByBlock
100
AcDbLine
 10
763.2711440957268
 20
25.96480072494762
 30
0.0
 11
855.9811440957274
 21
25.9648007249476
 31
0.0
  0
LINE
  5
7E3
330
6BD
100
AcDbEntity
  8
AM_5
  6
ByBlock
100
AcDbLine
 10
854.9811440957274
 20
162.9232007249464
 30
0.0
 11
854.9811440957274
 21
32.96480072494759
 31
0.0
  0
SOLID
  5
7E4
330
6BD
100
AcDbEntity
  8
AM_5
100
AcDbTrace
 10
853.8144774290609
 20
162.9232007249464
 30
0.0
 11
856.1478107623941
 21
162.9232007249464
 31
0.0
 12
854.9811440957274
 22
169.9232007249464
 32
0.0
 13
854.9811440957274
 23
169.9232007249464
 33
0.0
  0
SOLID
  5
7E5
330
6BD
100
AcDbEntity
  8
AM_5
100
AcDbTrace
 10
853.8144774290609
 20
32.96480072494759
 30
0.0
 11
856.1478107623941
 21
32.96480072494759
 31
0.0
 12
854.9811440957274
 22
25.9648007249476
 32
0.0
 13
854.9811440957274
 23
25.9648007249476
 33
0.0
  0
MTEXT
  5
7E6
330
6BD
100
AcDbEntity
  8
AM_5
 62
     2
100
AcDbMText
 10
848.4811440957274
 20
97.94400072494717
 30
0.0
 40
10.0
 41
0.0
 71
     5
 72
     1
  1
144
 11
0.0000000000000001
 21
1.0
 31
0.0
 73
     1
 44
1.0
1001
ACAD
1000
MTEXTBEGIN
1070
    73
1070
     1
1070
    44
1040
1.0
1070
    74
1070
     0
1000
MTEXTEND
  0
POINT
  5
7E7
330
6BD
100
AcDbEntity
  8
Defpoints
 62
     0
100
AcDbPoint
 10
762.2711440957268
 20
169.9232007249464
 30
0.0
  0
POINT
  5
7E8
330
6BD
100
AcDbEntity
  8
Defpoints
 62
     0
100
AcDbPoint
 10
762.2711440957268
 20
25.96480072494762
 30
0.0
  0
POINT
  5
7E9
330
6BD
100
AcDbEntity
  8
Defpoints
 62
     0
100
AcDbPoint
 10
854.9811440957274
 20
25.9648007249476
 30
0.0
  0
ENDBLK
  5
6BF
330
6BD
100
AcDbEntity
  8
0
100
AcDbBlockEnd
  0
BLOCK
  5
6CA
330
6C9
100
AcDbEntity
  8
0
100
AcDbBlockBegin
  2
*D14
 70
     1
 10
0.0
 20
0.0
 30
0.0
  3
*D14
  1

  0
LINE
  5
7FC
330
6C9
100
AcDbEntity
  8
AM_5
  6
ByBlock
100
AcDbLine
 10
-49.99999876175047
 20
170.9232007249464
 30
0.0
 11
-49.99999876175046
 21
228.9493192642266
 31
0.0
  0
LINE
  5
7FD
330
6C9
100
AcDbEntity
  8
AM_5
  6
ByBlock
100
AcDbLine
 10
809.9811440957278
 20
170.9232007249464
 30
0.0
 11
809.9811440957278
 21
228.9493192642266
 31
0.0
  0
LINE
  5
7FE
330
6C9
100
AcDbEntity
  8
AM_5
  6
ByBlock
100
AcDbLine
 10
-42.99999876175045
 20
227.9493192642266
 30
0.0
 11
802.9811440957278
 21
227.9493192642266
 31
0.0
  0
SOLID
  5
7FF
330
6C9
100
AcDbEntity
  8
AM_5
100
AcDbTrace
 10
-42.99999876175045
 20
229.1159859308932
 30
0.0
 11
-42.99999876175045
 21
226.7826525975599
 31
0.0
 12
-49.99999876175046
 22
227.9493192642266
 32
0.0
 13
-49.99999876175046
 23
227.9493192642266
 33
0.0
  0
SOLID
  5
800
330
6C9
100
AcDbEntity
  8
AM_5
100
AcDbTrace
 10
802.9811440957278
 20
229.1159859308932
 30
0.0
 11
802.9811440957278
 21
226.7826525975599
 31
0.0
 12
809.9811440957278
 22
227.9493192642266
 32
0.0
 13
809.9811440957278
 23
227.9493192642266
 33
0.0
  0
MTEXT
  5
801
330
6C9
100
AcDbEntity
  8
AM_5
 62
     2
100
AcDbMText
 10
379.9905726669887
 20
234.4493192642266
 30
0.0
 40
10.0
 41
0.0
 71
     5
 72
     1
  1
860
 73
     1
 44
1.0
1001
ACAD
1000
MTEXTBEGIN
1070
    73
1070
     1
1070
    44
1040
1.0
1070
    74
1070
     0
1000
MTEXTEND
  0
POINT
  5
802
330
6C9
100
AcDbEntity
  8
Defpoints
 62
     0
100
AcDbPoint
 10
-49.99999876175047
 20
169.9232007249464
 30
0.0
  0
POINT
  5
803
330
6C9
100
AcDbEntity
  8
Defpoints
 62
     0
100
AcDbPoint
 10
809.9811440957278
 20
169.9232007249464
 30
0.0
  0
POINT
  5
804
330
6C9
100
AcDbEntity
  8
Defpoints
 62
     0
100
AcDbPoint
 10
809.9811440957278
 20
227.9493192642266
 30
0.0
  0
ENDBLK
  5
6CB
330
6C9
100
AcDbEntity
  8
0
100
AcDbBlockEnd
  0
BLOCK
  5
6D6
330
6D5
100
AcDbEntity
  8
0
100
AcDbBlockBegin
  2
*D15
 70
     1
 10
0.0
 20
0.0
 30
0.0
  3
*D15
  1

  0
LINE
  5
7F3
330
6D5
100
AcDbEntity
  8
AM_5
  6
ByBlock
100
AcDbLine
 10
-20.01714161864424
 20
140.5405721536843
 30
0.0
 11
-20.01714161864423
 21
203.3113186671204
 31
0.0
  0
LINE
  5
7F4
330
6D5
100
AcDbEntity
  8
AM_5
  6
ByBlock
100
AcDbLine
 10
779.998286952622
 20
140.5405721536843
 30
0.0
 11
779.998286952622
 21
203.3113186671204
 31
0.0
  0
LINE
  5
7F5
330
6D5
100
AcDbEntity
  8
AM_5
  6
ByBlock
100
AcDbLine
 10
-13.01714161864423
 20
202.3113186671204
 30
0.0
 11
772.998286952622
 21
202.3113186671204
 31
0.0
  0
SOLID
  5
7F6
330
6D5
100
AcDbEntity
  8
AM_5
100
AcDbTrace
 10
-13.01714161864423
 20
203.4779853337871
 30
0.0
 11
-13.01714161864423
 21
201.1446520004537
 31
0.0
 12
-20.01714161864423
 22
202.3113186671204
 32
0.0
 13
-20.01714161864423
 23
202.3113186671204
 33
0.0
  0
SOLID
  5
7F7
330
6D5
100
AcDbEntity
  8
AM_5
100
AcDbTrace
 10
772.998286952622
 20
203.4779853337871
 30
0.0
 11
772.998286952622
 21
201.1446520004537
 31
0.0
 12
779.998286952622
 22
202.3113186671204
 32
0.0
 13
779.998286952622
 23
202.3113186671204
 33
0.0
  0
MTEXT
  5
7F8
330
6D5
100
AcDbEntity
  8
AM_5
 62
     2
100
AcDbMText
 10
379.9905726669889
 20
208.8113186671204
 30
0.0
 40
10.0
 41
0.0
 71
     5
 72
     1
  1
800
 73
     1
 44
1.0
1001
ACAD
1000
MTEXTBEGIN
1070
    73
1070
     1
1070
    44
1040
1.0
1070
    74
1070
     0
1000
MTEXTEND
  0
POINT
  5
7F9
330
6D5
100
AcDbEntity
  8
Defpoints
 62
     0
100
AcDbPoint
 10
-20.01714161864424
 20
139.5405721536843
 30
0.0
  0
POINT
  5
7FA
330
6D5
100
AcDbEntity
  8
Defpoints
 62
     0
100
AcDbPoint
 10
779.998286952622
 20
139.5405721536843
 30
0.0
  0
POINT
  5
7FB
330
6D5
100
AcDbEntity
  8
Defpoints
 62
     0
100
AcDbPoint
 10
779.998286952622
 20
202.3113186671204
 30
0.0
  0
ENDBLK
  5
6D7
330
6D5
100
AcDbEntity
  8
0
100
AcDbBlockEnd
  0
BLOCK
  5
6E2
330
6E1
100
AcDbEntity
  8
0
100
AcDbBlockBegin
  2
*D16
 70
     1
 10
0.0
 20
0.0
 30
0.0
  3
*D16
  1

  0
LINE
  5
7CF
330
6E1
100
AcDbEntity
  8
AM_5
  6
ByBlock
100
AcDbLine
 10
779.9988583813578
 20
435.1661368417536
 30
0.0
 11
835.4240518450488
 21
435.1661368417536
 31
0.0
  0
LINE
  5
7D0
330
6E1
100
AcDbEntity
  8
AM_5
  6
ByBlock
100
AcDbLine
 10
775.0017155244659
 20
308.2387082704896
 30
0.0
 11
835.4240518450488
 21
308.2387082704896
 31
0.0
  0
LINE
  5
7D1
330
6E1
100
AcDbEntity
  8
AM_5
  6
ByBlock
100
AcDbLine
 10
834.4240518450487
 20
428.1661368417537
 30
0.0
 11
834.4240518450487
 21
315.2387082704896
 31
0.0
  0
SOLID
  5
7D2
330
6E1
100
AcDbEntity
  8
AM_5
100
AcDbTrace
 10
833.2573851783822
 20
428.1661368417537
 30
0.0
 11
835.5907185117153
 21
428.1661368417537
 31
0.0
 12
834.4240518450487
 22
435.1661368417536
 32
0.0
 13
834.4240518450487
 23
435.1661368417536
 33
0.0
  0
SOLID
  5
7D3
330
6E1
100
AcDbEntity
  8
AM_5
100
AcDbTrace
 10
833.2573851783822
 20
315.2387082704896
 30
0.0
 11
835.5907185117153
 21
315.2387082704896
 31
0.0
 12
834.4240518450487
 22
308.2387082704896
 32
0.0
 13
834.4240518450487
 23
308.2387082704896
 33
0.0
  0
MTEXT
  5
7D4
330
6E1
100
AcDbEntity
  8
AM_5
 62
     2
100
AcDbMText
 10
827.9240518450487
 20
371.7024225561218
 30
0.0
 40
10.0
 41
0.0
 71
     5
 72
     1
  1
105-160
 11
0.0000000000000001
 21
1.0
 31
0.0
 73
     1
 44
1.0
1001
ACAD
1000
MTEXTBEGIN
1070
    73
1070
     1
1070
    44
1040
1.0
1070
    74
1070
     0
1000
MTEXTEND
  0
POINT
  5
7D5
330
6E1
100
AcDbEntity
  8
Defpoints
 62
     0
100
AcDbPoint
 10
778.9988583813578
 20
435.1661368417536
 30
0.0
  0
POINT
  5
7D6
330
6E1
100
AcDbEntity
  8
Defpoints
 62
     0
100
AcDbPoint
 10
774.0017155244658
 20
308.2387082704896
 30
0.0
  0
POINT
  5
7D7
330
6E1
100
AcDbEntity
  8
Defpoints
 62
     0
100
AcDbPoint
 10
834.4240518450487
 20
308.2387082704896
 30
0.0
  0
ENDBLK
  5
6E3
330
6E1
100
AcDbEntity
  8
0
100
AcDbBlockEnd
  0
BLOCK
  5
6EE
330
6ED
100
AcDbEntity
  8
0
100
AcDbBlockBegin
  2
*D17
 70
     1
 10
0.0
 20
0.0
 30
0.0
  3
*D17
  1

  0
LINE
  5
7BD
330
6ED
100
AcDbEntity
  8
AM_5
  6
ByBlock
100
AcDbLine
 10
1046.290613036397
 20
435.2272796993325
 30
0.0
 11
1046.290613036397
 21
455.6914871049936
 31
0.0
  0
LINE
  5
7BE
330
6ED
100
AcDbEntity
  8
AM_5
  6
ByBlock
100
AcDbLine
 10
966.2906130364953
 20
435.2272796992225
 30
0.0
 11
966.2906130364953
 21
455.6914871049936
 31
0.0
  0
LINE
  5
7BF
330
6ED
100
AcDbEntity
  8
AM_5
  6
ByBlock
100
AcDbLine
 10
1039.290613036397
 20
454.6914871049936
 30
0.0
 11
973.2906130364954
 21
454.6914871049936
 31
0.0
  0
SOLID
  5
7C0
330
6ED
100
AcDbEntity
  8
AM_5
100
AcDbTrace
 10
1039.290613036397
 20
455.8581537716603
 30
0.0
 11
1039.290613036397
 21
453.5248204383269
 31
0.0
 12
1046.290613036397
 22
454.6914871049936
 32
0.0
 13
1046.290613036397
 23
454.6914871049936
 33
0.0
  0
SOLID
  5
7C1
330
6ED
100
AcDbEntity
  8
AM_5
100
AcDbTrace
 10
973.2906130364954
 20
455.8581537716603
 30
0.0
 11
973.2906130364954
 21
453.5248204383269
 31
0.0
 12
966.2906130364953
 22
454.6914871049936
 32
0.0
 13
966.2906130364953
 23
454.6914871049936
 33
0.0
  0
MTEXT
  5
7C2
330
6ED
100
AcDbEntity
  8
AM_5
 62
     2
100
AcDbMText
 10
1006.290613036446
 20
461.1914871049935
 30
0.0
 40
10.0
 41
0.0
 71
     5
 72
     1
  1
80
 73
     1
 44
1.0
1001
ACAD
1000
MTEXTBEGIN
1070
    73
1070
     1
1070
    44
1040
1.0
1070
    74
1070
     0
1000
MTEXTEND
  0
POINT
  5
7C3
330
6ED
100
AcDbEntity
  8
Defpoints
 62
     0
100
AcDbPoint
 10
1046.290613036397
 20
434.2272796993325
 30
0.0
  0
POINT
  5
7C4
330
6ED
100
AcDbEntity
  8
Defpoints
 62
     0
100
AcDbPoint
 10
966.2906130364953
 20
434.2272796992225
 30
0.0
  0
POINT
  5
7C5
330
6ED
100
AcDbEntity
  8
Defpoints
 62
     0
100
AcDbPoint
 10
966.2906130364953
 20
454.6914871049936
 30
0.0
  0
ENDBLK
  5
6EF
330
6ED
100
AcDbEntity
  8
0
100
AcDbBlockEnd
  0
BLOCK
  5
6FA
330
6F9
100
AcDbEntity
  8
0
100
AcDbBlockBegin
  2
*D18
 70
     1
 10
0.0
 20
0.0
 30
0.0
  3
*D18
  1

  0
LINE
  5
7C6
330
6F9
100
AcDbEntity
  8
AM_5
  6
ByBlock
100
AcDbLine
 10
964.2906130364185
 20
435.2272796992255
 30
0.0
 11
964.2906130364185
 21
473.2074760016474
 31
0.0
  0
LINE
  5
7C7
330
6F9
100
AcDbEntity
  8
AM_5
  6
ByBlock
100
AcDbLine
 10
1048.290613036368
 20
435.2272796993296
 30
0.0
 11
1048.290613036368
 21
473.2074760016474
 31
0.0
  0
LINE
  5
7C8
330
6F9
100
AcDbEntity
  8
AM_5
  6
ByBlock
100
AcDbLine
 10
971.2906130364185
 20
472.2074760016474
 30
0.0
 11
1041.290613036368
 21
472.2074760016474
 31
0.0
  0
SOLID
  5
7C9
330
6F9
100
AcDbEntity
  8
AM_5
100
AcDbTrace
 10
971.2906130364185
 20
473.3741426683141
 30
0.0
 11
971.2906130364185
 21
471.0408093349808
 31
0.0
 12
964.2906130364185
 22
472.2074760016474
 32
0.0
 13
964.2906130364185
 23
472.2074760016474
 33
0.0
  0
SOLID
  5
7CA
330
6F9
100
AcDbEntity
  8
AM_5
100
AcDbTrace
 10
1041.290613036368
 20
473.3741426683141
 30
0.0
 11
1041.290613036368
 21
471.0408093349808
 31
0.0
 12
1048.290613036368
 22
472.2074760016474
 32
0.0
 13
1048.290613036368
 23
472.2074760016474
 33
0.0
  0
MTEXT
  5
7CB
330
6F9
100
AcDbEntity
  8
AM_5
 62
     2
100
AcDbMText
 10
1006.290613036393
 20
478.7074760016475
 30
0.0
 40
10.0
 41
0.0
 71
     5
 72
     1
  1
84
 73
     1
 44
1.0
1001
ACAD
1000
MTEXTBEGIN
1070
    73
1070
     1
1070
    44
1040
1.0
1070
    74
1070
     0
1000
MTEXTEND
  0
POINT
  5
7CC
330
6F9
100
AcDbEntity
  8
Defpoints
 62
     0
100
AcDbPoint
 10
964.2906130364185
 20
434.2272796992254
 30
0.0
  0
POINT
  5
7CD
330
6F9
100
AcDbEntity
  8
Defpoints
 62
     0
100
AcDbPoint
 10
1048.290613036368
 20
434.2272796993296
 30
0.0
  0
POINT
  5
7CE
330
6F9
100
AcDbEntity
  8
Defpoints
 62
     0
100
AcDbPoint
 10
1048.290613036368
 20
472.2074760016474
 30
0.0
  0
ENDBLK
  5
6FB
330
6F9
100
AcDbEntity
  8
0
100
AcDbBlockEnd
  0
BLOCK
  5
719
330
718
100
AcDbEntity
  8
0
100
AcDbBlockBegin
  2
*D19
 70
     1
 10
0.0
 20
0.0
 30
0.0
  3
*D19
  1

  0
LINE
  5
71A
330
718
100
AcDbEntity
  8
AM_5
  6
ByBlock
100
AcDbLine
 10
2745.006034897035
 20
1161.814901885746
 30
0.0
 11
2786.398623682749
 21
1161.814901885746
 31
0.0
  0
LINE
  5
71B
330
718
100
AcDbEntity
  8
AM_5
  6
ByBlock
100
AcDbLine
 10
2745.006034897035
 20
1017.856501885747
 30
0.0
 11
2786.398623682748
 21
1017.856501885747
 31
0.0
  0
LINE
  5
71C
330
718
100
AcDbEntity
  8
AM_5
  6
ByBlock
100
AcDbLine
 10
2785.398623682749
 20
1154.814901885746
 30
0.0
 11
2785.398623682749
 21
1024.856501885747
 31
0.0
  0
SOLID
  5
71D
330
718
100
AcDbEntity
  8
AM_5
100
AcDbTrace
 10
2784.231957016082
 20
1154.814901885746
 30
0.0
 11
2786.565290349415
 21
1154.814901885746
 31
0.0
 12
2785.398623682749
 22
1161.814901885746
 32
0.0
 13
2785.398623682749
 23
1161.814901885746
 33
0.0
  0
SOLID
  5
71E
330
718
100
AcDbEntity
  8
AM_5
100
AcDbTrace
 10
2784.231957016082
 20
1024.856501885747
 30
0.0
 11
2786.565290349415
 21
1024.856501885747
 31
0.0
 12
2785.398623682748
 22
1017.856501885747
 32
0.0
 13
2785.398623682748
 23
1017.856501885747
 33
0.0
  0
MTEXT
  5
71F
330
718
100
AcDbEntity
  8
AM_5
 62
     2
100
AcDbMText
 10
2778.898623682748
 20
1089.835701885747
 30
0.0
 40
10.0
 41
0.0
 71
     5
 72
     1
  1
144
 11
0.0000000000000001
 21
1.0
 31
0.0
 73
     1
 44
1.0
1001
ACAD
1000
MTEXTBEGIN
1070
    73
1070
     1
1070
    44
1040
1.0
1070
    74
1070
     0
1000
MTEXTEND
  0
POINT
  5
720
330
718
100
AcDbEntity
  8
Defpoints
 62
     0
100
AcDbPoint
 10
2744.006034897034
 20
1161.814901885746
 30
0.0
  0
POINT
  5
721
330
718
100
AcDbEntity
  8
Defpoints
 62
     0
100
AcDbPoint
 10
2744.006034897034
 20
1017.856501885747
 30
0.0
  0
POINT
  5
722
330
718
100
AcDbEntity
  8
Defpoints
 62
     0
100
AcDbPoint
 10
2785.398623682748
 20
1017.856501885747
 30
0.0
  0
ENDBLK
  5
723
330
718
100
AcDbEntity
  8
0
100
AcDbBlockEnd
  0
BLOCK
  5
725
330
724
100
AcDbEntity
  8
0
100
AcDbBlockBegin
  2
*D20
 70
     1
 10
0.0
 20
0.0
 30
0.0
  3
*D20
  1

  0
LINE
  5
726
330
724
100
AcDbEntity
  8
AM_5
  6
ByBlock
100
AcDbLine
 10
1981.734892039557
 20
1162.814901885746
 30
0.0
 11
1981.734892039557
 21
1220.841020425025
 31
0.0
  0
LINE
  5
727
330
724
100
AcDbEntity
  8
AM_5
  6
ByBlock
100
AcDbLine
 10
2741.716034897035
 20
1162.814901885745
 30
0.0
 11
2741.716034897035
 21
1220.841020425025
 31
0.0
  0
LINE
  5
728
330
724
100
AcDbEntity
  8
AM_5
  6
ByBlock
100
AcDbLine
 10
1988.734892039557
 20
1219.841020425026
 30
0.0
 11
2734.716034897035
 21
1219.841020425026
 31
0.0
  0
SOLID
  5
729
330
724
100
AcDbEntity
  8
AM_5
100
AcDbTrace
 10
1988.734892039557
 20
1221.007687091692
 30
0.0
 11
1988.734892039557
 21
1218.674353758359
 31
0.0
 12
1981.734892039557
 22
1219.841020425026
 32
0.0
 13
1981.734892039557
 23
1219.841020425026
 33
0.0
  0
SOLID
  5
72A
330
724
100
AcDbEntity
  8
AM_5
100
AcDbTrace
 10
2734.716034897035
 20
1221.007687091692
 30
0.0
 11
2734.716034897035
 21
1218.674353758359
 31
0.0
 12
2741.716034897035
 22
1219.841020425026
 32
0.0
 13
2741.716034897035
 23
1219.841020425026
 33
0.0
  0
MTEXT
  5
72B
330
724
100
AcDbEntity
  8
AM_5
 62
     2
100
AcDbMText
 10
2361.725463468296
 20
1226.341020425026
 30
0.0
 40
10.0
 41
0.0
 71
     5
 72
     1
  1
760
 73
     1
 44
1.0
1001
ACAD
1000
MTEXTBEGIN
1070
    73
1070
     1
1070
    44
1040
1.0
1070
    74
1070
     0
1000
MTEXTEND
  0
POINT
  5
72C
330
724
100
AcDbEntity
  8
Defpoints
 62
     0
100
AcDbPoint
 10
1981.734892039557
 20
1161.814901885746
 30
0.0
  0
POINT
  5
72D
330
724
100
AcDbEntity
  8
Defpoints
 62
     0
100
AcDbPoint
 10
2741.716034897035
 20
1161.814901885745
 30
0.0
  0
POINT
  5
72E
330
724
100
AcDbEntity
  8
Defpoints
 62
     0
100
AcDbPoint
 10
2741.716034897035
 20
1219.841020425026
 30
0.0
  0
ENDBLK
  5
72F
330
724
100
AcDbEntity
  8
0
100
AcDbBlockEnd
  0
BLOCK
  5
731
330
730
100
AcDbEntity
  8
0
100
AcDbBlockBegin
  2
*D21
 70
     1
 10
0.0
 20
0.0
 30
0.0
  3
*D21
  1

  0
LINE
  5
732
330
730
100
AcDbEntity
  8
AM_5
  6
ByBlock
100
AcDbLine
 10
2011.717749182663
 20
1132.432273314484
 30
0.0
 11
2011.717749182663
 21
1195.20301982792
 31
0.0
  0
LINE
  5
733
330
730
100
AcDbEntity
  8
AM_5
  6
ByBlock
100
AcDbLine
 10
2711.733177753929
 20
1132.432273314484
 30
0.0
 11
2711.733177753929
 21
1195.20301982792
 31
0.0
  0
LINE
  5
734
330
730
100
AcDbEntity
  8
AM_5
  6
ByBlock
100
AcDbLine
 10
2018.717749182664
 20
1194.20301982792
 30
0.0
 11
2704.733177753928
 21
1194.20301982792
 31
0.0
  0
SOLID
  5
735
330
730
100
AcDbEntity
  8
AM_5
100
AcDbTrace
 10
2018.717749182664
 20
1195.369686494586
 30
0.0
 11
2018.717749182664
 21
1193.036353161253
 31
0.0
 12
2011.717749182663
 22
1194.20301982792
 32
0.0
 13
2011.717749182663
 23
1194.20301982792
 33
0.0
  0
SOLID
  5
736
330
730
100
AcDbEntity
  8
AM_5
100
AcDbTrace
 10
2704.733177753928
 20
1195.369686494586
 30
0.0
 11
2704.733177753928
 21
1193.036353161253
 31
0.0
 12
2711.733177753929
 22
1194.20301982792
 32
0.0
 13
2711.733177753929
 23
1194.20301982792
 33
0.0
  0
MTEXT
  5
737
330
730
100
AcDbEntity
  8
AM_5
 62
     2
100
AcDbMText
 10
2361.725463468296
 20
1200.70301982792
 30
0.0
 40
10.0
 41
0.0
 71
     5
 72
     1
  1
700
 73
     1
 44
1.0
1001
ACAD
1000
MTEXTBEGIN
1070
    73
1070
     1
1070
    44
1040
1.0
1070
    74
1070
     0
1000
MTEXTEND
  0
POINT
  5
738
330
730
100
AcDbEntity
  8
Defpoints
 62
     0
100
AcDbPoint
 10
2011.717749182663
 20
1131.432273314484
 30
0.0
  0
POINT
  5
739
330
730
100
AcDbEntity
  8
Defpoints
 62
     0
100
AcDbPoint
 10
2711.733177753929
 20
1131.432273314484
 30
0.0
  0
POINT
  5
73A
330
730
100
AcDbEntity
  8
Defpoints
 62
     0
100
AcDbPoint
 10
2711.733177753929
 20
1194.20301982792
 30
0.0
  0
ENDBLK
  5
73B
330
730
100
AcDbEntity
  8
0
100
AcDbBlockEnd
  0
BLOCK
  5
76D
330
76C
100
AcDbEntity
  8
0
100
AcDbBlockBegin
  2
*D23
 70
     1
 10
0.0
 20
0.0
 30
0.0
  3
*D23
  1

  0
LINE
  5
76F
330
76C
100
AcDbEntity
  8
AM_5
  6
ByBlock
100
AcDbLine
 10
2079.515652024164
 20
360.9100589287738
 30
0.0
 11
2120.908240809878
 21
360.9100589287738
 31
0.0
  0
LINE
  5
770
330
76C
100
AcDbEntity
  8
AM_5
  6
ByBlock
100
AcDbLine
 10
2079.515652024164
 20
216.9516589287749
 30
0.0
 11
2120.908240809878
 21
216.9516589287749
 31
0.0
  0
LINE
  5
771
330
76C
100
AcDbEntity
  8
AM_5
  6
ByBlock
100
AcDbLine
 10
2119.908240809877
 20
353.9100589287738
 30
0.0
 11
2119.908240809877
 21
223.9516589287749
 31
0.0
  0
SOLID
  5
772
330
76C
100
AcDbEntity
  8
AM_5
100
AcDbTrace
 10
2118.741574143211
 20
353.9100589287738
 30
0.0
 11
2121.074907476544
 21
353.9100589287738
 31
0.0
 12
2119.908240809877
 22
360.9100589287738
 32
0.0
 13
2119.908240809877
 23
360.9100589287738
 33
0.0
  0
SOLID
  5
773
330
76C
100
AcDbEntity
  8
AM_5
100
AcDbTrace
 10
2118.741574143211
 20
223.9516589287749
 30
0.0
 11
2121.074907476544
 21
223.9516589287749
 31
0.0
 12
2119.908240809877
 22
216.9516589287749
 32
0.0
 13
2119.908240809877
 23
216.9516589287749
 33
0.0
  0
MTEXT
  5
774
330
76C
100
AcDbEntity
  8
AM_5
 62
     2
100
AcDbMText
 10
2113.408240809877
 20
288.9308589287747
 30
0.0
 40
10.0
 41
0.0
 71
     5
 72
     1
  1
144
 11
0.0000000000000001
 21
1.0
 31
0.0
 73
     1
 44
1.0
1001
ACAD
1000
MTEXTBEGIN
1070
    73
1070
     1
1070
    44
1040
1.0
1070
    74
1070
     0
1000
MTEXTEND
  0
POINT
  5
775
330
76C
100
AcDbEntity
  8
Defpoints
 62
     0
100
AcDbPoint
 10
2078.515652024164
 20
360.9100589287738
 30
0.0
  0
POINT
  5
776
330
76C
100
AcDbEntity
  8
Defpoints
 62
     0
100
AcDbPoint
 10
2078.515652024164
 20
216.9516589287749
 30
0.0
  0
POINT
  5
777
330
76C
100
AcDbEntity
  8
Defpoints
 62
     0
100
AcDbPoint
 10
2119.908240809877
 20
216.9516589287749
 30
0.0
  0
ENDBLK
  5
76E
330
76C
100
AcDbEntity
  8
0
100
AcDbBlockEnd
  0
BLOCK
  5
779
330
778
100
AcDbEntity
  8
0
100
AcDbBlockBegin
  2
*D24
 70
     1
 10
0.0
 20
0.0
 30
0.0
  3
*D24
  1

  0
LINE
  5
77B
330
778
100
AcDbEntity
  8
AM_5
  6
ByBlock
100
AcDbLine
 10
1316.244509166687
 20
361.9100589287738
 30
0.0
 11
1316.244509166687
 21
419.9361774680538
 31
0.0
  0
LINE
  5
77C
330
778
100
AcDbEntity
  8
AM_5
  6
ByBlock
100
AcDbLine
 10
2076.225652024165
 20
361.9100589287729
 30
0.0
 11
2076.225652024165
 21
419.9361774680538
 31
0.0
  0
LINE
  5
77D
330
778
100
AcDbEntity
  8
AM_5
  6
ByBlock
100
AcDbLine
 10
1323.244509166686
 20
418.9361774680539
 30
0.0
 11
2069.225652024165
 21
418.9361774680539
 31
0.0
  0
SOLID
  5
77E
330
778
100
AcDbEntity
  8
AM_5
100
AcDbTrace
 10
1323.244509166686
 20
420.1028441347205
 30
0.0
 11
1323.244509166686
 21
417.7695108013871
 31
0.0
 12
1316.244509166687
 22
418.9361774680539
 32
0.0
 13
1316.244509166687
 23
418.9361774680539
 33
0.0
  0
SOLID
  5
77F
330
778
100
AcDbEntity
  8
AM_5
100
AcDbTrace
 10
2069.225652024165
 20
420.1028441347205
 30
0.0
 11
2069.225652024165
 21
417.7695108013871
 31
0.0
 12
2076.225652024165
 22
418.9361774680539
 32
0.0
 13
2076.225652024165
 23
418.9361774680539
 33
0.0
  0
MTEXT
  5
780
330
778
100
AcDbEntity
  8
AM_5
 62
     2
100
AcDbMText
 10
1696.235080595425
 20
425.4361774680538
 30
0.0
 40
10.0
 41
0.0
 71
     5
 72
     1
  1
760
 73
     1
 44
1.0
1001
ACAD
1000
MTEXTBEGIN
1070
    73
1070
     1
1070
    44
1040
1.0
1070
    74
1070
     0
1000
MTEXTEND
  0
POINT
  5
781
330
778
100
AcDbEntity
  8
Defpoints
 62
     0
100
AcDbPoint
 10
1316.244509166687
 20
360.9100589287738
 30
0.0
  0
POINT
  5
782
330
778
100
AcDbEntity
  8
Defpoints
 62
     0
100
AcDbPoint
 10
2076.225652024165
 20
360.9100589287729
 30
0.0
  0
POINT
  5
783
330
778
100
AcDbEntity
  8
Defpoints
 62
     0
100
AcDbPoint
 10
2076.225652024165
 20
418.9361774680539
 30
0.0
  0
ENDBLK
  5
77A
330
778
100
AcDbEntity
  8
0
100
AcDbBlockEnd
  0
BLOCK
  5
785
330
784
100
AcDbEntity
  8
0
100
AcDbBlockBegin
  2
*D25
 70
     1
 10
0.0
 20
0.0
 30
0.0
  3
*D25
  1

  0
LINE
  5
787
330
784
100
AcDbEntity
  8
AM_5
  6
ByBlock
100
AcDbLine
 10
1346.227366309793
 20
331.5274303575117
 30
0.0
 11
1346.227366309793
 21
394.2981768709477
 31
0.0
  0
LINE
  5
788
330
784
100
AcDbEntity
  8
AM_5
  6
ByBlock
100
AcDbLine
 10
2046.242794881059
 20
331.5274303575117
 30
0.0
 11
2046.242794881059
 21
394.2981768709477
 31
0.0
  0
LINE
  5
789
330
784
100
AcDbEntity
  8
AM_5
  6
ByBlock
100
AcDbLine
 10
1353.227366309793
 20
393.2981768709477
 30
0.0
 11
2039.242794881059
 21
393.2981768709477
 31
0.0
  0
SOLID
  5
78A
330
784
100
AcDbEntity
  8
AM_5
100
AcDbTrace
 10
1353.227366309793
 20
394.4648435376144
 30
0.0
 11
1353.227366309793
 21
392.1315102042811
 31
0.0
 12
1346.227366309793
 22
393.2981768709477
 32
0.0
 13
1346.227366309793
 23
393.2981768709477
 33
0.0
  0
SOLID
  5
78B
330
784
100
AcDbEntity
  8
AM_5
100
AcDbTrace
 10
2039.242794881059
 20
394.4648435376144
 30
0.0
 11
2039.242794881059
 21
392.1315102042811
 31
0.0
 12
2046.242794881059
 22
393.2981768709477
 32
0.0
 13
2046.242794881059
 23
393.2981768709477
 33
0.0
  0
MTEXT
  5
78C
330
784
100
AcDbEntity
  8
AM_5
 62
     2
100
AcDbMText
 10
1696.235080595426
 20
399.7981768709477
 30
0.0
 40
10.0
 41
0.0
 71
     5
 72
     1
  1
700
 73
     1
 44
1.0
1001
ACAD
1000
MTEXTBEGIN
1070
    73
1070
     1
1070
    44
1040
1.0
1070
    74
1070
     0
1000
MTEXTEND
  0
POINT
  5
78D
330
784
100
AcDbEntity
  8
Defpoints
 62
     0
100
AcDbPoint
 10
1346.227366309793
 20
330.5274303575117
 30
0.0
  0
POINT
  5
78E
330
784
100
AcDbEntity
  8
Defpoints
 62
     0
100
AcDbPoint
 10
2046.242794881059
 20
330.5274303575117
 30
0.0
  0
POINT
  5
78F
330
784
100
AcDbEntity
  8
Defpoints
 62
     0
100
AcDbPoint
 10
2046.242794881059
 20
393.2981768709477
 30
0.0
  0
ENDBLK
  5
786
330
784
100
AcDbEntity
  8
0
100
AcDbBlockEnd
  0
ENDSEC
  0
SECTION
  2
ENTITIES
  0
LINE
  5
58F
330
1F
100
AcDbEntity
  8
0
  6
Continuous
 62
     7
100
AcDbLine
 10
-49.99999876175048
 20
420.1747082704895
 30
0.0
 11
-49.99999876175048
 21
419.1752796992274
 31
0.0
  0
LINE
  5
590
330
1F
100
AcDbEntity
  8
0
  6
Continuous
 62
     7
100
AcDbLine
 10
-20.01714161864425
 20
421.1741368423355
 30
0.0
 11
-20.01714161864425
 21
434.1667082704894
 31
0.0
  0
LINE
  5
591
330
1F
100
AcDbEntity
  8
0
  6
Continuous
 62
     7
100
AcDbLine
 10
-19.01771304738032
 20
335.2232796992276
 30
0.0
 11
-19.01771304738032
 21
363.5666114398695
 31
0.0
  0
LINE
  5
592
330
1F
100
AcDbEntity
  8
0
  6
Continuous
 62
     7
100
AcDbLine
 10
-19.01771304738032
 20
363.5666114398695
 30
0.0
 11
-19.01771304737941
 21
419.1752796992274
 31
0.0
  0
LINE
  5
593
330
1F
100
AcDbEntity
  8
0
  6
Continuous
 62
     7
100
AcDbLine
 10
-19.01771304737941
 20
420.1747082704895
 30
0.0
 11
-19.01771304738032
 21
434.1667082704894
 31
0.0
  0
LINE
  5
594
330
1F
100
AcDbEntity
  8
0
  6
Continuous
 62
     7
100
AcDbLine
 10
-21.8082844761184
 20
420.1747082704895
 30
0.0
 11
-21.8082844761184
 21
419.1752796992274
 31
0.0
  0
LINE
  5
595
330
1F
100
AcDbEntity
  8
0
  6
Continuous
 62
     7
100
AcDbLine
 10
-18.01828447611843
 20
335.2232796992276
 30
0.0
 11
-18.01828447611843
 21
312.2364225567036
 31
0.0
  0
LINE
  5
596
330
1F
100
AcDbEntity
  8
0
  6
Continuous
 62
     7
100
AcDbLine
 10
-18.01828447611843
 20
335.2232796992276
 30
0.0
 11
-18.01828447611843
 21
363.5666114398695
 31
0.0
  0
LINE
  5
597
330
1F
100
AcDbEntity
  8
0
  6
Continuous
 62
     7
100
AcDbLine
 10
-18.01828447611843
 20
363.5666114398695
 30
0.0
 11
-18.01828447611843
 21
419.1752796992274
 31
0.0
  0
LINE
  5
598
330
1F
100
AcDbEntity
  8
0
  6
Continuous
 62
     7
100
AcDbLine
 10
-18.01828447611843
 20
420.1747082704895
 30
0.0
 11
-18.01828447611843
 21
435.1660919355937
 31
0.0
  0
LINE
  5
599
330
1F
100
AcDbEntity
  8
0
  6
Continuous
 62
     7
100
AcDbLine
 10
-16.01942733301235
 20
390.1918511279654
 30
0.0
 11
-16.01942733301235
 21
368.9666114398696
 31
0.0
1001
GENIUS_GENOREF_13
1005
6BC
  0
LINE
  5
59A
330
1F
100
AcDbEntity
  8
0
  6
Continuous
 62
     7
100
AcDbLine
 10
43.94628695261962
 20
310.2375654135966
 30
0.0
 11
43.94628695261962
 21
308.2387082704896
 31
0.0
  0
LINE
  5
59B
330
1F
100
AcDbEntity
  8
0
  6
Continuous
 62
     7
100
AcDbLine
 10
-14.02057019048812
 20
308.2387082704896
 30
0.0
 11
43.94628695261962
 21
308.2387082704896
 31
0.0
  0
LINE
  5
59C
330
1F
100
AcDbEntity
  8
0
  6
Continuous
 62
     7
100
AcDbLine
 10
-14.02057019048812
 20
310.2375654135966
 30
0.0
 11
43.94628695261962
 21
310.2375654135966
 31
0.0
  0
LINE
  5
59D
330
1F
100
AcDbEntity
  8
0
  6
Continuous
 62
     7
100
AcDbLine
 10
343.0098533484238
 20
409.7984220051224
 30
0.0
 11
343.0117153903734
 21
409.7374432005766
 31
0.0
  0
LINE
  5
59E
330
1F
100
AcDbEntity
  8
0
  6
Continuous
 62
     7
100
AcDbLine
 10
342.5120012382486
 20
404.1838511279655
 30
0.0
 11
342.5120012382486
 21
334.7235654135965
 31
0.0
  0
LINE
  5
59F
330
1F
100
AcDbEntity
  8
0
  6
Continuous
 62
     7
100
AcDbLine
 10
343.0117155238818
 20
409.7374423272425
 30
0.0
 11
343.0117155238818
 21
404.1838511279655
 31
0.0
  0
LINE
  5
5A0
330
1F
100
AcDbEntity
  8
0
  6
Continuous
 62
     7
100
AcDbLine
 10
379.9905726669885
 20
328.2272796992276
 30
0.0
 11
349.0082869526204
 21
328.2272796992276
 31
0.0
  0
LINE
  5
5A1
330
1F
100
AcDbEntity
  8
0
  6
Continuous
 62
     7
100
AcDbLine
 10
-18.01828447611843
 20
335.2232796992276
 30
0.0
 11
-19.01771304738032
 21
335.2232796992276
 31
0.0
  0
LINE
  5
5A2
330
1F
100
AcDbEntity
  8
0
  6
Continuous
 62
     7
100
AcDbLine
 10
342.999086804085
 20
409.8958195440656
 30
0.0
 11
343.0098533484238
 21
409.7984220051224
 31
0.0
  0
LINE
  5
5A3
330
1F
100
AcDbEntity
  8
0
  6
Continuous
 62
     7
100
AcDbLine
 10
-18.01828447611843
 20
390.1918511279654
 30
0.0
 11
-16.01942733301235
 21
390.1918511279654
 31
0.0
  0
LINE
  5
5A4
330
1F
100
AcDbEntity
  8
0
  6
Continuous
 62
     7
100
AcDbLine
 10
342.5119728840459
 20
404.1838511279655
 30
0.0
 11
379.9905726669885
 21
404.1838511279655
 31
0.0
  0
LINE
  5
5A5
330
1F
100
AcDbEntity
  8
0
  6
Continuous
 62
     7
100
AcDbLine
 10
-18.01828447611843
 20
410.7368708985044
 30
0.0
 11
379.9905726669885
 21
410.7368708985044
 31
0.0
  0
LINE
  5
5A6
330
1F
100
AcDbEntity
  8
0
  6
Continuous
 62
     7
100
AcDbLine
 10
-19.51828447611843
 20
419.1752796992274
 30
0.0
 11
-49.99999876175048
 21
419.1752796992274
 31
0.0
  0
LINE
  5
5A7
330
1F
100
AcDbEntity
  8
0
  6
Continuous
 62
     7
100
AcDbLine
 10
-21.8082844761184
 20
419.1752796992274
 30
0.0
 11
379.9905726669885
 21
419.1752796992274
 31
0.0
  0
LINE
  5
5A8
330
1F
100
AcDbEntity
  8
0
  6
Continuous
 62
     7
100
AcDbLine
 10
-19.51828447611843
 20
420.1747082704895
 30
0.0
 11
-49.99999876175048
 21
420.1747082704895
 31
0.0
  0
LINE
  5
5A9
330
1F
100
AcDbEntity
  8
0
  6
Continuous
 62
     7
100
AcDbLine
 10
-21.8082844761184
 20
420.1747082704895
 30
0.0
 11
379.9905726669885
 21
420.1747082704894
 31
0.0
  0
LWPOLYLINE
  5
5AA
330
1F
100
AcDbEntity
  8
0
  6
Continuous
 62
     7
100
AcDbPolyline
 90
       16
 70
     0
 43
0.0
 10
342.0122869526199
 20
410.7368710734045
 10
342.0477298021487
 20
410.7362424198405
 10
342.1456001861557
 20
410.7279398801123
 10
342.2421796641625
 20
410.7100713178073
 10
342.3365377944005
 20
410.6828095510324
 10
342.4277654396797
 20
410.6464172440274
 10
342.5149834803046
 20
410.6012443547816
 10
342.5973505172647
 20
410.5477251978926
 10
342.6740739673105
 20
410.4863719703415
 10
342.7444053033319
 20
410.4177807260815
 10
342.8076635953189
 20
410.3426146678394
 10
342.8632298167859
 20
410.2616119126775
 10
342.9105654949458
 20
410.1755668727165
 10
342.9492157603686
 20
410.0853242187644
 10
342.9788144179288
 20
409.9917688958483
 10
342.999086804085
 20
409.8958195440656
  0
LINE
  5
5AB
330
1F
100
AcDbEntity
  8
0
  6
Continuous
 62
     7
100
AcDbLine
 10
379.9905726669885
 20
435.1661368420862
 30
0.0
 11
-19.01771304738032
 21
435.1661368417536
 31
0.0
  0
LINE
  5
5AC
102
{ACAD_REACTORS
330
65C
102
}
330
1F
100
AcDbEntity
  8
0
  6
Continuous
 62
     7
100
AcDbLine
 10
-49.99999876175047
 20
169.9232007249464
 30
0.0
 11
-49.99999876174911
 21
25.96480072494762
 31
0.0
  0
LINE
  5
5AD
102
{ACAD_REACTORS
330
65F
102
}
330
1F
100
AcDbEntity
  8
0
  6
Continuous
 62
     7
100
AcDbLine
 10
-20.01714161864424
 20
56.34742929679157
 30
0.0
 11
-20.01714161864424
 21
139.5405721536843
 31
0.0
  0
LINE
  5
5AE
330
1F
100
AcDbEntity
  8
0
  6
Continuous
 62
     7
100
AcDbLine
 10
-18.01828447611933
 20
25.96480072494649
 30
0.0
 11
-18.01828447611842
 21
169.9232007249464
 31
0.0
  0
LINE
  5
5AF
330
1F
100
AcDbEntity
  8
0
  6
Continuous
 62
     7
100
AcDbLine
 10
355.0048583813564
 20
0.000000724946176
 30
0.0
 11
379.9905726669885
 21
0.000000724946176
 31
0.0
  0
LINE
  5
5B0
330
1F
100
AcDbEntity
  8
0
  6
Continuous
 62
     7
100
AcDbLine
 10
28.19171552388161
 20
25.96480072494762
 30
0.0
 11
0.0000012382495242
 21
25.96480072494649
 31
0.0
  0
LINE
  5
5B1
330
1F
100
AcDbEntity
  8
0
  6
Continuous
 62
     7
100
AcDbLine
 10
-49.99999876174911
 20
25.96480072494763
 30
0.0
 11
379.9905726669885
 21
25.96480072494762
 31
0.0
  0
LINE
  5
5B2
330
1F
100
AcDbEntity
  8
0
  6
Continuous
 62
     7
100
AcDbLine
 10
355.0048583813564
 20
0.000000724946176
 30
0.0
 11
355.0048583813564
 21
26.58480072494649
 31
0.0
  0
LINE
  5
5B3
330
1F
100
AcDbEntity
  8
0
  6
Continuous
 62
     7
100
AcDbLine
 10
379.9905726669885
 20
55.94765786805362
 30
0.0
 11
-18.01828447611914
 21
55.94765786805362
 31
0.0
  0
LINE
  5
5B4
330
1F
100
AcDbEntity
  8
0
  6
Continuous
 62
     7
100
AcDbLine
 10
-20.01714161864424
 20
56.34742929679157
 30
0.0
 11
-18.01828447611842
 21
56.34742929679157
 31
0.0
  0
LINE
  5
5B5
330
1F
100
AcDbEntity
  8
0
  6
Continuous
 62
     7
100
AcDbLine
 10
379.9905726669885
 20
57.94651501116061
 30
0.0
 11
-18.01828447611912
 21
57.94651501116061
 31
0.0
  0
LINE
  5
5B6
330
1F
100
AcDbEntity
  8
0
  6
Continuous
 62
     7
100
AcDbLine
 10
379.9905726669885
 20
137.9414864393155
 30
0.0
 11
-18.01828447611862
 21
137.9414864393155
 31
0.0
  0
LINE
  5
5B7
330
1F
100
AcDbEntity
  8
0
  6
Continuous
 62
     7
100
AcDbLine
 10
-20.01714161864424
 20
139.5405721536843
 30
0.0
 11
-18.01828447611842
 21
139.5405721536843
 31
0.0
  0
LINE
  5
5B8
330
1F
100
AcDbEntity
  8
0
  6
Continuous
 62
     7
100
AcDbLine
 10
777.9994298100957
 20
139.9403435824225
 30
0.0
 11
-18.0182844761186
 21
139.9403435824225
 31
0.0
  0
LINE
  5
5B9
330
1F
100
AcDbEntity
  8
0
  6
Continuous
 62
     7
100
AcDbLine
 10
28.19171552388161
 20
169.9232007249464
 30
0.0
 11
-49.99999876175047
 21
169.9232007249439
 31
0.0
  0
LINE
  5
5BA
330
1F
100
AcDbEntity
  8
0
  6
Continuous
 62
     7
100
AcDbLine
 10
28.19171552388161
 20
169.9232007249464
 30
0.0
 11
379.9905726669885
 21
169.9232007249464
 31
0.0
  0
ARC
  5
5BB
330
1F
100
AcDbEntity
  8
0
  6
Continuous
 62
     7
100
AcDbCircle
 10
379.9905726669885
 20
371.2027082704896
 30
0.0
 40
24.985714285631
100
AcDbArc
 50
90.0
 51
270.0
  0
ARC
  5
5BC
330
1F
100
AcDbEntity
  8
0
  6
Continuous
 62
     7
100
AcDbCircle
 10
379.9905726669885
 20
371.2027082704896
 30
0.0
 40
23.48657142873801
100
AcDbArc
 50
90.0
 51
270.0
  0
ARC
  5
5BD
330
1F
100
AcDbEntity
  8
0
  6
Continuous
 62
     7
100
AcDbCircle
 10
-21.01657019048822
 20
421.1741368423355
 30
0.0
 40
1.998857143106999
100
AcDbArc
 50
329.961692624401
 51
0.0
  0
ARC
  5
5BE
330
1F
100
AcDbEntity
  8
0
  6
Continuous
 62
     7
100
AcDbCircle
 10
-14.02057019048812
 20
312.2364225567036
 30
0.0
 40
3.997714285630998
100
AcDbArc
 50
180.0
 51
270.0
  0
ARC
  5
5BF
330
1F
100
AcDbEntity
  8
0
  6
Continuous
 62
     7
100
AcDbCircle
 10
349.0082869526204
 20
334.7235654135965
 30
0.0
 40
6.496285714368996
100
AcDbArc
 50
180.0
 51
270.0
  0
ARC
  5
5C0
330
1F
100
AcDbEntity
  8
0
  6
Continuous
 62
     7
100
AcDbCircle
 10
379.9905726669885
 20
371.2027082704896
 30
0.0
 40
25.085657143107
100
AcDbArc
 50
90.0
 51
270.0
  0
ARC
  5
5C1
330
1F
100
AcDbEntity
  8
0
  6
Continuous
 62
     7
100
AcDbCircle
 10
-19.01771304738032
 20
434.1667082704894
 30
0.0
 40
0.9994285712619999
100
AcDbArc
 50
0.0
 51
180.0
  0
ARC
  5
5C2
330
1F
100
AcDbEntity
  8
0
  6
Continuous
 62
     7
100
AcDbCircle
 10
-21.01657019048822
 20
421.1741368423355
 30
0.0
 40
0.9994285712619999
100
AcDbArc
 50
270.0
 51
0.0
  0
ARC
  5
5C3
330
1F
100
AcDbEntity
  8
0
  6
Continuous
 62
     7
100
AcDbCircle
 10
-14.02057019048812
 20
312.2364225567036
 30
0.0
 40
1.998857143106999
100
AcDbArc
 50
180.0
 51
270.0
  0
ARC
  5
5C4
330
1F
100
AcDbEntity
  8
0
  6
Continuous
 62
     7
100
AcDbCircle
 10
379.9905726669885
 20
97.94400072494648
 30
0.0
 40
35.97942857126201
100
AcDbArc
 50
90.0
 51
270.0
  0
LINE
  5
5C5
330
1F
100
AcDbEntity
  8
AM_7
100
AcDbLine
 10
379.9905726669885
 20
371.2027082704896
 30
0.0
 11
405.0762298100957
 21
371.2027082704896
 31
0.0
1001
GENIUS_GENOREF_13
1005
6BB
  0
LINE
  5
5C6
330
1F
100
AcDbEntity
  8
AM_7
100
AcDbLine
 10
379.9905726669885
 20
371.2027082704896
 30
0.0
 11
379.9905726669885
 21
440.6275558084877
 31
0.0
1001
GENIUS_GENOREF_13
1005
6BB
  0
LINE
  5
5C7
330
1F
100
AcDbEntity
  8
AM_7
100
AcDbLine
 10
379.9905726669885
 20
371.2027082704896
 30
0.0
 11
354.9049155238817
 21
371.2027082704896
 31
0.0
1001
GENIUS_GENOREF_13
1005
6BB
  0
LINE
  5
5C8
330
1F
100
AcDbEntity
  8
AM_7
100
AcDbLine
 10
379.9905726669885
 20
371.2027082704896
 30
0.0
 11
379.9905726669885
 21
324.3286167910136
 31
0.0
1001
GENIUS_GENOREF_13
1005
6BB
  0
ARC
  5
5C9
330
1F
100
AcDbEntity
  8
0
100
AcDbCircle
 10
379.9905726669885
 20
97.94400072494648
 30
0.0
 40
17.5
100
AcDbArc
 50
90.0
 51
270.0
  0
ARC
  5
5CA
330
1F
100
AcDbEntity
  8
0
100
AcDbCircle
 10
379.9905726669885
 20
97.94400072494648
 30
0.0
 40
30.0
100
AcDbArc
 50
90.0
 51
270.0
  0
LINE
  5
5CB
330
1F
100
AcDbEntity
  8
0
100
AcDbLine
 10
380.9905726669886
 20
115.4154059346025
 30
0.0
 11
380.9905726669886
 21
80.47259551529066
 31
0.0
  0
LINE
  5
5CC
330
1F
100
AcDbEntity
  8
0
100
AcDbLine
 10
378.9905726669886
 20
115.4154059346025
 30
0.0
 11
378.9905726669886
 21
80.47259551529066
 31
0.0
  0
LINE
  5
5CD
330
1F
100
AcDbEntity
  8
0
100
AcDbLine
 10
964.2906130364153
 20
434.2272796992273
 30
0.0
 11
964.2906130363794
 21
421.2272796992234
 31
0.0
  0
LINE
  5
5CE
330
1F
100
AcDbEntity
  8
0
100
AcDbLine
 10
1047.290613036382
 20
435.2272796993376
 30
0.0
 11
965.2906047427618
 21
435.2272796992287
 31
0.0
  0
LINE
  5
5CF
330
1F
100
AcDbEntity
  8
0
100
AcDbLine
 10
965.2906130364458
 20
416.1474125807904
 30
0.0
 11
965.2906130363916
 21
434.2272796992286
 31
0.0
  0
LINE
  5
5D0
330
1F
100
AcDbEntity
  8
0
100
AcDbLine
 10
966.2906130364431
 20
416.1474125807996
 30
0.0
 11
966.290613036493
 21
434.2272796992225
 31
0.0
  0
LINE
  5
5D1
330
1F
100
AcDbEntity
  8
0
100
AcDbLine
 10
963.2906130363808
 20
420.2272796992263
 30
0.0
 11
934.2906130364076
 21
420.2272796992004
 31
0.0
  0
LINE
  5
5D2
330
1F
100
AcDbEntity
  8
0
100
AcDbLine
 10
963.2906130364316
 20
419.2272796992264
 30
0.0
 11
934.2906130364058
 21
419.2272796992004
 31
0.0
  0
LINE
  5
5D3
330
1F
100
AcDbEntity
  8
0
100
AcDbLine
 10
968.4567039960956
 20
415.0467721192616
 30
0.0
 11
967.2075675565906
 21
415.1508668225516
 31
0.0
  0
LINE
  5
5D4
330
1F
100
AcDbEntity
  8
0
100
AcDbLine
 10
1078.290613036379
 20
420.2272796991905
 30
0.0
 11
1078.290613036382
 21
419.2272796991995
 31
0.0
  0
LINE
  5
5D5
330
1F
100
AcDbEntity
  8
0
100
AcDbLine
 10
1049.290613036354
 20
419.2272796992264
 30
0.0
 11
1078.290613036382
 21
419.2272796992013
 31
0.0
  0
LINE
  5
5D6
330
1F
100
AcDbEntity
  8
0
100
AcDbLine
 10
1049.290613036404
 20
420.2272796992263
 30
0.0
 11
1078.290613036379
 21
420.2272796992014
 31
0.0
  0
LINE
  5
5D7
330
1F
100
AcDbEntity
  8
0
100
AcDbLine
 10
1044.124522076683
 20
415.0467721192593
 30
0.0
 11
1045.373658516194
 21
415.1508668225516
 31
0.0
  0
LINE
  5
5D8
330
1F
100
AcDbEntity
  8
0
100
AcDbLine
 10
1047.29061303634
 20
416.1474125807904
 30
0.0
 11
1047.290613036395
 21
434.2272796993376
 31
0.0
  0
LINE
  5
5D9
330
1F
100
AcDbEntity
  8
0
100
AcDbLine
 10
1046.29061303634
 20
416.1474125807925
 30
0.0
 11
1046.290613036397
 21
434.2272796993366
 31
0.0
  0
LINE
  5
5DA
330
1F
100
AcDbEntity
  8
0
100
AcDbLine
 10
1048.29061303637
 20
434.2272796993366
 30
0.0
 11
1048.290613036406
 21
421.2272796992234
 31
0.0
  0
LINE
  5
5DB
330
1F
100
AcDbEntity
  8
7A
100
AcDbLine
 10
1006.290613036454
 20
322.3555446777215
 30
0.0
 11
1006.290613036433
 21
351.8101193614426
 31
0.0
1001
GENIUS_GENOBJ-N-CEN_13
1002
{
1000
OWNER
1000
GEN
1002
}
1001
GENIUS_GENODEF_13
1002
{
1000
HIER
1070
     0
1002
}
1002
{
1000
MANEDIT
1070
     0
1002
}
1002
{
1000
NOSEL
1070
     0
1002
}
1002
{
1000
BEHIND
1070
     0
1002
}
1002
{
1000
OTHER
1070
     0
1002
}
1002
{
1000
REACTOR
1002
}
  0
LINE
  5
5DC
330
1F
100
AcDbEntity
  8
7A
100
AcDbLine
 10
1006.290613036433
 20
351.8101193614426
 30
0.0
 11
1006.290613036407
 21
440.6963003058325
 31
0.0
1001
GENIUS_GENOBJ-N-CEN_13
1002
{
1000
OWNER
1000
GEN
1002
}
1001
GENIUS_GENODEF_13
1002
{
1000
HIER
1070
     0
1002
}
1002
{
1000
MANEDIT
1070
     0
1002
}
1002
{
1000
NOSEL
1070
     0
1002
}
1002
{
1000
BEHIND
1070
     0
1002
}
1002
{
1000
OTHER
1070
     0
1002
}
1002
{
1000
REACTOR
1002
}
  0
LINE
  5
5DD
330
1F
100
AcDbEntity
  8
0
100
AcDbLine
 10
968.29061303639
 20
403.2272796992272
 30
0.0
 11
968.2906130363885
 21
336.2027082703786
 31
0.0
1001
GENIUS_GENODEF_13
1002
{
1000
HIER
1070
     0
1002
}
1002
{
1000
MANEDIT
1070
     0
1002
}
1002
{
1000
NOSEL
1070
     0
1002
}
1002
{
1000
BEHIND
1070
     0
1002
}
1002
{
1000
REACTOR
1002
}
1001
GENIUS_GENOBJ-N-CEN_13
1002
{
1000
OWNER
1000
GEN
1002
}
  0
LINE
  5
5DE
330
1F
100
AcDbEntity
  8
0
100
AcDbLine
 10
1044.29061303639
 20
403.2272796992272
 30
0.0
 11
1044.29061303639
 21
396.2027082704896
 31
0.0
1001
GENIUS_GENODEF_13
1002
{
1000
HIER
1070
     0
1002
}
1002
{
1000
MANEDIT
1070
     0
1002
}
1002
{
1000
NOSEL
1070
     0
1002
}
1002
{
1000
BEHIND
1070
     0
1002
}
1002
{
1000
REACTOR
1002
}
1001
GENIUS_GENOBJ-N-CEN_13
1002
{
1000
OWNER
1000
GEN
1002
}
  0
LINE
  5
5DF
330
1F
100
AcDbEntity
  8
7A
100
AcDbLine
 10
1037.078784772892
 20
371.2027082704896
 30
0.0
 11
1109.665788644112
 21
371.2027082704896
 31
0.0
1001
GENIUS_GENOBJ-N-CEN_13
1002
{
1000
OWNER
1000
GEN
1002
}
1001
GENIUS_GENODEF_13
1002
{
1000
HIER
1070
     0
1002
}
1002
{
1000
MANEDIT
1070
     0
1002
}
1002
{
1000
NOSEL
1070
     0
1002
}
1002
{
1000
BEHIND
1070
     0
1002
}
1002
{
1000
OTHER
1070
     0
1002
}
1002
{
1000
REACTOR
1002
}
  0
LINE
  5
5E0
330
1F
100
AcDbEntity
  8
0
100
AcDbLine
 10
975.2906130363886
 20
329.2027082703777
 30
0.0
 11
1037.29061303639
 21
329.2027082703777
 31
0.0
  0
LINE
  5
5E1
330
1F
100
AcDbEntity
  8
0
100
AcDbLine
 10
1104.29061303639
 20
396.2027082704896
 30
0.0
 11
1104.29061303639
 21
346.2027082704896
 31
0.0
1001
GENIUS_GENODEF_13
1002
{
1000
HIER
1070
     0
1002
}
1002
{
1000
MANEDIT
1070
     0
1002
}
1002
{
1000
NOSEL
1070
     0
1002
}
1002
{
1000
BEHIND
1070
     0
1002
}
1002
{
1000
REACTOR
1002
}
1001
GENIUS_GENOBJ-N-CEN_13
1002
{
1000
OWNER
1000
GEN
1002
}
  0
LINE
  5
5E2
330
1F
100
AcDbEntity
  8
0
100
AcDbLine
 10
1042.29061303639
 20
396.2027082704896
 30
0.0
 11
1104.29061303639
 21
396.2027082704896
 31
0.0
1001
GENIUS_GENOBJ-N-CEN_13
1002
{
1000
OWNER
1000
GEN
1002
}
1001
GENIUS_GENODEF_13
1002
{
1000
HIER
1070
     0
1002
}
1002
{
1000
MANEDIT
1070
     0
1002
}
1002
{
1000
NOSEL
1070
     0
1002
}
1002
{
1000
BEHIND
1070
     0
1002
}
1002
{
1000
OTHER
1070
     0
1002
}
1002
{
1000
REACTOR
1002
}
  0
LINE
  5
5E3
330
1F
100
AcDbEntity
  8
0
100
AcDbLine
 10
1042.29061303639
 20
346.2027082704896
 30
0.0
 11
1104.29061303639
 21
346.2027082704896
 31
0.0
1001
GENIUS_GENOBJ-N-CEN_13
1002
{
1000
OWNER
1000
GEN
1002
}
1001
GENIUS_GENODEF_13
1002
{
1000
HIER
1070
     0
1002
}
1002
{
1000
MANEDIT
1070
     0
1002
}
1002
{
1000
NOSEL
1070
     0
1002
}
1002
{
1000
BEHIND
1070
     0
1002
}
1002
{
1000
OTHER
1070
     0
1002
}
1002
{
1000
REACTOR
1002
}
  0
ARC
  5
5E4
330
1F
100
AcDbEntity
  8
0
100
AcDbCircle
 10
1093.373946369723
 20
371.2027082704896
 30
0.0
 40
55.08333333333284
100
AcDbArc
 50
154.7463521009165
 51
205.2536478990834
  0
LINE
  5
5E5
330
1F
100
AcDbEntity
  8
0
100
AcDbLine
 10
1044.29061303639
 20
346.2027082704896
 30
0.0
 11
1044.29061303639
 21
336.2027082703786
 31
0.0
1001
GENIUS_GENODEF_13
1002
{
1000
HIER
1070
     0
1002
}
1002
{
1000
MANEDIT
1070
     0
1002
}
1002
{
1000
NOSEL
1070
     0
1002
}
1002
{
1000
BEHIND
1070
     0
1002
}
1002
{
1000
REACTOR
1002
}
1001
GENIUS_GENOBJ-N-CEN_13
1002
{
1000
OWNER
1000
GEN
1002
}
  0
LINE
  5
5E6
330
1F
100
AcDbEntity
  8
0
100
AcDbLine
 10
1043.555038201127
 20
394.7027082704896
 30
0.0
 11
1104.29061303639
 21
394.7027082704896
 31
0.0
1001
GENIUS_GENOBJ-N-CEN_13
1002
{
1000
OWNER
1000
GEN
1002
}
1001
GENIUS_GENODEF_13
1002
{
1000
HIER
1070
     0
1002
}
1002
{
1000
MANEDIT
1070
     0
1002
}
1002
{
1000
NOSEL
1070
     0
1002
}
1002
{
1000
BEHIND
1070
     0
1002
}
1002
{
1000
OTHER
1070
     0
1002
}
1002
{
1000
REACTOR
1002
}
  0
LINE
  5
5E7
330
1F
100
AcDbEntity
  8
0
100
AcDbLine
 10
1043.555038201127
 20
347.7027082704895
 30
0.0
 11
1104.29061303639
 21
347.7027082704895
 31
0.0
1001
GENIUS_GENOBJ-N-CEN_13
1002
{
1000
OWNER
1000
GEN
1002
}
1001
GENIUS_GENODEF_13
1002
{
1000
HIER
1070
     0
1002
}
1002
{
1000
MANEDIT
1070
     0
1002
}
1002
{
1000
NOSEL
1070
     0
1002
}
1002
{
1000
BEHIND
1070
     0
1002
}
1002
{
1000
OTHER
1070
     0
1002
}
1002
{
1000
REACTOR
1002
}
  0
ARC
  5
5E8
330
1F
100
AcDbEntity
  8
0
100
AcDbCircle
 10
1102.31325261233
 20
371.2027082704896
 30
0.0
 40
65.02089865314991
100
AcDbArc
 50
157.3878080414792
 51
202.6121919585146
  0
LINE
  5
5E9
330
1F
100
AcDbEntity
  8
0
100
AcDbLine
 10
1042.29061303639
 20
396.2027082704896
 30
0.0
 11
1043.555038201127
 21
394.7027082704896
 31
0.0
  0
LINE
  5
5EA
330
1F
100
AcDbEntity
  8
0
100
AcDbLine
 10
1042.29061303639
 20
346.2027082704896
 30
0.0
 11
1043.555038201127
 21
347.7027082704895
 31
0.0
  0
LINE
  5
5EB
330
1F
100
AcDbEntity
  8
0
100
AcDbLine
 10
1006.33213577632
 20
410.8870199227075
 30
0.0
 11
970.0997264015905
 21
413.9063873705725
 31
0.0
  0
LINE
  5
5EC
330
1F
100
AcDbEntity
  8
0
100
AcDbLine
 10
1006.249090296467
 20
410.8870199227075
 30
0.0
 11
1042.481499671188
 21
413.9063873705714
 31
0.0
  0
ARC
  5
5ED
102
{ACAD_REACTORS
330
665
102
}
330
1F
100
AcDbEntity
  8
0
100
AcDbCircle
 10
965.2906130364577
 20
434.2272796992254
 30
0.0
 40
1.000000000038439
100
AcDbArc
 50
359.9999999998632
 51
179.9999999998632
  0
ARC
  5
5EE
102
{ACAD_REACTORS
330
668
102
}
330
1F
100
AcDbEntity
  8
0
100
AcDbCircle
 10
1047.290613036382
 20
434.2272796993325
 30
0.0
 40
0.9999999999848339
100
AcDbArc
 50
359.999999999785
 51
179.999999999785
  0
ARC
  5
5EF
330
1F
100
AcDbEntity
  8
0
100
AcDbCircle
 10
963.2906130364307
 20
421.2272796992273
 30
0.0
 40
2.0
100
AcDbArc
 50
270.0000000000782
 51
0.000000000175872
  0
ARC
  5
5F0
330
1F
100
AcDbEntity
  8
0
100
AcDbCircle
 10
967.2906130364458
 20
416.1474125807966
 30
0.0
 40
2.0
100
AcDbArc
 50
180.0000000001759
 51
265.2363583093091
  0
ARC
  5
5F1
330
1F
100
AcDbEntity
  8
0
100
AcDbCircle
 10
1045.29061303634
 20
416.1474125807966
 30
0.0
 40
2.0
100
AcDbArc
 50
274.7636416906909
 51
359.999999999785
  0
ARC
  5
5F2
330
1F
100
AcDbEntity
  8
0
100
AcDbCircle
 10
1049.290613036355
 20
421.2272796992273
 30
0.0
 40
2.0
100
AcDbArc
 50
179.999999999785
 51
269.9999999999219
  0
ARC
  5
5F3
330
1F
100
AcDbEntity
  8
0
100
AcDbCircle
 10
963.2906130363808
 20
421.2272796992273
 30
0.0
 40
1.0
100
AcDbArc
 50
270.0000000000782
 51
359.9999999998632
  0
ARC
  5
5F4
330
1F
100
AcDbEntity
  8
0
100
AcDbCircle
 10
967.2906130364431
 20
416.1474125807966
 30
0.0
 40
1.0
100
AcDbArc
 50
179.9999999998632
 51
265.2363583093091
  0
ARC
  5
5F5
330
1F
100
AcDbEntity
  8
0
100
AcDbCircle
 10
1045.29061303634
 20
416.1474125807966
 30
0.0
 40
1.0
100
AcDbArc
 50
274.7636416906909
 51
359.999999999785
  0
ARC
  5
5F6
330
1F
100
AcDbEntity
  8
0
100
AcDbCircle
 10
1049.290613036406
 20
421.2272796992273
 30
0.0
 40
1.0
100
AcDbArc
 50
180.0000000001368
 51
269.9999999999219
  0
ARC
  5
5F7
330
1F
100
AcDbEntity
  8
0
100
AcDbCircle
 10
975.2906130363886
 20
336.2027082703777
 30
0.0
 40
7.0
100
AcDbArc
 50
180.0
 51
270.0
  0
ARC
  5
5F8
330
1F
100
AcDbEntity
  8
0
100
AcDbCircle
 10
1037.29061303639
 20
336.2027082703777
 30
0.0
 40
7.0
100
AcDbArc
 50
270.0
 51
0.0
1001
GENIUS_GENODEF_13
1002
{
1000
HIER
1070
     0
1002
}
1002
{
1000
MANEDIT
1070
     0
1002
}
1002
{
1000
NOSEL
1070
     0
1002
}
1002
{
1000
BEHIND
1070
     0
1002
}
1002
{
1000
REACTOR
1002
}
1001
GENIUS_GENOBJ-N-CEN_13
1002
{
1000
OWNER
1000
GEN
1002
}
  0
LINE
  5
5F9
330
1F
100
AcDbEntity
  8
0
100
AcDbLine
 10
1042.29061303639
 20
413.0536806027713
 30
0.0
 11
1042.29061303639
 21
396.2027082704896
 31
0.0
1001
GENIUS_GENODEF_13
1002
{
1000
HIER
1070
     0
1002
}
1002
{
1000
MANEDIT
1070
     0
1002
}
1002
{
1000
NOSEL
1070
     0
1002
}
1002
{
1000
BEHIND
1070
     0
1002
}
1002
{
1000
REACTOR
1002
}
1001
GENIUS_GENOBJ-N-CEN_13
1002
{
1000
OWNER
1000
GEN
1002
}
  0
LINE
  5
5FA
330
1F
100
AcDbEntity
  8
0
100
AcDbLine
 10
1042.29061303639
 20
346.2027082704896
 30
0.0
 11
1042.29061303639
 21
336.2027082703786
 31
0.0
1001
GENIUS_GENODEF_13
1002
{
1000
HIER
1070
     0
1002
}
1002
{
1000
MANEDIT
1070
     0
1002
}
1002
{
1000
NOSEL
1070
     0
1002
}
1002
{
1000
BEHIND
1070
     0
1002
}
1002
{
1000
REACTOR
1002
}
1001
GENIUS_GENOBJ-N-CEN_13
1002
{
1000
OWNER
1000
GEN
1002
}
  0
ARC
  5
5FB
330
1F
100
AcDbEntity
  8
0
100
AcDbCircle
 10
1037.29061303639
 20
336.2027082703777
 30
0.0
 40
5.0
100
AcDbArc
 50
270.0
 51
0.0
1001
GENIUS_GENODEF_13
1002
{
1000
HIER
1070
     0
1002
}
1002
{
1000
MANEDIT
1070
     0
1002
}
1002
{
1000
NOSEL
1070
     0
1002
}
1002
{
1000
BEHIND
1070
     0
1002
}
1002
{
1000
REACTOR
1002
}
1001
GENIUS_GENOBJ-N-CEN_13
1002
{
1000
OWNER
1000
GEN
1002
}
  0
LINE
  5
5FC
330
1F
100
AcDbEntity
  8
0
100
AcDbLine
 10
975.2906130363886
 20
331.2027082703777
 30
0.0
 11
1037.29061303639
 21
331.2027082703777
 31
0.0
  0
ARC
  5
5FD
330
1F
100
AcDbEntity
  8
0
100
AcDbCircle
 10
975.2906130363886
 20
336.2027082703777
 30
0.0
 40
5.0
100
AcDbArc
 50
180.0
 51
270.0
  0
LINE
  5
5FE
330
1F
100
AcDbEntity
  8
0
100
AcDbLine
 10
970.2906130363899
 20
413.0536806027713
 30
0.0
 11
970.2906130363885
 21
336.2027082703777
 31
0.0
1001
GENIUS_GENODEF_13
1002
{
1000
HIER
1070
     0
1002
}
1002
{
1000
MANEDIT
1070
     0
1002
}
1002
{
1000
NOSEL
1070
     0
1002
}
1002
{
1000
BEHIND
1070
     0
1002
}
1002
{
1000
REACTOR
1002
}
1001
GENIUS_GENOBJ-N-CEN_13
1002
{
1000
OWNER
1000
GEN
1002
}
  0
LINE
  5
5FF
330
1F
100
AcDbEntity
  8
0
  6
ByBlock
100
AcDbLine
 10
968.29061303639
 20
403.2272796992272
 30
0.0
 11
975.6923273210473
 21
403.2272796992272
 31
0.0
  0
LINE
  5
600
330
1F
100
AcDbEntity
  8
0
  6
ByBlock
100
AcDbLine
 10
1036.888898751849
 20
403.2272796992272
 30
0.0
 11
1044.29061303639
 21
403.2272796992272
 31
0.0
  0
LINE
  5
601
330
1F
100
AcDbEntity
  8
0
100
AcDbLine
 10
969.2906130363899
 20
413.0536806027713
 30
0.0
 11
969.2906130363899
 21
403.2272796992287
 31
0.0
1001
GENIUS_GENODEF_13
1002
{
1000
HIER
1070
     0
1002
}
1002
{
1000
MANEDIT
1070
     0
1002
}
1002
{
1000
NOSEL
1070
     0
1002
}
1002
{
1000
BEHIND
1070
     0
1002
}
1002
{
1000
REACTOR
1002
}
1001
GENIUS_GENOBJ-N-CEN_13
1002
{
1000
OWNER
1000
GEN
1002
}
  0
LINE
  5
602
330
1F
100
AcDbEntity
  8
0
100
AcDbLine
 10
1043.29061303639
 20
413.0536806027713
 30
0.0
 11
1043.29061303639
 21
403.2272796992272
 31
0.0
1001
GENIUS_GENODEF_13
1002
{
1000
HIER
1070
     0
1002
}
1002
{
1000
MANEDIT
1070
     0
1002
}
1002
{
1000
NOSEL
1070
     0
1002
}
1002
{
1000
BEHIND
1070
     0
1002
}
1002
{
1000
REACTOR
1002
}
1001
GENIUS_GENOBJ-N-CEN_13
1002
{
1000
OWNER
1000
GEN
1002
}
  0
ARC
  5
603
330
1F
100
AcDbEntity
  8
0
100
AcDbCircle
 10
968.2906130363903
 20
413.0536806027713
 30
0.0
 40
2.0
100
AcDbArc
 50
0.0
 51
85.2363583093091
1001
GENIUS_GENODEF_13
1002
{
1000
HIER
1070
     0
1002
}
1002
{
1000
MANEDIT
1070
     0
1002
}
1002
{
1000
NOSEL
1070
     0
1002
}
1002
{
1000
BEHIND
1070
     0
1002
}
1002
{
1000
REACTOR
1002
}
1001
GENIUS_GENOBJ-N-CEN_13
1002
{
1000
OWNER
1000
GEN
1002
}
  0
LINE
  5
604
330
1F
100
AcDbEntity
  8
0
  6
ByBlock
100
AcDbLine
 10
968.4567039960956
 20
415.0467721192616
 30
0.0
 11
1006.290613036393
 21
411.8939463659345
 31
0.0
  0
ARC
  5
605
330
1F
100
AcDbEntity
  8
0
100
AcDbCircle
 10
1044.29061303639
 20
413.0536806027713
 30
0.0
 40
2.0
100
AcDbArc
 50
94.76364169069089
 51
180.0
1001
GENIUS_GENODEF_13
1002
{
1000
HIER
1070
     0
1002
}
1002
{
1000
MANEDIT
1070
     0
1002
}
1002
{
1000
NOSEL
1070
     0
1002
}
1002
{
1000
BEHIND
1070
     0
1002
}
1002
{
1000
REACTOR
1002
}
1001
GENIUS_GENOBJ-N-CEN_13
1002
{
1000
OWNER
1000
GEN
1002
}
  0
LINE
  5
606
330
1F
100
AcDbEntity
  8
0
  6
ByBlock
100
AcDbLine
 10
1044.124522076683
 20
415.0467721192593
 30
0.0
 11
1006.290613036393
 21
411.8939463659345
 31
0.0
  0
LINE
  5
607
330
1F
100
AcDbEntity
  8
0
100
AcDbLine
 10
1044.207567556537
 20
414.0502263610154
 30
0.0
 11
1045.456703996046
 21
414.1543210643077
 31
0.0
  0
LINE
  5
608
330
1F
100
AcDbEntity
  8
0
100
AcDbLine
 10
968.3736585162428
 20
414.0502263610154
 30
0.0
 11
967.1245220767396
 21
414.1543210643077
 31
0.0
  0
ARC
  5
609
330
1F
100
AcDbEntity
  8
0
100
AcDbCircle
 10
968.29061303639
 20
413.0536806027713
 30
0.0
 40
1.0
100
AcDbArc
 50
0.0
 51
85.2363583093091
1001
GENIUS_GENODEF_13
1002
{
1000
HIER
1070
     0
1002
}
1002
{
1000
MANEDIT
1070
     0
1002
}
1002
{
1000
NOSEL
1070
     0
1002
}
1002
{
1000
BEHIND
1070
     0
1002
}
1002
{
1000
REACTOR
1002
}
1001
GENIUS_GENOBJ-N-CEN_13
1002
{
1000
OWNER
1000
GEN
1002
}
  0
ARC
  5
60A
330
1F
100
AcDbEntity
  8
0
100
AcDbCircle
 10
1044.29061303639
 20
413.0536806027713
 30
0.0
 40
1.0
100
AcDbArc
 50
94.76364169069089
 51
180.0
  0
HATCH
  5
60B
330
1F
100
AcDbEntity
  8
KLIN
  6
ByBlock
100
AcDbHatch
 10
0.0
 20
0.0
 30
0.0
210
0.0
220
0.0
230
1.0
  2
LINE
 70
     0
 71
     0
 91
        2
 92
        7
 72
     1
 73
     1
 93
       18
 10
965.2906130364295
 20
421.2272796992334
 42
0.0
 10
965.2906130364458
 20
416.1474125807904
 42
0.3900664775248692
 10
967.1245220767396
 20
414.1543210643077
 42
0.0
 10
968.3736585162428
 20
414.0502263610154
 42
-0.3900664775257306
 10
969.2906130363899
 20
413.0536806027713
 42
0.0
 10
969.2906130363899
 20
403.2272796992272
 42
0.0
 10
970.2906130363899
 20
403.2272796992272
 42
0.0
 10
970.2906130363899
 20
413.0536806027713
 42
0.3900664775257168
 10
968.4567039960956
 20
415.0467721192616
 42
0.0
 10
967.2075675565906
 20
415.1508668225516
 42
-0.3900664775265383
 10
966.2906130364431
 20
416.1474125807996
 42
0.0
 10
966.290613036493
 20
434.2272796992225
 42
1.0
 10
964.2906130364153
 20
434.2272796992273
 42
0.0
 10
964.2906130363794
 20
421.2272796992234
 42
-0.4142135623720174
 10
963.2906130363808
 20
420.2272796992263
 42
0.0
 10
934.2906130364076
 20
420.2272796992004
 42
0.0
 10
934.2906130364058
 20
419.2272796992004
 42
0.0
 10
963.2906130364316
 20
419.2272796992264
 42
0.414213562373698
 97
        0
 92
        7
 72
     1
 73
     1
 93
       18
 10
1078.290613036379
 20
420.2272796992014
 42
0.0
 10
1049.290613036404
 20
420.2272796992263
 42
-0.4142135623720236
 10
1048.290613036406
 20
421.2272796992234
 42
0.0
 10
1048.29061303637
 20
434.2272796993366
 42
1.0
 10
1046.290613036397
 20
434.2272796993394
 42
0.0
 10
1046.29061303634
 20
416.1474125807925
 42
-0.3900664775248177
 10
1045.373658516194
 20
415.1508668225516
 42
0.0
 10
1044.124522076683
 20
415.0467721192593
 42
0.3900664775257352
 10
1042.29061303639
 20
413.0536806027713
 42
0.0
 10
1042.29061303639
 20
403.2272796992272
 42
0.0
 10
1043.29061303639
 20
403.2272796992272
 42
0.0
 10
1043.29061303639
 20
413.0536806027713
 42
-0.3900664775257168
 10
1044.207567556537
 20
414.0502263610154
 42
0.0
 10
1045.456703996046
 20
414.1543210643077
 42
0.3900664775248639
 10
1047.29061303634
 20
416.1474125807904
 42
0.0
 10
1047.290613036356
 20
421.2272796992334
 42
0.4142135623737067
 10
1049.290613036354
 20
419.2272796992264
 42
0.0
 10
1078.290613036382
 20
419.2272796992013
 42
0.0
 97
        0
 75
     0
 76
     1
 52
45.0
 41
1.0
 77
     0
 78
     1
 53
45.0
 43
784.2029012685816
 44
147.3860200794826
 45
-2.245064030267287
 46
2.245064030267287
 79
     0
 47
2.718374431718905
 98
        2
 10
958.3775689416583
 20
419.7411962906825
 10
1056.56623645386
 20
419.7411962906825
  0
HATCH
  5
60C
330
1F
100
AcDbEntity
  8
KLIN
  6
ByBlock
100
AcDbHatch
 10
0.0
 20
0.0
 30
0.0
210
0.0
220
0.0
230
1.0
  2
LINE
 70
     0
 71
     0
 91
        4
 92
        7
 72
     0
 73
     1
 93
        4
 10
1044.29061303639
 20
404.2027082703777
 10
1042.29061303639
 20
404.2027082703786
 10
1042.29061303639
 20
396.2027082704896
 10
1044.29061303639
 20
396.2027082704896
 97
        0
 92
        7
 72
     1
 73
     1
 93
        8
 10
970.2906130363899
 20
378.6293407410766
 42
0.0
 10
968.29061303639
 20
377.9547481370995
 42
0.0
 10
968.2906130363885
 20
336.2027082703786
 42
0.4142135623730982
 10
975.2906130363886
 20
329.2027082703777
 42
0.0
 10
1006.290613036449
 20
329.2027082703777
 42
0.0
 10
1006.290613036448
 20
331.2027082703777
 42
0.0
 10
975.2906130363886
 20
331.2027082703777
 42
-0.4142135623730974
 10
970.2906130363885
 20
336.2027082703786
 42
0.0
 97
        0
 92
        7
 72
     1
 73
     1
 93
        8
 10
1044.29061303639
 20
336.2027082703786
 42
0.0
 10
1044.29061303639
 20
346.2027082704896
 42
0.0
 10
1042.29061303639
 20
346.2027082704896
 42
0.0
 10
1042.29061303639
 20
336.2027082703786
 42
-0.4142135623731005
 10
1037.29061303639
 20
331.2027082703777
 42
0.0
 10
1006.290613036448
 20
331.2027082703777
 42
0.0
 10
1006.290613036449
 20
329.2027082703777
 42
0.0
 10
1037.29061303639
 20
329.2027082703777
 42
0.4142135623730998
 97
        0
 92
        1
 93
        4
 72
     1
 10
970.2906130363885
 20
403.2272796992272
 11
968.29061303639
 21
403.2272796992272
 72
     1
 10
968.29061303639
 20
403.2272796992272
 11
968.29061303639
 21
377.9547481370995
 72
     1
 10
968.29061303639
 20
377.9547481370995
 11
970.2906130363899
 21
378.6293407410766
 72
     1
 10
970.2906130363899
 20
378.6293407410766
 11
970.2906130363885
 21
403.2272796992272
 97
        0
 75
     0
 76
     1
 52
135.0
 41
1.0
 77
     0
 78
     1
 53
135.0
 43
784.2029012685816
 44
148.3614486506325
 45
-2.245064030267287
 46
-2.245064030267287
 79
     0
 47
2.718374431718905
 98
        4
 10
1043.51068058782
 20
400.3288171262305
 10
969.5291917597314
 20
393.8047181529526
 10
969.5291917597314
 20
360.6405494093825
 10
1029.911140259164
 20
330.4665939053685
  0
HATCH
  5
60D
330
1F
100
AcDbEntity
  8
KLIN
  6
ByBlock
100
AcDbHatch
 10
0.0
 20
0.0
 30
0.0
210
0.0
220
0.0
230
1.0
  2
LINE
 70
     0
 71
     0
 91
        3
 92
        7
 72
     0
 73
     1
 93
        4
 10
1104.29061303639
 20
396.2027082704896
 10
1042.29061303639
 20
396.2027082704896
 10
1043.555038201127
 20
394.7027082704896
 10
1104.29061303639
 20
394.7027082704896
 97
        0
 92
        7
 72
     0
 73
     1
 93
        4
 10
1076.61310216628
 20
347.7027082704895
 10
1043.555038201127
 20
347.7027082704895
 10
1042.29061303639
 20
346.2027082704896
 10
1077.371126711399
 20
346.2027082704896
 97
        0
 92
        7
 72
     0
 73
     1
 93
        4
 10
1104.29061303639
 20
347.7027082704895
 10
1076.61310216628
 20
347.7027082704895
 10
1077.371126711399
 20
346.2027082704896
 10
1104.29061303639
 20
346.2027082704896
 97
        0
 75
     0
 76
     1
 52
45.0
 41
0.5
 77
     0
 78
     1
 53
45.0
 43
784.2029012685816
 44
148.3614486506325
 45
-1.122532015133643
 46
1.122532015133643
 79
     0
 47
2.718374431718905
 98
        3
 10
1061.734061611132
 20
395.4357425505176
 10
1062.006051747242
 20
347.0486775856467
 10
1085.941240295245
 20
346.7768406470585
  0
LINE
  5
60E
330
1F
100
AcDbEntity
  8
0
100
AcDbLine
 10
934.2906130364076
 20
420.2272796992004
 30
0.0
 11
934.2906130364058
 21
419.2272796992004
 31
0.0
  0
LINE
  5
60F
330
1F
100
AcDbEntity
  8
AM_7
100
AcDbLine
 10
379.9905726669885
 20
371.2027082704896
 30
0.0
 11
354.9049155238817
 21
371.2027082704896
 31
0.0
1001
GENIUS_GENOREF_13
1005
6BA
  0
LINE
  5
610
330
1F
100
AcDbEntity
  8
AM_7
100
AcDbLine
 10
379.9905726669885
 20
371.2027082704896
 30
0.0
 11
379.9905726669885
 21
440.6275558084877
 31
0.0
1001
GENIUS_GENOREF_13
1005
6BA
  0
LINE
  5
611
330
1F
100
AcDbEntity
  8
AM_7
100
AcDbLine
 10
379.9905726669885
 20
371.2027082704896
 30
0.0
 11
405.0762298100957
 21
371.2027082704896
 31
0.0
1001
GENIUS_GENOREF_13
1005
6BA
  0
LINE
  5
612
330
1F
100
AcDbEntity
  8
AM_7
100
AcDbLine
 10
379.9905726669885
 20
371.2027082704896
 30
0.0
 11
379.9905726669885
 21
324.3286167910136
 31
0.0
1001
GENIUS_GENOREF_13
1005
6BA
  0
LINE
  5
613
330
1F
100
AcDbEntity
  8
0
100
AcDbLine
 10
378.9905726669886
 20
115.4154059346025
 30
0.0
 11
378.9905726669886
 21
80.47259551529066
 31
0.0
  0
LINE
  5
614
330
1F
100
AcDbEntity
  8
0
100
AcDbLine
 10
380.9905726669886
 20
115.4154059346025
 30
0.0
 11
380.9905726669886
 21
80.47259551529066
 31
0.0
  0
LINE
  5
615
330
1F
100
AcDbEntity
  8
0
100
AcDbLine
 10
-18.01828447611887
 20
97.94400072494648
 30
0.0
 11
344.0111440957267
 21
97.94400072494648
 31
0.0
  0
DIMENSION
  5
616
330
1F
100
AcDbEntity
  8
AM_5
100
AcDbDimension
  2
*D13
 10
854.9811440957274
 20
25.9648007249476
 30
0.0
 11
854.9811440957274
 21
97.94400072494717
 31
0.0
 70
   160
 71
     5
 42
143.9583999999988
  3
AM_DIN$0
100
AcDbAlignedDimension
 13
762.2711440957268
 23
169.9232007249464
 33
0.0
 14
762.2711440957268
 24
25.96480072494762
 34
0.0
 50
90.0
100
AcDbRotatedDimension
1001
ACAD_DSTYLE_DIMINSPECT
1070
   396
1000
100%
1070
   395
1000

1070
   394
1070
    33
1070
   393
1070
     0
1001
ACAD
1000
DSTYLE
1002
{
1070
    41
1040
7.0
1070
   140
1040
10.0
1070
   271
1070
     0
1002
}
  0
LINE
  5
617
330
1F
100
AcDbEntity
  8
0
  6
Continuous
 62
     7
100
AcDbLine
 10
809.9811440957269
 20
420.1747082704895
 30
0.0
 11
809.9811440957269
 21
419.1752796992274
 31
0.0
  0
LINE
  5
618
330
1F
100
AcDbEntity
  8
0
  6
Continuous
 62
     7
100
AcDbLine
 10
779.998286952622
 20
421.1741368423355
 30
0.0
 11
779.998286952622
 21
434.1667082704894
 31
0.0
  0
LINE
  5
619
330
1F
100
AcDbEntity
  8
0
  6
Continuous
 62
     7
100
AcDbLine
 10
778.9988583813578
 20
335.2232796992276
 30
0.0
 11
778.9988583813565
 21
419.1752796992274
 31
0.0
  0
LINE
  5
61A
330
1F
100
AcDbEntity
  8
0
  6
Continuous
 62
     7
100
AcDbLine
 10
778.9988583813565
 20
420.1747082704895
 30
0.0
 11
778.9988583813578
 21
434.1667082704894
 31
0.0
  0
LINE
  5
61B
330
1F
100
AcDbEntity
  8
0
  6
Continuous
 62
     7
100
AcDbLine
 10
781.7894298100968
 20
420.1747082704895
 30
0.0
 11
781.7894298100968
 21
419.1752796992274
 31
0.0
  0
LINE
  5
61C
330
1F
100
AcDbEntity
  8
0
  6
Continuous
 62
     7
100
AcDbLine
 10
777.9994298100955
 20
335.2232796992276
 30
0.0
 11
777.9994298100955
 21
312.2364225567036
 31
0.0
  0
LINE
  5
61D
330
1F
100
AcDbEntity
  8
0
  6
Continuous
 62
     7
100
AcDbLine
 10
777.9994298100955
 20
335.2232796992276
 30
0.0
 11
777.9994298100955
 21
419.1752796992274
 31
0.0
  0
LINE
  5
61E
330
1F
100
AcDbEntity
  8
0
  6
Continuous
 62
     7
100
AcDbLine
 10
777.9994298100955
 20
420.1747082704895
 30
0.0
 11
777.9994298100955
 21
435.1660919355937
 31
0.0
  0
LINE
  5
61F
330
1F
100
AcDbEntity
  8
0
  6
Continuous
 62
     7
100
AcDbLine
 10
776.0005726669888
 20
390.1918511279654
 30
0.0
 11
776.0005726669888
 21
312.2364225567036
 31
0.0
  0
LINE
  5
620
330
1F
100
AcDbEntity
  8
0
  6
Continuous
 62
     7
100
AcDbLine
 10
716.0348583813579
 20
310.2375654135966
 30
0.0
 11
716.0348583813579
 21
308.2387082704896
 31
0.0
  0
LINE
  5
621
102
{ACAD_REACTORS
330
662
102
}
330
1F
100
AcDbEntity
  8
0
  6
Continuous
 62
     7
100
AcDbLine
 10
774.0017155244658
 20
308.2387082704896
 30
0.0
 11
716.0348583813579
 21
308.2387082704896
 31
0.0
  0
LINE
  5
622
330
1F
100
AcDbEntity
  8
0
  6
Continuous
 62
     7
100
AcDbLine
 10
774.0017155244658
 20
310.2375654135966
 30
0.0
 11
716.0348583813579
 21
310.2375654135966
 31
0.0
  0
LINE
  5
623
330
1F
100
AcDbEntity
  8
0
  6
Continuous
 62
     7
100
AcDbLine
 10
416.9712919855538
 20
409.7984220051224
 30
0.0
 11
416.9694299436036
 21
409.7374432005766
 31
0.0
  0
LINE
  5
624
330
1F
100
AcDbEntity
  8
0
  6
Continuous
 62
     7
100
AcDbLine
 10
417.469144095729
 20
404.1838511279655
 30
0.0
 11
417.469144095729
 21
334.7235654135965
 31
0.0
  0
LINE
  5
625
330
1F
100
AcDbEntity
  8
0
  6
Continuous
 62
     7
100
AcDbLine
 10
416.9694298100957
 20
409.7374423272425
 30
0.0
 11
416.9694298100957
 21
404.1838511279655
 31
0.0
  0
LINE
  5
626
330
1F
100
AcDbEntity
  8
0
  6
Continuous
 62
     7
100
AcDbLine
 10
379.9905726669885
 20
328.2272796992276
 30
0.0
 11
410.9728583813566
 21
328.2272796992276
 31
0.0
  0
LINE
  5
627
330
1F
100
AcDbEntity
  8
0
  6
Continuous
 62
     7
100
AcDbLine
 10
777.9994298100955
 20
335.2232796992276
 30
0.0
 11
778.9988583813578
 21
335.2232796992276
 31
0.0
  0
LINE
  5
628
330
1F
100
AcDbEntity
  8
0
  6
Continuous
 62
     7
100
AcDbLine
 10
416.9820585298926
 20
409.8958195440656
 30
0.0
 11
416.9712919855538
 21
409.7984220051224
 31
0.0
  0
LINE
  5
629
330
1F
100
AcDbEntity
  8
0
  6
Continuous
 62
     7
100
AcDbLine
 10
777.9994298100955
 20
390.1918511279654
 30
0.0
 11
776.0005726669888
 21
390.1918511279654
 31
0.0
  0
LINE
  5
62A
330
1F
100
AcDbEntity
  8
0
  6
Continuous
 62
     7
100
AcDbLine
 10
417.4691724499316
 20
404.1838511279655
 30
0.0
 11
379.9905726669885
 21
404.1838511279655
 31
0.0
  0
LINE
  5
62B
330
1F
100
AcDbEntity
  8
0
  6
Continuous
 62
     7
100
AcDbLine
 10
777.9994298100955
 20
410.7368708985044
 30
0.0
 11
379.9905726669885
 21
410.7368708985044
 31
0.0
  0
LINE
  5
62C
330
1F
100
AcDbEntity
  8
0
  6
Continuous
 62
     7
100
AcDbLine
 10
779.4994298100955
 20
419.1752796992274
 30
0.0
 11
809.9811440957269
 21
419.1752796992274
 31
0.0
  0
LINE
  5
62D
330
1F
100
AcDbEntity
  8
0
  6
Continuous
 62
     7
100
AcDbLine
 10
781.7894298100968
 20
419.1752796992274
 30
0.0
 11
379.9905726669885
 21
419.1752796992274
 31
0.0
  0
LINE
  5
62E
330
1F
100
AcDbEntity
  8
0
  6
Continuous
 62
     7
100
AcDbLine
 10
779.4994298100955
 20
420.1747082704895
 30
0.0
 11
809.9811440957269
 21
420.1747082704895
 31
0.0
  0
LINE
  5
62F
330
1F
100
AcDbEntity
  8
0
  6
Continuous
 62
     7
100
AcDbLine
 10
781.7894298100968
 20
420.1747082704895
 30
0.0
 11
379.9905726669885
 21
420.1747082704895
 31
0.0
  0
LWPOLYLINE
  5
630
330
1F
100
AcDbEntity
  8
0
  6
Continuous
 62
     7
100
AcDbPolyline
 90
       16
 70
     0
 43
0.0
 10
417.9688583813576
 20
410.7368710734045
 10
417.9334155318287
 20
410.7362424198405
 10
417.8355451478219
 20
410.7279398801123
 10
417.7389656698137
 20
410.7100713178073
 10
417.6446075395756
 20
410.6828095510324
 10
417.5533798942974
 20
410.6464172440274
 10
417.4661618536729
 20
410.6012443547816
 10
417.3837948167119
 20
410.5477251978926
 10
417.3070713666666
 20
410.4863719703415
 10
417.2367400306456
 20
410.4177807260815
 10
417.1734817386586
 20
410.3426146678394
 10
417.1179155171917
 20
410.2616119126775
 10
417.0705798390318
 20
410.1755668727165
 10
417.0319295736089
 20
410.0853242187644
 10
417.0023309160487
 20
409.9917688958483
 10
416.9820585298926
 20
409.8958195440656
  0
LINE
  5
631
102
{ACAD_REACTORS
330
662
102
}
330
1F
100
AcDbEntity
  8
0
  6
Continuous
 62
     7
100
AcDbLine
 10
379.9905726669885
 20
435.166136842086
 30
0.0
 11
778.9988583813578
 21
435.1661368417536
 31
0.0
  0
LINE
  5
632
330
1F
100
AcDbEntity
  8
0
  6
Continuous
 62
     7
100
AcDbLine
 10
809.9811440957278
 20
169.9232007249464
 30
0.0
 11
809.9811440957269
 21
25.96480072494762
 31
0.0
  0
LINE
  5
633
330
1F
100
AcDbEntity
  8
0
  6
Continuous
 62
     7
100
AcDbLine
 10
779.998286952622
 20
56.34742929679157
 30
0.0
 11
779.998286952622
 21
139.5405721536843
 31
0.0
  0
LINE
  5
634
330
1F
100
AcDbEntity
  8
0
  6
Continuous
 62
     7
100
AcDbLine
 10
777.9994298100969
 20
25.96480072494649
 30
0.0
 11
777.9994298100955
 21
169.9232007249464
 31
0.0
  0
LINE
  5
635
330
1F
100
AcDbEntity
  8
0
  6
Continuous
 62
     7
100
AcDbLine
 10
404.9762869526207
 20
0.000000724946176
 30
0.0
 11
379.9905726669885
 21
0.000000724946176
 31
0.0
  0
LINE
  5
636
330
1F
100
AcDbEntity
  8
0
  6
Continuous
 62
     7
100
AcDbLine
 10
731.7894298100968
 20
25.96480072494762
 30
0.0
 11
759.9811440957278
 21
25.96480072494649
 31
0.0
  0
LINE
  5
637
330
1F
100
AcDbEntity
  8
0
  6
Continuous
 62
     7
100
AcDbLine
 10
809.9811440957267
 20
25.96480072494762
 30
0.0
 11
379.9905726669885
 21
25.96480072494762
 31
0.0
  0
LINE
  5
638
330
1F
100
AcDbEntity
  8
0
  6
Continuous
 62
     7
100
AcDbLine
 10
404.9762869526207
 20
0.000000724946176
 30
0.0
 11
404.9762869526207
 21
26.58480072494649
 31
0.0
  0
LINE
  5
639
330
1F
100
AcDbEntity
  8
0
  6
Continuous
 62
     7
100
AcDbLine
 10
379.9905726669885
 20
55.94765786805362
 30
0.0
 11
777.9994298100965
 21
55.94765786805362
 31
0.0
  0
LINE
  5
63A
330
1F
100
AcDbEntity
  8
0
  6
Continuous
 62
     7
100
AcDbLine
 10
779.998286952622
 20
56.34742929679157
 30
0.0
 11
777.9994298100955
 21
56.34742929679157
 31
0.0
  0
LINE
  5
63B
330
1F
100
AcDbEntity
  8
0
  6
Continuous
 62
     7
100
AcDbLine
 10
379.9905726669885
 20
57.94651501116061
 30
0.0
 11
777.9994298100965
 21
57.94651501116061
 31
0.0
  0
LINE
  5
63C
330
1F
100
AcDbEntity
  8
0
  6
Continuous
 62
     7
100
AcDbLine
 10
379.9905726669885
 20
137.9414864393155
 30
0.0
 11
777.9994298100957
 21
137.9414864393155
 31
0.0
  0
LINE
  5
63D
102
{ACAD_REACTORS
330
65F
102
}
330
1F
100
AcDbEntity
  8
0
  6
Continuous
 62
     7
100
AcDbLine
 10
779.998286952622
 20
139.5405721536843
 30
0.0
 11
777.9994298100955
 21
139.5405721536843
 31
0.0
  0
LINE
  5
63E
330
1F
100
AcDbEntity
  8
0
  6
Continuous
 62
     7
100
AcDbLine
 10
429.9905726669885
 20
139.9403435824225
 30
0.0
 11
777.9994298100955
 21
139.9403435824225
 31
0.0
  0
LINE
  5
63F
330
1F
100
AcDbEntity
  8
0
  6
Continuous
 62
     7
100
AcDbLine
 10
731.7894298100968
 20
169.9232007249464
 30
0.0
 11
759.9811440957278
 21
169.9232007249455
 31
0.0
  0
LINE
  5
640
330
1F
100
AcDbEntity
  8
0
  6
Continuous
 62
     7
100
AcDbLine
 10
809.9811440957278
 20
169.9232007249464
 30
0.0
 11
379.9905726669885
 21
169.9232007249464
 31
0.0
  0
ARC
  5
641
330
1F
100
AcDbEntity
  8
0
  6
Continuous
 62
     7
100
AcDbCircle
 10
379.9905726669885
 20
371.2027082704896
 30
0.0
 40
24.985714285631
100
AcDbArc
 50
270.0
 51
90.0
  0
ARC
  5
642
330
1F
100
AcDbEntity
  8
0
  6
Continuous
 62
     7
100
AcDbCircle
 10
379.9905726669885
 20
371.2027082704896
 30
0.0
 40
23.48657142873801
100
AcDbArc
 50
270.0
 51
90.0
  0
ARC
  5
643
330
1F
100
AcDbEntity
  8
0
  6
Continuous
 62
     7
100
AcDbCircle
 10
780.9977155244655
 20
421.1741368423355
 30
0.0
 40
1.998857143106999
100
AcDbArc
 50
180.0
 51
210.0383073755924
  0
ARC
  5
644
330
1F
100
AcDbEntity
  8
0
  6
Continuous
 62
     7
100
AcDbCircle
 10
774.0017155244658
 20
312.2364225567036
 30
0.0
 40
3.997714285630998
100
AcDbArc
 50
270.0
 51
0.0
  0
ARC
  5
645
330
1F
100
AcDbEntity
  8
0
  6
Continuous
 62
     7
100
AcDbCircle
 10
410.9728583813566
 20
334.7235654135965
 30
0.0
 40
6.496285714368996
100
AcDbArc
 50
270.0
 51
0.0
  0
ARC
  5
646
330
1F
100
AcDbEntity
  8
0
  6
Continuous
 62
     7
100
AcDbCircle
 10
379.9905726669885
 20
371.2027082704896
 30
0.0
 40
25.085657143107
100
AcDbArc
 50
270.0
 51
90.0
  0
ARC
  5
647
330
1F
100
AcDbEntity
  8
0
  6
Continuous
 62
     7
100
AcDbCircle
 10
778.9988583813578
 20
434.1667082704894
 30
0.0
 40
0.9994285712619999
100
AcDbArc
 50
0.0
 51
180.0
  0
ARC
  5
648
330
1F
100
AcDbEntity
  8
0
  6
Continuous
 62
     7
100
AcDbCircle
 10
780.9977155244655
 20
421.1741368423355
 30
0.0
 40
0.9994285712619999
100
AcDbArc
 50
180.0
 51
270.0
  0
ARC
  5
649
330
1F
100
AcDbEntity
  8
0
  6
Continuous
 62
     7
100
AcDbCircle
 10
774.0017155244658
 20
312.2364225567036
 30
0.0
 40
1.998857143106999
100
AcDbArc
 50
270.0
 51
0.0
  0
ARC
  5
64A
330
1F
100
AcDbEntity
  8
0
  6
Continuous
 62
     7
100
AcDbCircle
 10
379.9905726669885
 20
97.94400072494648
 30
0.0
 40
35.97942857126201
100
AcDbArc
 50
270.0
 51
90.0
  0
LINE
  5
64B
330
1F
100
AcDbEntity
  8
AM_7
100
AcDbLine
 10
379.9905726669885
 20
371.2027082704896
 30
0.0
 11
354.9049155238817
 21
371.2027082704896
 31
0.0
1001
GENIUS_GENOREF_13
1005
6B9
  0
LINE
  5
64C
330
1F
100
AcDbEntity
  8
AM_7
100
AcDbLine
 10
379.9905726669885
 20
371.2027082704896
 30
0.0
 11
379.9905726669885
 21
440.6275558084877
 31
0.0
1001
GENIUS_GENOREF_13
1005
6B9
  0
LINE
  5
64D
330
1F
100
AcDbEntity
  8
AM_7
100
AcDbLine
 10
379.9905726669885
 20
371.2027082704896
 30
0.0
 11
405.0762298100957
 21
371.2027082704896
 31
0.0
1001
GENIUS_GENOREF_13
1005
6B9
  0
LINE
  5
64E
330
1F
100
AcDbEntity
  8
AM_7
100
AcDbLine
 10
379.9905726669885
 20
371.2027082704896
 30
0.0
 11
379.9905726669885
 21
324.3286167910136
 31
0.0
1001
GENIUS_GENOREF_13
1005
6B9
  0
ARC
  5
64F
330
1F
100
AcDbEntity
  8
0
100
AcDbCircle
 10
379.9905726669885
 20
97.94400072494648
 30
0.0
 40
17.5
100
AcDbArc
 50
270.0
 51
90.0
  0
ARC
  5
650
330
1F
100
AcDbEntity
  8
0
100
AcDbCircle
 10
379.9905726669885
 20
97.94400072494648
 30
0.0
 40
30.0
100
AcDbArc
 50
270.0
 51
90.0
  0
LINE
  5
651
330
1F
100
AcDbEntity
  8
0
100
AcDbLine
 10
378.9905726669886
 20
115.4154059346025
 30
0.0
 11
378.9905726669886
 21
80.47259551529066
 31
0.0
  0
LINE
  5
652
330
1F
100
AcDbEntity
  8
0
100
AcDbLine
 10
380.9905726669886
 20
115.4154059346025
 30
0.0
 11
380.9905726669886
 21
80.47259551529066
 31
0.0
  0
LINE
  5
653
330
1F
100
AcDbEntity
  8
AM_7
100
AcDbLine
 10
379.9905726669885
 20
371.2027082704896
 30
0.0
 11
405.0762298100957
 21
371.2027082704896
 31
0.0
1001
GENIUS_GENOREF_13
1005
6B8
  0
LINE
  5
654
330
1F
100
AcDbEntity
  8
AM_7
100
AcDbLine
 10
379.9905726669885
 20
371.2027082704896
 30
0.0
 11
379.9905726669885
 21
440.6275558084877
 31
0.0
1001
GENIUS_GENOREF_13
1005
6B8
  0
LINE
  5
655
330
1F
100
AcDbEntity
  8
AM_7
100
AcDbLine
 10
379.9905726669885
 20
371.2027082704896
 30
0.0
 11
354.9049155238817
 21
371.2027082704896
 31
0.0
1001
GENIUS_GENOREF_13
1005
6B8
  0
LINE
  5
656
330
1F
100
AcDbEntity
  8
AM_7
100
AcDbLine
 10
379.9905726669885
 20
371.2027082704896
 30
0.0
 11
379.9905726669885
 21
324.3286167910136
 31
0.0
1001
GENIUS_GENOREF_13
1005
6B8
  0
LINE
  5
657
330
1F
100
AcDbEntity
  8
0
100
AcDbLine
 10
380.9905726669886
 20
115.4154059346025
 30
0.0
 11
380.9905726669886
 21
80.47259551529066
 31
0.0
  0
LINE
  5
658
330
1F
100
AcDbEntity
  8
0
100
AcDbLine
 10
378.9905726669886
 20
115.4154059346025
 30
0.0
 11
378.9905726669886
 21
80.47259551529066
 31
0.0
  0
LINE
  5
659
330
1F
100
AcDbEntity
  8
0
100
AcDbLine
 10
777.9994298100961
 20
97.94400072494649
 30
0.0
 11
415.9700012382509
 21
97.94400072494648
 31
0.0
  0
DIMENSION
  5
65A
102
{ACAD_XDICTIONARY
360
65B
102
}
102
{ACAD_REACTORS
330
65C
102
}
330
1F
100
AcDbEntity
  8
AM_5
100
AcDbDimension
  2
*D14
 10
809.9811440957278
 20
227.9493192642266
 30
0.0
 11
379.9905726669887
 21
234.4493192642266
 31
0.0
 70
    32
 71
     5
 42
859.9811428574783
  3
AM_DIN$0
100
AcDbAlignedDimension
 13
-49.99999876175047
 23
169.9232007249464
 33
0.0
 14
809.9811440957278
 24
169.9232007249464
 34
0.0
100
AcDbRotatedDimension
1001
ACAD_DSTYLE_DIMINSPECT
1070
   396
1000
100%
1070
   395
1000

1070
   394
1070
    33
1070
   393
1070
     0
1001
ACAD
1000
DSTYLE
1002
{
1070
    41
1040
7.0
1070
   140
1040
10.0
1070
   271
1070
     0
1002
}
  0
DIMENSION
  5
65D
102
{ACAD_XDICTIONARY
360
65E
102
}
102
{ACAD_REACTORS
330
65F
102
}
330
1F
100
AcDbEntity
  8
AM_5
100
AcDbDimension
  2
*D15
 10
779.998286952622
 20
202.3113186671204
 30
0.0
 11
379.9905726669889
 21
208.8113186671204
 31
0.0
 70
    32
 71
     5
 42
800.0154285712662
  3
AM_DIN$0
100
AcDbAlignedDimension
 13
-20.01714161864424
 23
139.5405721536843
 33
0.0
 14
779.998286952622
 24
139.5405721536843
 34
0.0
100
AcDbRotatedDimension
1001
ACAD_DSTYLE_DIMINSPECT
1070
   396
1000
100%
1070
   395
1000

1070
   394
1070
    33
1070
   393
1070
     0
1001
ACAD
1000
DSTYLE
1002
{
1070
    41
1040
7.0
1070
   140
1040
10.0
1070
   271
1070
     0
1002
}
  0
DIMENSION
  5
660
102
{ACAD_XDICTIONARY
360
661
102
}
102
{ACAD_REACTORS
330
662
102
}
330
1F
100
AcDbEntity
  8
AM_5
100
AcDbDimension
  2
*D16
 10
834.4240518450487
 20
308.2387082704896
 30
0.0
 11
827.9240518450487
 21
371.7024225561218
 31
0.0
 70
    32
  1
105-160
 71
     5
 42
126.927428571264
  3
AM_DIN$0
100
AcDbAlignedDimension
 13
778.9988583813578
 23
435.1661368417536
 33
0.0
 14
774.0017155244658
 24
308.2387082704896
 34
0.0
 50
89.99999999994789
100
AcDbRotatedDimension
1001
ACAD_DSTYLE_DIMINSPECT
1070
   396
1000
100%
1070
   395
1000

1070
   394
1070
    33
1070
   393
1070
     0
1001
ACAD
1000
DSTYLE
1002
{
1070
    41
1040
7.0
1070
   140
1040
10.0
1070
   271
1070
     0
1002
}
  0
DIMENSION
  5
663
102
{ACAD_XDICTIONARY
360
664
102
}
102
{ACAD_REACTORS
330
665
102
}
330
1F
100
AcDbEntity
  8
AM_5
100
AcDbDimension
  2
*D17
 10
966.2906130364953
 20
454.6914871049936
 30
0.0
 11
1006.290613036446
 21
461.1914871049935
 31
0.0
 70
    32
 71
     5
 42
79.99999999990222
  3
AM_DIN$0
100
AcDbAlignedDimension
 13
1046.290613036397
 23
434.2272796993325
 33
0.0
 14
966.2906130364953
 24
434.2272796992225
 34
0.0
100
AcDbRotatedDimension
1001
ACAD_DSTYLE_DIMINSPECT
1070
   396
1000
100%
1070
   395
1000

1070
   394
1070
    33
1070
   393
1070
     0
1001
ACAD
1000
DSTYLE
1002
{
1070
    41
1040
7.0
1070
   140
1040
10.0
1070
   271
1070
     0
1002
}
  0
DIMENSION
  5
666
102
{ACAD_XDICTIONARY
360
667
102
}
102
{ACAD_REACTORS
330
668
102
}
330
1F
100
AcDbEntity
  8
AM_5
100
AcDbDimension
  2
*D18
 10
1048.290613036368
 20
472.2074760016474
 30
0.0
 11
1006.290613036393
 21
478.7074760016475
 31
0.0
 70
    32
 71
     5
 42
83.99999999994951
  3
AM_DIN$0
100
AcDbAlignedDimension
 13
964.2906130364185
 23
434.2272796992254
 33
0.0
 14
1048.290613036368
 24
434.2272796993296
 34
0.0
100
AcDbRotatedDimension
1001
ACAD_DSTYLE_DIMINSPECT
1070
   396
1000
100%
1070
   395
1000

1070
   394
1070
    33
1070
   393
1070
     0
1001
ACAD
1000
DSTYLE
1002
{
1070
    41
1040
7.0
1070
   140
1040
10.0
1070
   271
1070
     0
1002
}
  0
LINE
  5
669
330
1F
100
AcDbEntity
  8
0
  6
Continuous
 62
     7
100
AcDbLine
 10
-16.01942733301235
 20
350.1666114398694
 30
0.0
 11
-16.01942733301235
 21
312.2364225567036
 31
0.0
1001
GENIUS_GENOREF_13
1005
6BC
  0
INSERT
  5
66A
330
1F
100
AcDbEntity
  8
0
100
AcDbBlockReference
  2
befestigung
 10
-2031.734890801307
 20
-991.8917011607994
 30
0.0
  0
INSERT
  5
66B
330
1F
100
AcDbEntity
  8
0
100
AcDbBlockReference
  2
befestigung
 10
2791.716036135285
 20
-991.8917011607994
 30
0.0
 41
-1.0
  0
LINE
  5
66C
330
1F
100
AcDbEntity
  8
0
100
AcDbLine
 10
981.2906130364567
 20
308.2387082704896
 30
0.0
 11
1031.290613036456
 21
308.2387082704896
 31
0.0
  0
LINE
  5
66D
330
1F
100
AcDbEntity
  8
0
100
AcDbLine
 10
981.2906130364545
 20
310.2375654135966
 30
0.0
 11
1031.290613036456
 21
310.2375654135966
 31
0.0
  0
LINE
  5
66E
330
1F
100
AcDbEntity
  8
0
100
AcDbLine
 10
981.2906130364567
 20
308.2387082704896
 30
0.0
 11
981.2906130364467
 21
329.2027082703777
 31
0.0
  0
LINE
  5
66F
330
1F
100
AcDbEntity
  8
0
100
AcDbLine
 10
1031.290613036456
 20
308.2387082704896
 30
0.0
 11
1031.290613036447
 21
329.2027082703777
 31
0.0
  0
LINE
  5
670
330
1F
100
AcDbEntity
  8
0
100
AcDbLine
 10
986.2906130364477
 20
403.2027082703776
 30
0.0
 11
986.2906130364477
 21
346.2027082703777
 31
0.0
  0
LINE
  5
671
330
1F
100
AcDbEntity
  8
0
100
AcDbLine
 10
986.2906130364477
 20
346.2027082703777
 30
0.0
 11
1026.290613036447
 21
346.2027082703777
 31
0.0
  0
LINE
  5
672
330
1F
100
AcDbEntity
  8
0
100
AcDbLine
 10
1026.290613036447
 20
346.2027082703777
 30
0.0
 11
1026.290613036447
 21
403.2027082703776
 31
0.0
  0
LINE
  5
673
330
1F
100
AcDbEntity
  8
0
100
AcDbLine
 10
987.7906130364477
 20
403.2027082703776
 30
0.0
 11
987.7906130364477
 21
346.2027082703777
 31
0.0
  0
LINE
  5
674
330
1F
100
AcDbEntity
  8
0
100
AcDbLine
 10
1024.790613036447
 20
346.2027082703777
 30
0.0
 11
1024.790613036447
 21
403.2027082703776
 31
0.0
  0
HATCH
  5
675
330
1F
100
AcDbEntity
  8
8
100
AcDbHatch
 10
0.0
 20
0.0
 30
0.0
210
0.0
220
0.0
230
1.0
  2
LINE
 70
     0
 71
     0
 91
        4
 92
        7
 72
     0
 73
     1
 93
        6
 10
978.7906130364476
 20
393.2027082703777
 10
979.2635860094209
 20
396.0405461082154
 10
978.2906130364477
 20
396.2027082703777
 10
977.7906130364476
 20
393.2027082703777
 10
977.7906130364476
 20
371.7188058823875
 10
978.7906130364476
 20
371.9750722997754
 97
        0
 92
        7
 72
     0
 73
     1
 93
        4
 10
978.7906130364476
 20
371.9750722997745
 10
977.7906130364476
 20
371.7188058823875
 10
977.7906130364476
 20
358.5394852081046
 10
978.7906130364476
 20
358.7957516254925
 97
        0
 92
        7
 72
     1
 73
     1
 93
        8
 10
978.7906130364476
 20
358.7957516254925
 42
0.0
 10
977.7906130364476
 20
358.5394852081046
 42
0.0
 10
977.7906130364476
 20
337.2027082703777
 42
0.4142135623730951
 10
983.7906130364476
 20
331.2027082703777
 42
0.0
 10
1006.290613036447
 20
331.2027082703777
 42
0.0
 10
1006.290613036447
 20
332.2027082703777
 42
0.0
 10
983.7906130364476
 20
332.2027082703777
 42
-0.4142135623730951
 10
978.7906130364476
 20
337.2027082703777
 42
0.0
 97
        0
 92
        7
 72
     1
 73
     1
 93
       10
 10
1034.790613036447
 20
337.2027082703777
 42
0.0
 10
1034.790613036447
 20
393.2027082703777
 42
0.0
 10
1034.290613036447
 20
396.2027082703777
 42
0.0
 10
1033.317640063475
 20
396.0405461082154
 42
0.0
 10
1033.790613036448
 20
393.2027082703777
 42
0.0
 10
1033.790613036448
 20
337.2027082703777
 42
-0.4142135623730951
 10
1028.790613036447
 20
332.2027082703777
 42
0.0
 10
1006.290613036447
 20
332.2027082703777
 42
0.0
 10
1006.290613036447
 20
331.2027082703777
 42
0.0
 10
1028.790613036447
 20
331.2027082703777
 42
0.4142135623730951
 97
        0
 75
     0
 76
     1
 52
45.0
 41
1.0
 77
     0
 78
     1
 53
45.0
 43
888.2270060415704
 44
203.4883489328355
 45
-2.245064030267287
 46
2.245064030267287
 79
     0
 47
0.144641785732262
 98
        4
 10
978.1120661304671
 20
389.8501069546656
 10
978.2567716013536
 20
362.3681656582845
 10
978.4014745704176
 20
354.5575098219016
 10
1012.840866269558
 20
331.8487492033195
  0
LINE
  5
676
330
1F
100
AcDbEntity
  8
0
100
AcDbLine
 10
977.7906130364476
 20
393.2027082703777
 30
0.0
 11
977.7906130364476
 21
337.2027082703777
 31
0.0
  0
LINE
  5
677
330
1F
100
AcDbEntity
  8
0
100
AcDbLine
 10
1034.790613036447
 20
337.2027082703777
 30
0.0
 11
1034.790613036447
 21
393.2027082703777
 31
0.0
  0
LINE
  5
678
330
1F
100
AcDbEntity
  8
0
100
AcDbLine
 10
983.7906130364476
 20
331.2027082703777
 30
0.0
 11
1028.790613036447
 21
331.2027082703777
 31
0.0
  0
LINE
  5
679
330
1F
100
AcDbEntity
  8
0
100
AcDbLine
 10
1026.290613036447
 20
396.2027082703777
 30
0.0
 11
1034.290613036447
 21
396.2027082703777
 31
0.0
  0
LINE
  5
67A
330
1F
100
AcDbEntity
  8
0
100
AcDbLine
 10
973.7906130364477
 20
406.7027082703776
 30
0.0
 11
973.7906130364477
 21
405.2027082703776
 31
0.0
  0
LINE
  5
67B
330
1F
100
AcDbEntity
  8
0
100
AcDbLine
 10
969.7906130364476
 20
405.2027082703776
 30
0.0
 11
972.7906130364477
 21
405.2027082703776
 31
0.0
  0
LINE
  5
67C
330
1F
100
AcDbEntity
  8
0
100
AcDbLine
 10
1038.790613036447
 20
405.2027082703776
 30
0.0
 11
1038.790613036447
 21
406.7027082703776
 31
0.0
  0
LINE
  5
67D
330
1F
100
AcDbEntity
  8
0
100
AcDbLine
 10
1038.790613036447
 20
406.7027082703776
 30
0.0
 11
973.7906130364477
 21
406.7027082703776
 31
0.0
  0
CIRCLE
  5
67E
330
1F
100
AcDbEntity
  8
0
100
AcDbCircle
 10
1006.290613036447
 20
403.7027082703777
 30
0.0
 40
1.5
  0
LINE
  5
67F
330
1F
100
AcDbEntity
  8
7A
100
AcDbLine
 10
1001.790613036448
 20
403.7027082703777
 30
0.0
 11
1010.790613036447
 21
403.7027082703777
 31
0.0
1001
GENIUS_GENOBJ-N-CEN_13
1002
{
1000
OWNER
1000
GEN
1002
}
1001
GENIUS_GENODEF_13
1002
{
1000
HIER
1070
     0
1002
}
1002
{
1000
MANEDIT
1070
     0
1002
}
1002
{
1000
NOSEL
1070
     0
1002
}
1002
{
1000
BEHIND
1070
     0
1002
}
1002
{
1000
OTHER
1070
     0
1002
}
1002
{
1000
REACTOR
1002
}
  0
LINE
  5
680
330
1F
100
AcDbEntity
  8
0
100
AcDbLine
 10
1034.790613036447
 20
409.2027082703777
 30
0.0
 11
977.7906130364476
 21
409.2027082703777
 31
0.0
  0
LINE
  5
681
330
1F
100
AcDbEntity
  8
0
100
AcDbLine
 10
977.7906130364476
 20
409.2027082703777
 30
0.0
 11
977.7906130364476
 21
406.7027082703776
 31
0.0
  0
LINE
  5
682
330
1F
100
AcDbEntity
  8
0
100
AcDbLine
 10
977.7906130364476
 20
405.2027082703776
 30
0.0
 11
977.7906130364476
 21
402.7027082703776
 31
0.0
  0
LINE
  5
683
330
1F
100
AcDbEntity
  8
0
100
AcDbLine
 10
1034.790613036447
 20
409.2027082703777
 30
0.0
 11
1034.790613036447
 21
406.7027082703776
 31
0.0
  0
LINE
  5
684
330
1F
100
AcDbEntity
  8
0
100
AcDbLine
 10
1034.790613036447
 20
405.2027082703776
 30
0.0
 11
1034.790613036447
 21
402.7027082703776
 31
0.0
  0
LINE
  5
685
330
1F
100
AcDbEntity
  8
0
100
AcDbLine
 10
1026.290613036447
 20
402.7027082703776
 30
0.0
 11
1034.790613036447
 21
402.7027082703776
 31
0.0
  0
LINE
  5
686
330
1F
100
AcDbEntity
  8
0
100
AcDbLine
 10
972.7906130364477
 20
406.7027082703776
 30
0.0
 11
972.7906130364477
 21
405.2027082703776
 31
0.0
  0
LINE
  5
687
330
1F
100
AcDbEntity
  8
0
100
AcDbLine
 10
969.7906130364476
 20
406.7027082703776
 30
0.0
 11
971.7906130364477
 21
407.7027082703777
 31
0.0
  0
LINE
  5
688
330
1F
100
AcDbEntity
  8
0
100
AcDbLine
 10
971.7906130364477
 20
407.7027082703777
 30
0.0
 11
977.7906130364476
 21
409.2027082703777
 31
0.0
  0
LINE
  5
689
330
1F
100
AcDbEntity
  8
0
100
AcDbLine
 10
971.7906130364477
 20
404.2027082703777
 30
0.0
 11
977.7906130364476
 21
402.7027082703776
 31
0.0
  0
LINE
  5
68A
330
1F
100
AcDbEntity
  8
0
100
AcDbLine
 10
969.7906130364476
 20
405.2027082703776
 30
0.0
 11
971.7906130364477
 21
404.2027082703777
 31
0.0
  0
LINE
  5
68B
330
1F
100
AcDbEntity
  8
0
100
AcDbLine
 10
972.7906130364477
 20
406.7027082703776
 30
0.0
 11
969.7906130364476
 21
406.7027082703776
 31
0.0
  0
LINE
  5
68C
330
1F
100
AcDbEntity
  8
0
100
AcDbLine
 10
973.7906130364477
 20
405.2027082703776
 30
0.0
 11
984.2906130364477
 21
405.2027082703776
 31
0.0
  0
LINE
  5
68D
330
1F
100
AcDbEntity
  8
0
100
AcDbLine
 10
1042.790613036447
 20
405.2027082703776
 30
0.0
 11
1039.790613036448
 21
405.2027082703776
 31
0.0
  0
LINE
  5
68E
330
1F
100
AcDbEntity
  8
0
100
AcDbLine
 10
1039.790613036448
 20
406.7027082703776
 30
0.0
 11
1042.790613036447
 21
406.7027082703776
 31
0.0
  0
LINE
  5
68F
330
1F
100
AcDbEntity
  8
0
100
AcDbLine
 10
1042.790613036447
 20
405.2027082703776
 30
0.0
 11
1040.790613036447
 21
404.2027082703777
 31
0.0
  0
LINE
  5
690
330
1F
100
AcDbEntity
  8
0
100
AcDbLine
 10
1042.790613036447
 20
406.7027082703776
 30
0.0
 11
1040.790613036447
 21
407.7027082703777
 31
0.0
  0
LINE
  5
691
330
1F
100
AcDbEntity
  8
0
100
AcDbLine
 10
1039.790613036448
 20
406.7027082703776
 30
0.0
 11
1039.790613036448
 21
405.2027082703776
 31
0.0
  0
LINE
  5
692
330
1F
100
AcDbEntity
  8
0
100
AcDbLine
 10
1040.790613036447
 20
407.7027082703777
 30
0.0
 11
1034.790613036447
 21
409.2027082703777
 31
0.0
  0
LINE
  5
693
330
1F
100
AcDbEntity
  8
0
100
AcDbLine
 10
1040.790613036447
 20
404.2027082703777
 30
0.0
 11
1034.790613036447
 21
402.7027082703776
 31
0.0
  0
HATCH
  5
694
330
1F
100
AcDbEntity
  8
8
100
AcDbHatch
 10
0.0
 20
0.0
 30
0.0
210
0.0
220
0.0
230
1.0
  2
NET
 70
     0
 71
     0
 91
        2
 92
        7
 72
     0
 73
     1
 93
       12
 10
969.7906130364476
 20
405.2027082703776
 10
971.7906130364477
 20
404.2027082703777
 10
977.7906130364476
 20
402.7027082703776
 10
977.7906130364476
 20
405.2027082703776
 10
973.7906130364477
 20
405.2027082703776
 10
973.7906130364477
 20
406.7027082703776
 10
977.7906130364476
 20
406.7027082703776
 10
977.7906130364476
 20
409.2027082703777
 10
971.7906130364477
 20
407.7027082703777
 10
969.7906130364476
 20
406.7027082703776
 10
972.7906130364477
 20
406.7027082703776
 10
972.7906130364477
 20
405.2027082703776
 97
        0
 92
        7
 72
     0
 73
     1
 93
       12
 10
1038.790613036447
 20
405.2027082703776
 10
1034.790613036447
 20
405.2027082703776
 10
1034.790613036447
 20
402.7027082703776
 10
1040.790613036447
 20
404.2027082703777
 10
1042.790613036447
 20
405.2027082703776
 10
1039.790613036448
 20
405.2027082703776
 10
1039.790613036448
 20
406.7027082703776
 10
1042.790613036447
 20
406.7027082703776
 10
1040.790613036447
 20
407.7027082703777
 10
1034.790613036447
 20
409.2027082703777
 10
1034.790613036447
 20
406.7027082703776
 10
1038.790613036447
 20
406.7027082703776
 97
        0
 75
     0
 76
     1
 52
135.0
 41
0.5
 77
     0
 78
     2
 53
135.0
 43
888.2270060415704
 44
204.3983192259376
 45
-1.122532015133643
 46
-1.122532015133643
 79
     0
 53
225.0
 43
888.2270060415704
 44
204.3983192259376
 45
1.122532015133643
 46
-1.122532015133643
 79
     0
 47
0.1492324330864038
 98
        2
 10
976.3230021798708
 20
404.1683515262815
 10
1037.244010062397
 20
404.0191180810553
  0
LINE
  5
695
330
1F
100
AcDbEntity
  8
0
100
AcDbLine
 10
978.7906130364476
 20
393.2027082703777
 30
0.0
 11
978.7906130364476
 21
337.2027082703777
 31
0.0
  0
LINE
  5
696
330
1F
100
AcDbEntity
  8
0
100
AcDbLine
 10
983.7906130364476
 20
332.2027082703777
 30
0.0
 11
1028.790613036447
 21
332.2027082703777
 31
0.0
  0
LINE
  5
697
330
1F
100
AcDbEntity
  8
0
100
AcDbLine
 10
1033.790613036448
 20
337.2027082703777
 30
0.0
 11
1033.790613036448
 21
393.2027082703777
 31
0.0
  0
ARC
  5
698
330
1F
100
AcDbEntity
  8
0
100
AcDbCircle
 10
983.7906130364476
 20
337.2027082703777
 30
0.0
 40
5.0
100
AcDbArc
 50
180.0
 51
270.0
1001
GENIUS_GENOBJ-N-FIL_13
1002
{
1000
OWNER
1000
GEN
1002
}
1001
GENIUS_GENODEF_13
1002
{
1000
HIER
1070
     0
1002
}
1002
{
1000
MANEDIT
1070
     0
1002
}
1002
{
1000
NOSEL
1070
     0
1002
}
1002
{
1000
BEHIND
1070
     0
1002
}
1002
{
1000
OTHER
1070
     0
1002
}
1002
{
1000
REACTOR
1002
}
  0
ARC
  5
699
330
1F
100
AcDbEntity
  8
0
100
AcDbCircle
 10
1028.790613036447
 20
337.2027082703777
 30
0.0
 40
5.0
100
AcDbArc
 50
270.0
 51
0.0
1001
GENIUS_GENOBJ-N-FIL_13
1002
{
1000
OWNER
1000
GEN
1002
}
1001
GENIUS_GENODEF_13
1002
{
1000
HIER
1070
     0
1002
}
1002
{
1000
MANEDIT
1070
     0
1002
}
1002
{
1000
NOSEL
1070
     0
1002
}
1002
{
1000
BEHIND
1070
     0
1002
}
1002
{
1000
OTHER
1070
     0
1002
}
1002
{
1000
REACTOR
1002
}
  0
ARC
  5
69A
330
1F
100
AcDbEntity
  8
0
100
AcDbCircle
 10
983.7906130364476
 20
337.2027082703777
 30
0.0
 40
6.0
100
AcDbArc
 50
180.0
 51
270.0
1001
GENIUS_GENOBJ-N-FIL_13
1002
{
1000
OWNER
1000
GEN
1002
}
1001
GENIUS_GENODEF_13
1002
{
1000
HIER
1070
     0
1002
}
1002
{
1000
MANEDIT
1070
     0
1002
}
1002
{
1000
NOSEL
1070
     0
1002
}
1002
{
1000
BEHIND
1070
     0
1002
}
1002
{
1000
OTHER
1070
     0
1002
}
1002
{
1000
REACTOR
1002
}
  0
ARC
  5
69B
330
1F
100
AcDbEntity
  8
0
100
AcDbCircle
 10
1028.790613036447
 20
337.2027082703777
 30
0.0
 40
6.0
100
AcDbArc
 50
270.0
 51
0.0
1001
GENIUS_GENODEF_13
1002
{
1000
HIER
1070
     0
1002
}
1002
{
1000
MANEDIT
1070
     0
1002
}
1002
{
1000
NOSEL
1070
     0
1002
}
1002
{
1000
BEHIND
1070
     0
1002
}
1002
{
1000
OTHER
1070
     0
1002
}
1002
{
1000
REACTOR
1002
}
1001
GENIUS_GENOBJ-N-FIL_13
1002
{
1000
OWNER
1000
GEN
1002
}
  0
ARC
  5
69C
330
1F
100
AcDbEntity
  8
0
100
AcDbCircle
 10
984.2906130364477
 20
403.2027082703776
 30
0.0
 40
2.0
100
AcDbArc
 50
0.0
 51
90.0
1001
GENIUS_GENODEF_13
1002
{
1000
HIER
1070
     0
1002
}
1002
{
1000
MANEDIT
1070
     0
1002
}
1002
{
1000
NOSEL
1070
     0
1002
}
1002
{
1000
BEHIND
1070
     0
1002
}
1002
{
1000
OTHER
1070
     0
1002
}
1002
{
1000
REACTOR
1002
}
1001
GENIUS_GENOBJ-N-FIL_13
1002
{
1000
OWNER
1000
GEN
1002
}
  0
LINE
  5
69D
330
1F
100
AcDbEntity
  8
0
100
AcDbLine
 10
1038.790613036447
 20
405.2027082703776
 30
0.0
 11
1028.290613036447
 21
405.2027082703776
 31
0.0
  0
ARC
  5
69E
330
1F
100
AcDbEntity
  8
0
100
AcDbCircle
 10
1028.290613036447
 20
403.2027082703776
 30
0.0
 40
2.0
100
AcDbArc
 50
90.0
 51
180.0
1001
GENIUS_GENODEF_13
1002
{
1000
HIER
1070
     0
1002
}
1002
{
1000
MANEDIT
1070
     0
1002
}
1002
{
1000
NOSEL
1070
     0
1002
}
1002
{
1000
BEHIND
1070
     0
1002
}
1002
{
1000
OTHER
1070
     0
1002
}
1002
{
1000
REACTOR
1002
}
1001
GENIUS_GENOBJ-N-FIL_13
1002
{
1000
OWNER
1000
GEN
1002
}
  0
ARC
  5
69F
330
1F
100
AcDbEntity
  8
0
100
AcDbCircle
 10
984.2906130364477
 20
403.2027082703776
 30
0.0
 40
3.5
100
AcDbArc
 50
0.0
 51
90.0
1001
GENIUS_GENODEF_13
1002
{
1000
HIER
1070
     0
1002
}
1002
{
1000
MANEDIT
1070
     0
1002
}
1002
{
1000
NOSEL
1070
     0
1002
}
1002
{
1000
BEHIND
1070
     0
1002
}
1002
{
1000
OTHER
1070
     0
1002
}
1002
{
1000
REACTOR
1002
}
1001
GENIUS_GENOBJ-N-FIL_13
1002
{
1000
OWNER
1000
GEN
1002
}
  0
ARC
  5
6A0
330
1F
100
AcDbEntity
  8
0
100
AcDbCircle
 10
1028.290613036447
 20
403.2027082703776
 30
0.0
 40
3.5
100
AcDbArc
 50
90.0
 51
180.0
1001
GENIUS_GENODEF_13
1002
{
1000
HIER
1070
     0
1002
}
1002
{
1000
MANEDIT
1070
     0
1002
}
1002
{
1000
NOSEL
1070
     0
1002
}
1002
{
1000
BEHIND
1070
     0
1002
}
1002
{
1000
OTHER
1070
     0
1002
}
1002
{
1000
REACTOR
1002
}
1001
GENIUS_GENOBJ-N-FIL_13
1002
{
1000
OWNER
1000
GEN
1002
}
  0
HATCH
  5
6A1
330
1F
100
AcDbEntity
  8
8
100
AcDbHatch
 10
0.0
 20
0.0
 30
0.0
210
0.0
220
0.0
230
1.0
  2
_U
 70
     0
 71
     0
 91
        1
 92
        1
 93
        8
 72
     1
 10
1026.290613036447
 20
346.2027082703777
 11
1026.290613036447
 21
403.2027082703776
 72
     2
 10
1028.290613036447
 20
403.2027082703776
 40
2.0
 50
180.0
 51
270.0
 73
     0
 72
     1
 10
1028.290613036447
 20
405.2027082703776
 11
1038.790613036447
 21
405.2027082703776
 72
     1
 10
1038.790613036447
 20
405.2027082703776
 11
1038.790613036447
 21
406.7027082703776
 72
     1
 10
1038.790613036447
 20
406.7027082703776
 11
1028.290613036447
 21
406.7027082703776
 72
     2
 10
1028.290613036447
 20
403.2027082703776
 40
3.5
 50
90.0
 51
180.0
 73
     1
 72
     1
 10
1024.790613036447
 20
403.2027082703776
 11
1024.790613036447
 21
346.2027082703777
 72
     1
 10
1024.790613036447
 20
346.2027082703777
 11
1026.290613036447
 21
346.2027082703777
 97
        0
 75
     0
 76
     0
 52
45.0
 41
5.0
 77
     0
 78
     1
 53
45.0
 43
888.2270060415704
 44
203.4883489328355
 45
-3.535533905932736
 46
3.535533905932736
 79
     0
 98
        1
 10
888.2270060415704
 20
203.4883489328355
1001
GENIUS_GENODEF_13
1002
{
1000
HIER
1070
     0
1002
}
1002
{
1000
MANEDIT
1070
     0
1002
}
1002
{
1000
NOSEL
1070
     0
1002
}
1002
{
1000
BEHIND
1070
     0
1002
}
1002
{
1000
OTHER
1070
     0
1002
}
1002
{
1000
REACTOR
1002
}
1001
GENIUS_GENOBJ-N-HTC_13
1002
{
1000
OWNER
1000
GEN
1002
}
1001
GENIUS_GENHATCH_13
1002
{
1000
DATA
1040
45.0
1042
5.0
1000
_U
1070
     0
1011
1025.520291965537
1021
386.1699088475144
1031
0.0
1002
}
1002
{
1000
UCS
1010
0.0
1020
0.0
1030
0.0
1010
1.0
1020
0.0
1030
0.0
1010
0.0
1020
1.0
1030
0.0
1002
}
  0
HATCH
  5
6A2
330
1F
100
AcDbEntity
  8
8
100
AcDbHatch
 10
0.0
 20
0.0
 30
0.0
210
0.0
220
0.0
230
1.0
  2
_U
 70
     0
 71
     0
 91
        1
 92
        1
 93
        8
 72
     1
 10
984.2906130364477
 20
406.7027082703776
 11
973.7906130364477
 21
406.7027082703776
 72
     1
 10
973.7906130364477
 20
406.7027082703776
 11
973.7906130364477
 21
405.2027082703776
 72
     1
 10
973.7906130364477
 20
405.2027082703776
 11
984.2906130364477
 21
405.2027082703776
 72
     2
 10
984.2906130364477
 20
403.2027082703776
 40
2.0
 50
270.0
 51
360.0
 73
     0
 72
     1
 10
986.2906130364477
 20
403.2027082703776
 11
986.2906130364477
 21
346.2027082703777
 72
     1
 10
986.2906130364477
 20
346.2027082703777
 11
987.7906130364477
 21
346.2027082703777
 72
     1
 10
987.7906130364477
 20
346.2027082703777
 11
987.7906130364477
 21
403.2027082703776
 72
     2
 10
984.2906130364477
 20
403.2027082703776
 40
3.5
 50
0.0
 51
90.0
 73
     1
 97
        0
 75
     0
 76
     0
 52
45.0
 41
5.0
 77
     0
 78
     1
 53
45.0
 43
888.2270060415704
 44
203.4883489328355
 45
-3.535533905932736
 46
3.535533905932736
 79
     0
 98
        1
 10
888.2270060415704
 20
203.4883489328355
1001
GENIUS_GENODEF_13
1002
{
1000
HIER
1070
     0
1002
}
1002
{
1000
MANEDIT
1070
     0
1002
}
1002
{
1000
NOSEL
1070
     0
1002
}
1002
{
1000
BEHIND
1070
     0
1002
}
1002
{
1000
OTHER
1070
     0
1002
}
1002
{
1000
REACTOR
1002
}
1001
GENIUS_GENOBJ-N-HTC_13
1002
{
1000
OWNER
1000
GEN
1002
}
1001
GENIUS_GENHATCH_13
1002
{
1000
DATA
1040
45.0
1042
5.0
1000
_U
1070
     0
1011
987.1533450665479
1021
383.9503695286836
1031
0.0
1002
}
1002
{
1000
UCS
1010
0.0
1020
0.0
1030
0.0
1010
1.0
1020
0.0
1030
0.0
1010
0.0
1020
1.0
1030
0.0
1002
}
  0
LINE
  5
6A3
330
1F
100
AcDbEntity
  8
0
100
AcDbLine
 10
977.7906130364476
 20
396.2027082703777
 30
0.0
 11
978.7906130364476
 21
396.2027082703777
 31
0.0
  0
LINE
  5
6A4
330
1F
100
AcDbEntity
  8
0
100
AcDbLine
 10
977.7906130364476
 20
405.2027082703776
 30
0.0
 11
984.2906130364477
 21
405.2027082703776
 31
0.0
  0
LINE
  5
6A5
330
1F
100
AcDbEntity
  8
0
100
AcDbLine
 10
977.7906130364476
 20
396.2027082703777
 30
0.0
 11
979.5513175922623
 21
396.2027082703777
 31
0.0
  0
LINE
  5
6A6
330
1F
100
AcDbEntity
  8
0
100
AcDbLine
 10
986.2906130364477
 20
403.2027082703776
 30
0.0
 11
986.2906130364477
 21
385.2027082703777
 31
0.0
  0
LINE
  5
6A7
330
1F
100
AcDbEntity
  8
0
100
AcDbLine
 10
979.2906130364476
 20
393.7227082703777
 30
0.0
 11
979.2906130364476
 21
391.7227082703777
 31
0.0
  0
LINE
  5
6A8
330
1F
100
AcDbEntity
  8
0
100
AcDbLine
 10
986.2906130364477
 20
385.2027082703777
 30
0.0
 11
983.0549367915637
 21
385.2027082703777
 31
0.0
  0
LINE
  5
6A9
330
1F
100
AcDbEntity
  8
0
100
AcDbLine
 10
977.7906130364476
 20
396.2027082703777
 30
0.0
 11
977.7906130364476
 21
405.2027082703776
 31
0.0
  0
LINE
  5
6AA
330
1F
100
AcDbEntity
  8
0
100
AcDbLine
 10
979.2906130364476
 20
393.7227082703777
 30
0.0
 11
980.0149095195461
 21
395.5154049736695
 31
0.0
  0
ARC
  5
6AB
330
1F
100
AcDbEntity
  8
0
100
AcDbCircle
 10
979.5513175922623
 20
395.7027082703777
 30
0.0
 40
0.5
100
AcDbArc
 50
338.0000000000076
 51
90.0
  0
LINE
  5
6AC
330
1F
100
AcDbEntity
  8
0
100
AcDbLine
 10
979.2906130364476
 20
391.7227082703777
 30
0.0
 11
983.0549367915637
 21
385.2027082703777
 31
0.0
  0
LINE
  5
6AD
330
1F
100
AcDbEntity
  8
0
100
AcDbLine
 10
984.2906130364477
 20
405.2027082703776
 30
0.0
 11
986.2906130364477
 21
403.2027082703776
 31
0.0
  0
LINE
  5
6AE
330
1F
100
AcDbEntity
  8
3
100
AcDbLine
 10
977.7906130364476
 20
402.7027082703776
 30
0.0
 11
986.2906130364477
 21
402.7027082703776
 31
0.0
  0
LINE
  5
6AF
330
1F
100
AcDbEntity
  8
3
100
AcDbLine
 10
979.5513175922623
 20
396.2027082703777
 30
0.0
 11
986.2906130364477
 21
396.2027082703777
 31
0.0
  0
LINE
  5
6B0
330
1F
100
AcDbEntity
  8
0
100
AcDbLine
 10
978.7906130364476
 20
393.2027082703777
 30
0.0
 11
979.2635860094209
 21
396.0405461082154
 31
0.0
  0
LINE
  5
6B1
330
1F
100
AcDbEntity
  8
0
100
AcDbLine
 10
977.7906130364476
 20
393.2027082703777
 30
0.0
 11
978.2906130364477
 21
396.2027082703777
 31
0.0
  0
LINE
  5
6B2
330
1F
100
AcDbEntity
  8
0
100
AcDbLine
 10
978.2906130364477
 20
396.2027082703777
 30
0.0
 11
979.2635860094209
 21
396.0405461082154
 31
0.0
  0
LINE
  5
6B3
330
1F
100
AcDbEntity
  8
0
100
AcDbLine
 10
979.2635860094209
 20
396.0405461082154
 30
0.0
 11
979.9199170975866
 21
396.0405461082154
 31
0.0
  0
LINE
  5
6B4
330
1F
100
AcDbEntity
  8
0
100
AcDbLine
 10
1033.790613036448
 20
393.2027082703777
 30
0.0
 11
1033.317640063475
 21
396.0405461082154
 31
0.0
  0
LINE
  5
6B5
330
1F
100
AcDbEntity
  8
0
100
AcDbLine
 10
1034.790613036447
 20
393.2027082703777
 30
0.0
 11
1034.290613036447
 21
396.2027082703777
 31
0.0
  0
LINE
  5
6B6
330
1F
100
AcDbEntity
  8
0
100
AcDbLine
 10
1034.290613036447
 20
396.2027082703777
 30
0.0
 11
1033.317640063475
 21
396.0405461082154
 31
0.0
  0
LINE
  5
6B7
330
1F
100
AcDbEntity
  8
0
100
AcDbLine
 10
1033.317640063475
 20
396.0405461082154
 30
0.0
 11
1026.290613036447
 21
396.0405461082154
 31
0.0
  0
POINT
  5
6B8
330
1F
100
AcDbEntity
  8
0
 60
     1
100
AcDbPoint
 10
-1029.739801133596
 20
-846.6203790549702
 30
0.0
 50
0.000000000000007
1001
GENIUS_GENOENT_13
1002
{
1000
MYREF
1005
6B8
1002
}
1002
{
1000
GRP
1005
0
1002
}
1001
GENIUS_GENOLIS_13
1002
{
1000
ENT
1005
656
1005
655
1005
654
1005
653
1002
}
1001
GENIUS_GENODEF_13
1002
{
1000
HIER
1070
    10
1002
}
1002
{
1000
MANEDIT
1070
     0
1002
}
1002
{
1000
NOSEL
1070
     0
1002
}
1002
{
1000
BEHIND
1070
     0
1002
}
1002
{
1000
OTHER
1070
     0
1002
}
1002
{
1000
REACTOR
1002
}
1001
GENIUS_GENOBJ-N-CRS_13
1002
{
1000
OWNER
1000
GEN
1002
}
  0
POINT
  5
6B9
330
1F
100
AcDbEntity
  8
0
 60
     1
100
AcDbPoint
 10
1789.720946467574
 20
-846.6203790549702
 30
0.0
 50
180.0
1001
GENIUS_GENOENT_13
1002
{
1000
MYREF
1005
6B9
1002
}
1002
{
1000
GRP
1005
0
1002
}
1001
GENIUS_GENOLIS_13
1002
{
1000
ENT
1005
64E
1005
64D
1005
64C
1005
64B
1002
}
1001
GENIUS_GENODEF_13
1002
{
1000
HIER
1070
    10
1002
}
1002
{
1000
MANEDIT
1070
     0
1002
}
1002
{
1000
NOSEL
1070
     0
1002
}
1002
{
1000
BEHIND
1070
     0
1002
}
1002
{
1000
OTHER
1070
     0
1002
}
1002
{
1000
REACTOR
1002
}
1001
GENIUS_GENOBJ-N-CRS_13
1002
{
1000
OWNER
1000
GEN
1002
}
  0
POINT
  5
6BA
330
1F
100
AcDbEntity
  8
0
 60
     1
100
AcDbPoint
 10
1789.720946467574
 20
-846.6203790549702
 30
0.0
 50
180.0
1001
GENIUS_GENOENT_13
1002
{
1000
MYREF
1005
6BA
1002
}
1002
{
1000
GRP
1005
0
1002
}
1001
GENIUS_GENOLIS_13
1002
{
1000
ENT
1005
612
1005
611
1005
610
1005
60F
1002
}
1001
GENIUS_GENODEF_13
1002
{
1000
HIER
1070
    10
1002
}
1002
{
1000
MANEDIT
1070
     0
1002
}
1002
{
1000
NOSEL
1070
     0
1002
}
1002
{
1000
BEHIND
1070
     0
1002
}
1002
{
1000
OTHER
1070
     0
1002
}
1002
{
1000
REACTOR
1002
}
1001
GENIUS_GENOBJ-N-CRS_13
1002
{
1000
OWNER
1000
GEN
1002
}
  0
POINT
  5
6BB
330
1F
100
AcDbEntity
  8
0
 60
     1
100
AcDbPoint
 10
-1029.739801133596
 20
-846.6203790549702
 30
0.0
1001
GENIUS_GENOENT_13
1002
{
1000
MYREF
1005
6BB
1002
}
1002
{
1000
GRP
1005
0
1002
}
1001
GENIUS_GENOLIS_13
1002
{
1000
ENT
1005
5C8
1005
5C7
1005
5C6
1005
5C5
1002
}
1001
GENIUS_GENODEF_13
1002
{
1000
HIER
1070
    10
1002
}
1002
{
1000
MANEDIT
1070
     0
1002
}
1002
{
1000
NOSEL
1070
     0
1002
}
1002
{
1000
BEHIND
1070
     0
1002
}
1002
{
1000
OTHER
1070
     0
1002
}
1002
{
1000
REACTOR
1002
}
1001
GENIUS_GENOBJ-N-CRS_13
1002
{
1000
OWNER
1000
GEN
1002
}
  0
ENDSEC
  0
SECTION
  2
OBJECTS
  0
DICTIONARY
  5
C
330
0
100
AcDbDictionary
281
     1
  3
ACAD_2007HEADERVARS_RT
350
834
  3
ACAD_COLOR
350
BE
  3
ACAD_GROUP
350
D
  3
ACAD_LAYOUT
350
1A
  3
ACAD_MATERIAL
350
BD
  3
ACAD_MLEADERSTYLE
350
2C4
  3
ACAD_MLINESTYLE
350
17
  3
ACAD_PLOTSETTINGS
350
19
  3
ACAD_PLOTSTYLENAME
350
E
  3
ACAD_SCALELIST
350
2A2
  3
ACAD_TABLESTYLE
350
11A
  3
ACAD_VISUALSTYLE
350
26E
  3
ACDB_RECOMPOSE_DATA
350
2E6
  3
AcDbVariableDictionary
350
94
  3
AcmDictionary
350
5B
  3
AcmSystemVariableManager
350
842
  3
AMG
350
41
  3
AMGSNAPSETTINGS
350
364
  3
DWGPROPS
350
833
  0
DICTIONARY
  5
459
330
2
100
AcDbDictionary
280
     1
281
     1
  3
ACAD_LAYERSTATES
360
45A
  0
DICTIONARY
  5
805
330
10
100
AcDbDictionary
280
     1
281
     1
  3
ADSK_XREC_LAYER_RECONCILED
360
806
  0
DICTIONARY
  5
437
330
436
100
AcDbDictionary
280
     1
281
     1
  3
ADSK_XREC_LAYER_RECONCILED
360
807
  0
DICTIONARY
  5
439
330
438
100
AcDbDictionary
280
     1
281
     1
  3
ADSK_XREC_LAYER_RECONCILED
360
808
  0
DICTIONARY
  5
43C
330
43B
100
AcDbDictionary
280
     1
281
     1
  3
ADSK_XREC_LAYER_RECONCILED
360
809
  0
DICTIONARY
  5
43E
330
43D
100
AcDbDictionary
280
     1
281
     1
  3
ADSK_XREC_LAYER_RECONCILED
360
80A
  0
DICTIONARY
  5
440
330
43F
100
AcDbDictionary
280
     1
281
     1
  3
ADSK_XREC_LAYER_RECONCILED
360
80B
  0
DICTIONARY
  5
442
330
441
100
AcDbDictionary
280
     1
281
     1
  3
ADSK_XREC_LAYER_RECONCILED
360
80C
  0
DICTIONARY
  5
444
330
443
100
AcDbDictionary
280
     1
281
     1
  3
ADSK_XREC_LAYER_RECONCILED
360
80D
  0
DICTIONARY
  5
446
330
445
100
AcDbDictionary
280
     1
281
     1
  3
ADSK_XREC_LAYER_RECONCILED
360
80E
  0
DICTIONARY
  5
80F
330
447
100
AcDbDictionary
280
     1
281
     1
  3
ADSK_XREC_LAYER_RECONCILED
360
810
  0
DICTIONARY
  5
811
330
448
100
AcDbDictionary
280
     1
281
     1
  3
ADSK_XREC_LAYER_RECONCILED
360
812
  0
DICTIONARY
  5
813
330
7DF
100
AcDbDictionary
280
     1
281
     1
  3
ADSK_XREC_LAYER_RECONCILED
360
814
  0
DICTIONARY
  5
8F
330
1F
100
AcDbDictionary
280
     1
281
     1
  0
DICTIONARY
  5
65B
330
65A
100
AcDbDictionary
280
     1
281
     1
  3
ACAD_DIMASSOC
360
65C
  0
DICTIONARY
  5
65E
330
65D
100
AcDbDictionary
280
     1
281
     1
  3
ACAD_DIMASSOC
360
65F
  0
DICTIONARY
  5
661
330
660
100
AcDbDictionary
280
     1
281
     1
  3
ACAD_DIMASSOC
360
662
  0
DICTIONARY
  5
664
330
663
100
AcDbDictionary
280
     1
281
     1
  3
ACAD_DIMASSOC
360
665
  0
DICTIONARY
  5
667
330
666
100
AcDbDictionary
280
     1
281
     1
  3
ACAD_DIMASSOC
360
668
  0
DICTIONARY
  5
834
102
{ACAD_REACTORS
330
C
102
}
330
C
100
AcDbDictionary
281
     1
  3
DIMARCSYM
350
835
  3
DIMLTEX1
350
837
  3
DIMLTEX2
350
838
  3
DIMLTYPE
350
836
  0
DICTIONARY
  5
BE
102
{ACAD_REACTORS
330
C
102
}
330
C
100
AcDbDictionary
281
     1
  0
DICTIONARY
  5
D
102
{ACAD_REACTORS
330
C
102
}
330
C
100
AcDbDictionary
281
     1
  0
DICTIONARY
  5
1A
102
{ACAD_REACTORS
330
C
102
}
330
C
100
AcDbDictionary
281
     1
  3
Layout1
350
1E
  3
Layout2
350
26
  3
Model
350
22
  0
DICTIONARY
  5
BD
102
{ACAD_REACTORS
330
C
102
}
330
C
100
AcDbDictionary
281
     1
  3
ByBlock
350
26C
  3
ByLayer
350
26B
  3
Global
350
26D
  0
DICTIONARY
  5
2C4
102
{ACAD_REACTORS
330
C
102
}
330
C
100
AcDbDictionary
281
     1
  3
Standard
350
2C5
  0
DICTIONARY
  5
17
102
{ACAD_REACTORS
330
C
102
}
330
C
100
AcDbDictionary
281
     1
  3
Standard
350
18
  0
DICTIONARY
  5
19
102
{ACAD_REACTORS
330
C
102
}
330
C
100
AcDbDictionary
281
     1
  0
ACDBDICTIONARYWDFLT
  5
E
102
{ACAD_REACTORS
330
C
102
}
330
C
100
AcDbDictionary
281
     1
  3
Normal
350
F
100
AcDbDictionaryWithDefault
340
F
  0
DICTIONARY
  5
2A2
102
{ACAD_REACTORS
330
C
102
}
330
C
100
AcDbDictionary
281
     1
  3
A0
350
2A3
  3
A1
350
2A4
  3
A2
350
2A5
  3
A3
350
2A6
  3
A4
350
2A7
  3
A5
350
2A8
  3
A6
350
2A9
  3
A7
350
2AA
  3
A8
350
2AB
  3
A9
350
2AC
  3
B0
350
2AD
  3
B1
350
2AE
  3
B2
350
2AF
  3
B3
350
2B0
  3
B4
350
2B1
  3
B5
350
2B2
  3
B6
350
2B3
  3
B7
350
2B4
  3
B8
350
2B5
  3
B9
350
2B6
  3
C0
350
2B7
  3
C1
350
2B8
  3
C2
350
2B9
  3
C3
350
2BA
  3
C4
350
2BB
  3
C5
350
2BC
  3
C6
350
2BD
  3
C7
350
2BE
  3
C8
350
2BF
  3
C9
350
2C0
  3
D0
350
2C1
  3
D1
350
2C2
  3
D2
350
2C3
  0
DICTIONARY
  5
11A
102
{ACAD_REACTORS
330
C
102
}
330
C
100
AcDbDictionary
281
     1
  3
Standard
350
11B
  0
DICTIONARY
  5
26E
102
{ACAD_REACTORS
330
C
102
}
330
C
100
AcDbDictionary
281
     1
  3
2dWireframe
350
274
  3
3D Hidden
350
276
  3
3dWireframe
350
275
  3
Basic
350
273
  3
Brighten
350
27A
  3
ColorChange
350
27E
  3
Conceptual
350
277
  3
Dim
350
279
  3
Facepattern
350
27D
  3
Flat
350
26F
  3
FlatWithEdges
350
270
  3
Gouraud
350
271
  3
GouraudWithEdges
350
272
  3
Linepattern
350
27C
  3
Realistic
350
278
  3
Thicken
350
27B
  0
XRECORD
  5
2E6
102
{ACAD_REACTORS
330
C
102
}
330
C
100
AcDbXrecord
280
     1
 90
        1
330
11B
  0
DICTIONARY
  5
94
102
{ACAD_REACTORS
330
C
102
}
330
C
100
AcDbDictionary
281
     1
  3
CANNOSCALE
350
2E9
  3
CMLEADERSTYLE
350
2E7
  3
CTABLESTYLE
350
138
  3
DIMASSOC
350
96
  3
INDEXCTL
350
95
  3
LAYEREVAL
350
346
  3
LAYERNOTIFY
350
347
  3
LIGHTINGUNITS
350
2EA
  3
MSLTSCALE
350
2E8
  3
SORTENTS
350
831
  0
DICTIONARY
  5
5B
102
{ACAD_REACTORS
330
C
102
}
330
C
100
AcDbDictionary
281
     1
  3
AcmBOM
350
36B
  3
AcmStdDictionary
350
61
  3
AMDTSECTSYM_ARROWCOLOR
350
123
  0
DICTIONARY
  5
41
102
{ACAD_REACTORS
330
C
102
}
330
C
100
AcDbDictionary
281
     1
  0
DICTIONARY
  5
364
102
{ACAD_REACTORS
330
C
102
}
330
C
100
AcDbDictionary
281
     1
  0
XRECORD
  5
833
102
{ACAD_REACTORS
330
C
102
}
330
C
100
AcDbXrecord
280
     1
  1
DWGPROPS COOKIE
  2

  3

  4

  6

  7

  8
nlazaar
  9

300
AmdtFileType=84
301
=
302
=
303
=
304
=
305
=
306
=
307
=
308
=
309
=
 40
0.0071465393518519
 41
2455096.454922651
 42
2455096.462068472
  1

 90
        1
  0
DICTIONARY
  5
45A
102
{ACAD_REACTORS
330
459
102
}
330
459
100
AcDbDictionary
281
     1
  0
XRECORD
  5
806
102
{ACAD_REACTORS
330
805
102
}
330
805
100
AcDbXrecord
280
     1
290
     1
  0
XRECORD
  5
807
102
{ACAD_REACTORS
330
437
102
}
330
437
100
AcDbXrecord
280
     1
290
     1
  0
XRECORD
  5
808
102
{ACAD_REACTORS
330
439
102
}
330
439
100
AcDbXrecord
280
     1
290
     1
  0
XRECORD
  5
809
102
{ACAD_REACTORS
330
43C
102
}
330
43C
100
AcDbXrecord
280
     1
290
     1
  0
XRECORD
  5
80A
102
{ACAD_REACTORS
330
43E
102
}
330
43E
100
AcDbXrecord
280
     1
290
     1
  0
XRECORD
  5
80B
102
{ACAD_REACTORS
330
440
102
}
330
440
100
AcDbXrecord
280
     1
290
     1
  0
XRECORD
  5
80C
102
{ACAD_REACTORS
330
442
102
}
330
442
100
AcDbXrecord
280
     1
290
     1
  0
XRECORD
  5
80D
102
{ACAD_REACTORS
330
444
102
}
330
444
100
AcDbXrecord
280
     1
290
     1
  0
XRECORD
  5
80E
102
{ACAD_REACTORS
330
446
102
}
330
446
100
AcDbXrecord
280
     1
290
     1
  0
XRECORD
  5
810
102
{ACAD_REACTORS
330
80F
102
}
330
80F
100
AcDbXrecord
280
     1
290
     1
  0
XRECORD
  5
812
102
{ACAD_REACTORS
330
811
102
}
330
811
100
AcDbXrecord
280
     1
290
     1
  0
XRECORD
  5
814
102
{ACAD_REACTORS
330
813
102
}
330
813
100
AcDbXrecord
280
     1
290
     1
  0
DIMASSOC
  5
65C
102
{ACAD_REACTORS
330
65B
102
}
330
65B
100
AcDbDimAssoc
330
65A
 90
        1
 70
     0
 71
     0
  1
AcDbOsnapPointRef
 72
    13
331
5AC
 73
     0
 91
        0
 40
0.0
 10
0.0
 20
0.0
 30
2.000000000000000E+50
 75
     0
  0
DIMASSOC
  5
65F
102
{ACAD_REACTORS
330
65E
102
}
330
65E
100
AcDbDimAssoc
330
65D
 90
        3
 70
     0
 71
     0
  1
AcDbOsnapPointRef
 72
     1
331
5AD
 73
     0
 91
        0
 40
0.0
 10
0.0
 20
0.0
 30
2.000000000000000E+50
 75
     0
  1
AcDbOsnapPointRef
 72
    13
331
63D
 73
     0
 91
        0
 40
0.0
 10
0.0
 20
0.0
 30
2.000000000000000E+50
 75
     0
  0
DIMASSOC
  5
662
102
{ACAD_REACTORS
330
661
102
}
330
661
100
AcDbDimAssoc
330
660
 90
        3
 70
     0
 71
     0
  1
AcDbOsnapPointRef
 72
     1
331
631
 73
     0
 91
        0
 40
0.0
 10
0.0
 20
0.0
 30
2.000000000000000E+50
 75
     0
  1
AcDbOsnapPointRef
 72
    13
331
621
 73
     0
 91
        0
 40
0.0
 10
0.0
 20
0.0
 30
2.000000000000000E+50
 75
     0
  0
DIMASSOC
  5
665
102
{ACAD_REACTORS
330
664
102
}
330
664
100
AcDbDimAssoc
330
663
 90
        2
 70
     0
 71
     0
  1
AcDbOsnapPointRef
 72
    13
331
5ED
 73
     0
 91
        0
 40
0.0
 10
0.0
 20
0.0
 30
2.000000000000000E+50
 75
     0
  0
DIMASSOC
  5
668
102
{ACAD_REACTORS
330
667
102
}
330
667
100
AcDbDimAssoc
330
666
 90
        2
 70
     0
 71
     0
  1
AcDbOsnapPointRef
 72
    13
331
5EE
 73
     0
 91
        0
 40
0.0
 10
0.0
 20
0.0
 30
2.000000000000000E+50
 75
     0
  0
XRECORD
  5
835
102
{ACAD_REACTORS
330
834
102
}
330
834
100
AcDbXrecord
280
     1
 70
     1
  0
XRECORD
  5
837
102
{ACAD_REACTORS
330
834
102
}
330
834
100
AcDbXrecord
280
     1
340
14
  0
XRECORD
  5
838
102
{ACAD_REACTORS
330
834
102
}
330
834
100
AcDbXrecord
280
     1
340
14
  0
XRECORD
  5
836
102
{ACAD_REACTORS
330
834
102
}
330
834
100
AcDbXrecord
280
     1
340
14
  0
LAYOUT
  5
1E
102
{ACAD_XDICTIONARY
360
839
102
}
102
{ACAD_REACTORS
330
1A
102
}
330
1A
100
AcDbPlotSettings
  1

  2

  4

  6

 40
0.0
 41
0.0
 42
0.0
 43
0.0
 44
0.0
 45
0.0
 46
0.0
 47
0.0
 48
0.0
 49
0.0
140
0.0
141
0.0
142
1.0
143
1.0
 70
   688
 72
     0
 73
     0
 74
     5
  7

 75
    16
147
1.0
148
0.0
149
0.0
100
AcDbLayout
  1
Layout1
 70
     1
 71
     1
 10
0.0
 20
0.0
 11
420.0
 21
297.0
 12
0.0
 22
0.0
 32
0.0
 14
1.000000000000000E+20
 24
1.000000000000000E+20
 34
1.000000000000000E+20
 15
-1.000000000000000E+20
 25
-1.000000000000000E+20
 35
-1.000000000000000E+20
146
0.0
 13
0.0
 23
0.0
 33
0.0
 16
1.0
 26
0.0
 36
0.0
 17
0.0
 27
1.0
 37
0.0
 76
     0
330
1B
  0
LAYOUT
  5
26
102
{ACAD_XDICTIONARY
360
83D
102
}
102
{ACAD_REACTORS
330
1A
102
}
330
1A
100
AcDbPlotSettings
  1

  2

  4

  6

 40
0.0
 41
0.0
 42
0.0
 43
0.0
 44
0.0
 45
0.0
 46
0.0
 47
0.0
 48
0.0
 49
0.0
140
0.0
141
0.0
142
1.0
143
1.0
 70
   688
 72
     0
 73
     0
 74
     5
  7

 75
    16
147
1.0
148
0.0
149
0.0
100
AcDbLayout
  1
Layout2
 70
     1
 71
     2
 10
0.0
 20
0.0
 11
12.0
 21
9.0
 12
0.0
 22
0.0
 32
0.0
 14
0.0
 24
0.0
 34
0.0
 15
0.0
 25
0.0
 35
0.0
146
0.0
 13
0.0
 23
0.0
 33
0.0
 16
1.0
 26
0.0
 36
0.0
 17
0.0
 27
1.0
 37
0.0
 76
     0
330
23
  0
LAYOUT
  5
22
102
{ACAD_XDICTIONARY
360
83B
102
}
102
{ACAD_REACTORS
330
1A
102
}
330
1A
100
AcDbPlotSettings
  1

  2

  4

  6

 40
0.0
 41
0.0
 42
0.0
 43
0.0
 44
0.0
 45
0.0
 46
0.0
 47
0.0
 48
0.0
 49
0.0
140
0.0
141
0.0
142
1.0
143
1.0
 70
  1712
 72
     0
 73
     0
 74
     0
  7

 75
     0
147
1.0
148
0.0
149
0.0
100
AcDbLayout
  1
Model
 70
     1
 71
     0
 10
0.0
 20
0.0
 11
12.0
 21
9.0
 12
0.0
 22
0.0
 32
0.0
 14
0.0
 24
0.0
 34
0.0
 15
0.0
 25
0.0
 35
0.0
146
0.0
 13
0.0
 23
0.0
 33
0.0
 16
1.0
 26
0.0
 36
0.0
 17
0.0
 27
1.0
 37
0.0
 76
     0
330
1F
331
269
  0
MATERIAL
  5
26C
102
{ACAD_XDICTIONARY
360
847
102
}
102
{ACAD_REACTORS
330
BD
102
}
330
BD
100
AcDbMaterial
  1
ByBlock
 73
     1
 78
     1
172
     1
176
     1
270
     1
274
     1
  0
MATERIAL
  5
26B
102
{ACAD_XDICTIONARY
360
845
102
}
102
{ACAD_REACTORS
330
BD
102
}
330
BD
100
AcDbMaterial
  1
ByLayer
 73
     1
 78
     1
172
     1
176
     1
270
     1
274
     1
  0
MATERIAL
  5
26D
102
{ACAD_XDICTIONARY
360
849
102
}
102
{ACAD_REACTORS
330
BD
102
}
330
BD
100
AcDbMaterial
  1
Global
 73
     1
 78
     1
172
     1
176
     1
270
     1
274
     1
  0
MLEADERSTYLE
  5
2C5
102
{ACAD_REACTORS
330
2C4
102
}
330
2C4
100
AcDbMLeaderStyle
170
     2
171
     1
172
     0
 90
        2
 40
0.0
 41
0.0
173
     1
 91
-1056964608
340
14
 92
       -2
290
     1
 42
2.0
291
     1
 43
0.36
  3
Standard
 44
4.0
300

342
11
174
     1
178
     6
175
     1
176
     0
 93
-1056964608
 45
4.0
292
     0
297
     0
 46
4.0
 94
-1056964608
 47
1.0
 49
1.0
140
1.0
293
     1
141
0.0
294
     1
177
     0
142
1.0
295
     0
296
     0
143
0.125
1001
ACAD_MLEADERVER
1070
     2
  0
MLINESTYLE
  5
18
102
{ACAD_REACTORS
330
17
102
}
330
17
100
AcDbMlineStyle
  2
STANDARD
 70
     0
  3

 62
   256
 51
90.0
 52
90.0
 71
     2
 49
0.5
 62
   256
  6
BYLAYER
 49
-0.5
 62
   256
  6
BYLAYER
  0
ACDBPLACEHOLDER
  5
F
102
{ACAD_REACTORS
330
E
102
}
330
E
  0
SCALE
  5
2A3
102
{ACAD_REACTORS
330
2A2
102
}
330
2A2
100
AcDbScale
 70
     0
300
1:1
140
1.0
141
1.0
290
     1
  0
SCALE
  5
2A4
102
{ACAD_REACTORS
330
2A2
102
}
330
2A2
100
AcDbScale
 70
     0
300
1:2
140
1.0
141
2.0
290
     0
  0
SCALE
  5
2A5
102
{ACAD_REACTORS
330
2A2
102
}
330
2A2
100
AcDbScale
 70
     0
300
1:4
140
1.0
141
4.0
290
     0
  0
SCALE
  5
2A6
102
{ACAD_REACTORS
330
2A2
102
}
330
2A2
100
AcDbScale
 70
     0
300
1:5
140
1.0
141
5.0
290
     0
  0
SCALE
  5
2A7
102
{ACAD_REACTORS
330
2A2
102
}
330
2A2
100
AcDbScale
 70
     0
300
1:8
140
1.0
141
8.0
290
     0
  0
SCALE
  5
2A8
102
{ACAD_REACTORS
330
2A2
102
}
330
2A2
100
AcDbScale
 70
     0
300
1:10
140
1.0
141
10.0
290
     0
  0
SCALE
  5
2A9
102
{ACAD_REACTORS
330
2A2
102
}
330
2A2
100
AcDbScale
 70
     0
300
1:16
140
1.0
141
16.0
290
     0
  0
SCALE
  5
2AA
102
{ACAD_REACTORS
330
2A2
102
}
330
2A2
100
AcDbScale
 70
     0
300
1:20
140
1.0
141
20.0
290
     0
  0
SCALE
  5
2AB
102
{ACAD_REACTORS
330
2A2
102
}
330
2A2
100
AcDbScale
 70
     0
300
1:30
140
1.0
141
30.0
290
     0
  0
SCALE
  5
2AC
102
{ACAD_REACTORS
330
2A2
102
}
330
2A2
100
AcDbScale
 70
     0
300
1:40
140
1.0
141
40.0
290
     0
  0
SCALE
  5
2AD
102
{ACAD_REACTORS
330
2A2
102
}
330
2A2
100
AcDbScale
 70
     0
300
1:50
140
1.0
141
50.0
290
     0
  0
SCALE
  5
2AE
102
{ACAD_REACTORS
330
2A2
102
}
330
2A2
100
AcDbScale
 70
     0
300
1:100
140
1.0
141
100.0
290
     0
  0
SCALE
  5
2AF
102
{ACAD_REACTORS
330
2A2
102
}
330
2A2
100
AcDbScale
 70
     0
300
2:1
140
2.0
141
1.0
290
     0
  0
SCALE
  5
2B0
102
{ACAD_REACTORS
330
2A2
102
}
330
2A2
100
AcDbScale
 70
     0
300
4:1
140
4.0
141
1.0
290
     0
  0
SCALE
  5
2B1
102
{ACAD_REACTORS
330
2A2
102
}
330
2A2
100
AcDbScale
 70
     0
300
8:1
140
8.0
141
1.0
290
     0
  0
SCALE
  5
2B2
102
{ACAD_REACTORS
330
2A2
102
}
330
2A2
100
AcDbScale
 70
     0
300
10:1
140
10.0
141
1.0
290
     0
  0
SCALE
  5
2B3
102
{ACAD_REACTORS
330
2A2
102
}
330
2A2
100
AcDbScale
 70
     0
300
100:1
140
100.0
141
1.0
290
     0
  0
SCALE
  5
2B4
102
{ACAD_REACTORS
330
2A2
102
}
330
2A2
100
AcDbScale
 70
     0
300
1/128" = 1'-0"
140
0.0078125
141
12.0
290
     0
  0
SCALE
  5
2B5
102
{ACAD_REACTORS
330
2A2
102
}
330
2A2
100
AcDbScale
 70
     0
300
1/64" = 1'-0"
140
0.015625
141
12.0
290
     0
  0
SCALE
  5
2B6
102
{ACAD_REACTORS
330
2A2
102
}
330
2A2
100
AcDbScale
 70
     0
300
1/32" = 1'-0"
140
0.03125
141
12.0
290
     0
  0
SCALE
  5
2B7
102
{ACAD_REACTORS
330
2A2
102
}
330
2A2
100
AcDbScale
 70
     0
300
1/16" = 1'-0"
140
0.0625
141
12.0
290
     0
  0
SCALE
  5
2B8
102
{ACAD_REACTORS
330
2A2
102
}
330
2A2
100
AcDbScale
 70
     0
300
3/32" = 1'-0"
140
0.09375
141
12.0
290
     0
  0
SCALE
  5
2B9
102
{ACAD_REACTORS
330
2A2
102
}
330
2A2
100
AcDbScale
 70
     0
300
1/8" = 1'-0"
140
0.125
141
12.0
290
     0
  0
SCALE
  5
2BA
102
{ACAD_REACTORS
330
2A2
102
}
330
2A2
100
AcDbScale
 70
     0
300
3/16" = 1'-0"
140
0.1875
141
12.0
290
     0
  0
SCALE
  5
2BB
102
{ACAD_REACTORS
330
2A2
102
}
330
2A2
100
AcDbScale
 70
     0
300
1/4" = 1'-0"
140
0.25
141
12.0
290
     0
  0
SCALE
  5
2BC
102
{ACAD_REACTORS
330
2A2
102
}
330
2A2
100
AcDbScale
 70
     0
300
3/8" = 1'-0"
140
0.375
141
12.0
290
     0
  0
SCALE
  5
2BD
102
{ACAD_REACTORS
330
2A2
102
}
330
2A2
100
AcDbScale
 70
     0
300
1/2" = 1'-0"
140
0.5
141
12.0
290
     0
  0
SCALE
  5
2BE
102
{ACAD_REACTORS
330
2A2
102
}
330
2A2
100
AcDbScale
 70
     0
300
3/4" = 1'-0"
140
0.75
141
12.0
290
     0
  0
SCALE
  5
2BF
102
{ACAD_REACTORS
330
2A2
102
}
330
2A2
100
AcDbScale
 70
     0
300
1" = 1'-0"
140
1.0
141
12.0
290
     0
  0
SCALE
  5
2C0
102
{ACAD_REACTORS
330
2A2
102
}
330
2A2
100
AcDbScale
 70
     0
300
1-1/2" = 1'-0"
140
1.5
141
12.0
290
     0
  0
SCALE
  5
2C1
102
{ACAD_REACTORS
330
2A2
102
}
330
2A2
100
AcDbScale
 70
     0
300
3" = 1'-0"
140
3.0
141
12.0
290
     0
  0
SCALE
  5
2C2
102
{ACAD_REACTORS
330
2A2
102
}
330
2A2
100
AcDbScale
 70
     0
300
6" = 1'-0"
140
6.0
141
12.0
290
     0
  0
SCALE
  5
2C3
102
{ACAD_REACTORS
330
2A2
102
}
330
2A2
100
AcDbScale
 70
     0
300
1'-0" = 1'-0"
140
12.0
141
12.0
290
     0
  0
TABLESTYLE
  5
11B
102
{ACAD_XDICTIONARY
360
2E4
102
}
102
{ACAD_REACTORS
330
11A
102
}
330
11A
100
AcDbTableStyle
  3
Standard
 70
     0
 71
     0
 40
1.5
 41
1.5
280
     0
281
     0
  7
STANDARD
140
4.5
170
     2
 62
     0
 63
     7
283
     0
274
    -2
284
     1
 64
     0
275
    -2
285
     1
 65
     0
276
    -2
286
     1
 66
     0
277
    -2
287
     1
 67
     0
278
    -2
288
     1
 68
     0
279
    -2
289
     1
 69
     0
  7
STANDARD
140
6.0
170
     5
 62
     0
 63
     7
283
     0
274
    -2
284
     1
 64
     0
275
    -2
285
     1
 65
     0
276
    -2
286
     1
 66
     0
277
    -2
287
     1
 67
     0
278
    -2
288
     1
 68
     0
279
    -2
289
     1
 69
     0
  7
STANDARD
140
4.5
170
     5
 62
     0
 63
     7
283
     0
274
    -2
284
     1
 64
     0
275
    -2
285
     1
 65
     0
276
    -2
286
     1
 66
     0
277
    -2
287
     1
 67
     0
278
    -2
288
     1
 68
     0
279
    -2
289
     1
 69
     0
  0
VISUALSTYLE
  5
274
102
{ACAD_REACTORS
330
26E
102
}
330
26E
100
AcDbVisualStyle
  2
2dWireframe
 70
     4
 71
     0
 72
     2
 73
     0
 90
        0
 40
-0.6
 41
-30.0
 62
     5
 63
     7
 74
     1
 91
        4
 64
     7
 65
   257
 75
     1
175
     1
 42
1.0
 92
        0
 66
   257
 43
1.0
 76
     1
 77
     6
 78
     2
 67
     7
 79
     5
170
     0
171
     0
290
     0
174
     0
 93
        1
 44
0.0
173
     0
291
     0
 45
0.0
1001
ACAD
1000
AcDbSavedByObjectVersion
1070
     0
  0
VISUALSTYLE
  5
276
102
{ACAD_REACTORS
330
26E
102
}
330
26E
100
AcDbVisualStyle
  2
3D Hidden
 70
     6
 71
     1
 72
     2
 73
     2
 90
        0
 40
-0.6
 41
-30.0
 62
     5
 63
     7
 74
     2
 91
        2
 64
     7
 65
   257
 75
     2
175
     1
 42
40.0
 92
        0
 66
   257
 43
1.0
 76
     1
 77
     6
 78
     2
 67
     7
 79
     3
170
     0
171
     0
290
     0
174
     0
 93
        1
 44
0.0
173
     0
291
     0
 45
0.0
1001
ACAD
1000
AcDbSavedByObjectVersion
1070
     0
  0
VISUALSTYLE
  5
275
102
{ACAD_REACTORS
330
26E
102
}
330
26E
100
AcDbVisualStyle
  2
3dWireframe
 70
     5
 71
     0
 72
     2
 73
     0
 90
        0
 40
-0.6
 41
-30.0
 62
     5
 63
     7
 74
     1
 91
        4
 64
     7
 65
   257
 75
     1
175
     1
 42
1.0
 92
        0
 66
   257
 43
1.0
 76
     1
 77
     6
 78
     2
 67
     7
 79
     5
170
     0
171
     0
290
     0
174
     0
 93
        1
 44
0.0
173
     0
291
     0
 45
0.0
1001
ACAD
1000
AcDbSavedByObjectVersion
1070
     0
  0
VISUALSTYLE
  5
273
102
{ACAD_REACTORS
330
26E
102
}
330
26E
100
AcDbVisualStyle
  2
Basic
 70
     7
 71
     1
 72
     0
 73
     1
 90
        0
 40
-0.6
 41
-30.0
 62
     5
 63
     7
 74
     0
 91
        4
 64
     7
 65
   257
 75
     1
175
     1
 42
1.0
 92
        8
 66
     7
 43
1.0
 76
     1
 77
     6
 78
     2
 67
     7
 79
     5
170
     0
171
     0
290
     0
174
     0
 93
        1
 44
0.0
173
     0
291
     1
 45
0.0
1001
ACAD
1000
AcDbSavedByObjectVersion
1070
     0
  0
VISUALSTYLE
  5
27A
102
{ACAD_REACTORS
330
26E
102
}
330
26E
100
AcDbVisualStyle
  2
Brighten
 70
    12
 71
     2
 72
     2
 73
     0
 90
        0
 40
-0.6
 41
-30.0
 62
     5
 63
     7
 74
     1
 91
        4
 64
     7
 65
   257
 75
     1
175
     1
 42
1.0
 92
        8
 66
     7
 43
1.0
 76
     1
 77
     6
 78
     2
 67
     7
 79
     5
170
     0
171
     0
290
     0
174
     0
 93
        1
 44
50.0
173
     0
291
     1
 45
0.0
1001
ACAD
1000
AcDbSavedByObjectVersion
1070
     0
  0
VISUALSTYLE
  5
27E
102
{ACAD_REACTORS
330
26E
102
}
330
26E
100
AcDbVisualStyle
  2
ColorChange
 70
    16
 71
     2
 72
     2
 73
     3
 90
        0
 40
-0.6
 41
-30.0
 62
     5
 63
     8
 74
     1
 91
        4
 64
     7
 65
   257
 75
     1
175
     1
 42
1.0
 92
        8
 66
     8
 43
1.0
 76
     1
 77
     6
 78
     2
 67
     7
 79
     5
170
     0
171
     0
290
     0
174
     0
 93
        1
 44
0.0
173
     0
291
     1
 45
0.0
1001
ACAD
1000
AcDbSavedByObjectVersion
1070
     0
  0
VISUALSTYLE
  5
277
102
{ACAD_REACTORS
330
26E
102
}
330
26E
100
AcDbVisualStyle
  2
Conceptual
 70
     9
 71
     3
 72
     2
 73
     0
 90
        0
 40
-0.6
 41
-30.0
 62
     5
 63
     7
 74
     2
 91
        2
 64
     7
 65
   257
 75
     1
175
     1
 42
40.0
 92
        8
 66
     7
 43
1.0
 76
     1
 77
     6
 78
     2
 67
     7
 79
     3
170
     0
171
     0
290
     0
174
     0
 93
        1
 44
0.0
173
     0
291
     0
 45
0.0
1001
ACAD
1000
AcDbSavedByObjectVersion
1070
     0
  0
VISUALSTYLE
  5
279
102
{ACAD_REACTORS
330
26E
102
}
330
26E
100
AcDbVisualStyle
  2
Dim
 70
    11
 71
     2
 72
     2
 73
     0
 90
        0
 40
-0.6
 41
-30.0
 62
     5
 63
     7
 74
     1
 91
        4
 64
     7
 65
   257
 75
     1
175
     1
 42
1.0
 92
        8
 66
     7
 43
1.0
 76
     1
 77
     6
 78
     2
 67
     7
 79
     5
170
     0
171
     0
290
     0
174
     0
 93
        1
 44
-50.0
173
     0
291
     1
 45
0.0
1001
ACAD
1000
AcDbSavedByObjectVersion
1070
     0
  0
VISUALSTYLE
  5
27D
102
{ACAD_REACTORS
330
26E
102
}
330
26E
100
AcDbVisualStyle
  2
Facepattern
 70
    15
 71
     2
 72
     2
 73
     0
 90
        0
 40
-0.6
 41
-30.0
 62
     5
 63
     7
 74
     1
 91
        4
 64
     7
 65
   257
 75
     1
175
     1
 42
1.0
 92
        8
 66
     7
 43
1.0
 76
     1
 77
     6
 78
     2
 67
     7
 79
     5
170
     0
171
     0
290
     0
174
     0
 93
        1
 44
0.0
173
     0
291
     1
 45
0.0
1001
ACAD
1000
AcDbSavedByObjectVersion
1070
     0
  0
VISUALSTYLE
  5
26F
102
{ACAD_REACTORS
330
26E
102
}
330
26E
100
AcDbVisualStyle
  2
Flat
 70
     0
 71
     2
 72
     1
 73
     1
 90
        2
 40
-0.6
 41
30.0
 62
     5
 63
     7
 74
     0
 91
        4
 64
     7
 65
   257
 75
     1
175
     1
 42
1.0
 92
        8
 66
     7
 43
1.0
 76
     1
 77
     6
 78
     2
 67
     7
 79
     5
170
     0
171
     0
290
     0
174
     0
 93
       13
 44
0.0
173
     0
291
     1
 45
0.0
1001
ACAD
1000
AcDbSavedByObjectVersion
1070
     0
  0
VISUALSTYLE
  5
270
102
{ACAD_REACTORS
330
26E
102
}
330
26E
100
AcDbVisualStyle
  2
FlatWithEdges
 70
     1
 71
     2
 72
     1
 73
     1
 90
        2
 40
-0.6
 41
30.0
 62
     5
 63
     7
 74
     1
 91
        4
 64
     7
 65
   257
 75
     1
175
     1
 42
1.0
 92
        0
 66
   257
 43
1.0
 76
     1
 77
     6
 78
     2
 67
     7
 79
     5
170
     0
171
     0
290
     0
174
     0
 93
       13
 44
0.0
173
     0
291
     1
 45
0.0
1001
ACAD
1000
AcDbSavedByObjectVersion
1070
     0
  0
VISUALSTYLE
  5
271
102
{ACAD_REACTORS
330
26E
102
}
330
26E
100
AcDbVisualStyle
  2
Gouraud
 70
     2
 71
     2
 72
     2
 73
     1
 90
        2
 40
-0.6
 41
30.0
 62
     5
 63
     7
 74
     0
 91
        4
 64
     7
 65
   257
 75
     1
175
     1
 42
1.0
 92
        0
 66
     7
 43
1.0
 76
     1
 77
     6
 78
     2
 67
     7
 79
     5
170
     0
171
     0
290
     0
174
     0
 93
       13
 44
0.0
173
     0
291
     1
 45
0.0
1001
ACAD
1000
AcDbSavedByObjectVersion
1070
     0
  0
VISUALSTYLE
  5
272
102
{ACAD_REACTORS
330
26E
102
}
330
26E
100
AcDbVisualStyle
  2
GouraudWithEdges
 70
     3
 71
     2
 72
     2
 73
     1
 90
        2
 40
-0.6
 41
30.0
 62
     5
 63
     7
 74
     1
 91
        4
 64
     7
 65
   257
 75
     1
175
     1
 42
1.0
 92
        0
 66
   257
 43
1.0
 76
     1
 77
     6
 78
     2
 67
     7
 79
     5
170
     0
171
     0
290
     0
174
     0
 93
       13
 44
0.0
173
     0
291
     1
 45
0.0
1001
ACAD
1000
AcDbSavedByObjectVersion
1070
     0
  0
VISUALSTYLE
  5
27C
102
{ACAD_REACTORS
330
26E
102
}
330
26E
100
AcDbVisualStyle
  2
Linepattern
 70
    14
 71
     2
 72
     2
 73
     0
 90
        0
 40
-0.6
 41
-30.0
 62
     5
 63
     7
 74
     1
 91
        4
 64
     7
 65
   257
 75
     7
175
     7
 42
1.0
 92
        8
 66
     7
 43
1.0
 76
     1
 77
     6
 78
     2
 67
     7
 79
     5
170
     0
171
     0
290
     0
174
     0
 93
        1
 44
0.0
173
     0
291
     1
 45
0.0
1001
ACAD
1000
AcDbSavedByObjectVersion
1070
     0
  0
VISUALSTYLE
  5
278
102
{ACAD_REACTORS
330
26E
102
}
330
26E
100
AcDbVisualStyle
  2
Realistic
 70
     8
 71
     2
 72
     2
 73
     0
 90
        0
 40
-0.6
 41
-30.0
 62
     5
 63
     7
 74
     1
 91
        0
 64
     7
 65
   257
 75
     1
175
     1
 42
1.0
 92
        8
 66
     8
 43
1.0
 76
     1
 77
     6
 78
     2
 67
     7
 79
     5
170
     0
171
     0
290
     0
174
     0
 93
       13
 44
0.0
173
     0
291
     0
 45
0.0
1001
ACAD
1000
AcDbSavedByObjectVersion
1070
     0
  0
VISUALSTYLE
  5
27B
102
{ACAD_REACTORS
330
26E
102
}
330
26E
100
AcDbVisualStyle
  2
Thicken
 70
    13
 71
     2
 72
     2
 73
     0
 90
        0
 40
-0.6
 41
-30.0
 62
     5
 63
     7
 74
     1
 91
        4
 64
     7
 65
   257
 75
     1
175
     1
 42
1.0
 92
       12
 66
     7
 43
1.0
 76
     1
 77
     6
 78
     2
 67
     7
 79
     5
170
     0
171
     0
290
     0
174
     0
 93
        1
 44
0.0
173
     0
291
     1
 45
0.0
1001
ACAD
1000
AcDbSavedByObjectVersion
1070
     0
  0
DICTIONARYVAR
  5
2E9
102
{ACAD_REACTORS
330
94
102
}
330
94
100
DictionaryVariables
280
     0
  1
1:1
  0
DICTIONARYVAR
  5
2E7
102
{ACAD_REACTORS
330
94
102
}
330
94
100
DictionaryVariables
280
     0
  1
STANDARD
  0
DICTIONARYVAR
  5
138
102
{ACAD_REACTORS
330
94
102
}
330
94
100
DictionaryVariables
280
     0
  1
STANDARD
  0
DICTIONARYVAR
  5
96
102
{ACAD_REACTORS
330
94
102
}
330
94
100
DictionaryVariables
280
     0
  1
2
  0
DICTIONARYVAR
  5
95
102
{ACAD_REACTORS
330
94
102
}
330
94
100
DictionaryVariables
280
     0
  1
0
  0
DICTIONARYVAR
  5
346
102
{ACAD_REACTORS
330
94
102
}
330
94
100
DictionaryVariables
280
     0
  1
1
  0
DICTIONARYVAR
  5
347
102
{ACAD_REACTORS
330
94
102
}
330
94
100
DictionaryVariables
280
     0
  1
15
  0
DICTIONARYVAR
  5
2EA
102
{ACAD_REACTORS
330
94
102
}
330
94
100
DictionaryVariables
280
     0
  1
0
  0
DICTIONARYVAR
  5
2E8
102
{ACAD_REACTORS
330
94
102
}
330
94
100
DictionaryVariables
280
     0
  1
0
  0
DICTIONARYVAR
  5
831
102
{ACAD_REACTORS
330
94
102
}
330
94
100
DictionaryVariables
280
     0
  1
127
  0
DICTIONARY
  5
36B
102
{ACAD_REACTORS
330
5B
102
}
330
5B
100
AcDbDictionary
281
     1
  0
DICTIONARY
  5
61
102
{ACAD_REACTORS
330
5B
102
}
330
5B
100
AcDbDictionary
281
     1
  0
XRECORD
  5
123
102
{ACAD_REACTORS
330
5B
102
}
330
5B
100
AcDbXrecord
280
     1
 90
-1023410169
  0
DICTIONARY
  5
839
330
1E
100
AcDbDictionary
280
     1
281
     1
  3
ACAD_XREC_ROUNDTRIP
360
83A
  0
DICTIONARY
  5
83D
330
26
100
AcDbDictionary
280
     1
281
     1
  3
ACAD_XREC_ROUNDTRIP
360
83E
  0
DICTIONARY
  5
83B
330
22
100
AcDbDictionary
280
     1
281
     1
  3
ACAD_XREC_ROUNDTRIP
360
83C
  0
DICTIONARY
  5
847
330
26C
100
AcDbDictionary
280
     1
281
     1
  3
ACAD_XREC_ROUNDTRIP
360
848
  0
DICTIONARY
  5
845
330
26B
100
AcDbDictionary
280
     1
281
     1
  3
ACAD_XREC_ROUNDTRIP
360
846
  0
DICTIONARY
  5
849
330
26D
100
AcDbDictionary
280
     1
281
     1
  3
ACAD_XREC_ROUNDTRIP
360
84A
  0
DICTIONARY
  5
2E4
330
11B
100
AcDbDictionary
280
     1
281
     1
  3
ACAD_ROUNDTRIP_2008_TABLESTYLE_CELLSTYLEMAP
360
832
  3
ACAD_XREC_ROUNDTRIP
360
844
  0
XRECORD
  5
83A
102
{ACAD_REACTORS
330
839
102
}
330
839
100
AcDbXrecord
280
     1
102
SHADEPLOT
 70
     0
102
SHADEPLOTRESLEVEL
 70
     2
102
SHADEPLOTCUSTOMDPI
 70
   300
  0
XRECORD
  5
83E
102
{ACAD_REACTORS
330
83D
102
}
330
83D
100
AcDbXrecord
280
     1
102
SHADEPLOT
 70
     0
102
SHADEPLOTRESLEVEL
 70
     2
102
SHADEPLOTCUSTOMDPI
 70
   300
  0
XRECORD
  5
83C
102
{ACAD_REACTORS
330
83B
102
}
330
83B
100
AcDbXrecord
280
     1
102
SHADEPLOT
 70
     0
102
SHADEPLOTRESLEVEL
 70
     2
102
SHADEPLOTCUSTOMDPI
 70
   300
  0
XRECORD
  5
848
102
{ACAD_REACTORS
330
847
102
}
330
847
100
AcDbXrecord
280
     1
102
MATERIAL
148
0.0
149
0.0
149
0.0
 93
        0
 94
       63
282
     0
 72
     1
 77
     1
171
     1
175
     1
179
     1
273
     0
  0
XRECORD
  5
846
102
{ACAD_REACTORS
330
845
102
}
330
845
100
AcDbXrecord
280
     1
102
MATERIAL
148
0.0
149
0.0
149
0.0
 93
        0
 94
       63
282
     0
 72
     1
 77
     1
171
     1
175
     1
179
     1
273
     0
  0
XRECORD
  5
84A
102
{ACAD_REACTORS
330
849
102
}
330
849
100
AcDbXrecord
280
     1
102
MATERIAL
148
0.0
149
0.0
149
0.0
 93
        0
 94
       63
282
     0
 72
     1
 77
     1
171
     1
175
     1
179
     1
273
     0
  0
CELLSTYLEMAP
  5
832
102
{ACAD_REACTORS
330
2E4
102
}
330
2E4
100
AcDbCellStyleMap
 90
        3
300
CELLSTYLE
  1
TABLEFORMAT_BEGIN
 90
        5
170
     1
 91
        0
 92
    32768
 62
   257
 93
        1
300
CONTENTFORMAT
  1
CONTENTFORMAT_BEGIN
 90
        0
 91
        0
 92
      512
 93
        0
300

 40
0.0
140
1.0
 94
        5
 62
     0
340
11
144
6.0
309
CONTENTFORMAT_END
171
     1
301
MARGIN
  1
CELLMARGIN_BEGIN
 40
1.5
 40
1.5
 40
1.5
 40
1.5
 40
0.18
 40
0.18
309
CELLMARGIN_END
 94
        6
 95
        1
302
GRIDFORMAT
  1
GRIDFORMAT_BEGIN
 90
        0
 91
        1
 62
     0
 92
       -2
340
0
 93
        0
 40
0.045
309
GRIDFORMAT_END
 95
        2
302
GRIDFORMAT
  1
GRIDFORMAT_BEGIN
 90
        0
 91
        1
 62
     0
 92
       -2
340
0
 93
        0
 40
0.045
309
GRIDFORMAT_END
 95
        4
302
GRIDFORMAT
  1
GRIDFORMAT_BEGIN
 90
        0
 91
        1
 62
     0
 92
       -2
340
0
 93
        0
 40
0.045
309
GRIDFORMAT_END
 95
        8
302
GRIDFORMAT
  1
GRIDFORMAT_BEGIN
 90
        0
 91
        1
 62
     0
 92
       -2
340
0
 93
        0
 40
0.045
309
GRIDFORMAT_END
 95
       16
302
GRIDFORMAT
  1
GRIDFORMAT_BEGIN
 90
        0
 91
        1
 62
     0
 92
       -2
340
0
 93
        0
 40
0.045
309
GRIDFORMAT_END
 95
       32
302
GRIDFORMAT
  1
GRIDFORMAT_BEGIN
 90
        0
 91
        1
 62
     0
 92
       -2
340
0
 93
        0
 40
0.045
309
GRIDFORMAT_END
309
TABLEFORMAT_END
  1
CELLSTYLE_BEGIN
 90
        1
 91
        1
300
_TITLE
309
CELLSTYLE_END
300
CELLSTYLE
  1
TABLEFORMAT_BEGIN
 90
        5
170
     1
 91
        0
 92
        0
 62
   257
 93
        1
300
CONTENTFORMAT
  1
CONTENTFORMAT_BEGIN
 90
        0
 91
        0
 92
      512
 93
        0
300

 40
0.0
140
1.0
 94
        5
 62
     0
340
11
144
4.5
309
CONTENTFORMAT_END
171
     1
301
MARGIN
  1
CELLMARGIN_BEGIN
 40
1.5
 40
1.5
 40
1.5
 40
1.5
 40
0.18
 40
0.18
309
CELLMARGIN_END
 94
        6
 95
        1
302
GRIDFORMAT
  1
GRIDFORMAT_BEGIN
 90
        0
 91
        1
 62
     0
 92
       -2
340
0
 93
        0
 40
0.045
309
GRIDFORMAT_END
 95
        2
302
GRIDFORMAT
  1
GRIDFORMAT_BEGIN
 90
        0
 91
        1
 62
     0
 92
       -2
340
0
 93
        0
 40
0.045
309
GRIDFORMAT_END
 95
        4
302
GRIDFORMAT
  1
GRIDFORMAT_BEGIN
 90
        0
 91
        1
 62
     0
 92
       -2
340
0
 93
        0
 40
0.045
309
GRIDFORMAT_END
 95
        8
302
GRIDFORMAT
  1
GRIDFORMAT_BEGIN
 90
        0
 91
        1
 62
     0
 92
       -2
340
0
 93
        0
 40
0.045
309
GRIDFORMAT_END
 95
       16
302
GRIDFORMAT
  1
GRIDFORMAT_BEGIN
 90
        0
 91
        1
 62
     0
 92
       -2
340
0
 93
        0
 40
0.045
309
GRIDFORMAT_END
 95
       32
302
GRIDFORMAT
  1
GRIDFORMAT_BEGIN
 90
        0
 91
        1
 62
     0
 92
       -2
340
0
 93
        0
 40
0.045
309
GRIDFORMAT_END
309
TABLEFORMAT_END
  1
CELLSTYLE_BEGIN
 90
        2
 91
        1
300
_HEADER
309
CELLSTYLE_END
300
CELLSTYLE
  1
TABLEFORMAT_BEGIN
 90
        5
170
     1
 91
        0
 92
        0
 62
   257
 93
        1
300
CONTENTFORMAT
  1
CONTENTFORMAT_BEGIN
 90
        0
 91
        0
 92
      512
 93
        0
300

 40
0.0
140
1.0
 94
        2
 62
     0
340
11
144
4.5
309
CONTENTFORMAT_END
171
     1
301
MARGIN
  1
CELLMARGIN_BEGIN
 40
1.5
 40
1.5
 40
1.5
 40
1.5
 40
0.18
 40
0.18
309
CELLMARGIN_END
 94
        6
 95
        1
302
GRIDFORMAT
  1
GRIDFORMAT_BEGIN
 90
        0
 91
        1
 62
     0
 92
       -2
340
0
 93
        0
 40
0.045
309
GRIDFORMAT_END
 95
        2
302
GRIDFORMAT
  1
GRIDFORMAT_BEGIN
 90
        0
 91
        1
 62
     0
 92
       -2
340
0
 93
        0
 40
0.045
309
GRIDFORMAT_END
 95
        4
302
GRIDFORMAT
  1
GRIDFORMAT_BEGIN
 90
        0
 91
        1
 62
     0
 92
       -2
340
0
 93
        0
 40
0.045
309
GRIDFORMAT_END
 95
        8
302
GRIDFORMAT
  1
GRIDFORMAT_BEGIN
 90
        0
 91
        1
 62
     0
 92
       -2
340
0
 93
        0
 40
0.045
309
GRIDFORMAT_END
 95
       16
302
GRIDFORMAT
  1
GRIDFORMAT_BEGIN
 90
        0
 91
        1
 62
     0
 92
       -2
340
0
 93
        0
 40
0.045
309
GRIDFORMAT_END
 95
       32
302
GRIDFORMAT
  1
GRIDFORMAT_BEGIN
 90
        0
 91
        1
 62
     0
 92
       -2
340
0
 93
        0
 40
0.045
309
GRIDFORMAT_END
309
TABLEFORMAT_END
  1
CELLSTYLE_BEGIN
 90
        3
 91
        2
300
_DATA
309
CELLSTYLE_END
  0
XRECORD
  5
844
102
{ACAD_REACTORS
330
2E4
102
}
330
2E4
100
AcDbXrecord
280
     1
102
ACAD_ROUNDTRIP_PRE2007_TABLESTYLE
 90
      512
 91
        0
  1

 92
      512
 93
        0
  2

 94
      512
 95
        0
  3

  0
ENDSEC
  0
EOF
