  0
SECTION
  2
HEADER
  9
$ACADVER
  1
AC1015
  9
$ACADMAINTVER
 70
    20
  9
$DWGCODEPAGE
  3
ANSI_1252
  9
$INSBASE
 10
0.0
 20
0.0
 30
0.0
  9
$EXTMIN
 10
-605.506114090754
 20
405.5593216968
 30
0.0
  9
$EXTMAX
 10
119.9977166511
 20
642.0477383057259
 30
0.0
  9
$LIMMIN
 10
0.0
 20
0.0
  9
$LIMMAX
 10
420.0
 20
297.0
  9
$ORTHOMODE
 70
     0
  9
$REGENMODE
 70
     1
  9
$FILLMODE
 70
     1
  9
$QTEXTMODE
 70
     0
  9
$MIRRTEXT
 70
     0
  9
$LTSCALE
 40
23.1
  9
$ATTMODE
 70
     1
  9
$TEXTSIZE
 40
0.2
  9
$TRACEWID
 40
0.05
  9
$TEXTSTYLE
  7
STANDARD
  9
$CLAYER
  8
0
  9
$CELTYPE
  6
BYLAYER
  9
$CECOLOR
 62
   256
  9
$CELTSCALE
 40
1.0
  9
$DISPSILH
 70
     0
  9
$DIMSCALE
 40
1.0
  9
$DIMASZ
 40
3.5
  9
$DIMEXO
 40
1.5
  9
$DIMDLI
 40
15.96
  9
$DIMRND
 40
0.0
  9
$DIMDLE
 40
0.0
  9
$DIMEXE
 40
1.5
  9
$DIMTP
 40
0.005
  9
$DIMTM
 40
0.005
  9
$DIMTXT
 40
3.5
  9
$DIMCEN
 40
3.779999999999999
  9
$DIMTSZ
 40
0.0
  9
$DIMTOL
 70
     1
  9
$DIMLIM
 70
     0
  9
$DIMTIH
 70
     1
  9
$DIMTOH
 70
     1
  9
$DIMSE1
 70
     0
  9
$DIMSE2
 70
     0
  9
$DIMTAD
 70
     0
  9
$DIMZIN
 70
     0
  9
$DIMBLK
  1
_FILLED
  9
$DIMASO
 70
     1
  9
$DIMSHO
 70
     1
  9
$DIMPOST
  1

  9
$DIMAPOST
  1

  9
$DIMALT
 70
     0
  9
$DIMALTD
 70
     2
  9
$DIMALTF
 40
25.4
  9
$DIMLFAC
 40
1.0
  9
$DIMTOFL
 70
     0
  9
$DIMTVP
 40
0.0
  9
$DIMTIX
 70
     0
  9
$DIMSOXD
 70
     0
  9
$DIMSAH
 70
     0
  9
$DIMBLK1
  1

  9
$DIMBLK2
  1

  9
$DIMSTYLE
  2
STANDARD
  9
$DIMCLRD
 70
     0
  9
$DIMCLRE
 70
     0
  9
$DIMCLRT
 70
     0
  9
$DIMTFAC
 40
1.0
  9
$DIMGAP
 40
0.625
  9
$DIMJUST
 70
     0
  9
$DIMSD1
 70
     0
  9
$DIMSD2
 70
     0
  9
$DIMTOLJ
 70
     1
  9
$DIMTZIN
 70
     0
  9
$DIMALTZ
 70
     0
  9
$DIMALTTZ
 70
     0
  9
$DIMUPT
 70
     0
  9
$DIMDEC
 70
     4
  9
$DIMTDEC
 70
     4
  9
$DIMALTU
 70
     2
  9
$DIMALTTD
 70
     2
  9
$DIMTXSTY
  7
STANDARD
  9
$DIMAUNIT
 70
     0
  9
$DIMADEC
 70
     0
  9
$DIMALTRND
 40
0.0
  9
$DIMAZIN
 70
     0
  9
$DIMDSEP
 70
    46
  9
$DIMATFIT
 70
     3
  9
$DIMFRAC
 70
     0
  9
$DIMLDRBLK
  1

  9
$DIMLUNIT
 70
     2
  9
$DIMLWD
 70
    -2
  9
$DIMLWE
 70
    -2
  9
$DIMTMOVE
 70
     0
  9
$LUNITS
 70
     2
  9
$LUPREC
 70
     4
  9
$SKETCHINC
 40
0.1
  9
$FILLETRAD
 40
0.0
  9
$AUNITS
 70
     0
  9
$AUPREC
 70
     0
  9
$MENU
  1
.
  9
$ELEVATION
 40
0.0
  9
$PELEVATION
 40
0.0
  9
$THICKNESS
 40
0.0
  9
$LIMCHECK
 70
     0
  9
$CHAMFERA
 40
0.0
  9
$CHAMFERB
 40
0.0
  9
$CHAMFERC
 40
0.0
  9
$CHAMFERD
 40
0.0
  9
$SKPOLY
 70
     0
  9
$TDCREATE
 40
2457800.639977524
  9
$TDUCREATE
 40
2457800.598310857
  9
$TDUPDATE
 40
2457800.648311516
  9
$TDUUPDATE
 40
2457800.606644850
  9
$TDINDWG
 40
0.0078913773
  9
$TDUSRTIMER
 40
0.0078913773
  9
$USRTIMER
 70
     1
  9
$ANGBASE
 50
0.0
  9
$ANGDIR
 70
     0
  9
$PDMODE
 70
     3
  9
$PDSIZE
 40
0.3125
  9
$PLINEWID
 40
0.0
  9
$SPLFRAME
 70
     0
  9
$SPLINETYPE
 70
     6
  9
$SPLINESEGS
 70
     8
  9
$HANDSEED
  5
975
  9
$SURFTAB1
 70
     6
  9
$SURFTAB2
 70
     6
  9
$SURFTYPE
 70
     6
  9
$SURFU
 70
     6
  9
$SURFV
 70
     6
  9
$UCSBASE
  2

  9
$UCSNAME
  2

  9
$UCSORG
 10
0.0
 20
0.0
 30
0.0
  9
$UCSXDIR
 10
1.0
 20
0.0
 30
0.0
  9
$UCSYDIR
 10
0.0
 20
1.0
 30
0.0
  9
$UCSORTHOREF
  2

  9
$UCSORTHOVIEW
 70
     0
  9
$UCSORGTOP
 10
0.0
 20
0.0
 30
0.0
  9
$UCSORGBOTTOM
 10
0.0
 20
0.0
 30
0.0
  9
$UCSORGLEFT
 10
0.0
 20
0.0
 30
0.0
  9
$UCSORGRIGHT
 10
0.0
 20
0.0
 30
0.0
  9
$UCSORGFRONT
 10
0.0
 20
0.0
 30
0.0
  9
$UCSORGBACK
 10
0.0
 20
0.0
 30
0.0
  9
$PUCSBASE
  2

  9
$PUCSNAME
  2

  9
$PUCSORG
 10
0.0
 20
0.0
 30
0.0
  9
$PUCSXDIR
 10
1.0
 20
0.0
 30
0.0
  9
$PUCSYDIR
 10
0.0
 20
1.0
 30
0.0
  9
$PUCSORTHOREF
  2

  9
$PUCSORTHOVIEW
 70
     0
  9
$PUCSORGTOP
 10
0.0
 20
0.0
 30
0.0
  9
$PUCSORGBOTTOM
 10
0.0
 20
0.0
 30
0.0
  9
$PUCSORGLEFT
 10
0.0
 20
0.0
 30
0.0
  9
$PUCSORGRIGHT
 10
0.0
 20
0.0
 30
0.0
  9
$PUCSORGFRONT
 10
0.0
 20
0.0
 30
0.0
  9
$PUCSORGBACK
 10
0.0
 20
0.0
 30
0.0
  9
$USERI1
 70
     0
  9
$USERI2
 70
     0
  9
$USERI3
 70
     0
  9
$USERI4
 70
     0
  9
$USERI5
 70
     0
  9
$USERR1
 40
0.0
  9
$USERR2
 40
0.0
  9
$USERR3
 40
0.0
  9
$USERR4
 40
0.0
  9
$USERR5
 40
0.0
  9
$WORLDVIEW
 70
     1
  9
$SHADEDGE
 70
     3
  9
$SHADEDIF
 70
    70
  9
$TILEMODE
 70
     1
  9
$MAXACTVP
 70
    64
  9
$PINSBASE
 10
0.0
 20
0.0
 30
0.0
  9
$PLIMCHECK
 70
     0
  9
$PEXTMIN
 10
1.000000000000000E+20
 20
1.000000000000000E+20
 30
1.000000000000000E+20
  9
$PEXTMAX
 10
-1.000000000000000E+20
 20
-1.000000000000000E+20
 30
-1.000000000000000E+20
  9
$PLIMMIN
 10
0.0
 20
0.0
  9
$PLIMMAX
 10
12.0
 20
9.0
  9
$UNITMODE
 70
     0
  9
$VISRETAIN
 70
     1
  9
$PLINEGEN
 70
     0
  9
$PSLTSCALE
 70
     1
  9
$TREEDEPTH
 70
  3020
  9
$CMLSTYLE
  2
Standard
  9
$CMLJUST
 70
     0
  9
$CMLSCALE
 40
1.0
  9
$PROXYGRAPHICS
 70
     1
  9
$MEASUREMENT
 70
     1
  9
$CELWEIGHT
370
    -1
  9
$ENDCAPS
280
     0
  9
$JOINSTYLE
280
     0
  9
$LWDISPLAY
290
     0
  9
$INSUNITS
 70
     4
  9
$HYPERLINKBASE
  1

  9
$STYLESHEET
  1
monochrome.ctb
  9
$XEDIT
290
     1
  9
$CEPSNTYPE
380
     0
  9
$PSTYLEMODE
290
     1
  9
$FINGERPRINTGUID
  2
{25E7B419-737E-49B3-9DAF-73F4974FF1AD}
  9
$VERSIONGUID
  2
{6F33DAD3-6EE8-418C-90E5-54EF14788F89}
  9
$EXTNAMES
290
     1
  9
$PSVPSCALE
 40
0.0
  9
$OLESTARTUP
290
     0
  0
ENDSEC
  0
SECTION
  2
CLASSES
  0
CLASS
  1
ACDBDICTIONARYWDFLT
  2
AcDbDictionaryWithDefault
  3
ObjectDBX Classes
 90
        0
280
     0
281
     0
  0
CLASS
  1
ACDBPLACEHOLDER
  2
AcDbPlaceHolder
  3
ObjectDBX Classes
 90
        0
280
     0
281
     0
  0
CLASS
  1
LAYOUT
  2
AcDbLayout
  3
ObjectDBX Classes
 90
        0
280
     0
281
     0
  0
CLASS
  1
TABLESTYLE
  2
AcDbTableStyle
  3
ObjectDBX Classes
 90
     4095
280
     0
281
     0
  0
CLASS
  1
ACAD_TABLE
  2
AcDbTable
  3
ObjectDBX Classes
 90
     1025
280
     0
281
     1
  0
CLASS
  1
MATERIAL
  2
AcDbMaterial
  3
ObjectDBX Classes
 90
     1153
280
     0
281
     0
  0
CLASS
  1
VISUALSTYLE
  2
AcDbVisualStyle
  3
ObjectDBX Classes
 90
     4095
280
     0
281
     0
  0
CLASS
  1
SCALE
  2
AcDbScale
  3
ObjectDBX Classes
 90
     1153
280
     0
281
     0
  0
CLASS
  1
MLEADERSTYLE
  2
AcDbMLeaderStyle
  3
ACDB_MLEADERSTYLE_CLASS
 90
     4095
280
     0
281
     0
  0
CLASS
  1
TABLECONTENT
  2
AcDbTableContent
  3
ObjectDBX Classes
 90
     1152
280
     0
281
     0
  0
CLASS
  1
TABLEGEOMETRY
  2
AcDbTableGeometry
  3
ObjectDBX Classes
 90
     1152
280
     0
281
     0
  0
CLASS
  1
CELLSTYLEMAP
  2
AcDbCellStyleMap
  3
ObjectDBX Classes
 90
     1152
280
     0
281
     0
  0
CLASS
  1
DICTIONARYVAR
  2
AcDbDictionaryVar
  3
ObjectDBX Classes
 90
        0
280
     0
281
     0
  0
CLASS
  1
ACDBSECTIONVIEWSTYLE
  2
AcDbSectionViewStyle
  3
ObjectDBX Classes
 90
     1025
280
     0
281
     0
  0
CLASS
  1
ACDBDETAILVIEWSTYLE
  2
AcDbDetailViewStyle
  3
ObjectDBX Classes
 90
     1025
280
     0
281
     0
  0
CLASS
  1
ACME_DOCUMENT
  2
AcMeDbDoc
  3
AcMeServices
 90
     1024
280
     0
281
     0
  0
CLASS
  1
AMGSETTINGSOBJ
  2
AmgSettingsObj
  3
"AcadM|Product Description: AutoCAD Mechanical|Company: Autodesk, Inc."
 90
     1024
280
     0
281
     0
  0
CLASS
  1
ACMESCOPE
  2
AcMeScope
  3
AcMeServices
 90
     1024
280
     0
281
     0
  0
CLASS
  1
ACMECOMMANDHISTORY
  2
AcMeCommandHistory
  3
AcMeServices
 90
     1024
280
     0
281
     0
  0
CLASS
  1
ACIMSYSVARMAN
  2
AcImSysVarManager
  3
AcMeServices
 90
     1024
280
     0
281
     0
  0
CLASS
  1
ACIMINTSYSVAR
  2
AcImIntSysVar
  3
AcMeServices
 90
     1024
280
     0
281
     0
  0
CLASS
  1
ACMESTATEMGR
  2
AcMeStateMgr
  3
AcMeServices
 90
     1024
280
     0
281
     0
  0
CLASS
  1
ACDBENTITYCACHE
  2
AcMeEntityCache
  3
AcMeServices
 90
     1024
280
     0
281
     0
  0
CLASS
  1
ACGREFMASTER
  2
AcGrefMaster
  3
AcAttribServices
 90
     1024
280
     0
281
     0
  0
CLASS
  1
ACME_DATABASE
  2
AcMeDbDatabase
  3
AcMeServices
 90
     1024
280
     0
281
     0
  0
CLASS
  1
ACRFINSADJUSTERMGR
  2
AcRfInsAdjusterMgr
  3
AcMeServices
 90
     1024
280
     0
281
     0
  0
CLASS
  1
ACGREFACADMASTER
  2
AcGrefacadMaster
  3
AcGrefServices
 90
     1024
280
     0
281
     0
  0
CLASS
  1
AMDTMENUSTATEMGR
  2
AmdtMenuStateMgr
  3
McadcomServices
 90
     1024
280
     0
281
     0
  0
CLASS
  1
AMDTMCOMMENUSTATE
  2
AmdtMcomMenuState
  3
McadcomServices
 90
     1024
280
     0
281
     0
  0
CLASS
  1
AMIMASTER
  2
AmiMaster
  3
AmiServices
 90
     1024
280
     0
281
     0
  0
CLASS
  1
MAPIAMMOUDLE
  2
MApiAmModule
  3
MApiAmServices
 90
     1024
280
     0
281
     0
  0
CLASS
  1
ACIMSTRSYSVAR
  2
AcImStrSysVar
  3
AcMeServices
 90
     1024
280
     0
281
     0
  0
CLASS
  1
AMDTAMMENUSTATE
  2
AmdtAmMenuState
  3
DesignerAssemblies
 90
     1024
280
     0
281
     0
  0
CLASS
  1
ACAMPROJECT
  2
AcAmProject
  3
DesignerAssemblies
 90
     1024
280
     0
281
     0
  0
CLASS
  1
ACAMGRCOMPDEF
  2
AcAmGrCompDef
  3
DesignerAssemblies
 90
     1024
280
     0
281
     0
  0
CLASS
  1
ACAMCOMPDEF
  2
AcAmCompDef
  3
DesignerAssemblies
 90
     1024
280
     0
281
     0
  0
CLASS
  1
ACAMCOMPDEFMGR
  2
AcAmCompDefMgr
  3
DesignerAssemblies
 90
     1024
280
     0
281
     0
  0
CLASS
  1
AMCONTEXTMGR
  2
AcAmContextMgr
  3
DesignerAssemblies
 90
     1024
280
     0
281
     0
  0
CLASS
  1
ACAMCONTEXTMODELER
  2
AcAmContextModeler
  3
DesignerAssemblies
 90
     1024
280
     0
281
     0
  0
CLASS
  1
ACMDATADICTIONARY
  2
AcmDataDictionary
  3
"AcmSymBB|Product Description: AutoCAD Mechanical|Company: Autodesk, Inc."
 90
     1024
280
     0
281
     0
  0
CLASS
  1
ACAMGRCOMPDEFSET
  2
AcAmGrCompDefSet
  3
DesignerAssemblies
 90
     1024
280
     0
281
     0
  0
CLASS
  1
AMDTBROWSERDBTAB
  2
AmdtBrowserDbTab
  3
McadcomServices
 90
     1024
280
     0
281
     0
  0
CLASS
  1
CBROWSERAPPOBJECT
  2
CBrowserAppObject
  3
McadcomServices
 90
     1024
280
     0
281
     0
  0
CLASS
  1
DM_PLACEHOLDER
  2
AcDmSelsetPlaceholder
  3
McadcomServices
 90
     1024
280
     0
281
     0
  0
CLASS
  1
ACMSTANDARDISO
  2
AcmStandardISO
  3
"Amdt_StdImp|Product Description: AutoCAD Mechanical|Company: Autodesk, Inc."
 90
     1024
280
     0
281
     0
  0
CLASS
  1
AMDTEDGESTANDARDISO13715
  2
AmdtEdgeStdISO13715
  3
"Amdt_StdImp|Product Description: AutoCAD Mechanical|Company: Autodesk, Inc."
 90
     1024
280
     0
281
     0
  0
CLASS
  1
ACMSURFSTANDARDISO2002
  2
AcmSurfTextStdISO2002
  3
"Amdt_StdImp|Product Description: AutoCAD Mechanical|Company: Autodesk, Inc."
 90
     1024
280
     0
281
     0
  0
CLASS
  1
ACMFCFSTANDARDISO2004
  2
AcmFCFStdISO2004
  3
"Amdt_StdImp|Product Description: AutoCAD Mechanical|Company: Autodesk, Inc."
 90
     1024
280
     0
281
     0
  0
CLASS
  1
ACMWELDSTANDARDISO
  2
AcmWeldingStdISO
  3
"Amdt_StdImp|Product Description: AutoCAD Mechanical|Company: Autodesk, Inc."
 90
     1024
280
     0
281
     0
  0
CLASS
  1
ACMIDSTANDARDISO2004
  2
AcmIdStdISO2004
  3
"Amdt_StdImp|Product Description: AutoCAD Mechanical|Company: Autodesk, Inc."
 90
     1024
280
     0
281
     0
  0
CLASS
  1
ACMDATUMSTANDARDISO
  2
AcmDatumStdISO
  3
"Amdt_StdImp|Product Description: AutoCAD Mechanical|Company: Autodesk, Inc."
 90
     1024
280
     0
281
     0
  0
CLASS
  1
ACMBOMSTANDARDISO
  2
AcmBOMStdISO
  3
"Amdt_StdImp|Product Description: AutoCAD Mechanical|Company: Autodesk, Inc."
 90
     1024
280
     0
281
     0
  0
CLASS
  1
ACMDETAILSTANDARDISO
  2
AmdtDetailSymStdISO
  3
"Amdt_StdImp|Product Description: AutoCAD Mechanical|Company: Autodesk, Inc."
 90
     1024
280
     0
281
     0
  0
CLASS
  1
ACMSECTIONSTANDARDISO2001
  2
AmdtSectionSymStdISO2001
  3
"Amdt_StdImp|Product Description: AutoCAD Mechanical|Company: Autodesk, Inc."
 90
     1024
280
     0
281
     0
  0
CLASS
  1
ACMCENTERLINESTANDARDISO
  2
AmdtCenterLineStdISO
  3
"Amdt_StdImp|Product Description: AutoCAD Mechanical|Company: Autodesk, Inc."
 90
     1024
280
     0
281
     0
  0
CLASS
  1
ACMTHREADLINESTANDARDISO
  2
AmdtThreadLineStdISO
  3
"Amdt_StdImp|Product Description: AutoCAD Mechanical|Company: Autodesk, Inc."
 90
     1024
280
     0
281
     0
  0
CLASS
  1
ACMNOTESTANDARDISO
  2
AmdtNoteStdISO
  3
"Amdt_StdImp|Product Description: AutoCAD Mechanical|Company: Autodesk, Inc."
 90
     1024
280
     0
281
     0
  0
CLASS
  1
ACMTAPERSTANDARDISO
  2
AcmTaperStdISO
  3
"Amdt_StdImp|Product Description: AutoCAD Mechanical|Company: Autodesk, Inc."
 90
     1024
280
     0
281
     0
  0
CLASS
  1
ACMANOOTATIONVIEWSTANDARDISO
  2
AmdtAnViewStdISO
  3
"Amdt_StdImp|Product Description: AutoCAD Mechanical|Company: Autodesk, Inc."
 90
     1024
280
     0
281
     0
  0
CLASS
  1
ACAMGLAYSTD
  2
AcAmgLayStd
  3
"AmgLay|Product Description: AutoCAD Mechanical|Company: Autodesk, Inc."
 90
     1024
280
     0
281
     0
  0
CLASS
  1
ACAMGDIMSTD
  2
AcAmgDimStd
  3
"AmgDim|Product Description: AutoCAD Mechanical|Company: Autodesk, Inc."
 90
     1024
280
     0
281
     0
  0
CLASS
  1
AMGOBJPROPCFG
  2
AmgObjPropCfg
  3
"AmgLay|Product Description: AutoCAD Mechanical|Company: Autodesk, Inc."
 90
     1024
280
     0
281
     0
  0
CLASS
  1
ACAMGHOLECHARTSTDISO
  2
AcAmgHoleChartStdISO
  3
AmgDim|Product Description: AutoCAD Mechanical|Company: Autodesk, Inc.
 90
     1024
280
     0
281
     0
  0
CLASS
  1
ACAMGTITLESTD
  2
AcAmgTitleStd
  3
"AmgTitle|Product Description: AutoCAD Mechanical|Company: Autodesk, Inc."
 90
     1024
280
     0
281
     0
  0
CLASS
  1
ACMSECTIONSTANDARDCUSTOM
  2
AmdtSectionSymStdCustom
  3
"Amdt_StdImp|Product Description: AutoCAD Mechanical|Company: Autodesk, Inc."
 90
     1024
280
     0
281
     0
  0
CLASS
  1
ACMDETAILTANDARDCUSTOM
  2
AmdtDetailSymStdCustom
  3
"Amdt_StdImp|Product Description: AutoCAD Mechanical|Company: Autodesk, Inc."
 90
     1024
280
     0
281
     0
  0
CLASS
  1
FIELD
  2
AcDbField
  3
ObjectDBX Classes
 90
     1152
280
     0
281
     0
  0
CLASS
  1
FIELDLIST
  2
AcDbFieldList
  3
ObjectDBX Classes
 90
     1152
280
     0
281
     0
  0
CLASS
  1
AMDTNOTETEMPLATEDB
  2
AmdtNoteTemplateDB
  3
AcmSymBB|Product Description: AutoCAD Mechanical|Company: Autodesk, Inc.
 90
     1024
280
     0
281
     0
  0
CLASS
  1
ACAMGFILTERDAT
  2
AcAmgFilterDat
  3
"AcadM|Product Description: AutoCAD Mechanical|Company: Autodesk, Inc."
 90
     1024
280
     0
281
     0
  0
CLASS
  1
DIMASSOC
  2
AcDbDimAssoc
  3
"AcDbDimAssoc|Product Desc:     AcDim ARX App For Dimension|Company:          Autodesk, Inc.|WEB Address:      www.autodesk.com"
 90
        0
280
     0
281
     0
  0
CLASS
  1
CAMSSTRUCTBTNSTATE
  2
StructBtnState
  3
DesignerAssemblies
 90
     1024
280
     0
281
     0
  0
ENDSEC
  0
SECTION
  2
TABLES
  0
TABLE
  2
VPORT
  5
8
330
0
100
AcDbSymbolTable
 70
     1
  0
VPORT
  5
1F4
330
8
100
AcDbSymbolTableRecord
100
AcDbViewportTableRecord
  2
*ACTIVE
 70
     0
 10
0.0
 20
0.0
 11
1.0
 21
1.0
 12
204.9610199890083
 22
319.071214917487
 13
0.0
 23
0.0
 14
1.0
 24
1.0
 15
0.0
 25
0.0
 16
0.0
 26
0.0
 36
1.0
 17
0.0
 27
0.0
 37
0.0
 40
1144.773271474702
 41
2.568075117370892
 42
50.0
 43
0.0
 44
0.0
 50
0.0
 51
0.0
 71
     0
 72
   100
 73
     1
 74
     1
 75
     0
 76
     0
 77
     0
 78
     0
281
     0
 65
     1
110
0.0
120
0.0
130
0.0
111
1.0
121
0.0
131
0.0
112
0.0
122
1.0
132
0.0
 79
     0
146
0.0
1001
ACAD_NAV_VCDISPLAY
1070
     3
  0
ENDTAB
  0
TABLE
  2
LTYPE
  5
5
330
0
100
AcDbSymbolTable
 70
    18
  0
LTYPE
  5
14
330
5
100
AcDbSymbolTableRecord
100
AcDbLinetypeTableRecord
  2
BYBLOCK
 70
     0
  3

 72
    65
 73
     0
 40
0.0
  0
LTYPE
  5
15
330
5
100
AcDbSymbolTableRecord
100
AcDbLinetypeTableRecord
  2
BYLAYER
 70
     0
  3

 72
    65
 73
     0
 40
0.0
  0
LTYPE
  5
16
330
5
100
AcDbSymbolTableRecord
100
AcDbLinetypeTableRecord
  2
CONTINUOUS
 70
     0
  3
Solid line
 72
    65
 73
     0
 40
0.0
  0
LTYPE
  5
1F5
330
5
100
AcDbSymbolTableRecord
100
AcDbLinetypeTableRecord
  2
CENTER
 70
     0
  3
____ _ ____ _ ____ _ ____ _ ____ _ ____ _ ____
 72
    65
 73
     4
 40
0.6
 49
0.375
 74
     0
 49
-0.075
 74
     0
 49
0.075
 74
     0
 49
-0.075
 74
     0
  0
LTYPE
  5
1F6
330
5
100
AcDbSymbolTableRecord
100
AcDbLinetypeTableRecord
  2
HIDDEN
 70
     0
  3
- - - - - - - - - - - - - - - - - - - -
 72
    65
 73
     2
 40
0.2
 49
0.1
 74
     0
 49
-0.1
 74
     0
  0
LTYPE
  5
1F7
330
5
100
AcDbSymbolTableRecord
100
AcDbLinetypeTableRecord
  2
PHANTOM
 70
     0
  3
_____ _ _ _____ _ _ _____ _ _ _____
 72
    65
 73
     6
 40
0.8
 49
0.45
 74
     0
 49
-0.05
 74
     0
 49
0.1
 74
     0
 49
-0.05
 74
     0
 49
0.1
 74
     0
 49
-0.05
 74
     0
  0
LTYPE
  5
1F8
330
5
100
AcDbSymbolTableRecord
100
AcDbLinetypeTableRecord
  2
DOT
 70
     0
  3
. . . . . . . . . . . . . . . . . . . .
 72
    65
 73
     2
 40
0.2
 49
0.1
 74
     0
 49
-0.1
 74
     0
  0
LTYPE
  5
1F9
330
5
100
AcDbSymbolTableRecord
100
AcDbLinetypeTableRecord
  2
DASHED
 70
     0
  3
- - - - - - - - - - - - - - - - - - - -
 72
    65
 73
     2
 40
0.2
 49
0.1
 74
     0
 49
-0.1
 74
     0
  0
LTYPE
  5
64E
330
5
100
AcDbSymbolTableRecord
100
AcDbLinetypeTableRecord
  2
PHANTOM2
 70
     0
  3
Phantom (.5x) ___ _ _ ___ _ _ ___ _ _ ___ _ _
 72
    65
 73
     6
 40
31.75
 49
15.875
 74
     0
 49
-3.174999999999999
 74
     0
 49
3.174999999999999
 74
     0
 49
-3.174999999999999
 74
     0
 49
3.174999999999999
 74
     0
 49
-3.174999999999999
 74
     0
  0
LTYPE
  5
699
330
5
100
AcDbSymbolTableRecord
100
AcDbLinetypeTableRecord
  2
ACISOWELD
 70
     0
  3
_ _ _ _ _
 72
    65
 73
     2
 40
2.0
 49
2.0
 74
     0
 49
-1.0
 74
     0
  0
LTYPE
  5
69A
330
5
100
AcDbSymbolTableRecord
100
AcDbLinetypeTableRecord
  2
ACISOTGL
 70
     0
  3
_ _ _ _ _
 72
    65
 73
     2
 40
3.0
 49
2.0
 74
     0
 49
-1.0
 74
     0
  0
LTYPE
  5
69B
330
5
100
AcDbSymbolTableRecord
100
AcDbLinetypeTableRecord
  2
ACISOTGB
 70
     0
  3
__ . . __ . .
 72
    65
 73
     6
 40
9.0
 49
4.0
 74
     0
 49
-1.0
 74
     0
 49
1.0
 74
     0
 49
-1.0
 74
     0
 49
1.0
 74
     0
 49
-1.0
 74
     0
  0
LTYPE
  5
7B8
330
5
100
AcDbSymbolTableRecord
100
AcDbLinetypeTableRecord
  2
Amconstr
 70
     0
  3
_______________________
 72
    65
 73
     2
 40
9999.0
 49
9999.0
 74
     0
 49
0.0
 74
     0
  0
LTYPE
  5
7B9
330
5
100
AcDbSymbolTableRecord
100
AcDbLinetypeTableRecord
  2
Amzigzag
 70
     0
  3
/\/-/\/-/\/-/\/-/\/-/\/
 72
    65
 73
     2
 40
11.0001
 49
0.0001
 74
     4
 75
   135
340
7C0
 46
0.04
 50
0.0
 44
0.0
 45
0.0
 49
-11.0
 74
     0
  0
LTYPE
  5
7BA
330
5
100
AcDbSymbolTableRecord
100
AcDbLinetypeTableRecord
  2
AM_ISO02W050
 70
     0
  3
__ __ __ __ __ __ __ __ __ __ __ __ __ __ __
 72
    65
 73
     2
 40
7.5
 49
6.0
 74
     0
 49
-1.5
 74
     0
  0
LTYPE
  5
7BB
330
5
100
AcDbSymbolTableRecord
100
AcDbLinetypeTableRecord
  2
AM_ISO08W050
 70
     0
  3
____ . ____ . ____ . ____ . ____ . ____ . ____
 72
    65
 73
     4
 40
18.0
 49
12.0
 74
     0
 49
-1.5
 74
     0
 49
3.0
 74
     0
 49
-1.5
 74
     0
  0
LTYPE
  5
7BC
330
5
100
AcDbSymbolTableRecord
100
AcDbLinetypeTableRecord
  2
AM_ISO09W050
 70
     0
  3
_____ . . _____ . . _____ . . ____ .. ____
 72
    65
 73
     6
 40
22.5
 49
12.0
 74
     0
 49
-1.5
 74
     0
 49
3.0
 74
     0
 49
-1.5
 74
     0
 49
3.0
 74
     0
 49
-1.5
 74
     0
  0
LTYPE
  5
7BD
330
5
100
AcDbSymbolTableRecord
100
AcDbLinetypeTableRecord
  2
AM_ISO08W050x2
 70
     0
  3
__ . __ . __ . __ . __ . __
 72
    65
 73
     4
 40
9.0
 49
6.0
 74
     0
 49
-0.75
 74
     0
 49
1.5
 74
     0
 49
-0.75
 74
     0
  0
LTYPE
  5
7BE
330
5
100
AcDbSymbolTableRecord
100
AcDbLinetypeTableRecord
  2
AM_ISO02W050x2
 70
     0
  3
 _ _ _ _ _ _ _ _ _ _ _ _
 72
    65
 73
     2
 40
3.75
 49
3.0
 74
     0
 49
-0.75
 74
     0
  0
ENDTAB
  0
TABLE
  2
LAYER
  5
2
102
{ACAD_XDICTIONARY
360
7C6
102
}
330
0
100
AcDbSymbolTable
 70
    15
  0
LAYER
  5
10
102
{ACAD_XDICTIONARY
360
8EE
102
}
330
2
100
AcDbSymbolTableRecord
100
AcDbLayerTableRecord
  2
0
 70
     0
 62
     7
  6
CONTINUOUS
370
    -3
390
F
  0
LAYER
  5
1FA
102
{ACAD_XDICTIONARY
360
8F0
102
}
330
2
100
AcDbSymbolTableRecord
100
AcDbLayerTableRecord
  2
DEFAULT_1
 70
     0
 62
     7
  6
CENTER
370
    -3
390
F
  0
LAYER
  5
1FB
102
{ACAD_XDICTIONARY
360
8F2
102
}
330
2
100
AcDbSymbolTableRecord
100
AcDbLayerTableRecord
  2
DEFAULT_2
 70
     0
 62
     8
  6
HIDDEN
370
    -3
390
F
  0
LAYER
  5
1FC
102
{ACAD_XDICTIONARY
360
8F4
102
}
330
2
100
AcDbSymbolTableRecord
100
AcDbLayerTableRecord
  2
DEFAULT_3
 70
     0
 62
     7
  6
PHANTOM
370
    -3
390
F
  0
LAYER
  5
1FD
102
{ACAD_XDICTIONARY
360
8F6
102
}
330
2
100
AcDbSymbolTableRecord
100
AcDbLayerTableRecord
  2
BEZUGSACHSEN
 70
     0
 62
     7
  6
CONTINUOUS
370
    -3
390
F
  0
LAYER
  5
1FE
102
{ACAD_XDICTIONARY
360
8F8
102
}
330
2
100
AcDbSymbolTableRecord
100
AcDbLayerTableRecord
  2
HILFEN
 70
     0
 62
     7
  6
CONTINUOUS
370
    -3
390
F
  0
LAYER
  5
1FF
102
{ACAD_XDICTIONARY
360
8FA
102
}
330
2
100
AcDbSymbolTableRecord
100
AcDbLayerTableRecord
  2
KURVEN
 70
     0
 62
     7
  6
CONTINUOUS
370
    -3
390
F
  0
LAYER
  5
200
102
{ACAD_XDICTIONARY
360
8FC
102
}
330
2
100
AcDbSymbolTableRecord
100
AcDbLayerTableRecord
  2
PLATZIERUNG
 70
     0
 62
     7
  6
CONTINUOUS
370
    -3
390
F
  0
LAYER
  5
201
102
{ACAD_XDICTIONARY
360
8FE
102
}
330
2
100
AcDbSymbolTableRecord
100
AcDbLayerTableRecord
  2
RUNDUNGEN
 70
     0
 62
     7
  6
CONTINUOUS
370
    -3
390
F
  0
LAYER
  5
202
102
{ACAD_XDICTIONARY
360
900
102
}
330
2
100
AcDbSymbolTableRecord
100
AcDbLayerTableRecord
  2
SKIZZEN
 70
     0
 62
     7
  6
CONTINUOUS
370
    -3
390
F
  0
LAYER
  5
203
102
{ACAD_XDICTIONARY
360
902
102
}
330
2
100
AcDbSymbolTableRecord
100
AcDbLayerTableRecord
  2
TEIL_STARTBEZUEGE
 70
     0
 62
     7
  6
CONTINUOUS
370
    -3
390
F
  0
LAYER
  5
204
102
{ACAD_XDICTIONARY
360
904
102
}
330
2
100
AcDbSymbolTableRecord
100
AcDbLayerTableRecord
  2
ZEICHNUNGSBEMASSUNGEN
 70
     0
 62
     7
  6
CONTINUOUS
370
    -3
390
F
  0
LAYER
  5
6B3
102
{ACAD_XDICTIONARY
360
906
102
}
330
2
100
AcDbSymbolTableRecord
100
AcDbLayerTableRecord
  2
AM_5
 70
     0
 62
     3
  6
CONTINUOUS
370
    25
390
F
1001
AcAecLayerStandard
1000

1000

  0
LAYER
  5
6FB
330
2
100
AcDbSymbolTableRecord
100
AcDbLayerTableRecord
  2
Defpoints
 70
     0
 62
     7
  6
CONTINUOUS
290
     0
370
    -3
390
F
  0
LAYER
  5
7BF
102
{ACAD_XDICTIONARY
360
908
102
}
330
2
100
AcDbSymbolTableRecord
100
AcDbLayerTableRecord
  2
P-0000
 70
     0
 62
     7
  6
CONTINUOUS
370
    -3
390
F
  0
ENDTAB
  0
TABLE
  2
STYLE
  5
3
330
0
100
AcDbSymbolTable
 70
    16
  0
STYLE
  5
11
330
3
100
AcDbSymbolTableRecord
100
AcDbTextStyleTableRecord
  2
STANDARD
 70
     0
 40
0.0
 41
0.7
 50
0.0
 71
     0
 42
0.2
  3
txt
  4

  0
STYLE
  5
205
330
3
100
AcDbSymbolTableRecord
100
AcDbTextStyleTableRecord
  2
TEXTSTYLE_1
 70
     0
 40
0.0
 41
0.8
 50
0.0
 71
     0
 42
0.2
  3
gdt
  4

  0
STYLE
  5
206
330
3
100
AcDbSymbolTableRecord
100
AcDbTextStyleTableRecord
  2
TEXTSTYLE_2
 70
     0
 40
0.0
 41
0.7857142857
 50
0.0
 71
     0
 42
0.2
  3
txt
  4

  0
STYLE
  5
207
330
3
100
AcDbSymbolTableRecord
100
AcDbTextStyleTableRecord
  2
TEXTSTYLE_3
 70
     0
 40
0.0
 41
0.8333333333
 50
0.0
 71
     0
 42
0.2
  3
txt
  4

  0
STYLE
  5
208
330
3
100
AcDbSymbolTableRecord
100
AcDbTextStyleTableRecord
  2
TEXTSTYLE_4
 70
     0
 40
0.0
 41
0.9047619048000001
 50
0.0
 71
     0
 42
0.2
  3
txt
  4

  0
STYLE
  5
209
330
3
100
AcDbSymbolTableRecord
100
AcDbTextStyleTableRecord
  2
TEXTSTYLE_5
 70
     0
 40
0.0
 41
0.7142857143000001
 50
0.0
 71
     0
 42
0.2
  3
txt
  4

  0
STYLE
  5
20A
330
3
100
AcDbSymbolTableRecord
100
AcDbTextStyleTableRecord
  2
TEXTSTYLE_6
 70
     0
 40
0.0
 41
0.5714285714000001
 50
0.0
 71
     0
 42
0.2
  3
txt
  4

  0
STYLE
  5
20B
330
3
100
AcDbSymbolTableRecord
100
AcDbTextStyleTableRecord
  2
TEXTSTYLE_7
 70
     0
 40
0.0
 41
0.8571428570999998
 50
0.0
 71
     0
 42
0.2
  3
txt
  4

  0
STYLE
  5
20C
330
3
100
AcDbSymbolTableRecord
100
AcDbTextStyleTableRecord
  2
TEXTSTYLE_8
 70
     0
 40
0.0
 41
0.7
 50
0.0
 71
     0
 42
0.2
  3
txt
  4

  0
STYLE
  5
20D
330
3
100
AcDbSymbolTableRecord
100
AcDbTextStyleTableRecord
  2
TEXTSTYLE_9
 70
     0
 40
0.0
 41
0.7
 50
0.0
 71
     0
 42
0.2
  3
gdt
  4

  0
STYLE
  5
20E
330
3
100
AcDbSymbolTableRecord
100
AcDbTextStyleTableRecord
  2
TEXTSTYLE_10
 70
     0
 40
0.0
 41
1.0
 50
0.0
 71
     0
 42
0.2
  3
trium.ttf
  4

  0
STYLE
  5
20F
330
3
100
AcDbSymbolTableRecord
100
AcDbTextStyleTableRecord
  2
TEXTSTYLE_11
 70
     0
 40
0.0
 41
0.8
 50
0.0
 71
     0
 42
0.2
  3
txt
  4

1001
ACAD
1000
txt
1071
        2
  0
STYLE
  5
697
330
3
100
AcDbSymbolTableRecord
100
AcDbTextStyleTableRecord
  2
ACISOTS
 70
     0
 40
0.0
 41
1.0
 50
0.0
 71
     0
 42
0.2
  3
isocp.shx
  4

  0
STYLE
  5
698
330
3
100
AcDbSymbolTableRecord
100
AcDbTextStyleTableRecord
  2
ACISOGDT
 70
     0
 40
0.0
 41
1.0
 50
0.0
 71
     0
 42
0.2
  3
amgdt.shx
  4

  0
STYLE
  5
7C0
330
3
100
AcDbSymbolTableRecord
100
AcDbTextStyleTableRecord
  2

 70
     1
 40
0.0
 41
1.0
 50
0.0
 71
     0
 42
2.5
  3
ltypeshp.shx
  4

  0
ENDTAB
  0
TABLE
  2
VIEW
  5
6
330
0
100
AcDbSymbolTable
 70
     0
  0
ENDTAB
  0
TABLE
  2
UCS
  5
7
330
0
100
AcDbSymbolTable
 70
     0
  0
ENDTAB
  0
TABLE
  2
APPID
  5
9
330
0
100
AcDbSymbolTable
 70
    21
  0
APPID
  5
210
330
9
100
AcDbSymbolTableRecord
100
AcDbRegAppTableRecord
  2
ACAD
 70
     0
  0
APPID
  5
61A
330
9
100
AcDbSymbolTableRecord
100
AcDbRegAppTableRecord
  2
ACAD_MLEADERVER
 70
     0
  0
APPID
  5
647
330
9
100
AcDbSymbolTableRecord
100
AcDbRegAppTableRecord
  2
MCAD_NO_VIS
 70
     0
  0
APPID
  5
648
330
9
100
AcDbSymbolTableRecord
100
AcDbRegAppTableRecord
  2
ACAD_TEMP_GRAPHIC
 70
     0
  0
APPID
  5
653
330
9
100
AcDbSymbolTableRecord
100
AcDbRegAppTableRecord
  2
ACATTRIBSERVICES
 70
     0
  0
APPID
  5
66B
330
9
100
AcDbSymbolTableRecord
100
AcDbRegAppTableRecord
  2
DESIGNERASSEMBLIES
 70
     0
  0
APPID
  5
686
330
9
100
AcDbSymbolTableRecord
100
AcDbRegAppTableRecord
  2
ACAD_DSTYLE_DIMJAG
 70
     0
  0
APPID
  5
687
330
9
100
AcDbSymbolTableRecord
100
AcDbRegAppTableRecord
  2
ACAD_DSTYLE_DIMBREAK
 70
     0
  0
APPID
  5
6AB
330
9
100
AcDbSymbolTableRecord
100
AcDbRegAppTableRecord
  2
ACAD_NAV_VCDISPLAY
 70
     0
  0
APPID
  5
6B4
330
9
100
AcDbSymbolTableRecord
100
AcDbRegAppTableRecord
  2
AcAecLayerStandard
 70
     0
  0
APPID
  5
715
330
9
100
AcDbSymbolTableRecord
100
AcDbRegAppTableRecord
  2
GENIUS_GENDTOL_13
 70
     0
  0
APPID
  5
716
330
9
100
AcDbSymbolTableRecord
100
AcDbRegAppTableRecord
  2
ACAD_DSTYLE_DIMINSPECT
 70
     0
  0
APPID
  5
72B
330
9
100
AcDbSymbolTableRecord
100
AcDbRegAppTableRecord
  2
AcadAnnoMonitorAlertIconDisabled
 70
     0
  0
APPID
  5
72C
330
9
100
AcDbSymbolTableRecord
100
AcDbRegAppTableRecord
  2
ACAD_EXEMPT_FROM_CAD_STANDARDS
 70
     0
  0
APPID
  5
7C3
330
9
100
AcDbSymbolTableRecord
100
AcDbRegAppTableRecord
  2
ACAD_DSTYLE_DIMJOGGED_JOGANGLE_SYMBOL
 70
     0
  0
APPID
  5
7C4
330
9
100
AcDbSymbolTableRecord
100
AcDbRegAppTableRecord
  2
ACAD_PSEXT
 70
     0
  0
APPID
  5
7C5
330
9
100
AcDbSymbolTableRecord
100
AcDbRegAppTableRecord
  2
DCO15
 70
     0
  0
APPID
  5
971
330
9
100
AcDbSymbolTableRecord
100
AcDbRegAppTableRecord
  2
ACAD_DSTYLE_DIMARC_LENGTH_SYMBOL
 70
     0
  0
APPID
  5
972
330
9
100
AcDbSymbolTableRecord
100
AcDbRegAppTableRecord
  2
ACAD_DSTYLE_DIM_LINETYPE
 70
     0
  0
APPID
  5
973
330
9
100
AcDbSymbolTableRecord
100
AcDbRegAppTableRecord
  2
ACAD_DSTYLE_DIM_EXT1_LINETYPE
 70
     0
  0
APPID
  5
974
330
9
100
AcDbSymbolTableRecord
100
AcDbRegAppTableRecord
  2
ACAD_DSTYLE_DIM_EXT2_LINETYPE
 70
     0
  0
ENDTAB
  0
TABLE
  2
DIMSTYLE
  5
A
330
0
100
AcDbSymbolTable
 70
    17
100
AcDbDimStyleTable
 71
     2
340
21C
340
7C2
  0
DIMSTYLE
105
21C
330
A
100
AcDbSymbolTableRecord
100
AcDbDimStyleTableRecord
  2
STANDARD
 70
     0
 41
3.5
 42
1.5
 44
1.5
 47
0.005
 48
0.005
 71
     1
 73
     0
 74
     0
 77
     1
 78
     8
140
3.5
147
0.625
178
     5
271
     3
272
     3
284
     8
340
11
341
213
342
213
343
213
344
213
  0
DIMSTYLE
105
21D
330
A
100
AcDbSymbolTableRecord
100
AcDbDimStyleTableRecord
  2
DIMSTYLE_1
 70
     0
 41
3.5
 42
1.5
 44
1.5
 47
0.3
 48
0.3
 73
     0
 74
     0
 77
     1
 78
     8
140
3.5
147
0.875
178
     5
271
     3
272
     3
284
     8
340
11
341
213
342
213
343
213
344
213
  0
DIMSTYLE
105
21E
330
A
100
AcDbSymbolTableRecord
100
AcDbDimStyleTableRecord
  2
DIMSTYLE_2
 70
     0
 41
3.5
 42
1.5
 44
1.5
 47
0.2
 48
0.2
 73
     0
 74
     0
 77
     1
 78
     8
140
3.5
147
0.875
178
     5
271
     3
272
     3
284
     8
340
11
341
213
342
213
343
213
344
213
  0
DIMSTYLE
105
21F
330
A
100
AcDbSymbolTableRecord
100
AcDbDimStyleTableRecord
  2
DIMSTYLE_3
 70
     0
 41
3.5
 42
1.5
 44
1.5
 47
0.1
 48
0.1
 73
     0
 74
     0
 77
     1
 78
     8
140
3.5
147
0.625
178
     5
271
     1
272
     1
284
     8
340
11
341
213
342
213
343
213
344
213
  0
DIMSTYLE
105
220
330
A
100
AcDbSymbolTableRecord
100
AcDbDimStyleTableRecord
  2
DIMSTYLE_4
 70
     0
 41
3.5
 42
1.5
 44
1.5
 47
0.1
 48
0.1
 73
     0
 74
     0
 77
     1
 78
     8
140
3.5
147
0.625
178
     5
271
     3
272
     3
284
     8
340
11
341
213
342
213
343
213
344
213
  0
DIMSTYLE
105
221
330
A
100
AcDbSymbolTableRecord
100
AcDbDimStyleTableRecord
  2
DIMSTYLE_5
 70
     0
 41
3.5
 42
1.5
 44
1.5
 47
0.1
 48
0.1
 73
     0
 74
     0
 77
     1
 78
     8
140
3.5
147
0.875
178
     5
271
     3
272
     3
284
     8
340
11
341
213
342
213
343
213
344
213
  0
DIMSTYLE
105
685
102
{ACAD_REACTORS
330
674
102
}
330
A
100
AcDbSymbolTableRecord
100
AcDbDimStyleTableRecord
  2
AM_ISO
 70
     0
  4
"
 41
3.5
 42
1.0
 43
10.0
 44
1.0
 47
0.1
 48
0.1
 73
     0
 74
     0
 77
     1
 78
     8
 79
     2
140
3.5
141
0.0
143
0.0393701
146
0.71
147
1.5
172
     1
176
   256
177
   256
178
     2
271
     2
272
     3
274
     4
283
     0
284
     8
340
11
371
    -1
372
    -1
1001
ACAD_DSTYLE_DIMJAG
1070
   388
1040
1.5
1001
ACAD_DSTYLE_DIMBREAK
1070
   391
1040
3.75
1001
ACAD_DSTYLE_DIMARC_LENGTH_SYMBOL
1070
   379
1070
     1
1001
ACAD_DSTYLE_DIM_LINETYPE
1070
   380
1005
14
1001
ACAD_DSTYLE_DIM_EXT1_LINETYPE
1070
   381
1005
14
1001
ACAD_DSTYLE_DIM_EXT2_LINETYPE
1070
   382
1005
14
  0
DIMSTYLE
105
689
330
A
100
AcDbSymbolTableRecord
100
AcDbDimStyleTableRecord
  2
AM_ISO$3
 70
     0
  4
"
 41
3.5
 42
1.0
 43
10.0
 44
1.0
 47
0.1
 48
0.1
 73
     0
 77
     1
 78
     8
 79
     2
140
3.5
141
0.0
143
0.0393701
146
0.71
147
1.5
176
   256
177
   256
178
     2
271
     2
272
     3
274
     4
283
     0
284
     8
288
     1
289
     0
340
11
371
    -1
372
    -1
1001
ACAD_DSTYLE_DIMBREAK
1070
   391
1040
3.75
1001
ACAD_DSTYLE_DIMJAG
1070
   388
1040
1.5
1001
ACAD_DSTYLE_DIMARC_LENGTH_SYMBOL
1070
   379
1070
     1
1001
ACAD_DSTYLE_DIM_LINETYPE
1070
   380
1005
14
1001
ACAD_DSTYLE_DIM_EXT1_LINETYPE
1070
   381
1005
14
1001
ACAD_DSTYLE_DIM_EXT2_LINETYPE
1070
   382
1005
14
  0
DIMSTYLE
105
68A
330
A
100
AcDbSymbolTableRecord
100
AcDbDimStyleTableRecord
  2
AM_ISO$4
 70
     0
  4
"
 41
3.5
 42
1.0
 43
10.0
 44
1.0
 47
0.1
 48
0.1
 73
     0
 77
     1
 78
     8
 79
     2
140
3.5
141
0.0
143
0.0393701
146
0.71
147
1.5
176
   256
177
   256
178
     2
271
     2
272
     3
274
     4
283
     0
284
     8
288
     1
289
     0
340
11
371
    -1
372
    -1
1001
ACAD_DSTYLE_DIMBREAK
1070
   391
1040
3.75
1001
ACAD_DSTYLE_DIMJAG
1070
   388
1040
1.5
1001
ACAD_DSTYLE_DIMARC_LENGTH_SYMBOL
1070
   379
1070
     1
1001
ACAD_DSTYLE_DIM_LINETYPE
1070
   380
1005
14
1001
ACAD_DSTYLE_DIM_EXT1_LINETYPE
1070
   381
1005
14
1001
ACAD_DSTYLE_DIM_EXT2_LINETYPE
1070
   382
1005
14
  0
DIMSTYLE
105
68B
330
A
100
AcDbSymbolTableRecord
100
AcDbDimStyleTableRecord
  2
AM_ISO$6
 70
     0
  4
"
 41
3.5
 42
1.0
 43
10.0
 44
1.0
 47
0.1
 48
0.1
 73
     0
 74
     0
 78
     8
 79
     2
140
3.5
141
0.0
143
0.0393701
146
0.71
147
1.5
172
     1
176
   256
177
   256
178
     2
271
     2
272
     3
274
     4
283
     0
284
     8
340
11
371
    -1
372
    -1
1001
ACAD_DSTYLE_DIMBREAK
1070
   391
1040
3.75
1001
ACAD_DSTYLE_DIMJAG
1070
   388
1040
1.5
1001
ACAD_DSTYLE_DIMARC_LENGTH_SYMBOL
1070
   379
1070
     1
1001
ACAD_DSTYLE_DIM_LINETYPE
1070
   380
1005
14
1001
ACAD_DSTYLE_DIM_EXT1_LINETYPE
1070
   381
1005
14
1001
ACAD_DSTYLE_DIM_EXT2_LINETYPE
1070
   382
1005
14
  0
DIMSTYLE
105
68C
330
A
100
AcDbSymbolTableRecord
100
AcDbDimStyleTableRecord
  2
AM_ISO$7
 70
     0
  4
"
 41
3.5
 42
1.0
 43
10.0
 44
1.0
 47
0.1
 48
0.1
 73
     0
 74
     0
 77
     1
 78
     8
 79
     2
140
3.5
141
0.0
143
0.0393701
146
0.71
147
1.5
172
     1
176
   256
177
   256
178
     2
271
     2
272
     3
274
     4
283
     0
284
     8
340
11
371
    -1
372
    -1
1001
ACAD_DSTYLE_DIMBREAK
1070
   391
1040
3.75
1001
ACAD_DSTYLE_DIMJAG
1070
   388
1040
1.5
1001
ACAD_DSTYLE_DIMARC_LENGTH_SYMBOL
1070
   379
1070
     1
1001
ACAD_DSTYLE_DIM_LINETYPE
1070
   380
1005
14
1001
ACAD_DSTYLE_DIM_EXT1_LINETYPE
1070
   381
1005
14
1001
ACAD_DSTYLE_DIM_EXT2_LINETYPE
1070
   382
1005
14
  0
DIMSTYLE
105
68D
330
A
100
AcDbSymbolTableRecord
100
AcDbDimStyleTableRecord
  2
AM_ISO$SF
 70
     0
  4
"
 41
3.5
 42
1.0
 43
10.0
 44
1.0
 47
0.1
 48
0.1
 73
     0
 74
     0
 75
     1
 76
     1
 77
     1
 78
     8
 79
     2
140
3.5
141
0.0
143
0.0393701
146
0.71
147
1.5
172
     1
176
   256
177
   256
178
     2
271
     2
272
     3
274
     4
283
     0
284
     8
340
11
371
    -1
372
    -1
1001
ACAD_DSTYLE_DIMBREAK
1070
   391
1040
3.75
1001
ACAD_DSTYLE_DIMJAG
1070
   388
1040
1.5
1001
ACAD_DSTYLE_DIMARC_LENGTH_SYMBOL
1070
   379
1070
     1
1001
ACAD_DSTYLE_DIM_LINETYPE
1070
   380
1005
14
1001
ACAD_DSTYLE_DIM_EXT1_LINETYPE
1070
   381
1005
14
1001
ACAD_DSTYLE_DIM_EXT2_LINETYPE
1070
   382
1005
14
  0
DIMSTYLE
105
692
330
A
100
AcDbSymbolTableRecord
100
AcDbDimStyleTableRecord
  2
AM_ISO$SH
 70
     0
  4
"
 41
3.5
 42
1.0
 43
10.0
 44
1.0
 47
0.1
 48
0.1
 73
     0
 74
     0
 75
     1
 76
     1
 77
     1
 78
     8
 79
     2
140
3.5
141
0.0
143
0.0393701
144
2.0
146
0.71
147
1.5
172
     1
173
     1
176
   256
177
   256
178
     2
271
     2
272
     3
274
     4
283
     0
284
     8
340
11
343
68E
371
    -1
372
    -1
1001
ACAD_DSTYLE_DIMBREAK
1070
   391
1040
3.75
1001
ACAD_DSTYLE_DIMJAG
1070
   388
1040
1.5
1001
ACAD_DSTYLE_DIMARC_LENGTH_SYMBOL
1070
   379
1070
     1
1001
ACAD_DSTYLE_DIM_LINETYPE
1070
   380
1005
14
1001
ACAD_DSTYLE_DIM_EXT1_LINETYPE
1070
   381
1005
14
1001
ACAD_DSTYLE_DIM_EXT2_LINETYPE
1070
   382
1005
14
  0
DIMSTYLE
105
6F8
330
A
100
AcDbSymbolTableRecord
100
AcDbDimStyleTableRecord
  2
STANDARD$0
 70
     0
 41
3.5
 42
1.5
 44
1.5
 47
0.005
 48
0.005
 71
     1
 73
     0
 74
     0
 77
     1
 78
     8
140
3.5
147
0.625
178
     5
271
     3
272
     3
284
     8
340
11
341
213
342
213
343
213
344
213
1001
ACAD_DSTYLE_DIMBREAK
1070
   391
1040
3.75
1001
ACAD_DSTYLE_DIMJAG
1070
   388
1040
1.5
  0
DIMSTYLE
105
7C1
330
A
100
AcDbSymbolTableRecord
100
AcDbDimStyleTableRecord
  2
AM_DIN
 70
     0
  4
"
 41
2.5
 42
1.0
 43
10.0
 44
1.0
 47
0.1
 48
0.1
 73
     0
 74
     0
 77
     1
 78
     8
 79
     2
140
3.5
141
0.0
143
0.0393701
146
0.71
147
1.5
172
     1
176
   256
177
   256
178
     2
271
     2
272
     3
274
     4
283
     0
284
     8
340
11
371
    -1
372
    -1
1001
ACAD_DSTYLE_DIMJOGGED_JOGANGLE_SYMBOL
1070
   384
1040
1.570796326794896
  0
DIMSTYLE
105
7C2
102
{ACAD_REACTORS
330
7C9
330
7D1
330
81B
330
899
102
}
330
A
100
AcDbSymbolTableRecord
100
AcDbDimStyleTableRecord
  2
883N99122_001_00149479900
 70
     0
 40
2.0
 41
3.149999999999999
 42
0.0
 43
3.75
 44
2.0
 73
     0
 74
     0
 77
     1
 78
     8
 79
     2
140
3.5
141
0.0
143
0.03937007874016
145
2.0
147
2.0
171
     3
172
     1
173
     1
176
     3
177
     3
178
     2
179
     2
271
     2
272
     2
274
     3
283
     0
284
     8
340
11
341
7B5
  0
ENDTAB
  0
TABLE
  2
BLOCK_RECORD
  5
1
330
0
100
AcDbSymbolTable
 70
    21
  0
BLOCK_RECORD
  5
211
330
1
100
AcDbSymbolTableRecord
100
AcDbBlockTableRecord
  2
*Model_Space
340
5C5
  0
BLOCK_RECORD
  5
212
330
1
100
AcDbSymbolTableRecord
100
AcDbBlockTableRecord
  2
*Paper_Space
340
5C6
  0
BLOCK_RECORD
  5
213
330
1
100
AcDbSymbolTableRecord
100
AcDbBlockTableRecord
  2
_FILLED
340
0
102
{BLKREFS
331
746
331
747
331
22B
331
22C
331
236
331
237
331
245
331
24F
331
250
102
}
  0
BLOCK_RECORD
  5
214
330
1
100
AcDbSymbolTableRecord
100
AcDbBlockTableRecord
  2
*D1
340
0
  0
BLOCK_RECORD
  5
215
330
1
100
AcDbSymbolTableRecord
100
AcDbBlockTableRecord
  2
*D2
340
0
  0
BLOCK_RECORD
  5
216
330
1
100
AcDbSymbolTableRecord
100
AcDbBlockTableRecord
  2
*D3
340
0
  0
BLOCK_RECORD
  5
217
330
1
100
AcDbSymbolTableRecord
100
AcDbBlockTableRecord
  2
*D4
340
0
  0
BLOCK_RECORD
  5
218
330
1
100
AcDbSymbolTableRecord
100
AcDbBlockTableRecord
  2
*D5
340
0
  0
BLOCK_RECORD
  5
68E
330
1
100
AcDbSymbolTableRecord
100
AcDbBlockTableRecord
  2
GENAXEH
340
0
  0
BLOCK_RECORD
  5
6FC
330
1
100
AcDbSymbolTableRecord
100
AcDbBlockTableRecord
  2
*D11
340
0
  0
BLOCK_RECORD
  5
7A7
330
1
100
AcDbSymbolTableRecord
100
AcDbBlockTableRecord
  2
*D12
340
0
  0
BLOCK_RECORD
  5
7B5
330
1
100
AcDbSymbolTableRecord
100
AcDbBlockTableRecord
  2
_None
340
0
  0
BLOCK_RECORD
  5
7D2
330
1
100
AcDbSymbolTableRecord
100
AcDbBlockTableRecord
  2
*D15
340
0
  0
BLOCK_RECORD
  5
807
330
1
100
AcDbSymbolTableRecord
100
AcDbBlockTableRecord
  2
*D16
340
0
  0
BLOCK_RECORD
  5
81C
330
1
100
AcDbSymbolTableRecord
100
AcDbBlockTableRecord
  2
*D18
340
0
  0
BLOCK_RECORD
  5
89A
330
1
100
AcDbSymbolTableRecord
100
AcDbBlockTableRecord
  2
*D19
340
0
  0
ENDTAB
  0
ENDSEC
  0
SECTION
  2
BLOCKS
  0
BLOCK
  5
20
330
211
100
AcDbEntity
  8
0
100
AcDbBlockBegin
  2
*Model_Space
 70
     0
 10
0.0
 20
0.0
 30
0.0
  3
*Model_Space
  1

  0
ENDBLK
  5
21
330
211
100
AcDbEntity
  8
0
100
AcDbBlockEnd
  0
BLOCK
  5
1C
330
212
100
AcDbEntity
 67
     1
  8
0
100
AcDbBlockBegin
  2
*Paper_Space
 70
     0
 10
0.0
 20
0.0
 30
0.0
  3
*Paper_Space
  1

  0
ENDBLK
  5
1D
330
212
100
AcDbEntity
 67
     1
  8
0
100
AcDbBlockEnd
  0
BLOCK
  5
222
330
213
100
AcDbEntity
  8
0
100
AcDbBlockBegin
  2
_FILLED
 70
     0
 10
0.0
 20
0.0
 30
0.0
  3
_FILLED
  1

  0
SOLID
  5
223
330
213
100
AcDbEntity
  8
0
  6
ByBlock
 62
     0
100
AcDbTrace
 10
0.0
 20
0.0
 30
0.0
 11
-1.0
 21
0.125
 31
0.0
 12
-1.0
 22
-0.125
 32
0.0
 13
-1.0
 23
-0.125
 33
0.0
  0
ENDBLK
  5
224
330
213
100
AcDbEntity
  8
0
  6
ByBlock
 62
     0
100
AcDbBlockEnd
  0
BLOCK
  5
225
330
214
100
AcDbEntity
  8
ZEICHNUNGSBEMASSUNGEN
  6
Continuous
 62
     2
100
AcDbBlockBegin
  2
*D1
 70
     1
 10
0.0
 20
0.0
 30
0.0
  3
*D1
  1

  0
MTEXT
  5
226
330
214
100
AcDbEntity
  8
ZEICHNUNGSBEMASSUNGEN
  6
Continuous
 62
     5
100
AcDbMText
 10
374.5479692733
 20
620.4012868019999
 30
0.0
 40
3.5
 41
16.8333333333
 71
     2
 72
     1
  1
77\Fgdt;{\Fgdt;`}\Ftxt;0,5
 73
     1
 44
0.9
1001
ACAD
1000
MTEXTBEGIN
1070
    73
1070
     1
1070
    44
1040
0.9
1070
    74
1070
     0
1000
MTEXTEND
  0
LINE
  5
227
330
214
100
AcDbEntity
  8
ZEICHNUNGSBEMASSUNGEN
  6
Continuous
 62
     2
100
AcDbLine
 10
336.0479692733
 20
607.0359512655999
 30
0.0
 11
336.0479692733
 21
617.5262868019999
 31
0.0
  0
LINE
  5
228
330
214
100
AcDbEntity
  8
ZEICHNUNGSBEMASSUNGEN
  6
Continuous
 62
     2
100
AcDbLine
 10
413.0479692733
 20
607.0359512655999
 30
0.0
 11
413.0479692733
 21
617.5262868019999
 31
0.0
  0
LINE
  5
229
330
214
100
AcDbEntity
  8
ZEICHNUNGSBEMASSUNGEN
  6
Continuous
 62
     2
100
AcDbLine
 10
336.0479692733
 20
616.0262868019999
 30
0.0
 11
374.5479692733
 21
616.0262868019999
 31
0.0
  0
LINE
  5
22A
330
214
100
AcDbEntity
  8
ZEICHNUNGSBEMASSUNGEN
  6
Continuous
 62
     2
100
AcDbLine
 10
413.0479692733
 20
616.0262868019999
 30
0.0
 11
374.5479692733
 21
616.0262868019999
 31
0.0
  0
INSERT
  5
22B
330
214
100
AcDbEntity
  8
ZEICHNUNGSBEMASSUNGEN
  6
Continuous
 62
     2
100
AcDbBlockReference
  2
_FILLED
 10
336.0479692733
 20
616.0262868019999
 30
0.0
 41
3.5
 42
3.5
 43
3.5
 50
180.0
  0
INSERT
  5
22C
330
214
100
AcDbEntity
  8
ZEICHNUNGSBEMASSUNGEN
  6
Continuous
 62
     2
100
AcDbBlockReference
  2
_FILLED
 10
413.0479692733
 20
616.0262868019999
 30
0.0
 41
3.5
 42
3.5
 43
3.5
  0
ENDBLK
  5
22D
330
214
100
AcDbEntity
  8
0
  6
ByBlock
 62
     0
100
AcDbBlockEnd
  0
BLOCK
  5
22E
330
215
100
AcDbEntity
  8
ZEICHNUNGSBEMASSUNGEN
  6
Continuous
 62
     2
100
AcDbBlockBegin
  2
*D2
 70
     1
 10
0.0
 20
0.0
 30
0.0
  3
*D2
  1

  0
MTEXT
  5
22F
330
215
100
AcDbEntity
  8
ZEICHNUNGSBEMASSUNGEN
  6
Continuous
 62
     5
100
AcDbMText
 10
419.6610122014
 20
616.0566855733
 30
0.0
 40
3.5
 41
16.0833333333
 71
     1
 72
     1
  1
19\Fgdt;{\Fgdt;`}\Ftxt;0,5
 11
0.0
 21
1.0
 31
0.0
 73
     1
 44
0.9
1001
ACAD
1000
MTEXTBEGIN
1070
    73
1070
     1
1070
    44
1040
0.9
1070
    74
1070
     0
1000
MTEXTEND
  0
LINE
  5
230
330
215
100
AcDbEntity
  8
ZEICHNUNGSBEMASSUNGEN
  6
Continuous
 62
     2
100
AcDbLine
 10
411.5479692733
 20
608.5359512655998
 30
0.0
 11
425.5360122014
 21
608.5359512655998
 31
0.0
  0
LINE
  5
231
330
215
100
AcDbEntity
  8
ZEICHNUNGSBEMASSUNGEN
  6
Continuous
 62
     2
100
AcDbLine
 10
414.5479692732999
 20
589.5359512655999
 30
0.0
 11
425.5360122014
 21
589.5359512655999
 31
0.0
  0
LINE
  5
232
330
215
100
AcDbEntity
  8
ZEICHNUNGSBEMASSUNGEN
  6
Continuous
 62
     2
100
AcDbLine
 10
424.0360122014
 20
608.5359512655998
 30
0.0
 11
424.0360122014
 21
632.1400189066999
 31
0.0
  0
LINE
  5
233
330
215
100
AcDbEntity
  8
ZEICHNUNGSBEMASSUNGEN
  6
Continuous
 62
     2
100
AcDbLine
 10
424.0360122014
 20
632.1400189066999
 30
0.0
 11
424.0360122014
 21
599.0359512655999
 31
0.0
  0
LINE
  5
234
330
215
100
AcDbEntity
  8
ZEICHNUNGSBEMASSUNGEN
  6
Continuous
 62
     2
100
AcDbLine
 10
424.0360122014
 20
589.5359512655999
 30
0.0
 11
424.0360122014
 21
583.5359512655998
 31
0.0
  0
LINE
  5
235
330
215
100
AcDbEntity
  8
ZEICHNUNGSBEMASSUNGEN
  6
Continuous
 62
     2
100
AcDbLine
 10
424.0360122014
 20
583.5359512655998
 30
0.0
 11
424.0360122014
 21
599.0359512655999
 31
0.0
  0
INSERT
  5
236
330
215
100
AcDbEntity
  8
ZEICHNUNGSBEMASSUNGEN
  6
Continuous
 62
     2
100
AcDbBlockReference
  2
_FILLED
 10
424.0360122014
 20
608.5359512655998
 30
0.0
 41
3.5
 42
3.5
 43
3.5
 50
270.0
  0
INSERT
  5
237
330
215
100
AcDbEntity
  8
ZEICHNUNGSBEMASSUNGEN
  6
Continuous
 62
     2
100
AcDbBlockReference
  2
_FILLED
 10
424.0360122014
 20
589.5359512655999
 30
0.0
 41
3.5
 42
3.5
 43
3.5
 50
90.0
  0
ENDBLK
  5
238
330
215
100
AcDbEntity
  8
0
  6
ByBlock
 62
     0
100
AcDbBlockEnd
  0
BLOCK
  5
239
330
216
100
AcDbEntity
  8
ZEICHNUNGSBEMASSUNGEN
  6
Continuous
 62
     2
100
AcDbBlockBegin
  2
*D3
 70
     1
 10
0.0
 20
0.0
 30
0.0
  3
*D3
  1

  0
MTEXT
  5
23A
330
216
100
AcDbEntity
  8
ZEICHNUNGSBEMASSUNGEN
  6
Continuous
 62
     5
100
AcDbMText
 10
340.9403878311
 20
603.6435327078
 30
0.0
 40
3.5
 41
7.8333333333
 71
     2
 72
     1
  1
90\Fgdt;{\Fgdt;~}
 11
0.7071067811865476
 21
0.7071067811865476
 31
0.0
 73
     1
 44
0.9
1001
ACAD
1000
MTEXTBEGIN
1070
    73
1070
     1
1070
    44
1040
0.9
1070
    74
1070
     0
1000
MTEXTEND
  0
LINE
  5
23B
330
216
100
AcDbEntity
  8
ZEICHNUNGSBEMASSUNGEN
  6
Continuous
 62
     2
100
AcDbLine
 10
337.5479692733
 20
604.0359512655999
 30
0.0
 11
337.5479692733
 21
593.7383469319
 31
0.0
  0
LINE
  5
23C
330
216
100
AcDbEntity
  8
ZEICHNUNGSBEMASSUNGEN
  6
Continuous
 62
     2
100
AcDbLine
 10
340.5479692733
 20
607.0359512655999
 30
0.0
 11
350.8455736071
 21
607.0359512655999
 31
0.0
  0
ARC
  5
23D
330
216
100
AcDbEntity
  8
ZEICHNUNGSBEMASSUNGEN
  6
Continuous
 62
     2
100
AcDbCircle
 10
337.5479692733
 20
607.0359512655999
 30
0.0
 40
11.7976043338
100
AcDbArc
 50
270.0
 51
315.0
  0
ARC
  5
23E
330
216
100
AcDbEntity
  8
ZEICHNUNGSBEMASSUNGEN
  6
Continuous
 62
     2
100
AcDbCircle
 10
337.5479692733
 20
607.0359512655999
 30
0.0
 40
11.7976043338
100
AcDbArc
 50
315.0
 51
360.0
  0
SOLID
  5
23F
330
216
100
AcDbEntity
  8
ZEICHNUNGSBEMASSUNGEN
  6
Continuous
 62
     2
100
AcDbTrace
 10
340.9448750746
 20
596.1883138929001
 30
0.0
 11
337.5479692733
 21
595.2383469318999
 31
0.0
 12
341.0741929173
 22
595.3229227122
 32
0.0
 13
341.0741929173
 23
595.3229227122
 33
0.0
  0
SOLID
  5
240
330
216
100
AcDbEntity
  8
ZEICHNUNGSBEMASSUNGEN
  6
Continuous
 62
     2
100
AcDbTrace
 10
349.2609978267
 20
603.5097276216999
 30
0.0
 11
349.3455736071
 21
607.0359512655999
 31
0.0
 12
348.3956066461
 22
603.6390454643
 32
0.0
 13
348.3956066461
 23
603.6390454643
 33
0.0
  0
ENDBLK
  5
241
330
216
100
AcDbEntity
  8
0
  6
ByBlock
 62
     0
100
AcDbBlockEnd
  0
BLOCK
  5
242
330
217
100
AcDbEntity
  8
ZEICHNUNGSBEMASSUNGEN
  6
Continuous
 62
     2
100
AcDbBlockBegin
  2
*D4
 70
     1
 10
0.0
 20
0.0
 30
0.0
  3
*D4
  1

  0
MTEXT
  5
243
330
217
100
AcDbEntity
  8
ZEICHNUNGSBEMASSUNGEN
  6
Continuous
 62
     5
100
AcDbMText
 10
404.0151526768
 20
604.288321162
 30
0.0
 40
3.5
 41
9.25
 71
     3
 72
     1
  1
R1.5
 11
0.5456133680894811
 21
0.8380370233838435
 31
0.0
 73
     1
 44
0.9
1001
ACAD
1000
MTEXTBEGIN
1070
    73
1070
     1
1070
    44
1040
0.9
1070
    74
1070
     0
1000
MTEXTEND
  0
LINE
  5
244
330
217
100
AcDbEntity
  8
ZEICHNUNGSBEMASSUNGEN
  6
Continuous
 62
     2
100
AcDbLine
 10
410.8663893255
 20
606.7930068007
 30
0.0
 11
402.634640999
 21
594.1494202103999
 31
0.0
  0
INSERT
  5
245
330
217
100
AcDbEntity
  8
ZEICHNUNGSBEMASSUNGEN
  6
Continuous
 62
     2
100
AcDbBlockReference
  2
_FILLED
 10
410.8663893255
 20
606.7930068007
 30
0.0
 41
3.5
 42
3.5
 43
3.5
 50
56.9334109673
  0
ENDBLK
  5
246
330
217
100
AcDbEntity
  8
0
  6
ByBlock
 62
     0
100
AcDbBlockEnd
  0
BLOCK
  5
247
330
218
100
AcDbEntity
  8
ZEICHNUNGSBEMASSUNGEN
  6
Continuous
 62
     2
100
AcDbBlockBegin
  2
*D5
 70
     1
 10
0.0
 20
0.0
 30
0.0
  3
*D5
  1

  0
MTEXT
  5
248
330
218
100
AcDbEntity
  8
ZEICHNUNGSBEMASSUNGEN
  6
Continuous
 62
     5
100
AcDbMText
 10
419.7670473427999
 20
579.7052964430999
 30
0.0
 40
3.5
 41
18.0833333333
 71
     1
 72
     1
  1
1.5\Fgdt;{\Fgdt;`}\Ftxt;0,2
 73
     1
 44
0.9
1001
ACAD
1000
MTEXTBEGIN
1070
    73
1070
     1
1070
    44
1040
0.9
1070
    74
1070
     0
1000
MTEXTEND
  0
LINE
  5
249
330
218
100
AcDbEntity
  8
ZEICHNUNGSBEMASSUNGEN
  6
Continuous
 62
     2
100
AcDbLine
 10
411.5479692733
 20
589.2039879851999
 30
0.0
 11
411.5479692733
 21
573.8302964430999
 31
0.0
  0
LINE
  5
24A
330
218
100
AcDbEntity
  8
ZEICHNUNGSBEMASSUNGEN
  6
Continuous
 62
     2
100
AcDbLine
 10
413.0479692733
 20
589.3048263478
 30
0.0
 11
413.0479692733
 21
573.8302964430999
 31
0.0
  0
LINE
  5
24B
330
218
100
AcDbEntity
  8
ZEICHNUNGSBEMASSUNGEN
  6
Continuous
 62
     2
100
AcDbLine
 10
411.5479692733
 20
575.3302964430999
 30
0.0
 11
405.5479692732999
 21
575.3302964430999
 31
0.0
  0
LINE
  5
24C
330
218
100
AcDbEntity
  8
ZEICHNUNGSBEMASSUNGEN
  6
Continuous
 62
     2
100
AcDbLine
 10
405.5479692732999
 20
575.3302964430999
 30
0.0
 11
412.2979692732999
 21
575.3302964430999
 31
0.0
  0
LINE
  5
24D
330
218
100
AcDbEntity
  8
ZEICHNUNGSBEMASSUNGEN
  6
Continuous
 62
     2
100
AcDbLine
 10
413.0479692733
 20
575.3302964430999
 30
0.0
 11
437.8503806762
 21
575.3302964430999
 31
0.0
  0
LINE
  5
24E
330
218
100
AcDbEntity
  8
ZEICHNUNGSBEMASSUNGEN
  6
Continuous
 62
     2
100
AcDbLine
 10
437.8503806762
 20
575.3302964430999
 30
0.0
 11
412.2979692732999
 21
575.3302964430999
 31
0.0
  0
INSERT
  5
24F
330
218
100
AcDbEntity
  8
ZEICHNUNGSBEMASSUNGEN
  6
Continuous
 62
     2
100
AcDbBlockReference
  2
_FILLED
 10
411.5479692733
 20
575.3302964430999
 30
0.0
 41
3.5
 42
3.5
 43
3.5
  0
INSERT
  5
250
330
218
100
AcDbEntity
  8
ZEICHNUNGSBEMASSUNGEN
  6
Continuous
 62
     2
100
AcDbBlockReference
  2
_FILLED
 10
413.0479692733
 20
575.3302964430999
 30
0.0
 41
3.5
 42
3.5
 43
3.5
 50
180.0
  0
ENDBLK
  5
251
330
218
100
AcDbEntity
  8
0
  6
ByBlock
 62
     0
100
AcDbBlockEnd
  0
BLOCK
  5
690
330
68E
100
AcDbEntity
  8
0
100
AcDbBlockBegin
  2
GENAXEH
 70
     0
 10
0.0
 20
0.0
 30
0.0
  3
GENAXEH
  1

  0
LINE
  5
68F
330
68E
100
AcDbEntity
  8
0
100
AcDbLine
 10
-1.0
 20
0.0
 30
0.0
 11
1.0
 21
0.0
 31
0.0
  0
ENDBLK
  5
691
330
68E
100
AcDbEntity
  8
0
100
AcDbBlockEnd
  0
BLOCK
  5
6FD
330
6FC
100
AcDbEntity
  8
0
100
AcDbBlockBegin
  2
*D11
 70
     1
 10
0.0
 20
0.0
 30
0.0
  3
*D11
  1

  0
LINE
  5
742
330
6FC
100
AcDbEntity
  8
AM_5
 62
     0
370
    -2
100
AcDbLine
 10
-574.5022833489001
 20
482.5593216968
 30
0.0
 11
-615.2120093324631
 21
482.5593216968
 31
0.0
  0
LINE
  5
743
330
6FC
100
AcDbEntity
  8
AM_5
 62
     0
370
    -2
100
AcDbLine
 10
-574.5022833489001
 20
405.5593216968
 30
0.0
 11
-615.2120093324631
 21
405.5593216968
 31
0.0
  0
LINE
  5
744
330
6FC
100
AcDbEntity
  8
AM_5
 62
     0
370
    -2
100
AcDbLine
 10
-613.7120093324631
 20
479.0593216968
 30
0.0
 11
-613.7120093324631
 21
446.4343216968
 31
0.0
  0
LINE
  5
745
330
6FC
100
AcDbEntity
  8
AM_5
 62
     0
370
    -2
100
AcDbLine
 10
-613.7120093324631
 20
409.0593216968
 30
0.0
 11
-613.7120093324631
 21
441.6843216968
 31
0.0
  0
INSERT
  5
746
330
6FC
100
AcDbEntity
  8
AM_5
 62
     0
370
    -2
100
AcDbBlockReference
  2
_FILLED
 10
-613.7120093324631
 20
482.5593216968
 30
0.0
 41
3.5
 42
3.5
 43
3.5
 50
90.0
  0
INSERT
  5
747
330
6FC
100
AcDbEntity
  8
AM_5
 62
     0
370
    -2
100
AcDbBlockReference
  2
_FILLED
 10
-613.7120093324631
 20
405.5593216968
 30
0.0
 41
3.5
 42
3.5
 43
3.5
 50
270.0
  0
MTEXT
  5
748
330
6FC
100
AcDbEntity
  8
AM_5
 62
     0
100
AcDbMText
 10
-613.7120093324632
 20
444.0593216967999
 30
0.0
 40
3.5
 41
0.0
 71
     5
 72
     1
  1
\A1;77.0000
 73
     1
 44
1.0
1001
ACAD
1000
MTEXTBEGIN
1070
    73
1070
     1
1070
    44
1040
1.0
1070
    74
1070
     0
1000
MTEXTEND
  0
POINT
  5
749
330
6FC
100
AcDbEntity
  8
Defpoints
 62
     0
100
AcDbPoint
 10
-573.0022833489
 20
482.5593216968
 30
0.0
  0
POINT
  5
74A
330
6FC
100
AcDbEntity
  8
Defpoints
 62
     0
100
AcDbPoint
 10
-573.0022833489
 20
405.5593216968
 30
0.0
  0
POINT
  5
74B
330
6FC
100
AcDbEntity
  8
Defpoints
 62
     0
100
AcDbPoint
 10
-613.7120093324631
 20
405.5593216968
 30
0.0
  0
ENDBLK
  5
6FE
330
6FC
100
AcDbEntity
  8
0
100
AcDbBlockEnd
  0
BLOCK
  5
7A8
330
7A7
100
AcDbEntity
  8
0
100
AcDbBlockBegin
  2
*D12
 70
     1
 10
0.0
 20
0.0
 30
0.0
  3
*D12
  1

  0
LINE
  5
7A9
330
7A7
100
AcDbEntity
  8
P-0000
  6
Continuous
 62
     3
370
    -2
100
AcDbLine
 10
196.5956777348488
 20
884.3689435629938
 30
0.0
 11
160.9996396039943
 21
884.3689435629938
 31
0.0
  0
LINE
  5
7AA
330
7A7
100
AcDbEntity
  8
P-0000
  6
Continuous
 62
     3
370
    -2
100
AcDbLine
 10
199.5956777348488
 20
865.3689435629937
 30
0.0
 11
160.9996396039943
 21
865.3689435629937
 31
0.0
  0
LINE
  5
7AB
330
7A7
100
AcDbEntity
  8
P-0000
  6
Continuous
 62
     3
370
    -2
100
AcDbLine
 10
164.9996396039943
 20
890.6689435629937
 30
0.0
 11
164.9996396039943
 21
896.9689435629938
 31
0.0
  0
LINE
  5
7AC
330
7A7
100
AcDbEntity
  8
P-0000
  6
Continuous
 62
     3
370
    -2
100
AcDbLine
 10
164.9996396039943
 20
859.0689435629938
 30
0.0
 11
164.9996396039943
 21
852.7689435629937
 31
0.0
  0
LINE
  5
7AD
330
7A7
100
AcDbEntity
  8
P-0000
  6
Continuous
 62
     3
370
    -2
100
AcDbLine
 10
164.9996396039943
 20
884.3689435629938
 30
0.0
 11
164.9996396039943
 21
865.3689435629937
 31
0.0
  0
SOLID
  5
7AE
330
7A7
100
AcDbEntity
  8
P-0000
  6
Continuous
 62
     3
100
AcDbTrace
 10
163.9496396039943
 20
890.6689435629937
 30
0.0
 11
166.0496396039943
 21
890.6689435629937
 31
0.0
 12
164.9996396039943
 22
884.3689435629938
 32
0.0
 13
164.9996396039943
 23
884.3689435629938
 33
0.0
  0
SOLID
  5
7AF
330
7A7
100
AcDbEntity
  8
P-0000
  6
Continuous
 62
     3
100
AcDbTrace
 10
163.9496396039943
 20
859.0689435629938
 30
0.0
 11
166.0496396039943
 21
859.0689435629938
 31
0.0
 12
164.9996396039943
 22
865.3689435629937
 32
0.0
 13
164.9996396039943
 23
865.3689435629937
 33
0.0
  0
MTEXT
  5
7B0
330
7A7
100
AcDbEntity
  8
P-0000
  6
Continuous
 62
     2
100
AcDbMText
 10
157.4996396039941
 20
874.8689435629938
 30
0.0
 40
7.0
 41
0.0
 71
     5
 72
     1
  1
19
 11
0.0000000000000001
 21
1.0
 31
0.0
 73
     1
 44
1.0
1001
ACAD
1000
MTEXTBEGIN
1070
    73
1070
     1
1070
    44
1040
1.0
1070
    74
1070
     0
1000
MTEXTEND
  0
POINT
  5
7B1
330
7A7
100
AcDbEntity
  8
Defpoints
  6
Continuous
 62
     0
100
AcDbPoint
 10
196.5956777348488
 20
884.3689435629938
 30
0.0
  0
POINT
  5
7B2
330
7A7
100
AcDbEntity
  8
Defpoints
  6
Continuous
 62
     0
100
AcDbPoint
 10
199.5956777348488
 20
865.3689435629937
 30
0.0
  0
POINT
  5
7B3
330
7A7
100
AcDbEntity
  8
Defpoints
  6
Continuous
 62
     0
100
AcDbPoint
 10
164.9996396039943
 20
865.3689435629937
 30
0.0
  0
ENDBLK
  5
7B4
330
7A7
100
AcDbEntity
  8
0
100
AcDbBlockEnd
  0
BLOCK
  5
7B6
330
7B5
100
AcDbEntity
  8
0
100
AcDbBlockBegin
  2
_None
 70
     0
 10
0.0
 20
0.0
 30
0.0
  3
_None
  1

  0
ENDBLK
  5
7B7
330
7B5
100
AcDbEntity
  8
0
100
AcDbBlockEnd
  0
BLOCK
  5
7D3
330
7D2
100
AcDbEntity
  8
0
100
AcDbBlockBegin
  2
*D15
 70
     1
 10
0.0
 20
0.0
 30
0.0
  3
*D15
  1

  0
LINE
  5
7FD
330
7D2
100
AcDbEntity
  8
P-0000
  6
Continuous
 62
     3
370
    -2
100
AcDbLine
 10
-573.0022833488999
 20
482.5593216968
 30
0.0
 11
-598.0046433323852
 21
482.5593216968
 31
0.0
  0
LINE
  5
7FE
330
7D2
100
AcDbEntity
  8
P-0000
  6
Continuous
 62
     3
370
    -2
100
AcDbLine
 10
-573.0022833489
 20
405.5593216968
 30
0.0
 11
-598.0046433323852
 21
405.5593216968
 31
0.0
  0
LINE
  5
7FF
330
7D2
100
AcDbEntity
  8
P-0000
  6
Continuous
 62
     3
370
    -2
100
AcDbLine
 10
-594.0046433323852
 20
476.2593216967999
 30
0.0
 11
-594.0046433323852
 21
411.8593216967999
 31
0.0
  0
SOLID
  5
800
330
7D2
100
AcDbEntity
  8
P-0000
  6
Continuous
 62
     3
100
AcDbTrace
 10
-595.0546433323851
 20
476.2593216967999
 30
0.0
 11
-592.9546433323852
 21
476.2593216967999
 31
0.0
 12
-594.0046433323852
 22
482.5593216968
 32
0.0
 13
-594.0046433323852
 23
482.5593216968
 33
0.0
  0
SOLID
  5
801
330
7D2
100
AcDbEntity
  8
P-0000
  6
Continuous
 62
     3
100
AcDbTrace
 10
-595.0546433323851
 20
411.8593216967999
 30
0.0
 11
-592.9546433323852
 21
411.8593216967999
 31
0.0
 12
-594.0046433323852
 22
405.5593216968
 32
0.0
 13
-594.0046433323852
 23
405.5593216968
 33
0.0
  0
MTEXT
  5
802
330
7D2
100
AcDbEntity
  8
P-0000
  6
Continuous
 62
     2
100
AcDbMText
 10
-601.5046433323853
 20
445.2032517311306
 30
0.0
 40
7.0
 41
0.0
 71
     5
 72
     1
  1
77
 11
0.0000000000000001
 21
1.0
 31
0.0
 73
     1
 44
1.0
1001
ACAD
1000
MTEXTBEGIN
1070
    73
1070
     1
1070
    44
1040
1.0
1070
    74
1070
     0
1000
MTEXTEND
  0
POINT
  5
803
330
7D2
100
AcDbEntity
  8
Defpoints
  6
Continuous
 62
     0
100
AcDbPoint
 10
-573.0022833488999
 20
482.5593216968
 30
0.0
  0
POINT
  5
804
330
7D2
100
AcDbEntity
  8
Defpoints
  6
Continuous
 62
     0
100
AcDbPoint
 10
-573.0022833489
 20
405.5593216968
 30
0.0
  0
POINT
  5
805
330
7D2
100
AcDbEntity
  8
Defpoints
  6
Continuous
 62
     0
100
AcDbPoint
 10
-594.0046433323852
 20
405.5593216968
 30
0.0
  0
ENDBLK
  5
7D4
330
7D2
100
AcDbEntity
  8
0
100
AcDbBlockEnd
  0
BLOCK
  5
808
330
807
100
AcDbEntity
  8
0
100
AcDbBlockBegin
  2
*D16
 70
     1
 10
0.0
 20
0.0
 30
0.0
  3
*D16
  1

  0
LINE
  5
809
330
807
100
AcDbEntity
  8
P-0000
  6
Continuous
 62
     3
370
    -2
100
AcDbLine
 10
196.5956777348488
 20
884.3689435629938
 30
0.0
 11
160.9996396039943
 21
884.3689435629938
 31
0.0
  0
LINE
  5
80A
330
807
100
AcDbEntity
  8
P-0000
  6
Continuous
 62
     3
370
    -2
100
AcDbLine
 10
199.5956777348488
 20
865.3689435629937
 30
0.0
 11
160.9996396039943
 21
865.3689435629937
 31
0.0
  0
LINE
  5
80B
330
807
100
AcDbEntity
  8
P-0000
  6
Continuous
 62
     3
370
    -2
100
AcDbLine
 10
164.9996396039943
 20
890.6689435629937
 30
0.0
 11
164.9996396039943
 21
896.9689435629938
 31
0.0
  0
LINE
  5
80C
330
807
100
AcDbEntity
  8
P-0000
  6
Continuous
 62
     3
370
    -2
100
AcDbLine
 10
164.9996396039943
 20
859.0689435629938
 30
0.0
 11
164.9996396039943
 21
852.7689435629937
 31
0.0
  0
LINE
  5
80D
330
807
100
AcDbEntity
  8
P-0000
  6
Continuous
 62
     3
370
    -2
100
AcDbLine
 10
164.9996396039943
 20
884.3689435629938
 30
0.0
 11
164.9996396039943
 21
865.3689435629937
 31
0.0
  0
SOLID
  5
80E
330
807
100
AcDbEntity
  8
P-0000
  6
Continuous
 62
     3
100
AcDbTrace
 10
163.9496396039943
 20
890.6689435629937
 30
0.0
 11
166.0496396039943
 21
890.6689435629937
 31
0.0
 12
164.9996396039943
 22
884.3689435629938
 32
0.0
 13
164.9996396039943
 23
884.3689435629938
 33
0.0
  0
SOLID
  5
80F
330
807
100
AcDbEntity
  8
P-0000
  6
Continuous
 62
     3
100
AcDbTrace
 10
163.9496396039943
 20
859.0689435629938
 30
0.0
 11
166.0496396039943
 21
859.0689435629938
 31
0.0
 12
164.9996396039943
 22
865.3689435629937
 32
0.0
 13
164.9996396039943
 23
865.3689435629937
 33
0.0
  0
MTEXT
  5
810
330
807
100
AcDbEntity
  8
P-0000
  6
Continuous
 62
     2
100
AcDbMText
 10
157.4996396039941
 20
874.8689435629938
 30
0.0
 40
7.0
 41
0.0
 71
     5
 72
     1
  1
19
 11
0.0000000000000001
 21
1.0
 31
0.0
 73
     1
 44
1.0
1001
ACAD
1000
MTEXTBEGIN
1070
    73
1070
     1
1070
    44
1040
1.0
1070
    74
1070
     0
1000
MTEXTEND
  0
POINT
  5
811
330
807
100
AcDbEntity
  8
Defpoints
  6
Continuous
 62
     0
100
AcDbPoint
 10
196.5956777348488
 20
884.3689435629938
 30
0.0
  0
POINT
  5
812
330
807
100
AcDbEntity
  8
Defpoints
  6
Continuous
 62
     0
100
AcDbPoint
 10
199.5956777348488
 20
865.3689435629937
 30
0.0
  0
POINT
  5
813
330
807
100
AcDbEntity
  8
Defpoints
  6
Continuous
 62
     0
100
AcDbPoint
 10
164.9996396039943
 20
865.3689435629937
 30
0.0
  0
ENDBLK
  5
814
330
807
100
AcDbEntity
  8
0
100
AcDbBlockEnd
  0
BLOCK
  5
81D
330
81C
100
AcDbEntity
  8
0
100
AcDbBlockBegin
  2
*D18
 70
     1
 10
0.0
 20
0.0
 30
0.0
  3
*D18
  1

  0
LINE
  5
856
330
81C
100
AcDbEntity
  8
P-0000
  6
Continuous
 62
     3
370
    -2
100
AcDbLine
 10
-573.0022833489
 20
608.5359512655998
 30
0.0
 11
-598.5061140907538
 21
608.5359512655998
 31
0.0
  0
LINE
  5
857
330
81C
100
AcDbEntity
  8
P-0000
  6
Continuous
 62
     3
370
    -2
100
AcDbLine
 10
-570.0022833489
 20
589.5359512655999
 30
0.0
 11
-598.5061140907538
 21
589.5359512655999
 31
0.0
  0
LINE
  5
858
330
81C
100
AcDbEntity
  8
P-0000
  6
Continuous
 62
     3
370
    -2
100
AcDbLine
 10
-594.5061140907538
 20
614.8359512655998
 30
0.0
 11
-594.5061140907538
 21
621.1359512655999
 31
0.0
  0
LINE
  5
859
330
81C
100
AcDbEntity
  8
P-0000
  6
Continuous
 62
     3
370
    -2
100
AcDbLine
 10
-594.5061140907538
 20
583.2359512655999
 30
0.0
 11
-594.5061140907538
 21
576.9359512655999
 31
0.0
  0
LINE
  5
85A
330
81C
100
AcDbEntity
  8
P-0000
  6
Continuous
 62
     3
370
    -2
100
AcDbLine
 10
-594.5061140907538
 20
608.5359512655998
 30
0.0
 11
-594.5061140907538
 21
589.5359512655999
 31
0.0
  0
SOLID
  5
85B
330
81C
100
AcDbEntity
  8
P-0000
  6
Continuous
 62
     3
100
AcDbTrace
 10
-595.5561140907538
 20
614.8359512655998
 30
0.0
 11
-593.4561140907539
 21
614.8359512655998
 31
0.0
 12
-594.5061140907538
 22
608.5359512655998
 32
0.0
 13
-594.5061140907538
 23
608.5359512655998
 33
0.0
  0
SOLID
  5
85C
330
81C
100
AcDbEntity
  8
P-0000
  6
Continuous
 62
     3
100
AcDbTrace
 10
-595.5561140907538
 20
583.2359512655999
 30
0.0
 11
-593.4561140907539
 21
583.2359512655999
 31
0.0
 12
-594.5061140907538
 22
589.5359512655999
 32
0.0
 13
-594.5061140907538
 23
589.5359512655999
 33
0.0
  0
MTEXT
  5
85D
330
81C
100
AcDbEntity
  8
P-0000
  6
Continuous
 62
     2
100
AcDbMText
 10
-602.0061140907539
 20
599.0359512655998
 30
0.0
 40
7.0
 41
0.0
 71
     5
 72
     1
  1
19
 11
0.0000000000000001
 21
1.0
 31
0.0
 73
     1
 44
1.0
1001
ACAD
1000
MTEXTBEGIN
1070
    73
1070
     1
1070
    44
1040
1.0
1070
    74
1070
     0
1000
MTEXTEND
  0
POINT
  5
85E
330
81C
100
AcDbEntity
  8
Defpoints
  6
Continuous
 62
     0
100
AcDbPoint
 10
-573.0022833489
 20
608.5359512655998
 30
0.0
  0
POINT
  5
85F
330
81C
100
AcDbEntity
  8
Defpoints
  6
Continuous
 62
     0
100
AcDbPoint
 10
-570.0022833489
 20
589.5359512655999
 30
0.0
  0
POINT
  5
860
330
81C
100
AcDbEntity
  8
Defpoints
  6
Continuous
 62
     0
100
AcDbPoint
 10
-594.5061140907538
 20
589.5359512655999
 30
0.0
  0
ENDBLK
  5
81E
330
81C
100
AcDbEntity
  8
0
100
AcDbBlockEnd
  0
BLOCK
  5
89B
330
89A
100
AcDbEntity
  8
0
100
AcDbBlockBegin
  2
*D19
 70
     1
 10
0.0
 20
0.0
 30
0.0
  3
*D19
  1

  0
LINE
  5
8E5
330
89A
100
AcDbEntity
  8
P-0000
  6
Continuous
 62
     3
370
    -2
100
AcDbLine
 10
-573.0022833489
 20
600.5359512655999
 30
0.0
 11
-573.0022833489
 21
635.0477383057257
 31
0.0
  0
LINE
  5
8E6
330
89A
100
AcDbEntity
  8
P-0000
  6
Continuous
 62
     3
370
    -2
100
AcDbLine
 10
119.9977166511
 20
600.5359512655999
 30
0.0
 11
119.9977166511
 21
635.0477383057257
 31
0.0
  0
LINE
  5
8E7
330
89A
100
AcDbEntity
  8
P-0000
  6
Continuous
 62
     3
370
    -2
100
AcDbLine
 10
-566.7022833489
 20
631.0477383057257
 30
0.0
 11
113.6977166511
 21
631.0477383057257
 31
0.0
  0
SOLID
  5
8E8
330
89A
100
AcDbEntity
  8
P-0000
  6
Continuous
 62
     3
100
AcDbTrace
 10
-566.7022833489
 20
632.0977383057257
 30
0.0
 11
-566.7022833489
 21
629.9977383057258
 31
0.0
 12
-573.0022833489
 22
631.0477383057257
 32
0.0
 13
-573.0022833489
 23
631.0477383057257
 33
0.0
  0
SOLID
  5
8E9
330
89A
100
AcDbEntity
  8
P-0000
  6
Continuous
 62
     3
100
AcDbTrace
 10
113.6977166511
 20
632.0977383057257
 30
0.0
 11
113.6977166511
 21
629.9977383057258
 31
0.0
 12
119.9977166511
 22
631.0477383057257
 32
0.0
 13
119.9977166511
 23
631.0477383057257
 33
0.0
  0
MTEXT
  5
8EA
330
89A
100
AcDbEntity
  8
P-0000
  6
Continuous
 62
     2
100
AcDbMText
 10
-226.5022833489001
 20
638.5477383057256
 30
0.0
 40
7.0
 41
0.0
 71
     5
 72
     1
  1
693
 73
     1
 44
1.0
1001
ACAD
1000
MTEXTBEGIN
1070
    73
1070
     1
1070
    44
1040
1.0
1070
    74
1070
     0
1000
MTEXTEND
  0
POINT
  5
8EB
330
89A
100
AcDbEntity
  8
Defpoints
  6
Continuous
 62
     0
100
AcDbPoint
 10
-573.0022833489
 20
600.5359512655999
 30
0.0
  0
POINT
  5
8EC
330
89A
100
AcDbEntity
  8
Defpoints
  6
Continuous
 62
     0
100
AcDbPoint
 10
119.9977166511
 20
600.5359512655999
 30
0.0
  0
POINT
  5
8ED
330
89A
100
AcDbEntity
  8
Defpoints
  6
Continuous
 62
     0
100
AcDbPoint
 10
119.9977166511
 20
631.0477383057257
 30
0.0
  0
ENDBLK
  5
89C
330
89A
100
AcDbEntity
  8
0
100
AcDbBlockEnd
  0
ENDSEC
  0
SECTION
  2
ENTITIES
  0
LINE
  5
2E4
330
211
100
AcDbEntity
  8
0
  6
Continuous
 62
     7
100
AcDbLine
 10
-202.3460333489
 20
407.2155716968
 30
0.0
 11
-202.6585333489
 21
406.9030716968
 31
0.0
  0
LINE
  5
2F0
330
211
100
AcDbEntity
  8
0
  6
Continuous
 62
     7
100
AcDbLine
 10
-202.3460333489
 20
406.9030716968
 30
0.0
 11
-202.6585333489
 21
407.2155716968
 31
0.0
  0
LINE
  5
346
102
{ACAD_REACTORS
330
8A8
102
}
330
211
100
AcDbEntity
  8
BEZUGSACHSEN
  6
Continuous
 62
     3
100
AcDbLine
 10
-573.0022833489
 20
592.5359512655999
 30
0.0
 11
-573.0022833489
 21
608.5359512655998
 31
0.0
  0
LINE
  5
347
330
211
100
AcDbEntity
  8
BEZUGSACHSEN
  6
Continuous
 62
     3
100
AcDbLine
 10
-540.5022833489
 20
608.5359512655998
 30
0.0
 11
-540.5022833489
 21
598.5359512655999
 31
0.0
  0
LINE
  5
348
330
211
100
AcDbEntity
  8
BEZUGSACHSEN
  6
Continuous
 62
     3
100
AcDbLine
 10
-536.5022833489
 20
608.5359512655998
 30
0.0
 11
-536.5022833489
 21
598.5359512655999
 31
0.0
  0
LINE
  5
349
330
211
100
AcDbEntity
  8
BEZUGSACHSEN
  6
Continuous
 62
     3
100
AcDbLine
 10
-524.5022833489001
 20
608.5359512655998
 30
0.0
 11
-524.5022833489001
 21
598.5359512655999
 31
0.0
  0
LINE
  5
34A
330
211
100
AcDbEntity
  8
BEZUGSACHSEN
  6
Continuous
 62
     3
100
AcDbLine
 10
-520.5022833489
 20
608.5359512655998
 30
0.0
 11
-520.5022833489
 21
598.5359512655999
 31
0.0
  0
LINE
  5
34B
330
211
100
AcDbEntity
  8
BEZUGSACHSEN
  6
Continuous
 62
     3
100
AcDbLine
 10
-508.5022833488999
 20
608.5359512655998
 30
0.0
 11
-508.5022833488999
 21
598.5359512655999
 31
0.0
  0
LINE
  5
34C
330
211
100
AcDbEntity
  8
BEZUGSACHSEN
  6
Continuous
 62
     3
100
AcDbLine
 10
-504.5022833488999
 20
608.5359512655998
 30
0.0
 11
-504.5022833488999
 21
598.5359512655999
 31
0.0
  0
LINE
  5
34D
330
211
100
AcDbEntity
  8
BEZUGSACHSEN
  6
Continuous
 62
     3
100
AcDbLine
 10
-492.5022833488999
 20
608.5359512655998
 30
0.0
 11
-492.5022833488999
 21
598.5359512655999
 31
0.0
  0
LINE
  5
34E
330
211
100
AcDbEntity
  8
BEZUGSACHSEN
  6
Continuous
 62
     3
100
AcDbLine
 10
-488.5022833488999
 20
608.5359512655998
 30
0.0
 11
-488.5022833488999
 21
598.5359512655999
 31
0.0
  0
LINE
  5
34F
330
211
100
AcDbEntity
  8
BEZUGSACHSEN
  6
Continuous
 62
     3
100
AcDbLine
 10
-476.5022833488999
 20
608.5359512655998
 30
0.0
 11
-476.5022833488999
 21
598.5359512655999
 31
0.0
  0
LINE
  5
350
330
211
100
AcDbEntity
  8
BEZUGSACHSEN
  6
Continuous
 62
     3
100
AcDbLine
 10
-472.5022833488999
 20
608.5359512655998
 30
0.0
 11
-472.5022833488999
 21
598.5359512655999
 31
0.0
  0
LINE
  5
351
330
211
100
AcDbEntity
  8
BEZUGSACHSEN
  6
Continuous
 62
     3
100
AcDbLine
 10
-460.5022833489
 20
608.5359512655998
 30
0.0
 11
-460.5022833489
 21
598.5359512655999
 31
0.0
  0
LINE
  5
352
330
211
100
AcDbEntity
  8
BEZUGSACHSEN
  6
Continuous
 62
     3
100
AcDbLine
 10
-456.5022833489
 20
608.5359512655998
 30
0.0
 11
-456.5022833489
 21
598.5359512655999
 31
0.0
  0
LINE
  5
353
330
211
100
AcDbEntity
  8
BEZUGSACHSEN
  6
Continuous
 62
     3
100
AcDbLine
 10
-444.5022833489
 20
608.5359512655998
 30
0.0
 11
-444.5022833489
 21
598.5359512655999
 31
0.0
  0
LINE
  5
354
330
211
100
AcDbEntity
  8
BEZUGSACHSEN
  6
Continuous
 62
     3
100
AcDbLine
 10
-440.5022833489
 20
608.5359512655998
 30
0.0
 11
-440.5022833489
 21
598.5359512655999
 31
0.0
  0
LINE
  5
355
330
211
100
AcDbEntity
  8
BEZUGSACHSEN
  6
Continuous
 62
     3
100
AcDbLine
 10
-428.5022833489
 20
608.5359512655998
 30
0.0
 11
-428.5022833489
 21
598.5359512655999
 31
0.0
  0
LINE
  5
356
330
211
100
AcDbEntity
  8
BEZUGSACHSEN
  6
Continuous
 62
     3
100
AcDbLine
 10
-424.5022833489
 20
608.5359512655998
 30
0.0
 11
-424.5022833489
 21
598.5359512655999
 31
0.0
  0
LINE
  5
357
330
211
100
AcDbEntity
  8
BEZUGSACHSEN
  6
Continuous
 62
     3
100
AcDbLine
 10
-412.5022833489
 20
608.5359512655998
 30
0.0
 11
-412.5022833489
 21
598.5359512655999
 31
0.0
  0
LINE
  5
358
330
211
100
AcDbEntity
  8
BEZUGSACHSEN
  6
Continuous
 62
     3
100
AcDbLine
 10
-408.5022833488999
 20
608.5359512655998
 30
0.0
 11
-408.5022833488999
 21
598.5359512655999
 31
0.0
  0
LINE
  5
359
330
211
100
AcDbEntity
  8
BEZUGSACHSEN
  6
Continuous
 62
     3
100
AcDbLine
 10
-396.5022833489
 20
608.5359512655998
 30
0.0
 11
-396.5022833489
 21
598.5359512655999
 31
0.0
  0
LINE
  5
35A
330
211
100
AcDbEntity
  8
BEZUGSACHSEN
  6
Continuous
 62
     3
100
AcDbLine
 10
-392.5022833489
 20
608.5359512655998
 30
0.0
 11
-392.5022833489
 21
598.5359512655999
 31
0.0
  0
LINE
  5
35B
330
211
100
AcDbEntity
  8
BEZUGSACHSEN
  6
Continuous
 62
     3
100
AcDbLine
 10
-380.5022833489
 20
608.5359512655998
 30
0.0
 11
-380.5022833489
 21
598.5359512655999
 31
0.0
  0
LINE
  5
35C
330
211
100
AcDbEntity
  8
BEZUGSACHSEN
  6
Continuous
 62
     3
100
AcDbLine
 10
-376.5022833489
 20
608.5359512655998
 30
0.0
 11
-376.5022833489
 21
598.5359512655999
 31
0.0
  0
LINE
  5
35D
330
211
100
AcDbEntity
  8
BEZUGSACHSEN
  6
Continuous
 62
     3
100
AcDbLine
 10
-364.5022833489
 20
608.5359512655998
 30
0.0
 11
-364.5022833489
 21
598.5359512655999
 31
0.0
  0
LINE
  5
35E
330
211
100
AcDbEntity
  8
BEZUGSACHSEN
  6
Continuous
 62
     3
100
AcDbLine
 10
-360.5022833489
 20
608.5359512655998
 30
0.0
 11
-360.5022833489
 21
598.5359512655999
 31
0.0
  0
LINE
  5
35F
330
211
100
AcDbEntity
  8
BEZUGSACHSEN
  6
Continuous
 62
     3
100
AcDbLine
 10
-348.5022833489
 20
608.5359512655998
 30
0.0
 11
-348.5022833489
 21
598.5359512655999
 31
0.0
  0
LINE
  5
360
330
211
100
AcDbEntity
  8
BEZUGSACHSEN
  6
Continuous
 62
     3
100
AcDbLine
 10
-344.5022833489
 20
608.5359512655998
 30
0.0
 11
-344.5022833489
 21
598.5359512655999
 31
0.0
  0
LINE
  5
361
330
211
100
AcDbEntity
  8
BEZUGSACHSEN
  6
Continuous
 62
     3
100
AcDbLine
 10
-332.5022833489
 20
608.5359512655998
 30
0.0
 11
-332.5022833489
 21
598.5359512655999
 31
0.0
  0
LINE
  5
362
330
211
100
AcDbEntity
  8
BEZUGSACHSEN
  6
Continuous
 62
     3
100
AcDbLine
 10
-328.5022833489
 20
608.5359512655998
 30
0.0
 11
-328.5022833489
 21
598.5359512655999
 31
0.0
  0
LINE
  5
363
330
211
100
AcDbEntity
  8
BEZUGSACHSEN
  6
Continuous
 62
     3
100
AcDbLine
 10
-316.5022833489
 20
608.5359512655998
 30
0.0
 11
-316.5022833489
 21
598.5359512655999
 31
0.0
  0
LINE
  5
364
330
211
100
AcDbEntity
  8
BEZUGSACHSEN
  6
Continuous
 62
     3
100
AcDbLine
 10
-312.5022833489
 20
608.5359512655998
 30
0.0
 11
-312.5022833489
 21
598.5359512655999
 31
0.0
  0
LINE
  5
365
330
211
100
AcDbEntity
  8
BEZUGSACHSEN
  6
Continuous
 62
     3
100
AcDbLine
 10
-300.5022833489
 20
608.5359512655998
 30
0.0
 11
-300.5022833489
 21
598.5359512655999
 31
0.0
  0
LINE
  5
366
330
211
100
AcDbEntity
  8
BEZUGSACHSEN
  6
Continuous
 62
     3
100
AcDbLine
 10
-296.5022833489
 20
608.5359512655998
 30
0.0
 11
-296.5022833489
 21
598.5359512655999
 31
0.0
  0
LINE
  5
367
330
211
100
AcDbEntity
  8
BEZUGSACHSEN
  6
Continuous
 62
     3
100
AcDbLine
 10
-284.5022833489
 20
608.5359512655998
 30
0.0
 11
-284.5022833489
 21
598.5359512655999
 31
0.0
  0
LINE
  5
368
330
211
100
AcDbEntity
  8
BEZUGSACHSEN
  6
Continuous
 62
     3
100
AcDbLine
 10
-280.5022833489
 20
608.5359512655998
 30
0.0
 11
-280.5022833489
 21
598.5359512655999
 31
0.0
  0
LINE
  5
369
330
211
100
AcDbEntity
  8
BEZUGSACHSEN
  6
Continuous
 62
     3
100
AcDbLine
 10
-268.5022833489
 20
608.5359512655998
 30
0.0
 11
-268.5022833489
 21
598.5359512655999
 31
0.0
  0
LINE
  5
36A
330
211
100
AcDbEntity
  8
BEZUGSACHSEN
  6
Continuous
 62
     3
100
AcDbLine
 10
-264.5022833489
 20
608.5359512655998
 30
0.0
 11
-264.5022833489
 21
598.5359512655999
 31
0.0
  0
LINE
  5
36B
330
211
100
AcDbEntity
  8
BEZUGSACHSEN
  6
Continuous
 62
     3
100
AcDbLine
 10
-252.5022833489
 20
608.5359512655998
 30
0.0
 11
-252.5022833489
 21
598.5359512655999
 31
0.0
  0
LINE
  5
36C
330
211
100
AcDbEntity
  8
BEZUGSACHSEN
  6
Continuous
 62
     3
100
AcDbLine
 10
-248.5022833489
 20
608.5359512655998
 30
0.0
 11
-248.5022833489
 21
598.5359512655999
 31
0.0
  0
LINE
  5
36D
330
211
100
AcDbEntity
  8
BEZUGSACHSEN
  6
Continuous
 62
     3
100
AcDbLine
 10
-236.5022833489
 20
608.5359512655998
 30
0.0
 11
-236.5022833489
 21
598.5359512655999
 31
0.0
  0
LINE
  5
36E
330
211
100
AcDbEntity
  8
BEZUGSACHSEN
  6
Continuous
 62
     3
100
AcDbLine
 10
-232.5022833489
 20
608.5359512655998
 30
0.0
 11
-232.5022833489
 21
598.5359512655999
 31
0.0
  0
LINE
  5
36F
330
211
100
AcDbEntity
  8
BEZUGSACHSEN
  6
Continuous
 62
     3
100
AcDbLine
 10
116.9977166511
 20
589.5359512655999
 30
0.0
 11
-570.0022833489
 21
589.5359512655999
 31
0.0
  0
LINE
  5
370
330
211
100
AcDbEntity
  8
BEZUGSACHSEN
  6
Continuous
 62
     3
100
AcDbLine
 10
-540.5022833489
 20
598.5359512655999
 30
0.0
 11
-536.5022833489
 21
598.5359512655999
 31
0.0
  0
LINE
  5
371
330
211
100
AcDbEntity
  8
BEZUGSACHSEN
  6
Continuous
 62
     3
100
AcDbLine
 10
-524.5022833489001
 20
598.5359512655999
 30
0.0
 11
-520.5022833489
 21
598.5359512655999
 31
0.0
  0
LINE
  5
372
330
211
100
AcDbEntity
  8
BEZUGSACHSEN
  6
Continuous
 62
     3
100
AcDbLine
 10
-508.5022833488999
 20
598.5359512655999
 30
0.0
 11
-504.5022833488999
 21
598.5359512655999
 31
0.0
  0
LINE
  5
373
330
211
100
AcDbEntity
  8
BEZUGSACHSEN
  6
Continuous
 62
     3
100
AcDbLine
 10
-492.5022833488999
 20
598.5359512655999
 30
0.0
 11
-488.5022833488999
 21
598.5359512655999
 31
0.0
  0
LINE
  5
374
330
211
100
AcDbEntity
  8
BEZUGSACHSEN
  6
Continuous
 62
     3
100
AcDbLine
 10
-476.5022833488999
 20
598.5359512655999
 30
0.0
 11
-472.5022833488999
 21
598.5359512655999
 31
0.0
  0
LINE
  5
375
330
211
100
AcDbEntity
  8
BEZUGSACHSEN
  6
Continuous
 62
     3
100
AcDbLine
 10
-460.5022833489
 20
598.5359512655999
 30
0.0
 11
-456.5022833489
 21
598.5359512655999
 31
0.0
  0
LINE
  5
376
330
211
100
AcDbEntity
  8
BEZUGSACHSEN
  6
Continuous
 62
     3
100
AcDbLine
 10
-444.5022833489
 20
598.5359512655999
 30
0.0
 11
-440.5022833489
 21
598.5359512655999
 31
0.0
  0
LINE
  5
377
330
211
100
AcDbEntity
  8
BEZUGSACHSEN
  6
Continuous
 62
     3
100
AcDbLine
 10
-428.5022833489
 20
598.5359512655999
 30
0.0
 11
-424.5022833489
 21
598.5359512655999
 31
0.0
  0
LINE
  5
378
330
211
100
AcDbEntity
  8
BEZUGSACHSEN
  6
Continuous
 62
     3
100
AcDbLine
 10
-412.5022833489
 20
598.5359512655999
 30
0.0
 11
-408.5022833488999
 21
598.5359512655999
 31
0.0
  0
LINE
  5
379
330
211
100
AcDbEntity
  8
BEZUGSACHSEN
  6
Continuous
 62
     3
100
AcDbLine
 10
-396.5022833489
 20
598.5359512655999
 30
0.0
 11
-392.5022833489
 21
598.5359512655999
 31
0.0
  0
LINE
  5
37A
330
211
100
AcDbEntity
  8
BEZUGSACHSEN
  6
Continuous
 62
     3
100
AcDbLine
 10
-380.5022833489
 20
598.5359512655999
 30
0.0
 11
-376.5022833489
 21
598.5359512655999
 31
0.0
  0
LINE
  5
37B
330
211
100
AcDbEntity
  8
BEZUGSACHSEN
  6
Continuous
 62
     3
100
AcDbLine
 10
-364.5022833489
 20
598.5359512655999
 30
0.0
 11
-360.5022833489
 21
598.5359512655999
 31
0.0
  0
LINE
  5
37C
330
211
100
AcDbEntity
  8
BEZUGSACHSEN
  6
Continuous
 62
     3
100
AcDbLine
 10
-348.5022833489
 20
598.5359512655999
 30
0.0
 11
-344.5022833489
 21
598.5359512655999
 31
0.0
  0
LINE
  5
37D
330
211
100
AcDbEntity
  8
BEZUGSACHSEN
  6
Continuous
 62
     3
100
AcDbLine
 10
-332.5022833489
 20
598.5359512655999
 30
0.0
 11
-328.5022833489
 21
598.5359512655999
 31
0.0
  0
LINE
  5
37E
330
211
100
AcDbEntity
  8
BEZUGSACHSEN
  6
Continuous
 62
     3
100
AcDbLine
 10
-316.5022833489
 20
598.5359512655999
 30
0.0
 11
-312.5022833489
 21
598.5359512655999
 31
0.0
  0
LINE
  5
37F
330
211
100
AcDbEntity
  8
BEZUGSACHSEN
  6
Continuous
 62
     3
100
AcDbLine
 10
-300.5022833489
 20
598.5359512655999
 30
0.0
 11
-296.5022833489
 21
598.5359512655999
 31
0.0
  0
LINE
  5
380
330
211
100
AcDbEntity
  8
BEZUGSACHSEN
  6
Continuous
 62
     3
100
AcDbLine
 10
-284.5022833489
 20
598.5359512655999
 30
0.0
 11
-280.5022833489
 21
598.5359512655999
 31
0.0
  0
LINE
  5
381
330
211
100
AcDbEntity
  8
BEZUGSACHSEN
  6
Continuous
 62
     3
100
AcDbLine
 10
-268.5022833489
 20
598.5359512655999
 30
0.0
 11
-264.5022833489
 21
598.5359512655999
 31
0.0
  0
LINE
  5
382
330
211
100
AcDbEntity
  8
BEZUGSACHSEN
  6
Continuous
 62
     3
100
AcDbLine
 10
-252.5022833489
 20
598.5359512655999
 30
0.0
 11
-248.5022833489
 21
598.5359512655999
 31
0.0
  0
LINE
  5
383
330
211
100
AcDbEntity
  8
BEZUGSACHSEN
  6
Continuous
 62
     3
100
AcDbLine
 10
-236.5022833489
 20
598.5359512655999
 30
0.0
 11
-232.5022833489
 21
598.5359512655999
 31
0.0
  0
LINE
  5
384
330
211
100
AcDbEntity
  8
BEZUGSACHSEN
  6
Continuous
 62
     3
100
AcDbLine
 10
87.49771665110001
 20
598.5359512655999
 30
0.0
 11
83.49771665109999
 21
598.5359512655999
 31
0.0
  0
LINE
  5
385
330
211
100
AcDbEntity
  8
BEZUGSACHSEN
  6
Continuous
 62
     3
100
AcDbLine
 10
71.49771665109999
 20
598.5359512655999
 30
0.0
 11
67.49771665109999
 21
598.5359512655999
 31
0.0
  0
LINE
  5
386
330
211
100
AcDbEntity
  8
BEZUGSACHSEN
  6
Continuous
 62
     3
100
AcDbLine
 10
55.4977166511
 20
598.5359512655999
 30
0.0
 11
51.4977166511
 21
598.5359512655999
 31
0.0
  0
LINE
  5
387
330
211
100
AcDbEntity
  8
BEZUGSACHSEN
  6
Continuous
 62
     3
100
AcDbLine
 10
39.4977166511
 20
598.5359512655999
 30
0.0
 11
35.4977166511
 21
598.5359512655999
 31
0.0
  0
LINE
  5
388
330
211
100
AcDbEntity
  8
BEZUGSACHSEN
  6
Continuous
 62
     3
100
AcDbLine
 10
23.4977166511
 20
598.5359512655999
 30
0.0
 11
19.4977166511
 21
598.5359512655999
 31
0.0
  0
LINE
  5
389
330
211
100
AcDbEntity
  8
BEZUGSACHSEN
  6
Continuous
 62
     3
100
AcDbLine
 10
7.4977166511
 20
598.5359512655999
 30
0.0
 11
3.4977166511
 21
598.5359512655999
 31
0.0
  0
LINE
  5
38A
330
211
100
AcDbEntity
  8
BEZUGSACHSEN
  6
Continuous
 62
     3
100
AcDbLine
 10
-8.5022833489
 20
598.5359512655999
 30
0.0
 11
-12.5022833489
 21
598.5359512655999
 31
0.0
  0
LINE
  5
38B
330
211
100
AcDbEntity
  8
BEZUGSACHSEN
  6
Continuous
 62
     3
100
AcDbLine
 10
-24.5022833489
 20
598.5359512655999
 30
0.0
 11
-28.5022833489
 21
598.5359512655999
 31
0.0
  0
LINE
  5
38C
330
211
100
AcDbEntity
  8
BEZUGSACHSEN
  6
Continuous
 62
     3
100
AcDbLine
 10
-40.50228334889999
 20
598.5359512655999
 30
0.0
 11
-44.5022833489
 21
598.5359512655999
 31
0.0
  0
LINE
  5
38D
330
211
100
AcDbEntity
  8
BEZUGSACHSEN
  6
Continuous
 62
     3
100
AcDbLine
 10
-56.5022833489
 20
598.5359512655999
 30
0.0
 11
-60.5022833489
 21
598.5359512655999
 31
0.0
  0
LINE
  5
38E
330
211
100
AcDbEntity
  8
BEZUGSACHSEN
  6
Continuous
 62
     3
100
AcDbLine
 10
-72.5022833489
 20
598.5359512655999
 30
0.0
 11
-76.50228334890001
 21
598.5359512655999
 31
0.0
  0
LINE
  5
38F
330
211
100
AcDbEntity
  8
BEZUGSACHSEN
  6
Continuous
 62
     3
100
AcDbLine
 10
-88.50228334889999
 20
598.5359512655999
 30
0.0
 11
-92.5022833489
 21
598.5359512655999
 31
0.0
  0
LINE
  5
390
330
211
100
AcDbEntity
  8
BEZUGSACHSEN
  6
Continuous
 62
     3
100
AcDbLine
 10
-104.5022833489
 20
598.5359512655999
 30
0.0
 11
-108.5022833489
 21
598.5359512655999
 31
0.0
  0
LINE
  5
391
330
211
100
AcDbEntity
  8
BEZUGSACHSEN
  6
Continuous
 62
     3
100
AcDbLine
 10
-120.5022833489
 20
598.5359512655999
 30
0.0
 11
-124.5022833489
 21
598.5359512655999
 31
0.0
  0
LINE
  5
392
330
211
100
AcDbEntity
  8
BEZUGSACHSEN
  6
Continuous
 62
     3
100
AcDbLine
 10
-136.5022833489
 20
598.5359512655999
 30
0.0
 11
-140.5022833489
 21
598.5359512655999
 31
0.0
  0
LINE
  5
393
330
211
100
AcDbEntity
  8
BEZUGSACHSEN
  6
Continuous
 62
     3
100
AcDbLine
 10
-152.5022833489
 20
598.5359512655999
 30
0.0
 11
-156.5022833489
 21
598.5359512655999
 31
0.0
  0
LINE
  5
394
330
211
100
AcDbEntity
  8
BEZUGSACHSEN
  6
Continuous
 62
     3
100
AcDbLine
 10
-168.5022833489
 20
598.5359512655999
 30
0.0
 11
-172.5022833489
 21
598.5359512655999
 31
0.0
  0
LINE
  5
395
330
211
100
AcDbEntity
  8
BEZUGSACHSEN
  6
Continuous
 62
     3
100
AcDbLine
 10
-184.5022833489
 20
598.5359512655999
 30
0.0
 11
-188.5022833489
 21
598.5359512655999
 31
0.0
  0
LINE
  5
396
330
211
100
AcDbEntity
  8
BEZUGSACHSEN
  6
Continuous
 62
     3
100
AcDbLine
 10
-200.5022833489
 20
598.5359512655999
 30
0.0
 11
-204.5022833489
 21
598.5359512655999
 31
0.0
  0
LINE
  5
397
330
211
100
AcDbEntity
  8
BEZUGSACHSEN
  6
Continuous
 62
     3
100
AcDbLine
 10
-216.5022833489
 20
598.5359512655999
 30
0.0
 11
-220.5022833489
 21
598.5359512655999
 31
0.0
  0
LINE
  5
398
330
211
100
AcDbEntity
  8
BEZUGSACHSEN
  6
Continuous
 62
     3
100
AcDbLine
 10
-220.5022833489
 20
608.5359512655998
 30
0.0
 11
-220.5022833489
 21
598.5359512655999
 31
0.0
  0
LINE
  5
399
330
211
100
AcDbEntity
  8
BEZUGSACHSEN
  6
Continuous
 62
     3
100
AcDbLine
 10
-216.5022833489
 20
608.5359512655998
 30
0.0
 11
-216.5022833489
 21
598.5359512655999
 31
0.0
  0
LINE
  5
39A
330
211
100
AcDbEntity
  8
BEZUGSACHSEN
  6
Continuous
 62
     3
100
AcDbLine
 10
-204.5022833489
 20
608.5359512655998
 30
0.0
 11
-204.5022833489
 21
598.5359512655999
 31
0.0
  0
LINE
  5
39B
330
211
100
AcDbEntity
  8
BEZUGSACHSEN
  6
Continuous
 62
     3
100
AcDbLine
 10
-200.5022833489
 20
608.5359512655998
 30
0.0
 11
-200.5022833489
 21
598.5359512655999
 31
0.0
  0
LINE
  5
39C
330
211
100
AcDbEntity
  8
BEZUGSACHSEN
  6
Continuous
 62
     9
100
AcDbLine
 10
-573.0022833489
 20
605.5359512655999
 30
0.0
 11
-540.5022833489
 21
605.5359512655999
 31
0.0
  0
LINE
  5
39D
330
211
100
AcDbEntity
  8
BEZUGSACHSEN
  6
Continuous
 62
     9
100
AcDbLine
 10
-536.5022833489
 20
605.5359512655999
 30
0.0
 11
-524.5022833489001
 21
605.5359512655999
 31
0.0
  0
LINE
  5
39E
330
211
100
AcDbEntity
  8
BEZUGSACHSEN
  6
Continuous
 62
     9
100
AcDbLine
 10
-520.5022833489
 20
605.5359512655999
 30
0.0
 11
-508.5022833488999
 21
605.5359512655999
 31
0.0
  0
LINE
  5
39F
330
211
100
AcDbEntity
  8
BEZUGSACHSEN
  6
Continuous
 62
     9
100
AcDbLine
 10
-504.5022833488999
 20
605.5359512655999
 30
0.0
 11
-492.5022833488999
 21
605.5359512655999
 31
0.0
  0
LINE
  5
3A0
330
211
100
AcDbEntity
  8
BEZUGSACHSEN
  6
Continuous
 62
     9
100
AcDbLine
 10
-488.5022833488999
 20
605.5359512655999
 30
0.0
 11
-476.5022833488999
 21
605.5359512655999
 31
0.0
  0
LINE
  5
3A1
330
211
100
AcDbEntity
  8
BEZUGSACHSEN
  6
Continuous
 62
     9
100
AcDbLine
 10
-472.5022833488999
 20
605.5359512655999
 30
0.0
 11
-460.5022833489
 21
605.5359512655999
 31
0.0
  0
LINE
  5
3A2
330
211
100
AcDbEntity
  8
BEZUGSACHSEN
  6
Continuous
 62
     9
100
AcDbLine
 10
-456.5022833489
 20
605.5359512655999
 30
0.0
 11
-444.5022833489
 21
605.5359512655999
 31
0.0
  0
LINE
  5
3A3
330
211
100
AcDbEntity
  8
BEZUGSACHSEN
  6
Continuous
 62
     9
100
AcDbLine
 10
-440.5022833489
 20
605.5359512655999
 30
0.0
 11
-428.5022833489
 21
605.5359512655999
 31
0.0
  0
LINE
  5
3A4
330
211
100
AcDbEntity
  8
BEZUGSACHSEN
  6
Continuous
 62
     9
100
AcDbLine
 10
-424.5022833489
 20
605.5359512655999
 30
0.0
 11
-412.5022833489
 21
605.5359512655999
 31
0.0
  0
LINE
  5
3A5
330
211
100
AcDbEntity
  8
BEZUGSACHSEN
  6
Continuous
 62
     9
100
AcDbLine
 10
-408.5022833488999
 20
605.5359512655999
 30
0.0
 11
-396.5022833489
 21
605.5359512655999
 31
0.0
  0
LINE
  5
3A6
330
211
100
AcDbEntity
  8
BEZUGSACHSEN
  6
Continuous
 62
     9
100
AcDbLine
 10
-392.5022833489
 20
605.5359512655999
 30
0.0
 11
-380.5022833489
 21
605.5359512655999
 31
0.0
  0
LINE
  5
3A7
330
211
100
AcDbEntity
  8
BEZUGSACHSEN
  6
Continuous
 62
     9
100
AcDbLine
 10
-376.5022833489
 20
605.5359512655999
 30
0.0
 11
-364.5022833489
 21
605.5359512655999
 31
0.0
  0
LINE
  5
3A8
330
211
100
AcDbEntity
  8
BEZUGSACHSEN
  6
Continuous
 62
     9
100
AcDbLine
 10
-360.5022833489
 20
605.5359512655999
 30
0.0
 11
-348.5022833489
 21
605.5359512655999
 31
0.0
  0
LINE
  5
3A9
330
211
100
AcDbEntity
  8
BEZUGSACHSEN
  6
Continuous
 62
     9
100
AcDbLine
 10
-344.5022833489
 20
605.5359512655999
 30
0.0
 11
-332.5022833489
 21
605.5359512655999
 31
0.0
  0
LINE
  5
3AA
330
211
100
AcDbEntity
  8
BEZUGSACHSEN
  6
Continuous
 62
     9
100
AcDbLine
 10
-328.5022833489
 20
605.5359512655999
 30
0.0
 11
-316.5022833489
 21
605.5359512655999
 31
0.0
  0
LINE
  5
3AB
330
211
100
AcDbEntity
  8
BEZUGSACHSEN
  6
Continuous
 62
     9
100
AcDbLine
 10
-312.5022833489
 20
605.5359512655999
 30
0.0
 11
-300.5022833489
 21
605.5359512655999
 31
0.0
  0
LINE
  5
3AC
330
211
100
AcDbEntity
  8
BEZUGSACHSEN
  6
Continuous
 62
     9
100
AcDbLine
 10
-296.5022833489
 20
605.5359512655999
 30
0.0
 11
-284.5022833489
 21
605.5359512655999
 31
0.0
  0
LINE
  5
3AD
330
211
100
AcDbEntity
  8
BEZUGSACHSEN
  6
Continuous
 62
     9
100
AcDbLine
 10
-280.5022833489
 20
605.5359512655999
 30
0.0
 11
-268.5022833489
 21
605.5359512655999
 31
0.0
  0
LINE
  5
3AE
330
211
100
AcDbEntity
  8
BEZUGSACHSEN
  6
Continuous
 62
     9
100
AcDbLine
 10
-264.5022833489
 20
605.5359512655999
 30
0.0
 11
-252.5022833489
 21
605.5359512655999
 31
0.0
  0
LINE
  5
3AF
330
211
100
AcDbEntity
  8
BEZUGSACHSEN
  6
Continuous
 62
     9
100
AcDbLine
 10
-248.5022833489
 20
605.5359512655999
 30
0.0
 11
-236.5022833489
 21
605.5359512655999
 31
0.0
  0
LINE
  5
3B0
330
211
100
AcDbEntity
  8
BEZUGSACHSEN
  6
Continuous
 62
     9
100
AcDbLine
 10
-232.5022833489
 20
605.5359512655999
 30
0.0
 11
-220.5022833489
 21
605.5359512655999
 31
0.0
  0
LINE
  5
3B1
330
211
100
AcDbEntity
  8
BEZUGSACHSEN
  6
Continuous
 62
     9
100
AcDbLine
 10
-216.5022833489
 20
605.5359512655999
 30
0.0
 11
-204.5022833489
 21
605.5359512655999
 31
0.0
  0
LINE
  5
3B2
330
211
100
AcDbEntity
  8
BEZUGSACHSEN
  6
Continuous
 62
     9
100
AcDbLine
 10
-200.5022833489
 20
605.5359512655999
 30
0.0
 11
-188.5022833489
 21
605.5359512655999
 31
0.0
  0
LINE
  5
3B3
330
211
100
AcDbEntity
  8
BEZUGSACHSEN
  6
Continuous
 62
     9
100
AcDbLine
 10
-184.5022833489
 20
605.5359512655999
 30
0.0
 11
-172.5022833489
 21
605.5359512655999
 31
0.0
  0
LINE
  5
3B4
330
211
100
AcDbEntity
  8
BEZUGSACHSEN
  6
Continuous
 62
     9
100
AcDbLine
 10
-168.5022833489
 20
605.5359512655999
 30
0.0
 11
-156.5022833489
 21
605.5359512655999
 31
0.0
  0
LINE
  5
3B5
330
211
100
AcDbEntity
  8
BEZUGSACHSEN
  6
Continuous
 62
     9
100
AcDbLine
 10
-152.5022833489
 20
605.5359512655999
 30
0.0
 11
-140.5022833489
 21
605.5359512655999
 31
0.0
  0
LINE
  5
3B6
330
211
100
AcDbEntity
  8
BEZUGSACHSEN
  6
Continuous
 62
     9
100
AcDbLine
 10
-136.5022833489
 20
605.5359512655999
 30
0.0
 11
-124.5022833489
 21
605.5359512655999
 31
0.0
  0
LINE
  5
3B7
330
211
100
AcDbEntity
  8
BEZUGSACHSEN
  6
Continuous
 62
     9
100
AcDbLine
 10
-120.5022833489
 20
605.5359512655999
 30
0.0
 11
-108.5022833489
 21
605.5359512655999
 31
0.0
  0
LINE
  5
3B8
330
211
100
AcDbEntity
  8
BEZUGSACHSEN
  6
Continuous
 62
     9
100
AcDbLine
 10
-104.5022833489
 20
605.5359512655999
 30
0.0
 11
-92.5022833489
 21
605.5359512655999
 31
0.0
  0
LINE
  5
3B9
330
211
100
AcDbEntity
  8
BEZUGSACHSEN
  6
Continuous
 62
     9
100
AcDbLine
 10
-88.50228334889999
 20
605.5359512655999
 30
0.0
 11
-76.50228334890001
 21
605.5359512655999
 31
0.0
  0
LINE
  5
3BA
330
211
100
AcDbEntity
  8
BEZUGSACHSEN
  6
Continuous
 62
     9
100
AcDbLine
 10
-72.5022833489
 20
605.5359512655999
 30
0.0
 11
-60.5022833489
 21
605.5359512655999
 31
0.0
  0
LINE
  5
3BB
330
211
100
AcDbEntity
  8
BEZUGSACHSEN
  6
Continuous
 62
     9
100
AcDbLine
 10
-56.5022833489
 20
605.5359512655999
 30
0.0
 11
-44.5022833489
 21
605.5359512655999
 31
0.0
  0
LINE
  5
3BC
330
211
100
AcDbEntity
  8
BEZUGSACHSEN
  6
Continuous
 62
     9
100
AcDbLine
 10
-40.50228334889999
 20
605.5359512655999
 30
0.0
 11
-28.5022833489
 21
605.5359512655999
 31
0.0
  0
LINE
  5
3BD
330
211
100
AcDbEntity
  8
BEZUGSACHSEN
  6
Continuous
 62
     9
100
AcDbLine
 10
-24.5022833489
 20
605.5359512655999
 30
0.0
 11
-12.5022833489
 21
605.5359512655999
 31
0.0
  0
LINE
  5
3BE
330
211
100
AcDbEntity
  8
BEZUGSACHSEN
  6
Continuous
 62
     9
100
AcDbLine
 10
-8.5022833489
 20
605.5359512655999
 30
0.0
 11
3.4977166511
 21
605.5359512655999
 31
0.0
  0
LINE
  5
3BF
330
211
100
AcDbEntity
  8
BEZUGSACHSEN
  6
Continuous
 62
     9
100
AcDbLine
 10
7.4977166511
 20
605.5359512655999
 30
0.0
 11
19.4977166511
 21
605.5359512655999
 31
0.0
  0
LINE
  5
3C0
330
211
100
AcDbEntity
  8
BEZUGSACHSEN
  6
Continuous
 62
     9
100
AcDbLine
 10
23.4977166511
 20
605.5359512655999
 30
0.0
 11
35.4977166511
 21
605.5359512655999
 31
0.0
  0
LINE
  5
3C1
330
211
100
AcDbEntity
  8
BEZUGSACHSEN
  6
Continuous
 62
     9
100
AcDbLine
 10
39.4977166511
 20
605.5359512655999
 30
0.0
 11
51.4977166511
 21
605.5359512655999
 31
0.0
  0
LINE
  5
3C2
330
211
100
AcDbEntity
  8
BEZUGSACHSEN
  6
Continuous
 62
     9
100
AcDbLine
 10
55.4977166511
 20
605.5359512655999
 30
0.0
 11
67.49771665109999
 21
605.5359512655999
 31
0.0
  0
LINE
  5
3C3
330
211
100
AcDbEntity
  8
BEZUGSACHSEN
  6
Continuous
 62
     9
100
AcDbLine
 10
71.49771665109999
 20
605.5359512655999
 30
0.0
 11
83.49771665109999
 21
605.5359512655999
 31
0.0
  0
LINE
  5
3C4
330
211
100
AcDbEntity
  8
BEZUGSACHSEN
  6
Continuous
 62
     9
100
AcDbLine
 10
87.49771665110001
 20
605.5359512655999
 30
0.0
 11
119.9977166511
 21
605.5359512655999
 31
0.0
  0
LINE
  5
3C5
330
211
100
AcDbEntity
  8
BEZUGSACHSEN
  6
Continuous
 62
     7
100
AcDbLine
 10
-540.5022833489
 20
607.0359512655999
 30
0.0
 11
-536.5022833489
 21
607.0359512655999
 31
0.0
  0
LINE
  5
3C6
330
211
100
AcDbEntity
  8
BEZUGSACHSEN
  6
Continuous
 62
     7
100
AcDbLine
 10
-524.5022833489001
 20
607.0359512655999
 30
0.0
 11
-520.5022833489
 21
607.0359512655999
 31
0.0
  0
LINE
  5
3C7
330
211
100
AcDbEntity
  8
BEZUGSACHSEN
  6
Continuous
 62
     7
100
AcDbLine
 10
-508.5022833488999
 20
607.0359512655999
 30
0.0
 11
-504.5022833488999
 21
607.0359512655999
 31
0.0
  0
LINE
  5
3C8
330
211
100
AcDbEntity
  8
BEZUGSACHSEN
  6
Continuous
 62
     7
100
AcDbLine
 10
-492.5022833488999
 20
607.0359512655999
 30
0.0
 11
-488.5022833488999
 21
607.0359512655999
 31
0.0
  0
LINE
  5
3C9
330
211
100
AcDbEntity
  8
BEZUGSACHSEN
  6
Continuous
 62
     7
100
AcDbLine
 10
-476.5022833488999
 20
607.0359512655999
 30
0.0
 11
-472.5022833488999
 21
607.0359512655999
 31
0.0
  0
LINE
  5
3CA
330
211
100
AcDbEntity
  8
BEZUGSACHSEN
  6
Continuous
 62
     7
100
AcDbLine
 10
-460.5022833489
 20
607.0359512655999
 30
0.0
 11
-456.5022833489
 21
607.0359512655999
 31
0.0
  0
LINE
  5
3CB
330
211
100
AcDbEntity
  8
BEZUGSACHSEN
  6
Continuous
 62
     7
100
AcDbLine
 10
-444.5022833489
 20
607.0359512655999
 30
0.0
 11
-440.5022833489
 21
607.0359512655999
 31
0.0
  0
LINE
  5
3CC
330
211
100
AcDbEntity
  8
BEZUGSACHSEN
  6
Continuous
 62
     7
100
AcDbLine
 10
-428.5022833489
 20
607.0359512655999
 30
0.0
 11
-424.5022833489
 21
607.0359512655999
 31
0.0
  0
LINE
  5
3CD
330
211
100
AcDbEntity
  8
BEZUGSACHSEN
  6
Continuous
 62
     7
100
AcDbLine
 10
-412.5022833489
 20
607.0359512655999
 30
0.0
 11
-408.5022833488999
 21
607.0359512655999
 31
0.0
  0
LINE
  5
3CE
330
211
100
AcDbEntity
  8
BEZUGSACHSEN
  6
Continuous
 62
     7
100
AcDbLine
 10
-396.5022833489
 20
607.0359512655999
 30
0.0
 11
-392.5022833489
 21
607.0359512655999
 31
0.0
  0
LINE
  5
3CF
330
211
100
AcDbEntity
  8
BEZUGSACHSEN
  6
Continuous
 62
     7
100
AcDbLine
 10
-380.5022833489
 20
607.0359512655999
 30
0.0
 11
-376.5022833489
 21
607.0359512655999
 31
0.0
  0
LINE
  5
3D0
330
211
100
AcDbEntity
  8
BEZUGSACHSEN
  6
Continuous
 62
     7
100
AcDbLine
 10
-364.5022833489
 20
607.0359512655999
 30
0.0
 11
-360.5022833489
 21
607.0359512655999
 31
0.0
  0
LINE
  5
3D1
330
211
100
AcDbEntity
  8
BEZUGSACHSEN
  6
Continuous
 62
     7
100
AcDbLine
 10
-348.5022833489
 20
607.0359512655999
 30
0.0
 11
-344.5022833489
 21
607.0359512655999
 31
0.0
  0
LINE
  5
3D2
330
211
100
AcDbEntity
  8
BEZUGSACHSEN
  6
Continuous
 62
     7
100
AcDbLine
 10
-332.5022833489
 20
607.0359512655999
 30
0.0
 11
-328.5022833489
 21
607.0359512655999
 31
0.0
  0
LINE
  5
3D3
330
211
100
AcDbEntity
  8
BEZUGSACHSEN
  6
Continuous
 62
     7
100
AcDbLine
 10
-316.5022833489
 20
607.0359512655999
 30
0.0
 11
-312.5022833489
 21
607.0359512655999
 31
0.0
  0
LINE
  5
3D4
330
211
100
AcDbEntity
  8
BEZUGSACHSEN
  6
Continuous
 62
     7
100
AcDbLine
 10
-300.5022833489
 20
607.0359512655999
 30
0.0
 11
-296.5022833489
 21
607.0359512655999
 31
0.0
  0
LINE
  5
3D5
330
211
100
AcDbEntity
  8
BEZUGSACHSEN
  6
Continuous
 62
     7
100
AcDbLine
 10
-284.5022833489
 20
607.0359512655999
 30
0.0
 11
-280.5022833489
 21
607.0359512655999
 31
0.0
  0
LINE
  5
3D6
330
211
100
AcDbEntity
  8
BEZUGSACHSEN
  6
Continuous
 62
     7
100
AcDbLine
 10
-268.5022833489
 20
607.0359512655999
 30
0.0
 11
-264.5022833489
 21
607.0359512655999
 31
0.0
  0
LINE
  5
3D7
330
211
100
AcDbEntity
  8
BEZUGSACHSEN
  6
Continuous
 62
     7
100
AcDbLine
 10
-252.5022833489
 20
607.0359512655999
 30
0.0
 11
-248.5022833489
 21
607.0359512655999
 31
0.0
  0
LINE
  5
3D8
330
211
100
AcDbEntity
  8
BEZUGSACHSEN
  6
Continuous
 62
     7
100
AcDbLine
 10
-236.5022833489
 20
607.0359512655999
 30
0.0
 11
-232.5022833489
 21
607.0359512655999
 31
0.0
  0
LINE
  5
3D9
330
211
100
AcDbEntity
  8
BEZUGSACHSEN
  6
Continuous
 62
     7
100
AcDbLine
 10
-220.5022833489
 20
607.0359512655999
 30
0.0
 11
-216.5022833489
 21
607.0359512655999
 31
0.0
  0
LINE
  5
3DA
330
211
100
AcDbEntity
  8
BEZUGSACHSEN
  6
Continuous
 62
     7
100
AcDbLine
 10
-204.5022833489
 20
607.0359512655999
 30
0.0
 11
-200.5022833489
 21
607.0359512655999
 31
0.0
  0
LINE
  5
3DB
330
211
100
AcDbEntity
  8
BEZUGSACHSEN
  6
Continuous
 62
     7
100
AcDbLine
 10
-188.5022833489
 20
607.0359512655999
 30
0.0
 11
-184.5022833489
 21
607.0359512655999
 31
0.0
  0
LINE
  5
3DC
330
211
100
AcDbEntity
  8
BEZUGSACHSEN
  6
Continuous
 62
     7
100
AcDbLine
 10
-172.5022833489
 20
607.0359512655999
 30
0.0
 11
-168.5022833489
 21
607.0359512655999
 31
0.0
  0
LINE
  5
3DD
330
211
100
AcDbEntity
  8
BEZUGSACHSEN
  6
Continuous
 62
     7
100
AcDbLine
 10
-156.5022833489
 20
607.0359512655999
 30
0.0
 11
-152.5022833489
 21
607.0359512655999
 31
0.0
  0
LINE
  5
3DE
330
211
100
AcDbEntity
  8
BEZUGSACHSEN
  6
Continuous
 62
     7
100
AcDbLine
 10
-140.5022833489
 20
607.0359512655999
 30
0.0
 11
-136.5022833489
 21
607.0359512655999
 31
0.0
  0
LINE
  5
3DF
330
211
100
AcDbEntity
  8
BEZUGSACHSEN
  6
Continuous
 62
     7
100
AcDbLine
 10
-124.5022833489
 20
607.0359512655999
 30
0.0
 11
-120.5022833489
 21
607.0359512655999
 31
0.0
  0
LINE
  5
3E0
330
211
100
AcDbEntity
  8
BEZUGSACHSEN
  6
Continuous
 62
     7
100
AcDbLine
 10
-108.5022833489
 20
607.0359512655999
 30
0.0
 11
-104.5022833489
 21
607.0359512655999
 31
0.0
  0
LINE
  5
3E1
330
211
100
AcDbEntity
  8
BEZUGSACHSEN
  6
Continuous
 62
     7
100
AcDbLine
 10
-92.5022833489
 20
607.0359512655999
 30
0.0
 11
-88.50228334889999
 21
607.0359512655999
 31
0.0
  0
LINE
  5
3E2
330
211
100
AcDbEntity
  8
BEZUGSACHSEN
  6
Continuous
 62
     7
100
AcDbLine
 10
-76.50228334890001
 20
607.0359512655999
 30
0.0
 11
-72.5022833489
 21
607.0359512655999
 31
0.0
  0
LINE
  5
3E3
330
211
100
AcDbEntity
  8
BEZUGSACHSEN
  6
Continuous
 62
     7
100
AcDbLine
 10
-60.5022833489
 20
607.0359512655999
 30
0.0
 11
-56.5022833489
 21
607.0359512655999
 31
0.0
  0
LINE
  5
3E4
330
211
100
AcDbEntity
  8
BEZUGSACHSEN
  6
Continuous
 62
     7
100
AcDbLine
 10
-44.5022833489
 20
607.0359512655999
 30
0.0
 11
-40.50228334889999
 21
607.0359512655999
 31
0.0
  0
LINE
  5
3E5
330
211
100
AcDbEntity
  8
BEZUGSACHSEN
  6
Continuous
 62
     7
100
AcDbLine
 10
-28.5022833489
 20
607.0359512655999
 30
0.0
 11
-24.5022833489
 21
607.0359512655999
 31
0.0
  0
LINE
  5
3E6
330
211
100
AcDbEntity
  8
BEZUGSACHSEN
  6
Continuous
 62
     7
100
AcDbLine
 10
-12.5022833489
 20
607.0359512655999
 30
0.0
 11
-8.5022833489
 21
607.0359512655999
 31
0.0
  0
LINE
  5
3E7
330
211
100
AcDbEntity
  8
BEZUGSACHSEN
  6
Continuous
 62
     7
100
AcDbLine
 10
3.4977166511
 20
607.0359512655999
 30
0.0
 11
7.4977166511
 21
607.0359512655999
 31
0.0
  0
LINE
  5
3E8
330
211
100
AcDbEntity
  8
BEZUGSACHSEN
  6
Continuous
 62
     7
100
AcDbLine
 10
19.4977166511
 20
607.0359512655999
 30
0.0
 11
23.4977166511
 21
607.0359512655999
 31
0.0
  0
LINE
  5
3E9
330
211
100
AcDbEntity
  8
BEZUGSACHSEN
  6
Continuous
 62
     7
100
AcDbLine
 10
35.4977166511
 20
607.0359512655999
 30
0.0
 11
39.4977166511
 21
607.0359512655999
 31
0.0
  0
LINE
  5
3EA
330
211
100
AcDbEntity
  8
BEZUGSACHSEN
  6
Continuous
 62
     7
100
AcDbLine
 10
51.4977166511
 20
607.0359512655999
 30
0.0
 11
55.4977166511
 21
607.0359512655999
 31
0.0
  0
LINE
  5
3EB
330
211
100
AcDbEntity
  8
BEZUGSACHSEN
  6
Continuous
 62
     7
100
AcDbLine
 10
67.49771665109999
 20
607.0359512655999
 30
0.0
 11
71.49771665109999
 21
607.0359512655999
 31
0.0
  0
LINE
  5
3EC
330
211
100
AcDbEntity
  8
BEZUGSACHSEN
  6
Continuous
 62
     7
100
AcDbLine
 10
83.49771665109999
 20
607.0359512655999
 30
0.0
 11
87.49771665110001
 21
607.0359512655999
 31
0.0
  0
LINE
  5
3ED
330
211
100
AcDbEntity
  8
BEZUGSACHSEN
  6
Continuous
 62
     3
100
AcDbLine
 10
-573.0022833489
 20
608.5359512655998
 30
0.0
 11
119.9977166511
 21
608.5359512655998
 31
0.0
  0
LINE
  5
3EE
330
211
100
AcDbEntity
  8
BEZUGSACHSEN
  6
Continuous
 62
     3
100
AcDbLine
 10
-188.5022833489
 20
608.5359512655998
 30
0.0
 11
-188.5022833489
 21
598.5359512655999
 31
0.0
  0
LINE
  5
3EF
330
211
100
AcDbEntity
  8
BEZUGSACHSEN
  6
Continuous
 62
     3
100
AcDbLine
 10
-184.5022833489
 20
608.5359512655998
 30
0.0
 11
-184.5022833489
 21
598.5359512655999
 31
0.0
  0
LINE
  5
3F0
330
211
100
AcDbEntity
  8
BEZUGSACHSEN
  6
Continuous
 62
     3
100
AcDbLine
 10
-172.5022833489
 20
608.5359512655998
 30
0.0
 11
-172.5022833489
 21
598.5359512655999
 31
0.0
  0
LINE
  5
3F1
330
211
100
AcDbEntity
  8
BEZUGSACHSEN
  6
Continuous
 62
     3
100
AcDbLine
 10
-168.5022833489
 20
608.5359512655998
 30
0.0
 11
-168.5022833489
 21
598.5359512655999
 31
0.0
  0
LINE
  5
3F2
330
211
100
AcDbEntity
  8
BEZUGSACHSEN
  6
Continuous
 62
     3
100
AcDbLine
 10
-156.5022833489
 20
608.5359512655998
 30
0.0
 11
-156.5022833489
 21
598.5359512655999
 31
0.0
  0
LINE
  5
3F3
330
211
100
AcDbEntity
  8
BEZUGSACHSEN
  6
Continuous
 62
     3
100
AcDbLine
 10
-152.5022833489
 20
608.5359512655998
 30
0.0
 11
-152.5022833489
 21
598.5359512655999
 31
0.0
  0
LINE
  5
3F4
330
211
100
AcDbEntity
  8
BEZUGSACHSEN
  6
Continuous
 62
     3
100
AcDbLine
 10
-140.5022833489
 20
608.5359512655998
 30
0.0
 11
-140.5022833489
 21
598.5359512655999
 31
0.0
  0
LINE
  5
3F5
330
211
100
AcDbEntity
  8
BEZUGSACHSEN
  6
Continuous
 62
     3
100
AcDbLine
 10
-136.5022833489
 20
608.5359512655998
 30
0.0
 11
-136.5022833489
 21
598.5359512655999
 31
0.0
  0
LINE
  5
3F6
330
211
100
AcDbEntity
  8
BEZUGSACHSEN
  6
Continuous
 62
     3
100
AcDbLine
 10
-124.5022833489
 20
608.5359512655998
 30
0.0
 11
-124.5022833489
 21
598.5359512655999
 31
0.0
  0
LINE
  5
3F7
330
211
100
AcDbEntity
  8
BEZUGSACHSEN
  6
Continuous
 62
     3
100
AcDbLine
 10
-120.5022833489
 20
608.5359512655998
 30
0.0
 11
-120.5022833489
 21
598.5359512655999
 31
0.0
  0
LINE
  5
3F8
330
211
100
AcDbEntity
  8
BEZUGSACHSEN
  6
Continuous
 62
     3
100
AcDbLine
 10
-108.5022833489
 20
608.5359512655998
 30
0.0
 11
-108.5022833489
 21
598.5359512655999
 31
0.0
  0
LINE
  5
3F9
330
211
100
AcDbEntity
  8
BEZUGSACHSEN
  6
Continuous
 62
     3
100
AcDbLine
 10
-104.5022833489
 20
608.5359512655998
 30
0.0
 11
-104.5022833489
 21
598.5359512655999
 31
0.0
  0
LINE
  5
3FA
330
211
100
AcDbEntity
  8
BEZUGSACHSEN
  6
Continuous
 62
     3
100
AcDbLine
 10
-92.5022833489
 20
608.5359512655998
 30
0.0
 11
-92.5022833489
 21
598.5359512655999
 31
0.0
  0
LINE
  5
3FB
330
211
100
AcDbEntity
  8
BEZUGSACHSEN
  6
Continuous
 62
     3
100
AcDbLine
 10
-88.50228334889999
 20
608.5359512655998
 30
0.0
 11
-88.50228334889999
 21
598.5359512655999
 31
0.0
  0
LINE
  5
3FC
330
211
100
AcDbEntity
  8
BEZUGSACHSEN
  6
Continuous
 62
     3
100
AcDbLine
 10
-76.50228334890001
 20
608.5359512655998
 30
0.0
 11
-76.50228334890001
 21
598.5359512655999
 31
0.0
  0
LINE
  5
3FD
330
211
100
AcDbEntity
  8
BEZUGSACHSEN
  6
Continuous
 62
     3
100
AcDbLine
 10
-72.5022833489
 20
608.5359512655998
 30
0.0
 11
-72.5022833489
 21
598.5359512655999
 31
0.0
  0
LINE
  5
3FE
330
211
100
AcDbEntity
  8
BEZUGSACHSEN
  6
Continuous
 62
     3
100
AcDbLine
 10
-60.5022833489
 20
608.5359512655998
 30
0.0
 11
-60.5022833489
 21
598.5359512655999
 31
0.0
  0
LINE
  5
3FF
330
211
100
AcDbEntity
  8
BEZUGSACHSEN
  6
Continuous
 62
     3
100
AcDbLine
 10
-56.5022833489
 20
608.5359512655998
 30
0.0
 11
-56.5022833489
 21
598.5359512655999
 31
0.0
  0
LINE
  5
400
330
211
100
AcDbEntity
  8
BEZUGSACHSEN
  6
Continuous
 62
     3
100
AcDbLine
 10
-44.5022833489
 20
608.5359512655998
 30
0.0
 11
-44.5022833489
 21
598.5359512655999
 31
0.0
  0
LINE
  5
401
330
211
100
AcDbEntity
  8
BEZUGSACHSEN
  6
Continuous
 62
     3
100
AcDbLine
 10
-40.50228334889999
 20
608.5359512655998
 30
0.0
 11
-40.50228334889999
 21
598.5359512655999
 31
0.0
  0
LINE
  5
402
330
211
100
AcDbEntity
  8
BEZUGSACHSEN
  6
Continuous
 62
     3
100
AcDbLine
 10
-28.5022833489
 20
608.5359512655998
 30
0.0
 11
-28.5022833489
 21
598.5359512655999
 31
0.0
  0
LINE
  5
403
330
211
100
AcDbEntity
  8
BEZUGSACHSEN
  6
Continuous
 62
     3
100
AcDbLine
 10
-24.5022833489
 20
608.5359512655998
 30
0.0
 11
-24.5022833489
 21
598.5359512655999
 31
0.0
  0
LINE
  5
404
330
211
100
AcDbEntity
  8
BEZUGSACHSEN
  6
Continuous
 62
     3
100
AcDbLine
 10
-12.5022833489
 20
608.5359512655998
 30
0.0
 11
-12.5022833489
 21
598.5359512655999
 31
0.0
  0
LINE
  5
405
330
211
100
AcDbEntity
  8
BEZUGSACHSEN
  6
Continuous
 62
     3
100
AcDbLine
 10
-8.5022833489
 20
608.5359512655998
 30
0.0
 11
-8.5022833489
 21
598.5359512655999
 31
0.0
  0
LINE
  5
406
330
211
100
AcDbEntity
  8
BEZUGSACHSEN
  6
Continuous
 62
     3
100
AcDbLine
 10
3.4977166511
 20
608.5359512655998
 30
0.0
 11
3.4977166511
 21
598.5359512655999
 31
0.0
  0
LINE
  5
407
330
211
100
AcDbEntity
  8
BEZUGSACHSEN
  6
Continuous
 62
     3
100
AcDbLine
 10
7.4977166511
 20
608.5359512655998
 30
0.0
 11
7.4977166511
 21
598.5359512655999
 31
0.0
  0
LINE
  5
408
330
211
100
AcDbEntity
  8
BEZUGSACHSEN
  6
Continuous
 62
     3
100
AcDbLine
 10
19.4977166511
 20
608.5359512655998
 30
0.0
 11
19.4977166511
 21
598.5359512655999
 31
0.0
  0
LINE
  5
409
330
211
100
AcDbEntity
  8
BEZUGSACHSEN
  6
Continuous
 62
     3
100
AcDbLine
 10
23.4977166511
 20
608.5359512655998
 30
0.0
 11
23.4977166511
 21
598.5359512655999
 31
0.0
  0
LINE
  5
40A
330
211
100
AcDbEntity
  8
BEZUGSACHSEN
  6
Continuous
 62
     3
100
AcDbLine
 10
35.4977166511
 20
608.5359512655998
 30
0.0
 11
35.4977166511
 21
598.5359512655999
 31
0.0
  0
LINE
  5
40B
330
211
100
AcDbEntity
  8
BEZUGSACHSEN
  6
Continuous
 62
     3
100
AcDbLine
 10
39.4977166511
 20
608.5359512655998
 30
0.0
 11
39.4977166511
 21
598.5359512655999
 31
0.0
  0
LINE
  5
40C
330
211
100
AcDbEntity
  8
BEZUGSACHSEN
  6
Continuous
 62
     3
100
AcDbLine
 10
51.4977166511
 20
608.5359512655998
 30
0.0
 11
51.4977166511
 21
598.5359512655999
 31
0.0
  0
LINE
  5
40D
330
211
100
AcDbEntity
  8
BEZUGSACHSEN
  6
Continuous
 62
     3
100
AcDbLine
 10
55.4977166511
 20
608.5359512655998
 30
0.0
 11
55.4977166511
 21
598.5359512655999
 31
0.0
  0
LINE
  5
40E
330
211
100
AcDbEntity
  8
BEZUGSACHSEN
  6
Continuous
 62
     3
100
AcDbLine
 10
67.49771665109999
 20
608.5359512655998
 30
0.0
 11
67.49771665109999
 21
598.5359512655999
 31
0.0
  0
LINE
  5
40F
330
211
100
AcDbEntity
  8
BEZUGSACHSEN
  6
Continuous
 62
     3
100
AcDbLine
 10
71.49771665109999
 20
608.5359512655998
 30
0.0
 11
71.49771665109999
 21
598.5359512655999
 31
0.0
  0
LINE
  5
410
330
211
100
AcDbEntity
  8
BEZUGSACHSEN
  6
Continuous
 62
     3
100
AcDbLine
 10
83.49771665109999
 20
608.5359512655998
 30
0.0
 11
83.49771665109999
 21
598.5359512655999
 31
0.0
  0
LINE
  5
411
330
211
100
AcDbEntity
  8
BEZUGSACHSEN
  6
Continuous
 62
     3
100
AcDbLine
 10
87.49771665110001
 20
608.5359512655998
 30
0.0
 11
87.49771665110001
 21
598.5359512655999
 31
0.0
  0
LINE
  5
412
102
{ACAD_REACTORS
330
8A8
102
}
330
211
100
AcDbEntity
  8
BEZUGSACHSEN
  6
Continuous
 62
     3
100
AcDbLine
 10
119.9977166511
 20
592.5359512655999
 30
0.0
 11
119.9977166511
 21
608.5359512655998
 31
0.0
  0
LINE
  5
413
330
211
100
AcDbEntity
  8
BEZUGSACHSEN
  6
Continuous
 62
     3
100
AcDbLine
 10
-573.0022833489
 20
405.5593216968
 30
0.0
 11
-573.0022833489
 21
482.5593216968
 31
0.0
  0
LINE
  5
414
330
211
100
AcDbEntity
  8
BEZUGSACHSEN
  6
Continuous
 62
     3
100
AcDbLine
 10
-540.5022833489
 20
405.5593216968
 30
0.0
 11
-540.5022833489
 21
458.5593216968
 31
0.0
  0
LINE
  5
415
330
211
100
AcDbEntity
  8
BEZUGSACHSEN
  6
Continuous
 62
     3
100
AcDbLine
 10
-540.5022833489
 20
468.5593216967999
 30
0.0
 11
-540.5022833489
 21
482.5593216968
 31
0.0
  0
LINE
  5
416
330
211
100
AcDbEntity
  8
BEZUGSACHSEN
  6
Continuous
 62
     3
100
AcDbLine
 10
-536.5022833489
 20
405.5593216968
 30
0.0
 11
-536.5022833489
 21
458.5593216968
 31
0.0
  0
LINE
  5
417
330
211
100
AcDbEntity
  8
BEZUGSACHSEN
  6
Continuous
 62
     3
100
AcDbLine
 10
-536.5022833489
 20
468.5593216967999
 30
0.0
 11
-536.5022833489
 21
482.5593216968
 31
0.0
  0
LINE
  5
418
330
211
100
AcDbEntity
  8
BEZUGSACHSEN
  6
Continuous
 62
     3
100
AcDbLine
 10
-524.5022833489001
 20
405.5593216968
 30
0.0
 11
-524.5022833489001
 21
458.5593216968
 31
0.0
  0
LINE
  5
419
330
211
100
AcDbEntity
  8
BEZUGSACHSEN
  6
Continuous
 62
     3
100
AcDbLine
 10
-524.5022833489001
 20
468.5593216967999
 30
0.0
 11
-524.5022833489001
 21
482.5593216968
 31
0.0
  0
LINE
  5
41A
330
211
100
AcDbEntity
  8
BEZUGSACHSEN
  6
Continuous
 62
     3
100
AcDbLine
 10
-520.5022833489
 20
405.5593216968
 30
0.0
 11
-520.5022833489
 21
458.5593216968
 31
0.0
  0
LINE
  5
41B
330
211
100
AcDbEntity
  8
BEZUGSACHSEN
  6
Continuous
 62
     3
100
AcDbLine
 10
-520.5022833489
 20
468.5593216967999
 30
0.0
 11
-520.5022833489
 21
482.5593216968
 31
0.0
  0
LINE
  5
41C
330
211
100
AcDbEntity
  8
BEZUGSACHSEN
  6
Continuous
 62
     3
100
AcDbLine
 10
-508.5022833488999
 20
405.5593216968
 30
0.0
 11
-508.5022833488999
 21
458.5593216968
 31
0.0
  0
LINE
  5
41D
330
211
100
AcDbEntity
  8
BEZUGSACHSEN
  6
Continuous
 62
     3
100
AcDbLine
 10
-508.5022833488999
 20
468.5593216967999
 30
0.0
 11
-508.5022833488999
 21
482.5593216968
 31
0.0
  0
LINE
  5
41E
330
211
100
AcDbEntity
  8
BEZUGSACHSEN
  6
Continuous
 62
     3
100
AcDbLine
 10
-504.5022833488999
 20
405.5593216968
 30
0.0
 11
-504.5022833488999
 21
458.5593216968
 31
0.0
  0
LINE
  5
41F
330
211
100
AcDbEntity
  8
BEZUGSACHSEN
  6
Continuous
 62
     3
100
AcDbLine
 10
-504.5022833488999
 20
468.5593216967999
 30
0.0
 11
-504.5022833488999
 21
482.5593216968
 31
0.0
  0
LINE
  5
420
330
211
100
AcDbEntity
  8
BEZUGSACHSEN
  6
Continuous
 62
     3
100
AcDbLine
 10
-492.5022833488999
 20
405.5593216968
 30
0.0
 11
-492.5022833488999
 21
458.5593216968
 31
0.0
  0
LINE
  5
421
330
211
100
AcDbEntity
  8
BEZUGSACHSEN
  6
Continuous
 62
     3
100
AcDbLine
 10
-492.5022833488999
 20
468.5593216967999
 30
0.0
 11
-492.5022833488999
 21
482.5593216968
 31
0.0
  0
LINE
  5
422
330
211
100
AcDbEntity
  8
BEZUGSACHSEN
  6
Continuous
 62
     3
100
AcDbLine
 10
-488.5022833488999
 20
405.5593216968
 30
0.0
 11
-488.5022833488999
 21
458.5593216968
 31
0.0
  0
LINE
  5
423
330
211
100
AcDbEntity
  8
BEZUGSACHSEN
  6
Continuous
 62
     3
100
AcDbLine
 10
-488.5022833488999
 20
468.5593216967999
 30
0.0
 11
-488.5022833488999
 21
482.5593216968
 31
0.0
  0
LINE
  5
424
330
211
100
AcDbEntity
  8
BEZUGSACHSEN
  6
Continuous
 62
     3
100
AcDbLine
 10
-476.5022833488999
 20
405.5593216968
 30
0.0
 11
-476.5022833488999
 21
458.5593216968
 31
0.0
  0
LINE
  5
425
330
211
100
AcDbEntity
  8
BEZUGSACHSEN
  6
Continuous
 62
     3
100
AcDbLine
 10
-476.5022833488999
 20
468.5593216967999
 30
0.0
 11
-476.5022833488999
 21
482.5593216968
 31
0.0
  0
LINE
  5
426
330
211
100
AcDbEntity
  8
BEZUGSACHSEN
  6
Continuous
 62
     3
100
AcDbLine
 10
-472.5022833488999
 20
405.5593216968
 30
0.0
 11
-472.5022833488999
 21
458.5593216968
 31
0.0
  0
LINE
  5
427
330
211
100
AcDbEntity
  8
BEZUGSACHSEN
  6
Continuous
 62
     3
100
AcDbLine
 10
-472.5022833488999
 20
468.5593216967999
 30
0.0
 11
-472.5022833488999
 21
482.5593216968
 31
0.0
  0
LINE
  5
428
330
211
100
AcDbEntity
  8
BEZUGSACHSEN
  6
Continuous
 62
     3
100
AcDbLine
 10
-460.5022833489
 20
405.5593216968
 30
0.0
 11
-460.5022833489
 21
458.5593216968
 31
0.0
  0
LINE
  5
429
330
211
100
AcDbEntity
  8
BEZUGSACHSEN
  6
Continuous
 62
     3
100
AcDbLine
 10
-460.5022833489
 20
468.5593216967999
 30
0.0
 11
-460.5022833489
 21
482.5593216968
 31
0.0
  0
LINE
  5
42A
330
211
100
AcDbEntity
  8
BEZUGSACHSEN
  6
Continuous
 62
     3
100
AcDbLine
 10
-456.5022833489
 20
405.5593216968
 30
0.0
 11
-456.5022833489
 21
458.5593216968
 31
0.0
  0
LINE
  5
42B
330
211
100
AcDbEntity
  8
BEZUGSACHSEN
  6
Continuous
 62
     3
100
AcDbLine
 10
-456.5022833489
 20
468.5593216967999
 30
0.0
 11
-456.5022833489
 21
482.5593216968
 31
0.0
  0
LINE
  5
42C
330
211
100
AcDbEntity
  8
BEZUGSACHSEN
  6
Continuous
 62
     3
100
AcDbLine
 10
-444.5022833489
 20
405.5593216968
 30
0.0
 11
-444.5022833489
 21
458.5593216968
 31
0.0
  0
LINE
  5
42D
330
211
100
AcDbEntity
  8
BEZUGSACHSEN
  6
Continuous
 62
     3
100
AcDbLine
 10
-444.5022833489
 20
468.5593216967999
 30
0.0
 11
-444.5022833489
 21
482.5593216968
 31
0.0
  0
LINE
  5
42E
330
211
100
AcDbEntity
  8
BEZUGSACHSEN
  6
Continuous
 62
     3
100
AcDbLine
 10
-440.5022833489
 20
405.5593216968
 30
0.0
 11
-440.5022833489
 21
458.5593216968
 31
0.0
  0
LINE
  5
42F
330
211
100
AcDbEntity
  8
BEZUGSACHSEN
  6
Continuous
 62
     3
100
AcDbLine
 10
-440.5022833489
 20
468.5593216967999
 30
0.0
 11
-440.5022833489
 21
482.5593216968
 31
0.0
  0
LINE
  5
430
330
211
100
AcDbEntity
  8
BEZUGSACHSEN
  6
Continuous
 62
     3
100
AcDbLine
 10
-428.5022833489
 20
405.5593216968
 30
0.0
 11
-428.5022833489
 21
458.5593216968
 31
0.0
  0
LINE
  5
431
330
211
100
AcDbEntity
  8
BEZUGSACHSEN
  6
Continuous
 62
     3
100
AcDbLine
 10
-428.5022833489
 20
468.5593216967999
 30
0.0
 11
-428.5022833489
 21
482.5593216968
 31
0.0
  0
LINE
  5
432
330
211
100
AcDbEntity
  8
BEZUGSACHSEN
  6
Continuous
 62
     3
100
AcDbLine
 10
-424.5022833489
 20
405.5593216968
 30
0.0
 11
-424.5022833489
 21
458.5593216968
 31
0.0
  0
LINE
  5
433
330
211
100
AcDbEntity
  8
BEZUGSACHSEN
  6
Continuous
 62
     3
100
AcDbLine
 10
-424.5022833489
 20
468.5593216967999
 30
0.0
 11
-424.5022833489
 21
482.5593216968
 31
0.0
  0
LINE
  5
434
330
211
100
AcDbEntity
  8
BEZUGSACHSEN
  6
Continuous
 62
     3
100
AcDbLine
 10
-412.5022833489
 20
405.5593216968
 30
0.0
 11
-412.5022833489
 21
458.5593216968
 31
0.0
  0
LINE
  5
435
330
211
100
AcDbEntity
  8
BEZUGSACHSEN
  6
Continuous
 62
     3
100
AcDbLine
 10
-412.5022833489
 20
468.5593216967999
 30
0.0
 11
-412.5022833489
 21
482.5593216968
 31
0.0
  0
LINE
  5
436
330
211
100
AcDbEntity
  8
BEZUGSACHSEN
  6
Continuous
 62
     3
100
AcDbLine
 10
-408.5022833488999
 20
405.5593216968
 30
0.0
 11
-408.5022833488999
 21
458.5593216968
 31
0.0
  0
LINE
  5
437
330
211
100
AcDbEntity
  8
BEZUGSACHSEN
  6
Continuous
 62
     3
100
AcDbLine
 10
-408.5022833488999
 20
468.5593216967999
 30
0.0
 11
-408.5022833488999
 21
482.5593216968
 31
0.0
  0
LINE
  5
438
330
211
100
AcDbEntity
  8
BEZUGSACHSEN
  6
Continuous
 62
     3
100
AcDbLine
 10
-396.5022833489
 20
405.5593216968
 30
0.0
 11
-396.5022833489
 21
458.5593216968
 31
0.0
  0
LINE
  5
439
330
211
100
AcDbEntity
  8
BEZUGSACHSEN
  6
Continuous
 62
     3
100
AcDbLine
 10
-396.5022833489
 20
468.5593216967999
 30
0.0
 11
-396.5022833489
 21
482.5593216968
 31
0.0
  0
LINE
  5
43A
330
211
100
AcDbEntity
  8
BEZUGSACHSEN
  6
Continuous
 62
     3
100
AcDbLine
 10
-392.5022833489
 20
405.5593216968
 30
0.0
 11
-392.5022833489
 21
458.5593216968
 31
0.0
  0
LINE
  5
43B
330
211
100
AcDbEntity
  8
BEZUGSACHSEN
  6
Continuous
 62
     3
100
AcDbLine
 10
-392.5022833489
 20
468.5593216967999
 30
0.0
 11
-392.5022833489
 21
482.5593216968
 31
0.0
  0
LINE
  5
43C
330
211
100
AcDbEntity
  8
BEZUGSACHSEN
  6
Continuous
 62
     3
100
AcDbLine
 10
-380.5022833489
 20
405.5593216968
 30
0.0
 11
-380.5022833489
 21
458.5593216968
 31
0.0
  0
LINE
  5
43D
330
211
100
AcDbEntity
  8
BEZUGSACHSEN
  6
Continuous
 62
     3
100
AcDbLine
 10
-380.5022833489
 20
468.5593216967999
 30
0.0
 11
-380.5022833489
 21
482.5593216968
 31
0.0
  0
LINE
  5
43E
330
211
100
AcDbEntity
  8
BEZUGSACHSEN
  6
Continuous
 62
     3
100
AcDbLine
 10
-376.5022833489
 20
405.5593216968
 30
0.0
 11
-376.5022833489
 21
458.5593216968
 31
0.0
  0
LINE
  5
43F
330
211
100
AcDbEntity
  8
BEZUGSACHSEN
  6
Continuous
 62
     3
100
AcDbLine
 10
-376.5022833489
 20
468.5593216967999
 30
0.0
 11
-376.5022833489
 21
482.5593216968
 31
0.0
  0
LINE
  5
440
330
211
100
AcDbEntity
  8
BEZUGSACHSEN
  6
Continuous
 62
     3
100
AcDbLine
 10
-364.5022833489
 20
405.5593216968
 30
0.0
 11
-364.5022833489
 21
458.5593216968
 31
0.0
  0
LINE
  5
441
330
211
100
AcDbEntity
  8
BEZUGSACHSEN
  6
Continuous
 62
     3
100
AcDbLine
 10
-364.5022833489
 20
468.5593216967999
 30
0.0
 11
-364.5022833489
 21
482.5593216968
 31
0.0
  0
LINE
  5
442
330
211
100
AcDbEntity
  8
BEZUGSACHSEN
  6
Continuous
 62
     3
100
AcDbLine
 10
-360.5022833489
 20
405.5593216968
 30
0.0
 11
-360.5022833489
 21
458.5593216968
 31
0.0
  0
LINE
  5
443
330
211
100
AcDbEntity
  8
BEZUGSACHSEN
  6
Continuous
 62
     3
100
AcDbLine
 10
-360.5022833489
 20
468.5593216967999
 30
0.0
 11
-360.5022833489
 21
482.5593216968
 31
0.0
  0
LINE
  5
444
330
211
100
AcDbEntity
  8
BEZUGSACHSEN
  6
Continuous
 62
     3
100
AcDbLine
 10
-348.5022833489
 20
405.5593216968
 30
0.0
 11
-348.5022833489
 21
458.5593216968
 31
0.0
  0
LINE
  5
445
330
211
100
AcDbEntity
  8
BEZUGSACHSEN
  6
Continuous
 62
     3
100
AcDbLine
 10
-348.5022833489
 20
468.5593216967999
 30
0.0
 11
-348.5022833489
 21
482.5593216968
 31
0.0
  0
LINE
  5
446
330
211
100
AcDbEntity
  8
BEZUGSACHSEN
  6
Continuous
 62
     3
100
AcDbLine
 10
-344.5022833489
 20
405.5593216968
 30
0.0
 11
-344.5022833489
 21
458.5593216968
 31
0.0
  0
LINE
  5
447
330
211
100
AcDbEntity
  8
BEZUGSACHSEN
  6
Continuous
 62
     3
100
AcDbLine
 10
-344.5022833489
 20
468.5593216967999
 30
0.0
 11
-344.5022833489
 21
482.5593216968
 31
0.0
  0
LINE
  5
448
330
211
100
AcDbEntity
  8
BEZUGSACHSEN
  6
Continuous
 62
     3
100
AcDbLine
 10
-332.5022833489
 20
405.5593216968
 30
0.0
 11
-332.5022833489
 21
458.5593216968
 31
0.0
  0
LINE
  5
449
330
211
100
AcDbEntity
  8
BEZUGSACHSEN
  6
Continuous
 62
     3
100
AcDbLine
 10
-332.5022833489
 20
468.5593216967999
 30
0.0
 11
-332.5022833489
 21
482.5593216968
 31
0.0
  0
LINE
  5
44A
330
211
100
AcDbEntity
  8
BEZUGSACHSEN
  6
Continuous
 62
     3
100
AcDbLine
 10
-328.5022833489
 20
405.5593216968
 30
0.0
 11
-328.5022833489
 21
458.5593216968
 31
0.0
  0
LINE
  5
44B
330
211
100
AcDbEntity
  8
BEZUGSACHSEN
  6
Continuous
 62
     3
100
AcDbLine
 10
-328.5022833489
 20
468.5593216967999
 30
0.0
 11
-328.5022833489
 21
482.5593216968
 31
0.0
  0
LINE
  5
44C
330
211
100
AcDbEntity
  8
BEZUGSACHSEN
  6
Continuous
 62
     3
100
AcDbLine
 10
-316.5022833489
 20
405.5593216968
 30
0.0
 11
-316.5022833489
 21
458.5593216968
 31
0.0
  0
LINE
  5
44D
330
211
100
AcDbEntity
  8
BEZUGSACHSEN
  6
Continuous
 62
     3
100
AcDbLine
 10
-316.5022833489
 20
468.5593216967999
 30
0.0
 11
-316.5022833489
 21
482.5593216968
 31
0.0
  0
LINE
  5
44E
330
211
100
AcDbEntity
  8
BEZUGSACHSEN
  6
Continuous
 62
     3
100
AcDbLine
 10
-312.5022833489
 20
405.5593216968
 30
0.0
 11
-312.5022833489
 21
458.5593216968
 31
0.0
  0
LINE
  5
44F
330
211
100
AcDbEntity
  8
BEZUGSACHSEN
  6
Continuous
 62
     3
100
AcDbLine
 10
-312.5022833489
 20
468.5593216967999
 30
0.0
 11
-312.5022833489
 21
482.5593216968
 31
0.0
  0
LINE
  5
450
330
211
100
AcDbEntity
  8
BEZUGSACHSEN
  6
Continuous
 62
     3
100
AcDbLine
 10
-300.5022833489
 20
405.5593216968
 30
0.0
 11
-300.5022833489
 21
458.5593216968
 31
0.0
  0
LINE
  5
451
330
211
100
AcDbEntity
  8
BEZUGSACHSEN
  6
Continuous
 62
     3
100
AcDbLine
 10
-300.5022833489
 20
468.5593216967999
 30
0.0
 11
-300.5022833489
 21
482.5593216968
 31
0.0
  0
LINE
  5
452
330
211
100
AcDbEntity
  8
BEZUGSACHSEN
  6
Continuous
 62
     3
100
AcDbLine
 10
-296.5022833489
 20
405.5593216968
 30
0.0
 11
-296.5022833489
 21
458.5593216968
 31
0.0
  0
LINE
  5
453
330
211
100
AcDbEntity
  8
BEZUGSACHSEN
  6
Continuous
 62
     3
100
AcDbLine
 10
-296.5022833489
 20
468.5593216967999
 30
0.0
 11
-296.5022833489
 21
482.5593216968
 31
0.0
  0
LINE
  5
454
330
211
100
AcDbEntity
  8
BEZUGSACHSEN
  6
Continuous
 62
     3
100
AcDbLine
 10
-284.5022833489
 20
405.5593216968
 30
0.0
 11
-284.5022833489
 21
458.5593216968
 31
0.0
  0
LINE
  5
455
330
211
100
AcDbEntity
  8
BEZUGSACHSEN
  6
Continuous
 62
     3
100
AcDbLine
 10
-284.5022833489
 20
468.5593216967999
 30
0.0
 11
-284.5022833489
 21
482.5593216968
 31
0.0
  0
LINE
  5
456
330
211
100
AcDbEntity
  8
BEZUGSACHSEN
  6
Continuous
 62
     3
100
AcDbLine
 10
-280.5022833489
 20
405.5593216968
 30
0.0
 11
-280.5022833489
 21
458.5593216968
 31
0.0
  0
LINE
  5
457
330
211
100
AcDbEntity
  8
BEZUGSACHSEN
  6
Continuous
 62
     3
100
AcDbLine
 10
-280.5022833489
 20
468.5593216967999
 30
0.0
 11
-280.5022833489
 21
482.5593216968
 31
0.0
  0
LINE
  5
458
330
211
100
AcDbEntity
  8
BEZUGSACHSEN
  6
Continuous
 62
     3
100
AcDbLine
 10
-268.5022833489
 20
405.5593216968
 30
0.0
 11
-268.5022833489
 21
458.5593216968
 31
0.0
  0
LINE
  5
459
330
211
100
AcDbEntity
  8
BEZUGSACHSEN
  6
Continuous
 62
     3
100
AcDbLine
 10
-268.5022833489
 20
468.5593216967999
 30
0.0
 11
-268.5022833489
 21
482.5593216968
 31
0.0
  0
LINE
  5
45A
330
211
100
AcDbEntity
  8
BEZUGSACHSEN
  6
Continuous
 62
     3
100
AcDbLine
 10
-264.5022833489
 20
405.5593216968
 30
0.0
 11
-264.5022833489
 21
458.5593216968
 31
0.0
  0
LINE
  5
45B
330
211
100
AcDbEntity
  8
BEZUGSACHSEN
  6
Continuous
 62
     3
100
AcDbLine
 10
-264.5022833489
 20
468.5593216967999
 30
0.0
 11
-264.5022833489
 21
482.5593216968
 31
0.0
  0
LINE
  5
45C
330
211
100
AcDbEntity
  8
BEZUGSACHSEN
  6
Continuous
 62
     3
100
AcDbLine
 10
-252.5022833489
 20
405.5593216968
 30
0.0
 11
-252.5022833489
 21
458.5593216968
 31
0.0
  0
LINE
  5
45D
330
211
100
AcDbEntity
  8
BEZUGSACHSEN
  6
Continuous
 62
     3
100
AcDbLine
 10
-252.5022833489
 20
468.5593216967999
 30
0.0
 11
-252.5022833489
 21
482.5593216968
 31
0.0
  0
LINE
  5
45E
330
211
100
AcDbEntity
  8
BEZUGSACHSEN
  6
Continuous
 62
     3
100
AcDbLine
 10
119.9977166511
 20
405.5593216968
 30
0.0
 11
-573.0022833489
 21
405.5593216968
 31
0.0
  0
LINE
  5
45F
330
211
100
AcDbEntity
  8
BEZUGSACHSEN
  6
Continuous
 62
     7
100
AcDbLine
 10
-540.5022833489
 20
407.0593216967999
 30
0.0
 11
-536.5022833489
 21
407.0593216967999
 31
0.0
  0
LINE
  5
460
330
211
100
AcDbEntity
  8
BEZUGSACHSEN
  6
Continuous
 62
     7
100
AcDbLine
 10
-524.5022833489001
 20
407.0593216967999
 30
0.0
 11
-520.5022833489
 21
407.0593216967999
 31
0.0
  0
LINE
  5
461
330
211
100
AcDbEntity
  8
BEZUGSACHSEN
  6
Continuous
 62
     7
100
AcDbLine
 10
-508.5022833488999
 20
407.0593216967999
 30
0.0
 11
-504.5022833488999
 21
407.0593216967999
 31
0.0
  0
LINE
  5
462
330
211
100
AcDbEntity
  8
BEZUGSACHSEN
  6
Continuous
 62
     7
100
AcDbLine
 10
-492.5022833488999
 20
407.0593216967999
 30
0.0
 11
-488.5022833488999
 21
407.0593216967999
 31
0.0
  0
LINE
  5
463
330
211
100
AcDbEntity
  8
BEZUGSACHSEN
  6
Continuous
 62
     7
100
AcDbLine
 10
-476.5022833488999
 20
407.0593216967999
 30
0.0
 11
-472.5022833488999
 21
407.0593216967999
 31
0.0
  0
LINE
  5
464
330
211
100
AcDbEntity
  8
BEZUGSACHSEN
  6
Continuous
 62
     7
100
AcDbLine
 10
-460.5022833489
 20
407.0593216967999
 30
0.0
 11
-456.5022833489
 21
407.0593216967999
 31
0.0
  0
LINE
  5
465
330
211
100
AcDbEntity
  8
BEZUGSACHSEN
  6
Continuous
 62
     7
100
AcDbLine
 10
-444.5022833489
 20
407.0593216967999
 30
0.0
 11
-440.5022833489
 21
407.0593216967999
 31
0.0
  0
LINE
  5
466
330
211
100
AcDbEntity
  8
BEZUGSACHSEN
  6
Continuous
 62
     7
100
AcDbLine
 10
-428.5022833489
 20
407.0593216967999
 30
0.0
 11
-424.5022833489
 21
407.0593216967999
 31
0.0
  0
LINE
  5
467
330
211
100
AcDbEntity
  8
BEZUGSACHSEN
  6
Continuous
 62
     7
100
AcDbLine
 10
-412.5022833489
 20
407.0593216967999
 30
0.0
 11
-408.5022833488999
 21
407.0593216967999
 31
0.0
  0
LINE
  5
468
330
211
100
AcDbEntity
  8
BEZUGSACHSEN
  6
Continuous
 62
     7
100
AcDbLine
 10
-396.5022833489
 20
407.0593216967999
 30
0.0
 11
-392.5022833489
 21
407.0593216967999
 31
0.0
  0
LINE
  5
469
330
211
100
AcDbEntity
  8
BEZUGSACHSEN
  6
Continuous
 62
     7
100
AcDbLine
 10
-380.5022833489
 20
407.0593216967999
 30
0.0
 11
-376.5022833489
 21
407.0593216967999
 31
0.0
  0
LINE
  5
46A
330
211
100
AcDbEntity
  8
BEZUGSACHSEN
  6
Continuous
 62
     7
100
AcDbLine
 10
-364.5022833489
 20
407.0593216967999
 30
0.0
 11
-360.5022833489
 21
407.0593216967999
 31
0.0
  0
LINE
  5
46B
330
211
100
AcDbEntity
  8
BEZUGSACHSEN
  6
Continuous
 62
     7
100
AcDbLine
 10
-348.5022833489
 20
407.0593216967999
 30
0.0
 11
-344.5022833489
 21
407.0593216967999
 31
0.0
  0
LINE
  5
46C
330
211
100
AcDbEntity
  8
BEZUGSACHSEN
  6
Continuous
 62
     7
100
AcDbLine
 10
-332.5022833489
 20
407.0593216967999
 30
0.0
 11
-328.5022833489
 21
407.0593216967999
 31
0.0
  0
LINE
  5
46D
330
211
100
AcDbEntity
  8
BEZUGSACHSEN
  6
Continuous
 62
     7
100
AcDbLine
 10
-316.5022833489
 20
407.0593216967999
 30
0.0
 11
-312.5022833489
 21
407.0593216967999
 31
0.0
  0
LINE
  5
46E
330
211
100
AcDbEntity
  8
BEZUGSACHSEN
  6
Continuous
 62
     7
100
AcDbLine
 10
-300.5022833489
 20
407.0593216967999
 30
0.0
 11
-296.5022833489
 21
407.0593216967999
 31
0.0
  0
LINE
  5
46F
330
211
100
AcDbEntity
  8
BEZUGSACHSEN
  6
Continuous
 62
     7
100
AcDbLine
 10
-284.5022833489
 20
407.0593216967999
 30
0.0
 11
-280.5022833489
 21
407.0593216967999
 31
0.0
  0
LINE
  5
470
330
211
100
AcDbEntity
  8
BEZUGSACHSEN
  6
Continuous
 62
     7
100
AcDbLine
 10
-268.5022833489
 20
407.0593216967999
 30
0.0
 11
-264.5022833489
 21
407.0593216967999
 31
0.0
  0
LINE
  5
471
330
211
100
AcDbEntity
  8
BEZUGSACHSEN
  6
Continuous
 62
     7
100
AcDbLine
 10
-252.5022833489
 20
407.0593216967999
 30
0.0
 11
-248.5022833489
 21
407.0593216967999
 31
0.0
  0
LINE
  5
472
330
211
100
AcDbEntity
  8
BEZUGSACHSEN
  6
Continuous
 62
     7
100
AcDbLine
 10
-236.5022833489
 20
407.0593216967999
 30
0.0
 11
-232.5022833489
 21
407.0593216967999
 31
0.0
  0
LINE
  5
473
330
211
100
AcDbEntity
  8
BEZUGSACHSEN
  6
Continuous
 62
     7
100
AcDbLine
 10
87.49771665110001
 20
407.0593216967999
 30
0.0
 11
83.49771665109999
 21
407.0593216967999
 31
0.0
  0
LINE
  5
474
330
211
100
AcDbEntity
  8
BEZUGSACHSEN
  6
Continuous
 62
     7
100
AcDbLine
 10
71.49771665109999
 20
407.0593216967999
 30
0.0
 11
67.49771665109999
 21
407.0593216967999
 31
0.0
  0
LINE
  5
475
330
211
100
AcDbEntity
  8
BEZUGSACHSEN
  6
Continuous
 62
     7
100
AcDbLine
 10
55.4977166511
 20
407.0593216967999
 30
0.0
 11
51.4977166511
 21
407.0593216967999
 31
0.0
  0
LINE
  5
476
330
211
100
AcDbEntity
  8
BEZUGSACHSEN
  6
Continuous
 62
     7
100
AcDbLine
 10
39.4977166511
 20
407.0593216967999
 30
0.0
 11
35.4977166511
 21
407.0593216967999
 31
0.0
  0
LINE
  5
477
330
211
100
AcDbEntity
  8
BEZUGSACHSEN
  6
Continuous
 62
     7
100
AcDbLine
 10
23.4977166511
 20
407.0593216967999
 30
0.0
 11
19.4977166511
 21
407.0593216967999
 31
0.0
  0
LINE
  5
478
330
211
100
AcDbEntity
  8
BEZUGSACHSEN
  6
Continuous
 62
     7
100
AcDbLine
 10
7.4977166511
 20
407.0593216967999
 30
0.0
 11
3.4977166511
 21
407.0593216967999
 31
0.0
  0
LINE
  5
479
330
211
100
AcDbEntity
  8
BEZUGSACHSEN
  6
Continuous
 62
     7
100
AcDbLine
 10
-8.5022833489
 20
407.0593216967999
 30
0.0
 11
-12.5022833489
 21
407.0593216967999
 31
0.0
  0
LINE
  5
47A
330
211
100
AcDbEntity
  8
BEZUGSACHSEN
  6
Continuous
 62
     7
100
AcDbLine
 10
-24.5022833489
 20
407.0593216967999
 30
0.0
 11
-28.5022833489
 21
407.0593216967999
 31
0.0
  0
LINE
  5
47B
330
211
100
AcDbEntity
  8
BEZUGSACHSEN
  6
Continuous
 62
     7
100
AcDbLine
 10
-40.50228334889999
 20
407.0593216967999
 30
0.0
 11
-44.5022833489
 21
407.0593216967999
 31
0.0
  0
LINE
  5
47C
330
211
100
AcDbEntity
  8
BEZUGSACHSEN
  6
Continuous
 62
     7
100
AcDbLine
 10
-56.5022833489
 20
407.0593216967999
 30
0.0
 11
-60.5022833489
 21
407.0593216967999
 31
0.0
  0
LINE
  5
47D
330
211
100
AcDbEntity
  8
BEZUGSACHSEN
  6
Continuous
 62
     7
100
AcDbLine
 10
-72.5022833489
 20
407.0593216967999
 30
0.0
 11
-76.50228334890001
 21
407.0593216967999
 31
0.0
  0
LINE
  5
47E
330
211
100
AcDbEntity
  8
BEZUGSACHSEN
  6
Continuous
 62
     7
100
AcDbLine
 10
-88.50228334889999
 20
407.0593216967999
 30
0.0
 11
-92.5022833489
 21
407.0593216967999
 31
0.0
  0
LINE
  5
47F
330
211
100
AcDbEntity
  8
BEZUGSACHSEN
  6
Continuous
 62
     7
100
AcDbLine
 10
-104.5022833489
 20
407.0593216967999
 30
0.0
 11
-108.5022833489
 21
407.0593216967999
 31
0.0
  0
LINE
  5
480
330
211
100
AcDbEntity
  8
BEZUGSACHSEN
  6
Continuous
 62
     7
100
AcDbLine
 10
-120.5022833489
 20
407.0593216967999
 30
0.0
 11
-124.5022833489
 21
407.0593216967999
 31
0.0
  0
LINE
  5
481
330
211
100
AcDbEntity
  8
BEZUGSACHSEN
  6
Continuous
 62
     7
100
AcDbLine
 10
-136.5022833489
 20
407.0593216967999
 30
0.0
 11
-140.5022833489
 21
407.0593216967999
 31
0.0
  0
LINE
  5
482
330
211
100
AcDbEntity
  8
BEZUGSACHSEN
  6
Continuous
 62
     7
100
AcDbLine
 10
-152.5022833489
 20
407.0593216967999
 30
0.0
 11
-156.5022833489
 21
407.0593216967999
 31
0.0
  0
LINE
  5
483
330
211
100
AcDbEntity
  8
BEZUGSACHSEN
  6
Continuous
 62
     7
100
AcDbLine
 10
-168.5022833489
 20
407.0593216967999
 30
0.0
 11
-172.5022833489
 21
407.0593216967999
 31
0.0
  0
LINE
  5
484
330
211
100
AcDbEntity
  8
BEZUGSACHSEN
  6
Continuous
 62
     7
100
AcDbLine
 10
-184.5022833489
 20
407.0593216967999
 30
0.0
 11
-188.5022833489
 21
407.0593216967999
 31
0.0
  0
LINE
  5
485
330
211
100
AcDbEntity
  8
BEZUGSACHSEN
  6
Continuous
 62
     7
100
AcDbLine
 10
-200.5022833489
 20
407.0593216967999
 30
0.0
 11
-204.5022833489
 21
407.0593216967999
 31
0.0
  0
LINE
  5
486
330
211
100
AcDbEntity
  8
BEZUGSACHSEN
  6
Continuous
 62
     7
100
AcDbLine
 10
-216.5022833489
 20
407.0593216967999
 30
0.0
 11
-220.5022833489
 21
407.0593216967999
 31
0.0
  0
LINE
  5
487
330
211
100
AcDbEntity
  8
BEZUGSACHSEN
  6
Continuous
 62
     9
100
AcDbLine
 10
-573.0022833489
 20
408.5593216968
 30
0.0
 11
-540.5022833489
 21
408.5593216968
 31
0.0
  0
LINE
  5
488
330
211
100
AcDbEntity
  8
BEZUGSACHSEN
  6
Continuous
 62
     9
100
AcDbLine
 10
-536.5022833489
 20
408.5593216968
 30
0.0
 11
-524.5022833489001
 21
408.5593216968
 31
0.0
  0
LINE
  5
489
330
211
100
AcDbEntity
  8
BEZUGSACHSEN
  6
Continuous
 62
     9
100
AcDbLine
 10
-520.5022833489
 20
408.5593216968
 30
0.0
 11
-508.5022833488999
 21
408.5593216968
 31
0.0
  0
LINE
  5
48A
330
211
100
AcDbEntity
  8
BEZUGSACHSEN
  6
Continuous
 62
     9
100
AcDbLine
 10
-504.5022833488999
 20
408.5593216968
 30
0.0
 11
-492.5022833488999
 21
408.5593216968
 31
0.0
  0
LINE
  5
48B
330
211
100
AcDbEntity
  8
BEZUGSACHSEN
  6
Continuous
 62
     9
100
AcDbLine
 10
-488.5022833488999
 20
408.5593216968
 30
0.0
 11
-476.5022833488999
 21
408.5593216968
 31
0.0
  0
LINE
  5
48C
330
211
100
AcDbEntity
  8
BEZUGSACHSEN
  6
Continuous
 62
     9
100
AcDbLine
 10
-472.5022833488999
 20
408.5593216968
 30
0.0
 11
-460.5022833489
 21
408.5593216968
 31
0.0
  0
LINE
  5
48D
330
211
100
AcDbEntity
  8
BEZUGSACHSEN
  6
Continuous
 62
     9
100
AcDbLine
 10
-456.5022833489
 20
408.5593216968
 30
0.0
 11
-444.5022833489
 21
408.5593216968
 31
0.0
  0
LINE
  5
48E
330
211
100
AcDbEntity
  8
BEZUGSACHSEN
  6
Continuous
 62
     9
100
AcDbLine
 10
-440.5022833489
 20
408.5593216968
 30
0.0
 11
-428.5022833489
 21
408.5593216968
 31
0.0
  0
LINE
  5
48F
330
211
100
AcDbEntity
  8
BEZUGSACHSEN
  6
Continuous
 62
     9
100
AcDbLine
 10
-424.5022833489
 20
408.5593216968
 30
0.0
 11
-412.5022833489
 21
408.5593216968
 31
0.0
  0
LINE
  5
490
330
211
100
AcDbEntity
  8
BEZUGSACHSEN
  6
Continuous
 62
     9
100
AcDbLine
 10
-408.5022833488999
 20
408.5593216968
 30
0.0
 11
-396.5022833489
 21
408.5593216968
 31
0.0
  0
LINE
  5
491
330
211
100
AcDbEntity
  8
BEZUGSACHSEN
  6
Continuous
 62
     9
100
AcDbLine
 10
-392.5022833489
 20
408.5593216968
 30
0.0
 11
-380.5022833489
 21
408.5593216968
 31
0.0
  0
LINE
  5
492
330
211
100
AcDbEntity
  8
BEZUGSACHSEN
  6
Continuous
 62
     9
100
AcDbLine
 10
-376.5022833489
 20
408.5593216968
 30
0.0
 11
-364.5022833489
 21
408.5593216968
 31
0.0
  0
LINE
  5
493
330
211
100
AcDbEntity
  8
BEZUGSACHSEN
  6
Continuous
 62
     9
100
AcDbLine
 10
-360.5022833489
 20
408.5593216968
 30
0.0
 11
-348.5022833489
 21
408.5593216968
 31
0.0
  0
LINE
  5
494
330
211
100
AcDbEntity
  8
BEZUGSACHSEN
  6
Continuous
 62
     9
100
AcDbLine
 10
-344.5022833489
 20
408.5593216968
 30
0.0
 11
-332.5022833489
 21
408.5593216968
 31
0.0
  0
LINE
  5
495
330
211
100
AcDbEntity
  8
BEZUGSACHSEN
  6
Continuous
 62
     9
100
AcDbLine
 10
-328.5022833489
 20
408.5593216968
 30
0.0
 11
-316.5022833489
 21
408.5593216968
 31
0.0
  0
LINE
  5
496
330
211
100
AcDbEntity
  8
BEZUGSACHSEN
  6
Continuous
 62
     9
100
AcDbLine
 10
-312.5022833489
 20
408.5593216968
 30
0.0
 11
-300.5022833489
 21
408.5593216968
 31
0.0
  0
LINE
  5
497
330
211
100
AcDbEntity
  8
BEZUGSACHSEN
  6
Continuous
 62
     9
100
AcDbLine
 10
-296.5022833489
 20
408.5593216968
 30
0.0
 11
-284.5022833489
 21
408.5593216968
 31
0.0
  0
LINE
  5
498
330
211
100
AcDbEntity
  8
BEZUGSACHSEN
  6
Continuous
 62
     9
100
AcDbLine
 10
-280.5022833489
 20
408.5593216968
 30
0.0
 11
-268.5022833489
 21
408.5593216968
 31
0.0
  0
LINE
  5
499
330
211
100
AcDbEntity
  8
BEZUGSACHSEN
  6
Continuous
 62
     9
100
AcDbLine
 10
-264.5022833489
 20
408.5593216968
 30
0.0
 11
-252.5022833489
 21
408.5593216968
 31
0.0
  0
LINE
  5
49A
330
211
100
AcDbEntity
  8
BEZUGSACHSEN
  6
Continuous
 62
     9
100
AcDbLine
 10
-248.5022833489
 20
408.5593216968
 30
0.0
 11
-236.5022833489
 21
408.5593216968
 31
0.0
  0
LINE
  5
49B
330
211
100
AcDbEntity
  8
BEZUGSACHSEN
  6
Continuous
 62
     9
100
AcDbLine
 10
-232.5022833489
 20
408.5593216968
 30
0.0
 11
-220.5022833489
 21
408.5593216968
 31
0.0
  0
LINE
  5
49C
330
211
100
AcDbEntity
  8
BEZUGSACHSEN
  6
Continuous
 62
     9
100
AcDbLine
 10
-216.5022833489
 20
408.5593216968
 30
0.0
 11
-204.5022833489
 21
408.5593216968
 31
0.0
  0
LINE
  5
49D
330
211
100
AcDbEntity
  8
BEZUGSACHSEN
  6
Continuous
 62
     9
100
AcDbLine
 10
-200.5022833489
 20
408.5593216968
 30
0.0
 11
-188.5022833489
 21
408.5593216968
 31
0.0
  0
LINE
  5
49E
330
211
100
AcDbEntity
  8
BEZUGSACHSEN
  6
Continuous
 62
     9
100
AcDbLine
 10
-184.5022833489
 20
408.5593216968
 30
0.0
 11
-172.5022833489
 21
408.5593216968
 31
0.0
  0
LINE
  5
49F
330
211
100
AcDbEntity
  8
BEZUGSACHSEN
  6
Continuous
 62
     9
100
AcDbLine
 10
-168.5022833489
 20
408.5593216968
 30
0.0
 11
-156.5022833489
 21
408.5593216968
 31
0.0
  0
LINE
  5
4A0
330
211
100
AcDbEntity
  8
BEZUGSACHSEN
  6
Continuous
 62
     9
100
AcDbLine
 10
-152.5022833489
 20
408.5593216968
 30
0.0
 11
-140.5022833489
 21
408.5593216968
 31
0.0
  0
LINE
  5
4A1
330
211
100
AcDbEntity
  8
BEZUGSACHSEN
  6
Continuous
 62
     9
100
AcDbLine
 10
-136.5022833489
 20
408.5593216968
 30
0.0
 11
-124.5022833489
 21
408.5593216968
 31
0.0
  0
LINE
  5
4A2
330
211
100
AcDbEntity
  8
BEZUGSACHSEN
  6
Continuous
 62
     9
100
AcDbLine
 10
-120.5022833489
 20
408.5593216968
 30
0.0
 11
-108.5022833489
 21
408.5593216968
 31
0.0
  0
LINE
  5
4A3
330
211
100
AcDbEntity
  8
BEZUGSACHSEN
  6
Continuous
 62
     9
100
AcDbLine
 10
-104.5022833489
 20
408.5593216968
 30
0.0
 11
-92.5022833489
 21
408.5593216968
 31
0.0
  0
LINE
  5
4A4
330
211
100
AcDbEntity
  8
BEZUGSACHSEN
  6
Continuous
 62
     9
100
AcDbLine
 10
-88.50228334889999
 20
408.5593216968
 30
0.0
 11
-76.50228334890001
 21
408.5593216968
 31
0.0
  0
LINE
  5
4A5
330
211
100
AcDbEntity
  8
BEZUGSACHSEN
  6
Continuous
 62
     9
100
AcDbLine
 10
-72.5022833489
 20
408.5593216968
 30
0.0
 11
-60.5022833489
 21
408.5593216968
 31
0.0
  0
LINE
  5
4A6
330
211
100
AcDbEntity
  8
BEZUGSACHSEN
  6
Continuous
 62
     9
100
AcDbLine
 10
-56.5022833489
 20
408.5593216968
 30
0.0
 11
-44.5022833489
 21
408.5593216968
 31
0.0
  0
LINE
  5
4A7
330
211
100
AcDbEntity
  8
BEZUGSACHSEN
  6
Continuous
 62
     9
100
AcDbLine
 10
-40.50228334889999
 20
408.5593216968
 30
0.0
 11
-28.5022833489
 21
408.5593216968
 31
0.0
  0
LINE
  5
4A8
330
211
100
AcDbEntity
  8
BEZUGSACHSEN
  6
Continuous
 62
     9
100
AcDbLine
 10
-24.5022833489
 20
408.5593216968
 30
0.0
 11
-12.5022833489
 21
408.5593216968
 31
0.0
  0
LINE
  5
4A9
330
211
100
AcDbEntity
  8
BEZUGSACHSEN
  6
Continuous
 62
     9
100
AcDbLine
 10
-8.5022833489
 20
408.5593216968
 30
0.0
 11
3.4977166511
 21
408.5593216968
 31
0.0
  0
LINE
  5
4AA
330
211
100
AcDbEntity
  8
BEZUGSACHSEN
  6
Continuous
 62
     9
100
AcDbLine
 10
7.4977166511
 20
408.5593216968
 30
0.0
 11
19.4977166511
 21
408.5593216968
 31
0.0
  0
LINE
  5
4AB
330
211
100
AcDbEntity
  8
BEZUGSACHSEN
  6
Continuous
 62
     9
100
AcDbLine
 10
23.4977166511
 20
408.5593216968
 30
0.0
 11
35.4977166511
 21
408.5593216968
 31
0.0
  0
LINE
  5
4AC
330
211
100
AcDbEntity
  8
BEZUGSACHSEN
  6
Continuous
 62
     9
100
AcDbLine
 10
39.4977166511
 20
408.5593216968
 30
0.0
 11
51.4977166511
 21
408.5593216968
 31
0.0
  0
LINE
  5
4AD
330
211
100
AcDbEntity
  8
BEZUGSACHSEN
  6
Continuous
 62
     9
100
AcDbLine
 10
55.4977166511
 20
408.5593216968
 30
0.0
 11
67.49771665109999
 21
408.5593216968
 31
0.0
  0
LINE
  5
4AE
330
211
100
AcDbEntity
  8
BEZUGSACHSEN
  6
Continuous
 62
     9
100
AcDbLine
 10
71.49771665109999
 20
408.5593216968
 30
0.0
 11
83.49771665109999
 21
408.5593216968
 31
0.0
  0
LINE
  5
4AF
330
211
100
AcDbEntity
  8
BEZUGSACHSEN
  6
Continuous
 62
     9
100
AcDbLine
 10
87.49771665110001
 20
408.5593216968
 30
0.0
 11
119.9977166511
 21
408.5593216968
 31
0.0
  0
LINE
  5
4B0
330
211
100
AcDbEntity
  8
BEZUGSACHSEN
  6
Continuous
 62
     3
100
AcDbLine
 10
98.34458790700001
 20
410.5187800558999
 30
0.0
 11
99.055198445
 21
410.5187800558999
 31
0.0
  0
LINE
  5
4B1
330
211
100
AcDbEntity
  8
BEZUGSACHSEN
  6
Continuous
 62
     3
100
AcDbLine
 10
102.2527840588
 20
410.5187800558999
 30
0.0
 11
102.9633945968
 21
410.5187800558999
 31
0.0
  0
LINE
  5
4B2
330
211
100
AcDbEntity
  8
BEZUGSACHSEN
  6
Continuous
 62
     3
100
AcDbLine
 10
99.09991896370001
 20
411.1596908737999
 30
0.0
 11
102.2080635401
 21
411.1596908737999
 31
0.0
  0
LINE
  5
4B3
330
211
100
AcDbEntity
  8
BEZUGSACHSEN
  6
Continuous
 62
     3
100
AcDbLine
 10
102.058574873
 20
411.8702935187999
 30
0.0
 11
99.2494076308
 21
411.8702935187999
 31
0.0
  0
LINE
  5
4B4
330
211
100
AcDbEntity
  8
BEZUGSACHSEN
  6
Continuous
 62
     3
100
AcDbLine
 10
-248.5022833489
 20
405.5593216968
 30
0.0
 11
-248.5022833489
 21
458.5593216968
 31
0.0
  0
LINE
  5
4B5
330
211
100
AcDbEntity
  8
BEZUGSACHSEN
  6
Continuous
 62
     3
100
AcDbLine
 10
-248.5022833489
 20
468.5593216967999
 30
0.0
 11
-248.5022833489
 21
482.5593216968
 31
0.0
  0
LINE
  5
4B6
330
211
100
AcDbEntity
  8
BEZUGSACHSEN
  6
Continuous
 62
     3
100
AcDbLine
 10
-236.5022833489
 20
405.5593216968
 30
0.0
 11
-236.5022833489
 21
458.5593216968
 31
0.0
  0
LINE
  5
4B7
330
211
100
AcDbEntity
  8
BEZUGSACHSEN
  6
Continuous
 62
     3
100
AcDbLine
 10
-236.5022833489
 20
468.5593216967999
 30
0.0
 11
-236.5022833489
 21
482.5593216968
 31
0.0
  0
LINE
  5
4B8
330
211
100
AcDbEntity
  8
BEZUGSACHSEN
  6
Continuous
 62
     3
100
AcDbLine
 10
-232.5022833489
 20
405.5593216968
 30
0.0
 11
-232.5022833489
 21
458.5593216968
 31
0.0
  0
LINE
  5
4B9
330
211
100
AcDbEntity
  8
BEZUGSACHSEN
  6
Continuous
 62
     3
100
AcDbLine
 10
-232.5022833489
 20
468.5593216967999
 30
0.0
 11
-232.5022833489
 21
482.5593216968
 31
0.0
  0
LINE
  5
4BB
330
211
100
AcDbEntity
  8
BEZUGSACHSEN
  6
Continuous
 62
     3
100
AcDbLine
 10
-220.5022833489
 20
482.5593216968
 30
0.0
 11
-220.5022833489
 21
468.5593216967999
 31
0.0
  0
LINE
  5
4BC
330
211
100
AcDbEntity
  8
BEZUGSACHSEN
  6
Continuous
 62
     3
100
AcDbLine
 10
-220.5022833489
 20
458.5593216968
 30
0.0
 11
-220.5022833489
 21
405.5593216968
 31
0.0
  0
LINE
  5
4BD
330
211
100
AcDbEntity
  8
BEZUGSACHSEN
  6
Continuous
 62
     3
100
AcDbLine
 10
-216.5022833489
 20
482.5593216968
 30
0.0
 11
-216.5022833489
 21
468.5593216967999
 31
0.0
  0
LINE
  5
4BE
330
211
100
AcDbEntity
  8
BEZUGSACHSEN
  6
Continuous
 62
     3
100
AcDbLine
 10
-216.5022833489
 20
458.5593216968
 30
0.0
 11
-216.5022833489
 21
405.5593216968
 31
0.0
  0
LINE
  5
4BF
330
211
100
AcDbEntity
  8
BEZUGSACHSEN
  6
Continuous
 62
     3
100
AcDbLine
 10
-204.5022833489
 20
482.5593216968
 30
0.0
 11
-204.5022833489
 21
468.5593216967999
 31
0.0
  0
LINE
  5
4C0
330
211
100
AcDbEntity
  8
BEZUGSACHSEN
  6
Continuous
 62
     3
100
AcDbLine
 10
-204.5022833489
 20
458.5593216968
 30
0.0
 11
-204.5022833489
 21
405.5593216968
 31
0.0
  0
LINE
  5
4C1
330
211
100
AcDbEntity
  8
BEZUGSACHSEN
  6
Continuous
 62
     3
100
AcDbLine
 10
-200.5022833489
 20
482.5593216968
 30
0.0
 11
-200.5022833489
 21
468.5593216967999
 31
0.0
  0
LINE
  5
4C2
330
211
100
AcDbEntity
  8
BEZUGSACHSEN
  6
Continuous
 62
     3
100
AcDbLine
 10
-200.5022833489
 20
458.5593216968
 30
0.0
 11
-200.5022833489
 21
405.5593216968
 31
0.0
  0
LINE
  5
4C3
330
211
100
AcDbEntity
  8
BEZUGSACHSEN
  6
Continuous
 62
     3
100
AcDbLine
 10
-540.5022833489
 20
458.5593216968
 30
0.0
 11
-536.5022833489
 21
458.5593216968
 31
0.0
  0
LINE
  5
4C4
330
211
100
AcDbEntity
  8
BEZUGSACHSEN
  6
Continuous
 62
     3
100
AcDbLine
 10
-524.5022833489001
 20
458.5593216968
 30
0.0
 11
-520.5022833489
 21
458.5593216968
 31
0.0
  0
LINE
  5
4C5
330
211
100
AcDbEntity
  8
BEZUGSACHSEN
  6
Continuous
 62
     3
100
AcDbLine
 10
-508.5022833488999
 20
458.5593216968
 30
0.0
 11
-504.5022833488999
 21
458.5593216968
 31
0.0
  0
LINE
  5
4C6
330
211
100
AcDbEntity
  8
BEZUGSACHSEN
  6
Continuous
 62
     3
100
AcDbLine
 10
-492.5022833488999
 20
458.5593216968
 30
0.0
 11
-488.5022833488999
 21
458.5593216968
 31
0.0
  0
LINE
  5
4C7
330
211
100
AcDbEntity
  8
BEZUGSACHSEN
  6
Continuous
 62
     3
100
AcDbLine
 10
-476.5022833488999
 20
458.5593216968
 30
0.0
 11
-472.5022833488999
 21
458.5593216968
 31
0.0
  0
LINE
  5
4C8
330
211
100
AcDbEntity
  8
BEZUGSACHSEN
  6
Continuous
 62
     3
100
AcDbLine
 10
-460.5022833489
 20
458.5593216968
 30
0.0
 11
-456.5022833489
 21
458.5593216968
 31
0.0
  0
LINE
  5
4C9
330
211
100
AcDbEntity
  8
BEZUGSACHSEN
  6
Continuous
 62
     3
100
AcDbLine
 10
-444.5022833489
 20
458.5593216968
 30
0.0
 11
-440.5022833489
 21
458.5593216968
 31
0.0
  0
LINE
  5
4CA
330
211
100
AcDbEntity
  8
BEZUGSACHSEN
  6
Continuous
 62
     3
100
AcDbLine
 10
-428.5022833489
 20
458.5593216968
 30
0.0
 11
-424.5022833489
 21
458.5593216968
 31
0.0
  0
LINE
  5
4CB
330
211
100
AcDbEntity
  8
BEZUGSACHSEN
  6
Continuous
 62
     3
100
AcDbLine
 10
-412.5022833489
 20
458.5593216968
 30
0.0
 11
-408.5022833488999
 21
458.5593216968
 31
0.0
  0
LINE
  5
4CC
330
211
100
AcDbEntity
  8
BEZUGSACHSEN
  6
Continuous
 62
     3
100
AcDbLine
 10
-396.5022833489
 20
458.5593216968
 30
0.0
 11
-392.5022833489
 21
458.5593216968
 31
0.0
  0
LINE
  5
4CD
330
211
100
AcDbEntity
  8
BEZUGSACHSEN
  6
Continuous
 62
     3
100
AcDbLine
 10
-380.5022833489
 20
458.5593216968
 30
0.0
 11
-376.5022833489
 21
458.5593216968
 31
0.0
  0
LINE
  5
4CE
330
211
100
AcDbEntity
  8
BEZUGSACHSEN
  6
Continuous
 62
     3
100
AcDbLine
 10
-364.5022833489
 20
458.5593216968
 30
0.0
 11
-360.5022833489
 21
458.5593216968
 31
0.0
  0
LINE
  5
4CF
330
211
100
AcDbEntity
  8
BEZUGSACHSEN
  6
Continuous
 62
     3
100
AcDbLine
 10
-348.5022833489
 20
458.5593216968
 30
0.0
 11
-344.5022833489
 21
458.5593216968
 31
0.0
  0
LINE
  5
4D0
330
211
100
AcDbEntity
  8
BEZUGSACHSEN
  6
Continuous
 62
     3
100
AcDbLine
 10
-332.5022833489
 20
458.5593216968
 30
0.0
 11
-328.5022833489
 21
458.5593216968
 31
0.0
  0
LINE
  5
4D1
330
211
100
AcDbEntity
  8
BEZUGSACHSEN
  6
Continuous
 62
     3
100
AcDbLine
 10
-316.5022833489
 20
458.5593216968
 30
0.0
 11
-312.5022833489
 21
458.5593216968
 31
0.0
  0
LINE
  5
4D2
330
211
100
AcDbEntity
  8
BEZUGSACHSEN
  6
Continuous
 62
     3
100
AcDbLine
 10
-300.5022833489
 20
458.5593216968
 30
0.0
 11
-296.5022833489
 21
458.5593216968
 31
0.0
  0
LINE
  5
4D3
330
211
100
AcDbEntity
  8
BEZUGSACHSEN
  6
Continuous
 62
     3
100
AcDbLine
 10
-284.5022833489
 20
458.5593216968
 30
0.0
 11
-280.5022833489
 21
458.5593216968
 31
0.0
  0
LINE
  5
4D4
330
211
100
AcDbEntity
  8
BEZUGSACHSEN
  6
Continuous
 62
     3
100
AcDbLine
 10
-268.5022833489
 20
458.5593216968
 30
0.0
 11
-264.5022833489
 21
458.5593216968
 31
0.0
  0
LINE
  5
4D5
330
211
100
AcDbEntity
  8
BEZUGSACHSEN
  6
Continuous
 62
     3
100
AcDbLine
 10
-252.5022833489
 20
458.5593216968
 30
0.0
 11
-248.5022833489
 21
458.5593216968
 31
0.0
  0
LINE
  5
4D6
330
211
100
AcDbEntity
  8
BEZUGSACHSEN
  6
Continuous
 62
     3
100
AcDbLine
 10
-236.5022833489
 20
458.5593216968
 30
0.0
 11
-232.5022833489
 21
458.5593216968
 31
0.0
  0
LINE
  5
4D7
330
211
100
AcDbEntity
  8
BEZUGSACHSEN
  6
Continuous
 62
     3
100
AcDbLine
 10
-220.5022833489
 20
458.5593216968
 30
0.0
 11
-216.5022833489
 21
458.5593216968
 31
0.0
  0
LINE
  5
4D8
330
211
100
AcDbEntity
  8
BEZUGSACHSEN
  6
Continuous
 62
     3
100
AcDbLine
 10
-204.5022833489
 20
458.5593216968
 30
0.0
 11
-200.5022833489
 21
458.5593216968
 31
0.0
  0
LINE
  5
4D9
330
211
100
AcDbEntity
  8
BEZUGSACHSEN
  6
Continuous
 62
     3
100
AcDbLine
 10
-188.5022833489
 20
458.5593216968
 30
0.0
 11
-184.5022833489
 21
458.5593216968
 31
0.0
  0
LINE
  5
4DA
330
211
100
AcDbEntity
  8
BEZUGSACHSEN
  6
Continuous
 62
     3
100
AcDbLine
 10
-172.5022833489
 20
458.5593216968
 30
0.0
 11
-168.5022833489
 21
458.5593216968
 31
0.0
  0
LINE
  5
4DB
330
211
100
AcDbEntity
  8
BEZUGSACHSEN
  6
Continuous
 62
     3
100
AcDbLine
 10
-156.5022833489
 20
458.5593216968
 30
0.0
 11
-152.5022833489
 21
458.5593216968
 31
0.0
  0
LINE
  5
4DC
330
211
100
AcDbEntity
  8
BEZUGSACHSEN
  6
Continuous
 62
     3
100
AcDbLine
 10
-140.5022833489
 20
458.5593216968
 30
0.0
 11
-136.5022833489
 21
458.5593216968
 31
0.0
  0
LINE
  5
4DD
330
211
100
AcDbEntity
  8
BEZUGSACHSEN
  6
Continuous
 62
     3
100
AcDbLine
 10
-124.5022833489
 20
458.5593216968
 30
0.0
 11
-120.5022833489
 21
458.5593216968
 31
0.0
  0
LINE
  5
4DE
330
211
100
AcDbEntity
  8
BEZUGSACHSEN
  6
Continuous
 62
     3
100
AcDbLine
 10
-108.5022833489
 20
458.5593216968
 30
0.0
 11
-104.5022833489
 21
458.5593216968
 31
0.0
  0
LINE
  5
4DF
330
211
100
AcDbEntity
  8
BEZUGSACHSEN
  6
Continuous
 62
     3
100
AcDbLine
 10
-92.5022833489
 20
458.5593216968
 30
0.0
 11
-88.50228334889999
 21
458.5593216968
 31
0.0
  0
LINE
  5
4E0
330
211
100
AcDbEntity
  8
BEZUGSACHSEN
  6
Continuous
 62
     3
100
AcDbLine
 10
-76.50228334890001
 20
458.5593216968
 30
0.0
 11
-72.5022833489
 21
458.5593216968
 31
0.0
  0
LINE
  5
4E1
330
211
100
AcDbEntity
  8
BEZUGSACHSEN
  6
Continuous
 62
     3
100
AcDbLine
 10
-60.5022833489
 20
458.5593216968
 30
0.0
 11
-56.5022833489
 21
458.5593216968
 31
0.0
  0
LINE
  5
4E2
330
211
100
AcDbEntity
  8
BEZUGSACHSEN
  6
Continuous
 62
     3
100
AcDbLine
 10
-44.5022833489
 20
458.5593216968
 30
0.0
 11
-40.50228334889999
 21
458.5593216968
 31
0.0
  0
LINE
  5
4E3
330
211
100
AcDbEntity
  8
BEZUGSACHSEN
  6
Continuous
 62
     3
100
AcDbLine
 10
-28.5022833489
 20
458.5593216968
 30
0.0
 11
-24.5022833489
 21
458.5593216968
 31
0.0
  0
LINE
  5
4E4
330
211
100
AcDbEntity
  8
BEZUGSACHSEN
  6
Continuous
 62
     3
100
AcDbLine
 10
-12.5022833489
 20
458.5593216968
 30
0.0
 11
-8.5022833489
 21
458.5593216968
 31
0.0
  0
LINE
  5
4E5
330
211
100
AcDbEntity
  8
BEZUGSACHSEN
  6
Continuous
 62
     3
100
AcDbLine
 10
3.4977166511
 20
458.5593216968
 30
0.0
 11
7.4977166511
 21
458.5593216968
 31
0.0
  0
LINE
  5
4E6
330
211
100
AcDbEntity
  8
BEZUGSACHSEN
  6
Continuous
 62
     3
100
AcDbLine
 10
19.4977166511
 20
458.5593216968
 30
0.0
 11
23.4977166511
 21
458.5593216968
 31
0.0
  0
LINE
  5
4E7
330
211
100
AcDbEntity
  8
BEZUGSACHSEN
  6
Continuous
 62
     3
100
AcDbLine
 10
35.4977166511
 20
458.5593216968
 30
0.0
 11
39.4977166511
 21
458.5593216968
 31
0.0
  0
LINE
  5
4E8
330
211
100
AcDbEntity
  8
BEZUGSACHSEN
  6
Continuous
 62
     3
100
AcDbLine
 10
51.4977166511
 20
458.5593216968
 30
0.0
 11
55.4977166511
 21
458.5593216968
 31
0.0
  0
LINE
  5
4E9
330
211
100
AcDbEntity
  8
BEZUGSACHSEN
  6
Continuous
 62
     3
100
AcDbLine
 10
67.49771665109999
 20
458.5593216968
 30
0.0
 11
71.49771665109999
 21
458.5593216968
 31
0.0
  0
LINE
  5
4EA
330
211
100
AcDbEntity
  8
BEZUGSACHSEN
  6
Continuous
 62
     3
100
AcDbLine
 10
83.49771665109999
 20
458.5593216968
 30
0.0
 11
87.49771665110001
 21
458.5593216968
 31
0.0
  0
LINE
  5
4EB
330
211
100
AcDbEntity
  8
BEZUGSACHSEN
  6
Continuous
 62
     3
100
AcDbLine
 10
87.49771665110001
 20
468.5593216967999
 30
0.0
 11
83.49771665109999
 21
468.5593216967999
 31
0.0
  0
LINE
  5
4EC
330
211
100
AcDbEntity
  8
BEZUGSACHSEN
  6
Continuous
 62
     3
100
AcDbLine
 10
71.49771665109999
 20
468.5593216967999
 30
0.0
 11
67.49771665109999
 21
468.5593216967999
 31
0.0
  0
LINE
  5
4ED
330
211
100
AcDbEntity
  8
BEZUGSACHSEN
  6
Continuous
 62
     3
100
AcDbLine
 10
55.4977166511
 20
468.5593216967999
 30
0.0
 11
51.4977166511
 21
468.5593216967999
 31
0.0
  0
LINE
  5
4EE
330
211
100
AcDbEntity
  8
BEZUGSACHSEN
  6
Continuous
 62
     3
100
AcDbLine
 10
39.4977166511
 20
468.5593216967999
 30
0.0
 11
35.4977166511
 21
468.5593216967999
 31
0.0
  0
LINE
  5
4EF
330
211
100
AcDbEntity
  8
BEZUGSACHSEN
  6
Continuous
 62
     3
100
AcDbLine
 10
23.4977166511
 20
468.5593216967999
 30
0.0
 11
19.4977166511
 21
468.5593216967999
 31
0.0
  0
LINE
  5
4F0
330
211
100
AcDbEntity
  8
BEZUGSACHSEN
  6
Continuous
 62
     3
100
AcDbLine
 10
7.4977166511
 20
468.5593216967999
 30
0.0
 11
3.4977166511
 21
468.5593216967999
 31
0.0
  0
LINE
  5
4F1
330
211
100
AcDbEntity
  8
BEZUGSACHSEN
  6
Continuous
 62
     3
100
AcDbLine
 10
-8.5022833489
 20
468.5593216967999
 30
0.0
 11
-12.5022833489
 21
468.5593216967999
 31
0.0
  0
LINE
  5
4F2
330
211
100
AcDbEntity
  8
BEZUGSACHSEN
  6
Continuous
 62
     3
100
AcDbLine
 10
-24.5022833489
 20
468.5593216967999
 30
0.0
 11
-28.5022833489
 21
468.5593216967999
 31
0.0
  0
LINE
  5
4F3
330
211
100
AcDbEntity
  8
BEZUGSACHSEN
  6
Continuous
 62
     3
100
AcDbLine
 10
-40.50228334889999
 20
468.5593216967999
 30
0.0
 11
-44.5022833489
 21
468.5593216967999
 31
0.0
  0
LINE
  5
4F4
330
211
100
AcDbEntity
  8
BEZUGSACHSEN
  6
Continuous
 62
     3
100
AcDbLine
 10
-56.5022833489
 20
468.5593216967999
 30
0.0
 11
-60.5022833489
 21
468.5593216967999
 31
0.0
  0
LINE
  5
4F5
330
211
100
AcDbEntity
  8
BEZUGSACHSEN
  6
Continuous
 62
     3
100
AcDbLine
 10
-72.5022833489
 20
468.5593216967999
 30
0.0
 11
-76.50228334890001
 21
468.5593216967999
 31
0.0
  0
LINE
  5
4F6
330
211
100
AcDbEntity
  8
BEZUGSACHSEN
  6
Continuous
 62
     3
100
AcDbLine
 10
-88.50228334889999
 20
468.5593216967999
 30
0.0
 11
-92.5022833489
 21
468.5593216967999
 31
0.0
  0
LINE
  5
4F7
330
211
100
AcDbEntity
  8
BEZUGSACHSEN
  6
Continuous
 62
     3
100
AcDbLine
 10
-104.5022833489
 20
468.5593216967999
 30
0.0
 11
-108.5022833489
 21
468.5593216967999
 31
0.0
  0
LINE
  5
4F8
330
211
100
AcDbEntity
  8
BEZUGSACHSEN
  6
Continuous
 62
     3
100
AcDbLine
 10
-120.5022833489
 20
468.5593216967999
 30
0.0
 11
-124.5022833489
 21
468.5593216967999
 31
0.0
  0
LINE
  5
4F9
330
211
100
AcDbEntity
  8
BEZUGSACHSEN
  6
Continuous
 62
     3
100
AcDbLine
 10
-136.5022833489
 20
468.5593216967999
 30
0.0
 11
-140.5022833489
 21
468.5593216967999
 31
0.0
  0
LINE
  5
4FA
330
211
100
AcDbEntity
  8
BEZUGSACHSEN
  6
Continuous
 62
     3
100
AcDbLine
 10
-152.5022833489
 20
468.5593216967999
 30
0.0
 11
-156.5022833489
 21
468.5593216967999
 31
0.0
  0
LINE
  5
4FB
330
211
100
AcDbEntity
  8
BEZUGSACHSEN
  6
Continuous
 62
     3
100
AcDbLine
 10
-168.5022833489
 20
468.5593216967999
 30
0.0
 11
-172.5022833489
 21
468.5593216967999
 31
0.0
  0
LINE
  5
4FC
330
211
100
AcDbEntity
  8
BEZUGSACHSEN
  6
Continuous
 62
     3
100
AcDbLine
 10
-184.5022833489
 20
468.5593216967999
 30
0.0
 11
-188.5022833489
 21
468.5593216967999
 31
0.0
  0
LINE
  5
4FD
330
211
100
AcDbEntity
  8
BEZUGSACHSEN
  6
Continuous
 62
     3
100
AcDbLine
 10
-200.5022833489
 20
468.5593216967999
 30
0.0
 11
-204.5022833489
 21
468.5593216967999
 31
0.0
  0
LINE
  5
4FE
330
211
100
AcDbEntity
  8
BEZUGSACHSEN
  6
Continuous
 62
     3
100
AcDbLine
 10
-216.5022833489
 20
468.5593216967999
 30
0.0
 11
-220.5022833489
 21
468.5593216967999
 31
0.0
  0
LINE
  5
4FF
330
211
100
AcDbEntity
  8
BEZUGSACHSEN
  6
Continuous
 62
     3
100
AcDbLine
 10
-232.5022833489
 20
468.5593216967999
 30
0.0
 11
-236.5022833489
 21
468.5593216967999
 31
0.0
  0
LINE
  5
500
330
211
100
AcDbEntity
  8
BEZUGSACHSEN
  6
Continuous
 62
     3
100
AcDbLine
 10
-248.5022833489
 20
468.5593216967999
 30
0.0
 11
-252.5022833489
 21
468.5593216967999
 31
0.0
  0
LINE
  5
501
330
211
100
AcDbEntity
  8
BEZUGSACHSEN
  6
Continuous
 62
     3
100
AcDbLine
 10
-264.5022833489
 20
468.5593216967999
 30
0.0
 11
-268.5022833489
 21
468.5593216967999
 31
0.0
  0
LINE
  5
502
330
211
100
AcDbEntity
  8
BEZUGSACHSEN
  6
Continuous
 62
     3
100
AcDbLine
 10
-280.5022833489
 20
468.5593216967999
 30
0.0
 11
-284.5022833489
 21
468.5593216967999
 31
0.0
  0
LINE
  5
503
330
211
100
AcDbEntity
  8
BEZUGSACHSEN
  6
Continuous
 62
     3
100
AcDbLine
 10
-296.5022833489
 20
468.5593216967999
 30
0.0
 11
-300.5022833489
 21
468.5593216967999
 31
0.0
  0
LINE
  5
504
330
211
100
AcDbEntity
  8
BEZUGSACHSEN
  6
Continuous
 62
     3
100
AcDbLine
 10
-312.5022833489
 20
468.5593216967999
 30
0.0
 11
-316.5022833489
 21
468.5593216967999
 31
0.0
  0
LINE
  5
505
330
211
100
AcDbEntity
  8
BEZUGSACHSEN
  6
Continuous
 62
     3
100
AcDbLine
 10
-328.5022833489
 20
468.5593216967999
 30
0.0
 11
-332.5022833489
 21
468.5593216967999
 31
0.0
  0
LINE
  5
506
330
211
100
AcDbEntity
  8
BEZUGSACHSEN
  6
Continuous
 62
     3
100
AcDbLine
 10
-344.5022833489
 20
468.5593216967999
 30
0.0
 11
-348.5022833489
 21
468.5593216967999
 31
0.0
  0
LINE
  5
507
330
211
100
AcDbEntity
  8
BEZUGSACHSEN
  6
Continuous
 62
     3
100
AcDbLine
 10
-360.5022833489
 20
468.5593216967999
 30
0.0
 11
-364.5022833489
 21
468.5593216967999
 31
0.0
  0
LINE
  5
508
330
211
100
AcDbEntity
  8
BEZUGSACHSEN
  6
Continuous
 62
     3
100
AcDbLine
 10
-376.5022833489
 20
468.5593216967999
 30
0.0
 11
-380.5022833489
 21
468.5593216967999
 31
0.0
  0
LINE
  5
509
330
211
100
AcDbEntity
  8
BEZUGSACHSEN
  6
Continuous
 62
     3
100
AcDbLine
 10
-392.5022833489
 20
468.5593216967999
 30
0.0
 11
-396.5022833489
 21
468.5593216967999
 31
0.0
  0
LINE
  5
50A
330
211
100
AcDbEntity
  8
BEZUGSACHSEN
  6
Continuous
 62
     3
100
AcDbLine
 10
-408.5022833488999
 20
468.5593216967999
 30
0.0
 11
-412.5022833489
 21
468.5593216967999
 31
0.0
  0
LINE
  5
50B
330
211
100
AcDbEntity
  8
BEZUGSACHSEN
  6
Continuous
 62
     3
100
AcDbLine
 10
-424.5022833489
 20
468.5593216967999
 30
0.0
 11
-428.5022833489
 21
468.5593216967999
 31
0.0
  0
LINE
  5
50C
330
211
100
AcDbEntity
  8
BEZUGSACHSEN
  6
Continuous
 62
     3
100
AcDbLine
 10
-440.5022833489
 20
468.5593216967999
 30
0.0
 11
-444.5022833489
 21
468.5593216967999
 31
0.0
  0
LINE
  5
50D
330
211
100
AcDbEntity
  8
BEZUGSACHSEN
  6
Continuous
 62
     3
100
AcDbLine
 10
-456.5022833489
 20
468.5593216967999
 30
0.0
 11
-460.5022833489
 21
468.5593216967999
 31
0.0
  0
LINE
  5
50E
330
211
100
AcDbEntity
  8
BEZUGSACHSEN
  6
Continuous
 62
     3
100
AcDbLine
 10
-472.5022833488999
 20
468.5593216967999
 30
0.0
 11
-476.5022833488999
 21
468.5593216967999
 31
0.0
  0
LINE
  5
50F
330
211
100
AcDbEntity
  8
BEZUGSACHSEN
  6
Continuous
 62
     3
100
AcDbLine
 10
-488.5022833488999
 20
468.5593216967999
 30
0.0
 11
-492.5022833488999
 21
468.5593216967999
 31
0.0
  0
LINE
  5
510
330
211
100
AcDbEntity
  8
BEZUGSACHSEN
  6
Continuous
 62
     3
100
AcDbLine
 10
-504.5022833488999
 20
468.5593216967999
 30
0.0
 11
-508.5022833488999
 21
468.5593216967999
 31
0.0
  0
LINE
  5
511
330
211
100
AcDbEntity
  8
BEZUGSACHSEN
  6
Continuous
 62
     3
100
AcDbLine
 10
-520.5022833489
 20
468.5593216967999
 30
0.0
 11
-524.5022833489001
 21
468.5593216967999
 31
0.0
  0
LINE
  5
512
330
211
100
AcDbEntity
  8
BEZUGSACHSEN
  6
Continuous
 62
     3
100
AcDbLine
 10
-536.5022833489
 20
468.5593216967999
 30
0.0
 11
-540.5022833489
 21
468.5593216967999
 31
0.0
  0
LINE
  5
513
330
211
100
AcDbEntity
  8
BEZUGSACHSEN
  6
Continuous
 62
     3
100
AcDbLine
 10
-188.5022833489
 20
482.5593216968
 30
0.0
 11
-188.5022833489
 21
468.5593216967999
 31
0.0
  0
LINE
  5
514
330
211
100
AcDbEntity
  8
BEZUGSACHSEN
  6
Continuous
 62
     3
100
AcDbLine
 10
-188.5022833489
 20
458.5593216968
 30
0.0
 11
-188.5022833489
 21
405.5593216968
 31
0.0
  0
LINE
  5
515
330
211
100
AcDbEntity
  8
BEZUGSACHSEN
  6
Continuous
 62
     3
100
AcDbLine
 10
-184.5022833489
 20
482.5593216968
 30
0.0
 11
-184.5022833489
 21
468.5593216967999
 31
0.0
  0
LINE
  5
516
330
211
100
AcDbEntity
  8
BEZUGSACHSEN
  6
Continuous
 62
     3
100
AcDbLine
 10
-184.5022833489
 20
458.5593216968
 30
0.0
 11
-184.5022833489
 21
405.5593216968
 31
0.0
  0
LINE
  5
517
330
211
100
AcDbEntity
  8
BEZUGSACHSEN
  6
Continuous
 62
     3
100
AcDbLine
 10
-172.5022833489
 20
482.5593216968
 30
0.0
 11
-172.5022833489
 21
468.5593216967999
 31
0.0
  0
LINE
  5
518
330
211
100
AcDbEntity
  8
BEZUGSACHSEN
  6
Continuous
 62
     3
100
AcDbLine
 10
-172.5022833489
 20
458.5593216968
 30
0.0
 11
-172.5022833489
 21
405.5593216968
 31
0.0
  0
LINE
  5
519
330
211
100
AcDbEntity
  8
BEZUGSACHSEN
  6
Continuous
 62
     3
100
AcDbLine
 10
-168.5022833489
 20
482.5593216968
 30
0.0
 11
-168.5022833489
 21
468.5593216967999
 31
0.0
  0
LINE
  5
51A
330
211
100
AcDbEntity
  8
BEZUGSACHSEN
  6
Continuous
 62
     3
100
AcDbLine
 10
-168.5022833489
 20
458.5593216968
 30
0.0
 11
-168.5022833489
 21
405.5593216968
 31
0.0
  0
LINE
  5
51B
330
211
100
AcDbEntity
  8
BEZUGSACHSEN
  6
Continuous
 62
     9
100
AcDbLine
 10
-573.0022833489
 20
479.5593216968
 30
0.0
 11
-540.5022833489
 21
479.5593216968
 31
0.0
  0
LINE
  5
51C
330
211
100
AcDbEntity
  8
BEZUGSACHSEN
  6
Continuous
 62
     9
100
AcDbLine
 10
-536.5022833489
 20
479.5593216968
 30
0.0
 11
-524.5022833489001
 21
479.5593216968
 31
0.0
  0
LINE
  5
51D
330
211
100
AcDbEntity
  8
BEZUGSACHSEN
  6
Continuous
 62
     9
100
AcDbLine
 10
-520.5022833489
 20
479.5593216968
 30
0.0
 11
-508.5022833488999
 21
479.5593216968
 31
0.0
  0
LINE
  5
51E
330
211
100
AcDbEntity
  8
BEZUGSACHSEN
  6
Continuous
 62
     9
100
AcDbLine
 10
-504.5022833488999
 20
479.5593216968
 30
0.0
 11
-492.5022833488999
 21
479.5593216968
 31
0.0
  0
LINE
  5
51F
330
211
100
AcDbEntity
  8
BEZUGSACHSEN
  6
Continuous
 62
     9
100
AcDbLine
 10
-488.5022833488999
 20
479.5593216968
 30
0.0
 11
-476.5022833488999
 21
479.5593216968
 31
0.0
  0
LINE
  5
520
330
211
100
AcDbEntity
  8
BEZUGSACHSEN
  6
Continuous
 62
     9
100
AcDbLine
 10
-472.5022833488999
 20
479.5593216968
 30
0.0
 11
-460.5022833489
 21
479.5593216968
 31
0.0
  0
LINE
  5
521
330
211
100
AcDbEntity
  8
BEZUGSACHSEN
  6
Continuous
 62
     9
100
AcDbLine
 10
-456.5022833489
 20
479.5593216968
 30
0.0
 11
-444.5022833489
 21
479.5593216968
 31
0.0
  0
LINE
  5
522
330
211
100
AcDbEntity
  8
BEZUGSACHSEN
  6
Continuous
 62
     9
100
AcDbLine
 10
-440.5022833489
 20
479.5593216968
 30
0.0
 11
-428.5022833489
 21
479.5593216968
 31
0.0
  0
LINE
  5
523
330
211
100
AcDbEntity
  8
BEZUGSACHSEN
  6
Continuous
 62
     9
100
AcDbLine
 10
-424.5022833489
 20
479.5593216968
 30
0.0
 11
-412.5022833489
 21
479.5593216968
 31
0.0
  0
LINE
  5
524
330
211
100
AcDbEntity
  8
BEZUGSACHSEN
  6
Continuous
 62
     9
100
AcDbLine
 10
-408.5022833488999
 20
479.5593216968
 30
0.0
 11
-396.5022833489
 21
479.5593216968
 31
0.0
  0
LINE
  5
525
330
211
100
AcDbEntity
  8
BEZUGSACHSEN
  6
Continuous
 62
     9
100
AcDbLine
 10
-392.5022833489
 20
479.5593216968
 30
0.0
 11
-380.5022833489
 21
479.5593216968
 31
0.0
  0
LINE
  5
526
330
211
100
AcDbEntity
  8
BEZUGSACHSEN
  6
Continuous
 62
     9
100
AcDbLine
 10
-376.5022833489
 20
479.5593216968
 30
0.0
 11
-364.5022833489
 21
479.5593216968
 31
0.0
  0
LINE
  5
527
330
211
100
AcDbEntity
  8
BEZUGSACHSEN
  6
Continuous
 62
     9
100
AcDbLine
 10
-360.5022833489
 20
479.5593216968
 30
0.0
 11
-348.5022833489
 21
479.5593216968
 31
0.0
  0
LINE
  5
528
330
211
100
AcDbEntity
  8
BEZUGSACHSEN
  6
Continuous
 62
     9
100
AcDbLine
 10
-344.5022833489
 20
479.5593216968
 30
0.0
 11
-332.5022833489
 21
479.5593216968
 31
0.0
  0
LINE
  5
529
330
211
100
AcDbEntity
  8
BEZUGSACHSEN
  6
Continuous
 62
     9
100
AcDbLine
 10
-328.5022833489
 20
479.5593216968
 30
0.0
 11
-316.5022833489
 21
479.5593216968
 31
0.0
  0
LINE
  5
52A
330
211
100
AcDbEntity
  8
BEZUGSACHSEN
  6
Continuous
 62
     9
100
AcDbLine
 10
-312.5022833489
 20
479.5593216968
 30
0.0
 11
-300.5022833489
 21
479.5593216968
 31
0.0
  0
LINE
  5
52B
330
211
100
AcDbEntity
  8
BEZUGSACHSEN
  6
Continuous
 62
     9
100
AcDbLine
 10
-296.5022833489
 20
479.5593216968
 30
0.0
 11
-284.5022833489
 21
479.5593216968
 31
0.0
  0
LINE
  5
52C
330
211
100
AcDbEntity
  8
BEZUGSACHSEN
  6
Continuous
 62
     9
100
AcDbLine
 10
-280.5022833489
 20
479.5593216968
 30
0.0
 11
-268.5022833489
 21
479.5593216968
 31
0.0
  0
LINE
  5
52D
330
211
100
AcDbEntity
  8
BEZUGSACHSEN
  6
Continuous
 62
     9
100
AcDbLine
 10
-264.5022833489
 20
479.5593216968
 30
0.0
 11
-252.5022833489
 21
479.5593216968
 31
0.0
  0
LINE
  5
52E
330
211
100
AcDbEntity
  8
BEZUGSACHSEN
  6
Continuous
 62
     9
100
AcDbLine
 10
-248.5022833489
 20
479.5593216968
 30
0.0
 11
-236.5022833489
 21
479.5593216968
 31
0.0
  0
LINE
  5
52F
330
211
100
AcDbEntity
  8
BEZUGSACHSEN
  6
Continuous
 62
     9
100
AcDbLine
 10
-232.5022833489
 20
479.5593216968
 30
0.0
 11
-220.5022833489
 21
479.5593216968
 31
0.0
  0
LINE
  5
530
330
211
100
AcDbEntity
  8
BEZUGSACHSEN
  6
Continuous
 62
     9
100
AcDbLine
 10
-216.5022833489
 20
479.5593216968
 30
0.0
 11
-204.5022833489
 21
479.5593216968
 31
0.0
  0
LINE
  5
531
330
211
100
AcDbEntity
  8
BEZUGSACHSEN
  6
Continuous
 62
     9
100
AcDbLine
 10
-200.5022833489
 20
479.5593216968
 30
0.0
 11
-188.5022833489
 21
479.5593216968
 31
0.0
  0
LINE
  5
532
330
211
100
AcDbEntity
  8
BEZUGSACHSEN
  6
Continuous
 62
     9
100
AcDbLine
 10
-184.5022833489
 20
479.5593216968
 30
0.0
 11
-172.5022833489
 21
479.5593216968
 31
0.0
  0
LINE
  5
533
330
211
100
AcDbEntity
  8
BEZUGSACHSEN
  6
Continuous
 62
     9
100
AcDbLine
 10
-168.5022833489
 20
479.5593216968
 30
0.0
 11
-156.5022833489
 21
479.5593216968
 31
0.0
  0
LINE
  5
534
330
211
100
AcDbEntity
  8
BEZUGSACHSEN
  6
Continuous
 62
     9
100
AcDbLine
 10
-152.5022833489
 20
479.5593216968
 30
0.0
 11
-140.5022833489
 21
479.5593216968
 31
0.0
  0
LINE
  5
535
330
211
100
AcDbEntity
  8
BEZUGSACHSEN
  6
Continuous
 62
     9
100
AcDbLine
 10
-136.5022833489
 20
479.5593216968
 30
0.0
 11
-124.5022833489
 21
479.5593216968
 31
0.0
  0
LINE
  5
536
330
211
100
AcDbEntity
  8
BEZUGSACHSEN
  6
Continuous
 62
     9
100
AcDbLine
 10
-120.5022833489
 20
479.5593216968
 30
0.0
 11
-108.5022833489
 21
479.5593216968
 31
0.0
  0
LINE
  5
537
330
211
100
AcDbEntity
  8
BEZUGSACHSEN
  6
Continuous
 62
     9
100
AcDbLine
 10
-104.5022833489
 20
479.5593216968
 30
0.0
 11
-92.5022833489
 21
479.5593216968
 31
0.0
  0
LINE
  5
538
330
211
100
AcDbEntity
  8
BEZUGSACHSEN
  6
Continuous
 62
     9
100
AcDbLine
 10
-88.50228334889999
 20
479.5593216968
 30
0.0
 11
-76.50228334890001
 21
479.5593216968
 31
0.0
  0
LINE
  5
539
330
211
100
AcDbEntity
  8
BEZUGSACHSEN
  6
Continuous
 62
     9
100
AcDbLine
 10
-72.5022833489
 20
479.5593216968
 30
0.0
 11
-60.5022833489
 21
479.5593216968
 31
0.0
  0
LINE
  5
53A
330
211
100
AcDbEntity
  8
BEZUGSACHSEN
  6
Continuous
 62
     9
100
AcDbLine
 10
-56.5022833489
 20
479.5593216968
 30
0.0
 11
-44.5022833489
 21
479.5593216968
 31
0.0
  0
LINE
  5
53B
330
211
100
AcDbEntity
  8
BEZUGSACHSEN
  6
Continuous
 62
     9
100
AcDbLine
 10
-40.50228334889999
 20
479.5593216968
 30
0.0
 11
-28.5022833489
 21
479.5593216968
 31
0.0
  0
LINE
  5
53C
330
211
100
AcDbEntity
  8
BEZUGSACHSEN
  6
Continuous
 62
     9
100
AcDbLine
 10
-24.5022833489
 20
479.5593216968
 30
0.0
 11
-12.5022833489
 21
479.5593216968
 31
0.0
  0
LINE
  5
53D
330
211
100
AcDbEntity
  8
BEZUGSACHSEN
  6
Continuous
 62
     9
100
AcDbLine
 10
-8.5022833489
 20
479.5593216968
 30
0.0
 11
3.4977166511
 21
479.5593216968
 31
0.0
  0
LINE
  5
53E
330
211
100
AcDbEntity
  8
BEZUGSACHSEN
  6
Continuous
 62
     9
100
AcDbLine
 10
7.4977166511
 20
479.5593216968
 30
0.0
 11
19.4977166511
 21
479.5593216968
 31
0.0
  0
LINE
  5
53F
330
211
100
AcDbEntity
  8
BEZUGSACHSEN
  6
Continuous
 62
     9
100
AcDbLine
 10
23.4977166511
 20
479.5593216968
 30
0.0
 11
35.4977166511
 21
479.5593216968
 31
0.0
  0
LINE
  5
540
330
211
100
AcDbEntity
  8
BEZUGSACHSEN
  6
Continuous
 62
     9
100
AcDbLine
 10
39.4977166511
 20
479.5593216968
 30
0.0
 11
51.4977166511
 21
479.5593216968
 31
0.0
  0
LINE
  5
541
330
211
100
AcDbEntity
  8
BEZUGSACHSEN
  6
Continuous
 62
     9
100
AcDbLine
 10
55.4977166511
 20
479.5593216968
 30
0.0
 11
67.49771665109999
 21
479.5593216968
 31
0.0
  0
LINE
  5
542
330
211
100
AcDbEntity
  8
BEZUGSACHSEN
  6
Continuous
 62
     9
100
AcDbLine
 10
71.49771665109999
 20
479.5593216968
 30
0.0
 11
83.49771665109999
 21
479.5593216968
 31
0.0
  0
LINE
  5
543
330
211
100
AcDbEntity
  8
BEZUGSACHSEN
  6
Continuous
 62
     9
100
AcDbLine
 10
87.49771665110001
 20
479.5593216968
 30
0.0
 11
119.9977166511
 21
479.5593216968
 31
0.0
  0
LINE
  5
544
330
211
100
AcDbEntity
  8
BEZUGSACHSEN
  6
Continuous
 62
     7
100
AcDbLine
 10
-540.5022833489
 20
481.0593216967999
 30
0.0
 11
-536.5022833489
 21
481.0593216967999
 31
0.0
  0
LINE
  5
545
330
211
100
AcDbEntity
  8
BEZUGSACHSEN
  6
Continuous
 62
     7
100
AcDbLine
 10
-524.5022833489001
 20
481.0593216967999
 30
0.0
 11
-520.5022833489
 21
481.0593216967999
 31
0.0
  0
LINE
  5
546
330
211
100
AcDbEntity
  8
BEZUGSACHSEN
  6
Continuous
 62
     7
100
AcDbLine
 10
-508.5022833488999
 20
481.0593216967999
 30
0.0
 11
-504.5022833488999
 21
481.0593216967999
 31
0.0
  0
LINE
  5
547
330
211
100
AcDbEntity
  8
BEZUGSACHSEN
  6
Continuous
 62
     7
100
AcDbLine
 10
-492.5022833488999
 20
481.0593216967999
 30
0.0
 11
-488.5022833488999
 21
481.0593216967999
 31
0.0
  0
LINE
  5
548
330
211
100
AcDbEntity
  8
BEZUGSACHSEN
  6
Continuous
 62
     7
100
AcDbLine
 10
-476.5022833488999
 20
481.0593216967999
 30
0.0
 11
-472.5022833488999
 21
481.0593216967999
 31
0.0
  0
LINE
  5
549
330
211
100
AcDbEntity
  8
BEZUGSACHSEN
  6
Continuous
 62
     7
100
AcDbLine
 10
-460.5022833489
 20
481.0593216967999
 30
0.0
 11
-456.5022833489
 21
481.0593216967999
 31
0.0
  0
LINE
  5
54A
330
211
100
AcDbEntity
  8
BEZUGSACHSEN
  6
Continuous
 62
     7
100
AcDbLine
 10
-444.5022833489
 20
481.0593216967999
 30
0.0
 11
-440.5022833489
 21
481.0593216967999
 31
0.0
  0
LINE
  5
54B
330
211
100
AcDbEntity
  8
BEZUGSACHSEN
  6
Continuous
 62
     7
100
AcDbLine
 10
-428.5022833489
 20
481.0593216967999
 30
0.0
 11
-424.5022833489
 21
481.0593216967999
 31
0.0
  0
LINE
  5
54C
330
211
100
AcDbEntity
  8
BEZUGSACHSEN
  6
Continuous
 62
     7
100
AcDbLine
 10
-412.5022833489
 20
481.0593216967999
 30
0.0
 11
-408.5022833488999
 21
481.0593216967999
 31
0.0
  0
LINE
  5
54D
330
211
100
AcDbEntity
  8
BEZUGSACHSEN
  6
Continuous
 62
     7
100
AcDbLine
 10
-396.5022833489
 20
481.0593216967999
 30
0.0
 11
-392.5022833489
 21
481.0593216967999
 31
0.0
  0
LINE
  5
54E
330
211
100
AcDbEntity
  8
BEZUGSACHSEN
  6
Continuous
 62
     7
100
AcDbLine
 10
-380.5022833489
 20
481.0593216967999
 30
0.0
 11
-376.5022833489
 21
481.0593216967999
 31
0.0
  0
LINE
  5
54F
330
211
100
AcDbEntity
  8
BEZUGSACHSEN
  6
Continuous
 62
     7
100
AcDbLine
 10
-364.5022833489
 20
481.0593216967999
 30
0.0
 11
-360.5022833489
 21
481.0593216967999
 31
0.0
  0
LINE
  5
550
330
211
100
AcDbEntity
  8
BEZUGSACHSEN
  6
Continuous
 62
     7
100
AcDbLine
 10
-348.5022833489
 20
481.0593216967999
 30
0.0
 11
-344.5022833489
 21
481.0593216967999
 31
0.0
  0
LINE
  5
551
330
211
100
AcDbEntity
  8
BEZUGSACHSEN
  6
Continuous
 62
     7
100
AcDbLine
 10
-332.5022833489
 20
481.0593216967999
 30
0.0
 11
-328.5022833489
 21
481.0593216967999
 31
0.0
  0
LINE
  5
552
330
211
100
AcDbEntity
  8
BEZUGSACHSEN
  6
Continuous
 62
     7
100
AcDbLine
 10
-316.5022833489
 20
481.0593216967999
 30
0.0
 11
-312.5022833489
 21
481.0593216967999
 31
0.0
  0
LINE
  5
553
330
211
100
AcDbEntity
  8
BEZUGSACHSEN
  6
Continuous
 62
     7
100
AcDbLine
 10
-300.5022833489
 20
481.0593216967999
 30
0.0
 11
-296.5022833489
 21
481.0593216967999
 31
0.0
  0
LINE
  5
554
330
211
100
AcDbEntity
  8
BEZUGSACHSEN
  6
Continuous
 62
     7
100
AcDbLine
 10
-284.5022833489
 20
481.0593216967999
 30
0.0
 11
-280.5022833489
 21
481.0593216967999
 31
0.0
  0
LINE
  5
555
330
211
100
AcDbEntity
  8
BEZUGSACHSEN
  6
Continuous
 62
     7
100
AcDbLine
 10
-268.5022833489
 20
481.0593216967999
 30
0.0
 11
-264.5022833489
 21
481.0593216967999
 31
0.0
  0
LINE
  5
556
330
211
100
AcDbEntity
  8
BEZUGSACHSEN
  6
Continuous
 62
     7
100
AcDbLine
 10
-252.5022833489
 20
481.0593216967999
 30
0.0
 11
-248.5022833489
 21
481.0593216967999
 31
0.0
  0
LINE
  5
557
330
211
100
AcDbEntity
  8
BEZUGSACHSEN
  6
Continuous
 62
     7
100
AcDbLine
 10
-236.5022833489
 20
481.0593216967999
 30
0.0
 11
-232.5022833489
 21
481.0593216967999
 31
0.0
  0
LINE
  5
558
330
211
100
AcDbEntity
  8
BEZUGSACHSEN
  6
Continuous
 62
     7
100
AcDbLine
 10
87.49771665110001
 20
481.0593216967999
 30
0.0
 11
83.49771665109999
 21
481.0593216967999
 31
0.0
  0
LINE
  5
559
330
211
100
AcDbEntity
  8
BEZUGSACHSEN
  6
Continuous
 62
     7
100
AcDbLine
 10
71.49771665109999
 20
481.0593216967999
 30
0.0
 11
67.49771665109999
 21
481.0593216967999
 31
0.0
  0
LINE
  5
55A
330
211
100
AcDbEntity
  8
BEZUGSACHSEN
  6
Continuous
 62
     7
100
AcDbLine
 10
55.4977166511
 20
481.0593216967999
 30
0.0
 11
51.4977166511
 21
481.0593216967999
 31
0.0
  0
LINE
  5
55B
330
211
100
AcDbEntity
  8
BEZUGSACHSEN
  6
Continuous
 62
     7
100
AcDbLine
 10
39.4977166511
 20
481.0593216967999
 30
0.0
 11
35.4977166511
 21
481.0593216967999
 31
0.0
  0
LINE
  5
55C
330
211
100
AcDbEntity
  8
BEZUGSACHSEN
  6
Continuous
 62
     7
100
AcDbLine
 10
23.4977166511
 20
481.0593216967999
 30
0.0
 11
19.4977166511
 21
481.0593216967999
 31
0.0
  0
LINE
  5
55D
330
211
100
AcDbEntity
  8
BEZUGSACHSEN
  6
Continuous
 62
     7
100
AcDbLine
 10
7.4977166511
 20
481.0593216967999
 30
0.0
 11
3.4977166511
 21
481.0593216967999
 31
0.0
  0
LINE
  5
55E
330
211
100
AcDbEntity
  8
BEZUGSACHSEN
  6
Continuous
 62
     7
100
AcDbLine
 10
-8.5022833489
 20
481.0593216967999
 30
0.0
 11
-12.5022833489
 21
481.0593216967999
 31
0.0
  0
LINE
  5
55F
330
211
100
AcDbEntity
  8
BEZUGSACHSEN
  6
Continuous
 62
     7
100
AcDbLine
 10
-24.5022833489
 20
481.0593216967999
 30
0.0
 11
-28.5022833489
 21
481.0593216967999
 31
0.0
  0
LINE
  5
560
330
211
100
AcDbEntity
  8
BEZUGSACHSEN
  6
Continuous
 62
     7
100
AcDbLine
 10
-40.50228334889999
 20
481.0593216967999
 30
0.0
 11
-44.5022833489
 21
481.0593216967999
 31
0.0
  0
LINE
  5
561
330
211
100
AcDbEntity
  8
BEZUGSACHSEN
  6
Continuous
 62
     7
100
AcDbLine
 10
-56.5022833489
 20
481.0593216967999
 30
0.0
 11
-60.5022833489
 21
481.0593216967999
 31
0.0
  0
LINE
  5
562
330
211
100
AcDbEntity
  8
BEZUGSACHSEN
  6
Continuous
 62
     7
100
AcDbLine
 10
-72.5022833489
 20
481.0593216967999
 30
0.0
 11
-76.50228334890001
 21
481.0593216967999
 31
0.0
  0
LINE
  5
563
330
211
100
AcDbEntity
  8
BEZUGSACHSEN
  6
Continuous
 62
     7
100
AcDbLine
 10
-88.50228334889999
 20
481.0593216967999
 30
0.0
 11
-92.5022833489
 21
481.0593216967999
 31
0.0
  0
LINE
  5
564
330
211
100
AcDbEntity
  8
BEZUGSACHSEN
  6
Continuous
 62
     7
100
AcDbLine
 10
-104.5022833489
 20
481.0593216967999
 30
0.0
 11
-108.5022833489
 21
481.0593216967999
 31
0.0
  0
LINE
  5
565
330
211
100
AcDbEntity
  8
BEZUGSACHSEN
  6
Continuous
 62
     7
100
AcDbLine
 10
-120.5022833489
 20
481.0593216967999
 30
0.0
 11
-124.5022833489
 21
481.0593216967999
 31
0.0
  0
LINE
  5
566
330
211
100
AcDbEntity
  8
BEZUGSACHSEN
  6
Continuous
 62
     7
100
AcDbLine
 10
-136.5022833489
 20
481.0593216967999
 30
0.0
 11
-140.5022833489
 21
481.0593216967999
 31
0.0
  0
LINE
  5
567
330
211
100
AcDbEntity
  8
BEZUGSACHSEN
  6
Continuous
 62
     7
100
AcDbLine
 10
-152.5022833489
 20
481.0593216967999
 30
0.0
 11
-156.5022833489
 21
481.0593216967999
 31
0.0
  0
LINE
  5
568
330
211
100
AcDbEntity
  8
BEZUGSACHSEN
  6
Continuous
 62
     7
100
AcDbLine
 10
-168.5022833489
 20
481.0593216967999
 30
0.0
 11
-172.5022833489
 21
481.0593216967999
 31
0.0
  0
LINE
  5
569
330
211
100
AcDbEntity
  8
BEZUGSACHSEN
  6
Continuous
 62
     7
100
AcDbLine
 10
-184.5022833489
 20
481.0593216967999
 30
0.0
 11
-188.5022833489
 21
481.0593216967999
 31
0.0
  0
LINE
  5
56A
330
211
100
AcDbEntity
  8
BEZUGSACHSEN
  6
Continuous
 62
     7
100
AcDbLine
 10
-200.5022833489
 20
481.0593216967999
 30
0.0
 11
-204.5022833489
 21
481.0593216967999
 31
0.0
  0
LINE
  5
56B
330
211
100
AcDbEntity
  8
BEZUGSACHSEN
  6
Continuous
 62
     7
100
AcDbLine
 10
-216.5022833489
 20
481.0593216967999
 30
0.0
 11
-220.5022833489
 21
481.0593216967999
 31
0.0
  0
LINE
  5
56C
330
211
100
AcDbEntity
  8
BEZUGSACHSEN
  6
Continuous
 62
     3
100
AcDbLine
 10
119.9977166511
 20
482.5593216968
 30
0.0
 11
-573.0022833489
 21
482.5593216968
 31
0.0
  0
LINE
  5
56D
330
211
100
AcDbEntity
  8
BEZUGSACHSEN
  6
Continuous
 62
     3
100
AcDbLine
 10
-156.5022833489
 20
482.5593216968
 30
0.0
 11
-156.5022833489
 21
468.5593216967999
 31
0.0
  0
LINE
  5
56E
330
211
100
AcDbEntity
  8
BEZUGSACHSEN
  6
Continuous
 62
     3
100
AcDbLine
 10
-156.5022833489
 20
458.5593216968
 30
0.0
 11
-156.5022833489
 21
405.5593216968
 31
0.0
  0
LINE
  5
56F
330
211
100
AcDbEntity
  8
BEZUGSACHSEN
  6
Continuous
 62
     3
100
AcDbLine
 10
-152.5022833489
 20
482.5593216968
 30
0.0
 11
-152.5022833489
 21
468.5593216967999
 31
0.0
  0
LINE
  5
570
330
211
100
AcDbEntity
  8
BEZUGSACHSEN
  6
Continuous
 62
     3
100
AcDbLine
 10
-152.5022833489
 20
458.5593216968
 30
0.0
 11
-152.5022833489
 21
405.5593216968
 31
0.0
  0
LINE
  5
571
330
211
100
AcDbEntity
  8
BEZUGSACHSEN
  6
Continuous
 62
     3
100
AcDbLine
 10
-140.5022833489
 20
482.5593216968
 30
0.0
 11
-140.5022833489
 21
468.5593216967999
 31
0.0
  0
LINE
  5
572
330
211
100
AcDbEntity
  8
BEZUGSACHSEN
  6
Continuous
 62
     3
100
AcDbLine
 10
-140.5022833489
 20
458.5593216968
 30
0.0
 11
-140.5022833489
 21
405.5593216968
 31
0.0
  0
LINE
  5
573
330
211
100
AcDbEntity
  8
BEZUGSACHSEN
  6
Continuous
 62
     3
100
AcDbLine
 10
-136.5022833489
 20
482.5593216968
 30
0.0
 11
-136.5022833489
 21
468.5593216967999
 31
0.0
  0
LINE
  5
574
330
211
100
AcDbEntity
  8
BEZUGSACHSEN
  6
Continuous
 62
     3
100
AcDbLine
 10
-136.5022833489
 20
458.5593216968
 30
0.0
 11
-136.5022833489
 21
405.5593216968
 31
0.0
  0
LINE
  5
575
330
211
100
AcDbEntity
  8
BEZUGSACHSEN
  6
Continuous
 62
     3
100
AcDbLine
 10
-124.5022833489
 20
482.5593216968
 30
0.0
 11
-124.5022833489
 21
468.5593216967999
 31
0.0
  0
LINE
  5
576
330
211
100
AcDbEntity
  8
BEZUGSACHSEN
  6
Continuous
 62
     3
100
AcDbLine
 10
-124.5022833489
 20
458.5593216968
 30
0.0
 11
-124.5022833489
 21
405.5593216968
 31
0.0
  0
LINE
  5
577
330
211
100
AcDbEntity
  8
BEZUGSACHSEN
  6
Continuous
 62
     3
100
AcDbLine
 10
-120.5022833489
 20
482.5593216968
 30
0.0
 11
-120.5022833489
 21
468.5593216967999
 31
0.0
  0
LINE
  5
578
330
211
100
AcDbEntity
  8
BEZUGSACHSEN
  6
Continuous
 62
     3
100
AcDbLine
 10
-120.5022833489
 20
458.5593216968
 30
0.0
 11
-120.5022833489
 21
405.5593216968
 31
0.0
  0
LINE
  5
579
330
211
100
AcDbEntity
  8
BEZUGSACHSEN
  6
Continuous
 62
     3
100
AcDbLine
 10
-108.5022833489
 20
482.5593216968
 30
0.0
 11
-108.5022833489
 21
468.5593216967999
 31
0.0
  0
LINE
  5
57A
330
211
100
AcDbEntity
  8
BEZUGSACHSEN
  6
Continuous
 62
     3
100
AcDbLine
 10
-108.5022833489
 20
458.5593216968
 30
0.0
 11
-108.5022833489
 21
405.5593216968
 31
0.0
  0
LINE
  5
57B
330
211
100
AcDbEntity
  8
BEZUGSACHSEN
  6
Continuous
 62
     3
100
AcDbLine
 10
-104.5022833489
 20
482.5593216968
 30
0.0
 11
-104.5022833489
 21
468.5593216967999
 31
0.0
  0
LINE
  5
57C
330
211
100
AcDbEntity
  8
BEZUGSACHSEN
  6
Continuous
 62
     3
100
AcDbLine
 10
-104.5022833489
 20
458.5593216968
 30
0.0
 11
-104.5022833489
 21
405.5593216968
 31
0.0
  0
LINE
  5
57D
330
211
100
AcDbEntity
  8
BEZUGSACHSEN
  6
Continuous
 62
     3
100
AcDbLine
 10
-92.5022833489
 20
482.5593216968
 30
0.0
 11
-92.5022833489
 21
468.5593216967999
 31
0.0
  0
LINE
  5
57E
330
211
100
AcDbEntity
  8
BEZUGSACHSEN
  6
Continuous
 62
     3
100
AcDbLine
 10
-92.5022833489
 20
458.5593216968
 30
0.0
 11
-92.5022833489
 21
405.5593216968
 31
0.0
  0
LINE
  5
57F
330
211
100
AcDbEntity
  8
BEZUGSACHSEN
  6
Continuous
 62
     3
100
AcDbLine
 10
-88.50228334889999
 20
482.5593216968
 30
0.0
 11
-88.50228334889999
 21
468.5593216967999
 31
0.0
  0
LINE
  5
580
330
211
100
AcDbEntity
  8
BEZUGSACHSEN
  6
Continuous
 62
     3
100
AcDbLine
 10
-88.50228334889999
 20
458.5593216968
 30
0.0
 11
-88.50228334889999
 21
405.5593216968
 31
0.0
  0
LINE
  5
581
330
211
100
AcDbEntity
  8
BEZUGSACHSEN
  6
Continuous
 62
     3
100
AcDbLine
 10
109.1977664642
 20
411.7045923987999
 30
0.0
 11
108.5823665217
 21
412.0598937212999
 31
0.0
  0
LINE
  5
582
330
211
100
AcDbEntity
  8
BEZUGSACHSEN
  6
Continuous
 62
     3
100
AcDbLine
 10
-76.50228334890001
 20
482.5593216968
 30
0.0
 11
-76.50228334890001
 21
468.5593216967999
 31
0.0
  0
LINE
  5
583
330
211
100
AcDbEntity
  8
BEZUGSACHSEN
  6
Continuous
 62
     3
100
AcDbLine
 10
-76.50228334890001
 20
458.5593216968
 30
0.0
 11
-76.50228334890001
 21
405.5593216968
 31
0.0
  0
LINE
  5
584
330
211
100
AcDbEntity
  8
BEZUGSACHSEN
  6
Continuous
 62
     3
100
AcDbLine
 10
-72.5022833489
 20
482.5593216968
 30
0.0
 11
-72.5022833489
 21
468.5593216967999
 31
0.0
  0
LINE
  5
585
330
211
100
AcDbEntity
  8
BEZUGSACHSEN
  6
Continuous
 62
     3
100
AcDbLine
 10
-72.5022833489
 20
458.5593216968
 30
0.0
 11
-72.5022833489
 21
405.5593216968
 31
0.0
  0
LINE
  5
586
330
211
100
AcDbEntity
  8
BEZUGSACHSEN
  6
Continuous
 62
     3
100
AcDbLine
 10
-60.5022833489
 20
482.5593216968
 30
0.0
 11
-60.5022833489
 21
468.5593216967999
 31
0.0
  0
LINE
  5
587
330
211
100
AcDbEntity
  8
BEZUGSACHSEN
  6
Continuous
 62
     3
100
AcDbLine
 10
-60.5022833489
 20
458.5593216968
 30
0.0
 11
-60.5022833489
 21
405.5593216968
 31
0.0
  0
LINE
  5
588
330
211
100
AcDbEntity
  8
BEZUGSACHSEN
  6
Continuous
 62
     3
100
AcDbLine
 10
-56.5022833489
 20
482.5593216968
 30
0.0
 11
-56.5022833489
 21
468.5593216967999
 31
0.0
  0
LINE
  5
589
330
211
100
AcDbEntity
  8
BEZUGSACHSEN
  6
Continuous
 62
     3
100
AcDbLine
 10
-56.5022833489
 20
458.5593216968
 30
0.0
 11
-56.5022833489
 21
405.5593216968
 31
0.0
  0
LINE
  5
58A
330
211
100
AcDbEntity
  8
BEZUGSACHSEN
  6
Continuous
 62
     3
100
AcDbLine
 10
-44.5022833489
 20
482.5593216968
 30
0.0
 11
-44.5022833489
 21
468.5593216967999
 31
0.0
  0
LINE
  5
58B
330
211
100
AcDbEntity
  8
BEZUGSACHSEN
  6
Continuous
 62
     3
100
AcDbLine
 10
-44.5022833489
 20
458.5593216968
 30
0.0
 11
-44.5022833489
 21
405.5593216968
 31
0.0
  0
LINE
  5
58C
330
211
100
AcDbEntity
  8
BEZUGSACHSEN
  6
Continuous
 62
     3
100
AcDbLine
 10
-40.50228334889999
 20
482.5593216968
 30
0.0
 11
-40.50228334889999
 21
468.5593216967999
 31
0.0
  0
LINE
  5
58D
330
211
100
AcDbEntity
  8
BEZUGSACHSEN
  6
Continuous
 62
     3
100
AcDbLine
 10
-40.50228334889999
 20
458.5593216968
 30
0.0
 11
-40.50228334889999
 21
405.5593216968
 31
0.0
  0
LINE
  5
58E
330
211
100
AcDbEntity
  8
BEZUGSACHSEN
  6
Continuous
 62
     3
100
AcDbLine
 10
-28.5022833489
 20
482.5593216968
 30
0.0
 11
-28.5022833489
 21
468.5593216967999
 31
0.0
  0
LINE
  5
58F
330
211
100
AcDbEntity
  8
BEZUGSACHSEN
  6
Continuous
 62
     3
100
AcDbLine
 10
-28.5022833489
 20
458.5593216968
 30
0.0
 11
-28.5022833489
 21
405.5593216968
 31
0.0
  0
LINE
  5
590
330
211
100
AcDbEntity
  8
BEZUGSACHSEN
  6
Continuous
 62
     3
100
AcDbLine
 10
-24.5022833489
 20
482.5593216968
 30
0.0
 11
-24.5022833489
 21
468.5593216967999
 31
0.0
  0
LINE
  5
591
330
211
100
AcDbEntity
  8
BEZUGSACHSEN
  6
Continuous
 62
     3
100
AcDbLine
 10
-24.5022833489
 20
458.5593216968
 30
0.0
 11
-24.5022833489
 21
405.5593216968
 31
0.0
  0
LINE
  5
592
330
211
100
AcDbEntity
  8
BEZUGSACHSEN
  6
Continuous
 62
     3
100
AcDbLine
 10
108.56740106
 20
413.6841277179
 30
0.0
 11
109.1828733421
 21
414.0394708056
 31
0.0
  0
LINE
  5
593
330
211
100
AcDbEntity
  8
BEZUGSACHSEN
  6
Continuous
 62
     3
100
AcDbLine
 10
-12.5022833489
 20
482.5593216968
 30
0.0
 11
-12.5022833489
 21
468.5593216967999
 31
0.0
  0
LINE
  5
594
330
211
100
AcDbEntity
  8
BEZUGSACHSEN
  6
Continuous
 62
     3
100
AcDbLine
 10
-12.5022833489
 20
458.5593216968
 30
0.0
 11
-12.5022833489
 21
405.5593216968
 31
0.0
  0
LINE
  5
595
330
211
100
AcDbEntity
  8
BEZUGSACHSEN
  6
Continuous
 62
     3
100
AcDbLine
 10
-8.5022833489
 20
482.5593216968
 30
0.0
 11
-8.5022833489
 21
468.5593216967999
 31
0.0
  0
LINE
  5
596
330
211
100
AcDbEntity
  8
BEZUGSACHSEN
  6
Continuous
 62
     3
100
AcDbLine
 10
-8.5022833489
 20
458.5593216968
 30
0.0
 11
-8.5022833489
 21
405.5593216968
 31
0.0
  0
LINE
  5
597
330
211
100
AcDbEntity
  8
BEZUGSACHSEN
  6
Continuous
 62
     3
100
AcDbLine
 10
3.4977166511
 20
482.5593216968
 30
0.0
 11
3.4977166511
 21
468.5593216967999
 31
0.0
  0
LINE
  5
598
330
211
100
AcDbEntity
  8
BEZUGSACHSEN
  6
Continuous
 62
     3
100
AcDbLine
 10
3.4977166511
 20
458.5593216968
 30
0.0
 11
3.4977166511
 21
405.5593216968
 31
0.0
  0
LINE
  5
599
330
211
100
AcDbEntity
  8
BEZUGSACHSEN
  6
Continuous
 62
     3
100
AcDbLine
 10
7.4977166511
 20
482.5593216968
 30
0.0
 11
7.4977166511
 21
468.5593216967999
 31
0.0
  0
LINE
  5
59A
330
211
100
AcDbEntity
  8
BEZUGSACHSEN
  6
Continuous
 62
     3
100
AcDbLine
 10
7.4977166511
 20
458.5593216968
 30
0.0
 11
7.4977166511
 21
405.5593216968
 31
0.0
  0
LINE
  5
59B
330
211
100
AcDbEntity
  8
BEZUGSACHSEN
  6
Continuous
 62
     3
100
AcDbLine
 10
19.4977166511
 20
482.5593216968
 30
0.0
 11
19.4977166511
 21
468.5593216967999
 31
0.0
  0
LINE
  5
59C
330
211
100
AcDbEntity
  8
BEZUGSACHSEN
  6
Continuous
 62
     3
100
AcDbLine
 10
19.4977166511
 20
458.5593216968
 30
0.0
 11
19.4977166511
 21
405.5593216968
 31
0.0
  0
LINE
  5
59D
330
211
100
AcDbEntity
  8
BEZUGSACHSEN
  6
Continuous
 62
     3
100
AcDbLine
 10
23.4977166511
 20
482.5593216968
 30
0.0
 11
23.4977166511
 21
468.5593216967999
 31
0.0
  0
LINE
  5
59E
330
211
100
AcDbEntity
  8
BEZUGSACHSEN
  6
Continuous
 62
     3
100
AcDbLine
 10
23.4977166511
 20
458.5593216968
 30
0.0
 11
23.4977166511
 21
405.5593216968
 31
0.0
  0
LINE
  5
59F
330
211
100
AcDbEntity
  8
BEZUGSACHSEN
  6
Continuous
 62
     3
100
AcDbLine
 10
35.4977166511
 20
482.5593216968
 30
0.0
 11
35.4977166511
 21
468.5593216967999
 31
0.0
  0
LINE
  5
5A0
330
211
100
AcDbEntity
  8
BEZUGSACHSEN
  6
Continuous
 62
     3
100
AcDbLine
 10
35.4977166511
 20
458.5593216968
 30
0.0
 11
35.4977166511
 21
405.5593216968
 31
0.0
  0
LINE
  5
5A1
330
211
100
AcDbEntity
  8
BEZUGSACHSEN
  6
Continuous
 62
     3
100
AcDbLine
 10
39.4977166511
 20
482.5593216968
 30
0.0
 11
39.4977166511
 21
468.5593216967999
 31
0.0
  0
LINE
  5
5A2
330
211
100
AcDbEntity
  8
BEZUGSACHSEN
  6
Continuous
 62
     3
100
AcDbLine
 10
39.4977166511
 20
458.5593216968
 30
0.0
 11
39.4977166511
 21
405.5593216968
 31
0.0
  0
LINE
  5
5A3
330
211
100
AcDbEntity
  8
BEZUGSACHSEN
  6
Continuous
 62
     3
100
AcDbLine
 10
51.4977166511
 20
482.5593216968
 30
0.0
 11
51.4977166511
 21
468.5593216967999
 31
0.0
  0
LINE
  5
5A4
330
211
100
AcDbEntity
  8
BEZUGSACHSEN
  6
Continuous
 62
     3
100
AcDbLine
 10
51.4977166511
 20
458.5593216968
 30
0.0
 11
51.4977166511
 21
405.5593216968
 31
0.0
  0
LINE
  5
5A5
330
211
100
AcDbEntity
  8
BEZUGSACHSEN
  6
Continuous
 62
     3
100
AcDbLine
 10
55.4977166511
 20
482.5593216968
 30
0.0
 11
55.4977166511
 21
468.5593216967999
 31
0.0
  0
LINE
  5
5A6
330
211
100
AcDbEntity
  8
BEZUGSACHSEN
  6
Continuous
 62
     3
100
AcDbLine
 10
55.4977166511
 20
458.5593216968
 30
0.0
 11
55.4977166511
 21
405.5593216968
 31
0.0
  0
LINE
  5
5A7
330
211
100
AcDbEntity
  8
BEZUGSACHSEN
  6
Continuous
 62
     3
100
AcDbLine
 10
67.49771665109999
 20
482.5593216968
 30
0.0
 11
67.49771665109999
 21
468.5593216967999
 31
0.0
  0
LINE
  5
5A8
330
211
100
AcDbEntity
  8
BEZUGSACHSEN
  6
Continuous
 62
     3
100
AcDbLine
 10
67.49771665109999
 20
458.5593216968
 30
0.0
 11
67.49771665109999
 21
405.5593216968
 31
0.0
  0
LINE
  5
5A9
330
211
100
AcDbEntity
  8
BEZUGSACHSEN
  6
Continuous
 62
     3
100
AcDbLine
 10
71.49771665109999
 20
482.5593216968
 30
0.0
 11
71.49771665109999
 21
468.5593216967999
 31
0.0
  0
LINE
  5
5AA
330
211
100
AcDbEntity
  8
BEZUGSACHSEN
  6
Continuous
 62
     3
100
AcDbLine
 10
71.49771665109999
 20
458.5593216968
 30
0.0
 11
71.49771665109999
 21
405.5593216968
 31
0.0
  0
LINE
  5
5AB
330
211
100
AcDbEntity
  8
BEZUGSACHSEN
  6
Continuous
 62
     3
100
AcDbLine
 10
83.49771665109999
 20
482.5593216968
 30
0.0
 11
83.49771665109999
 21
468.5593216967999
 31
0.0
  0
LINE
  5
5AC
330
211
100
AcDbEntity
  8
BEZUGSACHSEN
  6
Continuous
 62
     3
100
AcDbLine
 10
83.49771665109999
 20
458.5593216968
 30
0.0
 11
83.49771665109999
 21
405.5593216968
 31
0.0
  0
LINE
  5
5AD
330
211
100
AcDbEntity
  8
BEZUGSACHSEN
  6
Continuous
 62
     3
100
AcDbLine
 10
87.49771665110001
 20
482.5593216968
 30
0.0
 11
87.49771665110001
 21
468.5593216967999
 31
0.0
  0
LINE
  5
5AE
330
211
100
AcDbEntity
  8
BEZUGSACHSEN
  6
Continuous
 62
     3
100
AcDbLine
 10
87.49771665110001
 20
458.5593216968
 30
0.0
 11
87.49771665110001
 21
405.5593216968
 31
0.0
  0
LINE
  5
5AF
330
211
100
AcDbEntity
  8
BEZUGSACHSEN
  6
Continuous
 62
     3
100
AcDbLine
 10
119.9977166511
 20
405.5593216968
 30
0.0
 11
119.9977166511
 21
482.5593216968
 31
0.0
  0
ARC
  5
5B6
330
211
100
AcDbEntity
  8
BEZUGSACHSEN
  6
Continuous
 62
     3
100
AcDbCircle
 10
116.9977166511
 20
592.5359512655999
 30
0.0
 40
3.0
100
AcDbArc
 50
270.0
 51
360.0
  0
ARC
  5
5B7
330
211
100
AcDbEntity
  8
BEZUGSACHSEN
  6
Continuous
 62
     3
100
AcDbCircle
 10
-570.0022833489
 20
592.5359512655999
 30
0.0
 40
3.0
100
AcDbArc
 50
180.0
 51
270.0
  0
CIRCLE
  5
5B8
330
211
100
AcDbEntity
  8
BEZUGSACHSEN
  6
Continuous
 62
     3
100
AcDbCircle
 10
-553.0022833489
 20
597.5359512655999
 30
0.0
 40
2.75
  0
CIRCLE
  5
5B9
330
211
100
AcDbEntity
  8
BEZUGSACHSEN
  6
Continuous
 62
     3
100
AcDbCircle
 10
99.99771665110001
 20
597.5359512655999
 30
0.0
 40
2.75
  0
ARC
  5
5BA
330
211
100
AcDbEntity
  8
BEZUGSACHSEN
  6
Continuous
 62
     3
100
AcDbCircle
 10
97.27862868850001
 20
410.4937164948
 30
0.0
 40
5.6848211594
100
AcDbArc
 50
0.2526096926
 51
53.57642635770001
  0
ARC
  5
5BB
330
211
100
AcDbEntity
  8
BEZUGSACHSEN
  6
Continuous
 62
     3
100
AcDbCircle
 10
104.0293538153
 20
410.4937164948
 30
0.0
 40
5.6848211594
100
AcDbArc
 50
126.4235736423
 51
179.7473903074
  0
ARC
  5
5BC
330
211
100
AcDbEntity
  8
BEZUGSACHSEN
  6
Continuous
 62
     3
100
AcDbCircle
 10
97.27862868850001
 20
410.4937164948
 30
0.0
 40
4.974218514499999
100
AcDbArc
 50
0.2886970779
 51
7.6941629645
  0
ARC
  5
5BD
330
211
100
AcDbEntity
  8
BEZUGSACHSEN
  6
Continuous
 62
     3
100
AcDbCircle
 10
104.0293538153
 20
410.4937164948
 30
0.0
 40
4.974218514499999
100
AcDbArc
 50
172.3058370355
 51
179.7113029221
  0
ARC
  5
5BE
330
211
100
AcDbEntity
  8
BEZUGSACHSEN
  6
Continuous
 62
     3
100
AcDbCircle
 10
104.0293538153
 20
410.4937164948
 30
0.0
 40
4.974218514499999
100
AcDbArc
 50
132.7321100426
 51
163.9341249728
  0
ARC
  5
5BF
330
211
100
AcDbEntity
  8
BEZUGSACHSEN
  6
Continuous
 62
     3
100
AcDbCircle
 10
97.27862868850001
 20
410.4937164948
 30
0.0
 40
4.974218514499999
100
AcDbArc
 50
16.0658750272
 51
47.26788995739999
  0
CIRCLE
  5
5C0
330
211
100
AcDbEntity
  8
BEZUGSACHSEN
  6
Continuous
 62
     3
100
AcDbCircle
 10
113.7414420502
 20
412.8593216968
 30
0.0
 40
2.309458595999999
  0
ARC
  5
5C1
330
211
100
AcDbEntity
  8
BEZUGSACHSEN
  6
Continuous
 62
     3
100
AcDbCircle
 10
107.1977166511
 20
412.8593216968
 30
0.0
 40
2.309458595999999
100
AcDbArc
 50
30.7309172659
 51
330.0
  0
CIRCLE
  5
5C2
330
211
100
AcDbEntity
  8
BEZUGSACHSEN
  6
Continuous
 62
     3
100
AcDbCircle
 10
113.7414420502
 20
412.8593216968
 30
0.0
 40
1.5988559511
  0
ARC
  5
5C3
330
211
100
AcDbEntity
  8
BEZUGSACHSEN
  6
Continuous
 62
     3
100
AcDbCircle
 10
107.1977166511
 20
412.8593216968
 30
0.0
 40
1.5988559511
100
AcDbArc
 50
31.0558004991
 51
330.0
  0
DIMENSION
  5
7D1
330
211
100
AcDbEntity
  8
P-0000
  6
Continuous
100
AcDbDimension
  2
*D15
 10
-594.0046433323852
 20
405.5593216968
 30
0.0
 11
-594.0046433323852
 21
445.2032517311306
 31
0.0
 70
   160
 71
     5
 42
77.0
  3
883N99122_001_00149479900
100
AcDbAlignedDimension
 13
-573.0022833488999
 23
482.5593216968
 33
0.0
 14
-573.0022833489
 24
405.5593216968
 34
0.0
 50
90.0
100
AcDbRotatedDimension
1001
ACAD_DSTYLE_DIMINSPECT
1070
   396
1000
100%
1070
   395
1000

1070
   394
1070
    33
1070
   393
1070
     0
1001
ACAD
1000
DSTYLE
1002
{
1070
   271
1070
     0
1070
   288
1070
     1
1002
}
  0
DIMENSION
  5
81B
330
211
100
AcDbEntity
  8
P-0000
  6
Continuous
100
AcDbDimension
  2
*D18
 10
-594.5061140907538
 20
589.5359512655999
 30
0.0
 11
-594.5061140907539
 21
599.0359512655998
 31
0.0
 70
   160
 71
     5
 42
19.0
  3
883N99122_001_00149479900
100
AcDbAlignedDimension
 13
-573.0022833489
 23
608.5359512655998
 33
0.0
 14
-570.0022833489
 24
589.5359512655999
 34
0.0
 50
90.0
100
AcDbRotatedDimension
1001
ACAD_DSTYLE_DIMINSPECT
1070
   396
1000
100%
1070
   395
1000

1070
   394
1070
    33
1070
   393
1070
     0
1001
ACAD
1000
DSTYLE
1002
{
1070
   271
1070
     0
1070
   288
1070
     1
1002
}
  0
DIMENSION
  5
899
102
{ACAD_XDICTIONARY
360
8A7
102
}
102
{ACAD_REACTORS
330
8A8
102
}
330
211
100
AcDbEntity
  8
P-0000
  6
Continuous
100
AcDbDimension
  2
*D19
 10
119.9977166511
 20
631.0477383057257
 30
0.0
 11
-226.5022833489001
 21
638.5477383057256
 31
0.0
 70
    32
  1
<>
 71
     5
 42
693.0
  3
883N99122_001_00149479900
100
AcDbAlignedDimension
 13
-573.0022833489
 23
600.5359512655999
 33
0.0
 14
119.9977166511
 24
600.5359512655999
 34
0.0
100
AcDbRotatedDimension
1001
ACAD
1000
DSTYLE
1002
{
1070
   271
1070
     0
1070
   288
1070
     1
1002
}
1001
ACAD_DSTYLE_DIMINSPECT
1070
   396
1000
100%
1070
   395
1000

1070
   394
1070
    33
1070
   393
1070
     0
  0
ENDSEC
  0
SECTION
  2
OBJECTS
  0
DICTIONARY
  5
C
330
0
100
AcDbDictionary
281
     1
  3
ACAD_CIP_PREVIOUS_PRODUCT_INFO
350
63E
  3
ACAD_COLOR
350
5F5
  3
ACAD_DETAILVIEWSTYLE
350
637
  3
ACAD_FIELDLIST
350
6A2
  3
ACAD_GROUP
350
D
  3
ACAD_LAYOUT
350
1A
  3
ACAD_MATERIAL
350
5CB
  3
ACAD_MLEADERSTYLE
350
618
  3
ACAD_MLINESTYLE
350
17
  3
ACAD_PLOTSETTINGS
350
19
  3
ACAD_PLOTSTYLENAME
350
E
  3
ACAD_SCALELIST
350
5F6
  3
ACAD_SECTIONVIEWSTYLE
350
635
  3
ACAD_TABLESTYLE
350
5C4
  3
ACAD_VISUALSTYLE
350
5E4
  3
ACDB_RECOMPOSE_DATA
350
92E
  3
AcDbVariableDictionary
350
626
  3
AcmDictionary
350
66C
  3
AEC_PROPERTY_SET_DEFS
350
7CD
  3
AMG
350
642
  3
AMGSNAPSETTINGS
350
6AC
  3
ASE_INDEX_DICTIONARY
350
914
  3
DWGPROPS
350
92F
  0
DICTIONARY
  5
7C6
330
2
100
AcDbDictionary
280
     1
281
     1
  3
ACAD_LAYERSTATES
360
7C7
  0
DICTIONARY
  5
8EE
330
10
100
AcDbDictionary
280
     1
281
     1
  3
ADSK_XREC_LAYER_RECONCILED
360
8EF
  0
DICTIONARY
  5
8F0
330
1FA
100
AcDbDictionary
280
     1
281
     1
  3
ADSK_XREC_LAYER_RECONCILED
360
8F1
  0
DICTIONARY
  5
8F2
330
1FB
100
AcDbDictionary
280
     1
281
     1
  3
ADSK_XREC_LAYER_RECONCILED
360
8F3
  0
DICTIONARY
  5
8F4
330
1FC
100
AcDbDictionary
280
     1
281
     1
  3
ADSK_XREC_LAYER_RECONCILED
360
8F5
  0
DICTIONARY
  5
8F6
330
1FD
100
AcDbDictionary
280
     1
281
     1
  3
ADSK_XREC_LAYER_RECONCILED
360
8F7
  0
DICTIONARY
  5
8F8
330
1FE
100
AcDbDictionary
280
     1
281
     1
  3
ADSK_XREC_LAYER_RECONCILED
360
8F9
  0
DICTIONARY
  5
8FA
330
1FF
100
AcDbDictionary
280
     1
281
     1
  3
ADSK_XREC_LAYER_RECONCILED
360
8FB
  0
DICTIONARY
  5
8FC
330
200
100
AcDbDictionary
280
     1
281
     1
  3
ADSK_XREC_LAYER_RECONCILED
360
8FD
  0
DICTIONARY
  5
8FE
330
201
100
AcDbDictionary
280
     1
281
     1
  3
ADSK_XREC_LAYER_RECONCILED
360
8FF
  0
DICTIONARY
  5
900
330
202
100
AcDbDictionary
280
     1
281
     1
  3
ADSK_XREC_LAYER_RECONCILED
360
901
  0
DICTIONARY
  5
902
330
203
100
AcDbDictionary
280
     1
281
     1
  3
ADSK_XREC_LAYER_RECONCILED
360
903
  0
DICTIONARY
  5
904
330
204
100
AcDbDictionary
280
     1
281
     1
  3
ADSK_XREC_LAYER_RECONCILED
360
905
  0
DICTIONARY
  5
906
330
6B3
100
AcDbDictionary
280
     1
281
     1
  3
ADSK_XREC_LAYER_RECONCILED
360
907
  0
DICTIONARY
  5
908
330
7BF
100
AcDbDictionary
280
     1
281
     1
  3
ADSK_XREC_LAYER_RECONCILED
360
909
  0
DICTIONARY
  5
8A7
330
899
100
AcDbDictionary
280
     1
281
     1
  3
ACAD_DIMASSOC
360
8A8
  0
XRECORD
  5
63E
102
{ACAD_REACTORS
330
C
102
}
330
C
100
AcDbXrecord
280
     1
300
AMECH_PP
300
2014
300
86138AMECH_PP_2014_0F
  0
DICTIONARY
  5
5F5
102
{ACAD_REACTORS
330
C
102
}
330
C
100
AcDbDictionary
281
     1
  0
DICTIONARY
  5
637
102
{ACAD_REACTORS
330
C
102
}
330
C
100
AcDbDictionary
281
     1
  3
Metric50
350
638
  0
FIELDLIST
  5
6A2
102
{ACAD_REACTORS
330
C
102
}
330
C
100
AcDbIdSet
 90
        3
330
6A0
330
6A1
330
6A3
100
AcDbFieldList
  0
DICTIONARY
  5
D
102
{ACAD_REACTORS
330
C
102
}
330
C
100
AcDbDictionary
281
     1
  0
DICTIONARY
  5
1A
102
{ACAD_REACTORS
330
C
102
}
330
C
100
AcDbDictionary
281
     1
  3
Layout1
350
5C6
  3
Model
350
5C5
  0
DICTIONARY
  5
5CB
102
{ACAD_REACTORS
330
C
102
}
330
C
100
AcDbDictionary
281
     1
  3
ByBlock
350
5D4
  3
ByLayer
350
5CC
  3
Global
350
5DC
  0
DICTIONARY
  5
618
102
{ACAD_REACTORS
330
C
102
}
330
C
100
AcDbDictionary
281
     1
  3
Standard
350
619
  0
DICTIONARY
  5
17
102
{ACAD_REACTORS
330
C
102
}
330
C
100
AcDbDictionary
281
     1
  3
Standard
350
18
  0
DICTIONARY
  5
19
102
{ACAD_REACTORS
330
C
102
}
330
C
100
AcDbDictionary
281
     1
  0
ACDBDICTIONARYWDFLT
  5
E
102
{ACAD_REACTORS
330
C
102
}
330
C
100
AcDbDictionary
281
     1
  3
Normal
350
F
100
AcDbDictionaryWithDefault
340
F
  0
DICTIONARY
  5
5F6
102
{ACAD_REACTORS
330
C
102
}
330
C
100
AcDbDictionary
281
     1
  3
A0
350
5F7
  3
A1
350
5F8
  3
A2
350
5F9
  3
A3
350
5FA
  3
A4
350
5FB
  3
A5
350
5FC
  3
A6
350
5FD
  3
A7
350
5FE
  3
A8
350
5FF
  3
A9
350
600
  3
B0
350
601
  3
B1
350
602
  3
B2
350
603
  3
B3
350
604
  3
B4
350
605
  3
B5
350
606
  3
B6
350
607
  3
B7
350
608
  3
B8
350
609
  3
B9
350
60A
  3
C0
350
60B
  3
C1
350
60C
  3
C2
350
60D
  3
C3
350
60E
  3
C4
350
60F
  3
C5
350
610
  3
C6
350
611
  3
C7
350
612
  3
C8
350
613
  3
C9
350
614
  3
D0
350
615
  3
D1
350
616
  3
D2
350
617
  0
DICTIONARY
  5
635
102
{ACAD_REACTORS
330
C
102
}
330
C
100
AcDbDictionary
281
     1
  3
Metric50
350
636
  0
DICTIONARY
  5
5C4
330
C
100
AcDbDictionary
281
     1
  3
Standard
350
5C7
  3
Standard1
350
5C8
  0
DICTIONARY
  5
5E4
102
{ACAD_REACTORS
330
C
102
}
330
C
100
AcDbDictionary
281
     1
  3
2dWireframe
350
5EA
  3
3D Hidden
350
5EC
  3
3dWireframe
350
5EB
  3
Basic
350
5E9
  3
Brighten
350
5F0
  3
ColorChange
350
5F4
  3
Conceptual
350
5ED
  3
Dim
350
5EF
  3
EdgeColorOff
350
634
  3
Facepattern
350
5F3
  3
Flat
350
5E5
  3
FlatWithEdges
350
5E6
  3
Gouraud
350
5E7
  3
GouraudWithEdges
350
5E8
  3
Hidden
350
62C
  3
JitterOff
350
632
  3
Linepattern
350
5F2
  3
OverhangOff
350
633
  3
Realistic
350
5EE
  3
Shaded
350
631
  3
Shaded with edges
350
630
  3
Shades of Gray
350
62D
  3
Sketchy
350
62E
  3
Thicken
350
5F1
  3
Wireframe
350
62B
  3
X-Ray
350
62F
  0
XRECORD
  5
92E
102
{ACAD_REACTORS
330
C
102
}
330
C
100
AcDbXrecord
280
     1
 90
        1
330
5C7
330
5C8
  0
DICTIONARY
  5
626
102
{ACAD_REACTORS
330
C
102
}
330
C
100
AcDbDictionary
281
     1
  3
CANNOSCALE
350
629
  3
CMLEADERSTYLE
350
628
  3
CTABLESTYLE
350
627
  3
CVIEWDETAILSTYLE
350
922
  3
CVIEWSECTIONSTYLE
350
923
  3
DIMASSOC
350
92A
  3
HIDETEXT
350
928
  3
INDEXCTL
350
927
  3
LIGHTINGUNITS
350
925
  3
MSLTSCALE
350
924
  3
SOLIDHIST
350
92B
  3
SORTENTS
350
926
  3
XCLIPFRAME
350
929
  0
DICTIONARY
  5
66C
102
{ACAD_REACTORS
330
C
102
}
330
C
100
AcDbDictionary
281
     1
  3
AcmStdDictionary
350
673
  0
DICTIONARY
  5
7CD
102
{ACAD_REACTORS
330
C
102
}
330
C
100
AcDbDictionary
281
     1
  0
DICTIONARY
  5
642
102
{ACAD_REACTORS
330
C
102
}
330
C
100
AcDbDictionary
281
     1
  0
DICTIONARY
  5
6AC
102
{ACAD_REACTORS
330
C
102
}
330
C
100
AcDbDictionary
281
     1
  0
DICTIONARY
  5
914
102
{ACAD_REACTORS
330
C
102
}
330
C
100
AcDbDictionary
281
     1
  3
ASEBlockHierarchyIndexRecord
350
915
1001
DCO15
1040
1900578510.115
  0
XRECORD
  5
92F
102
{ACAD_REACTORS
330
C
102
}
330
C
100
AcDbXrecord
280
     1
  1
DWGPROPS COOKIE
  2

  3

  4

  6

  7

  8
sbittorf
  9

300
=
301
=
302
=
303
=
304
=
305
=
306
=
307
=
308
=
309
=
 40
0.0078905671296296
 41
2457800.639977524
 42
2457800.648311516
  1

 90
        0
  0
DICTIONARY
  5
7C7
102
{ACAD_REACTORS
330
7C6
102
}
330
7C6
100
AcDbDictionary
281
     1
  0
XRECORD
  5
8EF
102
{ACAD_REACTORS
330
8EE
102
}
330
8EE
100
AcDbXrecord
280
     1
290
     1
  0
XRECORD
  5
8F1
102
{ACAD_REACTORS
330
8F0
102
}
330
8F0
100
AcDbXrecord
280
     1
290
     1
  0
XRECORD
  5
8F3
102
{ACAD_REACTORS
330
8F2
102
}
330
8F2
100
AcDbXrecord
280
     1
290
     1
  0
XRECORD
  5
8F5
102
{ACAD_REACTORS
330
8F4
102
}
330
8F4
100
AcDbXrecord
280
     1
290
     1
  0
XRECORD
  5
8F7
102
{ACAD_REACTORS
330
8F6
102
}
330
8F6
100
AcDbXrecord
280
     1
290
     1
  0
XRECORD
  5
8F9
102
{ACAD_REACTORS
330
8F8
102
}
330
8F8
100
AcDbXrecord
280
     1
290
     1
  0
XRECORD
  5
8FB
102
{ACAD_REACTORS
330
8FA
102
}
330
8FA
100
AcDbXrecord
280
     1
290
     1
  0
XRECORD
  5
8FD
102
{ACAD_REACTORS
330
8FC
102
}
330
8FC
100
AcDbXrecord
280
     1
290
     1
  0
XRECORD
  5
8FF
102
{ACAD_REACTORS
330
8FE
102
}
330
8FE
100
AcDbXrecord
280
     1
290
     1
  0
XRECORD
  5
901
102
{ACAD_REACTORS
330
900
102
}
330
900
100
AcDbXrecord
280
     1
290
     1
  0
XRECORD
  5
903
102
{ACAD_REACTORS
330
902
102
}
330
902
100
AcDbXrecord
280
     1
290
     1
  0
XRECORD
  5
905
102
{ACAD_REACTORS
330
904
102
}
330
904
100
AcDbXrecord
280
     1
290
     1
  0
XRECORD
  5
907
102
{ACAD_REACTORS
330
906
102
}
330
906
100
AcDbXrecord
280
     1
290
     1
  0
XRECORD
  5
909
102
{ACAD_REACTORS
330
908
102
}
330
908
100
AcDbXrecord
280
     1
290
     1
  0
DIMASSOC
  5
8A8
102
{ACAD_REACTORS
330
8A7
102
}
330
8A7
100
AcDbDimAssoc
330
899
 90
        3
 70
     0
 71
     0
  1
AcDbOsnapPointRef
 72
     2
331
346
 73
     0
 91
        0
 40
0.0
 10
0.0
 20
0.0
 30
0.0
 75
     0
  1
AcDbOsnapPointRef
 72
     2
331
412
 73
     0
 91
        0
 40
0.0
 10
0.0
 20
0.0
 30
0.0
 75
     0
  0
ACDBDETAILVIEWSTYLE
  5
638
102
{ACAD_XDICTIONARY
360
96F
102
}
102
{ACAD_REACTORS
330
637
330
696
102
}
330
637
100
AcDbModelDocViewStyle
 70
     0
  3
Metric50
290
     0
100
AcDbDetailViewStyle
 70
     0
 71
     0
 90
        3
 71
     1
340
11
 40
5.0
340
0
 40
5.0
300

 40
0.0
280
     1
 71
     2
340
16
 90
       25
 71
     3
340
11
 40
5.0
 90
        0
 40
15.0
 90
        1
300
%<\AcVar ViewDetailId>% (%<\AcVar ViewScale \f "%sn">%)
 71
     4
340
16
 90
       25
340
16
 90
       25
280
     0
  0
LAYOUT
  5
5C6
102
{ACAD_XDICTIONARY
360
932
102
}
102
{ACAD_REACTORS
330
1A
102
}
330
1A
100
AcDbPlotSettings
  1

  2
none_device
  4
ISO_A3_(420.00_x_297.00_MM)
  6

 40
0.0
 41
0.0
 42
0.0
 43
0.0
 44
420.0
 45
297.0
 46
0.0
 47
0.0
 48
0.0
 49
0.0
140
0.0
141
0.0
142
1.0
143
1.0
 70
     0
 72
     1
 73
     0
 74
     0
  7

 75
     0
147
1.0
148
0.0
149
0.0
100
AcDbLayout
  1
Layout1
 70
     1
 71
     1
 10
0.0
 20
0.0
 11
12.0
 21
9.0
 12
0.0
 22
0.0
 32
0.0
 14
1.000000000000000E+20
 24
1.000000000000000E+20
 34
1.000000000000000E+20
 15
-1.000000000000000E+20
 25
-1.000000000000000E+20
 35
-1.000000000000000E+20
146
0.0
 13
0.0
 23
0.0
 33
0.0
 16
1.0
 26
0.0
 36
0.0
 17
0.0
 27
1.0
 37
0.0
 76
     0
330
212
  0
LAYOUT
  5
5C5
102
{ACAD_XDICTIONARY
360
930
102
}
102
{ACAD_REACTORS
330
1A
102
}
330
1A
100
AcDbPlotSettings
  1

  2
none_device
  4
ISO_A3_(420.00_x_297.00_MM)
  6

 40
0.0
 41
0.0
 42
0.0
 43
0.0
 44
420.0
 45
297.0
 46
0.0
 47
0.0
 48
0.0
 49
0.0
140
0.0
141
0.0
142
1.0
143
1.0
 70
  1024
 72
     1
 73
     0
 74
     0
  7

 75
     0
147
1.0
148
0.0
149
0.0
100
AcDbLayout
  1
Model
 70
     0
 71
     0
 10
0.0
 20
0.0
 11
420.0
 21
297.0
 12
0.0
 22
0.0
 32
0.0
 14
0.0
 24
0.0
 34
0.0
 15
0.0
 25
0.0
 35
0.0
146
0.0
 13
0.0
 23
0.0
 33
0.0
 16
1.0
 26
0.0
 36
0.0
 17
0.0
 27
1.0
 37
0.0
 76
     0
330
211
331
1F4
  0
MATERIAL
  5
5D4
102
{ACAD_XDICTIONARY
360
5D5
102
}
102
{ACAD_REACTORS
330
5CB
102
}
330
5CB
100
AcDbMaterial
  1
ByBlock
 72
     0
 43
0.0008202099737533
 43
0.0
 43
0.0
 43
0.0
 43
0.0
 43
0.0008202099737533
 43
0.0
 43
0.0
 43
0.0
 43
0.0
 43
1.0
 43
0.0
 43
0.0
 43
0.0
 43
0.0
 43
1.0
 77
     0
 47
0.0008202099737533
 47
0.0
 47
0.0
 47
0.0
 47
0.0
 47
0.0008202099737533
 47
0.0
 47
0.0
 47
0.0
 47
0.0
 47
1.0
 47
0.0
 47
0.0
 47
0.0
 47
0.0
 47
1.0
171
     0
 49
0.0008202099737533
 49
0.0
 49
0.0
 49
0.0
 49
0.0
 49
0.0008202099737533
 49
0.0
 49
0.0
 49
0.0
 49
0.0
 49
1.0
 49
0.0
 49
0.0
 49
0.0
 49
0.0
 49
1.0
175
     0
142
0.0008202099737533
142
0.0
142
0.0
142
0.0
142
0.0
142
0.0008202099737533
142
0.0
142
0.0
142
0.0
142
0.0
142
1.0
142
0.0
142
0.0
142
0.0
142
0.0
142
1.0
179
     0
144
0.0008202099737533
144
0.0
144
0.0
144
0.0
144
0.0
144
0.0008202099737533
144
0.0
144
0.0
144
0.0
144
0.0
144
1.0
144
0.0
144
0.0
144
0.0
144
0.0
144
1.0
147
0.0008202099737533
147
0.0
147
0.0
147
0.0
147
0.0
147
0.0008202099737533
147
0.0
147
0.0
147
0.0
147
0.0
147
1.0
147
0.0
147
0.0
147
0.0
147
0.0
147
1.0
  0
MATERIAL
  5
5CC
102
{ACAD_XDICTIONARY
360
5CD
102
}
102
{ACAD_REACTORS
330
5CB
102
}
330
5CB
100
AcDbMaterial
  1
ByLayer
 72
     0
 43
0.0008202099737533
 43
0.0
 43
0.0
 43
0.0
 43
0.0
 43
0.0008202099737533
 43
0.0
 43
0.0
 43
0.0
 43
0.0
 43
1.0
 43
0.0
 43
0.0
 43
0.0
 43
0.0
 43
1.0
 77
     0
 47
0.0008202099737533
 47
0.0
 47
0.0
 47
0.0
 47
0.0
 47
0.0008202099737533
 47
0.0
 47
0.0
 47
0.0
 47
0.0
 47
1.0
 47
0.0
 47
0.0
 47
0.0
 47
0.0
 47
1.0
171
     0
 49
0.0008202099737533
 49
0.0
 49
0.0
 49
0.0
 49
0.0
 49
0.0008202099737533
 49
0.0
 49
0.0
 49
0.0
 49
0.0
 49
1.0
 49
0.0
 49
0.0
 49
0.0
 49
0.0
 49
1.0
175
     0
142
0.0008202099737533
142
0.0
142
0.0
142
0.0
142
0.0
142
0.0008202099737533
142
0.0
142
0.0
142
0.0
142
0.0
142
1.0
142
0.0
142
0.0
142
0.0
142
0.0
142
1.0
179
     0
144
0.0008202099737533
144
0.0
144
0.0
144
0.0
144
0.0
144
0.0008202099737533
144
0.0
144
0.0
144
0.0
144
0.0
144
1.0
144
0.0
144
0.0
144
0.0
144
0.0
144
1.0
147
0.0008202099737533
147
0.0
147
0.0
147
0.0
147
0.0
147
0.0008202099737533
147
0.0
147
0.0
147
0.0
147
0.0
147
1.0
147
0.0
147
0.0
147
0.0
147
0.0
147
1.0
  0
MATERIAL
  5
5DC
102
{ACAD_XDICTIONARY
360
5DD
102
}
102
{ACAD_REACTORS
330
5CB
102
}
330
5CB
100
AcDbMaterial
  1
Global
 72
     0
 43
0.0008202099737533
 43
0.0
 43
0.0
 43
0.0
 43
0.0
 43
0.0008202099737533
 43
0.0
 43
0.0
 43
0.0
 43
0.0
 43
1.0
 43
0.0
 43
0.0
 43
0.0
 43
0.0
 43
1.0
 77
     0
 47
0.0008202099737533
 47
0.0
 47
0.0
 47
0.0
 47
0.0
 47
0.0008202099737533
 47
0.0
 47
0.0
 47
0.0
 47
0.0
 47
1.0
 47
0.0
 47
0.0
 47
0.0
 47
0.0
 47
1.0
171
     0
 49
0.0008202099737533
 49
0.0
 49
0.0
 49
0.0
 49
0.0
 49
0.0008202099737533
 49
0.0
 49
0.0
 49
0.0
 49
0.0
 49
1.0
 49
0.0
 49
0.0
 49
0.0
 49
0.0
 49
1.0
175
     0
142
0.0008202099737533
142
0.0
142
0.0
142
0.0
142
0.0
142
0.0008202099737533
142
0.0
142
0.0
142
0.0
142
0.0
142
1.0
142
0.0
142
0.0
142
0.0
142
0.0
142
1.0
179
     0
144
0.0008202099737533
144
0.0
144
0.0
144
0.0
144
0.0
144
0.0008202099737533
144
0.0
144
0.0
144
0.0
144
0.0
144
1.0
144
0.0
144
0.0
144
0.0
144
0.0
144
1.0
147
0.0008202099737533
147
0.0
147
0.0
147
0.0
147
0.0
147
0.0008202099737533
147
0.0
147
0.0
147
0.0
147
0.0
147
1.0
147
0.0
147
0.0
147
0.0
147
0.0
147
1.0
  0
MLEADERSTYLE
  5
619
102
{ACAD_REACTORS
330
618
102
}
330
618
100
AcDbMLeaderStyle
170
     2
171
     1
172
     0
 90
        2
 40
0.0
 41
0.0
173
     1
 91
-1056964608
340
14
 92
       -2
290
     1
 42
2.0
291
     1
 43
0.36
  3
Standard
 44
4.0
300

342
11
174
     1
178
     6
175
     1
176
     0
 93
-1056964608
 45
4.0
292
     0
297
     0
 46
4.0
 94
-1056964608
 47
1.0
 49
1.0
140
1.0
293
     1
141
0.0
294
     1
177
     0
142
1.0
295
     0
296
     0
143
0.125
1001
ACAD_MLEADERVER
1070
     2
  0
MLINESTYLE
  5
18
102
{ACAD_REACTORS
330
17
102
}
330
17
100
AcDbMlineStyle
  2
STANDARD
 70
     0
  3

 62
   256
 51
90.0
 52
90.0
 71
     2
 49
0.5
 62
   256
  6
BYLAYER
 49
-0.5
 62
   256
  6
BYLAYER
  0
ACDBPLACEHOLDER
  5
F
102
{ACAD_REACTORS
330
E
102
}
330
E
  0
SCALE
  5
5F7
102
{ACAD_REACTORS
330
5F6
102
}
330
5F6
100
AcDbScale
 70
     0
300
1:1
140
1.0
141
1.0
290
     1
  0
SCALE
  5
5F8
102
{ACAD_REACTORS
330
5F6
102
}
330
5F6
100
AcDbScale
 70
     0
300
1:2
140
1.0
141
2.0
290
     0
  0
SCALE
  5
5F9
102
{ACAD_REACTORS
330
5F6
102
}
330
5F6
100
AcDbScale
 70
     0
300
1:4
140
1.0
141
4.0
290
     0
  0
SCALE
  5
5FA
102
{ACAD_REACTORS
330
5F6
102
}
330
5F6
100
AcDbScale
 70
     0
300
1:5
140
1.0
141
5.0
290
     0
  0
SCALE
  5
5FB
102
{ACAD_REACTORS
330
5F6
102
}
330
5F6
100
AcDbScale
 70
     0
300
1:8
140
1.0
141
8.0
290
     0
  0
SCALE
  5
5FC
102
{ACAD_REACTORS
330
5F6
102
}
330
5F6
100
AcDbScale
 70
     0
300
1:10
140
1.0
141
10.0
290
     0
  0
SCALE
  5
5FD
102
{ACAD_REACTORS
330
5F6
102
}
330
5F6
100
AcDbScale
 70
     0
300
1:16
140
1.0
141
16.0
290
     0
  0
SCALE
  5
5FE
102
{ACAD_REACTORS
330
5F6
102
}
330
5F6
100
AcDbScale
 70
     0
300
1:20
140
1.0
141
20.0
290
     0
  0
SCALE
  5
5FF
102
{ACAD_REACTORS
330
5F6
102
}
330
5F6
100
AcDbScale
 70
     0
300
1:30
140
1.0
141
30.0
290
     0
  0
SCALE
  5
600
102
{ACAD_REACTORS
330
5F6
102
}
330
5F6
100
AcDbScale
 70
     0
300
1:40
140
1.0
141
40.0
290
     0
  0
SCALE
  5
601
102
{ACAD_REACTORS
330
5F6
102
}
330
5F6
100
AcDbScale
 70
     0
300
1:50
140
1.0
141
50.0
290
     0
  0
SCALE
  5
602
102
{ACAD_REACTORS
330
5F6
102
}
330
5F6
100
AcDbScale
 70
     0
300
1:100
140
1.0
141
100.0
290
     0
  0
SCALE
  5
603
102
{ACAD_REACTORS
330
5F6
102
}
330
5F6
100
AcDbScale
 70
     0
300
2:1
140
2.0
141
1.0
290
     0
  0
SCALE
  5
604
102
{ACAD_REACTORS
330
5F6
102
}
330
5F6
100
AcDbScale
 70
     0
300
4:1
140
4.0
141
1.0
290
     0
  0
SCALE
  5
605
102
{ACAD_REACTORS
330
5F6
102
}
330
5F6
100
AcDbScale
 70
     0
300
8:1
140
8.0
141
1.0
290
     0
  0
SCALE
  5
606
102
{ACAD_REACTORS
330
5F6
102
}
330
5F6
100
AcDbScale
 70
     0
300
10:1
140
10.0
141
1.0
290
     0
  0
SCALE
  5
607
102
{ACAD_REACTORS
330
5F6
102
}
330
5F6
100
AcDbScale
 70
     0
300
100:1
140
100.0
141
1.0
290
     0
  0
SCALE
  5
608
102
{ACAD_REACTORS
330
5F6
102
}
330
5F6
100
AcDbScale
 70
     0
300
1/128" = 1'-0"
140
0.0078125
141
12.0
290
     0
  0
SCALE
  5
609
102
{ACAD_REACTORS
330
5F6
102
}
330
5F6
100
AcDbScale
 70
     0
300
1/64" = 1'-0"
140
0.015625
141
12.0
290
     0
  0
SCALE
  5
60A
102
{ACAD_REACTORS
330
5F6
102
}
330
5F6
100
AcDbScale
 70
     0
300
1/32" = 1'-0"
140
0.03125
141
12.0
290
     0
  0
SCALE
  5
60B
102
{ACAD_REACTORS
330
5F6
102
}
330
5F6
100
AcDbScale
 70
     0
300
1/16" = 1'-0"
140
0.0625
141
12.0
290
     0
  0
SCALE
  5
60C
102
{ACAD_REACTORS
330
5F6
102
}
330
5F6
100
AcDbScale
 70
     0
300
3/32" = 1'-0"
140
0.09375
141
12.0
290
     0
  0
SCALE
  5
60D
102
{ACAD_REACTORS
330
5F6
102
}
330
5F6
100
AcDbScale
 70
     0
300
1/8" = 1'-0"
140
0.125
141
12.0
290
     0
  0
SCALE
  5
60E
102
{ACAD_REACTORS
330
5F6
102
}
330
5F6
100
AcDbScale
 70
     0
300
3/16" = 1'-0"
140
0.1875
141
12.0
290
     0
  0
SCALE
  5
60F
102
{ACAD_REACTORS
330
5F6
102
}
330
5F6
100
AcDbScale
 70
     0
300
1/4" = 1'-0"
140
0.25
141
12.0
290
     0
  0
SCALE
  5
610
102
{ACAD_REACTORS
330
5F6
102
}
330
5F6
100
AcDbScale
 70
     0
300
3/8" = 1'-0"
140
0.375
141
12.0
290
     0
  0
SCALE
  5
611
102
{ACAD_REACTORS
330
5F6
102
}
330
5F6
100
AcDbScale
 70
     0
300
1/2" = 1'-0"
140
0.5
141
12.0
290
     0
  0
SCALE
  5
612
102
{ACAD_REACTORS
330
5F6
102
}
330
5F6
100
AcDbScale
 70
     0
300
3/4" = 1'-0"
140
0.75
141
12.0
290
     0
  0
SCALE
  5
613
102
{ACAD_REACTORS
330
5F6
102
}
330
5F6
100
AcDbScale
 70
     0
300
1" = 1'-0"
140
1.0
141
12.0
290
     0
  0
SCALE
  5
614
102
{ACAD_REACTORS
330
5F6
102
}
330
5F6
100
AcDbScale
 70
     0
300
1-1/2" = 1'-0"
140
1.5
141
12.0
290
     0
  0
SCALE
  5
615
102
{ACAD_REACTORS
330
5F6
102
}
330
5F6
100
AcDbScale
 70
     0
300
3" = 1'-0"
140
3.0
141
12.0
290
     0
  0
SCALE
  5
616
102
{ACAD_REACTORS
330
5F6
102
}
330
5F6
100
AcDbScale
 70
     0
300
6" = 1'-0"
140
6.0
141
12.0
290
     0
  0
SCALE
  5
617
102
{ACAD_REACTORS
330
5F6
102
}
330
5F6
100
AcDbScale
 70
     0
300
1'-0" = 1'-0"
140
12.0
141
12.0
290
     0
  0
ACDBSECTIONVIEWSTYLE
  5
636
102
{ACAD_XDICTIONARY
360
96D
102
}
102
{ACAD_REACTORS
330
635
330
695
102
}
330
635
100
AcDbModelDocViewStyle
 70
     0
  3
Metric50
290
     0
100
AcDbSectionViewStyle
 70
     0
 71
     0
 90
      102
 71
     1
340
11
 40
5.0
340
0
340
0
 40
5.0
300
I, O, Q, S, X, Z
 40
10.0
 90
        0
 40
2.5
 90
        0
 71
     2
340
16
 90
       25
340
16
 90
       50
 40
5.0
 40
2.5
 40
5.0
 71
     3
340
11
 40
5.0
 90
        0
 40
15.0
 90
        1
300
%<\AcVar ViewSectionStartId>%-%<\AcVar ViewSectionEndId>% (%<\AcVar ViewScale \f "%sn">%)
 71
     4
300
ANSI31
 40
1.0
 90
        0
290
     0
290
     0
 90
        6
 40
0.0
 40
1.570796326794896
 40
0.2617993877991494
 40
1.308996938995747
 40
-0.2617993877991494
 40
1.832595714594046
  0
TABLESTYLE
  5
5C7
102
{ACAD_XDICTIONARY
360
621
102
}
102
{ACAD_REACTORS
330
5C4
102
}
330
5C4
100
AcDbTableStyle
  3
Standard
 70
     0
 71
     0
 40
0.06
 41
0.06
280
     1
281
     1
  7
STANDARD
140
0.18
170
     1
 62
     0
 63
     7
283
     0
274
    -2
284
     1
 64
     0
275
    -2
285
     1
 65
     0
276
    -2
286
     1
 66
     0
277
    -2
287
     1
 67
     0
278
    -2
288
     1
 68
     0
279
    -2
289
     1
 69
     0
  7
STANDARD
140
0.18
170
     1
 62
     0
 63
     7
283
     0
274
    -2
284
     1
 64
     0
275
    -2
285
     1
 65
     0
276
    -2
286
     1
 66
     0
277
    -2
287
     1
 67
     0
278
    -2
288
     1
 68
     0
279
    -2
289
     1
 69
     0
  7
STANDARD
140
0.18
170
     1
 62
     0
 63
     7
283
     0
274
    -2
284
     1
 64
     0
275
    -2
285
     1
 65
     0
276
    -2
286
     1
 66
     0
277
    -2
287
     1
 67
     0
278
    -2
288
     1
 68
     0
279
    -2
289
     1
 69
     0
  0
TABLESTYLE
  5
5C8
102
{ACAD_XDICTIONARY
360
623
102
}
102
{ACAD_REACTORS
330
5C4
102
}
330
5C4
100
AcDbTableStyle
  3
Standard1
 70
     1
 71
     0
 40
0.06
 41
0.06
280
     1
281
     1
  7
STANDARD
140
0.18
170
     1
 62
     0
 63
     7
283
     0
274
    -2
284
     1
 64
     0
275
    -2
285
     1
 65
     0
276
    -2
286
     1
 66
     0
277
    -2
287
     1
 67
     0
278
    -2
288
     1
 68
     0
279
    -2
289
     1
 69
     0
  7
STANDARD
140
0.18
170
     1
 62
     0
 63
     7
283
     0
274
    -2
284
     1
 64
     0
275
    -2
285
     1
 65
     0
276
    -2
286
     1
 66
     0
277
    -2
287
     1
 67
     0
278
    -2
288
     1
 68
     0
279
    -2
289
     1
 69
     0
  7
STANDARD
140
0.18
170
     1
 62
     0
 63
     7
283
     0
274
    -2
284
     1
 64
     0
275
    -2
285
     1
 65
     0
276
    -2
286
     1
 66
     0
277
    -2
287
     1
 67
     0
278
    -2
288
     1
 68
     0
279
    -2
289
     1
 69
     0
  0
VISUALSTYLE
  5
5EA
102
{ACAD_XDICTIONARY
360
943
102
}
102
{ACAD_REACTORS
330
5E4
102
}
330
5E4
100
AcDbVisualStyle
  2
2dWireframe
 70
     4
 71
     0
 72
     2
 73
     0
 90
        0
 40
-0.6
 41
-30.0
 62
     5
 63
     7
 74
     1
 91
        4
 64
     7
 65
   257
 75
     1
175
     1
 42
1.0
 92
        0
 66
   257
 43
1.0
 76
     1
 77
     6
 78
     2
 67
     7
 79
     5
170
     0
171
     0
290
     0
174
     0
 93
        1
 44
0.0
173
     0
291
     0
 45
0.0
1001
ACAD
1000
AcDbSavedByObjectVersion
1070
     0
  0
VISUALSTYLE
  5
5EC
102
{ACAD_XDICTIONARY
360
947
102
}
102
{ACAD_REACTORS
330
5E4
102
}
330
5E4
100
AcDbVisualStyle
  2
3D Hidden
 70
     6
 71
     1
 72
     2
 73
     2
 90
        0
 40
-0.6
 41
-30.0
 62
     5
 63
     7
 74
     2
 91
        2
 64
     7
 65
   257
 75
     2
175
     1
 42
40.0
 92
        0
 66
   257
 43
1.0
 76
     1
 77
     6
 78
     2
 67
     7
 79
     3
170
     0
171
     0
290
     0
174
     0
 93
        1
 44
0.0
173
     0
291
     0
 45
0.0
1001
ACAD
1000
AcDbSavedByObjectVersion
1070
     0
  0
VISUALSTYLE
  5
5EB
102
{ACAD_XDICTIONARY
360
945
102
}
102
{ACAD_REACTORS
330
5E4
102
}
330
5E4
100
AcDbVisualStyle
  2
3dWireframe
 70
     5
 71
     0
 72
     2
 73
     0
 90
        0
 40
-0.6
 41
-30.0
 62
     5
 63
     7
 74
     1
 91
        4
 64
     7
 65
   257
 75
     1
175
     1
 42
1.0
 92
        0
 66
   257
 43
1.0
 76
     1
 77
     6
 78
     2
 67
     7
 79
     5
170
     0
171
     0
290
     0
174
     0
 93
        1
 44
0.0
173
     0
291
     0
 45
0.0
1001
ACAD
1000
AcDbSavedByObjectVersion
1070
     0
  0
VISUALSTYLE
  5
5E9
102
{ACAD_XDICTIONARY
360
941
102
}
102
{ACAD_REACTORS
330
5E4
102
}
330
5E4
100
AcDbVisualStyle
  2
Basic
 70
     7
 71
     1
 72
     0
 73
     1
 90
        0
 40
-0.6
 41
-30.0
 62
     5
 63
     7
 74
     0
 91
        4
 64
     7
 65
   257
 75
     1
175
     1
 42
1.0
 92
        8
 66
     7
 43
1.0
 76
     1
 77
     6
 78
     2
 67
     7
 79
     5
170
     0
171
     0
290
     0
174
     0
 93
        1
 44
0.0
173
     0
291
     1
 45
0.0
1001
ACAD
1000
AcDbSavedByObjectVersion
1070
     0
  0
VISUALSTYLE
  5
5F0
102
{ACAD_XDICTIONARY
360
94F
102
}
102
{ACAD_REACTORS
330
5E4
102
}
330
5E4
100
AcDbVisualStyle
  2
Brighten
 70
    12
 71
     2
 72
     2
 73
     0
 90
        0
 40
-0.6
 41
-30.0
 62
     5
 63
     7
 74
     1
 91
        4
 64
     7
 65
   257
 75
     1
175
     1
 42
1.0
 92
        8
 66
     7
 43
1.0
 76
     1
 77
     6
 78
     2
 67
     7
 79
     5
170
     0
171
     0
290
     0
174
     0
 93
        1
 44
50.0
173
     0
291
     1
 45
0.0
1001
ACAD
1000
AcDbSavedByObjectVersion
1070
     0
  0
VISUALSTYLE
  5
5F4
102
{ACAD_XDICTIONARY
360
957
102
}
102
{ACAD_REACTORS
330
5E4
102
}
330
5E4
100
AcDbVisualStyle
  2
ColorChange
 70
    16
 71
     2
 72
     2
 73
     3
 90
        0
 40
-0.6
 41
-30.0
 62
     5
 63
     8
 74
     1
 91
        4
 64
     7
 65
   257
 75
     1
175
     1
 42
1.0
 92
        8
 66
     8
 43
1.0
 76
     1
 77
     6
 78
     2
 67
     7
 79
     5
170
     0
171
     0
290
     0
174
     0
 93
        1
 44
0.0
173
     0
291
     1
 45
0.0
1001
ACAD
1000
AcDbSavedByObjectVersion
1070
     0
  0
VISUALSTYLE
  5
5ED
102
{ACAD_XDICTIONARY
360
949
102
}
102
{ACAD_REACTORS
330
5E4
102
}
330
5E4
100
AcDbVisualStyle
  2
Conceptual
 70
     9
 71
     3
 72
     2
 73
     0
 90
        0
 40
-0.6
 41
-30.0
 62
     5
 63
     7
 74
     2
 91
        2
 64
     7
 65
   257
 75
     1
175
     1
 42
40.0
 92
        8
 66
     7
 43
1.0
 76
     1
 77
     6
 78
     2
 67
     7
 79
     3
170
     0
171
     0
290
     0
174
     0
 93
        1
 44
0.0
173
     0
291
     0
 45
0.0
1001
ACAD
1000
AcDbSavedByObjectVersion
1070
     0
  0
VISUALSTYLE
  5
5EF
102
{ACAD_XDICTIONARY
360
94D
102
}
102
{ACAD_REACTORS
330
5E4
102
}
330
5E4
100
AcDbVisualStyle
  2
Dim
 70
    11
 71
     2
 72
     2
 73
     0
 90
        0
 40
-0.6
 41
-30.0
 62
     5
 63
     7
 74
     1
 91
        4
 64
     7
 65
   257
 75
     1
175
     1
 42
1.0
 92
        8
 66
     7
 43
1.0
 76
     1
 77
     6
 78
     2
 67
     7
 79
     5
170
     0
171
     0
290
     0
174
     0
 93
        1
 44
-50.0
173
     0
291
     1
 45
0.0
1001
ACAD
1000
AcDbSavedByObjectVersion
1070
     0
  0
VISUALSTYLE
  5
634
102
{ACAD_XDICTIONARY
360
96B
102
}
102
{ACAD_REACTORS
330
5E4
102
}
330
5E4
100
AcDbVisualStyle
  2
EdgeColorOff
 70
    22
 71
     2
 72
     2
 73
     0
 90
        0
 40
-0.6
 41
-30.0
 62
     5
 63
     7
 74
     1
 91
        4
 64
     7
 65
   257
 75
     1
175
     1
 42
1.0
 92
        8
 66
     7
 43
1.0
 76
     1
 77
     6
 78
     2
 67
     7
 79
     5
170
     0
171
     0
290
     0
174
     0
 93
        1
 44
0.0
173
     0
291
     1
 45
0.0
1001
ACAD
1000
AcDbSavedByObjectVersion
1070
     0
  0
VISUALSTYLE
  5
5F3
102
{ACAD_XDICTIONARY
360
955
102
}
102
{ACAD_REACTORS
330
5E4
102
}
330
5E4
100
AcDbVisualStyle
  2
Facepattern
 70
    15
 71
     2
 72
     2
 73
     0
 90
        0
 40
-0.6
 41
-30.0
 62
     5
 63
     7
 74
     1
 91
        4
 64
     7
 65
   257
 75
     1
175
     1
 42
1.0
 92
        8
 66
     7
 43
1.0
 76
     1
 77
     6
 78
     2
 67
     7
 79
     5
170
     0
171
     0
290
     0
174
     0
 93
        1
 44
0.0
173
     0
291
     1
 45
0.0
1001
ACAD
1000
AcDbSavedByObjectVersion
1070
     0
  0
VISUALSTYLE
  5
5E5
102
{ACAD_XDICTIONARY
360
939
102
}
102
{ACAD_REACTORS
330
5E4
102
}
330
5E4
100
AcDbVisualStyle
  2
Flat
 70
     0
 71
     2
 72
     1
 73
     1
 90
        2
 40
-0.6
 41
30.0
 62
     5
 63
     7
 74
     0
 91
        4
 64
     7
 65
   257
 75
     1
175
     1
 42
1.0
 92
        8
 66
     7
 43
1.0
 76
     1
 77
     6
 78
     2
 67
     7
 79
     5
170
     0
171
     0
290
     0
174
     0
 93
       13
 44
0.0
173
     0
291
     1
 45
0.0
1001
ACAD
1000
AcDbSavedByObjectVersion
1070
     0
  0
VISUALSTYLE
  5
5E6
102
{ACAD_XDICTIONARY
360
93B
102
}
102
{ACAD_REACTORS
330
5E4
102
}
330
5E4
100
AcDbVisualStyle
  2
FlatWithEdges
 70
     1
 71
     2
 72
     1
 73
     1
 90
        2
 40
-0.6
 41
30.0
 62
     5
 63
     7
 74
     1
 91
        4
 64
     7
 65
   257
 75
     1
175
     1
 42
1.0
 92
        0
 66
   257
 43
1.0
 76
     1
 77
     6
 78
     2
 67
     7
 79
     5
170
     0
171
     0
290
     0
174
     0
 93
       13
 44
0.0
173
     0
291
     1
 45
0.0
1001
ACAD
1000
AcDbSavedByObjectVersion
1070
     0
  0
VISUALSTYLE
  5
5E7
102
{ACAD_XDICTIONARY
360
93D
102
}
102
{ACAD_REACTORS
330
5E4
102
}
330
5E4
100
AcDbVisualStyle
  2
Gouraud
 70
     2
 71
     2
 72
     2
 73
     1
 90
        2
 40
-0.6
 41
30.0
 62
     5
 63
     7
 74
     0
 91
        4
 64
     7
 65
   257
 75
     1
175
     1
 42
1.0
 92
        0
 66
     7
 43
1.0
 76
     1
 77
     6
 78
     2
 67
     7
 79
     5
170
     0
171
     0
290
     0
174
     0
 93
       13
 44
0.0
173
     0
291
     1
 45
0.0
1001
ACAD
1000
AcDbSavedByObjectVersion
1070
     0
  0
VISUALSTYLE
  5
5E8
102
{ACAD_XDICTIONARY
360
93F
102
}
102
{ACAD_REACTORS
330
5E4
102
}
330
5E4
100
AcDbVisualStyle
  2
GouraudWithEdges
 70
     3
 71
     2
 72
     2
 73
     1
 90
        2
 40
-0.6
 41
30.0
 62
     5
 63
     7
 74
     1
 91
        4
 64
     7
 65
   257
 75
     1
175
     1
 42
1.0
 92
        0
 66
   257
 43
1.0
 76
     1
 77
     6
 78
     2
 67
     7
 79
     5
170
     0
171
     0
290
     0
174
     0
 93
       13
 44
0.0
173
     0
291
     1
 45
0.0
1001
ACAD
1000
AcDbSavedByObjectVersion
1070
     0
  0
VISUALSTYLE
  5
62C
102
{ACAD_XDICTIONARY
360
95B
102
}
102
{ACAD_REACTORS
330
5E4
102
}
330
5E4
100
AcDbVisualStyle
  2
Hidden
 70
     6
 71
     1
 72
     2
 73
     2
 90
        0
 40
-0.6
 41
-30.0
 62
     5
 63
     7
 74
     2
 91
        2
 64
     7
 65
   257
 75
     2
175
     1
 42
40.0
 92
        0
 66
   257
 43
1.0
 76
     1
 77
     6
 78
     2
 67
     7
 79
     3
170
     0
171
     0
290
     0
174
     0
 93
        1
 44
0.0
173
     0
291
     0
 45
0.0
1001
ACAD
1000
AcDbSavedByObjectVersion
1070
     0
  0
VISUALSTYLE
  5
632
102
{ACAD_XDICTIONARY
360
967
102
}
102
{ACAD_REACTORS
330
5E4
102
}
330
5E4
100
AcDbVisualStyle
  2
JitterOff
 70
    20
 71
     2
 72
     2
 73
     0
 90
        0
 40
-0.6
 41
-30.0
 62
     5
 63
     7
 74
     1
 91
        4
 64
     7
 65
   257
 75
     1
175
     1
 42
1.0
 92
       10
 66
     7
 43
1.0
 76
     1
 77
     6
 78
     2
 67
     7
 79
     5
170
     0
171
     0
290
     0
174
     0
 93
        1
 44
0.0
173
     0
291
     1
 45
0.0
1001
ACAD
1000
AcDbSavedByObjectVersion
1070
     0
  0
VISUALSTYLE
  5
5F2
102
{ACAD_XDICTIONARY
360
953
102
}
102
{ACAD_REACTORS
330
5E4
102
}
330
5E4
100
AcDbVisualStyle
  2
Linepattern
 70
    14
 71
     2
 72
     2
 73
     0
 90
        0
 40
-0.6
 41
-30.0
 62
     5
 63
     7
 74
     1
 91
        4
 64
     7
 65
   257
 75
     7
175
     7
 42
1.0
 92
        8
 66
     7
 43
1.0
 76
     1
 77
     6
 78
     2
 67
     7
 79
     5
170
     0
171
     0
290
     0
174
     0
 93
        1
 44
0.0
173
     0
291
     1
 45
0.0
1001
ACAD
1000
AcDbSavedByObjectVersion
1070
     0
  0
VISUALSTYLE
  5
633
102
{ACAD_XDICTIONARY
360
969
102
}
102
{ACAD_REACTORS
330
5E4
102
}
330
5E4
100
AcDbVisualStyle
  2
OverhangOff
 70
    21
 71
     2
 72
     2
 73
     0
 90
        0
 40
-0.6
 41
-30.0
 62
     5
 63
     7
 74
     1
 91
        4
 64
     7
 65
   257
 75
     1
175
     1
 42
1.0
 92
        9
 66
     7
 43
1.0
 76
     1
 77
     6
 78
     2
 67
     7
 79
     5
170
     0
171
     0
290
     0
174
     0
 93
        1
 44
0.0
173
     0
291
     1
 45
0.0
1001
ACAD
1000
AcDbSavedByObjectVersion
1070
     0
  0
VISUALSTYLE
  5
5EE
102
{ACAD_XDICTIONARY
360
94B
102
}
102
{ACAD_REACTORS
330
5E4
102
}
330
5E4
100
AcDbVisualStyle
  2
Realistic
 70
     8
 71
     2
 72
     2
 73
     0
 90
        0
 40
-0.6
 41
-30.0
 62
     5
 63
     7
 74
     1
 91
        0
 64
     7
 65
   257
 75
     1
175
     1
 42
1.0
 92
        8
 66
     8
 43
1.0
 76
     1
 77
     6
 78
     2
 67
     7
 79
     5
170
     0
171
     0
290
     0
174
     0
 93
       13
 44
0.0
173
     0
291
     0
 45
0.0
1001
ACAD
1000
AcDbSavedByObjectVersion
1070
     0
  0
VISUALSTYLE
  5
631
102
{ACAD_XDICTIONARY
360
965
102
}
102
{ACAD_REACTORS
330
5E4
102
}
330
5E4
100
AcDbVisualStyle
  2
Shaded
 70
    27
 71
     2
 72
     2
 73
     1
 90
        2
 40
-0.6
 41
30.0
 62
     5
 63
     7
 74
     0
 91
        4
 64
     7
 65
   257
 75
     1
175
     1
 42
1.0
 92
        8
 66
   257
 43
1.0
 76
     1
 77
     6
 78
     2
 67
     8
 79
     3
170
     0
171
     0
290
     0
174
     0
 93
        5
 44
0.0
173
     0
291
     0
 45
0.0
1001
ACAD
1000
AcDbSavedByObjectVersion
1070
     0
  0
VISUALSTYLE
  5
630
102
{ACAD_XDICTIONARY
360
963
102
}
102
{ACAD_REACTORS
330
5E4
102
}
330
5E4
100
AcDbVisualStyle
  2
Shaded with edges
 70
    26
 71
     2
 72
     2
 73
     1
 90
        2
 40
-0.6
 41
30.0
 62
     5
 63
     7
 74
     1
 91
       10
 64
     7
 65
   257
 75
     2
175
     1
 42
1.0
 92
        8
 66
   257
 43
1.0
 76
     1
 77
     6
 78
     2
 67
     7
 79
     3
170
     0
171
     0
290
     0
174
     0
 93
        5
 44
0.0
173
     0
291
     0
 45
0.0
1001
ACAD
1000
AcDbSavedByObjectVersion
1070
     0
  0
VISUALSTYLE
  5
62D
102
{ACAD_XDICTIONARY
360
95D
102
}
102
{ACAD_REACTORS
330
5E4
102
}
330
5E4
100
AcDbVisualStyle
  2
Shades of Gray
 70
    23
 71
     2
 72
     2
 73
     3
 90
        0
 40
-0.6
 41
-30.0
 62
     5
 63
     7
 74
     2
 91
        2
 64
     7
 65
     7
 75
     1
175
     1
 42
40.0
 92
        8
 66
     7
 43
1.0
 76
     1
 77
     6
 78
     2
 67
     7
 79
     3
170
     0
171
     0
290
     0
174
     0
 93
        1
 44
0.0
173
     0
291
     0
 45
0.0
1001
ACAD
1000
AcDbSavedByObjectVersion
1070
     0
  0
VISUALSTYLE
  5
62E
102
{ACAD_XDICTIONARY
360
95F
102
}
102
{ACAD_REACTORS
330
5E4
102
}
330
5E4
100
AcDbVisualStyle
  2
Sketchy
 70
    24
 71
     1
 72
     2
 73
     2
 90
        0
 40
-0.6
 41
-30.0
 62
     5
 63
     7
 74
     2
 91
        2
 64
     7
 65
     7
 75
     1
175
     1
 42
40.0
 92
       11
 66
     7
 43
1.0
 76
     1
 77
     6
 78
     2
 67
     7
 79
     6
170
     0
171
     0
290
     0
174
     0
 93
        1
 44
0.0
173
     0
291
     0
 45
0.0
1001
ACAD
1000
AcDbSavedByObjectVersion
1070
     0
  0
VISUALSTYLE
  5
5F1
102
{ACAD_XDICTIONARY
360
951
102
}
102
{ACAD_REACTORS
330
5E4
102
}
330
5E4
100
AcDbVisualStyle
  2
Thicken
 70
    13
 71
     2
 72
     2
 73
     0
 90
        0
 40
-0.6
 41
-30.0
 62
     5
 63
     7
 74
     1
 91
        4
 64
     7
 65
   257
 75
     1
175
     1
 42
1.0
 92
       12
 66
     7
 43
1.0
 76
     1
 77
     6
 78
     2
 67
     7
 79
     5
170
     0
171
     0
290
     0
174
     0
 93
        1
 44
0.0
173
     0
291
     1
 45
0.0
1001
ACAD
1000
AcDbSavedByObjectVersion
1070
     0
  0
VISUALSTYLE
  5
62B
102
{ACAD_XDICTIONARY
360
959
102
}
102
{ACAD_REACTORS
330
5E4
102
}
330
5E4
100
AcDbVisualStyle
  2
Wireframe
 70
     5
 71
     0
 72
     2
 73
     0
 90
        0
 40
-0.6
 41
-30.0
 62
     5
 63
     7
 74
     1
 91
        4
 64
     7
 65
   257
 75
     1
175
     1
 42
1.0
 92
        0
 66
   257
 43
1.0
 76
     1
 77
     6
 78
     2
 67
     7
 79
     3
170
     0
171
     0
290
     0
174
     0
 93
        1
 44
0.0
173
     0
291
     0
 45
0.0
1001
ACAD
1000
AcDbSavedByObjectVersion
1070
     0
  0
VISUALSTYLE
  5
62F
102
{ACAD_XDICTIONARY
360
961
102
}
102
{ACAD_REACTORS
330
5E4
102
}
330
5E4
100
AcDbVisualStyle
  2
X-Ray
 70
    25
 71
     2
 72
     2
 73
     1
 90
        1
 40
0.5
 41
-30.0
 62
     5
 63
     7
 74
     1
 91
        0
 64
     7
 65
   257
 75
     1
175
     1
 42
1.0
 92
        8
 66
     7
 43
1.0
 76
     1
 77
     6
 78
     2
 67
     7
 79
     3
170
     0
171
     0
290
     0
174
     0
 93
       13
 44
0.0
173
     0
291
     0
 45
0.0
1001
ACAD
1000
AcDbSavedByObjectVersion
1070
     0
  0
DICTIONARYVAR
  5
629
102
{ACAD_REACTORS
330
626
102
}
330
626
100
DictionaryVariables
280
     0
  1
1:1
  0
DICTIONARYVAR
  5
628
102
{ACAD_REACTORS
330
626
102
}
330
626
100
DictionaryVariables
280
     0
  1
STANDARD
  0
DICTIONARYVAR
  5
627
102
{ACAD_REACTORS
330
626
102
}
330
626
100
DictionaryVariables
280
     0
  1
STANDARD
  0
DICTIONARYVAR
  5
922
102
{ACAD_REACTORS
330
626
102
}
330
626
100
DictionaryVariables
280
     0
  1
Metric50
  0
DICTIONARYVAR
  5
923
102
{ACAD_REACTORS
330
626
102
}
330
626
100
DictionaryVariables
280
     0
  1
Metric50
  0
DICTIONARYVAR
  5
92A
102
{ACAD_REACTORS
330
626
102
}
330
626
100
DictionaryVariables
280
     0
  1
2
  0
DICTIONARYVAR
  5
928
102
{ACAD_REACTORS
330
626
102
}
330
626
100
DictionaryVariables
280
     0
  1
1
  0
DICTIONARYVAR
  5
927
102
{ACAD_REACTORS
330
626
102
}
330
626
100
DictionaryVariables
280
     0
  1
0
  0
DICTIONARYVAR
  5
925
102
{ACAD_REACTORS
330
626
102
}
330
626
100
DictionaryVariables
280
     0
  1
2
  0
DICTIONARYVAR
  5
924
102
{ACAD_REACTORS
330
626
102
}
330
626
100
DictionaryVariables
280
     0
  1
1
  0
DICTIONARYVAR
  5
92B
102
{ACAD_REACTORS
330
626
102
}
330
626
100
DictionaryVariables
280
     0
  1
1
  0
DICTIONARYVAR
  5
926
102
{ACAD_REACTORS
330
626
102
}
330
626
100
DictionaryVariables
280
     0
  1
127
  0
DICTIONARYVAR
  5
929
102
{ACAD_REACTORS
330
626
102
}
330
626
100
DictionaryVariables
280
     0
  1
0
  0
DICTIONARY
  5
673
102
{ACAD_REACTORS
330
66C
102
}
330
66C
100
AcDbDictionary
281
     1
  0
XRECORD
  5
915
102
{ACAD_REACTORS
330
914
102
}
330
914
100
AcDbXrecord
280
     1
330
22B
330
22C
330
236
330
237
330
245
330
24F
330
250
330
746
330
747
  0
DICTIONARY
  5
96F
330
638
100
AcDbDictionary
280
     1
281
     1
  3
ACAD_XREC_ROUNDTRIP
360
970
  0
DICTIONARY
  5
932
330
5C6
100
AcDbDictionary
280
     1
281
     1
  3
ACAD_XREC_ROUNDTRIP
360
933
  0
DICTIONARY
  5
930
330
5C5
100
AcDbDictionary
280
     1
281
     1
  3
ACAD_XREC_ROUNDTRIP
360
931
  0
DICTIONARY
  5
5D5
330
5D4
100
AcDbDictionary
280
     1
281
     1
  3
ACAD_XREC_ROUNDTRIP
360
937
  3
BUMPTILE
360
5D7
  3
DIFFUSETILE
360
5D6
  3
OPACITYTILE
360
5DA
  3
REFLECTIONTILE
360
5D9
  3
REFRACTIONTILE
360
5DB
  3
SPECULARTILE
360
5D8
  0
DICTIONARY
  5
5CD
330
5CC
100
AcDbDictionary
280
     1
281
     1
  3
ACAD_XREC_ROUNDTRIP
360
936
  3
BUMPTILE
360
5CF
  3
DIFFUSETILE
360
5CE
  3
OPACITYTILE
360
5D2
  3
REFLECTIONTILE
360
5D1
  3
REFRACTIONTILE
360
5D3
  3
SPECULARTILE
360
5D0
  0
DICTIONARY
  5
5DD
330
5DC
100
AcDbDictionary
280
     1
281
     1
  3
ACAD_XREC_ROUNDTRIP
360
938
  3
BUMPTILE
360
5DF
  3
DIFFUSETILE
360
5DE
  3
OPACITYTILE
360
5E2
  3
REFLECTIONTILE
360
5E1
  3
REFRACTIONTILE
360
5E3
  3
SPECULARTILE
360
5E0
  0
DICTIONARY
  5
96D
330
636
100
AcDbDictionary
280
     1
281
     1
  3
ACAD_XREC_ROUNDTRIP
360
96E
  0
DICTIONARY
  5
621
330
5C7
100
AcDbDictionary
280
     1
281
     1
  3
ACAD_ROUNDTRIP_2008_TABLESTYLE_CELLSTYLEMAP
360
92C
  3
ACAD_XREC_ROUNDTRIP
360
934
  0
DICTIONARY
  5
623
330
5C8
100
AcDbDictionary
280
     1
281
     1
  3
ACAD_ROUNDTRIP_2008_TABLESTYLE_CELLSTYLEMAP
360
92D
  3
ACAD_XREC_ROUNDTRIP
360
935
  0
DICTIONARY
  5
943
330
5EA
100
AcDbDictionary
280
     1
281
     1
  3
ACAD_XREC_ROUNDTRIP
360
944
  0
DICTIONARY
  5
947
330
5EC
100
AcDbDictionary
280
     1
281
     1
  3
ACAD_XREC_ROUNDTRIP
360
948
  0
DICTIONARY
  5
945
330
5EB
100
AcDbDictionary
280
     1
281
     1
  3
ACAD_XREC_ROUNDTRIP
360
946
  0
DICTIONARY
  5
941
330
5E9
100
AcDbDictionary
280
     1
281
     1
  3
ACAD_XREC_ROUNDTRIP
360
942
  0
DICTIONARY
  5
94F
330
5F0
100
AcDbDictionary
280
     1
281
     1
  3
ACAD_XREC_ROUNDTRIP
360
950
  0
DICTIONARY
  5
957
330
5F4
100
AcDbDictionary
280
     1
281
     1
  3
ACAD_XREC_ROUNDTRIP
360
958
  0
DICTIONARY
  5
949
330
5ED
100
AcDbDictionary
280
     1
281
     1
  3
ACAD_XREC_ROUNDTRIP
360
94A
  0
DICTIONARY
  5
94D
330
5EF
100
AcDbDictionary
280
     1
281
     1
  3
ACAD_XREC_ROUNDTRIP
360
94E
  0
DICTIONARY
  5
96B
330
634
100
AcDbDictionary
280
     1
281
     1
  3
ACAD_XREC_ROUNDTRIP
360
96C
  0
DICTIONARY
  5
955
330
5F3
100
AcDbDictionary
280
     1
281
     1
  3
ACAD_XREC_ROUNDTRIP
360
956
  0
DICTIONARY
  5
939
330
5E5
100
AcDbDictionary
280
     1
281
     1
  3
ACAD_XREC_ROUNDTRIP
360
93A
  0
DICTIONARY
  5
93B
330
5E6
100
AcDbDictionary
280
     1
281
     1
  3
ACAD_XREC_ROUNDTRIP
360
93C
  0
DICTIONARY
  5
93D
330
5E7
100
AcDbDictionary
280
     1
281
     1
  3
ACAD_XREC_ROUNDTRIP
360
93E
  0
DICTIONARY
  5
93F
330
5E8
100
AcDbDictionary
280
     1
281
     1
  3
ACAD_XREC_ROUNDTRIP
360
940
  0
DICTIONARY
  5
95B
330
62C
100
AcDbDictionary
280
     1
281
     1
  3
ACAD_XREC_ROUNDTRIP
360
95C
  0
DICTIONARY
  5
967
330
632
100
AcDbDictionary
280
     1
281
     1
  3
ACAD_XREC_ROUNDTRIP
360
968
  0
DICTIONARY
  5
953
330
5F2
100
AcDbDictionary
280
     1
281
     1
  3
ACAD_XREC_ROUNDTRIP
360
954
  0
DICTIONARY
  5
969
330
633
100
AcDbDictionary
280
     1
281
     1
  3
ACAD_XREC_ROUNDTRIP
360
96A
  0
DICTIONARY
  5
94B
330
5EE
100
AcDbDictionary
280
     1
281
     1
  3
ACAD_XREC_ROUNDTRIP
360
94C
  0
DICTIONARY
  5
965
330
631
100
AcDbDictionary
280
     1
281
     1
  3
ACAD_XREC_ROUNDTRIP
360
966
  0
DICTIONARY
  5
963
330
630
100
AcDbDictionary
280
     1
281
     1
  3
ACAD_XREC_ROUNDTRIP
360
964
  0
DICTIONARY
  5
95D
330
62D
100
AcDbDictionary
280
     1
281
     1
  3
ACAD_XREC_ROUNDTRIP
360
95E
  0
DICTIONARY
  5
95F
330
62E
100
AcDbDictionary
280
     1
281
     1
  3
ACAD_XREC_ROUNDTRIP
360
960
  0
DICTIONARY
  5
951
330
5F1
100
AcDbDictionary
280
     1
281
     1
  3
ACAD_XREC_ROUNDTRIP
360
952
  0
DICTIONARY
  5
959
330
62B
100
AcDbDictionary
280
     1
281
     1
  3
ACAD_XREC_ROUNDTRIP
360
95A
  0
DICTIONARY
  5
961
330
62F
100
AcDbDictionary
280
     1
281
     1
  3
ACAD_XREC_ROUNDTRIP
360
962
  0
XRECORD
  5
970
102
{ACAD_REACTORS
330
96F
102
}
330
96F
100
AcDbXrecord
280
     1
102
DISPLAYNAME
  1
Metric50
102
FLAGS
 90
        0
  0
XRECORD
  5
933
102
{ACAD_REACTORS
330
932
102
}
330
932
100
AcDbXrecord
280
     1
102
SHADEPLOT
 70
     0
102
SHADEPLOTRESLEVEL
 70
     2
102
SHADEPLOTCUSTOMDPI
 70
   300
  0
XRECORD
  5
931
102
{ACAD_REACTORS
330
930
102
}
330
930
100
AcDbXrecord
280
     1
102
SHADEPLOT
 70
     0
102
SHADEPLOTRESLEVEL
 70
     2
102
SHADEPLOTCUSTOMDPI
 70
   300
  0
XRECORD
  5
937
102
{ACAD_REACTORS
330
5D5
102
}
330
5D5
100
AcDbXrecord
280
     1
102
MATERIAL
148
0.0
149
0.0
149
0.0
 93
        0
 94
      127
282
     0
 72
     0
 77
     0
171
     0
175
     0
179
     0
273
     0
  0
XRECORD
  5
5D7
102
{ACAD_REACTORS
330
5D5
102
}
330
5D5
100
AcDbXrecord
280
     1
270
     1
271
     1
  0
XRECORD
  5
5D6
102
{ACAD_REACTORS
330
5D5
102
}
330
5D5
100
AcDbXrecord
280
     1
270
     1
271
     1
  0
XRECORD
  5
5DA
102
{ACAD_REACTORS
330
5D5
102
}
330
5D5
100
AcDbXrecord
280
     1
270
     1
271
     1
  0
XRECORD
  5
5D9
102
{ACAD_REACTORS
330
5D5
102
}
330
5D5
100
AcDbXrecord
280
     1
270
     1
271
     1
  0
XRECORD
  5
5DB
102
{ACAD_REACTORS
330
5D5
102
}
330
5D5
100
AcDbXrecord
280
     1
270
     1
271
     1
  0
XRECORD
  5
5D8
102
{ACAD_REACTORS
330
5D5
102
}
330
5D5
100
AcDbXrecord
280
     1
270
     1
271
     1
  0
XRECORD
  5
936
102
{ACAD_REACTORS
330
5CD
102
}
330
5CD
100
AcDbXrecord
280
     1
102
MATERIAL
148
0.0
149
0.0
149
0.0
 93
        0
 94
      127
282
     0
 72
     0
 77
     0
171
     0
175
     0
179
     0
273
     0
  0
XRECORD
  5
5CF
102
{ACAD_REACTORS
330
5CD
102
}
330
5CD
100
AcDbXrecord
280
     1
270
     1
271
     1
  0
XRECORD
  5
5CE
102
{ACAD_REACTORS
330
5CD
102
}
330
5CD
100
AcDbXrecord
280
     1
270
     1
271
     1
  0
XRECORD
  5
5D2
102
{ACAD_REACTORS
330
5CD
102
}
330
5CD
100
AcDbXrecord
280
     1
270
     1
271
     1
  0
XRECORD
  5
5D1
102
{ACAD_REACTORS
330
5CD
102
}
330
5CD
100
AcDbXrecord
280
     1
270
     1
271
     1
  0
XRECORD
  5
5D3
102
{ACAD_REACTORS
330
5CD
102
}
330
5CD
100
AcDbXrecord
280
     1
270
     1
271
     1
  0
XRECORD
  5
5D0
102
{ACAD_REACTORS
330
5CD
102
}
330
5CD
100
AcDbXrecord
280
     1
270
     1
271
     1
  0
XRECORD
  5
938
102
{ACAD_REACTORS
330
5DD
102
}
330
5DD
100
AcDbXrecord
280
     1
102
MATERIAL
148
0.0
149
0.0
149
0.0
 93
        0
 94
      127
282
     0
 72
     0
 77
     0
171
     0
175
     0
179
     0
273
     0
  0
XRECORD
  5
5DF
102
{ACAD_REACTORS
330
5DD
102
}
330
5DD
100
AcDbXrecord
280
     1
270
     1
271
     1
  0
XRECORD
  5
5DE
102
{ACAD_REACTORS
330
5DD
102
}
330
5DD
100
AcDbXrecord
280
     1
270
     1
271
     1
  0
XRECORD
  5
5E2
102
{ACAD_REACTORS
330
5DD
102
}
330
5DD
100
AcDbXrecord
280
     1
270
     1
271
     1
  0
XRECORD
  5
5E1
102
{ACAD_REACTORS
330
5DD
102
}
330
5DD
100
AcDbXrecord
280
     1
270
     1
271
     1
  0
XRECORD
  5
5E3
102
{ACAD_REACTORS
330
5DD
102
}
330
5DD
100
AcDbXrecord
280
     1
270
     1
271
     1
  0
XRECORD
  5
5E0
102
{ACAD_REACTORS
330
5DD
102
}
330
5DD
100
AcDbXrecord
280
     1
270
     1
271
     1
  0
XRECORD
  5
96E
102
{ACAD_REACTORS
330
96D
102
}
330
96D
100
AcDbXrecord
280
     1
102
DISPLAYNAME
  1
Metric50
102
FLAGS
 90
        0
  0
CELLSTYLEMAP
  5
92C
102
{ACAD_REACTORS
330
621
102
}
330
621
100
AcDbCellStyleMap
 90
        3
300
CELLSTYLE
  1
TABLEFORMAT_BEGIN
 90
        5
170
     1
 91
        0
 92
    32768
 62
   257
 93
        1
300
CONTENTFORMAT
  1
CONTENTFORMAT_BEGIN
 90
        0
 91
        0
 92
      512
 93
        0
300

 40
0.0
140
1.0
 94
        1
 62
     0
340
11
144
0.18
309
CONTENTFORMAT_END
171
     0
 94
        0
309
TABLEFORMAT_END
  1
CELLSTYLE_BEGIN
 90
        1
 91
        1
300
_TITLE
309
CELLSTYLE_END
300
CELLSTYLE
  1
TABLEFORMAT_BEGIN
 90
        5
170
     1
 91
        0
 92
        0
 62
   257
 93
        1
300
CONTENTFORMAT
  1
CONTENTFORMAT_BEGIN
 90
        0
 91
        0
 92
      512
 93
        0
300

 40
0.0
140
1.0
 94
        1
 62
     0
340
11
144
0.18
309
CONTENTFORMAT_END
171
     0
 94
        0
309
TABLEFORMAT_END
  1
CELLSTYLE_BEGIN
 90
        2
 91
        1
300
_HEADER
309
CELLSTYLE_END
300
CELLSTYLE
  1
TABLEFORMAT_BEGIN
 90
        5
170
     1
 91
        0
 92
        0
 62
   257
 93
        1
300
CONTENTFORMAT
  1
CONTENTFORMAT_BEGIN
 90
        0
 91
        0
 92
      512
 93
        0
300

 40
0.0
140
1.0
 94
        1
 62
     0
340
11
144
0.18
309
CONTENTFORMAT_END
171
     0
 94
        0
309
TABLEFORMAT_END
  1
CELLSTYLE_BEGIN
 90
        3
 91
        2
300
_DATA
309
CELLSTYLE_END
  0
XRECORD
  5
934
102
{ACAD_REACTORS
330
621
102
}
330
621
100
AcDbXrecord
280
     1
102
ACAD_ROUNDTRIP_PRE2007_TABLESTYLE
 90
      512
 91
        0
  1

 92
      512
 93
        0
  2

 94
      512
 95
        0
  3

  0
CELLSTYLEMAP
  5
92D
102
{ACAD_REACTORS
330
623
102
}
330
623
100
AcDbCellStyleMap
 90
        3
300
CELLSTYLE
  1
TABLEFORMAT_BEGIN
 90
        5
170
     1
 91
        0
 92
    32768
 62
   257
 93
        1
300
CONTENTFORMAT
  1
CONTENTFORMAT_BEGIN
 90
        0
 91
        0
 92
      512
 93
        0
300

 40
0.0
140
1.0
 94
        1
 62
     0
340
11
144
0.18
309
CONTENTFORMAT_END
171
     0
 94
        0
309
TABLEFORMAT_END
  1
CELLSTYLE_BEGIN
 90
        1
 91
        1
300
_TITLE
309
CELLSTYLE_END
300
CELLSTYLE
  1
TABLEFORMAT_BEGIN
 90
        5
170
     1
 91
        0
 92
        0
 62
   257
 93
        1
300
CONTENTFORMAT
  1
CONTENTFORMAT_BEGIN
 90
        0
 91
        0
 92
      512
 93
        0
300

 40
0.0
140
1.0
 94
        1
 62
     0
340
11
144
0.18
309
CONTENTFORMAT_END
171
     0
 94
        0
309
TABLEFORMAT_END
  1
CELLSTYLE_BEGIN
 90
        2
 91
        1
300
_HEADER
309
CELLSTYLE_END
300
CELLSTYLE
  1
TABLEFORMAT_BEGIN
 90
        5
170
     1
 91
        0
 92
        0
 62
   257
 93
        1
300
CONTENTFORMAT
  1
CONTENTFORMAT_BEGIN
 90
        0
 91
        0
 92
      512
 93
        0
300

 40
0.0
140
1.0
 94
        1
 62
     0
340
11
144
0.18
309
CONTENTFORMAT_END
171
     0
 94
        0
309
TABLEFORMAT_END
  1
CELLSTYLE_BEGIN
 90
        3
 91
        2
300
_DATA
309
CELLSTYLE_END
  0
XRECORD
  5
935
102
{ACAD_REACTORS
330
623
102
}
330
623
100
AcDbXrecord
280
     1
102
ACAD_ROUNDTRIP_PRE2007_TABLESTYLE
 90
      512
 91
        0
  1

 92
      512
 93
        0
  2

 94
      512
 95
        0
  3

  0
XRECORD
  5
944
102
{ACAD_REACTORS
330
943
102
}
330
943
100
AcDbXrecord
280
     1
102
RTVSPost2010Prop28
280
     1
102
RTVSPost2010PropOp28
 70
     1
102
RTVSPost2010Prop29
280
     1
102
RTVSPost2010PropOp29
 70
     1
102
RTVSPost2010Prop30
280
     0
102
RTVSPost2010PropOp30
 70
     1
102
RTVSPost2010Prop31
280
     0
102
RTVSPost2010PropOp31
 70
     1
102
RTVSPost2010Prop32
280
     0
102
RTVSPost2010PropOp32
 70
     1
102
RTVSPost2010Prop33
280
     0
102
RTVSPost2010PropOp33
 70
     1
102
RTVSPost2010Prop34
280
     0
102
RTVSPost2010PropOp34
 70
     1
102
RTVSPost2010Prop35
280
     0
102
RTVSPost2010PropOp35
 70
     1
102
RTVSPost2010Prop36
280
     0
102
RTVSPost2010PropOp36
 70
     1
102
RTVSPost2010Prop37
 90
       50
102
RTVSPost2010PropOp37
 70
     1
102
RTVSPost2010Prop38
140
0.0
102
RTVSPost2010PropOp38
 70
     1
102
RTVSPost2010Prop39
140
1.0
102
RTVSPost2010PropOp39
 70
     1
102
RTVSPost2010Prop40
 90
        0
102
RTVSPost2010PropOp40
 70
     1
102
RTVSPost2010Prop41ColorIndex
 90
       18
102
RTVSPost2010Prop41ColorRGB
 90
        0
102
RTVSPost2010PropOp41
 70
     1
102
RTVSPost2010Prop42
 90
       50
102
RTVSPost2010PropOp42
 70
     1
102
RTVSPost2010Prop43
 90
        3
102
RTVSPost2010PropOp43
 70
     1
102
RTVSPost2010Prop44ColorIndex
 90
        5
102
RTVSPost2010Prop44ColorRGB
 90
      255
102
RTVSPost2010PropOp44
 70
     1
102
RTVSPost2010Prop45
280
     0
102
RTVSPost2010PropOp45
 70
     1
102
RTVSPost2010Prop46
 90
       50
102
RTVSPost2010PropOp46
 70
     1
102
RTVSPost2010Prop47
 90
       50
102
RTVSPost2010PropOp47
 70
     1
102
RTVSPost2010Prop48
 90
       50
102
RTVSPost2010PropOp48
 70
     1
102
RTVSPost2010Prop49
280
     0
102
RTVSPost2010PropOp49
 70
     1
102
RTVSPost2010Prop50
 90
       50
102
RTVSPost2010PropOp50
 70
     1
102
RTVSPost2010Prop51ColorIndex
 90
      256
102
RTVSPost2010Prop51ColorRGB
 90
-16777216
102
RTVSPost2010PropOp51
 70
     0
102
RTVSPost2010Prop52
140
1.0
102
RTVSPost2010PropOp52
 70
     0
102
RTVSPost2010Prop53
 90
        2
102
RTVSPost2010PropOp53
 70
     1
102
RTVSPost2010Prop54
  1
strokes_ogs.tif
102
RTVSPost2010PropOp54
 70
     1
102
RTVSPost2010Prop55
280
     0
102
RTVSPost2010PropOp55
 70
     1
102
RTVSPost2010Prop56
140
1.0
102
RTVSPost2010PropOp56
 70
     1
102
RTVSPost2010Prop57
140
1.0
102
RTVSPost2010PropOp57
 70
     1
102
RTVSPropertyOp0
 70
     1
102
RTVSPropertyOp1
 70
     1
102
RTVSPropertyOp2
 70
     1
102
RTVSPropertyOp3
 70
     1
102
RTVSPropertyOp4
 70
     1
102
RTVSPropertyOp5
 70
     1
102
RTVSPropertyOp6
 70
     1
102
RTVSPropertyOp7
 70
     1
102
RTVSPropertyOp8
 70
     1
102
RTVSPropertyOp9
 70
     1
102
RTVSPropertyOp10
 70
     1
102
RTVSPropertyOp11
 70
     1
102
RTVSPropertyOp12
 70
     1
102
RTVSPropertyOp13
 70
     1
102
RTVSPropertyOp14
 70
     1
102
RTVSPropertyOp15
 70
     1
102
RTVSPropertyOp16
 70
     1
102
RTVSPropertyOp17
 70
     1
102
RTVSPropertyOp18
 70
     1
102
RTVSPropertyOp19
 70
     1
102
RTVSPropertyOp20
 70
     1
102
RTVSPropertyOp21
 70
     1
102
RTVSPropertyOp22
 70
     1
102
RTVSPropertyOp23
 70
     1
102
RTVSPropertyOp24
 70
     1
102
RTVSPropertyOp25
 70
     1
102
RTVSPropertyOp26
 70
     1
102
RTVSPropertyOp27
 70
     1
102
RTVSPropertyOp28
 70
     1
102
RTVSPropertyOp29
 70
     1
102
RTVSPropertyOp30
 70
     1
102
RTVSPropertyOp31
 70
     1
102
RTVSPropertyOp32
 70
     1
102
RTVSPropertyOp33
 70
     1
102
RTVSPropertyOp34
 70
     1
102
RTVSPropertyOp35
 70
     1
102
RTVSPropertyOp36
 70
     1
102
RTVSPropertyOp37
 70
     1
102
RTVSPropertyOp38
 70
     1
102
RTVSPropertyOp39
 70
     1
102
RTVSPropertyOp40
 70
     1
102
RTVSPropertyOp41
 70
     1
102
RTVSPropertyOp42
 70
     1
102
RTVSPropertyOp43
 70
     1
102
RTVSPropertyOp44
 70
     1
102
RTVSPropertyOp45
 70
     1
102
RTVSPropertyOp46
 70
     1
102
RTVSPropertyOp47
 70
     1
102
RTVSPropertyOp48
 70
     1
102
RTVSPropertyOp49
 70
     1
102
RTVSPropertyOp50
 70
     1
102
RTVSPropertyOp51
 70
     0
102
RTVSPropertyOp52
 70
     0
102
RTVSPropertyOp53
 70
     1
102
RTVSPropertyOp54
 70
     1
102
RTVSPropertyOp55
 70
     1
102
RTVSPropertyOp56
 70
     1
102
RTVSPropertyOp57
 70
     1
102
RTVSPropertyOp58
 70
     1
102
RTVSPropertyOp59
 70
     1
102
RTVSPropertyOp60
 70
     1
102
RTVSPropertyOp61
 70
     1
102
RTVSPropertyOp62
 70
     1
  0
XRECORD
  5
948
102
{ACAD_REACTORS
330
947
102
}
330
947
100
AcDbXrecord
280
     1
102
RTVSPost2010Prop28
280
     0
102
RTVSPost2010PropOp28
 70
     1
102
RTVSPost2010Prop29
280
     1
102
RTVSPost2010PropOp29
 70
     1
102
RTVSPost2010Prop30
280
     1
102
RTVSPost2010PropOp30
 70
     1
102
RTVSPost2010Prop31
280
     0
102
RTVSPost2010PropOp31
 70
     1
102
RTVSPost2010Prop32
280
     0
102
RTVSPost2010PropOp32
 70
     1
102
RTVSPost2010Prop33
280
     0
102
RTVSPost2010PropOp33
 70
     1
102
RTVSPost2010Prop34
280
     0
102
RTVSPost2010PropOp34
 70
     1
102
RTVSPost2010Prop35
280
     0
102
RTVSPost2010PropOp35
 70
     1
102
RTVSPost2010Prop36
280
     0
102
RTVSPost2010PropOp36
 70
     1
102
RTVSPost2010Prop37
 90
       50
102
RTVSPost2010PropOp37
 70
     1
102
RTVSPost2010Prop38
140
0.0
102
RTVSPost2010PropOp38
 70
     1
102
RTVSPost2010Prop39
140
1.0
102
RTVSPost2010PropOp39
 70
     1
102
RTVSPost2010Prop40
 90
        0
102
RTVSPost2010PropOp40
 70
     1
102
RTVSPost2010Prop41ColorIndex
 90
       18
102
RTVSPost2010Prop41ColorRGB
 90
        0
102
RTVSPost2010PropOp41
 70
     1
102
RTVSPost2010Prop42
 90
       50
102
RTVSPost2010PropOp42
 70
     1
102
RTVSPost2010Prop43
 90
        3
102
RTVSPost2010PropOp43
 70
     1
102
RTVSPost2010Prop44ColorIndex
 90
        5
102
RTVSPost2010Prop44ColorRGB
 90
      255
102
RTVSPost2010PropOp44
 70
     1
102
RTVSPost2010Prop45
280
     0
102
RTVSPost2010PropOp45
 70
     1
102
RTVSPost2010Prop46
 90
       50
102
RTVSPost2010PropOp46
 70
     1
102
RTVSPost2010Prop47
 90
       50
102
RTVSPost2010PropOp47
 70
     1
102
RTVSPost2010Prop48
 90
       50
102
RTVSPost2010PropOp48
 70
     1
102
RTVSPost2010Prop49
280
     0
102
RTVSPost2010PropOp49
 70
     1
102
RTVSPost2010Prop50
 90
       50
102
RTVSPost2010PropOp50
 70
     1
102
RTVSPost2010Prop51ColorIndex
 90
      256
102
RTVSPost2010Prop51ColorRGB
 90
-16777216
102
RTVSPost2010PropOp51
 70
     0
102
RTVSPost2010Prop52
140
1.0
102
RTVSPost2010PropOp52
 70
     0
102
RTVSPost2010Prop53
 90
        2
102
RTVSPost2010PropOp53
 70
     1
102
RTVSPost2010Prop54
  1
strokes_ogs.tif
102
RTVSPost2010PropOp54
 70
     1
102
RTVSPost2010Prop55
280
     0
102
RTVSPost2010PropOp55
 70
     1
102
RTVSPost2010Prop56
140
1.0
102
RTVSPost2010PropOp56
 70
     1
102
RTVSPost2010Prop57
140
1.0
102
RTVSPost2010PropOp57
 70
     1
102
RTVSPropertyOp0
 70
     1
102
RTVSPropertyOp1
 70
     1
102
RTVSPropertyOp2
 70
     1
102
RTVSPropertyOp3
 70
     1
102
RTVSPropertyOp4
 70
     1
102
RTVSPropertyOp5
 70
     1
102
RTVSPropertyOp6
 70
     1
102
RTVSPropertyOp7
 70
     1
102
RTVSPropertyOp8
 70
     1
102
RTVSPropertyOp9
 70
     1
102
RTVSPropertyOp10
 70
     1
102
RTVSPropertyOp11
 70
     1
102
RTVSPropertyOp12
 70
     1
102
RTVSPropertyOp13
 70
     1
102
RTVSPropertyOp14
 70
     1
102
RTVSPropertyOp15
 70
     1
102
RTVSPropertyOp16
 70
     1
102
RTVSPropertyOp17
 70
     1
102
RTVSPropertyOp18
 70
     1
102
RTVSPropertyOp19
 70
     1
102
RTVSPropertyOp20
 70
     1
102
RTVSPropertyOp21
 70
     1
102
RTVSPropertyOp22
 70
     1
102
RTVSPropertyOp23
 70
     1
102
RTVSPropertyOp24
 70
     1
102
RTVSPropertyOp25
 70
     1
102
RTVSPropertyOp26
 70
     1
102
RTVSPropertyOp27
 70
     1
102
RTVSPropertyOp28
 70
     1
102
RTVSPropertyOp29
 70
     1
102
RTVSPropertyOp30
 70
     1
102
RTVSPropertyOp31
 70
     1
102
RTVSPropertyOp32
 70
     1
102
RTVSPropertyOp33
 70
     1
102
RTVSPropertyOp34
 70
     1
102
RTVSPropertyOp35
 70
     1
102
RTVSPropertyOp36
 70
     1
102
RTVSPropertyOp37
 70
     1
102
RTVSPropertyOp38
 70
     1
102
RTVSPropertyOp39
 70
     1
102
RTVSPropertyOp40
 70
     1
102
RTVSPropertyOp41
 70
     1
102
RTVSPropertyOp42
 70
     1
102
RTVSPropertyOp43
 70
     1
102
RTVSPropertyOp44
 70
     1
102
RTVSPropertyOp45
 70
     1
102
RTVSPropertyOp46
 70
     1
102
RTVSPropertyOp47
 70
     1
102
RTVSPropertyOp48
 70
     1
102
RTVSPropertyOp49
 70
     1
102
RTVSPropertyOp50
 70
     1
102
RTVSPropertyOp51
 70
     0
102
RTVSPropertyOp52
 70
     0
102
RTVSPropertyOp53
 70
     1
102
RTVSPropertyOp54
 70
     1
102
RTVSPropertyOp55
 70
     1
102
RTVSPropertyOp56
 70
     1
102
RTVSPropertyOp57
 70
     1
102
RTVSPropertyOp58
 70
     1
102
RTVSPropertyOp59
 70
     1
102
RTVSPropertyOp60
 70
     1
102
RTVSPropertyOp61
 70
     1
102
RTVSPropertyOp62
 70
     1
  0
XRECORD
  5
946
102
{ACAD_REACTORS
330
945
102
}
330
945
100
AcDbXrecord
280
     1
102
RTVSPost2010Prop28
280
     0
102
RTVSPost2010PropOp28
 70
     1
102
RTVSPost2010Prop29
280
     1
102
RTVSPost2010PropOp29
 70
     1
102
RTVSPost2010Prop30
280
     1
102
RTVSPost2010PropOp30
 70
     1
102
RTVSPost2010Prop31
280
     0
102
RTVSPost2010PropOp31
 70
     1
102
RTVSPost2010Prop32
280
     0
102
RTVSPost2010PropOp32
 70
     1
102
RTVSPost2010Prop33
280
     0
102
RTVSPost2010PropOp33
 70
     1
102
RTVSPost2010Prop34
280
     0
102
RTVSPost2010PropOp34
 70
     1
102
RTVSPost2010Prop35
280
     0
102
RTVSPost2010PropOp35
 70
     1
102
RTVSPost2010Prop36
280
     0
102
RTVSPost2010PropOp36
 70
     1
102
RTVSPost2010Prop37
 90
       50
102
RTVSPost2010PropOp37
 70
     1
102
RTVSPost2010Prop38
140
0.0
102
RTVSPost2010PropOp38
 70
     1
102
RTVSPost2010Prop39
140
1.0
102
RTVSPost2010PropOp39
 70
     1
102
RTVSPost2010Prop40
 90
        0
102
RTVSPost2010PropOp40
 70
     1
102
RTVSPost2010Prop41ColorIndex
 90
       18
102
RTVSPost2010Prop41ColorRGB
 90
        0
102
RTVSPost2010PropOp41
 70
     1
102
RTVSPost2010Prop42
 90
       50
102
RTVSPost2010PropOp42
 70
     1
102
RTVSPost2010Prop43
 90
        3
102
RTVSPost2010PropOp43
 70
     1
102
RTVSPost2010Prop44ColorIndex
 90
        5
102
RTVSPost2010Prop44ColorRGB
 90
      255
102
RTVSPost2010PropOp44
 70
     1
102
RTVSPost2010Prop45
280
     0
102
RTVSPost2010PropOp45
 70
     1
102
RTVSPost2010Prop46
 90
       50
102
RTVSPost2010PropOp46
 70
     1
102
RTVSPost2010Prop47
 90
       50
102
RTVSPost2010PropOp47
 70
     1
102
RTVSPost2010Prop48
 90
       50
102
RTVSPost2010PropOp48
 70
     1
102
RTVSPost2010Prop49
280
     0
102
RTVSPost2010PropOp49
 70
     1
102
RTVSPost2010Prop50
 90
       50
102
RTVSPost2010PropOp50
 70
     1
102
RTVSPost2010Prop51ColorIndex
 90
      256
102
RTVSPost2010Prop51ColorRGB
 90
-16777216
102
RTVSPost2010PropOp51
 70
     0
102
RTVSPost2010Prop52
140
1.0
102
RTVSPost2010PropOp52
 70
     0
102
RTVSPost2010Prop53
 90
        2
102
RTVSPost2010PropOp53
 70
     1
102
RTVSPost2010Prop54
  1
strokes_ogs.tif
102
RTVSPost2010PropOp54
 70
     1
102
RTVSPost2010Prop55
280
     0
102
RTVSPost2010PropOp55
 70
     1
102
RTVSPost2010Prop56
140
1.0
102
RTVSPost2010PropOp56
 70
     1
102
RTVSPost2010Prop57
140
1.0
102
RTVSPost2010PropOp57
 70
     1
102
RTVSPropertyOp0
 70
     1
102
RTVSPropertyOp1
 70
     1
102
RTVSPropertyOp2
 70
     1
102
RTVSPropertyOp3
 70
     1
102
RTVSPropertyOp4
 70
     1
102
RTVSPropertyOp5
 70
     1
102
RTVSPropertyOp6
 70
     1
102
RTVSPropertyOp7
 70
     1
102
RTVSPropertyOp8
 70
     1
102
RTVSPropertyOp9
 70
     1
102
RTVSPropertyOp10
 70
     1
102
RTVSPropertyOp11
 70
     1
102
RTVSPropertyOp12
 70
     1
102
RTVSPropertyOp13
 70
     1
102
RTVSPropertyOp14
 70
     1
102
RTVSPropertyOp15
 70
     1
102
RTVSPropertyOp16
 70
     1
102
RTVSPropertyOp17
 70
     1
102
RTVSPropertyOp18
 70
     1
102
RTVSPropertyOp19
 70
     1
102
RTVSPropertyOp20
 70
     1
102
RTVSPropertyOp21
 70
     1
102
RTVSPropertyOp22
 70
     1
102
RTVSPropertyOp23
 70
     1
102
RTVSPropertyOp24
 70
     1
102
RTVSPropertyOp25
 70
     1
102
RTVSPropertyOp26
 70
     1
102
RTVSPropertyOp27
 70
     1
102
RTVSPropertyOp28
 70
     1
102
RTVSPropertyOp29
 70
     1
102
RTVSPropertyOp30
 70
     1
102
RTVSPropertyOp31
 70
     1
102
RTVSPropertyOp32
 70
     1
102
RTVSPropertyOp33
 70
     1
102
RTVSPropertyOp34
 70
     1
102
RTVSPropertyOp35
 70
     1
102
RTVSPropertyOp36
 70
     1
102
RTVSPropertyOp37
 70
     1
102
RTVSPropertyOp38
 70
     1
102
RTVSPropertyOp39
 70
     1
102
RTVSPropertyOp40
 70
     1
102
RTVSPropertyOp41
 70
     1
102
RTVSPropertyOp42
 70
     1
102
RTVSPropertyOp43
 70
     1
102
RTVSPropertyOp44
 70
     1
102
RTVSPropertyOp45
 70
     1
102
RTVSPropertyOp46
 70
     1
102
RTVSPropertyOp47
 70
     1
102
RTVSPropertyOp48
 70
     1
102
RTVSPropertyOp49
 70
     1
102
RTVSPropertyOp50
 70
     1
102
RTVSPropertyOp51
 70
     0
102
RTVSPropertyOp52
 70
     0
102
RTVSPropertyOp53
 70
     1
102
RTVSPropertyOp54
 70
     1
102
RTVSPropertyOp55
 70
     1
102
RTVSPropertyOp56
 70
     1
102
RTVSPropertyOp57
 70
     1
102
RTVSPropertyOp58
 70
     1
102
RTVSPropertyOp59
 70
     1
102
RTVSPropertyOp60
 70
     1
102
RTVSPropertyOp61
 70
     1
102
RTVSPropertyOp62
 70
     1
  0
XRECORD
  5
942
102
{ACAD_REACTORS
330
941
102
}
330
941
100
AcDbXrecord
280
     1
102
RTVSPost2010Prop28
280
     0
102
RTVSPost2010PropOp28
 70
     1
102
RTVSPost2010Prop29
280
     1
102
RTVSPost2010PropOp29
 70
     1
102
RTVSPost2010Prop30
280
     1
102
RTVSPost2010PropOp30
 70
     1
102
RTVSPost2010Prop31
280
     0
102
RTVSPost2010PropOp31
 70
     1
102
RTVSPost2010Prop32
280
     0
102
RTVSPost2010PropOp32
 70
     1
102
RTVSPost2010Prop33
280
     0
102
RTVSPost2010PropOp33
 70
     1
102
RTVSPost2010Prop34
280
     0
102
RTVSPost2010PropOp34
 70
     1
102
RTVSPost2010Prop35
280
     0
102
RTVSPost2010PropOp35
 70
     1
102
RTVSPost2010Prop36
280
     0
102
RTVSPost2010PropOp36
 70
     1
102
RTVSPost2010Prop37
 90
       50
102
RTVSPost2010PropOp37
 70
     1
102
RTVSPost2010Prop38
140
0.0
102
RTVSPost2010PropOp38
 70
     1
102
RTVSPost2010Prop39
140
1.0
102
RTVSPost2010PropOp39
 70
     1
102
RTVSPost2010Prop40
 90
        0
102
RTVSPost2010PropOp40
 70
     1
102
RTVSPost2010Prop41ColorIndex
 90
       18
102
RTVSPost2010Prop41ColorRGB
 90
        0
102
RTVSPost2010PropOp41
 70
     1
102
RTVSPost2010Prop42
 90
       50
102
RTVSPost2010PropOp42
 70
     1
102
RTVSPost2010Prop43
 90
        3
102
RTVSPost2010PropOp43
 70
     1
102
RTVSPost2010Prop44ColorIndex
 90
        5
102
RTVSPost2010Prop44ColorRGB
 90
      255
102
RTVSPost2010PropOp44
 70
     1
102
RTVSPost2010Prop45
280
     0
102
RTVSPost2010PropOp45
 70
     1
102
RTVSPost2010Prop46
 90
       50
102
RTVSPost2010PropOp46
 70
     1
102
RTVSPost2010Prop47
 90
       50
102
RTVSPost2010PropOp47
 70
     1
102
RTVSPost2010Prop48
 90
       50
102
RTVSPost2010PropOp48
 70
     1
102
RTVSPost2010Prop49
280
     0
102
RTVSPost2010PropOp49
 70
     1
102
RTVSPost2010Prop50
 90
       50
102
RTVSPost2010PropOp50
 70
     1
102
RTVSPost2010Prop51ColorIndex
 90
      256
102
RTVSPost2010Prop51ColorRGB
 90
-16777216
102
RTVSPost2010PropOp51
 70
     0
102
RTVSPost2010Prop52
140
1.0
102
RTVSPost2010PropOp52
 70
     0
102
RTVSPost2010Prop53
 90
        2
102
RTVSPost2010PropOp53
 70
     1
102
RTVSPost2010Prop54
  1
strokes_ogs.tif
102
RTVSPost2010PropOp54
 70
     1
102
RTVSPost2010Prop55
280
     0
102
RTVSPost2010PropOp55
 70
     1
102
RTVSPost2010Prop56
140
1.0
102
RTVSPost2010PropOp56
 70
     1
102
RTVSPost2010Prop57
140
1.0
102
RTVSPost2010PropOp57
 70
     1
102
RTVSPropertyOp0
 70
     1
102
RTVSPropertyOp1
 70
     1
102
RTVSPropertyOp2
 70
     1
102
RTVSPropertyOp3
 70
     1
102
RTVSPropertyOp4
 70
     1
102
RTVSPropertyOp5
 70
     1
102
RTVSPropertyOp6
 70
     1
102
RTVSPropertyOp7
 70
     1
102
RTVSPropertyOp8
 70
     1
102
RTVSPropertyOp9
 70
     1
102
RTVSPropertyOp10
 70
     1
102
RTVSPropertyOp11
 70
     1
102
RTVSPropertyOp12
 70
     1
102
RTVSPropertyOp13
 70
     1
102
RTVSPropertyOp14
 70
     1
102
RTVSPropertyOp15
 70
     1
102
RTVSPropertyOp16
 70
     1
102
RTVSPropertyOp17
 70
     1
102
RTVSPropertyOp18
 70
     1
102
RTVSPropertyOp19
 70
     1
102
RTVSPropertyOp20
 70
     1
102
RTVSPropertyOp21
 70
     1
102
RTVSPropertyOp22
 70
     1
102
RTVSPropertyOp23
 70
     1
102
RTVSPropertyOp24
 70
     1
102
RTVSPropertyOp25
 70
     1
102
RTVSPropertyOp26
 70
     1
102
RTVSPropertyOp27
 70
     1
102
RTVSPropertyOp28
 70
     1
102
RTVSPropertyOp29
 70
     1
102
RTVSPropertyOp30
 70
     1
102
RTVSPropertyOp31
 70
     1
102
RTVSPropertyOp32
 70
     1
102
RTVSPropertyOp33
 70
     1
102
RTVSPropertyOp34
 70
     1
102
RTVSPropertyOp35
 70
     1
102
RTVSPropertyOp36
 70
     1
102
RTVSPropertyOp37
 70
     1
102
RTVSPropertyOp38
 70
     1
102
RTVSPropertyOp39
 70
     1
102
RTVSPropertyOp40
 70
     1
102
RTVSPropertyOp41
 70
     1
102
RTVSPropertyOp42
 70
     1
102
RTVSPropertyOp43
 70
     1
102
RTVSPropertyOp44
 70
     1
102
RTVSPropertyOp45
 70
     1
102
RTVSPropertyOp46
 70
     1
102
RTVSPropertyOp47
 70
     1
102
RTVSPropertyOp48
 70
     1
102
RTVSPropertyOp49
 70
     1
102
RTVSPropertyOp50
 70
     1
102
RTVSPropertyOp51
 70
     0
102
RTVSPropertyOp52
 70
     0
102
RTVSPropertyOp53
 70
     1
102
RTVSPropertyOp54
 70
     1
102
RTVSPropertyOp55
 70
     1
102
RTVSPropertyOp56
 70
     1
102
RTVSPropertyOp57
 70
     1
102
RTVSPropertyOp58
 70
     1
102
RTVSPropertyOp59
 70
     1
102
RTVSPropertyOp60
 70
     1
102
RTVSPropertyOp61
 70
     1
102
RTVSPropertyOp62
 70
     1
  0
XRECORD
  5
950
102
{ACAD_REACTORS
330
94F
102
}
330
94F
100
AcDbXrecord
280
     1
102
RTVSPost2010Prop28
280
     0
102
RTVSPost2010PropOp28
 70
     1
102
RTVSPost2010Prop29
280
     1
102
RTVSPost2010PropOp29
 70
     1
102
RTVSPost2010Prop30
280
     1
102
RTVSPost2010PropOp30
 70
     1
102
RTVSPost2010Prop31
280
     0
102
RTVSPost2010PropOp31
 70
     1
102
RTVSPost2010Prop32
280
     0
102
RTVSPost2010PropOp32
 70
     1
102
RTVSPost2010Prop33
280
     0
102
RTVSPost2010PropOp33
 70
     1
102
RTVSPost2010Prop34
280
     0
102
RTVSPost2010PropOp34
 70
     1
102
RTVSPost2010Prop35
280
     0
102
RTVSPost2010PropOp35
 70
     1
102
RTVSPost2010Prop36
280
     0
102
RTVSPost2010PropOp36
 70
     1
102
RTVSPost2010Prop37
 90
       50
102
RTVSPost2010PropOp37
 70
     1
102
RTVSPost2010Prop38
140
0.0
102
RTVSPost2010PropOp38
 70
     1
102
RTVSPost2010Prop39
140
1.0
102
RTVSPost2010PropOp39
 70
     1
102
RTVSPost2010Prop40
 90
        0
102
RTVSPost2010PropOp40
 70
     1
102
RTVSPost2010Prop41ColorIndex
 90
       18
102
RTVSPost2010Prop41ColorRGB
 90
        0
102
RTVSPost2010PropOp41
 70
     1
102
RTVSPost2010Prop42
 90
       50
102
RTVSPost2010PropOp42
 70
     1
102
RTVSPost2010Prop43
 90
        3
102
RTVSPost2010PropOp43
 70
     1
102
RTVSPost2010Prop44ColorIndex
 90
        5
102
RTVSPost2010Prop44ColorRGB
 90
      255
102
RTVSPost2010PropOp44
 70
     1
102
RTVSPost2010Prop45
280
     0
102
RTVSPost2010PropOp45
 70
     1
102
RTVSPost2010Prop46
 90
       50
102
RTVSPost2010PropOp46
 70
     1
102
RTVSPost2010Prop47
 90
       50
102
RTVSPost2010PropOp47
 70
     1
102
RTVSPost2010Prop48
 90
       50
102
RTVSPost2010PropOp48
 70
     1
102
RTVSPost2010Prop49
280
     0
102
RTVSPost2010PropOp49
 70
     1
102
RTVSPost2010Prop50
 90
       50
102
RTVSPost2010PropOp50
 70
     1
102
RTVSPost2010Prop51ColorIndex
 90
      256
102
RTVSPost2010Prop51ColorRGB
 90
-16777216
102
RTVSPost2010PropOp51
 70
     0
102
RTVSPost2010Prop52
140
1.0
102
RTVSPost2010PropOp52
 70
     0
102
RTVSPost2010Prop53
 90
        2
102
RTVSPost2010PropOp53
 70
     1
102
RTVSPost2010Prop54
  1
strokes_ogs.tif
102
RTVSPost2010PropOp54
 70
     1
102
RTVSPost2010Prop55
280
     0
102
RTVSPost2010PropOp55
 70
     1
102
RTVSPost2010Prop56
140
1.0
102
RTVSPost2010PropOp56
 70
     1
102
RTVSPost2010Prop57
140
1.0
102
RTVSPost2010PropOp57
 70
     1
102
RTVSPropertyOp0
 70
     1
102
RTVSPropertyOp1
 70
     1
102
RTVSPropertyOp2
 70
     1
102
RTVSPropertyOp3
 70
     1
102
RTVSPropertyOp4
 70
     1
102
RTVSPropertyOp5
 70
     1
102
RTVSPropertyOp6
 70
     1
102
RTVSPropertyOp7
 70
     1
102
RTVSPropertyOp8
 70
     1
102
RTVSPropertyOp9
 70
     1
102
RTVSPropertyOp10
 70
     1
102
RTVSPropertyOp11
 70
     1
102
RTVSPropertyOp12
 70
     1
102
RTVSPropertyOp13
 70
     1
102
RTVSPropertyOp14
 70
     1
102
RTVSPropertyOp15
 70
     1
102
RTVSPropertyOp16
 70
     1
102
RTVSPropertyOp17
 70
     1
102
RTVSPropertyOp18
 70
     1
102
RTVSPropertyOp19
 70
     1
102
RTVSPropertyOp20
 70
     1
102
RTVSPropertyOp21
 70
     1
102
RTVSPropertyOp22
 70
     1
102
RTVSPropertyOp23
 70
     1
102
RTVSPropertyOp24
 70
     1
102
RTVSPropertyOp25
 70
     1
102
RTVSPropertyOp26
 70
     1
102
RTVSPropertyOp27
 70
     1
102
RTVSPropertyOp28
 70
     1
102
RTVSPropertyOp29
 70
     1
102
RTVSPropertyOp30
 70
     1
102
RTVSPropertyOp31
 70
     1
102
RTVSPropertyOp32
 70
     1
102
RTVSPropertyOp33
 70
     1
102
RTVSPropertyOp34
 70
     1
102
RTVSPropertyOp35
 70
     1
102
RTVSPropertyOp36
 70
     1
102
RTVSPropertyOp37
 70
     1
102
RTVSPropertyOp38
 70
     1
102
RTVSPropertyOp39
 70
     1
102
RTVSPropertyOp40
 70
     1
102
RTVSPropertyOp41
 70
     1
102
RTVSPropertyOp42
 70
     1
102
RTVSPropertyOp43
 70
     1
102
RTVSPropertyOp44
 70
     1
102
RTVSPropertyOp45
 70
     1
102
RTVSPropertyOp46
 70
     1
102
RTVSPropertyOp47
 70
     1
102
RTVSPropertyOp48
 70
     1
102
RTVSPropertyOp49
 70
     1
102
RTVSPropertyOp50
 70
     1
102
RTVSPropertyOp51
 70
     0
102
RTVSPropertyOp52
 70
     0
102
RTVSPropertyOp53
 70
     1
102
RTVSPropertyOp54
 70
     1
102
RTVSPropertyOp55
 70
     1
102
RTVSPropertyOp56
 70
     1
102
RTVSPropertyOp57
 70
     1
102
RTVSPropertyOp58
 70
     1
102
RTVSPropertyOp59
 70
     1
102
RTVSPropertyOp60
 70
     1
102
RTVSPropertyOp61
 70
     1
102
RTVSPropertyOp62
 70
     1
  0
XRECORD
  5
958
102
{ACAD_REACTORS
330
957
102
}
330
957
100
AcDbXrecord
280
     1
102
RTVSPost2010Prop28
280
     0
102
RTVSPost2010PropOp28
 70
     1
102
RTVSPost2010Prop29
280
     1
102
RTVSPost2010PropOp29
 70
     1
102
RTVSPost2010Prop30
280
     1
102
RTVSPost2010PropOp30
 70
     1
102
RTVSPost2010Prop31
280
     0
102
RTVSPost2010PropOp31
 70
     1
102
RTVSPost2010Prop32
280
     0
102
RTVSPost2010PropOp32
 70
     1
102
RTVSPost2010Prop33
280
     0
102
RTVSPost2010PropOp33
 70
     1
102
RTVSPost2010Prop34
280
     0
102
RTVSPost2010PropOp34
 70
     1
102
RTVSPost2010Prop35
280
     0
102
RTVSPost2010PropOp35
 70
     1
102
RTVSPost2010Prop36
280
     0
102
RTVSPost2010PropOp36
 70
     1
102
RTVSPost2010Prop37
 90
       50
102
RTVSPost2010PropOp37
 70
     1
102
RTVSPost2010Prop38
140
0.0
102
RTVSPost2010PropOp38
 70
     1
102
RTVSPost2010Prop39
140
1.0
102
RTVSPost2010PropOp39
 70
     1
102
RTVSPost2010Prop40
 90
        0
102
RTVSPost2010PropOp40
 70
     1
102
RTVSPost2010Prop41ColorIndex
 90
       18
102
RTVSPost2010Prop41ColorRGB
 90
        0
102
RTVSPost2010PropOp41
 70
     1
102
RTVSPost2010Prop42
 90
       50
102
RTVSPost2010PropOp42
 70
     1
102
RTVSPost2010Prop43
 90
        3
102
RTVSPost2010PropOp43
 70
     1
102
RTVSPost2010Prop44ColorIndex
 90
        5
102
RTVSPost2010Prop44ColorRGB
 90
      255
102
RTVSPost2010PropOp44
 70
     1
102
RTVSPost2010Prop45
280
     0
102
RTVSPost2010PropOp45
 70
     1
102
RTVSPost2010Prop46
 90
       50
102
RTVSPost2010PropOp46
 70
     1
102
RTVSPost2010Prop47
 90
       50
102
RTVSPost2010PropOp47
 70
     1
102
RTVSPost2010Prop48
 90
       50
102
RTVSPost2010PropOp48
 70
     1
102
RTVSPost2010Prop49
280
     0
102
RTVSPost2010PropOp49
 70
     1
102
RTVSPost2010Prop50
 90
       50
102
RTVSPost2010PropOp50
 70
     1
102
RTVSPost2010Prop51ColorIndex
 90
      256
102
RTVSPost2010Prop51ColorRGB
 90
-16777216
102
RTVSPost2010PropOp51
 70
     0
102
RTVSPost2010Prop52
140
1.0
102
RTVSPost2010PropOp52
 70
     0
102
RTVSPost2010Prop53
 90
        2
102
RTVSPost2010PropOp53
 70
     1
102
RTVSPost2010Prop54
  1
strokes_ogs.tif
102
RTVSPost2010PropOp54
 70
     1
102
RTVSPost2010Prop55
280
     0
102
RTVSPost2010PropOp55
 70
     1
102
RTVSPost2010Prop56
140
1.0
102
RTVSPost2010PropOp56
 70
     1
102
RTVSPost2010Prop57
140
1.0
102
RTVSPost2010PropOp57
 70
     1
102
RTVSPropertyOp0
 70
     1
102
RTVSPropertyOp1
 70
     1
102
RTVSPropertyOp2
 70
     1
102
RTVSPropertyOp3
 70
     1
102
RTVSPropertyOp4
 70
     1
102
RTVSPropertyOp5
 70
     1
102
RTVSPropertyOp6
 70
     1
102
RTVSPropertyOp7
 70
     1
102
RTVSPropertyOp8
 70
     1
102
RTVSPropertyOp9
 70
     1
102
RTVSPropertyOp10
 70
     1
102
RTVSPropertyOp11
 70
     1
102
RTVSPropertyOp12
 70
     1
102
RTVSPropertyOp13
 70
     1
102
RTVSPropertyOp14
 70
     1
102
RTVSPropertyOp15
 70
     1
102
RTVSPropertyOp16
 70
     1
102
RTVSPropertyOp17
 70
     1
102
RTVSPropertyOp18
 70
     1
102
RTVSPropertyOp19
 70
     1
102
RTVSPropertyOp20
 70
     1
102
RTVSPropertyOp21
 70
     1
102
RTVSPropertyOp22
 70
     1
102
RTVSPropertyOp23
 70
     1
102
RTVSPropertyOp24
 70
     1
102
RTVSPropertyOp25
 70
     1
102
RTVSPropertyOp26
 70
     1
102
RTVSPropertyOp27
 70
     1
102
RTVSPropertyOp28
 70
     1
102
RTVSPropertyOp29
 70
     1
102
RTVSPropertyOp30
 70
     1
102
RTVSPropertyOp31
 70
     1
102
RTVSPropertyOp32
 70
     1
102
RTVSPropertyOp33
 70
     1
102
RTVSPropertyOp34
 70
     1
102
RTVSPropertyOp35
 70
     1
102
RTVSPropertyOp36
 70
     1
102
RTVSPropertyOp37
 70
     1
102
RTVSPropertyOp38
 70
     1
102
RTVSPropertyOp39
 70
     1
102
RTVSPropertyOp40
 70
     1
102
RTVSPropertyOp41
 70
     1
102
RTVSPropertyOp42
 70
     1
102
RTVSPropertyOp43
 70
     1
102
RTVSPropertyOp44
 70
     1
102
RTVSPropertyOp45
 70
     1
102
RTVSPropertyOp46
 70
     1
102
RTVSPropertyOp47
 70
     1
102
RTVSPropertyOp48
 70
     1
102
RTVSPropertyOp49
 70
     1
102
RTVSPropertyOp50
 70
     1
102
RTVSPropertyOp51
 70
     0
102
RTVSPropertyOp52
 70
     0
102
RTVSPropertyOp53
 70
     1
102
RTVSPropertyOp54
 70
     1
102
RTVSPropertyOp55
 70
     1
102
RTVSPropertyOp56
 70
     1
102
RTVSPropertyOp57
 70
     1
102
RTVSPropertyOp58
 70
     1
102
RTVSPropertyOp59
 70
     1
102
RTVSPropertyOp60
 70
     1
102
RTVSPropertyOp61
 70
     1
102
RTVSPropertyOp62
 70
     1
  0
XRECORD
  5
94A
102
{ACAD_REACTORS
330
949
102
}
330
949
100
AcDbXrecord
280
     1
102
RTVSPost2010Prop28
280
     0
102
RTVSPost2010PropOp28
 70
     1
102
RTVSPost2010Prop29
280
     1
102
RTVSPost2010PropOp29
 70
     1
102
RTVSPost2010Prop30
280
     1
102
RTVSPost2010PropOp30
 70
     1
102
RTVSPost2010Prop31
280
     0
102
RTVSPost2010PropOp31
 70
     1
102
RTVSPost2010Prop32
280
     0
102
RTVSPost2010PropOp32
 70
     1
102
RTVSPost2010Prop33
280
     0
102
RTVSPost2010PropOp33
 70
     1
102
RTVSPost2010Prop34
280
     0
102
RTVSPost2010PropOp34
 70
     1
102
RTVSPost2010Prop35
280
     0
102
RTVSPost2010PropOp35
 70
     1
102
RTVSPost2010Prop36
280
     0
102
RTVSPost2010PropOp36
 70
     1
102
RTVSPost2010Prop37
 90
       50
102
RTVSPost2010PropOp37
 70
     1
102
RTVSPost2010Prop38
140
0.0
102
RTVSPost2010PropOp38
 70
     1
102
RTVSPost2010Prop39
140
1.0
102
RTVSPost2010PropOp39
 70
     1
102
RTVSPost2010Prop40
 90
        0
102
RTVSPost2010PropOp40
 70
     1
102
RTVSPost2010Prop41ColorIndex
 90
       18
102
RTVSPost2010Prop41ColorRGB
 90
        0
102
RTVSPost2010PropOp41
 70
     1
102
RTVSPost2010Prop42
 90
       50
102
RTVSPost2010PropOp42
 70
     1
102
RTVSPost2010Prop43
 90
        3
102
RTVSPost2010PropOp43
 70
     1
102
RTVSPost2010Prop44ColorIndex
 90
        5
102
RTVSPost2010Prop44ColorRGB
 90
      255
102
RTVSPost2010PropOp44
 70
     1
102
RTVSPost2010Prop45
280
     0
102
RTVSPost2010PropOp45
 70
     1
102
RTVSPost2010Prop46
 90
       50
102
RTVSPost2010PropOp46
 70
     1
102
RTVSPost2010Prop47
 90
       50
102
RTVSPost2010PropOp47
 70
     1
102
RTVSPost2010Prop48
 90
       50
102
RTVSPost2010PropOp48
 70
     1
102
RTVSPost2010Prop49
280
     0
102
RTVSPost2010PropOp49
 70
     1
102
RTVSPost2010Prop50
 90
       50
102
RTVSPost2010PropOp50
 70
     1
102
RTVSPost2010Prop51ColorIndex
 90
      256
102
RTVSPost2010Prop51ColorRGB
 90
-16777216
102
RTVSPost2010PropOp51
 70
     0
102
RTVSPost2010Prop52
140
1.0
102
RTVSPost2010PropOp52
 70
     0
102
RTVSPost2010Prop53
 90
        2
102
RTVSPost2010PropOp53
 70
     1
102
RTVSPost2010Prop54
  1
strokes_ogs.tif
102
RTVSPost2010PropOp54
 70
     1
102
RTVSPost2010Prop55
280
     0
102
RTVSPost2010PropOp55
 70
     1
102
RTVSPost2010Prop56
140
1.0
102
RTVSPost2010PropOp56
 70
     1
102
RTVSPost2010Prop57
140
1.0
102
RTVSPost2010PropOp57
 70
     1
102
RTVSPropertyOp0
 70
     1
102
RTVSPropertyOp1
 70
     1
102
RTVSPropertyOp2
 70
     1
102
RTVSPropertyOp3
 70
     1
102
RTVSPropertyOp4
 70
     1
102
RTVSPropertyOp5
 70
     1
102
RTVSPropertyOp6
 70
     1
102
RTVSPropertyOp7
 70
     1
102
RTVSPropertyOp8
 70
     1
102
RTVSPropertyOp9
 70
     1
102
RTVSPropertyOp10
 70
     1
102
RTVSPropertyOp11
 70
     1
102
RTVSPropertyOp12
 70
     1
102
RTVSPropertyOp13
 70
     1
102
RTVSPropertyOp14
 70
     1
102
RTVSPropertyOp15
 70
     1
102
RTVSPropertyOp16
 70
     1
102
RTVSPropertyOp17
 70
     1
102
RTVSPropertyOp18
 70
     1
102
RTVSPropertyOp19
 70
     1
102
RTVSPropertyOp20
 70
     1
102
RTVSPropertyOp21
 70
     1
102
RTVSPropertyOp22
 70
     1
102
RTVSPropertyOp23
 70
     1
102
RTVSPropertyOp24
 70
     1
102
RTVSPropertyOp25
 70
     1
102
RTVSPropertyOp26
 70
     1
102
RTVSPropertyOp27
 70
     1
102
RTVSPropertyOp28
 70
     1
102
RTVSPropertyOp29
 70
     1
102
RTVSPropertyOp30
 70
     1
102
RTVSPropertyOp31
 70
     1
102
RTVSPropertyOp32
 70
     1
102
RTVSPropertyOp33
 70
     1
102
RTVSPropertyOp34
 70
     1
102
RTVSPropertyOp35
 70
     1
102
RTVSPropertyOp36
 70
     1
102
RTVSPropertyOp37
 70
     1
102
RTVSPropertyOp38
 70
     1
102
RTVSPropertyOp39
 70
     1
102
RTVSPropertyOp40
 70
     1
102
RTVSPropertyOp41
 70
     1
102
RTVSPropertyOp42
 70
     1
102
RTVSPropertyOp43
 70
     1
102
RTVSPropertyOp44
 70
     1
102
RTVSPropertyOp45
 70
     1
102
RTVSPropertyOp46
 70
     1
102
RTVSPropertyOp47
 70
     1
102
RTVSPropertyOp48
 70
     1
102
RTVSPropertyOp49
 70
     1
102
RTVSPropertyOp50
 70
     1
102
RTVSPropertyOp51
 70
     0
102
RTVSPropertyOp52
 70
     0
102
RTVSPropertyOp53
 70
     1
102
RTVSPropertyOp54
 70
     1
102
RTVSPropertyOp55
 70
     1
102
RTVSPropertyOp56
 70
     1
102
RTVSPropertyOp57
 70
     1
102
RTVSPropertyOp58
 70
     1
102
RTVSPropertyOp59
 70
     1
102
RTVSPropertyOp60
 70
     1
102
RTVSPropertyOp61
 70
     1
102
RTVSPropertyOp62
 70
     1
  0
XRECORD
  5
94E
102
{ACAD_REACTORS
330
94D
102
}
330
94D
100
AcDbXrecord
280
     1
102
RTVSPost2010Prop28
280
     0
102
RTVSPost2010PropOp28
 70
     1
102
RTVSPost2010Prop29
280
     1
102
RTVSPost2010PropOp29
 70
     1
102
RTVSPost2010Prop30
280
     1
102
RTVSPost2010PropOp30
 70
     1
102
RTVSPost2010Prop31
280
     0
102
RTVSPost2010PropOp31
 70
     1
102
RTVSPost2010Prop32
280
     0
102
RTVSPost2010PropOp32
 70
     1
102
RTVSPost2010Prop33
280
     0
102
RTVSPost2010PropOp33
 70
     1
102
RTVSPost2010Prop34
280
     0
102
RTVSPost2010PropOp34
 70
     1
102
RTVSPost2010Prop35
280
     0
102
RTVSPost2010PropOp35
 70
     1
102
RTVSPost2010Prop36
280
     0
102
RTVSPost2010PropOp36
 70
     1
102
RTVSPost2010Prop37
 90
       50
102
RTVSPost2010PropOp37
 70
     1
102
RTVSPost2010Prop38
140
0.0
102
RTVSPost2010PropOp38
 70
     1
102
RTVSPost2010Prop39
140
1.0
102
RTVSPost2010PropOp39
 70
     1
102
RTVSPost2010Prop40
 90
        0
102
RTVSPost2010PropOp40
 70
     1
102
RTVSPost2010Prop41ColorIndex
 90
       18
102
RTVSPost2010Prop41ColorRGB
 90
        0
102
RTVSPost2010PropOp41
 70
     1
102
RTVSPost2010Prop42
 90
       50
102
RTVSPost2010PropOp42
 70
     1
102
RTVSPost2010Prop43
 90
        3
102
RTVSPost2010PropOp43
 70
     1
102
RTVSPost2010Prop44ColorIndex
 90
        5
102
RTVSPost2010Prop44ColorRGB
 90
      255
102
RTVSPost2010PropOp44
 70
     1
102
RTVSPost2010Prop45
280
     0
102
RTVSPost2010PropOp45
 70
     1
102
RTVSPost2010Prop46
 90
       50
102
RTVSPost2010PropOp46
 70
     1
102
RTVSPost2010Prop47
 90
       50
102
RTVSPost2010PropOp47
 70
     1
102
RTVSPost2010Prop48
 90
       50
102
RTVSPost2010PropOp48
 70
     1
102
RTVSPost2010Prop49
280
     0
102
RTVSPost2010PropOp49
 70
     1
102
RTVSPost2010Prop50
 90
       50
102
RTVSPost2010PropOp50
 70
     1
102
RTVSPost2010Prop51ColorIndex
 90
      256
102
RTVSPost2010Prop51ColorRGB
 90
-16777216
102
RTVSPost2010PropOp51
 70
     0
102
RTVSPost2010Prop52
140
1.0
102
RTVSPost2010PropOp52
 70
     0
102
RTVSPost2010Prop53
 90
        2
102
RTVSPost2010PropOp53
 70
     1
102
RTVSPost2010Prop54
  1
strokes_ogs.tif
102
RTVSPost2010PropOp54
 70
     1
102
RTVSPost2010Prop55
280
     0
102
RTVSPost2010PropOp55
 70
     1
102
RTVSPost2010Prop56
140
1.0
102
RTVSPost2010PropOp56
 70
     1
102
RTVSPost2010Prop57
140
1.0
102
RTVSPost2010PropOp57
 70
     1
102
RTVSPropertyOp0
 70
     1
102
RTVSPropertyOp1
 70
     1
102
RTVSPropertyOp2
 70
     1
102
RTVSPropertyOp3
 70
     1
102
RTVSPropertyOp4
 70
     1
102
RTVSPropertyOp5
 70
     1
102
RTVSPropertyOp6
 70
     1
102
RTVSPropertyOp7
 70
     1
102
RTVSPropertyOp8
 70
     1
102
RTVSPropertyOp9
 70
     1
102
RTVSPropertyOp10
 70
     1
102
RTVSPropertyOp11
 70
     1
102
RTVSPropertyOp12
 70
     1
102
RTVSPropertyOp13
 70
     1
102
RTVSPropertyOp14
 70
     1
102
RTVSPropertyOp15
 70
     1
102
RTVSPropertyOp16
 70
     1
102
RTVSPropertyOp17
 70
     1
102
RTVSPropertyOp18
 70
     1
102
RTVSPropertyOp19
 70
     1
102
RTVSPropertyOp20
 70
     1
102
RTVSPropertyOp21
 70
     1
102
RTVSPropertyOp22
 70
     1
102
RTVSPropertyOp23
 70
     1
102
RTVSPropertyOp24
 70
     1
102
RTVSPropertyOp25
 70
     1
102
RTVSPropertyOp26
 70
     1
102
RTVSPropertyOp27
 70
     1
102
RTVSPropertyOp28
 70
     1
102
RTVSPropertyOp29
 70
     1
102
RTVSPropertyOp30
 70
     1
102
RTVSPropertyOp31
 70
     1
102
RTVSPropertyOp32
 70
     1
102
RTVSPropertyOp33
 70
     1
102
RTVSPropertyOp34
 70
     1
102
RTVSPropertyOp35
 70
     1
102
RTVSPropertyOp36
 70
     1
102
RTVSPropertyOp37
 70
     1
102
RTVSPropertyOp38
 70
     1
102
RTVSPropertyOp39
 70
     1
102
RTVSPropertyOp40
 70
     1
102
RTVSPropertyOp41
 70
     1
102
RTVSPropertyOp42
 70
     1
102
RTVSPropertyOp43
 70
     1
102
RTVSPropertyOp44
 70
     1
102
RTVSPropertyOp45
 70
     1
102
RTVSPropertyOp46
 70
     1
102
RTVSPropertyOp47
 70
     1
102
RTVSPropertyOp48
 70
     1
102
RTVSPropertyOp49
 70
     1
102
RTVSPropertyOp50
 70
     1
102
RTVSPropertyOp51
 70
     0
102
RTVSPropertyOp52
 70
     0
102
RTVSPropertyOp53
 70
     1
102
RTVSPropertyOp54
 70
     1
102
RTVSPropertyOp55
 70
     1
102
RTVSPropertyOp56
 70
     1
102
RTVSPropertyOp57
 70
     1
102
RTVSPropertyOp58
 70
     1
102
RTVSPropertyOp59
 70
     1
102
RTVSPropertyOp60
 70
     1
102
RTVSPropertyOp61
 70
     1
102
RTVSPropertyOp62
 70
     1
  0
XRECORD
  5
96C
102
{ACAD_REACTORS
330
96B
102
}
330
96B
100
AcDbXrecord
280
     1
102
RTVSPost2010Prop28
280
     0
102
RTVSPost2010PropOp28
 70
     0
102
RTVSPost2010Prop29
280
     1
102
RTVSPost2010PropOp29
 70
     0
102
RTVSPost2010Prop30
280
     1
102
RTVSPost2010PropOp30
 70
     0
102
RTVSPost2010Prop31
280
     0
102
RTVSPost2010PropOp31
 70
     0
102
RTVSPost2010Prop32
280
     0
102
RTVSPost2010PropOp32
 70
     0
102
RTVSPost2010Prop33
280
     0
102
RTVSPost2010PropOp33
 70
     0
102
RTVSPost2010Prop34
280
     0
102
RTVSPost2010PropOp34
 70
     0
102
RTVSPost2010Prop35
280
     0
102
RTVSPost2010PropOp35
 70
     0
102
RTVSPost2010Prop36
280
     0
102
RTVSPost2010PropOp36
 70
     0
102
RTVSPost2010Prop37
 90
       50
102
RTVSPost2010PropOp37
 70
     0
102
RTVSPost2010Prop38
140
0.0
102
RTVSPost2010PropOp38
 70
     0
102
RTVSPost2010Prop39
140
1.0
102
RTVSPost2010PropOp39
 70
     0
102
RTVSPost2010Prop40
 90
        0
102
RTVSPost2010PropOp40
 70
     0
102
RTVSPost2010Prop41ColorIndex
 90
       18
102
RTVSPost2010Prop41ColorRGB
 90
        0
102
RTVSPost2010PropOp41
 70
     0
102
RTVSPost2010Prop42
 90
       50
102
RTVSPost2010PropOp42
 70
     0
102
RTVSPost2010Prop43
 90
        3
102
RTVSPost2010PropOp43
 70
     0
102
RTVSPost2010Prop44ColorIndex
 90
        5
102
RTVSPost2010Prop44ColorRGB
 90
      255
102
RTVSPost2010PropOp44
 70
     0
102
RTVSPost2010Prop45
280
     0
102
RTVSPost2010PropOp45
 70
     0
102
RTVSPost2010Prop46
 90
       50
102
RTVSPost2010PropOp46
 70
     0
102
RTVSPost2010Prop47
 90
       50
102
RTVSPost2010PropOp47
 70
     0
102
RTVSPost2010Prop48
 90
       50
102
RTVSPost2010PropOp48
 70
     0
102
RTVSPost2010Prop49
280
     0
102
RTVSPost2010PropOp49
 70
     0
102
RTVSPost2010Prop50
 90
       50
102
RTVSPost2010PropOp50
 70
     0
102
RTVSPost2010Prop51ColorIndex
 90
      256
102
RTVSPost2010Prop51ColorRGB
 90
-16777216
102
RTVSPost2010PropOp51
 70
     0
102
RTVSPost2010Prop52
140
1.0
102
RTVSPost2010PropOp52
 70
     0
102
RTVSPost2010Prop53
 90
        2
102
RTVSPost2010PropOp53
 70
     0
102
RTVSPost2010Prop54
  1
strokes_ogs.tif
102
RTVSPost2010PropOp54
 70
     0
102
RTVSPost2010Prop55
280
     0
102
RTVSPost2010PropOp55
 70
     0
102
RTVSPost2010Prop56
140
1.0
102
RTVSPost2010PropOp56
 70
     0
102
RTVSPost2010Prop57
140
1.0
102
RTVSPost2010PropOp57
 70
     0
102
RTVSPropertyOp0
 70
     0
102
RTVSPropertyOp1
 70
     0
102
RTVSPropertyOp2
 70
     0
102
RTVSPropertyOp3
 70
     0
102
RTVSPropertyOp4
 70
     0
102
RTVSPropertyOp5
 70
     0
102
RTVSPropertyOp6
 70
     0
102
RTVSPropertyOp7
 70
     0
102
RTVSPropertyOp8
 70
     0
102
RTVSPropertyOp9
 70
     0
102
RTVSPropertyOp10
 70
     0
102
RTVSPropertyOp11
 70
     0
102
RTVSPropertyOp12
 70
     0
102
RTVSPropertyOp13
 70
     0
102
RTVSPropertyOp14
 70
     2
102
RTVSPropertyOp15
 70
     0
102
RTVSPropertyOp16
 70
     0
102
RTVSPropertyOp17
 70
     0
102
RTVSPropertyOp18
 70
     0
102
RTVSPropertyOp19
 70
     0
102
RTVSPropertyOp20
 70
     0
102
RTVSPropertyOp21
 70
     0
102
RTVSPropertyOp22
 70
     0
102
RTVSPropertyOp23
 70
     0
102
RTVSPropertyOp24
 70
     0
102
RTVSPropertyOp25
 70
     0
102
RTVSPropertyOp26
 70
     0
102
RTVSPropertyOp27
 70
     0
102
RTVSPropertyOp28
 70
     0
102
RTVSPropertyOp29
 70
     0
102
RTVSPropertyOp30
 70
     0
102
RTVSPropertyOp31
 70
     0
102
RTVSPropertyOp32
 70
     0
102
RTVSPropertyOp33
 70
     0
102
RTVSPropertyOp34
 70
     0
102
RTVSPropertyOp35
 70
     0
102
RTVSPropertyOp36
 70
     0
102
RTVSPropertyOp37
 70
     0
102
RTVSPropertyOp38
 70
     0
102
RTVSPropertyOp39
 70
     0
102
RTVSPropertyOp40
 70
     0
102
RTVSPropertyOp41
 70
     0
102
RTVSPropertyOp42
 70
     0
102
RTVSPropertyOp43
 70
     0
102
RTVSPropertyOp44
 70
     0
102
RTVSPropertyOp45
 70
     0
102
RTVSPropertyOp46
 70
     0
102
RTVSPropertyOp47
 70
     0
102
RTVSPropertyOp48
 70
     0
102
RTVSPropertyOp49
 70
     0
102
RTVSPropertyOp50
 70
     0
102
RTVSPropertyOp51
 70
     0
102
RTVSPropertyOp52
 70
     0
102
RTVSPropertyOp53
 70
     0
102
RTVSPropertyOp54
 70
     0
102
RTVSPropertyOp55
 70
     0
102
RTVSPropertyOp56
 70
     0
102
RTVSPropertyOp57
 70
     0
102
RTVSPropertyOp58
 70
     0
102
RTVSPropertyOp59
 70
     0
102
RTVSPropertyOp60
 70
     0
102
RTVSPropertyOp61
 70
     0
102
RTVSPropertyOp62
 70
     0
  0
XRECORD
  5
956
102
{ACAD_REACTORS
330
955
102
}
330
955
100
AcDbXrecord
280
     1
102
RTVSPost2010Prop28
280
     0
102
RTVSPost2010PropOp28
 70
     1
102
RTVSPost2010Prop29
280
     1
102
RTVSPost2010PropOp29
 70
     1
102
RTVSPost2010Prop30
280
     1
102
RTVSPost2010PropOp30
 70
     1
102
RTVSPost2010Prop31
280
     0
102
RTVSPost2010PropOp31
 70
     1
102
RTVSPost2010Prop32
280
     0
102
RTVSPost2010PropOp32
 70
     1
102
RTVSPost2010Prop33
280
     0
102
RTVSPost2010PropOp33
 70
     1
102
RTVSPost2010Prop34
280
     0
102
RTVSPost2010PropOp34
 70
     1
102
RTVSPost2010Prop35
280
     0
102
RTVSPost2010PropOp35
 70
     1
102
RTVSPost2010Prop36
280
     0
102
RTVSPost2010PropOp36
 70
     1
102
RTVSPost2010Prop37
 90
       50
102
RTVSPost2010PropOp37
 70
     1
102
RTVSPost2010Prop38
140
0.0
102
RTVSPost2010PropOp38
 70
     1
102
RTVSPost2010Prop39
140
1.0
102
RTVSPost2010PropOp39
 70
     1
102
RTVSPost2010Prop40
 90
        0
102
RTVSPost2010PropOp40
 70
     1
102
RTVSPost2010Prop41ColorIndex
 90
       18
102
RTVSPost2010Prop41ColorRGB
 90
        0
102
RTVSPost2010PropOp41
 70
     1
102
RTVSPost2010Prop42
 90
       50
102
RTVSPost2010PropOp42
 70
     1
102
RTVSPost2010Prop43
 90
        3
102
RTVSPost2010PropOp43
 70
     1
102
RTVSPost2010Prop44ColorIndex
 90
        5
102
RTVSPost2010Prop44ColorRGB
 90
      255
102
RTVSPost2010PropOp44
 70
     1
102
RTVSPost2010Prop45
280
     0
102
RTVSPost2010PropOp45
 70
     1
102
RTVSPost2010Prop46
 90
       50
102
RTVSPost2010PropOp46
 70
     1
102
RTVSPost2010Prop47
 90
       50
102
RTVSPost2010PropOp47
 70
     1
102
RTVSPost2010Prop48
 90
       50
102
RTVSPost2010PropOp48
 70
     1
102
RTVSPost2010Prop49
280
     0
102
RTVSPost2010PropOp49
 70
     1
102
RTVSPost2010Prop50
 90
       50
102
RTVSPost2010PropOp50
 70
     1
102
RTVSPost2010Prop51ColorIndex
 90
      256
102
RTVSPost2010Prop51ColorRGB
 90
-16777216
102
RTVSPost2010PropOp51
 70
     0
102
RTVSPost2010Prop52
140
1.0
102
RTVSPost2010PropOp52
 70
     0
102
RTVSPost2010Prop53
 90
        2
102
RTVSPost2010PropOp53
 70
     1
102
RTVSPost2010Prop54
  1
strokes_ogs.tif
102
RTVSPost2010PropOp54
 70
     1
102
RTVSPost2010Prop55
280
     0
102
RTVSPost2010PropOp55
 70
     1
102
RTVSPost2010Prop56
140
1.0
102
RTVSPost2010PropOp56
 70
     1
102
RTVSPost2010Prop57
140
1.0
102
RTVSPost2010PropOp57
 70
     1
102
RTVSPropertyOp0
 70
     1
102
RTVSPropertyOp1
 70
     1
102
RTVSPropertyOp2
 70
     1
102
RTVSPropertyOp3
 70
     1
102
RTVSPropertyOp4
 70
     1
102
RTVSPropertyOp5
 70
     1
102
RTVSPropertyOp6
 70
     1
102
RTVSPropertyOp7
 70
     1
102
RTVSPropertyOp8
 70
     1
102
RTVSPropertyOp9
 70
     1
102
RTVSPropertyOp10
 70
     1
102
RTVSPropertyOp11
 70
     1
102
RTVSPropertyOp12
 70
     1
102
RTVSPropertyOp13
 70
     1
102
RTVSPropertyOp14
 70
     1
102
RTVSPropertyOp15
 70
     1
102
RTVSPropertyOp16
 70
     1
102
RTVSPropertyOp17
 70
     1
102
RTVSPropertyOp18
 70
     1
102
RTVSPropertyOp19
 70
     1
102
RTVSPropertyOp20
 70
     1
102
RTVSPropertyOp21
 70
     1
102
RTVSPropertyOp22
 70
     1
102
RTVSPropertyOp23
 70
     1
102
RTVSPropertyOp24
 70
     1
102
RTVSPropertyOp25
 70
     1
102
RTVSPropertyOp26
 70
     1
102
RTVSPropertyOp27
 70
     1
102
RTVSPropertyOp28
 70
     1
102
RTVSPropertyOp29
 70
     1
102
RTVSPropertyOp30
 70
     1
102
RTVSPropertyOp31
 70
     1
102
RTVSPropertyOp32
 70
     1
102
RTVSPropertyOp33
 70
     1
102
RTVSPropertyOp34
 70
     1
102
RTVSPropertyOp35
 70
     1
102
RTVSPropertyOp36
 70
     1
102
RTVSPropertyOp37
 70
     1
102
RTVSPropertyOp38
 70
     1
102
RTVSPropertyOp39
 70
     1
102
RTVSPropertyOp40
 70
     1
102
RTVSPropertyOp41
 70
     1
102
RTVSPropertyOp42
 70
     1
102
RTVSPropertyOp43
 70
     1
102
RTVSPropertyOp44
 70
     1
102
RTVSPropertyOp45
 70
     1
102
RTVSPropertyOp46
 70
     1
102
RTVSPropertyOp47
 70
     1
102
RTVSPropertyOp48
 70
     1
102
RTVSPropertyOp49
 70
     1
102
RTVSPropertyOp50
 70
     1
102
RTVSPropertyOp51
 70
     0
102
RTVSPropertyOp52
 70
     0
102
RTVSPropertyOp53
 70
     1
102
RTVSPropertyOp54
 70
     1
102
RTVSPropertyOp55
 70
     1
102
RTVSPropertyOp56
 70
     1
102
RTVSPropertyOp57
 70
     1
102
RTVSPropertyOp58
 70
     1
102
RTVSPropertyOp59
 70
     1
102
RTVSPropertyOp60
 70
     1
102
RTVSPropertyOp61
 70
     1
102
RTVSPropertyOp62
 70
     1
  0
XRECORD
  5
93A
102
{ACAD_REACTORS
330
939
102
}
330
939
100
AcDbXrecord
280
     1
102
RTVSPost2010Prop28
280
     0
102
RTVSPost2010PropOp28
 70
     1
102
RTVSPost2010Prop29
280
     1
102
RTVSPost2010PropOp29
 70
     1
102
RTVSPost2010Prop30
280
     1
102
RTVSPost2010PropOp30
 70
     1
102
RTVSPost2010Prop31
280
     0
102
RTVSPost2010PropOp31
 70
     1
102
RTVSPost2010Prop32
280
     0
102
RTVSPost2010PropOp32
 70
     1
102
RTVSPost2010Prop33
280
     0
102
RTVSPost2010PropOp33
 70
     1
102
RTVSPost2010Prop34
280
     0
102
RTVSPost2010PropOp34
 70
     1
102
RTVSPost2010Prop35
280
     0
102
RTVSPost2010PropOp35
 70
     1
102
RTVSPost2010Prop36
280
     0
102
RTVSPost2010PropOp36
 70
     1
102
RTVSPost2010Prop37
 90
       50
102
RTVSPost2010PropOp37
 70
     1
102
RTVSPost2010Prop38
140
0.0
102
RTVSPost2010PropOp38
 70
     1
102
RTVSPost2010Prop39
140
1.0
102
RTVSPost2010PropOp39
 70
     1
102
RTVSPost2010Prop40
 90
        0
102
RTVSPost2010PropOp40
 70
     1
102
RTVSPost2010Prop41ColorIndex
 90
       18
102
RTVSPost2010Prop41ColorRGB
 90
        0
102
RTVSPost2010PropOp41
 70
     1
102
RTVSPost2010Prop42
 90
       50
102
RTVSPost2010PropOp42
 70
     1
102
RTVSPost2010Prop43
 90
        3
102
RTVSPost2010PropOp43
 70
     1
102
RTVSPost2010Prop44ColorIndex
 90
        5
102
RTVSPost2010Prop44ColorRGB
 90
      255
102
RTVSPost2010PropOp44
 70
     1
102
RTVSPost2010Prop45
280
     0
102
RTVSPost2010PropOp45
 70
     1
102
RTVSPost2010Prop46
 90
       50
102
RTVSPost2010PropOp46
 70
     1
102
RTVSPost2010Prop47
 90
       50
102
RTVSPost2010PropOp47
 70
     1
102
RTVSPost2010Prop48
 90
       50
102
RTVSPost2010PropOp48
 70
     1
102
RTVSPost2010Prop49
280
     0
102
RTVSPost2010PropOp49
 70
     1
102
RTVSPost2010Prop50
 90
       50
102
RTVSPost2010PropOp50
 70
     1
102
RTVSPost2010Prop51ColorIndex
 90
      256
102
RTVSPost2010Prop51ColorRGB
 90
-16777216
102
RTVSPost2010PropOp51
 70
     0
102
RTVSPost2010Prop52
140
1.0
102
RTVSPost2010PropOp52
 70
     0
102
RTVSPost2010Prop53
 90
        2
102
RTVSPost2010PropOp53
 70
     1
102
RTVSPost2010Prop54
  1
strokes_ogs.tif
102
RTVSPost2010PropOp54
 70
     1
102
RTVSPost2010Prop55
280
     0
102
RTVSPost2010PropOp55
 70
     1
102
RTVSPost2010Prop56
140
1.0
102
RTVSPost2010PropOp56
 70
     1
102
RTVSPost2010Prop57
140
1.0
102
RTVSPost2010PropOp57
 70
     1
102
RTVSPropertyOp0
 70
     1
102
RTVSPropertyOp1
 70
     1
102
RTVSPropertyOp2
 70
     1
102
RTVSPropertyOp3
 70
     1
102
RTVSPropertyOp4
 70
     1
102
RTVSPropertyOp5
 70
     1
102
RTVSPropertyOp6
 70
     1
102
RTVSPropertyOp7
 70
     1
102
RTVSPropertyOp8
 70
     1
102
RTVSPropertyOp9
 70
     1
102
RTVSPropertyOp10
 70
     1
102
RTVSPropertyOp11
 70
     1
102
RTVSPropertyOp12
 70
     1
102
RTVSPropertyOp13
 70
     1
102
RTVSPropertyOp14
 70
     1
102
RTVSPropertyOp15
 70
     1
102
RTVSPropertyOp16
 70
     1
102
RTVSPropertyOp17
 70
     1
102
RTVSPropertyOp18
 70
     1
102
RTVSPropertyOp19
 70
     1
102
RTVSPropertyOp20
 70
     1
102
RTVSPropertyOp21
 70
     1
102
RTVSPropertyOp22
 70
     1
102
RTVSPropertyOp23
 70
     1
102
RTVSPropertyOp24
 70
     1
102
RTVSPropertyOp25
 70
     1
102
RTVSPropertyOp26
 70
     1
102
RTVSPropertyOp27
 70
     1
102
RTVSPropertyOp28
 70
     1
102
RTVSPropertyOp29
 70
     1
102
RTVSPropertyOp30
 70
     1
102
RTVSPropertyOp31
 70
     1
102
RTVSPropertyOp32
 70
     1
102
RTVSPropertyOp33
 70
     1
102
RTVSPropertyOp34
 70
     1
102
RTVSPropertyOp35
 70
     1
102
RTVSPropertyOp36
 70
     1
102
RTVSPropertyOp37
 70
     1
102
RTVSPropertyOp38
 70
     1
102
RTVSPropertyOp39
 70
     1
102
RTVSPropertyOp40
 70
     1
102
RTVSPropertyOp41
 70
     1
102
RTVSPropertyOp42
 70
     1
102
RTVSPropertyOp43
 70
     1
102
RTVSPropertyOp44
 70
     1
102
RTVSPropertyOp45
 70
     1
102
RTVSPropertyOp46
 70
     1
102
RTVSPropertyOp47
 70
     1
102
RTVSPropertyOp48
 70
     1
102
RTVSPropertyOp49
 70
     1
102
RTVSPropertyOp50
 70
     1
102
RTVSPropertyOp51
 70
     0
102
RTVSPropertyOp52
 70
     0
102
RTVSPropertyOp53
 70
     1
102
RTVSPropertyOp54
 70
     1
102
RTVSPropertyOp55
 70
     1
102
RTVSPropertyOp56
 70
     1
102
RTVSPropertyOp57
 70
     1
102
RTVSPropertyOp58
 70
     1
102
RTVSPropertyOp59
 70
     1
102
RTVSPropertyOp60
 70
     1
102
RTVSPropertyOp61
 70
     1
102
RTVSPropertyOp62
 70
     1
  0
XRECORD
  5
93C
102
{ACAD_REACTORS
330
93B
102
}
330
93B
100
AcDbXrecord
280
     1
102
RTVSPost2010Prop28
280
     0
102
RTVSPost2010PropOp28
 70
     1
102
RTVSPost2010Prop29
280
     1
102
RTVSPost2010PropOp29
 70
     1
102
RTVSPost2010Prop30
280
     1
102
RTVSPost2010PropOp30
 70
     1
102
RTVSPost2010Prop31
280
     0
102
RTVSPost2010PropOp31
 70
     1
102
RTVSPost2010Prop32
280
     0
102
RTVSPost2010PropOp32
 70
     1
102
RTVSPost2010Prop33
280
     0
102
RTVSPost2010PropOp33
 70
     1
102
RTVSPost2010Prop34
280
     0
102
RTVSPost2010PropOp34
 70
     1
102
RTVSPost2010Prop35
280
     0
102
RTVSPost2010PropOp35
 70
     1
102
RTVSPost2010Prop36
280
     0
102
RTVSPost2010PropOp36
 70
     1
102
RTVSPost2010Prop37
 90
       50
102
RTVSPost2010PropOp37
 70
     1
102
RTVSPost2010Prop38
140
0.0
102
RTVSPost2010PropOp38
 70
     1
102
RTVSPost2010Prop39
140
1.0
102
RTVSPost2010PropOp39
 70
     1
102
RTVSPost2010Prop40
 90
        0
102
RTVSPost2010PropOp40
 70
     1
102
RTVSPost2010Prop41ColorIndex
 90
       18
102
RTVSPost2010Prop41ColorRGB
 90
        0
102
RTVSPost2010PropOp41
 70
     1
102
RTVSPost2010Prop42
 90
       50
102
RTVSPost2010PropOp42
 70
     1
102
RTVSPost2010Prop43
 90
        3
102
RTVSPost2010PropOp43
 70
     1
102
RTVSPost2010Prop44ColorIndex
 90
        5
102
RTVSPost2010Prop44ColorRGB
 90
      255
102
RTVSPost2010PropOp44
 70
     1
102
RTVSPost2010Prop45
280
     0
102
RTVSPost2010PropOp45
 70
     1
102
RTVSPost2010Prop46
 90
       50
102
RTVSPost2010PropOp46
 70
     1
102
RTVSPost2010Prop47
 90
       50
102
RTVSPost2010PropOp47
 70
     1
102
RTVSPost2010Prop48
 90
       50
102
RTVSPost2010PropOp48
 70
     1
102
RTVSPost2010Prop49
280
     0
102
RTVSPost2010PropOp49
 70
     1
102
RTVSPost2010Prop50
 90
       50
102
RTVSPost2010PropOp50
 70
     1
102
RTVSPost2010Prop51ColorIndex
 90
      256
102
RTVSPost2010Prop51ColorRGB
 90
-16777216
102
RTVSPost2010PropOp51
 70
     0
102
RTVSPost2010Prop52
140
1.0
102
RTVSPost2010PropOp52
 70
     0
102
RTVSPost2010Prop53
 90
        2
102
RTVSPost2010PropOp53
 70
     1
102
RTVSPost2010Prop54
  1
strokes_ogs.tif
102
RTVSPost2010PropOp54
 70
     1
102
RTVSPost2010Prop55
280
     0
102
RTVSPost2010PropOp55
 70
     1
102
RTVSPost2010Prop56
140
1.0
102
RTVSPost2010PropOp56
 70
     1
102
RTVSPost2010Prop57
140
1.0
102
RTVSPost2010PropOp57
 70
     1
102
RTVSPropertyOp0
 70
     1
102
RTVSPropertyOp1
 70
     1
102
RTVSPropertyOp2
 70
     1
102
RTVSPropertyOp3
 70
     1
102
RTVSPropertyOp4
 70
     1
102
RTVSPropertyOp5
 70
     1
102
RTVSPropertyOp6
 70
     1
102
RTVSPropertyOp7
 70
     1
102
RTVSPropertyOp8
 70
     1
102
RTVSPropertyOp9
 70
     1
102
RTVSPropertyOp10
 70
     1
102
RTVSPropertyOp11
 70
     1
102
RTVSPropertyOp12
 70
     1
102
RTVSPropertyOp13
 70
     1
102
RTVSPropertyOp14
 70
     1
102
RTVSPropertyOp15
 70
     1
102
RTVSPropertyOp16
 70
     1
102
RTVSPropertyOp17
 70
     1
102
RTVSPropertyOp18
 70
     1
102
RTVSPropertyOp19
 70
     1
102
RTVSPropertyOp20
 70
     1
102
RTVSPropertyOp21
 70
     1
102
RTVSPropertyOp22
 70
     1
102
RTVSPropertyOp23
 70
     1
102
RTVSPropertyOp24
 70
     1
102
RTVSPropertyOp25
 70
     1
102
RTVSPropertyOp26
 70
     1
102
RTVSPropertyOp27
 70
     1
102
RTVSPropertyOp28
 70
     1
102
RTVSPropertyOp29
 70
     1
102
RTVSPropertyOp30
 70
     1
102
RTVSPropertyOp31
 70
     1
102
RTVSPropertyOp32
 70
     1
102
RTVSPropertyOp33
 70
     1
102
RTVSPropertyOp34
 70
     1
102
RTVSPropertyOp35
 70
     1
102
RTVSPropertyOp36
 70
     1
102
RTVSPropertyOp37
 70
     1
102
RTVSPropertyOp38
 70
     1
102
RTVSPropertyOp39
 70
     1
102
RTVSPropertyOp40
 70
     1
102
RTVSPropertyOp41
 70
     1
102
RTVSPropertyOp42
 70
     1
102
RTVSPropertyOp43
 70
     1
102
RTVSPropertyOp44
 70
     1
102
RTVSPropertyOp45
 70
     1
102
RTVSPropertyOp46
 70
     1
102
RTVSPropertyOp47
 70
     1
102
RTVSPropertyOp48
 70
     1
102
RTVSPropertyOp49
 70
     1
102
RTVSPropertyOp50
 70
     1
102
RTVSPropertyOp51
 70
     0
102
RTVSPropertyOp52
 70
     0
102
RTVSPropertyOp53
 70
     1
102
RTVSPropertyOp54
 70
     1
102
RTVSPropertyOp55
 70
     1
102
RTVSPropertyOp56
 70
     1
102
RTVSPropertyOp57
 70
     1
102
RTVSPropertyOp58
 70
     1
102
RTVSPropertyOp59
 70
     1
102
RTVSPropertyOp60
 70
     1
102
RTVSPropertyOp61
 70
     1
102
RTVSPropertyOp62
 70
     1
  0
XRECORD
  5
93E
102
{ACAD_REACTORS
330
93D
102
}
330
93D
100
AcDbXrecord
280
     1
102
RTVSPost2010Prop28
280
     0
102
RTVSPost2010PropOp28
 70
     1
102
RTVSPost2010Prop29
280
     1
102
RTVSPost2010PropOp29
 70
     1
102
RTVSPost2010Prop30
280
     1
102
RTVSPost2010PropOp30
 70
     1
102
RTVSPost2010Prop31
280
     0
102
RTVSPost2010PropOp31
 70
     1
102
RTVSPost2010Prop32
280
     0
102
RTVSPost2010PropOp32
 70
     1
102
RTVSPost2010Prop33
280
     0
102
RTVSPost2010PropOp33
 70
     1
102
RTVSPost2010Prop34
280
     0
102
RTVSPost2010PropOp34
 70
     1
102
RTVSPost2010Prop35
280
     0
102
RTVSPost2010PropOp35
 70
     1
102
RTVSPost2010Prop36
280
     0
102
RTVSPost2010PropOp36
 70
     1
102
RTVSPost2010Prop37
 90
       50
102
RTVSPost2010PropOp37
 70
     1
102
RTVSPost2010Prop38
140
0.0
102
RTVSPost2010PropOp38
 70
     1
102
RTVSPost2010Prop39
140
1.0
102
RTVSPost2010PropOp39
 70
     1
102
RTVSPost2010Prop40
 90
        0
102
RTVSPost2010PropOp40
 70
     1
102
RTVSPost2010Prop41ColorIndex
 90
       18
102
RTVSPost2010Prop41ColorRGB
 90
        0
102
RTVSPost2010PropOp41
 70
     1
102
RTVSPost2010Prop42
 90
       50
102
RTVSPost2010PropOp42
 70
     1
102
RTVSPost2010Prop43
 90
        3
102
RTVSPost2010PropOp43
 70
     1
102
RTVSPost2010Prop44ColorIndex
 90
        5
102
RTVSPost2010Prop44ColorRGB
 90
      255
102
RTVSPost2010PropOp44
 70
     1
102
RTVSPost2010Prop45
280
     0
102
RTVSPost2010PropOp45
 70
     1
102
RTVSPost2010Prop46
 90
       50
102
RTVSPost2010PropOp46
 70
     1
102
RTVSPost2010Prop47
 90
       50
102
RTVSPost2010PropOp47
 70
     1
102
RTVSPost2010Prop48
 90
       50
102
RTVSPost2010PropOp48
 70
     1
102
RTVSPost2010Prop49
280
     0
102
RTVSPost2010PropOp49
 70
     1
102
RTVSPost2010Prop50
 90
       50
102
RTVSPost2010PropOp50
 70
     1
102
RTVSPost2010Prop51ColorIndex
 90
      256
102
RTVSPost2010Prop51ColorRGB
 90
-16777216
102
RTVSPost2010PropOp51
 70
     0
102
RTVSPost2010Prop52
140
1.0
102
RTVSPost2010PropOp52
 70
     0
102
RTVSPost2010Prop53
 90
        2
102
RTVSPost2010PropOp53
 70
     1
102
RTVSPost2010Prop54
  1
strokes_ogs.tif
102
RTVSPost2010PropOp54
 70
     1
102
RTVSPost2010Prop55
280
     0
102
RTVSPost2010PropOp55
 70
     1
102
RTVSPost2010Prop56
140
1.0
102
RTVSPost2010PropOp56
 70
     1
102
RTVSPost2010Prop57
140
1.0
102
RTVSPost2010PropOp57
 70
     1
102
RTVSPropertyOp0
 70
     1
102
RTVSPropertyOp1
 70
     1
102
RTVSPropertyOp2
 70
     1
102
RTVSPropertyOp3
 70
     1
102
RTVSPropertyOp4
 70
     1
102
RTVSPropertyOp5
 70
     1
102
RTVSPropertyOp6
 70
     1
102
RTVSPropertyOp7
 70
     1
102
RTVSPropertyOp8
 70
     1
102
RTVSPropertyOp9
 70
     1
102
RTVSPropertyOp10
 70
     1
102
RTVSPropertyOp11
 70
     1
102
RTVSPropertyOp12
 70
     1
102
RTVSPropertyOp13
 70
     1
102
RTVSPropertyOp14
 70
     1
102
RTVSPropertyOp15
 70
     1
102
RTVSPropertyOp16
 70
     1
102
RTVSPropertyOp17
 70
     1
102
RTVSPropertyOp18
 70
     1
102
RTVSPropertyOp19
 70
     1
102
RTVSPropertyOp20
 70
     1
102
RTVSPropertyOp21
 70
     1
102
RTVSPropertyOp22
 70
     1
102
RTVSPropertyOp23
 70
     1
102
RTVSPropertyOp24
 70
     1
102
RTVSPropertyOp25
 70
     1
102
RTVSPropertyOp26
 70
     1
102
RTVSPropertyOp27
 70
     1
102
RTVSPropertyOp28
 70
     1
102
RTVSPropertyOp29
 70
     1
102
RTVSPropertyOp30
 70
     1
102
RTVSPropertyOp31
 70
     1
102
RTVSPropertyOp32
 70
     1
102
RTVSPropertyOp33
 70
     1
102
RTVSPropertyOp34
 70
     1
102
RTVSPropertyOp35
 70
     1
102
RTVSPropertyOp36
 70
     1
102
RTVSPropertyOp37
 70
     1
102
RTVSPropertyOp38
 70
     1
102
RTVSPropertyOp39
 70
     1
102
RTVSPropertyOp40
 70
     1
102
RTVSPropertyOp41
 70
     1
102
RTVSPropertyOp42
 70
     1
102
RTVSPropertyOp43
 70
     1
102
RTVSPropertyOp44
 70
     1
102
RTVSPropertyOp45
 70
     1
102
RTVSPropertyOp46
 70
     1
102
RTVSPropertyOp47
 70
     1
102
RTVSPropertyOp48
 70
     1
102
RTVSPropertyOp49
 70
     1
102
RTVSPropertyOp50
 70
     1
102
RTVSPropertyOp51
 70
     0
102
RTVSPropertyOp52
 70
     0
102
RTVSPropertyOp53
 70
     1
102
RTVSPropertyOp54
 70
     1
102
RTVSPropertyOp55
 70
     1
102
RTVSPropertyOp56
 70
     1
102
RTVSPropertyOp57
 70
     1
102
RTVSPropertyOp58
 70
     1
102
RTVSPropertyOp59
 70
     1
102
RTVSPropertyOp60
 70
     1
102
RTVSPropertyOp61
 70
     1
102
RTVSPropertyOp62
 70
     1
  0
XRECORD
  5
940
102
{ACAD_REACTORS
330
93F
102
}
330
93F
100
AcDbXrecord
280
     1
102
RTVSPost2010Prop28
280
     0
102
RTVSPost2010PropOp28
 70
     1
102
RTVSPost2010Prop29
280
     1
102
RTVSPost2010PropOp29
 70
     1
102
RTVSPost2010Prop30
280
     1
102
RTVSPost2010PropOp30
 70
     1
102
RTVSPost2010Prop31
280
     0
102
RTVSPost2010PropOp31
 70
     1
102
RTVSPost2010Prop32
280
     0
102
RTVSPost2010PropOp32
 70
     1
102
RTVSPost2010Prop33
280
     0
102
RTVSPost2010PropOp33
 70
     1
102
RTVSPost2010Prop34
280
     0
102
RTVSPost2010PropOp34
 70
     1
102
RTVSPost2010Prop35
280
     0
102
RTVSPost2010PropOp35
 70
     1
102
RTVSPost2010Prop36
280
     0
102
RTVSPost2010PropOp36
 70
     1
102
RTVSPost2010Prop37
 90
       50
102
RTVSPost2010PropOp37
 70
     1
102
RTVSPost2010Prop38
140
0.0
102
RTVSPost2010PropOp38
 70
     1
102
RTVSPost2010Prop39
140
1.0
102
RTVSPost2010PropOp39
 70
     1
102
RTVSPost2010Prop40
 90
        0
102
RTVSPost2010PropOp40
 70
     1
102
RTVSPost2010Prop41ColorIndex
 90
       18
102
RTVSPost2010Prop41ColorRGB
 90
        0
102
RTVSPost2010PropOp41
 70
     1
102
RTVSPost2010Prop42
 90
       50
102
RTVSPost2010PropOp42
 70
     1
102
RTVSPost2010Prop43
 90
        3
102
RTVSPost2010PropOp43
 70
     1
102
RTVSPost2010Prop44ColorIndex
 90
        5
102
RTVSPost2010Prop44ColorRGB
 90
      255
102
RTVSPost2010PropOp44
 70
     1
102
RTVSPost2010Prop45
280
     0
102
RTVSPost2010PropOp45
 70
     1
102
RTVSPost2010Prop46
 90
       50
102
RTVSPost2010PropOp46
 70
     1
102
RTVSPost2010Prop47
 90
       50
102
RTVSPost2010PropOp47
 70
     1
102
RTVSPost2010Prop48
 90
       50
102
RTVSPost2010PropOp48
 70
     1
102
RTVSPost2010Prop49
280
     0
102
RTVSPost2010PropOp49
 70
     1
102
RTVSPost2010Prop50
 90
       50
102
RTVSPost2010PropOp50
 70
     1
102
RTVSPost2010Prop51ColorIndex
 90
      256
102
RTVSPost2010Prop51ColorRGB
 90
-16777216
102
RTVSPost2010PropOp51
 70
     0
102
RTVSPost2010Prop52
140
1.0
102
RTVSPost2010PropOp52
 70
     0
102
RTVSPost2010Prop53
 90
        2
102
RTVSPost2010PropOp53
 70
     1
102
RTVSPost2010Prop54
  1
strokes_ogs.tif
102
RTVSPost2010PropOp54
 70
     1
102
RTVSPost2010Prop55
280
     0
102
RTVSPost2010PropOp55
 70
     1
102
RTVSPost2010Prop56
140
1.0
102
RTVSPost2010PropOp56
 70
     1
102
RTVSPost2010Prop57
140
1.0
102
RTVSPost2010PropOp57
 70
     1
102
RTVSPropertyOp0
 70
     1
102
RTVSPropertyOp1
 70
     1
102
RTVSPropertyOp2
 70
     1
102
RTVSPropertyOp3
 70
     1
102
RTVSPropertyOp4
 70
     1
102
RTVSPropertyOp5
 70
     1
102
RTVSPropertyOp6
 70
     1
102
RTVSPropertyOp7
 70
     1
102
RTVSPropertyOp8
 70
     1
102
RTVSPropertyOp9
 70
     1
102
RTVSPropertyOp10
 70
     1
102
RTVSPropertyOp11
 70
     1
102
RTVSPropertyOp12
 70
     1
102
RTVSPropertyOp13
 70
     1
102
RTVSPropertyOp14
 70
     1
102
RTVSPropertyOp15
 70
     1
102
RTVSPropertyOp16
 70
     1
102
RTVSPropertyOp17
 70
     1
102
RTVSPropertyOp18
 70
     1
102
RTVSPropertyOp19
 70
     1
102
RTVSPropertyOp20
 70
     1
102
RTVSPropertyOp21
 70
     1
102
RTVSPropertyOp22
 70
     1
102
RTVSPropertyOp23
 70
     1
102
RTVSPropertyOp24
 70
     1
102
RTVSPropertyOp25
 70
     1
102
RTVSPropertyOp26
 70
     1
102
RTVSPropertyOp27
 70
     1
102
RTVSPropertyOp28
 70
     1
102
RTVSPropertyOp29
 70
     1
102
RTVSPropertyOp30
 70
     1
102
RTVSPropertyOp31
 70
     1
102
RTVSPropertyOp32
 70
     1
102
RTVSPropertyOp33
 70
     1
102
RTVSPropertyOp34
 70
     1
102
RTVSPropertyOp35
 70
     1
102
RTVSPropertyOp36
 70
     1
102
RTVSPropertyOp37
 70
     1
102
RTVSPropertyOp38
 70
     1
102
RTVSPropertyOp39
 70
     1
102
RTVSPropertyOp40
 70
     1
102
RTVSPropertyOp41
 70
     1
102
RTVSPropertyOp42
 70
     1
102
RTVSPropertyOp43
 70
     1
102
RTVSPropertyOp44
 70
     1
102
RTVSPropertyOp45
 70
     1
102
RTVSPropertyOp46
 70
     1
102
RTVSPropertyOp47
 70
     1
102
RTVSPropertyOp48
 70
     1
102
RTVSPropertyOp49
 70
     1
102
RTVSPropertyOp50
 70
     1
102
RTVSPropertyOp51
 70
     0
102
RTVSPropertyOp52
 70
     0
102
RTVSPropertyOp53
 70
     1
102
RTVSPropertyOp54
 70
     1
102
RTVSPropertyOp55
 70
     1
102
RTVSPropertyOp56
 70
     1
102
RTVSPropertyOp57
 70
     1
102
RTVSPropertyOp58
 70
     1
102
RTVSPropertyOp59
 70
     1
102
RTVSPropertyOp60
 70
     1
102
RTVSPropertyOp61
 70
     1
102
RTVSPropertyOp62
 70
     1
  0
XRECORD
  5
95C
102
{ACAD_REACTORS
330
95B
102
}
330
95B
100
AcDbXrecord
280
     1
102
RTVSPost2010Prop28
280
     0
102
RTVSPost2010PropOp28
 70
     1
102
RTVSPost2010Prop29
280
     1
102
RTVSPost2010PropOp29
 70
     1
102
RTVSPost2010Prop30
280
     1
102
RTVSPost2010PropOp30
 70
     1
102
RTVSPost2010Prop31
280
     0
102
RTVSPost2010PropOp31
 70
     1
102
RTVSPost2010Prop32
280
     0
102
RTVSPost2010PropOp32
 70
     1
102
RTVSPost2010Prop33
280
     0
102
RTVSPost2010PropOp33
 70
     1
102
RTVSPost2010Prop34
280
     0
102
RTVSPost2010PropOp34
 70
     1
102
RTVSPost2010Prop35
280
     0
102
RTVSPost2010PropOp35
 70
     1
102
RTVSPost2010Prop36
280
     0
102
RTVSPost2010PropOp36
 70
     1
102
RTVSPost2010Prop37
 90
       50
102
RTVSPost2010PropOp37
 70
     1
102
RTVSPost2010Prop38
140
0.0
102
RTVSPost2010PropOp38
 70
     1
102
RTVSPost2010Prop39
140
1.0
102
RTVSPost2010PropOp39
 70
     1
102
RTVSPost2010Prop40
 90
        0
102
RTVSPost2010PropOp40
 70
     1
102
RTVSPost2010Prop41ColorIndex
 90
       18
102
RTVSPost2010Prop41ColorRGB
 90
        0
102
RTVSPost2010PropOp41
 70
     1
102
RTVSPost2010Prop42
 90
       50
102
RTVSPost2010PropOp42
 70
     1
102
RTVSPost2010Prop43
 90
        3
102
RTVSPost2010PropOp43
 70
     1
102
RTVSPost2010Prop44ColorIndex
 90
        5
102
RTVSPost2010Prop44ColorRGB
 90
      255
102
RTVSPost2010PropOp44
 70
     1
102
RTVSPost2010Prop45
280
     0
102
RTVSPost2010PropOp45
 70
     1
102
RTVSPost2010Prop46
 90
       50
102
RTVSPost2010PropOp46
 70
     1
102
RTVSPost2010Prop47
 90
       50
102
RTVSPost2010PropOp47
 70
     1
102
RTVSPost2010Prop48
 90
       50
102
RTVSPost2010PropOp48
 70
     1
102
RTVSPost2010Prop49
280
     0
102
RTVSPost2010PropOp49
 70
     1
102
RTVSPost2010Prop50
 90
       50
102
RTVSPost2010PropOp50
 70
     1
102
RTVSPost2010Prop51ColorIndex
 90
      256
102
RTVSPost2010Prop51ColorRGB
 90
-16777216
102
RTVSPost2010PropOp51
 70
     0
102
RTVSPost2010Prop52
140
1.0
102
RTVSPost2010PropOp52
 70
     0
102
RTVSPost2010Prop53
 90
        2
102
RTVSPost2010PropOp53
 70
     1
102
RTVSPost2010Prop54
  1
strokes_ogs.tif
102
RTVSPost2010PropOp54
 70
     1
102
RTVSPost2010Prop55
280
     0
102
RTVSPost2010PropOp55
 70
     1
102
RTVSPost2010Prop56
140
1.0
102
RTVSPost2010PropOp56
 70
     1
102
RTVSPost2010Prop57
140
1.0
102
RTVSPost2010PropOp57
 70
     1
102
RTVSPropertyOp0
 70
     1
102
RTVSPropertyOp1
 70
     1
102
RTVSPropertyOp2
 70
     1
102
RTVSPropertyOp3
 70
     1
102
RTVSPropertyOp4
 70
     1
102
RTVSPropertyOp5
 70
     1
102
RTVSPropertyOp6
 70
     1
102
RTVSPropertyOp7
 70
     1
102
RTVSPropertyOp8
 70
     1
102
RTVSPropertyOp9
 70
     1
102
RTVSPropertyOp10
 70
     1
102
RTVSPropertyOp11
 70
     1
102
RTVSPropertyOp12
 70
     1
102
RTVSPropertyOp13
 70
     1
102
RTVSPropertyOp14
 70
     1
102
RTVSPropertyOp15
 70
     1
102
RTVSPropertyOp16
 70
     1
102
RTVSPropertyOp17
 70
     1
102
RTVSPropertyOp18
 70
     1
102
RTVSPropertyOp19
 70
     1
102
RTVSPropertyOp20
 70
     1
102
RTVSPropertyOp21
 70
     1
102
RTVSPropertyOp22
 70
     1
102
RTVSPropertyOp23
 70
     1
102
RTVSPropertyOp24
 70
     1
102
RTVSPropertyOp25
 70
     1
102
RTVSPropertyOp26
 70
     1
102
RTVSPropertyOp27
 70
     1
102
RTVSPropertyOp28
 70
     1
102
RTVSPropertyOp29
 70
     1
102
RTVSPropertyOp30
 70
     1
102
RTVSPropertyOp31
 70
     1
102
RTVSPropertyOp32
 70
     1
102
RTVSPropertyOp33
 70
     1
102
RTVSPropertyOp34
 70
     1
102
RTVSPropertyOp35
 70
     1
102
RTVSPropertyOp36
 70
     1
102
RTVSPropertyOp37
 70
     1
102
RTVSPropertyOp38
 70
     1
102
RTVSPropertyOp39
 70
     1
102
RTVSPropertyOp40
 70
     1
102
RTVSPropertyOp41
 70
     1
102
RTVSPropertyOp42
 70
     1
102
RTVSPropertyOp43
 70
     1
102
RTVSPropertyOp44
 70
     1
102
RTVSPropertyOp45
 70
     1
102
RTVSPropertyOp46
 70
     1
102
RTVSPropertyOp47
 70
     1
102
RTVSPropertyOp48
 70
     1
102
RTVSPropertyOp49
 70
     1
102
RTVSPropertyOp50
 70
     1
102
RTVSPropertyOp51
 70
     0
102
RTVSPropertyOp52
 70
     0
102
RTVSPropertyOp53
 70
     1
102
RTVSPropertyOp54
 70
     1
102
RTVSPropertyOp55
 70
     1
102
RTVSPropertyOp56
 70
     1
102
RTVSPropertyOp57
 70
     1
102
RTVSPropertyOp58
 70
     1
102
RTVSPropertyOp59
 70
     1
102
RTVSPropertyOp60
 70
     1
102
RTVSPropertyOp61
 70
     1
102
RTVSPropertyOp62
 70
     1
  0
XRECORD
  5
968
102
{ACAD_REACTORS
330
967
102
}
330
967
100
AcDbXrecord
280
     1
102
RTVSPost2010Prop28
280
     0
102
RTVSPost2010PropOp28
 70
     0
102
RTVSPost2010Prop29
280
     1
102
RTVSPost2010PropOp29
 70
     0
102
RTVSPost2010Prop30
280
     1
102
RTVSPost2010PropOp30
 70
     0
102
RTVSPost2010Prop31
280
     0
102
RTVSPost2010PropOp31
 70
     0
102
RTVSPost2010Prop32
280
     0
102
RTVSPost2010PropOp32
 70
     0
102
RTVSPost2010Prop33
280
     0
102
RTVSPost2010PropOp33
 70
     0
102
RTVSPost2010Prop34
280
     0
102
RTVSPost2010PropOp34
 70
     0
102
RTVSPost2010Prop35
280
     0
102
RTVSPost2010PropOp35
 70
     0
102
RTVSPost2010Prop36
280
     0
102
RTVSPost2010PropOp36
 70
     0
102
RTVSPost2010Prop37
 90
       50
102
RTVSPost2010PropOp37
 70
     0
102
RTVSPost2010Prop38
140
0.0
102
RTVSPost2010PropOp38
 70
     0
102
RTVSPost2010Prop39
140
1.0
102
RTVSPost2010PropOp39
 70
     0
102
RTVSPost2010Prop40
 90
        0
102
RTVSPost2010PropOp40
 70
     0
102
RTVSPost2010Prop41ColorIndex
 90
       18
102
RTVSPost2010Prop41ColorRGB
 90
        0
102
RTVSPost2010PropOp41
 70
     0
102
RTVSPost2010Prop42
 90
       50
102
RTVSPost2010PropOp42
 70
     0
102
RTVSPost2010Prop43
 90
        3
102
RTVSPost2010PropOp43
 70
     0
102
RTVSPost2010Prop44ColorIndex
 90
        5
102
RTVSPost2010Prop44ColorRGB
 90
      255
102
RTVSPost2010PropOp44
 70
     0
102
RTVSPost2010Prop45
280
     0
102
RTVSPost2010PropOp45
 70
     0
102
RTVSPost2010Prop46
 90
       50
102
RTVSPost2010PropOp46
 70
     0
102
RTVSPost2010Prop47
 90
       50
102
RTVSPost2010PropOp47
 70
     0
102
RTVSPost2010Prop48
 90
       50
102
RTVSPost2010PropOp48
 70
     0
102
RTVSPost2010Prop49
280
     0
102
RTVSPost2010PropOp49
 70
     0
102
RTVSPost2010Prop50
 90
       50
102
RTVSPost2010PropOp50
 70
     0
102
RTVSPost2010Prop51ColorIndex
 90
      256
102
RTVSPost2010Prop51ColorRGB
 90
-16777216
102
RTVSPost2010PropOp51
 70
     0
102
RTVSPost2010Prop52
140
1.0
102
RTVSPost2010PropOp52
 70
     0
102
RTVSPost2010Prop53
 90
        2
102
RTVSPost2010PropOp53
 70
     0
102
RTVSPost2010Prop54
  1
strokes_ogs.tif
102
RTVSPost2010PropOp54
 70
     0
102
RTVSPost2010Prop55
280
     0
102
RTVSPost2010PropOp55
 70
     0
102
RTVSPost2010Prop56
140
1.0
102
RTVSPost2010PropOp56
 70
     0
102
RTVSPost2010Prop57
140
1.0
102
RTVSPost2010PropOp57
 70
     0
102
RTVSPropertyOp0
 70
     0
102
RTVSPropertyOp1
 70
     0
102
RTVSPropertyOp2
 70
     0
102
RTVSPropertyOp3
 70
     0
102
RTVSPropertyOp4
 70
     0
102
RTVSPropertyOp5
 70
     0
102
RTVSPropertyOp6
 70
     0
102
RTVSPropertyOp7
 70
     0
102
RTVSPropertyOp8
 70
     0
102
RTVSPropertyOp9
 70
     0
102
RTVSPropertyOp10
 70
     0
102
RTVSPropertyOp11
 70
     0
102
RTVSPropertyOp12
 70
     0
102
RTVSPropertyOp13
 70
     0
102
RTVSPropertyOp14
 70
     2
102
RTVSPropertyOp15
 70
     0
102
RTVSPropertyOp16
 70
     0
102
RTVSPropertyOp17
 70
     0
102
RTVSPropertyOp18
 70
     0
102
RTVSPropertyOp19
 70
     0
102
RTVSPropertyOp20
 70
     0
102
RTVSPropertyOp21
 70
     0
102
RTVSPropertyOp22
 70
     0
102
RTVSPropertyOp23
 70
     0
102
RTVSPropertyOp24
 70
     0
102
RTVSPropertyOp25
 70
     0
102
RTVSPropertyOp26
 70
     0
102
RTVSPropertyOp27
 70
     0
102
RTVSPropertyOp28
 70
     0
102
RTVSPropertyOp29
 70
     0
102
RTVSPropertyOp30
 70
     0
102
RTVSPropertyOp31
 70
     0
102
RTVSPropertyOp32
 70
     0
102
RTVSPropertyOp33
 70
     0
102
RTVSPropertyOp34
 70
     0
102
RTVSPropertyOp35
 70
     0
102
RTVSPropertyOp36
 70
     0
102
RTVSPropertyOp37
 70
     0
102
RTVSPropertyOp38
 70
     0
102
RTVSPropertyOp39
 70
     0
102
RTVSPropertyOp40
 70
     0
102
RTVSPropertyOp41
 70
     0
102
RTVSPropertyOp42
 70
     0
102
RTVSPropertyOp43
 70
     0
102
RTVSPropertyOp44
 70
     0
102
RTVSPropertyOp45
 70
     0
102
RTVSPropertyOp46
 70
     0
102
RTVSPropertyOp47
 70
     0
102
RTVSPropertyOp48
 70
     0
102
RTVSPropertyOp49
 70
     0
102
RTVSPropertyOp50
 70
     0
102
RTVSPropertyOp51
 70
     0
102
RTVSPropertyOp52
 70
     0
102
RTVSPropertyOp53
 70
     0
102
RTVSPropertyOp54
 70
     0
102
RTVSPropertyOp55
 70
     0
102
RTVSPropertyOp56
 70
     0
102
RTVSPropertyOp57
 70
     0
102
RTVSPropertyOp58
 70
     0
102
RTVSPropertyOp59
 70
     0
102
RTVSPropertyOp60
 70
     0
102
RTVSPropertyOp61
 70
     0
102
RTVSPropertyOp62
 70
     0
  0
XRECORD
  5
954
102
{ACAD_REACTORS
330
953
102
}
330
953
100
AcDbXrecord
280
     1
102
RTVSPost2010Prop28
280
     0
102
RTVSPost2010PropOp28
 70
     1
102
RTVSPost2010Prop29
280
     1
102
RTVSPost2010PropOp29
 70
     1
102
RTVSPost2010Prop30
280
     1
102
RTVSPost2010PropOp30
 70
     1
102
RTVSPost2010Prop31
280
     0
102
RTVSPost2010PropOp31
 70
     1
102
RTVSPost2010Prop32
280
     0
102
RTVSPost2010PropOp32
 70
     1
102
RTVSPost2010Prop33
280
     0
102
RTVSPost2010PropOp33
 70
     1
102
RTVSPost2010Prop34
280
     0
102
RTVSPost2010PropOp34
 70
     1
102
RTVSPost2010Prop35
280
     0
102
RTVSPost2010PropOp35
 70
     1
102
RTVSPost2010Prop36
280
     0
102
RTVSPost2010PropOp36
 70
     1
102
RTVSPost2010Prop37
 90
       50
102
RTVSPost2010PropOp37
 70
     1
102
RTVSPost2010Prop38
140
0.0
102
RTVSPost2010PropOp38
 70
     1
102
RTVSPost2010Prop39
140
1.0
102
RTVSPost2010PropOp39
 70
     1
102
RTVSPost2010Prop40
 90
        0
102
RTVSPost2010PropOp40
 70
     1
102
RTVSPost2010Prop41ColorIndex
 90
       18
102
RTVSPost2010Prop41ColorRGB
 90
        0
102
RTVSPost2010PropOp41
 70
     1
102
RTVSPost2010Prop42
 90
       50
102
RTVSPost2010PropOp42
 70
     1
102
RTVSPost2010Prop43
 90
        3
102
RTVSPost2010PropOp43
 70
     1
102
RTVSPost2010Prop44ColorIndex
 90
        5
102
RTVSPost2010Prop44ColorRGB
 90
      255
102
RTVSPost2010PropOp44
 70
     1
102
RTVSPost2010Prop45
280
     0
102
RTVSPost2010PropOp45
 70
     1
102
RTVSPost2010Prop46
 90
       50
102
RTVSPost2010PropOp46
 70
     1
102
RTVSPost2010Prop47
 90
       50
102
RTVSPost2010PropOp47
 70
     1
102
RTVSPost2010Prop48
 90
       50
102
RTVSPost2010PropOp48
 70
     1
102
RTVSPost2010Prop49
280
     0
102
RTVSPost2010PropOp49
 70
     1
102
RTVSPost2010Prop50
 90
       50
102
RTVSPost2010PropOp50
 70
     1
102
RTVSPost2010Prop51ColorIndex
 90
      256
102
RTVSPost2010Prop51ColorRGB
 90
-16777216
102
RTVSPost2010PropOp51
 70
     0
102
RTVSPost2010Prop52
140
1.0
102
RTVSPost2010PropOp52
 70
     0
102
RTVSPost2010Prop53
 90
        2
102
RTVSPost2010PropOp53
 70
     1
102
RTVSPost2010Prop54
  1
strokes_ogs.tif
102
RTVSPost2010PropOp54
 70
     1
102
RTVSPost2010Prop55
280
     0
102
RTVSPost2010PropOp55
 70
     1
102
RTVSPost2010Prop56
140
1.0
102
RTVSPost2010PropOp56
 70
     1
102
RTVSPost2010Prop57
140
1.0
102
RTVSPost2010PropOp57
 70
     1
102
RTVSPropertyOp0
 70
     1
102
RTVSPropertyOp1
 70
     1
102
RTVSPropertyOp2
 70
     1
102
RTVSPropertyOp3
 70
     1
102
RTVSPropertyOp4
 70
     1
102
RTVSPropertyOp5
 70
     1
102
RTVSPropertyOp6
 70
     1
102
RTVSPropertyOp7
 70
     1
102
RTVSPropertyOp8
 70
     1
102
RTVSPropertyOp9
 70
     1
102
RTVSPropertyOp10
 70
     1
102
RTVSPropertyOp11
 70
     1
102
RTVSPropertyOp12
 70
     1
102
RTVSPropertyOp13
 70
     1
102
RTVSPropertyOp14
 70
     1
102
RTVSPropertyOp15
 70
     1
102
RTVSPropertyOp16
 70
     1
102
RTVSPropertyOp17
 70
     1
102
RTVSPropertyOp18
 70
     1
102
RTVSPropertyOp19
 70
     1
102
RTVSPropertyOp20
 70
     1
102
RTVSPropertyOp21
 70
     1
102
RTVSPropertyOp22
 70
     1
102
RTVSPropertyOp23
 70
     1
102
RTVSPropertyOp24
 70
     1
102
RTVSPropertyOp25
 70
     1
102
RTVSPropertyOp26
 70
     1
102
RTVSPropertyOp27
 70
     1
102
RTVSPropertyOp28
 70
     1
102
RTVSPropertyOp29
 70
     1
102
RTVSPropertyOp30
 70
     1
102
RTVSPropertyOp31
 70
     1
102
RTVSPropertyOp32
 70
     1
102
RTVSPropertyOp33
 70
     1
102
RTVSPropertyOp34
 70
     1
102
RTVSPropertyOp35
 70
     1
102
RTVSPropertyOp36
 70
     1
102
RTVSPropertyOp37
 70
     1
102
RTVSPropertyOp38
 70
     1
102
RTVSPropertyOp39
 70
     1
102
RTVSPropertyOp40
 70
     1
102
RTVSPropertyOp41
 70
     1
102
RTVSPropertyOp42
 70
     1
102
RTVSPropertyOp43
 70
     1
102
RTVSPropertyOp44
 70
     1
102
RTVSPropertyOp45
 70
     1
102
RTVSPropertyOp46
 70
     1
102
RTVSPropertyOp47
 70
     1
102
RTVSPropertyOp48
 70
     1
102
RTVSPropertyOp49
 70
     1
102
RTVSPropertyOp50
 70
     1
102
RTVSPropertyOp51
 70
     0
102
RTVSPropertyOp52
 70
     0
102
RTVSPropertyOp53
 70
     1
102
RTVSPropertyOp54
 70
     1
102
RTVSPropertyOp55
 70
     1
102
RTVSPropertyOp56
 70
     1
102
RTVSPropertyOp57
 70
     1
102
RTVSPropertyOp58
 70
     1
102
RTVSPropertyOp59
 70
     1
102
RTVSPropertyOp60
 70
     1
102
RTVSPropertyOp61
 70
     1
102
RTVSPropertyOp62
 70
     1
  0
XRECORD
  5
96A
102
{ACAD_REACTORS
330
969
102
}
330
969
100
AcDbXrecord
280
     1
102
RTVSPost2010Prop28
280
     0
102
RTVSPost2010PropOp28
 70
     0
102
RTVSPost2010Prop29
280
     1
102
RTVSPost2010PropOp29
 70
     0
102
RTVSPost2010Prop30
280
     1
102
RTVSPost2010PropOp30
 70
     0
102
RTVSPost2010Prop31
280
     0
102
RTVSPost2010PropOp31
 70
     0
102
RTVSPost2010Prop32
280
     0
102
RTVSPost2010PropOp32
 70
     0
102
RTVSPost2010Prop33
280
     0
102
RTVSPost2010PropOp33
 70
     0
102
RTVSPost2010Prop34
280
     0
102
RTVSPost2010PropOp34
 70
     0
102
RTVSPost2010Prop35
280
     0
102
RTVSPost2010PropOp35
 70
     0
102
RTVSPost2010Prop36
280
     0
102
RTVSPost2010PropOp36
 70
     0
102
RTVSPost2010Prop37
 90
       50
102
RTVSPost2010PropOp37
 70
     0
102
RTVSPost2010Prop38
140
0.0
102
RTVSPost2010PropOp38
 70
     0
102
RTVSPost2010Prop39
140
1.0
102
RTVSPost2010PropOp39
 70
     0
102
RTVSPost2010Prop40
 90
        0
102
RTVSPost2010PropOp40
 70
     0
102
RTVSPost2010Prop41ColorIndex
 90
       18
102
RTVSPost2010Prop41ColorRGB
 90
        0
102
RTVSPost2010PropOp41
 70
     0
102
RTVSPost2010Prop42
 90
       50
102
RTVSPost2010PropOp42
 70
     0
102
RTVSPost2010Prop43
 90
        3
102
RTVSPost2010PropOp43
 70
     0
102
RTVSPost2010Prop44ColorIndex
 90
        5
102
RTVSPost2010Prop44ColorRGB
 90
      255
102
RTVSPost2010PropOp44
 70
     0
102
RTVSPost2010Prop45
280
     0
102
RTVSPost2010PropOp45
 70
     0
102
RTVSPost2010Prop46
 90
       50
102
RTVSPost2010PropOp46
 70
     0
102
RTVSPost2010Prop47
 90
       50
102
RTVSPost2010PropOp47
 70
     0
102
RTVSPost2010Prop48
 90
       50
102
RTVSPost2010PropOp48
 70
     0
102
RTVSPost2010Prop49
280
     0
102
RTVSPost2010PropOp49
 70
     0
102
RTVSPost2010Prop50
 90
       50
102
RTVSPost2010PropOp50
 70
     0
102
RTVSPost2010Prop51ColorIndex
 90
      256
102
RTVSPost2010Prop51ColorRGB
 90
-16777216
102
RTVSPost2010PropOp51
 70
     0
102
RTVSPost2010Prop52
140
1.0
102
RTVSPost2010PropOp52
 70
     0
102
RTVSPost2010Prop53
 90
        2
102
RTVSPost2010PropOp53
 70
     0
102
RTVSPost2010Prop54
  1
strokes_ogs.tif
102
RTVSPost2010PropOp54
 70
     0
102
RTVSPost2010Prop55
280
     0
102
RTVSPost2010PropOp55
 70
     0
102
RTVSPost2010Prop56
140
1.0
102
RTVSPost2010PropOp56
 70
     0
102
RTVSPost2010Prop57
140
1.0
102
RTVSPost2010PropOp57
 70
     0
102
RTVSPropertyOp0
 70
     0
102
RTVSPropertyOp1
 70
     0
102
RTVSPropertyOp2
 70
     0
102
RTVSPropertyOp3
 70
     0
102
RTVSPropertyOp4
 70
     0
102
RTVSPropertyOp5
 70
     0
102
RTVSPropertyOp6
 70
     0
102
RTVSPropertyOp7
 70
     0
102
RTVSPropertyOp8
 70
     0
102
RTVSPropertyOp9
 70
     0
102
RTVSPropertyOp10
 70
     0
102
RTVSPropertyOp11
 70
     0
102
RTVSPropertyOp12
 70
     0
102
RTVSPropertyOp13
 70
     0
102
RTVSPropertyOp14
 70
     2
102
RTVSPropertyOp15
 70
     0
102
RTVSPropertyOp16
 70
     0
102
RTVSPropertyOp17
 70
     0
102
RTVSPropertyOp18
 70
     0
102
RTVSPropertyOp19
 70
     0
102
RTVSPropertyOp20
 70
     0
102
RTVSPropertyOp21
 70
     0
102
RTVSPropertyOp22
 70
     0
102
RTVSPropertyOp23
 70
     0
102
RTVSPropertyOp24
 70
     0
102
RTVSPropertyOp25
 70
     0
102
RTVSPropertyOp26
 70
     0
102
RTVSPropertyOp27
 70
     0
102
RTVSPropertyOp28
 70
     0
102
RTVSPropertyOp29
 70
     0
102
RTVSPropertyOp30
 70
     0
102
RTVSPropertyOp31
 70
     0
102
RTVSPropertyOp32
 70
     0
102
RTVSPropertyOp33
 70
     0
102
RTVSPropertyOp34
 70
     0
102
RTVSPropertyOp35
 70
     0
102
RTVSPropertyOp36
 70
     0
102
RTVSPropertyOp37
 70
     0
102
RTVSPropertyOp38
 70
     0
102
RTVSPropertyOp39
 70
     0
102
RTVSPropertyOp40
 70
     0
102
RTVSPropertyOp41
 70
     0
102
RTVSPropertyOp42
 70
     0
102
RTVSPropertyOp43
 70
     0
102
RTVSPropertyOp44
 70
     0
102
RTVSPropertyOp45
 70
     0
102
RTVSPropertyOp46
 70
     0
102
RTVSPropertyOp47
 70
     0
102
RTVSPropertyOp48
 70
     0
102
RTVSPropertyOp49
 70
     0
102
RTVSPropertyOp50
 70
     0
102
RTVSPropertyOp51
 70
     0
102
RTVSPropertyOp52
 70
     0
102
RTVSPropertyOp53
 70
     0
102
RTVSPropertyOp54
 70
     0
102
RTVSPropertyOp55
 70
     0
102
RTVSPropertyOp56
 70
     0
102
RTVSPropertyOp57
 70
     0
102
RTVSPropertyOp58
 70
     0
102
RTVSPropertyOp59
 70
     0
102
RTVSPropertyOp60
 70
     0
102
RTVSPropertyOp61
 70
     0
102
RTVSPropertyOp62
 70
     0
  0
XRECORD
  5
94C
102
{ACAD_REACTORS
330
94B
102
}
330
94B
100
AcDbXrecord
280
     1
102
RTVSPost2010Prop28
280
     0
102
RTVSPost2010PropOp28
 70
     1
102
RTVSPost2010Prop29
280
     1
102
RTVSPost2010PropOp29
 70
     1
102
RTVSPost2010Prop30
280
     1
102
RTVSPost2010PropOp30
 70
     1
102
RTVSPost2010Prop31
280
     0
102
RTVSPost2010PropOp31
 70
     1
102
RTVSPost2010Prop32
280
     0
102
RTVSPost2010PropOp32
 70
     1
102
RTVSPost2010Prop33
280
     0
102
RTVSPost2010PropOp33
 70
     1
102
RTVSPost2010Prop34
280
     0
102
RTVSPost2010PropOp34
 70
     1
102
RTVSPost2010Prop35
280
     0
102
RTVSPost2010PropOp35
 70
     1
102
RTVSPost2010Prop36
280
     0
102
RTVSPost2010PropOp36
 70
     1
102
RTVSPost2010Prop37
 90
       50
102
RTVSPost2010PropOp37
 70
     1
102
RTVSPost2010Prop38
140
0.0
102
RTVSPost2010PropOp38
 70
     1
102
RTVSPost2010Prop39
140
1.0
102
RTVSPost2010PropOp39
 70
     1
102
RTVSPost2010Prop40
 90
        0
102
RTVSPost2010PropOp40
 70
     1
102
RTVSPost2010Prop41ColorIndex
 90
       18
102
RTVSPost2010Prop41ColorRGB
 90
        0
102
RTVSPost2010PropOp41
 70
     1
102
RTVSPost2010Prop42
 90
       50
102
RTVSPost2010PropOp42
 70
     1
102
RTVSPost2010Prop43
 90
        3
102
RTVSPost2010PropOp43
 70
     1
102
RTVSPost2010Prop44ColorIndex
 90
        5
102
RTVSPost2010Prop44ColorRGB
 90
      255
102
RTVSPost2010PropOp44
 70
     1
102
RTVSPost2010Prop45
280
     0
102
RTVSPost2010PropOp45
 70
     1
102
RTVSPost2010Prop46
 90
       50
102
RTVSPost2010PropOp46
 70
     1
102
RTVSPost2010Prop47
 90
       50
102
RTVSPost2010PropOp47
 70
     1
102
RTVSPost2010Prop48
 90
       50
102
RTVSPost2010PropOp48
 70
     1
102
RTVSPost2010Prop49
280
     0
102
RTVSPost2010PropOp49
 70
     1
102
RTVSPost2010Prop50
 90
       50
102
RTVSPost2010PropOp50
 70
     1
102
RTVSPost2010Prop51ColorIndex
 90
      256
102
RTVSPost2010Prop51ColorRGB
 90
-16777216
102
RTVSPost2010PropOp51
 70
     0
102
RTVSPost2010Prop52
140
1.0
102
RTVSPost2010PropOp52
 70
     0
102
RTVSPost2010Prop53
 90
        2
102
RTVSPost2010PropOp53
 70
     1
102
RTVSPost2010Prop54
  1
strokes_ogs.tif
102
RTVSPost2010PropOp54
 70
     1
102
RTVSPost2010Prop55
280
     0
102
RTVSPost2010PropOp55
 70
     1
102
RTVSPost2010Prop56
140
1.0
102
RTVSPost2010PropOp56
 70
     1
102
RTVSPost2010Prop57
140
1.0
102
RTVSPost2010PropOp57
 70
     1
102
RTVSPropertyOp0
 70
     1
102
RTVSPropertyOp1
 70
     1
102
RTVSPropertyOp2
 70
     1
102
RTVSPropertyOp3
 70
     1
102
RTVSPropertyOp4
 70
     1
102
RTVSPropertyOp5
 70
     1
102
RTVSPropertyOp6
 70
     1
102
RTVSPropertyOp7
 70
     1
102
RTVSPropertyOp8
 70
     1
102
RTVSPropertyOp9
 70
     1
102
RTVSPropertyOp10
 70
     1
102
RTVSPropertyOp11
 70
     1
102
RTVSPropertyOp12
 70
     1
102
RTVSPropertyOp13
 70
     1
102
RTVSPropertyOp14
 70
     1
102
RTVSPropertyOp15
 70
     1
102
RTVSPropertyOp16
 70
     1
102
RTVSPropertyOp17
 70
     1
102
RTVSPropertyOp18
 70
     1
102
RTVSPropertyOp19
 70
     1
102
RTVSPropertyOp20
 70
     1
102
RTVSPropertyOp21
 70
     1
102
RTVSPropertyOp22
 70
     1
102
RTVSPropertyOp23
 70
     1
102
RTVSPropertyOp24
 70
     1
102
RTVSPropertyOp25
 70
     1
102
RTVSPropertyOp26
 70
     1
102
RTVSPropertyOp27
 70
     1
102
RTVSPropertyOp28
 70
     1
102
RTVSPropertyOp29
 70
     1
102
RTVSPropertyOp30
 70
     1
102
RTVSPropertyOp31
 70
     1
102
RTVSPropertyOp32
 70
     1
102
RTVSPropertyOp33
 70
     1
102
RTVSPropertyOp34
 70
     1
102
RTVSPropertyOp35
 70
     1
102
RTVSPropertyOp36
 70
     1
102
RTVSPropertyOp37
 70
     1
102
RTVSPropertyOp38
 70
     1
102
RTVSPropertyOp39
 70
     1
102
RTVSPropertyOp40
 70
     1
102
RTVSPropertyOp41
 70
     1
102
RTVSPropertyOp42
 70
     1
102
RTVSPropertyOp43
 70
     1
102
RTVSPropertyOp44
 70
     1
102
RTVSPropertyOp45
 70
     1
102
RTVSPropertyOp46
 70
     1
102
RTVSPropertyOp47
 70
     1
102
RTVSPropertyOp48
 70
     1
102
RTVSPropertyOp49
 70
     1
102
RTVSPropertyOp50
 70
     1
102
RTVSPropertyOp51
 70
     0
102
RTVSPropertyOp52
 70
     0
102
RTVSPropertyOp53
 70
     1
102
RTVSPropertyOp54
 70
     1
102
RTVSPropertyOp55
 70
     1
102
RTVSPropertyOp56
 70
     1
102
RTVSPropertyOp57
 70
     1
102
RTVSPropertyOp58
 70
     1
102
RTVSPropertyOp59
 70
     1
102
RTVSPropertyOp60
 70
     1
102
RTVSPropertyOp61
 70
     1
102
RTVSPropertyOp62
 70
     1
  0
XRECORD
  5
966
102
{ACAD_REACTORS
330
965
102
}
330
965
100
AcDbXrecord
280
     1
102
RTVSPost2010Prop28
280
     0
102
RTVSPost2010PropOp28
 70
     1
102
RTVSPost2010Prop29
280
     1
102
RTVSPost2010PropOp29
 70
     1
102
RTVSPost2010Prop30
280
     1
102
RTVSPost2010PropOp30
 70
     1
102
RTVSPost2010Prop31
280
     0
102
RTVSPost2010PropOp31
 70
     1
102
RTVSPost2010Prop32
280
     0
102
RTVSPost2010PropOp32
 70
     1
102
RTVSPost2010Prop33
280
     0
102
RTVSPost2010PropOp33
 70
     1
102
RTVSPost2010Prop34
280
     0
102
RTVSPost2010PropOp34
 70
     1
102
RTVSPost2010Prop35
280
     0
102
RTVSPost2010PropOp35
 70
     1
102
RTVSPost2010Prop36
280
     0
102
RTVSPost2010PropOp36
 70
     1
102
RTVSPost2010Prop37
 90
       50
102
RTVSPost2010PropOp37
 70
     1
102
RTVSPost2010Prop38
140
0.0
102
RTVSPost2010PropOp38
 70
     1
102
RTVSPost2010Prop39
140
1.0
102
RTVSPost2010PropOp39
 70
     1
102
RTVSPost2010Prop40
 90
        0
102
RTVSPost2010PropOp40
 70
     1
102
RTVSPost2010Prop41ColorIndex
 90
       18
102
RTVSPost2010Prop41ColorRGB
 90
        0
102
RTVSPost2010PropOp41
 70
     1
102
RTVSPost2010Prop42
 90
       50
102
RTVSPost2010PropOp42
 70
     1
102
RTVSPost2010Prop43
 90
        3
102
RTVSPost2010PropOp43
 70
     1
102
RTVSPost2010Prop44ColorIndex
 90
        5
102
RTVSPost2010Prop44ColorRGB
 90
      255
102
RTVSPost2010PropOp44
 70
     1
102
RTVSPost2010Prop45
280
     0
102
RTVSPost2010PropOp45
 70
     1
102
RTVSPost2010Prop46
 90
       50
102
RTVSPost2010PropOp46
 70
     1
102
RTVSPost2010Prop47
 90
       50
102
RTVSPost2010PropOp47
 70
     1
102
RTVSPost2010Prop48
 90
       50
102
RTVSPost2010PropOp48
 70
     1
102
RTVSPost2010Prop49
280
     0
102
RTVSPost2010PropOp49
 70
     1
102
RTVSPost2010Prop50
 90
       50
102
RTVSPost2010PropOp50
 70
     1
102
RTVSPost2010Prop51ColorIndex
 90
      256
102
RTVSPost2010Prop51ColorRGB
 90
-16777216
102
RTVSPost2010PropOp51
 70
     0
102
RTVSPost2010Prop52
140
1.0
102
RTVSPost2010PropOp52
 70
     0
102
RTVSPost2010Prop53
 90
        2
102
RTVSPost2010PropOp53
 70
     1
102
RTVSPost2010Prop54
  1
strokes_ogs.tif
102
RTVSPost2010PropOp54
 70
     1
102
RTVSPost2010Prop55
280
     0
102
RTVSPost2010PropOp55
 70
     1
102
RTVSPost2010Prop56
140
1.0
102
RTVSPost2010PropOp56
 70
     1
102
RTVSPost2010Prop57
140
1.0
102
RTVSPost2010PropOp57
 70
     1
102
RTVSPropertyOp0
 70
     1
102
RTVSPropertyOp1
 70
     1
102
RTVSPropertyOp2
 70
     1
102
RTVSPropertyOp3
 70
     1
102
RTVSPropertyOp4
 70
     1
102
RTVSPropertyOp5
 70
     1
102
RTVSPropertyOp6
 70
     1
102
RTVSPropertyOp7
 70
     1
102
RTVSPropertyOp8
 70
     1
102
RTVSPropertyOp9
 70
     1
102
RTVSPropertyOp10
 70
     1
102
RTVSPropertyOp11
 70
     1
102
RTVSPropertyOp12
 70
     1
102
RTVSPropertyOp13
 70
     1
102
RTVSPropertyOp14
 70
     1
102
RTVSPropertyOp15
 70
     1
102
RTVSPropertyOp16
 70
     1
102
RTVSPropertyOp17
 70
     1
102
RTVSPropertyOp18
 70
     1
102
RTVSPropertyOp19
 70
     1
102
RTVSPropertyOp20
 70
     1
102
RTVSPropertyOp21
 70
     1
102
RTVSPropertyOp22
 70
     1
102
RTVSPropertyOp23
 70
     1
102
RTVSPropertyOp24
 70
     1
102
RTVSPropertyOp25
 70
     1
102
RTVSPropertyOp26
 70
     1
102
RTVSPropertyOp27
 70
     1
102
RTVSPropertyOp28
 70
     1
102
RTVSPropertyOp29
 70
     1
102
RTVSPropertyOp30
 70
     1
102
RTVSPropertyOp31
 70
     1
102
RTVSPropertyOp32
 70
     1
102
RTVSPropertyOp33
 70
     1
102
RTVSPropertyOp34
 70
     1
102
RTVSPropertyOp35
 70
     1
102
RTVSPropertyOp36
 70
     1
102
RTVSPropertyOp37
 70
     1
102
RTVSPropertyOp38
 70
     1
102
RTVSPropertyOp39
 70
     1
102
RTVSPropertyOp40
 70
     1
102
RTVSPropertyOp41
 70
     1
102
RTVSPropertyOp42
 70
     1
102
RTVSPropertyOp43
 70
     1
102
RTVSPropertyOp44
 70
     1
102
RTVSPropertyOp45
 70
     1
102
RTVSPropertyOp46
 70
     1
102
RTVSPropertyOp47
 70
     1
102
RTVSPropertyOp48
 70
     1
102
RTVSPropertyOp49
 70
     1
102
RTVSPropertyOp50
 70
     1
102
RTVSPropertyOp51
 70
     0
102
RTVSPropertyOp52
 70
     0
102
RTVSPropertyOp53
 70
     1
102
RTVSPropertyOp54
 70
     1
102
RTVSPropertyOp55
 70
     1
102
RTVSPropertyOp56
 70
     1
102
RTVSPropertyOp57
 70
     1
102
RTVSPropertyOp58
 70
     1
102
RTVSPropertyOp59
 70
     1
102
RTVSPropertyOp60
 70
     1
102
RTVSPropertyOp61
 70
     1
102
RTVSPropertyOp62
 70
     1
  0
XRECORD
  5
964
102
{ACAD_REACTORS
330
963
102
}
330
963
100
AcDbXrecord
280
     1
102
RTVSPost2010Prop28
280
     0
102
RTVSPost2010PropOp28
 70
     1
102
RTVSPost2010Prop29
280
     1
102
RTVSPost2010PropOp29
 70
     1
102
RTVSPost2010Prop30
280
     1
102
RTVSPost2010PropOp30
 70
     1
102
RTVSPost2010Prop31
280
     0
102
RTVSPost2010PropOp31
 70
     1
102
RTVSPost2010Prop32
280
     0
102
RTVSPost2010PropOp32
 70
     1
102
RTVSPost2010Prop33
280
     0
102
RTVSPost2010PropOp33
 70
     1
102
RTVSPost2010Prop34
280
     0
102
RTVSPost2010PropOp34
 70
     1
102
RTVSPost2010Prop35
280
     0
102
RTVSPost2010PropOp35
 70
     1
102
RTVSPost2010Prop36
280
     0
102
RTVSPost2010PropOp36
 70
     1
102
RTVSPost2010Prop37
 90
       50
102
RTVSPost2010PropOp37
 70
     1
102
RTVSPost2010Prop38
140
0.0
102
RTVSPost2010PropOp38
 70
     1
102
RTVSPost2010Prop39
140
1.0
102
RTVSPost2010PropOp39
 70
     1
102
RTVSPost2010Prop40
 90
        0
102
RTVSPost2010PropOp40
 70
     1
102
RTVSPost2010Prop41ColorIndex
 90
       18
102
RTVSPost2010Prop41ColorRGB
 90
        0
102
RTVSPost2010PropOp41
 70
     1
102
RTVSPost2010Prop42
 90
       50
102
RTVSPost2010PropOp42
 70
     1
102
RTVSPost2010Prop43
 90
        3
102
RTVSPost2010PropOp43
 70
     1
102
RTVSPost2010Prop44ColorIndex
 90
        5
102
RTVSPost2010Prop44ColorRGB
 90
      255
102
RTVSPost2010PropOp44
 70
     1
102
RTVSPost2010Prop45
280
     0
102
RTVSPost2010PropOp45
 70
     1
102
RTVSPost2010Prop46
 90
       50
102
RTVSPost2010PropOp46
 70
     1
102
RTVSPost2010Prop47
 90
       50
102
RTVSPost2010PropOp47
 70
     1
102
RTVSPost2010Prop48
 90
       50
102
RTVSPost2010PropOp48
 70
     1
102
RTVSPost2010Prop49
280
     0
102
RTVSPost2010PropOp49
 70
     1
102
RTVSPost2010Prop50
 90
       50
102
RTVSPost2010PropOp50
 70
     1
102
RTVSPost2010Prop51ColorIndex
 90
      256
102
RTVSPost2010Prop51ColorRGB
 90
-16777216
102
RTVSPost2010PropOp51
 70
     0
102
RTVSPost2010Prop52
140
1.0
102
RTVSPost2010PropOp52
 70
     0
102
RTVSPost2010Prop53
 90
        2
102
RTVSPost2010PropOp53
 70
     1
102
RTVSPost2010Prop54
  1
strokes_ogs.tif
102
RTVSPost2010PropOp54
 70
     1
102
RTVSPost2010Prop55
280
     0
102
RTVSPost2010PropOp55
 70
     1
102
RTVSPost2010Prop56
140
1.0
102
RTVSPost2010PropOp56
 70
     1
102
RTVSPost2010Prop57
140
1.0
102
RTVSPost2010PropOp57
 70
     1
102
RTVSPropertyOp0
 70
     1
102
RTVSPropertyOp1
 70
     1
102
RTVSPropertyOp2
 70
     1
102
RTVSPropertyOp3
 70
     1
102
RTVSPropertyOp4
 70
     1
102
RTVSPropertyOp5
 70
     1
102
RTVSPropertyOp6
 70
     1
102
RTVSPropertyOp7
 70
     1
102
RTVSPropertyOp8
 70
     1
102
RTVSPropertyOp9
 70
     1
102
RTVSPropertyOp10
 70
     1
102
RTVSPropertyOp11
 70
     1
102
RTVSPropertyOp12
 70
     1
102
RTVSPropertyOp13
 70
     1
102
RTVSPropertyOp14
 70
     1
102
RTVSPropertyOp15
 70
     1
102
RTVSPropertyOp16
 70
     1
102
RTVSPropertyOp17
 70
     1
102
RTVSPropertyOp18
 70
     1
102
RTVSPropertyOp19
 70
     1
102
RTVSPropertyOp20
 70
     1
102
RTVSPropertyOp21
 70
     1
102
RTVSPropertyOp22
 70
     1
102
RTVSPropertyOp23
 70
     1
102
RTVSPropertyOp24
 70
     1
102
RTVSPropertyOp25
 70
     1
102
RTVSPropertyOp26
 70
     1
102
RTVSPropertyOp27
 70
     1
102
RTVSPropertyOp28
 70
     1
102
RTVSPropertyOp29
 70
     1
102
RTVSPropertyOp30
 70
     1
102
RTVSPropertyOp31
 70
     1
102
RTVSPropertyOp32
 70
     1
102
RTVSPropertyOp33
 70
     1
102
RTVSPropertyOp34
 70
     1
102
RTVSPropertyOp35
 70
     1
102
RTVSPropertyOp36
 70
     1
102
RTVSPropertyOp37
 70
     1
102
RTVSPropertyOp38
 70
     1
102
RTVSPropertyOp39
 70
     1
102
RTVSPropertyOp40
 70
     1
102
RTVSPropertyOp41
 70
     1
102
RTVSPropertyOp42
 70
     1
102
RTVSPropertyOp43
 70
     1
102
RTVSPropertyOp44
 70
     1
102
RTVSPropertyOp45
 70
     1
102
RTVSPropertyOp46
 70
     1
102
RTVSPropertyOp47
 70
     1
102
RTVSPropertyOp48
 70
     1
102
RTVSPropertyOp49
 70
     1
102
RTVSPropertyOp50
 70
     1
102
RTVSPropertyOp51
 70
     0
102
RTVSPropertyOp52
 70
     0
102
RTVSPropertyOp53
 70
     1
102
RTVSPropertyOp54
 70
     1
102
RTVSPropertyOp55
 70
     1
102
RTVSPropertyOp56
 70
     1
102
RTVSPropertyOp57
 70
     1
102
RTVSPropertyOp58
 70
     1
102
RTVSPropertyOp59
 70
     1
102
RTVSPropertyOp60
 70
     1
102
RTVSPropertyOp61
 70
     1
102
RTVSPropertyOp62
 70
     1
  0
XRECORD
  5
95E
102
{ACAD_REACTORS
330
95D
102
}
330
95D
100
AcDbXrecord
280
     1
102
RTVSPost2010Prop28
280
     0
102
RTVSPost2010PropOp28
 70
     1
102
RTVSPost2010Prop29
280
     1
102
RTVSPost2010PropOp29
 70
     1
102
RTVSPost2010Prop30
280
     1
102
RTVSPost2010PropOp30
 70
     1
102
RTVSPost2010Prop31
280
     0
102
RTVSPost2010PropOp31
 70
     1
102
RTVSPost2010Prop32
280
     0
102
RTVSPost2010PropOp32
 70
     1
102
RTVSPost2010Prop33
280
     0
102
RTVSPost2010PropOp33
 70
     1
102
RTVSPost2010Prop34
280
     0
102
RTVSPost2010PropOp34
 70
     1
102
RTVSPost2010Prop35
280
     0
102
RTVSPost2010PropOp35
 70
     1
102
RTVSPost2010Prop36
280
     0
102
RTVSPost2010PropOp36
 70
     1
102
RTVSPost2010Prop37
 90
       50
102
RTVSPost2010PropOp37
 70
     1
102
RTVSPost2010Prop38
140
0.0
102
RTVSPost2010PropOp38
 70
     1
102
RTVSPost2010Prop39
140
1.0
102
RTVSPost2010PropOp39
 70
     1
102
RTVSPost2010Prop40
 90
        0
102
RTVSPost2010PropOp40
 70
     1
102
RTVSPost2010Prop41ColorIndex
 90
       18
102
RTVSPost2010Prop41ColorRGB
 90
        0
102
RTVSPost2010PropOp41
 70
     1
102
RTVSPost2010Prop42
 90
       50
102
RTVSPost2010PropOp42
 70
     1
102
RTVSPost2010Prop43
 90
        3
102
RTVSPost2010PropOp43
 70
     1
102
RTVSPost2010Prop44ColorIndex
 90
        5
102
RTVSPost2010Prop44ColorRGB
 90
      255
102
RTVSPost2010PropOp44
 70
     1
102
RTVSPost2010Prop45
280
     0
102
RTVSPost2010PropOp45
 70
     1
102
RTVSPost2010Prop46
 90
       50
102
RTVSPost2010PropOp46
 70
     1
102
RTVSPost2010Prop47
 90
       50
102
RTVSPost2010PropOp47
 70
     1
102
RTVSPost2010Prop48
 90
       50
102
RTVSPost2010PropOp48
 70
     1
102
RTVSPost2010Prop49
280
     0
102
RTVSPost2010PropOp49
 70
     1
102
RTVSPost2010Prop50
 90
       50
102
RTVSPost2010PropOp50
 70
     1
102
RTVSPost2010Prop51ColorIndex
 90
      256
102
RTVSPost2010Prop51ColorRGB
 90
-16777216
102
RTVSPost2010PropOp51
 70
     0
102
RTVSPost2010Prop52
140
1.0
102
RTVSPost2010PropOp52
 70
     0
102
RTVSPost2010Prop53
 90
        2
102
RTVSPost2010PropOp53
 70
     1
102
RTVSPost2010Prop54
  1
strokes_ogs.tif
102
RTVSPost2010PropOp54
 70
     1
102
RTVSPost2010Prop55
280
     0
102
RTVSPost2010PropOp55
 70
     1
102
RTVSPost2010Prop56
140
1.0
102
RTVSPost2010PropOp56
 70
     1
102
RTVSPost2010Prop57
140
1.0
102
RTVSPost2010PropOp57
 70
     1
102
RTVSPropertyOp0
 70
     1
102
RTVSPropertyOp1
 70
     1
102
RTVSPropertyOp2
 70
     1
102
RTVSPropertyOp3
 70
     1
102
RTVSPropertyOp4
 70
     1
102
RTVSPropertyOp5
 70
     1
102
RTVSPropertyOp6
 70
     1
102
RTVSPropertyOp7
 70
     1
102
RTVSPropertyOp8
 70
     1
102
RTVSPropertyOp9
 70
     1
102
RTVSPropertyOp10
 70
     1
102
RTVSPropertyOp11
 70
     1
102
RTVSPropertyOp12
 70
     1
102
RTVSPropertyOp13
 70
     1
102
RTVSPropertyOp14
 70
     1
102
RTVSPropertyOp15
 70
     1
102
RTVSPropertyOp16
 70
     1
102
RTVSPropertyOp17
 70
     1
102
RTVSPropertyOp18
 70
     1
102
RTVSPropertyOp19
 70
     1
102
RTVSPropertyOp20
 70
     1
102
RTVSPropertyOp21
 70
     1
102
RTVSPropertyOp22
 70
     1
102
RTVSPropertyOp23
 70
     1
102
RTVSPropertyOp24
 70
     1
102
RTVSPropertyOp25
 70
     1
102
RTVSPropertyOp26
 70
     1
102
RTVSPropertyOp27
 70
     1
102
RTVSPropertyOp28
 70
     1
102
RTVSPropertyOp29
 70
     1
102
RTVSPropertyOp30
 70
     1
102
RTVSPropertyOp31
 70
     1
102
RTVSPropertyOp32
 70
     1
102
RTVSPropertyOp33
 70
     1
102
RTVSPropertyOp34
 70
     1
102
RTVSPropertyOp35
 70
     1
102
RTVSPropertyOp36
 70
     1
102
RTVSPropertyOp37
 70
     1
102
RTVSPropertyOp38
 70
     1
102
RTVSPropertyOp39
 70
     1
102
RTVSPropertyOp40
 70
     1
102
RTVSPropertyOp41
 70
     1
102
RTVSPropertyOp42
 70
     1
102
RTVSPropertyOp43
 70
     1
102
RTVSPropertyOp44
 70
     1
102
RTVSPropertyOp45
 70
     1
102
RTVSPropertyOp46
 70
     1
102
RTVSPropertyOp47
 70
     1
102
RTVSPropertyOp48
 70
     1
102
RTVSPropertyOp49
 70
     1
102
RTVSPropertyOp50
 70
     1
102
RTVSPropertyOp51
 70
     0
102
RTVSPropertyOp52
 70
     0
102
RTVSPropertyOp53
 70
     1
102
RTVSPropertyOp54
 70
     1
102
RTVSPropertyOp55
 70
     1
102
RTVSPropertyOp56
 70
     1
102
RTVSPropertyOp57
 70
     1
102
RTVSPropertyOp58
 70
     1
102
RTVSPropertyOp59
 70
     1
102
RTVSPropertyOp60
 70
     1
102
RTVSPropertyOp61
 70
     1
102
RTVSPropertyOp62
 70
     1
  0
XRECORD
  5
960
102
{ACAD_REACTORS
330
95F
102
}
330
95F
100
AcDbXrecord
280
     1
102
RTVSPost2010Prop28
280
     0
102
RTVSPost2010PropOp28
 70
     1
102
RTVSPost2010Prop29
280
     1
102
RTVSPost2010PropOp29
 70
     1
102
RTVSPost2010Prop30
280
     1
102
RTVSPost2010PropOp30
 70
     1
102
RTVSPost2010Prop31
280
     0
102
RTVSPost2010PropOp31
 70
     1
102
RTVSPost2010Prop32
280
     0
102
RTVSPost2010PropOp32
 70
     1
102
RTVSPost2010Prop33
280
     0
102
RTVSPost2010PropOp33
 70
     1
102
RTVSPost2010Prop34
280
     0
102
RTVSPost2010PropOp34
 70
     1
102
RTVSPost2010Prop35
280
     0
102
RTVSPost2010PropOp35
 70
     1
102
RTVSPost2010Prop36
280
     0
102
RTVSPost2010PropOp36
 70
     1
102
RTVSPost2010Prop37
 90
       50
102
RTVSPost2010PropOp37
 70
     1
102
RTVSPost2010Prop38
140
0.0
102
RTVSPost2010PropOp38
 70
     1
102
RTVSPost2010Prop39
140
1.0
102
RTVSPost2010PropOp39
 70
     1
102
RTVSPost2010Prop40
 90
        0
102
RTVSPost2010PropOp40
 70
     1
102
RTVSPost2010Prop41ColorIndex
 90
       18
102
RTVSPost2010Prop41ColorRGB
 90
        0
102
RTVSPost2010PropOp41
 70
     1
102
RTVSPost2010Prop42
 90
       50
102
RTVSPost2010PropOp42
 70
     1
102
RTVSPost2010Prop43
 90
        3
102
RTVSPost2010PropOp43
 70
     1
102
RTVSPost2010Prop44ColorIndex
 90
        5
102
RTVSPost2010Prop44ColorRGB
 90
      255
102
RTVSPost2010PropOp44
 70
     1
102
RTVSPost2010Prop45
280
     0
102
RTVSPost2010PropOp45
 70
     1
102
RTVSPost2010Prop46
 90
       50
102
RTVSPost2010PropOp46
 70
     1
102
RTVSPost2010Prop47
 90
       50
102
RTVSPost2010PropOp47
 70
     1
102
RTVSPost2010Prop48
 90
       50
102
RTVSPost2010PropOp48
 70
     1
102
RTVSPost2010Prop49
280
     0
102
RTVSPost2010PropOp49
 70
     1
102
RTVSPost2010Prop50
 90
       50
102
RTVSPost2010PropOp50
 70
     1
102
RTVSPost2010Prop51ColorIndex
 90
      256
102
RTVSPost2010Prop51ColorRGB
 90
-16777216
102
RTVSPost2010PropOp51
 70
     0
102
RTVSPost2010Prop52
140
1.0
102
RTVSPost2010PropOp52
 70
     0
102
RTVSPost2010Prop53
 90
        2
102
RTVSPost2010PropOp53
 70
     1
102
RTVSPost2010Prop54
  1
strokes_ogs.tif
102
RTVSPost2010PropOp54
 70
     1
102
RTVSPost2010Prop55
280
     0
102
RTVSPost2010PropOp55
 70
     1
102
RTVSPost2010Prop56
140
1.0
102
RTVSPost2010PropOp56
 70
     1
102
RTVSPost2010Prop57
140
1.0
102
RTVSPost2010PropOp57
 70
     1
102
RTVSPropertyOp0
 70
     1
102
RTVSPropertyOp1
 70
     1
102
RTVSPropertyOp2
 70
     1
102
RTVSPropertyOp3
 70
     1
102
RTVSPropertyOp4
 70
     1
102
RTVSPropertyOp5
 70
     1
102
RTVSPropertyOp6
 70
     1
102
RTVSPropertyOp7
 70
     1
102
RTVSPropertyOp8
 70
     1
102
RTVSPropertyOp9
 70
     1
102
RTVSPropertyOp10
 70
     1
102
RTVSPropertyOp11
 70
     1
102
RTVSPropertyOp12
 70
     1
102
RTVSPropertyOp13
 70
     1
102
RTVSPropertyOp14
 70
     1
102
RTVSPropertyOp15
 70
     1
102
RTVSPropertyOp16
 70
     1
102
RTVSPropertyOp17
 70
     1
102
RTVSPropertyOp18
 70
     1
102
RTVSPropertyOp19
 70
     1
102
RTVSPropertyOp20
 70
     1
102
RTVSPropertyOp21
 70
     1
102
RTVSPropertyOp22
 70
     1
102
RTVSPropertyOp23
 70
     1
102
RTVSPropertyOp24
 70
     1
102
RTVSPropertyOp25
 70
     1
102
RTVSPropertyOp26
 70
     1
102
RTVSPropertyOp27
 70
     1
102
RTVSPropertyOp28
 70
     1
102
RTVSPropertyOp29
 70
     1
102
RTVSPropertyOp30
 70
     1
102
RTVSPropertyOp31
 70
     1
102
RTVSPropertyOp32
 70
     1
102
RTVSPropertyOp33
 70
     1
102
RTVSPropertyOp34
 70
     1
102
RTVSPropertyOp35
 70
     1
102
RTVSPropertyOp36
 70
     1
102
RTVSPropertyOp37
 70
     1
102
RTVSPropertyOp38
 70
     1
102
RTVSPropertyOp39
 70
     1
102
RTVSPropertyOp40
 70
     1
102
RTVSPropertyOp41
 70
     1
102
RTVSPropertyOp42
 70
     1
102
RTVSPropertyOp43
 70
     1
102
RTVSPropertyOp44
 70
     1
102
RTVSPropertyOp45
 70
     1
102
RTVSPropertyOp46
 70
     1
102
RTVSPropertyOp47
 70
     1
102
RTVSPropertyOp48
 70
     1
102
RTVSPropertyOp49
 70
     1
102
RTVSPropertyOp50
 70
     1
102
RTVSPropertyOp51
 70
     0
102
RTVSPropertyOp52
 70
     0
102
RTVSPropertyOp53
 70
     1
102
RTVSPropertyOp54
 70
     1
102
RTVSPropertyOp55
 70
     1
102
RTVSPropertyOp56
 70
     1
102
RTVSPropertyOp57
 70
     1
102
RTVSPropertyOp58
 70
     1
102
RTVSPropertyOp59
 70
     1
102
RTVSPropertyOp60
 70
     1
102
RTVSPropertyOp61
 70
     1
102
RTVSPropertyOp62
 70
     1
  0
XRECORD
  5
952
102
{ACAD_REACTORS
330
951
102
}
330
951
100
AcDbXrecord
280
     1
102
RTVSPost2010Prop28
280
     0
102
RTVSPost2010PropOp28
 70
     1
102
RTVSPost2010Prop29
280
     1
102
RTVSPost2010PropOp29
 70
     1
102
RTVSPost2010Prop30
280
     1
102
RTVSPost2010PropOp30
 70
     1
102
RTVSPost2010Prop31
280
     0
102
RTVSPost2010PropOp31
 70
     1
102
RTVSPost2010Prop32
280
     0
102
RTVSPost2010PropOp32
 70
     1
102
RTVSPost2010Prop33
280
     0
102
RTVSPost2010PropOp33
 70
     1
102
RTVSPost2010Prop34
280
     0
102
RTVSPost2010PropOp34
 70
     1
102
RTVSPost2010Prop35
280
     0
102
RTVSPost2010PropOp35
 70
     1
102
RTVSPost2010Prop36
280
     0
102
RTVSPost2010PropOp36
 70
     1
102
RTVSPost2010Prop37
 90
       50
102
RTVSPost2010PropOp37
 70
     1
102
RTVSPost2010Prop38
140
0.0
102
RTVSPost2010PropOp38
 70
     1
102
RTVSPost2010Prop39
140
1.0
102
RTVSPost2010PropOp39
 70
     1
102
RTVSPost2010Prop40
 90
        0
102
RTVSPost2010PropOp40
 70
     1
102
RTVSPost2010Prop41ColorIndex
 90
       18
102
RTVSPost2010Prop41ColorRGB
 90
        0
102
RTVSPost2010PropOp41
 70
     1
102
RTVSPost2010Prop42
 90
       50
102
RTVSPost2010PropOp42
 70
     1
102
RTVSPost2010Prop43
 90
        3
102
RTVSPost2010PropOp43
 70
     1
102
RTVSPost2010Prop44ColorIndex
 90
        5
102
RTVSPost2010Prop44ColorRGB
 90
      255
102
RTVSPost2010PropOp44
 70
     1
102
RTVSPost2010Prop45
280
     0
102
RTVSPost2010PropOp45
 70
     1
102
RTVSPost2010Prop46
 90
       50
102
RTVSPost2010PropOp46
 70
     1
102
RTVSPost2010Prop47
 90
       50
102
RTVSPost2010PropOp47
 70
     1
102
RTVSPost2010Prop48
 90
       50
102
RTVSPost2010PropOp48
 70
     1
102
RTVSPost2010Prop49
280
     0
102
RTVSPost2010PropOp49
 70
     1
102
RTVSPost2010Prop50
 90
       50
102
RTVSPost2010PropOp50
 70
     1
102
RTVSPost2010Prop51ColorIndex
 90
      256
102
RTVSPost2010Prop51ColorRGB
 90
-16777216
102
RTVSPost2010PropOp51
 70
     0
102
RTVSPost2010Prop52
140
1.0
102
RTVSPost2010PropOp52
 70
     0
102
RTVSPost2010Prop53
 90
        2
102
RTVSPost2010PropOp53
 70
     1
102
RTVSPost2010Prop54
  1
strokes_ogs.tif
102
RTVSPost2010PropOp54
 70
     1
102
RTVSPost2010Prop55
280
     0
102
RTVSPost2010PropOp55
 70
     1
102
RTVSPost2010Prop56
140
1.0
102
RTVSPost2010PropOp56
 70
     1
102
RTVSPost2010Prop57
140
1.0
102
RTVSPost2010PropOp57
 70
     1
102
RTVSPropertyOp0
 70
     1
102
RTVSPropertyOp1
 70
     1
102
RTVSPropertyOp2
 70
     1
102
RTVSPropertyOp3
 70
     1
102
RTVSPropertyOp4
 70
     1
102
RTVSPropertyOp5
 70
     1
102
RTVSPropertyOp6
 70
     1
102
RTVSPropertyOp7
 70
     1
102
RTVSPropertyOp8
 70
     1
102
RTVSPropertyOp9
 70
     1
102
RTVSPropertyOp10
 70
     1
102
RTVSPropertyOp11
 70
     1
102
RTVSPropertyOp12
 70
     1
102
RTVSPropertyOp13
 70
     1
102
RTVSPropertyOp14
 70
     1
102
RTVSPropertyOp15
 70
     1
102
RTVSPropertyOp16
 70
     1
102
RTVSPropertyOp17
 70
     1
102
RTVSPropertyOp18
 70
     1
102
RTVSPropertyOp19
 70
     1
102
RTVSPropertyOp20
 70
     1
102
RTVSPropertyOp21
 70
     1
102
RTVSPropertyOp22
 70
     1
102
RTVSPropertyOp23
 70
     1
102
RTVSPropertyOp24
 70
     1
102
RTVSPropertyOp25
 70
     1
102
RTVSPropertyOp26
 70
     1
102
RTVSPropertyOp27
 70
     1
102
RTVSPropertyOp28
 70
     1
102
RTVSPropertyOp29
 70
     1
102
RTVSPropertyOp30
 70
     1
102
RTVSPropertyOp31
 70
     1
102
RTVSPropertyOp32
 70
     1
102
RTVSPropertyOp33
 70
     1
102
RTVSPropertyOp34
 70
     1
102
RTVSPropertyOp35
 70
     1
102
RTVSPropertyOp36
 70
     1
102
RTVSPropertyOp37
 70
     1
102
RTVSPropertyOp38
 70
     1
102
RTVSPropertyOp39
 70
     1
102
RTVSPropertyOp40
 70
     1
102
RTVSPropertyOp41
 70
     1
102
RTVSPropertyOp42
 70
     1
102
RTVSPropertyOp43
 70
     1
102
RTVSPropertyOp44
 70
     1
102
RTVSPropertyOp45
 70
     1
102
RTVSPropertyOp46
 70
     1
102
RTVSPropertyOp47
 70
     1
102
RTVSPropertyOp48
 70
     1
102
RTVSPropertyOp49
 70
     1
102
RTVSPropertyOp50
 70
     1
102
RTVSPropertyOp51
 70
     0
102
RTVSPropertyOp52
 70
     0
102
RTVSPropertyOp53
 70
     1
102
RTVSPropertyOp54
 70
     1
102
RTVSPropertyOp55
 70
     1
102
RTVSPropertyOp56
 70
     1
102
RTVSPropertyOp57
 70
     1
102
RTVSPropertyOp58
 70
     1
102
RTVSPropertyOp59
 70
     1
102
RTVSPropertyOp60
 70
     1
102
RTVSPropertyOp61
 70
     1
102
RTVSPropertyOp62
 70
     1
  0
XRECORD
  5
95A
102
{ACAD_REACTORS
330
959
102
}
330
959
100
AcDbXrecord
280
     1
102
RTVSPost2010Prop28
280
     0
102
RTVSPost2010PropOp28
 70
     1
102
RTVSPost2010Prop29
280
     1
102
RTVSPost2010PropOp29
 70
     1
102
RTVSPost2010Prop30
280
     1
102
RTVSPost2010PropOp30
 70
     1
102
RTVSPost2010Prop31
280
     0
102
RTVSPost2010PropOp31
 70
     1
102
RTVSPost2010Prop32
280
     0
102
RTVSPost2010PropOp32
 70
     1
102
RTVSPost2010Prop33
280
     0
102
RTVSPost2010PropOp33
 70
     1
102
RTVSPost2010Prop34
280
     0
102
RTVSPost2010PropOp34
 70
     1
102
RTVSPost2010Prop35
280
     0
102
RTVSPost2010PropOp35
 70
     1
102
RTVSPost2010Prop36
280
     0
102
RTVSPost2010PropOp36
 70
     1
102
RTVSPost2010Prop37
 90
       50
102
RTVSPost2010PropOp37
 70
     1
102
RTVSPost2010Prop38
140
0.0
102
RTVSPost2010PropOp38
 70
     1
102
RTVSPost2010Prop39
140
1.0
102
RTVSPost2010PropOp39
 70
     1
102
RTVSPost2010Prop40
 90
        0
102
RTVSPost2010PropOp40
 70
     1
102
RTVSPost2010Prop41ColorIndex
 90
       18
102
RTVSPost2010Prop41ColorRGB
 90
        0
102
RTVSPost2010PropOp41
 70
     1
102
RTVSPost2010Prop42
 90
       50
102
RTVSPost2010PropOp42
 70
     1
102
RTVSPost2010Prop43
 90
        3
102
RTVSPost2010PropOp43
 70
     1
102
RTVSPost2010Prop44ColorIndex
 90
        5
102
RTVSPost2010Prop44ColorRGB
 90
      255
102
RTVSPost2010PropOp44
 70
     1
102
RTVSPost2010Prop45
280
     0
102
RTVSPost2010PropOp45
 70
     1
102
RTVSPost2010Prop46
 90
       50
102
RTVSPost2010PropOp46
 70
     1
102
RTVSPost2010Prop47
 90
       50
102
RTVSPost2010PropOp47
 70
     1
102
RTVSPost2010Prop48
 90
       50
102
RTVSPost2010PropOp48
 70
     1
102
RTVSPost2010Prop49
280
     0
102
RTVSPost2010PropOp49
 70
     1
102
RTVSPost2010Prop50
 90
       50
102
RTVSPost2010PropOp50
 70
     1
102
RTVSPost2010Prop51ColorIndex
 90
      256
102
RTVSPost2010Prop51ColorRGB
 90
-16777216
102
RTVSPost2010PropOp51
 70
     0
102
RTVSPost2010Prop52
140
1.0
102
RTVSPost2010PropOp52
 70
     0
102
RTVSPost2010Prop53
 90
        2
102
RTVSPost2010PropOp53
 70
     1
102
RTVSPost2010Prop54
  1
strokes_ogs.tif
102
RTVSPost2010PropOp54
 70
     1
102
RTVSPost2010Prop55
280
     0
102
RTVSPost2010PropOp55
 70
     1
102
RTVSPost2010Prop56
140
1.0
102
RTVSPost2010PropOp56
 70
     1
102
RTVSPost2010Prop57
140
1.0
102
RTVSPost2010PropOp57
 70
     1
102
RTVSPropertyOp0
 70
     1
102
RTVSPropertyOp1
 70
     1
102
RTVSPropertyOp2
 70
     1
102
RTVSPropertyOp3
 70
     1
102
RTVSPropertyOp4
 70
     1
102
RTVSPropertyOp5
 70
     1
102
RTVSPropertyOp6
 70
     1
102
RTVSPropertyOp7
 70
     1
102
RTVSPropertyOp8
 70
     1
102
RTVSPropertyOp9
 70
     1
102
RTVSPropertyOp10
 70
     1
102
RTVSPropertyOp11
 70
     1
102
RTVSPropertyOp12
 70
     1
102
RTVSPropertyOp13
 70
     1
102
RTVSPropertyOp14
 70
     1
102
RTVSPropertyOp15
 70
     1
102
RTVSPropertyOp16
 70
     1
102
RTVSPropertyOp17
 70
     1
102
RTVSPropertyOp18
 70
     1
102
RTVSPropertyOp19
 70
     1
102
RTVSPropertyOp20
 70
     1
102
RTVSPropertyOp21
 70
     1
102
RTVSPropertyOp22
 70
     1
102
RTVSPropertyOp23
 70
     1
102
RTVSPropertyOp24
 70
     1
102
RTVSPropertyOp25
 70
     1
102
RTVSPropertyOp26
 70
     1
102
RTVSPropertyOp27
 70
     1
102
RTVSPropertyOp28
 70
     1
102
RTVSPropertyOp29
 70
     1
102
RTVSPropertyOp30
 70
     1
102
RTVSPropertyOp31
 70
     1
102
RTVSPropertyOp32
 70
     1
102
RTVSPropertyOp33
 70
     1
102
RTVSPropertyOp34
 70
     1
102
RTVSPropertyOp35
 70
     1
102
RTVSPropertyOp36
 70
     1
102
RTVSPropertyOp37
 70
     1
102
RTVSPropertyOp38
 70
     1
102
RTVSPropertyOp39
 70
     1
102
RTVSPropertyOp40
 70
     1
102
RTVSPropertyOp41
 70
     1
102
RTVSPropertyOp42
 70
     1
102
RTVSPropertyOp43
 70
     1
102
RTVSPropertyOp44
 70
     1
102
RTVSPropertyOp45
 70
     1
102
RTVSPropertyOp46
 70
     1
102
RTVSPropertyOp47
 70
     1
102
RTVSPropertyOp48
 70
     1
102
RTVSPropertyOp49
 70
     1
102
RTVSPropertyOp50
 70
     1
102
RTVSPropertyOp51
 70
     0
102
RTVSPropertyOp52
 70
     0
102
RTVSPropertyOp53
 70
     1
102
RTVSPropertyOp54
 70
     1
102
RTVSPropertyOp55
 70
     1
102
RTVSPropertyOp56
 70
     1
102
RTVSPropertyOp57
 70
     1
102
RTVSPropertyOp58
 70
     1
102
RTVSPropertyOp59
 70
     1
102
RTVSPropertyOp60
 70
     1
102
RTVSPropertyOp61
 70
     1
102
RTVSPropertyOp62
 70
     1
  0
XRECORD
  5
962
102
{ACAD_REACTORS
330
961
102
}
330
961
100
AcDbXrecord
280
     1
102
RTVSPost2010Prop28
280
     0
102
RTVSPost2010PropOp28
 70
     1
102
RTVSPost2010Prop29
280
     1
102
RTVSPost2010PropOp29
 70
     1
102
RTVSPost2010Prop30
280
     1
102
RTVSPost2010PropOp30
 70
     1
102
RTVSPost2010Prop31
280
     0
102
RTVSPost2010PropOp31
 70
     1
102
RTVSPost2010Prop32
280
     0
102
RTVSPost2010PropOp32
 70
     1
102
RTVSPost2010Prop33
280
     0
102
RTVSPost2010PropOp33
 70
     1
102
RTVSPost2010Prop34
280
     0
102
RTVSPost2010PropOp34
 70
     1
102
RTVSPost2010Prop35
280
     0
102
RTVSPost2010PropOp35
 70
     1
102
RTVSPost2010Prop36
280
     0
102
RTVSPost2010PropOp36
 70
     1
102
RTVSPost2010Prop37
 90
       50
102
RTVSPost2010PropOp37
 70
     1
102
RTVSPost2010Prop38
140
0.0
102
RTVSPost2010PropOp38
 70
     1
102
RTVSPost2010Prop39
140
1.0
102
RTVSPost2010PropOp39
 70
     1
102
RTVSPost2010Prop40
 90
        0
102
RTVSPost2010PropOp40
 70
     1
102
RTVSPost2010Prop41ColorIndex
 90
       18
102
RTVSPost2010Prop41ColorRGB
 90
        0
102
RTVSPost2010PropOp41
 70
     1
102
RTVSPost2010Prop42
 90
       50
102
RTVSPost2010PropOp42
 70
     1
102
RTVSPost2010Prop43
 90
        3
102
RTVSPost2010PropOp43
 70
     1
102
RTVSPost2010Prop44ColorIndex
 90
        5
102
RTVSPost2010Prop44ColorRGB
 90
      255
102
RTVSPost2010PropOp44
 70
     1
102
RTVSPost2010Prop45
280
     0
102
RTVSPost2010PropOp45
 70
     1
102
RTVSPost2010Prop46
 90
       50
102
RTVSPost2010PropOp46
 70
     1
102
RTVSPost2010Prop47
 90
       50
102
RTVSPost2010PropOp47
 70
     1
102
RTVSPost2010Prop48
 90
       50
102
RTVSPost2010PropOp48
 70
     1
102
RTVSPost2010Prop49
280
     0
102
RTVSPost2010PropOp49
 70
     1
102
RTVSPost2010Prop50
 90
       50
102
RTVSPost2010PropOp50
 70
     1
102
RTVSPost2010Prop51ColorIndex
 90
      256
102
RTVSPost2010Prop51ColorRGB
 90
-16777216
102
RTVSPost2010PropOp51
 70
     0
102
RTVSPost2010Prop52
140
1.0
102
RTVSPost2010PropOp52
 70
     0
102
RTVSPost2010Prop53
 90
        2
102
RTVSPost2010PropOp53
 70
     1
102
RTVSPost2010Prop54
  1
strokes_ogs.tif
102
RTVSPost2010PropOp54
 70
     1
102
RTVSPost2010Prop55
280
     0
102
RTVSPost2010PropOp55
 70
     1
102
RTVSPost2010Prop56
140
1.0
102
RTVSPost2010PropOp56
 70
     1
102
RTVSPost2010Prop57
140
1.0
102
RTVSPost2010PropOp57
 70
     1
102
RTVSPropertyOp0
 70
     1
102
RTVSPropertyOp1
 70
     1
102
RTVSPropertyOp2
 70
     1
102
RTVSPropertyOp3
 70
     1
102
RTVSPropertyOp4
 70
     1
102
RTVSPropertyOp5
 70
     1
102
RTVSPropertyOp6
 70
     1
102
RTVSPropertyOp7
 70
     1
102
RTVSPropertyOp8
 70
     1
102
RTVSPropertyOp9
 70
     1
102
RTVSPropertyOp10
 70
     1
102
RTVSPropertyOp11
 70
     1
102
RTVSPropertyOp12
 70
     1
102
RTVSPropertyOp13
 70
     1
102
RTVSPropertyOp14
 70
     1
102
RTVSPropertyOp15
 70
     1
102
RTVSPropertyOp16
 70
     1
102
RTVSPropertyOp17
 70
     1
102
RTVSPropertyOp18
 70
     1
102
RTVSPropertyOp19
 70
     1
102
RTVSPropertyOp20
 70
     1
102
RTVSPropertyOp21
 70
     1
102
RTVSPropertyOp22
 70
     1
102
RTVSPropertyOp23
 70
     1
102
RTVSPropertyOp24
 70
     1
102
RTVSPropertyOp25
 70
     1
102
RTVSPropertyOp26
 70
     1
102
RTVSPropertyOp27
 70
     1
102
RTVSPropertyOp28
 70
     1
102
RTVSPropertyOp29
 70
     1
102
RTVSPropertyOp30
 70
     1
102
RTVSPropertyOp31
 70
     1
102
RTVSPropertyOp32
 70
     1
102
RTVSPropertyOp33
 70
     1
102
RTVSPropertyOp34
 70
     1
102
RTVSPropertyOp35
 70
     1
102
RTVSPropertyOp36
 70
     1
102
RTVSPropertyOp37
 70
     1
102
RTVSPropertyOp38
 70
     1
102
RTVSPropertyOp39
 70
     1
102
RTVSPropertyOp40
 70
     1
102
RTVSPropertyOp41
 70
     1
102
RTVSPropertyOp42
 70
     1
102
RTVSPropertyOp43
 70
     1
102
RTVSPropertyOp44
 70
     1
102
RTVSPropertyOp45
 70
     1
102
RTVSPropertyOp46
 70
     1
102
RTVSPropertyOp47
 70
     1
102
RTVSPropertyOp48
 70
     1
102
RTVSPropertyOp49
 70
     1
102
RTVSPropertyOp50
 70
     1
102
RTVSPropertyOp51
 70
     0
102
RTVSPropertyOp52
 70
     0
102
RTVSPropertyOp53
 70
     1
102
RTVSPropertyOp54
 70
     1
102
RTVSPropertyOp55
 70
     1
102
RTVSPropertyOp56
 70
     1
102
RTVSPropertyOp57
 70
     1
102
RTVSPropertyOp58
 70
     1
102
RTVSPropertyOp59
 70
     1
102
RTVSPropertyOp60
 70
     1
102
RTVSPropertyOp61
 70
     1
102
RTVSPropertyOp62
 70
     1
  0
ENDSEC
  0
EOF
