  0
SECTION
  2
HEADER
  9
$ACADVER
  1
AC1015
  9
$ACADMAINTVER
 70
    20
  9
$DWGCODEPAGE
  3
ANSI_1252
  9
$INSBASE
 10
0.0
 20
0.0
 30
0.0
  9
$EXTMIN
 10
-0.0299798543273937
 20
-0.0209589662945291
 30
-0.0000000000000058
  9
$EXTMAX
 10
1116.817162202202
 20
780.1626038912083
 30
0.0000000000000104
  9
$LIMMIN
 10
0.0
 20
0.0
  9
$LIMMAX
 10
420.0
 20
297.0
  9
$ORTHOMODE
 70
     1
  9
$REGENMODE
 70
     1
  9
$FILLMODE
 70
     1
  9
$QTEXTMODE
 70
     0
  9
$MIRRTEXT
 70
     1
  9
$LTSCALE
 40
1.0
  9
$ATTMODE
 70
     1
  9
$TEXTSIZE
 40
2.5
  9
$TRACEWID
 40
1.0
  9
$TEXTSTYLE
  7
STANDARD
  9
$CLAYER
  8
0
  9
$CELTYPE
  6
ByLayer
  9
$CECOLOR
 62
   256
  9
$CELTSCALE
 40
1.0
  9
$DISPSILH
 70
     0
  9
$DIMSCALE
 40
1.0
  9
$DIMASZ
 40
3.5
  9
$DIMEXO
 40
1.0
  9
$DIMDLI
 40
10.0
  9
$DIMRND
 40
0.0
  9
$DIMDLE
 40
0.0
  9
$DIMEXE
 40
1.0
  9
$DIMTP
 40
0.1
  9
$DIMTM
 40
0.1
  9
$DIMTXT
 40
3.5
  9
$DIMCEN
 40
0.0
  9
$DIMTSZ
 40
0.0
  9
$DIMTOL
 70
     0
  9
$DIMLIM
 70
     0
  9
$DIMTIH
 70
     0
  9
$DIMTOH
 70
     0
  9
$DIMSE1
 70
     0
  9
$DIMSE2
 70
     0
  9
$DIMTAD
 70
     1
  9
$DIMZIN
 70
     8
  9
$DIMBLK
  1

  9
$DIMASO
 70
     1
  9
$DIMSHO
 70
     1
  9
$DIMPOST
  1

  9
$DIMAPOST
  1
"
  9
$DIMALT
 70
     0
  9
$DIMALTD
 70
     2
  9
$DIMALTF
 40
0.0393701
  9
$DIMLFAC
 40
1.0
  9
$DIMTOFL
 70
     1
  9
$DIMTVP
 40
0.0
  9
$DIMTIX
 70
     0
  9
$DIMSOXD
 70
     0
  9
$DIMSAH
 70
     0
  9
$DIMBLK1
  1

  9
$DIMBLK2
  1

  9
$DIMSTYLE
  2
AM_DIN
  9
$DIMCLRD
 70
   256
  9
$DIMCLRE
 70
   256
  9
$DIMCLRT
 70
     2
  9
$DIMTFAC
 40
0.71
  9
$DIMGAP
 40
1.5
  9
$DIMJUST
 70
     0
  9
$DIMSD1
 70
     0
  9
$DIMSD2
 70
     0
  9
$DIMTOLJ
 70
     0
  9
$DIMTZIN
 70
     8
  9
$DIMALTZ
 70
     0
  9
$DIMALTTZ
 70
     0
  9
$DIMUPT
 70
     0
  9
$DIMDEC
 70
     2
  9
$DIMTDEC
 70
     3
  9
$DIMALTU
 70
     2
  9
$DIMALTTD
 70
     4
  9
$DIMTXSTY
  7
STANDARD
  9
$DIMAUNIT
 70
     0
  9
$DIMADEC
 70
     0
  9
$DIMALTRND
 40
0.0
  9
$DIMAZIN
 70
     2
  9
$DIMDSEP
 70
    46
  9
$DIMATFIT
 70
     3
  9
$DIMFRAC
 70
     0
  9
$DIMLDRBLK
  1

  9
$DIMLUNIT
 70
     2
  9
$DIMLWD
 70
    -1
  9
$DIMLWE
 70
    -1
  9
$DIMTMOVE
 70
     0
  9
$LUNITS
 70
     2
  9
$LUPREC
 70
     2
  9
$SKETCHINC
 40
1.0
  9
$FILLETRAD
 40
0.0
  9
$AUNITS
 70
     0
  9
$AUPREC
 70
     0
  9
$MENU
  1
.
  9
$ELEVATION
 40
0.0
  9
$PELEVATION
 40
0.0
  9
$THICKNESS
 40
0.0
  9
$LIMCHECK
 70
     0
  9
$CHAMFERA
 40
2.5
  9
$CHAMFERB
 40
2.5
  9
$CHAMFERC
 40
20.0
  9
$CHAMFERD
 40
0.0
  9
$SKPOLY
 70
     0
  9
$TDCREATE
 40
2455659.573352419
  9
$TDUCREATE
 40
2455659.490019086
  9
$TDUPDATE
 40
2455665.458797280
  9
$TDUUPDATE
 40
2455665.375463947
  9
$TDINDWG
 40
0.0866116667
  9
$TDUSRTIMER
 40
0.0866111111
  9
$USRTIMER
 70
     1
  9
$ANGBASE
 50
0.0
  9
$ANGDIR
 70
     0
  9
$PDMODE
 70
     0
  9
$PDSIZE
 40
0.0
  9
$PLINEWID
 40
0.0
  9
$SPLFRAME
 70
     0
  9
$SPLINETYPE
 70
     6
  9
$SPLINESEGS
 70
     8
  9
$HANDSEED
  5
D0F
  9
$SURFTAB1
 70
     6
  9
$SURFTAB2
 70
     6
  9
$SURFTYPE
 70
     6
  9
$SURFU
 70
     6
  9
$SURFV
 70
     6
  9
$UCSBASE
  2

  9
$UCSNAME
  2

  9
$UCSORG
 10
0.0
 20
0.0
 30
0.0
  9
$UCSXDIR
 10
1.0
 20
0.0
 30
0.0
  9
$UCSYDIR
 10
0.0
 20
1.0
 30
0.0
  9
$UCSORTHOREF
  2

  9
$UCSORTHOVIEW
 70
     0
  9
$UCSORGTOP
 10
0.0
 20
0.0
 30
0.0
  9
$UCSORGBOTTOM
 10
0.0
 20
0.0
 30
0.0
  9
$UCSORGLEFT
 10
0.0
 20
0.0
 30
0.0
  9
$UCSORGRIGHT
 10
0.0
 20
0.0
 30
0.0
  9
$UCSORGFRONT
 10
0.0
 20
0.0
 30
0.0
  9
$UCSORGBACK
 10
0.0
 20
0.0
 30
0.0
  9
$PUCSBASE
  2

  9
$PUCSNAME
  2

  9
$PUCSORG
 10
0.0
 20
0.0
 30
0.0
  9
$PUCSXDIR
 10
1.0
 20
0.0
 30
0.0
  9
$PUCSYDIR
 10
0.0
 20
1.0
 30
0.0
  9
$PUCSORTHOREF
  2

  9
$PUCSORTHOVIEW
 70
     0
  9
$PUCSORGTOP
 10
0.0
 20
0.0
 30
0.0
  9
$PUCSORGBOTTOM
 10
0.0
 20
0.0
 30
0.0
  9
$PUCSORGLEFT
 10
0.0
 20
0.0
 30
0.0
  9
$PUCSORGRIGHT
 10
0.0
 20
0.0
 30
0.0
  9
$PUCSORGFRONT
 10
0.0
 20
0.0
 30
0.0
  9
$PUCSORGBACK
 10
0.0
 20
0.0
 30
0.0
  9
$USERI1
 70
     0
  9
$USERI2
 70
     0
  9
$USERI3
 70
     0
  9
$USERI4
 70
     0
  9
$USERI5
 70
     0
  9
$USERR1
 40
0.0
  9
$USERR2
 40
0.0
  9
$USERR3
 40
0.0
  9
$USERR4
 40
0.0
  9
$USERR5
 40
0.0
  9
$WORLDVIEW
 70
     1
  9
$SHADEDGE
 70
     3
  9
$SHADEDIF
 70
    70
  9
$TILEMODE
 70
     1
  9
$MAXACTVP
 70
    64
  9
$PINSBASE
 10
0.0
 20
0.0
 30
0.0
  9
$PLIMCHECK
 70
     0
  9
$PEXTMIN
 10
1.000000000000000E+20
 20
1.000000000000000E+20
 30
1.000000000000000E+20
  9
$PEXTMAX
 10
-1.000000000000000E+20
 20
-1.000000000000000E+20
 30
-1.000000000000000E+20
  9
$PLIMMIN
 10
0.0
 20
0.0
  9
$PLIMMAX
 10
420.0
 20
297.0
  9
$UNITMODE
 70
     0
  9
$VISRETAIN
 70
     1
  9
$PLINEGEN
 70
     0
  9
$PSLTSCALE
 70
     1
  9
$TREEDEPTH
 70
  3020
  9
$CMLSTYLE
  2
Standard
  9
$CMLJUST
 70
     0
  9
$CMLSCALE
 40
20.0
  9
$PROXYGRAPHICS
 70
     1
  9
$MEASUREMENT
 70
     1
  9
$CELWEIGHT
370
    -1
  9
$ENDCAPS
280
     0
  9
$JOINSTYLE
280
     0
  9
$LWDISPLAY
290
     0
  9
$INSUNITS
 70
     4
  9
$HYPERLINKBASE
  1

  9
$STYLESHEET
  1

  9
$XEDIT
290
     1
  9
$CEPSNTYPE
380
     0
  9
$PSTYLEMODE
290
     1
  9
$FINGERPRINTGUID
  2
{2FFB8AD7-DE9B-40D4-9FF6-74561D23A164}
  9
$VERSIONGUID
  2
{4FC73774-11D5-44A9-A461-E662087BAD59}
  9
$EXTNAMES
290
     1
  9
$PSVPSCALE
 40
0.0
  9
$OLESTARTUP
290
     0
  0
ENDSEC
  0
SECTION
  2
CLASSES
  0
CLASS
  1
ACDBDICTIONARYWDFLT
  2
AcDbDictionaryWithDefault
  3
ObjectDBX Classes
 90
        0
280
     0
281
     0
  0
CLASS
  1
ACDBPLACEHOLDER
  2
AcDbPlaceHolder
  3
ObjectDBX Classes
 90
        0
280
     0
281
     0
  0
CLASS
  1
LAYOUT
  2
AcDbLayout
  3
ObjectDBX Classes
 90
        0
280
     0
281
     0
  0
CLASS
  1
ACME_DOCUMENT
  2
AcMeDbDoc
  3
AcMeServices
 90
     1024
280
     0
281
     0
  0
CLASS
  1
AMGSETTINGSOBJ
  2
AmgSettingsObj
  3
"AcadM|Product Description: AutoCAD Mechanical|Company: Autodesk, Inc."
 90
     1024
280
     0
281
     0
  0
CLASS
  1
ACMESCOPE
  2
AcMeScope
  3
AcMeServices
 90
     1024
280
     0
281
     0
  0
CLASS
  1
ACMECOMMANDHISTORY
  2
AcMeCommandHistory
  3
AcMeServices
 90
     1024
280
     0
281
     0
  0
CLASS
  1
ACIMSYSVARMAN
  2
AcImSysVarManager
  3
AcMeServices
 90
     1024
280
     0
281
     0
  0
CLASS
  1
ACIMREALSYSVAR
  2
AcImRealSysVar
  3
AcMeServices
 90
     1024
280
     0
281
     0
  0
CLASS
  1
ACIMINTSYSVAR
  2
AcImIntSysVar
  3
AcMeServices
 90
     1024
280
     0
281
     0
  0
CLASS
  1
ACMEDRAWINGMAN
  2
AcMeDrawingMan
  3
AcMeServices
 90
     1024
280
     0
281
     0
  0
CLASS
  1
ACMEVIEW
  2
AcMeView
  3
AcMeServices
 90
     1024
280
     0
281
     0
  0
CLASS
  1
ACDBENTITYCACHE
  2
AcMeEntityCache
  3
AcMeServices
 90
     1024
280
     0
281
     0
  0
CLASS
  1
GSMANAGER
  2
AcMeGSManager
  3
AcMeServices
 90
     1024
280
     0
281
     0
  0
CLASS
  1
AMDTINTERNALREACTOR
  2
AmdtInternalReactor
  3
AcMeServices
 90
     1024
280
     0
281
     0
  0
CLASS
  1
ACMESTATEMGR
  2
AcMeStateMgr
  3
AcMeServices
 90
     1024
280
     0
281
     0
  0
CLASS
  1
ACGREFMASTER
  2
AcGrefMaster
  3
AcAttribServices
 90
     1024
280
     0
281
     0
  0
CLASS
  1
ACME_DATABASE
  2
AcMeDbDatabase
  3
AcMeServices
 90
     1024
280
     0
281
     0
  0
CLASS
  1
ACRFINSADJUSTERMGR
  2
AcRfInsAdjusterMgr
  3
AcMeServices
 90
     1024
280
     0
281
     0
  0
CLASS
  1
ACGREFACADMASTER
  2
AcGrefacadMaster
  3
AcGrefServices
 90
     1024
280
     0
281
     0
  0
CLASS
  1
AMIMASTER
  2
AmiMaster
  3
AmiServices
 90
     1024
280
     0
281
     0
  0
CLASS
  1
ACMDATADICTIONARY
  2
AcmDataDictionary
  3
"AcmSymBB|Product Description: AutoCAD Mechanical|Company: Autodesk, Inc."
 90
     1024
280
     0
281
     0
  0
CLASS
  1
ACMDATAENTRYBLOCK
  2
AcmDataEntryBlock
  3
AcmSymBB|Product Description: AutoCAD Mechanical|Company: Autodesk, Inc.
 90
    33792
280
     0
281
     0
  0
CLASS
  1
ACIMSTRSYSVAR
  2
AcImStrSysVar
  3
AcMeServices
 90
     1024
280
     0
281
     0
  0
CLASS
  1
ACMSTANDARDISO
  2
AcmStandardISO
  3
"Amdt_StdImp|Product Description: AutoCAD Mechanical|Company: Autodesk, Inc."
 90
    33792
280
     0
281
     0
  0
CLASS
  1
AMGOBJPROPCFG
  2
AmgObjPropCfg
  3
"AmgLay|Product Description: AutoCAD Mechanical|Company: Autodesk, Inc."
 90
     1025
280
     0
281
     0
  0
CLASS
  1
AMDTEDGESTANDARDISO
  2
AmdtEdgeStdISO
  3
"Amdt_StdImp|Product Description: AutoCAD Mechanical|Company: Autodesk, Inc."
 90
    33792
280
     0
281
     0
  0
CLASS
  1
ACMSURFSTANDARDISO
  2
AcmSurfTextStdISO
  3
"Amdt_StdImp|Product Description: AutoCAD Mechanical|Company: Autodesk, Inc."
 90
    33792
280
     0
281
     0
  0
CLASS
  1
ACMFCFSTANDARDISO
  2
AcmFCFStdISO
  3
"Amdt_StdImp|Product Description: AutoCAD Mechanical|Company: Autodesk, Inc."
 90
    33792
280
     0
281
     0
  0
CLASS
  1
ACMWELDSTANDARDISO
  2
AcmWeldingStdISO
  3
"Amdt_StdImp|Product Description: AutoCAD Mechanical|Company: Autodesk, Inc."
 90
    33792
280
     0
281
     0
  0
CLASS
  1
ACMIDSTANDARDISO
  2
AcmIdStdISO
  3
"Amdt_StdImp|Product Description: AutoCAD Mechanical|Company: Autodesk, Inc."
 90
    33792
280
     0
281
     0
  0
CLASS
  1
ACMDATUMSTANDARDISO
  2
AcmDatumStdISO
  3
"Amdt_StdImp|Product Description: AutoCAD Mechanical|Company: Autodesk, Inc."
 90
    33792
280
     0
281
     0
  0
CLASS
  1
ACMBOMSTANDARDISO
  2
AcmBOMStdISO
  3
"Amdt_StdImp|Product Description: AutoCAD Mechanical|Company: Autodesk, Inc."
 90
    33792
280
     0
281
     0
  0
CLASS
  1
ACMDETAILSTANDARDISO
  2
AmdtDetailSymStdISO
  3
"Amdt_StdImp|Product Description: AutoCAD Mechanical|Company: Autodesk, Inc."
 90
    33792
280
     0
281
     0
  0
CLASS
  1
ACMSECTIONSTANDARDISO
  2
AmdtSectionSymStdISO
  3
"Amdt_StdImp|Product Description: AutoCAD Mechanical|Company: Autodesk, Inc."
 90
    33792
280
     0
281
     0
  0
CLASS
  1
ACMCENTERLINESTANDARDISO
  2
AmdtCenterLineStdISO
  3
"Amdt_StdImp|Product Description: AutoCAD Mechanical|Company: Autodesk, Inc."
 90
    33792
280
     0
281
     0
  0
CLASS
  1
ACMNOTESTANDARDISO
  2
AmdtNoteStdISO
  3
"Amdt_StdImp|Product Description: AutoCAD Mechanical|Company: Autodesk, Inc."
 90
    33792
280
     0
281
     0
  0
CLASS
  1
ACAMGLAYSTD
  2
AcAmgLayStd
  3
"AmgLay|Product Description: AutoCAD Mechanical|Company: Autodesk, Inc."
 90
     1024
280
     0
281
     0
  0
CLASS
  1
ACAMGDIMSTD
  2
AcAmgDimStd
  3
"AmgDim|Product Description: AutoCAD Mechanical|Company: Autodesk, Inc."
 90
     1024
280
     0
281
     0
  0
CLASS
  1
ACAMGHOLECHARTSTDISO
  2
AcAmgHoleChartStdISO
  3
AmgDim|Product Description: AutoCAD Mechanical|Company: Autodesk, Inc.
 90
    33792
280
     0
281
     0
  0
CLASS
  1
ACAMGTITLESTD
  2
AcAmgTitleStd
  3
"AmgTitle|Product Description: AutoCAD Mechanical|Company: Autodesk, Inc."
 90
     4095
280
     0
281
     0
  0
CLASS
  1
LAYER_INDEX
  2
AcDbLayerIndex
  3
ObjectDBX Classes
 90
    32768
280
     0
281
     0
  0
CLASS
  1
IDBUFFER
  2
AcDbIdBuffer
  3
ObjectDBX Classes
 90
    32768
280
     0
281
     0
  0
CLASS
  1
DICTIONARYVAR
  2
AcDbDictionaryVar
  3
ObjectDBX Classes
 90
        0
280
     0
281
     0
  0
CLASS
  1
AM_DRAWING_MGR
  2
AcDmDwgMgr
  3
AcMechDwgViewMgmt
 90
     1024
280
     0
281
     0
  0
CLASS
  1
AM_DWG_DOCUMENT
  2
AcDmDwgDocument
  3
AcMechDwgViewMgmt
 90
     1024
280
     0
281
     0
  0
CLASS
  1
AM_DWG_SHEET
  2
AcDmSheet
  3
AcMechDwgViewMgmt
 90
     1024
280
     0
281
     0
  0
CLASS
  1
AM_VIEWDIMPARMAP
  2
AcDmViewDimParMap
  3
AcMechDwgViewMgmt
 90
     1024
280
     0
281
     0
  0
CLASS
  1
AM_DWGMGR_NAME
  2
AcDmDwgMgrName
  3
AcMechDwgViewMgmt
 90
     1024
280
     0
281
     0
  0
CLASS
  1
AMDTMENUSTATEMGR
  2
AmdtMenuStateMgr
  3
McadcomServices
 90
     1024
280
     0
281
     0
  0
CLASS
  1
AMDTMCOMMENUSTATE
  2
AmdtMcomMenuState
  3
McadcomServices
 90
     1024
280
     0
281
     0
  0
CLASS
  1
MAPIAMMOUDLE
  2
MApiAmModule
  3
MApiAmServices
 90
     1024
280
     0
281
     0
  0
CLASS
  1
AMDTADMENUSTATE
  2
AmdtAdMenuState
  3
DesignerServices
 90
     1024
280
     0
281
     0
  0
CLASS
  1
ADAPPL
  2
AcAdAppl
  3
DesignerServices
 90
     1024
280
     0
281
     0
  0
CLASS
  1
DEPMGR
  2
AcAdDepMgr
  3
DesignerServices
 90
     1024
280
     0
281
     0
  0
CLASS
  1
PARAMMGR
  2
AcAdParamMgr
  3
DesignerServices
 90
     1024
280
     0
281
     0
  0
CLASS
  1
PARAMSCOPE
  2
AcAdParamScope
  3
DesignerServices
 90
     1024
280
     0
281
     0
  0
CLASS
  1
NAMEDAPPL
  2
AcAdNamedAppl
  3
DesignerServices
 90
     1024
280
     0
281
     0
  0
CLASS
  1
AMDTDMMENUSTATE
  2
AmdtDmMenuState
  3
AcMechDwgViewMgmt
 90
     1024
280
     0
281
     0
  0
CLASS
  1
AMDTAMMENUSTATE
  2
AmdtAmMenuState
  3
DesignerAssemblies
 90
     1024
280
     0
281
     0
  0
CLASS
  1
ACAMPROJECT
  2
AcAmProject
  3
DesignerAssemblies
 90
     1024
280
     0
281
     0
  0
CLASS
  1
ACAMGRCOMPDEF
  2
AcAmGrCompDef
  3
DesignerAssemblies
 90
     1024
280
     0
281
     0
  0
CLASS
  1
ACCMCONTEXT
  2
AcCmContext
  3
DesignerAssemblies
 90
     1024
280
     0
281
     0
  0
CLASS
  1
ACAMCOMPDEF
  2
AcAmCompDef
  3
DesignerAssemblies
 90
     1024
280
     0
281
     0
  0
CLASS
  1
ACAMCOMPDEFMGR
  2
AcAmCompDefMgr
  3
DesignerAssemblies
 90
     1024
280
     0
281
     0
  0
CLASS
  1
AMCONTEXTMGR
  2
AcAmContextMgr
  3
DesignerAssemblies
 90
     1024
280
     0
281
     0
  0
CLASS
  1
ACAMCONTEXTMODELER
  2
AcAmContextModeler
  3
DesignerAssemblies
 90
     1024
280
     0
281
     0
  0
CLASS
  1
ACMTHREADLINESTANDARDISO
  2
AmdtThreadLineStdISO
  3
"Amdt_StdImp|Product Description: AutoCAD Mechanical|Company: Autodesk, Inc."
 90
    33792
280
     0
281
     0
  0
CLASS
  1
CATALOGSTATE
  2
AcAmCatalogState
  3
DesignerAssemblies
 90
     1024
280
     0
281
     0
  0
CLASS
  1
ACAMGRCOMPDEFSET
  2
AcAmGrCompDefSet
  3
DesignerAssemblies
 90
     1024
280
     0
281
     0
  0
CLASS
  1
AMDTBROWSERDBTAB
  2
AmdtBrowserDbTab
  3
McadcomServices
 90
     1024
280
     0
281
     0
  0
CLASS
  1
CBROWSERAPPOBJECT
  2
CBrowserAppObject
  3
McadcomServices
 90
     1024
280
     0
281
     0
  0
CLASS
  1
DM_PLACEHOLDER
  2
AcDmSelsetPlaceholder
  3
AcMechDwgViewMgmt
 90
     1024
280
     0
281
     0
  0
CLASS
  1
TABLESTYLE
  2
AcDbTableStyle
  3
ObjectDBX Classes
 90
     4095
280
     0
281
     0
  0
CLASS
  1
VAACXREFPANELOBJECT
  2
VaAcXREFPanelObject
  3
VAAC_ADDIN
 90
    32768
280
     0
281
     0
  0
CLASS
  1
VAACIMAGEINVENTORY
  2
VaAcImageInventory
  3
VAAC_ADDIN
 90
    32768
280
     0
281
     0
  0
CLASS
  1
AMDTNOTETEMPLATEDB
  2
AmdtNoteTemplateDB
  3
AcmSymBB|Product Description: AutoCAD Mechanical|Company: Autodesk, Inc.
 90
     1024
280
     0
281
     0
  0
CLASS
  1
ACAMGFILTERDAT
  2
AcAmgFilterDat
  3
"AcadM|Product Description: AutoCAD Mechanical|Company: Autodesk, Inc."
 90
    33792
280
     0
281
     0
  0
CLASS
  1
ACMBOM
  2
AcmBom
  3
"AcmSymBB|Product Description: AutoCAD Mechanical|Company: Autodesk, Inc."
 90
    33792
280
     0
281
     0
  0
CLASS
  1
AMDTFORMULAUPDATEDISPATCHER
  2
AmdtFormulaUpdateDispatcher
  3
AcMeServices
 90
    33792
280
     0
281
     0
  0
CLASS
  1
ACMSTANDARDDIN
  2
AcmStandardDIN
  3
"Amdt_StdImp|Product Description: AutoCAD Mechanical|Company: Autodesk, Inc."
 90
     1024
280
     0
281
     0
  0
CLASS
  1
AMDTEDGESTANDARDDIN13715
  2
AmdtEdgeStdDIN13715
  3
"Amdt_StdImp|Product Description: AutoCAD Mechanical|Company: Autodesk, Inc."
 90
     1024
280
     0
281
     0
  0
CLASS
  1
ACMSURFSTANDARDDIN
  2
AcmSurfTextStdDIN
  3
"Amdt_StdImp|Product Description: AutoCAD Mechanical|Company: Autodesk, Inc."
 90
    33792
280
     0
281
     0
  0
CLASS
  1
ACMFCFSTANDARDDIN
  2
AcmFCFStdDIN
  3
"Amdt_StdImp|Product Description: AutoCAD Mechanical|Company: Autodesk, Inc."
 90
     1024
280
     0
281
     0
  0
CLASS
  1
ACMWELDSTANDARDDIN
  2
AcmWeldingStdDIN
  3
"Amdt_StdImp|Product Description: AutoCAD Mechanical|Company: Autodesk, Inc."
 90
     1024
280
     0
281
     0
  0
CLASS
  1
ACMIDSTANDARDDIN
  2
AcmIdStdDIN
  3
"Amdt_StdImp|Product Description: AutoCAD Mechanical|Company: Autodesk, Inc."
 90
     1024
280
     0
281
     0
  0
CLASS
  1
ACMDATUMSTANDARDDIN
  2
AcmDatumStdDIN
  3
"Amdt_StdImp|Product Description: AutoCAD Mechanical|Company: Autodesk, Inc."
 90
     1024
280
     0
281
     0
  0
CLASS
  1
ACMBOMSTANDARDDIN
  2
AcmBOMStdDIN
  3
"Amdt_StdImp|Product Description: AutoCAD Mechanical|Company: Autodesk, Inc."
 90
     1024
280
     0
281
     0
  0
CLASS
  1
ACMDETAILSTANDARDDIN
  2
AmdtDetailSymStdDIN
  3
"Amdt_StdImp|Product Description: AutoCAD Mechanical|Company: Autodesk, Inc."
 90
     1024
280
     0
281
     0
  0
CLASS
  1
ACMSECTIONSTANDARDDIN
  2
AmdtSectionSymStdDIN
  3
"Amdt_StdImp|Product Description: AutoCAD Mechanical|Company: Autodesk, Inc."
 90
     1024
280
     0
281
     0
  0
CLASS
  1
ACMCENTERLINESTANDARDDIN
  2
AmdtCenterLineStdDIN
  3
"Amdt_StdImp|Product Description: AutoCAD Mechanical|Company: Autodesk, Inc."
 90
     1024
280
     0
281
     0
  0
CLASS
  1
ACMTHREADLINESTANDARDDIN
  2
AmdtThreadLineStdDIN
  3
"Amdt_StdImp|Product Description: AutoCAD Mechanical|Company: Autodesk, Inc."
 90
     1024
280
     0
281
     0
  0
CLASS
  1
ACMNOTESTANDARDDIN
  2
AmdtNoteStdDIN
  3
"Amdt_StdImp|Product Description: AutoCAD Mechanical|Company: Autodesk, Inc."
 90
     1024
280
     0
281
     0
  0
CLASS
  1
ACAMGHOLECHARTSTDDIN
  2
AcAmgHoleChartStdDIN
  3
AmgDim|Product Description: AutoCAD Mechanical|Company: Autodesk, Inc.
 90
     1024
280
     0
281
     0
  0
CLASS
  1
MATERIAL
  2
AcDbMaterial
  3
ObjectDBX Classes
 90
     1153
280
     0
281
     0
  0
CLASS
  1
VISUALSTYLE
  2
AcDbVisualStyle
  3
ObjectDBX Classes
 90
     4095
280
     0
281
     0
  0
CLASS
  1
SCALE
  2
AcDbScale
  3
ObjectDBX Classes
 90
     1153
280
     0
281
     0
  0
CLASS
  1
MLEADERSTYLE
  2
AcDbMLeaderStyle
  3
ACDB_MLEADERSTYLE_CLASS
 90
     4095
280
     0
281
     0
  0
CLASS
  1
ACRFATTGENMGR
  2
AcRfAttGeneralMgr
  3
AcAttribServices
 90
    33792
280
     0
281
     0
  0
CLASS
  1
ACRFOBJATTMGR
  2
AcRfObjAttGroupMgr
  3
AcAttribServices
 90
    33792
280
     0
281
     0
  0
CLASS
  1
ACRFMCADAPIATTHOLDER
  2
AcRfMCADAPIAttHolder
  3
AcAttribServices
 90
    33792
280
     0
281
     0
  0
CLASS
  1
AMDTSYSATTR
  2
AmdtSystemAttribute
  3
AcAttribServices
 90
    33792
280
     0
281
     0
  0
CLASS
  1
ACMTAPERSTANDARDISO
  2
AcmTaperStdISO
  3
"Amdt_StdImp|Product Description: AutoCAD Mechanical|Company: Autodesk, Inc."
 90
    33792
280
     0
281
     0
  0
CLASS
  1
ACMANOOTATIONVIEWSTANDARDISO
  2
AmdtAnViewStdISO
  3
"Amdt_StdImp|Product Description: AutoCAD Mechanical|Company: Autodesk, Inc."
 90
    33792
280
     0
281
     0
  0
CLASS
  1
ACMTAPERSTANDARDDIN
  2
AcmTaperStdDIN
  3
"Amdt_StdImp|Product Description: AutoCAD Mechanical|Company: Autodesk, Inc."
 90
     1024
280
     0
281
     0
  0
CLASS
  1
ACMANOOTATIONVIEWSTANDARDDIN
  2
AmdtAnViewStdDIN
  3
"Amdt_StdImp|Product Description: AutoCAD Mechanical|Company: Autodesk, Inc."
 90
     1024
280
     0
281
     0
  0
CLASS
  1
EXACXREFPANELOBJECT
  2
ExAcXREFPanelObject
  3
EXAC_ESW
 90
     1025
280
     0
281
     0
  0
CLASS
  1
NPOCOLLECTION
  2
AcDbImpNonPersistentObjectsCollection
  3
ObjectDBX Classes
 90
     1153
280
     0
281
     0
  0
CLASS
  1
CAMSSTRUCTBTNSTATE
  2
StructBtnState
  3
DesignerAssemblies
 90
    33792
280
     0
281
     0
  0
CLASS
  1
CELLSTYLEMAP
  2
AcDbCellStyleMap
  3
ObjectDBX Classes
 90
     1152
280
     0
281
     0
  0
CLASS
  1
AEC_REFEDIT_STATUS_TRACKER
  2
AecDbRefEditStatusTracker
  3
AecArchBase50|Product Desc: Autodesk Architectural Desktop 2007 |Company: Autodesk,Inc. |WEB Address: www.autodesk.com
 90
      129
280
     0
281
     0
  0
CLASS
  1
IMAGE
  2
AcDbRasterImage
  3
ISM
 90
    34943
280
     0
281
     1
  0
CLASS
  1
IMAGEDEF_REACTOR
  2
AcDbRasterImageDefReactor
  3
ISM
 90
    32769
280
     0
281
     0
  0
CLASS
  1
IMAGEDEF
  2
AcDbRasterImageDef
  3
ISM
 90
    32768
280
     0
281
     0
  0
CLASS
  1
RASTERVARIABLES
  2
AcDbRasterVariables
  3
ISM
 90
    32768
280
     0
281
     0
  0
CLASS
  1
DIMASSOC
  2
AcDbDimAssoc
  3
"AcDbDimAssoc|Product Desc:     AcDim ARX App For Dimension|Company:          Autodesk, Inc.|WEB Address:      www.autodesk.com"
 90
        0
280
     0
281
     0
  0
CLASS
  1
SORTENTSTABLE
  2
AcDbSortentsTable
  3
ObjectDBX Classes
 90
        0
280
     0
281
     0
  0
CLASS
  1
ACMSURFSTANDARDDIN2002
  2
AcmSurfTextStdDIN2002
  3
"Amdt_StdImp|Product Description: AutoCAD Mechanical|Company: Autodesk, Inc."
 90
     1024
280
     0
281
     0
  0
ENDSEC
  0
SECTION
  2
TABLES
  0
TABLE
  2
VPORT
  5
8
330
0
100
AcDbSymbolTable
 70
     1
  0
VPORT
  5
3B2
330
8
100
AcDbSymbolTableRecord
100
AcDbViewportTableRecord
  2
*Active
 70
     0
 10
0.0
 20
0.0
 11
1.0
 21
1.0
 12
558.3935911739372
 22
390.0708224624569
 13
0.0
 23
0.0
 14
2.5
 24
2.5
 15
10.0
 25
10.0
 16
0.0
 26
0.0
 36
1.0
 17
0.0
 27
0.0
 37
0.0
 40
785.8681288786732
 41
1.803695150115473
 42
50.0
 43
0.0
 44
0.0
 50
0.0
 51
0.0
 71
     0
 72
   100
 73
     1
 74
     3
 75
     0
 76
     0
 77
     0
 78
     0
281
     0
 65
     0
110
0.0
120
0.0
130
0.0
111
1.0
121
0.0
131
0.0
112
0.0
122
1.0
132
0.0
 79
     0
146
0.0
  0
ENDTAB
  0
TABLE
  2
LTYPE
  5
5
330
0
100
AcDbSymbolTable
 70
    24
  0
LTYPE
  5
14
330
5
100
AcDbSymbolTableRecord
100
AcDbLinetypeTableRecord
  2
ByBlock
 70
     0
  3

 72
    65
 73
     0
 40
0.0
  0
LTYPE
  5
15
330
5
100
AcDbSymbolTableRecord
100
AcDbLinetypeTableRecord
  2
ByLayer
 70
     0
  3

 72
    65
 73
     0
 40
0.0
  0
LTYPE
  5
16
330
5
100
AcDbSymbolTableRecord
100
AcDbLinetypeTableRecord
  2
Continuous
 70
     0
  3
Solid line
 72
    65
 73
     0
 40
0.0
  0
LTYPE
  5
64
330
5
100
AcDbSymbolTableRecord
100
AcDbLinetypeTableRecord
  2
AM_ISO02W050
 70
     0
  3
__ __ __ __ __ __ __ __ __ __ __ __ __ __ __
 72
    65
 73
     2
 40
7.5
 49
6.0
 74
     0
 49
-1.5
 74
     0
  0
LTYPE
  5
65
330
5
100
AcDbSymbolTableRecord
100
AcDbLinetypeTableRecord
  2
AM_ISO08W050
 70
     0
  3
____ . ____ . ____ . ____ . ____ . ____ . ____
 72
    65
 73
     4
 40
18.0
 49
12.0
 74
     0
 49
-1.5
 74
     0
 49
3.0
 74
     0
 49
-1.5
 74
     0
  0
LTYPE
  5
66
330
5
100
AcDbSymbolTableRecord
100
AcDbLinetypeTableRecord
  2
AM_ISO09W050
 70
     0
  3
_____ . . _____ . . _____ . . ____ .. ____
 72
    65
 73
     6
 40
22.5
 49
12.0
 74
     0
 49
-1.5
 74
     0
 49
3.0
 74
     0
 49
-1.5
 74
     0
 49
3.0
 74
     0
 49
-1.5
 74
     0
  0
LTYPE
  5
67
330
5
100
AcDbSymbolTableRecord
100
AcDbLinetypeTableRecord
  2
Amconstr
 70
     0
  3
_______________________
 72
    65
 73
     2
 40
9999.0
 49
9999.0
 74
     0
 49
0.0
 74
     0
  0
LTYPE
  5
68
330
5
100
AcDbSymbolTableRecord
100
AcDbLinetypeTableRecord
  2
AM_ISO08W050x2
 70
     0
  3
__ . __ . __ . __ . __ . __
 72
    65
 73
     4
 40
9.0
 49
6.0
 74
     0
 49
-0.75
 74
     0
 49
1.5
 74
     0
 49
-0.75
 74
     0
  0
LTYPE
  5
69
330
5
100
AcDbSymbolTableRecord
100
AcDbLinetypeTableRecord
  2
AM_ISO02W050x2
 70
     0
  3
 _ _ _ _ _ _ _ _ _ _ _ _
 72
    65
 73
     2
 40
3.75
 49
3.0
 74
     0
 49
-0.75
 74
     0
  0
LTYPE
  5
6C
330
5
100
AcDbSymbolTableRecord
100
AcDbLinetypeTableRecord
  2
Amzigzag
 70
     0
  3
/\/-/\/-/\/-/\/-/\/-/\/
 72
    65
 73
     2
 40
11.0001
 49
0.0001
 74
     4
 75
   136
340
22C
 46
0.04
 50
0.0
 44
0.0
 45
0.0
 49
-11.0
 74
     0
  0
LTYPE
  5
7A
330
5
100
AcDbSymbolTableRecord
100
AcDbLinetypeTableRecord
  2
ACISOWELD
 70
     0
  3
_ _ _ _ _
 72
    65
 73
     2
 40
2.0
 49
2.0
 74
     0
 49
-1.0
 74
     0
  0
LTYPE
  5
7B
330
5
100
AcDbSymbolTableRecord
100
AcDbLinetypeTableRecord
  2
ACISOTGB
 70
     0
  3
__ . . __ . .
 72
    65
 73
     6
 40
9.0
 49
4.0
 74
     0
 49
-1.0
 74
     0
 49
1.0
 74
     0
 49
-1.0
 74
     0
 49
1.0
 74
     0
 49
-1.0
 74
     0
  0
LTYPE
  5
7C
330
5
100
AcDbSymbolTableRecord
100
AcDbLinetypeTableRecord
  2
ACISOTGL
 70
     0
  3
_ _ _ _ _
 72
    65
 73
     2
 40
3.0
 49
2.0
 74
     0
 49
-1.0
 74
     0
  0
LTYPE
  5
7E
330
5
100
AcDbSymbolTableRecord
100
AcDbLinetypeTableRecord
  2
CENTER
 70
     0
  3
__ . __
 72
    65
 73
     4
 40
7.0
 49
4.0
 74
     0
 49
-1.0
 74
     0
 49
1.0
 74
     0
 49
-1.0
 74
     0
  0
LTYPE
  5
D8
330
5
100
AcDbSymbolTableRecord
100
AcDbLinetypeTableRecord
  2
HIDDEN
 70
     0
  3
Hidden __ __ __ __ __ __ __ __ __ __ __ __ __ _
 72
    65
 73
     2
 40
9.524999999999996
 49
6.349999999999997
 74
     0
 49
-3.174999999999998
 74
     0
  0
LTYPE
  5
D9
330
5
100
AcDbSymbolTableRecord
100
AcDbLinetypeTableRecord
  2
PHANTOM2
 70
     0
  3
Phantom (.5x) ___ _ _ ___ _ _ ___ _ _ ___ _ _
 72
    65
 73
     6
 40
31.75
 49
15.875
 74
     0
 49
-3.174999999999998
 74
     0
 49
3.174999999999998
 74
     0
 49
-3.174999999999998
 74
     0
 49
3.174999999999998
 74
     0
 49
-3.174999999999998
 74
     0
  0
LTYPE
  5
2E5
330
5
100
AcDbSymbolTableRecord
100
AcDbLinetypeTableRecord
  2
ACDINWELD
 70
     0
  3
_ _ _ _ _
 72
    65
 73
     2
 40
2.0
 49
2.0
 74
     0
 49
-1.0
 74
     0
  0
LTYPE
  5
2E6
330
5
100
AcDbSymbolTableRecord
100
AcDbLinetypeTableRecord
  2
ACDINTGB
 70
     0
  3
__ . . __ . .
 72
    65
 73
     6
 40
9.0
 49
4.0
 74
     0
 49
-1.0
 74
     0
 49
1.0
 74
     0
 49
-1.0
 74
     0
 49
1.0
 74
     0
 49
-1.0
 74
     0
  0
LTYPE
  5
2E7
330
5
100
AcDbSymbolTableRecord
100
AcDbLinetypeTableRecord
  2
ACDINTGL
 70
     0
  3
_ _ _ _ _
 72
    65
 73
     2
 40
3.0
 49
2.0
 74
     0
 49
-1.0
 74
     0
  0
LTYPE
  5
321
330
5
100
AcDbSymbolTableRecord
100
AcDbLinetypeTableRecord
  2
AM_DIN_F_W050
 70
     0
  3
__ __ __ __ __ __ __ __ __ __ __ __ __ __ __
 72
    65
 73
     2
 40
6.25
 49
4.75
 74
     0
 49
-1.5
 74
     0
  0
LTYPE
  5
322
330
5
100
AcDbSymbolTableRecord
100
AcDbLinetypeTableRecord
  2
AM_DIN_G_W050
 70
     0
  3
____ . ____ . ____ . ____ . ____ . ____ . ____
 72
    65
 73
     4
 40
13.75
 49
9.75
 74
     0
 49
-1.5
 74
     0
 49
1.0
 74
     0
 49
-1.5
 74
     0
  0
LTYPE
  5
323
330
5
100
AcDbSymbolTableRecord
100
AcDbLinetypeTableRecord
  2
AM_DIN_K_W050
 70
     0
  3
_____ . . _____ . . _____ . . ____ .. ____
 72
    65
 73
     6
 40
16.25
 49
9.75
 74
     0
 49
-1.5
 74
     0
 49
1.0
 74
     0
 49
-1.5
 74
     0
 49
1.0
 74
     0
 49
-1.5
 74
     0
  0
LTYPE
  5
324
330
5
100
AcDbSymbolTableRecord
100
AcDbLinetypeTableRecord
  2
AM_DIN_G_W050x2
 70
     0
  3
__ . __ . __ . __ . __ . __
 72
    65
 73
     4
 40
6.875
 49
4.75
 74
     0
 49
-0.875
 74
     0
 49
0.375
 74
     0
 49
-0.875
 74
     0
  0
LTYPE
  5
325
330
5
100
AcDbSymbolTableRecord
100
AcDbLinetypeTableRecord
  2
AM_DIN_F_W050x2
 70
     0
  3
 _ _ _ _ _ _ _ _ _ _ _ _
 72
    65
 73
     2
 40
3.125
 49
2.25
 74
     0
 49
-0.875
 74
     0
  0
LTYPE
  5
675
330
5
100
AcDbSymbolTableRecord
100
AcDbLinetypeTableRecord
  2
GEN7A
 70
     0
  3
__ . __ . __
 72
    65
 73
     4
 40
6.875
 49
5.0
 74
     0
 49
-0.625
 74
     0
 49
0.625
 74
     0
 49
-0.625
 74
     0
  0
ENDTAB
  0
TABLE
  2
LAYER
  5
2
102
{ACAD_XDICTIONARY
360
68D
102
}
330
0
100
AcDbSymbolTable
 70
    10
  0
LAYER
  5
10
102
{ACAD_XDICTIONARY
360
7F7
102
}
330
2
100
AcDbSymbolTableRecord
100
AcDbLayerTableRecord
  2
0
 70
     0
 62
     7
  6
Continuous
370
    -3
390
F
  0
LAYER
  5
676
102
{ACAD_XDICTIONARY
360
677
102
}
330
2
100
AcDbSymbolTableRecord
100
AcDbLayerTableRecord
  2
7A
 70
     0
 62
     4
  6
GEN7A
370
    -3
390
F
  0
LAYER
  5
678
102
{ACAD_XDICTIONARY
360
679
102
}
330
2
100
AcDbSymbolTableRecord
100
AcDbLayerTableRecord
  2
5
 70
     0
 62
     3
  6
Continuous
370
    -3
390
F
  0
LAYER
  5
67A
330
2
100
AcDbSymbolTableRecord
100
AcDbLayerTableRecord
  2
DEFPOINTS
 70
     0
 62
     7
  6
Continuous
290
     0
370
    -3
390
F
  0
LAYER
  5
67B
102
{ACAD_XDICTIONARY
360
67C
102
}
330
2
100
AcDbSymbolTableRecord
100
AcDbLayerTableRecord
  2
KLIN
 70
     0
 62
     1
  6
Continuous
370
    -3
390
F
  0
LAYER
  5
67D
102
{ACAD_XDICTIONARY
360
67E
102
}
330
2
100
AcDbSymbolTableRecord
100
AcDbLayerTableRecord
  2
RUNDUNGEN
 70
     0
 62
     7
  6
Continuous
370
    -3
390
F
  0
LAYER
  5
67F
102
{ACAD_XDICTIONARY
360
680
102
}
330
2
100
AcDbSymbolTableRecord
100
AcDbLayerTableRecord
  2
AM_5
 70
     0
 62
     3
  6
Continuous
370
    25
390
F
1001
AcAecLayerStandard
1000

1000

  0
LAYER
  5
681
102
{ACAD_XDICTIONARY
360
682
102
}
330
2
100
AcDbSymbolTableRecord
100
AcDbLayerTableRecord
  2
AM_7
 70
     0
 62
     4
  6
AM_ISO08W050
370
    25
390
F
1001
AcAecLayerStandard
1000

1000

  0
LAYER
  5
7F0
102
{ACAD_XDICTIONARY
360
7FF
102
}
330
2
100
AcDbSymbolTableRecord
100
AcDbLayerTableRecord
  2
AM_CL
 70
     0
 62
     1
  6
Amconstr
370
    25
390
F
1001
AcAecLayerStandard
1000

1000

  0
LAYER
  5
A35
102
{ACAD_XDICTIONARY
360
A36
102
}
330
2
100
AcDbSymbolTableRecord
100
AcDbLayerTableRecord
  2
BEZUGSACHSEN
 70
     0
 62
     7
  6
Continuous
370
    -3
390
F
  0
ENDTAB
  0
TABLE
  2
STYLE
  5
3
330
0
100
AcDbSymbolTable
 70
    10
  0
STYLE
  5
11
330
3
100
AcDbSymbolTableRecord
100
AcDbTextStyleTableRecord
  2
STANDARD
 70
     0
 40
0.0
 41
1.0
 50
0.0
 71
     0
 42
2.5
  3
ISOCP.SHX
  4

  0
STYLE
  5
6B
330
3
100
AcDbSymbolTableRecord
100
AcDbTextStyleTableRecord
  2

 70
     1
 40
0.0
 41
1.0
 50
0.0
 71
     0
 42
2.5
  3
ltypeshp.shx
  4

  0
STYLE
  5
6D
330
3
100
AcDbSymbolTableRecord
100
AcDbTextStyleTableRecord
  2
ACISOTS
 70
     0
 40
1.0
 41
1.0
 50
0.0
 71
     0
 42
2.5
  3
isocp.shx
  4
bigfont.shx
  0
STYLE
  5
79
330
3
100
AcDbSymbolTableRecord
100
AcDbTextStyleTableRecord
  2
ACISOGDT
 70
     0
 40
0.0
 41
1.0
 50
0.0
 71
     0
 42
2.5
  3
AMGDT
  4
bigfont.shx
  0
STYLE
  5
1ED
330
3
100
AcDbSymbolTableRecord
100
AcDbTextStyleTableRecord
  2
USER1
 70
     0
 40
0.0
 41
1.0
 50
0.0
 71
     0
 42
2.5
  3
TXT.SHX
  4
bigfont.shx
  0
STYLE
  5
1EE
330
3
100
AcDbSymbolTableRecord
100
AcDbTextStyleTableRecord
  2
USER2
 70
     0
 40
0.0
 41
1.0
 50
0.0
 71
     0
 42
2.5
  3
SIMPLEX.SHX
  4
bigfont.shx
  0
STYLE
  5
1EF
330
3
100
AcDbSymbolTableRecord
100
AcDbTextStyleTableRecord
  2
USER3
 70
     0
 40
0.0
 41
1.0
 50
0.0
 71
     0
 42
2.5
  3
ITALIC.SHX
  4
bigfont.shx
  0
STYLE
  5
22C
330
3
100
AcDbSymbolTableRecord
100
AcDbTextStyleTableRecord
  2

 70
     1
 40
0.0
 41
1.0
 50
0.0
 71
     0
 42
2.5
  3
genltshp.shx
  4

  0
STYLE
  5
2D7
330
3
100
AcDbSymbolTableRecord
100
AcDbTextStyleTableRecord
  2
ACDINTS
 70
     0
 40
1.0
 41
1.0
 50
0.0
 71
     0
 42
2.5
  3
isocp.shx
  4

  0
STYLE
  5
2E4
330
3
100
AcDbSymbolTableRecord
100
AcDbTextStyleTableRecord
  2
ACDINGDT
 70
     0
 40
0.0
 41
1.0
 50
0.0
 71
     0
 42
2.5
  3
amgdt.shx
  4

  0
ENDTAB
  0
TABLE
  2
VIEW
  5
6
330
0
100
AcDbSymbolTable
 70
     0
  0
ENDTAB
  0
TABLE
  2
UCS
  5
7
330
0
100
AcDbSymbolTable
 70
     0
  0
ENDTAB
  0
TABLE
  2
APPID
  5
9
330
0
100
AcDbSymbolTable
 70
    26
  0
APPID
  5
12
330
9
100
AcDbSymbolTableRecord
100
AcDbRegAppTableRecord
  2
ACAD
 70
     0
  0
APPID
  5
46
330
9
100
AcDbSymbolTableRecord
100
AcDbRegAppTableRecord
  2
MCAD_NO_VIS
 70
     0
  0
APPID
  5
47
330
9
100
AcDbSymbolTableRecord
100
AcDbRegAppTableRecord
  2
ACAD_TEMP_GRAPHIC
 70
     0
  0
APPID
  5
58
330
9
100
AcDbSymbolTableRecord
100
AcDbRegAppTableRecord
  2
ACATTRIBSERVICES
 70
     0
  0
APPID
  5
EE
330
9
100
AcDbSymbolTableRecord
100
AcDbRegAppTableRecord
  2
AD_DRAW
 70
     0
  0
APPID
  5
10C
330
9
100
AcDbSymbolTableRecord
100
AcDbRegAppTableRecord
  2
DESIGNERASSEMBLIES
 70
     0
  0
APPID
  5
111
330
9
100
AcDbSymbolTableRecord
100
AcDbRegAppTableRecord
  2
ACADM_DIM_EDIT
 70
     0
  0
APPID
  5
112
330
9
100
AcDbSymbolTableRecord
100
AcDbRegAppTableRecord
  2
AMDT_DM_ADJ
 70
     0
  0
APPID
  5
1A3
330
9
100
AcDbSymbolTableRecord
100
AcDbRegAppTableRecord
  2
ACAD_DSTYLE_DIMARC_LENGTH_SYMBOL
 70
     0
  0
APPID
  5
1A4
330
9
100
AcDbSymbolTableRecord
100
AcDbRegAppTableRecord
  2
ACAD_DSTYLE_DIMJOGGED_JOGANGLE_SYMBOL
 70
     0
  0
APPID
  5
3F1
330
9
100
AcDbSymbolTableRecord
100
AcDbRegAppTableRecord
  2
ACAD_MLEADERVER
 70
     0
  0
APPID
  5
684
330
9
100
AcDbSymbolTableRecord
100
AcDbRegAppTableRecord
  2
GENIUS_GENOENT_13
 70
     0
  0
APPID
  5
685
330
9
100
AcDbSymbolTableRecord
100
AcDbRegAppTableRecord
  2
GENIUS_GENODEF_13
 70
     0
  0
APPID
  5
686
330
9
100
AcDbSymbolTableRecord
100
AcDbRegAppTableRecord
  2
GENIUS_GENOLIS_13
 70
     0
  0
APPID
  5
687
330
9
100
AcDbSymbolTableRecord
100
AcDbRegAppTableRecord
  2
GENIUS_GENOREF_13
 70
     0
  0
APPID
  5
688
330
9
100
AcDbSymbolTableRecord
100
AcDbRegAppTableRecord
  2
GENIUS_GENOBJ-N-CRS_13
 70
     0
  0
APPID
  5
689
330
9
100
AcDbSymbolTableRecord
100
AcDbRegAppTableRecord
  2
GENIUS_GENOBJ-N-CEN_13
 70
     0
  0
APPID
  5
68A
330
9
100
AcDbSymbolTableRecord
100
AcDbRegAppTableRecord
  2
AcAecLayerStandard
 70
     0
  0
APPID
  5
68B
330
9
100
AcDbSymbolTableRecord
100
AcDbRegAppTableRecord
  2
ACAD_DSTYLE_DIMINSPECT
 70
     0
  0
APPID
  5
68C
330
9
100
AcDbSymbolTableRecord
100
AcDbRegAppTableRecord
  2
GENIUS_GENCEN_19
 70
     0
  0
APPID
  5
810
330
9
100
AcDbSymbolTableRecord
100
AcDbRegAppTableRecord
  2
ACAD_DSTYLE_DIM_LINETYPE
 70
     0
  0
APPID
  5
811
330
9
100
AcDbSymbolTableRecord
100
AcDbRegAppTableRecord
  2
ACAD_DSTYLE_DIM_EXT1_LINETYPE
 70
     0
  0
APPID
  5
812
330
9
100
AcDbSymbolTableRecord
100
AcDbRegAppTableRecord
  2
ACAD_DSTYLE_DIM_EXT2_LINETYPE
 70
     0
  0
APPID
  5
930
330
9
100
AcDbSymbolTableRecord
100
AcDbRegAppTableRecord
  2
ACAD_EXEMPT_FROM_CAD_STANDARDS
 70
     0
  0
APPID
  5
A38
330
9
100
AcDbSymbolTableRecord
100
AcDbRegAppTableRecord
  2
ACAD_PSEXT
 70
     0
  0
APPID
  5
CA6
330
9
100
AcDbSymbolTableRecord
100
AcDbRegAppTableRecord
  2
DCO15
 70
     0
  0
ENDTAB
  0
TABLE
  2
DIMSTYLE
  5
A
330
0
100
AcDbSymbolTable
 70
    18
100
AcDbDimStyleTable
 71
     2
340
2F0
340
81
  0
DIMSTYLE
105
27
330
A
100
AcDbSymbolTableRecord
100
AcDbDimStyleTableRecord
  2
ISO-25
 70
     0
 41
2.5
 42
0.625
 43
3.75
 44
1.25
 73
     0
 74
     0
 77
     1
 78
     8
140
2.5
141
2.5
143
0.03937007874016
147
0.625
171
     3
172
     1
271
     2
272
     2
274
     3
278
    44
283
     0
284
     8
340
11
  0
DIMSTYLE
105
81
330
A
100
AcDbSymbolTableRecord
100
AcDbDimStyleTableRecord
  2
AM_ISO
 70
     0
  4
"
 41
2.5
 42
1.0
 43
10.0
 44
1.0
 47
0.1
 48
0.1
 73
     0
 74
     0
 77
     1
 78
     8
 79
     2
140
3.5
141
0.0
143
0.0393701
146
0.71
147
1.5
172
     1
176
   256
177
   256
178
     2
271
     2
272
     3
274
     4
283
     0
284
     8
340
11
371
    -1
372
    -1
1001
ACAD_DSTYLE_DIMJOGGED_JOGANGLE_SYMBOL
1070
   384
1040
0.7853981633974483
1001
ACAD_DSTYLE_DIMARC_LENGTH_SYMBOL
1070
   379
1070
     1
  0
DIMSTYLE
105
82
330
A
100
AcDbSymbolTableRecord
100
AcDbDimStyleTableRecord
  2
AM_ISO$3
 70
     0
  4
"
 41
2.5
 42
1.0
 43
10.0
 44
1.0
 47
0.1
 48
0.1
 73
     0
 77
     1
 78
     8
 79
     2
140
3.5
141
0.0
143
0.0393701
146
0.71
147
1.5
176
   256
177
   256
178
     2
271
     2
272
     3
274
     4
283
     0
284
     8
288
     1
289
     0
340
11
371
    -1
372
    -1
1001
ACAD_DSTYLE_DIMJOGGED_JOGANGLE_SYMBOL
1070
   384
1040
0.7853981633974483
1001
ACAD_DSTYLE_DIMARC_LENGTH_SYMBOL
1070
   379
1070
     1
  0
DIMSTYLE
105
83
330
A
100
AcDbSymbolTableRecord
100
AcDbDimStyleTableRecord
  2
AM_ISO$4
 70
     0
  4
"
 41
2.5
 42
1.0
 43
10.0
 44
1.0
 47
0.1
 48
0.1
 73
     0
 77
     1
 78
     8
 79
     2
140
3.5
141
0.0
143
0.0393701
146
0.71
147
1.5
176
   256
177
   256
178
     2
271
     2
272
     3
274
     4
283
     0
284
     8
288
     1
289
     0
340
11
371
    -1
372
    -1
1001
ACAD_DSTYLE_DIMJOGGED_JOGANGLE_SYMBOL
1070
   384
1040
0.7853981633974483
1001
ACAD_DSTYLE_DIMARC_LENGTH_SYMBOL
1070
   379
1070
     1
  0
DIMSTYLE
105
84
330
A
100
AcDbSymbolTableRecord
100
AcDbDimStyleTableRecord
  2
AM_ISO$6
 70
     0
  4
"
 41
2.5
 42
1.0
 43
10.0
 44
1.0
 47
0.1
 48
0.1
 73
     0
 74
     0
 78
     8
 79
     2
140
3.5
141
0.0
143
0.0393701
146
0.71
147
1.5
172
     1
176
   256
177
   256
178
     2
271
     2
272
     3
274
     4
283
     0
284
     8
340
11
371
    -1
372
    -1
1001
ACAD_DSTYLE_DIMJOGGED_JOGANGLE_SYMBOL
1070
   384
1040
0.7853981633974483
1001
ACAD_DSTYLE_DIMARC_LENGTH_SYMBOL
1070
   379
1070
     1
  0
DIMSTYLE
105
85
330
A
100
AcDbSymbolTableRecord
100
AcDbDimStyleTableRecord
  2
AM_ISO$7
 70
     0
  4
"
 41
2.5
 42
1.0
 43
10.0
 44
1.0
 47
0.1
 48
0.1
 73
     0
 74
     0
 77
     1
 78
     8
 79
     2
140
5.0
141
0.0
143
0.0393701
146
0.71
147
1.5
172
     1
176
   256
177
   256
178
     2
271
     2
272
     3
274
     4
283
     0
284
     8
340
11
371
    -1
372
    -1
1001
ACAD_DSTYLE_DIMJOGGED_JOGANGLE_SYMBOL
1070
   384
1040
0.7853981633974483
1001
ACAD_DSTYLE_DIMARC_LENGTH_SYMBOL
1070
   379
1070
     1
  0
DIMSTYLE
105
86
330
A
100
AcDbSymbolTableRecord
100
AcDbDimStyleTableRecord
  2
AM_ISO$SF
 70
     0
  4
"
 41
2.5
 42
1.0
 43
10.0
 44
1.0
 47
0.1
 48
0.1
 73
     0
 74
     0
 75
     1
 76
     1
 77
     1
 78
     8
 79
     2
140
3.5
141
0.0
143
0.0393701
146
0.71
147
1.5
172
     1
176
   256
177
   256
178
     2
271
     2
272
     3
274
     4
283
     0
284
     8
340
11
371
    -1
372
    -1
1001
ACAD_DSTYLE_DIMJOGGED_JOGANGLE_SYMBOL
1070
   384
1040
0.7853981633974483
1001
ACAD_DSTYLE_DIMARC_LENGTH_SYMBOL
1070
   379
1070
     1
  0
DIMSTYLE
105
8B
330
A
100
AcDbSymbolTableRecord
100
AcDbDimStyleTableRecord
  2
AM_ISO$SH
 70
     0
  4
"
 41
2.5
 42
1.0
 43
10.0
 44
1.0
 47
0.1
 48
0.1
 73
     0
 74
     0
 75
     1
 76
     1
 77
     1
 78
     8
 79
     2
140
3.5
141
0.0
143
0.0393701
144
2.0
146
0.71
147
1.5
172
     1
173
     1
176
   256
177
   256
178
     2
271
     2
272
     3
274
     4
283
     0
284
     8
340
11
343
87
371
    -1
372
    -1
1001
ACAD_DSTYLE_DIMJOGGED_JOGANGLE_SYMBOL
1070
   384
1040
0.7853981633974483
1001
ACAD_DSTYLE_DIMARC_LENGTH_SYMBOL
1070
   379
1070
     1
  0
DIMSTYLE
105
2F0
102
{ACAD_REACTORS
330
BC7
102
}
330
A
100
AcDbSymbolTableRecord
100
AcDbDimStyleTableRecord
  2
AM_DIN
 70
     0
  4
"
 41
3.5
 42
1.0
 43
10.0
 44
1.0
 47
0.1
 48
0.1
 73
     0
 74
     0
 77
     1
 78
     8
 79
     2
140
3.5
141
0.0
143
0.0393701
146
0.71
147
1.5
172
     1
176
   256
177
   256
178
     2
271
     2
272
     3
274
     4
283
     0
284
     8
340
11
371
    -1
372
    -1
1001
ACAD_DSTYLE_DIMJOGGED_JOGANGLE_SYMBOL
1070
   384
1040
1.570796326794896
1001
ACAD_DSTYLE_DIM_LINETYPE
1070
   380
1005
14
1001
ACAD_DSTYLE_DIM_EXT1_LINETYPE
1070
   381
1005
14
1001
ACAD_DSTYLE_DIM_EXT2_LINETYPE
1070
   382
1005
14
  0
DIMSTYLE
105
301
330
A
100
AcDbSymbolTableRecord
100
AcDbDimStyleTableRecord
  2
AM_DIN$3
 70
     0
  4
"
 41
3.5
 42
1.0
 43
10.0
 44
1.0
 47
0.1
 48
0.1
 73
     0
 77
     1
 78
     8
 79
     2
140
3.5
141
0.0
143
0.0393701
146
0.71
147
1.5
176
   256
177
   256
178
     2
271
     2
272
     3
274
     4
283
     0
284
     8
288
     1
289
     0
340
11
371
    -1
372
    -1
1001
ACAD_DSTYLE_DIMJOGGED_JOGANGLE_SYMBOL
1070
   384
1040
1.570796326794896
1001
ACAD_DSTYLE_DIM_LINETYPE
1070
   380
1005
14
1001
ACAD_DSTYLE_DIM_EXT1_LINETYPE
1070
   381
1005
14
1001
ACAD_DSTYLE_DIM_EXT2_LINETYPE
1070
   382
1005
14
  0
DIMSTYLE
105
306
330
A
100
AcDbSymbolTableRecord
100
AcDbDimStyleTableRecord
  2
AM_DIN$4
 70
     0
  4
"
 41
3.5
 42
1.0
 43
10.0
 44
1.0
 47
0.1
 48
0.1
 73
     0
 74
     0
 77
     1
 78
     8
 79
     2
140
3.5
141
0.0
143
0.0393701
146
0.71
147
1.5
172
     1
176
   256
177
   256
178
     2
271
     2
272
     3
274
     4
283
     0
284
     8
340
11
371
    -1
372
    -1
1001
ACAD_DSTYLE_DIMJOGGED_JOGANGLE_SYMBOL
1070
   384
1040
1.570796326794896
1001
ACAD_DSTYLE_DIM_LINETYPE
1070
   380
1005
14
1001
ACAD_DSTYLE_DIM_EXT1_LINETYPE
1070
   381
1005
14
1001
ACAD_DSTYLE_DIM_EXT2_LINETYPE
1070
   382
1005
14
  0
DIMSTYLE
105
30B
330
A
100
AcDbSymbolTableRecord
100
AcDbDimStyleTableRecord
  2
AM_DIN$6
 70
     0
  4
"
 41
3.5
 42
1.0
 43
10.0
 44
1.0
 47
0.1
 48
0.1
 73
     0
 74
     0
 78
     8
 79
     2
140
3.5
141
0.0
143
0.0393701
146
0.71
147
1.5
172
     1
176
   256
177
   256
178
     2
271
     2
272
     3
274
     4
283
     0
284
     8
340
11
371
    -1
372
    -1
1001
ACAD_DSTYLE_DIMJOGGED_JOGANGLE_SYMBOL
1070
   384
1040
1.570796326794896
1001
ACAD_DSTYLE_DIM_LINETYPE
1070
   380
1005
14
1001
ACAD_DSTYLE_DIM_EXT1_LINETYPE
1070
   381
1005
14
1001
ACAD_DSTYLE_DIM_EXT2_LINETYPE
1070
   382
1005
14
  0
DIMSTYLE
105
310
330
A
100
AcDbSymbolTableRecord
100
AcDbDimStyleTableRecord
  2
AM_DIN$7
 70
     0
  4
"
 41
3.5
 42
1.0
 43
10.0
 44
1.0
 47
0.1
 48
0.1
 73
     0
 74
     0
 77
     1
 78
     8
 79
     2
140
3.5
141
0.0
143
0.0393701
146
0.71
147
1.5
172
     1
176
   256
177
   256
178
     2
271
     2
272
     3
274
     4
283
     0
284
     8
340
11
371
    -1
372
    -1
1001
ACAD_DSTYLE_DIMJOGGED_JOGANGLE_SYMBOL
1070
   384
1040
1.570796326794896
1001
ACAD_DSTYLE_DIM_LINETYPE
1070
   380
1005
14
1001
ACAD_DSTYLE_DIM_EXT1_LINETYPE
1070
   381
1005
14
1001
ACAD_DSTYLE_DIM_EXT2_LINETYPE
1070
   382
1005
14
  0
DIMSTYLE
105
315
330
A
100
AcDbSymbolTableRecord
100
AcDbDimStyleTableRecord
  2
AM_DIN$SF
 70
     0
  4
"
 41
3.5
 42
1.0
 43
10.0
 44
1.0
 47
0.1
 48
0.1
 73
     0
 74
     0
 75
     1
 76
     1
 77
     1
 78
     8
 79
     2
140
3.5
141
0.0
143
0.0393701
146
0.71
147
1.5
172
     1
176
   256
177
   256
178
     2
271
     2
272
     3
274
     4
283
     0
284
     8
340
11
371
    -1
372
    -1
1001
ACAD_DSTYLE_DIMJOGGED_JOGANGLE_SYMBOL
1070
   384
1040
1.570796326794896
1001
ACAD_DSTYLE_DIM_LINETYPE
1070
   380
1005
14
1001
ACAD_DSTYLE_DIM_EXT1_LINETYPE
1070
   381
1005
14
1001
ACAD_DSTYLE_DIM_EXT2_LINETYPE
1070
   382
1005
14
  0
DIMSTYLE
105
31A
330
A
100
AcDbSymbolTableRecord
100
AcDbDimStyleTableRecord
  2
AM_DIN$SH
 70
     0
  4
"
 41
3.5
 42
1.0
 43
10.0
 44
1.0
 47
0.1
 48
0.1
 73
     0
 74
     0
 75
     1
 76
     1
 77
     1
 78
     8
 79
     2
140
3.5
141
0.0
143
0.0393701
144
2.0
146
0.71
147
1.5
172
     1
173
     1
176
   256
177
   256
178
     2
271
     2
272
     3
274
     4
283
     0
284
     8
340
11
343
87
371
    -1
372
    -1
1001
ACAD_DSTYLE_DIMJOGGED_JOGANGLE_SYMBOL
1070
   384
1040
1.570796326794896
1001
ACAD_DSTYLE_DIM_LINETYPE
1070
   380
1005
14
1001
ACAD_DSTYLE_DIM_EXT1_LINETYPE
1070
   381
1005
14
1001
ACAD_DSTYLE_DIM_EXT2_LINETYPE
1070
   382
1005
14
  0
DIMSTYLE
105
683
102
{ACAD_REACTORS
330
779
330
77A
330
77B
330
77F
330
780
330
781
330
783
330
786
330
9B2
102
}
330
A
100
AcDbSymbolTableRecord
100
AcDbDimStyleTableRecord
  2
AM_DIN$0
 70
     0
  4
"
 41
3.5
 42
1.0
 43
10.0
 44
1.0
 47
0.1
 48
0.1
 73
     0
 74
     0
 77
     1
 78
     8
 79
     2
140
3.5
141
0.0
143
0.0393701
146
0.71
147
1.5
172
     1
176
   256
177
   256
178
     2
271
     2
272
     3
274
     4
283
     0
284
     8
340
11
371
    -1
372
    -1
1001
ACAD_DSTYLE_DIMJOGGED_JOGANGLE_SYMBOL
1070
   384
1040
1.570796326794896
1001
ACAD_DSTYLE_DIM_LINETYPE
1070
   380
1005
14
1001
ACAD_DSTYLE_DIM_EXT1_LINETYPE
1070
   381
1005
14
1001
ACAD_DSTYLE_DIM_EXT2_LINETYPE
1070
   382
1005
14
  0
DIMSTYLE
105
A37
330
A
100
AcDbSymbolTableRecord
100
AcDbDimStyleTableRecord
  2
GEN-ISO
 70
     0
  3
<>
  4
"
 40
20.0
 41
2.5
 42
1.0
 43
7.0
 44
1.0
 47
0.1
 48
0.1
 73
     0
 74
     0
 77
     1
 78
     8
140
3.5
141
0.0
143
0.0393701
146
0.71
147
0.6
172
     1
176
   256
177
   256
178
     2
271
     2
272
     3
274
     4
283
     0
340
11
  0
ENDTAB
  0
TABLE
  2
BLOCK_RECORD
  5
1
330
0
100
AcDbSymbolTable
 70
    25
  0
BLOCK_RECORD
  5
1F
102
{ACAD_XDICTIONARY
360
8F
102
}
330
1
100
AcDbSymbolTableRecord
100
AcDbBlockTableRecord
  2
*Model_Space
340
22
  0
BLOCK_RECORD
  5
1B
330
1
100
AcDbSymbolTableRecord
100
AcDbBlockTableRecord
  2
*Paper_Space
340
1E
  0
BLOCK_RECORD
  5
23
330
1
100
AcDbSymbolTableRecord
100
AcDbBlockTableRecord
  2
*Paper_Space0
340
26
  0
BLOCK_RECORD
  5
87
330
1
100
AcDbSymbolTableRecord
100
AcDbBlockTableRecord
  2
GENAXEH
340
0
  0
BLOCK_RECORD
  5
5C1
330
1
100
AcDbSymbolTableRecord
100
AcDbBlockTableRecord
  2
stutzen
340
0
310
2800000020000000200000000100080000000000000400000000000000000000000000000000000000000000000080000080000000808000800000008000800080800000C0C0C000C0DCC000F0CAA6000020400000206000002080000020A0000020C0000020E00000400000004020000040400000406000004080000040A0
310
000040C0000040E00000600000006020000060400000606000006080000060A0000060C0000060E00000800000008020000080400000806000008080000080A0000080C0000080E00000A0000000A0200000A0400000A0600000A0800000A0A00000A0C00000A0E00000C0000000C0200000C0400000C0600000C0800000C0
310
A00000C0C00000C0E00000E0000000E0200000E0400000E0600000E0800000E0A00000E0C00000E0E00040000000400020004000400040006000400080004000A0004000C0004000E00040200000402020004020400040206000402080004020A0004020C0004020E000404000004040200040404000404060004040800040
310
40A0004040C0004040E00040600000406020004060400040606000406080004060A0004060C0004060E00040800000408020004080400040806000408080004080A0004080C0004080E00040A0000040A0200040A0400040A0600040A0800040A0A00040A0C00040A0E00040C0000040C0200040C0400040C0600040C08000
310
40C0A00040C0C00040C0E00040E0000040E0200040E0400040E0600040E0800040E0A00040E0C00040E0E00080000000800020008000400080006000800080008000A0008000C0008000E00080200000802020008020400080206000802080008020A0008020C0008020E00080400000804020008040400080406000804080
310
008040A0008040C0008040E00080600000806020008060400080606000806080008060A0008060C0008060E00080800000808020008080400080806000808080008080A0008080C0008080E00080A0000080A0200080A0400080A0600080A0800080A0A00080A0C00080A0E00080C0000080C0200080C0400080C0600080C0
310
800080C0A00080C0C00080C0E00080E0000080E0200080E0400080E0600080E0800080E0A00080E0C00080E0E000C0000000C0002000C0004000C0006000C0008000C000A000C000C000C000E000C0200000C0202000C0204000C0206000C0208000C020A000C020C000C020E000C0400000C0402000C0404000C0406000C0
310
408000C040A000C040C000C040E000C0600000C0602000C0604000C0606000C0608000C060A000C060C000C060E000C0800000C0802000C0804000C0806000C0808000C080A000C080C000C080E000C0A00000C0A02000C0A04000C0A06000C0A08000C0A0A000C0A0C000C0A0E000C0C00000C0C02000C0C04000C0C06000
310
C0C08000C0C0A000F0FBFF00A4A0A000808080000000FF0000FF000000FFFF00FF000000FF00FF00FFFF0000FFFFFF00000000000000000000000000000000000000000000000000000000000000000000000000000000000000000000000000FE0000000000000000000000000000000000000000000000FFFFFFFFFFFFFF
310
FFFFFFFFFFFFFFFFFF00000000000000000000000000000000FFFF000000000000FE0000000000FFFF0000000000000000000000000000F9FFFFFF070707070707070707070707FFFFFFF90000000000000000000000F9FFF9FFFFFFFFFFFFFFFFFFFFFFFFFFFFFFFFF9FFF900000000000000000000F9FF07070707070707
310
0707070707070707070707FFFF00000000000000000000F900000000000000000000FE000000000000000000F900000000000000000000F900000000000000000000FE000000000000000000F900000000000000000000FF00000000000000000000FE000000000000000000F900000000000000000000F900000000000000
310
000000FE000000000000000000F900000000000000000000F900000000000000000000FE000000000000000000FF00000000000000000000F900000000000000000000FE000000000000000000F900000000000000000000F900000000000000000000FE000000000000000000FF00000000000000000000FF000000000000
310
00000000FE000000000000000000F900000000000000000000F900000000000000000000FE000000000000000000F900000000000000000000FF00000000000000000000FE000000000000000000F900000000000000000000F900000000000000000000FE000000000000000000F900000000000000000000F90000000000
310
0000000000FE000000000000000000FF00000000000000000000F900000000000000000000FE000000000000000000F900000000000000000000F900000000000000000000FE000000000000000000F900000000000000000000FF00000000000000000000FE000000000000000000F900000000000000000000F900000000
310
000000000000FE000000000000000000F900000000000000000000FF00000000000000000000FE000000000000000000F900000000000000000000F900000000000000000000FE000000000000000000F900000000000000000000F900000000000000000000FE000000000000000000FF00000000000000000000F9000000
310
00000000000000FE000000000000000000F900000000000000000000F900000000000000000000FE000000000000000000F900000000000000000000FF00000000000000000000FE000000000000000000F900000000000000000000FBFFFFFFFFFFFFFFFFFFFFFFFFFFFFFFFFFFFFFFFFFF00000000000000000000000000
310
0000000000000000FE0000000000000000000000000000000000000000000000000000000000000000000000000000000000000000000000
102
{BLKREFS
331
769
102
}
  0
BLOCK_RECORD
  5
5FF
330
1
100
AcDbSymbolTableRecord
100
AcDbBlockTableRecord
  2
fklö
340
0
310
2800000020000000200000000100080000000000000400000000000000000000000000000000000000000000000080000080000000808000800000008000800080800000C0C0C000C0DCC000F0CAA6000020400000206000002080000020A0000020C0000020E00000400000004020000040400000406000004080000040A0
310
000040C0000040E00000600000006020000060400000606000006080000060A0000060C0000060E00000800000008020000080400000806000008080000080A0000080C0000080E00000A0000000A0200000A0400000A0600000A0800000A0A00000A0C00000A0E00000C0000000C0200000C0400000C0600000C0800000C0
310
A00000C0C00000C0E00000E0000000E0200000E0400000E0600000E0800000E0A00000E0C00000E0E00040000000400020004000400040006000400080004000A0004000C0004000E00040200000402020004020400040206000402080004020A0004020C0004020E000404000004040200040404000404060004040800040
310
40A0004040C0004040E00040600000406020004060400040606000406080004060A0004060C0004060E00040800000408020004080400040806000408080004080A0004080C0004080E00040A0000040A0200040A0400040A0600040A0800040A0A00040A0C00040A0E00040C0000040C0200040C0400040C0600040C08000
310
40C0A00040C0C00040C0E00040E0000040E0200040E0400040E0600040E0800040E0A00040E0C00040E0E00080000000800020008000400080006000800080008000A0008000C0008000E00080200000802020008020400080206000802080008020A0008020C0008020E00080400000804020008040400080406000804080
310
008040A0008040C0008040E00080600000806020008060400080606000806080008060A0008060C0008060E00080800000808020008080400080806000808080008080A0008080C0008080E00080A0000080A0200080A0400080A0600080A0800080A0A00080A0C00080A0E00080C0000080C0200080C0400080C0600080C0
310
800080C0A00080C0C00080C0E00080E0000080E0200080E0400080E0600080E0800080E0A00080E0C00080E0E000C0000000C0002000C0004000C0006000C0008000C000A000C000C000C000E000C0200000C0202000C0204000C0206000C0208000C020A000C020C000C020E000C0400000C0402000C0404000C0406000C0
310
408000C040A000C040C000C040E000C0600000C0602000C0604000C0606000C0608000C060A000C060C000C060E000C0800000C0802000C0804000C0806000C0808000C080A000C080C000C080E000C0A00000C0A02000C0A04000C0A06000C0A08000C0A0A000C0A0C000C0A0E000C0C00000C0C02000C0C04000C0C06000
310
C0C08000C0C0A000F0FBFF00A4A0A000808080000000FF0000FF000000FFFF00FF000000FF00FF00FFFF0000FFFFFF00000000000000000000000000000000000000000000000000000000000000000000000000000000000000000000000000FE000000000000000000000000000000000000000000000000000000000000
310
00FE000000000000000000000000000000000000FBFFFFFFFFFFFFFFFFFFFFFFFFFFFFFFFFFFFFFFFFFFFFFFFFFF000000000000FF000000000000000000000000FE0000000000000000000000FF000000000000FF000000000000000000000000FE0000000000000000000000FF000000000000FF00000000000000000000
310
0000FE0000000000000000000000FB000000000000FF000000000000000000000000FE0000000000000000000000FB000000000000FF000000000000000000000000FE0000000000000000000000FF000000000000FB000000000000000000000000FE0000000000000000000000FF000000000000FB000000000000000000
310
000000FE0000000000000000000000FF000000000000FF000000000000000000000000FE0000000000000000000000FF000000000000FF000000000000000000000000FE0000000000000000000000FB000000000000FF000000000000000000000000FE0000000000000000000000FB000000000000FF0000000000000000
310
00000000FE0000000000000000000000FF000000000000FF000000000000000000000000FE0000000000000000000000FF000000000000FB000000000000000000000000FE0000000000000000000000FF000000000000FB000000000000000000000000FE0000000000000000000000FF000000000000FF00000000000000
310
0000000000FE0000000000000000000000FF000000000000FF000000000000000000000000FE0000000000000000000000FB000000000000FF000000000000000000000000FE0000000000000000000000FB000000000000FF000000000000000000000000FE0000000000000000000000FF000000000000FB000000000000
310
000000000000FE0000000000000000000000FF000000000000FB000000000000000000000000FE0000000000000000000000FF000000000000FF000000000000000000000000FE0000000000000000000000FF000000000000FF000000000000000000000000FE0000000000000000000000FF000000000000FF0000000000
310
00000000000000FE0000000000000000000000FB000000000000FF000000000000000000000000FE0000000000000000000000FB000000000000FFFFFFFFFFFFFFFFFFFFFFFFFFFFFFFFFFFFFFFFFFFFFFFFFFFF00000000000000000000000000000000000000FE0000000000000000000000000000000000000000000000
310
0000000000000000FE0000000000000000000000000000000000000000000000000000000000000000000000000000000000000000000000
  0
BLOCK_RECORD
  5
611
330
1
100
AcDbSymbolTableRecord
100
AcDbBlockTableRecord
  2
*D4
340
0
  0
BLOCK_RECORD
  5
61D
330
1
100
AcDbSymbolTableRecord
100
AcDbBlockTableRecord
  2
*D5
340
0
  0
BLOCK_RECORD
  5
629
330
1
100
AcDbSymbolTableRecord
100
AcDbBlockTableRecord
  2
*D6
340
0
  0
BLOCK_RECORD
  5
635
330
1
100
AcDbSymbolTableRecord
100
AcDbBlockTableRecord
  2
*D7
340
0
  0
BLOCK_RECORD
  5
641
330
1
100
AcDbSymbolTableRecord
100
AcDbBlockTableRecord
  2
*D8
340
0
  0
BLOCK_RECORD
  5
64D
330
1
100
AcDbSymbolTableRecord
100
AcDbBlockTableRecord
  2
*D9
340
0
  0
BLOCK_RECORD
  5
659
330
1
100
AcDbSymbolTableRecord
100
AcDbBlockTableRecord
  2
*D10
340
0
  0
BLOCK_RECORD
  5
667
330
1
100
AcDbSymbolTableRecord
100
AcDbBlockTableRecord
  2
*D11
340
0
  0
BLOCK_RECORD
  5
78C
330
1
100
AcDbSymbolTableRecord
100
AcDbBlockTableRecord
  2
*D12
340
0
  0
BLOCK_RECORD
  5
798
330
1
100
AcDbSymbolTableRecord
100
AcDbBlockTableRecord
  2
*D13
340
0
  0
BLOCK_RECORD
  5
7A4
330
1
100
AcDbSymbolTableRecord
100
AcDbBlockTableRecord
  2
*D14
340
0
  0
BLOCK_RECORD
  5
7B0
330
1
100
AcDbSymbolTableRecord
100
AcDbBlockTableRecord
  2
*D15
340
0
  0
BLOCK_RECORD
  5
7BC
330
1
100
AcDbSymbolTableRecord
100
AcDbBlockTableRecord
  2
*D16
340
0
  0
BLOCK_RECORD
  5
7C8
330
1
100
AcDbSymbolTableRecord
100
AcDbBlockTableRecord
  2
*D17
340
0
  0
BLOCK_RECORD
  5
7D4
330
1
100
AcDbSymbolTableRecord
100
AcDbBlockTableRecord
  2
*D18
340
0
  0
BLOCK_RECORD
  5
7E2
330
1
100
AcDbSymbolTableRecord
100
AcDbBlockTableRecord
  2
*D19
340
0
  0
BLOCK_RECORD
  5
989
330
1
100
AcDbSymbolTableRecord
100
AcDbBlockTableRecord
  2
*D20
340
0
  0
BLOCK_RECORD
  5
9B3
330
1
100
AcDbSymbolTableRecord
100
AcDbBlockTableRecord
  2
*D21
340
0
  0
ENDTAB
  0
ENDSEC
  0
SECTION
  2
BLOCKS
  0
BLOCK
  5
20
330
1F
100
AcDbEntity
  8
0
100
AcDbBlockBegin
  2
*Model_Space
 70
     0
 10
0.0
 20
0.0
 30
0.0
  3
*Model_Space
  1

  0
ENDBLK
  5
21
330
1F
100
AcDbEntity
  8
0
100
AcDbBlockEnd
  0
BLOCK
  5
1C
330
1B
100
AcDbEntity
 67
     1
  8
0
100
AcDbBlockBegin
  2
*Paper_Space
 70
     0
 10
0.0
 20
0.0
 30
0.0
  3
*Paper_Space
  1

  0
ENDBLK
  5
1D
330
1B
100
AcDbEntity
 67
     1
  8
0
100
AcDbBlockEnd
  0
BLOCK
  5
24
330
23
100
AcDbEntity
 67
     1
  8
0
100
AcDbBlockBegin
  2
*Paper_Space0
 70
     0
 10
0.0
 20
0.0
 30
0.0
  3
*Paper_Space0
  1

  0
ENDBLK
  5
25
330
23
100
AcDbEntity
 67
     1
  8
0
100
AcDbBlockEnd
  0
BLOCK
  5
89
330
87
100
AcDbEntity
  8
0
100
AcDbBlockBegin
  2
GENAXEH
 70
     0
 10
0.0
 20
0.0
 30
0.0
  3
GENAXEH
  1

  0
LINE
  5
88
330
87
100
AcDbEntity
  8
0
100
AcDbLine
 10
-1.0
 20
0.0
 30
0.0
 11
1.0
 21
0.0
 31
0.0
  0
ENDBLK
  5
8A
330
87
100
AcDbEntity
  8
0
100
AcDbBlockEnd
  0
BLOCK
  5
5C2
330
5C1
100
AcDbEntity
  8
0
100
AcDbBlockBegin
  2
stutzen
 70
     0
 10
0.0
 20
0.0
 30
0.0
  3
stutzen
  1

  0
LINE
  5
5C3
330
5C1
100
AcDbEntity
  8
0
  6
Continuous
 62
     2
100
AcDbLine
 10
5583.692362419846
 20
3572.388833737998
 30
0.0
 11
5585.24221523384
 21
3573.938686551999
 31
0.0
  0
LINE
  5
5C4
330
5C1
100
AcDbEntity
  8
KLIN
  6
ByBlock
100
AcDbLine
 10
5583.692362419846
 20
3512.779110133001
 30
0.0
 11
5593.692362419846
 21
3522.779110133001
 31
0.0
  0
LINE
  5
5C5
330
5C1
100
AcDbEntity
  8
KLIN
  6
ByBlock
100
AcDbLine
 10
5583.692362419846
 20
3453.169386528003
 30
0.0
 11
5593.692362419846
 21
3463.169386528003
 31
0.0
  0
LINE
  5
5C6
330
5C1
100
AcDbEntity
  8
KLIN
  6
ByBlock
100
AcDbLine
 10
5583.692362419846
 20
3393.559662922001
 30
0.0
 11
5593.692362419846
 21
3403.559662922002
 31
0.0
  0
LINE
  5
5C7
330
5C1
100
AcDbEntity
  8
0
  6
Continuous
 62
     7
100
AcDbLine
 10
6203.692362419847
 20
2658.938686551999
 30
0.0
 11
5703.692362419847
 21
2658.938686551999
 31
0.0
  0
LINE
  5
5C8
330
5C1
100
AcDbEntity
  8
KLIN
  6
ByBlock
100
AcDbLine
 10
5583.692362419846
 20
3333.949939317005
 30
0.0
 11
5593.692362419846
 21
3343.949939317005
 31
0.0
  0
LINE
  5
5C9
330
5C1
100
AcDbEntity
  8
0
  6
Continuous
 62
     9
100
AcDbLine
 10
6193.692362419846
 20
2708.938686551999
 30
0.0
 11
5713.692362419846
 21
2708.938686551999
 31
0.0
  0
LINE
  5
5CA
330
5C1
100
AcDbEntity
  8
0
  6
Continuous
 62
     7
100
AcDbLine
 10
6263.692362419846
 20
2728.938686551999
 30
0.0
 11
6223.692362419846
 21
2728.938686551999
 31
0.0
  0
LINE
  5
5CB
330
5C1
100
AcDbEntity
  8
0
  6
Continuous
 62
     7
100
AcDbLine
 10
5683.692362419846
 20
2728.938686551999
 30
0.0
 11
5643.692362419846
 21
2728.938686551999
 31
0.0
  0
LINE
  5
5CC
330
5C1
100
AcDbEntity
  8
0
  6
Continuous
 62
     7
100
AcDbLine
 10
5583.692362419846
 20
3573.938686551999
 30
0.0
 11
5583.692362419846
 21
2788.938686551999
 31
0.0
  0
LINE
  5
5CD
330
5C1
100
AcDbEntity
  8
0
  6
Continuous
 62
     7
100
AcDbLine
 10
5593.692362419846
 20
3573.938686551999
 30
0.0
 11
5593.692362419846
 21
2788.938686551999
 31
0.0
  0
LINE
  5
5CE
330
5C1
100
AcDbEntity
  8
KLIN
  6
ByBlock
100
AcDbLine
 10
5583.692362419846
 20
3274.340215711
 30
0.0
 11
5593.692362419846
 21
3284.340215710999
 31
0.0
  0
LINE
  5
5CF
330
5C1
100
AcDbEntity
  8
0
  6
Continuous
 62
     7
100
AcDbLine
 10
6263.692362419846
 20
2738.938686551999
 30
0.0
 11
5643.692362419846
 21
2738.938686551999
 31
0.0
  0
LINE
  5
5D0
330
5C1
100
AcDbEntity
  8
KLIN
  6
ByBlock
100
AcDbLine
 10
5583.692362419846
 20
3214.730492105998
 30
0.0
 11
5593.692362419846
 21
3224.730492106
 31
0.0
  0
LINE
  5
5D1
330
5C1
100
AcDbEntity
  8
0
  6
Continuous
 62
     9
100
AcDbLine
 10
5593.692362419846
 20
2788.938686551999
 30
0.0
 11
6313.692362419846
 21
2788.938686551999
 31
0.0
  0
LINE
  5
5D2
330
5C1
100
AcDbEntity
  8
KLIN
  6
ByBlock
100
AcDbLine
 10
5583.692362419846
 20
3155.120768500002
 30
0.0
 11
5593.692362419846
 21
3165.120768500001
 31
0.0
  0
LINE
  5
5D3
330
5C1
100
AcDbEntity
  8
0
  6
Continuous
 62
     7
100
AcDbLine
 10
5703.692362419847
 20
2708.938686551999
 30
0.0
 11
5703.692362419847
 21
2658.938686551999
 31
0.0
  0
LINE
  5
5D4
330
5C1
100
AcDbEntity
  8
0
  6
Continuous
 62
     7
100
AcDbLine
 10
5713.692362419846
 20
2708.938686551999
 30
0.0
 11
5713.692362419846
 21
2658.938686551999
 31
0.0
  0
LINE
  5
5D5
330
5C1
100
AcDbEntity
  8
KLIN
  6
ByBlock
100
AcDbLine
 10
5583.692362419846
 20
3095.511044895
 30
0.0
 11
5593.692362419846
 21
3105.511044895
 31
0.0
  0
LINE
  5
5D6
330
5C1
100
AcDbEntity
  8
KLIN
  6
ByBlock
100
AcDbLine
 10
5583.692362419846
 20
3035.901321289002
 30
0.0
 11
5593.692362419846
 21
3045.901321289003
 31
0.0
  0
LINE
  5
5D7
330
5C1
100
AcDbEntity
  8
KLIN
  6
ByBlock
100
AcDbLine
 10
5583.692362419846
 20
2976.291597684001
 30
0.0
 11
5593.692362419846
 21
2986.291597684001
 31
0.0
  0
LINE
  5
5D8
330
5C1
100
AcDbEntity
  8
KLIN
  6
ByBlock
100
AcDbLine
 10
5583.692362419846
 20
2916.681874078004
 30
0.0
 11
5593.692362419846
 21
2926.681874078004
 31
0.0
  0
LINE
  5
5D9
330
5C1
100
AcDbEntity
  8
KLIN
  6
ByBlock
100
AcDbLine
 10
5583.692362419846
 20
2857.072150472999
 30
0.0
 11
5593.692362419846
 21
2867.072150472999
 31
0.0
  0
LINE
  5
5DA
330
5C1
100
AcDbEntity
  8
KLIN
  6
ByBlock
100
AcDbLine
 10
5583.692362419846
 20
2797.462426867002
 30
0.0
 11
5593.692362419846
 21
2807.462426867001
 31
0.0
  0
LINE
  5
5DB
330
5C1
100
AcDbEntity
  8
KLIN
  6
ByBlock
100
AcDbLine
 10
6313.692362419846
 20
3527.462426867002
 30
0.0
 11
6323.692362419846
 21
3537.462426867001
 31
0.0
  0
LINE
  5
5DC
330
5C1
100
AcDbEntity
  8
7A
100
AcDbLine
 10
5953.692362419847
 20
2628.938686551999
 30
0.0
 11
5953.692362419847
 21
3603.938686552
 31
0.0
  0
LINE
  5
5DD
330
5C1
100
AcDbEntity
  8
KLIN
  6
ByBlock
100
AcDbLine
 10
5597.058898933843
 20
2751.219239776001
 30
0.0
 11
5604.198228947839
 21
2758.358569790002
 31
0.0
  0
LINE
  5
5DE
330
5C1
100
AcDbEntity
  8
KLIN
  6
ByBlock
100
AcDbLine
 10
6313.692362419846
 20
3467.852703262
 30
0.0
 11
6323.692362419846
 21
3477.852703262001
 31
0.0
  0
LINE
  5
5DF
330
5C1
100
AcDbEntity
  8
KLIN
  6
ByBlock
100
AcDbLine
 10
5635.082190905843
 20
2729.632808142
 30
0.0
 11
5644.388069315843
 21
2738.938686551999
 31
0.0
  0
LINE
  5
5E0
330
5C1
100
AcDbEntity
  8
KLIN
  6
ByBlock
100
AcDbLine
 10
6313.692362419846
 20
3408.242979656003
 30
0.0
 11
6323.692362419846
 21
3418.242979656003
 31
0.0
  0
LINE
  5
5E1
330
5C1
100
AcDbEntity
  8
KLIN
  6
ByBlock
100
AcDbLine
 10
5692.120413673838
 20
2727.061307305001
 30
0.0
 11
5699.488629873842
 21
2734.429523505002
 31
0.0
  0
LINE
  5
5E2
330
5C1
100
AcDbEntity
  8
KLIN
  6
ByBlock
100
AcDbLine
 10
6313.692362419846
 20
3348.633256051002
 30
0.0
 11
6323.692362419846
 21
3358.633256051002
 31
0.0
  0
LINE
  5
5E3
330
5C1
100
AcDbEntity
  8
KLIN
  6
ByBlock
100
AcDbLine
 10
5703.692362419847
 20
2679.023532445004
 30
0.0
 11
5713.692362419846
 21
2689.023532445004
 31
0.0
  0
LINE
  5
5E4
330
5C1
100
AcDbEntity
  8
KLIN
  6
ByBlock
100
AcDbLine
 10
6313.692362419846
 20
3289.023532445004
 30
0.0
 11
6323.692362419846
 21
3299.023532445004
 31
0.0
  0
LINE
  5
5E5
330
5C1
100
AcDbEntity
  8
KLIN
  6
ByBlock
100
AcDbLine
 10
6313.692362419846
 20
3229.41380884
 30
0.0
 11
6323.692362419846
 21
3239.41380884
 31
0.0
  0
LINE
  5
5E6
330
5C1
100
AcDbEntity
  8
0
  6
Continuous
 62
     7
100
AcDbLine
 10
6193.692362419846
 20
2708.938686551999
 30
0.0
 11
6193.692362419846
 21
2658.938686551999
 31
0.0
  0
LINE
  5
5E7
330
5C1
100
AcDbEntity
  8
KLIN
  6
ByBlock
100
AcDbLine
 10
6313.692362419846
 20
3169.804085233999
 30
0.0
 11
6323.692362419846
 21
3179.804085233998
 31
0.0
  0
LINE
  5
5E8
330
5C1
100
AcDbEntity
  8
0
  6
Continuous
 62
     7
100
AcDbLine
 10
6203.692362419847
 20
2708.938686551999
 30
0.0
 11
6203.692362419847
 21
2658.938686551999
 31
0.0
  0
LINE
  5
5E9
330
5C1
100
AcDbEntity
  8
KLIN
  6
ByBlock
100
AcDbLine
 10
6313.692362419846
 20
3110.194361629001
 30
0.0
 11
6323.692362419846
 21
3120.194361629001
 31
0.0
  0
LINE
  5
5EA
330
5C1
100
AcDbEntity
  8
KLIN
  6
ByBlock
100
AcDbLine
 10
6313.692362419846
 20
3050.584638023
 30
0.0
 11
6323.692362419846
 21
3060.584638023
 31
0.0
  0
LINE
  5
5EB
330
5C1
100
AcDbEntity
  8
KLIN
  6
ByBlock
100
AcDbLine
 10
6313.692362419846
 20
2990.974914418002
 30
0.0
 11
6323.692362419846
 21
3000.974914418002
 31
0.0
  0
LINE
  5
5EC
330
5C1
100
AcDbEntity
  8
0
  6
Continuous
 62
     7
100
AcDbLine
 10
6313.692362419846
 20
3573.938686551999
 30
0.0
 11
6313.692362419846
 21
2788.938686551999
 31
0.0
  0
LINE
  5
5ED
330
5C1
100
AcDbEntity
  8
0
  6
Continuous
 62
     7
100
AcDbLine
 10
6323.692362419846
 20
3573.938686551999
 30
0.0
 11
6323.692362419846
 21
2788.938686551999
 31
0.0
  0
LINE
  5
5EE
330
5C1
100
AcDbEntity
  8
KLIN
  6
ByBlock
100
AcDbLine
 10
6313.692362419846
 20
2931.365190813002
 30
0.0
 11
6323.692362419846
 21
2941.365190813002
 31
0.0
  0
LINE
  5
5EF
330
5C1
100
AcDbEntity
  8
KLIN
  6
ByBlock
100
AcDbLine
 10
6313.692362419846
 20
2871.755467207004
 30
0.0
 11
6323.692362419846
 21
2881.755467207004
 31
0.0
  0
LINE
  5
5F0
330
5C1
100
AcDbEntity
  8
KLIN
  6
ByBlock
100
AcDbLine
 10
6313.692362419846
 20
2812.145743601999
 30
0.0
 11
6323.692362419846
 21
2822.145743601999
 31
0.0
  0
LINE
  5
5F1
330
5C1
100
AcDbEntity
  8
0
  6
Continuous
 62
     7
100
AcDbLine
 10
6323.692362419846
 20
3573.938686551999
 30
0.0
 11
5583.692362419846
 21
3573.938686551999
 31
0.0
  0
ARC
  5
5F2
330
5C1
100
AcDbEntity
  8
0
  6
Continuous
 62
     7
100
AcDbCircle
 10
6263.692362419846
 20
2788.938686551999
 30
0.0
 40
60.0
100
AcDbArc
 50
270.0
 51
0.0
  0
ARC
  5
5F3
330
5C1
100
AcDbEntity
  8
0
  6
Continuous
 62
     7
100
AcDbCircle
 10
5643.692362419846
 20
2788.938686551999
 30
0.0
 40
60.0
100
AcDbArc
 50
180.0
 51
270.0
  0
ARC
  5
5F4
330
5C1
100
AcDbEntity
  8
0
  6
Continuous
 62
     7
100
AcDbCircle
 10
5643.692362419846
 20
2788.938686551999
 30
0.0
 40
50.0
100
AcDbArc
 50
180.0
 51
270.0
  0
ARC
  5
5F5
330
5C1
100
AcDbEntity
  8
0
  6
Continuous
 62
     7
100
AcDbCircle
 10
6263.692362419846
 20
2788.938686551999
 30
0.0
 40
50.0
100
AcDbArc
 50
270.0
 51
0.0
  0
ARC
  5
5F6
330
5C1
100
AcDbEntity
  8
0
  6
Continuous
 62
     7
100
AcDbCircle
 10
6223.692362419846
 20
2708.938686551999
 30
0.0
 40
30.0
100
AcDbArc
 50
90.0
 51
180.0
  0
ARC
  5
5F7
330
5C1
100
AcDbEntity
  8
0
  6
Continuous
 62
     7
100
AcDbCircle
 10
5683.692362419846
 20
2708.938686551999
 30
0.0
 40
30.0
100
AcDbArc
 50
0.0
 51
90.0
  0
ARC
  5
5F8
330
5C1
100
AcDbEntity
  8
0
  6
Continuous
 62
     7
100
AcDbCircle
 10
6223.692362419846
 20
2708.938686551999
 30
0.0
 40
20.0
100
AcDbArc
 50
90.0
 51
180.0
  0
ARC
  5
5F9
330
5C1
100
AcDbEntity
  8
0
  6
Continuous
 62
     7
100
AcDbCircle
 10
5683.692362419846
 20
2708.938686551999
 30
0.0
 40
20.0
100
AcDbArc
 50
0.0
 51
90.0
  0
LINE
  5
5FA
330
5C1
100
AcDbEntity
  8
KLIN
  6
ByBlock
100
AcDbLine
 10
6310.325825905849
 20
2751.219239776001
 30
0.0
 11
6303.186495891853
 21
2758.358569790002
 31
0.0
  0
LINE
  5
5FB
330
5C1
100
AcDbEntity
  8
KLIN
  6
ByBlock
100
AcDbLine
 10
6272.302533933849
 20
2729.632808142
 30
0.0
 11
6262.996655523849
 21
2738.938686551999
 31
0.0
  0
LINE
  5
5FC
330
5C1
100
AcDbEntity
  8
KLIN
  6
ByBlock
100
AcDbLine
 10
6215.264311165855
 20
2727.061307305001
 30
0.0
 11
6207.89609496585
 21
2734.429523505002
 31
0.0
  0
LINE
  5
5FD
330
5C1
100
AcDbEntity
  8
KLIN
  6
ByBlock
100
AcDbLine
 10
6203.692362419847
 20
2679.023532445004
 30
0.0
 11
6193.692362419846
 21
2689.023532445004
 31
0.0
  0
ENDBLK
  5
5FE
330
5C1
100
AcDbEntity
  8
0
100
AcDbBlockEnd
  0
BLOCK
  5
600
330
5FF
100
AcDbEntity
  8
0
100
AcDbBlockBegin
  2
fklö
 70
     0
 10
0.0
 20
0.0
 30
0.0
  3
fklö
  1

  0
LINE
  5
601
330
5FF
100
AcDbEntity
  8
0
  6
Continuous
 62
     2
100
AcDbLine
 10
9574.808407686447
 20
1094.245064227623
 30
0.0
 11
9584.808407686447
 21
1115.690133432625
 31
0.0
  0
LINE
  5
602
330
5FF
100
AcDbEntity
  8
0
  6
Continuous
 62
     2
100
AcDbLine
 10
9574.808407686447
 20
1223.478428617625
 30
0.0
 11
9584.808407686447
 21
1244.923497822627
 31
0.0
  0
LINE
  5
603
330
5FF
100
AcDbEntity
  8
0
  6
Continuous
 62
     2
100
AcDbLine
 10
9574.808407686447
 20
1352.711793007627
 30
0.0
 11
9584.808407686447
 21
1374.156862212629
 31
0.0
  0
LINE
  5
604
330
5FF
100
AcDbEntity
  8
0
  6
Continuous
 62
     2
100
AcDbLine
 10
9574.808407686447
 20
1481.94515739863
 30
0.0
 11
9584.808407686447
 21
1503.390226603631
 31
0.0
  0
LINE
  5
605
330
5FF
100
AcDbEntity
  8
0
  6
Continuous
 62
     7
100
AcDbLine
 10
9584.808407686447
 20
1528.116201654636
 30
0.0
 11
9584.808407686447
 21
1043.116201654637
 31
0.0
  0
LINE
  5
606
330
5FF
100
AcDbEntity
  8
0
  6
Continuous
 62
     7
100
AcDbLine
 10
9574.808407686447
 20
1528.116201654636
 30
0.0
 11
9574.808407686447
 21
1043.116201654637
 31
0.0
  0
LINE
  5
607
330
5FF
100
AcDbEntity
  8
0
  6
Continuous
 62
     2
100
AcDbLine
 10
9090.866567481048
 20
1043.116201654637
 30
0.0
 11
9094.808407686448
 21
1051.569505254636
 31
0.0
  0
LINE
  5
608
330
5FF
100
AcDbEntity
  8
0
  6
Continuous
 62
     2
100
AcDbLine
 10
9084.808407686447
 20
1159.357800439637
 30
0.0
 11
9094.808407686448
 21
1180.80286964462
 31
0.0
  0
LINE
  5
609
330
5FF
100
AcDbEntity
  8
0
  6
Continuous
 62
     2
100
AcDbLine
 10
9084.808407686447
 20
1288.591164830621
 30
0.0
 11
9094.808407686448
 21
1310.036234035622
 31
0.0
  0
LINE
  5
60A
330
5FF
100
AcDbEntity
  8
0
  6
Continuous
 62
     2
100
AcDbLine
 10
9084.808407686447
 20
1417.824529220641
 30
0.0
 11
9094.808407686448
 21
1439.269598425642
 31
0.0
  0
LINE
  5
60B
330
5FF
100
AcDbEntity
  8
0
  6
Continuous
 62
     7
100
AcDbLine
 10
9094.808407686448
 20
1528.116201654636
 30
0.0
 11
9094.808407686448
 21
1043.116201654637
 31
0.0
  0
LINE
  5
60C
330
5FF
100
AcDbEntity
  8
0
  6
Continuous
 62
     7
100
AcDbLine
 10
9084.808407686447
 20
1528.116201654636
 30
0.0
 11
9084.808407686447
 21
1043.116201654637
 31
0.0
  0
LINE
  5
60D
330
5FF
100
AcDbEntity
  8
0
  6
Continuous
 62
     7
100
AcDbLine
 10
9584.808407686447
 20
1528.116201654636
 30
0.0
 11
9084.808407686447
 21
1528.116201654636
 31
0.0
  0
LINE
  5
60E
330
5FF
100
AcDbEntity
  8
0
100
AcDbLine
 10
9084.808407686447
 20
1043.116201654637
 30
0.0
 11
9584.808407686447
 21
1043.116201654637
 31
0.0
  0
LINE
  5
60F
330
5FF
100
AcDbEntity
  8
AM_7
100
AcDbLine
 10
9334.808407686447
 20
1558.116201654637
 30
0.0
 11
9334.808407686447
 21
1013.116201654637
 31
0.0
1001
GENIUS_GENODEF_13
1002
{
1000
HIER
1070
     0
1002
}
1002
{
1000
MANEDIT
1070
     0
1002
}
1002
{
1000
NOSEL
1070
     0
1002
}
1002
{
1000
BEHIND
1070
     0
1002
}
1002
{
1000
OTHER
1070
     0
1002
}
1002
{
1000
REACTOR
1002
}
1001
GENIUS_GENOBJ-N-CEN_13
1002
{
1000
OWNER
1000
GEN
1002
}
1001
GENIUS_GENCEN_19
1002
{
1040
3.0
1002
}
  0
ENDBLK
  5
610
330
5FF
100
AcDbEntity
  8
0
100
AcDbBlockEnd
  0
BLOCK
  5
612
330
611
100
AcDbEntity
  8
0
100
AcDbBlockBegin
  2
*D4
 70
     1
 10
0.0
 20
0.0
 30
0.0
  3
*D4
  1

  0
LINE
  5
613
330
611
100
AcDbEntity
  8
AM_5
  6
ByBlock
100
AcDbLine
 10
133.963570808879
 20
185.9174907359538
 30
0.0
 11
133.963570808879
 21
69.04679425259383
 31
0.0
  0
LINE
  5
614
330
611
100
AcDbEntity
  8
AM_5
  6
ByBlock
100
AcDbLine
 10
1033.963570808879
 20
185.9174907359538
 30
0.0
 11
1033.963570808879
 21
69.04679425259383
 31
0.0
  0
LINE
  5
615
330
611
100
AcDbEntity
  8
AM_5
  6
ByBlock
100
AcDbLine
 10
151.463570808879
 20
74.04679425259383
 30
0.0
 11
1016.463570808879
 21
74.04679425259383
 31
0.0
  0
SOLID
  5
616
330
611
100
AcDbEntity
  8
AM_5
100
AcDbTrace
 10
151.463570808879
 20
76.9634609192605
 30
0.0
 11
151.463570808879
 21
71.13012758592716
 31
0.0
 12
133.963570808879
 22
74.04679425259383
 32
0.0
 13
133.963570808879
 23
74.04679425259383
 33
0.0
  0
SOLID
  5
617
330
611
100
AcDbEntity
  8
AM_5
100
AcDbTrace
 10
1016.463570808879
 20
76.9634609192605
 30
0.0
 11
1016.463570808879
 21
71.13012758592716
 31
0.0
 12
1033.963570808879
 22
74.04679425259383
 32
0.0
 13
1033.963570808879
 23
74.04679425259383
 33
0.0
  0
MTEXT
  5
618
330
611
100
AcDbEntity
  8
AM_5
 62
     2
100
AcDbMText
 10
583.963570808879
 20
90.29679425259384
 30
0.0
 40
17.5
 41
0.0
 71
     5
 72
     1
  1
900
 73
     1
 44
1.0
1001
ACAD
1000
MTEXTBEGIN
1070
    73
1070
     1
1070
    44
1040
1.0
1070
    74
1070
     0
1000
MTEXTEND
  0
POINT
  5
619
330
611
100
AcDbEntity
  8
DEFPOINTS
 62
     0
100
AcDbPoint
 10
133.963570808879
 20
190.9174907359538
 30
0.0
  0
POINT
  5
61A
330
611
100
AcDbEntity
  8
DEFPOINTS
 62
     0
100
AcDbPoint
 10
1033.963570808879
 20
190.9174907359538
 30
0.0
  0
POINT
  5
61B
330
611
100
AcDbEntity
  8
DEFPOINTS
 62
     0
100
AcDbPoint
 10
1033.963570808879
 20
74.04679425259383
 30
0.0
  0
ENDBLK
  5
61C
330
611
100
AcDbEntity
  8
0
100
AcDbBlockEnd
  0
BLOCK
  5
61E
330
61D
100
AcDbEntity
  8
0
100
AcDbBlockBegin
  2
*D5
 70
     1
 10
0.0
 20
0.0
 30
0.0
  3
*D5
  1

  0
LINE
  5
61F
330
61D
100
AcDbEntity
  8
AM_5
  6
ByBlock
100
AcDbLine
 10
103.963570808879
 20
154.3074907358404
 30
0.0
 11
103.963570808879
 21
0.000000247621756
 31
0.0
  0
LINE
  5
620
330
61D
100
AcDbEntity
  8
AM_5
  6
ByBlock
100
AcDbLine
 10
1052.963570808879
 20
154.3074907358404
 30
0.0
 11
1052.963570808879
 21
0.000000247621756
 31
0.0
  0
LINE
  5
621
330
61D
100
AcDbEntity
  8
AM_5
  6
ByBlock
100
AcDbLine
 10
121.463570808879
 20
5.000000247621755
 30
0.0
 11
1035.463570808879
 21
5.000000247621755
 31
0.0
  0
SOLID
  5
622
330
61D
100
AcDbEntity
  8
AM_5
100
AcDbTrace
 10
121.463570808879
 20
7.916666914288422
 30
0.0
 11
121.463570808879
 21
2.083333580955089
 31
0.0
 12
103.963570808879
 22
5.000000247621755
 32
0.0
 13
103.963570808879
 23
5.000000247621755
 33
0.0
  0
SOLID
  5
623
330
61D
100
AcDbEntity
  8
AM_5
100
AcDbTrace
 10
1035.463570808879
 20
7.916666914288422
 30
0.0
 11
1035.463570808879
 21
2.083333580955089
 31
0.0
 12
1052.963570808879
 22
5.000000247621755
 32
0.0
 13
1052.963570808879
 23
5.000000247621755
 33
0.0
  0
MTEXT
  5
624
330
61D
100
AcDbEntity
  8
AM_5
 62
     2
100
AcDbMText
 10
582.7905415380662
 20
21.25000024762176
 30
0.0
 40
17.5
 41
0.0
 71
     5
 72
     1
  1
949
 73
     1
 44
1.0
1001
ACAD
1000
MTEXTBEGIN
1070
    73
1070
     1
1070
    44
1040
1.0
1070
    74
1070
     0
1000
MTEXTEND
  0
POINT
  5
625
330
61D
100
AcDbEntity
  8
DEFPOINTS
 62
     0
100
AcDbPoint
 10
103.963570808879
 20
159.3074907358404
 30
0.0
  0
POINT
  5
626
330
61D
100
AcDbEntity
  8
DEFPOINTS
 62
     0
100
AcDbPoint
 10
1052.963570808879
 20
159.3074907358404
 30
0.0
  0
POINT
  5
627
330
61D
100
AcDbEntity
  8
DEFPOINTS
 62
     0
100
AcDbPoint
 10
1052.963570808879
 20
5.000000247621755
 30
0.0
  0
ENDBLK
  5
628
330
61D
100
AcDbEntity
  8
0
100
AcDbBlockEnd
  0
BLOCK
  5
62A
330
629
100
AcDbEntity
  8
0
100
AcDbBlockBegin
  2
*D6
 70
     1
 10
0.0
 20
0.0
 30
0.0
  3
*D6
  1

  0
LINE
  5
62B
330
629
100
AcDbEntity
  8
AM_5
  6
ByBlock
100
AcDbLine
 10
129.963570808879
 20
601.7194910463257
 30
0.0
 11
69.96357080887896
 21
601.7194910463257
 31
0.0
  0
LINE
  5
62C
330
629
100
AcDbEntity
  8
AM_5
  6
ByBlock
100
AcDbLine
 10
129.963570808879
 20
675.7194910463247
 30
0.0
 11
69.963570808879
 21
675.7194910463247
 31
0.0
  0
LINE
  5
62D
330
629
100
AcDbEntity
  8
AM_5
  6
ByBlock
100
AcDbLine
 10
74.963570808879
 20
619.2194910463257
 30
0.0
 11
74.963570808879
 21
658.219491046325
 31
0.0
  0
SOLID
  5
62E
330
629
100
AcDbEntity
  8
AM_5
100
AcDbTrace
 10
72.04690414221231
 20
619.2194910463257
 30
0.0
 11
77.88023747554567
 21
619.2194910463257
 31
0.0
 12
74.96357080887898
 22
601.7194910463257
 32
0.0
 13
74.96357080887898
 23
601.7194910463257
 33
0.0
  0
SOLID
  5
62F
330
629
100
AcDbEntity
  8
AM_5
100
AcDbTrace
 10
72.04690414221231
 20
658.219491046325
 30
0.0
 11
77.88023747554567
 21
658.219491046325
 31
0.0
 12
74.96357080887901
 22
675.7194910463247
 32
0.0
 13
74.96357080887901
 23
675.7194910463247
 33
0.0
  0
MTEXT
  5
630
330
629
100
AcDbEntity
  8
AM_5
 62
     2
100
AcDbMText
 10
58.71357080887889
 20
638.7194910463254
 30
0.0
 40
17.5
 41
0.0
 71
     5
 72
     1
  1
74
 11
0.0000000000000001
 21
1.0
 31
0.0
 73
     1
 44
1.0
1001
ACAD
1000
MTEXTBEGIN
1070
    73
1070
     1
1070
    44
1040
1.0
1070
    74
1070
     0
1000
MTEXTEND
  0
POINT
  5
631
330
629
100
AcDbEntity
  8
DEFPOINTS
 62
     0
100
AcDbPoint
 10
134.963570808879
 20
601.7194910463257
 30
0.0
  0
POINT
  5
632
330
629
100
AcDbEntity
  8
DEFPOINTS
 62
     0
100
AcDbPoint
 10
134.963570808879
 20
675.7194910463247
 30
0.0
  0
POINT
  5
633
330
629
100
AcDbEntity
  8
DEFPOINTS
 62
     0
100
AcDbPoint
 10
74.96357080887901
 20
675.7194910463247
 30
0.0
  0
ENDBLK
  5
634
330
629
100
AcDbEntity
  8
0
100
AcDbBlockEnd
  0
BLOCK
  5
636
330
635
100
AcDbEntity
  8
0
100
AcDbBlockBegin
  2
*D7
 70
     1
 10
0.0
 20
0.0
 30
0.0
  3
*D7
  1

  0
LINE
  5
637
330
635
100
AcDbEntity
  8
AM_5
  6
ByBlock
100
AcDbLine
 10
558.9635708265301
 20
503.0411473407292
 30
0.0
 11
558.9635708265301
 21
435.5469193747246
 31
0.0
  0
LINE
  5
638
330
635
100
AcDbEntity
  8
AM_5
  6
ByBlock
100
AcDbLine
 10
608.963570827629
 20
503.0411473407292
 30
0.0
 11
608.963570827629
 21
435.5469193747246
 31
0.0
  0
LINE
  5
639
330
635
100
AcDbEntity
  8
AM_5
  6
ByBlock
100
AcDbLine
 10
576.4635708265305
 20
440.5469193747249
 30
0.0
 11
591.463570827629
 21
440.5469193747249
 31
0.0
  0
SOLID
  5
63A
330
635
100
AcDbEntity
  8
AM_5
100
AcDbTrace
 10
576.4635708265305
 20
443.4635860413916
 30
0.0
 11
576.4635708265305
 21
437.630252708058
 31
0.0
 12
558.9635708265301
 22
440.5469193747249
 32
0.0
 13
558.9635708265301
 23
440.5469193747249
 33
0.0
  0
SOLID
  5
63B
330
635
100
AcDbEntity
  8
AM_5
100
AcDbTrace
 10
591.463570827629
 20
443.4635860413916
 30
0.0
 11
591.463570827629
 21
437.630252708058
 31
0.0
 12
608.963570827629
 22
440.5469193747249
 32
0.0
 13
608.963570827629
 23
440.5469193747249
 33
0.0
  0
MTEXT
  5
63C
330
635
100
AcDbEntity
  8
AM_5
 62
     2
100
AcDbMText
 10
584.0112786106693
 20
456.7969193747249
 30
0.0
 40
17.5
 41
0.0
 71
     5
 72
     1
  1
%%c50
 73
     1
 44
1.0
1001
ACAD
1000
MTEXTBEGIN
1070
    73
1070
     1
1070
    44
1040
1.0
1070
    74
1070
     0
1000
MTEXTEND
  0
POINT
  5
63D
330
635
100
AcDbEntity
  8
DEFPOINTS
 62
     0
100
AcDbPoint
 10
558.9635708265301
 20
508.0411473407293
 30
0.0
  0
POINT
  5
63E
330
635
100
AcDbEntity
  8
DEFPOINTS
 62
     0
100
AcDbPoint
 10
608.963570827629
 20
508.0411473407293
 30
0.0
  0
POINT
  5
63F
330
635
100
AcDbEntity
  8
DEFPOINTS
 62
     0
100
AcDbPoint
 10
608.963570827629
 20
440.5469193747249
 30
0.0
  0
ENDBLK
  5
640
330
635
100
AcDbEntity
  8
0
100
AcDbBlockEnd
  0
BLOCK
  5
642
330
641
100
AcDbEntity
  8
0
100
AcDbBlockBegin
  2
*D8
 70
     1
 10
0.0
 20
0.0
 30
0.0
  3
*D8
  1

  0
LINE
  5
643
330
641
100
AcDbEntity
  8
AM_5
  6
ByBlock
100
AcDbLine
 10
130.963570808879
 20
273.3074907358687
 30
0.0
 11
66.18106044960955
 21
273.3074907358687
 31
0.0
  0
LINE
  5
644
330
641
100
AcDbEntity
  8
AM_5
  6
ByBlock
100
AcDbLine
 10
130.963570808879
 20
189.3074907359551
 30
0.0
 11
66.18106044960953
 21
189.3074907359551
 31
0.0
  0
LINE
  5
645
330
641
100
AcDbEntity
  8
AM_5
  6
ByBlock
100
AcDbLine
 10
71.18106044960955
 20
255.8074907358687
 30
0.0
 11
71.18106044960953
 21
206.8074907359551
 31
0.0
  0
SOLID
  5
646
330
641
100
AcDbEntity
  8
AM_5
100
AcDbTrace
 10
68.26439378294288
 20
255.8074907358687
 30
0.0
 11
74.09772711627621
 21
255.8074907358687
 31
0.0
 12
71.18106044960955
 22
273.3074907358687
 32
0.0
 13
71.18106044960955
 23
273.3074907358687
 33
0.0
  0
SOLID
  5
647
330
641
100
AcDbEntity
  8
AM_5
100
AcDbTrace
 10
68.26439378294286
 20
206.8074907359551
 30
0.0
 11
74.09772711627621
 21
206.8074907359551
 31
0.0
 12
71.18106044960953
 22
189.3074907359551
 32
0.0
 13
71.18106044960953
 23
189.3074907359551
 33
0.0
  0
MTEXT
  5
648
330
641
100
AcDbEntity
  8
AM_5
 62
     2
100
AcDbMText
 10
54.93106044960949
 20
230.1525890914054
 30
0.0
 40
17.5
 41
0.0
 71
     5
 72
     1
  1
84
 11
0.0000000000000001
 21
1.0
 31
0.0
 73
     1
 44
1.0
1001
ACAD
1000
MTEXTBEGIN
1070
    73
1070
     1
1070
    44
1040
1.0
1070
    74
1070
     0
1000
MTEXTEND
  0
POINT
  5
649
330
641
100
AcDbEntity
  8
DEFPOINTS
 62
     0
100
AcDbPoint
 10
135.963570808879
 20
273.3074907358687
 30
0.0
  0
POINT
  5
64A
330
641
100
AcDbEntity
  8
DEFPOINTS
 62
     0
100
AcDbPoint
 10
135.963570808879
 20
189.3074907359551
 30
0.0
  0
POINT
  5
64B
330
641
100
AcDbEntity
  8
DEFPOINTS
 62
     0
100
AcDbPoint
 10
71.18106044960953
 20
189.3074907359551
 30
0.0
  0
ENDBLK
  5
64C
330
641
100
AcDbEntity
  8
0
100
AcDbBlockEnd
  0
BLOCK
  5
64E
330
64D
100
AcDbEntity
  8
0
100
AcDbBlockBegin
  2
*D9
 70
     1
 10
0.0
 20
0.0
 30
0.0
  3
*D9
  1

  0
LINE
  5
64F
330
64D
100
AcDbEntity
  8
AM_5
  6
ByBlock
100
AcDbLine
 10
98.96357080887902
 20
303.307490735865
 30
0.0
 11
19.12500094082503
 21
303.307490735865
 31
0.0
  0
LINE
  5
650
330
64D
100
AcDbEntity
  8
AM_5
  6
ByBlock
100
AcDbLine
 10
98.96357080887902
 20
159.3074907358404
 30
0.0
 11
19.12500094082499
 21
159.3074907358405
 31
0.0
  0
LINE
  5
651
330
64D
100
AcDbEntity
  8
AM_5
  6
ByBlock
100
AcDbLine
 10
24.12500094082503
 20
285.807490735865
 30
0.0
 11
24.125000940825
 21
176.8074907358405
 31
0.0
  0
SOLID
  5
652
330
64D
100
AcDbEntity
  8
AM_5
100
AcDbTrace
 10
21.20833427415836
 20
285.807490735865
 30
0.0
 11
27.04166760749169
 21
285.807490735865
 31
0.0
 12
24.12500094082503
 22
303.307490735865
 32
0.0
 13
24.12500094082503
 23
303.307490735865
 33
0.0
  0
SOLID
  5
653
330
64D
100
AcDbEntity
  8
AM_5
100
AcDbTrace
 10
21.20833427415833
 20
176.8074907358405
 30
0.0
 11
27.04166760749167
 21
176.8074907358405
 31
0.0
 12
24.125000940825
 22
159.3074907358405
 32
0.0
 13
24.125000940825
 23
159.3074907358405
 33
0.0
  0
MTEXT
  5
654
330
64D
100
AcDbEntity
  8
AM_5
 62
     2
100
AcDbMText
 10
7.875000940824972
 20
231.3074907358523
 30
0.0
 40
17.5
 41
0.0
 71
     5
 72
     1
  1
144
 11
0.0000000000000001
 21
1.0
 31
0.0
 73
     1
 44
1.0
1001
ACAD
1000
MTEXTBEGIN
1070
    73
1070
     1
1070
    44
1040
1.0
1070
    74
1070
     0
1000
MTEXTEND
  0
POINT
  5
655
330
64D
100
AcDbEntity
  8
DEFPOINTS
 62
     0
100
AcDbPoint
 10
103.963570808879
 20
303.307490735865
 30
0.0
  0
POINT
  5
656
330
64D
100
AcDbEntity
  8
DEFPOINTS
 62
     0
100
AcDbPoint
 10
103.963570808879
 20
159.3074907358404
 30
0.0
  0
POINT
  5
657
330
64D
100
AcDbEntity
  8
DEFPOINTS
 62
     0
100
AcDbPoint
 10
24.125000940825
 20
159.3074907358405
 30
0.0
  0
ENDBLK
  5
658
330
64D
100
AcDbEntity
  8
0
100
AcDbBlockEnd
  0
BLOCK
  5
65A
330
659
100
AcDbEntity
  8
0
100
AcDbBlockBegin
  2
*D10
 70
     1
 10
0.0
 20
0.0
 30
0.0
  3
*D10
  1

  0
LINE
  5
65B
330
659
100
AcDbEntity
  8
AM_5
  6
ByBlock
100
AcDbLine
 10
1055.963570808879
 20
675.7194910463247
 30
0.0
 11
1108.524539878135
 21
675.7194910463247
 31
0.0
  0
LINE
  5
65C
330
659
100
AcDbEntity
  8
AM_5
  6
ByBlock
100
AcDbLine
 10
1057.963570808879
 20
715.7194910463259
 30
0.0
 11
1108.524539878135
 21
715.7194910463259
 31
0.0
  0
LINE
  5
65D
330
659
100
AcDbEntity
  8
AM_5
  6
ByBlock
100
AcDbLine
 10
1103.524539878135
 20
658.219491046325
 30
0.0
 11
1103.524539878135
 21
640.7194910463247
 31
0.0
  0
LINE
  5
65E
330
659
100
AcDbEntity
  8
AM_5
  6
ByBlock
100
AcDbLine
 10
1103.524539878135
 20
733.2194910463256
 30
0.0
 11
1103.524539878135
 21
750.7194910463256
 31
0.0
  0
LINE
  5
65F
330
659
100
AcDbEntity
  8
AM_5
  6
ByBlock
100
AcDbLine
 10
1103.524539878135
 20
675.7194910463247
 30
0.0
 11
1103.524539878135
 21
715.7194910463259
 31
0.0
  0
SOLID
  5
660
330
659
100
AcDbEntity
  8
AM_5
100
AcDbTrace
 10
1100.607873211468
 20
658.219491046325
 30
0.0
 11
1106.441206544802
 21
658.219491046325
 31
0.0
 12
1103.524539878135
 22
675.7194910463247
 32
0.0
 13
1103.524539878135
 23
675.7194910463247
 33
0.0
  0
SOLID
  5
661
330
659
100
AcDbEntity
  8
AM_5
100
AcDbTrace
 10
1100.607873211468
 20
733.2194910463256
 30
0.0
 11
1106.441206544802
 21
733.2194910463256
 31
0.0
 12
1103.524539878135
 22
715.7194910463259
 32
0.0
 13
1103.524539878135
 23
715.7194910463259
 33
0.0
  0
MTEXT
  5
662
330
659
100
AcDbEntity
  8
AM_5
 62
     2
100
AcDbMText
 10
1087.274539878135
 20
695.7194910463255
 30
0.0
 40
17.5
 41
0.0
 71
     5
 72
     1
  1
40
 11
0.0000000000000001
 21
1.0
 31
0.0
 73
     1
 44
1.0
1001
ACAD
1000
MTEXTBEGIN
1070
    73
1070
     1
1070
    44
1040
1.0
1070
    74
1070
     0
1000
MTEXTEND
  0
POINT
  5
663
330
659
100
AcDbEntity
  8
DEFPOINTS
 62
     0
100
AcDbPoint
 10
1050.963570808879
 20
675.7194910463247
 30
0.0
  0
POINT
  5
664
330
659
100
AcDbEntity
  8
DEFPOINTS
 62
     0
100
AcDbPoint
 10
1052.963570808879
 20
715.7194910463259
 30
0.0
  0
POINT
  5
665
330
659
100
AcDbEntity
  8
DEFPOINTS
 62
     0
100
AcDbPoint
 10
1103.524539878135
 20
715.7194910463259
 30
0.0
  0
ENDBLK
  5
666
330
659
100
AcDbEntity
  8
0
100
AcDbBlockEnd
  0
BLOCK
  5
668
330
667
100
AcDbEntity
  8
0
100
AcDbBlockBegin
  2
*D11
 70
     1
 10
0.0
 20
0.0
 30
0.0
  3
*D11
  1

  0
LINE
  5
669
330
667
100
AcDbEntity
  8
AM_5
  6
ByBlock
100
AcDbLine
 10
1031.963570808879
 20
680.7194910463246
 30
0.0
 11
1031.963570808879
 21
761.0117703459209
 31
0.0
  0
LINE
  5
66A
330
667
100
AcDbEntity
  8
AM_5
  6
ByBlock
100
AcDbLine
 10
1051.963570808879
 20
720.7194910463256
 30
0.0
 11
1051.963570808879
 21
761.0117703459209
 31
0.0
  0
LINE
  5
66B
330
667
100
AcDbEntity
  8
AM_5
  6
ByBlock
100
AcDbLine
 10
1069.463570808879
 20
756.0117703459209
 30
0.0
 11
1086.963570808879
 21
756.0117703459209
 31
0.0
  0
LINE
  5
66C
330
667
100
AcDbEntity
  8
AM_5
  6
ByBlock
100
AcDbLine
 10
1014.463570808879
 20
756.0117703459209
 30
0.0
 11
962.2554015175404
 21
756.0117703459209
 31
0.0
  0
LINE
  5
66D
330
667
100
AcDbEntity
  8
AM_5
  6
ByBlock
100
AcDbLine
 10
1051.963570808879
 20
756.0117703459209
 30
0.0
 11
1031.963570808879
 21
756.0117703459209
 31
0.0
  0
SOLID
  5
66E
330
667
100
AcDbEntity
  8
AM_5
100
AcDbTrace
 10
1069.463570808879
 20
758.9284370125874
 30
0.0
 11
1069.463570808879
 21
753.0951036792543
 31
0.0
 12
1051.963570808879
 22
756.0117703459209
 32
0.0
 13
1051.963570808879
 23
756.0117703459209
 33
0.0
  0
SOLID
  5
66F
330
667
100
AcDbEntity
  8
AM_5
100
AcDbTrace
 10
1014.463570808879
 20
758.9284370125874
 30
0.0
 11
1014.463570808879
 21
753.0951036792543
 31
0.0
 12
1031.963570808879
 22
756.0117703459209
 32
0.0
 13
1031.963570808879
 23
756.0117703459209
 33
0.0
  0
MTEXT
  5
670
330
667
100
AcDbEntity
  8
AM_5
 62
     2
100
AcDbMText
 10
979.6094861632097
 20
772.2634927868656
 30
0.0
 40
17.5
 41
0.0
 71
     5
 72
     1
  1
20
 73
     1
 44
1.0
1001
ACAD
1000
MTEXTBEGIN
1070
    73
1070
     1
1070
    44
1040
1.0
1070
    74
1070
     0
1000
MTEXTEND
  0
POINT
  5
671
330
667
100
AcDbEntity
  8
DEFPOINTS
 62
     0
100
AcDbPoint
 10
1031.963570808879
 20
675.7194910463247
 30
0.0
  0
POINT
  5
672
330
667
100
AcDbEntity
  8
DEFPOINTS
 62
     0
100
AcDbPoint
 10
1051.963570808879
 20
715.7194910463259
 30
0.0
  0
POINT
  5
673
330
667
100
AcDbEntity
  8
DEFPOINTS
 62
     0
100
AcDbPoint
 10
1051.963570808879
 20
756.0117703459209
 30
0.0
  0
ENDBLK
  5
674
330
667
100
AcDbEntity
  8
0
100
AcDbBlockEnd
  0
BLOCK
  5
78D
330
78C
100
AcDbEntity
  8
0
100
AcDbBlockBegin
  2
*D12
 70
     1
 10
0.0
 20
0.0
 30
0.0
  3
*D12
  1

  0
LINE
  5
C3D
330
78C
100
AcDbEntity
  8
AM_5
  6
ByBlock
100
AcDbLine
 10
135.9635719502025
 20
185.9174914645309
 30
0.0
 11
135.9635719502025
 21
69.04679498117094
 31
0.0
  0
LINE
  5
C3E
330
78C
100
AcDbEntity
  8
AM_5
  6
ByBlock
100
AcDbLine
 10
1031.963571950211
 20
185.9174914645309
 30
0.0
 11
1031.963571950211
 21
69.04679498117094
 31
0.0
  0
LINE
  5
C3F
330
78C
100
AcDbEntity
  8
AM_5
  6
ByBlock
100
AcDbLine
 10
153.4635719502025
 20
74.04679498117094
 30
0.0
 11
1014.463571950211
 21
74.04679498117094
 31
0.0
  0
SOLID
  5
C40
330
78C
100
AcDbEntity
  8
AM_5
100
AcDbTrace
 10
153.4635719502025
 20
76.96346164783761
 30
0.0
 11
153.4635719502025
 21
71.13012831450427
 31
0.0
 12
135.9635719502025
 22
74.04679498117094
 32
0.0
 13
135.9635719502025
 23
74.04679498117094
 33
0.0
  0
SOLID
  5
C41
330
78C
100
AcDbEntity
  8
AM_5
100
AcDbTrace
 10
1014.463571950211
 20
76.96346164783761
 30
0.0
 11
1014.463571950211
 21
71.13012831450427
 31
0.0
 12
1031.963571950211
 22
74.04679498117094
 32
0.0
 13
1031.963571950211
 23
74.04679498117094
 33
0.0
  0
MTEXT
  5
C42
330
78C
100
AcDbEntity
  8
AM_5
 62
     2
100
AcDbMText
 10
583.9635719502024
 20
90.29679498117095
 30
0.0
 40
17.5
 41
0.0
 71
     5
 72
     1
  1
896
 73
     1
 44
1.0
1001
ACAD
1000
MTEXTBEGIN
1070
    73
1070
     1
1070
    44
1040
1.0
1070
    74
1070
     0
1000
MTEXTEND
  0
POINT
  5
C43
330
78C
100
AcDbEntity
  8
DEFPOINTS
 62
     0
100
AcDbPoint
 10
135.9635719502025
 20
190.9174914645309
 30
0.0
  0
POINT
  5
C44
330
78C
100
AcDbEntity
  8
DEFPOINTS
 62
     0
100
AcDbPoint
 10
1031.963571950211
 20
190.9174914645309
 30
0.0
  0
POINT
  5
C45
330
78C
100
AcDbEntity
  8
DEFPOINTS
 62
     0
100
AcDbPoint
 10
1031.963571950211
 20
74.04679498117094
 30
0.0
  0
ENDBLK
  5
78E
330
78C
100
AcDbEntity
  8
0
100
AcDbBlockEnd
  0
BLOCK
  5
799
330
798
100
AcDbEntity
  8
0
100
AcDbBlockBegin
  2
*D13
 70
     1
 10
0.0
 20
0.0
 30
0.0
  3
*D13
  1

  0
LINE
  5
C46
330
798
100
AcDbEntity
  8
AM_5
  6
ByBlock
100
AcDbLine
 10
103.9635719502025
 20
154.3074914644176
 30
0.0
 11
103.9635719502025
 21
0.0000009761988622
 31
0.0
  0
LINE
  5
C47
330
798
100
AcDbEntity
  8
AM_5
  6
ByBlock
100
AcDbLine
 10
1052.963571950202
 20
154.3074914644176
 30
0.0
 11
1052.963571950202
 21
0.0000009761988622
 31
0.0
  0
LINE
  5
C48
330
798
100
AcDbEntity
  8
AM_5
  6
ByBlock
100
AcDbLine
 10
121.4635719502025
 20
5.000000976198862
 30
0.0
 11
1035.463571950202
 21
5.000000976198862
 31
0.0
  0
SOLID
  5
C49
330
798
100
AcDbEntity
  8
AM_5
100
AcDbTrace
 10
121.4635719502025
 20
7.916667642865528
 30
0.0
 11
121.4635719502025
 21
2.083334309532195
 31
0.0
 12
103.9635719502025
 22
5.000000976198862
 32
0.0
 13
103.9635719502025
 23
5.000000976198862
 33
0.0
  0
SOLID
  5
C4A
330
798
100
AcDbEntity
  8
AM_5
100
AcDbTrace
 10
1035.463571950202
 20
7.916667642865528
 30
0.0
 11
1035.463571950202
 21
2.083334309532195
 31
0.0
 12
1052.963571950202
 22
5.000000976198862
 32
0.0
 13
1052.963571950202
 23
5.000000976198862
 33
0.0
  0
MTEXT
  5
C4B
330
798
100
AcDbEntity
  8
AM_5
 62
     2
100
AcDbMText
 10
582.79054267939
 20
21.25000097619886
 30
0.0
 40
17.5
 41
0.0
 71
     5
 72
     1
  1
949
 73
     1
 44
1.0
1001
ACAD
1000
MTEXTBEGIN
1070
    73
1070
     1
1070
    44
1040
1.0
1070
    74
1070
     0
1000
MTEXTEND
  0
POINT
  5
C4C
330
798
100
AcDbEntity
  8
DEFPOINTS
 62
     0
100
AcDbPoint
 10
103.9635719502025
 20
159.3074914644176
 30
0.0
  0
POINT
  5
C4D
330
798
100
AcDbEntity
  8
DEFPOINTS
 62
     0
100
AcDbPoint
 10
1052.963571950202
 20
159.3074914644176
 30
0.0
  0
POINT
  5
C4E
330
798
100
AcDbEntity
  8
DEFPOINTS
 62
     0
100
AcDbPoint
 10
1052.963571950202
 20
5.000000976198862
 30
0.0
  0
ENDBLK
  5
79A
330
798
100
AcDbEntity
  8
0
100
AcDbBlockEnd
  0
BLOCK
  5
7A5
330
7A4
100
AcDbEntity
  8
0
100
AcDbBlockBegin
  2
*D14
 70
     1
 10
0.0
 20
0.0
 30
0.0
  3
*D14
  1

  0
LINE
  5
C4F
330
7A4
100
AcDbEntity
  8
AM_5
  6
ByBlock
100
AcDbLine
 10
129.9635719502025
 20
601.7194917749027
 30
0.0
 11
69.96357195020252
 21
601.7194917749027
 31
0.0
  0
LINE
  5
C50
330
7A4
100
AcDbEntity
  8
AM_5
  6
ByBlock
100
AcDbLine
 10
129.9635719502025
 20
675.7194917749019
 30
0.0
 11
69.96357195020255
 21
675.7194917749019
 31
0.0
  0
LINE
  5
C51
330
7A4
100
AcDbEntity
  8
AM_5
  6
ByBlock
100
AcDbLine
 10
74.96357195020253
 20
619.2194917749027
 30
0.0
 11
74.96357195020253
 21
658.2194917749019
 31
0.0
  0
SOLID
  5
C52
330
7A4
100
AcDbEntity
  8
AM_5
100
AcDbTrace
 10
72.04690528353586
 20
619.2194917749027
 30
0.0
 11
77.8802386168692
 21
619.2194917749027
 31
0.0
 12
74.96357195020252
 22
601.7194917749027
 32
0.0
 13
74.96357195020252
 23
601.7194917749027
 33
0.0
  0
SOLID
  5
C53
330
7A4
100
AcDbEntity
  8
AM_5
100
AcDbTrace
 10
72.04690528353586
 20
658.2194917749019
 30
0.0
 11
77.8802386168692
 21
658.2194917749019
 31
0.0
 12
74.96357195020255
 22
675.7194917749019
 32
0.0
 13
74.96357195020255
 23
675.7194917749019
 33
0.0
  0
MTEXT
  5
C54
330
7A4
100
AcDbEntity
  8
AM_5
 62
     2
100
AcDbMText
 10
58.71357195020244
 20
638.7194917749022
 30
0.0
 40
17.5
 41
0.0
 71
     5
 72
     1
  1
74
 11
0.0000000000000001
 21
1.0
 31
0.0
 73
     1
 44
1.0
1001
ACAD
1000
MTEXTBEGIN
1070
    73
1070
     1
1070
    44
1040
1.0
1070
    74
1070
     0
1000
MTEXTEND
  0
POINT
  5
C55
330
7A4
100
AcDbEntity
  8
DEFPOINTS
 62
     0
100
AcDbPoint
 10
134.9635719502025
 20
601.7194917749027
 30
0.0
  0
POINT
  5
C56
330
7A4
100
AcDbEntity
  8
DEFPOINTS
 62
     0
100
AcDbPoint
 10
134.9635719502025
 20
675.7194917749019
 30
0.0
  0
POINT
  5
C57
330
7A4
100
AcDbEntity
  8
DEFPOINTS
 62
     0
100
AcDbPoint
 10
74.96357195020255
 20
675.7194917749019
 30
0.0
  0
ENDBLK
  5
7A6
330
7A4
100
AcDbEntity
  8
0
100
AcDbBlockEnd
  0
BLOCK
  5
7B1
330
7B0
100
AcDbEntity
  8
0
100
AcDbBlockBegin
  2
*D15
 70
     1
 10
0.0
 20
0.0
 30
0.0
  3
*D15
  1

  0
LINE
  5
CE1
330
7B0
100
AcDbEntity
  8
AM_5
  6
ByBlock
100
AcDbLine
 10
558.9635719681773
 20
507.9371776209812
 30
0.0
 11
558.9635719681773
 21
435.5469201033019
 31
0.0
  0
LINE
  5
CE2
330
7B0
100
AcDbEntity
  8
AM_5
  6
ByBlock
100
AcDbLine
 10
608.9635719688141
 20
507.9371776209812
 30
0.0
 11
608.9635719688141
 21
435.5469201033019
 31
0.0
  0
LINE
  5
CE3
330
7B0
100
AcDbEntity
  8
AM_5
  6
ByBlock
100
AcDbLine
 10
576.4635719681773
 20
440.546920103302
 30
0.0
 11
591.4635719688141
 21
440.546920103302
 31
0.0
  0
SOLID
  5
CE4
330
7B0
100
AcDbEntity
  8
AM_5
100
AcDbTrace
 10
576.4635719681773
 20
443.4635867699687
 30
0.0
 11
576.4635719681773
 21
437.6302534366352
 31
0.0
 12
558.9635719681773
 22
440.546920103302
 32
0.0
 13
558.9635719681773
 23
440.546920103302
 33
0.0
  0
SOLID
  5
CE5
330
7B0
100
AcDbEntity
  8
AM_5
100
AcDbTrace
 10
591.4635719688141
 20
443.4635867699687
 30
0.0
 11
591.4635719688141
 21
437.6302534366352
 31
0.0
 12
608.9635719688141
 22
440.546920103302
 32
0.0
 13
608.9635719688141
 23
440.546920103302
 33
0.0
  0
MTEXT
  5
CE6
330
7B0
100
AcDbEntity
  8
AM_5
 62
     2
100
AcDbMText
 10
584.0112797519926
 20
456.796920103302
 30
0.0
 40
17.5
 41
0.0
 71
     5
 72
     1
  1
%%c50
 73
     1
 44
1.0
1001
ACAD
1000
MTEXTBEGIN
1070
    73
1070
     1
1070
    44
1040
1.0
1070
    74
1070
     0
1000
MTEXTEND
  0
POINT
  5
CE7
330
7B0
100
AcDbEntity
  8
DEFPOINTS
 62
     0
100
AcDbPoint
 10
558.9635719681773
 20
512.9371776209812
 30
0.0
  0
POINT
  5
CE8
330
7B0
100
AcDbEntity
  8
DEFPOINTS
 62
     0
100
AcDbPoint
 10
608.9635719688141
 20
512.9371776209812
 30
0.0
  0
POINT
  5
CE9
330
7B0
100
AcDbEntity
  8
DEFPOINTS
 62
     0
100
AcDbPoint
 10
608.9635719688141
 20
440.546920103302
 30
0.0
  0
ENDBLK
  5
7B2
330
7B0
100
AcDbEntity
  8
0
100
AcDbBlockEnd
  0
BLOCK
  5
7BD
330
7BC
100
AcDbEntity
  8
0
100
AcDbBlockBegin
  2
*D16
 70
     1
 10
0.0
 20
0.0
 30
0.0
  3
*D16
  1

  0
LINE
  5
C61
330
7BC
100
AcDbEntity
  8
AM_5
  6
ByBlock
100
AcDbLine
 10
130.9635719502025
 20
271.2974914644483
 30
0.0
 11
66.18106159093308
 21
271.2974914644484
 31
0.0
  0
LINE
  5
C62
330
7BC
100
AcDbEntity
  8
AM_5
  6
ByBlock
100
AcDbLine
 10
130.9635719502025
 20
189.3074914645321
 30
0.0
 11
66.18106159093307
 21
189.3074914645321
 31
0.0
  0
LINE
  5
C63
330
7BC
100
AcDbEntity
  8
AM_5
  6
ByBlock
100
AcDbLine
 10
71.18106159093308
 20
253.7974914644484
 30
0.0
 11
71.18106159093307
 21
206.8074914645321
 31
0.0
  0
SOLID
  5
C64
330
7BC
100
AcDbEntity
  8
AM_5
100
AcDbTrace
 10
68.26439492426641
 20
253.7974914644484
 30
0.0
 11
74.09772825759976
 21
253.7974914644484
 31
0.0
 12
71.18106159093308
 22
271.2974914644484
 32
0.0
 13
71.18106159093308
 23
271.2974914644484
 33
0.0
  0
SOLID
  5
C65
330
7BC
100
AcDbEntity
  8
AM_5
100
AcDbTrace
 10
68.2643949242664
 20
206.8074914645321
 30
0.0
 11
74.09772825759974
 21
206.8074914645321
 31
0.0
 12
71.18106159093307
 22
189.3074914645321
 32
0.0
 13
71.18106159093307
 23
189.3074914645321
 33
0.0
  0
MTEXT
  5
C66
330
7BC
100
AcDbEntity
  8
AM_5
 62
     2
100
AcDbMText
 10
54.93106159093304
 20
230.1525898199825
 30
0.0
 40
17.5
 41
0.0
 71
     5
 72
     1
  1
81.99
 11
0.0000000000000001
 21
1.0
 31
0.0
 73
     1
 44
1.0
1001
ACAD
1000
MTEXTBEGIN
1070
    73
1070
     1
1070
    44
1040
1.0
1070
    74
1070
     0
1000
MTEXTEND
  0
POINT
  5
C67
330
7BC
100
AcDbEntity
  8
DEFPOINTS
 62
     0
100
AcDbPoint
 10
135.9635719502025
 20
271.2974914644483
 30
0.0
  0
POINT
  5
C68
330
7BC
100
AcDbEntity
  8
DEFPOINTS
 62
     0
100
AcDbPoint
 10
135.9635719502025
 20
189.3074914645321
 30
0.0
  0
POINT
  5
C69
330
7BC
100
AcDbEntity
  8
DEFPOINTS
 62
     0
100
AcDbPoint
 10
71.18106159093307
 20
189.3074914645321
 30
0.0
  0
ENDBLK
  5
7BE
330
7BC
100
AcDbEntity
  8
0
100
AcDbBlockEnd
  0
BLOCK
  5
7C9
330
7C8
100
AcDbEntity
  8
0
100
AcDbBlockBegin
  2
*D17
 70
     1
 10
0.0
 20
0.0
 30
0.0
  3
*D17
  1

  0
LINE
  5
C6A
330
7C8
100
AcDbEntity
  8
AM_5
  6
ByBlock
100
AcDbLine
 10
98.9635719502025
 20
292.2974914644484
 30
0.0
 11
19.12500208214856
 21
292.2974914644484
 31
0.0
  0
LINE
  5
C6B
330
7C8
100
AcDbEntity
  8
AM_5
  6
ByBlock
100
AcDbLine
 10
98.9635719502025
 20
159.3074914644176
 30
0.0
 11
19.12500208214853
 21
159.3074914644176
 31
0.0
  0
LINE
  5
C6C
330
7C8
100
AcDbEntity
  8
AM_5
  6
ByBlock
100
AcDbLine
 10
24.12500208214856
 20
274.7974914644483
 30
0.0
 11
24.12500208214854
 21
176.8074914644176
 31
0.0
  0
SOLID
  5
C6D
330
7C8
100
AcDbEntity
  8
AM_5
100
AcDbTrace
 10
21.20833541548189
 20
274.7974914644483
 30
0.0
 11
27.04166874881523
 21
274.7974914644483
 31
0.0
 12
24.12500208214857
 22
292.2974914644484
 32
0.0
 13
24.12500208214857
 23
292.2974914644484
 33
0.0
  0
SOLID
  5
C6E
330
7C8
100
AcDbEntity
  8
AM_5
100
AcDbTrace
 10
21.20833541548187
 20
176.8074914644176
 30
0.0
 11
27.04166874881521
 21
176.8074914644176
 31
0.0
 12
24.12500208214853
 22
159.3074914644176
 32
0.0
 13
24.12500208214853
 23
159.3074914644176
 33
0.0
  0
MTEXT
  5
C6F
330
7C8
100
AcDbEntity
  8
AM_5
 62
     2
100
AcDbMText
 10
7.875002082148512
 20
231.3074914644294
 30
0.0
 40
17.5
 41
0.0
 71
     5
 72
     1
  1
133
 11
0.0000000000000001
 21
1.0
 31
0.0
 73
     1
 44
1.0
1001
ACAD
1000
MTEXTBEGIN
1070
    73
1070
     1
1070
    44
1040
1.0
1070
    74
1070
     0
1000
MTEXTEND
  0
POINT
  5
C70
330
7C8
100
AcDbEntity
  8
DEFPOINTS
 62
     0
100
AcDbPoint
 10
103.9635719502025
 20
292.2974914644484
 30
0.0
  0
POINT
  5
C71
330
7C8
100
AcDbEntity
  8
DEFPOINTS
 62
     0
100
AcDbPoint
 10
103.9635719502025
 20
159.3074914644176
 30
0.0
  0
POINT
  5
C72
330
7C8
100
AcDbEntity
  8
DEFPOINTS
 62
     0
100
AcDbPoint
 10
24.12500208214853
 20
159.3074914644176
 30
0.0
  0
ENDBLK
  5
7CA
330
7C8
100
AcDbEntity
  8
0
100
AcDbBlockEnd
  0
BLOCK
  5
7D5
330
7D4
100
AcDbEntity
  8
0
100
AcDbBlockBegin
  2
*D18
 70
     1
 10
0.0
 20
0.0
 30
0.0
  3
*D18
  1

  0
LINE
  5
C73
330
7D4
100
AcDbEntity
  8
AM_5
  6
ByBlock
100
AcDbLine
 10
1055.963571950202
 20
675.7194917749019
 30
0.0
 11
1108.524541019459
 21
675.7194917749019
 31
0.0
  0
LINE
  5
C74
330
7D4
100
AcDbEntity
  8
AM_5
  6
ByBlock
100
AcDbLine
 10
1057.963571950202
 20
715.719491774903
 30
0.0
 11
1108.524541019459
 21
715.719491774903
 31
0.0
  0
LINE
  5
C75
330
7D4
100
AcDbEntity
  8
AM_5
  6
ByBlock
100
AcDbLine
 10
1103.524541019459
 20
658.2194917749019
 30
0.0
 11
1103.524541019459
 21
640.7194917749019
 31
0.0
  0
LINE
  5
C76
330
7D4
100
AcDbEntity
  8
AM_5
  6
ByBlock
100
AcDbLine
 10
1103.524541019459
 20
733.2194917749029
 30
0.0
 11
1103.524541019459
 21
750.7194917749029
 31
0.0
  0
LINE
  5
C77
330
7D4
100
AcDbEntity
  8
AM_5
  6
ByBlock
100
AcDbLine
 10
1103.524541019459
 20
675.7194917749019
 30
0.0
 11
1103.524541019459
 21
715.719491774903
 31
0.0
  0
SOLID
  5
C78
330
7D4
100
AcDbEntity
  8
AM_5
100
AcDbTrace
 10
1100.607874352792
 20
658.2194917749019
 30
0.0
 11
1106.441207686126
 21
658.2194917749019
 31
0.0
 12
1103.524541019459
 22
675.7194917749019
 32
0.0
 13
1103.524541019459
 23
675.7194917749019
 33
0.0
  0
SOLID
  5
C79
330
7D4
100
AcDbEntity
  8
AM_5
100
AcDbTrace
 10
1100.607874352792
 20
733.2194917749029
 30
0.0
 11
1106.441207686126
 21
733.2194917749029
 31
0.0
 12
1103.524541019459
 22
715.719491774903
 32
0.0
 13
1103.524541019459
 23
715.719491774903
 33
0.0
  0
MTEXT
  5
C7A
330
7D4
100
AcDbEntity
  8
AM_5
 62
     2
100
AcDbMText
 10
1087.274541019459
 20
695.7194917749026
 30
0.0
 40
17.5
 41
0.0
 71
     5
 72
     1
  1
40
 11
0.0000000000000001
 21
1.0
 31
0.0
 73
     1
 44
1.0
1001
ACAD
1000
MTEXTBEGIN
1070
    73
1070
     1
1070
    44
1040
1.0
1070
    74
1070
     0
1000
MTEXTEND
  0
POINT
  5
C7B
330
7D4
100
AcDbEntity
  8
DEFPOINTS
 62
     0
100
AcDbPoint
 10
1050.963571950202
 20
675.7194917749019
 30
0.0
  0
POINT
  5
C7C
330
7D4
100
AcDbEntity
  8
DEFPOINTS
 62
     0
100
AcDbPoint
 10
1052.963571950202
 20
715.719491774903
 30
0.0
  0
POINT
  5
C7D
330
7D4
100
AcDbEntity
  8
DEFPOINTS
 62
     0
100
AcDbPoint
 10
1103.524541019459
 20
715.719491774903
 30
0.0
  0
ENDBLK
  5
7D6
330
7D4
100
AcDbEntity
  8
0
100
AcDbBlockEnd
  0
BLOCK
  5
7E3
330
7E2
100
AcDbEntity
  8
0
100
AcDbBlockBegin
  2
*D19
 70
     1
 10
0.0
 20
0.0
 30
0.0
  3
*D19
  1

  0
LINE
  5
C7E
330
7E2
100
AcDbEntity
  8
AM_5
  6
ByBlock
100
AcDbLine
 10
1031.963571950202
 20
680.7194917749019
 30
0.0
 11
1031.963571950202
 21
761.011771074498
 31
0.0
  0
LINE
  5
C7F
330
7E2
100
AcDbEntity
  8
AM_5
  6
ByBlock
100
AcDbLine
 10
1051.963571950202
 20
720.7194917749029
 30
0.0
 11
1051.963571950202
 21
761.011771074498
 31
0.0
  0
LINE
  5
C80
330
7E2
100
AcDbEntity
  8
AM_5
  6
ByBlock
100
AcDbLine
 10
1069.463571950202
 20
756.011771074498
 30
0.0
 11
1086.963571950202
 21
756.011771074498
 31
0.0
  0
LINE
  5
C81
330
7E2
100
AcDbEntity
  8
AM_5
  6
ByBlock
100
AcDbLine
 10
1014.463571950202
 20
756.011771074498
 30
0.0
 11
962.2554026588636
 21
756.011771074498
 31
0.0
  0
LINE
  5
C82
330
7E2
100
AcDbEntity
  8
AM_5
  6
ByBlock
100
AcDbLine
 10
1051.963571950202
 20
756.011771074498
 30
0.0
 11
1031.963571950202
 21
756.011771074498
 31
0.0
  0
SOLID
  5
C83
330
7E2
100
AcDbEntity
  8
AM_5
100
AcDbTrace
 10
1069.463571950202
 20
758.9284377411646
 30
0.0
 11
1069.463571950202
 21
753.0951044078314
 31
0.0
 12
1051.963571950202
 22
756.011771074498
 32
0.0
 13
1051.963571950202
 23
756.011771074498
 33
0.0
  0
SOLID
  5
C84
330
7E2
100
AcDbEntity
  8
AM_5
100
AcDbTrace
 10
1014.463571950202
 20
758.9284377411646
 30
0.0
 11
1014.463571950202
 21
753.0951044078314
 31
0.0
 12
1031.963571950202
 22
756.011771074498
 32
0.0
 13
1031.963571950202
 23
756.011771074498
 33
0.0
  0
MTEXT
  5
C85
330
7E2
100
AcDbEntity
  8
AM_5
 62
     2
100
AcDbMText
 10
979.6094873045328
 20
772.2634935154428
 30
0.0
 40
17.5
 41
0.0
 71
     5
 72
     1
  1
20
 73
     1
 44
1.0
1001
ACAD
1000
MTEXTBEGIN
1070
    73
1070
     1
1070
    44
1040
1.0
1070
    74
1070
     0
1000
MTEXTEND
  0
POINT
  5
C86
330
7E2
100
AcDbEntity
  8
DEFPOINTS
 62
     0
100
AcDbPoint
 10
1031.963571950202
 20
675.7194917749019
 30
0.0
  0
POINT
  5
C87
330
7E2
100
AcDbEntity
  8
DEFPOINTS
 62
     0
100
AcDbPoint
 10
1051.963571950202
 20
715.719491774903
 30
0.0
  0
POINT
  5
C88
330
7E2
100
AcDbEntity
  8
DEFPOINTS
 62
     0
100
AcDbPoint
 10
1051.963571950202
 20
756.011771074498
 30
0.0
  0
ENDBLK
  5
7E4
330
7E2
100
AcDbEntity
  8
0
100
AcDbBlockEnd
  0
BLOCK
  5
98A
330
989
100
AcDbEntity
  8
0
100
AcDbBlockBegin
  2
*D20
 70
     1
 10
0.0
 20
0.0
 30
0.0
  3
*D20
  1

  0
LINE
  5
C89
330
989
100
AcDbEntity
  8
AM_5
  6
ByBlock
100
AcDbLine
 10
103.9635719502025
 20
720.7194917749029
 30
0.0
 11
103.9635719502025
 21
759.0098266036874
 31
0.0
  0
LINE
  5
C8A
330
989
100
AcDbEntity
  8
AM_5
  6
ByBlock
100
AcDbLine
 10
135.9635719502025
 20
680.7194917749019
 30
0.0
 11
135.9635719502025
 21
759.0098266036874
 31
0.0
  0
LINE
  5
C8B
330
989
100
AcDbEntity
  8
AM_5
  6
ByBlock
100
AcDbLine
 10
153.4635719502025
 20
754.0098266036874
 30
0.0
 11
170.9635719502025
 21
754.0098266036874
 31
0.0
  0
LINE
  5
C8C
330
989
100
AcDbEntity
  8
AM_5
  6
ByBlock
100
AcDbLine
 10
86.4635719502025
 20
754.0098266036874
 30
0.0
 11
33.66253848563558
 21
754.0098266036874
 31
0.0
  0
LINE
  5
C8D
330
989
100
AcDbEntity
  8
AM_5
  6
ByBlock
100
AcDbLine
 10
135.9635719502025
 20
754.0098266036874
 30
0.0
 11
103.9635719502025
 21
754.0098266036874
 31
0.0
  0
SOLID
  5
C8E
330
989
100
AcDbEntity
  8
AM_5
100
AcDbTrace
 10
153.4635719502025
 20
756.926493270354
 30
0.0
 11
153.4635719502025
 21
751.0931599370207
 31
0.0
 12
135.9635719502025
 22
754.0098266036874
 32
0.0
 13
135.9635719502025
 23
754.0098266036874
 33
0.0
  0
SOLID
  5
C8F
330
989
100
AcDbEntity
  8
AM_5
100
AcDbTrace
 10
86.4635719502025
 20
756.926493270354
 30
0.0
 11
86.4635719502025
 21
751.0931599370207
 31
0.0
 12
103.9635719502025
 22
754.0098266036874
 32
0.0
 13
103.9635719502025
 23
754.0098266036874
 33
0.0
  0
MTEXT
  5
C90
330
989
100
AcDbEntity
  8
AM_5
 62
     2
100
AcDbMText
 10
51.31305521791905
 20
770.2615490446322
 30
0.0
 40
17.5
 41
0.0
 71
     5
 72
     1
  1
32
 73
     1
 44
1.0
1001
ACAD
1000
MTEXTBEGIN
1070
    73
1070
     1
1070
    44
1040
1.0
1070
    74
1070
     0
1000
MTEXTEND
  0
POINT
  5
C91
330
989
100
AcDbEntity
  8
DEFPOINTS
 62
     0
100
AcDbPoint
 10
103.9635719502025
 20
715.719491774903
 30
0.0
  0
POINT
  5
C92
330
989
100
AcDbEntity
  8
DEFPOINTS
 62
     0
100
AcDbPoint
 10
135.9635719502025
 20
675.7194917749019
 30
0.0
  0
POINT
  5
C93
330
989
100
AcDbEntity
  8
DEFPOINTS
 62
     0
100
AcDbPoint
 10
135.9635719502025
 20
754.0098266036874
 30
0.0
  0
ENDBLK
  5
98B
330
989
100
AcDbEntity
  8
0
100
AcDbBlockEnd
  0
BLOCK
  5
9B4
330
9B3
100
AcDbEntity
  8
0
100
AcDbBlockBegin
  2
*D21
 70
     1
 10
0.0
 20
0.0
 30
0.0
  3
*D21
  1

  0
LINE
  5
C94
330
9B3
100
AcDbEntity
  8
AM_5
  6
ByBlock
100
AcDbLine
 10
1036.963571950202
 20
271.2974914644483
 30
0.0
 11
1116.809724242117
 21
271.2974914644483
 31
0.0
  0
LINE
  5
C95
330
9B3
100
AcDbEntity
  8
AM_5
  6
ByBlock
100
AcDbLine
 10
1056.963571950202
 20
291.2974914652513
 30
0.0
 11
1116.809724242117
 21
291.2974914652513
 31
0.0
  0
LINE
  5
C96
330
9B3
100
AcDbEntity
  8
AM_5
  6
ByBlock
100
AcDbLine
 10
1111.809724242117
 20
308.7974914652513
 30
0.0
 11
1111.809724242117
 21
326.2974914652513
 31
0.0
  0
LINE
  5
C97
330
9B3
100
AcDbEntity
  8
AM_5
  6
ByBlock
100
AcDbLine
 10
1111.809724242117
 20
253.7974914644483
 30
0.0
 11
1111.809724242117
 21
200.553780844379
 31
0.0
  0
LINE
  5
C98
330
9B3
100
AcDbEntity
  8
AM_5
  6
ByBlock
100
AcDbLine
 10
1111.809724242117
 20
291.2974914652513
 30
0.0
 11
1111.809724242117
 21
271.2974914644483
 31
0.0
  0
SOLID
  5
C99
330
9B3
100
AcDbEntity
  8
AM_5
100
AcDbTrace
 10
1108.89305757545
 20
308.7974914652513
 30
0.0
 11
1114.726390908784
 21
308.7974914652513
 31
0.0
 12
1111.809724242117
 22
291.2974914652513
 32
0.0
 13
1111.809724242117
 23
291.2974914652513
 33
0.0
  0
SOLID
  5
C9A
330
9B3
100
AcDbEntity
  8
AM_5
100
AcDbTrace
 10
1108.89305757545
 20
253.7974914644483
 30
0.0
 11
1114.726390908784
 21
253.7974914644483
 31
0.0
 12
1111.809724242117
 22
271.2974914644483
 32
0.0
 13
1111.809724242117
 23
271.2974914644483
 33
0.0
  0
MTEXT
  5
C9B
330
9B3
100
AcDbEntity
  8
AM_5
 62
     2
100
AcDbMText
 10
1095.558001801172
 20
217.9078654900484
 30
0.0
 40
17.5
 41
0.0
 71
     5
 72
     1
  1
20
 11
0.0000000000000001
 21
1.0
 31
0.0
 73
     1
 44
1.0
1001
ACAD
1000
MTEXTBEGIN
1070
    73
1070
     1
1070
    44
1040
1.0
1070
    74
1070
     0
1000
MTEXTEND
  0
POINT
  5
C9C
330
9B3
100
AcDbEntity
  8
DEFPOINTS
 62
     0
100
AcDbPoint
 10
1031.963571950202
 20
271.2974914644483
 30
0.0
  0
POINT
  5
C9D
330
9B3
100
AcDbEntity
  8
DEFPOINTS
 62
     0
100
AcDbPoint
 10
1051.963571950202
 20
291.2974914652513
 30
0.0
  0
POINT
  5
C9E
330
9B3
100
AcDbEntity
  8
DEFPOINTS
 62
     0
100
AcDbPoint
 10
1111.809724242117
 20
291.2974914652513
 30
0.0
  0
ENDBLK
  5
9B5
330
9B3
100
AcDbEntity
  8
0
100
AcDbBlockEnd
  0
ENDSEC
  0
SECTION
  2
ENTITIES
  0
LINE
  5
712
330
1F
100
AcDbEntity
  8
RUNDUNGEN
  6
Continuous
 62
     7
100
AcDbLine
 10
135.9635719502025
 20
656.0411480693065
 30
0.0
 11
135.9635719502025
 21
661.7194917749031
 31
0.0
  0
LINE
  5
713
330
1F
100
AcDbEntity
  8
RUNDUNGEN
  6
Continuous
 62
     7
100
AcDbLine
 10
135.9635719502025
 20
662.7194917749029
 30
0.0
 11
135.9635719502025
 21
675.7194917749019
 31
0.0
  0
LINE
  5
714
102
{ACAD_REACTORS
330
785
102
}
330
1F
100
AcDbEntity
  8
RUNDUNGEN
  6
Continuous
 62
     7
100
AcDbLine
 10
135.9635719502025
 20
675.7194917749019
 30
0.0
 11
1050.963571950202
 21
675.7194917749019
 31
0.0
  0
LINE
  5
715
330
1F
100
AcDbEntity
  8
RUNDUNGEN
  6
Continuous
 62
     7
100
AcDbLine
 10
1033.963571950202
 20
674.7194917749019
 30
0.0
 11
1050.963571950202
 21
674.7194917749019
 31
0.0
  0
LINE
  5
716
330
1F
100
AcDbEntity
  8
0
  6
Continuous
 62
     7
100
AcDbLine
 10
1051.963571950202
 20
662.7194917749013
 30
0.0
 11
134.9635719502025
 21
662.7194917749029
 31
0.0
  0
LINE
  5
717
330
1F
100
AcDbEntity
  8
0
  6
Continuous
 62
     7
100
AcDbLine
 10
1052.963571950202
 20
661.7194917749027
 30
0.0
 11
134.9635719502025
 21
661.7194917749031
 31
0.0
  0
LINE
  5
718
330
1F
100
AcDbEntity
  8
RUNDUNGEN
  6
Continuous
 62
     9
100
AcDbLine
 10
135.9635719502025
 20
659.6434335527037
 30
0.0
 11
1031.963571950202
 21
659.6434335527027
 31
0.0
  0
LINE
  5
719
330
1F
100
AcDbEntity
  8
RUNDUNGEN
  6
Continuous
 62
     7
100
AcDbLine
 10
1031.963571950202
 20
656.0411480693037
 30
0.0
 11
622.4351228750006
 21
656.0411480693065
 31
0.0
  0
LINE
  5
71A
330
1F
100
AcDbEntity
  8
RUNDUNGEN
  6
Continuous
 62
     7
100
AcDbLine
 10
545.4920210254116
 20
656.0411480693065
 30
0.0
 11
135.9635719502025
 21
656.0411480693065
 31
0.0
  0
LINE
  5
71B
102
{ACAD_REACTORS
330
788
102
}
330
1F
100
AcDbEntity
  8
RUNDUNGEN
  6
Continuous
 62
     7
100
AcDbLine
 10
1031.963571950202
 20
675.7194917749019
 30
0.0
 11
1031.963571950202
 21
662.7194917749029
 31
0.0
  0
LINE
  5
71C
330
1F
100
AcDbEntity
  8
RUNDUNGEN
  6
Continuous
 62
     7
100
AcDbLine
 10
1031.963571950202
 20
661.7194917749031
 30
0.0
 11
1031.963571950202
 21
656.0411480693019
 31
0.0
  0
LINE
  5
71D
330
1F
100
AcDbEntity
  8
RUNDUNGEN
  6
Continuous
 62
     7
100
AcDbLine
 10
135.9635719502025
 20
159.3074914644176
 30
0.0
 11
135.9635719502025
 21
291.2974914644483
 31
0.0
  0
LINE
  5
71E
330
1F
100
AcDbEntity
  8
0
  6
Continuous
 62
     7
100
AcDbLine
 10
1031.963571950202
 20
292.297491464452
 30
0.0
 11
135.9635719502025
 21
292.2974914644484
 31
0.0
  0
LINE
  5
720
102
{ACAD_REACTORS
330
9C0
102
}
330
1F
100
AcDbEntity
  8
RUNDUNGEN
  6
Continuous
 62
     7
100
AcDbLine
 10
135.9635719502025
 20
271.2974914644483
 30
0.0
 11
1031.963571950202
 21
271.2974914644483
 31
0.0
  0
LINE
  5
721
330
1F
100
AcDbEntity
  8
RUNDUNGEN
  6
Continuous
 62
     7
100
AcDbLine
 10
135.9635719502025
 20
231.307491464433
 30
0.0
 11
545.9637968361006
 21
231.3074914648305
 31
0.0
  0
LINE
  5
722
330
1F
100
AcDbEntity
  8
RUNDUNGEN
  6
Continuous
 62
     7
100
AcDbLine
 10
621.4635719502024
 20
231.3074914640302
 30
0.0
 11
1031.963571950202
 21
231.3074914646932
 31
0.0
  0
LINE
  5
723
330
1F
100
AcDbEntity
  8
RUNDUNGEN
  6
Continuous
 62
     7
100
AcDbLine
 10
135.9635719502025
 20
191.3174914645315
 30
0.0
 11
1031.963571950202
 21
191.3174914645315
 31
0.0
  0
LINE
  5
724
330
1F
100
AcDbEntity
  8
RUNDUNGEN
  6
Continuous
 62
     7
100
AcDbLine
 10
135.9635719502025
 20
189.3074914645321
 30
0.0
 11
1031.963571950202
 21
189.3074914645276
 31
0.0
  0
LINE
  5
725
330
1F
100
AcDbEntity
  8
0
  6
Continuous
 62
     7
100
AcDbLine
 10
1031.963571950202
 20
159.3074914644176
 30
0.0
 11
135.9635719502025
 21
159.3074914644176
 31
0.0
  0
LINE
  5
726
330
1F
100
AcDbEntity
  8
RUNDUNGEN
  6
Continuous
 62
     7
100
AcDbLine
 10
1031.963571950242
 20
291.2974914644483
 30
0.0
 11
1031.963571950202
 21
159.3074914644176
 31
0.0
  0
LINE
  5
727
330
1F
100
AcDbEntity
  8
RUNDUNGEN
  6
Continuous
 62
     7
100
AcDbLine
 10
546.4778314485978
 20
231.3074914582312
 30
0.0
 11
546.4635719502024
 21
231.3074914584313
 31
0.0
  0
LINE
  5
728
330
1F
100
AcDbEntity
  8
RUNDUNGEN
  6
Continuous
 62
     7
100
AcDbLine
 10
546.4635719502024
 20
231.3074914584313
 30
0.0
 11
545.9637968361006
 21
231.3074914642311
 31
0.0
  0
LINE
  5
729
330
1F
100
AcDbEntity
  8
RUNDUNGEN
  6
Continuous
 62
     7
100
AcDbLine
 10
621.4493124519017
 20
231.3074914707313
 30
0.0
 11
621.4635719502024
 21
231.3074914705294
 31
0.0
  0
LINE
  5
72A
330
1F
100
AcDbEntity
  8
AM_7
100
AcDbLine
 10
583.9635719502024
 20
617.9079243760761
 30
0.0
 11
583.9635719502024
 21
687.7194917749021
 31
0.0
1001
GENIUS_GENOBJ-N-CEN_13
1002
{
1000
OWNER
1000
GEN
1002
}
1001
GENIUS_GENODEF_13
1002
{
1000
HIER
1070
     0
1002
}
1002
{
1000
MANEDIT
1070
     0
1002
}
1002
{
1000
NOSEL
1070
     0
1002
}
1002
{
1000
BEHIND
1070
     0
1002
}
1002
{
1000
OTHER
1070
     0
1002
}
1002
{
1000
REACTOR
1002
}
1001
GENIUS_GENCEN_19
1002
{
1040
12.0
1002
}
  0
LINE
  5
72B
330
1F
100
AcDbEntity
  8
0
100
AcDbLine
 10
1031.963571950242
 20
291.2974914644483
 30
0.0
 11
1031.963571950202
 21
159.3074914644176
 31
0.0
  0
LINE
  5
72C
330
1F
100
AcDbEntity
  8
0
100
AcDbLine
 10
135.9635719502025
 20
159.3074914644176
 30
0.0
 11
135.9635719502025
 21
291.2974914644483
 31
0.0
  0
LINE
  5
72D
330
1F
100
AcDbEntity
  8
0
100
AcDbLine
 10
546.4916046741405
 20
655.0700016509628
 30
0.0
 11
546.9635719502024
 21
638.7194917749027
 31
0.0
  0
ARC
  5
72E
330
1F
100
AcDbEntity
  8
0
100
AcDbCircle
 10
545.4920210254116
 20
655.0411480693037
 30
0.0
 40
1.0
100
AcDbArc
 50
1.653417926860603
 51
90.0
  0
LINE
  5
72F
330
1F
100
AcDbEntity
  8
0
100
AcDbLine
 10
546.9635719502024
 20
638.7194917749027
 30
0.0
 11
620.9635719502024
 21
638.7194917749027
 31
0.0
  0
LINE
  5
730
330
1F
100
AcDbEntity
  8
0
100
AcDbLine
 10
620.9635719502024
 20
638.7194917749027
 30
0.0
 11
621.4355392262497
 21
655.0700016509628
 31
0.0
  0
ARC
  5
731
330
1F
100
AcDbEntity
  8
0
100
AcDbCircle
 10
622.4351228750006
 20
655.0411480693037
 30
0.0
 40
1.0
100
AcDbArc
 50
90.0
 51
178.3465820731394
  0
LINE
  5
732
330
1F
100
AcDbEntity
  8
AM_7
100
AcDbLine
 10
583.9635719502024
 20
231.3074914690651
 30
0.0
 11
633.4635719502024
 21
231.3074914690651
 31
0.0
1001
GENIUS_GENOREF_13
1005
78B
  0
LINE
  5
733
330
1F
100
AcDbEntity
  8
AM_7
100
AcDbLine
 10
583.9635719502024
 20
231.3074914690651
 30
0.0
 11
534.4635719502024
 21
231.3074914690651
 31
0.0
1001
GENIUS_GENOREF_13
1005
78B
  0
ARC
  5
734
330
1F
100
AcDbEntity
  8
0
100
AcDbCircle
 10
583.7100845685622
 20
455.1159755500038
 30
0.0
 40
204.5276150863223
100
AcDbArc
 50
89.92898875367947
 51
100.7696033285292
  0
ARC
  5
735
330
1F
100
AcDbEntity
  8
0
100
AcDbCircle
 10
584.2170593318427
 20
455.1159755500038
 30
0.0
 40
204.5276150863223
100
AcDbArc
 50
79.23039667147077
 51
90.07101124611207
  0
LINE
  5
736
330
1F
100
AcDbEntity
  8
RUNDUNGEN
  6
Continuous
 62
     7
100
AcDbLine
 10
1031.963571950202
 20
578.7194917749019
 30
0.0
 11
1031.963571950202
 21
661.7194917749031
 31
0.0
  0
LINE
  5
737
330
1F
100
AcDbEntity
  8
RUNDUNGEN
  6
Continuous
 62
     7
100
AcDbLine
 10
1031.963571950202
 20
662.7194917749029
 30
0.0
 11
1031.963571950202
 21
674.719491774903
 31
0.0
  0
LINE
  5
738
330
1F
100
AcDbEntity
  8
0
  6
Continuous
 62
     9
100
AcDbLine
 10
1032.963571950202
 20
674.719491774903
 30
0.0
 11
1032.963571950202
 21
663.7286954481033
 31
0.0
  0
LINE
  5
739
330
1F
100
AcDbEntity
  8
RUNDUNGEN
  6
Continuous
 62
     7
100
AcDbLine
 10
1032.963571950202
 20
601.7194917749027
 30
0.0
 11
1032.963571950202
 21
661.7194917749031
 31
0.0
  0
LINE
  5
73A
330
1F
100
AcDbEntity
  8
RUNDUNGEN
  6
Continuous
 62
     7
100
AcDbLine
 10
1032.963571950202
 20
662.7194917749029
 30
0.0
 11
1032.963571950202
 21
663.7286954481033
 31
0.0
  0
LINE
  5
73B
330
1F
100
AcDbEntity
  8
RUNDUNGEN
  6
Continuous
 62
     7
100
AcDbLine
 10
1033.963571950202
 20
663.7194917749027
 30
0.0
 11
1033.963571950202
 21
674.719491774903
 31
0.0
  0
LINE
  5
73C
330
1F
100
AcDbEntity
  8
0
  6
Continuous
 62
     7
100
AcDbLine
 10
1052.963571950202
 20
715.719491774903
 30
0.0
 11
1052.963571950202
 21
661.7194917749031
 31
0.0
  0
LINE
  5
73D
330
1F
100
AcDbEntity
  8
0
  6
Continuous
 62
     7
100
AcDbLine
 10
1051.963571950202
 20
715.719491774903
 30
0.0
 11
1051.963571950202
 21
676.7194917749019
 31
0.0
  0
LINE
  5
73E
330
1F
100
AcDbEntity
  8
0
  6
Continuous
 62
     7
100
AcDbLine
 10
1051.963571950202
 20
674.987440967333
 30
0.0
 11
1051.963571950202
 21
662.7194917749013
 31
0.0
  0
LINE
  5
73F
330
1F
100
AcDbEntity
  8
RUNDUNGEN
  6
Continuous
 62
     7
100
AcDbLine
 10
1031.963571950202
 20
645.7194917749027
 30
0.0
 11
1032.963571950202
 21
645.7194917749027
 31
0.0
  0
LINE
  5
740
330
1F
100
AcDbEntity
  8
0
  6
Continuous
 62
     7
100
AcDbLine
 10
1052.963571950203
 20
661.7194917749031
 30
0.0
 11
1032.963571950202
 21
661.7194917749031
 31
0.0
  0
LINE
  5
741
330
1F
100
AcDbEntity
  8
RUNDUNGEN
  6
Continuous
 62
     7
100
AcDbLine
 10
1032.963571950202
 20
662.7194917749029
 30
0.0
 11
1051.963571950202
 21
662.7194917749029
 31
0.0
  0
LINE
  5
742
330
1F
100
AcDbEntity
  8
RUNDUNGEN
  6
Continuous
 62
     7
100
AcDbLine
 10
1033.963571950202
 20
663.7194917749027
 30
0.0
 11
1032.963571950202
 21
663.7194917749027
 31
0.0
  0
LINE
  5
743
330
1F
100
AcDbEntity
  8
RUNDUNGEN
  6
Continuous
 62
     7
100
AcDbLine
 10
1033.963571950202
 20
664.7286954481042
 30
0.0
 11
1032.963571950202
 21
664.7286954481042
 31
0.0
  0
LINE
  5
744
330
1F
100
AcDbEntity
  8
RUNDUNGEN
  6
Continuous
 62
     7
100
AcDbLine
 10
1033.963571950202
 20
665.7286954481032
 30
0.0
 11
1032.963571950202
 21
665.7286954481032
 31
0.0
  0
ARC
  5
745
330
1F
100
AcDbEntity
  8
0
  6
Continuous
 62
     7
100
AcDbCircle
 10
1034.963571950202
 20
663.7194917749027
 30
0.0
 40
2.0
100
AcDbArc
 50
180.0
 51
210.0383073755382
  0
ARC
  5
746
330
1F
100
AcDbEntity
  8
RUNDUNGEN
  6
Continuous
 62
     7
100
AcDbCircle
 10
1034.963571950202
 20
663.7194917749027
 30
0.0
 40
1.0
100
AcDbArc
 50
180.0
 51
270.0
  0
ARC
  5
747
330
1F
100
AcDbEntity
  8
RUNDUNGEN
  6
Continuous
 62
     7
100
AcDbCircle
 10
1032.963571950202
 20
674.719491774903
 30
0.0
 40
1.0
100
AcDbArc
 50
0.0
 51
180.0
  0
LINE
  5
748
330
1F
100
AcDbEntity
  8
0
100
AcDbLine
 10
1031.963571950202
 20
159.3074914644176
 30
0.0
 11
1052.963571950202
 21
159.3074914644176
 31
0.0
  0
LINE
  5
74A
330
1F
100
AcDbEntity
  8
0
100
AcDbLine
 10
1052.963571950202
 20
159.3074914644176
 30
0.0
 11
1052.963571950202
 21
292.2974914652915
 31
0.0
  0
LINE
  5
74B
330
1F
100
AcDbEntity
  8
0
100
AcDbLine
 10
1051.963571950202
 20
159.3074914644176
 30
0.0
 11
1051.963571950202
 21
291.2974914652513
 31
0.0
  0
LINE
  5
74D
330
1F
100
AcDbEntity
  8
0
100
AcDbLine
 10
1031.963571950202
 20
292.2974914644484
 30
0.0
 11
1052.963571950202
 21
292.2974914652915
 31
0.0
  0
LINE
  5
74F
330
1F
100
AcDbEntity
  8
0
100
AcDbLine
 10
135.9635719502025
 20
159.3074914644176
 30
0.0
 11
103.9635719502025
 21
159.3074914644176
 31
0.0
  0
LINE
  5
750
330
1F
100
AcDbEntity
  8
0
100
AcDbLine
 10
133.9635719502025
 20
271.6974914644469
 30
0.0
 11
133.9635719502025
 21
190.9174914645309
 31
0.0
  0
LINE
  5
751
330
1F
100
AcDbEntity
  8
0
100
AcDbLine
 10
103.9635719502025
 20
159.3074914644176
 30
0.0
 11
103.9635719502025
 21
292.2974914644484
 31
0.0
  0
LINE
  5
752
330
1F
100
AcDbEntity
  8
0
100
AcDbLine
 10
133.9635719501916
 20
271.6974914644469
 30
0.0
 11
135.9635719502025
 21
271.6974914644469
 31
0.0
  0
LINE
  5
753
330
1F
100
AcDbEntity
  8
0
100
AcDbLine
 10
135.9635719502025
 20
292.2974914644484
 30
0.0
 11
103.9635719502025
 21
292.2974914644484
 31
0.0
  0
LINE
  5
754
330
1F
100
AcDbEntity
  8
0
100
AcDbLine
 10
133.9635719501916
 20
190.9174914645309
 30
0.0
 11
135.9635719502025
 21
190.9174914645309
 31
0.0
  0
LINE
  5
755
330
1F
100
AcDbEntity
  8
RUNDUNGEN
  6
Continuous
 62
     7
100
AcDbLine
 10
135.9635719502025
 20
578.7194917749019
 30
0.0
 11
135.9635719502025
 21
656.0411480693065
 31
0.0
  0
LINE
  5
756
330
1F
100
AcDbEntity
  8
0
  6
Continuous
 62
     9
100
AcDbLine
 10
134.9635719502025
 20
674.719491774903
 30
0.0
 11
134.9635719502025
 21
663.7286954481033
 31
0.0
  0
LINE
  5
757
330
1F
100
AcDbEntity
  8
RUNDUNGEN
  6
Continuous
 62
     7
100
AcDbLine
 10
134.9635719502025
 20
601.7194917749048
 30
0.0
 11
134.9635719502025
 21
661.7194917749031
 31
0.0
  0
LINE
  5
758
330
1F
100
AcDbEntity
  8
RUNDUNGEN
  6
Continuous
 62
     7
100
AcDbLine
 10
133.9635719502025
 20
663.7194917749027
 30
0.0
 11
133.9635719502025
 21
674.719491774903
 31
0.0
  0
LINE
  5
759
330
1F
100
AcDbEntity
  8
0
  6
Continuous
 62
     7
100
AcDbLine
 10
103.9635719502025
 20
715.719491774903
 30
0.0
 11
103.9635719502025
 21
661.7194917749031
 31
0.0
  0
LINE
  5
75A
330
1F
100
AcDbEntity
  8
RUNDUNGEN
  6
Continuous
 62
     7
100
AcDbLine
 10
135.9635719502025
 20
645.7194917749027
 30
0.0
 11
134.9635719502025
 21
645.7194917749027
 31
0.0
  0
LINE
  5
75B
330
1F
100
AcDbEntity
  8
0
  6
Continuous
 62
     7
100
AcDbLine
 10
103.9635719502025
 20
661.7194917749031
 30
0.0
 11
134.9635719502025
 21
661.7194917749031
 31
0.0
  0
LINE
  5
75C
330
1F
100
AcDbEntity
  8
RUNDUNGEN
  6
Continuous
 62
     7
100
AcDbLine
 10
134.9635719502025
 20
662.7194917749029
 30
0.0
 11
103.9635719502025
 21
662.7194917749029
 31
0.0
  0
LINE
  5
75D
330
1F
100
AcDbEntity
  8
RUNDUNGEN
  6
Continuous
 62
     7
100
AcDbLine
 10
133.9635719502025
 20
663.7194917749027
 30
0.0
 11
134.9635719502025
 21
663.7194917749027
 31
0.0
  0
LINE
  5
75E
330
1F
100
AcDbEntity
  8
RUNDUNGEN
  6
Continuous
 62
     7
100
AcDbLine
 10
133.9635719502025
 20
664.7286954481042
 30
0.0
 11
134.9635719502025
 21
664.7286954481042
 31
0.0
  0
LINE
  5
75F
330
1F
100
AcDbEntity
  8
RUNDUNGEN
  6
Continuous
 62
     7
100
AcDbLine
 10
133.9635719502025
 20
665.7286954481032
 30
0.0
 11
134.9635719502025
 21
665.7286954481032
 31
0.0
  0
LINE
  5
760
330
1F
100
AcDbEntity
  8
RUNDUNGEN
  6
Continuous
 62
     7
100
AcDbLine
 10
133.9635719502025
 20
674.719491774903
 30
0.0
 11
135.9635719502025
 21
674.719491774903
 31
0.0
  0
ARC
  5
761
330
1F
100
AcDbEntity
  8
0
  6
Continuous
 62
     7
100
AcDbCircle
 10
132.9635719502025
 20
663.7194917749027
 30
0.0
 40
2.0
100
AcDbArc
 50
329.9616926244618
 51
0.0
  0
ARC
  5
762
330
1F
100
AcDbEntity
  8
RUNDUNGEN
  6
Continuous
 62
     7
100
AcDbCircle
 10
132.9635719502025
 20
663.7194917749027
 30
0.0
 40
1.0
100
AcDbArc
 50
270.0
 51
0.0
  0
ARC
  5
763
102
{ACAD_REACTORS
330
77D
102
}
330
1F
100
AcDbEntity
  8
RUNDUNGEN
  6
Continuous
 62
     7
100
AcDbCircle
 10
134.9635719502025
 20
674.719491774903
 30
0.0
 40
1.0
100
AcDbArc
 50
0.0
 51
180.0
  0
INSERT
  5
769
330
1F
100
AcDbEntity
  8
5
  6
ByBlock
100
AcDbBlockReference
  2
stutzen
 10
-11.40566429394812
 20
290.6472794137262
 30
0.0
 41
0.1000000000021828
 42
0.1000000000003638
 43
0.1
  0
LINE
  5
76B
330
1F
100
AcDbEntity
  8
0
100
AcDbLine
 10
968.9635719502023
 20
556.224093611504
 30
0.0
 11
1028.963571950202
 21
556.224093611504
 31
0.0
  0
LINE
  5
76C
330
1F
100
AcDbEntity
  8
0
100
AcDbLine
 10
1028.963571950202
 20
556.224093611504
 30
0.0
 11
1028.963571950202
 21
621.224093611504
 31
0.0
  0
LINE
  5
76D
330
1F
100
AcDbEntity
  8
0
100
AcDbLine
 10
1028.963571950202
 20
621.224093611504
 30
0.0
 11
1031.963571950202
 21
621.224093611504
 31
0.0
  0
LINE
  5
76E
330
1F
100
AcDbEntity
  8
0
100
AcDbLine
 10
1031.963571950202
 20
621.224093611504
 30
0.0
 11
1031.963571950202
 21
553.224093611504
 31
0.0
  0
LINE
  5
76F
330
1F
100
AcDbEntity
  8
0
100
AcDbLine
 10
1031.963571950202
 20
553.224093611504
 30
0.0
 11
968.9635719502023
 21
553.224093611504
 31
0.0
  0
LINE
  5
770
330
1F
100
AcDbEntity
  8
0
100
AcDbLine
 10
968.9635719502023
 20
553.224093611504
 30
0.0
 11
968.9635719502023
 21
556.224093611504
 31
0.0
  0
LINE
  5
771
330
1F
100
AcDbEntity
  8
0
100
AcDbLine
 10
198.9635719502025
 20
552.3803199221029
 30
0.0
 11
138.9635719502025
 21
552.3803199221029
 31
0.0
  0
LINE
  5
772
330
1F
100
AcDbEntity
  8
0
100
AcDbLine
 10
135.9635719502025
 20
549.3803199221027
 30
0.0
 11
198.9635719502025
 21
549.3803199221027
 31
0.0
  0
LINE
  5
773
330
1F
100
AcDbEntity
  8
0
100
AcDbLine
 10
138.9635719502025
 20
552.3803199221029
 30
0.0
 11
138.9635719502025
 21
617.3803199221029
 31
0.0
  0
LINE
  5
774
330
1F
100
AcDbEntity
  8
0
100
AcDbLine
 10
138.9635719502025
 20
617.3803199221029
 30
0.0
 11
135.9635719502025
 21
617.3803199221029
 31
0.0
  0
LINE
  5
775
330
1F
100
AcDbEntity
  8
0
100
AcDbLine
 10
135.9635719502025
 20
617.3803199221029
 30
0.0
 11
135.9635719502025
 21
549.3803199221027
 31
0.0
  0
LINE
  5
776
330
1F
100
AcDbEntity
  8
0
100
AcDbLine
 10
198.9635719502025
 20
549.3803199221027
 30
0.0
 11
198.9635719502025
 21
552.3803199221029
 31
0.0
  0
LINE
  5
777
102
{ACAD_REACTORS
330
77D
102
}
330
1F
100
AcDbEntity
  8
0
100
AcDbLine
 10
134.9635719502025
 20
601.7194917749027
 30
0.0
 11
135.9635719502025
 21
601.7194917749027
 31
0.0
  0
LINE
  5
778
330
1F
100
AcDbEntity
  8
0
100
AcDbLine
 10
1031.963571950202
 20
601.7194917749048
 30
0.0
 11
1032.963571950202
 21
601.7194917749027
 31
0.0
  0
DIMENSION
  5
779
330
1F
100
AcDbEntity
  8
AM_5
100
AcDbDimension
  2
*D12
 10
1031.963571950211
 20
74.04679498117094
 30
0.0
 11
583.9635719502024
 21
74.04679498117094
 31
0.0
 70
   160
  1
<>
 71
     5
 42
896.0000000000084
  3
AM_DIN$0
100
AcDbAlignedDimension
 13
135.9635719502025
 23
190.9174914645309
 33
0.0
 14
1031.963571950211
 24
190.9174914645309
 34
0.0
100
AcDbRotatedDimension
1001
ACAD
1000
DSTYLE
1002
{
1070
   286
1070
     0
1070
   284
1070
     8
1070
   274
1070
     4
1070
   272
1070
     3
1070
    40
1040
5.0
1070
    47
1040
1.0
1070
    48
1040
1.0
1002
}
1001
ACAD_DSTYLE_DIMINSPECT
1070
   396
1000

1070
   395
1000

1070
   394
1070
     1
1070
   393
1070
     0
  0
DIMENSION
  5
77A
330
1F
100
AcDbEntity
  8
AM_5
100
AcDbDimension
  2
*D13
 10
1052.963571950202
 20
5.000000976198862
 30
0.0
 11
582.79054267939
 21
5.000000976198862
 31
0.0
 70
   160
  1
<>
 71
     5
 42
948.9999999999994
  3
AM_DIN$0
100
AcDbAlignedDimension
 13
103.9635719502025
 23
159.3074914644176
 33
0.0
 14
1052.963571950202
 24
159.3074914644176
 34
0.0
100
AcDbRotatedDimension
1001
ACAD
1000
DSTYLE
1002
{
1070
   286
1070
     0
1070
   284
1070
     8
1070
   274
1070
     4
1070
   272
1070
     3
1070
    40
1040
5.0
1070
    47
1040
1.0
1070
    48
1040
1.0
1002
}
1001
ACAD_DSTYLE_DIMINSPECT
1070
   396
1000
100%
1070
   395
1000

1070
   394
1070
    33
1070
   393
1070
     0
  0
DIMENSION
  5
77B
102
{ACAD_XDICTIONARY
360
77C
102
}
102
{ACAD_REACTORS
330
77D
102
}
330
1F
100
AcDbEntity
  8
AM_5
100
AcDbDimension
  2
*D14
 10
74.96357195020255
 20
675.7194917749019
 30
0.0
 11
58.71357195020244
 21
638.7194917749022
 31
0.0
 70
    32
  1
<>
 71
     5
 42
73.9999999999992
  3
AM_DIN$0
100
AcDbAlignedDimension
 13
134.9635719502025
 23
601.7194917749027
 33
0.0
 14
134.9635719502025
 24
675.7194917749019
 34
0.0
 50
90.0
100
AcDbRotatedDimension
1001
ACAD
1000
DSTYLE
1002
{
1070
   286
1070
     0
1070
   284
1070
     8
1070
   274
1070
     4
1070
   272
1070
     3
1070
    40
1040
5.0
1070
    47
1040
1.0
1070
    48
1040
1.0
1002
}
1001
ACAD_DSTYLE_DIMINSPECT
1070
   396
1000
100%
1070
   395
1000

1070
   394
1070
    33
1070
   393
1070
     0
  0
LINE
  5
77E
330
1F
100
AcDbEntity
  8
AM_7
100
AcDbLine
 10
583.9635719502024
 20
295.2974914644502
 30
0.0
 11
583.9635719502024
 21
156.3074914644175
 31
0.0
1001
GENIUS_GENOBJ-N-CEN_13
1002
{
1000
OWNER
1000
GEN
1002
}
1001
GENIUS_GENODEF_13
1002
{
1000
HIER
1070
     0
1002
}
1002
{
1000
MANEDIT
1070
     0
1002
}
1002
{
1000
NOSEL
1070
     0
1002
}
1002
{
1000
BEHIND
1070
     0
1002
}
1002
{
1000
OTHER
1070
     0
1002
}
1002
{
1000
REACTOR
1002
}
1001
GENIUS_GENCEN_19
1002
{
1040
3.0
1002
}
  0
DIMENSION
  5
77F
330
1F
100
AcDbEntity
  8
AM_5
100
AcDbDimension
  2
*D15
 10
608.9635719688141
 20
440.546920103302
 30
0.0
 11
584.0112797519926
 21
440.546920103302
 31
0.0
 70
   160
  1
%%c<>
 71
     5
 42
50.00000000063676
  3
AM_DIN$0
100
AcDbAlignedDimension
 13
558.9635719681773
 23
512.9371776209812
 33
0.0
 14
608.9635719688141
 24
512.9371776209812
 34
0.0
100
AcDbRotatedDimension
1001
ACAD_DSTYLE_DIMINSPECT
1070
   396
1000

1070
   395
1000

1070
   394
1070
     1
1070
   393
1070
     0
1001
ACAD
1000
DSTYLE
1002
{
1070
    40
1040
5.0
1070
    47
1040
1.0
1070
    48
1040
1.0
1002
}
  0
DIMENSION
  5
780
330
1F
100
AcDbEntity
  8
AM_5
100
AcDbDimension
  2
*D16
 10
71.18106159093307
 20
189.3074914645321
 30
0.0
 11
71.18106159093304
 21
230.1525898199825
 31
0.0
 70
   160
 71
     5
 42
81.98999999991627
  3
AM_DIN$0
100
AcDbAlignedDimension
 13
135.9635719502025
 23
271.2974914644483
 33
0.0
 14
135.9635719502025
 24
189.3074914645321
 34
0.0
 50
90.0
100
AcDbRotatedDimension
1001
ACAD_DSTYLE_DIMINSPECT
1070
   396
1000

1070
   395
1000

1070
   394
1070
     1
1070
   393
1070
     0
1001
ACAD
1000
DSTYLE
1002
{
1070
    40
1040
5.0
1070
    47
1040
1.0
1070
    48
1040
1.0
1002
}
  0
DIMENSION
  5
781
330
1F
100
AcDbEntity
  8
AM_5
100
AcDbDimension
  2
*D17
 10
24.12500208214853
 20
159.3074914644176
 30
0.0
 11
24.12500208214851
 21
231.3074914644294
 31
0.0
 70
   160
 71
     5
 42
132.9900000000307
  3
AM_DIN$0
100
AcDbAlignedDimension
 13
103.9635719502025
 23
292.2974914644484
 33
0.0
 14
103.9635719502025
 24
159.3074914644176
 34
0.0
 50
90.0
100
AcDbRotatedDimension
1001
ACAD_DSTYLE_DIMINSPECT
1070
   396
1000
100%
1070
   395
1000

1070
   394
1070
    33
1070
   393
1070
     0
1001
ACAD
1000
DSTYLE
1002
{
1070
    40
1040
5.0
1070
    47
1040
1.0
1070
    48
1040
1.0
1070
   271
1070
     0
1002
}
  0
DIMENSION
  5
783
102
{ACAD_XDICTIONARY
360
784
102
}
102
{ACAD_REACTORS
330
785
102
}
330
1F
100
AcDbEntity
  8
AM_5
100
AcDbDimension
  2
*D18
 10
1103.524541019459
 20
715.719491774903
 30
0.0
 11
1087.274541019459
 21
695.7194917749026
 31
0.0
 70
    32
 71
     5
 42
40.00000000000102
  3
AM_DIN$0
100
AcDbAlignedDimension
 13
1050.963571950202
 23
675.7194917749019
 33
0.0
 14
1052.963571950202
 24
715.719491774903
 34
0.0
 50
90.0
100
AcDbRotatedDimension
1001
ACAD_DSTYLE_DIMINSPECT
1070
   396
1000
100%
1070
   395
1000

1070
   394
1070
    33
1070
   393
1070
     0
1001
ACAD
1000
DSTYLE
1002
{
1070
    40
1040
5.0
1070
    47
1040
1.0
1070
    48
1040
1.0
1002
}
  0
DIMENSION
  5
786
102
{ACAD_XDICTIONARY
360
787
102
}
102
{ACAD_REACTORS
330
788
102
}
330
1F
100
AcDbEntity
  8
AM_5
100
AcDbDimension
  2
*D19
 10
1051.963571950202
 20
756.011771074498
 30
0.0
 11
979.6094873045328
 21
756.011771074498
 31
0.0
 70
   160
 71
     5
 42
20.0
  3
AM_DIN$0
100
AcDbAlignedDimension
 13
1031.963571950202
 23
675.7194917749019
 33
0.0
 14
1051.963571950202
 24
715.719491774903
 34
0.0
100
AcDbRotatedDimension
1001
ACAD_DSTYLE_DIMINSPECT
1070
   396
1000
100%
1070
   395
1000

1070
   394
1070
    33
1070
   393
1070
     0
1001
ACAD
1000
DSTYLE
1002
{
1070
    40
1040
5.0
1070
    47
1040
1.0
1070
    48
1040
1.0
1002
}
  0
ARC
  5
789
330
1F
100
AcDbEntity
  8
0
100
AcDbCircle
 10
1050.963571950202
 20
676.7194917749019
 30
0.0
 40
1.0
100
AcDbArc
 50
270.0
 51
0.0
  0
ARC
  5
78A
330
1F
100
AcDbEntity
  8
0
100
AcDbCircle
 10
1050.963571950202
 20
676.7194917749019
 30
0.0
 40
2.0
100
AcDbArc
 50
270.0
 51
0.0
  0
POINT
  5
78B
330
1F
100
AcDbEntity
  8
0
 60
     1
100
AcDbPoint
 10
-12041.59214056186
 20
3118.059153442073
 30
0.0
1001
GENIUS_GENOENT_13
1002
{
1000
MYREF
1005
78B
1002
}
1002
{
1000
GRP
1005
0
1002
}
1001
GENIUS_GENOLIS_13
1002
{
1000
ENT
1005
0
1005
733
1005
0
1005
732
1002
}
1001
GENIUS_GENOBJ-N-CRS_13
1002
{
1000
OWNER
1000
GEN
1002
}
1001
GENIUS_GENODEF_13
1002
{
1000
HIER
1070
    10
1002
}
1002
{
1000
MANEDIT
1070
     1
1002
}
1002
{
1000
NOSEL
1070
     0
1002
}
1002
{
1000
BEHIND
1070
     0
1002
}
1002
{
1000
OTHER
1070
     0
1002
}
1002
{
1000
REACTOR
1002
}
  0
LINE
  5
7F2
330
1F
100
AcDbEntity
  8
0
100
AcDbLine
 10
103.9635719502025
 20
715.719491774903
 30
0.0
 11
1052.963571950202
 21
715.719491774903
 31
0.0
  0
LINE
  5
7F3
330
1F
100
AcDbEntity
  8
0
100
AcDbLine
 10
135.9635719502025
 20
291.2974914644483
 30
0.0
 11
103.9635719502025
 21
291.2974914644483
 31
0.0
  0
LINE
  5
7F5
330
1F
100
AcDbEntity
  8
0
  6
Continuous
 62
     7
100
AcDbLine
 10
1031.963571950202
 20
291.297491464452
 30
0.0
 11
135.9635719502025
 21
291.2974914644483
 31
0.0
  0
LINE
  5
7F6
330
1F
100
AcDbEntity
  8
0
100
AcDbLine
 10
1031.963571950242
 20
291.2974914644483
 30
0.0
 11
1051.963571950202
 21
291.2974914652513
 31
0.0
  0
LINE
  5
936
102
{ACAD_REACTORS
330
9C0
102
}
330
1F
100
AcDbEntity
  8
0
100
AcDbLine
 10
1051.963571950202
 20
291.2974914652513
 30
0.0
 11
1052.963571950202
 21
292.2974914652915
 31
0.0
  0
DIMENSION
  5
9B2
102
{ACAD_XDICTIONARY
360
9BF
102
}
102
{ACAD_REACTORS
330
9C0
102
}
330
1F
100
AcDbEntity
  8
AM_5
100
AcDbDimension
  2
*D21
 10
1111.809724242117
 20
291.2974914652513
 30
0.0
 11
1111.809724242117
 21
217.9078654900484
 31
0.0
 70
   160
 71
     5
 42
20.00000000080297
  3
AM_DIN$0
100
AcDbAlignedDimension
 13
1031.963571950202
 23
271.2974914644483
 33
0.0
 14
1051.963571950202
 24
291.2974914652513
 34
0.0
 50
90.0
100
AcDbRotatedDimension
1001
ACAD_DSTYLE_DIMINSPECT
1070
   396
1000
100%
1070
   395
1000

1070
   394
1070
    33
1070
   393
1070
     0
1001
ACAD
1000
DSTYLE
1002
{
1070
    40
1040
5.0
1070
    47
1040
1.0
1070
    48
1040
1.0
1002
}
  0
LINE
  5
A80
330
1F
100
AcDbEntity
  8
RUNDUNGEN
  6
Continuous
 62
     7
100
AcDbLine
 10
546.4778314486014
 20
231.3074914621116
 30
0.0
 11
546.4635719502024
 21
231.3074914623125
 31
0.0
  0
LINE
  5
A81
330
1F
100
AcDbEntity
  8
RUNDUNGEN
  6
Continuous
 62
     7
100
AcDbLine
 10
546.4635719502024
 20
231.3074914623125
 30
0.0
 11
545.9637968361152
 21
231.3074914681106
 31
0.0
  0
LINE
  5
A82
330
1F
100
AcDbEntity
  8
RUNDUNGEN
  6
Continuous
 62
     7
100
AcDbLine
 10
621.4493124519163
 20
231.3074914746116
 30
0.0
 11
621.4635719502024
 21
231.3074914744125
 31
0.0
  0
CIRCLE
  5
A83
330
1F
100
AcDbEntity
  8
0
  6
Continuous
 62
     7
100
AcDbCircle
 10
583.9635719502024
 20
231.3074914729455
 30
0.0
 40
37.0
  0
LINE
  5
A84
330
1F
100
AcDbEntity
  8
RUNDUNGEN
  6
Continuous
 62
     7
100
AcDbLine
 10
546.4778314486014
 20
231.3074914582321
 30
0.0
 11
546.4635719502024
 21
231.3074914584313
 31
0.0
  0
LINE
  5
A85
330
1F
100
AcDbEntity
  8
RUNDUNGEN
  6
Continuous
 62
     7
100
AcDbLine
 10
546.4635719502024
 20
231.3074914584313
 30
0.0
 11
545.9637968361041
 21
231.3074914642302
 31
0.0
  0
LINE
  5
A86
330
1F
100
AcDbEntity
  8
RUNDUNGEN
  6
Continuous
 62
     7
100
AcDbLine
 10
621.4493124519052
 20
231.3074914707313
 30
0.0
 11
621.4635719502024
 21
231.3074914705312
 31
0.0
  0
LINE
  5
A87
330
1F
100
AcDbEntity
  8
0
  6
Continuous
 62
     7
100
AcDbLine
 10
613.9476949330038
 20
233.5574914690651
 30
0.0
 11
613.9476949330038
 21
229.0574914690651
 31
0.0
  0
LINE
  5
A88
330
1F
100
AcDbEntity
  8
0
  6
Continuous
 62
     7
100
AcDbLine
 10
606.7565388969036
 20
211.6965050376639
 30
0.0
 11
603.5745583816045
 21
208.5145245222638
 31
0.0
  0
LINE
  5
A89
330
1F
100
AcDbEntity
  8
0
  6
Continuous
 62
     7
100
AcDbLine
 10
581.7135719502024
 20
261.291614451964
 30
0.0
 11
586.2135719502024
 21
261.291614451964
 31
0.0
  0
LINE
  5
A8A
330
1F
100
AcDbEntity
  8
0
  6
Continuous
 62
     7
100
AcDbLine
 10
603.5745583816045
 20
254.1004584158645
 30
0.0
 11
606.7565388969036
 21
250.9184779004636
 31
0.0
  0
LINE
  5
A8B
330
1F
100
AcDbEntity
  8
0
  6
Continuous
 62
     7
100
AcDbLine
 10
606.9333155922016
 20
209.7519613893636
 30
0.0
 11
606.7565388969036
 21
211.6965050376639
 31
0.0
  0
LINE
  5
A8C
330
1F
100
AcDbEntity
  8
0
  6
Continuous
 62
     7
100
AcDbLine
 10
606.7565388969036
 20
250.9184779004636
 30
0.0
 11
606.9333155922016
 21
252.8630215487656
 31
0.0
  0
LINE
  5
A8D
330
1F
100
AcDbEntity
  8
0
  6
Continuous
 62
     7
100
AcDbLine
 10
584.9635719502024
 20
199.8233684861652
 30
0.0
 11
586.2135719502024
 21
201.3233684861652
 31
0.0
  0
LINE
  5
A8E
330
1F
100
AcDbEntity
  8
0
  6
Continuous
 62
     7
100
AcDbLine
 10
613.9476949330038
 20
229.0574914690651
 30
0.0
 11
615.4476949330041
 21
230.3074914690642
 31
0.0
  0
LINE
  5
A8F
330
1F
100
AcDbEntity
  8
0
  6
Continuous
 62
     7
100
AcDbLine
 10
605.5191020299011
 20
254.2772351111644
 30
0.0
 11
603.5745583816045
 21
254.1004584158645
 31
0.0
  0
LINE
  5
A90
330
1F
100
AcDbEntity
  8
0
  6
Continuous
 62
     7
100
AcDbLine
 10
564.3525855187021
 20
254.1004584158645
 30
0.0
 11
562.4080418705037
 21
254.2772351111644
 31
0.0
  0
LINE
  5
A91
330
1F
100
AcDbEntity
  8
0
  6
Continuous
 62
     7
100
AcDbLine
 10
615.4476949330041
 20
232.3074914690642
 30
0.0
 11
613.9476949330038
 21
233.5574914690651
 31
0.0
  0
LINE
  5
A92
330
1F
100
AcDbEntity
  8
0
  6
Continuous
 62
     7
100
AcDbLine
 10
586.2135719502024
 20
261.291614451964
 30
0.0
 11
584.9635719502024
 21
262.7916144519641
 31
0.0
  0
LINE
  5
A93
330
1F
100
AcDbEntity
  8
RUNDUNGEN
  6
Continuous
 62
     9
100
AcDbLine
 10
593.4635719502024
 20
232.8074914690651
 30
0.0
 11
593.4635719502024
 21
229.807491469066
 31
0.0
  0
LINE
  5
A94
330
1F
100
AcDbEntity
  8
0
  6
Continuous
 62
     7
100
AcDbLine
 10
591.9635719502024
 20
232.6074914690644
 30
0.0
 11
591.9635719502024
 21
230.0074914690658
 31
0.0
  0
LINE
  5
A95
330
1F
100
AcDbEntity
  8
RUNDUNGEN
  6
Continuous
 62
     7
100
AcDbLine
 10
564.1865649955018
 20
232.8074914690651
 30
0.0
 11
575.7635703250037
 21
232.8074914690651
 31
0.0
  0
LINE
  5
A96
330
1F
100
AcDbEntity
  8
RUNDUNGEN
  6
Continuous
 62
     7
100
AcDbLine
 10
592.1636778826017
 20
232.8074914690651
 30
0.0
 11
603.7405789048047
 21
232.8074914690651
 31
0.0
  0
LINE
  5
A97
330
1F
100
AcDbEntity
  8
RUNDUNGEN
  6
Continuous
 62
     9
100
AcDbLine
 10
563.0038486696015
 20
232.6074914690644
 30
0.0
 11
575.9635719502024
 21
232.6074914690644
 31
0.0
  0
LINE
  5
A98
330
1F
100
AcDbEntity
  8
RUNDUNGEN
  6
Continuous
 62
     9
100
AcDbLine
 10
591.9635719502024
 20
232.6074914690644
 30
0.0
 11
604.9232952308032
 21
232.6074914690644
 31
0.0
  0
LINE
  5
A99
330
1F
100
AcDbEntity
  8
RUNDUNGEN
  6
Continuous
 62
     9
100
AcDbLine
 10
604.9232952308032
 20
230.0074914690658
 30
0.0
 11
591.9635719502024
 21
230.0074914690658
 31
0.0
  0
LINE
  5
A9A
330
1F
100
AcDbEntity
  8
RUNDUNGEN
  6
Continuous
 62
     9
100
AcDbLine
 10
575.9635719502024
 20
230.0074914690658
 30
0.0
 11
563.0038486696015
 21
230.0074914690658
 31
0.0
  0
LINE
  5
A9B
330
1F
100
AcDbEntity
  8
RUNDUNGEN
  6
Continuous
 62
     7
100
AcDbLine
 10
603.7405789048047
 20
229.807491469066
 30
0.0
 11
592.1635735753027
 21
229.807491469066
 31
0.0
  0
LINE
  5
A9C
330
1F
100
AcDbEntity
  8
RUNDUNGEN
  6
Continuous
 62
     7
100
AcDbLine
 10
575.7635703300024
 20
229.807491469066
 30
0.0
 11
564.1865649955018
 21
229.807491469066
 31
0.0
  0
LINE
  5
A9D
330
1F
100
AcDbEntity
  8
0
  6
Continuous
 62
     7
100
AcDbLine
 10
575.9635719502024
 20
230.0074914690658
 30
0.0
 11
575.9635719502024
 21
232.6074914690644
 31
0.0
  0
LINE
  5
A9E
330
1F
100
AcDbEntity
  8
RUNDUNGEN
  6
Continuous
 62
     9
100
AcDbLine
 10
574.4635719502024
 20
232.8074914690651
 30
0.0
 11
574.4635719502024
 21
229.807491469066
 31
0.0
  0
LINE
  5
A9F
330
1F
100
AcDbEntity
  8
0
  6
Continuous
 62
     7
100
AcDbLine
 10
560.9938283081013
 20
252.8630215487656
 30
0.0
 11
561.170605003403
 21
250.9184779004636
 31
0.0
  0
LINE
  5
AA0
330
1F
100
AcDbEntity
  8
0
  6
Continuous
 62
     7
100
AcDbLine
 10
561.170605003403
 20
211.6965050376639
 30
0.0
 11
560.9938283081013
 21
209.7519613893636
 31
0.0
  0
LINE
  5
AA1
330
1F
100
AcDbEntity
  8
0
  6
Continuous
 62
     7
100
AcDbLine
 10
582.9635719502024
 20
262.7916144519641
 30
0.0
 11
581.7135719502024
 21
261.291614451964
 31
0.0
  0
LINE
  5
AA2
330
1F
100
AcDbEntity
  8
0
  6
Continuous
 62
     7
100
AcDbLine
 10
553.9794489673026
 20
233.5574914690651
 30
0.0
 11
552.4794489673023
 21
232.3074914690642
 31
0.0
  0
LINE
  5
AA3
330
1F
100
AcDbEntity
  8
0
  6
Continuous
 62
     7
100
AcDbLine
 10
562.4080418705037
 20
208.3377478269649
 30
0.0
 11
564.3525855187021
 21
208.5145245222638
 31
0.0
  0
LINE
  5
AA4
330
1F
100
AcDbEntity
  8
0
  6
Continuous
 62
     7
100
AcDbLine
 10
603.5745583816045
 20
208.5145245222638
 30
0.0
 11
605.5191020299011
 21
208.3377478269649
 31
0.0
  0
LINE
  5
AA5
330
1F
100
AcDbEntity
  8
0
  6
Continuous
 62
     7
100
AcDbLine
 10
552.4794489673023
 20
230.3074914690642
 30
0.0
 11
553.9794489673026
 21
229.0574914690651
 31
0.0
  0
LINE
  5
AA6
330
1F
100
AcDbEntity
  8
0
  6
Continuous
 62
     7
100
AcDbLine
 10
581.7135719502024
 20
201.3233684861652
 30
0.0
 11
582.9635719502024
 21
199.8233684861652
 31
0.0
  0
LINE
  5
AA7
330
1F
100
AcDbEntity
  8
0
  6
Continuous
 62
     7
100
AcDbLine
 10
553.9794489673026
 20
229.0574914690651
 30
0.0
 11
553.9794489673026
 21
233.5574914690651
 31
0.0
  0
LINE
  5
AA8
330
1F
100
AcDbEntity
  8
0
  6
Continuous
 62
     7
100
AcDbLine
 10
561.170605003403
 20
250.9184779004636
 30
0.0
 11
564.3525855187021
 21
254.1004584158645
 31
0.0
  0
LINE
  5
AA9
330
1F
100
AcDbEntity
  8
0
  6
Continuous
 62
     7
100
AcDbLine
 10
586.2135719502024
 20
201.3233684861652
 30
0.0
 11
581.7135719502024
 21
201.3233684861652
 31
0.0
  0
LINE
  5
AAA
330
1F
100
AcDbEntity
  8
0
  6
Continuous
 62
     7
100
AcDbLine
 10
564.3525855187021
 20
208.5145245222638
 30
0.0
 11
561.170605003403
 21
211.6965050376639
 31
0.0
  0
ARC
  5
AAB
330
1F
100
AcDbEntity
  8
RUNDUNGEN
  6
Continuous
 62
     7
100
AcDbCircle
 10
592.163571950203
 20
232.6074914690644
 30
0.0
 40
0.2
100
AcDbArc
 50
89.99953587230413
 51
180.0
  0
ARC
  5
AAC
330
1F
100
AcDbEntity
  8
RUNDUNGEN
  6
Continuous
 62
     7
100
AcDbCircle
 10
575.7635719502017
 20
232.6074914690644
 30
0.0
 40
0.2
100
AcDbArc
 50
0.0
 51
90.00046556135194
  0
CIRCLE
  5
AAD
330
1F
100
AcDbEntity
  8
BEZUGSACHSEN
  6
Continuous
 62
     7
100
AcDbCircle
 10
583.9635719502024
 20
231.3074914690651
 30
0.0
 40
37.75
  0
CIRCLE
  5
AAE
330
1F
100
AcDbEntity
  8
BEZUGSACHSEN
  6
Continuous
 62
     9
100
AcDbCircle
 10
583.9635719502024
 20
231.3074914690651
 30
0.0
 40
34.8249358981
  0
ARC
  5
AAF
330
1F
100
AcDbEntity
  8
0
  6
Continuous
 62
     7
100
AcDbCircle
 10
583.9635719502024
 20
231.3074914690651
 30
0.0
 40
31.5
100
AcDbArc
 50
226.8192192939952
 51
268.1807807059966
  0
ARC
  5
AB0
330
1F
100
AcDbEntity
  8
0
  6
Continuous
 62
     7
100
AcDbCircle
 10
583.9635719502024
 20
231.3074914690651
 30
0.0
 40
31.5
100
AcDbArc
 50
181.8192192940034
 51
223.1807807060762
  0
ARC
  5
AB1
330
1F
100
AcDbEntity
  8
0
  6
Continuous
 62
     7
100
AcDbCircle
 10
583.9635719502024
 20
231.3074914690651
 30
0.0
 40
31.5
100
AcDbArc
 50
136.8192192939237
 51
178.1807807059965
  0
ARC
  5
AB2
330
1F
100
AcDbEntity
  8
0
  6
Continuous
 62
     7
100
AcDbCircle
 10
583.9635719502024
 20
231.3074914690651
 30
0.0
 40
31.5
100
AcDbArc
 50
91.81921929400344
 51
133.1807807060048
  0
ARC
  5
AB3
330
1F
100
AcDbEntity
  8
0
  6
Continuous
 62
     7
100
AcDbCircle
 10
583.9635719502024
 20
231.3074914690651
 30
0.0
 40
31.5
100
AcDbArc
 50
46.81921929399518
 51
88.18078070599655
  0
ARC
  5
AB4
330
1F
100
AcDbEntity
  8
0
  6
Continuous
 62
     7
100
AcDbCircle
 10
583.9635719502024
 20
231.3074914690651
 30
0.0
 40
31.5
100
AcDbArc
 50
1.819219294003455
 51
43.18078070607625
  0
ARC
  5
AB5
330
1F
100
AcDbEntity
  8
0
  6
Continuous
 62
     7
100
AcDbCircle
 10
583.9635719502024
 20
231.3074914690651
 30
0.0
 40
31.5
100
AcDbArc
 50
316.8192192939237
 51
358.1807807059965
  0
ARC
  5
AB6
330
1F
100
AcDbEntity
  8
0
  6
Continuous
 62
     7
100
AcDbCircle
 10
583.9635719502024
 20
231.3074914690651
 30
0.0
 40
31.5
100
AcDbArc
 50
271.8192192940034
 51
313.1807807060048
  0
ARC
  5
AB7
330
1F
100
AcDbEntity
  8
RUNDUNGEN
  6
Continuous
 62
     9
100
AcDbCircle
 10
583.9635719502024
 20
231.3074914690651
 30
0.0
 40
21.0
100
AcDbArc
 50
3.549150897490096
 51
176.4508491025099
  0
ARC
  5
AB8
330
1F
100
AcDbEntity
  8
RUNDUNGEN
  6
Continuous
 62
     9
100
AcDbCircle
 10
583.9635719502024
 20
231.3074914690651
 30
0.0
 40
21.0
100
AcDbArc
 50
183.5491508974901
 51
356.4508491025098
  0
ARC
  5
AB9
330
1F
100
AcDbEntity
  8
0
  6
Continuous
 62
     7
100
AcDbCircle
 10
583.9635719502024
 20
231.3074914690651
 30
0.0
 40
17.5
100
AcDbArc
 50
184.9171003355094
 51
355.0828996644906
  0
ARC
  5
ABA
330
1F
100
AcDbEntity
  8
0
  6
Continuous
 62
     7
100
AcDbCircle
 10
583.9635719502024
 20
231.3074914690651
 30
0.0
 40
17.5
100
AcDbArc
 50
4.917100335509385
 51
175.0828996644905
  0
ARC
  5
ABB
330
1F
100
AcDbEntity
  8
RUNDUNGEN
  6
Continuous
 62
     7
100
AcDbCircle
 10
592.163571950203
 20
230.0074914690658
 30
0.0
 40
0.2
100
AcDbArc
 50
180.0
 51
270.0004655613519
  0
ARC
  5
ABC
330
1F
100
AcDbEntity
  8
RUNDUNGEN
  6
Continuous
 62
     7
100
AcDbCircle
 10
575.7635719502017
 20
230.0074914690658
 30
0.0
 40
0.2
100
AcDbArc
 50
269.9995358720957
 51
0.0
  0
SPLINE
  5
ABD
330
1F
100
AcDbEntity
  8
RUNDUNGEN
  6
Continuous
 62
     7
100
AcDbSpline
210
0.0
220
0.0
230
1.0
 70
     8
 71
     3
 72
    15
 73
    11
 74
     9
 42
0.0000000001
 43
0.0000000001
 44
0.0000000001
 12
-0.9734575250016488
 22
-0.228867750060301
 32
0.0
 13
-1.0
 23
0.0000000000000001
 33
0.0
 40
0.0
 40
0.0
 40
0.0
 40
0.0
 40
0.1510810008469852
 40
0.3012692817880196
 40
0.4508995578786587
 40
0.6001317707656528
 40
0.749156621849445
 40
0.8985674046151739
 40
1.049070534296827
 40
1.201862823992882
 40
1.201862823992882
 40
1.201862823992882
 40
1.201862823992882
 10
604.9232952308032
 20
230.0074914690658
 30
0.0
 10
604.8742715850834
 20
229.9959656128189
 30
0.0
 10
604.7765123764101
 20
229.9729885260205
 30
0.0
 10
604.6300355785067
 20
229.9392994905853
 30
0.0
 10
604.4838404971425
 20
229.9071555185741
 30
0.0
 10
604.3375520769941
 20
229.8772992240532
 30
0.0
 10
604.1907163295125
 20
229.8506326874126
 30
0.0
 10
604.0427042922415
 20
229.828345902579
 30
0.0
 10
603.8926209710012
 20
229.8121931222793
 30
0.0
 10
603.7915096680368
 20
229.8074914690642
 30
0.0
 10
603.7405789048047
 20
229.8074914690642
 30
0.0
 11
604.9232952308032
 21
230.0074914690658
 31
0.0
 11
604.7761951580017
 21
229.973038059964
 31
0.0
 11
604.6298008845027
 21
229.9394935161645
 31
0.0
 11
604.4836319354018
 21
229.9074957374651
 31
0.0
 11
604.3373811007024
 21
229.877814990964
 31
0.0
 11
604.1907170331016
 21
229.8513942128648
 31
0.0
 11
604.0429280981027
 21
229.8294394252653
 31
0.0
 11
603.8932416553019
 21
229.8137818109635
 31
0.0
 11
603.7405789048047
 21
229.8074914690642
 31
0.0
  0
SPLINE
  5
ABE
330
1F
100
AcDbEntity
  8
RUNDUNGEN
  6
Continuous
 62
     7
100
AcDbSpline
210
0.0
220
0.0
230
1.0
 70
     8
 71
     3
 72
    15
 73
    11
 74
     9
 42
0.0000000001
 43
0.0000000001
 44
0.0000000001
 12
0.9734575250016488
 22
0.228867750060301
 32
0.0
 13
1.0
 23
-0.0000000000000001
 33
0.0
 40
0.0
 40
0.0
 40
0.0
 40
0.0
 40
0.1510810007472878
 40
0.3012692817880187
 40
0.4508995577789286
 40
0.6001317706657531
 40
0.7491566218502819
 40
0.898567404518406
 40
1.049070534297886
 40
1.201862823895948
 40
1.201862823895948
 40
1.201862823895948
 40
1.201862823895948
 10
563.0038486696015
 20
232.6074914690644
 30
0.0
 10
563.0528723152889
 20
232.6190173253037
 30
0.0
 10
563.1506315239533
 20
232.6419944121414
 30
0.0
 10
563.2971083218373
 20
232.675683447512
 30
0.0
 10
563.4433034031906
 20
232.7078274195707
 30
0.0
 10
563.5895918233408
 20
232.7376837140864
 30
0.0
 10
563.7364275708288
 20
232.7643502506942
 30
0.0
 10
563.8844396081281
 20
232.78663703557
 30
0.0
 10
564.0345229293392
 20
232.8027898158352
 30
0.0
 10
564.1356342323024
 20
232.8074914690651
 30
0.0
 10
564.1865649955018
 20
232.8074914690651
 30
0.0
 11
563.0038486696015
 21
232.6074914690644
 31
0.0
 11
563.1509487423012
 21
232.6419448781635
 31
0.0
 11
563.2973430159021
 21
232.6754894219648
 31
0.0
 11
563.4435119649009
 21
232.7074872006642
 31
0.0
 11
563.5897627996004
 21
232.7371679471644
 31
0.0
 11
563.7364268673032
 21
232.7635887252645
 31
0.0
 11
563.8842158022035
 21
232.785543512864
 31
0.0
 11
564.0339022451028
 21
232.8012011271649
 31
0.0
 11
564.1865649955018
 21
232.8074914690651
 31
0.0
  0
SPLINE
  5
ABF
330
1F
100
AcDbEntity
  8
RUNDUNGEN
  6
Continuous
 62
     7
100
AcDbSpline
210
0.0
220
0.0
230
1.0
 70
     8
 71
     3
 72
    14
 73
    10
 74
     8
 42
0.0000000001
 43
0.0000000001
 44
0.0000000001
 12
1.0
 22
-0.0000000000000001
 32
0.0
 13
0.9734575249949115
 23
-0.2288677500889578
 33
0.0
 40
0.0
 40
0.0
 40
0.0
 40
0.0
 40
0.1775159166274327
 40
0.3522169696262053
 40
0.5240382291776231
 40
0.6932544782932224
 40
0.8615176794675313
 40
1.030378979886339
 40
1.201839310652191
 40
1.201839310652191
 40
1.201839310652191
 40
1.201839310652191
 10
603.7405789048047
 20
232.8074914690651
 30
0.0
 10
603.7997508770139
 20
232.8074914690651
 30
0.0
 10
603.9171678455083
 20
232.8011850344973
 30
0.0
 10
604.0906560159156
 20
232.7803326176481
 30
0.0
 10
604.2603240947325
 20
232.7523889157333
 30
0.0
 10
604.4269641657059
 20
232.7198810465018
 30
0.0
 10
604.5919594175524
 20
232.6843037244492
 30
0.0
 10
604.7572271570958
 20
232.6465267365233
 30
0.0
 10
604.8676587810624
 20
232.6205720491084
 30
0.0
 10
604.9232952308032
 20
232.6074914690644
 30
0.0
 11
603.7405789048047
 21
232.8074914690651
 31
0.0
 11
603.9178999741038
 21
232.7991764802646
 31
0.0
 11
604.0914262587015
 21
232.7789505940645
 31
0.0
 11
604.2610264053022
 21
232.7514127018639
 31
0.0
 11
604.4271626637004
 21
232.7192742107636
 31
0.0
 11
604.5916887665027
 21
232.6840085565645
 31
0.0
 11
604.7563436964033
 21
232.6465533454639
 31
0.0
 11
604.9232952308032
 21
232.6074914690644
 31
0.0
  0
SPLINE
  5
AC0
330
1F
100
AcDbEntity
  8
RUNDUNGEN
  6
Continuous
 62
     7
100
AcDbSpline
210
0.0
220
0.0
230
1.0
 70
     8
 71
     3
 72
    14
 73
    10
 74
     8
 42
0.0000000001
 43
0.0000000001
 44
0.0000000001
 12
-1.0
 22
0.0000000000000001
 32
0.0
 13
-0.9734575249949115
 23
0.2288677500889578
 33
0.0
 40
0.0
 40
0.0
 40
0.0
 40
0.0
 40
0.177515916529386
 40
0.3522169696177403
 40
0.5240382291849008
 40
0.6932544783009123
 40
0.8615176793757076
 40
1.030378979890091
 40
1.201839310560722
 40
1.201839310560722
 40
1.201839310560722
 40
1.201839310560722
 10
564.1865649955018
 20
229.8074914690642
 30
0.0
 10
564.1273930233253
 20
229.8074914690642
 30
0.0
 10
564.009976054841
 20
229.8137979036928
 30
0.0
 10
563.8364878844011
 20
229.8346503203003
 30
0.0
 10
563.6668198055827
 20
229.8625940224407
 30
0.0
 10
563.5001797346257
 20
229.895101891598
 30
0.0
 10
563.3351844827932
 20
229.9306792137147
 30
0.0
 10
563.1699167432675
 20
229.9684562015684
 30
0.0
 10
563.0594851193113
 20
229.9944108890291
 30
0.0
 10
563.0038486696015
 20
230.0074914690658
 30
0.0
 11
564.1865649955018
 21
229.8074914690642
 31
0.0
 11
564.009243926301
 21
229.8158064578638
 31
0.0
 11
563.8357176416015
 21
229.8360323439647
 31
0.0
 11
563.6661174950007
 21
229.8635702362635
 31
0.0
 11
563.4999812366023
 21
229.8957087273648
 31
0.0
 11
563.3354551339017
 21
229.9309743815638
 31
0.0
 11
563.1708002039032
 21
229.9684295926645
 31
0.0
 11
563.0038486696015
 21
230.0074914690658
 31
0.0
  0
LINE
  5
CB4
330
1F
100
AcDbEntity
  8
0
100
AcDbLine
 10
559.9427778784185
 20
508.0411480697808
 30
0.0
 11
607.9843660583831
 21
508.041148068832
 31
0.0
  0
LINE
  5
CB5
330
1F
100
AcDbEntity
  8
0
  6
ByBlock
 62
     0
100
AcDbLine
 10
559.9635719681901
 20
513.2911481101904
 30
0.0
 11
561.0135719764619
 21
508.041148068832
 31
0.0
  0
LINE
  5
CB6
330
1F
100
AcDbEntity
  8
0
100
AcDbLine
 10
558.9635719681773
 20
512.9371776209812
 30
0.0
 11
559.9427778786083
 21
508.041148068832
 31
0.0
  0
LINE
  5
CB7
330
1F
100
AcDbEntity
  8
0
  6
ByBlock
 62
     0
100
AcDbLine
 10
607.9635719688012
 20
513.2911481101904
 30
0.0
 11
606.9135719605295
 21
508.041148068832
 31
0.0
  0
LINE
  5
CB8
330
1F
100
AcDbEntity
  8
0
100
AcDbLine
 10
608.9635719688141
 20
512.9371776209812
 30
0.0
 11
607.9843660583831
 21
508.041148068832
 31
0.0
  0
LINE
  5
CB9
330
1F
100
AcDbEntity
  8
0
  6
Continuous
 62
     2
100
AcDbLine
 10
559.6088213866166
 20
509.7109305287886
 30
0.0
 11
560.3582041710196
 21
511.3179870960433
 31
0.0
  0
LINE
  5
CBA
330
1F
100
AcDbEntity
  8
0
  6
Continuous
 62
     2
100
AcDbLine
 10
607.9635719602165
 20
513.1540343276189
 30
0.0
 11
608.9635719602292
 21
515.2985412481464
 31
0.0
  0
LINE
  5
CBB
330
1F
100
AcDbEntity
  8
0
  6
Continuous
 62
     2
100
AcDbLine
 10
607.9635719602165
 20
526.0773707667835
 30
0.0
 11
608.9635719602292
 21
528.2218776873111
 31
0.0
  0
LINE
  5
CBC
330
1F
100
AcDbEntity
  8
0
  6
Continuous
 62
     2
100
AcDbLine
 10
607.9635719602165
 20
539.0007072059484
 30
0.0
 11
608.9635719602292
 21
541.1452141264759
 31
0.0
  0
LINE
  5
CBD
330
1F
100
AcDbEntity
  8
0
  6
Continuous
 62
     2
100
AcDbLine
 10
607.9635719602165
 20
551.9240436452133
 30
0.0
 11
608.9635719602292
 21
554.0685505657406
 31
0.0
  0
LINE
  5
CBE
330
1F
100
AcDbEntity
  8
0
  6
Continuous
 62
     7
100
AcDbLine
 10
608.9635719602292
 20
556.5411480708726
 30
0.0
 11
608.9635719688141
 21
512.9371776209812
 31
0.0
  0
LINE
  5
CBF
330
1F
100
AcDbEntity
  8
0
  6
Continuous
 62
     7
100
AcDbLine
 10
607.9635719602165
 20
556.5411480708726
 30
0.0
 11
607.9635719602165
 21
513.2911480672667
 31
0.0
  0
LINE
  5
CC1
330
1F
100
AcDbEntity
  8
0
  6
Continuous
 62
     2
100
AcDbLine
 10
558.9635719595926
 20
519.6653079489031
 30
0.0
 11
559.9635719596053
 21
521.8098148694288
 31
0.0
  0
LINE
  5
CC2
330
1F
100
AcDbEntity
  8
0
  6
Continuous
 62
     2
100
AcDbLine
 10
558.9635719595926
 20
532.5886443881661
 30
0.0
 11
559.9635719596053
 21
534.7331513086935
 31
0.0
  0
LINE
  5
CC3
330
1F
100
AcDbEntity
  8
0
  6
Continuous
 62
     2
100
AcDbLine
 10
558.9635719595926
 20
545.5119808273326
 30
0.0
 11
559.9635719596053
 21
547.65648774786
 31
0.0
  0
LINE
  5
CC4
330
1F
100
AcDbEntity
  8
0
  6
Continuous
 62
     7
100
AcDbLine
 10
559.9635719596053
 20
556.5411480708726
 30
0.0
 11
559.9635719596053
 21
513.2911481531145
 31
0.0
  0
LINE
  5
CC5
330
1F
100
AcDbEntity
  8
0
  6
Continuous
 62
     7
100
AcDbLine
 10
558.9635719595926
 20
556.5411480708726
 30
0.0
 11
558.9635719681773
 21
512.9371776209812
 31
0.0
  0
LINE
  5
CC6
330
1F
100
AcDbEntity
  8
0
  6
Continuous
 62
     7
100
AcDbLine
 10
608.9635719602292
 20
556.5411480708726
 30
0.0
 11
558.9635719595926
 21
556.5411480708726
 31
0.0
  0
LINE
  5
CC7
330
1F
100
AcDbEntity
  8
0
100
AcDbLine
 10
559.9427778783238
 20
508.0411480702552
 30
0.0
 11
607.9635719602165
 21
508.0411480702552
 31
0.0
  0
LINE
  5
CC8
330
1F
100
AcDbEntity
  8
AM_7
100
AcDbLine
 10
583.9635719599109
 20
559.5411480709109
 30
0.0
 11
583.9635719599109
 21
505.041148070217
 31
0.0
1001
GENIUS_GENODEF_13
1002
{
1000
HIER
1070
     0
1002
}
1002
{
1000
MANEDIT
1070
     0
1002
}
1002
{
1000
NOSEL
1070
     0
1002
}
1002
{
1000
BEHIND
1070
     0
1002
}
1002
{
1000
OTHER
1070
     0
1002
}
1002
{
1000
REACTOR
1002
}
1001
GENIUS_GENOBJ-N-CEN_13
1002
{
1000
OWNER
1000
GEN
1002
}
1001
GENIUS_GENCEN_19
1002
{
1040
3.0
1002
}
  0
ENDSEC
  0
SECTION
  2
OBJECTS
  0
DICTIONARY
  5
C
330
0
100
AcDbDictionary
281
     1
  3
ACAD_2007HEADERVARS_RT
350
D01
  3
ACAD_COLOR
350
BE
  3
ACAD_GROUP
350
D
  3
ACAD_LAYOUT
350
1A
  3
ACAD_MATERIAL
350
BD
  3
ACAD_MLEADERSTYLE
350
3EF
  3
ACAD_MLINESTYLE
350
17
  3
ACAD_PLOTSETTINGS
350
19
  3
ACAD_PLOTSTYLENAME
350
E
  3
ACAD_SCALELIST
350
3DD
  3
ACAD_TABLESTYLE
350
11A
  3
ACAD_VISUALSTYLE
350
3CC
  3
ACDB_RECOMPOSE_DATA
350
41D
  3
AcDbVariableDictionary
350
94
  3
AcmDictionary
350
5B
  3
AcmSystemVariableManager
350
D0D
  3
AEC_PROPERTY_SET_DEFS
350
70F
  3
AMG
350
41
  3
AMGSNAPSETTINGS
350
26B
  3
DWGPROPS
350
D00
  0
DICTIONARY
  5
68D
330
2
100
AcDbDictionary
280
     1
281
     1
  3
ACAD_LAYERSTATES
360
68E
  0
DICTIONARY
  5
7F7
330
10
100
AcDbDictionary
280
     1
281
     1
  3
ADSK_XREC_LAYER_RECONCILED
360
7F8
  0
DICTIONARY
  5
677
330
676
100
AcDbDictionary
280
     1
281
     1
  3
ADSK_XREC_LAYER_RECONCILED
360
7F9
  0
DICTIONARY
  5
679
330
678
100
AcDbDictionary
280
     1
281
     1
  3
ADSK_XREC_LAYER_RECONCILED
360
7FA
  0
DICTIONARY
  5
67C
330
67B
100
AcDbDictionary
280
     1
281
     1
  3
ADSK_XREC_LAYER_RECONCILED
360
7FB
  0
DICTIONARY
  5
67E
330
67D
100
AcDbDictionary
280
     1
281
     1
  3
ADSK_XREC_LAYER_RECONCILED
360
7FC
  0
DICTIONARY
  5
680
330
67F
100
AcDbDictionary
280
     1
281
     1
  3
ADSK_XREC_LAYER_RECONCILED
360
7FD
  0
DICTIONARY
  5
682
330
681
100
AcDbDictionary
280
     1
281
     1
  3
ADSK_XREC_LAYER_RECONCILED
360
7FE
  0
DICTIONARY
  5
7FF
330
7F0
100
AcDbDictionary
280
     1
281
     1
  3
ADSK_XREC_LAYER_RECONCILED
360
800
  0
DICTIONARY
  5
A36
330
A35
100
AcDbDictionary
280
     1
281
     1
  0
DICTIONARY
  5
8F
330
1F
100
AcDbDictionary
280
     1
281
     1
  3
ACAD_SORTENTS
360
7F4
  0
DICTIONARY
  5
77C
330
77B
100
AcDbDictionary
280
     1
281
     1
  3
ACAD_DIMASSOC
360
77D
  0
DICTIONARY
  5
784
330
783
100
AcDbDictionary
280
     1
281
     1
  3
ACAD_DIMASSOC
360
785
  0
DICTIONARY
  5
787
330
786
100
AcDbDictionary
280
     1
281
     1
  3
ACAD_DIMASSOC
360
788
  0
DICTIONARY
  5
9BF
330
9B2
100
AcDbDictionary
280
     1
281
     1
  3
ACAD_DIMASSOC
360
9C0
  0
DICTIONARY
  5
D01
102
{ACAD_REACTORS
330
C
102
}
330
C
100
AcDbDictionary
281
     1
  3
DIMJOGANG
350
D02
  3
DIMLTEX1
350
D04
  3
DIMLTEX2
350
D05
  3
DIMLTYPE
350
D03
  0
DICTIONARY
  5
BE
102
{ACAD_REACTORS
330
C
102
}
330
C
100
AcDbDictionary
281
     1
  0
DICTIONARY
  5
D
102
{ACAD_REACTORS
330
C
102
}
330
C
100
AcDbDictionary
281
     1
  0
DICTIONARY
  5
1A
102
{ACAD_REACTORS
330
C
102
}
330
C
100
AcDbDictionary
281
     1
  3
Layout1
350
1E
  3
Layout2
350
26
  3
Model
350
22
  0
DICTIONARY
  5
BD
102
{ACAD_REACTORS
330
C
102
}
330
C
100
AcDbDictionary
281
     1
  3
ByBlock
350
3BC
  3
ByLayer
350
3B4
  3
Global
350
3C4
  0
DICTIONARY
  5
3EF
102
{ACAD_REACTORS
330
C
102
}
330
C
100
AcDbDictionary
281
     1
  3
Standard
350
3F0
  0
DICTIONARY
  5
17
102
{ACAD_REACTORS
330
C
102
}
330
C
100
AcDbDictionary
281
     1
  3
Standard
350
18
  0
DICTIONARY
  5
19
102
{ACAD_REACTORS
330
C
102
}
330
C
100
AcDbDictionary
281
     1
  0
ACDBDICTIONARYWDFLT
  5
E
102
{ACAD_REACTORS
330
C
102
}
330
C
100
AcDbDictionary
281
     1
  3
Normal
350
F
100
AcDbDictionaryWithDefault
340
F
  0
DICTIONARY
  5
3DD
102
{ACAD_REACTORS
330
C
102
}
330
C
100
AcDbDictionary
281
     1
  3
A0
350
3DE
  3
A1
350
3DF
  3
A2
350
3E0
  3
A3
350
3E1
  3
A4
350
3E2
  3
A5
350
3E3
  3
A6
350
3E4
  3
A7
350
3E5
  3
A8
350
3E6
  3
A9
350
3E7
  3
B0
350
3E8
  3
B1
350
3E9
  3
B2
350
3EA
  3
B3
350
3EB
  3
B4
350
3EC
  3
B5
350
3ED
  3
B6
350
3EE
  0
DICTIONARY
  5
11A
102
{ACAD_REACTORS
330
C
102
}
330
C
100
AcDbDictionary
281
     1
  3
Standard
350
11B
  0
DICTIONARY
  5
3CC
102
{ACAD_REACTORS
330
C
102
}
330
C
100
AcDbDictionary
281
     1
  3
2dWireframe
350
3D2
  3
3D Hidden
350
3D4
  3
3dWireframe
350
3D3
  3
Basic
350
3D1
  3
Brighten
350
3D8
  3
ColorChange
350
3DC
  3
Conceptual
350
3D5
  3
Dim
350
3D7
  3
Facepattern
350
3DB
  3
Flat
350
3CD
  3
FlatWithEdges
350
3CE
  3
Gouraud
350
3CF
  3
GouraudWithEdges
350
3D0
  3
Linepattern
350
3DA
  3
Realistic
350
3D6
  3
Thicken
350
3D9
  0
XRECORD
  5
41D
102
{ACAD_REACTORS
330
C
102
}
330
C
100
AcDbXrecord
280
     1
 90
        1
330
11B
  0
DICTIONARY
  5
94
102
{ACAD_REACTORS
330
C
102
}
330
C
100
AcDbDictionary
281
     1
  3
CANNOSCALE
350
420
  3
CMLEADERSTYLE
350
41E
  3
CTABLESTYLE
350
138
  3
DIMASSOC
350
96
  3
INDEXCTL
350
95
  3
LAYEREVAL
350
422
  3
LAYERNOTIFY
350
423
  3
LIGHTINGUNITS
350
421
  3
MSLTSCALE
350
41F
  3
SORTENTS
350
801
  0
DICTIONARY
  5
5B
102
{ACAD_REACTORS
330
C
102
}
330
C
100
AcDbDictionary
281
     1
  3
AcmBOM
350
272
  3
AcmStdDictionary
350
61
  3
AMDTSECTSYM_ARROWCOLOR
350
123
  0
DICTIONARY
  5
70F
102
{ACAD_REACTORS
330
C
102
}
330
C
100
AcDbDictionary
281
     1
  0
DICTIONARY
  5
41
102
{ACAD_REACTORS
330
C
102
}
330
C
100
AcDbDictionary
281
     1
  0
DICTIONARY
  5
26B
102
{ACAD_REACTORS
330
C
102
}
330
C
100
AcDbDictionary
281
     1
  0
XRECORD
  5
D00
102
{ACAD_REACTORS
330
C
102
}
330
C
100
AcDbXrecord
280
     1
  1
DWGPROPS COOKIE
  2

  3

  4

  6

  7

  8
nlazaar
  9

300
AmdtFileType=84
301
=
302
=
303
=
304
=
305
=
306
=
307
=
308
=
309
=
 40
0.0866114814814815
 41
2455659.573352419
 42
2455665.45879728
  1

 90
        1
  0
DICTIONARY
  5
68E
102
{ACAD_REACTORS
330
68D
102
}
330
68D
100
AcDbDictionary
281
     1
  0
XRECORD
  5
7F8
102
{ACAD_REACTORS
330
7F7
102
}
330
7F7
100
AcDbXrecord
280
     1
290
     1
  0
XRECORD
  5
7F9
102
{ACAD_REACTORS
330
677
102
}
330
677
100
AcDbXrecord
280
     1
290
     1
  0
XRECORD
  5
7FA
102
{ACAD_REACTORS
330
679
102
}
330
679
100
AcDbXrecord
280
     1
290
     1
  0
XRECORD
  5
7FB
102
{ACAD_REACTORS
330
67C
102
}
330
67C
100
AcDbXrecord
280
     1
290
     1
  0
XRECORD
  5
7FC
102
{ACAD_REACTORS
330
67E
102
}
330
67E
100
AcDbXrecord
280
     1
290
     1
  0
XRECORD
  5
7FD
102
{ACAD_REACTORS
330
680
102
}
330
680
100
AcDbXrecord
280
     1
290
     1
  0
XRECORD
  5
7FE
102
{ACAD_REACTORS
330
682
102
}
330
682
100
AcDbXrecord
280
     1
290
     1
  0
XRECORD
  5
800
102
{ACAD_REACTORS
330
7FF
102
}
330
7FF
100
AcDbXrecord
280
     1
290
     1
  0
SORTENTSTABLE
  5
7F4
102
{ACAD_REACTORS
330
8F
102
}
330
8F
100
AcDbSortentsTable
330
1F
331
A9A
  5
AA9
331
AAC
  5
ABB
331
75F
  5
762
331
72C
  5
72D
331
AB6
  5
CB8
331
A83
  5
A92
331
736
  5
737
331
713
  5
713
331
CB4
  5
CC3
331
748
  5
749
331
7F5
  5
71F
331
A8D
  5
A9C
331
77E
  5
A84
331
76D
  5
781
331
CBE
  5
772
331
752
  5
754
331
A97
  5
AA6
331
CC8
  5
77E
331
AA9
  5
AB8
331
75C
  5
75F
331
729
  5
72A
331
776
  5
936
331
AB3
  5
CB5
331
A80
  5
A8F
331
733
  5
734
331
7F2
  5
A8C
331
745
  5
746
331
A8A
  5
A99
331
ABD
  5
CBF
331
77B
  5
A83
331
73D
  5
73E
331
CBB
  5
76F
331
74F
  5
751
331
A94
  5
AA3
331
761
  5
764
331
AA6
  5
AB5
331
789
  5
A8A
331
71C
  5
71C
331
CC5
  5
779
331
759
  5
75C
331
726
  5
727
331
A9E
  5
AAD
331
773
  5
7F3
331
AB0
  5
ABF
331
730
  5
731
331
742
  5
743
331
A87
  5
A96
331
ABA
  5
CBC
331
778
  5
A80
331
73A
  5
73B
331
717
  5
717
331
CB8
  5
CC7
331
A91
  5
AA0
331
AA3
  5
AB2
331
719
  5
719
331
CC2
  5
776
331
756
  5
759
331
723
  5
724
331
A9B
  5
AAA
331
770
  5
789
331
AAD
  5
ABC
331
72D
  5
72E
331
AB7
  5
CB9
331
A84
  5
A93
331
936
  5
A8D
331
737
  5
738
331
714
  5
714
331
CB5
  5
CC4
331
7F6
  5
74F
331
A8E
  5
A9D
331
77F
  5
A85
331
AA0
  5
AAF
331
76E
  5
783
331
CBF
  5
773
331
753
  5
755
331
720
  5
721
331
A98
  5
AA7
331
AAA
  5
AB9
331
75D
  5
760
331
72A
  5
72B
331
777
  5
9B2
331
AB4
  5
CB6
331
A81
  5
A90
331
734
  5
735
331
746
  5
747
331
7F3
  5
756
331
ABE
  5
CC0
331
A8B
  5
A9A
331
73E
  5
73F
331
76B
  5
77F
331
CBC
  5
770
331
750
  5
752
331
A95
  5
AA4
331
786
  5
A89
331
762
  5
765
331
AA7
  5
AB6
331
78A
  5
A8B
331
71D
  5
71D
331
CC6
  5
77A
331
75A
  5
75D
331
727
  5
728
331
A9F
  5
AAE
331
774
  5
7F5
331
AB1
  5
AC0
331
731
  5
732
331
743
  5
744
331
A88
  5
A97
331
ABB
  5
CBD
331
779
  5
A81
331
73B
  5
73C
331
CB9
  5
CC8
331
74D
  5
74E
331
A92
  5
AA1
331
783
  5
A88
331
AA4
  5
AB3
331
71A
  5
71A
331
CC3
  5
777
331
757
  5
75A
331
724
  5
725
331
A9C
  5
AAB
331
771
  5
78A
331
AAE
  5
ABD
331
AC0
  5
CC2
331
72E
  5
72F
331
740
  5
741
331
AB8
  5
CBA
331
A85
  5
A94
331
738
  5
739
331
715
  5
715
331
CB6
  5
CC5
331
74A
  5
74B
331
A8F
  5
A9E
331
780
  5
A86
331
AA1
  5
AB0
331
9B2
  5
A8E
331
76F
  5
786
331
721
  5
722
331
754
  5
757
331
A99
  5
AA8
331
AAB
  5
ABA
331
75E
  5
761
331
72B
  5
72C
331
AB5
  5
CB7
331
A82
  5
A91
331
735
  5
736
331
712
  5
712
331
747
  5
748
331
ABF
  5
CC1
331
A8C
  5
A9B
331
73F
  5
740
331
76C
  5
780
331
CBD
  5
771
331
751
  5
753
331
A96
  5
AA5
331
763
  5
766
331
AA8
  5
AB7
331
71E
  5
71E
331
CC7
  5
77B
331
75B
  5
75E
331
728
  5
729
331
775
  5
7F6
331
AB2
  5
CB4
331
732
  5
733
331
744
  5
745
331
A89
  5
A98
331
ABC
  5
CBE
331
77A
  5
A82
331
73C
  5
73D
331
CBA
  5
76E
331
769
  5
76C
331
A93
  5
AA2
331
760
  5
763
331
AA5
  5
AB4
331
71B
  5
71B
331
CC4
  5
778
331
758
  5
75B
331
725
  5
726
331
A9D
  5
AAC
331
772
  5
7F2
331
AAF
  5
ABE
331
72F
  5
730
331
741
  5
742
331
AB9
  5
CBB
331
A86
  5
A95
331
739
  5
73A
331
716
  5
716
331
CB7
  5
CC6
331
74B
  5
74C
331
A90
  5
A9F
331
781
  5
A87
331
AA2
  5
AB1
331
718
  5
718
331
CC1
  5
775
331
755
  5
758
331
722
  5
723
  0
DIMASSOC
  5
77D
102
{ACAD_REACTORS
330
77C
102
}
330
77C
100
AcDbDimAssoc
330
77B
 90
        3
 70
     0
 71
     0
  1
AcDbOsnapPointRef
 72
    13
331
777
 73
     0
 91
        0
 40
0.0
 10
0.0
 20
0.0
 30
2.000000000000000E+50
 75
     0
  1
AcDbOsnapPointRef
 72
     2
331
763
 73
     0
 91
        0
 40
0.0
 10
0.0
 20
0.0
 30
0.0
 75
     0
  0
DIMASSOC
  5
785
102
{ACAD_REACTORS
330
784
102
}
330
784
100
AcDbDimAssoc
330
783
 90
        1
 70
     0
 71
     0
  1
AcDbOsnapPointRef
 72
     1
331
714
 73
     0
 91
        0
 40
0.0
 10
0.0
 20
0.0
 30
2.000000000000000E+50
 75
     0
  0
DIMASSOC
  5
788
102
{ACAD_REACTORS
330
787
102
}
330
787
100
AcDbDimAssoc
330
786
 90
        1
 70
     0
 71
     0
  1
AcDbOsnapPointRef
 72
    13
331
71B
 73
     0
 91
        0
 40
0.0
 10
0.0
 20
0.0
 30
2.000000000000000E+50
 75
     0
  0
DIMASSOC
  5
9C0
102
{ACAD_REACTORS
330
9BF
102
}
330
9BF
100
AcDbDimAssoc
330
9B2
 90
        3
 70
     0
 71
     0
  1
AcDbOsnapPointRef
 72
     1
331
720
 73
     0
 91
        0
 40
0.0
 10
0.0
 20
0.0
 30
2.000000000000000E+50
 75
     0
  1
AcDbOsnapPointRef
 72
    13
331
936
 73
     0
 91
        0
 40
0.0
 10
0.0
 20
0.0
 30
2.000000000000000E+50
 75
     0
  0
XRECORD
  5
D02
102
{ACAD_REACTORS
330
D01
102
}
330
D01
100
AcDbXrecord
280
     1
 40
1.570796326794896
  0
XRECORD
  5
D04
102
{ACAD_REACTORS
330
D01
102
}
330
D01
100
AcDbXrecord
280
     1
340
14
  0
XRECORD
  5
D05
102
{ACAD_REACTORS
330
D01
102
}
330
D01
100
AcDbXrecord
280
     1
340
14
  0
XRECORD
  5
D03
102
{ACAD_REACTORS
330
D01
102
}
330
D01
100
AcDbXrecord
280
     1
340
14
  0
LAYOUT
  5
1E
102
{ACAD_XDICTIONARY
360
D06
102
}
102
{ACAD_REACTORS
330
1A
102
}
330
1A
100
AcDbPlotSettings
  1

  2

  4

  6

 40
0.0
 41
0.0
 42
0.0
 43
0.0
 44
0.0
 45
0.0
 46
0.0
 47
0.0
 48
0.0
 49
0.0
140
0.0
141
0.0
142
1.0
143
1.0
 70
   688
 72
     0
 73
     0
 74
     5
  7

 75
    16
147
1.0
148
0.0
149
0.0
100
AcDbLayout
  1
Layout1
 70
     1
 71
     1
 10
0.0
 20
0.0
 11
420.0
 21
297.0
 12
0.0
 22
0.0
 32
0.0
 14
1.000000000000000E+20
 24
1.000000000000000E+20
 34
1.000000000000000E+20
 15
-1.000000000000000E+20
 25
-1.000000000000000E+20
 35
-1.000000000000000E+20
146
0.0
 13
0.0
 23
0.0
 33
0.0
 16
1.0
 26
0.0
 36
0.0
 17
0.0
 27
1.0
 37
0.0
 76
     0
330
1B
  0
LAYOUT
  5
26
102
{ACAD_XDICTIONARY
360
D0A
102
}
102
{ACAD_REACTORS
330
1A
102
}
330
1A
100
AcDbPlotSettings
  1

  2

  4

  6

 40
0.0
 41
0.0
 42
0.0
 43
0.0
 44
0.0
 45
0.0
 46
0.0
 47
0.0
 48
0.0
 49
0.0
140
0.0
141
0.0
142
1.0
143
1.0
 70
   688
 72
     0
 73
     0
 74
     5
  7

 75
    16
147
1.0
148
0.0
149
0.0
100
AcDbLayout
  1
Layout2
 70
     1
 71
     2
 10
0.0
 20
0.0
 11
12.0
 21
9.0
 12
0.0
 22
0.0
 32
0.0
 14
0.0
 24
0.0
 34
0.0
 15
0.0
 25
0.0
 35
0.0
146
0.0
 13
0.0
 23
0.0
 33
0.0
 16
1.0
 26
0.0
 36
0.0
 17
0.0
 27
1.0
 37
0.0
 76
     0
330
23
  0
LAYOUT
  5
22
102
{ACAD_XDICTIONARY
360
D08
102
}
102
{ACAD_REACTORS
330
1A
102
}
330
1A
100
AcDbPlotSettings
  1

  2

  4

  6

 40
0.0
 41
0.0
 42
0.0
 43
0.0
 44
0.0
 45
0.0
 46
0.0
 47
0.0
 48
0.0
 49
0.0
140
0.0
141
0.0
142
1.0
143
1.0
 70
  1712
 72
     0
 73
     0
 74
     0
  7

 75
     0
147
1.0
148
0.0
149
0.0
100
AcDbLayout
  1
Model
 70
     1
 71
     0
 10
0.0
 20
0.0
 11
12.0
 21
9.0
 12
0.0
 22
0.0
 32
0.0
 14
0.0
 24
0.0
 34
0.0
 15
0.0
 25
0.0
 35
0.0
146
0.0
 13
0.0
 23
0.0
 33
0.0
 16
1.0
 26
0.0
 36
0.0
 17
0.0
 27
1.0
 37
0.0
 76
     0
330
1F
331
3B2
  0
MATERIAL
  5
3BC
102
{ACAD_XDICTIONARY
360
3BD
102
}
102
{ACAD_REACTORS
330
BD
102
}
330
BD
100
AcDbMaterial
  1
ByBlock
 72
     0
 43
0.0008202099737533
 43
0.0
 43
0.0
 43
0.0
 43
0.0
 43
0.0008202099737533
 43
0.0
 43
0.0
 43
0.0
 43
0.0
 43
1.0
 43
0.0
 43
0.0
 43
0.0
 43
0.0
 43
1.0
 77
     0
 47
0.0008202099737533
 47
0.0
 47
0.0
 47
0.0
 47
0.0
 47
0.0008202099737533
 47
0.0
 47
0.0
 47
0.0
 47
0.0
 47
1.0
 47
0.0
 47
0.0
 47
0.0
 47
0.0
 47
1.0
171
     0
 49
0.0008202099737533
 49
0.0
 49
0.0
 49
0.0
 49
0.0
 49
0.0008202099737533
 49
0.0
 49
0.0
 49
0.0
 49
0.0
 49
1.0
 49
0.0
 49
0.0
 49
0.0
 49
0.0
 49
1.0
175
     0
142
0.0008202099737533
142
0.0
142
0.0
142
0.0
142
0.0
142
0.0008202099737533
142
0.0
142
0.0
142
0.0
142
0.0
142
1.0
142
0.0
142
0.0
142
0.0
142
0.0
142
1.0
179
     0
144
0.0008202099737533
144
0.0
144
0.0
144
0.0
144
0.0
144
0.0008202099737533
144
0.0
144
0.0
144
0.0
144
0.0
144
1.0
144
0.0
144
0.0
144
0.0
144
0.0
144
1.0
147
0.0008202099737533
147
0.0
147
0.0
147
0.0
147
0.0
147
0.0008202099737533
147
0.0
147
0.0
147
0.0
147
0.0
147
1.0
147
0.0
147
0.0
147
0.0
147
0.0
147
1.0
  0
MATERIAL
  5
3B4
102
{ACAD_XDICTIONARY
360
3B5
102
}
102
{ACAD_REACTORS
330
BD
102
}
330
BD
100
AcDbMaterial
  1
ByLayer
 72
     0
 43
0.0008202099737533
 43
0.0
 43
0.0
 43
0.0
 43
0.0
 43
0.0008202099737533
 43
0.0
 43
0.0
 43
0.0
 43
0.0
 43
1.0
 43
0.0
 43
0.0
 43
0.0
 43
0.0
 43
1.0
 77
     0
 47
0.0008202099737533
 47
0.0
 47
0.0
 47
0.0
 47
0.0
 47
0.0008202099737533
 47
0.0
 47
0.0
 47
0.0
 47
0.0
 47
1.0
 47
0.0
 47
0.0
 47
0.0
 47
0.0
 47
1.0
171
     0
 49
0.0008202099737533
 49
0.0
 49
0.0
 49
0.0
 49
0.0
 49
0.0008202099737533
 49
0.0
 49
0.0
 49
0.0
 49
0.0
 49
1.0
 49
0.0
 49
0.0
 49
0.0
 49
0.0
 49
1.0
175
     0
142
0.0008202099737533
142
0.0
142
0.0
142
0.0
142
0.0
142
0.0008202099737533
142
0.0
142
0.0
142
0.0
142
0.0
142
1.0
142
0.0
142
0.0
142
0.0
142
0.0
142
1.0
179
     0
144
0.0008202099737533
144
0.0
144
0.0
144
0.0
144
0.0
144
0.0008202099737533
144
0.0
144
0.0
144
0.0
144
0.0
144
1.0
144
0.0
144
0.0
144
0.0
144
0.0
144
1.0
147
0.0008202099737533
147
0.0
147
0.0
147
0.0
147
0.0
147
0.0008202099737533
147
0.0
147
0.0
147
0.0
147
0.0
147
1.0
147
0.0
147
0.0
147
0.0
147
0.0
147
1.0
  0
MATERIAL
  5
3C4
102
{ACAD_XDICTIONARY
360
3C5
102
}
102
{ACAD_REACTORS
330
BD
102
}
330
BD
100
AcDbMaterial
  1
Global
 72
     0
 43
0.0008202099737533
 43
0.0
 43
0.0
 43
0.0
 43
0.0
 43
0.0008202099737533
 43
0.0
 43
0.0
 43
0.0
 43
0.0
 43
1.0
 43
0.0
 43
0.0
 43
0.0
 43
0.0
 43
1.0
 77
     0
 47
0.0008202099737533
 47
0.0
 47
0.0
 47
0.0
 47
0.0
 47
0.0008202099737533
 47
0.0
 47
0.0
 47
0.0
 47
0.0
 47
1.0
 47
0.0
 47
0.0
 47
0.0
 47
0.0
 47
1.0
171
     0
 49
0.0008202099737533
 49
0.0
 49
0.0
 49
0.0
 49
0.0
 49
0.0008202099737533
 49
0.0
 49
0.0
 49
0.0
 49
0.0
 49
1.0
 49
0.0
 49
0.0
 49
0.0
 49
0.0
 49
1.0
175
     0
142
0.0008202099737533
142
0.0
142
0.0
142
0.0
142
0.0
142
0.0008202099737533
142
0.0
142
0.0
142
0.0
142
0.0
142
1.0
142
0.0
142
0.0
142
0.0
142
0.0
142
1.0
179
     0
144
0.0008202099737533
144
0.0
144
0.0
144
0.0
144
0.0
144
0.0008202099737533
144
0.0
144
0.0
144
0.0
144
0.0
144
1.0
144
0.0
144
0.0
144
0.0
144
0.0
144
1.0
147
0.0008202099737533
147
0.0
147
0.0
147
0.0
147
0.0
147
0.0008202099737533
147
0.0
147
0.0
147
0.0
147
0.0
147
1.0
147
0.0
147
0.0
147
0.0
147
0.0
147
1.0
  0
MLEADERSTYLE
  5
3F0
102
{ACAD_REACTORS
330
3EF
102
}
330
3EF
100
AcDbMLeaderStyle
170
     2
171
     1
172
     0
 90
        2
 40
0.0
 41
0.0
173
     1
 91
-1056964608
340
14
 92
       -2
290
     1
 42
2.0
291
     1
 43
0.36
  3
Standard
 44
4.0
300

342
11
174
     1
178
     6
175
     1
176
     0
 93
-1056964608
 45
4.0
292
     0
297
     0
 46
4.0
 94
-1056964608
 47
1.0
 49
1.0
140
1.0
293
     1
141
0.0
294
     1
177
     0
142
1.0
295
     0
296
     0
143
0.125
1001
ACAD_MLEADERVER
1070
     2
  0
MLINESTYLE
  5
18
102
{ACAD_REACTORS
330
17
102
}
330
17
100
AcDbMlineStyle
  2
STANDARD
 70
     0
  3

 62
   256
 51
90.0
 52
90.0
 71
     2
 49
0.5
 62
   256
  6
BYLAYER
 49
-0.5
 62
   256
  6
BYLAYER
  0
ACDBPLACEHOLDER
  5
F
102
{ACAD_REACTORS
330
E
102
}
330
E
  0
SCALE
  5
3DE
102
{ACAD_REACTORS
330
3DD
102
}
330
3DD
100
AcDbScale
 70
     0
300
1:1
140
1.0
141
1.0
290
     1
  0
SCALE
  5
3DF
102
{ACAD_REACTORS
330
3DD
102
}
330
3DD
100
AcDbScale
 70
     0
300
1:2
140
1.0
141
2.0
290
     0
  0
SCALE
  5
3E0
102
{ACAD_REACTORS
330
3DD
102
}
330
3DD
100
AcDbScale
 70
     0
300
1:4
140
1.0
141
4.0
290
     0
  0
SCALE
  5
3E1
102
{ACAD_REACTORS
330
3DD
102
}
330
3DD
100
AcDbScale
 70
     0
300
1:5
140
1.0
141
5.0
290
     0
  0
SCALE
  5
3E2
102
{ACAD_REACTORS
330
3DD
102
}
330
3DD
100
AcDbScale
 70
     0
300
1:8
140
1.0
141
8.0
290
     0
  0
SCALE
  5
3E3
102
{ACAD_REACTORS
330
3DD
102
}
330
3DD
100
AcDbScale
 70
     0
300
1:10
140
1.0
141
10.0
290
     0
  0
SCALE
  5
3E4
102
{ACAD_REACTORS
330
3DD
102
}
330
3DD
100
AcDbScale
 70
     0
300
1:16
140
1.0
141
16.0
290
     0
  0
SCALE
  5
3E5
102
{ACAD_REACTORS
330
3DD
102
}
330
3DD
100
AcDbScale
 70
     0
300
1:20
140
1.0
141
20.0
290
     0
  0
SCALE
  5
3E6
102
{ACAD_REACTORS
330
3DD
102
}
330
3DD
100
AcDbScale
 70
     0
300
1:30
140
1.0
141
30.0
290
     0
  0
SCALE
  5
3E7
102
{ACAD_REACTORS
330
3DD
102
}
330
3DD
100
AcDbScale
 70
     0
300
1:40
140
1.0
141
40.0
290
     0
  0
SCALE
  5
3E8
102
{ACAD_REACTORS
330
3DD
102
}
330
3DD
100
AcDbScale
 70
     0
300
1:50
140
1.0
141
50.0
290
     0
  0
SCALE
  5
3E9
102
{ACAD_REACTORS
330
3DD
102
}
330
3DD
100
AcDbScale
 70
     0
300
1:100
140
1.0
141
100.0
290
     0
  0
SCALE
  5
3EA
102
{ACAD_REACTORS
330
3DD
102
}
330
3DD
100
AcDbScale
 70
     0
300
2:1
140
2.0
141
1.0
290
     0
  0
SCALE
  5
3EB
102
{ACAD_REACTORS
330
3DD
102
}
330
3DD
100
AcDbScale
 70
     0
300
4:1
140
4.0
141
1.0
290
     0
  0
SCALE
  5
3EC
102
{ACAD_REACTORS
330
3DD
102
}
330
3DD
100
AcDbScale
 70
     0
300
8:1
140
8.0
141
1.0
290
     0
  0
SCALE
  5
3ED
102
{ACAD_REACTORS
330
3DD
102
}
330
3DD
100
AcDbScale
 70
     0
300
10:1
140
10.0
141
1.0
290
     0
  0
SCALE
  5
3EE
102
{ACAD_REACTORS
330
3DD
102
}
330
3DD
100
AcDbScale
 70
     0
300
100:1
140
100.0
141
1.0
290
     0
  0
TABLESTYLE
  5
11B
102
{ACAD_XDICTIONARY
360
41B
102
}
102
{ACAD_REACTORS
330
11A
102
}
330
11A
100
AcDbTableStyle
  3
Standard
 70
     0
 71
     0
 40
1.5
 41
1.5
280
     0
281
     0
  7
STANDARD
140
4.5
170
     2
 62
     0
 63
     7
283
     0
274
    -2
284
     1
 64
     0
275
    -2
285
     1
 65
     0
276
    -2
286
     1
 66
     0
277
    -2
287
     1
 67
     0
278
    -2
288
     1
 68
     0
279
    -2
289
     1
 69
     0
  7
STANDARD
140
6.0
170
     5
 62
     0
 63
     7
283
     0
274
    -2
284
     1
 64
     0
275
    -2
285
     1
 65
     0
276
    -2
286
     1
 66
     0
277
    -2
287
     1
 67
     0
278
    -2
288
     1
 68
     0
279
    -2
289
     1
 69
     0
  7
STANDARD
140
4.5
170
     5
 62
     0
 63
     7
283
     0
274
    -2
284
     1
 64
     0
275
    -2
285
     1
 65
     0
276
    -2
286
     1
 66
     0
277
    -2
287
     1
 67
     0
278
    -2
288
     1
 68
     0
279
    -2
289
     1
 69
     0
  0
VISUALSTYLE
  5
3D2
102
{ACAD_REACTORS
330
3CC
102
}
330
3CC
100
AcDbVisualStyle
  2
2dWireframe
 70
     4
 71
     0
 72
     2
 73
     0
 90
        0
 40
-0.6
 41
-30.0
 62
     5
 63
     7
 74
     1
 91
        4
 64
     7
 65
   257
 75
     1
175
     1
 42
1.0
 92
        0
 66
   257
 43
1.0
 76
     1
 77
     6
 78
     2
 67
     7
 79
     5
170
     0
171
     0
290
     0
174
     0
 93
        1
 44
0.0
173
     0
291
     0
 45
0.0
1001
ACAD
1000
AcDbSavedByObjectVersion
1070
     0
1000
AcDbSavedByObjectVersion
1070
     0
1000
AcDbSavedByObjectVersion
1070
     0
1000
AcDbSavedByObjectVersion
1070
     0
  0
VISUALSTYLE
  5
3D4
102
{ACAD_REACTORS
330
3CC
102
}
330
3CC
100
AcDbVisualStyle
  2
3D Hidden
 70
     6
 71
     1
 72
     2
 73
     2
 90
        0
 40
-0.6
 41
-30.0
 62
     5
 63
     7
 74
     2
 91
        2
 64
     7
 65
   257
 75
     2
175
     1
 42
40.0
 92
        0
 66
   257
 43
1.0
 76
     1
 77
     6
 78
     2
 67
     7
 79
     3
170
     0
171
     0
290
     0
174
     0
 93
        1
 44
0.0
173
     0
291
     0
 45
0.0
1001
ACAD
1000
AcDbSavedByObjectVersion
1070
     0
1000
AcDbSavedByObjectVersion
1070
     0
1000
AcDbSavedByObjectVersion
1070
     0
1000
AcDbSavedByObjectVersion
1070
     0
  0
VISUALSTYLE
  5
3D3
102
{ACAD_REACTORS
330
3CC
102
}
330
3CC
100
AcDbVisualStyle
  2
3dWireframe
 70
     5
 71
     0
 72
     2
 73
     0
 90
        0
 40
-0.6
 41
-30.0
 62
     5
 63
     7
 74
     1
 91
        4
 64
     7
 65
   257
 75
     1
175
     1
 42
1.0
 92
        0
 66
   257
 43
1.0
 76
     1
 77
     6
 78
     2
 67
     7
 79
     5
170
     0
171
     0
290
     0
174
     0
 93
        1
 44
0.0
173
     0
291
     0
 45
0.0
1001
ACAD
1000
AcDbSavedByObjectVersion
1070
     0
1000
AcDbSavedByObjectVersion
1070
     0
1000
AcDbSavedByObjectVersion
1070
     0
1000
AcDbSavedByObjectVersion
1070
     0
  0
VISUALSTYLE
  5
3D1
102
{ACAD_REACTORS
330
3CC
102
}
330
3CC
100
AcDbVisualStyle
  2
Basic
 70
     7
 71
     1
 72
     0
 73
     1
 90
        0
 40
-0.6
 41
-30.0
 62
     5
 63
     7
 74
     0
 91
        4
 64
     7
 65
   257
 75
     1
175
     1
 42
1.0
 92
        8
 66
     7
 43
1.0
 76
     1
 77
     6
 78
     2
 67
     7
 79
     5
170
     0
171
     0
290
     0
174
     0
 93
        1
 44
0.0
173
     0
291
     1
 45
0.0
1001
ACAD
1000
AcDbSavedByObjectVersion
1070
     0
1000
AcDbSavedByObjectVersion
1070
     0
1000
AcDbSavedByObjectVersion
1070
     0
1000
AcDbSavedByObjectVersion
1070
     0
  0
VISUALSTYLE
  5
3D8
102
{ACAD_REACTORS
330
3CC
102
}
330
3CC
100
AcDbVisualStyle
  2
Brighten
 70
    12
 71
     2
 72
     2
 73
     0
 90
        0
 40
-0.6
 41
-30.0
 62
     5
 63
     7
 74
     1
 91
        4
 64
     7
 65
   257
 75
     1
175
     1
 42
1.0
 92
        8
 66
     7
 43
1.0
 76
     1
 77
     6
 78
     2
 67
     7
 79
     5
170
     0
171
     0
290
     0
174
     0
 93
        1
 44
50.0
173
     0
291
     1
 45
0.0
1001
ACAD
1000
AcDbSavedByObjectVersion
1070
     0
1000
AcDbSavedByObjectVersion
1070
     0
1000
AcDbSavedByObjectVersion
1070
     0
1000
AcDbSavedByObjectVersion
1070
     0
  0
VISUALSTYLE
  5
3DC
102
{ACAD_REACTORS
330
3CC
102
}
330
3CC
100
AcDbVisualStyle
  2
ColorChange
 70
    16
 71
     2
 72
     2
 73
     3
 90
        0
 40
-0.6
 41
-30.0
 62
     5
 63
     8
 74
     1
 91
        4
 64
     7
 65
   257
 75
     1
175
     1
 42
1.0
 92
        8
 66
     8
 43
1.0
 76
     1
 77
     6
 78
     2
 67
     7
 79
     5
170
     0
171
     0
290
     0
174
     0
 93
        1
 44
0.0
173
     0
291
     1
 45
0.0
1001
ACAD
1000
AcDbSavedByObjectVersion
1070
     0
1000
AcDbSavedByObjectVersion
1070
     0
1000
AcDbSavedByObjectVersion
1070
     0
1000
AcDbSavedByObjectVersion
1070
     0
  0
VISUALSTYLE
  5
3D5
102
{ACAD_REACTORS
330
3CC
102
}
330
3CC
100
AcDbVisualStyle
  2
Conceptual
 70
     9
 71
     3
 72
     2
 73
     0
 90
        0
 40
-0.6
 41
-30.0
 62
     5
 63
     7
 74
     2
 91
        2
 64
     7
 65
   257
 75
     1
175
     1
 42
40.0
 92
        8
 66
     7
 43
1.0
 76
     1
 77
     6
 78
     2
 67
     7
 79
     3
170
     0
171
     0
290
     0
174
     0
 93
        1
 44
0.0
173
     0
291
     0
 45
0.0
1001
ACAD
1000
AcDbSavedByObjectVersion
1070
     0
1000
AcDbSavedByObjectVersion
1070
     0
1000
AcDbSavedByObjectVersion
1070
     0
1000
AcDbSavedByObjectVersion
1070
     0
  0
VISUALSTYLE
  5
3D7
102
{ACAD_REACTORS
330
3CC
102
}
330
3CC
100
AcDbVisualStyle
  2
Dim
 70
    11
 71
     2
 72
     2
 73
     0
 90
        0
 40
-0.6
 41
-30.0
 62
     5
 63
     7
 74
     1
 91
        4
 64
     7
 65
   257
 75
     1
175
     1
 42
1.0
 92
        8
 66
     7
 43
1.0
 76
     1
 77
     6
 78
     2
 67
     7
 79
     5
170
     0
171
     0
290
     0
174
     0
 93
        1
 44
-50.0
173
     0
291
     1
 45
0.0
1001
ACAD
1000
AcDbSavedByObjectVersion
1070
     0
1000
AcDbSavedByObjectVersion
1070
     0
1000
AcDbSavedByObjectVersion
1070
     0
1000
AcDbSavedByObjectVersion
1070
     0
  0
VISUALSTYLE
  5
3DB
102
{ACAD_REACTORS
330
3CC
102
}
330
3CC
100
AcDbVisualStyle
  2
Facepattern
 70
    15
 71
     2
 72
     2
 73
     0
 90
        0
 40
-0.6
 41
-30.0
 62
     5
 63
     7
 74
     1
 91
        4
 64
     7
 65
   257
 75
     1
175
     1
 42
1.0
 92
        8
 66
     7
 43
1.0
 76
     1
 77
     6
 78
     2
 67
     7
 79
     5
170
     0
171
     0
290
     0
174
     0
 93
        1
 44
0.0
173
     0
291
     1
 45
0.0
1001
ACAD
1000
AcDbSavedByObjectVersion
1070
     0
1000
AcDbSavedByObjectVersion
1070
     0
1000
AcDbSavedByObjectVersion
1070
     0
1000
AcDbSavedByObjectVersion
1070
     0
  0
VISUALSTYLE
  5
3CD
102
{ACAD_REACTORS
330
3CC
102
}
330
3CC
100
AcDbVisualStyle
  2
Flat
 70
     0
 71
     2
 72
     1
 73
     1
 90
        2
 40
-0.6
 41
30.0
 62
     5
 63
     7
 74
     0
 91
        4
 64
     7
 65
   257
 75
     1
175
     1
 42
1.0
 92
        8
 66
     7
 43
1.0
 76
     1
 77
     6
 78
     2
 67
     7
 79
     5
170
     0
171
     0
290
     0
174
     0
 93
       13
 44
0.0
173
     0
291
     1
 45
0.0
1001
ACAD
1000
AcDbSavedByObjectVersion
1070
     0
1000
AcDbSavedByObjectVersion
1070
     0
1000
AcDbSavedByObjectVersion
1070
     0
1000
AcDbSavedByObjectVersion
1070
     0
  0
VISUALSTYLE
  5
3CE
102
{ACAD_REACTORS
330
3CC
102
}
330
3CC
100
AcDbVisualStyle
  2
FlatWithEdges
 70
     1
 71
     2
 72
     1
 73
     1
 90
        2
 40
-0.6
 41
30.0
 62
     5
 63
     7
 74
     1
 91
        4
 64
     7
 65
   257
 75
     1
175
     1
 42
1.0
 92
        0
 66
   257
 43
1.0
 76
     1
 77
     6
 78
     2
 67
     7
 79
     5
170
     0
171
     0
290
     0
174
     0
 93
       13
 44
0.0
173
     0
291
     1
 45
0.0
1001
ACAD
1000
AcDbSavedByObjectVersion
1070
     0
1000
AcDbSavedByObjectVersion
1070
     0
1000
AcDbSavedByObjectVersion
1070
     0
1000
AcDbSavedByObjectVersion
1070
     0
  0
VISUALSTYLE
  5
3CF
102
{ACAD_REACTORS
330
3CC
102
}
330
3CC
100
AcDbVisualStyle
  2
Gouraud
 70
     2
 71
     2
 72
     2
 73
     1
 90
        2
 40
-0.6
 41
30.0
 62
     5
 63
     7
 74
     0
 91
        4
 64
     7
 65
   257
 75
     1
175
     1
 42
1.0
 92
        0
 66
     7
 43
1.0
 76
     1
 77
     6
 78
     2
 67
     7
 79
     5
170
     0
171
     0
290
     0
174
     0
 93
       13
 44
0.0
173
     0
291
     1
 45
0.0
1001
ACAD
1000
AcDbSavedByObjectVersion
1070
     0
1000
AcDbSavedByObjectVersion
1070
     0
1000
AcDbSavedByObjectVersion
1070
     0
1000
AcDbSavedByObjectVersion
1070
     0
  0
VISUALSTYLE
  5
3D0
102
{ACAD_REACTORS
330
3CC
102
}
330
3CC
100
AcDbVisualStyle
  2
GouraudWithEdges
 70
     3
 71
     2
 72
     2
 73
     1
 90
        2
 40
-0.6
 41
30.0
 62
     5
 63
     7
 74
     1
 91
        4
 64
     7
 65
   257
 75
     1
175
     1
 42
1.0
 92
        0
 66
   257
 43
1.0
 76
     1
 77
     6
 78
     2
 67
     7
 79
     5
170
     0
171
     0
290
     0
174
     0
 93
       13
 44
0.0
173
     0
291
     1
 45
0.0
1001
ACAD
1000
AcDbSavedByObjectVersion
1070
     0
1000
AcDbSavedByObjectVersion
1070
     0
1000
AcDbSavedByObjectVersion
1070
     0
1000
AcDbSavedByObjectVersion
1070
     0
  0
VISUALSTYLE
  5
3DA
102
{ACAD_REACTORS
330
3CC
102
}
330
3CC
100
AcDbVisualStyle
  2
Linepattern
 70
    14
 71
     2
 72
     2
 73
     0
 90
        0
 40
-0.6
 41
-30.0
 62
     5
 63
     7
 74
     1
 91
        4
 64
     7
 65
   257
 75
     7
175
     7
 42
1.0
 92
        8
 66
     7
 43
1.0
 76
     1
 77
     6
 78
     2
 67
     7
 79
     5
170
     0
171
     0
290
     0
174
     0
 93
        1
 44
0.0
173
     0
291
     1
 45
0.0
1001
ACAD
1000
AcDbSavedByObjectVersion
1070
     0
1000
AcDbSavedByObjectVersion
1070
     0
1000
AcDbSavedByObjectVersion
1070
     0
1000
AcDbSavedByObjectVersion
1070
     0
  0
VISUALSTYLE
  5
3D6
102
{ACAD_REACTORS
330
3CC
102
}
330
3CC
100
AcDbVisualStyle
  2
Realistic
 70
     8
 71
     2
 72
     2
 73
     0
 90
        0
 40
-0.6
 41
-30.0
 62
     5
 63
     7
 74
     1
 91
        0
 64
     7
 65
   257
 75
     1
175
     1
 42
1.0
 92
        8
 66
     8
 43
1.0
 76
     1
 77
     6
 78
     2
 67
     7
 79
     5
170
     0
171
     0
290
     0
174
     0
 93
       13
 44
0.0
173
     0
291
     0
 45
0.0
1001
ACAD
1000
AcDbSavedByObjectVersion
1070
     0
1000
AcDbSavedByObjectVersion
1070
     0
1000
AcDbSavedByObjectVersion
1070
     0
1000
AcDbSavedByObjectVersion
1070
     0
  0
VISUALSTYLE
  5
3D9
102
{ACAD_REACTORS
330
3CC
102
}
330
3CC
100
AcDbVisualStyle
  2
Thicken
 70
    13
 71
     2
 72
     2
 73
     0
 90
        0
 40
-0.6
 41
-30.0
 62
     5
 63
     7
 74
     1
 91
        4
 64
     7
 65
   257
 75
     1
175
     1
 42
1.0
 92
       12
 66
     7
 43
1.0
 76
     1
 77
     6
 78
     2
 67
     7
 79
     5
170
     0
171
     0
290
     0
174
     0
 93
        1
 44
0.0
173
     0
291
     1
 45
0.0
1001
ACAD
1000
AcDbSavedByObjectVersion
1070
     0
1000
AcDbSavedByObjectVersion
1070
     0
1000
AcDbSavedByObjectVersion
1070
     0
1000
AcDbSavedByObjectVersion
1070
     0
  0
DICTIONARYVAR
  5
420
102
{ACAD_REACTORS
330
94
102
}
330
94
100
DictionaryVariables
280
     0
  1
1:1
  0
DICTIONARYVAR
  5
41E
102
{ACAD_REACTORS
330
94
102
}
330
94
100
DictionaryVariables
280
     0
  1
STANDARD
  0
DICTIONARYVAR
  5
138
102
{ACAD_REACTORS
330
94
102
}
330
94
100
DictionaryVariables
280
     0
  1
STANDARD
  0
DICTIONARYVAR
  5
96
102
{ACAD_REACTORS
330
94
102
}
330
94
100
DictionaryVariables
280
     0
  1
2
  0
DICTIONARYVAR
  5
95
102
{ACAD_REACTORS
330
94
102
}
330
94
100
DictionaryVariables
280
     0
  1
0
  0
DICTIONARYVAR
  5
422
102
{ACAD_REACTORS
330
94
102
}
330
94
100
DictionaryVariables
280
     0
  1
1
  0
DICTIONARYVAR
  5
423
102
{ACAD_REACTORS
330
94
102
}
330
94
100
DictionaryVariables
280
     0
  1
15
  0
DICTIONARYVAR
  5
421
102
{ACAD_REACTORS
330
94
102
}
330
94
100
DictionaryVariables
280
     0
  1
0
  0
DICTIONARYVAR
  5
41F
102
{ACAD_REACTORS
330
94
102
}
330
94
100
DictionaryVariables
280
     0
  1
0
  0
DICTIONARYVAR
  5
801
102
{ACAD_REACTORS
330
94
102
}
330
94
100
DictionaryVariables
280
     0
  1
127
  0
DICTIONARY
  5
272
102
{ACAD_REACTORS
330
5B
102
}
330
5B
100
AcDbDictionary
281
     1
  0
DICTIONARY
  5
61
102
{ACAD_REACTORS
330
5B
102
}
330
5B
100
AcDbDictionary
281
     1
  0
XRECORD
  5
123
102
{ACAD_REACTORS
330
5B
102
}
330
5B
100
AcDbXrecord
280
     1
 90
-1023410169
  0
DICTIONARY
  5
D06
330
1E
100
AcDbDictionary
280
     1
281
     1
  3
ACAD_XREC_ROUNDTRIP
360
D07
  0
DICTIONARY
  5
D0A
330
26
100
AcDbDictionary
280
     1
281
     1
  3
ACAD_XREC_ROUNDTRIP
360
D0B
  0
DICTIONARY
  5
D08
330
22
100
AcDbDictionary
280
     1
281
     1
  3
ACAD_XREC_ROUNDTRIP
360
D09
  0
DICTIONARY
  5
3BD
330
3BC
100
AcDbDictionary
280
     1
281
     1
  3
ACAD_XREC_ROUNDTRIP
360
80E
  3
BUMPTILE
360
3BF
  3
DIFFUSETILE
360
3BE
  3
OPACITYTILE
360
3C2
  3
REFLECTIONTILE
360
3C1
  3
REFRACTIONTILE
360
3C3
  3
SPECULARTILE
360
3C0
  0
DICTIONARY
  5
3B5
330
3B4
100
AcDbDictionary
280
     1
281
     1
  3
ACAD_XREC_ROUNDTRIP
360
80D
  3
BUMPTILE
360
3B7
  3
DIFFUSETILE
360
3B6
  3
OPACITYTILE
360
3BA
  3
REFLECTIONTILE
360
3B9
  3
REFRACTIONTILE
360
3BB
  3
SPECULARTILE
360
3B8
  0
DICTIONARY
  5
3C5
330
3C4
100
AcDbDictionary
280
     1
281
     1
  3
ACAD_XREC_ROUNDTRIP
360
80F
  3
BUMPTILE
360
3C7
  3
DIFFUSETILE
360
3C6
  3
OPACITYTILE
360
3CA
  3
REFLECTIONTILE
360
3C9
  3
REFRACTIONTILE
360
3CB
  3
SPECULARTILE
360
3C8
  0
DICTIONARY
  5
41B
330
11B
100
AcDbDictionary
280
     1
281
     1
  3
ACAD_ROUNDTRIP_2008_TABLESTYLE_CELLSTYLEMAP
360
CFF
  3
ACAD_XREC_ROUNDTRIP
360
D0C
  0
XRECORD
  5
D07
102
{ACAD_REACTORS
330
D06
102
}
330
D06
100
AcDbXrecord
280
     1
102
SHADEPLOT
 70
     0
102
SHADEPLOTRESLEVEL
 70
     2
102
SHADEPLOTCUSTOMDPI
 70
   300
  0
XRECORD
  5
D0B
102
{ACAD_REACTORS
330
D0A
102
}
330
D0A
100
AcDbXrecord
280
     1
102
SHADEPLOT
 70
     0
102
SHADEPLOTRESLEVEL
 70
     2
102
SHADEPLOTCUSTOMDPI
 70
   300
  0
XRECORD
  5
D09
102
{ACAD_REACTORS
330
D08
102
}
330
D08
100
AcDbXrecord
280
     1
102
SHADEPLOT
 70
     0
102
SHADEPLOTRESLEVEL
 70
     2
102
SHADEPLOTCUSTOMDPI
 70
   300
  0
XRECORD
  5
80E
102
{ACAD_REACTORS
330
3BD
102
}
330
3BD
100
AcDbXrecord
280
     1
102
MATERIAL
148
0.0
149
0.0
149
0.0
 93
        0
 94
      127
282
     0
 72
     0
 77
     0
171
     0
175
     0
179
     0
273
     0
  0
XRECORD
  5
3BF
102
{ACAD_REACTORS
330
3BD
102
}
330
3BD
100
AcDbXrecord
280
     1
270
     1
271
     1
  0
XRECORD
  5
3BE
102
{ACAD_REACTORS
330
3BD
102
}
330
3BD
100
AcDbXrecord
280
     1
270
     1
271
     1
  0
XRECORD
  5
3C2
102
{ACAD_REACTORS
330
3BD
102
}
330
3BD
100
AcDbXrecord
280
     1
270
     1
271
     1
  0
XRECORD
  5
3C1
102
{ACAD_REACTORS
330
3BD
102
}
330
3BD
100
AcDbXrecord
280
     1
270
     1
271
     1
  0
XRECORD
  5
3C3
102
{ACAD_REACTORS
330
3BD
102
}
330
3BD
100
AcDbXrecord
280
     1
270
     1
271
     1
  0
XRECORD
  5
3C0
102
{ACAD_REACTORS
330
3BD
102
}
330
3BD
100
AcDbXrecord
280
     1
270
     1
271
     1
  0
XRECORD
  5
80D
102
{ACAD_REACTORS
330
3B5
102
}
330
3B5
100
AcDbXrecord
280
     1
102
MATERIAL
148
0.0
149
0.0
149
0.0
 93
        0
 94
      127
282
     0
 72
     0
 77
     0
171
     0
175
     0
179
     0
273
     0
  0
XRECORD
  5
3B7
102
{ACAD_REACTORS
330
3B5
102
}
330
3B5
100
AcDbXrecord
280
     1
270
     1
271
     1
  0
XRECORD
  5
3B6
102
{ACAD_REACTORS
330
3B5
102
}
330
3B5
100
AcDbXrecord
280
     1
270
     1
271
     1
  0
XRECORD
  5
3BA
102
{ACAD_REACTORS
330
3B5
102
}
330
3B5
100
AcDbXrecord
280
     1
270
     1
271
     1
  0
XRECORD
  5
3B9
102
{ACAD_REACTORS
330
3B5
102
}
330
3B5
100
AcDbXrecord
280
     1
270
     1
271
     1
  0
XRECORD
  5
3BB
102
{ACAD_REACTORS
330
3B5
102
}
330
3B5
100
AcDbXrecord
280
     1
270
     1
271
     1
  0
XRECORD
  5
3B8
102
{ACAD_REACTORS
330
3B5
102
}
330
3B5
100
AcDbXrecord
280
     1
270
     1
271
     1
  0
XRECORD
  5
80F
102
{ACAD_REACTORS
330
3C5
102
}
330
3C5
100
AcDbXrecord
280
     1
102
MATERIAL
148
0.0
149
0.0
149
0.0
 93
        0
 94
      127
282
     0
 72
     0
 77
     0
171
     0
175
     0
179
     0
273
     0
  0
XRECORD
  5
3C7
102
{ACAD_REACTORS
330
3C5
102
}
330
3C5
100
AcDbXrecord
280
     1
270
     1
271
     1
  0
XRECORD
  5
3C6
102
{ACAD_REACTORS
330
3C5
102
}
330
3C5
100
AcDbXrecord
280
     1
270
     1
271
     1
  0
XRECORD
  5
3CA
102
{ACAD_REACTORS
330
3C5
102
}
330
3C5
100
AcDbXrecord
280
     1
270
     1
271
     1
  0
XRECORD
  5
3C9
102
{ACAD_REACTORS
330
3C5
102
}
330
3C5
100
AcDbXrecord
280
     1
270
     1
271
     1
  0
XRECORD
  5
3CB
102
{ACAD_REACTORS
330
3C5
102
}
330
3C5
100
AcDbXrecord
280
     1
270
     1
271
     1
  0
XRECORD
  5
3C8
102
{ACAD_REACTORS
330
3C5
102
}
330
3C5
100
AcDbXrecord
280
     1
270
     1
271
     1
  0
CELLSTYLEMAP
  5
CFF
102
{ACAD_REACTORS
330
41B
102
}
330
41B
100
AcDbCellStyleMap
 90
        3
300
CELLSTYLE
  1
TABLEFORMAT_BEGIN
 90
        5
170
     1
 91
        0
 92
    32768
 62
   257
 93
        1
300
CONTENTFORMAT
  1
CONTENTFORMAT_BEGIN
 90
        0
 91
        0
 92
        4
 93
        0
300

 40
0.0
140
1.0
 94
        5
 62
     0
340
11
144
6.0
309
CONTENTFORMAT_END
171
     1
301
MARGIN
  1
CELLMARGIN_BEGIN
 40
1.5
 40
1.5
 40
1.5
 40
1.5
 40
0.18
 40
0.18
309
CELLMARGIN_END
 94
        6
 95
        1
302
GRIDFORMAT
  1
GRIDFORMAT_BEGIN
 90
        0
 91
        1
 62
     0
 92
       -2
340
0
 93
        0
 40
0.045
309
GRIDFORMAT_END
 95
        2
302
GRIDFORMAT
  1
GRIDFORMAT_BEGIN
 90
        0
 91
        1
 62
     0
 92
       -2
340
0
 93
        0
 40
0.045
309
GRIDFORMAT_END
 95
        4
302
GRIDFORMAT
  1
GRIDFORMAT_BEGIN
 90
        0
 91
        1
 62
     0
 92
       -2
340
0
 93
        0
 40
0.045
309
GRIDFORMAT_END
 95
        8
302
GRIDFORMAT
  1
GRIDFORMAT_BEGIN
 90
        0
 91
        1
 62
     0
 92
       -2
340
0
 93
        0
 40
0.045
309
GRIDFORMAT_END
 95
       16
302
GRIDFORMAT
  1
GRIDFORMAT_BEGIN
 90
        0
 91
        1
 62
     0
 92
       -2
340
0
 93
        0
 40
0.045
309
GRIDFORMAT_END
 95
       32
302
GRIDFORMAT
  1
GRIDFORMAT_BEGIN
 90
        0
 91
        1
 62
     0
 92
       -2
340
0
 93
        0
 40
0.045
309
GRIDFORMAT_END
309
TABLEFORMAT_END
  1
CELLSTYLE_BEGIN
 90
        1
 91
        1
300
_TITLE
309
CELLSTYLE_END
300
CELLSTYLE
  1
TABLEFORMAT_BEGIN
 90
        5
170
     1
 91
        0
 92
        0
 62
   257
 93
        1
300
CONTENTFORMAT
  1
CONTENTFORMAT_BEGIN
 90
        0
 91
        0
 92
        4
 93
        0
300

 40
0.0
140
1.0
 94
        5
 62
     0
340
11
144
4.5
309
CONTENTFORMAT_END
171
     1
301
MARGIN
  1
CELLMARGIN_BEGIN
 40
1.5
 40
1.5
 40
1.5
 40
1.5
 40
0.18
 40
0.18
309
CELLMARGIN_END
 94
        6
 95
        1
302
GRIDFORMAT
  1
GRIDFORMAT_BEGIN
 90
        0
 91
        1
 62
     0
 92
       -2
340
0
 93
        0
 40
0.045
309
GRIDFORMAT_END
 95
        2
302
GRIDFORMAT
  1
GRIDFORMAT_BEGIN
 90
        0
 91
        1
 62
     0
 92
       -2
340
0
 93
        0
 40
0.045
309
GRIDFORMAT_END
 95
        4
302
GRIDFORMAT
  1
GRIDFORMAT_BEGIN
 90
        0
 91
        1
 62
     0
 92
       -2
340
0
 93
        0
 40
0.045
309
GRIDFORMAT_END
 95
        8
302
GRIDFORMAT
  1
GRIDFORMAT_BEGIN
 90
        0
 91
        1
 62
     0
 92
       -2
340
0
 93
        0
 40
0.045
309
GRIDFORMAT_END
 95
       16
302
GRIDFORMAT
  1
GRIDFORMAT_BEGIN
 90
        0
 91
        1
 62
     0
 92
       -2
340
0
 93
        0
 40
0.045
309
GRIDFORMAT_END
 95
       32
302
GRIDFORMAT
  1
GRIDFORMAT_BEGIN
 90
        0
 91
        1
 62
     0
 92
       -2
340
0
 93
        0
 40
0.045
309
GRIDFORMAT_END
309
TABLEFORMAT_END
  1
CELLSTYLE_BEGIN
 90
        2
 91
        1
300
_HEADER
309
CELLSTYLE_END
300
CELLSTYLE
  1
TABLEFORMAT_BEGIN
 90
        5
170
     1
 91
        0
 92
        0
 62
   257
 93
        1
300
CONTENTFORMAT
  1
CONTENTFORMAT_BEGIN
 90
        0
 91
        0
 92
        4
 93
        0
300

 40
0.0
140
1.0
 94
        2
 62
     0
340
11
144
4.5
309
CONTENTFORMAT_END
171
     1
301
MARGIN
  1
CELLMARGIN_BEGIN
 40
1.5
 40
1.5
 40
1.5
 40
1.5
 40
0.18
 40
0.18
309
CELLMARGIN_END
 94
        6
 95
        1
302
GRIDFORMAT
  1
GRIDFORMAT_BEGIN
 90
        0
 91
        1
 62
     0
 92
       -2
340
0
 93
        0
 40
0.045
309
GRIDFORMAT_END
 95
        2
302
GRIDFORMAT
  1
GRIDFORMAT_BEGIN
 90
        0
 91
        1
 62
     0
 92
       -2
340
0
 93
        0
 40
0.045
309
GRIDFORMAT_END
 95
        4
302
GRIDFORMAT
  1
GRIDFORMAT_BEGIN
 90
        0
 91
        1
 62
     0
 92
       -2
340
0
 93
        0
 40
0.045
309
GRIDFORMAT_END
 95
        8
302
GRIDFORMAT
  1
GRIDFORMAT_BEGIN
 90
        0
 91
        1
 62
     0
 92
       -2
340
0
 93
        0
 40
0.045
309
GRIDFORMAT_END
 95
       16
302
GRIDFORMAT
  1
GRIDFORMAT_BEGIN
 90
        0
 91
        1
 62
     0
 92
       -2
340
0
 93
        0
 40
0.045
309
GRIDFORMAT_END
 95
       32
302
GRIDFORMAT
  1
GRIDFORMAT_BEGIN
 90
        0
 91
        1
 62
     0
 92
       -2
340
0
 93
        0
 40
0.045
309
GRIDFORMAT_END
309
TABLEFORMAT_END
  1
CELLSTYLE_BEGIN
 90
        3
 91
        2
300
_DATA
309
CELLSTYLE_END
  0
XRECORD
  5
D0C
102
{ACAD_REACTORS
330
41B
102
}
330
41B
100
AcDbXrecord
280
     1
102
ACAD_ROUNDTRIP_PRE2007_TABLESTYLE
 90
        4
 91
        0
  1

 92
        4
 93
        0
  2

 94
        4
 95
        0
  3

  0
ENDSEC
  0
EOF
