  0
SECTION
  2
HEADER
  9
$ACADVER
  1
AC1015
  9
$ACADMAINTVER
 70
    20
  9
$DWGCODEPAGE
  3
ANSI_1252
  9
$INSBASE
 10
0.0
 20
0.0
 30
0.0
  9
$EXTMIN
 10
-50.0507535215288
 20
-0.0145213574512582
 30
-0.0015258207003583
  9
$EXTMAX
 10
1401.565545638302
 20
475.8718468757072
 30
0.0000000349246037
  9
$LIMMIN
 10
0.0
 20
0.0
  9
$LIMMAX
 10
420.0
 20
297.0
  9
$ORTHOMODE
 70
     1
  9
$REGENMODE
 70
     1
  9
$FILLMODE
 70
     1
  9
$QTEXTMODE
 70
     0
  9
$MIRRTEXT
 70
     1
  9
$LTSCALE
 40
1.0
  9
$ATTMODE
 70
     1
  9
$TEXTSIZE
 40
2.5
  9
$TRACEWID
 40
1.0
  9
$TEXTSTYLE
  7
STANDARD
  9
$CLAYER
  8
0
  9
$CELTYPE
  6
ByLayer
  9
$CECOLOR
 62
   256
  9
$CELTSCALE
 40
1.0
  9
$DISPSILH
 70
     0
  9
$DIMSCALE
 40
1.0
  9
$DIMASZ
 40
3.5
  9
$DIMEXO
 40
1.0
  9
$DIMDLI
 40
10.0
  9
$DIMRND
 40
0.0
  9
$DIMDLE
 40
0.0
  9
$DIMEXE
 40
1.0
  9
$DIMTP
 40
0.1
  9
$DIMTM
 40
0.1
  9
$DIMTXT
 40
3.5
  9
$DIMCEN
 40
0.0
  9
$DIMTSZ
 40
0.0
  9
$DIMTOL
 70
     0
  9
$DIMLIM
 70
     0
  9
$DIMTIH
 70
     0
  9
$DIMTOH
 70
     0
  9
$DIMSE1
 70
     0
  9
$DIMSE2
 70
     0
  9
$DIMTAD
 70
     1
  9
$DIMZIN
 70
     8
  9
$DIMBLK
  1

  9
$DIMASO
 70
     1
  9
$DIMSHO
 70
     1
  9
$DIMPOST
  1

  9
$DIMAPOST
  1
"
  9
$DIMALT
 70
     0
  9
$DIMALTD
 70
     2
  9
$DIMALTF
 40
0.0393701
  9
$DIMLFAC
 40
1.0
  9
$DIMTOFL
 70
     1
  9
$DIMTVP
 40
0.0
  9
$DIMTIX
 70
     0
  9
$DIMSOXD
 70
     0
  9
$DIMSAH
 70
     0
  9
$DIMBLK1
  1

  9
$DIMBLK2
  1

  9
$DIMSTYLE
  2
AM_ISO
  9
$DIMCLRD
 70
   256
  9
$DIMCLRE
 70
   256
  9
$DIMCLRT
 70
   140
  9
$DIMTFAC
 40
0.71
  9
$DIMGAP
 40
1.5
  9
$DIMJUST
 70
     0
  9
$DIMSD1
 70
     0
  9
$DIMSD2
 70
     0
  9
$DIMTOLJ
 70
     0
  9
$DIMTZIN
 70
     8
  9
$DIMALTZ
 70
     0
  9
$DIMALTTZ
 70
     0
  9
$DIMUPT
 70
     0
  9
$DIMDEC
 70
     2
  9
$DIMTDEC
 70
     3
  9
$DIMALTU
 70
     2
  9
$DIMALTTD
 70
     4
  9
$DIMTXSTY
  7
STANDARD
  9
$DIMAUNIT
 70
     0
  9
$DIMADEC
 70
     0
  9
$DIMALTRND
 40
0.0
  9
$DIMAZIN
 70
     2
  9
$DIMDSEP
 70
    46
  9
$DIMATFIT
 70
     3
  9
$DIMFRAC
 70
     0
  9
$DIMLDRBLK
  1

  9
$DIMLUNIT
 70
     2
  9
$DIMLWD
 70
    -1
  9
$DIMLWE
 70
    -1
  9
$DIMTMOVE
 70
     0
  9
$LUNITS
 70
     2
  9
$LUPREC
 70
     2
  9
$SKETCHINC
 40
1.0
  9
$FILLETRAD
 40
2.5
  9
$AUNITS
 70
     0
  9
$AUPREC
 70
     0
  9
$MENU
  1
.
  9
$ELEVATION
 40
0.0
  9
$PELEVATION
 40
0.0
  9
$THICKNESS
 40
0.0
  9
$LIMCHECK
 70
     0
  9
$CHAMFERA
 40
2.5
  9
$CHAMFERB
 40
2.5
  9
$CHAMFERC
 40
20.0
  9
$CHAMFERD
 40
0.0
  9
$SKPOLY
 70
     0
  9
$TDCREATE
 40
2455098.416753970
  9
$TDUCREATE
 40
2455098.333420637
  9
$TDUPDATE
 40
2455098.419378993
  9
$TDUUPDATE
 40
2455098.336045660
  9
$TDINDWG
 40
0.0026257407
  9
$TDUSRTIMER
 40
0.0026257407
  9
$USRTIMER
 70
     1
  9
$ANGBASE
 50
0.0
  9
$ANGDIR
 70
     0
  9
$PDMODE
 70
     0
  9
$PDSIZE
 40
0.0
  9
$PLINEWID
 40
0.0
  9
$SPLFRAME
 70
     0
  9
$SPLINETYPE
 70
     6
  9
$SPLINESEGS
 70
     8
  9
$HANDSEED
  5
72E
  9
$SURFTAB1
 70
     6
  9
$SURFTAB2
 70
     6
  9
$SURFTYPE
 70
     6
  9
$SURFU
 70
     6
  9
$SURFV
 70
     6
  9
$UCSBASE
  2

  9
$UCSNAME
  2

  9
$UCSORG
 10
0.0
 20
0.0
 30
0.0
  9
$UCSXDIR
 10
1.0
 20
0.0
 30
0.0
  9
$UCSYDIR
 10
0.0
 20
1.0
 30
0.0
  9
$UCSORTHOREF
  2

  9
$UCSORTHOVIEW
 70
     0
  9
$UCSORGTOP
 10
0.0
 20
0.0
 30
0.0
  9
$UCSORGBOTTOM
 10
0.0
 20
0.0
 30
0.0
  9
$UCSORGLEFT
 10
0.0
 20
0.0
 30
0.0
  9
$UCSORGRIGHT
 10
0.0
 20
0.0
 30
0.0
  9
$UCSORGFRONT
 10
0.0
 20
0.0
 30
0.0
  9
$UCSORGBACK
 10
0.0
 20
0.0
 30
0.0
  9
$PUCSBASE
  2

  9
$PUCSNAME
  2

  9
$PUCSORG
 10
0.0
 20
0.0
 30
0.0
  9
$PUCSXDIR
 10
1.0
 20
0.0
 30
0.0
  9
$PUCSYDIR
 10
0.0
 20
1.0
 30
0.0
  9
$PUCSORTHOREF
  2

  9
$PUCSORTHOVIEW
 70
     0
  9
$PUCSORGTOP
 10
0.0
 20
0.0
 30
0.0
  9
$PUCSORGBOTTOM
 10
0.0
 20
0.0
 30
0.0
  9
$PUCSORGLEFT
 10
0.0
 20
0.0
 30
0.0
  9
$PUCSORGRIGHT
 10
0.0
 20
0.0
 30
0.0
  9
$PUCSORGFRONT
 10
0.0
 20
0.0
 30
0.0
  9
$PUCSORGBACK
 10
0.0
 20
0.0
 30
0.0
  9
$USERI1
 70
     0
  9
$USERI2
 70
     0
  9
$USERI3
 70
     0
  9
$USERI4
 70
     0
  9
$USERI5
 70
     0
  9
$USERR1
 40
0.0
  9
$USERR2
 40
0.0
  9
$USERR3
 40
0.0
  9
$USERR4
 40
0.0
  9
$USERR5
 40
0.0
  9
$WORLDVIEW
 70
     1
  9
$SHADEDGE
 70
     3
  9
$SHADEDIF
 70
    70
  9
$TILEMODE
 70
     1
  9
$MAXACTVP
 70
    64
  9
$PINSBASE
 10
0.0
 20
0.0
 30
0.0
  9
$PLIMCHECK
 70
     0
  9
$PEXTMIN
 10
1.000000000000000E+20
 20
1.000000000000000E+20
 30
1.000000000000000E+20
  9
$PEXTMAX
 10
-1.000000000000000E+20
 20
-1.000000000000000E+20
 30
-1.000000000000000E+20
  9
$PLIMMIN
 10
0.0
 20
0.0
  9
$PLIMMAX
 10
420.0
 20
297.0
  9
$UNITMODE
 70
     0
  9
$VISRETAIN
 70
     1
  9
$PLINEGEN
 70
     0
  9
$PSLTSCALE
 70
     1
  9
$TREEDEPTH
 70
  3020
  9
$CMLSTYLE
  2
Standard
  9
$CMLJUST
 70
     0
  9
$CMLSCALE
 40
20.0
  9
$PROXYGRAPHICS
 70
     1
  9
$MEASUREMENT
 70
     1
  9
$CELWEIGHT
370
    -1
  9
$ENDCAPS
280
     0
  9
$JOINSTYLE
280
     0
  9
$LWDISPLAY
290
     0
  9
$INSUNITS
 70
     4
  9
$HYPERLINKBASE
  1

  9
$STYLESHEET
  1

  9
$XEDIT
290
     1
  9
$CEPSNTYPE
380
     0
  9
$PSTYLEMODE
290
     1
  9
$FINGERPRINTGUID
  2
{1479FAC9-C51E-426B-AE0D-4A1C44C99CC1}
  9
$VERSIONGUID
  2
{4A78CCCF-9416-4FB6-A477-E83EC8E7A6B8}
  9
$EXTNAMES
290
     1
  9
$PSVPSCALE
 40
0.0
  9
$OLESTARTUP
290
     0
  0
ENDSEC
  0
SECTION
  2
CLASSES
  0
CLASS
  1
ACDBDICTIONARYWDFLT
  2
AcDbDictionaryWithDefault
  3
ObjectDBX Classes
 90
        0
280
     0
281
     0
  0
CLASS
  1
ACDBPLACEHOLDER
  2
AcDbPlaceHolder
  3
ObjectDBX Classes
 90
        0
280
     0
281
     0
  0
CLASS
  1
LAYOUT
  2
AcDbLayout
  3
ObjectDBX Classes
 90
        0
280
     0
281
     0
  0
CLASS
  1
ACME_DOCUMENT
  2
AcMeDbDoc
  3
AcMeServices
 90
     1024
280
     0
281
     0
  0
CLASS
  1
AMGSETTINGSOBJ
  2
AmgSettingsObj
  3
"AcadM|Product Description: AutoCAD Mechanical|Company: Autodesk, Inc."
 90
     1024
280
     0
281
     0
  0
CLASS
  1
ACMESCOPE
  2
AcMeScope
  3
AcMeServices
 90
     1024
280
     0
281
     0
  0
CLASS
  1
ACMECOMMANDHISTORY
  2
AcMeCommandHistory
  3
AcMeServices
 90
     1024
280
     0
281
     0
  0
CLASS
  1
ACIMSYSVARMAN
  2
AcImSysVarManager
  3
AcMeServices
 90
     1024
280
     0
281
     0
  0
CLASS
  1
ACIMREALSYSVAR
  2
AcImRealSysVar
  3
AcMeServices
 90
     1024
280
     0
281
     0
  0
CLASS
  1
ACIMINTSYSVAR
  2
AcImIntSysVar
  3
AcMeServices
 90
     1024
280
     0
281
     0
  0
CLASS
  1
ACMEDRAWINGMAN
  2
AcMeDrawingMan
  3
AcMeServices
 90
     1024
280
     0
281
     0
  0
CLASS
  1
ACMEVIEW
  2
AcMeView
  3
AcMeServices
 90
     1024
280
     0
281
     0
  0
CLASS
  1
ACDBENTITYCACHE
  2
AcMeEntityCache
  3
AcMeServices
 90
     1024
280
     0
281
     0
  0
CLASS
  1
GSMANAGER
  2
AcMeGSManager
  3
AcMeServices
 90
     1024
280
     0
281
     0
  0
CLASS
  1
AMDTINTERNALREACTOR
  2
AmdtInternalReactor
  3
AcMeServices
 90
     1024
280
     0
281
     0
  0
CLASS
  1
ACMESTATEMGR
  2
AcMeStateMgr
  3
AcMeServices
 90
     1024
280
     0
281
     0
  0
CLASS
  1
ACGREFMASTER
  2
AcGrefMaster
  3
AcAttribServices
 90
     1024
280
     0
281
     0
  0
CLASS
  1
ACME_DATABASE
  2
AcMeDbDatabase
  3
AcMeServices
 90
     1024
280
     0
281
     0
  0
CLASS
  1
ACRFINSADJUSTERMGR
  2
AcRfInsAdjusterMgr
  3
AcMeServices
 90
     1024
280
     0
281
     0
  0
CLASS
  1
ACGREFACADMASTER
  2
AcGrefacadMaster
  3
AcGrefServices
 90
     1024
280
     0
281
     0
  0
CLASS
  1
AMIMASTER
  2
AmiMaster
  3
AmiServices
 90
     1024
280
     0
281
     0
  0
CLASS
  1
ACMDATADICTIONARY
  2
AcmDataDictionary
  3
"AcmSymBB|Product Description: AutoCAD Mechanical|Company: Autodesk, Inc."
 90
     1024
280
     0
281
     0
  0
CLASS
  1
ACMDATAENTRYBLOCK
  2
AcmDataEntryBlock
  3
AcmSymBB|Product Description: AutoCAD Mechanical|Company: Autodesk, Inc.
 90
     1024
280
     0
281
     0
  0
CLASS
  1
ACIMSTRSYSVAR
  2
AcImStrSysVar
  3
AcMeServices
 90
     1024
280
     0
281
     0
  0
CLASS
  1
ACMSTANDARDISO
  2
AcmStandardISO
  3
"Amdt_StdImp|Product Description: AutoCAD Mechanical|Company: Autodesk, Inc."
 90
     1024
280
     0
281
     0
  0
CLASS
  1
AMGOBJPROPCFG
  2
AmgObjPropCfg
  3
"AmgLay|Product Description: AutoCAD Mechanical|Company: Autodesk, Inc."
 90
     1025
280
     0
281
     0
  0
CLASS
  1
AMDTEDGESTANDARDISO
  2
AmdtEdgeStdISO
  3
"Amdt_StdImp|Product Description: AutoCAD Mechanical|Company: Autodesk, Inc."
 90
    33792
280
     0
281
     0
  0
CLASS
  1
ACMSURFSTANDARDISO
  2
AcmSurfTextStdISO
  3
"Amdt_StdImp|Product Description: AutoCAD Mechanical|Company: Autodesk, Inc."
 90
    33792
280
     0
281
     0
  0
CLASS
  1
ACMFCFSTANDARDISO
  2
AcmFCFStdISO
  3
"Amdt_StdImp|Product Description: AutoCAD Mechanical|Company: Autodesk, Inc."
 90
     1024
280
     0
281
     0
  0
CLASS
  1
ACMWELDSTANDARDISO
  2
AcmWeldingStdISO
  3
"Amdt_StdImp|Product Description: AutoCAD Mechanical|Company: Autodesk, Inc."
 90
     1024
280
     0
281
     0
  0
CLASS
  1
ACMIDSTANDARDISO
  2
AcmIdStdISO
  3
"Amdt_StdImp|Product Description: AutoCAD Mechanical|Company: Autodesk, Inc."
 90
     1024
280
     0
281
     0
  0
CLASS
  1
ACMDATUMSTANDARDISO
  2
AcmDatumStdISO
  3
"Amdt_StdImp|Product Description: AutoCAD Mechanical|Company: Autodesk, Inc."
 90
     1024
280
     0
281
     0
  0
CLASS
  1
ACMBOMSTANDARDISO
  2
AcmBOMStdISO
  3
"Amdt_StdImp|Product Description: AutoCAD Mechanical|Company: Autodesk, Inc."
 90
     1024
280
     0
281
     0
  0
CLASS
  1
ACMDETAILSTANDARDISO
  2
AmdtDetailSymStdISO
  3
"Amdt_StdImp|Product Description: AutoCAD Mechanical|Company: Autodesk, Inc."
 90
     1024
280
     0
281
     0
  0
CLASS
  1
ACMSECTIONSTANDARDISO
  2
AmdtSectionSymStdISO
  3
"Amdt_StdImp|Product Description: AutoCAD Mechanical|Company: Autodesk, Inc."
 90
    33792
280
     0
281
     0
  0
CLASS
  1
ACMCENTERLINESTANDARDISO
  2
AmdtCenterLineStdISO
  3
"Amdt_StdImp|Product Description: AutoCAD Mechanical|Company: Autodesk, Inc."
 90
     1024
280
     0
281
     0
  0
CLASS
  1
ACMNOTESTANDARDISO
  2
AmdtNoteStdISO
  3
"Amdt_StdImp|Product Description: AutoCAD Mechanical|Company: Autodesk, Inc."
 90
     1024
280
     0
281
     0
  0
CLASS
  1
ACAMGLAYSTD
  2
AcAmgLayStd
  3
"AmgLay|Product Description: AutoCAD Mechanical|Company: Autodesk, Inc."
 90
     1024
280
     0
281
     0
  0
CLASS
  1
ACAMGDIMSTD
  2
AcAmgDimStd
  3
"AmgDim|Product Description: AutoCAD Mechanical|Company: Autodesk, Inc."
 90
     1024
280
     0
281
     0
  0
CLASS
  1
ACAMGHOLECHARTSTDISO
  2
AcAmgHoleChartStdISO
  3
AmgDim|Product Description: AutoCAD Mechanical|Company: Autodesk, Inc.
 90
     1024
280
     0
281
     0
  0
CLASS
  1
ACAMGTITLESTD
  2
AcAmgTitleStd
  3
"AmgTitle|Product Description: AutoCAD Mechanical|Company: Autodesk, Inc."
 90
     4095
280
     0
281
     0
  0
CLASS
  1
LAYER_INDEX
  2
AcDbLayerIndex
  3
ObjectDBX Classes
 90
    32768
280
     0
281
     0
  0
CLASS
  1
IDBUFFER
  2
AcDbIdBuffer
  3
ObjectDBX Classes
 90
    32768
280
     0
281
     0
  0
CLASS
  1
DICTIONARYVAR
  2
AcDbDictionaryVar
  3
ObjectDBX Classes
 90
        0
280
     0
281
     0
  0
CLASS
  1
AM_DRAWING_MGR
  2
AcDmDwgMgr
  3
AcMechDwgViewMgmt
 90
     1024
280
     0
281
     0
  0
CLASS
  1
AM_DWG_DOCUMENT
  2
AcDmDwgDocument
  3
AcMechDwgViewMgmt
 90
     1024
280
     0
281
     0
  0
CLASS
  1
AM_DWG_SHEET
  2
AcDmSheet
  3
AcMechDwgViewMgmt
 90
     1024
280
     0
281
     0
  0
CLASS
  1
AM_VIEWDIMPARMAP
  2
AcDmViewDimParMap
  3
AcMechDwgViewMgmt
 90
     1024
280
     0
281
     0
  0
CLASS
  1
AM_DWGMGR_NAME
  2
AcDmDwgMgrName
  3
AcMechDwgViewMgmt
 90
     1024
280
     0
281
     0
  0
CLASS
  1
AMDTMENUSTATEMGR
  2
AmdtMenuStateMgr
  3
McadcomServices
 90
     1024
280
     0
281
     0
  0
CLASS
  1
AMDTMCOMMENUSTATE
  2
AmdtMcomMenuState
  3
McadcomServices
 90
     1024
280
     0
281
     0
  0
CLASS
  1
MAPIAMMOUDLE
  2
MApiAmModule
  3
MApiAmServices
 90
     1024
280
     0
281
     0
  0
CLASS
  1
AMDTADMENUSTATE
  2
AmdtAdMenuState
  3
DesignerServices
 90
     1024
280
     0
281
     0
  0
CLASS
  1
ADAPPL
  2
AcAdAppl
  3
DesignerServices
 90
     1024
280
     0
281
     0
  0
CLASS
  1
DEPMGR
  2
AcAdDepMgr
  3
DesignerServices
 90
     1024
280
     0
281
     0
  0
CLASS
  1
PARAMMGR
  2
AcAdParamMgr
  3
DesignerServices
 90
     1024
280
     0
281
     0
  0
CLASS
  1
PARAMSCOPE
  2
AcAdParamScope
  3
DesignerServices
 90
     1024
280
     0
281
     0
  0
CLASS
  1
NAMEDAPPL
  2
AcAdNamedAppl
  3
DesignerServices
 90
     1024
280
     0
281
     0
  0
CLASS
  1
AMDTDMMENUSTATE
  2
AmdtDmMenuState
  3
AcMechDwgViewMgmt
 90
     1024
280
     0
281
     0
  0
CLASS
  1
AMDTAMMENUSTATE
  2
AmdtAmMenuState
  3
DesignerAssemblies
 90
     1024
280
     0
281
     0
  0
CLASS
  1
ACAMPROJECT
  2
AcAmProject
  3
DesignerAssemblies
 90
     1024
280
     0
281
     0
  0
CLASS
  1
ACAMGRCOMPDEF
  2
AcAmGrCompDef
  3
DesignerAssemblies
 90
     1024
280
     0
281
     0
  0
CLASS
  1
ACCMCONTEXT
  2
AcCmContext
  3
DesignerAssemblies
 90
     1024
280
     0
281
     0
  0
CLASS
  1
ACAMCOMPDEF
  2
AcAmCompDef
  3
DesignerAssemblies
 90
     1024
280
     0
281
     0
  0
CLASS
  1
ACAMCOMPDEFMGR
  2
AcAmCompDefMgr
  3
DesignerAssemblies
 90
     1024
280
     0
281
     0
  0
CLASS
  1
AMCONTEXTMGR
  2
AcAmContextMgr
  3
DesignerAssemblies
 90
     1024
280
     0
281
     0
  0
CLASS
  1
ACAMCONTEXTMODELER
  2
AcAmContextModeler
  3
DesignerAssemblies
 90
     1024
280
     0
281
     0
  0
CLASS
  1
ACMTHREADLINESTANDARDISO
  2
AmdtThreadLineStdISO
  3
"Amdt_StdImp|Product Description: AutoCAD Mechanical|Company: Autodesk, Inc."
 90
     1024
280
     0
281
     0
  0
CLASS
  1
CATALOGSTATE
  2
AcAmCatalogState
  3
DesignerAssemblies
 90
     1024
280
     0
281
     0
  0
CLASS
  1
ACAMGRCOMPDEFSET
  2
AcAmGrCompDefSet
  3
DesignerAssemblies
 90
     1024
280
     0
281
     0
  0
CLASS
  1
AMDTBROWSERDBTAB
  2
AmdtBrowserDbTab
  3
McadcomServices
 90
     1024
280
     0
281
     0
  0
CLASS
  1
CBROWSERAPPOBJECT
  2
CBrowserAppObject
  3
McadcomServices
 90
     1024
280
     0
281
     0
  0
CLASS
  1
DM_PLACEHOLDER
  2
AcDmSelsetPlaceholder
  3
AcMechDwgViewMgmt
 90
     1024
280
     0
281
     0
  0
CLASS
  1
TABLESTYLE
  2
AcDbTableStyle
  3
ObjectDBX Classes
 90
     4095
280
     0
281
     0
  0
CLASS
  1
VAACXREFPANELOBJECT
  2
VaAcXREFPanelObject
  3
VAAC_ADDIN
 90
    32768
280
     0
281
     0
  0
CLASS
  1
VAACIMAGEINVENTORY
  2
VaAcImageInventory
  3
VAAC_ADDIN
 90
    32768
280
     0
281
     0
  0
CLASS
  1
AMDTNOTETEMPLATEDB
  2
AmdtNoteTemplateDB
  3
AcmSymBB|Product Description: AutoCAD Mechanical|Company: Autodesk, Inc.
 90
     1024
280
     0
281
     0
  0
CLASS
  1
MATERIAL
  2
AcDbMaterial
  3
ObjectDBX Classes
 90
     1153
280
     0
281
     0
  0
CLASS
  1
VISUALSTYLE
  2
AcDbVisualStyle
  3
ObjectDBX Classes
 90
     4095
280
     0
281
     0
  0
CLASS
  1
ACRFATTGENMGR
  2
AcRfAttGeneralMgr
  3
AcAttribServices
 90
     1024
280
     0
281
     0
  0
CLASS
  1
ACRFOBJATTMGR
  2
AcRfObjAttGroupMgr
  3
AcAttribServices
 90
     1024
280
     0
281
     0
  0
CLASS
  1
ACRFMCADAPIATTHOLDER
  2
AcRfMCADAPIAttHolder
  3
AcAttribServices
 90
     1024
280
     0
281
     0
  0
CLASS
  1
AMDTSYSATTR
  2
AmdtSystemAttribute
  3
AcAttribServices
 90
     1024
280
     0
281
     0
  0
CLASS
  1
ACMTAPERSTANDARDISO
  2
AcmTaperStdISO
  3
"Amdt_StdImp|Product Description: AutoCAD Mechanical|Company: Autodesk, Inc."
 90
     1024
280
     0
281
     0
  0
CLASS
  1
CAMSSTRUCTBTNSTATE
  2
StructBtnState
  3
DesignerAssemblies
 90
     1024
280
     0
281
     0
  0
CLASS
  1
SCALE
  2
AcDbScale
  3
ObjectDBX Classes
 90
     1153
280
     0
281
     0
  0
CLASS
  1
MLEADERSTYLE
  2
AcDbMLeaderStyle
  3
ACDB_MLEADERSTYLE_CLASS
 90
     4095
280
     0
281
     0
  0
CLASS
  1
ACMANOOTATIONVIEWSTANDARDISO
  2
AmdtAnViewStdISO
  3
"Amdt_StdImp|Product Description: AutoCAD Mechanical|Company: Autodesk, Inc."
 90
     1024
280
     0
281
     0
  0
CLASS
  1
ACMSURFSTANDARDISO2002
  2
AcmSurfTextStdISO2002
  3
"Amdt_StdImp|Product Description: AutoCAD Mechanical|Company: Autodesk, Inc."
 90
     1024
280
     0
281
     0
  0
CLASS
  1
CELLSTYLEMAP
  2
AcDbCellStyleMap
  3
ObjectDBX Classes
 90
     1152
280
     0
281
     0
  0
CLASS
  1
ACMSECTIONSTANDARDISO2001
  2
AmdtSectionSymStdISO2001
  3
"Amdt_StdImp|Product Description: AutoCAD Mechanical|Company: Autodesk, Inc."
 90
     1024
280
     0
281
     0
  0
CLASS
  1
EXACXREFPANELOBJECT
  2
ExAcXREFPanelObject
  3
EXAC_ESW
 90
     1025
280
     0
281
     0
  0
CLASS
  1
NPOCOLLECTION
  2
AcDbImpNonPersistentObjectsCollection
  3
ObjectDBX Classes
 90
     1153
280
     0
281
     0
  0
CLASS
  1
AMDTEDGESTANDARDISO13715
  2
AmdtEdgeStdISO13715
  3
"Amdt_StdImp|Product Description: AutoCAD Mechanical|Company: Autodesk, Inc."
 90
     1024
280
     0
281
     0
  0
CLASS
  1
ACAMGFILTERDAT
  2
AcAmgFilterDat
  3
"AcadM|Product Description: AutoCAD Mechanical|Company: Autodesk, Inc."
 90
     1024
280
     0
281
     0
  0
CLASS
  1
ACMBOM
  2
AcmBom
  3
"AcmSymBB|Product Description: AutoCAD Mechanical|Company: Autodesk, Inc."
 90
    33792
280
     0
281
     0
  0
CLASS
  1
AMDTFORMULAUPDATEDISPATCHER
  2
AmdtFormulaUpdateDispatcher
  3
AcMeServices
 90
    33792
280
     0
281
     0
  0
CLASS
  1
DIMASSOC
  2
AcDbDimAssoc
  3
"AcDbDimAssoc|Product Desc:     AcDim ARX App For Dimension|Company:          Autodesk, Inc.|WEB Address:      www.autodesk.com"
 90
        0
280
     0
281
     0
  0
ENDSEC
  0
SECTION
  2
TABLES
  0
TABLE
  2
VPORT
  5
8
330
0
100
AcDbSymbolTable
 70
     1
  0
VPORT
  5
269
330
8
100
AcDbSymbolTableRecord
100
AcDbViewportTableRecord
  2
*Active
 70
     0
 10
0.0
 20
0.0
 11
1.0
 21
1.0
 12
675.7573960583865
 22
237.928662759128
 13
0.0
 23
0.0
 14
2.5
 24
2.5
 15
10.0
 25
10.0
 16
0.0
 26
0.0
 36
1.0
 17
0.0
 27
0.0
 37
0.0
 40
757.3121359435852
 41
1.923900118906064
 42
50.0
 43
0.0
 44
0.0
 50
0.0
 51
0.0
 71
     0
 72
   100
 73
     1
 74
     3
 75
     0
 76
     0
 77
     0
 78
     0
281
     0
 65
     1
110
0.0
120
0.0
130
0.0
111
1.0
121
0.0
131
0.0
112
0.0
122
1.0
132
0.0
 79
     0
146
0.0
  0
ENDTAB
  0
TABLE
  2
LTYPE
  5
5
330
0
100
AcDbSymbolTable
 70
    17
  0
LTYPE
  5
14
330
5
100
AcDbSymbolTableRecord
100
AcDbLinetypeTableRecord
  2
ByBlock
 70
     0
  3

 72
    65
 73
     0
 40
0.0
  0
LTYPE
  5
15
330
5
100
AcDbSymbolTableRecord
100
AcDbLinetypeTableRecord
  2
ByLayer
 70
     0
  3

 72
    65
 73
     0
 40
0.0
  0
LTYPE
  5
16
330
5
100
AcDbSymbolTableRecord
100
AcDbLinetypeTableRecord
  2
Continuous
 70
     0
  3
Solid line
 72
    65
 73
     0
 40
0.0
  0
LTYPE
  5
64
330
5
100
AcDbSymbolTableRecord
100
AcDbLinetypeTableRecord
  2
AM_ISO02W050
 70
     0
  3
__ __ __ __ __ __ __ __ __ __ __ __ __ __ __
 72
    65
 73
     2
 40
7.5
 49
6.0
 74
     0
 49
-1.5
 74
     0
  0
LTYPE
  5
65
330
5
100
AcDbSymbolTableRecord
100
AcDbLinetypeTableRecord
  2
AM_ISO08W050
 70
     0
  3
____ . ____ . ____ . ____ . ____ . ____ . ____
 72
    65
 73
     4
 40
18.0
 49
12.0
 74
     0
 49
-1.5
 74
     0
 49
3.0
 74
     0
 49
-1.5
 74
     0
  0
LTYPE
  5
66
330
5
100
AcDbSymbolTableRecord
100
AcDbLinetypeTableRecord
  2
AM_ISO09W050
 70
     0
  3
_____ . . _____ . . _____ . . ____ .. ____
 72
    65
 73
     6
 40
22.5
 49
12.0
 74
     0
 49
-1.5
 74
     0
 49
3.0
 74
     0
 49
-1.5
 74
     0
 49
3.0
 74
     0
 49
-1.5
 74
     0
  0
LTYPE
  5
67
330
5
100
AcDbSymbolTableRecord
100
AcDbLinetypeTableRecord
  2
Amconstr
 70
     0
  3
_______________________
 72
    65
 73
     2
 40
9999.0
 49
9999.0
 74
     0
 49
0.0
 74
     0
  0
LTYPE
  5
68
330
5
100
AcDbSymbolTableRecord
100
AcDbLinetypeTableRecord
  2
AM_ISO08W050x2
 70
     0
  3
__ . __ . __ . __ . __ . __
 72
    65
 73
     4
 40
9.0
 49
6.0
 74
     0
 49
-0.75
 74
     0
 49
1.5
 74
     0
 49
-0.75
 74
     0
  0
LTYPE
  5
69
330
5
100
AcDbSymbolTableRecord
100
AcDbLinetypeTableRecord
  2
AM_ISO02W050x2
 70
     0
  3
 _ _ _ _ _ _ _ _ _ _ _ _
 72
    65
 73
     2
 40
3.75
 49
3.0
 74
     0
 49
-0.75
 74
     0
  0
LTYPE
  5
6C
330
5
100
AcDbSymbolTableRecord
100
AcDbLinetypeTableRecord
  2
Amzigzag
 70
     0
  3
/\/-/\/-/\/-/\/-/\/-/\/
 72
    65
 73
     2
 40
11.0001
 49
0.0001
 74
     4
 75
   136
340
22C
 46
0.04
 50
0.0
 44
0.0
 45
0.0
 49
-11.0
 74
     0
  0
LTYPE
  5
7A
330
5
100
AcDbSymbolTableRecord
100
AcDbLinetypeTableRecord
  2
ACISOWELD
 70
     0
  3
_ _ _ _ _
 72
    65
 73
     2
 40
2.0
 49
2.0
 74
     0
 49
-1.0
 74
     0
  0
LTYPE
  5
7B
330
5
100
AcDbSymbolTableRecord
100
AcDbLinetypeTableRecord
  2
ACISOTGB
 70
     0
  3
__ . . __ . .
 72
    65
 73
     6
 40
9.0
 49
4.0
 74
     0
 49
-1.0
 74
     0
 49
1.0
 74
     0
 49
-1.0
 74
     0
 49
1.0
 74
     0
 49
-1.0
 74
     0
  0
LTYPE
  5
7C
330
5
100
AcDbSymbolTableRecord
100
AcDbLinetypeTableRecord
  2
ACISOTGL
 70
     0
  3
_ _ _ _ _
 72
    65
 73
     2
 40
3.0
 49
2.0
 74
     0
 49
-1.0
 74
     0
  0
LTYPE
  5
7E
330
5
100
AcDbSymbolTableRecord
100
AcDbLinetypeTableRecord
  2
CENTER
 70
     0
  3
__ . __
 72
    65
 73
     4
 40
7.0
 49
4.0
 74
     0
 49
-1.0
 74
     0
 49
1.0
 74
     0
 49
-1.0
 74
     0
  0
LTYPE
  5
D8
330
5
100
AcDbSymbolTableRecord
100
AcDbLinetypeTableRecord
  2
HIDDEN
 70
     0
  3
Hidden __ __ __ __ __ __ __ __ __ __ __ __ __ _
 72
    65
 73
     2
 40
9.524999999999998
 49
6.349999999999999
 74
     0
 49
-3.174999999999999
 74
     0
  0
LTYPE
  5
D9
330
5
100
AcDbSymbolTableRecord
100
AcDbLinetypeTableRecord
  2
PHANTOM2
 70
     0
  3
Phantom (.5x) ___ _ _ ___ _ _ ___ _ _ ___ _ _
 72
    65
 73
     6
 40
31.75
 49
15.875
 74
     0
 49
-3.174999999999999
 74
     0
 49
3.174999999999999
 74
     0
 49
-3.174999999999999
 74
     0
 49
3.174999999999999
 74
     0
 49
-3.174999999999999
 74
     0
  0
LTYPE
  5
430
330
5
100
AcDbSymbolTableRecord
100
AcDbLinetypeTableRecord
  2
GEN7A
 70
     0
  3
__ . __ . __
 72
    65
 73
     4
 40
6.875
 49
5.0
 74
     0
 49
-0.625
 74
     0
 49
0.625
 74
     0
 49
-0.625
 74
     0
  0
LTYPE
  5
431
330
5
100
AcDbSymbolTableRecord
100
AcDbLinetypeTableRecord
  2
GEN3
 70
     0
  3
-- -- -- -- -- -- -- -- -- -- -- -- -- -- --
 72
    65
 73
     2
 40
6.25
 49
5.0
 74
     0
 49
-1.25
 74
     0
  0
ENDTAB
  0
TABLE
  2
LAYER
  5
2
102
{ACAD_XDICTIONARY
360
456
102
}
330
0
100
AcDbSymbolTable
 70
    13
  0
LAYER
  5
10
102
{ACAD_XDICTIONARY
360
707
102
}
330
2
100
AcDbSymbolTableRecord
100
AcDbLayerTableRecord
  2
0
 70
     0
 62
     7
  6
Continuous
370
    -3
390
F
  0
LAYER
  5
432
102
{ACAD_XDICTIONARY
360
433
102
}
330
2
100
AcDbSymbolTableRecord
100
AcDbLayerTableRecord
  2
AM_7
 70
     0
 62
     4
  6
AM_ISO08W050
370
    25
390
F
1001
AcAecLayerStandard
1000

1000

  0
LAYER
  5
434
102
{ACAD_XDICTIONARY
360
435
102
}
330
2
100
AcDbSymbolTableRecord
100
AcDbLayerTableRecord
  2
AM_CL
 70
     0
 62
     1
  6
Amconstr
370
    25
390
F
1001
AcAecLayerStandard
1000

1000

  0
LAYER
  5
436
330
2
100
AcDbSymbolTableRecord
100
AcDbLayerTableRecord
  2
Defpoints
 70
     0
 62
     7
  6
Continuous
290
     0
370
    -3
390
F
  0
LAYER
  5
437
102
{ACAD_XDICTIONARY
360
438
102
}
330
2
100
AcDbSymbolTableRecord
100
AcDbLayerTableRecord
  2
AM_5
 70
     0
 62
     3
  6
Continuous
370
    25
390
F
1001
AcAecLayerStandard
1000

1000

  0
LAYER
  5
439
102
{ACAD_XDICTIONARY
360
43A
102
}
330
2
100
AcDbSymbolTableRecord
100
AcDbLayerTableRecord
  2
7A
 70
     0
 62
     4
  6
GEN7A
370
    -3
390
F
  0
LAYER
  5
43B
102
{ACAD_XDICTIONARY
360
43C
102
}
330
2
100
AcDbSymbolTableRecord
100
AcDbLayerTableRecord
  2
KLIN
 70
     0
 62
     1
  6
Continuous
370
    -3
390
F
  0
LAYER
  5
43D
102
{ACAD_XDICTIONARY
360
43E
102
}
330
2
100
AcDbSymbolTableRecord
100
AcDbLayerTableRecord
  2
8
 70
     0
 62
     1
  6
Continuous
370
    -3
390
F
  0
LAYER
  5
43F
102
{ACAD_XDICTIONARY
360
440
102
}
330
2
100
AcDbSymbolTableRecord
100
AcDbLayerTableRecord
  2
3
 70
     0
 62
     6
  6
GEN3
370
    -3
390
F
  0
LAYER
  5
441
102
{ACAD_XDICTIONARY
360
442
102
}
330
2
100
AcDbSymbolTableRecord
100
AcDbLayerTableRecord
  2
AM_0N
 70
     0
 62
     7
  6
Continuous
370
    50
390
F
1001
AcAecLayerStandard
1000

1000

  0
LAYER
  5
443
102
{ACAD_XDICTIONARY
360
444
102
}
330
2
100
AcDbSymbolTableRecord
100
AcDbLayerTableRecord
  2
AM_7N
 70
     0
 62
   142
  6
AM_ISO08W050
370
    25
390
F
1001
AcAecLayerStandard
1000

1000

  0
LAYER
  5
445
102
{ACAD_XDICTIONARY
360
446
102
}
330
2
100
AcDbSymbolTableRecord
100
AcDbLayerTableRecord
  2
AM_4N
 70
     0
 62
    92
  6
Continuous
370
    25
390
F
1001
AcAecLayerStandard
1000

1000

  0
LAYER
  5
447
102
{ACAD_XDICTIONARY
360
448
102
}
330
2
100
AcDbSymbolTableRecord
100
AcDbLayerTableRecord
  2
AM_9N
 70
     0
 62
  -253
  6
Continuous
370
     0
390
F
1001
AcAecLayerStandard
1000

1000

  0
ENDTAB
  0
TABLE
  2
STYLE
  5
3
330
0
100
AcDbSymbolTable
 70
     8
  0
STYLE
  5
11
330
3
100
AcDbSymbolTableRecord
100
AcDbTextStyleTableRecord
  2
STANDARD
 70
     0
 40
0.0
 41
1.0
 50
0.0
 71
     0
 42
2.5
  3
ISOCP.SHX
  4

  0
STYLE
  5
6B
330
3
100
AcDbSymbolTableRecord
100
AcDbTextStyleTableRecord
  2

 70
     1
 40
0.0
 41
1.0
 50
0.0
 71
     0
 42
2.5
  3
ltypeshp.shx
  4

  0
STYLE
  5
6D
330
3
100
AcDbSymbolTableRecord
100
AcDbTextStyleTableRecord
  2
ACISOTS
 70
     0
 40
1.0
 41
1.0
 50
0.0
 71
     0
 42
2.5
  3
isocp.shx
  4

  0
STYLE
  5
79
330
3
100
AcDbSymbolTableRecord
100
AcDbTextStyleTableRecord
  2
ACISOGDT
 70
     0
 40
0.0
 41
1.0
 50
0.0
 71
     0
 42
2.5
  3
amgdt.shx
  4

  0
STYLE
  5
1ED
330
3
100
AcDbSymbolTableRecord
100
AcDbTextStyleTableRecord
  2
USER1
 70
     0
 40
0.0
 41
1.0
 50
0.0
 71
     0
 42
2.5
  3
TXT.SHX
  4

  0
STYLE
  5
1EE
330
3
100
AcDbSymbolTableRecord
100
AcDbTextStyleTableRecord
  2
USER2
 70
     0
 40
0.0
 41
1.0
 50
0.0
 71
     0
 42
2.5
  3
SIMPLEX.SHX
  4

  0
STYLE
  5
1EF
330
3
100
AcDbSymbolTableRecord
100
AcDbTextStyleTableRecord
  2
USER3
 70
     0
 40
0.0
 41
1.0
 50
0.0
 71
     0
 42
2.5
  3
ITALIC.SHX
  4

  0
STYLE
  5
22C
330
3
100
AcDbSymbolTableRecord
100
AcDbTextStyleTableRecord
  2

 70
     1
 40
0.0
 41
1.0
 50
0.0
 71
     0
 42
2.5
  3
genltshp.shx
  4

  0
ENDTAB
  0
TABLE
  2
VIEW
  5
6
330
0
100
AcDbSymbolTable
 70
     0
  0
ENDTAB
  0
TABLE
  2
UCS
  5
7
330
0
100
AcDbSymbolTable
 70
     0
  0
ENDTAB
  0
TABLE
  2
APPID
  5
9
330
0
100
AcDbSymbolTable
 70
    27
  0
APPID
  5
12
330
9
100
AcDbSymbolTableRecord
100
AcDbRegAppTableRecord
  2
ACAD
 70
     0
  0
APPID
  5
46
330
9
100
AcDbSymbolTableRecord
100
AcDbRegAppTableRecord
  2
MCAD_NO_VIS
 70
     0
  0
APPID
  5
47
330
9
100
AcDbSymbolTableRecord
100
AcDbRegAppTableRecord
  2
ACAD_TEMP_GRAPHIC
 70
     0
  0
APPID
  5
58
330
9
100
AcDbSymbolTableRecord
100
AcDbRegAppTableRecord
  2
ACATTRIBSERVICES
 70
     0
  0
APPID
  5
EE
330
9
100
AcDbSymbolTableRecord
100
AcDbRegAppTableRecord
  2
AD_DRAW
 70
     0
  0
APPID
  5
10C
330
9
100
AcDbSymbolTableRecord
100
AcDbRegAppTableRecord
  2
DESIGNERASSEMBLIES
 70
     0
  0
APPID
  5
111
330
9
100
AcDbSymbolTableRecord
100
AcDbRegAppTableRecord
  2
ACADM_DIM_EDIT
 70
     0
  0
APPID
  5
112
330
9
100
AcDbSymbolTableRecord
100
AcDbRegAppTableRecord
  2
AMDT_DM_ADJ
 70
     0
  0
APPID
  5
1A3
330
9
100
AcDbSymbolTableRecord
100
AcDbRegAppTableRecord
  2
ACAD_DSTYLE_DIMARC_LENGTH_SYMBOL
 70
     0
  0
APPID
  5
1A4
330
9
100
AcDbSymbolTableRecord
100
AcDbRegAppTableRecord
  2
ACAD_DSTYLE_DIMJOGGED_JOGANGLE_SYMBOL
 70
     0
  0
APPID
  5
2C6
330
9
100
AcDbSymbolTableRecord
100
AcDbRegAppTableRecord
  2
ACAD_MLEADERVER
 70
     0
  0
APPID
  5
36E
330
9
100
AcDbSymbolTableRecord
100
AcDbRegAppTableRecord
  2
ACAD_EXEMPT_FROM_CAD_STANDARDS
 70
     0
  0
APPID
  5
44A
330
9
100
AcDbSymbolTableRecord
100
AcDbRegAppTableRecord
  2
AcAecLayerStandard
 70
     0
  0
APPID
  5
44B
330
9
100
AcDbSymbolTableRecord
100
AcDbRegAppTableRecord
  2
GENIUS_GENOENT_13
 70
     0
  0
APPID
  5
44C
330
9
100
AcDbSymbolTableRecord
100
AcDbRegAppTableRecord
  2
GENIUS_GENOLIS_13
 70
     0
  0
APPID
  5
44D
330
9
100
AcDbSymbolTableRecord
100
AcDbRegAppTableRecord
  2
GENIUS_GENODEF_13
 70
     0
  0
APPID
  5
44E
330
9
100
AcDbSymbolTableRecord
100
AcDbRegAppTableRecord
  2
GENIUS_GENOBJ-N-CRS_13
 70
     0
  0
APPID
  5
44F
330
9
100
AcDbSymbolTableRecord
100
AcDbRegAppTableRecord
  2
GENIUS_GENOREF_13
 70
     0
  0
APPID
  5
450
330
9
100
AcDbSymbolTableRecord
100
AcDbRegAppTableRecord
  2
GENIUS_GENOBJ-N-CEN_13
 70
     0
  0
APPID
  5
451
330
9
100
AcDbSymbolTableRecord
100
AcDbRegAppTableRecord
  2
GENIUS_GENCEN_19
 70
     0
  0
APPID
  5
452
330
9
100
AcDbSymbolTableRecord
100
AcDbRegAppTableRecord
  2
ACAD_DSTYLE_DIMINSPECT
 70
     0
  0
APPID
  5
453
330
9
100
AcDbSymbolTableRecord
100
AcDbRegAppTableRecord
  2
GENIUS_GENOBJ-N-FIL_13
 70
     0
  0
APPID
  5
454
330
9
100
AcDbSymbolTableRecord
100
AcDbRegAppTableRecord
  2
GENIUS_GENOBJ-N-HTC_13
 70
     0
  0
APPID
  5
455
330
9
100
AcDbSymbolTableRecord
100
AcDbRegAppTableRecord
  2
GENIUS_GENHATCH_13
 70
     0
  0
APPID
  5
722
330
9
100
AcDbSymbolTableRecord
100
AcDbRegAppTableRecord
  2
ACAD_DSTYLE_DIM_LINETYPE
 70
     0
  0
APPID
  5
723
330
9
100
AcDbSymbolTableRecord
100
AcDbRegAppTableRecord
  2
ACAD_DSTYLE_DIM_EXT1_LINETYPE
 70
     0
  0
APPID
  5
724
330
9
100
AcDbSymbolTableRecord
100
AcDbRegAppTableRecord
  2
ACAD_DSTYLE_DIM_EXT2_LINETYPE
 70
     0
  0
ENDTAB
  0
TABLE
  2
DIMSTYLE
  5
A
330
0
100
AcDbSymbolTable
 70
    10
100
AcDbDimStyleTable
 71
     1
340
81
  0
DIMSTYLE
105
27
330
A
100
AcDbSymbolTableRecord
100
AcDbDimStyleTableRecord
  2
ISO-25
 70
     0
 41
2.5
 42
0.625
 43
3.75
 44
1.25
 73
     0
 74
     0
 77
     1
 78
     8
140
2.5
141
2.5
143
0.03937007874016
147
0.625
171
     3
172
     1
271
     2
272
     2
274
     3
278
    44
283
     0
284
     8
340
11
  0
DIMSTYLE
105
81
102
{ACAD_REACTORS
330
62
102
}
330
A
100
AcDbSymbolTableRecord
100
AcDbDimStyleTableRecord
  2
AM_ISO
 70
     0
  4
"
 41
3.5
 42
1.0
 43
10.0
 44
1.0
 47
0.1
 48
0.1
 73
     0
 74
     0
 77
     1
 78
     8
 79
     2
140
3.5
141
0.0
143
0.0393701
146
0.71
147
1.5
172
     1
176
   256
177
   256
178
   140
271
     2
272
     3
274
     4
283
     0
284
     8
340
11
371
    -1
372
    -1
1001
ACAD_DSTYLE_DIMJOGGED_JOGANGLE_SYMBOL
1070
   384
1040
0.7853981633974483
1001
ACAD_DSTYLE_DIMARC_LENGTH_SYMBOL
1070
   379
1070
     1
1001
ACAD_DSTYLE_DIM_LINETYPE
1070
   380
1005
14
1001
ACAD_DSTYLE_DIM_EXT1_LINETYPE
1070
   381
1005
14
1001
ACAD_DSTYLE_DIM_EXT2_LINETYPE
1070
   382
1005
14
  0
DIMSTYLE
105
82
330
A
100
AcDbSymbolTableRecord
100
AcDbDimStyleTableRecord
  2
AM_ISO$3
 70
     0
  4
"
 41
3.5
 42
1.0
 43
10.0
 44
1.0
 47
0.1
 48
0.1
 73
     0
 77
     1
 78
     8
 79
     2
140
3.5
141
0.0
143
0.0393701
146
0.71
147
1.5
176
   256
177
   256
178
   140
271
     2
272
     3
274
     4
283
     0
284
     8
288
     1
289
     0
340
11
371
    -1
372
    -1
1001
ACAD_DSTYLE_DIMJOGGED_JOGANGLE_SYMBOL
1070
   384
1040
0.7853981633974483
1001
ACAD_DSTYLE_DIMARC_LENGTH_SYMBOL
1070
   379
1070
     1
1001
ACAD_DSTYLE_DIM_LINETYPE
1070
   380
1005
14
1001
ACAD_DSTYLE_DIM_EXT1_LINETYPE
1070
   381
1005
14
1001
ACAD_DSTYLE_DIM_EXT2_LINETYPE
1070
   382
1005
14
  0
DIMSTYLE
105
83
330
A
100
AcDbSymbolTableRecord
100
AcDbDimStyleTableRecord
  2
AM_ISO$4
 70
     0
  4
"
 41
3.5
 42
1.0
 43
10.0
 44
1.0
 47
0.1
 48
0.1
 73
     0
 74
     0
 77
     1
 78
     8
 79
     2
140
3.5
141
0.0
143
0.0393701
146
0.71
147
1.5
172
     1
176
   256
177
   256
178
   140
271
     2
272
     3
274
     4
283
     0
284
     8
340
11
371
    -1
372
    -1
1001
ACAD_DSTYLE_DIMJOGGED_JOGANGLE_SYMBOL
1070
   384
1040
0.7853981633974483
1001
ACAD_DSTYLE_DIMARC_LENGTH_SYMBOL
1070
   379
1070
     1
1001
ACAD_DSTYLE_DIM_LINETYPE
1070
   380
1005
14
1001
ACAD_DSTYLE_DIM_EXT1_LINETYPE
1070
   381
1005
14
1001
ACAD_DSTYLE_DIM_EXT2_LINETYPE
1070
   382
1005
14
  0
DIMSTYLE
105
84
330
A
100
AcDbSymbolTableRecord
100
AcDbDimStyleTableRecord
  2
AM_ISO$6
 70
     0
  4
"
 41
3.5
 42
1.0
 43
10.0
 44
1.0
 47
0.1
 48
0.1
 73
     0
 74
     0
 78
     8
 79
     2
140
3.5
141
0.0
143
0.0393701
146
0.71
147
1.5
172
     1
176
   256
177
   256
178
   140
271
     2
272
     3
274
     4
283
     0
284
     8
340
11
371
    -1
372
    -1
1001
ACAD_DSTYLE_DIMJOGGED_JOGANGLE_SYMBOL
1070
   384
1040
0.7853981633974483
1001
ACAD_DSTYLE_DIMARC_LENGTH_SYMBOL
1070
   379
1070
     1
1001
ACAD_DSTYLE_DIM_LINETYPE
1070
   380
1005
14
1001
ACAD_DSTYLE_DIM_EXT1_LINETYPE
1070
   381
1005
14
1001
ACAD_DSTYLE_DIM_EXT2_LINETYPE
1070
   382
1005
14
  0
DIMSTYLE
105
85
330
A
100
AcDbSymbolTableRecord
100
AcDbDimStyleTableRecord
  2
AM_ISO$7
 70
     0
  4
"
 41
3.5
 42
1.0
 43
10.0
 44
1.0
 47
0.1
 48
0.1
 73
     0
 74
     0
 77
     1
 78
     8
 79
     2
140
3.5
141
0.0
143
0.0393701
146
0.71
147
1.5
172
     1
176
   256
177
   256
178
   140
271
     2
272
     3
274
     4
283
     0
284
     8
340
11
371
    -1
372
    -1
1001
ACAD_DSTYLE_DIMJOGGED_JOGANGLE_SYMBOL
1070
   384
1040
0.7853981633974483
1001
ACAD_DSTYLE_DIMARC_LENGTH_SYMBOL
1070
   379
1070
     1
1001
ACAD_DSTYLE_DIM_LINETYPE
1070
   380
1005
14
1001
ACAD_DSTYLE_DIM_EXT1_LINETYPE
1070
   381
1005
14
1001
ACAD_DSTYLE_DIM_EXT2_LINETYPE
1070
   382
1005
14
  0
DIMSTYLE
105
86
330
A
100
AcDbSymbolTableRecord
100
AcDbDimStyleTableRecord
  2
AM_ISO$SF
 70
     0
  4
"
 41
3.5
 42
1.0
 43
10.0
 44
1.0
 47
0.1
 48
0.1
 73
     0
 74
     0
 75
     1
 76
     1
 77
     1
 78
     8
 79
     2
140
3.5
141
0.0
143
0.0393701
146
0.71
147
1.5
172
     1
176
   256
177
   256
178
   140
271
     2
272
     3
274
     4
283
     0
284
     8
340
11
371
    -1
372
    -1
1001
ACAD_DSTYLE_DIMJOGGED_JOGANGLE_SYMBOL
1070
   384
1040
0.7853981633974483
1001
ACAD_DSTYLE_DIMARC_LENGTH_SYMBOL
1070
   379
1070
     1
1001
ACAD_DSTYLE_DIM_LINETYPE
1070
   380
1005
14
1001
ACAD_DSTYLE_DIM_EXT1_LINETYPE
1070
   381
1005
14
1001
ACAD_DSTYLE_DIM_EXT2_LINETYPE
1070
   382
1005
14
  0
DIMSTYLE
105
8B
330
A
100
AcDbSymbolTableRecord
100
AcDbDimStyleTableRecord
  2
AM_ISO$SH
 70
     0
  4
"
 41
3.5
 42
1.0
 43
10.0
 44
1.0
 47
0.1
 48
0.1
 73
     0
 74
     0
 75
     1
 76
     1
 77
     1
 78
     8
 79
     2
140
3.5
141
0.0
143
0.0393701
144
2.0
146
0.71
147
1.5
172
     1
173
     1
176
   256
177
   256
178
   140
271
     2
272
     3
274
     4
283
     0
284
     8
340
11
343
87
371
    -1
372
    -1
1001
ACAD_DSTYLE_DIMJOGGED_JOGANGLE_SYMBOL
1070
   384
1040
0.7853981633974483
1001
ACAD_DSTYLE_DIMARC_LENGTH_SYMBOL
1070
   379
1070
     1
1001
ACAD_DSTYLE_DIM_LINETYPE
1070
   380
1005
14
1001
ACAD_DSTYLE_DIM_EXT1_LINETYPE
1070
   381
1005
14
1001
ACAD_DSTYLE_DIM_EXT2_LINETYPE
1070
   382
1005
14
  0
DIMSTYLE
105
449
102
{ACAD_REACTORS
330
4BC
330
4BD
330
4BE
330
4BF
330
4C1
330
506
330
5BD
330
5BE
330
5BF
330
5C0
330
5C2
330
607
102
}
330
A
100
AcDbSymbolTableRecord
100
AcDbDimStyleTableRecord
  2
AM_DIN$0
 70
     0
  4
"
 41
3.5
 42
1.0
 43
10.0
 44
1.0
 47
0.1
 48
0.1
 73
     0
 74
     0
 77
     1
 78
     8
 79
     2
140
3.5
141
0.0
143
0.0393701
146
0.71
147
1.5
172
     1
176
   256
177
   256
178
     2
271
     2
272
     3
274
     4
283
     0
284
     8
340
11
371
    -1
372
    -1
1001
ACAD_DSTYLE_DIMJOGGED_JOGANGLE_SYMBOL
1070
   384
1040
1.570796326794896
1001
ACAD_DSTYLE_DIM_LINETYPE
1070
   380
1005
14
1001
ACAD_DSTYLE_DIM_EXT1_LINETYPE
1070
   381
1005
14
1001
ACAD_DSTYLE_DIM_EXT2_LINETYPE
1070
   382
1005
14
  0
ENDTAB
  0
TABLE
  2
BLOCK_RECORD
  5
1
330
0
100
AcDbSymbolTable
 70
    20
  0
BLOCK_RECORD
  5
1F
102
{ACAD_XDICTIONARY
360
8F
102
}
330
1
100
AcDbSymbolTableRecord
100
AcDbBlockTableRecord
  2
*Model_Space
340
22
  0
BLOCK_RECORD
  5
1B
330
1
100
AcDbSymbolTableRecord
100
AcDbBlockTableRecord
  2
*Paper_Space
340
1E
  0
BLOCK_RECORD
  5
23
330
1
100
AcDbSymbolTableRecord
100
AcDbBlockTableRecord
  2
*Paper_Space0
340
26
  0
BLOCK_RECORD
  5
87
330
1
100
AcDbSymbolTableRecord
100
AcDbBlockTableRecord
  2
GENAXEH
340
0
  0
BLOCK_RECORD
  5
3AE
330
1
100
AcDbSymbolTableRecord
100
AcDbBlockTableRecord
  2
befestigung
340
0
310
2800000020000000200000000100080000000000000400000000000000000000000000000000000000000000000080000080000000808000800000008000800080800000C0C0C000C0DCC000F0CAA6000020400000206000002080000020A0000020C0000020E00000400000004020000040400000406000004080000040A0
310
000040C0000040E00000600000006020000060400000606000006080000060A0000060C0000060E00000800000008020000080400000806000008080000080A0000080C0000080E00000A0000000A0200000A0400000A0600000A0800000A0A00000A0C00000A0E00000C0000000C0200000C0400000C0600000C0800000C0
310
A00000C0C00000C0E00000E0000000E0200000E0400000E0600000E0800000E0A00000E0C00000E0E00040000000400020004000400040006000400080004000A0004000C0004000E00040200000402020004020400040206000402080004020A0004020C0004020E000404000004040200040404000404060004040800040
310
40A0004040C0004040E00040600000406020004060400040606000406080004060A0004060C0004060E00040800000408020004080400040806000408080004080A0004080C0004080E00040A0000040A0200040A0400040A0600040A0800040A0A00040A0C00040A0E00040C0000040C0200040C0400040C0600040C08000
310
40C0A00040C0C00040C0E00040E0000040E0200040E0400040E0600040E0800040E0A00040E0C00040E0E00080000000800020008000400080006000800080008000A0008000C0008000E00080200000802020008020400080206000802080008020A0008020C0008020E00080400000804020008040400080406000804080
310
008040A0008040C0008040E00080600000806020008060400080606000806080008060A0008060C0008060E00080800000808020008080400080806000808080008080A0008080C0008080E00080A0000080A0200080A0400080A0600080A0800080A0A00080A0C00080A0E00080C0000080C0200080C0400080C0600080C0
310
800080C0A00080C0C00080C0E00080E0000080E0200080E0400080E0600080E0800080E0A00080E0C00080E0E000C0000000C0002000C0004000C0006000C0008000C000A000C000C000C000E000C0200000C0202000C0204000C0206000C0208000C020A000C020C000C020E000C0400000C0402000C0404000C0406000C0
310
408000C040A000C040C000C040E000C0600000C0602000C0604000C0606000C0608000C060A000C060C000C060E000C0800000C0802000C0804000C0806000C0808000C080A000C080C000C080E000C0A00000C0A02000C0A04000C0A06000C0A08000C0A0A000C0A0C000C0A0E000C0C00000C0C02000C0C04000C0C06000
310
C0C08000C0C0A000F0FBFF00A4A0A000808080000000FF0000FF000000FFFF00FF000000FF00FF00FFFF0000FFFFFF00000000000000000000000000000000000000000000000000000000000000000000000000000000000000000000000000000000000000FF000000000000000000000000000000000000000000000000
310
000000000000FF00FFFFFF00000000000000000000000000000000000000000000000000FFFF0000000000FF0000000000000000000000000000000000000000000000FF00000000000000FF00000000000000000000000000000000000000000000FF000000000000000000FF000000000000000000000000000000000000
310
0000FF00000000000000000000FF00000000000000000000000000000000000000FF0000000000000000000000FF000000000000000000000000000000000000FF0000000000000000000000FF00000000000000000000000000000000FFFFFF0000000000000000000000FF0000000000000000000000FFFFFFFFFF00FFFF
310
FFFFFF00000000000000FFFF0000000000000000000000FFFF000000FF00FFFF000000FFFFFFFFFFFFFF00000000000000000000000000FFFF000000FF00FFFF00000000000000FF000000000000000000000000000000FFFFFFFFFFFF00FFFF00000000000000FF3030303030FFFF0000000000000000FFFF000000FF00FF
310
FF00000000000000FF0000000000FFFF0000000000000000FFFF000000FF00FFFF00000000000000FF0000000000FFFF000000000000E8E8FFFFE8E8E8E8E8FFFFE8E8E8E8E8E8E8FFE8E8E8E8E8FFFFE8E8000000000000FFFF000000FF00FFFF00000000000000FF0000000000FFFF0000000000000000FFFFFFFFFFFF00
310
FFFF00000000000000FFFFFFFFFFFFFFFF0000000000000000FFFF000000FF00FFFF00000000000000FF000000000000000000000000000000FFFF000000FF00FFFF00000000FFFFFFFFFF000000000000000000000000000000FFFFFFFFFF00FFFFFFFFFFFF0000000000FFFFFF0000000000000000000000000000000000
310
00FFFFFF0000000000000000000000FF0000000000000000000000000000000000000000FF0000000000000000000000FF0000000000000000000000000000000000000000FF0000000000000000000000FF0000000000000000000000000000000000000000FF00000000000000000000FF00000000000000000000000000
310
0000000000000000FF000000000000000000FF00000000000000000000000000000000000000000000FF00000000000000FF000000000000000000000000000000000000000000000000FF000000000000FF00000000000000000000000000000000000000000000000000FFFF0000FFFF0000000000000000000000000000
310
0000000000000000000000000000FFFF00000000000000000000000000000000000000000000000000000000000000000000000000000000
102
{BLKREFS
331
552
331
553
331
653
331
654
102
}
1001
ACAD
1000
DesignCenter Data
1002
{
1070
     1
1070
     4
1002
}
  0
BLOCK_RECORD
  5
3D2
330
1
100
AcDbSymbolTableRecord
100
AcDbBlockTableRecord
  2
*U4
340
0
102
{BLKREFS
331
3CF
102
}
  0
BLOCK_RECORD
  5
3E0
330
1
100
AcDbSymbolTableRecord
100
AcDbBlockTableRecord
  2
*U5
340
0
102
{BLKREFS
331
3D0
102
}
  0
BLOCK_RECORD
  5
3E8
330
1
100
AcDbSymbolTableRecord
100
AcDbBlockTableRecord
  2
*D6
340
0
  0
BLOCK_RECORD
  5
3F4
330
1
100
AcDbSymbolTableRecord
100
AcDbBlockTableRecord
  2
*D7
340
0
  0
BLOCK_RECORD
  5
400
330
1
100
AcDbSymbolTableRecord
100
AcDbBlockTableRecord
  2
*D8
340
0
  0
BLOCK_RECORD
  5
40C
330
1
100
AcDbSymbolTableRecord
100
AcDbBlockTableRecord
  2
*D9
340
0
  0
BLOCK_RECORD
  5
418
330
1
100
AcDbSymbolTableRecord
100
AcDbBlockTableRecord
  2
*D10
340
0
  0
BLOCK_RECORD
  5
424
330
1
100
AcDbSymbolTableRecord
100
AcDbBlockTableRecord
  2
*D11
340
0
  0
BLOCK_RECORD
  5
656
330
1
100
AcDbSymbolTableRecord
100
AcDbBlockTableRecord
  2
*D13
340
0
  0
BLOCK_RECORD
  5
662
330
1
100
AcDbSymbolTableRecord
100
AcDbBlockTableRecord
  2
*D14
340
0
  0
BLOCK_RECORD
  5
66E
330
1
100
AcDbSymbolTableRecord
100
AcDbBlockTableRecord
  2
*D15
340
0
  0
BLOCK_RECORD
  5
67A
330
1
100
AcDbSymbolTableRecord
100
AcDbBlockTableRecord
  2
*D16
340
0
  0
BLOCK_RECORD
  5
686
330
1
100
AcDbSymbolTableRecord
100
AcDbBlockTableRecord
  2
*D17
340
0
  0
BLOCK_RECORD
  5
692
330
1
100
AcDbSymbolTableRecord
100
AcDbBlockTableRecord
  2
*D18
340
0
  0
ENDTAB
  0
ENDSEC
  0
SECTION
  2
BLOCKS
  0
BLOCK
  5
20
330
1F
100
AcDbEntity
  8
0
100
AcDbBlockBegin
  2
*Model_Space
 70
     0
 10
0.0
 20
0.0
 30
0.0
  3
*Model_Space
  1

  0
ENDBLK
  5
21
330
1F
100
AcDbEntity
  8
0
100
AcDbBlockEnd
  0
BLOCK
  5
1C
330
1B
100
AcDbEntity
 67
     1
  8
0
100
AcDbBlockBegin
  2
*Paper_Space
 70
     0
 10
0.0
 20
0.0
 30
0.0
  3
*Paper_Space
  1

  0
ENDBLK
  5
1D
330
1B
100
AcDbEntity
 67
     1
  8
0
100
AcDbBlockEnd
  0
BLOCK
  5
24
330
23
100
AcDbEntity
 67
     1
  8
0
100
AcDbBlockBegin
  2
*Paper_Space0
 70
     0
 10
0.0
 20
0.0
 30
0.0
  3
*Paper_Space0
  1

  0
ENDBLK
  5
25
330
23
100
AcDbEntity
 67
     1
  8
0
100
AcDbBlockEnd
  0
BLOCK
  5
89
330
87
100
AcDbEntity
  8
0
100
AcDbBlockBegin
  2
GENAXEH
 70
     0
 10
0.0
 20
0.0
 30
0.0
  3
GENAXEH
  1

  0
LINE
  5
88
330
87
100
AcDbEntity
  8
0
100
AcDbLine
 10
-1.0
 20
0.0
 30
0.0
 11
1.0
 21
0.0
 31
0.0
  0
ENDBLK
  5
8A
330
87
100
AcDbEntity
  8
0
100
AcDbBlockEnd
  0
BLOCK
  5
3AF
330
3AE
100
AcDbEntity
  8
0
100
AcDbBlockBegin
  2
befestigung
 70
     0
 10
0.0
 20
0.0
 30
0.0
  3
befestigung
  1

  0
LINE
  5
3B0
330
3AE
100
AcDbEntity
  8
AM_7N
  6
AM_ISO08W050x2
100
AcDbLine
 10
2003.869006815402
 20
1351.458312600669
 30
0.0
 11
2040.549006815402
 21
1351.458312600669
 31
0.0
1001
GENIUS_GENOREF_13
1005
0
1005
0
1005
0
  0
LINE
  5
3B1
330
3AE
100
AcDbEntity
  8
AM_9N
100
AcDbLine
 10
2015.674006815402
 20
1347.458312600669
 30
0.0
 11
2017.974006815402
 21
1347.458312600669
 31
0.0
1001
GENIUS_GENOREF_13
1005
0
1005
0
1005
0
  0
LINE
  5
3B2
330
3AE
100
AcDbEntity
  8
AM_9N
100
AcDbLine
 10
2022.209006815402
 20
1347.458312600669
 30
0.0
 11
2032.209006815401
 21
1347.458312600669
 31
0.0
1001
GENIUS_GENOREF_13
1005
0
1005
0
1005
0
  0
LINE
  5
3B3
330
3AE
100
AcDbEntity
  8
AM_0N
100
AcDbLine
 10
2027.974006815401
 20
1347.458312600669
 30
0.0
 11
2036.782194315402
 21
1347.458312600669
 31
0.0
1001
GENIUS_GENOREF_13
1005
0
1005
0
1005
0
  0
LINE
  5
3B4
330
3AE
100
AcDbEntity
  8
AM_9N
100
AcDbLine
 10
2015.674006815402
 20
1348.225125100669
 30
0.0
 11
2017.974006815402
 21
1348.225125100669
 31
0.0
1001
GENIUS_GENOREF_13
1005
0
1005
0
1005
0
  0
LINE
  5
3B5
330
3AE
100
AcDbEntity
  8
AM_9N
100
AcDbLine
 10
2022.209006815402
 20
1348.225125100669
 30
0.0
 11
2032.209006815401
 21
1348.225125100669
 31
0.0
1001
GENIUS_GENOREF_13
1005
0
1005
0
1005
0
  0
LINE
  5
3B6
330
3AE
100
AcDbEntity
  8
AM_4N
100
AcDbLine
 10
2027.974006815401
 20
1348.225125100669
 30
0.0
 11
2037.549006815402
 21
1348.225125100669
 31
0.0
1001
GENIUS_GENOREF_13
1005
0
1005
0
1005
0
  0
LINE
  5
3B7
330
3AE
100
AcDbEntity
  8
AM_9N
100
AcDbLine
 10
2015.674006815402
 20
1354.691500100669
 30
0.0
 11
2017.974006815402
 21
1354.691500100669
 31
0.0
1001
GENIUS_GENOREF_13
1005
0
1005
0
1005
0
  0
LINE
  5
3B8
330
3AE
100
AcDbEntity
  8
AM_9N
100
AcDbLine
 10
2027.974006815401
 20
1354.691500100669
 30
0.0
 11
2032.209006815401
 21
1354.691500100669
 31
0.0
1001
GENIUS_GENOREF_13
1005
0
1005
0
1005
0
  0
LINE
  5
3B9
330
3AE
100
AcDbEntity
  8
AM_4N
100
AcDbLine
 10
2027.974006815401
 20
1354.691500100669
 30
0.0
 11
2037.549006815402
 21
1354.691500100669
 31
0.0
1001
GENIUS_GENOREF_13
1005
0
1005
0
1005
0
  0
LINE
  5
3BA
330
3AE
100
AcDbEntity
  8
AM_9N
100
AcDbLine
 10
2015.674006815402
 20
1355.458312600669
 30
0.0
 11
2017.974006815402
 21
1355.458312600669
 31
0.0
1001
GENIUS_GENOREF_13
1005
0
1005
0
1005
0
  0
LINE
  5
3BB
330
3AE
100
AcDbEntity
  8
AM_9N
100
AcDbLine
 10
2027.974006815401
 20
1355.458312600669
 30
0.0
 11
2032.209006815401
 21
1355.458312600669
 31
0.0
1001
GENIUS_GENOREF_13
1005
0
1005
0
1005
0
  0
LINE
  5
3BC
330
3AE
100
AcDbEntity
  8
AM_0N
100
AcDbLine
 10
2027.974006815401
 20
1355.458312600669
 30
0.0
 11
2036.782194315402
 21
1355.458312600669
 31
0.0
1001
GENIUS_GENOREF_13
1005
0
1005
0
1005
0
  0
ARC
  5
3BD
330
3AE
100
AcDbEntity
  8
AM_0N
100
AcDbCircle
 10
2019.27813978905
 20
1351.458312600669
 30
0.0
 40
12.4091329736479
100
AcDbArc
 50
162.3875260144767
 51
197.6124739855233
1001
GENIUS_GENOREF_13
1005
0
1005
0
1005
0
  0
LINE
  5
3BE
330
3AE
100
AcDbEntity
  8
AM_0N
100
AcDbLine
 10
2012.549006815402
 20
1347.458312600669
 30
0.0
 11
2012.549006815402
 21
1355.458312600669
 31
0.0
1001
GENIUS_GENOREF_13
1005
0
1005
0
1005
0
  0
LINE
  5
3BF
330
3AE
100
AcDbEntity
  8
AM_0N
100
AcDbLine
 10
2012.549006815402
 20
1355.458312600669
 30
0.0
 11
2012.549006815402
 21
1347.458312600669
 31
0.0
1001
GENIUS_GENOREF_13
1005
0
1005
0
1005
0
  0
LINE
  5
3C0
330
3AE
100
AcDbEntity
  8
AM_0N
100
AcDbLine
 10
2006.869006815402
 20
1357.958312600669
 30
0.0
 11
2006.869006815402
 21
1344.958312600669
 31
0.0
1001
GENIUS_GENOREF_13
1005
0
1005
0
1005
0
  0
LINE
  5
3C1
330
3AE
100
AcDbEntity
  8
AM_0N
100
AcDbLine
 10
2007.45068721161
 20
1343.950812600669
 30
0.0
 11
2012.549006815402
 21
1343.950812600669
 31
0.0
1001
GENIUS_GENOREF_13
1005
0
1005
0
1005
0
  0
LINE
  5
3C2
330
3AE
100
AcDbEntity
  8
AM_0N
100
AcDbLine
 10
2007.45068721161
 20
1347.703589350401
 30
0.0
 11
2012.549006815402
 21
1347.703589350401
 31
0.0
1001
GENIUS_GENOREF_13
1005
0
1005
0
1005
0
  0
ARC
  5
3C3
330
3AE
100
AcDbEntity
  8
AM_0N
100
AcDbCircle
 10
2010.186279876194
 20
1345.827200975535
 30
0.0
 40
3.317273060791837
100
AcDbArc
 50
145.5531276177371
 51
205.5531276177362
1001
GENIUS_GENOREF_13
1005
0
1005
0
1005
0
  0
LINE
  5
3C4
330
3AE
100
AcDbEntity
  8
AM_0N
100
AcDbLine
 10
2007.45068721161
 20
1343.950812600669
 30
0.0
 11
2006.869006815402
 21
1344.958312600669
 31
0.0
1001
GENIUS_GENOREF_13
1005
0
1005
0
1005
0
  0
LINE
  5
3C5
330
3AE
100
AcDbEntity
  8
AM_0N
100
AcDbLine
 10
2012.549006815402
 20
1343.950812600669
 30
0.0
 11
2012.549006815402
 21
1347.458312600669
 31
0.0
1001
GENIUS_GENOREF_13
1005
0
1005
0
1005
0
  0
LINE
  5
3C6
330
3AE
100
AcDbEntity
  8
AM_0N
100
AcDbLine
 10
2012.549006815402
 20
1355.458312600669
 30
0.0
 11
2012.549006815402
 21
1358.965812600669
 31
0.0
1001
GENIUS_GENOREF_13
1005
0
1005
0
1005
0
  0
LINE
  5
3C7
330
3AE
100
AcDbEntity
  8
AM_0N
100
AcDbLine
 10
2007.45068721161
 20
1358.965812600669
 30
0.0
 11
2006.869006815402
 21
1357.958312600669
 31
0.0
1001
GENIUS_GENOREF_13
1005
0
1005
0
1005
0
  0
LINE
  5
3C8
330
3AE
100
AcDbEntity
  8
AM_0N
100
AcDbLine
 10
2007.45068721161
 20
1355.213035850936
 30
0.0
 11
2012.549006815402
 21
1355.213035850936
 31
0.0
1001
GENIUS_GENOREF_13
1005
0
1005
0
1005
0
  0
ARC
  5
3C9
330
3AE
100
AcDbEntity
  8
AM_0N
100
AcDbCircle
 10
2010.186279876194
 20
1357.089424225803
 30
0.0
 40
3.317273060791837
100
AcDbArc
 50
154.4468723822637
 51
214.4468723822629
1001
GENIUS_GENOREF_13
1005
0
1005
0
1005
0
  0
LINE
  5
3CA
330
3AE
100
AcDbEntity
  8
AM_0N
100
AcDbLine
 10
2007.45068721161
 20
1358.965812600669
 30
0.0
 11
2012.549006815402
 21
1358.965812600669
 31
0.0
1001
GENIUS_GENOREF_13
1005
0
1005
0
1005
0
  0
LINE
  5
3CB
330
3AE
100
AcDbEntity
  8
AM_0N
100
AcDbLine
 10
2036.782194315402
 20
1347.458312600669
 30
0.0
 11
2036.782194315402
 21
1355.458312600669
 31
0.0
1001
GENIUS_GENOREF_13
1005
0
1005
0
1005
0
  0
LINE
  5
3CC
330
3AE
100
AcDbEntity
  8
AM_0N
100
AcDbLine
 10
2037.549006815402
 20
1348.225125100669
 30
0.0
 11
2036.782194315402
 21
1347.458312600669
 31
0.0
1001
GENIUS_GENOREF_13
1005
0
1005
0
1005
0
  0
LINE
  5
3CD
330
3AE
100
AcDbEntity
  8
AM_0N
100
AcDbLine
 10
2037.549006815402
 20
1348.225125100669
 30
0.0
 11
2037.549006815402
 21
1354.691500100669
 31
0.0
1001
GENIUS_GENOREF_13
1005
0
1005
0
1005
0
  0
LINE
  5
3CE
330
3AE
100
AcDbEntity
  8
AM_0N
100
AcDbLine
 10
2036.782194315402
 20
1355.458312600669
 30
0.0
 11
2037.549006815402
 21
1354.691500100669
 31
0.0
1001
GENIUS_GENOREF_13
1005
0
1005
0
1005
0
  0
INSERT
  5
3CF
330
3AE
100
AcDbEntity
  8
AM_0N
100
AcDbBlockReference
  2
*U4
 10
0.0
 20
0.0
 30
0.0
1001
GENIUS_GENOREF_13
1005
0
  0
INSERT
  5
3D0
330
3AE
100
AcDbEntity
  8
AM_0N
100
AcDbBlockReference
  2
*U5
 10
0.0
 20
0.0
 30
0.0
1001
GENIUS_GENOREF_13
1005
0
  0
ENDBLK
  5
3D1
330
3AE
100
AcDbEntity
  8
0
100
AcDbBlockEnd
  0
BLOCK
  5
3D3
330
3D2
100
AcDbEntity
  8
0
100
AcDbBlockBegin
  2
*U4
 70
     1
 10
0.0
 20
0.0
 30
0.0
  3
*U4
  1

  0
ARC
  5
3D4
330
3D2
100
AcDbEntity
  8
AM_0N
100
AcDbCircle
 10
2031.974006815402
 20
1364.958312600669
 30
0.0
 40
6.0
100
AcDbArc
 50
284.6765041088877
 51
134.956760177952
  0
LINE
  5
3D5
330
3D2
100
AcDbEntity
  8
AM_0N
100
AcDbLine
 10
2017.974006815402
 20
1359.458312600669
 30
0.0
 11
2027.734569160611
 21
1369.204153903773
 31
0.0
  0
LINE
  5
3D6
330
3D2
100
AcDbEntity
  8
AM_0N
100
AcDbLine
 10
2027.974006815401
 20
1357.708312600669
 30
0.0
 11
2033.494174408163
 21
1359.154082204663
 31
0.0
  0
ARC
  5
3D7
330
3D2
100
AcDbEntity
  8
AM_0N
100
AcDbCircle
 10
2031.974006815402
 20
1337.958312600669
 30
0.0
 40
6.0
100
AcDbArc
 50
225.043239822048
 51
75.3234958911123
  0
LINE
  5
3D8
330
3D2
100
AcDbEntity
  8
AM_0N
100
AcDbLine
 10
2017.974006815402
 20
1343.458312600669
 30
0.0
 11
2027.734569160611
 21
1333.712471297565
 31
0.0
  0
LINE
  5
3D9
330
3D2
100
AcDbEntity
  8
AM_7N
  6
AM_ISO08W050x2
100
AcDbLine
 10
2030.974006815402
 20
1351.458312600669
 30
0.0
 11
2014.974006815402
 21
1351.458312600669
 31
0.0
  0
LINE
  5
3DA
330
3D2
100
AcDbEntity
  8
AM_0N
100
AcDbLine
 10
2017.974006815402
 20
1343.458312600669
 30
0.0
 11
2017.974006815402
 21
1359.458312600669
 31
0.0
  0
LINE
  5
3DB
330
3D2
100
AcDbEntity
  8
AM_0N
100
AcDbLine
 10
2027.974006815401
 20
1357.708312600669
 30
0.0
 11
2027.974006815401
 21
1345.208312600669
 31
0.0
  0
LINE
  5
3DC
330
3D2
100
AcDbEntity
  8
AM_0N
100
AcDbLine
 10
2027.974006815401
 20
1345.208312600669
 30
0.0
 11
2017.974006815402
 21
1343.458312600669
 31
0.0
  0
LINE
  5
3DD
330
3D2
100
AcDbEntity
  8
AM_0N
100
AcDbLine
 10
2027.974006815401
 20
1345.208312600669
 30
0.0
 11
2033.494174408163
 21
1343.762542996675
 31
0.0
  0
LINE
  5
3DE
330
3D2
100
AcDbEntity
  8
AM_0N
100
AcDbLine
 10
2017.974006815402
 20
1359.458312600669
 30
0.0
 11
2027.974006815401
 21
1357.708312600669
 31
0.0
  0
ENDBLK
  5
3DF
330
3D2
100
AcDbEntity
  8
0
100
AcDbBlockEnd
  0
BLOCK
  5
3E1
330
3E0
100
AcDbEntity
  8
0
100
AcDbBlockBegin
  2
*U5
 70
     1
 10
0.0
 20
0.0
 30
0.0
  3
*U5
  1

  0
LINE
  5
3E2
330
3E0
100
AcDbEntity
  8
AM_7N
  6
AM_ISO08W050x2
100
AcDbLine
 10
2012.674006815402
 20
1351.458312600669
 30
0.0
 11
2020.974006815402
 21
1351.458312600669
 31
0.0
  0
LINE
  5
3E3
330
3E0
100
AcDbEntity
  8
AM_0N
100
AcDbLine
 10
2015.674006815402
 20
1360.858312600669
 30
0.0
 11
2015.674006815402
 21
1342.058312600669
 31
0.0
  0
LINE
  5
3E4
330
3E0
100
AcDbEntity
  8
AM_0N
100
AcDbLine
 10
2017.974006815402
 20
1342.058312600669
 30
0.0
 11
2017.974006815402
 21
1360.858312600669
 31
0.0
  0
LINE
  5
3E5
330
3E0
100
AcDbEntity
  8
AM_0N
100
AcDbLine
 10
2015.674006815402
 20
1342.058312600669
 30
0.0
 11
2017.974006815402
 21
1342.058312600669
 31
0.0
  0
LINE
  5
3E6
330
3E0
100
AcDbEntity
  8
AM_0N
100
AcDbLine
 10
2017.974006815402
 20
1360.858312600669
 30
0.0
 11
2015.674006815402
 21
1360.858312600669
 31
0.0
  0
ENDBLK
  5
3E7
330
3E0
100
AcDbEntity
  8
0
100
AcDbBlockEnd
  0
BLOCK
  5
3E9
330
3E8
100
AcDbEntity
  8
0
100
AcDbBlockBegin
  2
*D6
 70
     1
 10
0.0
 20
0.0
 30
0.0
  3
*D6
  1

  0
LINE
  5
3EA
330
3E8
100
AcDbEntity
  8
AM_5
  6
ByBlock
100
AcDbLine
 10
879.7834282798721
 20
275.7555291484384
 30
0.0
 11
1002.067115929104
 21
275.7555291484384
 31
0.0
  0
LINE
  5
3EB
330
3E8
100
AcDbEntity
  8
AM_5
  6
ByBlock
100
AcDbLine
 10
902.7702854223971
 20
402.6829577202836
 30
0.0
 11
1002.067115929104
 21
402.6829577202836
 31
0.0
  0
LINE
  5
3EC
330
3E8
100
AcDbEntity
  8
AM_5
  6
ByBlock
100
AcDbLine
 10
1001.067115929104
 20
282.7555291484383
 30
0.0
 11
1001.067115929104
 21
395.6829577202837
 31
0.0
  0
SOLID
  5
3ED
330
3E8
100
AcDbEntity
  8
AM_5
100
AcDbTrace
 10
999.9004492624379
 20
282.7555291484383
 30
0.0
 11
1002.233782595771
 21
282.7555291484383
 31
0.0
 12
1001.067115929104
 22
275.7555291484384
 32
0.0
 13
1001.067115929104
 23
275.7555291484384
 33
0.0
  0
SOLID
  5
3EE
330
3E8
100
AcDbEntity
  8
AM_5
100
AcDbTrace
 10
999.9004492624379
 20
395.6829577202837
 30
0.0
 11
1002.233782595771
 21
395.6829577202837
 31
0.0
 12
1001.067115929104
 22
402.6829577202836
 32
0.0
 13
1001.067115929104
 23
402.6829577202836
 33
0.0
  0
MTEXT
  5
3EF
330
3E8
100
AcDbEntity
  8
AM_5
 62
     2
100
AcDbMText
 10
994.5671159291045
 20
339.2192434343612
 30
0.0
 40
10.0
 41
0.0
 71
     5
 72
     1
  1
105-160
 11
0.0000000000000001
 21
1.0
 31
0.0
 73
     1
 44
1.0
1001
ACAD
1000
MTEXTBEGIN
1070
    73
1070
     1
1070
    44
1040
1.0
1070
    74
1070
     0
1000
MTEXTEND
  0
POINT
  5
3F0
330
3E8
100
AcDbEntity
  8
Defpoints
 62
     0
100
AcDbPoint
 10
878.7834282798721
 20
275.7555291484384
 30
0.0
  0
POINT
  5
3F1
330
3E8
100
AcDbEntity
  8
Defpoints
 62
     0
100
AcDbPoint
 10
901.7702854223971
 20
402.6829577202836
 30
0.0
  0
POINT
  5
3F2
330
3E8
100
AcDbEntity
  8
Defpoints
 62
     0
100
AcDbPoint
 10
1001.067115929104
 20
402.6829577202836
 30
0.0
  0
ENDBLK
  5
3F3
330
3E8
100
AcDbEntity
  8
0
100
AcDbBlockEnd
  0
BLOCK
  5
3F5
330
3F4
100
AcDbEntity
  8
0
100
AcDbBlockBegin
  2
*D7
 70
     1
 10
0.0
 20
0.0
 30
0.0
  3
*D7
  1

  0
LINE
  5
3F6
330
3F4
100
AcDbEntity
  8
AM_5
  6
ByBlock
100
AcDbLine
 10
903.5702854229889
 20
26.58479991317859
 30
0.0
 11
988.7482833617482
 21
26.58479991317856
 31
0.0
  0
LINE
  5
3F7
330
3F4
100
AcDbEntity
  8
AM_5
  6
ByBlock
100
AcDbLine
 10
903.5702854229889
 20
159.5847999131786
 30
0.0
 11
988.7482833617482
 21
159.5847999131785
 31
0.0
  0
LINE
  5
3F8
330
3F4
100
AcDbEntity
  8
AM_5
  6
ByBlock
100
AcDbLine
 10
987.7482833617483
 20
33.58479991317857
 30
0.0
 11
987.7482833617483
 21
152.5847999131785
 31
0.0
  0
SOLID
  5
3F9
330
3F4
100
AcDbEntity
  8
AM_5
100
AcDbTrace
 10
986.5816166950816
 20
33.58479991317857
 30
0.0
 11
988.9149500284148
 21
33.58479991317857
 31
0.0
 12
987.7482833617483
 22
26.58479991317856
 32
0.0
 13
987.7482833617483
 23
26.58479991317856
 33
0.0
  0
SOLID
  5
3FA
330
3F4
100
AcDbEntity
  8
AM_5
100
AcDbTrace
 10
986.5816166950816
 20
152.5847999131785
 30
0.0
 11
988.9149500284148
 21
152.5847999131785
 31
0.0
 12
987.7482833617483
 22
159.5847999131785
 32
0.0
 13
987.7482833617483
 23
159.5847999131785
 33
0.0
  0
MTEXT
  5
3FB
330
3F4
100
AcDbEntity
  8
AM_5
 62
     2
100
AcDbMText
 10
981.2482833617481
 20
93.08479991317872
 30
0.0
 40
10.0
 41
0.0
 71
     5
 72
     1
  1
133
 11
0.0000000000000001
 21
1.0
 31
0.0
 73
     1
 44
1.0
1001
ACAD
1000
MTEXTBEGIN
1070
    73
1070
     1
1070
    44
1040
1.0
1070
    74
1070
     0
1000
MTEXTEND
  0
POINT
  5
3FC
330
3F4
100
AcDbEntity
  8
Defpoints
 62
     0
100
AcDbPoint
 10
902.5702854229889
 20
26.58479991317859
 30
0.0
  0
POINT
  5
3FD
330
3F4
100
AcDbEntity
  8
Defpoints
 62
     0
100
AcDbPoint
 10
902.5702854229889
 20
159.5847999131786
 30
0.0
  0
POINT
  5
3FE
330
3F4
100
AcDbEntity
  8
Defpoints
 62
     0
100
AcDbPoint
 10
987.7482833617483
 20
159.5847999131785
 30
0.0
  0
ENDBLK
  5
3FF
330
3F4
100
AcDbEntity
  8
0
100
AcDbBlockEnd
  0
BLOCK
  5
401
330
400
100
AcDbEntity
  8
0
100
AcDbBlockBegin
  2
*D8
 70
     1
 10
0.0
 20
0.0
 30
0.0
  3
*D8
  1

  0
LINE
  5
402
330
400
100
AcDbEntity
  8
AM_5
  6
ByBlock
100
AcDbLine
 10
882.7811425655058
 20
136.0847999131781
 30
0.0
 11
882.7811425655058
 21
197.1207857865258
 31
0.0
  0
LINE
  5
403
330
400
100
AcDbEntity
  8
AM_5
  6
ByBlock
100
AcDbLine
 10
-17.21885743449411
 20
158.5853713419155
 30
0.0
 11
-17.2188574344941
 21
197.1207857865258
 31
0.0
  0
LINE
  5
404
330
400
100
AcDbEntity
  8
AM_5
  6
ByBlock
100
AcDbLine
 10
875.7811425655059
 20
196.1207857865258
 30
0.0
 11
-10.21885743449411
 21
196.1207857865258
 31
0.0
  0
SOLID
  5
405
330
400
100
AcDbEntity
  8
AM_5
100
AcDbTrace
 10
875.7811425655059
 20
197.2874524531925
 30
0.0
 11
875.7811425655059
 21
194.9541191198592
 31
0.0
 12
882.7811425655058
 22
196.1207857865258
 32
0.0
 13
882.7811425655058
 23
196.1207857865258
 33
0.0
  0
SOLID
  5
406
330
400
100
AcDbEntity
  8
AM_5
100
AcDbTrace
 10
-10.21885743449411
 20
197.2874524531925
 30
0.0
 11
-10.21885743449411
 21
194.9541191198592
 31
0.0
 12
-17.2188574344941
 22
196.1207857865258
 32
0.0
 13
-17.2188574344941
 23
196.1207857865258
 33
0.0
  0
MTEXT
  5
407
330
400
100
AcDbEntity
  8
AM_5
 62
     2
100
AcDbMText
 10
433.8447308941922
 20
202.6207857865259
 30
0.0
 40
10.0
 41
0.0
 71
     5
 72
     1
  1
900
 73
     1
 44
1.0
1001
ACAD
1000
MTEXTBEGIN
1070
    73
1070
     1
1070
    44
1040
1.0
1070
    74
1070
     0
1000
MTEXTEND
  0
POINT
  5
408
330
400
100
AcDbEntity
  8
Defpoints
 62
     0
100
AcDbPoint
 10
882.7811425655058
 20
135.0847999131781
 30
0.0
  0
POINT
  5
409
330
400
100
AcDbEntity
  8
Defpoints
 62
     0
100
AcDbPoint
 10
-17.21885743449411
 20
157.5853713419155
 30
0.0
  0
POINT
  5
40A
330
400
100
AcDbEntity
  8
Defpoints
 62
     0
100
AcDbPoint
 10
-17.2188574344941
 20
196.1207857865258
 30
0.0
  0
ENDBLK
  5
40B
330
400
100
AcDbEntity
  8
0
100
AcDbBlockEnd
  0
BLOCK
  5
40D
330
40C
100
AcDbEntity
  8
0
100
AcDbBlockBegin
  2
*D9
 70
     1
 10
0.0
 20
0.0
 30
0.0
  3
*D9
  1

  0
LINE
  5
40E
330
40C
100
AcDbEntity
  8
AM_5
  6
ByBlock
100
AcDbLine
 10
902.5702854229889
 20
158.5853713419155
 30
0.0
 11
902.5702854229889
 21
230.3233359433266
 31
0.0
  0
LINE
  5
40F
330
40C
100
AcDbEntity
  8
AM_5
  6
ByBlock
100
AcDbLine
 10
-50.00000029139028
 20
157.5853713419167
 30
0.0
 11
-50.00000029139027
 21
230.3233359433266
 31
0.0
  0
LINE
  5
410
330
40C
100
AcDbEntity
  8
AM_5
  6
ByBlock
100
AcDbLine
 10
895.5702854229889
 20
229.3233359433266
 30
0.0
 11
-43.00000029139027
 21
229.3233359433266
 31
0.0
  0
SOLID
  5
411
330
40C
100
AcDbEntity
  8
AM_5
100
AcDbTrace
 10
895.5702854229889
 20
230.4900026099932
 30
0.0
 11
895.5702854229889
 21
228.1566692766599
 31
0.0
 12
902.5702854229889
 22
229.3233359433266
 32
0.0
 13
902.5702854229889
 23
229.3233359433266
 33
0.0
  0
SOLID
  5
412
330
40C
100
AcDbEntity
  8
AM_5
100
AcDbTrace
 10
-43.00000029139027
 20
230.4900026099932
 30
0.0
 11
-43.00000029139027
 21
228.1566692766599
 31
0.0
 12
-50.00000029139027
 22
229.3233359433266
 32
0.0
 13
-50.00000029139027
 23
229.3233359433266
 33
0.0
  0
MTEXT
  5
413
330
40C
100
AcDbEntity
  8
AM_5
 62
     2
100
AcDbMText
 10
433.1548051058762
 20
235.8233359433266
 30
0.0
 40
10.0
 41
0.0
 71
     5
 72
     1
  1
953
 73
     1
 44
1.0
1001
ACAD
1000
MTEXTBEGIN
1070
    73
1070
     1
1070
    44
1040
1.0
1070
    74
1070
     0
1000
MTEXTEND
  0
POINT
  5
414
330
40C
100
AcDbEntity
  8
Defpoints
 62
     0
100
AcDbPoint
 10
902.5702854229889
 20
157.5853713419155
 30
0.0
  0
POINT
  5
415
330
40C
100
AcDbEntity
  8
Defpoints
 62
     0
100
AcDbPoint
 10
-50.00000029139028
 20
156.5853713419167
 30
0.0
  0
POINT
  5
416
330
40C
100
AcDbEntity
  8
Defpoints
 62
     0
100
AcDbPoint
 10
-50.00000029139027
 20
229.3233359433266
 30
0.0
  0
ENDBLK
  5
417
330
40C
100
AcDbEntity
  8
0
100
AcDbBlockEnd
  0
BLOCK
  5
419
330
418
100
AcDbEntity
  8
0
100
AcDbBlockBegin
  2
*D10
 70
     1
 10
0.0
 20
0.0
 30
0.0
  3
*D10
  1

  0
LINE
  5
41A
330
418
100
AcDbEntity
  8
AM_5
  6
ByBlock
100
AcDbLine
 10
903.5702854229889
 20
51.08479991317858
 30
0.0
 11
960.2906392200862
 21
51.08479991317857
 31
0.0
  0
LINE
  5
41B
330
418
100
AcDbEntity
  8
AM_5
  6
ByBlock
100
AcDbLine
 10
881.5822854229899
 20
135.0847999131786
 30
0.0
 11
960.2906392200862
 21
135.0847999131785
 31
0.0
  0
LINE
  5
41C
330
418
100
AcDbEntity
  8
AM_5
  6
ByBlock
100
AcDbLine
 10
959.2906392200861
 20
58.08479991317857
 30
0.0
 11
959.2906392200861
 21
128.0847999131786
 31
0.0
  0
SOLID
  5
41D
330
418
100
AcDbEntity
  8
AM_5
100
AcDbTrace
 10
958.1239725534196
 20
58.08479991317857
 30
0.0
 11
960.4573058867527
 21
58.08479991317857
 31
0.0
 12
959.2906392200861
 22
51.08479991317857
 32
0.0
 13
959.2906392200861
 23
51.08479991317857
 33
0.0
  0
SOLID
  5
41E
330
418
100
AcDbEntity
  8
AM_5
100
AcDbTrace
 10
958.1239725534196
 20
128.0847999131786
 30
0.0
 11
960.4573058867527
 21
128.0847999131785
 31
0.0
 12
959.2906392200861
 22
135.0847999131786
 32
0.0
 13
959.2906392200861
 23
135.0847999131786
 33
0.0
  0
MTEXT
  5
41F
330
418
100
AcDbEntity
  8
AM_5
 62
     2
100
AcDbMText
 10
952.7906392200861
 20
93.08479991317872
 30
0.0
 40
10.0
 41
0.0
 71
     5
 72
     1
  1
84
 11
0.0000000000000001
 21
1.0
 31
0.0
 73
     1
 44
1.0
1001
ACAD
1000
MTEXTBEGIN
1070
    73
1070
     1
1070
    44
1040
1.0
1070
    74
1070
     0
1000
MTEXTEND
  0
POINT
  5
420
330
418
100
AcDbEntity
  8
Defpoints
 62
     0
100
AcDbPoint
 10
902.5702854229889
 20
51.08479991317858
 30
0.0
  0
POINT
  5
421
330
418
100
AcDbEntity
  8
Defpoints
 62
     0
100
AcDbPoint
 10
880.58228542299
 20
135.0847999131786
 30
0.0
  0
POINT
  5
422
330
418
100
AcDbEntity
  8
Defpoints
 62
     0
100
AcDbPoint
 10
959.2906392200861
 20
135.0847999131786
 30
0.0
  0
ENDBLK
  5
423
330
418
100
AcDbEntity
  8
0
100
AcDbBlockEnd
  0
BLOCK
  5
425
330
424
100
AcDbEntity
  8
0
100
AcDbBlockBegin
  2
*D11
 70
     1
 10
0.0
 20
0.0
 30
0.0
  3
*D11
  1

  0
LINE
  5
426
330
424
100
AcDbEntity
  8
AM_5
  6
ByBlock
100
AcDbLine
 10
1238.139608728492
 20
401.6829577198087
 30
0.0
 11
1238.139608728492
 21
465.8533871122926
 31
0.0
  0
LINE
  5
427
330
424
100
AcDbEntity
  8
AM_5
  6
ByBlock
100
AcDbLine
 10
1158.13960872859
 20
401.6829577196988
 30
0.0
 11
1158.13960872859
 21
465.8533871122926
 31
0.0
  0
LINE
  5
428
330
424
100
AcDbEntity
  8
AM_5
  6
ByBlock
100
AcDbLine
 10
1231.139608728492
 20
464.8533871122927
 30
0.0
 11
1165.13960872859
 21
464.8533871122927
 31
0.0
  0
SOLID
  5
429
330
424
100
AcDbEntity
  8
AM_5
100
AcDbTrace
 10
1231.139608728492
 20
466.0200537789593
 30
0.0
 11
1231.139608728492
 21
463.686720445626
 31
0.0
 12
1238.139608728492
 22
464.8533871122927
 32
0.0
 13
1238.139608728492
 23
464.8533871122927
 33
0.0
  0
SOLID
  5
42A
330
424
100
AcDbEntity
  8
AM_5
100
AcDbTrace
 10
1165.13960872859
 20
466.0200537789593
 30
0.0
 11
1165.13960872859
 21
463.686720445626
 31
0.0
 12
1158.13960872859
 22
464.8533871122927
 32
0.0
 13
1158.13960872859
 23
464.8533871122927
 33
0.0
  0
MTEXT
  5
42B
330
424
100
AcDbEntity
  8
AM_5
 62
     2
100
AcDbMText
 10
1197.049538651484
 20
471.3533871122926
 30
0.0
 40
10.0
 41
0.0
 71
     5
 72
     1
  1
80
 73
     1
 44
1.0
1001
ACAD
1000
MTEXTBEGIN
1070
    73
1070
     1
1070
    44
1040
1.0
1070
    74
1070
     0
1000
MTEXTEND
  0
POINT
  5
42C
330
424
100
AcDbEntity
  8
Defpoints
 62
     0
100
AcDbPoint
 10
1238.139608728492
 20
400.6829577198088
 30
0.0
  0
POINT
  5
42D
330
424
100
AcDbEntity
  8
Defpoints
 62
     0
100
AcDbPoint
 10
1158.13960872859
 20
400.6829577196988
 30
0.0
  0
POINT
  5
42E
330
424
100
AcDbEntity
  8
Defpoints
 62
     0
100
AcDbPoint
 10
1158.13960872859
 20
464.8533871122927
 30
0.0
  0
ENDBLK
  5
42F
330
424
100
AcDbEntity
  8
0
100
AcDbBlockEnd
  0
BLOCK
  5
657
330
656
100
AcDbEntity
  8
0
100
AcDbBlockBegin
  2
*D13
 70
     1
 10
0.0
 20
0.0
 30
0.0
  3
*D13
  1

  0
LINE
  5
6B0
330
656
100
AcDbEntity
  8
AM_5
  6
ByBlock
100
AcDbLine
 10
979.7834297670355
 20
275.7555287829525
 30
0.0
 11
1102.067117416268
 21
275.7555287829525
 31
0.0
  0
LINE
  5
6B1
330
656
100
AcDbEntity
  8
AM_5
  6
ByBlock
100
AcDbLine
 10
1002.77028690956
 20
402.6829573547977
 30
0.0
 11
1102.067117416268
 21
402.6829573547977
 31
0.0
  0
LINE
  5
6B2
330
656
100
AcDbEntity
  8
AM_5
  6
ByBlock
100
AcDbLine
 10
1101.067117416268
 20
282.7555287829525
 30
0.0
 11
1101.067117416268
 21
395.6829573547977
 31
0.0
  0
SOLID
  5
6B3
330
656
100
AcDbEntity
  8
AM_5
100
AcDbTrace
 10
1099.900450749601
 20
282.7555287829525
 30
0.0
 11
1102.233784082935
 21
282.7555287829525
 31
0.0
 12
1101.067117416268
 22
275.7555287829525
 32
0.0
 13
1101.067117416268
 23
275.7555287829525
 33
0.0
  0
SOLID
  5
6B4
330
656
100
AcDbEntity
  8
AM_5
100
AcDbTrace
 10
1099.900450749601
 20
395.6829573547977
 30
0.0
 11
1102.233784082935
 21
395.6829573547977
 31
0.0
 12
1101.067117416268
 22
402.6829573547977
 32
0.0
 13
1101.067117416268
 23
402.6829573547977
 33
0.0
  0
MTEXT
  5
6B5
330
656
100
AcDbEntity
  8
AM_5
 62
     2
100
AcDbMText
 10
1094.567117416268
 20
339.2192430688753
 30
0.0
 40
10.0
 41
0.0
 71
     5
 72
     1
  1
105-160
 11
0.0000000000000001
 21
1.0
 31
0.0
 73
     1
 44
1.0
1001
ACAD
1000
MTEXTBEGIN
1070
    73
1070
     1
1070
    44
1040
1.0
1070
    74
1070
     0
1000
MTEXTEND
  0
POINT
  5
6B6
330
656
100
AcDbEntity
  8
Defpoints
 62
     0
100
AcDbPoint
 10
978.7834297670356
 20
275.7555287829525
 30
0.0
  0
POINT
  5
6B7
330
656
100
AcDbEntity
  8
Defpoints
 62
     0
100
AcDbPoint
 10
1001.77028690956
 20
402.6829573547977
 30
0.0
  0
POINT
  5
6B8
330
656
100
AcDbEntity
  8
Defpoints
 62
     0
100
AcDbPoint
 10
1101.067117416268
 20
402.6829573547977
 30
0.0
  0
ENDBLK
  5
658
330
656
100
AcDbEntity
  8
0
100
AcDbBlockEnd
  0
BLOCK
  5
663
330
662
100
AcDbEntity
  8
0
100
AcDbBlockBegin
  2
*D14
 70
     1
 10
0.0
 20
0.0
 30
0.0
  3
*D14
  1

  0
LINE
  5
6B9
330
662
100
AcDbEntity
  8
AM_5
  6
ByBlock
100
AcDbLine
 10
1003.570286910152
 20
26.58479954769268
 30
0.0
 11
1088.748284848912
 21
26.58479954769266
 31
0.0
  0
LINE
  5
6BA
330
662
100
AcDbEntity
  8
AM_5
  6
ByBlock
100
AcDbLine
 10
1003.570286910152
 20
159.5847995476927
 30
0.0
 11
1088.748284848912
 21
159.5847995476926
 31
0.0
  0
LINE
  5
6BB
330
662
100
AcDbEntity
  8
AM_5
  6
ByBlock
100
AcDbLine
 10
1087.748284848911
 20
33.58479954769266
 30
0.0
 11
1087.748284848911
 21
152.5847995476927
 31
0.0
  0
SOLID
  5
6BC
330
662
100
AcDbEntity
  8
AM_5
100
AcDbTrace
 10
1086.581618182245
 20
33.58479954769266
 30
0.0
 11
1088.914951515578
 21
33.58479954769266
 31
0.0
 12
1087.748284848911
 22
26.58479954769266
 32
0.0
 13
1087.748284848911
 23
26.58479954769266
 33
0.0
  0
SOLID
  5
6BD
330
662
100
AcDbEntity
  8
AM_5
100
AcDbTrace
 10
1086.581618182245
 20
152.5847995476927
 30
0.0
 11
1088.914951515578
 21
152.5847995476926
 31
0.0
 12
1087.748284848911
 22
159.5847995476927
 32
0.0
 13
1087.748284848911
 23
159.5847995476927
 33
0.0
  0
MTEXT
  5
6BE
330
662
100
AcDbEntity
  8
AM_5
 62
     2
100
AcDbMText
 10
1081.248284848912
 20
93.08479954769284
 30
0.0
 40
10.0
 41
0.0
 71
     5
 72
     1
  1
133
 11
0.0000000000000001
 21
1.0
 31
0.0
 73
     1
 44
1.0
1001
ACAD
1000
MTEXTBEGIN
1070
    73
1070
     1
1070
    44
1040
1.0
1070
    74
1070
     0
1000
MTEXTEND
  0
POINT
  5
6BF
330
662
100
AcDbEntity
  8
Defpoints
 62
     0
100
AcDbPoint
 10
1002.570286910152
 20
26.58479954769268
 30
0.0
  0
POINT
  5
6C0
330
662
100
AcDbEntity
  8
Defpoints
 62
     0
100
AcDbPoint
 10
1002.570286910152
 20
159.5847995476927
 30
0.0
  0
POINT
  5
6C1
330
662
100
AcDbEntity
  8
Defpoints
 62
     0
100
AcDbPoint
 10
1087.748284848911
 20
159.5847995476927
 30
0.0
  0
ENDBLK
  5
664
330
662
100
AcDbEntity
  8
0
100
AcDbBlockEnd
  0
BLOCK
  5
66F
330
66E
100
AcDbEntity
  8
0
100
AcDbBlockBegin
  2
*D15
 70
     1
 10
0.0
 20
0.0
 30
0.0
  3
*D15
  1

  0
LINE
  5
6EC
330
66E
100
AcDbEntity
  8
AM_5
  6
ByBlock
100
AcDbLine
 10
982.7811440526692
 20
136.0847995476922
 30
0.0
 11
982.7811440526692
 21
197.1207854210399
 31
0.0
  0
LINE
  5
6ED
330
66E
100
AcDbEntity
  8
AM_5
  6
ByBlock
100
AcDbLine
 10
-17.21885594733066
 20
158.5853709764296
 30
0.0
 11
-17.21885594733066
 21
197.1207854210399
 31
0.0
  0
LINE
  5
6EE
330
66E
100
AcDbEntity
  8
AM_5
  6
ByBlock
100
AcDbLine
 10
975.7811440526692
 20
196.1207854210399
 30
0.0
 11
-10.21885594733066
 21
196.1207854210399
 31
0.0
  0
SOLID
  5
6EF
330
66E
100
AcDbEntity
  8
AM_5
100
AcDbTrace
 10
975.7811440526692
 20
197.2874520877066
 30
0.0
 11
975.7811440526692
 21
194.9541187543733
 31
0.0
 12
982.7811440526692
 22
196.1207854210399
 32
0.0
 13
982.7811440526692
 23
196.1207854210399
 33
0.0
  0
SOLID
  5
6F0
330
66E
100
AcDbEntity
  8
AM_5
100
AcDbTrace
 10
-10.21885594733066
 20
197.2874520877066
 30
0.0
 11
-10.21885594733066
 21
194.9541187543733
 31
0.0
 12
-17.21885594733066
 22
196.1207854210399
 32
0.0
 13
-17.21885594733066
 23
196.1207854210399
 33
0.0
  0
MTEXT
  5
6F1
330
66E
100
AcDbEntity
  8
AM_5
 62
     2
100
AcDbMText
 10
480.292764438674
 20
202.62078542104
 30
0.0
 40
10.0
 41
0.0
 71
     5
 72
     1
  1
1000
 73
     1
 44
1.0
1001
ACAD
1000
MTEXTBEGIN
1070
    73
1070
     1
1070
    44
1040
1.0
1070
    74
1070
     0
1000
MTEXTEND
  0
POINT
  5
6F2
330
66E
100
AcDbEntity
  8
Defpoints
 62
     0
100
AcDbPoint
 10
982.7811440526692
 20
135.0847995476922
 30
0.0
  0
POINT
  5
6F3
330
66E
100
AcDbEntity
  8
Defpoints
 62
     0
100
AcDbPoint
 10
-17.21885594733066
 20
157.5853709764296
 30
0.0
  0
POINT
  5
6F4
330
66E
100
AcDbEntity
  8
Defpoints
 62
     0
100
AcDbPoint
 10
-17.21885594733066
 20
196.1207854210399
 30
0.0
  0
ENDBLK
  5
670
330
66E
100
AcDbEntity
  8
0
100
AcDbBlockEnd
  0
BLOCK
  5
67B
330
67A
100
AcDbEntity
  8
0
100
AcDbBlockBegin
  2
*D16
 70
     1
 10
0.0
 20
0.0
 30
0.0
  3
*D16
  1

  0
LINE
  5
6FE
330
67A
100
AcDbEntity
  8
AM_5
  6
ByBlock
100
AcDbLine
 10
1002.570286910152
 20
158.5853709764296
 30
0.0
 11
1002.570286910152
 21
230.3233355778407
 31
0.0
  0
LINE
  5
6FF
330
67A
100
AcDbEntity
  8
AM_5
  6
ByBlock
100
AcDbLine
 10
-49.99999880422683
 20
157.5853709764308
 30
0.0
 11
-49.99999880422683
 21
230.3233355778407
 31
0.0
  0
LINE
  5
700
330
67A
100
AcDbEntity
  8
AM_5
  6
ByBlock
100
AcDbLine
 10
995.5702869101523
 20
229.3233355778407
 30
0.0
 11
-42.99999880422682
 21
229.3233355778407
 31
0.0
  0
SOLID
  5
701
330
67A
100
AcDbEntity
  8
AM_5
100
AcDbTrace
 10
995.5702869101523
 20
230.4900022445073
 30
0.0
 11
995.5702869101523
 21
228.156668911174
 31
0.0
 12
1002.570286910152
 22
229.3233355778407
 32
0.0
 13
1002.570286910152
 23
229.3233355778407
 33
0.0
  0
SOLID
  5
702
330
67A
100
AcDbEntity
  8
AM_5
100
AcDbTrace
 10
-42.99999880422682
 20
230.4900022445073
 30
0.0
 11
-42.99999880422682
 21
228.156668911174
 31
0.0
 12
-49.99999880422683
 22
229.3233355778407
 32
0.0
 13
-49.99999880422683
 23
229.3233355778407
 33
0.0
  0
MTEXT
  5
703
330
67A
100
AcDbEntity
  8
AM_5
 62
     2
100
AcDbMText
 10
479.9264442281969
 20
235.8233355778407
 30
0.0
 40
10.0
 41
0.0
 71
     5
 72
     1
  1
1053
 73
     1
 44
1.0
1001
ACAD
1000
MTEXTBEGIN
1070
    73
1070
     1
1070
    44
1040
1.0
1070
    74
1070
     0
1000
MTEXTEND
  0
POINT
  5
704
330
67A
100
AcDbEntity
  8
Defpoints
 62
     0
100
AcDbPoint
 10
1002.570286910152
 20
157.5853709764296
 30
0.0
  0
POINT
  5
705
330
67A
100
AcDbEntity
  8
Defpoints
 62
     0
100
AcDbPoint
 10
-49.99999880422683
 20
156.5853709764308
 30
0.0
  0
POINT
  5
706
330
67A
100
AcDbEntity
  8
Defpoints
 62
     0
100
AcDbPoint
 10
-49.99999880422683
 20
229.3233355778407
 30
0.0
  0
ENDBLK
  5
67C
330
67A
100
AcDbEntity
  8
0
100
AcDbBlockEnd
  0
BLOCK
  5
687
330
686
100
AcDbEntity
  8
0
100
AcDbBlockBegin
  2
*D17
 70
     1
 10
0.0
 20
0.0
 30
0.0
  3
*D17
  1

  0
LINE
  5
6C2
330
686
100
AcDbEntity
  8
AM_5
  6
ByBlock
100
AcDbLine
 10
1003.570286910152
 20
51.08479954769268
 30
0.0
 11
1060.290640707249
 21
51.08479954769267
 31
0.0
  0
LINE
  5
6C3
330
686
100
AcDbEntity
  8
AM_5
  6
ByBlock
100
AcDbLine
 10
981.5822869101534
 20
135.0847995476927
 30
0.0
 11
1060.290640707249
 21
135.0847995476927
 31
0.0
  0
LINE
  5
6C4
330
686
100
AcDbEntity
  8
AM_5
  6
ByBlock
100
AcDbLine
 10
1059.290640707249
 20
58.08479954769267
 30
0.0
 11
1059.290640707249
 21
128.0847995476927
 31
0.0
  0
SOLID
  5
6C5
330
686
100
AcDbEntity
  8
AM_5
100
AcDbTrace
 10
1058.123974040583
 20
58.08479954769267
 30
0.0
 11
1060.457307373916
 21
58.08479954769267
 31
0.0
 12
1059.290640707249
 22
51.08479954769267
 32
0.0
 13
1059.290640707249
 23
51.08479954769267
 33
0.0
  0
SOLID
  5
6C6
330
686
100
AcDbEntity
  8
AM_5
100
AcDbTrace
 10
1058.123974040583
 20
128.0847995476927
 30
0.0
 11
1060.457307373916
 21
128.0847995476927
 31
0.0
 12
1059.290640707249
 22
135.0847995476927
 32
0.0
 13
1059.290640707249
 23
135.0847995476927
 33
0.0
  0
MTEXT
  5
6C7
330
686
100
AcDbEntity
  8
AM_5
 62
     2
100
AcDbMText
 10
1052.790640707249
 20
93.08479954769284
 30
0.0
 40
10.0
 41
0.0
 71
     5
 72
     1
  1
84
 11
0.0000000000000001
 21
1.0
 31
0.0
 73
     1
 44
1.0
1001
ACAD
1000
MTEXTBEGIN
1070
    73
1070
     1
1070
    44
1040
1.0
1070
    74
1070
     0
1000
MTEXTEND
  0
POINT
  5
6C8
330
686
100
AcDbEntity
  8
Defpoints
 62
     0
100
AcDbPoint
 10
1002.570286910152
 20
51.08479954769268
 30
0.0
  0
POINT
  5
6C9
330
686
100
AcDbEntity
  8
Defpoints
 62
     0
100
AcDbPoint
 10
980.5822869101534
 20
135.0847995476927
 30
0.0
  0
POINT
  5
6CA
330
686
100
AcDbEntity
  8
Defpoints
 62
     0
100
AcDbPoint
 10
1059.290640707249
 20
135.0847995476927
 30
0.0
  0
ENDBLK
  5
688
330
686
100
AcDbEntity
  8
0
100
AcDbBlockEnd
  0
BLOCK
  5
693
330
692
100
AcDbEntity
  8
0
100
AcDbBlockBegin
  2
*D18
 70
     1
 10
0.0
 20
0.0
 30
0.0
  3
*D18
  1

  0
LINE
  5
6CB
330
692
100
AcDbEntity
  8
AM_5
  6
ByBlock
100
AcDbLine
 10
1338.139610215655
 20
401.6829573543228
 30
0.0
 11
1338.139610215655
 21
465.8533867468068
 31
0.0
  0
LINE
  5
6CC
330
692
100
AcDbEntity
  8
AM_5
  6
ByBlock
100
AcDbLine
 10
1258.139610215754
 20
401.6829573542129
 30
0.0
 11
1258.139610215754
 21
465.8533867468068
 31
0.0
  0
LINE
  5
6CD
330
692
100
AcDbEntity
  8
AM_5
  6
ByBlock
100
AcDbLine
 10
1331.139610215656
 20
464.8533867468067
 30
0.0
 11
1265.139610215754
 21
464.8533867468067
 31
0.0
  0
SOLID
  5
6CE
330
692
100
AcDbEntity
  8
AM_5
100
AcDbTrace
 10
1331.139610215656
 20
466.0200534134735
 30
0.0
 11
1331.139610215656
 21
463.68672008014
 31
0.0
 12
1338.139610215655
 22
464.8533867468067
 32
0.0
 13
1338.139610215655
 23
464.8533867468067
 33
0.0
  0
SOLID
  5
6CF
330
692
100
AcDbEntity
  8
AM_5
100
AcDbTrace
 10
1265.139610215754
 20
466.0200534134735
 30
0.0
 11
1265.139610215754
 21
463.68672008014
 31
0.0
 12
1258.139610215754
 22
464.8533867468067
 32
0.0
 13
1258.139610215754
 23
464.8533867468067
 33
0.0
  0
MTEXT
  5
6D0
330
692
100
AcDbEntity
  8
AM_5
 62
     2
100
AcDbMText
 10
1297.049540138648
 20
471.3533867468068
 30
0.0
 40
10.0
 41
0.0
 71
     5
 72
     1
  1
80
 73
     1
 44
1.0
1001
ACAD
1000
MTEXTBEGIN
1070
    73
1070
     1
1070
    44
1040
1.0
1070
    74
1070
     0
1000
MTEXTEND
  0
POINT
  5
6D1
330
692
100
AcDbEntity
  8
Defpoints
 62
     0
100
AcDbPoint
 10
1338.139610215655
 20
400.6829573543228
 30
0.0
  0
POINT
  5
6D2
330
692
100
AcDbEntity
  8
Defpoints
 62
     0
100
AcDbPoint
 10
1258.139610215754
 20
400.6829573542129
 30
0.0
  0
POINT
  5
6D3
330
692
100
AcDbEntity
  8
Defpoints
 62
     0
100
AcDbPoint
 10
1258.139610215754
 20
464.8533867468067
 30
0.0
  0
ENDBLK
  5
694
330
692
100
AcDbEntity
  8
0
100
AcDbBlockEnd
  0
ENDSEC
  0
SECTION
  2
ENTITIES
  0
LINE
  5
55A
330
1F
100
AcDbEntity
  8
0
  6
Continuous
 62
     7
100
AcDbLine
 10
-49.99999880422411
 20
386.6921002111057
 30
0.0
 11
-49.99999880422411
 21
387.6915287829509
 31
0.0
  0
LINE
  5
55B
330
1F
100
AcDbEntity
  8
0
  6
Continuous
 62
     7
100
AcDbLine
 10
-49.99999880422411
 20
387.6915287829509
 30
0.0
 11
-49.99999880422411
 21
442.6601002111056
 31
0.0
  0
LINE
  5
55C
330
1F
100
AcDbEntity
  8
0
  6
Continuous
 62
     7
100
AcDbLine
 10
-19.71742737606655
 20
387.8254268220398
 30
0.0
 11
-19.71742737606655
 21
401.6835287829517
 31
0.0
  0
LINE
  5
55D
330
1F
100
AcDbEntity
  8
0
  6
Continuous
 62
     7
100
AcDbLine
 10
-19.21771309043743
 20
388.6909573542127
 30
0.0
 11
-19.21771309043743
 21
401.6835287829517
 31
0.0
  0
LINE
  5
55E
330
1F
100
AcDbEntity
  8
0
  6
Continuous
 62
     7
100
AcDbLine
 10
-18.21828451917326
 20
390.6998087829518
 30
0.0
 11
-18.21828451917326
 21
302.7401002111058
 31
0.0
  0
LINE
  5
55F
330
1F
100
AcDbEntity
  8
0
  6
Continuous
 62
     7
100
AcDbLine
 10
-17.21885594733066
 20
387.6915287829509
 30
0.0
 11
-17.21885594733066
 21
386.6921002111057
 31
0.0
  0
LINE
  5
560
330
1F
100
AcDbEntity
  8
0
  6
Continuous
 62
     7
100
AcDbLine
 10
-17.21885594733066
 20
302.7401002111058
 30
0.0
 11
-17.21885594733066
 21
279.7532430685838
 31
0.0
  0
LINE
  5
561
330
1F
100
AcDbEntity
  8
0
  6
Continuous
 62
     7
100
AcDbLine
 10
-17.21885594733066
 20
302.7401002111058
 30
0.0
 11
-17.21885594733066
 21
386.6921002111057
 31
0.0
  0
LINE
  5
562
330
1F
100
AcDbEntity
  8
0
  6
Continuous
 62
     7
100
AcDbLine
 10
-17.21885594733066
 20
387.6915287829509
 30
0.0
 11
-17.21885594733066
 21
403.6823859254757
 31
0.0
  0
LINE
  5
563
330
1F
100
AcDbEntity
  8
0
  6
Continuous
 62
     7
100
AcDbLine
 10
-15.21999880480325
 20
357.7086716398446
 30
0.0
 11
-15.21999880480325
 21
279.7532430685838
 31
0.0
  0
LINE
  5
564
330
1F
100
AcDbEntity
  8
0
  6
Continuous
 62
     7
100
AcDbLine
 10
44.74571548082667
 20
277.7543859254747
 30
0.0
 11
44.74571548082667
 21
275.7555287829516
 31
0.0
  0
LINE
  5
565
330
1F
100
AcDbEntity
  8
0
  6
Continuous
 62
     7
100
AcDbLine
 10
-13.22114166169649
 20
275.7555287829516
 30
0.0
 11
44.74571548082667
 21
275.7555287829516
 31
0.0
  0
LINE
  5
566
330
1F
100
AcDbEntity
  8
0
  6
Continuous
 62
     7
100
AcDbLine
 10
920.8165726239322
 20
275.7555287829516
 30
0.0
 11
978.7834297670356
 21
275.7555287829516
 31
0.0
  0
LINE
  5
567
330
1F
100
AcDbEntity
  8
0
  6
Continuous
 62
     7
100
AcDbLine
 10
-13.22114166169649
 20
277.7543859254747
 30
0.0
 11
44.74571548082667
 21
277.7543859254747
 31
0.0
  0
LINE
  5
568
330
1F
100
AcDbEntity
  8
0
  6
Continuous
 62
     7
100
AcDbLine
 10
920.8165726239322
 20
277.7543859254747
 30
0.0
 11
978.7834297670356
 21
277.7543859254747
 31
0.0
  0
LINE
  5
569
330
1F
100
AcDbEntity
  8
0
  6
Continuous
 62
     7
100
AcDbLine
 10
513.7022933035519
 20
295.7441002111068
 30
0.0
 11
451.7988583382985
 21
295.7441002111068
 31
0.0
  0
LINE
  5
56A
330
1F
100
AcDbEntity
  8
0
  6
Continuous
 62
     7
100
AcDbLine
 10
-17.21885594733066
 20
302.7401002111058
 30
0.0
 11
-18.21828451917326
 21
302.7401002111058
 31
0.0
  0
LINE
  5
56B
330
1F
100
AcDbEntity
  8
0
  6
Continuous
 62
     7
100
AcDbLine
 10
982.7811440526692
 20
317.7315287829506
 30
0.0
 11
983.7805726239279
 21
317.7315287829506
 31
0.0
  0
LINE
  5
56C
330
1F
100
AcDbEntity
  8
0
  6
Continuous
 62
     7
100
AcDbLine
 10
445.8004123669243
 20
377.3154438898646
 30
0.0
 11
445.8022867329141
 21
377.2542630326777
 31
0.0
  0
LINE
  5
56D
330
1F
100
AcDbEntity
  8
0
  6
Continuous
 62
     7
100
AcDbLine
 10
445.3025726239293
 20
371.7006716398439
 30
0.0
 11
445.3025726239293
 21
302.2403859254757
 31
0.0
  0
LINE
  5
56E
330
1F
100
AcDbEntity
  8
0
  6
Continuous
 62
     7
100
AcDbLine
 10
445.8022869095635
 20
377.2542628397046
 30
0.0
 11
445.8022869095635
 21
371.7006716398439
 31
0.0
  0
LINE
  5
56F
330
1F
100
AcDbEntity
  8
0
  6
Continuous
 62
     7
100
AcDbLine
 10
982.7811440526692
 20
357.7086716398446
 30
0.0
 11
980.7822869095602
 21
357.7086716398446
 31
0.0
  0
LINE
  5
570
330
1F
100
AcDbEntity
  8
0
  6
Continuous
 62
     7
100
AcDbLine
 10
-17.21885594733066
 20
357.7086716398446
 30
0.0
 11
-15.21999880480325
 21
357.7086716398446
 31
0.0
  0
LINE
  5
571
330
1F
100
AcDbEntity
  8
0
  6
Continuous
 62
     7
100
AcDbLine
 10
445.7896028799742
 20
377.4129841203899
 30
0.0
 11
445.8004123669243
 21
377.3154438898646
 31
0.0
  0
LINE
  5
572
330
1F
100
AcDbEntity
  8
0
  6
Continuous
 62
     7
100
AcDbLine
 10
982.7811440526692
 20
367.7029573542136
 30
0.0
 11
983.7805726239279
 21
367.7029573542136
 31
0.0
  0
LINE
  5
573
330
1F
100
AcDbEntity
  8
0
  6
Continuous
 62
     7
100
AcDbLine
 10
445.3025442697262
 20
371.7006716398439
 30
0.0
 11
520.2597438356142
 21
371.7006716398439
 31
0.0
  0
LINE
  5
574
330
1F
100
AcDbEntity
  8
0
  6
Continuous
 62
     7
100
AcDbLine
 10
-17.21885594733066
 20
372.7001002111058
 30
0.0
 11
-18.21828451917326
 21
372.7001002111058
 31
0.0
  0
LINE
  5
575
330
1F
100
AcDbEntity
  8
0
  6
Continuous
 62
     7
100
AcDbLine
 10
-17.21885594733066
 20
378.2536914109669
 30
0.0
 11
482.7811440526692
 21
378.2530003499108
 31
0.0
  0
LINE
  5
576
330
1F
100
AcDbEntity
  8
0
  6
Continuous
 62
     7
100
AcDbLine
 10
482.7811440526693
 20
378.253691410967
 30
0.0
 11
982.7811440526692
 21
378.2536914109671
 31
0.0
  0
LINE
  5
577
330
1F
100
AcDbEntity
  8
0
  6
Continuous
 62
     7
100
AcDbLine
 10
982.7811440526692
 20
383.6101934815788
 30
0.0
 11
1001.54928625583
 21
383.6101934815788
 31
0.0
  0
LINE
  5
578
330
1F
100
AcDbEntity
  8
0
  6
Continuous
 62
     7
100
AcDbLine
 10
-18.21762936592722
 20
386.6921002111057
 30
0.0
 11
-49.99999880422411
 21
386.6921002111055
 31
0.0
  0
LINE
  5
579
330
1F
100
AcDbEntity
  8
0
  6
Continuous
 62
     7
100
AcDbLine
 10
-17.21885594733066
 20
386.6921002111057
 30
0.0
 11
1002.548714827094
 21
386.6921002111055
 31
0.0
  0
LWPOLYLINE
  5
57A
330
1F
100
AcDbEntity
  8
0
  6
Continuous
 62
     7
100
AcDbPolyline
 90
       16
 70
     0
 43
0.0
 10
444.8028583383011
 20
378.2536916523277
 10
444.8382192990688
 20
378.2530659021049
 10
444.9360571516749
 20
378.2447758543167
 10
445.0326086404329
 20
378.2269255480728
 10
445.1269423779531
 20
378.1996873263367
 10
445.2181483467111
 20
378.1633239501236
 10
445.305346673188
 20
378.1181860572026
 10
445.3876959408948
 20
378.0647088786448
 10
445.4644019720631
 20
378.0034075299318
 10
445.5347227447073
 20
377.9348744568288
 10
445.5979791646791
 20
377.8597712914607
 10
445.6535588960091
 20
377.7788256114159
 10
445.7009250854735
 20
377.6928213686285
 10
445.7396210633419
 20
377.6025916858457
 10
445.7692749076823
 20
377.5090104118496
 10
445.7896028799742
 20
377.4129841203899
  0
LINE
  5
57B
330
1F
100
AcDbEntity
  8
0
  6
Continuous
 62
     7
100
AcDbLine
 10
519.7600012686534
 20
377.2542634775068
 30
0.0
 11
519.7618675408498
 21
377.3153115616908
 31
0.0
  0
LINE
  5
57C
330
1F
100
AcDbEntity
  8
0
  6
Continuous
 62
     7
100
AcDbLine
 10
519.7618675408498
 20
377.3153115616908
 30
0.0
 11
519.7726488158528
 21
377.4127580294917
 31
0.0
  0
LWPOLYLINE
  5
57D
330
1F
100
AcDbEntity
  8
0
  6
Continuous
 62
     7
100
AcDbPolyline
 90
       16
 70
     0
 43
0.0
 10
519.7726488158528
 20
377.4127580294917
 10
519.7929402707682
 20
377.5087337678556
 10
519.822557864169
 20
377.6022979931806
 10
519.8612238216201
 20
377.6925362017596
 10
519.9085699821202
 20
377.7785672514676
 10
519.9641408553493
 20
377.8595504289067
 10
520.0273985217768
 20
377.9346949097367
 10
520.0977262443602
 20
378.0032661903279
 10
520.174443725069
 20
378.0646016107267
 10
520.2568046685123
 20
378.1181063581876
 10
520.3440159469192
 20
378.1632672335509
 10
520.4352361548676
 20
378.1996496097359
 10
520.5295859161433
 20
378.2269032955458
 10
520.626155791554
 20
378.2447655929327
 10
520.724015016362
 20
378.2530638470285
 10
520.7594297670412
 20
378.2536915048297
  0
LINE
  5
57E
330
1F
100
AcDbEntity
  8
0
  6
Continuous
 62
     7
100
AcDbLine
 10
-18.21762936592722
 20
387.6915287829509
 30
0.0
 11
-49.99999880422411
 21
387.6915287829509
 31
0.0
  0
LINE
  5
57F
330
1F
100
AcDbEntity
  8
0
  6
Continuous
 62
     7
100
AcDbLine
 10
-17.21885594733066
 20
387.6915287829509
 30
0.0
 11
1002.548714827095
 21
387.6915287829509
 31
0.0
  0
LINE
  5
580
330
1F
100
AcDbEntity
  8
0
  6
Continuous
 62
     7
100
AcDbLine
 10
-19.21771309043743
 20
389.7003802116899
 30
0.0
 11
-18.21828451917326
 21
389.7003802116899
 31
0.0
  0
LINE
  5
581
330
1F
100
AcDbEntity
  8
0
  6
Continuous
 62
     7
100
AcDbLine
 10
-19.21771309043743
 20
390.6998087829518
 30
0.0
 11
-18.21828451917326
 21
390.6998087829518
 31
0.0
  0
LINE
  5
582
330
1F
100
AcDbEntity
  8
0
  6
Continuous
 62
     7
100
AcDbLine
 10
1002.348714827093
 20
402.6829573542126
 30
0.0
 11
-17.21885594733066
 21
402.6829573542126
 31
0.0
  0
LINE
  5
583
330
1F
100
AcDbEntity
  8
0
  6
Continuous
 62
     7
100
AcDbLine
 10
1001.253608704621
 20
402.9731218440487
 30
0.0
 11
981.5607148270942
 21
402.9731218440487
 31
0.0
  0
LINE
  5
584
330
1F
100
AcDbEntity
  8
0
  6
Continuous
 62
     7
100
AcDbLine
 10
-17.21885594733066
 20
403.1826716398447
 30
0.0
 11
-18.21828451917326
 21
403.1826716398447
 31
0.0
  0
LINE
  5
585
330
1F
100
AcDbEntity
  8
0
  6
Continuous
 62
     7
100
AcDbLine
 10
519.7600011957779
 20
377.2542628397046
 30
0.0
 11
519.7600011957779
 21
371.7006716398439
 31
0.0
  0
LINE
  5
586
330
1F
100
AcDbEntity
  8
0
  6
Continuous
 62
     7
100
AcDbLine
 10
520.2597154814084
 20
371.7006716398439
 30
0.0
 11
520.2597154814084
 21
302.2403859254757
 31
0.0
  0
LINE
  5
587
330
1F
100
AcDbEntity
  8
0
  6
Continuous
 62
     7
100
AcDbLine
 10
1002.548714827094
 20
442.6601002111056
 30
0.0
 11
1001.54928625583
 21
442.6601002111056
 31
0.0
  0
LINE
  5
588
330
1F
100
AcDbEntity
  8
0
  6
Continuous
 62
     7
100
AcDbLine
 10
1001.54928625583
 20
442.6601002111056
 30
0.0
 11
-49.99999880422411
 21
442.6601002111056
 31
0.0
  0
LINE
  5
589
330
1F
100
AcDbEntity
  8
0
  6
Continuous
 62
     7
100
AcDbLine
 10
980.7822869095602
 20
279.7532430685838
 30
0.0
 11
980.7822869095602
 21
357.7086716398446
 31
0.0
  0
LINE
  5
58A
330
1F
100
AcDbEntity
  8
0
  6
Continuous
 62
     7
100
AcDbLine
 10
982.7811440526692
 20
383.6101934815788
 30
0.0
 11
982.7811440526692
 21
381.8808041673979
 31
0.0
  0
LINE
  5
58B
330
1F
100
AcDbEntity
  8
0
  6
Continuous
 62
     7
100
AcDbLine
 10
982.7811440526692
 20
381.8808041673979
 30
0.0
 11
982.7811440526692
 21
317.7315287829506
 31
0.0
  0
LINE
  5
58C
330
1F
100
AcDbEntity
  8
0
  6
Continuous
 62
     7
100
AcDbLine
 10
982.7811440526692
 20
279.7532430685838
 30
0.0
 11
982.7811440526692
 21
317.7315287829506
 31
0.0
  0
LINE
  5
58D
330
1F
100
AcDbEntity
  8
0
  6
Continuous
 62
     7
100
AcDbLine
 10
981.5607148270942
 20
402.6829573542126
 30
0.0
 11
981.5607148270942
 21
402.9731218440487
 31
0.0
  0
LINE
  5
58E
330
1F
100
AcDbEntity
  8
0
  6
Continuous
 62
     7
100
AcDbLine
 10
983.7805726239279
 20
383.6101934815788
 30
0.0
 11
983.7805726239279
 21
317.7315287829506
 31
0.0
  0
LINE
  5
58F
330
1F
100
AcDbEntity
  8
0
  6
Continuous
 62
     7
100
AcDbLine
 10
1001.54928625583
 20
386.6921002111057
 30
0.0
 11
1001.54928625583
 21
383.6101934815788
 31
0.0
  0
LINE
  5
590
330
1F
100
AcDbEntity
  8
0
  6
Continuous
 62
     7
100
AcDbLine
 10
1001.54928625583
 20
386.6921002111057
 30
0.0
 11
1001.54928625583
 21
442.6601002111056
 31
0.0
  0
LINE
  5
591
330
1F
100
AcDbEntity
  8
0
  6
Continuous
 62
     7
100
AcDbLine
 10
1002.548714827094
 20
442.6601002111056
 30
0.0
 11
1002.548714827094
 21
386.6921002111057
 31
0.0
  0
CIRCLE
  5
592
330
1F
100
AcDbEntity
  8
0
  6
Continuous
 62
     7
100
AcDbCircle
 10
482.7811440526693
 20
338.7195287829518
 30
0.0
 40
24.985714285631
  0
CIRCLE
  5
593
330
1F
100
AcDbEntity
  8
0
  6
Continuous
 62
     7
100
AcDbCircle
 10
482.7811440526693
 20
338.7195287829518
 30
0.0
 40
23.48657142873801
  0
ARC
  5
594
330
1F
100
AcDbEntity
  8
0
  6
Continuous
 62
     7
100
AcDbCircle
 10
-20.21714166169704
 20
388.6909573542127
 30
0.0
 40
1.998857143106999
100
AcDbArc
 50
329.9616926244131
 51
0.0
  0
ARC
  5
595
330
1F
100
AcDbEntity
  8
0
  6
Continuous
 62
     7
100
AcDbCircle
 10
-13.22114166169649
 20
279.7532430685838
 30
0.0
 40
3.997714285630998
100
AcDbArc
 50
180.0
 51
270.0
  0
ARC
  5
596
330
1F
100
AcDbEntity
  8
0
  6
Continuous
 62
     7
100
AcDbCircle
 10
978.7834297670356
 20
279.7532430685838
 30
0.0
 40
3.997714285630998
100
AcDbArc
 50
270.0
 51
0.0
  0
ARC
  5
597
330
1F
100
AcDbEntity
  8
0
  6
Continuous
 62
     7
100
AcDbCircle
 10
451.7988583382985
 20
302.2403859254757
 30
0.0
 40
6.496285714368996
100
AcDbArc
 50
180.0
 51
270.0
  0
ARC
  5
598
330
1F
100
AcDbEntity
  8
0
  6
Continuous
 62
     7
100
AcDbCircle
 10
513.7634297670383
 20
302.2403859254757
 30
0.0
 40
6.496285714368996
100
AcDbArc
 50
270.0
 51
0.0
  0
CIRCLE
  5
599
330
1F
100
AcDbEntity
  8
0
  6
Continuous
 62
     7
100
AcDbCircle
 10
482.7811440526693
 20
338.7195287829518
 30
0.0
 40
25.085657143107
  0
ARC
  5
59A
330
1F
100
AcDbEntity
  8
0
  6
Continuous
 62
     7
100
AcDbCircle
 10
1000.549857683987
 20
403.6823859254757
 30
0.0
 40
0.9994285712619999
100
AcDbArc
 50
270.0
 51
0.0
  0
ARC
  5
59B
330
1F
100
AcDbEntity
  8
0
  6
Continuous
 62
     7
100
AcDbCircle
 10
-18.21828451917326
 20
401.6835287829517
 30
0.0
 40
0.9994285712619999
100
AcDbArc
 50
0.0
 51
180.0
  0
ARC
  5
59C
330
1F
100
AcDbEntity
  8
0
  6
Continuous
 62
     7
100
AcDbCircle
 10
-20.21714166169704
 20
388.6909573542127
 30
0.0
 40
0.9994285712619999
100
AcDbArc
 50
270.0
 51
0.0
  0
ARC
  5
59D
330
1F
100
AcDbEntity
  8
0
  6
Continuous
 62
     7
100
AcDbCircle
 10
-13.22114166169649
 20
279.7532430685838
 30
0.0
 40
1.998857143106999
100
AcDbArc
 50
180.0
 51
270.0
  0
ARC
  5
59E
330
1F
100
AcDbEntity
  8
0
  6
Continuous
 62
     7
100
AcDbCircle
 10
978.7834297670356
 20
279.7532430685838
 30
0.0
 40
1.998857143106999
100
AcDbArc
 50
270.0
 51
0.0
  0
ARC
  5
59F
330
1F
100
AcDbEntity
  8
0
  6
Continuous
 62
     7
100
AcDbCircle
 10
-18.21828451917326
 20
401.6835287829517
 30
0.0
 40
1.499142856893
100
AcDbArc
 50
90.0
 51
180.0
  0
LINE
  5
5A0
330
1F
100
AcDbEntity
  8
AM_7
100
AcDbLine
 10
482.7811440526693
 20
338.7195287829518
 30
0.0
 11
507.8668011957756
 21
338.7195287829518
 31
0.0
1001
GENIUS_GENOREF_13
1005
655
  0
LINE
  5
5A1
330
1F
100
AcDbEntity
  8
AM_7
100
AcDbLine
 10
482.7811440526693
 20
338.7195287829518
 30
0.0
 11
482.7811440526693
 21
442.6601002111056
 31
0.0
1001
GENIUS_GENOREF_13
1005
655
  0
LINE
  5
5A2
330
1F
100
AcDbEntity
  8
AM_7
100
AcDbLine
 10
482.7811440526693
 20
338.7195287829518
 30
0.0
 11
457.695486909562
 21
338.7195287829518
 31
0.0
1001
GENIUS_GENOREF_13
1005
655
  0
LINE
  5
5A3
330
1F
100
AcDbEntity
  8
AM_7
100
AcDbLine
 10
482.7811440526693
 20
338.7195287829518
 30
0.0
 11
482.7811440526693
 21
291.8454373034756
 31
0.0
1001
GENIUS_GENOREF_13
1005
655
  0
LINE
  5
5A4
330
1F
100
AcDbEntity
  8
0
  6
Continuous
 62
     7
100
AcDbLine
 10
-49.99999880422683
 20
159.5847995476927
 30
0.0
 11
-49.99999880422411
 21
26.58479954769268
 31
0.0
  0
LINE
  5
5A5
330
1F
100
AcDbEntity
  8
0
  6
Continuous
 62
     7
100
AcDbLine
 10
-49.99999880422411
 20
152.4508566905076
 30
0.0
 11
-49.99999880422411
 21
154.4502852617706
 31
0.0
  0
LINE
  5
5A6
330
1F
100
AcDbEntity
  8
0
  6
Continuous
 62
     7
100
AcDbLine
 10
-17.21885594733066
 20
51.08479954769155
 30
0.0
 11
-17.21885594733066
 21
157.5853709764296
 31
0.0
  0
LINE
  5
5A7
330
1F
100
AcDbEntity
  8
0
  6
Continuous
 62
     7
100
AcDbLine
 10
-15.21999880422209
 20
26.58479954769268
 30
0.0
 11
-15.21999880422209
 21
157.5853709764296
 31
0.0
  0
LINE
  5
5A8
330
1F
100
AcDbEntity
  8
0
  6
Continuous
 62
     7
100
AcDbLine
 10
457.7954297670394
 20
-0.0000004523080861
 30
0.0
 11
507.7668583383029
 21
-0.0000004523080861
 31
0.0
  0
LINE
  5
5A9
330
1F
100
AcDbEntity
  8
0
  6
Continuous
 62
     7
100
AcDbLine
 10
-49.99999880422411
 20
26.58479954769268
 30
0.0
 11
1002.570286910152
 21
26.58479954769268
 31
0.0
  0
LINE
  5
5AA
330
1F
100
AcDbEntity
  8
0
  6
Continuous
 62
     7
100
AcDbLine
 10
1002.570286910152
 20
51.08479954769268
 30
0.0
 11
-17.21885594733066
 21
51.08479954769177
 31
0.0
  0
LINE
  5
5AB
330
1F
100
AcDbEntity
  8
0
  6
Continuous
 62
     7
100
AcDbLine
 10
457.7954297670394
 20
-0.0000004523080861
 30
0.0
 11
457.7954297670394
 21
26.58479954769268
 31
0.0
  0
LINE
  5
5AC
330
1F
100
AcDbEntity
  8
0
  6
Continuous
 62
     7
100
AcDbLine
 10
-15.21999880422254
 20
53.08365669021668
 30
0.0
 11
1002.570286910152
 21
53.08365669021668
 31
0.0
  0
LINE
  5
5AD
330
1F
100
AcDbEntity
  8
0
  6
Continuous
 62
     7
100
AcDbLine
 10
507.7668583383029
 20
-0.0000004523080861
 30
0.0
 11
507.7668583383029
 21
26.58479954769268
 31
0.0
  0
LINE
  5
5AE
102
{ACAD_REACTORS
330
5C4
102
}
330
1F
100
AcDbEntity
  8
0
100
AcDbLine
 10
982.7811440526692
 20
135.0847995476922
 30
0.0
 11
-15.21999880422209
 21
135.0847995476927
 31
0.0
  0
LINE
  5
5AF
330
1F
100
AcDbEntity
  8
AM_CL
 62
     0
100
AcDbLine
 10
1000.570858338888
 20
157.5853709764296
 30
0.0
 11
-49.99999880422411
 21
157.5853709764296
 31
0.0
  0
LINE
  5
5B0
330
1F
100
AcDbEntity
  8
AM_CL
 62
     0
100
AcDbLine
 10
1000.570858338888
 20
157.5853709764296
 30
0.0
 11
1002.570286910152
 21
157.5853709764296
 31
0.0
  0
LINE
  5
5B1
330
1F
100
AcDbEntity
  8
AM_CL
 62
     0
100
AcDbLine
 10
-49.99999880422411
 20
159.5847995476927
 30
0.0
 11
1000.570858338888
 21
159.5847995476927
 31
0.0
  0
LINE
  5
5B2
102
{ACAD_REACTORS
330
5C4
102
}
330
1F
100
AcDbEntity
  8
AM_CL
  6
Continuous
 62
     0
100
AcDbLine
 10
980.5822869101531
 20
53.08365669021668
 30
0.0
 11
980.5822869101534
 21
157.5853709764296
 31
0.0
  0
LINE
  5
5B3
330
1F
100
AcDbEntity
  8
AM_CL
 62
     0
100
AcDbLine
 10
1000.570858338888
 20
159.5847995476927
 30
0.0
 11
1000.570858338888
 21
157.5853709764296
 31
0.0
  0
LINE
  5
5B4
330
1F
100
AcDbEntity
  8
AM_CL
 62
     0
100
AcDbLine
 10
1000.570858338888
 20
26.58479954769268
 30
0.0
 11
1000.570858338888
 21
157.5853709764296
 31
0.0
  0
LINE
  5
5B5
330
1F
100
AcDbEntity
  8
AM_CL
 62
     0
100
AcDbLine
 10
1002.570286910152
 20
26.58479954769268
 30
0.0
 11
1002.570286910152
 21
157.5853709764296
 31
0.0
  0
CIRCLE
  5
5B6
330
1F
100
AcDbEntity
  8
0
  6
Continuous
 62
     7
100
AcDbCircle
 10
482.7811440526693
 20
93.08479954740164
 30
0.0
 40
35.97942857126201
  0
CIRCLE
  5
5B7
330
1F
100
AcDbEntity
  8
0
100
AcDbCircle
 10
482.7811440526693
 20
93.08479954740164
 30
0.0
 40
17.5
  0
CIRCLE
  5
5B8
330
1F
100
AcDbEntity
  8
0
100
AcDbCircle
 10
482.7811440526693
 20
93.08479954740164
 30
0.0
 40
30.0
  0
LINE
  5
5B9
330
1F
100
AcDbEntity
  8
0
100
AcDbLine
 10
483.7811440526679
 20
110.5562047570577
 30
0.0
 11
483.7811440526679
 21
75.61339433774583
 31
0.0
  0
LINE
  5
5BA
330
1F
100
AcDbEntity
  8
0
100
AcDbLine
 10
481.7811440526693
 20
110.5562047570577
 30
0.0
 11
481.7811440526693
 21
75.61339433774583
 31
0.0
  0
LINE
  5
5BB
330
1F
100
AcDbEntity
  8
0
100
AcDbLine
 10
980.5822869101531
 20
93.08479954769268
 30
0.0
 11
518.7605726239334
 21
93.08479954769268
 31
0.0
1001
GENIUS_GENOBJ-N-CEN_13
1002
{
1000
OWNER
1000
GEN
1002
}
1001
GENIUS_GENODEF_13
1002
{
1000
HIER
1070
     0
1002
}
1002
{
1000
MANEDIT
1070
     0
1002
}
1002
{
1000
NOSEL
1070
     0
1002
}
1002
{
1000
BEHIND
1070
     0
1002
}
1002
{
1000
OTHER
1070
     0
1002
}
1002
{
1000
REACTOR
1002
}
1001
GENIUS_GENCEN_19
1002
{
1040
3.0
1002
}
  0
LINE
  5
5BC
330
1F
100
AcDbEntity
  8
0
100
AcDbLine
 10
446.8017154814074
 20
93.08479954769268
 30
0.0
 11
-15.21999880422254
 21
93.08479954769268
 31
0.0
1001
GENIUS_GENOBJ-N-CEN_13
1002
{
1000
OWNER
1000
GEN
1002
}
1001
GENIUS_GENODEF_13
1002
{
1000
HIER
1070
     0
1002
}
1002
{
1000
MANEDIT
1070
     0
1002
}
1002
{
1000
NOSEL
1070
     0
1002
}
1002
{
1000
BEHIND
1070
     0
1002
}
1002
{
1000
OTHER
1070
     0
1002
}
1002
{
1000
REACTOR
1002
}
1001
GENIUS_GENCEN_19
1002
{
1040
3.0
1002
}
  0
DIMENSION
  5
5BD
330
1F
100
AcDbEntity
  8
AM_5
100
AcDbDimension
  2
*D13
 10
1101.067117416268
 20
402.6829573547977
 30
0.0
 11
1094.567117416268
 21
339.2192430688753
 31
0.0
 70
    32
  1
105-160
 71
     5
 42
126.9274285718452
  3
AM_DIN$0
100
AcDbAlignedDimension
 13
978.7834297670356
 23
275.7555287829525
 33
0.0
 14
1001.77028690956
 24
402.6829573547977
 34
0.0
 50
90.0
100
AcDbRotatedDimension
1001
ACAD
1000
DSTYLE
1002
{
1070
    41
1040
7.0
1070
   140
1040
10.0
1002
}
1001
ACAD_DSTYLE_DIMINSPECT
1070
   396
1000
100%
1070
   395
1000

1070
   394
1070
    33
1070
   393
1070
     0
  0
DIMENSION
  5
5BE
330
1F
100
AcDbEntity
  8
AM_5
100
AcDbDimension
  2
*D14
 10
1087.748284848911
 20
159.5847995476927
 30
0.0
 11
1081.248284848912
 21
93.08479954769284
 31
0.0
 70
    32
  1
<>
 71
     5
 42
133.0
  3
AM_DIN$0
100
AcDbAlignedDimension
 13
1002.570286910152
 23
26.58479954769268
 33
0.0
 14
1002.570286910152
 24
159.5847995476927
 34
0.0
 50
90.0
100
AcDbRotatedDimension
1001
ACAD
1000
DSTYLE
1002
{
1070
    41
1040
7.0
1070
   140
1040
10.0
1002
}
1001
ACAD_DSTYLE_DIMINSPECT
1070
   396
1000
100%
1070
   395
1000

1070
   394
1070
    33
1070
   393
1070
     0
  0
DIMENSION
  5
5BF
330
1F
100
AcDbEntity
  8
AM_5
100
AcDbDimension
  2
*D15
 10
-17.21885594733066
 20
196.1207854210399
 30
0.0
 11
480.292764438674
 21
196.1207854210399
 31
0.0
 70
   160
  1
<>
 71
     5
 42
1000.0
  3
AM_DIN$0
100
AcDbAlignedDimension
 13
982.7811440526692
 23
135.0847995476922
 33
0.0
 14
-17.21885594733066
 24
157.5853709764296
 34
0.0
100
AcDbRotatedDimension
1001
ACAD_DSTYLE_DIMINSPECT
1070
   396
1000
100%
1070
   395
1000

1070
   394
1070
    33
1070
   393
1070
     0
1001
ACAD
1000
DSTYLE
1002
{
1070
    41
1040
7.0
1070
   140
1040
10.0
1070
   271
1070
     0
1002
}
  0
DIMENSION
  5
5C0
330
1F
100
AcDbEntity
  8
AM_5
100
AcDbDimension
  2
*D16
 10
-49.99999880422683
 20
229.3233355778407
 30
0.0
 11
479.9264442281969
 21
229.3233355778407
 31
0.0
 70
   160
  1
<>
 71
     5
 42
1052.570285714379
  3
AM_DIN$0
100
AcDbAlignedDimension
 13
1002.570286910152
 23
157.5853709764296
 33
0.0
 14
-49.99999880422683
 24
156.5853709764308
 34
0.0
100
AcDbRotatedDimension
1001
ACAD
1000
DSTYLE
1002
{
1070
    41
1040
7.0
1070
   140
1040
10.0
1070
   271
1070
     0
1002
}
1001
ACAD_DSTYLE_DIMINSPECT
1070
   396
1000
100%
1070
   395
1000

1070
   394
1070
    33
1070
   393
1070
     0
  0
LINE
  5
5C1
330
1F
100
AcDbEntity
  8
0
100
AcDbLine
 10
920.8165726239322
 20
275.7555287829516
 30
0.0
 11
920.8165726239322
 21
277.7543859254747
 31
0.0
  0
DIMENSION
  5
5C2
102
{ACAD_XDICTIONARY
360
5C3
102
}
102
{ACAD_REACTORS
330
5C4
102
}
330
1F
100
AcDbEntity
  8
AM_5
100
AcDbDimension
  2
*D17
 10
1059.290640707249
 20
135.0847995476927
 30
0.0
 11
1052.790640707249
 21
93.08479954769284
 31
0.0
 70
    32
  1
<>
 71
     5
 42
84.0
  3
AM_DIN$0
100
AcDbAlignedDimension
 13
1002.570286910152
 23
51.08479954769268
 33
0.0
 14
980.5822869101534
 24
135.0847995476927
 34
0.0
 50
90.0
100
AcDbRotatedDimension
1001
ACAD
1000
DSTYLE
1002
{
1070
    41
1040
7.0
1070
   140
1040
10.0
1002
}
1001
ACAD_DSTYLE_DIMINSPECT
1070
   396
1000
100%
1070
   395
1000

1070
   394
1070
    33
1070
   393
1070
     0
  0
LINE
  5
5C5
330
1F
100
AcDbEntity
  8
AM_CL
 62
     0
100
AcDbLine
 10
982.7811440526692
 20
157.5853709764296
 30
0.0
 11
982.7811440526692
 21
53.08365669021668
 31
0.0
  0
LINE
  5
5C6
330
1F
100
AcDbEntity
  8
0
100
AcDbLine
 10
1334.139610215602
 20
362.6829573542313
 30
0.0
 11
1396.139610215602
 21
362.6829573541486
 31
0.0
1001
GENIUS_GENOBJ-N-CEN_13
1002
{
1000
OWNER
1000
GEN
1002
}
1001
GENIUS_GENODEF_13
1002
{
1000
HIER
1070
     0
1002
}
1002
{
1000
MANEDIT
1070
     0
1002
}
1002
{
1000
NOSEL
1070
     0
1002
}
1002
{
1000
BEHIND
1070
     0
1002
}
1002
{
1000
OTHER
1070
     0
1002
}
1002
{
1000
REACTOR
1002
}
  0
LINE
  5
5C7
330
1F
100
AcDbEntity
  8
0
100
AcDbLine
 10
1335.404035380336
 20
361.1829573542298
 30
0.0
 11
1396.1396102156
 21
361.1829573541486
 31
0.0
1001
GENIUS_GENOBJ-N-CEN_13
1002
{
1000
OWNER
1000
GEN
1002
}
1001
GENIUS_GENODEF_13
1002
{
1000
HIER
1070
     0
1002
}
1002
{
1000
MANEDIT
1070
     0
1002
}
1002
{
1000
NOSEL
1070
     0
1002
}
1002
{
1000
BEHIND
1070
     0
1002
}
1002
{
1000
OTHER
1070
     0
1002
}
1002
{
1000
REACTOR
1002
}
  0
LINE
  5
5C8
330
1F
100
AcDbEntity
  8
0
100
AcDbLine
 10
1335.404035380274
 20
314.1829573542298
 30
0.0
 11
1396.139610215538
 21
314.1829573541488
 31
0.0
1001
GENIUS_GENOBJ-N-CEN_13
1002
{
1000
OWNER
1000
GEN
1002
}
1001
GENIUS_GENODEF_13
1002
{
1000
HIER
1070
     0
1002
}
1002
{
1000
MANEDIT
1070
     0
1002
}
1002
{
1000
NOSEL
1070
     0
1002
}
1002
{
1000
BEHIND
1070
     0
1002
}
1002
{
1000
OTHER
1070
     0
1002
}
1002
{
1000
REACTOR
1002
}
  0
LINE
  5
5C9
330
1F
100
AcDbEntity
  8
0
100
AcDbLine
 10
1334.139610215536
 20
312.6829573542313
 30
0.0
 11
1396.139610215536
 21
312.6829573541488
 31
0.0
1001
GENIUS_GENOBJ-N-CEN_13
1002
{
1000
OWNER
1000
GEN
1002
}
1001
GENIUS_GENODEF_13
1002
{
1000
HIER
1070
     0
1002
}
1002
{
1000
MANEDIT
1070
     0
1002
}
1002
{
1000
NOSEL
1070
     0
1002
}
1002
{
1000
BEHIND
1070
     0
1002
}
1002
{
1000
OTHER
1070
     0
1002
}
1002
{
1000
REACTOR
1002
}
  0
HATCH
  5
5CA
330
1F
100
AcDbEntity
  8
KLIN
  6
ByBlock
100
AcDbHatch
 10
0.0
 20
0.0
 30
0.0
210
0.0
220
0.0
230
1.0
  2
LINE
 70
     0
 71
     0
 91
        3
 92
        7
 72
     0
 73
     1
 93
        4
 10
1396.139610215602
 20
362.6829573541486
 10
1334.139610215602
 20
362.6829573542313
 10
1335.404035380336
 20
361.1829573542298
 10
1396.1396102156
 20
361.1829573541486
 97
        0
 92
        7
 72
     0
 73
     1
 93
        4
 10
1368.462099345429
 20
314.1829573541857
 10
1335.404035380274
 20
314.1829573542298
 10
1334.139610215536
 20
312.6829573542313
 10
1369.220123890545
 20
312.6829573541845
 97
        0
 92
        7
 72
     0
 73
     1
 93
        4
 10
1396.139610215538
 20
314.1829573541488
 10
1368.462099345429
 20
314.1829573541857
 10
1369.220123890545
 20
312.6829573541848
 10
1396.139610215536
 20
312.6829573541488
 97
        0
 75
     0
 76
     1
 52
45.0
 41
0.5
 77
     0
 78
     1
 53
44.99999999992357
 43
1076.051898447463
 44
114.8416977347201
 45
-1.122532015132146
 46
1.122532015135142
 79
     0
 47
2.718374431718906
 98
        3
 10
1353.583058790344
 20
361.9159916342346
 10
1353.855048926389
 20
313.5289266693633
 10
1377.790237474392
 20
313.2570897307417
  0
LINE
  5
5CB
330
1F
100
AcDbEntity
  8
0
100
AcDbLine
 10
1341.139610215651
 20
387.6829573541104
 30
0.0
 11
1370.139610215624
 21
387.6829573540458
 31
0.0
  0
LINE
  5
5CC
330
1F
100
AcDbEntity
  8
0
100
AcDbLine
 10
1341.139610215599
 20
386.6829573541104
 30
0.0
 11
1370.139610215625
 21
386.6829573540458
 31
0.0
  0
LINE
  5
5CD
330
1F
100
AcDbEntity
  8
7A
100
AcDbLine
 10
1321.248544501997
 20
337.6829573542486
 30
0.0
 11
1401.514785823292
 21
337.6829573541415
 31
0.0
1001
GENIUS_GENOBJ-N-CEN_13
1002
{
1000
OWNER
1000
GEN
1002
}
1001
GENIUS_GENODEF_13
1002
{
1000
HIER
1070
     0
1002
}
1002
{
1000
MANEDIT
1070
     0
1002
}
1002
{
1000
NOSEL
1070
     0
1002
}
1002
{
1000
BEHIND
1070
     0
1002
}
1002
{
1000
OTHER
1070
     0
1002
}
1002
{
1000
REACTOR
1002
}
  0
LINE
  5
5CE
330
1F
100
AcDbEntity
  8
0
100
AcDbLine
 10
1260.139610215613
 20
370.6829573542198
 30
0.0
 11
1260.139610215521
 21
302.6829573542197
 31
0.0
1001
GENIUS_GENODEF_13
1002
{
1000
HIER
1070
     0
1002
}
1002
{
1000
MANEDIT
1070
     0
1002
}
1002
{
1000
NOSEL
1070
     0
1002
}
1002
{
1000
BEHIND
1070
     0
1002
}
1002
{
1000
REACTOR
1002
}
1001
GENIUS_GENOBJ-N-CEN_13
1002
{
1000
OWNER
1000
GEN
1002
}
  0
LINE
  5
5CF
330
1F
100
AcDbEntity
  8
0
100
AcDbLine
 10
1262.139610215626
 20
380.5093582577599
 30
0.0
 11
1262.139610215521
 21
302.682957354217
 31
0.0
1001
GENIUS_GENODEF_13
1002
{
1000
HIER
1070
     0
1002
}
1002
{
1000
MANEDIT
1070
     0
1002
}
1002
{
1000
NOSEL
1070
     0
1002
}
1002
{
1000
BEHIND
1070
     0
1002
}
1002
{
1000
REACTOR
1002
}
1001
GENIUS_GENOBJ-N-CEN_13
1002
{
1000
OWNER
1000
GEN
1002
}
  0
LINE
  5
5D0
330
1F
100
AcDbEntity
  8
7A
100
AcDbLine
 10
1298.139610215569
 20
289.8112223326618
 30
0.0
 11
1298.139610215648
 21
408.6829573542242
 31
0.0
1001
GENIUS_GENOBJ-N-CEN_13
1002
{
1000
OWNER
1000
GEN
1002
}
1001
GENIUS_GENODEF_13
1002
{
1000
HIER
1070
     0
1002
}
1002
{
1000
MANEDIT
1070
     0
1002
}
1002
{
1000
NOSEL
1070
     0
1002
}
1002
{
1000
BEHIND
1070
     0
1002
}
1002
{
1000
OTHER
1070
     0
1002
}
1002
{
1000
REACTOR
1002
}
  0
HATCH
  5
5D1
330
1F
100
AcDbEntity
  8
KLIN
  6
ByBlock
100
AcDbHatch
 10
0.0
 20
0.0
 30
0.0
210
0.0
220
0.0
230
1.0
  2
LINE
 70
     0
 71
     0
 91
        4
 92
        7
 72
     0
 73
     1
 93
        4
 10
1336.139610215613
 20
370.6829573541183
 10
1334.139610215612
 20
370.6829573541211
 10
1334.139610215602
 20
362.6829573542313
 10
1336.139610215602
 20
362.6829573542289
 97
        0
 92
        7
 72
     0
 73
     1
 93
        4
 10
1262.139610215613
 20
370.682957354217
 10
1260.139610215613
 20
370.6829573542198
 10
1260.139610215577
 20
344.4349972209404
 10
1262.139610215578
 20
345.1095898249157
 97
        0
 92
        7
 72
     1
 73
     1
 93
        8
 10
1262.139610215578
 20
345.1095898249157
 42
0.0
 10
1260.139610215577
 20
344.4349972209404
 42
0.0
 10
1260.139610215521
 20
302.6829573542197
 42
0.4142135623730915
 10
1267.139610215512
 20
295.6829573542104
 42
0.0
 10
1298.139610215573
 20
295.6829573541691
 42
0.0
 10
1298.139610215574
 20
297.682957354169
 42
0.0
 10
1267.139610215514
 20
297.6829573542104
 42
-0.4142135623730919
 10
1262.139610215521
 20
302.682957354217
 42
0.0
 97
        0
 92
        7
 72
     1
 73
     1
 93
        8
 10
1298.139610215574
 20
297.682957354169
 42
0.0
 10
1298.139610215573
 20
295.6829573541691
 42
0.0
 10
1329.139610215513
 20
295.6829573541277
 42
0.4142135623730972
 10
1336.139610215522
 20
302.6829573541184
 42
0.0
 10
1336.139610215536
 20
312.6829573542286
 42
0.0
 10
1334.139610215536
 20
312.6829573542313
 42
0.0
 10
1334.139610215523
 20
302.6829573541211
 42
-0.414213562373096
 10
1329.139610215516
 20
297.6829573541277
 42
0.0
 97
        0
 75
     0
 76
     1
 52
135.0
 41
1.0
 77
     0
 78
     1
 53
134.9999999999235
 43
1076.051898447463
 44
114.8416977347201
 45
-2.245064030270284
 46
-2.245064030264292
 79
     0
 47
2.718374431718906
 98
        4
 10
1335.359677767037
 20
366.8090662099712
 10
1261.37818893894
 20
360.2849672367915
 10
1261.378188938896
 20
327.1207984932221
 10
1321.760137438289
 20
296.9468429891283
  0
ARC
  5
5D2
330
1F
100
AcDbEntity
  8
0
100
AcDbCircle
 10
1385.222943548902
 20
337.6829573541641
 30
0.0
 40
55.08333333333285
100
AcDbArc
 50
154.7463521007645
 51
205.2536478991181
  0
ARC
  5
5D3
330
1F
100
AcDbEntity
  8
0
100
AcDbCircle
 10
1394.162249791509
 20
337.6829573541522
 30
0.0
 40
65.02089865314992
100
AcDbArc
 50
157.3878080413696
 51
202.6121919584097
  0
LINE
  5
5D4
330
1F
100
AcDbEntity
  8
0
100
AcDbLine
 10
1267.139610215512
 20
295.6829573542104
 30
0.0
 11
1329.139610215513
 21
295.6829573541277
 31
0.0
  0
LINE
  5
5D5
330
1F
100
AcDbEntity
  8
0
100
AcDbLine
 10
1267.139610215514
 20
297.6829573542104
 30
0.0
 11
1329.139610215516
 21
297.6829573541277
 31
0.0
  0
ARC
  5
5D6
330
1F
100
AcDbEntity
  8
0
100
AcDbCircle
 10
1267.139610215521
 20
302.6829573542104
 30
0.0
 40
7.0
100
AcDbArc
 50
179.9999999998697
 51
270.0
  0
ARC
  5
5D7
330
1F
100
AcDbEntity
  8
0
100
AcDbCircle
 10
1267.139610215521
 20
302.6829573542104
 30
0.0
 40
5.0
100
AcDbArc
 50
179.9999999998697
 51
270.0
  0
ARC
  5
5D8
330
1F
100
AcDbEntity
  8
0
100
AcDbCircle
 10
1329.139610215523
 20
302.6829573541277
 30
0.0
 40
5.0
100
AcDbArc
 50
270.0
 51
359.9999999998697
1001
GENIUS_GENODEF_13
1002
{
1000
HIER
1070
     0
1002
}
1002
{
1000
MANEDIT
1070
     0
1002
}
1002
{
1000
NOSEL
1070
     0
1002
}
1002
{
1000
BEHIND
1070
     0
1002
}
1002
{
1000
REACTOR
1002
}
1001
GENIUS_GENOBJ-N-CEN_13
1002
{
1000
OWNER
1000
GEN
1002
}
  0
ARC
  5
5D9
330
1F
100
AcDbEntity
  8
0
100
AcDbCircle
 10
1329.139610215523
 20
302.6829573541277
 30
0.0
 40
7.0
100
AcDbArc
 50
270.0
 51
359.9999999998697
1001
GENIUS_GENODEF_13
1002
{
1000
HIER
1070
     0
1002
}
1002
{
1000
MANEDIT
1070
     0
1002
}
1002
{
1000
NOSEL
1070
     0
1002
}
1002
{
1000
BEHIND
1070
     0
1002
}
1002
{
1000
REACTOR
1002
}
1001
GENIUS_GENOBJ-N-CEN_13
1002
{
1000
OWNER
1000
GEN
1002
}
  0
LINE
  5
5DA
330
1F
100
AcDbEntity
  8
0
100
AcDbLine
 10
1336.139610215536
 20
312.6829573542289
 30
0.0
 11
1336.139610215522
 21
302.6829573541184
 31
0.0
1001
GENIUS_GENODEF_13
1002
{
1000
HIER
1070
     0
1002
}
1002
{
1000
MANEDIT
1070
     0
1002
}
1002
{
1000
NOSEL
1070
     0
1002
}
1002
{
1000
BEHIND
1070
     0
1002
}
1002
{
1000
REACTOR
1002
}
1001
GENIUS_GENOBJ-N-CEN_13
1002
{
1000
OWNER
1000
GEN
1002
}
  0
LINE
  5
5DB
330
1F
100
AcDbEntity
  8
0
100
AcDbLine
 10
1334.139610215536
 20
312.6829573542313
 30
0.0
 11
1334.139610215523
 21
302.6829573541211
 31
0.0
1001
GENIUS_GENODEF_13
1002
{
1000
HIER
1070
     0
1002
}
1002
{
1000
MANEDIT
1070
     0
1002
}
1002
{
1000
NOSEL
1070
     0
1002
}
1002
{
1000
BEHIND
1070
     0
1002
}
1002
{
1000
REACTOR
1002
}
1001
GENIUS_GENOBJ-N-CEN_13
1002
{
1000
OWNER
1000
GEN
1002
}
  0
LINE
  5
5DC
330
1F
100
AcDbEntity
  8
0
100
AcDbLine
 10
1334.139610215536
 20
312.6829573542313
 30
0.0
 11
1335.404035380274
 21
314.1829573542298
 31
0.0
  0
LINE
  5
5DD
330
1F
100
AcDbEntity
  8
0
100
AcDbLine
 10
1339.139610215651
 20
402.6829573542045
 30
0.0
 11
1239.13961021566
 21
402.6829573542245
 31
0.0
  0
ARC
  5
5DE
330
1F
100
AcDbEntity
  8
0
  6
ByBlock
100
AcDbCircle
 10
1239.13961021566
 20
403.6829573542245
 30
0.0
 40
1.0
100
AcDbArc
 50
179.9999999998697
 51
270.0
  0
LINE
  5
5DF
330
1F
100
AcDbEntity
  8
0
  6
ByBlock
100
AcDbLine
 10
1335.973519255922
 20
382.5024497741506
 30
0.0
 11
1298.139610215628
 21
379.3496240208745
 31
0.0
  0
LINE
  5
5E0
330
1F
100
AcDbEntity
  8
0
100
AcDbLine
 10
1298.0980874757
 20
378.3426975776481
 30
0.0
 11
1334.330496850426
 21
381.3620650254634
 31
0.0
  0
LINE
  5
5E1
330
1F
100
AcDbEntity
  8
0
  6
ByBlock
100
AcDbLine
 10
1260.305701175334
 20
382.5024497742522
 30
0.0
 11
1298.139610215628
 21
379.3496240208745
 31
0.0
  0
LINE
  5
5E2
330
1F
100
AcDbEntity
  8
0
100
AcDbLine
 10
1298.181132955553
 20
378.3426975776481
 30
0.0
 11
1261.948723580827
 21
381.3620650255607
 31
0.0
  0
LINE
  5
5E3
330
1F
100
AcDbEntity
  8
0
100
AcDbLine
 10
1257.139610215685
 20
383.6030902357861
 30
0.0
 11
1257.139610215657
 21
400.6829573542022
 31
0.0
  0
ARC
  5
5E4
330
1F
100
AcDbEntity
  8
0
  6
ByBlock
100
AcDbCircle
 10
1256.139610215657
 20
400.6829573542004
 30
0.0
 40
1.0
100
AcDbArc
 50
0.0000000001302755
 51
90.0
  0
LINE
  5
5E5
330
1F
100
AcDbEntity
  8
0
100
AcDbLine
 10
1258.139610215683
 20
383.6030902357938
 30
0.0
 11
1258.139610215753
 21
400.6829573542163
 31
0.0
  0
ARC
  5
5E6
330
1F
100
AcDbEntity
  8
0
100
AcDbCircle
 10
1256.139610215753
 20
400.6829573542245
 30
0.0
 40
2.0
100
AcDbArc
 50
359.9999999997394
 51
90.0
  0
ARC
  5
5E7
330
1F
100
AcDbEntity
  8
0
100
AcDbCircle
 10
1259.139610215685
 20
383.6030902357895
 30
0.0
 40
2.0
100
AcDbArc
 50
180.0000000001302
 51
265.2363583091914
  0
LINE
  5
5E8
330
1F
100
AcDbEntity
  8
0
100
AcDbLine
 10
1261.139610215626
 20
380.509358257761
 30
0.0
 11
1261.139610215613
 21
370.6829573542184
 31
0.0
1001
GENIUS_GENODEF_13
1002
{
1000
HIER
1070
     0
1002
}
1002
{
1000
MANEDIT
1070
     0
1002
}
1002
{
1000
NOSEL
1070
     0
1002
}
1002
{
1000
BEHIND
1070
     0
1002
}
1002
{
1000
REACTOR
1002
}
1001
GENIUS_GENOBJ-N-CEN_13
1002
{
1000
OWNER
1000
GEN
1002
}
  0
LINE
  5
5E9
330
1F
100
AcDbEntity
  8
0
100
AcDbLine
 10
1260.22265569548
 20
381.5059040160072
 30
0.0
 11
1258.973519255977
 21
381.6099987192997
 31
0.0
  0
ARC
  5
5EA
330
1F
100
AcDbEntity
  8
0
100
AcDbCircle
 10
1260.139610215626
 20
380.5093582577624
 30
0.0
 40
1.0
100
AcDbArc
 50
359.9999999998697
 51
85.23635830919145
1001
GENIUS_GENODEF_13
1002
{
1000
HIER
1070
     0
1002
}
1002
{
1000
MANEDIT
1070
     0
1002
}
1002
{
1000
NOSEL
1070
     0
1002
}
1002
{
1000
BEHIND
1070
     0
1002
}
1002
{
1000
REACTOR
1002
}
1001
GENIUS_GENOBJ-N-CEN_13
1002
{
1000
OWNER
1000
GEN
1002
}
  0
ARC
  5
5EB
330
1F
100
AcDbEntity
  8
0
100
AcDbCircle
 10
1260.139610215626
 20
380.5093582577624
 30
0.0
 40
2.0
100
AcDbArc
 50
359.9999999998697
 51
85.23635830919145
1001
GENIUS_GENODEF_13
1002
{
1000
HIER
1070
     0
1002
}
1002
{
1000
MANEDIT
1070
     0
1002
}
1002
{
1000
NOSEL
1070
     0
1002
}
1002
{
1000
BEHIND
1070
     0
1002
}
1002
{
1000
REACTOR
1002
}
1001
GENIUS_GENOBJ-N-CEN_13
1002
{
1000
OWNER
1000
GEN
1002
}
  0
LINE
  5
5EC
330
1F
100
AcDbEntity
  8
0
100
AcDbLine
 10
1260.305701175334
 20
382.5024497742522
 30
0.0
 11
1259.056564735829
 21
382.606544477545
 31
0.0
  0
ARC
  5
5ED
330
1F
100
AcDbEntity
  8
0
100
AcDbCircle
 10
1259.139610215683
 20
383.6030902357898
 30
0.0
 40
1.0
100
AcDbArc
 50
179.9999999997394
 51
265.2363583091914
  0
LINE
  5
5EE
330
1F
100
AcDbEntity
  8
0
100
AcDbLine
 10
1334.139610215625
 20
380.5093582576631
 30
0.0
 11
1334.139610215602
 21
362.6829573542313
 31
0.0
1001
GENIUS_GENODEF_13
1002
{
1000
HIER
1070
     0
1002
}
1002
{
1000
MANEDIT
1070
     0
1002
}
1002
{
1000
NOSEL
1070
     0
1002
}
1002
{
1000
BEHIND
1070
     0
1002
}
1002
{
1000
REACTOR
1002
}
1001
GENIUS_GENOBJ-N-CEN_13
1002
{
1000
OWNER
1000
GEN
1002
}
  0
LINE
  5
5EF
330
1F
100
AcDbEntity
  8
0
100
AcDbLine
 10
1336.139610215613
 20
370.6829573541183
 30
0.0
 11
1336.139610215602
 21
362.6829573542289
 31
0.0
1001
GENIUS_GENODEF_13
1002
{
1000
HIER
1070
     0
1002
}
1002
{
1000
MANEDIT
1070
     0
1002
}
1002
{
1000
NOSEL
1070
     0
1002
}
1002
{
1000
BEHIND
1070
     0
1002
}
1002
{
1000
REACTOR
1002
}
1001
GENIUS_GENOBJ-N-CEN_13
1002
{
1000
OWNER
1000
GEN
1002
}
  0
LINE
  5
5F0
330
1F
100
AcDbEntity
  8
0
100
AcDbLine
 10
1334.139610215602
 20
362.6829573542313
 30
0.0
 11
1335.404035380336
 21
361.1829573542298
 31
0.0
  0
ARC
  5
5F1
330
1F
100
AcDbEntity
  8
0
100
AcDbCircle
 10
1341.139610215653
 20
388.6829573541104
 30
0.0
 40
1.0
100
AcDbArc
 50
180.0000000001302
 51
270.0
  0
LINE
  5
5F2
330
1F
100
AcDbEntity
  8
0
100
AcDbLine
 10
1338.139610215581
 20
383.6030902356808
 30
0.0
 11
1338.139610215662
 21
401.682957354224
 31
0.0
  0
LINE
  5
5F3
330
1F
100
AcDbEntity
  8
0
100
AcDbLine
 10
1339.139610215581
 20
383.6030902356768
 30
0.0
 11
1339.139610215659
 21
401.682957354224
 31
0.0
  0
ARC
  5
5F4
330
1F
100
AcDbEntity
  8
0
100
AcDbCircle
 10
1341.139610215603
 20
388.6829573541104
 30
0.0
 40
2.0
100
AcDbArc
 50
179.9999999997394
 51
270.0
  0
LINE
  5
5F5
330
1F
100
AcDbEntity
  8
0
100
AcDbLine
 10
1335.139610215625
 20
380.5093582576617
 30
0.0
 11
1335.139610215613
 21
370.6829573541197
 31
0.0
1001
GENIUS_GENODEF_13
1002
{
1000
HIER
1070
     0
1002
}
1002
{
1000
MANEDIT
1070
     0
1002
}
1002
{
1000
NOSEL
1070
     0
1002
}
1002
{
1000
BEHIND
1070
     0
1002
}
1002
{
1000
REACTOR
1002
}
1001
GENIUS_GENOBJ-N-CEN_13
1002
{
1000
OWNER
1000
GEN
1002
}
  0
LINE
  5
5F6
330
1F
100
AcDbEntity
  8
0
100
AcDbLine
 10
1335.973519255922
 20
382.5024497741506
 30
0.0
 11
1337.222655695432
 21
382.6065444774404
 31
0.0
  0
LINE
  5
5F7
330
1F
100
AcDbEntity
  8
0
100
AcDbLine
 10
1336.056564735774
 20
381.5059040159054
 30
0.0
 11
1337.305701175284
 21
381.6099987191953
 31
0.0
  0
ARC
  5
5F8
330
1F
100
AcDbEntity
  8
0
100
AcDbCircle
 10
1336.139610215625
 20
380.5093582576603
 30
0.0
 40
2.0
100
AcDbArc
 50
94.7636416905471
 51
179.9999999998697
1001
GENIUS_GENODEF_13
1002
{
1000
HIER
1070
     0
1002
}
1002
{
1000
MANEDIT
1070
     0
1002
}
1002
{
1000
NOSEL
1070
     0
1002
}
1002
{
1000
BEHIND
1070
     0
1002
}
1002
{
1000
REACTOR
1002
}
1001
GENIUS_GENOBJ-N-CEN_13
1002
{
1000
OWNER
1000
GEN
1002
}
  0
ARC
  5
5F9
330
1F
100
AcDbEntity
  8
0
100
AcDbCircle
 10
1336.139610215625
 20
380.5093582576603
 30
0.0
 40
1.0
100
AcDbArc
 50
94.7636416905471
 51
179.9999999998697
  0
ARC
  5
5FA
330
1F
100
AcDbEntity
  8
0
100
AcDbCircle
 10
1337.139610215581
 20
383.6030902356854
 30
0.0
 40
1.0
100
AcDbArc
 50
274.7636416905471
 51
359.9999999997394
  0
ARC
  5
5FB
330
1F
100
AcDbEntity
  8
0
100
AcDbCircle
 10
1337.139610215581
 20
383.6030902356854
 30
0.0
 40
2.0
100
AcDbArc
 50
274.7636416905471
 51
359.9999999997394
  0
LINE
  5
5FC
330
1F
100
AcDbEntity
  8
0
100
AcDbLine
 10
1340.139610215634
 20
401.6829573542211
 30
0.0
 11
1340.139610215653
 21
388.6829573541088
 31
0.0
  0
ARC
  5
5FD
330
1F
100
AcDbEntity
  8
0
100
AcDbCircle
 10
1339.139610215647
 20
401.6829573542197
 30
0.0
 40
0.9999999999848341
100
AcDbArc
 50
359.9999999997394
 51
179.9999999997394
  0
LINE
  5
5FE
330
1F
100
AcDbEntity
  8
0
100
AcDbLine
 10
1396.139610215602
 20
362.6829573541486
 30
0.0
 11
1396.139610215536
 21
312.6829573541486
 31
0.0
1001
GENIUS_GENODEF_13
1002
{
1000
HIER
1070
     0
1002
}
1002
{
1000
MANEDIT
1070
     0
1002
}
1002
{
1000
NOSEL
1070
     0
1002
}
1002
{
1000
BEHIND
1070
     0
1002
}
1002
{
1000
REACTOR
1002
}
1001
GENIUS_GENOBJ-N-CEN_13
1002
{
1000
OWNER
1000
GEN
1002
}
  0
LINE
  5
5FF
330
1F
100
AcDbEntity
  8
0
100
AcDbLine
 10
1370.139610215698
 20
442.6829573540483
 30
0.0
 11
1370.139610215625
 21
386.6829573540447
 31
0.0
  0
LINE
  5
600
330
1F
100
AcDbEntity
  8
0
  6
ByBlock
100
AcDbLine
 10
1238.13961021566
 20
403.6829573542259
 30
0.0
 11
1238.139610215712
 21
442.6829573542245
 31
0.0
  0
LINE
  5
601
330
1F
100
AcDbEntity
  8
0
  6
ByBlock
100
AcDbLine
 10
1370.139610215698
 20
442.6829573540483
 30
0.0
 11
1237.139610215712
 21
442.6829573542258
 31
0.0
  0
LINE
  5
602
330
1F
100
AcDbEntity
  8
0
  6
ByBlock
100
AcDbLine
 10
1237.139610215712
 20
442.6829573542258
 30
0.0
 11
1237.13961021566
 21
403.6829573542259
 31
0.0
  0
LINE
  5
603
330
1F
100
AcDbEntity
  8
0
  6
ByBlock
100
AcDbLine
 10
1239.139610215657
 20
401.6829573542231
 30
0.0
 11
1256.139610215659
 21
401.6829573542004
 31
0.0
  0
ARC
  5
604
330
1F
100
AcDbEntity
  8
0
  6
ByBlock
100
AcDbCircle
 10
1239.13961021566
 20
403.6829573542231
 30
0.0
 40
2.0
100
AcDbArc
 50
179.9999999998697
 51
270.0
  0
LINE
  5
605
330
1F
100
AcDbEntity
  8
0
  6
ByBlock
100
AcDbLine
 10
1260.139610215624
 20
370.6829573541567
 30
0.0
 11
1267.541324500282
 21
370.682957354157
 31
0.0
  0
LINE
  5
606
330
1F
100
AcDbEntity
  8
0
  6
ByBlock
100
AcDbLine
 10
1328.737895931083
 20
370.682957354157
 30
0.0
 11
1336.139610215624
 21
370.6829573541567
 31
0.0
  0
DIMENSION
  5
607
330
1F
100
AcDbEntity
  8
AM_5
100
AcDbDimension
  2
*D18
 10
1258.139610215754
 20
464.8533867468067
 30
0.0
 11
1297.049540138648
 21
464.8533867468067
 31
0.0
 70
   160
 71
     5
 42
79.999999999902
  3
AM_DIN$0
100
AcDbAlignedDimension
 13
1338.139610215655
 23
400.6829573543228
 33
0.0
 14
1258.139610215754
 24
400.6829573542129
 34
0.0
100
AcDbRotatedDimension
1001
ACAD_DSTYLE_DIMINSPECT
1070
   396
1000
100%
1070
   395
1000

1070
   394
1070
    33
1070
   393
1070
     0
1001
ACAD
1000
DSTYLE
1002
{
1070
    41
1040
7.0
1070
   140
1040
10.0
1070
   271
1070
     0
1002
}
  0
LINE
  5
608
330
1F
100
AcDbEntity
  8
0
100
AcDbLine
 10
1273.139610215691
 20
275.6943859254188
 30
0.0
 11
1323.139610215692
 21
275.6943859254188
 31
0.0
  0
LINE
  5
609
330
1F
100
AcDbEntity
  8
0
100
AcDbLine
 10
1273.13961021569
 20
277.6932430685262
 30
0.0
 11
1323.139610215691
 21
277.6932430685262
 31
0.0
  0
LINE
  5
60A
330
1F
100
AcDbEntity
  8
0
100
AcDbLine
 10
1273.139610215691
 20
275.6943859254188
 30
0.0
 11
1273.139610215682
 21
295.6829573542024
 31
0.0
  0
LINE
  5
60B
330
1F
100
AcDbEntity
  8
0
100
AcDbLine
 10
1323.139610215692
 20
275.6943859254188
 30
0.0
 11
1323.139610215682
 21
295.6829573541357
 31
0.0
  0
LINE
  5
60C
330
1F
100
AcDbEntity
  8
0
100
AcDbLine
 10
1278.139610215683
 20
370.6583859253067
 30
0.0
 11
1278.139610215683
 21
313.6583859253069
 31
0.0
  0
LINE
  5
60D
330
1F
100
AcDbEntity
  8
0
100
AcDbLine
 10
1278.139610215683
 20
313.6583859253069
 30
0.0
 11
1318.139610215683
 21
313.6583859253069
 31
0.0
  0
LINE
  5
60E
330
1F
100
AcDbEntity
  8
0
100
AcDbLine
 10
1318.139610215683
 20
313.6583859253069
 30
0.0
 11
1318.139610215683
 21
370.6583859253067
 31
0.0
  0
LINE
  5
60F
330
1F
100
AcDbEntity
  8
0
100
AcDbLine
 10
1279.639610215683
 20
370.6583859253067
 30
0.0
 11
1279.639610215683
 21
313.6583859253069
 31
0.0
  0
LINE
  5
610
330
1F
100
AcDbEntity
  8
0
100
AcDbLine
 10
1316.639610215683
 20
313.6583859253069
 30
0.0
 11
1316.639610215683
 21
370.6583859253067
 31
0.0
  0
HATCH
  5
611
330
1F
100
AcDbEntity
  8
8
100
AcDbHatch
 10
0.0
 20
0.0
 30
0.0
210
0.0
220
0.0
230
1.0
  2
LINE
 70
     0
 71
     0
 91
        4
 92
        7
 72
     0
 73
     1
 93
        6
 10
1270.639610215683
 20
360.6583859253069
 10
1271.112583188656
 20
363.4962237631446
 10
1270.139610215683
 20
363.6583859253069
 10
1269.639610215683
 20
360.6583859253069
 10
1269.639610215683
 20
339.1744835373171
 10
1270.639610215683
 20
339.4307499547048
 97
        0
 92
        7
 72
     0
 73
     1
 93
        4
 10
1270.639610215683
 20
339.4307499547044
 10
1269.639610215683
 20
339.1744835373171
 10
1269.639610215683
 20
325.9951628630347
 10
1270.639610215683
 20
326.2514292804219
 97
        0
 92
        7
 72
     1
 73
     1
 93
        8
 10
1270.639610215683
 20
326.2514292804219
 42
0.0
 10
1269.639610215683
 20
325.9951628630347
 42
0.0
 10
1269.639610215683
 20
304.6583859253069
 42
0.4142135623730951
 10
1275.639610215683
 20
298.6583859253069
 42
0.0
 10
1298.139610215683
 20
298.6583859253069
 42
0.0
 10
1298.139610215683
 20
299.6583859253071
 42
0.0
 10
1275.639610215683
 20
299.6583859253071
 42
-0.4142135623730951
 10
1270.639610215683
 20
304.6583859253069
 42
0.0
 97
        0
 92
        7
 72
     1
 73
     1
 93
       10
 10
1326.639610215683
 20
304.6583859253069
 42
0.0
 10
1326.639610215683
 20
360.6583859253069
 42
0.0
 10
1326.139610215683
 20
363.6583859253069
 42
0.0
 10
1325.16663724271
 20
363.4962237631446
 42
0.0
 10
1325.639610215683
 20
360.6583859253069
 42
0.0
 10
1325.639610215683
 20
304.6583859253069
 42
-0.4142135623730951
 10
1320.639610215683
 20
299.6583859253071
 42
0.0
 10
1298.139610215683
 20
299.6583859253071
 42
0.0
 10
1298.139610215683
 20
298.6583859253069
 42
0.0
 10
1320.639610215683
 20
298.6583859253069
 42
0.4142135623730951
 97
        0
 75
     0
 76
     1
 52
45.0
 41
1.0
 77
     0
 78
     1
 53
45.0
 43
1180.076003220806
 44
170.9440265877653
 45
-2.245064030267287
 46
2.245064030267287
 79
     0
 47
0.144641785732262
 98
        4
 10
1269.961063309702
 20
357.305784609595
 10
1270.105768780589
 20
329.8238433132139
 10
1270.250471749652
 20
322.0131874768314
 10
1304.689863448793
 20
299.3044268582488
  0
LINE
  5
612
330
1F
100
AcDbEntity
  8
0
100
AcDbLine
 10
1269.639610215683
 20
360.6583859253069
 30
0.0
 11
1269.639610215683
 21
304.6583859253069
 31
0.0
  0
LINE
  5
613
330
1F
100
AcDbEntity
  8
0
100
AcDbLine
 10
1326.639610215683
 20
304.6583859253069
 30
0.0
 11
1326.639610215683
 21
360.6583859253069
 31
0.0
  0
LINE
  5
614
330
1F
100
AcDbEntity
  8
0
100
AcDbLine
 10
1275.639610215683
 20
298.6583859253069
 30
0.0
 11
1320.639610215683
 21
298.6583859253069
 31
0.0
  0
LINE
  5
615
330
1F
100
AcDbEntity
  8
0
100
AcDbLine
 10
1318.139610215683
 20
363.6583859253069
 30
0.0
 11
1326.139610215683
 21
363.6583859253069
 31
0.0
  0
LINE
  5
616
330
1F
100
AcDbEntity
  8
0
100
AcDbLine
 10
1265.639610215683
 20
374.1583859253069
 30
0.0
 11
1265.639610215683
 21
372.6583859253069
 31
0.0
  0
LINE
  5
617
330
1F
100
AcDbEntity
  8
0
100
AcDbLine
 10
1261.639610215683
 20
372.6583859253069
 30
0.0
 11
1264.639610215683
 21
372.6583859253069
 31
0.0
  0
LINE
  5
618
330
1F
100
AcDbEntity
  8
0
100
AcDbLine
 10
1330.639610215683
 20
372.6583859253069
 30
0.0
 11
1330.639610215683
 21
374.1583859253069
 31
0.0
  0
LINE
  5
619
330
1F
100
AcDbEntity
  8
0
100
AcDbLine
 10
1330.639610215683
 20
374.1583859253069
 30
0.0
 11
1265.639610215683
 21
374.1583859253069
 31
0.0
  0
CIRCLE
  5
61A
330
1F
100
AcDbEntity
  8
0
100
AcDbCircle
 10
1298.139610215683
 20
371.1583859253067
 30
0.0
 40
1.5
  0
LINE
  5
61B
330
1F
100
AcDbEntity
  8
7A
100
AcDbLine
 10
1293.639610215683
 20
371.1583859253067
 30
0.0
 11
1302.639610215683
 21
371.1583859253067
 31
0.0
1001
GENIUS_GENOBJ-N-CEN_13
1002
{
1000
OWNER
1000
GEN
1002
}
1001
GENIUS_GENODEF_13
1002
{
1000
HIER
1070
     0
1002
}
1002
{
1000
MANEDIT
1070
     0
1002
}
1002
{
1000
NOSEL
1070
     0
1002
}
1002
{
1000
BEHIND
1070
     0
1002
}
1002
{
1000
OTHER
1070
     0
1002
}
1002
{
1000
REACTOR
1002
}
  0
LINE
  5
61C
330
1F
100
AcDbEntity
  8
0
100
AcDbLine
 10
1326.639610215683
 20
376.6583859253069
 30
0.0
 11
1269.639610215683
 21
376.6583859253069
 31
0.0
  0
LINE
  5
61D
330
1F
100
AcDbEntity
  8
0
100
AcDbLine
 10
1269.639610215683
 20
376.6583859253069
 30
0.0
 11
1269.639610215683
 21
374.1583859253069
 31
0.0
  0
LINE
  5
61E
330
1F
100
AcDbEntity
  8
0
100
AcDbLine
 10
1269.639610215683
 20
372.6583859253069
 30
0.0
 11
1269.639610215683
 21
370.1583859253068
 31
0.0
  0
LINE
  5
61F
330
1F
100
AcDbEntity
  8
0
100
AcDbLine
 10
1326.639610215683
 20
376.6583859253069
 30
0.0
 11
1326.639610215683
 21
374.1583859253069
 31
0.0
  0
LINE
  5
620
330
1F
100
AcDbEntity
  8
0
100
AcDbLine
 10
1326.639610215683
 20
372.6583859253069
 30
0.0
 11
1326.639610215683
 21
370.1583859253068
 31
0.0
  0
LINE
  5
621
330
1F
100
AcDbEntity
  8
0
100
AcDbLine
 10
1318.139610215683
 20
370.1583859253068
 30
0.0
 11
1326.639610215683
 21
370.1583859253068
 31
0.0
  0
LINE
  5
622
330
1F
100
AcDbEntity
  8
0
100
AcDbLine
 10
1264.639610215683
 20
374.1583859253069
 30
0.0
 11
1264.639610215683
 21
372.6583859253069
 31
0.0
  0
LINE
  5
623
330
1F
100
AcDbEntity
  8
0
100
AcDbLine
 10
1261.639610215683
 20
374.1583859253069
 30
0.0
 11
1263.639610215683
 21
375.1583859253067
 31
0.0
  0
LINE
  5
624
330
1F
100
AcDbEntity
  8
0
100
AcDbLine
 10
1263.639610215683
 20
375.1583859253067
 30
0.0
 11
1269.639610215683
 21
376.6583859253069
 31
0.0
  0
LINE
  5
625
330
1F
100
AcDbEntity
  8
0
100
AcDbLine
 10
1263.639610215683
 20
371.6583859253069
 30
0.0
 11
1269.639610215683
 21
370.1583859253068
 31
0.0
  0
LINE
  5
626
330
1F
100
AcDbEntity
  8
0
100
AcDbLine
 10
1261.639610215683
 20
372.6583859253069
 30
0.0
 11
1263.639610215683
 21
371.6583859253069
 31
0.0
  0
LINE
  5
627
330
1F
100
AcDbEntity
  8
0
100
AcDbLine
 10
1264.639610215683
 20
374.1583859253069
 30
0.0
 11
1261.639610215683
 21
374.1583859253069
 31
0.0
  0
LINE
  5
628
330
1F
100
AcDbEntity
  8
0
100
AcDbLine
 10
1265.639610215683
 20
372.6583859253069
 30
0.0
 11
1276.139610215683
 21
372.6583859253069
 31
0.0
  0
LINE
  5
629
330
1F
100
AcDbEntity
  8
0
100
AcDbLine
 10
1334.639610215683
 20
372.6583859253069
 30
0.0
 11
1331.639610215683
 21
372.6583859253069
 31
0.0
  0
LINE
  5
62A
330
1F
100
AcDbEntity
  8
0
100
AcDbLine
 10
1331.639610215683
 20
374.1583859253069
 30
0.0
 11
1334.639610215683
 21
374.1583859253069
 31
0.0
  0
LINE
  5
62B
330
1F
100
AcDbEntity
  8
0
100
AcDbLine
 10
1334.639610215683
 20
372.6583859253069
 30
0.0
 11
1332.639610215683
 21
371.6583859253069
 31
0.0
  0
LINE
  5
62C
330
1F
100
AcDbEntity
  8
0
100
AcDbLine
 10
1334.639610215683
 20
374.1583859253069
 30
0.0
 11
1332.639610215683
 21
375.1583859253067
 31
0.0
  0
LINE
  5
62D
330
1F
100
AcDbEntity
  8
0
100
AcDbLine
 10
1332.639610215683
 20
375.1583859253067
 30
0.0
 11
1326.639610215683
 21
376.6583859253069
 31
0.0
  0
LINE
  5
62E
330
1F
100
AcDbEntity
  8
0
100
AcDbLine
 10
1332.639610215683
 20
371.6583859253069
 30
0.0
 11
1326.639610215683
 21
370.1583859253068
 31
0.0
  0
HATCH
  5
62F
330
1F
100
AcDbEntity
  8
8
100
AcDbHatch
 10
0.0
 20
0.0
 30
0.0
210
0.0
220
0.0
230
1.0
  2
NET
 70
     0
 71
     0
 91
        2
 92
        7
 72
     0
 73
     1
 93
       12
 10
1261.639610215683
 20
372.6583859253069
 10
1263.639610215683
 20
371.6583859253069
 10
1269.639610215683
 20
370.1583859253068
 10
1269.639610215683
 20
372.6583859253069
 10
1265.639610215683
 20
372.6583859253069
 10
1265.639610215683
 20
374.1583859253069
 10
1269.639610215683
 20
374.1583859253069
 10
1269.639610215683
 20
376.6583859253069
 10
1263.639610215683
 20
375.1583859253067
 10
1261.639610215683
 20
374.1583859253069
 10
1264.639610215683
 20
374.1583859253069
 10
1264.639610215683
 20
372.6583859253069
 97
        0
 92
        7
 72
     0
 73
     1
 93
       12
 10
1330.639610215683
 20
372.6583859253069
 10
1326.639610215683
 20
372.6583859253069
 10
1326.639610215683
 20
370.1583859253068
 10
1332.639610215683
 20
371.6583859253069
 10
1334.639610215683
 20
372.6583859253069
 10
1331.639610215683
 20
372.6583859253069
 10
1331.639610215683
 20
374.1583859253069
 10
1334.639610215683
 20
374.1583859253069
 10
1332.639610215683
 20
375.1583859253067
 10
1326.639610215683
 20
376.6583859253069
 10
1326.639610215683
 20
374.1583859253069
 10
1330.639610215683
 20
374.1583859253069
 97
        0
 75
     0
 76
     1
 52
135.0
 41
0.5
 77
     0
 78
     2
 53
135.0
 43
1180.076003220806
 44
171.8539968808675
 45
-1.122532015133643
 46
-1.122532015133643
 79
     0
 53
225.0
 43
1180.076003220806
 44
171.8539968808675
 45
1.122532015133643
 46
-1.122532015133643
 79
     0
 47
0.1492324330864038
 98
        2
 10
1268.171999359106
 20
371.6240291812112
 10
1329.093007241633
 20
371.474795735985
  0
LINE
  5
630
330
1F
100
AcDbEntity
  8
0
100
AcDbLine
 10
1270.639610215683
 20
360.6583859253069
 30
0.0
 11
1270.639610215683
 21
304.6583859253069
 31
0.0
  0
LINE
  5
631
330
1F
100
AcDbEntity
  8
0
100
AcDbLine
 10
1275.639610215683
 20
299.6583859253071
 30
0.0
 11
1320.639610215683
 21
299.6583859253071
 31
0.0
  0
LINE
  5
632
330
1F
100
AcDbEntity
  8
0
100
AcDbLine
 10
1325.639610215683
 20
304.6583859253069
 30
0.0
 11
1325.639610215683
 21
360.6583859253069
 31
0.0
  0
ARC
  5
633
330
1F
100
AcDbEntity
  8
0
100
AcDbCircle
 10
1275.639610215683
 20
304.6583859253069
 30
0.0
 40
5.0
100
AcDbArc
 50
180.0
 51
270.0
1001
GENIUS_GENOBJ-N-FIL_13
1002
{
1000
OWNER
1000
GEN
1002
}
1001
GENIUS_GENODEF_13
1002
{
1000
HIER
1070
     0
1002
}
1002
{
1000
MANEDIT
1070
     0
1002
}
1002
{
1000
NOSEL
1070
     0
1002
}
1002
{
1000
BEHIND
1070
     0
1002
}
1002
{
1000
OTHER
1070
     0
1002
}
1002
{
1000
REACTOR
1002
}
  0
ARC
  5
634
330
1F
100
AcDbEntity
  8
0
100
AcDbCircle
 10
1320.639610215683
 20
304.6583859253069
 30
0.0
 40
5.0
100
AcDbArc
 50
270.0
 51
0.0
1001
GENIUS_GENOBJ-N-FIL_13
1002
{
1000
OWNER
1000
GEN
1002
}
1001
GENIUS_GENODEF_13
1002
{
1000
HIER
1070
     0
1002
}
1002
{
1000
MANEDIT
1070
     0
1002
}
1002
{
1000
NOSEL
1070
     0
1002
}
1002
{
1000
BEHIND
1070
     0
1002
}
1002
{
1000
OTHER
1070
     0
1002
}
1002
{
1000
REACTOR
1002
}
  0
ARC
  5
635
330
1F
100
AcDbEntity
  8
0
100
AcDbCircle
 10
1275.639610215683
 20
304.6583859253069
 30
0.0
 40
6.0
100
AcDbArc
 50
180.0
 51
270.0
1001
GENIUS_GENOBJ-N-FIL_13
1002
{
1000
OWNER
1000
GEN
1002
}
1001
GENIUS_GENODEF_13
1002
{
1000
HIER
1070
     0
1002
}
1002
{
1000
MANEDIT
1070
     0
1002
}
1002
{
1000
NOSEL
1070
     0
1002
}
1002
{
1000
BEHIND
1070
     0
1002
}
1002
{
1000
OTHER
1070
     0
1002
}
1002
{
1000
REACTOR
1002
}
  0
ARC
  5
636
330
1F
100
AcDbEntity
  8
0
100
AcDbCircle
 10
1320.639610215683
 20
304.6583859253069
 30
0.0
 40
6.0
100
AcDbArc
 50
270.0
 51
0.0
1001
GENIUS_GENODEF_13
1002
{
1000
HIER
1070
     0
1002
}
1002
{
1000
MANEDIT
1070
     0
1002
}
1002
{
1000
NOSEL
1070
     0
1002
}
1002
{
1000
BEHIND
1070
     0
1002
}
1002
{
1000
OTHER
1070
     0
1002
}
1002
{
1000
REACTOR
1002
}
1001
GENIUS_GENOBJ-N-FIL_13
1002
{
1000
OWNER
1000
GEN
1002
}
  0
ARC
  5
637
330
1F
100
AcDbEntity
  8
0
100
AcDbCircle
 10
1276.139610215683
 20
370.6583859253067
 30
0.0
 40
2.0
100
AcDbArc
 50
0.0
 51
90.0
1001
GENIUS_GENODEF_13
1002
{
1000
HIER
1070
     0
1002
}
1002
{
1000
MANEDIT
1070
     0
1002
}
1002
{
1000
NOSEL
1070
     0
1002
}
1002
{
1000
BEHIND
1070
     0
1002
}
1002
{
1000
OTHER
1070
     0
1002
}
1002
{
1000
REACTOR
1002
}
1001
GENIUS_GENOBJ-N-FIL_13
1002
{
1000
OWNER
1000
GEN
1002
}
  0
LINE
  5
638
330
1F
100
AcDbEntity
  8
0
100
AcDbLine
 10
1330.639610215683
 20
372.6583859253069
 30
0.0
 11
1320.139610215683
 21
372.6583859253069
 31
0.0
  0
ARC
  5
639
330
1F
100
AcDbEntity
  8
0
100
AcDbCircle
 10
1320.139610215683
 20
370.6583859253067
 30
0.0
 40
2.0
100
AcDbArc
 50
90.0
 51
180.0
1001
GENIUS_GENODEF_13
1002
{
1000
HIER
1070
     0
1002
}
1002
{
1000
MANEDIT
1070
     0
1002
}
1002
{
1000
NOSEL
1070
     0
1002
}
1002
{
1000
BEHIND
1070
     0
1002
}
1002
{
1000
OTHER
1070
     0
1002
}
1002
{
1000
REACTOR
1002
}
1001
GENIUS_GENOBJ-N-FIL_13
1002
{
1000
OWNER
1000
GEN
1002
}
  0
ARC
  5
63A
330
1F
100
AcDbEntity
  8
0
100
AcDbCircle
 10
1276.139610215683
 20
370.6583859253067
 30
0.0
 40
3.5
100
AcDbArc
 50
0.0
 51
90.0
1001
GENIUS_GENODEF_13
1002
{
1000
HIER
1070
     0
1002
}
1002
{
1000
MANEDIT
1070
     0
1002
}
1002
{
1000
NOSEL
1070
     0
1002
}
1002
{
1000
BEHIND
1070
     0
1002
}
1002
{
1000
OTHER
1070
     0
1002
}
1002
{
1000
REACTOR
1002
}
1001
GENIUS_GENOBJ-N-FIL_13
1002
{
1000
OWNER
1000
GEN
1002
}
  0
ARC
  5
63B
330
1F
100
AcDbEntity
  8
0
100
AcDbCircle
 10
1320.139610215683
 20
370.6583859253067
 30
0.0
 40
3.5
100
AcDbArc
 50
90.0
 51
180.0
1001
GENIUS_GENODEF_13
1002
{
1000
HIER
1070
     0
1002
}
1002
{
1000
MANEDIT
1070
     0
1002
}
1002
{
1000
NOSEL
1070
     0
1002
}
1002
{
1000
BEHIND
1070
     0
1002
}
1002
{
1000
OTHER
1070
     0
1002
}
1002
{
1000
REACTOR
1002
}
1001
GENIUS_GENOBJ-N-FIL_13
1002
{
1000
OWNER
1000
GEN
1002
}
  0
HATCH
  5
63C
330
1F
100
AcDbEntity
  8
8
100
AcDbHatch
 10
0.0
 20
0.0
 30
0.0
210
0.0
220
0.0
230
1.0
  2
_U
 70
     0
 71
     0
 91
        1
 92
        1
 93
        8
 72
     1
 10
1318.139610215683
 20
313.6583859253069
 11
1318.139610215683
 21
370.6583859253066
 72
     2
 10
1320.139610215683
 20
370.6583859253067
 40
2.0
 50
180.0
 51
270.0
 73
     0
 72
     1
 10
1320.139610215683
 20
372.6583859253069
 11
1330.639610215683
 21
372.6583859253069
 72
     1
 10
1330.639610215683
 20
372.6583859253069
 11
1330.639610215683
 21
374.1583859253069
 72
     1
 10
1330.639610215683
 20
374.1583859253069
 11
1320.139610215683
 21
374.1583859253069
 72
     2
 10
1320.139610215683
 20
370.6583859253067
 40
3.5
 50
90.0
 51
180.0
 73
     1
 72
     1
 10
1316.639610215683
 20
370.6583859253067
 11
1316.639610215683
 21
313.6583859253069
 72
     1
 10
1316.639610215683
 20
313.6583859253069
 11
1318.139610215683
 21
313.6583859253069
 97
        0
 75
     0
 76
     0
 52
45.0
 41
5.0
 77
     0
 78
     1
 53
45.0
 43
1180.076003220806
 44
170.9440265877653
 45
-3.535533905932736
 46
3.535533905932736
 79
     0
 98
        1
 10
1180.076003220806
 20
170.9440265877653
1001
GENIUS_GENODEF_13
1002
{
1000
HIER
1070
     0
1002
}
1002
{
1000
MANEDIT
1070
     0
1002
}
1002
{
1000
NOSEL
1070
     0
1002
}
1002
{
1000
BEHIND
1070
     0
1002
}
1002
{
1000
OTHER
1070
     0
1002
}
1002
{
1000
REACTOR
1002
}
1001
GENIUS_GENOBJ-N-HTC_13
1002
{
1000
OWNER
1000
GEN
1002
}
1001
GENIUS_GENHATCH_13
1002
{
1000
DATA
1040
45.0
1042
5.0
1000
_U
1070
     0
1011
1317.369289144772
1021
353.6255865024442
1031
0.0
1002
}
1002
{
1000
UCS
1010
0.0
1020
0.0
1030
0.0
1010
1.0
1020
0.0
1030
0.0
1010
0.0
1020
1.0
1030
0.0
1002
}
  0
HATCH
  5
63D
330
1F
100
AcDbEntity
  8
8
100
AcDbHatch
 10
0.0
 20
0.0
 30
0.0
210
0.0
220
0.0
230
1.0
  2
_U
 70
     0
 71
     0
 91
        1
 92
        1
 93
        8
 72
     1
 10
1276.139610215683
 20
374.1583859253069
 11
1265.639610215683
 21
374.1583859253069
 72
     1
 10
1265.639610215683
 20
374.1583859253069
 11
1265.639610215683
 21
372.658385925307
 72
     1
 10
1265.639610215683
 20
372.6583859253069
 11
1276.139610215683
 21
372.6583859253069
 72
     2
 10
1276.139610215683
 20
370.6583859253067
 40
2.0
 50
270.0
 51
360.0
 73
     0
 72
     1
 10
1278.139610215683
 20
370.6583859253067
 11
1278.139610215683
 21
313.6583859253069
 72
     1
 10
1278.139610215683
 20
313.6583859253069
 11
1279.639610215683
 21
313.6583859253069
 72
     1
 10
1279.639610215683
 20
313.6583859253069
 11
1279.639610215683
 21
370.6583859253066
 72
     2
 10
1276.139610215683
 20
370.6583859253067
 40
3.5
 50
0.0
 51
90.0
 73
     1
 97
        0
 75
     0
 76
     0
 52
45.0
 41
5.0
 77
     0
 78
     1
 53
45.0
 43
1180.076003220806
 44
170.9440265877653
 45
-3.535533905932736
 46
3.535533905932736
 79
     0
 98
        1
 10
1180.076003220806
 20
170.9440265877653
1001
GENIUS_GENODEF_13
1002
{
1000
HIER
1070
     0
1002
}
1002
{
1000
MANEDIT
1070
     0
1002
}
1002
{
1000
NOSEL
1070
     0
1002
}
1002
{
1000
BEHIND
1070
     0
1002
}
1002
{
1000
OTHER
1070
     0
1002
}
1002
{
1000
REACTOR
1002
}
1001
GENIUS_GENOBJ-N-HTC_13
1002
{
1000
OWNER
1000
GEN
1002
}
1001
GENIUS_GENHATCH_13
1002
{
1000
DATA
1040
45.0
1042
5.0
1000
_U
1070
     0
1011
1279.002342245783
1021
351.4060471836134
1031
0.0
1002
}
1002
{
1000
UCS
1010
0.0
1020
0.0
1030
0.0
1010
1.0
1020
0.0
1030
0.0
1010
0.0
1020
1.0
1030
0.0
1002
}
  0
LINE
  5
63E
330
1F
100
AcDbEntity
  8
0
100
AcDbLine
 10
1269.639610215683
 20
363.6583859253069
 30
0.0
 11
1270.639610215683
 21
363.6583859253069
 31
0.0
  0
LINE
  5
63F
330
1F
100
AcDbEntity
  8
0
100
AcDbLine
 10
1269.639610215683
 20
372.6583859253069
 30
0.0
 11
1276.139610215683
 21
372.6583859253069
 31
0.0
  0
LINE
  5
640
330
1F
100
AcDbEntity
  8
0
100
AcDbLine
 10
1269.639610215683
 20
363.6583859253069
 30
0.0
 11
1271.400314771498
 21
363.6583859253069
 31
0.0
  0
LINE
  5
641
330
1F
100
AcDbEntity
  8
0
100
AcDbLine
 10
1278.139610215683
 20
370.6583859253067
 30
0.0
 11
1278.139610215683
 21
352.6583859253069
 31
0.0
  0
LINE
  5
642
330
1F
100
AcDbEntity
  8
0
100
AcDbLine
 10
1271.139610215683
 20
361.1783859253069
 30
0.0
 11
1271.139610215683
 21
359.1783859253069
 31
0.0
  0
LINE
  5
643
330
1F
100
AcDbEntity
  8
0
100
AcDbLine
 10
1278.139610215683
 20
352.6583859253069
 30
0.0
 11
1274.903933970799
 21
352.6583859253069
 31
0.0
  0
LINE
  5
644
330
1F
100
AcDbEntity
  8
0
100
AcDbLine
 10
1269.639610215683
 20
363.6583859253069
 30
0.0
 11
1269.639610215683
 21
372.6583859253069
 31
0.0
  0
LINE
  5
645
330
1F
100
AcDbEntity
  8
0
100
AcDbLine
 10
1271.139610215683
 20
361.1783859253069
 30
0.0
 11
1271.863906698781
 21
362.971082628599
 31
0.0
  0
ARC
  5
646
330
1F
100
AcDbEntity
  8
0
100
AcDbCircle
 10
1271.400314771498
 20
363.1583859253068
 30
0.0
 40
0.5
100
AcDbArc
 50
338.000000000006
 51
90.0
  0
LINE
  5
647
330
1F
100
AcDbEntity
  8
0
100
AcDbLine
 10
1271.139610215683
 20
359.1783859253069
 30
0.0
 11
1274.903933970799
 21
352.6583859253069
 31
0.0
  0
LINE
  5
648
330
1F
100
AcDbEntity
  8
0
100
AcDbLine
 10
1276.139610215683
 20
372.6583859253069
 30
0.0
 11
1278.139610215683
 21
370.6583859253067
 31
0.0
  0
LINE
  5
649
330
1F
100
AcDbEntity
  8
3
100
AcDbLine
 10
1269.639610215683
 20
370.1583859253068
 30
0.0
 11
1278.139610215683
 21
370.1583859253068
 31
0.0
  0
LINE
  5
64A
330
1F
100
AcDbEntity
  8
3
100
AcDbLine
 10
1271.400314771498
 20
363.6583859253069
 30
0.0
 11
1278.139610215683
 21
363.6583859253069
 31
0.0
  0
LINE
  5
64B
330
1F
100
AcDbEntity
  8
0
100
AcDbLine
 10
1270.639610215683
 20
360.6583859253069
 30
0.0
 11
1271.112583188656
 21
363.4962237631446
 31
0.0
  0
LINE
  5
64C
330
1F
100
AcDbEntity
  8
0
100
AcDbLine
 10
1269.639610215683
 20
360.6583859253069
 30
0.0
 11
1270.139610215683
 21
363.6583859253069
 31
0.0
  0
LINE
  5
64D
330
1F
100
AcDbEntity
  8
0
100
AcDbLine
 10
1270.139610215683
 20
363.6583859253069
 30
0.0
 11
1271.112583188656
 21
363.4962237631446
 31
0.0
  0
LINE
  5
64E
330
1F
100
AcDbEntity
  8
0
100
AcDbLine
 10
1271.112583188656
 20
363.4962237631446
 30
0.0
 11
1271.768914276822
 21
363.4962237631446
 31
0.0
  0
LINE
  5
64F
330
1F
100
AcDbEntity
  8
0
100
AcDbLine
 10
1325.639610215683
 20
360.6583859253069
 30
0.0
 11
1325.16663724271
 21
363.4962237631446
 31
0.0
  0
LINE
  5
650
330
1F
100
AcDbEntity
  8
0
100
AcDbLine
 10
1326.639610215683
 20
360.6583859253069
 30
0.0
 11
1326.139610215683
 21
363.6583859253069
 31
0.0
  0
LINE
  5
651
330
1F
100
AcDbEntity
  8
0
100
AcDbLine
 10
1326.139610215683
 20
363.6583859253069
 30
0.0
 11
1325.16663724271
 21
363.4962237631446
 31
0.0
  0
LINE
  5
652
330
1F
100
AcDbEntity
  8
0
100
AcDbLine
 10
1325.16663724271
 20
363.4962237631446
 30
0.0
 11
1318.139610215683
 21
363.4962237631446
 31
0.0
  0
INSERT
  5
653
330
1F
100
AcDbEntity
  8
0
100
AcDbBlockReference
  2
befestigung
 10
2996.456293724962
 20
-1024.374880648919
 30
0.0
 41
-1.0
  0
INSERT
  5
654
330
1F
100
AcDbEntity
  8
0
100
AcDbBlockReference
  2
befestigung
 10
-2030.894005620206
 20
-1024.374880648919
 30
0.0
  0
POINT
  5
655
330
1F
100
AcDbEntity
  8
0
 60
     1
100
AcDbPoint
 10
-926.9492297479146
 20
-879.1035585425083
 30
0.0
1001
GENIUS_GENOENT_13
1002
{
1000
MYREF
1005
655
1002
}
1002
{
1000
GRP
1005
0
1002
}
1001
GENIUS_GENOLIS_13
1002
{
1000
ENT
1005
5A3
1005
5A2
1005
5A1
1005
5A0
1002
}
1001
GENIUS_GENODEF_13
1002
{
1000
HIER
1070
    10
1002
}
1002
{
1000
MANEDIT
1070
     0
1002
}
1002
{
1000
NOSEL
1070
     0
1002
}
1002
{
1000
BEHIND
1070
     0
1002
}
1002
{
1000
OTHER
1070
     0
1002
}
1002
{
1000
REACTOR
1002
}
1001
GENIUS_GENOBJ-N-CRS_13
1002
{
1000
OWNER
1000
GEN
1002
}
  0
ENDSEC
  0
SECTION
  2
OBJECTS
  0
DICTIONARY
  5
C
330
0
100
AcDbDictionary
281
     1
  3
ACAD_2007HEADERVARS_RT
350
717
  3
ACAD_COLOR
350
BE
  3
ACAD_GROUP
350
D
  3
ACAD_LAYOUT
350
1A
  3
ACAD_MATERIAL
350
BD
  3
ACAD_MLEADERSTYLE
350
2C4
  3
ACAD_MLINESTYLE
350
17
  3
ACAD_PLOTSETTINGS
350
19
  3
ACAD_PLOTSTYLENAME
350
E
  3
ACAD_SCALELIST
350
2A2
  3
ACAD_TABLESTYLE
350
11A
  3
ACAD_VISUALSTYLE
350
26E
  3
ACDB_RECOMPOSE_DATA
350
2E6
  3
AcDbVariableDictionary
350
94
  3
AcmDictionary
350
5B
  3
AcmSystemVariableManager
350
725
  3
AMG
350
41
  3
AMGSNAPSETTINGS
350
364
  3
DWGPROPS
350
716
  0
DICTIONARY
  5
456
330
2
100
AcDbDictionary
280
     1
281
     1
  3
ACAD_LAYERSTATES
360
457
  0
DICTIONARY
  5
707
330
10
100
AcDbDictionary
280
     1
281
     1
  3
ADSK_XREC_LAYER_RECONCILED
360
708
  0
DICTIONARY
  5
433
330
432
100
AcDbDictionary
280
     1
281
     1
  3
ADSK_XREC_LAYER_RECONCILED
360
709
  0
DICTIONARY
  5
435
330
434
100
AcDbDictionary
280
     1
281
     1
  3
ADSK_XREC_LAYER_RECONCILED
360
70A
  0
DICTIONARY
  5
438
330
437
100
AcDbDictionary
280
     1
281
     1
  3
ADSK_XREC_LAYER_RECONCILED
360
70B
  0
DICTIONARY
  5
43A
330
439
100
AcDbDictionary
280
     1
281
     1
  3
ADSK_XREC_LAYER_RECONCILED
360
70C
  0
DICTIONARY
  5
43C
330
43B
100
AcDbDictionary
280
     1
281
     1
  3
ADSK_XREC_LAYER_RECONCILED
360
70D
  0
DICTIONARY
  5
43E
330
43D
100
AcDbDictionary
280
     1
281
     1
  3
ADSK_XREC_LAYER_RECONCILED
360
70E
  0
DICTIONARY
  5
440
330
43F
100
AcDbDictionary
280
     1
281
     1
  3
ADSK_XREC_LAYER_RECONCILED
360
70F
  0
DICTIONARY
  5
442
330
441
100
AcDbDictionary
280
     1
281
     1
  3
ADSK_XREC_LAYER_RECONCILED
360
710
  0
DICTIONARY
  5
444
330
443
100
AcDbDictionary
280
     1
281
     1
  3
ADSK_XREC_LAYER_RECONCILED
360
711
  0
DICTIONARY
  5
446
330
445
100
AcDbDictionary
280
     1
281
     1
  3
ADSK_XREC_LAYER_RECONCILED
360
712
  0
DICTIONARY
  5
448
330
447
100
AcDbDictionary
280
     1
281
     1
  3
ADSK_XREC_LAYER_RECONCILED
360
713
  0
DICTIONARY
  5
8F
330
1F
100
AcDbDictionary
280
     1
281
     1
  0
DICTIONARY
  5
5C3
330
5C2
100
AcDbDictionary
280
     1
281
     1
  3
ACAD_DIMASSOC
360
5C4
  0
DICTIONARY
  5
717
102
{ACAD_REACTORS
330
C
102
}
330
C
100
AcDbDictionary
281
     1
  3
DIMARCSYM
350
718
  3
DIMLTEX1
350
71A
  3
DIMLTEX2
350
71B
  3
DIMLTYPE
350
719
  0
DICTIONARY
  5
BE
102
{ACAD_REACTORS
330
C
102
}
330
C
100
AcDbDictionary
281
     1
  0
DICTIONARY
  5
D
102
{ACAD_REACTORS
330
C
102
}
330
C
100
AcDbDictionary
281
     1
  0
DICTIONARY
  5
1A
102
{ACAD_REACTORS
330
C
102
}
330
C
100
AcDbDictionary
281
     1
  3
Layout1
350
1E
  3
Layout2
350
26
  3
Model
350
22
  0
DICTIONARY
  5
BD
102
{ACAD_REACTORS
330
C
102
}
330
C
100
AcDbDictionary
281
     1
  3
ByBlock
350
26C
  3
ByLayer
350
26B
  3
Global
350
26D
  0
DICTIONARY
  5
2C4
102
{ACAD_REACTORS
330
C
102
}
330
C
100
AcDbDictionary
281
     1
  3
Standard
350
2C5
  0
DICTIONARY
  5
17
102
{ACAD_REACTORS
330
C
102
}
330
C
100
AcDbDictionary
281
     1
  3
Standard
350
18
  0
DICTIONARY
  5
19
102
{ACAD_REACTORS
330
C
102
}
330
C
100
AcDbDictionary
281
     1
  0
ACDBDICTIONARYWDFLT
  5
E
102
{ACAD_REACTORS
330
C
102
}
330
C
100
AcDbDictionary
281
     1
  3
Normal
350
F
100
AcDbDictionaryWithDefault
340
F
  0
DICTIONARY
  5
2A2
102
{ACAD_REACTORS
330
C
102
}
330
C
100
AcDbDictionary
281
     1
  3
A0
350
2A3
  3
A1
350
2A4
  3
A2
350
2A5
  3
A3
350
2A6
  3
A4
350
2A7
  3
A5
350
2A8
  3
A6
350
2A9
  3
A7
350
2AA
  3
A8
350
2AB
  3
A9
350
2AC
  3
B0
350
2AD
  3
B1
350
2AE
  3
B2
350
2AF
  3
B3
350
2B0
  3
B4
350
2B1
  3
B5
350
2B2
  3
B6
350
2B3
  3
B7
350
2B4
  3
B8
350
2B5
  3
B9
350
2B6
  3
C0
350
2B7
  3
C1
350
2B8
  3
C2
350
2B9
  3
C3
350
2BA
  3
C4
350
2BB
  3
C5
350
2BC
  3
C6
350
2BD
  3
C7
350
2BE
  3
C8
350
2BF
  3
C9
350
2C0
  3
D0
350
2C1
  3
D1
350
2C2
  3
D2
350
2C3
  0
DICTIONARY
  5
11A
102
{ACAD_REACTORS
330
C
102
}
330
C
100
AcDbDictionary
281
     1
  3
Standard
350
11B
  0
DICTIONARY
  5
26E
102
{ACAD_REACTORS
330
C
102
}
330
C
100
AcDbDictionary
281
     1
  3
2dWireframe
350
274
  3
3D Hidden
350
276
  3
3dWireframe
350
275
  3
Basic
350
273
  3
Brighten
350
27A
  3
ColorChange
350
27E
  3
Conceptual
350
277
  3
Dim
350
279
  3
Facepattern
350
27D
  3
Flat
350
26F
  3
FlatWithEdges
350
270
  3
Gouraud
350
271
  3
GouraudWithEdges
350
272
  3
Linepattern
350
27C
  3
Realistic
350
278
  3
Thicken
350
27B
  0
XRECORD
  5
2E6
102
{ACAD_REACTORS
330
C
102
}
330
C
100
AcDbXrecord
280
     1
 90
        1
330
11B
  0
DICTIONARY
  5
94
102
{ACAD_REACTORS
330
C
102
}
330
C
100
AcDbDictionary
281
     1
  3
CANNOSCALE
350
2E9
  3
CMLEADERSTYLE
350
2E7
  3
CTABLESTYLE
350
138
  3
DIMASSOC
350
96
  3
INDEXCTL
350
95
  3
LAYEREVAL
350
346
  3
LAYERNOTIFY
350
347
  3
LIGHTINGUNITS
350
2EA
  3
MSLTSCALE
350
2E8
  3
SORTENTS
350
714
  0
DICTIONARY
  5
5B
102
{ACAD_REACTORS
330
C
102
}
330
C
100
AcDbDictionary
281
     1
  3
AcmBOM
350
36B
  3
AcmStdDictionary
350
61
  3
AMDTSECTSYM_ARROWCOLOR
350
123
  0
DICTIONARY
  5
41
102
{ACAD_REACTORS
330
C
102
}
330
C
100
AcDbDictionary
281
     1
  0
DICTIONARY
  5
364
102
{ACAD_REACTORS
330
C
102
}
330
C
100
AcDbDictionary
281
     1
  0
XRECORD
  5
716
102
{ACAD_REACTORS
330
C
102
}
330
C
100
AcDbXrecord
280
     1
  1
DWGPROPS COOKIE
  2

  3

  4

  6

  7

  8
nlazaar
  9

300
AmdtFileType=84
301
=
302
=
303
=
304
=
305
=
306
=
307
=
308
=
309
=
 40
0.0026255555555556
 41
2455098.41675397
 42
2455098.419378993
  1

 90
        1
  0
DICTIONARY
  5
457
102
{ACAD_REACTORS
330
456
102
}
330
456
100
AcDbDictionary
281
     1
  0
XRECORD
  5
708
102
{ACAD_REACTORS
330
707
102
}
330
707
100
AcDbXrecord
280
     1
290
     1
  0
XRECORD
  5
709
102
{ACAD_REACTORS
330
433
102
}
330
433
100
AcDbXrecord
280
     1
290
     1
  0
XRECORD
  5
70A
102
{ACAD_REACTORS
330
435
102
}
330
435
100
AcDbXrecord
280
     1
290
     1
  0
XRECORD
  5
70B
102
{ACAD_REACTORS
330
438
102
}
330
438
100
AcDbXrecord
280
     1
290
     1
  0
XRECORD
  5
70C
102
{ACAD_REACTORS
330
43A
102
}
330
43A
100
AcDbXrecord
280
     1
290
     1
  0
XRECORD
  5
70D
102
{ACAD_REACTORS
330
43C
102
}
330
43C
100
AcDbXrecord
280
     1
290
     1
  0
XRECORD
  5
70E
102
{ACAD_REACTORS
330
43E
102
}
330
43E
100
AcDbXrecord
280
     1
290
     1
  0
XRECORD
  5
70F
102
{ACAD_REACTORS
330
440
102
}
330
440
100
AcDbXrecord
280
     1
290
     1
  0
XRECORD
  5
710
102
{ACAD_REACTORS
330
442
102
}
330
442
100
AcDbXrecord
280
     1
290
     1
  0
XRECORD
  5
711
102
{ACAD_REACTORS
330
444
102
}
330
444
100
AcDbXrecord
280
     1
290
     1
  0
XRECORD
  5
712
102
{ACAD_REACTORS
330
446
102
}
330
446
100
AcDbXrecord
280
     1
290
     1
  0
XRECORD
  5
713
102
{ACAD_REACTORS
330
448
102
}
330
448
100
AcDbXrecord
280
     1
290
     1
  0
DIMASSOC
  5
5C4
102
{ACAD_REACTORS
330
5C3
102
}
330
5C3
100
AcDbDimAssoc
330
5C2
 90
        2
 70
     0
 71
     0
  1
AcDbOsnapPointRef
 72
     6
331
5AE
 73
     0
 91
        0
 40
0.0
 10
0.0
 20
0.0
 30
0.0
332
5B2
 74
     0
 92
        0
 75
     0
  0
XRECORD
  5
718
102
{ACAD_REACTORS
330
717
102
}
330
717
100
AcDbXrecord
280
     1
 70
     1
  0
XRECORD
  5
71A
102
{ACAD_REACTORS
330
717
102
}
330
717
100
AcDbXrecord
280
     1
340
14
  0
XRECORD
  5
71B
102
{ACAD_REACTORS
330
717
102
}
330
717
100
AcDbXrecord
280
     1
340
14
  0
XRECORD
  5
719
102
{ACAD_REACTORS
330
717
102
}
330
717
100
AcDbXrecord
280
     1
340
14
  0
LAYOUT
  5
1E
102
{ACAD_XDICTIONARY
360
71C
102
}
102
{ACAD_REACTORS
330
1A
102
}
330
1A
100
AcDbPlotSettings
  1

  2

  4

  6

 40
0.0
 41
0.0
 42
0.0
 43
0.0
 44
0.0
 45
0.0
 46
0.0
 47
0.0
 48
0.0
 49
0.0
140
0.0
141
0.0
142
1.0
143
1.0
 70
   688
 72
     0
 73
     0
 74
     5
  7

 75
    16
147
1.0
148
0.0
149
0.0
100
AcDbLayout
  1
Layout1
 70
     1
 71
     1
 10
0.0
 20
0.0
 11
420.0
 21
297.0
 12
0.0
 22
0.0
 32
0.0
 14
1.000000000000000E+20
 24
1.000000000000000E+20
 34
1.000000000000000E+20
 15
-1.000000000000000E+20
 25
-1.000000000000000E+20
 35
-1.000000000000000E+20
146
0.0
 13
0.0
 23
0.0
 33
0.0
 16
1.0
 26
0.0
 36
0.0
 17
0.0
 27
1.0
 37
0.0
 76
     0
330
1B
  0
LAYOUT
  5
26
102
{ACAD_XDICTIONARY
360
720
102
}
102
{ACAD_REACTORS
330
1A
102
}
330
1A
100
AcDbPlotSettings
  1

  2

  4

  6

 40
0.0
 41
0.0
 42
0.0
 43
0.0
 44
0.0
 45
0.0
 46
0.0
 47
0.0
 48
0.0
 49
0.0
140
0.0
141
0.0
142
1.0
143
1.0
 70
   688
 72
     0
 73
     0
 74
     5
  7

 75
    16
147
1.0
148
0.0
149
0.0
100
AcDbLayout
  1
Layout2
 70
     1
 71
     2
 10
0.0
 20
0.0
 11
12.0
 21
9.0
 12
0.0
 22
0.0
 32
0.0
 14
0.0
 24
0.0
 34
0.0
 15
0.0
 25
0.0
 35
0.0
146
0.0
 13
0.0
 23
0.0
 33
0.0
 16
1.0
 26
0.0
 36
0.0
 17
0.0
 27
1.0
 37
0.0
 76
     0
330
23
  0
LAYOUT
  5
22
102
{ACAD_XDICTIONARY
360
71E
102
}
102
{ACAD_REACTORS
330
1A
102
}
330
1A
100
AcDbPlotSettings
  1

  2

  4

  6

 40
0.0
 41
0.0
 42
0.0
 43
0.0
 44
0.0
 45
0.0
 46
0.0
 47
0.0
 48
0.0
 49
0.0
140
0.0
141
0.0
142
1.0
143
1.0
 70
  1712
 72
     0
 73
     0
 74
     0
  7

 75
     0
147
1.0
148
0.0
149
0.0
100
AcDbLayout
  1
Model
 70
     1
 71
     0
 10
0.0
 20
0.0
 11
12.0
 21
9.0
 12
0.0
 22
0.0
 32
0.0
 14
0.0
 24
0.0
 34
0.0
 15
0.0
 25
0.0
 35
0.0
146
0.0
 13
0.0
 23
0.0
 33
0.0
 16
1.0
 26
0.0
 36
0.0
 17
0.0
 27
1.0
 37
0.0
 76
     0
330
1F
331
269
  0
MATERIAL
  5
26C
102
{ACAD_XDICTIONARY
360
72A
102
}
102
{ACAD_REACTORS
330
BD
102
}
330
BD
100
AcDbMaterial
  1
ByBlock
 73
     1
 78
     1
172
     1
176
     1
270
     1
274
     1
  0
MATERIAL
  5
26B
102
{ACAD_XDICTIONARY
360
728
102
}
102
{ACAD_REACTORS
330
BD
102
}
330
BD
100
AcDbMaterial
  1
ByLayer
 73
     1
 78
     1
172
     1
176
     1
270
     1
274
     1
  0
MATERIAL
  5
26D
102
{ACAD_XDICTIONARY
360
72C
102
}
102
{ACAD_REACTORS
330
BD
102
}
330
BD
100
AcDbMaterial
  1
Global
 73
     1
 78
     1
172
     1
176
     1
270
     1
274
     1
  0
MLEADERSTYLE
  5
2C5
102
{ACAD_REACTORS
330
2C4
102
}
330
2C4
100
AcDbMLeaderStyle
170
     2
171
     1
172
     0
 90
        2
 40
0.0
 41
0.0
173
     1
 91
-1056964608
340
14
 92
       -2
290
     1
 42
2.0
291
     1
 43
0.36
  3
Standard
 44
4.0
300

342
11
174
     1
178
     6
175
     1
176
     0
 93
-1056964608
 45
4.0
292
     0
297
     0
 46
4.0
 94
-1056964608
 47
1.0
 49
1.0
140
1.0
293
     1
141
0.0
294
     1
177
     0
142
1.0
295
     0
296
     0
143
0.125
1001
ACAD_MLEADERVER
1070
     2
  0
MLINESTYLE
  5
18
102
{ACAD_REACTORS
330
17
102
}
330
17
100
AcDbMlineStyle
  2
STANDARD
 70
     0
  3

 62
   256
 51
90.0
 52
90.0
 71
     2
 49
0.5
 62
   256
  6
BYLAYER
 49
-0.5
 62
   256
  6
BYLAYER
  0
ACDBPLACEHOLDER
  5
F
102
{ACAD_REACTORS
330
E
102
}
330
E
  0
SCALE
  5
2A3
102
{ACAD_REACTORS
330
2A2
102
}
330
2A2
100
AcDbScale
 70
     0
300
1:1
140
1.0
141
1.0
290
     1
  0
SCALE
  5
2A4
102
{ACAD_REACTORS
330
2A2
102
}
330
2A2
100
AcDbScale
 70
     0
300
1:2
140
1.0
141
2.0
290
     0
  0
SCALE
  5
2A5
102
{ACAD_REACTORS
330
2A2
102
}
330
2A2
100
AcDbScale
 70
     0
300
1:4
140
1.0
141
4.0
290
     0
  0
SCALE
  5
2A6
102
{ACAD_REACTORS
330
2A2
102
}
330
2A2
100
AcDbScale
 70
     0
300
1:5
140
1.0
141
5.0
290
     0
  0
SCALE
  5
2A7
102
{ACAD_REACTORS
330
2A2
102
}
330
2A2
100
AcDbScale
 70
     0
300
1:8
140
1.0
141
8.0
290
     0
  0
SCALE
  5
2A8
102
{ACAD_REACTORS
330
2A2
102
}
330
2A2
100
AcDbScale
 70
     0
300
1:10
140
1.0
141
10.0
290
     0
  0
SCALE
  5
2A9
102
{ACAD_REACTORS
330
2A2
102
}
330
2A2
100
AcDbScale
 70
     0
300
1:16
140
1.0
141
16.0
290
     0
  0
SCALE
  5
2AA
102
{ACAD_REACTORS
330
2A2
102
}
330
2A2
100
AcDbScale
 70
     0
300
1:20
140
1.0
141
20.0
290
     0
  0
SCALE
  5
2AB
102
{ACAD_REACTORS
330
2A2
102
}
330
2A2
100
AcDbScale
 70
     0
300
1:30
140
1.0
141
30.0
290
     0
  0
SCALE
  5
2AC
102
{ACAD_REACTORS
330
2A2
102
}
330
2A2
100
AcDbScale
 70
     0
300
1:40
140
1.0
141
40.0
290
     0
  0
SCALE
  5
2AD
102
{ACAD_REACTORS
330
2A2
102
}
330
2A2
100
AcDbScale
 70
     0
300
1:50
140
1.0
141
50.0
290
     0
  0
SCALE
  5
2AE
102
{ACAD_REACTORS
330
2A2
102
}
330
2A2
100
AcDbScale
 70
     0
300
1:100
140
1.0
141
100.0
290
     0
  0
SCALE
  5
2AF
102
{ACAD_REACTORS
330
2A2
102
}
330
2A2
100
AcDbScale
 70
     0
300
2:1
140
2.0
141
1.0
290
     0
  0
SCALE
  5
2B0
102
{ACAD_REACTORS
330
2A2
102
}
330
2A2
100
AcDbScale
 70
     0
300
4:1
140
4.0
141
1.0
290
     0
  0
SCALE
  5
2B1
102
{ACAD_REACTORS
330
2A2
102
}
330
2A2
100
AcDbScale
 70
     0
300
8:1
140
8.0
141
1.0
290
     0
  0
SCALE
  5
2B2
102
{ACAD_REACTORS
330
2A2
102
}
330
2A2
100
AcDbScale
 70
     0
300
10:1
140
10.0
141
1.0
290
     0
  0
SCALE
  5
2B3
102
{ACAD_REACTORS
330
2A2
102
}
330
2A2
100
AcDbScale
 70
     0
300
100:1
140
100.0
141
1.0
290
     0
  0
SCALE
  5
2B4
102
{ACAD_REACTORS
330
2A2
102
}
330
2A2
100
AcDbScale
 70
     0
300
1/128" = 1'-0"
140
0.0078125
141
12.0
290
     0
  0
SCALE
  5
2B5
102
{ACAD_REACTORS
330
2A2
102
}
330
2A2
100
AcDbScale
 70
     0
300
1/64" = 1'-0"
140
0.015625
141
12.0
290
     0
  0
SCALE
  5
2B6
102
{ACAD_REACTORS
330
2A2
102
}
330
2A2
100
AcDbScale
 70
     0
300
1/32" = 1'-0"
140
0.03125
141
12.0
290
     0
  0
SCALE
  5
2B7
102
{ACAD_REACTORS
330
2A2
102
}
330
2A2
100
AcDbScale
 70
     0
300
1/16" = 1'-0"
140
0.0625
141
12.0
290
     0
  0
SCALE
  5
2B8
102
{ACAD_REACTORS
330
2A2
102
}
330
2A2
100
AcDbScale
 70
     0
300
3/32" = 1'-0"
140
0.09375
141
12.0
290
     0
  0
SCALE
  5
2B9
102
{ACAD_REACTORS
330
2A2
102
}
330
2A2
100
AcDbScale
 70
     0
300
1/8" = 1'-0"
140
0.125
141
12.0
290
     0
  0
SCALE
  5
2BA
102
{ACAD_REACTORS
330
2A2
102
}
330
2A2
100
AcDbScale
 70
     0
300
3/16" = 1'-0"
140
0.1875
141
12.0
290
     0
  0
SCALE
  5
2BB
102
{ACAD_REACTORS
330
2A2
102
}
330
2A2
100
AcDbScale
 70
     0
300
1/4" = 1'-0"
140
0.25
141
12.0
290
     0
  0
SCALE
  5
2BC
102
{ACAD_REACTORS
330
2A2
102
}
330
2A2
100
AcDbScale
 70
     0
300
3/8" = 1'-0"
140
0.375
141
12.0
290
     0
  0
SCALE
  5
2BD
102
{ACAD_REACTORS
330
2A2
102
}
330
2A2
100
AcDbScale
 70
     0
300
1/2" = 1'-0"
140
0.5
141
12.0
290
     0
  0
SCALE
  5
2BE
102
{ACAD_REACTORS
330
2A2
102
}
330
2A2
100
AcDbScale
 70
     0
300
3/4" = 1'-0"
140
0.75
141
12.0
290
     0
  0
SCALE
  5
2BF
102
{ACAD_REACTORS
330
2A2
102
}
330
2A2
100
AcDbScale
 70
     0
300
1" = 1'-0"
140
1.0
141
12.0
290
     0
  0
SCALE
  5
2C0
102
{ACAD_REACTORS
330
2A2
102
}
330
2A2
100
AcDbScale
 70
     0
300
1-1/2" = 1'-0"
140
1.5
141
12.0
290
     0
  0
SCALE
  5
2C1
102
{ACAD_REACTORS
330
2A2
102
}
330
2A2
100
AcDbScale
 70
     0
300
3" = 1'-0"
140
3.0
141
12.0
290
     0
  0
SCALE
  5
2C2
102
{ACAD_REACTORS
330
2A2
102
}
330
2A2
100
AcDbScale
 70
     0
300
6" = 1'-0"
140
6.0
141
12.0
290
     0
  0
SCALE
  5
2C3
102
{ACAD_REACTORS
330
2A2
102
}
330
2A2
100
AcDbScale
 70
     0
300
1'-0" = 1'-0"
140
12.0
141
12.0
290
     0
  0
TABLESTYLE
  5
11B
102
{ACAD_XDICTIONARY
360
2E4
102
}
102
{ACAD_REACTORS
330
11A
102
}
330
11A
100
AcDbTableStyle
  3
Standard
 70
     0
 71
     0
 40
1.5
 41
1.5
280
     0
281
     0
  7
STANDARD
140
4.5
170
     2
 62
     0
 63
     7
283
     0
274
    -2
284
     1
 64
     0
275
    -2
285
     1
 65
     0
276
    -2
286
     1
 66
     0
277
    -2
287
     1
 67
     0
278
    -2
288
     1
 68
     0
279
    -2
289
     1
 69
     0
  7
STANDARD
140
6.0
170
     5
 62
     0
 63
     7
283
     0
274
    -2
284
     1
 64
     0
275
    -2
285
     1
 65
     0
276
    -2
286
     1
 66
     0
277
    -2
287
     1
 67
     0
278
    -2
288
     1
 68
     0
279
    -2
289
     1
 69
     0
  7
STANDARD
140
4.5
170
     5
 62
     0
 63
     7
283
     0
274
    -2
284
     1
 64
     0
275
    -2
285
     1
 65
     0
276
    -2
286
     1
 66
     0
277
    -2
287
     1
 67
     0
278
    -2
288
     1
 68
     0
279
    -2
289
     1
 69
     0
  0
VISUALSTYLE
  5
274
102
{ACAD_REACTORS
330
26E
102
}
330
26E
100
AcDbVisualStyle
  2
2dWireframe
 70
     4
 71
     0
 72
     2
 73
     0
 90
        0
 40
-0.6
 41
-30.0
 62
     5
 63
     7
 74
     1
 91
        4
 64
     7
 65
   257
 75
     1
175
     1
 42
1.0
 92
        0
 66
   257
 43
1.0
 76
     1
 77
     6
 78
     2
 67
     7
 79
     5
170
     0
171
     0
290
     0
174
     0
 93
        1
 44
0.0
173
     0
291
     0
 45
0.0
1001
ACAD
1000
AcDbSavedByObjectVersion
1070
     0
  0
VISUALSTYLE
  5
276
102
{ACAD_REACTORS
330
26E
102
}
330
26E
100
AcDbVisualStyle
  2
3D Hidden
 70
     6
 71
     1
 72
     2
 73
     2
 90
        0
 40
-0.6
 41
-30.0
 62
     5
 63
     7
 74
     2
 91
        2
 64
     7
 65
   257
 75
     2
175
     1
 42
40.0
 92
        0
 66
   257
 43
1.0
 76
     1
 77
     6
 78
     2
 67
     7
 79
     3
170
     0
171
     0
290
     0
174
     0
 93
        1
 44
0.0
173
     0
291
     0
 45
0.0
1001
ACAD
1000
AcDbSavedByObjectVersion
1070
     0
  0
VISUALSTYLE
  5
275
102
{ACAD_REACTORS
330
26E
102
}
330
26E
100
AcDbVisualStyle
  2
3dWireframe
 70
     5
 71
     0
 72
     2
 73
     0
 90
        0
 40
-0.6
 41
-30.0
 62
     5
 63
     7
 74
     1
 91
        4
 64
     7
 65
   257
 75
     1
175
     1
 42
1.0
 92
        0
 66
   257
 43
1.0
 76
     1
 77
     6
 78
     2
 67
     7
 79
     5
170
     0
171
     0
290
     0
174
     0
 93
        1
 44
0.0
173
     0
291
     0
 45
0.0
1001
ACAD
1000
AcDbSavedByObjectVersion
1070
     0
  0
VISUALSTYLE
  5
273
102
{ACAD_REACTORS
330
26E
102
}
330
26E
100
AcDbVisualStyle
  2
Basic
 70
     7
 71
     1
 72
     0
 73
     1
 90
        0
 40
-0.6
 41
-30.0
 62
     5
 63
     7
 74
     0
 91
        4
 64
     7
 65
   257
 75
     1
175
     1
 42
1.0
 92
        8
 66
     7
 43
1.0
 76
     1
 77
     6
 78
     2
 67
     7
 79
     5
170
     0
171
     0
290
     0
174
     0
 93
        1
 44
0.0
173
     0
291
     1
 45
0.0
1001
ACAD
1000
AcDbSavedByObjectVersion
1070
     0
  0
VISUALSTYLE
  5
27A
102
{ACAD_REACTORS
330
26E
102
}
330
26E
100
AcDbVisualStyle
  2
Brighten
 70
    12
 71
     2
 72
     2
 73
     0
 90
        0
 40
-0.6
 41
-30.0
 62
     5
 63
     7
 74
     1
 91
        4
 64
     7
 65
   257
 75
     1
175
     1
 42
1.0
 92
        8
 66
     7
 43
1.0
 76
     1
 77
     6
 78
     2
 67
     7
 79
     5
170
     0
171
     0
290
     0
174
     0
 93
        1
 44
50.0
173
     0
291
     1
 45
0.0
1001
ACAD
1000
AcDbSavedByObjectVersion
1070
     0
  0
VISUALSTYLE
  5
27E
102
{ACAD_REACTORS
330
26E
102
}
330
26E
100
AcDbVisualStyle
  2
ColorChange
 70
    16
 71
     2
 72
     2
 73
     3
 90
        0
 40
-0.6
 41
-30.0
 62
     5
 63
     8
 74
     1
 91
        4
 64
     7
 65
   257
 75
     1
175
     1
 42
1.0
 92
        8
 66
     8
 43
1.0
 76
     1
 77
     6
 78
     2
 67
     7
 79
     5
170
     0
171
     0
290
     0
174
     0
 93
        1
 44
0.0
173
     0
291
     1
 45
0.0
1001
ACAD
1000
AcDbSavedByObjectVersion
1070
     0
  0
VISUALSTYLE
  5
277
102
{ACAD_REACTORS
330
26E
102
}
330
26E
100
AcDbVisualStyle
  2
Conceptual
 70
     9
 71
     3
 72
     2
 73
     0
 90
        0
 40
-0.6
 41
-30.0
 62
     5
 63
     7
 74
     2
 91
        2
 64
     7
 65
   257
 75
     1
175
     1
 42
40.0
 92
        8
 66
     7
 43
1.0
 76
     1
 77
     6
 78
     2
 67
     7
 79
     3
170
     0
171
     0
290
     0
174
     0
 93
        1
 44
0.0
173
     0
291
     0
 45
0.0
1001
ACAD
1000
AcDbSavedByObjectVersion
1070
     0
  0
VISUALSTYLE
  5
279
102
{ACAD_REACTORS
330
26E
102
}
330
26E
100
AcDbVisualStyle
  2
Dim
 70
    11
 71
     2
 72
     2
 73
     0
 90
        0
 40
-0.6
 41
-30.0
 62
     5
 63
     7
 74
     1
 91
        4
 64
     7
 65
   257
 75
     1
175
     1
 42
1.0
 92
        8
 66
     7
 43
1.0
 76
     1
 77
     6
 78
     2
 67
     7
 79
     5
170
     0
171
     0
290
     0
174
     0
 93
        1
 44
-50.0
173
     0
291
     1
 45
0.0
1001
ACAD
1000
AcDbSavedByObjectVersion
1070
     0
  0
VISUALSTYLE
  5
27D
102
{ACAD_REACTORS
330
26E
102
}
330
26E
100
AcDbVisualStyle
  2
Facepattern
 70
    15
 71
     2
 72
     2
 73
     0
 90
        0
 40
-0.6
 41
-30.0
 62
     5
 63
     7
 74
     1
 91
        4
 64
     7
 65
   257
 75
     1
175
     1
 42
1.0
 92
        8
 66
     7
 43
1.0
 76
     1
 77
     6
 78
     2
 67
     7
 79
     5
170
     0
171
     0
290
     0
174
     0
 93
        1
 44
0.0
173
     0
291
     1
 45
0.0
1001
ACAD
1000
AcDbSavedByObjectVersion
1070
     0
  0
VISUALSTYLE
  5
26F
102
{ACAD_REACTORS
330
26E
102
}
330
26E
100
AcDbVisualStyle
  2
Flat
 70
     0
 71
     2
 72
     1
 73
     1
 90
        2
 40
-0.6
 41
30.0
 62
     5
 63
     7
 74
     0
 91
        4
 64
     7
 65
   257
 75
     1
175
     1
 42
1.0
 92
        8
 66
     7
 43
1.0
 76
     1
 77
     6
 78
     2
 67
     7
 79
     5
170
     0
171
     0
290
     0
174
     0
 93
       13
 44
0.0
173
     0
291
     1
 45
0.0
1001
ACAD
1000
AcDbSavedByObjectVersion
1070
     0
  0
VISUALSTYLE
  5
270
102
{ACAD_REACTORS
330
26E
102
}
330
26E
100
AcDbVisualStyle
  2
FlatWithEdges
 70
     1
 71
     2
 72
     1
 73
     1
 90
        2
 40
-0.6
 41
30.0
 62
     5
 63
     7
 74
     1
 91
        4
 64
     7
 65
   257
 75
     1
175
     1
 42
1.0
 92
        0
 66
   257
 43
1.0
 76
     1
 77
     6
 78
     2
 67
     7
 79
     5
170
     0
171
     0
290
     0
174
     0
 93
       13
 44
0.0
173
     0
291
     1
 45
0.0
1001
ACAD
1000
AcDbSavedByObjectVersion
1070
     0
  0
VISUALSTYLE
  5
271
102
{ACAD_REACTORS
330
26E
102
}
330
26E
100
AcDbVisualStyle
  2
Gouraud
 70
     2
 71
     2
 72
     2
 73
     1
 90
        2
 40
-0.6
 41
30.0
 62
     5
 63
     7
 74
     0
 91
        4
 64
     7
 65
   257
 75
     1
175
     1
 42
1.0
 92
        0
 66
     7
 43
1.0
 76
     1
 77
     6
 78
     2
 67
     7
 79
     5
170
     0
171
     0
290
     0
174
     0
 93
       13
 44
0.0
173
     0
291
     1
 45
0.0
1001
ACAD
1000
AcDbSavedByObjectVersion
1070
     0
  0
VISUALSTYLE
  5
272
102
{ACAD_REACTORS
330
26E
102
}
330
26E
100
AcDbVisualStyle
  2
GouraudWithEdges
 70
     3
 71
     2
 72
     2
 73
     1
 90
        2
 40
-0.6
 41
30.0
 62
     5
 63
     7
 74
     1
 91
        4
 64
     7
 65
   257
 75
     1
175
     1
 42
1.0
 92
        0
 66
   257
 43
1.0
 76
     1
 77
     6
 78
     2
 67
     7
 79
     5
170
     0
171
     0
290
     0
174
     0
 93
       13
 44
0.0
173
     0
291
     1
 45
0.0
1001
ACAD
1000
AcDbSavedByObjectVersion
1070
     0
  0
VISUALSTYLE
  5
27C
102
{ACAD_REACTORS
330
26E
102
}
330
26E
100
AcDbVisualStyle
  2
Linepattern
 70
    14
 71
     2
 72
     2
 73
     0
 90
        0
 40
-0.6
 41
-30.0
 62
     5
 63
     7
 74
     1
 91
        4
 64
     7
 65
   257
 75
     7
175
     7
 42
1.0
 92
        8
 66
     7
 43
1.0
 76
     1
 77
     6
 78
     2
 67
     7
 79
     5
170
     0
171
     0
290
     0
174
     0
 93
        1
 44
0.0
173
     0
291
     1
 45
0.0
1001
ACAD
1000
AcDbSavedByObjectVersion
1070
     0
  0
VISUALSTYLE
  5
278
102
{ACAD_REACTORS
330
26E
102
}
330
26E
100
AcDbVisualStyle
  2
Realistic
 70
     8
 71
     2
 72
     2
 73
     0
 90
        0
 40
-0.6
 41
-30.0
 62
     5
 63
     7
 74
     1
 91
        0
 64
     7
 65
   257
 75
     1
175
     1
 42
1.0
 92
        8
 66
     8
 43
1.0
 76
     1
 77
     6
 78
     2
 67
     7
 79
     5
170
     0
171
     0
290
     0
174
     0
 93
       13
 44
0.0
173
     0
291
     0
 45
0.0
1001
ACAD
1000
AcDbSavedByObjectVersion
1070
     0
  0
VISUALSTYLE
  5
27B
102
{ACAD_REACTORS
330
26E
102
}
330
26E
100
AcDbVisualStyle
  2
Thicken
 70
    13
 71
     2
 72
     2
 73
     0
 90
        0
 40
-0.6
 41
-30.0
 62
     5
 63
     7
 74
     1
 91
        4
 64
     7
 65
   257
 75
     1
175
     1
 42
1.0
 92
       12
 66
     7
 43
1.0
 76
     1
 77
     6
 78
     2
 67
     7
 79
     5
170
     0
171
     0
290
     0
174
     0
 93
        1
 44
0.0
173
     0
291
     1
 45
0.0
1001
ACAD
1000
AcDbSavedByObjectVersion
1070
     0
  0
DICTIONARYVAR
  5
2E9
102
{ACAD_REACTORS
330
94
102
}
330
94
100
DictionaryVariables
280
     0
  1
1:1
  0
DICTIONARYVAR
  5
2E7
102
{ACAD_REACTORS
330
94
102
}
330
94
100
DictionaryVariables
280
     0
  1
STANDARD
  0
DICTIONARYVAR
  5
138
102
{ACAD_REACTORS
330
94
102
}
330
94
100
DictionaryVariables
280
     0
  1
STANDARD
  0
DICTIONARYVAR
  5
96
102
{ACAD_REACTORS
330
94
102
}
330
94
100
DictionaryVariables
280
     0
  1
2
  0
DICTIONARYVAR
  5
95
102
{ACAD_REACTORS
330
94
102
}
330
94
100
DictionaryVariables
280
     0
  1
0
  0
DICTIONARYVAR
  5
346
102
{ACAD_REACTORS
330
94
102
}
330
94
100
DictionaryVariables
280
     0
  1
1
  0
DICTIONARYVAR
  5
347
102
{ACAD_REACTORS
330
94
102
}
330
94
100
DictionaryVariables
280
     0
  1
15
  0
DICTIONARYVAR
  5
2EA
102
{ACAD_REACTORS
330
94
102
}
330
94
100
DictionaryVariables
280
     0
  1
0
  0
DICTIONARYVAR
  5
2E8
102
{ACAD_REACTORS
330
94
102
}
330
94
100
DictionaryVariables
280
     0
  1
0
  0
DICTIONARYVAR
  5
714
102
{ACAD_REACTORS
330
94
102
}
330
94
100
DictionaryVariables
280
     0
  1
127
  0
DICTIONARY
  5
36B
102
{ACAD_REACTORS
330
5B
102
}
330
5B
100
AcDbDictionary
281
     1
  0
DICTIONARY
  5
61
102
{ACAD_REACTORS
330
5B
102
}
330
5B
100
AcDbDictionary
281
     1
  0
XRECORD
  5
123
102
{ACAD_REACTORS
330
5B
102
}
330
5B
100
AcDbXrecord
280
     1
 90
-1023410169
  0
DICTIONARY
  5
71C
330
1E
100
AcDbDictionary
280
     1
281
     1
  3
ACAD_XREC_ROUNDTRIP
360
71D
  0
DICTIONARY
  5
720
330
26
100
AcDbDictionary
280
     1
281
     1
  3
ACAD_XREC_ROUNDTRIP
360
721
  0
DICTIONARY
  5
71E
330
22
100
AcDbDictionary
280
     1
281
     1
  3
ACAD_XREC_ROUNDTRIP
360
71F
  0
DICTIONARY
  5
72A
330
26C
100
AcDbDictionary
280
     1
281
     1
  3
ACAD_XREC_ROUNDTRIP
360
72B
  0
DICTIONARY
  5
728
330
26B
100
AcDbDictionary
280
     1
281
     1
  3
ACAD_XREC_ROUNDTRIP
360
729
  0
DICTIONARY
  5
72C
330
26D
100
AcDbDictionary
280
     1
281
     1
  3
ACAD_XREC_ROUNDTRIP
360
72D
  0
DICTIONARY
  5
2E4
330
11B
100
AcDbDictionary
280
     1
281
     1
  3
ACAD_ROUNDTRIP_2008_TABLESTYLE_CELLSTYLEMAP
360
715
  3
ACAD_XREC_ROUNDTRIP
360
727
  0
XRECORD
  5
71D
102
{ACAD_REACTORS
330
71C
102
}
330
71C
100
AcDbXrecord
280
     1
102
SHADEPLOT
 70
     0
102
SHADEPLOTRESLEVEL
 70
     2
102
SHADEPLOTCUSTOMDPI
 70
   300
  0
XRECORD
  5
721
102
{ACAD_REACTORS
330
720
102
}
330
720
100
AcDbXrecord
280
     1
102
SHADEPLOT
 70
     0
102
SHADEPLOTRESLEVEL
 70
     2
102
SHADEPLOTCUSTOMDPI
 70
   300
  0
XRECORD
  5
71F
102
{ACAD_REACTORS
330
71E
102
}
330
71E
100
AcDbXrecord
280
     1
102
SHADEPLOT
 70
     0
102
SHADEPLOTRESLEVEL
 70
     2
102
SHADEPLOTCUSTOMDPI
 70
   300
  0
XRECORD
  5
72B
102
{ACAD_REACTORS
330
72A
102
}
330
72A
100
AcDbXrecord
280
     1
102
MATERIAL
148
0.0
149
0.0
149
0.0
 93
        0
 94
       63
282
     0
 72
     1
 77
     1
171
     1
175
     1
179
     1
273
     0
  0
XRECORD
  5
729
102
{ACAD_REACTORS
330
728
102
}
330
728
100
AcDbXrecord
280
     1
102
MATERIAL
148
0.0
149
0.0
149
0.0
 93
        0
 94
       63
282
     0
 72
     1
 77
     1
171
     1
175
     1
179
     1
273
     0
  0
XRECORD
  5
72D
102
{ACAD_REACTORS
330
72C
102
}
330
72C
100
AcDbXrecord
280
     1
102
MATERIAL
148
0.0
149
0.0
149
0.0
 93
        0
 94
       63
282
     0
 72
     1
 77
     1
171
     1
175
     1
179
     1
273
     0
  0
CELLSTYLEMAP
  5
715
102
{ACAD_REACTORS
330
2E4
102
}
330
2E4
100
AcDbCellStyleMap
 90
        3
300
CELLSTYLE
  1
TABLEFORMAT_BEGIN
 90
        5
170
     1
 91
        0
 92
    32768
 62
   257
 93
        1
300
CONTENTFORMAT
  1
CONTENTFORMAT_BEGIN
 90
        0
 91
        0
 92
      512
 93
        0
300

 40
0.0
140
1.0
 94
        5
 62
     0
340
11
144
6.0
309
CONTENTFORMAT_END
171
     1
301
MARGIN
  1
CELLMARGIN_BEGIN
 40
1.5
 40
1.5
 40
1.5
 40
1.5
 40
0.18
 40
0.18
309
CELLMARGIN_END
 94
        6
 95
        1
302
GRIDFORMAT
  1
GRIDFORMAT_BEGIN
 90
        0
 91
        1
 62
     0
 92
       -2
340
0
 93
        0
 40
0.045
309
GRIDFORMAT_END
 95
        2
302
GRIDFORMAT
  1
GRIDFORMAT_BEGIN
 90
        0
 91
        1
 62
     0
 92
       -2
340
0
 93
        0
 40
0.045
309
GRIDFORMAT_END
 95
        4
302
GRIDFORMAT
  1
GRIDFORMAT_BEGIN
 90
        0
 91
        1
 62
     0
 92
       -2
340
0
 93
        0
 40
0.045
309
GRIDFORMAT_END
 95
        8
302
GRIDFORMAT
  1
GRIDFORMAT_BEGIN
 90
        0
 91
        1
 62
     0
 92
       -2
340
0
 93
        0
 40
0.045
309
GRIDFORMAT_END
 95
       16
302
GRIDFORMAT
  1
GRIDFORMAT_BEGIN
 90
        0
 91
        1
 62
     0
 92
       -2
340
0
 93
        0
 40
0.045
309
GRIDFORMAT_END
 95
       32
302
GRIDFORMAT
  1
GRIDFORMAT_BEGIN
 90
        0
 91
        1
 62
     0
 92
       -2
340
0
 93
        0
 40
0.045
309
GRIDFORMAT_END
309
TABLEFORMAT_END
  1
CELLSTYLE_BEGIN
 90
        1
 91
        1
300
_TITLE
309
CELLSTYLE_END
300
CELLSTYLE
  1
TABLEFORMAT_BEGIN
 90
        5
170
     1
 91
        0
 92
        0
 62
   257
 93
        1
300
CONTENTFORMAT
  1
CONTENTFORMAT_BEGIN
 90
        0
 91
        0
 92
      512
 93
        0
300

 40
0.0
140
1.0
 94
        5
 62
     0
340
11
144
4.5
309
CONTENTFORMAT_END
171
     1
301
MARGIN
  1
CELLMARGIN_BEGIN
 40
1.5
 40
1.5
 40
1.5
 40
1.5
 40
0.18
 40
0.18
309
CELLMARGIN_END
 94
        6
 95
        1
302
GRIDFORMAT
  1
GRIDFORMAT_BEGIN
 90
        0
 91
        1
 62
     0
 92
       -2
340
0
 93
        0
 40
0.045
309
GRIDFORMAT_END
 95
        2
302
GRIDFORMAT
  1
GRIDFORMAT_BEGIN
 90
        0
 91
        1
 62
     0
 92
       -2
340
0
 93
        0
 40
0.045
309
GRIDFORMAT_END
 95
        4
302
GRIDFORMAT
  1
GRIDFORMAT_BEGIN
 90
        0
 91
        1
 62
     0
 92
       -2
340
0
 93
        0
 40
0.045
309
GRIDFORMAT_END
 95
        8
302
GRIDFORMAT
  1
GRIDFORMAT_BEGIN
 90
        0
 91
        1
 62
     0
 92
       -2
340
0
 93
        0
 40
0.045
309
GRIDFORMAT_END
 95
       16
302
GRIDFORMAT
  1
GRIDFORMAT_BEGIN
 90
        0
 91
        1
 62
     0
 92
       -2
340
0
 93
        0
 40
0.045
309
GRIDFORMAT_END
 95
       32
302
GRIDFORMAT
  1
GRIDFORMAT_BEGIN
 90
        0
 91
        1
 62
     0
 92
       -2
340
0
 93
        0
 40
0.045
309
GRIDFORMAT_END
309
TABLEFORMAT_END
  1
CELLSTYLE_BEGIN
 90
        2
 91
        1
300
_HEADER
309
CELLSTYLE_END
300
CELLSTYLE
  1
TABLEFORMAT_BEGIN
 90
        5
170
     1
 91
        0
 92
        0
 62
   257
 93
        1
300
CONTENTFORMAT
  1
CONTENTFORMAT_BEGIN
 90
        0
 91
        0
 92
      512
 93
        0
300

 40
0.0
140
1.0
 94
        2
 62
     0
340
11
144
4.5
309
CONTENTFORMAT_END
171
     1
301
MARGIN
  1
CELLMARGIN_BEGIN
 40
1.5
 40
1.5
 40
1.5
 40
1.5
 40
0.18
 40
0.18
309
CELLMARGIN_END
 94
        6
 95
        1
302
GRIDFORMAT
  1
GRIDFORMAT_BEGIN
 90
        0
 91
        1
 62
     0
 92
       -2
340
0
 93
        0
 40
0.045
309
GRIDFORMAT_END
 95
        2
302
GRIDFORMAT
  1
GRIDFORMAT_BEGIN
 90
        0
 91
        1
 62
     0
 92
       -2
340
0
 93
        0
 40
0.045
309
GRIDFORMAT_END
 95
        4
302
GRIDFORMAT
  1
GRIDFORMAT_BEGIN
 90
        0
 91
        1
 62
     0
 92
       -2
340
0
 93
        0
 40
0.045
309
GRIDFORMAT_END
 95
        8
302
GRIDFORMAT
  1
GRIDFORMAT_BEGIN
 90
        0
 91
        1
 62
     0
 92
       -2
340
0
 93
        0
 40
0.045
309
GRIDFORMAT_END
 95
       16
302
GRIDFORMAT
  1
GRIDFORMAT_BEGIN
 90
        0
 91
        1
 62
     0
 92
       -2
340
0
 93
        0
 40
0.045
309
GRIDFORMAT_END
 95
       32
302
GRIDFORMAT
  1
GRIDFORMAT_BEGIN
 90
        0
 91
        1
 62
     0
 92
       -2
340
0
 93
        0
 40
0.045
309
GRIDFORMAT_END
309
TABLEFORMAT_END
  1
CELLSTYLE_BEGIN
 90
        3
 91
        2
300
_DATA
309
CELLSTYLE_END
  0
XRECORD
  5
727
102
{ACAD_REACTORS
330
2E4
102
}
330
2E4
100
AcDbXrecord
280
     1
102
ACAD_ROUNDTRIP_PRE2007_TABLESTYLE
 90
      512
 91
        0
  1

 92
      512
 93
        0
  2

 94
      512
 95
        0
  3

  0
ENDSEC
  0
EOF
