  0
SECTION
  2
HEADER
  9
$ACADVER
  1
AC1015
  9
$ACADMAINTVER
 70
    20
  9
$DWGCODEPAGE
  3
ANSI_1252
  9
$INSBASE
 10
0.0
 20
0.0
 30
0.0
  9
$EXTMIN
 10
-0.1612951896659069
 20
-0.079258561282586
 30
-0.0000000349181948
  9
$EXTMAX
 10
1151.750755579454
 20
475.8827592531133
 30
0.0000000814935746
  9
$LIMMIN
 10
0.0
 20
0.0
  9
$LIMMAX
 10
420.0
 20
297.0
  9
$ORTHOMODE
 70
     0
  9
$REGENMODE
 70
     1
  9
$FILLMODE
 70
     1
  9
$QTEXTMODE
 70
     0
  9
$MIRRTEXT
 70
     1
  9
$LTSCALE
 40
1.0
  9
$ATTMODE
 70
     1
  9
$TEXTSIZE
 40
2.5
  9
$TRACEWID
 40
1.0
  9
$TEXTSTYLE
  7
STANDARD
  9
$CLAYER
  8
0
  9
$CELTYPE
  6
ByLayer
  9
$CECOLOR
 62
   256
  9
$CELTSCALE
 40
1.0
  9
$DISPSILH
 70
     0
  9
$DIMSCALE
 40
1.0
  9
$DIMASZ
 40
3.5
  9
$DIMEXO
 40
1.0
  9
$DIMDLI
 40
10.0
  9
$DIMRND
 40
0.0
  9
$DIMDLE
 40
0.0
  9
$DIMEXE
 40
1.0
  9
$DIMTP
 40
0.1
  9
$DIMTM
 40
0.1
  9
$DIMTXT
 40
3.5
  9
$DIMCEN
 40
0.0
  9
$DIMTSZ
 40
0.0
  9
$DIMTOL
 70
     0
  9
$DIMLIM
 70
     0
  9
$DIMTIH
 70
     0
  9
$DIMTOH
 70
     0
  9
$DIMSE1
 70
     0
  9
$DIMSE2
 70
     0
  9
$DIMTAD
 70
     1
  9
$DIMZIN
 70
     8
  9
$DIMBLK
  1

  9
$DIMASO
 70
     1
  9
$DIMSHO
 70
     1
  9
$DIMPOST
  1

  9
$DIMAPOST
  1
"
  9
$DIMALT
 70
     0
  9
$DIMALTD
 70
     2
  9
$DIMALTF
 40
0.0393701
  9
$DIMLFAC
 40
1.0
  9
$DIMTOFL
 70
     1
  9
$DIMTVP
 40
0.0
  9
$DIMTIX
 70
     0
  9
$DIMSOXD
 70
     0
  9
$DIMSAH
 70
     0
  9
$DIMBLK1
  1

  9
$DIMBLK2
  1

  9
$DIMSTYLE
  2
AM_ISO
  9
$DIMCLRD
 70
   256
  9
$DIMCLRE
 70
   256
  9
$DIMCLRT
 70
   140
  9
$DIMTFAC
 40
0.71
  9
$DIMGAP
 40
1.5
  9
$DIMJUST
 70
     0
  9
$DIMSD1
 70
     0
  9
$DIMSD2
 70
     0
  9
$DIMTOLJ
 70
     0
  9
$DIMTZIN
 70
     8
  9
$DIMALTZ
 70
     0
  9
$DIMALTTZ
 70
     0
  9
$DIMUPT
 70
     0
  9
$DIMDEC
 70
     2
  9
$DIMTDEC
 70
     3
  9
$DIMALTU
 70
     2
  9
$DIMALTTD
 70
     4
  9
$DIMTXSTY
  7
STANDARD
  9
$DIMAUNIT
 70
     0
  9
$DIMADEC
 70
     0
  9
$DIMALTRND
 40
0.0
  9
$DIMAZIN
 70
     2
  9
$DIMDSEP
 70
    46
  9
$DIMATFIT
 70
     3
  9
$DIMFRAC
 70
     0
  9
$DIMLDRBLK
  1

  9
$DIMLUNIT
 70
     2
  9
$DIMLWD
 70
    -1
  9
$DIMLWE
 70
    -1
  9
$DIMTMOVE
 70
     0
  9
$LUNITS
 70
     2
  9
$LUPREC
 70
     2
  9
$SKETCHINC
 40
1.0
  9
$FILLETRAD
 40
2.5
  9
$AUNITS
 70
     0
  9
$AUPREC
 70
     0
  9
$MENU
  1
.
  9
$ELEVATION
 40
0.0
  9
$PELEVATION
 40
0.0
  9
$THICKNESS
 40
0.0
  9
$LIMCHECK
 70
     0
  9
$CHAMFERA
 40
2.5
  9
$CHAMFERB
 40
2.5
  9
$CHAMFERC
 40
20.0
  9
$CHAMFERD
 40
0.0
  9
$SKPOLY
 70
     0
  9
$TDCREATE
 40
2455098.397697245
  9
$TDUCREATE
 40
2455098.314363912
  9
$TDUPDATE
 40
2455098.406602338
  9
$TDUUPDATE
 40
2455098.323269005
  9
$TDINDWG
 40
0.0089067130
  9
$TDUSRTIMER
 40
0.0089067130
  9
$USRTIMER
 70
     1
  9
$ANGBASE
 50
0.0
  9
$ANGDIR
 70
     0
  9
$PDMODE
 70
     0
  9
$PDSIZE
 40
0.0
  9
$PLINEWID
 40
0.0
  9
$SPLFRAME
 70
     0
  9
$SPLINETYPE
 70
     6
  9
$SPLINESEGS
 70
     8
  9
$HANDSEED
  5
A34
  9
$SURFTAB1
 70
     6
  9
$SURFTAB2
 70
     6
  9
$SURFTYPE
 70
     6
  9
$SURFU
 70
     6
  9
$SURFV
 70
     6
  9
$UCSBASE
  2

  9
$UCSNAME
  2

  9
$UCSORG
 10
0.0
 20
0.0
 30
0.0
  9
$UCSXDIR
 10
1.0
 20
0.0
 30
0.0
  9
$UCSYDIR
 10
0.0
 20
1.0
 30
0.0
  9
$UCSORTHOREF
  2

  9
$UCSORTHOVIEW
 70
     0
  9
$UCSORGTOP
 10
0.0
 20
0.0
 30
0.0
  9
$UCSORGBOTTOM
 10
0.0
 20
0.0
 30
0.0
  9
$UCSORGLEFT
 10
0.0
 20
0.0
 30
0.0
  9
$UCSORGRIGHT
 10
0.0
 20
0.0
 30
0.0
  9
$UCSORGFRONT
 10
0.0
 20
0.0
 30
0.0
  9
$UCSORGBACK
 10
0.0
 20
0.0
 30
0.0
  9
$PUCSBASE
  2

  9
$PUCSNAME
  2

  9
$PUCSORG
 10
0.0
 20
0.0
 30
0.0
  9
$PUCSXDIR
 10
1.0
 20
0.0
 30
0.0
  9
$PUCSYDIR
 10
0.0
 20
1.0
 30
0.0
  9
$PUCSORTHOREF
  2

  9
$PUCSORTHOVIEW
 70
     0
  9
$PUCSORGTOP
 10
0.0
 20
0.0
 30
0.0
  9
$PUCSORGBOTTOM
 10
0.0
 20
0.0
 30
0.0
  9
$PUCSORGLEFT
 10
0.0
 20
0.0
 30
0.0
  9
$PUCSORGRIGHT
 10
0.0
 20
0.0
 30
0.0
  9
$PUCSORGFRONT
 10
0.0
 20
0.0
 30
0.0
  9
$PUCSORGBACK
 10
0.0
 20
0.0
 30
0.0
  9
$USERI1
 70
     0
  9
$USERI2
 70
     0
  9
$USERI3
 70
     0
  9
$USERI4
 70
     0
  9
$USERI5
 70
     0
  9
$USERR1
 40
0.0
  9
$USERR2
 40
0.0
  9
$USERR3
 40
0.0
  9
$USERR4
 40
0.0
  9
$USERR5
 40
0.0
  9
$WORLDVIEW
 70
     1
  9
$SHADEDGE
 70
     3
  9
$SHADEDIF
 70
    70
  9
$TILEMODE
 70
     1
  9
$MAXACTVP
 70
    64
  9
$PINSBASE
 10
0.0
 20
0.0
 30
0.0
  9
$PLIMCHECK
 70
     0
  9
$PEXTMIN
 10
1.000000000000000E+20
 20
1.000000000000000E+20
 30
1.000000000000000E+20
  9
$PEXTMAX
 10
-1.000000000000000E+20
 20
-1.000000000000000E+20
 30
-1.000000000000000E+20
  9
$PLIMMIN
 10
0.0
 20
0.0
  9
$PLIMMAX
 10
420.0
 20
297.0
  9
$UNITMODE
 70
     0
  9
$VISRETAIN
 70
     1
  9
$PLINEGEN
 70
     0
  9
$PSLTSCALE
 70
     1
  9
$TREEDEPTH
 70
  3020
  9
$CMLSTYLE
  2
Standard
  9
$CMLJUST
 70
     0
  9
$CMLSCALE
 40
20.0
  9
$PROXYGRAPHICS
 70
     1
  9
$MEASUREMENT
 70
     1
  9
$CELWEIGHT
370
    -1
  9
$ENDCAPS
280
     0
  9
$JOINSTYLE
280
     0
  9
$LWDISPLAY
290
     0
  9
$INSUNITS
 70
     4
  9
$HYPERLINKBASE
  1

  9
$STYLESHEET
  1

  9
$XEDIT
290
     1
  9
$CEPSNTYPE
380
     0
  9
$PSTYLEMODE
290
     1
  9
$FINGERPRINTGUID
  2
{4A0A4DB9-DE85-44E4-95AC-14C05177427D}
  9
$VERSIONGUID
  2
{13ABD666-5C68-4438-92FB-4B349B180C84}
  9
$EXTNAMES
290
     1
  9
$PSVPSCALE
 40
0.0
  9
$OLESTARTUP
290
     0
  0
ENDSEC
  0
SECTION
  2
CLASSES
  0
CLASS
  1
ACDBDICTIONARYWDFLT
  2
AcDbDictionaryWithDefault
  3
ObjectDBX Classes
 90
        0
280
     0
281
     0
  0
CLASS
  1
ACDBPLACEHOLDER
  2
AcDbPlaceHolder
  3
ObjectDBX Classes
 90
        0
280
     0
281
     0
  0
CLASS
  1
LAYOUT
  2
AcDbLayout
  3
ObjectDBX Classes
 90
        0
280
     0
281
     0
  0
CLASS
  1
ACME_DOCUMENT
  2
AcMeDbDoc
  3
AcMeServices
 90
     1024
280
     0
281
     0
  0
CLASS
  1
AMGSETTINGSOBJ
  2
AmgSettingsObj
  3
"AcadM|Product Description: AutoCAD Mechanical|Company: Autodesk, Inc."
 90
     1024
280
     0
281
     0
  0
CLASS
  1
ACMESCOPE
  2
AcMeScope
  3
AcMeServices
 90
     1024
280
     0
281
     0
  0
CLASS
  1
ACMECOMMANDHISTORY
  2
AcMeCommandHistory
  3
AcMeServices
 90
     1024
280
     0
281
     0
  0
CLASS
  1
ACIMSYSVARMAN
  2
AcImSysVarManager
  3
AcMeServices
 90
     1024
280
     0
281
     0
  0
CLASS
  1
ACIMREALSYSVAR
  2
AcImRealSysVar
  3
AcMeServices
 90
     1024
280
     0
281
     0
  0
CLASS
  1
ACIMINTSYSVAR
  2
AcImIntSysVar
  3
AcMeServices
 90
     1024
280
     0
281
     0
  0
CLASS
  1
ACMEDRAWINGMAN
  2
AcMeDrawingMan
  3
AcMeServices
 90
     1024
280
     0
281
     0
  0
CLASS
  1
ACMEVIEW
  2
AcMeView
  3
AcMeServices
 90
     1024
280
     0
281
     0
  0
CLASS
  1
ACDBENTITYCACHE
  2
AcMeEntityCache
  3
AcMeServices
 90
     1024
280
     0
281
     0
  0
CLASS
  1
GSMANAGER
  2
AcMeGSManager
  3
AcMeServices
 90
     1024
280
     0
281
     0
  0
CLASS
  1
AMDTINTERNALREACTOR
  2
AmdtInternalReactor
  3
AcMeServices
 90
     1024
280
     0
281
     0
  0
CLASS
  1
ACMESTATEMGR
  2
AcMeStateMgr
  3
AcMeServices
 90
     1024
280
     0
281
     0
  0
CLASS
  1
ACGREFMASTER
  2
AcGrefMaster
  3
AcAttribServices
 90
     1024
280
     0
281
     0
  0
CLASS
  1
ACME_DATABASE
  2
AcMeDbDatabase
  3
AcMeServices
 90
     1024
280
     0
281
     0
  0
CLASS
  1
ACRFINSADJUSTERMGR
  2
AcRfInsAdjusterMgr
  3
AcMeServices
 90
     1024
280
     0
281
     0
  0
CLASS
  1
ACGREFACADMASTER
  2
AcGrefacadMaster
  3
AcGrefServices
 90
     1024
280
     0
281
     0
  0
CLASS
  1
AMIMASTER
  2
AmiMaster
  3
AmiServices
 90
     1024
280
     0
281
     0
  0
CLASS
  1
ACMDATADICTIONARY
  2
AcmDataDictionary
  3
"AcmSymBB|Product Description: AutoCAD Mechanical|Company: Autodesk, Inc."
 90
     1024
280
     0
281
     0
  0
CLASS
  1
ACMDATAENTRYBLOCK
  2
AcmDataEntryBlock
  3
AcmSymBB|Product Description: AutoCAD Mechanical|Company: Autodesk, Inc.
 90
     1024
280
     0
281
     0
  0
CLASS
  1
ACIMSTRSYSVAR
  2
AcImStrSysVar
  3
AcMeServices
 90
     1024
280
     0
281
     0
  0
CLASS
  1
ACMSTANDARDISO
  2
AcmStandardISO
  3
"Amdt_StdImp|Product Description: AutoCAD Mechanical|Company: Autodesk, Inc."
 90
     1024
280
     0
281
     0
  0
CLASS
  1
AMGOBJPROPCFG
  2
AmgObjPropCfg
  3
"AmgLay|Product Description: AutoCAD Mechanical|Company: Autodesk, Inc."
 90
     1025
280
     0
281
     0
  0
CLASS
  1
AMDTEDGESTANDARDISO
  2
AmdtEdgeStdISO
  3
"Amdt_StdImp|Product Description: AutoCAD Mechanical|Company: Autodesk, Inc."
 90
    33792
280
     0
281
     0
  0
CLASS
  1
ACMSURFSTANDARDISO
  2
AcmSurfTextStdISO
  3
"Amdt_StdImp|Product Description: AutoCAD Mechanical|Company: Autodesk, Inc."
 90
    33792
280
     0
281
     0
  0
CLASS
  1
ACMFCFSTANDARDISO
  2
AcmFCFStdISO
  3
"Amdt_StdImp|Product Description: AutoCAD Mechanical|Company: Autodesk, Inc."
 90
     1024
280
     0
281
     0
  0
CLASS
  1
ACMWELDSTANDARDISO
  2
AcmWeldingStdISO
  3
"Amdt_StdImp|Product Description: AutoCAD Mechanical|Company: Autodesk, Inc."
 90
     1024
280
     0
281
     0
  0
CLASS
  1
ACMIDSTANDARDISO
  2
AcmIdStdISO
  3
"Amdt_StdImp|Product Description: AutoCAD Mechanical|Company: Autodesk, Inc."
 90
     1024
280
     0
281
     0
  0
CLASS
  1
ACMDATUMSTANDARDISO
  2
AcmDatumStdISO
  3
"Amdt_StdImp|Product Description: AutoCAD Mechanical|Company: Autodesk, Inc."
 90
     1024
280
     0
281
     0
  0
CLASS
  1
ACMBOMSTANDARDISO
  2
AcmBOMStdISO
  3
"Amdt_StdImp|Product Description: AutoCAD Mechanical|Company: Autodesk, Inc."
 90
     1024
280
     0
281
     0
  0
CLASS
  1
ACMDETAILSTANDARDISO
  2
AmdtDetailSymStdISO
  3
"Amdt_StdImp|Product Description: AutoCAD Mechanical|Company: Autodesk, Inc."
 90
     1024
280
     0
281
     0
  0
CLASS
  1
ACMSECTIONSTANDARDISO
  2
AmdtSectionSymStdISO
  3
"Amdt_StdImp|Product Description: AutoCAD Mechanical|Company: Autodesk, Inc."
 90
    33792
280
     0
281
     0
  0
CLASS
  1
ACMCENTERLINESTANDARDISO
  2
AmdtCenterLineStdISO
  3
"Amdt_StdImp|Product Description: AutoCAD Mechanical|Company: Autodesk, Inc."
 90
     1024
280
     0
281
     0
  0
CLASS
  1
ACMNOTESTANDARDISO
  2
AmdtNoteStdISO
  3
"Amdt_StdImp|Product Description: AutoCAD Mechanical|Company: Autodesk, Inc."
 90
     1024
280
     0
281
     0
  0
CLASS
  1
ACAMGLAYSTD
  2
AcAmgLayStd
  3
"AmgLay|Product Description: AutoCAD Mechanical|Company: Autodesk, Inc."
 90
     1024
280
     0
281
     0
  0
CLASS
  1
ACAMGDIMSTD
  2
AcAmgDimStd
  3
"AmgDim|Product Description: AutoCAD Mechanical|Company: Autodesk, Inc."
 90
     1024
280
     0
281
     0
  0
CLASS
  1
ACAMGHOLECHARTSTDISO
  2
AcAmgHoleChartStdISO
  3
AmgDim|Product Description: AutoCAD Mechanical|Company: Autodesk, Inc.
 90
     1024
280
     0
281
     0
  0
CLASS
  1
ACAMGTITLESTD
  2
AcAmgTitleStd
  3
"AmgTitle|Product Description: AutoCAD Mechanical|Company: Autodesk, Inc."
 90
     4095
280
     0
281
     0
  0
CLASS
  1
LAYER_INDEX
  2
AcDbLayerIndex
  3
ObjectDBX Classes
 90
    32768
280
     0
281
     0
  0
CLASS
  1
IDBUFFER
  2
AcDbIdBuffer
  3
ObjectDBX Classes
 90
    32768
280
     0
281
     0
  0
CLASS
  1
DICTIONARYVAR
  2
AcDbDictionaryVar
  3
ObjectDBX Classes
 90
        0
280
     0
281
     0
  0
CLASS
  1
AM_DRAWING_MGR
  2
AcDmDwgMgr
  3
AcMechDwgViewMgmt
 90
     1024
280
     0
281
     0
  0
CLASS
  1
AM_DWG_DOCUMENT
  2
AcDmDwgDocument
  3
AcMechDwgViewMgmt
 90
     1024
280
     0
281
     0
  0
CLASS
  1
AM_DWG_SHEET
  2
AcDmSheet
  3
AcMechDwgViewMgmt
 90
     1024
280
     0
281
     0
  0
CLASS
  1
AM_VIEWDIMPARMAP
  2
AcDmViewDimParMap
  3
AcMechDwgViewMgmt
 90
     1024
280
     0
281
     0
  0
CLASS
  1
AM_DWGMGR_NAME
  2
AcDmDwgMgrName
  3
AcMechDwgViewMgmt
 90
     1024
280
     0
281
     0
  0
CLASS
  1
AMDTMENUSTATEMGR
  2
AmdtMenuStateMgr
  3
McadcomServices
 90
     1024
280
     0
281
     0
  0
CLASS
  1
AMDTMCOMMENUSTATE
  2
AmdtMcomMenuState
  3
McadcomServices
 90
     1024
280
     0
281
     0
  0
CLASS
  1
MAPIAMMOUDLE
  2
MApiAmModule
  3
MApiAmServices
 90
     1024
280
     0
281
     0
  0
CLASS
  1
AMDTADMENUSTATE
  2
AmdtAdMenuState
  3
DesignerServices
 90
     1024
280
     0
281
     0
  0
CLASS
  1
ADAPPL
  2
AcAdAppl
  3
DesignerServices
 90
     1024
280
     0
281
     0
  0
CLASS
  1
DEPMGR
  2
AcAdDepMgr
  3
DesignerServices
 90
     1024
280
     0
281
     0
  0
CLASS
  1
PARAMMGR
  2
AcAdParamMgr
  3
DesignerServices
 90
     1024
280
     0
281
     0
  0
CLASS
  1
PARAMSCOPE
  2
AcAdParamScope
  3
DesignerServices
 90
     1024
280
     0
281
     0
  0
CLASS
  1
NAMEDAPPL
  2
AcAdNamedAppl
  3
DesignerServices
 90
     1024
280
     0
281
     0
  0
CLASS
  1
AMDTDMMENUSTATE
  2
AmdtDmMenuState
  3
AcMechDwgViewMgmt
 90
     1024
280
     0
281
     0
  0
CLASS
  1
AMDTAMMENUSTATE
  2
AmdtAmMenuState
  3
DesignerAssemblies
 90
     1024
280
     0
281
     0
  0
CLASS
  1
ACAMPROJECT
  2
AcAmProject
  3
DesignerAssemblies
 90
     1024
280
     0
281
     0
  0
CLASS
  1
ACAMGRCOMPDEF
  2
AcAmGrCompDef
  3
DesignerAssemblies
 90
     1024
280
     0
281
     0
  0
CLASS
  1
ACCMCONTEXT
  2
AcCmContext
  3
DesignerAssemblies
 90
     1024
280
     0
281
     0
  0
CLASS
  1
ACAMCOMPDEF
  2
AcAmCompDef
  3
DesignerAssemblies
 90
     1024
280
     0
281
     0
  0
CLASS
  1
ACAMCOMPDEFMGR
  2
AcAmCompDefMgr
  3
DesignerAssemblies
 90
     1024
280
     0
281
     0
  0
CLASS
  1
AMCONTEXTMGR
  2
AcAmContextMgr
  3
DesignerAssemblies
 90
     1024
280
     0
281
     0
  0
CLASS
  1
ACAMCONTEXTMODELER
  2
AcAmContextModeler
  3
DesignerAssemblies
 90
     1024
280
     0
281
     0
  0
CLASS
  1
ACMTHREADLINESTANDARDISO
  2
AmdtThreadLineStdISO
  3
"Amdt_StdImp|Product Description: AutoCAD Mechanical|Company: Autodesk, Inc."
 90
     1024
280
     0
281
     0
  0
CLASS
  1
CATALOGSTATE
  2
AcAmCatalogState
  3
DesignerAssemblies
 90
     1024
280
     0
281
     0
  0
CLASS
  1
ACAMGRCOMPDEFSET
  2
AcAmGrCompDefSet
  3
DesignerAssemblies
 90
     1024
280
     0
281
     0
  0
CLASS
  1
AMDTBROWSERDBTAB
  2
AmdtBrowserDbTab
  3
McadcomServices
 90
     1024
280
     0
281
     0
  0
CLASS
  1
CBROWSERAPPOBJECT
  2
CBrowserAppObject
  3
McadcomServices
 90
     1024
280
     0
281
     0
  0
CLASS
  1
DM_PLACEHOLDER
  2
AcDmSelsetPlaceholder
  3
AcMechDwgViewMgmt
 90
     1024
280
     0
281
     0
  0
CLASS
  1
TABLESTYLE
  2
AcDbTableStyle
  3
ObjectDBX Classes
 90
     4095
280
     0
281
     0
  0
CLASS
  1
VAACXREFPANELOBJECT
  2
VaAcXREFPanelObject
  3
VAAC_ADDIN
 90
    32768
280
     0
281
     0
  0
CLASS
  1
VAACIMAGEINVENTORY
  2
VaAcImageInventory
  3
VAAC_ADDIN
 90
    32768
280
     0
281
     0
  0
CLASS
  1
AMDTNOTETEMPLATEDB
  2
AmdtNoteTemplateDB
  3
AcmSymBB|Product Description: AutoCAD Mechanical|Company: Autodesk, Inc.
 90
     1024
280
     0
281
     0
  0
CLASS
  1
MATERIAL
  2
AcDbMaterial
  3
ObjectDBX Classes
 90
     1153
280
     0
281
     0
  0
CLASS
  1
VISUALSTYLE
  2
AcDbVisualStyle
  3
ObjectDBX Classes
 90
     4095
280
     0
281
     0
  0
CLASS
  1
ACRFATTGENMGR
  2
AcRfAttGeneralMgr
  3
AcAttribServices
 90
     1024
280
     0
281
     0
  0
CLASS
  1
ACRFOBJATTMGR
  2
AcRfObjAttGroupMgr
  3
AcAttribServices
 90
     1024
280
     0
281
     0
  0
CLASS
  1
ACRFMCADAPIATTHOLDER
  2
AcRfMCADAPIAttHolder
  3
AcAttribServices
 90
     1024
280
     0
281
     0
  0
CLASS
  1
AMDTSYSATTR
  2
AmdtSystemAttribute
  3
AcAttribServices
 90
     1024
280
     0
281
     0
  0
CLASS
  1
ACMTAPERSTANDARDISO
  2
AcmTaperStdISO
  3
"Amdt_StdImp|Product Description: AutoCAD Mechanical|Company: Autodesk, Inc."
 90
     1024
280
     0
281
     0
  0
CLASS
  1
CAMSSTRUCTBTNSTATE
  2
StructBtnState
  3
DesignerAssemblies
 90
     1024
280
     0
281
     0
  0
CLASS
  1
SCALE
  2
AcDbScale
  3
ObjectDBX Classes
 90
     1153
280
     0
281
     0
  0
CLASS
  1
MLEADERSTYLE
  2
AcDbMLeaderStyle
  3
ACDB_MLEADERSTYLE_CLASS
 90
     4095
280
     0
281
     0
  0
CLASS
  1
ACMANOOTATIONVIEWSTANDARDISO
  2
AmdtAnViewStdISO
  3
"Amdt_StdImp|Product Description: AutoCAD Mechanical|Company: Autodesk, Inc."
 90
     1024
280
     0
281
     0
  0
CLASS
  1
ACMSURFSTANDARDISO2002
  2
AcmSurfTextStdISO2002
  3
"Amdt_StdImp|Product Description: AutoCAD Mechanical|Company: Autodesk, Inc."
 90
     1024
280
     0
281
     0
  0
CLASS
  1
CELLSTYLEMAP
  2
AcDbCellStyleMap
  3
ObjectDBX Classes
 90
     1152
280
     0
281
     0
  0
CLASS
  1
ACMSECTIONSTANDARDISO2001
  2
AmdtSectionSymStdISO2001
  3
"Amdt_StdImp|Product Description: AutoCAD Mechanical|Company: Autodesk, Inc."
 90
     1024
280
     0
281
     0
  0
CLASS
  1
EXACXREFPANELOBJECT
  2
ExAcXREFPanelObject
  3
EXAC_ESW
 90
     1025
280
     0
281
     0
  0
CLASS
  1
NPOCOLLECTION
  2
AcDbImpNonPersistentObjectsCollection
  3
ObjectDBX Classes
 90
     1153
280
     0
281
     0
  0
CLASS
  1
AMDTEDGESTANDARDISO13715
  2
AmdtEdgeStdISO13715
  3
"Amdt_StdImp|Product Description: AutoCAD Mechanical|Company: Autodesk, Inc."
 90
     1024
280
     0
281
     0
  0
CLASS
  1
ACAMGFILTERDAT
  2
AcAmgFilterDat
  3
"AcadM|Product Description: AutoCAD Mechanical|Company: Autodesk, Inc."
 90
     1024
280
     0
281
     0
  0
CLASS
  1
ACMBOM
  2
AcmBom
  3
"AcmSymBB|Product Description: AutoCAD Mechanical|Company: Autodesk, Inc."
 90
    33792
280
     0
281
     0
  0
CLASS
  1
AMDTFORMULAUPDATEDISPATCHER
  2
AmdtFormulaUpdateDispatcher
  3
AcMeServices
 90
    33792
280
     0
281
     0
  0
CLASS
  1
DIMASSOC
  2
AcDbDimAssoc
  3
"AcDbDimAssoc|Product Desc:     AcDim ARX App For Dimension|Company:          Autodesk, Inc.|WEB Address:      www.autodesk.com"
 90
        0
280
     0
281
     0
  0
CLASS
  1
SORTENTSTABLE
  2
AcDbSortentsTable
  3
ObjectDBX Classes
 90
        0
280
     0
281
     0
  0
CLASS
  1
ACMDIMBREAKPERSREACTOR
  2
AcmDimBreakPersReactor
  3
AmgDim|Product Description: AutoCAD Mechanical|Company: Autodesk, Inc.
 90
     4095
280
     0
281
     0
  0
CLASS
  1
ACMSTANDARDDIN
  2
AcmStandardDIN
  3
"Amdt_StdImp|Product Description: AutoCAD Mechanical|Company: Autodesk, Inc."
 90
     1024
280
     0
281
     0
  0
CLASS
  1
AMDTEDGESTANDARDDIN13715
  2
AmdtEdgeStdDIN13715
  3
"Amdt_StdImp|Product Description: AutoCAD Mechanical|Company: Autodesk, Inc."
 90
     1024
280
     0
281
     0
  0
CLASS
  1
ACMSURFSTANDARDDIN
  2
AcmSurfTextStdDIN
  3
"Amdt_StdImp|Product Description: AutoCAD Mechanical|Company: Autodesk, Inc."
 90
     1024
280
     0
281
     0
  0
CLASS
  1
ACMFCFSTANDARDDIN
  2
AcmFCFStdDIN
  3
"Amdt_StdImp|Product Description: AutoCAD Mechanical|Company: Autodesk, Inc."
 90
     1024
280
     0
281
     0
  0
CLASS
  1
ACMWELDSTANDARDDIN
  2
AcmWeldingStdDIN
  3
"Amdt_StdImp|Product Description: AutoCAD Mechanical|Company: Autodesk, Inc."
 90
     1024
280
     0
281
     0
  0
CLASS
  1
ACMIDSTANDARDDIN
  2
AcmIdStdDIN
  3
"Amdt_StdImp|Product Description: AutoCAD Mechanical|Company: Autodesk, Inc."
 90
     1024
280
     0
281
     0
  0
CLASS
  1
ACMDATUMSTANDARDDIN
  2
AcmDatumStdDIN
  3
"Amdt_StdImp|Product Description: AutoCAD Mechanical|Company: Autodesk, Inc."
 90
     1024
280
     0
281
     0
  0
CLASS
  1
ACMBOMSTANDARDDIN
  2
AcmBOMStdDIN
  3
"Amdt_StdImp|Product Description: AutoCAD Mechanical|Company: Autodesk, Inc."
 90
     1024
280
     0
281
     0
  0
CLASS
  1
ACMDETAILSTANDARDDIN
  2
AmdtDetailSymStdDIN
  3
"Amdt_StdImp|Product Description: AutoCAD Mechanical|Company: Autodesk, Inc."
 90
     1024
280
     0
281
     0
  0
CLASS
  1
ACMSECTIONSTANDARDDIN
  2
AmdtSectionSymStdDIN
  3
"Amdt_StdImp|Product Description: AutoCAD Mechanical|Company: Autodesk, Inc."
 90
     1024
280
     0
281
     0
  0
CLASS
  1
ACMCENTERLINESTANDARDDIN
  2
AmdtCenterLineStdDIN
  3
"Amdt_StdImp|Product Description: AutoCAD Mechanical|Company: Autodesk, Inc."
 90
     1024
280
     0
281
     0
  0
CLASS
  1
ACMTHREADLINESTANDARDDIN
  2
AmdtThreadLineStdDIN
  3
"Amdt_StdImp|Product Description: AutoCAD Mechanical|Company: Autodesk, Inc."
 90
     1024
280
     0
281
     0
  0
CLASS
  1
ACMNOTESTANDARDDIN
  2
AmdtNoteStdDIN
  3
"Amdt_StdImp|Product Description: AutoCAD Mechanical|Company: Autodesk, Inc."
 90
     1024
280
     0
281
     0
  0
CLASS
  1
ACAMGHOLECHARTSTDDIN
  2
AcAmgHoleChartStdDIN
  3
AmgDim|Product Description: AutoCAD Mechanical|Company: Autodesk, Inc.
 90
     1024
280
     0
281
     0
  0
CLASS
  1
ACMTAPERSTANDARDDIN
  2
AcmTaperStdDIN
  3
"Amdt_StdImp|Product Description: AutoCAD Mechanical|Company: Autodesk, Inc."
 90
     1024
280
     0
281
     0
  0
CLASS
  1
ACMANOOTATIONVIEWSTANDARDDIN
  2
AmdtAnViewStdDIN
  3
"Amdt_StdImp|Product Description: AutoCAD Mechanical|Company: Autodesk, Inc."
 90
     1024
280
     0
281
     0
  0
ENDSEC
  0
SECTION
  2
TABLES
  0
TABLE
  2
VPORT
  5
8
330
0
100
AcDbSymbolTable
 70
     1
  0
VPORT
  5
269
330
8
100
AcDbSymbolTableRecord
100
AcDbViewportTableRecord
  2
*Active
 70
     0
 10
0.0
 20
0.0
 11
1.0
 21
1.0
 12
575.7947301948944
 22
237.9017503459154
 13
0.0
 23
0.0
 14
2.5
 24
2.5
 15
10.0
 25
10.0
 16
0.0
 26
0.0
 36
1.0
 17
0.0
 27
0.0
 37
0.0
 40
600.9556217383496
 41
1.923900118906064
 42
50.0
 43
0.0
 44
0.0
 50
0.0
 51
0.0
 71
     0
 72
   100
 73
     1
 74
     3
 75
     0
 76
     0
 77
     0
 78
     0
281
     0
 65
     1
110
0.0
120
0.0
130
0.0
111
1.0
121
0.0
131
0.0
112
0.0
122
1.0
132
0.0
 79
     0
146
0.0
  0
ENDTAB
  0
TABLE
  2
LTYPE
  5
5
330
0
100
AcDbSymbolTable
 70
    25
  0
LTYPE
  5
14
330
5
100
AcDbSymbolTableRecord
100
AcDbLinetypeTableRecord
  2
ByBlock
 70
     0
  3

 72
    65
 73
     0
 40
0.0
  0
LTYPE
  5
15
330
5
100
AcDbSymbolTableRecord
100
AcDbLinetypeTableRecord
  2
ByLayer
 70
     0
  3

 72
    65
 73
     0
 40
0.0
  0
LTYPE
  5
16
330
5
100
AcDbSymbolTableRecord
100
AcDbLinetypeTableRecord
  2
Continuous
 70
     0
  3
Solid line
 72
    65
 73
     0
 40
0.0
  0
LTYPE
  5
64
330
5
100
AcDbSymbolTableRecord
100
AcDbLinetypeTableRecord
  2
AM_ISO02W050
 70
     0
  3
__ __ __ __ __ __ __ __ __ __ __ __ __ __ __
 72
    65
 73
     2
 40
7.5
 49
6.0
 74
     0
 49
-1.5
 74
     0
  0
LTYPE
  5
65
330
5
100
AcDbSymbolTableRecord
100
AcDbLinetypeTableRecord
  2
AM_ISO08W050
 70
     0
  3
____ . ____ . ____ . ____ . ____ . ____ . ____
 72
    65
 73
     4
 40
18.0
 49
12.0
 74
     0
 49
-1.5
 74
     0
 49
3.0
 74
     0
 49
-1.5
 74
     0
  0
LTYPE
  5
66
330
5
100
AcDbSymbolTableRecord
100
AcDbLinetypeTableRecord
  2
AM_ISO09W050
 70
     0
  3
_____ . . _____ . . _____ . . ____ .. ____
 72
    65
 73
     6
 40
22.5
 49
12.0
 74
     0
 49
-1.5
 74
     0
 49
3.0
 74
     0
 49
-1.5
 74
     0
 49
3.0
 74
     0
 49
-1.5
 74
     0
  0
LTYPE
  5
67
330
5
100
AcDbSymbolTableRecord
100
AcDbLinetypeTableRecord
  2
Amconstr
 70
     0
  3
_______________________
 72
    65
 73
     2
 40
9999.0
 49
9999.0
 74
     0
 49
0.0
 74
     0
  0
LTYPE
  5
68
330
5
100
AcDbSymbolTableRecord
100
AcDbLinetypeTableRecord
  2
AM_ISO08W050x2
 70
     0
  3
__ . __ . __ . __ . __ . __
 72
    65
 73
     4
 40
9.0
 49
6.0
 74
     0
 49
-0.75
 74
     0
 49
1.5
 74
     0
 49
-0.75
 74
     0
  0
LTYPE
  5
69
330
5
100
AcDbSymbolTableRecord
100
AcDbLinetypeTableRecord
  2
AM_ISO02W050x2
 70
     0
  3
 _ _ _ _ _ _ _ _ _ _ _ _
 72
    65
 73
     2
 40
3.75
 49
3.0
 74
     0
 49
-0.75
 74
     0
  0
LTYPE
  5
6C
330
5
100
AcDbSymbolTableRecord
100
AcDbLinetypeTableRecord
  2
Amzigzag
 70
     0
  3
/\/-/\/-/\/-/\/-/\/-/\/
 72
    65
 73
     2
 40
11.0001
 49
0.0001
 74
     4
 75
   136
340
22C
 46
0.04
 50
0.0
 44
0.0
 45
0.0
 49
-11.0
 74
     0
  0
LTYPE
  5
7A
330
5
100
AcDbSymbolTableRecord
100
AcDbLinetypeTableRecord
  2
ACISOWELD
 70
     0
  3
_ _ _ _ _
 72
    65
 73
     2
 40
2.0
 49
2.0
 74
     0
 49
-1.0
 74
     0
  0
LTYPE
  5
7B
330
5
100
AcDbSymbolTableRecord
100
AcDbLinetypeTableRecord
  2
ACISOTGB
 70
     0
  3
__ . . __ . .
 72
    65
 73
     6
 40
9.0
 49
4.0
 74
     0
 49
-1.0
 74
     0
 49
1.0
 74
     0
 49
-1.0
 74
     0
 49
1.0
 74
     0
 49
-1.0
 74
     0
  0
LTYPE
  5
7C
330
5
100
AcDbSymbolTableRecord
100
AcDbLinetypeTableRecord
  2
ACISOTGL
 70
     0
  3
_ _ _ _ _
 72
    65
 73
     2
 40
3.0
 49
2.0
 74
     0
 49
-1.0
 74
     0
  0
LTYPE
  5
7E
330
5
100
AcDbSymbolTableRecord
100
AcDbLinetypeTableRecord
  2
CENTER
 70
     0
  3
__ . __
 72
    65
 73
     4
 40
7.0
 49
4.0
 74
     0
 49
-1.0
 74
     0
 49
1.0
 74
     0
 49
-1.0
 74
     0
  0
LTYPE
  5
D8
330
5
100
AcDbSymbolTableRecord
100
AcDbLinetypeTableRecord
  2
HIDDEN
 70
     0
  3
Hidden __ __ __ __ __ __ __ __ __ __ __ __ __ _
 72
    65
 73
     2
 40
9.524999999999998
 49
6.349999999999999
 74
     0
 49
-3.174999999999999
 74
     0
  0
LTYPE
  5
D9
330
5
100
AcDbSymbolTableRecord
100
AcDbLinetypeTableRecord
  2
PHANTOM2
 70
     0
  3
Phantom (.5x) ___ _ _ ___ _ _ ___ _ _ ___ _ _
 72
    65
 73
     6
 40
31.75
 49
15.875
 74
     0
 49
-3.174999999999999
 74
     0
 49
3.174999999999999
 74
     0
 49
-3.174999999999999
 74
     0
 49
3.174999999999999
 74
     0
 49
-3.174999999999999
 74
     0
  0
LTYPE
  5
5D0
330
5
100
AcDbSymbolTableRecord
100
AcDbLinetypeTableRecord
  2
GEN7A
 70
     0
  3
__ . __ . __
 72
    65
 73
     4
 40
6.875
 49
5.0
 74
     0
 49
-0.625
 74
     0
 49
0.625
 74
     0
 49
-0.625
 74
     0
  0
LTYPE
  5
5D1
330
5
100
AcDbSymbolTableRecord
100
AcDbLinetypeTableRecord
  2
ACDINWELD
 70
     0
  3
_ _ _ _ _
 72
    65
 73
     2
 40
2.0
 49
2.0
 74
     0
 49
-1.0
 74
     0
  0
LTYPE
  5
5D2
330
5
100
AcDbSymbolTableRecord
100
AcDbLinetypeTableRecord
  2
ACDINTGB
 70
     0
  3
__ . . __ . .
 72
    65
 73
     6
 40
9.0
 49
4.0
 74
     0
 49
-1.0
 74
     0
 49
1.0
 74
     0
 49
-1.0
 74
     0
 49
1.0
 74
     0
 49
-1.0
 74
     0
  0
LTYPE
  5
5D3
330
5
100
AcDbSymbolTableRecord
100
AcDbLinetypeTableRecord
  2
ACDINTGL
 70
     0
  3
_ _ _ _ _
 72
    65
 73
     2
 40
3.0
 49
2.0
 74
     0
 49
-1.0
 74
     0
  0
LTYPE
  5
7CF
330
5
100
AcDbSymbolTableRecord
100
AcDbLinetypeTableRecord
  2
GEN3
 70
     0
  3
-- -- -- -- -- -- -- -- -- -- -- -- -- -- --
 72
    65
 73
     2
 40
6.25
 49
5.0
 74
     0
 49
-1.25
 74
     0
  0
LTYPE
  5
7D0
330
5
100
AcDbSymbolTableRecord
100
AcDbLinetypeTableRecord
  2
AM_DIN_F_W050
 70
     0
  3
__ __ __ __ __ __ __ __ __ __ __ __ __ __ __
 72
    65
 73
     2
 40
6.25
 49
4.75
 74
     0
 49
-1.5
 74
     0
  0
LTYPE
  5
7D1
330
5
100
AcDbSymbolTableRecord
100
AcDbLinetypeTableRecord
  2
AM_DIN_G_W050
 70
     0
  3
____ . ____ . ____ . ____ . ____ . ____ . ____
 72
    65
 73
     4
 40
13.75
 49
9.75
 74
     0
 49
-1.5
 74
     0
 49
1.0
 74
     0
 49
-1.5
 74
     0
  0
LTYPE
  5
7D2
330
5
100
AcDbSymbolTableRecord
100
AcDbLinetypeTableRecord
  2
AM_DIN_K_W050
 70
     0
  3
_____ . . _____ . . _____ . . ____ .. ____
 72
    65
 73
     6
 40
16.25
 49
9.75
 74
     0
 49
-1.5
 74
     0
 49
1.0
 74
     0
 49
-1.5
 74
     0
 49
1.0
 74
     0
 49
-1.5
 74
     0
  0
LTYPE
  5
7D3
330
5
100
AcDbSymbolTableRecord
100
AcDbLinetypeTableRecord
  2
AM_DIN_G_W050x2
 70
     0
  3
__ . __ . __ . __ . __ . __
 72
    65
 73
     4
 40
6.875
 49
4.75
 74
     0
 49
-0.875
 74
     0
 49
0.375
 74
     0
 49
-0.875
 74
     0
  0
LTYPE
  5
7D4
330
5
100
AcDbSymbolTableRecord
100
AcDbLinetypeTableRecord
  2
AM_DIN_F_W050x2
 70
     0
  3
 _ _ _ _ _ _ _ _ _ _ _ _
 72
    65
 73
     2
 40
3.125
 49
2.25
 74
     0
 49
-0.875
 74
     0
  0
ENDTAB
  0
TABLE
  2
LAYER
  5
2
102
{ACAD_XDICTIONARY
360
5F2
102
}
330
0
100
AcDbSymbolTable
 70
    16
  0
LAYER
  5
10
102
{ACAD_XDICTIONARY
360
A0A
102
}
330
2
100
AcDbSymbolTableRecord
100
AcDbLayerTableRecord
  2
0
 70
     0
 62
     7
  6
Continuous
370
    -3
390
F
  0
LAYER
  5
3EA
102
{ACAD_XDICTIONARY
360
3EB
102
}
330
2
100
AcDbSymbolTableRecord
100
AcDbLayerTableRecord
  2
AM_7
 70
     0
 62
     4
  6
AM_ISO08W050
370
    25
390
F
1001
AcAecLayerStandard
1000

1000

  0
LAYER
  5
3EC
102
{ACAD_XDICTIONARY
360
3ED
102
}
330
2
100
AcDbSymbolTableRecord
100
AcDbLayerTableRecord
  2
AM_CL
 70
     0
 62
     1
  6
Amconstr
370
    25
390
F
1001
AcAecLayerStandard
1000

1000

  0
LAYER
  5
3EE
330
2
100
AcDbSymbolTableRecord
100
AcDbLayerTableRecord
  2
Defpoints
 70
     0
 62
     7
  6
Continuous
290
     0
370
    -3
390
F
  0
LAYER
  5
3EF
102
{ACAD_XDICTIONARY
360
3F0
102
}
330
2
100
AcDbSymbolTableRecord
100
AcDbLayerTableRecord
  2
AM_5
 70
     0
 62
     3
  6
Continuous
370
    25
390
F
1001
AcAecLayerStandard
1000

1000

  0
LAYER
  5
5D4
102
{ACAD_XDICTIONARY
360
5D5
102
}
330
2
100
AcDbSymbolTableRecord
100
AcDbLayerTableRecord
  2
7A
 70
     0
 62
     4
  6
GEN7A
370
    -3
390
F
  0
LAYER
  5
5D6
102
{ACAD_XDICTIONARY
360
5D7
102
}
330
2
100
AcDbSymbolTableRecord
100
AcDbLayerTableRecord
  2
5
 70
     0
 62
     3
  6
Continuous
370
    -3
390
F
  0
LAYER
  5
5D8
102
{ACAD_XDICTIONARY
360
5D9
102
}
330
2
100
AcDbSymbolTableRecord
100
AcDbLayerTableRecord
  2
6
 70
     0
 62
     2
  6
Continuous
370
    -3
390
F
  0
LAYER
  5
5DA
102
{ACAD_XDICTIONARY
360
5DB
102
}
330
2
100
AcDbSymbolTableRecord
100
AcDbLayerTableRecord
  2
4
 70
     0
 62
     3
  6
Continuous
370
    -3
390
F
  0
LAYER
  5
5DC
102
{ACAD_XDICTIONARY
360
5DD
102
}
330
2
100
AcDbSymbolTableRecord
100
AcDbLayerTableRecord
  2
KLIN
 70
     0
 62
     1
  6
Continuous
370
    -3
390
F
  0
LAYER
  5
7D5
102
{ACAD_XDICTIONARY
360
7D6
102
}
330
2
100
AcDbSymbolTableRecord
100
AcDbLayerTableRecord
  2
8
 70
     0
 62
     1
  6
Continuous
370
    -3
390
F
  0
LAYER
  5
7D7
102
{ACAD_XDICTIONARY
360
7D8
102
}
330
2
100
AcDbSymbolTableRecord
100
AcDbLayerTableRecord
  2
3
 70
     0
 62
     6
  6
GEN3
370
    -3
390
F
  0
LAYER
  5
9F9
102
{ACAD_XDICTIONARY
360
9FA
102
}
330
2
100
AcDbSymbolTableRecord
100
AcDbLayerTableRecord
  2
AM_0N
 70
     0
 62
     7
  6
Continuous
370
    50
390
F
1001
AcAecLayerStandard
1000

1000

  0
LAYER
  5
9FB
102
{ACAD_XDICTIONARY
360
9FC
102
}
330
2
100
AcDbSymbolTableRecord
100
AcDbLayerTableRecord
  2
AM_7N
 70
     0
 62
   142
  6
AM_ISO08W050
370
    25
390
F
1001
AcAecLayerStandard
1000

1000

  0
LAYER
  5
9FD
102
{ACAD_XDICTIONARY
360
9FE
102
}
330
2
100
AcDbSymbolTableRecord
100
AcDbLayerTableRecord
  2
AM_4N
 70
     0
 62
    92
  6
Continuous
370
    25
390
F
1001
AcAecLayerStandard
1000

1000

  0
LAYER
  5
9FF
102
{ACAD_XDICTIONARY
360
A00
102
}
330
2
100
AcDbSymbolTableRecord
100
AcDbLayerTableRecord
  2
AM_9N
 70
     0
 62
  -253
  6
Continuous
370
     0
390
F
1001
AcAecLayerStandard
1000

1000

  0
ENDTAB
  0
TABLE
  2
STYLE
  5
3
330
0
100
AcDbSymbolTable
 70
    10
  0
STYLE
  5
11
330
3
100
AcDbSymbolTableRecord
100
AcDbTextStyleTableRecord
  2
STANDARD
 70
     0
 40
0.0
 41
1.0
 50
0.0
 71
     0
 42
2.5
  3
ISOCP.SHX
  4

  0
STYLE
  5
6B
330
3
100
AcDbSymbolTableRecord
100
AcDbTextStyleTableRecord
  2

 70
     1
 40
0.0
 41
1.0
 50
0.0
 71
     0
 42
2.5
  3
ltypeshp.shx
  4

  0
STYLE
  5
6D
330
3
100
AcDbSymbolTableRecord
100
AcDbTextStyleTableRecord
  2
ACISOTS
 70
     0
 40
1.0
 41
1.0
 50
0.0
 71
     0
 42
2.5
  3
isocp.shx
  4

  0
STYLE
  5
79
330
3
100
AcDbSymbolTableRecord
100
AcDbTextStyleTableRecord
  2
ACISOGDT
 70
     0
 40
0.0
 41
1.0
 50
0.0
 71
     0
 42
2.5
  3
amgdt.shx
  4

  0
STYLE
  5
1ED
330
3
100
AcDbSymbolTableRecord
100
AcDbTextStyleTableRecord
  2
USER1
 70
     0
 40
0.0
 41
1.0
 50
0.0
 71
     0
 42
2.5
  3
TXT.SHX
  4

  0
STYLE
  5
1EE
330
3
100
AcDbSymbolTableRecord
100
AcDbTextStyleTableRecord
  2
USER2
 70
     0
 40
0.0
 41
1.0
 50
0.0
 71
     0
 42
2.5
  3
SIMPLEX.SHX
  4

  0
STYLE
  5
1EF
330
3
100
AcDbSymbolTableRecord
100
AcDbTextStyleTableRecord
  2
USER3
 70
     0
 40
0.0
 41
1.0
 50
0.0
 71
     0
 42
2.5
  3
ITALIC.SHX
  4

  0
STYLE
  5
22C
330
3
100
AcDbSymbolTableRecord
100
AcDbTextStyleTableRecord
  2

 70
     1
 40
0.0
 41
1.0
 50
0.0
 71
     0
 42
2.5
  3
genltshp.shx
  4

  0
STYLE
  5
5DE
330
3
100
AcDbSymbolTableRecord
100
AcDbTextStyleTableRecord
  2
ACDINTS
 70
     0
 40
1.0
 41
1.0
 50
0.0
 71
     0
 42
100.0
  3
isocp.shx
  4

  0
STYLE
  5
5DF
330
3
100
AcDbSymbolTableRecord
100
AcDbTextStyleTableRecord
  2
ACDINGDT
 70
     0
 40
0.0
 41
1.0
 50
0.0
 71
     0
 42
100.0
  3
AMGDT
  4

  0
ENDTAB
  0
TABLE
  2
VIEW
  5
6
330
0
100
AcDbSymbolTable
 70
     0
  0
ENDTAB
  0
TABLE
  2
UCS
  5
7
330
0
100
AcDbSymbolTable
 70
     0
  0
ENDTAB
  0
TABLE
  2
APPID
  5
9
330
0
100
AcDbSymbolTable
 70
    37
  0
APPID
  5
12
330
9
100
AcDbSymbolTableRecord
100
AcDbRegAppTableRecord
  2
ACAD
 70
     0
  0
APPID
  5
46
330
9
100
AcDbSymbolTableRecord
100
AcDbRegAppTableRecord
  2
MCAD_NO_VIS
 70
     0
  0
APPID
  5
47
330
9
100
AcDbSymbolTableRecord
100
AcDbRegAppTableRecord
  2
ACAD_TEMP_GRAPHIC
 70
     0
  0
APPID
  5
58
330
9
100
AcDbSymbolTableRecord
100
AcDbRegAppTableRecord
  2
ACATTRIBSERVICES
 70
     0
  0
APPID
  5
EE
330
9
100
AcDbSymbolTableRecord
100
AcDbRegAppTableRecord
  2
AD_DRAW
 70
     0
  0
APPID
  5
10C
330
9
100
AcDbSymbolTableRecord
100
AcDbRegAppTableRecord
  2
DESIGNERASSEMBLIES
 70
     0
  0
APPID
  5
111
330
9
100
AcDbSymbolTableRecord
100
AcDbRegAppTableRecord
  2
ACADM_DIM_EDIT
 70
     0
  0
APPID
  5
112
330
9
100
AcDbSymbolTableRecord
100
AcDbRegAppTableRecord
  2
AMDT_DM_ADJ
 70
     0
  0
APPID
  5
1A3
330
9
100
AcDbSymbolTableRecord
100
AcDbRegAppTableRecord
  2
ACAD_DSTYLE_DIMARC_LENGTH_SYMBOL
 70
     0
  0
APPID
  5
1A4
330
9
100
AcDbSymbolTableRecord
100
AcDbRegAppTableRecord
  2
ACAD_DSTYLE_DIMJOGGED_JOGANGLE_SYMBOL
 70
     0
  0
APPID
  5
2C6
330
9
100
AcDbSymbolTableRecord
100
AcDbRegAppTableRecord
  2
ACAD_MLEADERVER
 70
     0
  0
APPID
  5
36E
330
9
100
AcDbSymbolTableRecord
100
AcDbRegAppTableRecord
  2
ACAD_EXEMPT_FROM_CAD_STANDARDS
 70
     0
  0
APPID
  5
3F3
330
9
100
AcDbSymbolTableRecord
100
AcDbRegAppTableRecord
  2
AcAecLayerStandard
 70
     0
  0
APPID
  5
3F4
330
9
100
AcDbSymbolTableRecord
100
AcDbRegAppTableRecord
  2
GENIUS_GENOENT_13
 70
     0
  0
APPID
  5
3F5
330
9
100
AcDbSymbolTableRecord
100
AcDbRegAppTableRecord
  2
GENIUS_GENOLIS_13
 70
     0
  0
APPID
  5
3F6
330
9
100
AcDbSymbolTableRecord
100
AcDbRegAppTableRecord
  2
GENIUS_GENODEF_13
 70
     0
  0
APPID
  5
3F7
330
9
100
AcDbSymbolTableRecord
100
AcDbRegAppTableRecord
  2
GENIUS_GENOBJ-N-CRS_13
 70
     0
  0
APPID
  5
3F8
330
9
100
AcDbSymbolTableRecord
100
AcDbRegAppTableRecord
  2
GENIUS_GENOREF_13
 70
     0
  0
APPID
  5
3F9
330
9
100
AcDbSymbolTableRecord
100
AcDbRegAppTableRecord
  2
GENIUS_GENOBJ-N-CEN_13
 70
     0
  0
APPID
  5
3FA
330
9
100
AcDbSymbolTableRecord
100
AcDbRegAppTableRecord
  2
GENIUS_GENCEN_19
 70
     0
  0
APPID
  5
3FB
330
9
100
AcDbSymbolTableRecord
100
AcDbRegAppTableRecord
  2
ACAD_DSTYLE_DIMINSPECT
 70
     0
  0
APPID
  5
5E8
330
9
100
AcDbSymbolTableRecord
100
AcDbRegAppTableRecord
  2
GENIUS_GENHINW_13
 70
     0
  0
APPID
  5
5E9
330
9
100
AcDbSymbolTableRecord
100
AcDbRegAppTableRecord
  2
GENIUS_GENOBJ-N-HINW_13
 70
     0
  0
APPID
  5
5EA
330
9
100
AcDbSymbolTableRecord
100
AcDbRegAppTableRecord
  2
GENIUS_GENOBJ-N-DIMBR_13
 70
     0
  0
APPID
  5
5EB
330
9
100
AcDbSymbolTableRecord
100
AcDbRegAppTableRecord
  2
GENIUS_DIMBR_14
 70
     0
  0
APPID
  5
5EC
330
9
100
AcDbSymbolTableRecord
100
AcDbRegAppTableRecord
  2
GENIUS_GENTRA_14
 70
     0
  0
APPID
  5
5ED
330
9
100
AcDbSymbolTableRecord
100
AcDbRegAppTableRecord
  2
GENIUS_DIMBRX_14
 70
     0
  0
APPID
  5
5EE
330
9
100
AcDbSymbolTableRecord
100
AcDbRegAppTableRecord
  2
GENIUS_GENOBJ-N-DIMBRX_13
 70
     0
  0
APPID
  5
5EF
330
9
100
AcDbSymbolTableRecord
100
AcDbRegAppTableRecord
  2
GENIUS_FIRSTVISTXT_14
 70
     0
  0
APPID
  5
5F0
330
9
100
AcDbSymbolTableRecord
100
AcDbRegAppTableRecord
  2
GENIUS_SECONDVISTXT_14
 70
     0
  0
APPID
  5
5F1
330
9
100
AcDbSymbolTableRecord
100
AcDbRegAppTableRecord
  2
ACAD_PSEXT
 70
     0
  0
APPID
  5
7D9
330
9
100
AcDbSymbolTableRecord
100
AcDbRegAppTableRecord
  2
GENIUS_GENOBJ-N-FIL_13
 70
     0
  0
APPID
  5
7DA
330
9
100
AcDbSymbolTableRecord
100
AcDbRegAppTableRecord
  2
GENIUS_GENOBJ-N-HTC_13
 70
     0
  0
APPID
  5
7DB
330
9
100
AcDbSymbolTableRecord
100
AcDbRegAppTableRecord
  2
GENIUS_GENHATCH_13
 70
     0
  0
APPID
  5
A28
330
9
100
AcDbSymbolTableRecord
100
AcDbRegAppTableRecord
  2
ACAD_DSTYLE_DIM_LINETYPE
 70
     0
  0
APPID
  5
A29
330
9
100
AcDbSymbolTableRecord
100
AcDbRegAppTableRecord
  2
ACAD_DSTYLE_DIM_EXT1_LINETYPE
 70
     0
  0
APPID
  5
A2A
330
9
100
AcDbSymbolTableRecord
100
AcDbRegAppTableRecord
  2
ACAD_DSTYLE_DIM_EXT2_LINETYPE
 70
     0
  0
ENDTAB
  0
TABLE
  2
DIMSTYLE
  5
A
330
0
100
AcDbSymbolTable
 70
    19
100
AcDbDimStyleTable
 71
     1
340
81
  0
DIMSTYLE
105
27
330
A
100
AcDbSymbolTableRecord
100
AcDbDimStyleTableRecord
  2
ISO-25
 70
     0
 41
2.5
 42
0.625
 43
3.75
 44
1.25
 73
     0
 74
     0
 77
     1
 78
     8
140
2.5
141
2.5
143
0.03937007874016
147
0.625
171
     3
172
     1
271
     2
272
     2
274
     3
278
    44
283
     0
284
     8
340
11
  0
DIMSTYLE
105
81
102
{ACAD_REACTORS
330
62
102
}
330
A
100
AcDbSymbolTableRecord
100
AcDbDimStyleTableRecord
  2
AM_ISO
 70
     0
  4
"
 41
3.5
 42
1.0
 43
10.0
 44
1.0
 47
0.1
 48
0.1
 73
     0
 74
     0
 77
     1
 78
     8
 79
     2
140
3.5
141
0.0
143
0.0393701
146
0.71
147
1.5
172
     1
176
   256
177
   256
178
   140
271
     2
272
     3
274
     4
283
     0
284
     8
340
11
371
    -1
372
    -1
1001
ACAD_DSTYLE_DIMJOGGED_JOGANGLE_SYMBOL
1070
   384
1040
0.7853981633974483
1001
ACAD_DSTYLE_DIMARC_LENGTH_SYMBOL
1070
   379
1070
     1
1001
ACAD_DSTYLE_DIM_LINETYPE
1070
   380
1005
14
1001
ACAD_DSTYLE_DIM_EXT1_LINETYPE
1070
   381
1005
14
1001
ACAD_DSTYLE_DIM_EXT2_LINETYPE
1070
   382
1005
14
  0
DIMSTYLE
105
82
330
A
100
AcDbSymbolTableRecord
100
AcDbDimStyleTableRecord
  2
AM_ISO$3
 70
     0
  4
"
 41
3.5
 42
1.0
 43
10.0
 44
1.0
 47
0.1
 48
0.1
 73
     0
 77
     1
 78
     8
 79
     2
140
3.5
141
0.0
143
0.0393701
146
0.71
147
1.5
176
   256
177
   256
178
   140
271
     2
272
     3
274
     4
283
     0
284
     8
288
     1
289
     0
340
11
371
    -1
372
    -1
1001
ACAD_DSTYLE_DIMJOGGED_JOGANGLE_SYMBOL
1070
   384
1040
0.7853981633974483
1001
ACAD_DSTYLE_DIMARC_LENGTH_SYMBOL
1070
   379
1070
     1
1001
ACAD_DSTYLE_DIM_LINETYPE
1070
   380
1005
14
1001
ACAD_DSTYLE_DIM_EXT1_LINETYPE
1070
   381
1005
14
1001
ACAD_DSTYLE_DIM_EXT2_LINETYPE
1070
   382
1005
14
  0
DIMSTYLE
105
83
330
A
100
AcDbSymbolTableRecord
100
AcDbDimStyleTableRecord
  2
AM_ISO$4
 70
     0
  4
"
 41
3.5
 42
1.0
 43
10.0
 44
1.0
 47
0.1
 48
0.1
 73
     0
 74
     0
 77
     1
 78
     8
 79
     2
140
3.5
141
0.0
143
0.0393701
146
0.71
147
1.5
172
     1
176
   256
177
   256
178
   140
271
     2
272
     3
274
     4
283
     0
284
     8
340
11
371
    -1
372
    -1
1001
ACAD_DSTYLE_DIMJOGGED_JOGANGLE_SYMBOL
1070
   384
1040
0.7853981633974483
1001
ACAD_DSTYLE_DIMARC_LENGTH_SYMBOL
1070
   379
1070
     1
1001
ACAD_DSTYLE_DIM_LINETYPE
1070
   380
1005
14
1001
ACAD_DSTYLE_DIM_EXT1_LINETYPE
1070
   381
1005
14
1001
ACAD_DSTYLE_DIM_EXT2_LINETYPE
1070
   382
1005
14
  0
DIMSTYLE
105
84
330
A
100
AcDbSymbolTableRecord
100
AcDbDimStyleTableRecord
  2
AM_ISO$6
 70
     0
  4
"
 41
3.5
 42
1.0
 43
10.0
 44
1.0
 47
0.1
 48
0.1
 73
     0
 74
     0
 78
     8
 79
     2
140
3.5
141
0.0
143
0.0393701
146
0.71
147
1.5
172
     1
176
   256
177
   256
178
   140
271
     2
272
     3
274
     4
283
     0
284
     8
340
11
371
    -1
372
    -1
1001
ACAD_DSTYLE_DIMJOGGED_JOGANGLE_SYMBOL
1070
   384
1040
0.7853981633974483
1001
ACAD_DSTYLE_DIMARC_LENGTH_SYMBOL
1070
   379
1070
     1
1001
ACAD_DSTYLE_DIM_LINETYPE
1070
   380
1005
14
1001
ACAD_DSTYLE_DIM_EXT1_LINETYPE
1070
   381
1005
14
1001
ACAD_DSTYLE_DIM_EXT2_LINETYPE
1070
   382
1005
14
  0
DIMSTYLE
105
85
330
A
100
AcDbSymbolTableRecord
100
AcDbDimStyleTableRecord
  2
AM_ISO$7
 70
     0
  4
"
 41
3.5
 42
1.0
 43
10.0
 44
1.0
 47
0.1
 48
0.1
 73
     0
 74
     0
 77
     1
 78
     8
 79
     2
140
3.5
141
0.0
143
0.0393701
146
0.71
147
1.5
172
     1
176
   256
177
   256
178
   140
271
     2
272
     3
274
     4
283
     0
284
     8
340
11
371
    -1
372
    -1
1001
ACAD_DSTYLE_DIMJOGGED_JOGANGLE_SYMBOL
1070
   384
1040
0.7853981633974483
1001
ACAD_DSTYLE_DIMARC_LENGTH_SYMBOL
1070
   379
1070
     1
1001
ACAD_DSTYLE_DIM_LINETYPE
1070
   380
1005
14
1001
ACAD_DSTYLE_DIM_EXT1_LINETYPE
1070
   381
1005
14
1001
ACAD_DSTYLE_DIM_EXT2_LINETYPE
1070
   382
1005
14
  0
DIMSTYLE
105
86
330
A
100
AcDbSymbolTableRecord
100
AcDbDimStyleTableRecord
  2
AM_ISO$SF
 70
     0
  4
"
 41
3.5
 42
1.0
 43
10.0
 44
1.0
 47
0.1
 48
0.1
 73
     0
 74
     0
 75
     1
 76
     1
 77
     1
 78
     8
 79
     2
140
3.5
141
0.0
143
0.0393701
146
0.71
147
1.5
172
     1
176
   256
177
   256
178
   140
271
     2
272
     3
274
     4
283
     0
284
     8
340
11
371
    -1
372
    -1
1001
ACAD_DSTYLE_DIMJOGGED_JOGANGLE_SYMBOL
1070
   384
1040
0.7853981633974483
1001
ACAD_DSTYLE_DIMARC_LENGTH_SYMBOL
1070
   379
1070
     1
1001
ACAD_DSTYLE_DIM_LINETYPE
1070
   380
1005
14
1001
ACAD_DSTYLE_DIM_EXT1_LINETYPE
1070
   381
1005
14
1001
ACAD_DSTYLE_DIM_EXT2_LINETYPE
1070
   382
1005
14
  0
DIMSTYLE
105
8B
330
A
100
AcDbSymbolTableRecord
100
AcDbDimStyleTableRecord
  2
AM_ISO$SH
 70
     0
  4
"
 41
3.5
 42
1.0
 43
10.0
 44
1.0
 47
0.1
 48
0.1
 73
     0
 74
     0
 75
     1
 76
     1
 77
     1
 78
     8
 79
     2
140
3.5
141
0.0
143
0.0393701
144
2.0
146
0.71
147
1.5
172
     1
173
     1
176
   256
177
   256
178
   140
271
     2
272
     3
274
     4
283
     0
284
     8
340
11
343
87
371
    -1
372
    -1
1001
ACAD_DSTYLE_DIMJOGGED_JOGANGLE_SYMBOL
1070
   384
1040
0.7853981633974483
1001
ACAD_DSTYLE_DIMARC_LENGTH_SYMBOL
1070
   379
1070
     1
1001
ACAD_DSTYLE_DIM_LINETYPE
1070
   380
1005
14
1001
ACAD_DSTYLE_DIM_EXT1_LINETYPE
1070
   381
1005
14
1001
ACAD_DSTYLE_DIM_EXT2_LINETYPE
1070
   382
1005
14
  0
DIMSTYLE
105
3F1
330
A
100
AcDbSymbolTableRecord
100
AcDbDimStyleTableRecord
  2
AM_DIN
 70
     0
  4
"
 41
3.5
 42
1.0
 43
10.0
 44
1.0
 47
0.1
 48
0.1
 73
     0
 74
     0
 77
     1
 78
     8
 79
     2
140
3.5
141
0.0
143
0.0393701
146
0.71
147
1.5
172
     1
176
   256
177
   256
178
     2
271
     2
272
     3
274
     4
283
     0
284
     8
340
11
371
    -1
372
    -1
1001
ACAD_DSTYLE_DIMJOGGED_JOGANGLE_SYMBOL
1070
   384
1040
1.570796326794896
1001
ACAD_DSTYLE_DIM_LINETYPE
1070
   380
1005
14
1001
ACAD_DSTYLE_DIM_EXT1_LINETYPE
1070
   381
1005
14
1001
ACAD_DSTYLE_DIM_EXT2_LINETYPE
1070
   382
1005
14
  0
DIMSTYLE
105
3F2
102
{ACAD_REACTORS
330
460
330
461
330
462
330
463
330
465
330
4D2
330
4D3
330
4D4
330
4D5
330
4D7
330
8BA
102
}
330
A
100
AcDbSymbolTableRecord
100
AcDbDimStyleTableRecord
  2
AM_DIN$0
 70
     0
  4
"
 41
3.5
 42
1.0
 43
10.0
 44
1.0
 47
0.1
 48
0.1
 73
     0
 74
     0
 77
     1
 78
     8
 79
     2
140
3.5
141
0.0
143
0.0393701
146
0.71
147
1.5
172
     1
176
   256
177
   256
178
     2
271
     2
272
     3
274
     4
283
     0
284
     8
340
11
371
    -1
372
    -1
1001
ACAD_DSTYLE_DIMJOGGED_JOGANGLE_SYMBOL
1070
   384
1040
1.570796326794896
1001
ACAD_DSTYLE_DIM_LINETYPE
1070
   380
1005
14
1001
ACAD_DSTYLE_DIM_EXT1_LINETYPE
1070
   381
1005
14
1001
ACAD_DSTYLE_DIM_EXT2_LINETYPE
1070
   382
1005
14
  0
DIMSTYLE
105
5E0
102
{ACAD_REACTORS
330
660
330
661
330
5F5
330
5F6
330
5F7
330
600
330
602
330
603
330
604
330
605
330
619
330
636
330
646
330
654
102
}
330
A
100
AcDbSymbolTableRecord
100
AcDbDimStyleTableRecord
  2
GEN-ISO
 70
     0
  3
<>
  4
"
 40
20.0
 41
2.5
 42
1.0
 43
7.0
 44
1.0
 47
0.1
 48
0.1
 73
     0
 74
     0
 77
     1
 78
     8
140
3.5
141
0.0
143
0.0393701
146
0.71
147
0.6
172
     1
176
   256
177
   256
178
     2
271
     2
272
     3
274
     4
283
     0
340
11
  0
DIMSTYLE
105
5E1
330
A
100
AcDbSymbolTableRecord
100
AcDbDimStyleTableRecord
  2
AM_DIN$3
 70
     0
  4
"
 41
2.5
 42
1.0
 43
10.0
 44
1.0
 47
0.1
 48
0.1
 73
     0
 77
     1
 78
     8
 79
     2
140
3.5
141
0.0
143
0.0393701
146
0.71
147
1.5
176
   256
177
   256
178
     2
271
     2
272
     3
274
     4
283
     0
284
     8
288
     1
289
     0
340
11
371
    -1
372
    -1
1001
ACAD_DSTYLE_DIMJOGGED_JOGANGLE_SYMBOL
1070
   384
1040
1.570796326794896
  0
DIMSTYLE
105
5E2
330
A
100
AcDbSymbolTableRecord
100
AcDbDimStyleTableRecord
  2
AM_DIN$4
 70
     0
  4
"
 41
2.5
 42
1.0
 43
10.0
 44
1.0
 47
0.1
 48
0.1
 73
     0
 77
     1
 78
     8
 79
     2
140
3.5
141
0.0
143
0.0393701
146
0.71
147
1.5
176
   256
177
   256
178
     2
271
     2
272
     3
274
     4
283
     0
284
     8
288
     1
289
     0
340
11
371
    -1
372
    -1
1001
ACAD_DSTYLE_DIMJOGGED_JOGANGLE_SYMBOL
1070
   384
1040
1.570796326794896
  0
DIMSTYLE
105
5E3
330
A
100
AcDbSymbolTableRecord
100
AcDbDimStyleTableRecord
  2
AM_DIN$6
 70
     0
  4
"
 41
2.5
 42
1.0
 43
10.0
 44
1.0
 47
0.1
 48
0.1
 73
     0
 74
     0
 78
     8
 79
     2
140
3.5
141
0.0
143
0.0393701
146
0.71
147
1.5
172
     1
176
   256
177
   256
178
     2
271
     2
272
     3
274
     4
283
     0
284
     8
340
11
371
    -1
372
    -1
1001
ACAD_DSTYLE_DIMJOGGED_JOGANGLE_SYMBOL
1070
   384
1040
1.570796326794896
  0
DIMSTYLE
105
5E4
330
A
100
AcDbSymbolTableRecord
100
AcDbDimStyleTableRecord
  2
AM_DIN$7
 70
     0
  4
"
 41
2.5
 42
1.0
 43
10.0
 44
1.0
 47
0.1
 48
0.1
 73
     0
 74
     0
 77
     1
 78
     8
 79
     2
140
5.0
141
0.0
143
0.0393701
146
0.71
147
1.5
172
     1
176
   256
177
   256
178
     2
271
     2
272
     3
274
     4
283
     0
284
     8
340
11
371
    -1
372
    -1
1001
ACAD_DSTYLE_DIMJOGGED_JOGANGLE_SYMBOL
1070
   384
1040
1.570796326794896
  0
DIMSTYLE
105
5E5
330
A
100
AcDbSymbolTableRecord
100
AcDbDimStyleTableRecord
  2
AM_DIN$SF
 70
     0
  4
"
 41
2.5
 42
1.0
 43
10.0
 44
1.0
 47
0.1
 48
0.1
 73
     0
 74
     0
 75
     1
 76
     1
 77
     1
 78
     8
 79
     2
140
3.5
141
0.0
143
0.0393701
146
0.71
147
1.5
172
     1
176
   256
177
   256
178
     2
271
     2
272
     3
274
     4
283
     0
284
     8
340
11
371
    -1
372
    -1
1001
ACAD_DSTYLE_DIMJOGGED_JOGANGLE_SYMBOL
1070
   384
1040
1.570796326794896
  0
DIMSTYLE
105
5E6
330
A
100
AcDbSymbolTableRecord
100
AcDbDimStyleTableRecord
  2
AM_DIN$SH
 70
     0
  4
"
 41
2.5
 42
1.0
 43
10.0
 44
1.0
 47
0.1
 48
0.1
 73
     0
 74
     0
 75
     1
 76
     1
 77
     1
 78
     8
 79
     2
140
3.5
141
0.0
143
0.0393701
144
2.0
146
0.71
147
1.5
172
     1
173
     1
176
   256
177
   256
178
     2
271
     2
272
     3
274
     4
283
     0
284
     8
340
11
343
87
371
    -1
372
    -1
1001
ACAD_DSTYLE_DIMJOGGED_JOGANGLE_SYMBOL
1070
   384
1040
1.570796326794896
  0
DIMSTYLE
105
5E7
102
{ACAD_REACTORS
330
660
330
661
330
5F5
330
5F6
330
5F7
330
600
330
602
330
603
330
604
330
605
330
619
330
636
330
646
330
654
102
}
330
A
100
AcDbSymbolTableRecord
100
AcDbDimStyleTableRecord
  2
GEN-ISO$0
 70
     0
  3
<>
  4
"
 40
20.0
 41
2.5
 42
1.0
 43
7.0
 44
1.0
 47
0.1
 48
0.1
 73
     0
 74
     0
 77
     1
 78
     8
140
3.5
141
0.0
143
0.0393701
146
0.71
147
0.6
172
     1
176
   256
177
   256
178
     2
271
     2
272
     3
274
     4
283
     0
340
11
  0
ENDTAB
  0
TABLE
  2
BLOCK_RECORD
  5
1
330
0
100
AcDbSymbolTable
 70
    55
  0
BLOCK_RECORD
  5
1F
102
{ACAD_XDICTIONARY
360
8F
102
}
330
1
100
AcDbSymbolTableRecord
100
AcDbBlockTableRecord
  2
*Model_Space
340
22
  0
BLOCK_RECORD
  5
1B
330
1
100
AcDbSymbolTableRecord
100
AcDbBlockTableRecord
  2
*Paper_Space
340
1E
  0
BLOCK_RECORD
  5
23
330
1
100
AcDbSymbolTableRecord
100
AcDbBlockTableRecord
  2
*Paper_Space0
340
26
  0
BLOCK_RECORD
  5
87
330
1
100
AcDbSymbolTableRecord
100
AcDbBlockTableRecord
  2
GENAXEH
340
0
  0
BLOCK_RECORD
  5
3AE
330
1
100
AcDbSymbolTableRecord
100
AcDbBlockTableRecord
  2
*D3
340
0
  0
BLOCK_RECORD
  5
3BA
330
1
100
AcDbSymbolTableRecord
100
AcDbBlockTableRecord
  2
*D4
340
0
  0
BLOCK_RECORD
  5
3C6
330
1
100
AcDbSymbolTableRecord
100
AcDbBlockTableRecord
  2
*D5
340
0
  0
BLOCK_RECORD
  5
3D2
330
1
100
AcDbSymbolTableRecord
100
AcDbBlockTableRecord
  2
*D6
340
0
  0
BLOCK_RECORD
  5
3DE
330
1
100
AcDbSymbolTableRecord
100
AcDbBlockTableRecord
  2
*D7
340
0
  0
BLOCK_RECORD
  5
4DC
330
1
100
AcDbSymbolTableRecord
100
AcDbBlockTableRecord
  2
*D9
340
0
  0
BLOCK_RECORD
  5
4E8
330
1
100
AcDbSymbolTableRecord
100
AcDbBlockTableRecord
  2
*D10
340
0
  0
BLOCK_RECORD
  5
4F4
330
1
100
AcDbSymbolTableRecord
100
AcDbBlockTableRecord
  2
*D11
340
0
  0
BLOCK_RECORD
  5
500
330
1
100
AcDbSymbolTableRecord
100
AcDbBlockTableRecord
  2
*D12
340
0
  0
BLOCK_RECORD
  5
50C
330
1
100
AcDbSymbolTableRecord
100
AcDbBlockTableRecord
  2
*D13
340
0
  0
BLOCK_RECORD
  5
519
330
1
100
AcDbSymbolTableRecord
100
AcDbBlockTableRecord
  2
GENPOS14
340
0
102
{BLKREFS
331
606
331
649
102
}
  0
BLOCK_RECORD
  5
525
330
1
100
AcDbSymbolTableRecord
100
AcDbBlockTableRecord
  2
*D15
340
0
  0
BLOCK_RECORD
  5
531
330
1
100
AcDbSymbolTableRecord
100
AcDbBlockTableRecord
  2
*D16
340
0
  0
BLOCK_RECORD
  5
53D
330
1
100
AcDbSymbolTableRecord
100
AcDbBlockTableRecord
  2
*D17
340
0
  0
BLOCK_RECORD
  5
549
330
1
100
AcDbSymbolTableRecord
100
AcDbBlockTableRecord
  2
*D18
340
0
  0
BLOCK_RECORD
  5
555
330
1
100
AcDbSymbolTableRecord
100
AcDbBlockTableRecord
  2
*D19
340
0
  0
BLOCK_RECORD
  5
561
330
1
100
AcDbSymbolTableRecord
100
AcDbBlockTableRecord
  2
*D20
340
0
  0
BLOCK_RECORD
  5
56D
330
1
100
AcDbSymbolTableRecord
100
AcDbBlockTableRecord
  2
*D21
340
0
  0
BLOCK_RECORD
  5
579
330
1
100
AcDbSymbolTableRecord
100
AcDbBlockTableRecord
  2
*D22
340
0
  0
BLOCK_RECORD
  5
585
330
1
100
AcDbSymbolTableRecord
100
AcDbBlockTableRecord
  2
*D23
340
0
  0
BLOCK_RECORD
  5
591
330
1
100
AcDbSymbolTableRecord
100
AcDbBlockTableRecord
  2
*D24
340
0
  0
BLOCK_RECORD
  5
59D
330
1
100
AcDbSymbolTableRecord
100
AcDbBlockTableRecord
  2
*D25
340
0
  0
BLOCK_RECORD
  5
5A9
330
1
100
AcDbSymbolTableRecord
100
AcDbBlockTableRecord
  2
*D26
340
0
  0
BLOCK_RECORD
  5
5B7
330
1
100
AcDbSymbolTableRecord
100
AcDbBlockTableRecord
  2
*D27
340
0
  0
BLOCK_RECORD
  5
5C3
330
1
100
AcDbSymbolTableRecord
100
AcDbBlockTableRecord
  2
*D28
340
0
  0
BLOCK_RECORD
  5
6F5
330
1
100
AcDbSymbolTableRecord
100
AcDbBlockTableRecord
  2
*D30
340
0
  0
BLOCK_RECORD
  5
701
330
1
100
AcDbSymbolTableRecord
100
AcDbBlockTableRecord
  2
*D31
340
0
  0
BLOCK_RECORD
  5
70D
330
1
100
AcDbSymbolTableRecord
100
AcDbBlockTableRecord
  2
*D32
340
0
  0
BLOCK_RECORD
  5
719
330
1
100
AcDbSymbolTableRecord
100
AcDbBlockTableRecord
  2
*D33
340
0
  0
BLOCK_RECORD
  5
725
330
1
100
AcDbSymbolTableRecord
100
AcDbBlockTableRecord
  2
*D34
340
0
  0
BLOCK_RECORD
  5
731
330
1
100
AcDbSymbolTableRecord
100
AcDbBlockTableRecord
  2
*D35
340
0
  0
BLOCK_RECORD
  5
73D
330
1
100
AcDbSymbolTableRecord
100
AcDbBlockTableRecord
  2
*D36
340
0
  0
BLOCK_RECORD
  5
749
330
1
100
AcDbSymbolTableRecord
100
AcDbBlockTableRecord
  2
*D37
340
0
  0
BLOCK_RECORD
  5
755
330
1
100
AcDbSymbolTableRecord
100
AcDbBlockTableRecord
  2
*D38
340
0
  0
BLOCK_RECORD
  5
761
330
1
100
AcDbSymbolTableRecord
100
AcDbBlockTableRecord
  2
*D39
340
0
  0
BLOCK_RECORD
  5
76D
330
1
100
AcDbSymbolTableRecord
100
AcDbBlockTableRecord
  2
*D40
340
0
  0
BLOCK_RECORD
  5
779
330
1
100
AcDbSymbolTableRecord
100
AcDbBlockTableRecord
  2
*D41
340
0
  0
BLOCK_RECORD
  5
787
330
1
100
AcDbSymbolTableRecord
100
AcDbBlockTableRecord
  2
*D42
340
0
  0
BLOCK_RECORD
  5
793
330
1
100
AcDbSymbolTableRecord
100
AcDbBlockTableRecord
  2
*D43
340
0
  0
BLOCK_RECORD
  5
79F
330
1
100
AcDbSymbolTableRecord
100
AcDbBlockTableRecord
  2
*D44
340
0
  0
BLOCK_RECORD
  5
7B7
330
1
100
AcDbSymbolTableRecord
100
AcDbBlockTableRecord
  2
*D45
340
0
  0
BLOCK_RECORD
  5
7C3
330
1
100
AcDbSymbolTableRecord
100
AcDbBlockTableRecord
  2
*D46
340
0
  0
BLOCK_RECORD
  5
90F
330
1
100
AcDbSymbolTableRecord
100
AcDbBlockTableRecord
  2
*D48
340
0
  0
BLOCK_RECORD
  5
91B
330
1
100
AcDbSymbolTableRecord
100
AcDbBlockTableRecord
  2
*D49
340
0
  0
BLOCK_RECORD
  5
9BF
330
1
100
AcDbSymbolTableRecord
100
AcDbBlockTableRecord
  2
befestigung
340
0
310
2800000020000000200000000100080000000000000400000000000000000000000000000000000000000000000080000080000000808000800000008000800080800000C0C0C000C0DCC000F0CAA6000020400000206000002080000020A0000020C0000020E00000400000004020000040400000406000004080000040A0
310
000040C0000040E00000600000006020000060400000606000006080000060A0000060C0000060E00000800000008020000080400000806000008080000080A0000080C0000080E00000A0000000A0200000A0400000A0600000A0800000A0A00000A0C00000A0E00000C0000000C0200000C0400000C0600000C0800000C0
310
A00000C0C00000C0E00000E0000000E0200000E0400000E0600000E0800000E0A00000E0C00000E0E00040000000400020004000400040006000400080004000A0004000C0004000E00040200000402020004020400040206000402080004020A0004020C0004020E000404000004040200040404000404060004040800040
310
40A0004040C0004040E00040600000406020004060400040606000406080004060A0004060C0004060E00040800000408020004080400040806000408080004080A0004080C0004080E00040A0000040A0200040A0400040A0600040A0800040A0A00040A0C00040A0E00040C0000040C0200040C0400040C0600040C08000
310
40C0A00040C0C00040C0E00040E0000040E0200040E0400040E0600040E0800040E0A00040E0C00040E0E00080000000800020008000400080006000800080008000A0008000C0008000E00080200000802020008020400080206000802080008020A0008020C0008020E00080400000804020008040400080406000804080
310
008040A0008040C0008040E00080600000806020008060400080606000806080008060A0008060C0008060E00080800000808020008080400080806000808080008080A0008080C0008080E00080A0000080A0200080A0400080A0600080A0800080A0A00080A0C00080A0E00080C0000080C0200080C0400080C0600080C0
310
800080C0A00080C0C00080C0E00080E0000080E0200080E0400080E0600080E0800080E0A00080E0C00080E0E000C0000000C0002000C0004000C0006000C0008000C000A000C000C000C000E000C0200000C0202000C0204000C0206000C0208000C020A000C020C000C020E000C0400000C0402000C0404000C0406000C0
310
408000C040A000C040C000C040E000C0600000C0602000C0604000C0606000C0608000C060A000C060C000C060E000C0800000C0802000C0804000C0806000C0808000C080A000C080C000C080E000C0A00000C0A02000C0A04000C0A06000C0A08000C0A0A000C0A0C000C0A0E000C0C00000C0C02000C0C04000C0C06000
310
C0C08000C0C0A000F0FBFF00A4A0A000808080000000FF0000FF000000FFFF00FF000000FF00FF00FFFF0000FFFFFF00000000000000000000000000000000000000000000000000000000000000000000000000000000000000000000000000000000000000FF000000000000000000000000000000000000000000000000
310
000000000000FF00FFFFFF00000000000000000000000000000000000000000000000000FFFF0000000000FF0000000000000000000000000000000000000000000000FF00000000000000FF00000000000000000000000000000000000000000000FF000000000000000000FF000000000000000000000000000000000000
310
0000FF00000000000000000000FF00000000000000000000000000000000000000FF0000000000000000000000FF000000000000000000000000000000000000FF0000000000000000000000FF00000000000000000000000000000000FFFFFF0000000000000000000000FF0000000000000000000000FFFFFFFFFF00FFFF
310
FFFFFF00000000000000FFFF0000000000000000000000FFFF000000FF00FFFF000000FFFFFFFFFFFFFF00000000000000000000000000FFFF000000FF00FFFF00000000000000FF000000000000000000000000000000FFFFFFFFFFFF00FFFF00000000000000FF3030303030FFFF0000000000000000FFFF000000FF00FF
310
FF00000000000000FF0000000000FFFF0000000000000000FFFF000000FF00FFFF00000000000000FF0000000000FFFF000000000000E8E8FFFFE8E8E8E8E8FFFFE8E8E8E8E8E8E8FFE8E8E8E8E8FFFFE8E8000000000000FFFF000000FF00FFFF00000000000000FF0000000000FFFF0000000000000000FFFFFFFFFFFF00
310
FFFF00000000000000FFFFFFFFFFFFFFFF0000000000000000FFFF000000FF00FFFF00000000000000FF000000000000000000000000000000FFFF000000FF00FFFF00000000FFFFFFFFFF000000000000000000000000000000FFFFFFFFFF00FFFFFFFFFFFF0000000000FFFFFF0000000000000000000000000000000000
310
00FFFFFF0000000000000000000000FF0000000000000000000000000000000000000000FF0000000000000000000000FF0000000000000000000000000000000000000000FF0000000000000000000000FF0000000000000000000000000000000000000000FF00000000000000000000FF00000000000000000000000000
310
0000000000000000FF000000000000000000FF00000000000000000000000000000000000000000000FF00000000000000FF000000000000000000000000000000000000000000000000FF000000000000FF00000000000000000000000000000000000000000000000000FFFF0000FFFF0000000000000000000000000000
310
0000000000000000000000000000FFFF00000000000000000000000000000000000000000000000000000000000000000000000000000000
102
{BLKREFS
331
A03
331
A02
331
A08
331
A09
102
}
1001
ACAD
1000
DesignCenter Data
1002
{
1070
     1
1070
     4
1002
}
  0
BLOCK_RECORD
  5
9E3
330
1
100
AcDbSymbolTableRecord
100
AcDbBlockTableRecord
  2
*U52
340
0
102
{BLKREFS
331
9E0
102
}
  0
BLOCK_RECORD
  5
9F1
330
1
100
AcDbSymbolTableRecord
100
AcDbBlockTableRecord
  2
*U53
340
0
102
{BLKREFS
331
9E1
102
}
  0
ENDTAB
  0
ENDSEC
  0
SECTION
  2
BLOCKS
  0
BLOCK
  5
20
330
1F
100
AcDbEntity
  8
0
100
AcDbBlockBegin
  2
*Model_Space
 70
     0
 10
0.0
 20
0.0
 30
0.0
  3
*Model_Space
  1

  0
ENDBLK
  5
21
330
1F
100
AcDbEntity
  8
0
100
AcDbBlockEnd
  0
BLOCK
  5
1C
330
1B
100
AcDbEntity
 67
     1
  8
0
100
AcDbBlockBegin
  2
*Paper_Space
 70
     0
 10
0.0
 20
0.0
 30
0.0
  3
*Paper_Space
  1

  0
ENDBLK
  5
1D
330
1B
100
AcDbEntity
 67
     1
  8
0
100
AcDbBlockEnd
  0
BLOCK
  5
24
330
23
100
AcDbEntity
 67
     1
  8
0
100
AcDbBlockBegin
  2
*Paper_Space0
 70
     0
 10
0.0
 20
0.0
 30
0.0
  3
*Paper_Space0
  1

  0
ENDBLK
  5
25
330
23
100
AcDbEntity
 67
     1
  8
0
100
AcDbBlockEnd
  0
BLOCK
  5
89
330
87
100
AcDbEntity
  8
0
100
AcDbBlockBegin
  2
GENAXEH
 70
     0
 10
0.0
 20
0.0
 30
0.0
  3
GENAXEH
  1

  0
LINE
  5
88
330
87
100
AcDbEntity
  8
0
100
AcDbLine
 10
-1.0
 20
0.0
 30
0.0
 11
1.0
 21
0.0
 31
0.0
  0
ENDBLK
  5
8A
330
87
100
AcDbEntity
  8
0
100
AcDbBlockEnd
  0
BLOCK
  5
3AF
330
3AE
100
AcDbEntity
  8
0
100
AcDbBlockBegin
  2
*D3
 70
     1
 10
0.0
 20
0.0
 30
0.0
  3
*D3
  1

  0
LINE
  5
3B0
330
3AE
100
AcDbEntity
  8
AM_5
  6
ByBlock
100
AcDbLine
 10
3988.141541734448
 20
1322.72706463042
 30
0.0
 11
4110.42522938368
 21
1322.72706463042
 31
0.0
  0
LINE
  5
3B1
330
3AE
100
AcDbEntity
  8
AM_5
  6
ByBlock
100
AcDbLine
 10
4011.128398876972
 20
1449.654493202265
 30
0.0
 11
4110.42522938368
 21
1449.654493202265
 31
0.0
  0
LINE
  5
3B2
330
3AE
100
AcDbEntity
  8
AM_5
  6
ByBlock
100
AcDbLine
 10
4109.425229383679
 20
1329.72706463042
 30
0.0
 11
4109.425229383679
 21
1442.654493202265
 31
0.0
  0
SOLID
  5
3B3
330
3AE
100
AcDbEntity
  8
AM_5
100
AcDbTrace
 10
4108.258562717013
 20
1329.72706463042
 30
0.0
 11
4110.591896050347
 21
1329.72706463042
 31
0.0
 12
4109.425229383679
 22
1322.72706463042
 32
0.0
 13
4109.425229383679
 23
1322.72706463042
 33
0.0
  0
SOLID
  5
3B4
330
3AE
100
AcDbEntity
  8
AM_5
100
AcDbTrace
 10
4108.258562717013
 20
1442.654493202265
 30
0.0
 11
4110.591896050347
 21
1442.654493202265
 31
0.0
 12
4109.425229383679
 22
1449.654493202265
 32
0.0
 13
4109.425229383679
 23
1449.654493202265
 33
0.0
  0
MTEXT
  5
3B5
330
3AE
100
AcDbEntity
  8
AM_5
 62
     2
100
AcDbMText
 10
4102.925229383679
 20
1386.190778916343
 30
0.0
 40
10.0
 41
0.0
 71
     5
 72
     1
  1
105-160
 11
0.0000000000000001
 21
1.0
 31
0.0
 73
     1
 44
1.0
1001
ACAD
1000
MTEXTBEGIN
1070
    73
1070
     1
1070
    44
1040
1.0
1070
    74
1070
     0
1000
MTEXTEND
  0
POINT
  5
3B6
330
3AE
100
AcDbEntity
  8
Defpoints
 62
     0
100
AcDbPoint
 10
3987.141541734447
 20
1322.72706463042
 30
0.0
  0
POINT
  5
3B7
330
3AE
100
AcDbEntity
  8
Defpoints
 62
     0
100
AcDbPoint
 10
4010.128398876972
 20
1449.654493202265
 30
0.0
  0
POINT
  5
3B8
330
3AE
100
AcDbEntity
  8
Defpoints
 62
     0
100
AcDbPoint
 10
4109.425229383679
 20
1449.654493202265
 30
0.0
  0
ENDBLK
  5
3B9
330
3AE
100
AcDbEntity
  8
0
100
AcDbBlockEnd
  0
BLOCK
  5
3BB
330
3BA
100
AcDbEntity
  8
0
100
AcDbBlockBegin
  2
*D4
 70
     1
 10
0.0
 20
0.0
 30
0.0
  3
*D4
  1

  0
LINE
  5
3BC
330
3BA
100
AcDbEntity
  8
AM_5
  6
ByBlock
100
AcDbLine
 10
4011.928398877564
 20
1073.55633539516
 30
0.0
 11
4097.106396816323
 21
1073.55633539516
 31
0.0
  0
LINE
  5
3BD
330
3BA
100
AcDbEntity
  8
AM_5
  6
ByBlock
100
AcDbLine
 10
4011.928398877564
 20
1206.55633539516
 30
0.0
 11
4097.106396816323
 21
1206.55633539516
 31
0.0
  0
LINE
  5
3BE
330
3BA
100
AcDbEntity
  8
AM_5
  6
ByBlock
100
AcDbLine
 10
4096.106396816323
 20
1080.55633539516
 30
0.0
 11
4096.106396816323
 21
1199.55633539516
 31
0.0
  0
SOLID
  5
3BF
330
3BA
100
AcDbEntity
  8
AM_5
100
AcDbTrace
 10
4094.939730149657
 20
1080.55633539516
 30
0.0
 11
4097.27306348299
 21
1080.55633539516
 31
0.0
 12
4096.106396816323
 22
1073.55633539516
 32
0.0
 13
4096.106396816323
 23
1073.55633539516
 33
0.0
  0
SOLID
  5
3C0
330
3BA
100
AcDbEntity
  8
AM_5
100
AcDbTrace
 10
4094.939730149657
 20
1199.55633539516
 30
0.0
 11
4097.27306348299
 21
1199.55633539516
 31
0.0
 12
4096.106396816323
 22
1206.55633539516
 32
0.0
 13
4096.106396816323
 23
1206.55633539516
 33
0.0
  0
MTEXT
  5
3C1
330
3BA
100
AcDbEntity
  8
AM_5
 62
     2
100
AcDbMText
 10
4089.606396816323
 20
1140.05633539516
 30
0.0
 40
10.0
 41
0.0
 71
     5
 72
     1
  1
133
 11
0.0000000000000001
 21
1.0
 31
0.0
 73
     1
 44
1.0
1001
ACAD
1000
MTEXTBEGIN
1070
    73
1070
     1
1070
    44
1040
1.0
1070
    74
1070
     0
1000
MTEXTEND
  0
POINT
  5
3C2
330
3BA
100
AcDbEntity
  8
Defpoints
 62
     0
100
AcDbPoint
 10
4010.928398877564
 20
1073.55633539516
 30
0.0
  0
POINT
  5
3C3
330
3BA
100
AcDbEntity
  8
Defpoints
 62
     0
100
AcDbPoint
 10
4010.928398877564
 20
1206.55633539516
 30
0.0
  0
POINT
  5
3C4
330
3BA
100
AcDbEntity
  8
Defpoints
 62
     0
100
AcDbPoint
 10
4096.106396816323
 20
1206.55633539516
 30
0.0
  0
ENDBLK
  5
3C5
330
3BA
100
AcDbEntity
  8
0
100
AcDbBlockEnd
  0
BLOCK
  5
3C7
330
3C6
100
AcDbEntity
  8
0
100
AcDbBlockBegin
  2
*D5
 70
     1
 10
0.0
 20
0.0
 30
0.0
  3
*D5
  1

  0
LINE
  5
3C8
330
3C6
100
AcDbEntity
  8
AM_5
  6
ByBlock
100
AcDbLine
 10
3991.139256020081
 20
1183.05633539516
 30
0.0
 11
3991.139256020081
 21
1244.092321268507
 31
0.0
  0
LINE
  5
3C9
330
3C6
100
AcDbEntity
  8
AM_5
  6
ByBlock
100
AcDbLine
 10
3291.139256020081
 20
1205.556906823897
 30
0.0
 11
3291.139256020081
 21
1244.092321268507
 31
0.0
  0
LINE
  5
3CA
330
3C6
100
AcDbEntity
  8
AM_5
  6
ByBlock
100
AcDbLine
 10
3984.139256020081
 20
1243.092321268507
 30
0.0
 11
3298.139256020081
 21
1243.092321268507
 31
0.0
  0
SOLID
  5
3CB
330
3C6
100
AcDbEntity
  8
AM_5
100
AcDbTrace
 10
3984.139256020081
 20
1244.258987935174
 30
0.0
 11
3984.139256020081
 21
1241.92565460184
 31
0.0
 12
3991.139256020081
 22
1243.092321268507
 32
0.0
 13
3991.139256020081
 23
1243.092321268507
 33
0.0
  0
SOLID
  5
3CC
330
3C6
100
AcDbEntity
  8
AM_5
100
AcDbTrace
 10
3298.139256020081
 20
1244.258987935174
 30
0.0
 11
3298.139256020081
 21
1241.92565460184
 31
0.0
 12
3291.139256020081
 22
1243.092321268507
 32
0.0
 13
3291.139256020081
 23
1243.092321268507
 33
0.0
  0
MTEXT
  5
3CD
330
3C6
100
AcDbEntity
  8
AM_5
 62
     2
100
AcDbMText
 10
3641.139256020081
 20
1249.592321268507
 30
0.0
 40
10.0
 41
0.0
 71
     5
 72
     1
  1
700
 73
     1
 44
1.0
1001
ACAD
1000
MTEXTBEGIN
1070
    73
1070
     1
1070
    44
1040
1.0
1070
    74
1070
     0
1000
MTEXTEND
  0
POINT
  5
3CE
330
3C6
100
AcDbEntity
  8
Defpoints
 62
     0
100
AcDbPoint
 10
3991.139256020081
 20
1182.05633539516
 30
0.0
  0
POINT
  5
3CF
330
3C6
100
AcDbEntity
  8
Defpoints
 62
     0
100
AcDbPoint
 10
3291.139256020081
 20
1204.556906823897
 30
0.0
  0
POINT
  5
3D0
330
3C6
100
AcDbEntity
  8
Defpoints
 62
     0
100
AcDbPoint
 10
3291.139256020081
 20
1243.092321268507
 30
0.0
  0
ENDBLK
  5
3D1
330
3C6
100
AcDbEntity
  8
0
100
AcDbBlockEnd
  0
BLOCK
  5
3D3
330
3D2
100
AcDbEntity
  8
0
100
AcDbBlockBegin
  2
*D6
 70
     1
 10
0.0
 20
0.0
 30
0.0
  3
*D6
  1

  0
LINE
  5
3D4
330
3D2
100
AcDbEntity
  8
AM_5
  6
ByBlock
100
AcDbLine
 10
4010.928398877564
 20
1204.556906823897
 30
0.0
 11
4010.928398877564
 21
1277.294871425308
 31
0.0
  0
LINE
  5
3D5
330
3D2
100
AcDbEntity
  8
AM_5
  6
ByBlock
100
AcDbLine
 10
3258.358113163185
 20
1204.556906823898
 30
0.0
 11
3258.358113163185
 21
1277.294871425308
 31
0.0
  0
LINE
  5
3D6
330
3D2
100
AcDbEntity
  8
AM_5
  6
ByBlock
100
AcDbLine
 10
4003.928398877564
 20
1276.294871425308
 30
0.0
 11
3265.358113163185
 21
1276.294871425308
 31
0.0
  0
SOLID
  5
3D7
330
3D2
100
AcDbEntity
  8
AM_5
100
AcDbTrace
 10
4003.928398877564
 20
1277.461538091975
 30
0.0
 11
4003.928398877564
 21
1275.128204758641
 31
0.0
 12
4010.928398877564
 22
1276.294871425308
 32
0.0
 13
4010.928398877564
 23
1276.294871425308
 33
0.0
  0
SOLID
  5
3D8
330
3D2
100
AcDbEntity
  8
AM_5
100
AcDbTrace
 10
3265.358113163185
 20
1277.461538091975
 30
0.0
 11
3265.358113163185
 21
1275.128204758641
 31
0.0
 12
3258.358113163185
 22
1276.294871425308
 32
0.0
 13
3258.358113163185
 23
1276.294871425308
 33
0.0
  0
MTEXT
  5
3D9
330
3D2
100
AcDbEntity
  8
AM_5
 62
     2
100
AcDbMText
 10
3641.139256020081
 20
1282.794871425308
 30
0.0
 40
10.0
 41
0.0
 71
     5
 72
     1
  1
753
 73
     1
 44
1.0
1001
ACAD
1000
MTEXTBEGIN
1070
    73
1070
     1
1070
    44
1040
1.0
1070
    74
1070
     0
1000
MTEXTEND
  0
POINT
  5
3DA
330
3D2
100
AcDbEntity
  8
Defpoints
 62
     0
100
AcDbPoint
 10
4010.928398877564
 20
1203.556906823897
 30
0.0
  0
POINT
  5
3DB
330
3D2
100
AcDbEntity
  8
Defpoints
 62
     0
100
AcDbPoint
 10
3258.358113163185
 20
1203.556906823898
 30
0.0
  0
POINT
  5
3DC
330
3D2
100
AcDbEntity
  8
Defpoints
 62
     0
100
AcDbPoint
 10
3258.358113163185
 20
1276.294871425308
 30
0.0
  0
ENDBLK
  5
3DD
330
3D2
100
AcDbEntity
  8
0
100
AcDbBlockEnd
  0
BLOCK
  5
3DF
330
3DE
100
AcDbEntity
  8
0
100
AcDbBlockBegin
  2
*D7
 70
     1
 10
0.0
 20
0.0
 30
0.0
  3
*D7
  1

  0
LINE
  5
3E0
330
3DE
100
AcDbEntity
  8
AM_5
  6
ByBlock
100
AcDbLine
 10
4011.928398877564
 20
1098.05633539516
 30
0.0
 11
4068.648752674661
 21
1098.05633539516
 31
0.0
  0
LINE
  5
3E1
330
3DE
100
AcDbEntity
  8
AM_5
  6
ByBlock
100
AcDbLine
 10
3989.940398877565
 20
1182.05633539516
 30
0.0
 11
4068.648752674661
 21
1182.05633539516
 31
0.0
  0
LINE
  5
3E2
330
3DE
100
AcDbEntity
  8
AM_5
  6
ByBlock
100
AcDbLine
 10
4067.648752674661
 20
1105.05633539516
 30
0.0
 11
4067.648752674661
 21
1175.05633539516
 31
0.0
  0
SOLID
  5
3E3
330
3DE
100
AcDbEntity
  8
AM_5
100
AcDbTrace
 10
4066.482086007995
 20
1105.05633539516
 30
0.0
 11
4068.815419341328
 21
1105.05633539516
 31
0.0
 12
4067.648752674661
 22
1098.05633539516
 32
0.0
 13
4067.648752674661
 23
1098.05633539516
 33
0.0
  0
SOLID
  5
3E4
330
3DE
100
AcDbEntity
  8
AM_5
100
AcDbTrace
 10
4066.482086007995
 20
1175.05633539516
 30
0.0
 11
4068.815419341328
 21
1175.05633539516
 31
0.0
 12
4067.648752674661
 22
1182.05633539516
 32
0.0
 13
4067.648752674661
 23
1182.05633539516
 33
0.0
  0
MTEXT
  5
3E5
330
3DE
100
AcDbEntity
  8
AM_5
 62
     2
100
AcDbMText
 10
4061.14875267466
 20
1140.05633539516
 30
0.0
 40
10.0
 41
0.0
 71
     5
 72
     1
  1
84
 11
0.0000000000000001
 21
1.0
 31
0.0
 73
     1
 44
1.0
1001
ACAD
1000
MTEXTBEGIN
1070
    73
1070
     1
1070
    44
1040
1.0
1070
    74
1070
     0
1000
MTEXTEND
  0
POINT
  5
3E6
330
3DE
100
AcDbEntity
  8
Defpoints
 62
     0
100
AcDbPoint
 10
4010.928398877564
 20
1098.05633539516
 30
0.0
  0
POINT
  5
3E7
330
3DE
100
AcDbEntity
  8
Defpoints
 62
     0
100
AcDbPoint
 10
3988.940398877566
 20
1182.05633539516
 30
0.0
  0
POINT
  5
3E8
330
3DE
100
AcDbEntity
  8
Defpoints
 62
     0
100
AcDbPoint
 10
4067.648752674661
 20
1182.05633539516
 30
0.0
  0
ENDBLK
  5
3E9
330
3DE
100
AcDbEntity
  8
0
100
AcDbBlockEnd
  0
BLOCK
  5
4DD
330
4DC
100
AcDbEntity
  8
0
100
AcDbBlockBegin
  2
*D9
 70
     1
 10
0.0
 20
0.0
 30
0.0
  3
*D9
  1

  0
LINE
  5
4DF
330
4DC
100
AcDbEntity
  8
AM_5
  6
ByBlock
100
AcDbLine
 10
729.7834287527298
 20
275.7555291756123
 30
0.0
 11
852.0671164019622
 21
275.7555291756123
 31
0.0
  0
LINE
  5
4E0
330
4DC
100
AcDbEntity
  8
AM_5
  6
ByBlock
100
AcDbLine
 10
752.7702858952547
 20
402.6829577474575
 30
0.0
 11
852.0671164019622
 21
402.6829577474575
 31
0.0
  0
LINE
  5
4E1
330
4DC
100
AcDbEntity
  8
AM_5
  6
ByBlock
100
AcDbLine
 10
851.0671164019623
 20
282.7555291756123
 30
0.0
 11
851.0671164019623
 21
395.6829577474575
 31
0.0
  0
SOLID
  5
4E2
330
4DC
100
AcDbEntity
  8
AM_5
100
AcDbTrace
 10
849.9004497352956
 20
282.7555291756123
 30
0.0
 11
852.2337830686289
 21
282.7555291756123
 31
0.0
 12
851.0671164019623
 22
275.7555291756123
 32
0.0
 13
851.0671164019623
 23
275.7555291756123
 33
0.0
  0
SOLID
  5
4E3
330
4DC
100
AcDbEntity
  8
AM_5
100
AcDbTrace
 10
849.9004497352956
 20
395.6829577474575
 30
0.0
 11
852.2337830686289
 21
395.6829577474575
 31
0.0
 12
851.0671164019623
 22
402.6829577474575
 32
0.0
 13
851.0671164019623
 23
402.6829577474575
 33
0.0
  0
MTEXT
  5
4E4
330
4DC
100
AcDbEntity
  8
AM_5
 62
     2
100
AcDbMText
 10
844.5671164019621
 20
339.219243461535
 30
0.0
 40
10.0
 41
0.0
 71
     5
 72
     1
  1
105-160
 11
0.0000000000000001
 21
1.0
 31
0.0
 73
     1
 44
1.0
1001
ACAD
1000
MTEXTBEGIN
1070
    73
1070
     1
1070
    44
1040
1.0
1070
    74
1070
     0
1000
MTEXTEND
  0
POINT
  5
4E5
330
4DC
100
AcDbEntity
  8
Defpoints
 62
     0
100
AcDbPoint
 10
728.7834287527298
 20
275.7555291756123
 30
0.0
  0
POINT
  5
4E6
330
4DC
100
AcDbEntity
  8
Defpoints
 62
     0
100
AcDbPoint
 10
751.7702858952548
 20
402.6829577474575
 30
0.0
  0
POINT
  5
4E7
330
4DC
100
AcDbEntity
  8
Defpoints
 62
     0
100
AcDbPoint
 10
851.0671164019623
 20
402.6829577474575
 30
0.0
  0
ENDBLK
  5
4DE
330
4DC
100
AcDbEntity
  8
0
100
AcDbBlockEnd
  0
BLOCK
  5
4E9
330
4E8
100
AcDbEntity
  8
0
100
AcDbBlockBegin
  2
*D10
 70
     1
 10
0.0
 20
0.0
 30
0.0
  3
*D10
  1

  0
LINE
  5
4EB
330
4E8
100
AcDbEntity
  8
AM_5
  6
ByBlock
100
AcDbLine
 10
753.5702858958465
 20
26.58479994035247
 30
0.0
 11
838.7482838346059
 21
26.58479994035245
 31
0.0
  0
LINE
  5
4EC
330
4E8
100
AcDbEntity
  8
AM_5
  6
ByBlock
100
AcDbLine
 10
753.5702858958465
 20
159.5847999403524
 30
0.0
 11
838.7482838346059
 21
159.5847999403524
 31
0.0
  0
LINE
  5
4ED
330
4E8
100
AcDbEntity
  8
AM_5
  6
ByBlock
100
AcDbLine
 10
837.7482838346059
 20
33.58479994035245
 30
0.0
 11
837.7482838346059
 21
152.5847999403524
 31
0.0
  0
SOLID
  5
4EE
330
4E8
100
AcDbEntity
  8
AM_5
100
AcDbTrace
 10
836.5816171679393
 20
33.58479994035245
 30
0.0
 11
838.9149505012724
 21
33.58479994035245
 31
0.0
 12
837.7482838346059
 22
26.58479994035245
 32
0.0
 13
837.7482838346059
 23
26.58479994035245
 33
0.0
  0
SOLID
  5
4EF
330
4E8
100
AcDbEntity
  8
AM_5
100
AcDbTrace
 10
836.5816171679393
 20
152.5847999403524
 30
0.0
 11
838.9149505012724
 21
152.5847999403524
 31
0.0
 12
837.7482838346059
 22
159.5847999403524
 32
0.0
 13
837.7482838346059
 23
159.5847999403524
 33
0.0
  0
MTEXT
  5
4F0
330
4E8
100
AcDbEntity
  8
AM_5
 62
     2
100
AcDbMText
 10
831.2482838346058
 20
93.08479994035257
 30
0.0
 40
10.0
 41
0.0
 71
     5
 72
     1
  1
133
 11
0.0000000000000001
 21
1.0
 31
0.0
 73
     1
 44
1.0
1001
ACAD
1000
MTEXTBEGIN
1070
    73
1070
     1
1070
    44
1040
1.0
1070
    74
1070
     0
1000
MTEXTEND
  0
POINT
  5
4F1
330
4E8
100
AcDbEntity
  8
Defpoints
 62
     0
100
AcDbPoint
 10
752.5702858958466
 20
26.58479994035247
 30
0.0
  0
POINT
  5
4F2
330
4E8
100
AcDbEntity
  8
Defpoints
 62
     0
100
AcDbPoint
 10
752.5702858958466
 20
159.5847999403524
 30
0.0
  0
POINT
  5
4F3
330
4E8
100
AcDbEntity
  8
Defpoints
 62
     0
100
AcDbPoint
 10
837.7482838346059
 20
159.5847999403524
 30
0.0
  0
ENDBLK
  5
4EA
330
4E8
100
AcDbEntity
  8
0
100
AcDbBlockEnd
  0
BLOCK
  5
4F5
330
4F4
100
AcDbEntity
  8
0
100
AcDbBlockBegin
  2
*D11
 70
     1
 10
0.0
 20
0.0
 30
0.0
  3
*D11
  1

  0
LINE
  5
4F7
330
4F4
100
AcDbEntity
  8
AM_5
  6
ByBlock
100
AcDbLine
 10
732.7811430383635
 20
136.0847999403524
 30
0.0
 11
732.7811430383635
 21
197.1207858136997
 31
0.0
  0
LINE
  5
4F8
330
4F4
100
AcDbEntity
  8
AM_5
  6
ByBlock
100
AcDbLine
 10
32.78114303836356
 20
158.5853713690894
 30
0.0
 11
32.78114303836356
 21
197.1207858136997
 31
0.0
  0
LINE
  5
4F9
330
4F4
100
AcDbEntity
  8
AM_5
  6
ByBlock
100
AcDbLine
 10
725.7811430383635
 20
196.1207858136997
 30
0.0
 11
39.78114303836355
 21
196.1207858136997
 31
0.0
  0
SOLID
  5
4FA
330
4F4
100
AcDbEntity
  8
AM_5
100
AcDbTrace
 10
725.7811430383635
 20
197.2874524803664
 30
0.0
 11
725.7811430383635
 21
194.9541191470331
 31
0.0
 12
732.7811430383635
 22
196.1207858136997
 32
0.0
 13
732.7811430383635
 23
196.1207858136997
 33
0.0
  0
SOLID
  5
4FB
330
4F4
100
AcDbEntity
  8
AM_5
100
AcDbTrace
 10
39.78114303836355
 20
197.2874524803664
 30
0.0
 11
39.78114303836355
 21
194.9541191470331
 31
0.0
 12
32.78114303836356
 22
196.1207858136997
 32
0.0
 13
32.78114303836356
 23
196.1207858136997
 33
0.0
  0
MTEXT
  5
4FC
330
4F4
100
AcDbEntity
  8
AM_5
 62
     2
100
AcDbMText
 10
382.7811430383635
 20
202.6207858136997
 30
0.0
 40
10.0
 41
0.0
 71
     5
 72
     1
  1
700
 73
     1
 44
1.0
1001
ACAD
1000
MTEXTBEGIN
1070
    73
1070
     1
1070
    44
1040
1.0
1070
    74
1070
     0
1000
MTEXTEND
  0
POINT
  5
4FD
330
4F4
100
AcDbEntity
  8
Defpoints
 62
     0
100
AcDbPoint
 10
732.7811430383635
 20
135.0847999403524
 30
0.0
  0
POINT
  5
4FE
330
4F4
100
AcDbEntity
  8
Defpoints
 62
     0
100
AcDbPoint
 10
32.78114303836356
 20
157.5853713690894
 30
0.0
  0
POINT
  5
4FF
330
4F4
100
AcDbEntity
  8
Defpoints
 62
     0
100
AcDbPoint
 10
32.78114303836356
 20
196.1207858136997
 30
0.0
  0
ENDBLK
  5
4F6
330
4F4
100
AcDbEntity
  8
0
100
AcDbBlockEnd
  0
BLOCK
  5
501
330
500
100
AcDbEntity
  8
0
100
AcDbBlockBegin
  2
*D12
 70
     1
 10
0.0
 20
0.0
 30
0.0
  3
*D12
  1

  0
LINE
  5
503
330
500
100
AcDbEntity
  8
AM_5
  6
ByBlock
100
AcDbLine
 10
752.5702858958466
 20
157.5853713690894
 30
0.0
 11
752.5702858958466
 21
230.3233359705004
 31
0.0
  0
LINE
  5
504
330
500
100
AcDbEntity
  8
AM_5
  6
ByBlock
100
AcDbLine
 10
0.0000001814673852
 20
157.5853713690906
 30
0.0
 11
0.0000001814673896
 21
230.3233359705004
 31
0.0
  0
LINE
  5
505
330
500
100
AcDbEntity
  8
AM_5
  6
ByBlock
100
AcDbLine
 10
745.5702858958466
 20
229.3233359705005
 30
0.0
 11
7.000000181467389
 21
229.3233359705005
 31
0.0
  0
SOLID
  5
506
330
500
100
AcDbEntity
  8
AM_5
100
AcDbTrace
 10
745.5702858958466
 20
230.4900026371671
 30
0.0
 11
745.5702858958466
 21
228.1566693038338
 31
0.0
 12
752.5702858958466
 22
229.3233359705005
 32
0.0
 13
752.5702858958466
 23
229.3233359705005
 33
0.0
  0
SOLID
  5
507
330
500
100
AcDbEntity
  8
AM_5
100
AcDbTrace
 10
7.000000181467389
 20
230.4900026371671
 30
0.0
 11
7.000000181467389
 21
228.1566693038338
 31
0.0
 12
0.0000001814673896
 22
229.3233359705005
 32
0.0
 13
0.0000001814673896
 23
229.3233359705005
 33
0.0
  0
MTEXT
  5
508
330
500
100
AcDbEntity
  8
AM_5
 62
     2
100
AcDbMText
 10
382.7811430383635
 20
235.8233359705005
 30
0.0
 40
10.0
 41
0.0
 71
     5
 72
     1
  1
753
 73
     1
 44
1.0
1001
ACAD
1000
MTEXTBEGIN
1070
    73
1070
     1
1070
    44
1040
1.0
1070
    74
1070
     0
1000
MTEXTEND
  0
POINT
  5
509
330
500
100
AcDbEntity
  8
Defpoints
 62
     0
100
AcDbPoint
 10
752.5702858958466
 20
156.5853713690894
 30
0.0
  0
POINT
  5
50A
330
500
100
AcDbEntity
  8
Defpoints
 62
     0
100
AcDbPoint
 10
0.0000001814673851
 20
156.5853713690906
 30
0.0
  0
POINT
  5
50B
330
500
100
AcDbEntity
  8
Defpoints
 62
     0
100
AcDbPoint
 10
0.0000001814673896
 20
229.3233359705005
 30
0.0
  0
ENDBLK
  5
502
330
500
100
AcDbEntity
  8
0
100
AcDbBlockEnd
  0
BLOCK
  5
50D
330
50C
100
AcDbEntity
  8
0
100
AcDbBlockBegin
  2
*D13
 70
     1
 10
0.0
 20
0.0
 30
0.0
  3
*D13
  1

  0
LINE
  5
50F
330
50C
100
AcDbEntity
  8
AM_5
  6
ByBlock
100
AcDbLine
 10
753.5702858958465
 20
51.08479994035246
 30
0.0
 11
810.2906396929437
 21
51.08479994035246
 31
0.0
  0
LINE
  5
510
330
50C
100
AcDbEntity
  8
AM_5
  6
ByBlock
100
AcDbLine
 10
731.5822858958476
 20
135.0847999403524
 30
0.0
 11
810.2906396929437
 21
135.0847999403524
 31
0.0
  0
LINE
  5
511
330
50C
100
AcDbEntity
  8
AM_5
  6
ByBlock
100
AcDbLine
 10
809.2906396929437
 20
58.08479994035246
 30
0.0
 11
809.2906396929437
 21
128.0847999403524
 31
0.0
  0
SOLID
  5
512
330
50C
100
AcDbEntity
  8
AM_5
100
AcDbTrace
 10
808.1239730262772
 20
58.08479994035246
 30
0.0
 11
810.4573063596104
 21
58.08479994035246
 31
0.0
 12
809.2906396929437
 22
51.08479994035246
 32
0.0
 13
809.2906396929437
 23
51.08479994035246
 33
0.0
  0
SOLID
  5
513
330
50C
100
AcDbEntity
  8
AM_5
100
AcDbTrace
 10
808.1239730262772
 20
128.0847999403524
 30
0.0
 11
810.4573063596104
 21
128.0847999403524
 31
0.0
 12
809.2906396929437
 22
135.0847999403524
 32
0.0
 13
809.2906396929437
 23
135.0847999403524
 33
0.0
  0
MTEXT
  5
514
330
50C
100
AcDbEntity
  8
AM_5
 62
     2
100
AcDbMText
 10
802.7906396929438
 20
93.08479994035259
 30
0.0
 40
10.0
 41
0.0
 71
     5
 72
     1
  1
84
 11
0.0000000000000001
 21
1.0
 31
0.0
 73
     1
 44
1.0
1001
ACAD
1000
MTEXTBEGIN
1070
    73
1070
     1
1070
    44
1040
1.0
1070
    74
1070
     0
1000
MTEXTEND
  0
POINT
  5
515
330
50C
100
AcDbEntity
  8
Defpoints
 62
     0
100
AcDbPoint
 10
752.5702858958466
 20
51.08479994035246
 30
0.0
  0
POINT
  5
516
330
50C
100
AcDbEntity
  8
Defpoints
 62
     0
100
AcDbPoint
 10
730.5822858958476
 20
135.0847999403524
 30
0.0
  0
POINT
  5
517
330
50C
100
AcDbEntity
  8
Defpoints
 62
     0
100
AcDbPoint
 10
809.2906396929437
 20
135.0847999403524
 30
0.0
  0
ENDBLK
  5
50E
330
50C
100
AcDbEntity
  8
0
100
AcDbBlockEnd
  0
BLOCK
  5
51A
330
519
100
AcDbEntity
  8
0
100
AcDbBlockBegin
  2
GENPOS14
 70
     2
 10
0.0
 20
0.0
 30
0.0
  3
GENPOS14
  1
GENPOS14
  0
ATTDEF
  5
51B
330
519
100
AcDbEntity
  8
0
 62
     0
100
AcDbText
 10
0.0
 20
0.0
 30
0.0
 40
1.0
  1
1
100
AcDbAttributeDefinition
  3
Positionsnummer
  2
1GENPOS
 70
     1
1001
GENIUS_GENTRA_14
1002
{
1070
     3
1000
GENTRAPR,%s,(GENMSG gendwg 31)
1000
Positionsnummer
1000
D
1070
     0
1002
}
  0
ATTDEF
  5
51C
330
519
100
AcDbEntity
  8
0
 62
     0
100
AcDbText
 10
0.0
 20
-1.5
 30
0.0
 40
1.0
  1
1
100
AcDbAttributeDefinition
  3
Menge
  2
2GENPOS
 70
     1
1001
GENIUS_GENTRA_14
1002
{
1070
     3
1000
GENTRAPR,%s,(GENMSG gendwg 32)
1000
Menge
1000
D
1070
     0
1002
}
  0
ATTDEF
  5
51D
330
519
100
AcDbEntity
  8
0
 62
     0
100
AcDbText
 10
0.0
 20
-3.0
 30
0.0
 40
1.0
  1

100
AcDbAttributeDefinition
  3
Benennung
  2
5GENPOS
 70
     1
1001
GENIUS_GENTRA_14
1002
{
1070
     3
1000
GENTRAPR,%s,(GENMSG gendwg 35)
1000
Benennung
1000
D
1070
     0
1002
}
  0
ATTDEF
  5
51E
330
519
100
AcDbEntity
  8
0
 62
     0
100
AcDbText
 10
0.0
 20
-4.5
 30
0.0
 40
1.0
  1

100
AcDbAttributeDefinition
  3
Norm
  2
7GENPOS
 70
     1
1001
GENIUS_GENTRA_14
1002
{
1070
     3
1000
GENTRAPR,%s,(GENMSG gendwg 37)
1000
Norm
1000
D
1070
     0
1002
}
  0
ATTDEF
  5
51F
330
519
100
AcDbEntity
  8
0
 62
     0
100
AcDbText
 10
0.0
 20
-6.0
 30
0.0
 40
1.0
  1

100
AcDbAttributeDefinition
  3
Vorerzeugnis / Werkstoff
  2
9GENPOS
 70
     1
1001
GENIUS_GENTRA_14
1002
{
1070
     3
1000
GENTRAPR,%s,(GENMSG gendwg 39)
1000
Vorerzeugnis / Werkstoff
1000
D
1070
     0
1002
}
  0
ATTDEF
  5
520
330
519
100
AcDbEntity
  8
0
 62
     0
100
AcDbText
 10
0.0
 20
-7.5
 30
0.0
 40
1.0
  1

100
AcDbAttributeDefinition
  3
Sach.-Nr.
  2
11GENPOS
 70
     1
1001
GENIUS_GENTRA_14
1002
{
1070
     3
1000
GENTRAPR,%s,(GENMSG gendwg 41)
1000
Sach.-Nr.
1000
D
1070
     0
1002
}
  0
ATTDEF
  5
521
330
519
100
AcDbEntity
  8
0
 62
     0
100
AcDbText
 10
0.0
 20
-9.0
 30
0.0
 40
1.0
  1

100
AcDbAttributeDefinition
  3
Abmessungen
  2
14GENPOS
 70
     1
1001
GENIUS_GENTRA_14
1002
{
1070
     3
1000
GENTRAPR,%s,(GENMSG gendwg 44)
1000
Abmessungen
1000
D
1070
     0
1002
}
  0
ATTDEF
  5
522
330
519
100
AcDbEntity
  8
0
 62
     0
100
AcDbText
 10
0.0
 20
-10.5
 30
0.0
 40
1.0
  1

100
AcDbAttributeDefinition
  3
1. sichtbare Attribut
  2
GENPOS14_VISIBLE1
 70
     1
1001
GENIUS_FIRSTVISTXT_14
1070
     1
1001
GENIUS_GENTRA_14
1002
{
1070
     3
1000
GENTRAPR,%s,(GENMSG gendwg 107)
1000
1. sichtbare Attribut
1000
D
1070
     0
1002
}
  0
ATTDEF
  5
523
330
519
100
AcDbEntity
  8
0
 62
     0
100
AcDbText
 10
0.0
 20
-12.0
 30
0.0
 40
1.0
  1

100
AcDbAttributeDefinition
  3
2. sichtbare Attribut
  2
GENPOS14_VISIBLE2
 70
     1
1001
GENIUS_SECONDVISTXT_14
1070
     1
1001
GENIUS_GENTRA_14
1002
{
1070
     3
1000
GENTRAPR,%s,(GENMSG gendwg 108)
1000
2. sichtbare Attribut
1000
D
1070
     0
1002
}
  0
ENDBLK
  5
524
330
519
100
AcDbEntity
  8
0
100
AcDbBlockEnd
  0
BLOCK
  5
526
330
525
100
AcDbEntity
  8
0
100
AcDbBlockBegin
  2
*D15
 70
     1
 10
0.0
 20
0.0
 30
0.0
  3
*D15
  1

  0
LINE
  5
527
330
525
100
AcDbEntity
  8
5
  6
ByBlock
370
    -2
100
AcDbLine
 10
3902.126922366918
 20
1715.806313046489
 30
0.0
 11
3902.126922366918
 21
1985.673574598979
 31
0.0
  0
LINE
  5
528
330
525
100
AcDbEntity
  8
5
  6
ByBlock
370
    -2
100
AcDbLine
 10
4202.126922366727
 20
1640.806313045296
 30
0.0
 11
4202.126922366727
 21
1985.673574598979
 31
0.0
  0
LINE
  5
529
330
525
100
AcDbEntity
  8
5
  6
ByBlock
370
    -2
100
AcDbLine
 10
3952.126922366918
 20
1965.673574598978
 30
0.0
 11
4152.126922366727
 21
1965.673574598978
 31
0.0
  0
SOLID
  5
52A
330
525
100
AcDbEntity
  8
5
  6
ByBlock
100
AcDbTrace
 10
3952.126922366918
 20
1974.006907932311
 30
0.0
 11
3952.126922366918
 21
1957.340241265645
 31
0.0
 12
3902.126922366918
 22
1965.673574598978
 32
0.0
 13
3902.126922366918
 23
1965.673574598978
 33
0.0
  0
SOLID
  5
52B
330
525
100
AcDbEntity
  8
5
  6
ByBlock
100
AcDbTrace
 10
4152.126922366727
 20
1974.006907932311
 30
0.0
 11
4152.126922366727
 21
1957.340241265645
 31
0.0
 12
4202.126922366727
 22
1965.673574598978
 32
0.0
 13
4202.126922366727
 23
1965.673574598978
 33
0.0
  0
MTEXT
  5
52C
330
525
100
AcDbEntity
  8
5
  6
ByBlock
 62
     2
100
AcDbMText
 10
4052.126922366823
 20
2012.673574598979
 30
0.0
 40
70.0
 41
0.0
 71
     5
 72
     1
  1
30
 73
     1
 44
1.0
1001
ACAD
1000
MTEXTBEGIN
1070
    73
1070
     1
1070
    44
1040
1.0
1070
    74
1070
     0
1000
MTEXTEND
  0
POINT
  5
52D
330
525
100
AcDbEntity
  8
Defpoints
  6
ByBlock
 62
     0
100
AcDbPoint
 10
3902.126922366918
 20
1695.80631304649
 30
0.0
  0
POINT
  5
52E
330
525
100
AcDbEntity
  8
Defpoints
  6
ByBlock
 62
     0
100
AcDbPoint
 10
4202.126922366727
 20
1620.806313045296
 30
0.0
  0
POINT
  5
52F
330
525
100
AcDbEntity
  8
Defpoints
  6
ByBlock
 62
     0
100
AcDbPoint
 10
4202.126922366727
 20
1965.673574598978
 30
0.0
  0
ENDBLK
  5
530
330
525
100
AcDbEntity
  8
0
100
AcDbBlockEnd
  0
BLOCK
  5
532
330
531
100
AcDbEntity
  8
0
100
AcDbBlockBegin
  2
*D16
 70
     1
 10
0.0
 20
0.0
 30
0.0
  3
*D16
  1

  0
LINE
  5
533
330
531
100
AcDbEntity
  8
5
  6
ByBlock
370
    -2
100
AcDbLine
 10
3912.126922366951
 20
1770.806313046885
 30
0.0
 11
4526.068718927803
 21
1770.806313046885
 31
0.0
  0
LINE
  5
534
330
531
100
AcDbEntity
  8
5
  6
ByBlock
370
    -2
100
AcDbLine
 10
4222.126922366747
 20
1620.806313045296
 30
0.0
 11
4526.068718927803
 21
1620.806313045296
 31
0.0
  0
LINE
  5
535
330
531
100
AcDbEntity
  8
5
  6
ByBlock
370
    -2
100
AcDbLine
 10
4506.068718927803
 20
1720.806313046885
 30
0.0
 11
4506.068718927803
 21
1670.806313045296
 31
0.0
  0
SOLID
  5
536
330
531
100
AcDbEntity
  8
5
  6
ByBlock
100
AcDbTrace
 10
4497.73538559447
 20
1720.806313046885
 30
0.0
 11
4514.402052261136
 21
1720.806313046885
 31
0.0
 12
4506.068718927803
 22
1770.806313046885
 32
0.0
 13
4506.068718927803
 23
1770.806313046885
 33
0.0
  0
SOLID
  5
537
330
531
100
AcDbEntity
  8
5
  6
ByBlock
100
AcDbTrace
 10
4497.73538559447
 20
1670.806313045296
 30
0.0
 11
4514.402052261136
 21
1670.806313045296
 31
0.0
 12
4506.068718927803
 22
1620.806313045296
 32
0.0
 13
4506.068718927803
 23
1620.806313045296
 33
0.0
  0
MTEXT
  5
538
330
531
100
AcDbEntity
  8
5
  6
ByBlock
 62
     2
100
AcDbMText
 10
4459.068718927803
 20
1695.806313046091
 30
0.0
 40
70.0
 41
0.0
 71
     5
 72
     1
  1
15
 11
0.0000000000000001
 21
1.0
 31
0.0
 73
     1
 44
1.0
1001
ACAD
1000
MTEXTBEGIN
1070
    73
1070
     1
1070
    44
1040
1.0
1070
    74
1070
     0
1000
MTEXTEND
  0
POINT
  5
539
330
531
100
AcDbEntity
  8
Defpoints
  6
ByBlock
 62
     0
100
AcDbPoint
 10
3892.126922366952
 20
1770.806313046885
 30
0.0
  0
POINT
  5
53A
330
531
100
AcDbEntity
  8
Defpoints
  6
ByBlock
 62
     0
100
AcDbPoint
 10
4202.126922366748
 20
1620.806313045296
 30
0.0
  0
POINT
  5
53B
330
531
100
AcDbEntity
  8
Defpoints
  6
ByBlock
 62
     0
100
AcDbPoint
 10
4506.068718927803
 20
1620.806313045296
 30
0.0
  0
ENDBLK
  5
53C
330
531
100
AcDbEntity
  8
0
100
AcDbBlockEnd
  0
BLOCK
  5
53E
330
53D
100
AcDbEntity
  8
0
100
AcDbBlockBegin
  2
*D17
 70
     1
 10
0.0
 20
0.0
 30
0.0
  3
*D17
  1

  0
LINE
  5
53F
330
53D
100
AcDbEntity
  8
5
  6
ByBlock
370
    -2
100
AcDbLine
 10
3122.126922366739
 20
1569.070322082438
 30
0.0
 11
3122.126922366739
 21
1906.967919045218
 31
0.0
  0
LINE
  5
540
330
53D
100
AcDbEntity
  8
5
  6
ByBlock
370
    -2
100
AcDbLine
 10
3842.126922366736
 20
1569.07032208147
 30
0.0
 11
3842.126922366736
 21
1906.967919045218
 31
0.0
  0
LINE
  5
541
330
53D
100
AcDbEntity
  8
5
  6
ByBlock
370
    -2
100
AcDbLine
 10
3172.126922366739
 20
1886.967919045218
 30
0.0
 11
3792.126922366736
 21
1886.967919045218
 31
0.0
  0
SOLID
  5
542
330
53D
100
AcDbEntity
  8
5
  6
ByBlock
100
AcDbTrace
 10
3172.126922366739
 20
1895.301252378551
 30
0.0
 11
3172.126922366739
 21
1878.634585711885
 31
0.0
 12
3122.126922366739
 22
1886.967919045218
 32
0.0
 13
3122.126922366739
 23
1886.967919045218
 33
0.0
  0
SOLID
  5
543
330
53D
100
AcDbEntity
  8
5
  6
ByBlock
100
AcDbTrace
 10
3792.126922366736
 20
1895.301252378551
 30
0.0
 11
3792.126922366736
 21
1878.634585711885
 31
0.0
 12
3842.126922366736
 22
1886.967919045218
 32
0.0
 13
3842.126922366736
 23
1886.967919045218
 33
0.0
  0
MTEXT
  5
544
330
53D
100
AcDbEntity
  8
5
  6
ByBlock
 62
     2
100
AcDbMText
 10
3483.839355774616
 20
1933.974808808998
 30
0.0
 40
70.0
 41
0.0
 71
     5
 72
     1
  1
%%c 72
 73
     1
 44
1.0
1001
ACAD
1000
MTEXTBEGIN
1070
    73
1070
     1
1070
    44
1040
1.0
1070
    74
1070
     0
1000
MTEXTEND
  0
POINT
  5
545
330
53D
100
AcDbEntity
  8
Defpoints
  6
ByBlock
 62
     0
100
AcDbPoint
 10
3122.126922366739
 20
1549.070322082438
 30
0.0
  0
POINT
  5
546
330
53D
100
AcDbEntity
  8
Defpoints
  6
ByBlock
 62
     0
100
AcDbPoint
 10
3842.126922366736
 20
1549.070322081469
 30
0.0
  0
POINT
  5
547
330
53D
100
AcDbEntity
  8
Defpoints
  6
ByBlock
 62
     0
100
AcDbPoint
 10
3842.126922366736
 20
1886.967919045218
 30
0.0
  0
ENDBLK
  5
548
330
53D
100
AcDbEntity
  8
0
100
AcDbBlockEnd
  0
BLOCK
  5
54A
330
549
100
AcDbEntity
  8
0
100
AcDbBlockBegin
  2
*D18
 70
     1
 10
0.0
 20
0.0
 30
0.0
  3
*D18
  1

  0
LINE
  5
54B
330
549
100
AcDbEntity
  8
5
370
    -2
100
AcDbLine
 10
3082.126922367046
 20
1775.806313047108
 30
0.0
 11
3082.126922367046
 21
2051.292550759601
 31
0.0
  0
LINE
  5
54C
330
549
100
AcDbEntity
  8
5
370
    -2
100
AcDbLine
 10
3882.12692236705
 20
1775.806313046041
 30
0.0
 11
3882.12692236705
 21
2051.292550759601
 31
0.0
  0
LINE
  5
54D
330
549
100
AcDbEntity
  8
5
370
    -2
100
AcDbLine
 10
3132.126922367046
 20
2031.292550759601
 30
0.0
 11
3832.12692236705
 21
2031.292550759601
 31
0.0
  0
SOLID
  5
54E
330
549
100
AcDbEntity
  8
5
100
AcDbTrace
 10
3132.126922367046
 20
2039.625884092934
 30
0.0
 11
3132.126922367046
 21
2022.959217426268
 31
0.0
 12
3082.126922367046
 22
2031.292550759601
 32
0.0
 13
3082.126922367046
 23
2031.292550759601
 33
0.0
  0
SOLID
  5
54F
330
549
100
AcDbEntity
  8
5
100
AcDbTrace
 10
3832.12692236705
 20
2039.625884092934
 30
0.0
 11
3832.12692236705
 21
2022.959217426268
 31
0.0
 12
3882.12692236705
 22
2031.292550759601
 32
0.0
 13
3882.12692236705
 23
2031.292550759601
 33
0.0
  0
MTEXT
  5
550
330
549
100
AcDbEntity
  8
5
 62
     2
100
AcDbMText
 10
3482.126922367416
 20
2078.292550759601
 30
0.0
 40
70.0
 41
0.0
 71
     5
 72
     1
  1
80
 73
     1
 44
1.0
1001
ACAD
1000
MTEXTBEGIN
1070
    73
1070
     1
1070
    44
1040
1.0
1070
    74
1070
     0
1000
MTEXTEND
  0
POINT
  5
551
330
549
100
AcDbEntity
  8
Defpoints
 62
     0
100
AcDbPoint
 10
3082.126922367046
 20
1755.806313047108
 30
0.0
  0
POINT
  5
552
330
549
100
AcDbEntity
  8
Defpoints
 62
     0
100
AcDbPoint
 10
3882.12692236705
 20
1755.806313046041
 30
0.0
  0
POINT
  5
553
330
549
100
AcDbEntity
  8
Defpoints
 62
     0
100
AcDbPoint
 10
3882.12692236705
 20
2031.292550759601
 30
0.0
  0
ENDBLK
  5
554
330
549
100
AcDbEntity
  8
0
100
AcDbBlockEnd
  0
BLOCK
  5
556
330
555
100
AcDbEntity
  8
0
100
AcDbBlockBegin
  2
*D19
 70
     1
 10
0.0
 20
0.0
 30
0.0
  3
*D19
  1

  0
LINE
  5
557
330
555
100
AcDbEntity
  8
5
370
    -2
100
AcDbLine
 10
3082.126922368052
 20
1780.806313047002
 30
0.0
 11
3082.126922368052
 21
1990.806314047254
 31
0.0
  0
LINE
  5
558
330
555
100
AcDbEntity
  8
5
370
    -2
100
AcDbLine
 10
2882.126922367601
 20
2150.806313047084
 30
0.0
 11
2882.126922367601
 21
1950.806314047255
 31
0.0
  0
LINE
  5
559
330
555
100
AcDbEntity
  8
5
370
    -2
100
AcDbLine
 10
3032.126922368052
 20
1970.806314047255
 30
0.0
 11
2932.126922367601
 21
1970.806314047255
 31
0.0
  0
SOLID
  5
55A
330
555
100
AcDbEntity
  8
5
100
AcDbTrace
 10
3032.126922368052
 20
1979.139647380588
 30
0.0
 11
3032.126922368052
 21
1962.472980713921
 31
0.0
 12
3082.126922368052
 22
1970.806314047255
 32
0.0
 13
3082.126922368052
 23
1970.806314047255
 33
0.0
  0
SOLID
  5
55B
330
555
100
AcDbEntity
  8
5
100
AcDbTrace
 10
2932.126922367601
 20
1979.139647380588
 30
0.0
 11
2932.126922367601
 21
1962.472980713921
 31
0.0
 12
2882.126922367601
 22
1970.806314047255
 32
0.0
 13
2882.126922367601
 23
1970.806314047255
 33
0.0
  0
MTEXT
  5
55C
330
555
100
AcDbEntity
  8
5
 62
     2
100
AcDbMText
 10
2982.126922367827
 20
2017.813203811034
 30
0.0
 40
70.0
 41
0.0
 71
     5
 72
     1
  1
20
 73
     1
 44
1.0
1001
ACAD
1000
MTEXTBEGIN
1070
    73
1070
     1
1070
    44
1040
1.0
1070
    74
1070
     0
1000
MTEXTEND
  0
POINT
  5
55D
330
555
100
AcDbEntity
  8
Defpoints
 62
     0
100
AcDbPoint
 10
3082.126922368052
 20
1760.806313047002
 30
0.0
  0
POINT
  5
55E
330
555
100
AcDbEntity
  8
Defpoints
 62
     0
100
AcDbPoint
 10
2882.126922367601
 20
2170.806313047085
 30
0.0
  0
POINT
  5
55F
330
555
100
AcDbEntity
  8
Defpoints
 62
     0
100
AcDbPoint
 10
2882.126922367601
 20
1970.806314047255
 30
0.0
  0
ENDBLK
  5
560
330
555
100
AcDbEntity
  8
0
100
AcDbBlockEnd
  0
BLOCK
  5
562
330
561
100
AcDbEntity
  8
0
100
AcDbBlockBegin
  2
*D20
 70
     1
 10
0.0
 20
0.0
 30
0.0
  3
*D20
  1

  0
LINE
  5
563
330
561
100
AcDbEntity
  8
5
370
    -2
100
AcDbLine
 10
2862.126922367066
 20
1770.806313047085
 30
0.0
 11
2670.579462371049
 21
1770.806313047085
 31
0.0
  0
LINE
  5
564
330
561
100
AcDbEntity
  8
5
370
    -2
100
AcDbLine
 10
2852.126922367601
 20
2170.806313047098
 30
0.0
 11
2670.579462371049
 21
2170.806313047098
 31
0.0
  0
LINE
  5
565
330
561
100
AcDbEntity
  8
5
370
    -2
100
AcDbLine
 10
2690.579462371049
 20
1820.806313047085
 30
0.0
 11
2690.579462371049
 21
2120.806313047098
 31
0.0
  0
SOLID
  5
566
330
561
100
AcDbEntity
  8
5
100
AcDbTrace
 10
2682.246129037715
 20
1820.806313047085
 30
0.0
 11
2698.912795704382
 21
1820.806313047085
 31
0.0
 12
2690.579462371049
 22
1770.806313047085
 32
0.0
 13
2690.579462371049
 23
1770.806313047085
 33
0.0
  0
SOLID
  5
567
330
561
100
AcDbEntity
  8
5
100
AcDbTrace
 10
2682.246129037715
 20
2120.806313047098
 30
0.0
 11
2698.912795704382
 21
2120.806313047098
 31
0.0
 12
2690.579462371049
 22
2170.806313047098
 32
0.0
 13
2690.579462371049
 23
2170.806313047098
 33
0.0
  0
MTEXT
  5
568
330
561
100
AcDbEntity
  8
5
 62
     2
100
AcDbMText
 10
2643.579462371048
 20
1970.80631304734
 30
0.0
 40
70.0
 41
0.0
 71
     5
 72
     1
  1
40
 11
0.0000000000000001
 21
1.0
 31
0.0
 73
     1
 44
1.0
1001
ACAD
1000
MTEXTBEGIN
1070
    73
1070
     1
1070
    44
1040
1.0
1070
    74
1070
     0
1000
MTEXTEND
  0
POINT
  5
569
330
561
100
AcDbEntity
  8
Defpoints
 62
     0
100
AcDbPoint
 10
2882.126922367066
 20
1770.806313047085
 30
0.0
  0
POINT
  5
56A
330
561
100
AcDbEntity
  8
Defpoints
 62
     0
100
AcDbPoint
 10
2872.126922367601
 20
2170.806313047098
 30
0.0
  0
POINT
  5
56B
330
561
100
AcDbEntity
  8
Defpoints
 62
     0
100
AcDbPoint
 10
2690.579462371049
 20
2170.806313047098
 30
0.0
  0
ENDBLK
  5
56C
330
561
100
AcDbEntity
  8
0
100
AcDbBlockEnd
  0
BLOCK
  5
56E
330
56D
100
AcDbEntity
  8
0
100
AcDbBlockBegin
  2
*D21
 70
     1
 10
0.0
 20
0.0
 30
0.0
  3
*D21
  1

  0
LINE
  5
56F
330
56D
100
AcDbEntity
  8
5
370
    -2
100
AcDbLine
 10
2862.126922367066
 20
1770.806313047085
 30
0.0
 11
2670.579462370615
 21
1770.806313047085
 31
0.0
  0
LINE
  5
570
330
56D
100
AcDbEntity
  8
5
370
    -2
100
AcDbLine
 10
3462.126922366735
 20
1520.806313047082
 30
0.0
 11
2670.579462370615
 21
1520.806313047082
 31
0.0
  0
LINE
  5
571
330
56D
100
AcDbEntity
  8
5
370
    -2
100
AcDbLine
 10
2690.579462370615
 20
1720.806313047084
 30
0.0
 11
2690.579462370615
 21
1570.806313047082
 31
0.0
  0
SOLID
  5
572
330
56D
100
AcDbEntity
  8
5
100
AcDbTrace
 10
2682.246129037281
 20
1720.806313047084
 30
0.0
 11
2698.912795703948
 21
1720.806313047084
 31
0.0
 12
2690.579462370615
 22
1770.806313047085
 32
0.0
 13
2690.579462370615
 23
1770.806313047085
 33
0.0
  0
SOLID
  5
573
330
56D
100
AcDbEntity
  8
5
100
AcDbTrace
 10
2682.246129037281
 20
1570.806313047082
 30
0.0
 11
2698.912795703948
 21
1570.806313047082
 31
0.0
 12
2690.579462370615
 22
1520.806313047082
 32
0.0
 13
2690.579462370615
 23
1520.806313047082
 33
0.0
  0
MTEXT
  5
574
330
56D
100
AcDbEntity
  8
5
 62
     2
100
AcDbMText
 10
2643.572572606835
 20
1645.806313047862
 30
0.0
 40
70.0
 41
0.0
 71
     5
 72
     1
  1
25
 11
0.0000000000000001
 21
1.0
 31
0.0
 73
     1
 44
1.0
1001
ACAD
1000
MTEXTBEGIN
1070
    73
1070
     1
1070
    44
1040
1.0
1070
    74
1070
     0
1000
MTEXTEND
  0
POINT
  5
575
330
56D
100
AcDbEntity
  8
Defpoints
 62
     0
100
AcDbPoint
 10
2882.126922367066
 20
1770.806313047085
 30
0.0
  0
POINT
  5
576
330
56D
100
AcDbEntity
  8
Defpoints
 62
     0
100
AcDbPoint
 10
3482.126922366735
 20
1520.806313047082
 30
0.0
  0
POINT
  5
577
330
56D
100
AcDbEntity
  8
Defpoints
 62
     0
100
AcDbPoint
 10
2690.579462370615
 20
1520.806313047082
 30
0.0
  0
ENDBLK
  5
578
330
56D
100
AcDbEntity
  8
0
100
AcDbBlockEnd
  0
BLOCK
  5
57A
330
579
100
AcDbEntity
  8
0
100
AcDbBlockBegin
  2
*D22
 70
     1
 10
0.0
 20
0.0
 30
0.0
  3
*D22
  1

  0
ARC
  5
57B
330
579
100
AcDbEntity
  8
5
370
    -2
100
AcDbCircle
 10
3482.126922366757
 20
1537.472979713585
 30
0.0
 40
146.0280237356525
100
AcDbArc
 50
24.47883738056138
 51
155.5211626192857
  0
SOLID
  5
57C
330
579
100
AcDbEntity
  8
5
100
AcDbTrace
 10
3623.092590327914
 20
1600.084297367274
 30
0.0
 11
3606.965662629147
 21
1595.877162858308
 31
0.0
 12
3627.650530005431
 22
1549.599947016492
 32
0.0
 13
3627.650530005431
 23
1549.599947016492
 33
0.0
  0
SOLID
  5
57D
330
579
100
AcDbEntity
  8
5
100
AcDbTrace
 10
3357.288182104523
 20
1595.877162858642
 30
0.0
 11
3341.161254405767
 21
1600.084297367651
 31
0.0
 12
3336.603314728116
 22
1549.599947016881
 32
0.0
 13
3336.603314728116
 23
1549.599947016881
 33
0.0
  0
MTEXT
  5
57E
330
579
100
AcDbEntity
  8
5
 62
     2
100
AcDbMText
 10
3386.859140745286
 20
1705.353495951221
 30
0.0
 40
70.0
 41
0.0
 71
     5
 72
     1
  1
170\U+00B0
 11
0.8697209502986204
 21
0.4935437859113056
 31
0.0
 73
     1
 44
1.0
1001
ACAD
1000
MTEXTBEGIN
1070
    73
1070
     1
1070
    44
1040
1.0
1070
    74
1070
     0
1000
MTEXTEND
  0
POINT
  5
57F
330
579
100
AcDbEntity
  8
Defpoints
 62
     0
100
AcDbPoint
 10
3551.608555078078
 20
1665.911628226832
 30
0.0
  0
POINT
  5
580
330
579
100
AcDbEntity
  8
Defpoints
 62
     0
100
AcDbPoint
 10
3482.126922366757
 20
1537.472979713585
 30
0.0
  0
POINT
  5
581
330
579
100
AcDbEntity
  8
Defpoints
 62
     0
100
AcDbPoint
 10
3482.126922366757
 20
1537.472979713585
 30
0.0
  0
POINT
  5
582
330
579
100
AcDbEntity
  8
Defpoints
 62
     0
100
AcDbPoint
 10
4068.372604564105
 20
1586.326786562094
 30
0.0
  0
POINT
  5
583
330
579
100
AcDbEntity
  8
Defpoints
 62
     0
100
AcDbPoint
 10
2895.88124016954
 20
1586.326786563658
 30
0.0
  0
ENDBLK
  5
584
330
579
100
AcDbEntity
  8
0
100
AcDbBlockEnd
  0
BLOCK
  5
586
330
585
100
AcDbEntity
  8
0
100
AcDbBlockBegin
  2
*D23
 70
     1
 10
0.0
 20
0.0
 30
0.0
  3
*D23
  1

  0
LINE
  5
587
330
585
100
AcDbEntity
  8
5
370
    -2
100
AcDbLine
 10
2862.126922367066
 20
1770.806313047085
 30
0.0
 11
2532.728153743728
 21
1770.806313047085
 31
0.0
  0
LINE
  5
588
330
585
100
AcDbEntity
  8
5
370
    -2
100
AcDbLine
 10
3152.126922365598
 20
700.8063130469432
 30
0.0
 11
2532.728153743727
 21
700.8063130469434
 31
0.0
  0
LINE
  5
589
330
585
100
AcDbEntity
  8
5
370
    -2
100
AcDbLine
 10
2552.728153743727
 20
1720.806313047084
 30
0.0
 11
2552.728153743727
 21
750.8063130469434
 31
0.0
  0
SOLID
  5
58A
330
585
100
AcDbEntity
  8
5
100
AcDbTrace
 10
2544.394820410394
 20
1720.806313047084
 30
0.0
 11
2561.06148707706
 21
1720.806313047084
 31
0.0
 12
2552.728153743727
 22
1770.806313047085
 32
0.0
 13
2552.728153743727
 23
1770.806313047085
 33
0.0
  0
SOLID
  5
58B
330
585
100
AcDbEntity
  8
5
100
AcDbTrace
 10
2544.394820410393
 20
750.8063130469434
 30
0.0
 11
2561.06148707706
 21
750.8063130469434
 31
0.0
 12
2552.728153743727
 22
700.8063130469434
 32
0.0
 13
2552.728153743727
 23
700.8063130469434
 33
0.0
  0
MTEXT
  5
58C
330
585
100
AcDbEntity
  8
5
 62
     2
100
AcDbMText
 10
2505.728153743727
 20
1235.80631304777
 30
0.0
 40
70.0
 41
0.0
 71
     5
 72
     1
  1
107
 11
0.0000000000000001
 21
1.0
 31
0.0
 73
     1
 44
1.0
1001
ACAD
1000
MTEXTBEGIN
1070
    73
1070
     1
1070
    44
1040
1.0
1070
    74
1070
     0
1000
MTEXTEND
  0
POINT
  5
58D
330
585
100
AcDbEntity
  8
Defpoints
 62
     0
100
AcDbPoint
 10
2882.126922367066
 20
1770.806313047085
 30
0.0
  0
POINT
  5
58E
330
585
100
AcDbEntity
  8
Defpoints
 62
     0
100
AcDbPoint
 10
3172.126922365599
 20
700.8063130469432
 30
0.0
  0
POINT
  5
58F
330
585
100
AcDbEntity
  8
Defpoints
 62
     0
100
AcDbPoint
 10
2552.728153743727
 20
700.8063130469434
 30
0.0
  0
ENDBLK
  5
590
330
585
100
AcDbEntity
  8
0
100
AcDbBlockEnd
  0
BLOCK
  5
592
330
591
100
AcDbEntity
  8
0
100
AcDbBlockBegin
  2
*D24
 70
     1
 10
0.0
 20
0.0
 30
0.0
  3
*D24
  1

  0
LINE
  5
593
330
591
100
AcDbEntity
  8
5
  6
ByBlock
370
    -2
100
AcDbLine
 10
3102.126922365693
 20
750.806313047037
 30
0.0
 11
3102.126922365693
 21
502.6989410517974
 31
0.0
  0
LINE
  5
594
330
591
100
AcDbEntity
  8
5
  6
ByBlock
370
    -2
100
AcDbLine
 10
3862.126922365709
 20
750.8063130460231
 30
0.0
 11
3862.126922365709
 21
502.6989410517974
 31
0.0
  0
LINE
  5
595
330
591
100
AcDbEntity
  8
5
  6
ByBlock
370
    -2
100
AcDbLine
 10
3152.126922365693
 20
522.6989410517973
 30
0.0
 11
3812.12692236571
 21
522.6989410517973
 31
0.0
  0
SOLID
  5
596
330
591
100
AcDbEntity
  8
5
  6
ByBlock
100
AcDbTrace
 10
3152.126922365693
 20
531.0322743851307
 30
0.0
 11
3152.126922365693
 21
514.365607718464
 31
0.0
 12
3102.126922365693
 22
522.6989410517973
 32
0.0
 13
3102.126922365693
 23
522.6989410517973
 33
0.0
  0
SOLID
  5
597
330
591
100
AcDbEntity
  8
5
  6
ByBlock
100
AcDbTrace
 10
3812.12692236571
 20
531.0322743851307
 30
0.0
 11
3812.12692236571
 21
514.365607718464
 31
0.0
 12
3862.126922365709
 22
522.6989410517973
 32
0.0
 13
3862.126922365709
 23
522.6989410517973
 33
0.0
  0
MTEXT
  5
598
330
591
100
AcDbEntity
  8
5
  6
ByBlock
 62
     2
100
AcDbMText
 10
3482.126922365701
 20
569.6989410517974
 30
0.0
 40
70.0
 41
0.0
 71
     5
 72
     1
  1
%%c 75
 73
     1
 44
1.0
1001
ACAD
1000
MTEXTBEGIN
1070
    73
1070
     1
1070
    44
1040
1.0
1070
    74
1070
     0
1000
MTEXTEND
  0
POINT
  5
599
330
591
100
AcDbEntity
  8
Defpoints
  6
ByBlock
 62
     0
100
AcDbPoint
 10
3102.126922365693
 20
770.806313047037
 30
0.0
  0
POINT
  5
59A
330
591
100
AcDbEntity
  8
Defpoints
  6
ByBlock
 62
     0
100
AcDbPoint
 10
3862.126922365709
 20
770.8063130460232
 30
0.0
  0
POINT
  5
59B
330
591
100
AcDbEntity
  8
Defpoints
  6
ByBlock
 62
     0
100
AcDbPoint
 10
3862.126922365709
 20
522.6989410517973
 30
0.0
  0
ENDBLK
  5
59C
330
591
100
AcDbEntity
  8
0
100
AcDbBlockEnd
  0
BLOCK
  5
59E
330
59D
100
AcDbEntity
  8
0
100
AcDbBlockBegin
  2
*D25
 70
     1
 10
0.0
 20
0.0
 30
0.0
  3
*D25
  1

  0
LINE
  5
59F
330
59D
100
AcDbEntity
  8
5
370
    -2
100
AcDbLine
 10
3877.126922366814
 20
1770.80631304708
 30
0.0
 11
3740.498935740208
 21
1770.80631304708
 31
0.0
  0
LINE
  5
5A0
330
59D
100
AcDbEntity
  8
5
370
    -2
100
AcDbLine
 10
3858.165156667265
 20
1574.451663934728
 30
0.0
 11
3740.498935740208
 21
1574.451663934728
 31
0.0
  0
LINE
  5
5A1
330
59D
100
AcDbEntity
  8
5
370
    -2
100
AcDbLine
 10
3760.498935740208
 20
1720.80631304708
 30
0.0
 11
3760.498935740208
 21
1624.451663934728
 31
0.0
  0
SOLID
  5
5A2
330
59D
100
AcDbEntity
  8
5
100
AcDbTrace
 10
3752.165602406875
 20
1720.80631304708
 30
0.0
 11
3768.832269073541
 21
1720.80631304708
 31
0.0
 12
3760.498935740208
 22
1770.80631304708
 32
0.0
 13
3760.498935740208
 23
1770.80631304708
 33
0.0
  0
SOLID
  5
5A3
330
59D
100
AcDbEntity
  8
5
100
AcDbTrace
 10
3752.165602406875
 20
1624.451663934728
 30
0.0
 11
3768.832269073541
 21
1624.451663934728
 31
0.0
 12
3760.498935740208
 22
1574.451663934728
 32
0.0
 13
3760.498935740208
 23
1574.451663934728
 33
0.0
  0
MTEXT
  5
5A4
330
59D
100
AcDbEntity
  8
5
 62
     2
100
AcDbMText
 10
3713.492045976428
 20
1670.233216471632
 30
0.0
 40
70.0
 41
0.0
 71
     5
 72
     1
  1
20
 11
0.0000000000000001
 21
1.0
 31
0.0
 73
     1
 44
1.0
1001
ACAD
1000
MTEXTBEGIN
1070
    73
1070
     1
1070
    44
1040
1.0
1070
    74
1070
     0
1000
MTEXTEND
  0
POINT
  5
5A5
330
59D
100
AcDbEntity
  8
Defpoints
 62
     0
100
AcDbPoint
 10
3897.126922366813
 20
1770.80631304708
 30
0.0
  0
POINT
  5
5A6
330
59D
100
AcDbEntity
  8
Defpoints
 62
     0
100
AcDbPoint
 10
3878.165156667266
 20
1574.451663934728
 30
0.0
  0
POINT
  5
5A7
330
59D
100
AcDbEntity
  8
Defpoints
 62
     0
100
AcDbPoint
 10
3760.498935740208
 20
1574.451663934728
 30
0.0
  0
ENDBLK
  5
5A8
330
59D
100
AcDbEntity
  8
0
100
AcDbBlockEnd
  0
BLOCK
  5
5AA
330
5A9
100
AcDbEntity
  8
0
100
AcDbBlockBegin
  2
*D26
 70
     1
 10
0.0
 20
0.0
 30
0.0
  3
*D26
  1

  0
LINE
  5
5AB
330
5A9
100
AcDbEntity
  8
5
  6
ByBlock
370
    -2
100
AcDbLine
 10
4222.126922366728
 20
1620.806313045296
 30
0.0
 11
4331.324905225561
 21
1620.806313045296
 31
0.0
  0
LINE
  5
5AC
330
5A9
100
AcDbEntity
  8
5
  6
ByBlock
370
    -2
100
AcDbLine
 10
4222.126922366735
 20
1610.806313045287
 30
0.0
 11
4331.324905225561
 21
1610.806313045287
 31
0.0
  0
LINE
  5
5AD
330
5A9
100
AcDbEntity
  8
5
  6
ByBlock
370
    -2
100
AcDbLine
 10
4311.324905225561
 20
1670.806313045296
 30
0.0
 11
4311.324905225561
 21
1720.806313045296
 31
0.0
  0
LINE
  5
5AE
330
5A9
100
AcDbEntity
  8
5
  6
ByBlock
370
    -2
100
AcDbLine
 10
4311.324905225561
 20
1560.806313045287
 30
0.0
 11
4311.324905225561
 21
1472.806313045287
 31
0.0
  0
LINE
  5
5AF
330
5A9
100
AcDbEntity
  8
5
  6
ByBlock
370
    -2
100
AcDbLine
 10
4311.324905225561
 20
1620.806313045296
 30
0.0
 11
4311.324905225561
 21
1610.806313045287
 31
0.0
  0
SOLID
  5
5B0
330
5A9
100
AcDbEntity
  8
5
  6
ByBlock
100
AcDbTrace
 10
4302.991571892228
 20
1670.806313045296
 30
0.0
 11
4319.658238558894
 21
1670.806313045296
 31
0.0
 12
4311.324905225561
 22
1620.806313045296
 32
0.0
 13
4311.324905225561
 23
1620.806313045296
 33
0.0
  0
SOLID
  5
5B1
330
5A9
100
AcDbEntity
  8
5
  6
ByBlock
100
AcDbTrace
 10
4302.991571892228
 20
1560.806313045287
 30
0.0
 11
4319.658238558894
 21
1560.806313045287
 31
0.0
 12
4311.324905225561
 22
1610.806313045287
 32
0.0
 13
4311.324905225561
 23
1610.806313045287
 33
0.0
  0
MTEXT
  5
5B2
330
5A9
100
AcDbEntity
  8
5
  6
ByBlock
 62
     2
100
AcDbMText
 10
4264.324905225561
 20
1491.806313045287
 30
0.0
 40
70.0
 41
0.0
 71
     5
 72
     1
  1
1
 11
0.0000000000000001
 21
1.0
 31
0.0
 73
     1
 44
1.0
1001
ACAD
1000
MTEXTBEGIN
1070
    73
1070
     1
1070
    44
1040
1.0
1070
    74
1070
     0
1000
MTEXTEND
  0
POINT
  5
5B3
330
5A9
100
AcDbEntity
  8
Defpoints
  6
ByBlock
 62
     0
100
AcDbPoint
 10
4202.126922366727
 20
1620.806313045296
 30
0.0
  0
POINT
  5
5B4
330
5A9
100
AcDbEntity
  8
Defpoints
  6
ByBlock
 62
     0
100
AcDbPoint
 10
4202.126922366735
 20
1610.806313045287
 30
0.0
  0
POINT
  5
5B5
330
5A9
100
AcDbEntity
  8
Defpoints
  6
ByBlock
 62
     0
100
AcDbPoint
 10
4311.324905225561
 20
1610.806313045287
 30
0.0
  0
ENDBLK
  5
5B6
330
5A9
100
AcDbEntity
  8
0
100
AcDbBlockEnd
  0
BLOCK
  5
5B8
330
5B7
100
AcDbEntity
  8
0
100
AcDbBlockBegin
  2
*D27
 70
     1
 10
0.0
 20
0.0
 30
0.0
  3
*D27
  1

  0
LINE
  5
5B9
330
5B7
100
AcDbEntity
  8
5
370
    -2
100
AcDbLine
 10
3917.126922366814
 20
1770.806313047081
 30
0.0
 11
4716.49563333827
 21
1770.80631304708
 31
0.0
  0
LINE
  5
5BA
330
5B7
100
AcDbEntity
  8
5
370
    -2
100
AcDbLine
 10
4540.878678443397
 20
1120.806313046248
 30
0.0
 11
4716.49563333827
 21
1120.806313046247
 31
0.0
  0
LINE
  5
5BB
330
5B7
100
AcDbEntity
  8
5
370
    -2
100
AcDbLine
 10
4696.495633338271
 20
1720.80631304708
 30
0.0
 11
4696.495633338271
 21
1170.806313046247
 31
0.0
  0
SOLID
  5
5BC
330
5B7
100
AcDbEntity
  8
5
100
AcDbTrace
 10
4688.162300004938
 20
1720.80631304708
 30
0.0
 11
4704.828966671604
 21
1720.80631304708
 31
0.0
 12
4696.495633338271
 22
1770.80631304708
 32
0.0
 13
4696.495633338271
 23
1770.80631304708
 33
0.0
  0
SOLID
  5
5BD
330
5B7
100
AcDbEntity
  8
5
100
AcDbTrace
 10
4688.162300004938
 20
1170.806313046247
 30
0.0
 11
4704.828966671604
 21
1170.806313046247
 31
0.0
 12
4696.495633338271
 22
1120.806313046247
 32
0.0
 13
4696.495633338271
 23
1120.806313046247
 33
0.0
  0
MTEXT
  5
5BE
330
5B7
100
AcDbEntity
  8
5
 62
     2
100
AcDbMText
 10
4649.495633338271
 20
1496.639646379855
 30
0.0
 40
70.0
 41
0.0
 71
     5
 72
     1
  1
65
 11
0.0000000000000001
 21
1.0
 31
0.0
 73
     1
 44
1.0
1001
ACAD
1000
MTEXTBEGIN
1070
    73
1070
     1
1070
    44
1040
1.0
1070
    74
1070
     0
1000
MTEXTEND
  0
POINT
  5
5BF
330
5B7
100
AcDbEntity
  8
Defpoints
 62
     0
100
AcDbPoint
 10
3897.126922366813
 20
1770.806313047081
 30
0.0
  0
POINT
  5
5C0
330
5B7
100
AcDbEntity
  8
Defpoints
 62
     0
100
AcDbPoint
 10
4520.878678443397
 20
1120.806313046248
 30
0.0
  0
POINT
  5
5C1
330
5B7
100
AcDbEntity
  8
Defpoints
 62
     0
100
AcDbPoint
 10
4696.495633338271
 20
1120.806313046247
 30
0.0
  0
ENDBLK
  5
5C2
330
5B7
100
AcDbEntity
  8
0
100
AcDbBlockEnd
  0
BLOCK
  5
5C4
330
5C3
100
AcDbEntity
  8
0
100
AcDbBlockBegin
  2
*D28
 70
     1
 10
0.0
 20
0.0
 30
0.0
  3
*D28
  1

  0
LINE
  5
5C5
330
5C3
100
AcDbEntity
  8
5
370
    -2
100
AcDbLine
 10
4467.1269223665
 20
1370.806313046346
 30
0.0
 11
4661.495633338271
 21
1370.806313046346
 31
0.0
  0
LINE
  5
5C6
330
5C3
100
AcDbEntity
  8
5
370
    -2
100
AcDbLine
 10
4467.12692236584
 20
870.8063130463468
 30
0.0
 11
4887.136019682229
 21
870.8063130463466
 31
0.0
  0
LINE
  5
5C7
330
5C3
100
AcDbEntity
  8
5
370
    -2
100
AcDbLine
 10
4867.136019682229
 20
1320.806313046346
 30
0.0
 11
4867.136019682229
 21
920.8063130463466
 31
0.0
  0
SOLID
  5
5C8
330
5C3
100
AcDbEntity
  8
5
100
AcDbTrace
 10
4858.802686348895
 20
1320.806313046346
 30
0.0
 11
4875.469353015562
 21
1320.806313046346
 31
0.0
 12
4867.136019682229
 22
1370.806313046346
 32
0.0
 13
4867.136019682229
 23
1370.806313046346
 33
0.0
  0
SOLID
  5
5C9
330
5C3
100
AcDbEntity
  8
5
100
AcDbTrace
 10
4858.802686348895
 20
920.8063130463468
 30
0.0
 11
4875.469353015562
 21
920.8063130463466
 31
0.0
 12
4867.136019682229
 22
870.8063130463466
 32
0.0
 13
4867.136019682229
 23
870.8063130463466
 33
0.0
  0
MTEXT
  5
5CA
330
5C3
100
AcDbEntity
  8
5
 62
     2
100
AcDbMText
 10
4820.136019682229
 20
1119.556313045798
 30
0.0
 40
70.0
 41
0.0
 71
     5
 72
     1
  1
%%c 50
 11
0.0000000000000001
 21
1.0
 31
0.0
 73
     1
 44
1.0
1001
ACAD
1000
MTEXTBEGIN
1070
    73
1070
     1
1070
    44
1040
1.0
1070
    74
1070
     0
1000
MTEXTEND
  0
POINT
  5
5CB
330
5C3
100
AcDbEntity
  8
Defpoints
 62
     0
100
AcDbPoint
 10
4447.1269223665
 20
1370.806313046346
 30
0.0
  0
POINT
  5
5CC
330
5C3
100
AcDbEntity
  8
Defpoints
 62
     0
100
AcDbPoint
 10
4447.12692236584
 20
870.8063130463468
 30
0.0
  0
POINT
  5
5CD
330
5C3
100
AcDbEntity
  8
Defpoints
 62
     0
100
AcDbPoint
 10
4867.136019682229
 20
870.8063130463466
 30
0.0
  0
LINE
  5
5CE
330
5C3
100
AcDbEntity
  8
5
370
    -2
100
AcDbLine
 10
4731.495633338271
 20
1370.806313046346
 30
0.0
 11
4887.136019682229
 21
1370.806313046346
 31
0.0
  0
ENDBLK
  5
5CF
330
5C3
100
AcDbEntity
  8
0
100
AcDbBlockEnd
  0
BLOCK
  5
6F6
330
6F5
100
AcDbEntity
  8
0
100
AcDbBlockBegin
  2
*D30
 70
     1
 10
0.0
 20
0.0
 30
0.0
  3
*D30
  1

  0
LINE
  5
6F8
330
6F5
100
AcDbEntity
  8
5
  6
ByBlock
370
    -2
100
AcDbLine
 10
2124.691320153319
 20
1395.425988785224
 30
0.0
 11
2124.691320153319
 21
1733.323585748005
 31
0.0
  0
LINE
  5
6F9
330
6F5
100
AcDbEntity
  8
5
  6
ByBlock
370
    -2
100
AcDbLine
 10
2844.691320153316
 20
1395.425988784256
 30
0.0
 11
2844.691320153316
 21
1733.323585748005
 31
0.0
  0
LINE
  5
6FA
330
6F5
100
AcDbEntity
  8
5
  6
ByBlock
370
    -2
100
AcDbLine
 10
2174.691320153319
 20
1713.323585748005
 30
0.0
 11
2794.691320153317
 21
1713.323585748005
 31
0.0
  0
SOLID
  5
6FB
330
6F5
100
AcDbEntity
  8
5
  6
ByBlock
100
AcDbTrace
 10
2174.691320153319
 20
1721.656919081339
 30
0.0
 11
2174.691320153319
 21
1704.990252414672
 31
0.0
 12
2124.691320153319
 22
1713.323585748005
 32
0.0
 13
2124.691320153319
 23
1713.323585748005
 33
0.0
  0
SOLID
  5
6FC
330
6F5
100
AcDbEntity
  8
5
  6
ByBlock
100
AcDbTrace
 10
2794.691320153317
 20
1721.656919081339
 30
0.0
 11
2794.691320153317
 21
1704.990252414672
 31
0.0
 12
2844.691320153316
 22
1713.323585748005
 32
0.0
 13
2844.691320153316
 23
1713.323585748005
 33
0.0
  0
MTEXT
  5
6FD
330
6F5
100
AcDbEntity
  8
5
  6
ByBlock
 62
     2
100
AcDbMText
 10
2486.403753561196
 20
1760.330475511785
 30
0.0
 40
70.0
 41
0.0
 71
     5
 72
     1
  1
%%c 72
 73
     1
 44
1.0
1001
ACAD
1000
MTEXTBEGIN
1070
    73
1070
     1
1070
    44
1040
1.0
1070
    74
1070
     0
1000
MTEXTEND
  0
POINT
  5
6FE
330
6F5
100
AcDbEntity
  8
Defpoints
  6
ByBlock
 62
     0
100
AcDbPoint
 10
2124.691320153319
 20
1375.425988785225
 30
0.0
  0
POINT
  5
6FF
330
6F5
100
AcDbEntity
  8
Defpoints
  6
ByBlock
 62
     0
100
AcDbPoint
 10
2844.691320153316
 20
1375.425988784256
 30
0.0
  0
POINT
  5
700
330
6F5
100
AcDbEntity
  8
Defpoints
  6
ByBlock
 62
     0
100
AcDbPoint
 10
2844.691320153316
 20
1713.323585748005
 30
0.0
  0
ENDBLK
  5
6F7
330
6F5
100
AcDbEntity
  8
0
100
AcDbBlockEnd
  0
BLOCK
  5
702
330
701
100
AcDbEntity
  8
0
100
AcDbBlockBegin
  2
*D31
 70
     1
 10
0.0
 20
0.0
 30
0.0
  3
*D31
  1

  0
LINE
  5
704
330
701
100
AcDbEntity
  8
5
370
    -2
100
AcDbLine
 10
2084.691320153627
 20
1602.161979749895
 30
0.0
 11
2084.691320153627
 21
1877.648217462388
 31
0.0
  0
LINE
  5
705
330
701
100
AcDbEntity
  8
5
370
    -2
100
AcDbLine
 10
2884.69132015363
 20
1602.161979748828
 30
0.0
 11
2884.69132015363
 21
1877.648217462388
 31
0.0
  0
LINE
  5
706
330
701
100
AcDbEntity
  8
5
370
    -2
100
AcDbLine
 10
2134.691320153626
 20
1857.648217462388
 30
0.0
 11
2834.69132015363
 21
1857.648217462388
 31
0.0
  0
SOLID
  5
707
330
701
100
AcDbEntity
  8
5
100
AcDbTrace
 10
2134.691320153626
 20
1865.981550795721
 30
0.0
 11
2134.691320153626
 21
1849.314884129055
 31
0.0
 12
2084.691320153627
 22
1857.648217462388
 32
0.0
 13
2084.691320153627
 23
1857.648217462388
 33
0.0
  0
SOLID
  5
708
330
701
100
AcDbEntity
  8
5
100
AcDbTrace
 10
2834.69132015363
 20
1865.981550795721
 30
0.0
 11
2834.69132015363
 21
1849.314884129055
 31
0.0
 12
2884.69132015363
 22
1857.648217462388
 32
0.0
 13
2884.69132015363
 23
1857.648217462388
 33
0.0
  0
MTEXT
  5
709
330
701
100
AcDbEntity
  8
5
 62
     2
100
AcDbMText
 10
2484.691320153996
 20
1904.648217462388
 30
0.0
 40
70.0
 41
0.0
 71
     5
 72
     1
  1
80
 73
     1
 44
1.0
1001
ACAD
1000
MTEXTBEGIN
1070
    73
1070
     1
1070
    44
1040
1.0
1070
    74
1070
     0
1000
MTEXTEND
  0
POINT
  5
70A
330
701
100
AcDbEntity
  8
Defpoints
 62
     0
100
AcDbPoint
 10
2084.691320153627
 20
1582.161979749895
 30
0.0
  0
POINT
  5
70B
330
701
100
AcDbEntity
  8
Defpoints
 62
     0
100
AcDbPoint
 10
2884.69132015363
 20
1582.161979748827
 30
0.0
  0
POINT
  5
70C
330
701
100
AcDbEntity
  8
Defpoints
 62
     0
100
AcDbPoint
 10
2884.69132015363
 20
1857.648217462388
 30
0.0
  0
ENDBLK
  5
703
330
701
100
AcDbEntity
  8
0
100
AcDbBlockEnd
  0
BLOCK
  5
70E
330
70D
100
AcDbEntity
  8
0
100
AcDbBlockBegin
  2
*D32
 70
     1
 10
0.0
 20
0.0
 30
0.0
  3
*D32
  1

  0
LINE
  5
710
330
70D
100
AcDbEntity
  8
5
370
    -2
100
AcDbLine
 10
2084.691320154632
 20
1607.161979749789
 30
0.0
 11
2084.691320154632
 21
1817.161980750041
 31
0.0
  0
LINE
  5
711
330
70D
100
AcDbEntity
  8
5
370
    -2
100
AcDbLine
 10
1884.691320154181
 20
1977.161979749871
 30
0.0
 11
1884.691320154181
 21
1777.161980750041
 31
0.0
  0
LINE
  5
712
330
70D
100
AcDbEntity
  8
5
370
    -2
100
AcDbLine
 10
2034.691320154632
 20
1797.161980750041
 30
0.0
 11
1934.691320154181
 21
1797.161980750041
 31
0.0
  0
SOLID
  5
713
330
70D
100
AcDbEntity
  8
5
100
AcDbTrace
 10
2034.691320154632
 20
1805.495314083375
 30
0.0
 11
2034.691320154632
 21
1788.828647416708
 31
0.0
 12
2084.691320154632
 22
1797.161980750041
 32
0.0
 13
2084.691320154632
 23
1797.161980750041
 33
0.0
  0
SOLID
  5
714
330
70D
100
AcDbEntity
  8
5
100
AcDbTrace
 10
1934.691320154181
 20
1805.495314083375
 30
0.0
 11
1934.691320154181
 21
1788.828647416708
 31
0.0
 12
1884.691320154181
 22
1797.161980750041
 32
0.0
 13
1884.691320154181
 23
1797.161980750041
 33
0.0
  0
MTEXT
  5
715
330
70D
100
AcDbEntity
  8
5
 62
     2
100
AcDbMText
 10
1984.691320154406
 20
1844.168870513821
 30
0.0
 40
70.0
 41
0.0
 71
     5
 72
     1
  1
20
 73
     1
 44
1.0
1001
ACAD
1000
MTEXTBEGIN
1070
    73
1070
     1
1070
    44
1040
1.0
1070
    74
1070
     0
1000
MTEXTEND
  0
POINT
  5
716
330
70D
100
AcDbEntity
  8
Defpoints
 62
     0
100
AcDbPoint
 10
2084.691320154632
 20
1587.161979749789
 30
0.0
  0
POINT
  5
717
330
70D
100
AcDbEntity
  8
Defpoints
 62
     0
100
AcDbPoint
 10
1884.691320154181
 20
1997.161979749871
 30
0.0
  0
POINT
  5
718
330
70D
100
AcDbEntity
  8
Defpoints
 62
     0
100
AcDbPoint
 10
1884.691320154181
 20
1797.161980750041
 30
0.0
  0
ENDBLK
  5
70F
330
70D
100
AcDbEntity
  8
0
100
AcDbBlockEnd
  0
BLOCK
  5
71A
330
719
100
AcDbEntity
  8
0
100
AcDbBlockBegin
  2
*D33
 70
     1
 10
0.0
 20
0.0
 30
0.0
  3
*D33
  1

  0
LINE
  5
71C
330
719
100
AcDbEntity
  8
5
370
    -2
100
AcDbLine
 10
2919.691320153394
 20
1597.161979749867
 30
0.0
 11
3719.060031124852
 21
1597.161979749867
 31
0.0
  0
LINE
  5
71D
330
719
100
AcDbEntity
  8
5
370
    -2
100
AcDbLine
 10
3543.443076229977
 20
947.1619797490347
 30
0.0
 11
3719.060031124851
 21
947.1619797490347
 31
0.0
  0
LINE
  5
71E
330
719
100
AcDbEntity
  8
5
370
    -2
100
AcDbLine
 10
3699.060031124851
 20
1547.161979749867
 30
0.0
 11
3699.060031124851
 21
997.1619797490347
 31
0.0
  0
SOLID
  5
71F
330
719
100
AcDbEntity
  8
5
100
AcDbTrace
 10
3690.726697791518
 20
1547.161979749867
 30
0.0
 11
3707.393364458185
 21
1547.161979749867
 31
0.0
 12
3699.060031124851
 22
1597.161979749867
 32
0.0
 13
3699.060031124851
 23
1597.161979749867
 33
0.0
  0
SOLID
  5
720
330
719
100
AcDbEntity
  8
5
100
AcDbTrace
 10
3690.726697791518
 20
997.1619797490347
 30
0.0
 11
3707.393364458184
 21
997.1619797490347
 31
0.0
 12
3699.060031124851
 22
947.1619797490347
 32
0.0
 13
3699.060031124851
 23
947.1619797490347
 33
0.0
  0
MTEXT
  5
721
330
719
100
AcDbEntity
  8
5
 62
     2
100
AcDbMText
 10
3652.060031124851
 20
1322.995313082642
 30
0.0
 40
70.0
 41
0.0
 71
     5
 72
     1
  1
65
 11
0.0000000000000001
 21
1.0
 31
0.0
 73
     1
 44
1.0
1001
ACAD
1000
MTEXTBEGIN
1070
    73
1070
     1
1070
    44
1040
1.0
1070
    74
1070
     0
1000
MTEXTEND
  0
POINT
  5
722
330
719
100
AcDbEntity
  8
Defpoints
 62
     0
100
AcDbPoint
 10
2899.691320153394
 20
1597.161979749867
 30
0.0
  0
POINT
  5
723
330
719
100
AcDbEntity
  8
Defpoints
 62
     0
100
AcDbPoint
 10
3523.443076229977
 20
947.1619797490347
 30
0.0
  0
POINT
  5
724
330
719
100
AcDbEntity
  8
Defpoints
 62
     0
100
AcDbPoint
 10
3699.060031124851
 20
947.1619797490347
 30
0.0
  0
ENDBLK
  5
71B
330
719
100
AcDbEntity
  8
0
100
AcDbBlockEnd
  0
BLOCK
  5
726
330
725
100
AcDbEntity
  8
0
100
AcDbBlockBegin
  2
*D34
 70
     1
 10
0.0
 20
0.0
 30
0.0
  3
*D34
  1

  0
LINE
  5
728
330
725
100
AcDbEntity
  8
5
370
    -2
100
AcDbLine
 10
1864.691320153646
 20
1597.161979749871
 30
0.0
 11
1673.143860157628
 21
1597.161979749871
 31
0.0
  0
LINE
  5
729
330
725
100
AcDbEntity
  8
5
370
    -2
100
AcDbLine
 10
1854.691320154181
 20
1997.161979749884
 30
0.0
 11
1673.143860157628
 21
1997.161979749884
 31
0.0
  0
LINE
  5
72A
330
725
100
AcDbEntity
  8
5
370
    -2
100
AcDbLine
 10
1693.143860157629
 20
1647.161979749871
 30
0.0
 11
1693.143860157629
 21
1947.161979749884
 31
0.0
  0
SOLID
  5
72B
330
725
100
AcDbEntity
  8
5
100
AcDbTrace
 10
1684.810526824295
 20
1647.161979749871
 30
0.0
 11
1701.477193490962
 21
1647.161979749871
 31
0.0
 12
1693.143860157629
 22
1597.161979749871
 32
0.0
 13
1693.143860157629
 23
1597.161979749871
 33
0.0
  0
SOLID
  5
72C
330
725
100
AcDbEntity
  8
5
100
AcDbTrace
 10
1684.810526824295
 20
1947.161979749884
 30
0.0
 11
1701.477193490962
 21
1947.161979749884
 31
0.0
 12
1693.143860157629
 22
1997.161979749884
 32
0.0
 13
1693.143860157629
 23
1997.161979749884
 33
0.0
  0
MTEXT
  5
72D
330
725
100
AcDbEntity
  8
5
 62
     2
100
AcDbMText
 10
1646.143860157628
 20
1797.161979750127
 30
0.0
 40
70.0
 41
0.0
 71
     5
 72
     1
  1
40
 11
0.0000000000000001
 21
1.0
 31
0.0
 73
     1
 44
1.0
1001
ACAD
1000
MTEXTBEGIN
1070
    73
1070
     1
1070
    44
1040
1.0
1070
    74
1070
     0
1000
MTEXTEND
  0
POINT
  5
72E
330
725
100
AcDbEntity
  8
Defpoints
 62
     0
100
AcDbPoint
 10
1884.691320153646
 20
1597.161979749871
 30
0.0
  0
POINT
  5
72F
330
725
100
AcDbEntity
  8
Defpoints
 62
     0
100
AcDbPoint
 10
1874.691320154181
 20
1997.161979749884
 30
0.0
  0
POINT
  5
730
330
725
100
AcDbEntity
  8
Defpoints
 62
     0
100
AcDbPoint
 10
1693.143860157629
 20
1997.161979749884
 30
0.0
  0
ENDBLK
  5
727
330
725
100
AcDbEntity
  8
0
100
AcDbBlockEnd
  0
BLOCK
  5
732
330
731
100
AcDbEntity
  8
0
100
AcDbBlockBegin
  2
*D35
 70
     1
 10
0.0
 20
0.0
 30
0.0
  3
*D35
  1

  0
LINE
  5
734
330
731
100
AcDbEntity
  8
5
370
    -2
100
AcDbLine
 10
1864.691320153646
 20
1597.161979749871
 30
0.0
 11
1673.143860157195
 21
1597.161979749871
 31
0.0
  0
LINE
  5
735
330
731
100
AcDbEntity
  8
5
370
    -2
100
AcDbLine
 10
2464.691320153315
 20
1347.161979749869
 30
0.0
 11
1673.143860157195
 21
1347.161979749869
 31
0.0
  0
LINE
  5
736
330
731
100
AcDbEntity
  8
5
370
    -2
100
AcDbLine
 10
1693.143860157195
 20
1547.161979749871
 30
0.0
 11
1693.143860157195
 21
1397.161979749869
 31
0.0
  0
SOLID
  5
737
330
731
100
AcDbEntity
  8
5
100
AcDbTrace
 10
1684.810526823861
 20
1547.161979749871
 30
0.0
 11
1701.477193490528
 21
1547.161979749871
 31
0.0
 12
1693.143860157195
 22
1597.161979749871
 32
0.0
 13
1693.143860157195
 23
1597.161979749871
 33
0.0
  0
SOLID
  5
738
330
731
100
AcDbEntity
  8
5
100
AcDbTrace
 10
1684.810526823861
 20
1397.161979749869
 30
0.0
 11
1701.477193490528
 21
1397.161979749869
 31
0.0
 12
1693.143860157195
 22
1347.161979749869
 32
0.0
 13
1693.143860157195
 23
1347.161979749869
 33
0.0
  0
MTEXT
  5
739
330
731
100
AcDbEntity
  8
5
 62
     2
100
AcDbMText
 10
1646.136970393415
 20
1472.161979750649
 30
0.0
 40
70.0
 41
0.0
 71
     5
 72
     1
  1
25
 11
0.0000000000000001
 21
1.0
 31
0.0
 73
     1
 44
1.0
1001
ACAD
1000
MTEXTBEGIN
1070
    73
1070
     1
1070
    44
1040
1.0
1070
    74
1070
     0
1000
MTEXTEND
  0
POINT
  5
73A
330
731
100
AcDbEntity
  8
Defpoints
 62
     0
100
AcDbPoint
 10
1884.691320153646
 20
1597.161979749871
 30
0.0
  0
POINT
  5
73B
330
731
100
AcDbEntity
  8
Defpoints
 62
     0
100
AcDbPoint
 10
2484.691320153315
 20
1347.161979749869
 30
0.0
  0
POINT
  5
73C
330
731
100
AcDbEntity
  8
Defpoints
 62
     0
100
AcDbPoint
 10
1693.143860157195
 20
1347.161979749869
 30
0.0
  0
ENDBLK
  5
733
330
731
100
AcDbEntity
  8
0
100
AcDbBlockEnd
  0
BLOCK
  5
73E
330
73D
100
AcDbEntity
  8
0
100
AcDbBlockBegin
  2
*D36
 70
     1
 10
0.0
 20
0.0
 30
0.0
  3
*D36
  1

  0
ARC
  5
740
330
73D
100
AcDbEntity
  8
5
370
    -2
100
AcDbCircle
 10
2484.691320153337
 20
1363.828646416372
 30
0.0
 40
146.0280237356523
100
AcDbArc
 50
24.47883738056146
 51
155.5211626192857
  0
SOLID
  5
741
330
73D
100
AcDbEntity
  8
5
100
AcDbTrace
 10
2625.656988114494
 20
1426.439964070062
 30
0.0
 11
2609.530060415727
 21
1422.232829561095
 31
0.0
 12
2630.214927792011
 22
1375.955613719279
 32
0.0
 13
2630.214927792011
 23
1375.955613719279
 33
0.0
  0
SOLID
  5
742
330
73D
100
AcDbEntity
  8
5
100
AcDbTrace
 10
2359.852579891103
 20
1422.232829561428
 30
0.0
 11
2343.725652192348
 21
1426.439964070438
 31
0.0
 12
2339.167712514697
 22
1375.955613719667
 32
0.0
 13
2339.167712514697
 23
1375.955613719667
 33
0.0
  0
MTEXT
  5
743
330
73D
100
AcDbEntity
  8
5
 62
     2
100
AcDbMText
 10
2389.423538531866
 20
1531.709162654007
 30
0.0
 40
70.0
 41
0.0
 71
     5
 72
     1
  1
170\U+00B0
 11
0.8697209502986204
 21
0.4935437859113056
 31
0.0
 73
     1
 44
1.0
1001
ACAD
1000
MTEXTBEGIN
1070
    73
1070
     1
1070
    44
1040
1.0
1070
    74
1070
     0
1000
MTEXTEND
  0
POINT
  5
744
330
73D
100
AcDbEntity
  8
Defpoints
 62
     0
100
AcDbPoint
 10
2554.172952864657
 20
1492.267294929618
 30
0.0
  0
POINT
  5
745
330
73D
100
AcDbEntity
  8
Defpoints
 62
     0
100
AcDbPoint
 10
2484.691320153337
 20
1363.828646416372
 30
0.0
  0
POINT
  5
746
330
73D
100
AcDbEntity
  8
Defpoints
 62
     0
100
AcDbPoint
 10
2484.691320153337
 20
1363.828646416372
 30
0.0
  0
POINT
  5
747
330
73D
100
AcDbEntity
  8
Defpoints
 62
     0
100
AcDbPoint
 10
3070.937002350686
 20
1412.682453264881
 30
0.0
  0
POINT
  5
748
330
73D
100
AcDbEntity
  8
Defpoints
 62
     0
100
AcDbPoint
 10
1898.44563795612
 20
1412.682453266445
 30
0.0
  0
ENDBLK
  5
73F
330
73D
100
AcDbEntity
  8
0
100
AcDbBlockEnd
  0
BLOCK
  5
74A
330
749
100
AcDbEntity
  8
0
100
AcDbBlockBegin
  2
*D37
 70
     1
 10
0.0
 20
0.0
 30
0.0
  3
*D37
  1

  0
LINE
  5
74C
330
749
100
AcDbEntity
  8
5
370
    -2
100
AcDbLine
 10
1864.691320153646
 20
1597.161979749871
 30
0.0
 11
1535.292551530307
 21
1597.161979749872
 31
0.0
  0
LINE
  5
74D
330
749
100
AcDbEntity
  8
5
370
    -2
100
AcDbLine
 10
2154.691320152179
 20
527.1619797497302
 30
0.0
 11
1535.292551530307
 21
527.1619797497303
 31
0.0
  0
LINE
  5
74E
330
749
100
AcDbEntity
  8
5
370
    -2
100
AcDbLine
 10
1555.292551530307
 20
1547.161979749871
 30
0.0
 11
1555.292551530307
 21
577.1619797497303
 31
0.0
  0
SOLID
  5
74F
330
749
100
AcDbEntity
  8
5
100
AcDbTrace
 10
1546.959218196974
 20
1547.161979749871
 30
0.0
 11
1563.62588486364
 21
1547.161979749871
 31
0.0
 12
1555.292551530307
 22
1597.161979749871
 32
0.0
 13
1555.292551530307
 23
1597.161979749871
 33
0.0
  0
SOLID
  5
750
330
749
100
AcDbEntity
  8
5
100
AcDbTrace
 10
1546.959218196974
 20
577.1619797497303
 30
0.0
 11
1563.62588486364
 21
577.1619797497303
 31
0.0
 12
1555.292551530307
 22
527.1619797497303
 32
0.0
 13
1555.292551530307
 23
527.1619797497303
 33
0.0
  0
MTEXT
  5
751
330
749
100
AcDbEntity
  8
5
 62
     2
100
AcDbMText
 10
1508.292551530307
 20
1062.161979750557
 30
0.0
 40
70.0
 41
0.0
 71
     5
 72
     1
  1
107
 11
0.0000000000000001
 21
1.0
 31
0.0
 73
     1
 44
1.0
1001
ACAD
1000
MTEXTBEGIN
1070
    73
1070
     1
1070
    44
1040
1.0
1070
    74
1070
     0
1000
MTEXTEND
  0
POINT
  5
752
330
749
100
AcDbEntity
  8
Defpoints
 62
     0
100
AcDbPoint
 10
1884.691320153646
 20
1597.161979749871
 30
0.0
  0
POINT
  5
753
330
749
100
AcDbEntity
  8
Defpoints
 62
     0
100
AcDbPoint
 10
2174.691320152179
 20
527.1619797497302
 30
0.0
  0
POINT
  5
754
330
749
100
AcDbEntity
  8
Defpoints
 62
     0
100
AcDbPoint
 10
1555.292551530307
 20
527.1619797497303
 30
0.0
  0
ENDBLK
  5
74B
330
749
100
AcDbEntity
  8
0
100
AcDbBlockEnd
  0
BLOCK
  5
756
330
755
100
AcDbEntity
  8
0
100
AcDbBlockBegin
  2
*D38
 70
     1
 10
0.0
 20
0.0
 30
0.0
  3
*D38
  1

  0
LINE
  5
758
330
755
100
AcDbEntity
  8
5
  6
ByBlock
370
    -2
100
AcDbLine
 10
2104.691320152273
 20
577.161979749824
 30
0.0
 11
2104.691320152273
 21
329.0546077545844
 31
0.0
  0
LINE
  5
759
330
755
100
AcDbEntity
  8
5
  6
ByBlock
370
    -2
100
AcDbLine
 10
2864.691320152289
 20
577.1619797488101
 30
0.0
 11
2864.691320152289
 21
329.0546077545844
 31
0.0
  0
LINE
  5
75A
330
755
100
AcDbEntity
  8
5
  6
ByBlock
370
    -2
100
AcDbLine
 10
2154.691320152273
 20
349.0546077545844
 30
0.0
 11
2814.691320152289
 21
349.0546077545844
 31
0.0
  0
SOLID
  5
75B
330
755
100
AcDbEntity
  8
5
  6
ByBlock
100
AcDbTrace
 10
2154.691320152273
 20
357.3879410879177
 30
0.0
 11
2154.691320152273
 21
340.7212744212511
 31
0.0
 12
2104.691320152273
 22
349.0546077545844
 32
0.0
 13
2104.691320152273
 23
349.0546077545844
 33
0.0
  0
SOLID
  5
75C
330
755
100
AcDbEntity
  8
5
  6
ByBlock
100
AcDbTrace
 10
2814.691320152289
 20
357.3879410879177
 30
0.0
 11
2814.691320152289
 21
340.7212744212511
 31
0.0
 12
2864.691320152289
 22
349.0546077545844
 32
0.0
 13
2864.691320152289
 23
349.0546077545844
 33
0.0
  0
MTEXT
  5
75D
330
755
100
AcDbEntity
  8
5
  6
ByBlock
 62
     2
100
AcDbMText
 10
2484.691320152281
 20
396.0546077545844
 30
0.0
 40
70.0
 41
0.0
 71
     5
 72
     1
  1
%%c 75
 73
     1
 44
1.0
1001
ACAD
1000
MTEXTBEGIN
1070
    73
1070
     1
1070
    44
1040
1.0
1070
    74
1070
     0
1000
MTEXTEND
  0
POINT
  5
75E
330
755
100
AcDbEntity
  8
Defpoints
  6
ByBlock
 62
     0
100
AcDbPoint
 10
2104.691320152273
 20
597.161979749824
 30
0.0
  0
POINT
  5
75F
330
755
100
AcDbEntity
  8
Defpoints
  6
ByBlock
 62
     0
100
AcDbPoint
 10
2864.691320152289
 20
597.1619797488101
 30
0.0
  0
POINT
  5
760
330
755
100
AcDbEntity
  8
Defpoints
  6
ByBlock
 62
     0
100
AcDbPoint
 10
2864.691320152289
 20
349.0546077545844
 30
0.0
  0
ENDBLK
  5
757
330
755
100
AcDbEntity
  8
0
100
AcDbBlockEnd
  0
BLOCK
  5
762
330
761
100
AcDbEntity
  8
0
100
AcDbBlockBegin
  2
*D39
 70
     1
 10
0.0
 20
0.0
 30
0.0
  3
*D39
  1

  0
LINE
  5
764
330
761
100
AcDbEntity
  8
5
370
    -2
100
AcDbLine
 10
2879.691320153394
 20
1597.161979749867
 30
0.0
 11
2743.063333526788
 21
1597.161979749867
 31
0.0
  0
LINE
  5
765
330
761
100
AcDbEntity
  8
5
370
    -2
100
AcDbLine
 10
2860.729554453845
 20
1400.807330637515
 30
0.0
 11
2743.063333526788
 21
1400.807330637515
 31
0.0
  0
LINE
  5
766
330
761
100
AcDbEntity
  8
5
370
    -2
100
AcDbLine
 10
2763.063333526788
 20
1547.161979749867
 30
0.0
 11
2763.063333526788
 21
1450.807330637515
 31
0.0
  0
SOLID
  5
767
330
761
100
AcDbEntity
  8
5
100
AcDbTrace
 10
2754.730000193454
 20
1547.161979749867
 30
0.0
 11
2771.396666860122
 21
1547.161979749867
 31
0.0
 12
2763.063333526788
 22
1597.161979749867
 32
0.0
 13
2763.063333526788
 23
1597.161979749867
 33
0.0
  0
SOLID
  5
768
330
761
100
AcDbEntity
  8
5
100
AcDbTrace
 10
2754.730000193454
 20
1450.807330637515
 30
0.0
 11
2771.396666860122
 21
1450.807330637515
 31
0.0
 12
2763.063333526788
 22
1400.807330637515
 32
0.0
 13
2763.063333526788
 23
1400.807330637515
 33
0.0
  0
MTEXT
  5
769
330
761
100
AcDbEntity
  8
5
 62
     2
100
AcDbMText
 10
2716.056443763009
 20
1496.588883174419
 30
0.0
 40
70.0
 41
0.0
 71
     5
 72
     1
  1
20
 11
0.0000000000000001
 21
1.0
 31
0.0
 73
     1
 44
1.0
1001
ACAD
1000
MTEXTBEGIN
1070
    73
1070
     1
1070
    44
1040
1.0
1070
    74
1070
     0
1000
MTEXTEND
  0
POINT
  5
76A
330
761
100
AcDbEntity
  8
Defpoints
 62
     0
100
AcDbPoint
 10
2899.691320153394
 20
1597.161979749867
 30
0.0
  0
POINT
  5
76B
330
761
100
AcDbEntity
  8
Defpoints
 62
     0
100
AcDbPoint
 10
2880.729554453846
 20
1400.807330637515
 30
0.0
  0
POINT
  5
76C
330
761
100
AcDbEntity
  8
Defpoints
 62
     0
100
AcDbPoint
 10
2763.063333526788
 20
1400.807330637515
 30
0.0
  0
ENDBLK
  5
763
330
761
100
AcDbEntity
  8
0
100
AcDbBlockEnd
  0
BLOCK
  5
76E
330
76D
100
AcDbEntity
  8
0
100
AcDbBlockBegin
  2
*D40
 70
     1
 10
0.0
 20
0.0
 30
0.0
  3
*D40
  1

  0
LINE
  5
7AC
330
76D
100
AcDbEntity
  8
5
370
    -2
100
AcDbLine
 10
3469.691320153081
 20
1197.161979749133
 30
0.0
 11
3697.310031124851
 21
1197.161979749133
 31
0.0
  0
LINE
  5
7AD
330
76D
100
AcDbEntity
  8
5
370
    -2
100
AcDbLine
 10
3469.691320152421
 20
697.1619797491337
 30
0.0
 11
3889.700417468809
 21
697.1619797491335
 31
0.0
  0
LINE
  5
7AE
330
76D
100
AcDbEntity
  8
5
370
    -2
100
AcDbLine
 10
3869.70041746881
 20
1147.161979749133
 30
0.0
 11
3869.700417468809
 21
747.1619797491335
 31
0.0
  0
SOLID
  5
7AF
330
76D
100
AcDbEntity
  8
5
100
AcDbTrace
 10
3861.367084135476
 20
1147.161979749133
 30
0.0
 11
3878.033750802143
 21
1147.161979749133
 31
0.0
 12
3869.70041746881
 22
1197.161979749133
 32
0.0
 13
3869.70041746881
 23
1197.161979749133
 33
0.0
  0
SOLID
  5
7B0
330
76D
100
AcDbEntity
  8
5
100
AcDbTrace
 10
3861.367084135475
 20
747.1619797491335
 30
0.0
 11
3878.033750802142
 21
747.1619797491335
 31
0.0
 12
3869.700417468809
 22
697.1619797491335
 32
0.0
 13
3869.700417468809
 23
697.1619797491335
 33
0.0
  0
MTEXT
  5
7B1
330
76D
100
AcDbEntity
  8
5
 62
     2
100
AcDbMText
 10
3822.700417468809
 20
945.9119797485854
 30
0.0
 40
70.0
 41
0.0
 71
     5
 72
     1
  1
%%c 50
 11
0.0000000000000001
 21
1.0
 31
0.0
 73
     1
 44
1.0
1001
ACAD
1000
MTEXTBEGIN
1070
    73
1070
     1
1070
    44
1040
1.0
1070
    74
1070
     0
1000
MTEXTEND
  0
POINT
  5
7B2
330
76D
100
AcDbEntity
  8
Defpoints
 62
     0
100
AcDbPoint
 10
3449.691320153081
 20
1197.161979749133
 30
0.0
  0
POINT
  5
7B3
330
76D
100
AcDbEntity
  8
Defpoints
 62
     0
100
AcDbPoint
 10
3449.69132015242
 20
697.1619797491337
 30
0.0
  0
POINT
  5
7B4
330
76D
100
AcDbEntity
  8
Defpoints
 62
     0
100
AcDbPoint
 10
3869.700417468809
 20
697.1619797491335
 30
0.0
  0
LINE
  5
7B5
330
76D
100
AcDbEntity
  8
5
370
    -2
100
AcDbLine
 10
3700.810031124851
 20
1197.161979749133
 30
0.0
 11
3889.70041746881
 21
1197.161979749133
 31
0.0
  0
ENDBLK
  5
76F
330
76D
100
AcDbEntity
  8
0
100
AcDbBlockEnd
  0
BLOCK
  5
77A
330
779
100
AcDbEntity
  8
0
100
AcDbBlockBegin
  2
*D41
 70
     1
 10
0.0
 20
0.0
 30
0.0
  3
*D41
  1

  0
LINE
  5
77C
330
779
100
AcDbEntity
  8
5
  6
ByBlock
370
    -2
100
AcDbLine
 10
3224.691320153308
 20
1447.161979748083
 30
0.0
 11
3333.889303012142
 21
1447.161979748083
 31
0.0
  0
LINE
  5
77D
330
779
100
AcDbEntity
  8
5
  6
ByBlock
370
    -2
100
AcDbLine
 10
3224.691320153315
 20
1437.161979748073
 30
0.0
 11
3333.889303012142
 21
1437.161979748073
 31
0.0
  0
LINE
  5
77E
330
779
100
AcDbEntity
  8
5
  6
ByBlock
370
    -2
100
AcDbLine
 10
3313.889303012142
 20
1497.161979748083
 30
0.0
 11
3313.889303012142
 21
1547.161979748083
 31
0.0
  0
LINE
  5
77F
330
779
100
AcDbEntity
  8
5
  6
ByBlock
370
    -2
100
AcDbLine
 10
3313.889303012142
 20
1387.161979748073
 30
0.0
 11
3313.889303012142
 21
1299.161979748074
 31
0.0
  0
LINE
  5
780
330
779
100
AcDbEntity
  8
5
  6
ByBlock
370
    -2
100
AcDbLine
 10
3313.889303012142
 20
1447.161979748083
 30
0.0
 11
3313.889303012142
 21
1437.161979748073
 31
0.0
  0
SOLID
  5
781
330
779
100
AcDbEntity
  8
5
  6
ByBlock
100
AcDbTrace
 10
3305.555969678808
 20
1497.161979748083
 30
0.0
 11
3322.222636345475
 21
1497.161979748083
 31
0.0
 12
3313.889303012142
 22
1447.161979748083
 32
0.0
 13
3313.889303012142
 23
1447.161979748083
 33
0.0
  0
SOLID
  5
782
330
779
100
AcDbEntity
  8
5
  6
ByBlock
100
AcDbTrace
 10
3305.555969678808
 20
1387.161979748073
 30
0.0
 11
3322.222636345475
 21
1387.161979748073
 31
0.0
 12
3313.889303012142
 22
1437.161979748073
 32
0.0
 13
3313.889303012142
 23
1437.161979748073
 33
0.0
  0
MTEXT
  5
783
330
779
100
AcDbEntity
  8
5
  6
ByBlock
 62
     2
100
AcDbMText
 10
3266.889303012141
 20
1318.161979748074
 30
0.0
 40
70.0
 41
0.0
 71
     5
 72
     1
  1
1
 11
0.0000000000000001
 21
1.0
 31
0.0
 73
     1
 44
1.0
1001
ACAD
1000
MTEXTBEGIN
1070
    73
1070
     1
1070
    44
1040
1.0
1070
    74
1070
     0
1000
MTEXTEND
  0
POINT
  5
784
330
779
100
AcDbEntity
  8
Defpoints
  6
ByBlock
 62
     0
100
AcDbPoint
 10
3204.691320153308
 20
1447.161979748083
 30
0.0
  0
POINT
  5
785
330
779
100
AcDbEntity
  8
Defpoints
  6
ByBlock
 62
     0
100
AcDbPoint
 10
3204.691320153315
 20
1437.161979748073
 30
0.0
  0
POINT
  5
786
330
779
100
AcDbEntity
  8
Defpoints
  6
ByBlock
 62
     0
100
AcDbPoint
 10
3313.889303012142
 20
1437.161979748073
 30
0.0
  0
ENDBLK
  5
77B
330
779
100
AcDbEntity
  8
0
100
AcDbBlockEnd
  0
BLOCK
  5
788
330
787
100
AcDbEntity
  8
0
100
AcDbBlockBegin
  2
*D42
 70
     1
 10
0.0
 20
0.0
 30
0.0
  3
*D42
  1

  0
LINE
  5
78A
330
787
100
AcDbEntity
  8
5
  6
ByBlock
370
    -2
100
AcDbLine
 10
2904.691320153498
 20
1542.161979749276
 30
0.0
 11
2904.691320153498
 21
1812.029241301765
 31
0.0
  0
LINE
  5
78B
330
787
100
AcDbEntity
  8
5
  6
ByBlock
370
    -2
100
AcDbLine
 10
3204.691320153308
 20
1467.161979748083
 30
0.0
 11
3204.691320153308
 21
1812.029241301765
 31
0.0
  0
LINE
  5
78C
330
787
100
AcDbEntity
  8
5
  6
ByBlock
370
    -2
100
AcDbLine
 10
2954.691320153498
 20
1792.029241301765
 30
0.0
 11
3154.691320153308
 21
1792.029241301765
 31
0.0
  0
SOLID
  5
78D
330
787
100
AcDbEntity
  8
5
  6
ByBlock
100
AcDbTrace
 10
2954.691320153498
 20
1800.362574635099
 30
0.0
 11
2954.691320153498
 21
1783.695907968432
 31
0.0
 12
2904.691320153498
 22
1792.029241301765
 32
0.0
 13
2904.691320153498
 23
1792.029241301765
 33
0.0
  0
SOLID
  5
78E
330
787
100
AcDbEntity
  8
5
  6
ByBlock
100
AcDbTrace
 10
3154.691320153308
 20
1800.362574635099
 30
0.0
 11
3154.691320153308
 21
1783.695907968432
 31
0.0
 12
3204.691320153308
 22
1792.029241301765
 32
0.0
 13
3204.691320153308
 23
1792.029241301765
 33
0.0
  0
MTEXT
  5
78F
330
787
100
AcDbEntity
  8
5
  6
ByBlock
 62
     2
100
AcDbMText
 10
3054.691320153403
 20
1839.029241301765
 30
0.0
 40
70.0
 41
0.0
 71
     5
 72
     1
  1
30
 73
     1
 44
1.0
1001
ACAD
1000
MTEXTBEGIN
1070
    73
1070
     1
1070
    44
1040
1.0
1070
    74
1070
     0
1000
MTEXTEND
  0
POINT
  5
790
330
787
100
AcDbEntity
  8
Defpoints
  6
ByBlock
 62
     0
100
AcDbPoint
 10
2904.691320153498
 20
1522.161979749276
 30
0.0
  0
POINT
  5
791
330
787
100
AcDbEntity
  8
Defpoints
  6
ByBlock
 62
     0
100
AcDbPoint
 10
3204.691320153308
 20
1447.161979748083
 30
0.0
  0
POINT
  5
792
330
787
100
AcDbEntity
  8
Defpoints
  6
ByBlock
 62
     0
100
AcDbPoint
 10
3204.691320153308
 20
1792.029241301765
 30
0.0
  0
ENDBLK
  5
789
330
787
100
AcDbEntity
  8
0
100
AcDbBlockEnd
  0
BLOCK
  5
794
330
793
100
AcDbEntity
  8
0
100
AcDbBlockBegin
  2
*D43
 70
     1
 10
0.0
 20
0.0
 30
0.0
  3
*D43
  1

  0
LINE
  5
796
330
793
100
AcDbEntity
  8
5
  6
ByBlock
370
    -2
100
AcDbLine
 10
2914.691320153531
 20
1597.161979749672
 30
0.0
 11
3528.633116714384
 21
1597.161979749672
 31
0.0
  0
LINE
  5
797
330
793
100
AcDbEntity
  8
5
  6
ByBlock
370
    -2
100
AcDbLine
 10
3224.691320153328
 20
1447.161979748083
 30
0.0
 11
3528.633116714384
 21
1447.161979748083
 31
0.0
  0
LINE
  5
798
330
793
100
AcDbEntity
  8
5
  6
ByBlock
370
    -2
100
AcDbLine
 10
3508.633116714384
 20
1547.161979749672
 30
0.0
 11
3508.633116714384
 21
1497.161979748083
 31
0.0
  0
SOLID
  5
799
330
793
100
AcDbEntity
  8
5
  6
ByBlock
100
AcDbTrace
 10
3500.299783381051
 20
1547.161979749672
 30
0.0
 11
3516.966450047717
 21
1547.161979749672
 31
0.0
 12
3508.633116714384
 22
1597.161979749672
 32
0.0
 13
3508.633116714384
 23
1597.161979749672
 33
0.0
  0
SOLID
  5
79A
330
793
100
AcDbEntity
  8
5
  6
ByBlock
100
AcDbTrace
 10
3500.299783381051
 20
1497.161979748083
 30
0.0
 11
3516.966450047717
 21
1497.161979748083
 31
0.0
 12
3508.633116714384
 22
1447.161979748083
 32
0.0
 13
3508.633116714384
 23
1447.161979748083
 33
0.0
  0
MTEXT
  5
79B
330
793
100
AcDbEntity
  8
5
  6
ByBlock
 62
     2
100
AcDbMText
 10
3461.633116714383
 20
1522.161979748878
 30
0.0
 40
70.0
 41
0.0
 71
     5
 72
     1
  1
15
 11
0.0000000000000001
 21
1.0
 31
0.0
 73
     1
 44
1.0
1001
ACAD
1000
MTEXTBEGIN
1070
    73
1070
     1
1070
    44
1040
1.0
1070
    74
1070
     0
1000
MTEXTEND
  0
POINT
  5
79C
330
793
100
AcDbEntity
  8
Defpoints
  6
ByBlock
 62
     0
100
AcDbPoint
 10
2894.691320153532
 20
1597.161979749672
 30
0.0
  0
POINT
  5
79D
330
793
100
AcDbEntity
  8
Defpoints
  6
ByBlock
 62
     0
100
AcDbPoint
 10
3204.691320153328
 20
1447.161979748083
 30
0.0
  0
POINT
  5
79E
330
793
100
AcDbEntity
  8
Defpoints
  6
ByBlock
 62
     0
100
AcDbPoint
 10
3508.633116714384
 20
1447.161979748083
 30
0.0
  0
ENDBLK
  5
795
330
793
100
AcDbEntity
  8
0
100
AcDbBlockEnd
  0
BLOCK
  5
7A0
330
79F
100
AcDbEntity
  8
0
100
AcDbBlockBegin
  2
*D44
 70
     1
 10
0.0
 20
0.0
 30
0.0
  3
*D44
  1

  0
LINE
  5
7A2
330
79F
100
AcDbEntity
  8
5
370
    -2
100
AcDbLine
 10
2397.726305482382
 20
868.1073718501641
 30
0.0
 11
2625.345016454152
 21
868.107371850164
 31
0.0
  0
LINE
  5
7A3
330
79F
100
AcDbEntity
  8
5
370
    -2
100
AcDbLine
 10
2397.726305481722
 20
368.1073718501646
 30
0.0
 11
2817.73540279811
 21
368.1073718501644
 31
0.0
  0
LINE
  5
7A4
330
79F
100
AcDbEntity
  8
5
370
    -2
100
AcDbLine
 10
2797.73540279811
 20
818.1073718501641
 30
0.0
 11
2797.73540279811
 21
418.1073718501644
 31
0.0
  0
SOLID
  5
7A5
330
79F
100
AcDbEntity
  8
5
100
AcDbTrace
 10
2789.402069464776
 20
818.1073718501641
 30
0.0
 11
2806.068736131443
 21
818.1073718501641
 31
0.0
 12
2797.73540279811
 22
868.1073718501641
 32
0.0
 13
2797.73540279811
 23
868.1073718501641
 33
0.0
  0
SOLID
  5
7A6
330
79F
100
AcDbEntity
  8
5
100
AcDbTrace
 10
2789.402069464776
 20
418.1073718501644
 30
0.0
 11
2806.068736131443
 21
418.1073718501644
 31
0.0
 12
2797.73540279811
 22
368.1073718501644
 32
0.0
 13
2797.73540279811
 23
368.1073718501644
 33
0.0
  0
MTEXT
  5
7A7
330
79F
100
AcDbEntity
  8
5
 62
     2
100
AcDbMText
 10
2750.73540279811
 20
616.8573718496165
 30
0.0
 40
70.0
 41
0.0
 71
     5
 72
     1
  1
%%c 50
 11
0.0000000000000001
 21
1.0
 31
0.0
 73
     1
 44
1.0
1001
ACAD
1000
MTEXTBEGIN
1070
    73
1070
     1
1070
    44
1040
1.0
1070
    74
1070
     0
1000
MTEXTEND
  0
POINT
  5
7A8
330
79F
100
AcDbEntity
  8
Defpoints
 62
     0
100
AcDbPoint
 10
2377.726305482382
 20
868.1073718501641
 30
0.0
  0
POINT
  5
7A9
330
79F
100
AcDbEntity
  8
Defpoints
 62
     0
100
AcDbPoint
 10
2377.726305481721
 20
368.1073718501646
 30
0.0
  0
POINT
  5
7AA
330
79F
100
AcDbEntity
  8
Defpoints
 62
     0
100
AcDbPoint
 10
2797.73540279811
 20
368.1073718501644
 30
0.0
  0
LINE
  5
7AB
330
79F
100
AcDbEntity
  8
5
370
    -2
100
AcDbLine
 10
2628.845016454152
 20
868.107371850164
 30
0.0
 11
2817.73540279811
 21
868.107371850164
 31
0.0
  0
ENDBLK
  5
7A1
330
79F
100
AcDbEntity
  8
0
100
AcDbBlockEnd
  0
BLOCK
  5
7B8
330
7B7
100
AcDbEntity
  8
0
100
AcDbBlockBegin
  2
*D45
 70
     1
 10
0.0
 20
0.0
 30
0.0
  3
*D45
  1

  0
LINE
  5
7B9
330
7B7
100
AcDbEntity
  8
AM_5
  6
ByBlock
100
AcDbLine
 10
1119.159581747771
 20
443.1271517414323
 30
0.0
 11
1119.159581747771
 21
491.8577392403484
 31
0.0
  0
LINE
  5
7BA
330
7B7
100
AcDbEntity
  8
AM_5
  6
ByBlock
100
AcDbLine
 10
1039.159581747869
 20
443.1271517413223
 30
0.0
 11
1039.159581747869
 21
491.8577392403484
 31
0.0
  0
LINE
  5
7BB
330
7B7
100
AcDbEntity
  8
AM_5
  6
ByBlock
100
AcDbLine
 10
1112.159581747771
 20
490.8577392403485
 30
0.0
 11
1046.159581747869
 21
490.8577392403485
 31
0.0
  0
SOLID
  5
7BC
330
7B7
100
AcDbEntity
  8
AM_5
100
AcDbTrace
 10
1112.159581747771
 20
492.0244059070151
 30
0.0
 11
1112.159581747771
 21
489.6910725736818
 31
0.0
 12
1119.159581747771
 22
490.8577392403485
 32
0.0
 13
1119.159581747771
 23
490.8577392403485
 33
0.0
  0
SOLID
  5
7BD
330
7B7
100
AcDbEntity
  8
AM_5
100
AcDbTrace
 10
1046.159581747869
 20
492.0244059070151
 30
0.0
 11
1046.159581747869
 21
489.6910725736818
 31
0.0
 12
1039.159581747869
 22
490.8577392403485
 32
0.0
 13
1039.159581747869
 23
490.8577392403485
 33
0.0
  0
MTEXT
  5
7BE
330
7B7
100
AcDbEntity
  8
AM_5
 62
     2
100
AcDbMText
 10
1079.15958174782
 20
497.3577392403485
 30
0.0
 40
10.0
 41
0.0
 71
     5
 72
     1
  1
80
 73
     1
 44
1.0
1001
ACAD
1000
MTEXTBEGIN
1070
    73
1070
     1
1070
    44
1040
1.0
1070
    74
1070
     0
1000
MTEXTEND
  0
POINT
  5
7BF
330
7B7
100
AcDbEntity
  8
Defpoints
 62
     0
100
AcDbPoint
 10
1119.159581747771
 20
442.1271517414323
 30
0.0
  0
POINT
  5
7C0
330
7B7
100
AcDbEntity
  8
Defpoints
 62
     0
100
AcDbPoint
 10
1039.159581747869
 20
442.1271517413223
 30
0.0
  0
POINT
  5
7C1
330
7B7
100
AcDbEntity
  8
Defpoints
 62
     0
100
AcDbPoint
 10
1039.159581747869
 20
490.8577392403485
 30
0.0
  0
ENDBLK
  5
7C2
330
7B7
100
AcDbEntity
  8
0
100
AcDbBlockEnd
  0
BLOCK
  5
7C4
330
7C3
100
AcDbEntity
  8
0
100
AcDbBlockBegin
  2
*D46
 70
     1
 10
0.0
 20
0.0
 30
0.0
  3
*D46
  1

  0
LINE
  5
7C5
330
7C3
100
AcDbEntity
  8
AM_5
  6
ByBlock
100
AcDbLine
 10
1037.159581747792
 20
443.1271517413248
 30
0.0
 11
1037.159581747792
 21
515.2540206467628
 31
0.0
  0
LINE
  5
7C6
330
7C3
100
AcDbEntity
  8
AM_5
  6
ByBlock
100
AcDbLine
 10
1121.159581747741
 20
443.1271517414287
 30
0.0
 11
1121.159581747741
 21
515.2540206467628
 31
0.0
  0
LINE
  5
7C7
330
7C3
100
AcDbEntity
  8
AM_5
  6
ByBlock
100
AcDbLine
 10
1044.159581747792
 20
514.2540206467628
 30
0.0
 11
1114.159581747741
 21
514.2540206467628
 31
0.0
  0
SOLID
  5
7C8
330
7C3
100
AcDbEntity
  8
AM_5
100
AcDbTrace
 10
1044.159581747792
 20
515.4206873134294
 30
0.0
 11
1044.159581747792
 21
513.0873539800961
 31
0.0
 12
1037.159581747792
 22
514.2540206467628
 32
0.0
 13
1037.159581747792
 23
514.2540206467628
 33
0.0
  0
SOLID
  5
7C9
330
7C3
100
AcDbEntity
  8
AM_5
100
AcDbTrace
 10
1114.159581747741
 20
515.4206873134294
 30
0.0
 11
1114.159581747741
 21
513.0873539800961
 31
0.0
 12
1121.159581747741
 22
514.2540206467628
 32
0.0
 13
1121.159581747741
 23
514.2540206467628
 33
0.0
  0
MTEXT
  5
7CA
330
7C3
100
AcDbEntity
  8
AM_5
 62
     2
100
AcDbMText
 10
1079.159581747766
 20
520.7540206467627
 30
0.0
 40
10.0
 41
0.0
 71
     5
 72
     1
  1
84
 73
     1
 44
1.0
1001
ACAD
1000
MTEXTBEGIN
1070
    73
1070
     1
1070
    44
1040
1.0
1070
    74
1070
     0
1000
MTEXTEND
  0
POINT
  5
7CB
330
7C3
100
AcDbEntity
  8
Defpoints
 62
     0
100
AcDbPoint
 10
1037.159581747792
 20
442.1271517413248
 30
0.0
  0
POINT
  5
7CC
330
7C3
100
AcDbEntity
  8
Defpoints
 62
     0
100
AcDbPoint
 10
1121.159581747741
 20
442.1271517414287
 30
0.0
  0
POINT
  5
7CD
330
7C3
100
AcDbEntity
  8
Defpoints
 62
     0
100
AcDbPoint
 10
1121.159581747741
 20
514.2540206467628
 30
0.0
  0
ENDBLK
  5
7CE
330
7C3
100
AcDbEntity
  8
0
100
AcDbBlockEnd
  0
BLOCK
  5
910
330
90F
100
AcDbEntity
  8
0
100
AcDbBlockBegin
  2
*D48
 70
     1
 10
0.0
 20
0.0
 30
0.0
  3
*D48
  1

  0
LINE
  5
980
330
90F
100
AcDbEntity
  8
AM_5
  6
ByBlock
100
AcDbLine
 10
1088.13960920135
 20
401.6829577469826
 30
0.0
 11
1088.13960920135
 21
465.8533871394666
 31
0.0
  0
LINE
  5
981
330
90F
100
AcDbEntity
  8
AM_5
  6
ByBlock
100
AcDbLine
 10
1008.139609201448
 20
401.6829577468727
 30
0.0
 11
1008.139609201448
 21
465.8533871394666
 31
0.0
  0
LINE
  5
982
330
90F
100
AcDbEntity
  8
AM_5
  6
ByBlock
100
AcDbLine
 10
1081.13960920135
 20
464.8533871394666
 30
0.0
 11
1015.139609201448
 21
464.8533871394666
 31
0.0
  0
SOLID
  5
983
330
90F
100
AcDbEntity
  8
AM_5
100
AcDbTrace
 10
1081.13960920135
 20
466.0200538061332
 30
0.0
 11
1081.13960920135
 21
463.6867204727998
 31
0.0
 12
1088.13960920135
 22
464.8533871394666
 32
0.0
 13
1088.13960920135
 23
464.8533871394666
 33
0.0
  0
SOLID
  5
984
330
90F
100
AcDbEntity
  8
AM_5
100
AcDbTrace
 10
1015.139609201448
 20
466.0200538061332
 30
0.0
 11
1015.139609201448
 21
463.6867204727998
 31
0.0
 12
1008.139609201448
 22
464.8533871394666
 32
0.0
 13
1008.139609201448
 23
464.8533871394666
 33
0.0
  0
MTEXT
  5
985
330
90F
100
AcDbEntity
  8
AM_5
 62
     2
100
AcDbMText
 10
1047.049539124342
 20
471.3533871394665
 30
0.0
 40
10.0
 41
0.0
 71
     5
 72
     1
  1
80
 73
     1
 44
1.0
1001
ACAD
1000
MTEXTBEGIN
1070
    73
1070
     1
1070
    44
1040
1.0
1070
    74
1070
     0
1000
MTEXTEND
  0
POINT
  5
986
330
90F
100
AcDbEntity
  8
Defpoints
 62
     0
100
AcDbPoint
 10
1088.13960920135
 20
400.6829577469826
 30
0.0
  0
POINT
  5
987
330
90F
100
AcDbEntity
  8
Defpoints
 62
     0
100
AcDbPoint
 10
1008.139609201448
 20
400.6829577468726
 30
0.0
  0
POINT
  5
988
330
90F
100
AcDbEntity
  8
Defpoints
 62
     0
100
AcDbPoint
 10
1008.139609201448
 20
464.8533871394666
 30
0.0
  0
ENDBLK
  5
911
330
90F
100
AcDbEntity
  8
0
100
AcDbBlockEnd
  0
BLOCK
  5
91C
330
91B
100
AcDbEntity
  8
0
100
AcDbBlockBegin
  2
*D49
 70
     1
 10
0.0
 20
0.0
 30
0.0
  3
*D49
  1

  0
LINE
  5
91E
330
91B
100
AcDbEntity
  8
AM_5
  6
ByBlock
100
AcDbLine
 10
962.5310444783451
 20
748.6049664794935
 30
0.0
 11
962.5310444783451
 21
820.7318353849315
 31
0.0
  0
LINE
  5
91F
330
91B
100
AcDbEntity
  8
AM_5
  6
ByBlock
100
AcDbLine
 10
1046.531044478294
 20
748.6049664795973
 30
0.0
 11
1046.531044478294
 21
820.7318353849315
 31
0.0
  0
LINE
  5
920
330
91B
100
AcDbEntity
  8
AM_5
  6
ByBlock
100
AcDbLine
 10
969.5310444783451
 20
819.7318353849315
 30
0.0
 11
1039.531044478294
 21
819.7318353849315
 31
0.0
  0
SOLID
  5
921
330
91B
100
AcDbEntity
  8
AM_5
100
AcDbTrace
 10
969.5310444783451
 20
820.8985020515982
 30
0.0
 11
969.5310444783451
 21
818.5651687182648
 31
0.0
 12
962.5310444783451
 22
819.7318353849315
 32
0.0
 13
962.5310444783451
 23
819.7318353849315
 33
0.0
  0
SOLID
  5
922
330
91B
100
AcDbEntity
  8
AM_5
100
AcDbTrace
 10
1039.531044478294
 20
820.8985020515982
 30
0.0
 11
1039.531044478294
 21
818.5651687182648
 31
0.0
 12
1046.531044478294
 22
819.7318353849315
 32
0.0
 13
1046.531044478294
 23
819.7318353849315
 33
0.0
  0
MTEXT
  5
923
330
91B
100
AcDbEntity
  8
AM_5
 62
     2
100
AcDbMText
 10
1004.531044478319
 20
826.2318353849314
 30
0.0
 40
10.0
 41
0.0
 71
     5
 72
     1
  1
84
 73
     1
 44
1.0
1001
ACAD
1000
MTEXTBEGIN
1070
    73
1070
     1
1070
    44
1040
1.0
1070
    74
1070
     0
1000
MTEXTEND
  0
POINT
  5
924
330
91B
100
AcDbEntity
  8
Defpoints
 62
     0
100
AcDbPoint
 10
962.5310444783451
 20
747.6049664794935
 30
0.0
  0
POINT
  5
925
330
91B
100
AcDbEntity
  8
Defpoints
 62
     0
100
AcDbPoint
 10
1046.531044478294
 20
747.6049664795973
 30
0.0
  0
POINT
  5
926
330
91B
100
AcDbEntity
  8
Defpoints
 62
     0
100
AcDbPoint
 10
1046.531044478294
 20
819.7318353849315
 30
0.0
  0
ENDBLK
  5
91D
330
91B
100
AcDbEntity
  8
0
100
AcDbBlockEnd
  0
BLOCK
  5
9C0
330
9BF
100
AcDbEntity
  8
0
100
AcDbBlockBegin
  2
befestigung
 70
     0
 10
0.0
 20
0.0
 30
0.0
  3
befestigung
  1

  0
LINE
  5
9C1
330
9BF
100
AcDbEntity
  8
AM_7N
  6
AM_ISO08W050x2
100
AcDbLine
 10
2003.869006815402
 20
1351.458312600669
 30
0.0
 11
2040.549006815402
 21
1351.458312600669
 31
0.0
1001
GENIUS_GENOREF_13
1005
0
1005
0
1005
0
  0
LINE
  5
9C2
330
9BF
100
AcDbEntity
  8
AM_9N
100
AcDbLine
 10
2015.674006815402
 20
1347.458312600669
 30
0.0
 11
2017.974006815402
 21
1347.458312600669
 31
0.0
1001
GENIUS_GENOREF_13
1005
0
1005
0
1005
0
  0
LINE
  5
9C3
330
9BF
100
AcDbEntity
  8
AM_9N
100
AcDbLine
 10
2022.209006815402
 20
1347.458312600669
 30
0.0
 11
2032.209006815401
 21
1347.458312600669
 31
0.0
1001
GENIUS_GENOREF_13
1005
0
1005
0
1005
0
  0
LINE
  5
9C4
330
9BF
100
AcDbEntity
  8
AM_0N
100
AcDbLine
 10
2027.974006815401
 20
1347.458312600669
 30
0.0
 11
2036.782194315402
 21
1347.458312600669
 31
0.0
1001
GENIUS_GENOREF_13
1005
0
1005
0
1005
0
  0
LINE
  5
9C5
330
9BF
100
AcDbEntity
  8
AM_9N
100
AcDbLine
 10
2015.674006815402
 20
1348.225125100669
 30
0.0
 11
2017.974006815402
 21
1348.225125100669
 31
0.0
1001
GENIUS_GENOREF_13
1005
0
1005
0
1005
0
  0
LINE
  5
9C6
330
9BF
100
AcDbEntity
  8
AM_9N
100
AcDbLine
 10
2022.209006815402
 20
1348.225125100669
 30
0.0
 11
2032.209006815401
 21
1348.225125100669
 31
0.0
1001
GENIUS_GENOREF_13
1005
0
1005
0
1005
0
  0
LINE
  5
9C7
330
9BF
100
AcDbEntity
  8
AM_4N
100
AcDbLine
 10
2027.974006815401
 20
1348.225125100669
 30
0.0
 11
2037.549006815402
 21
1348.225125100669
 31
0.0
1001
GENIUS_GENOREF_13
1005
0
1005
0
1005
0
  0
LINE
  5
9C8
330
9BF
100
AcDbEntity
  8
AM_9N
100
AcDbLine
 10
2015.674006815402
 20
1354.691500100669
 30
0.0
 11
2017.974006815402
 21
1354.691500100669
 31
0.0
1001
GENIUS_GENOREF_13
1005
0
1005
0
1005
0
  0
LINE
  5
9C9
330
9BF
100
AcDbEntity
  8
AM_9N
100
AcDbLine
 10
2027.974006815401
 20
1354.691500100669
 30
0.0
 11
2032.209006815401
 21
1354.691500100669
 31
0.0
1001
GENIUS_GENOREF_13
1005
0
1005
0
1005
0
  0
LINE
  5
9CA
330
9BF
100
AcDbEntity
  8
AM_4N
100
AcDbLine
 10
2027.974006815401
 20
1354.691500100669
 30
0.0
 11
2037.549006815402
 21
1354.691500100669
 31
0.0
1001
GENIUS_GENOREF_13
1005
0
1005
0
1005
0
  0
LINE
  5
9CB
330
9BF
100
AcDbEntity
  8
AM_9N
100
AcDbLine
 10
2015.674006815402
 20
1355.458312600669
 30
0.0
 11
2017.974006815402
 21
1355.458312600669
 31
0.0
1001
GENIUS_GENOREF_13
1005
0
1005
0
1005
0
  0
LINE
  5
9CC
330
9BF
100
AcDbEntity
  8
AM_9N
100
AcDbLine
 10
2027.974006815401
 20
1355.458312600669
 30
0.0
 11
2032.209006815401
 21
1355.458312600669
 31
0.0
1001
GENIUS_GENOREF_13
1005
0
1005
0
1005
0
  0
LINE
  5
9CD
330
9BF
100
AcDbEntity
  8
AM_0N
100
AcDbLine
 10
2027.974006815401
 20
1355.458312600669
 30
0.0
 11
2036.782194315402
 21
1355.458312600669
 31
0.0
1001
GENIUS_GENOREF_13
1005
0
1005
0
1005
0
  0
ARC
  5
9CE
330
9BF
100
AcDbEntity
  8
AM_0N
100
AcDbCircle
 10
2019.27813978905
 20
1351.458312600669
 30
0.0
 40
12.4091329736479
100
AcDbArc
 50
162.3875260144767
 51
197.6124739855233
1001
GENIUS_GENOREF_13
1005
0
1005
0
1005
0
  0
LINE
  5
9CF
330
9BF
100
AcDbEntity
  8
AM_0N
100
AcDbLine
 10
2012.549006815402
 20
1347.458312600669
 30
0.0
 11
2012.549006815402
 21
1355.458312600669
 31
0.0
1001
GENIUS_GENOREF_13
1005
0
1005
0
1005
0
  0
LINE
  5
9D0
330
9BF
100
AcDbEntity
  8
AM_0N
100
AcDbLine
 10
2012.549006815402
 20
1355.458312600669
 30
0.0
 11
2012.549006815402
 21
1347.458312600669
 31
0.0
1001
GENIUS_GENOREF_13
1005
0
1005
0
1005
0
  0
LINE
  5
9D1
330
9BF
100
AcDbEntity
  8
AM_0N
100
AcDbLine
 10
2006.869006815402
 20
1357.958312600669
 30
0.0
 11
2006.869006815402
 21
1344.958312600669
 31
0.0
1001
GENIUS_GENOREF_13
1005
0
1005
0
1005
0
  0
LINE
  5
9D2
330
9BF
100
AcDbEntity
  8
AM_0N
100
AcDbLine
 10
2007.45068721161
 20
1343.950812600669
 30
0.0
 11
2012.549006815402
 21
1343.950812600669
 31
0.0
1001
GENIUS_GENOREF_13
1005
0
1005
0
1005
0
  0
LINE
  5
9D3
330
9BF
100
AcDbEntity
  8
AM_0N
100
AcDbLine
 10
2007.45068721161
 20
1347.703589350401
 30
0.0
 11
2012.549006815402
 21
1347.703589350401
 31
0.0
1001
GENIUS_GENOREF_13
1005
0
1005
0
1005
0
  0
ARC
  5
9D4
330
9BF
100
AcDbEntity
  8
AM_0N
100
AcDbCircle
 10
2010.186279876194
 20
1345.827200975535
 30
0.0
 40
3.317273060791837
100
AcDbArc
 50
145.5531276177371
 51
205.5531276177362
1001
GENIUS_GENOREF_13
1005
0
1005
0
1005
0
  0
LINE
  5
9D5
330
9BF
100
AcDbEntity
  8
AM_0N
100
AcDbLine
 10
2007.45068721161
 20
1343.950812600669
 30
0.0
 11
2006.869006815402
 21
1344.958312600669
 31
0.0
1001
GENIUS_GENOREF_13
1005
0
1005
0
1005
0
  0
LINE
  5
9D6
330
9BF
100
AcDbEntity
  8
AM_0N
100
AcDbLine
 10
2012.549006815402
 20
1343.950812600669
 30
0.0
 11
2012.549006815402
 21
1347.458312600669
 31
0.0
1001
GENIUS_GENOREF_13
1005
0
1005
0
1005
0
  0
LINE
  5
9D7
330
9BF
100
AcDbEntity
  8
AM_0N
100
AcDbLine
 10
2012.549006815402
 20
1355.458312600669
 30
0.0
 11
2012.549006815402
 21
1358.965812600669
 31
0.0
1001
GENIUS_GENOREF_13
1005
0
1005
0
1005
0
  0
LINE
  5
9D8
330
9BF
100
AcDbEntity
  8
AM_0N
100
AcDbLine
 10
2007.45068721161
 20
1358.965812600669
 30
0.0
 11
2006.869006815402
 21
1357.958312600669
 31
0.0
1001
GENIUS_GENOREF_13
1005
0
1005
0
1005
0
  0
LINE
  5
9D9
330
9BF
100
AcDbEntity
  8
AM_0N
100
AcDbLine
 10
2007.45068721161
 20
1355.213035850936
 30
0.0
 11
2012.549006815402
 21
1355.213035850936
 31
0.0
1001
GENIUS_GENOREF_13
1005
0
1005
0
1005
0
  0
ARC
  5
9DA
330
9BF
100
AcDbEntity
  8
AM_0N
100
AcDbCircle
 10
2010.186279876194
 20
1357.089424225803
 30
0.0
 40
3.317273060791837
100
AcDbArc
 50
154.4468723822637
 51
214.4468723822629
1001
GENIUS_GENOREF_13
1005
0
1005
0
1005
0
  0
LINE
  5
9DB
330
9BF
100
AcDbEntity
  8
AM_0N
100
AcDbLine
 10
2007.45068721161
 20
1358.965812600669
 30
0.0
 11
2012.549006815402
 21
1358.965812600669
 31
0.0
1001
GENIUS_GENOREF_13
1005
0
1005
0
1005
0
  0
LINE
  5
9DC
330
9BF
100
AcDbEntity
  8
AM_0N
100
AcDbLine
 10
2036.782194315402
 20
1347.458312600669
 30
0.0
 11
2036.782194315402
 21
1355.458312600669
 31
0.0
1001
GENIUS_GENOREF_13
1005
0
1005
0
1005
0
  0
LINE
  5
9DD
330
9BF
100
AcDbEntity
  8
AM_0N
100
AcDbLine
 10
2037.549006815402
 20
1348.225125100669
 30
0.0
 11
2036.782194315402
 21
1347.458312600669
 31
0.0
1001
GENIUS_GENOREF_13
1005
0
1005
0
1005
0
  0
LINE
  5
9DE
330
9BF
100
AcDbEntity
  8
AM_0N
100
AcDbLine
 10
2037.549006815402
 20
1348.225125100669
 30
0.0
 11
2037.549006815402
 21
1354.691500100669
 31
0.0
1001
GENIUS_GENOREF_13
1005
0
1005
0
1005
0
  0
LINE
  5
9DF
330
9BF
100
AcDbEntity
  8
AM_0N
100
AcDbLine
 10
2036.782194315402
 20
1355.458312600669
 30
0.0
 11
2037.549006815402
 21
1354.691500100669
 31
0.0
1001
GENIUS_GENOREF_13
1005
0
1005
0
1005
0
  0
INSERT
  5
9E0
330
9BF
100
AcDbEntity
  8
AM_0N
100
AcDbBlockReference
  2
*U52
 10
0.0
 20
0.0
 30
0.0
1001
GENIUS_GENOREF_13
1005
0
  0
INSERT
  5
9E1
330
9BF
100
AcDbEntity
  8
AM_0N
100
AcDbBlockReference
  2
*U53
 10
0.0
 20
0.0
 30
0.0
1001
GENIUS_GENOREF_13
1005
0
  0
ENDBLK
  5
9E2
330
9BF
100
AcDbEntity
  8
0
100
AcDbBlockEnd
  0
BLOCK
  5
9E4
330
9E3
100
AcDbEntity
  8
0
100
AcDbBlockBegin
  2
*U52
 70
     1
 10
0.0
 20
0.0
 30
0.0
  3
*U52
  1

  0
ARC
  5
9E5
330
9E3
100
AcDbEntity
  8
AM_0N
100
AcDbCircle
 10
2031.974006815402
 20
1364.958312600669
 30
0.0
 40
6.0
100
AcDbArc
 50
284.6765041088877
 51
134.956760177952
  0
LINE
  5
9E6
330
9E3
100
AcDbEntity
  8
AM_0N
100
AcDbLine
 10
2017.974006815402
 20
1359.458312600669
 30
0.0
 11
2027.734569160611
 21
1369.204153903773
 31
0.0
  0
LINE
  5
9E7
330
9E3
100
AcDbEntity
  8
AM_0N
100
AcDbLine
 10
2027.974006815401
 20
1357.708312600669
 30
0.0
 11
2033.494174408163
 21
1359.154082204663
 31
0.0
  0
ARC
  5
9E8
330
9E3
100
AcDbEntity
  8
AM_0N
100
AcDbCircle
 10
2031.974006815402
 20
1337.958312600669
 30
0.0
 40
6.0
100
AcDbArc
 50
225.043239822048
 51
75.3234958911123
  0
LINE
  5
9E9
330
9E3
100
AcDbEntity
  8
AM_0N
100
AcDbLine
 10
2017.974006815402
 20
1343.458312600669
 30
0.0
 11
2027.734569160611
 21
1333.712471297565
 31
0.0
  0
LINE
  5
9EA
330
9E3
100
AcDbEntity
  8
AM_7N
  6
AM_ISO08W050x2
100
AcDbLine
 10
2030.974006815402
 20
1351.458312600669
 30
0.0
 11
2014.974006815402
 21
1351.458312600669
 31
0.0
  0
LINE
  5
9EB
330
9E3
100
AcDbEntity
  8
AM_0N
100
AcDbLine
 10
2017.974006815402
 20
1343.458312600669
 30
0.0
 11
2017.974006815402
 21
1359.458312600669
 31
0.0
  0
LINE
  5
9EC
330
9E3
100
AcDbEntity
  8
AM_0N
100
AcDbLine
 10
2027.974006815401
 20
1357.708312600669
 30
0.0
 11
2027.974006815401
 21
1345.208312600669
 31
0.0
  0
LINE
  5
9ED
330
9E3
100
AcDbEntity
  8
AM_0N
100
AcDbLine
 10
2027.974006815401
 20
1345.208312600669
 30
0.0
 11
2017.974006815402
 21
1343.458312600669
 31
0.0
  0
LINE
  5
9EE
330
9E3
100
AcDbEntity
  8
AM_0N
100
AcDbLine
 10
2027.974006815401
 20
1345.208312600669
 30
0.0
 11
2033.494174408163
 21
1343.762542996675
 31
0.0
  0
LINE
  5
9EF
330
9E3
100
AcDbEntity
  8
AM_0N
100
AcDbLine
 10
2017.974006815402
 20
1359.458312600669
 30
0.0
 11
2027.974006815401
 21
1357.708312600669
 31
0.0
  0
ENDBLK
  5
9F0
330
9E3
100
AcDbEntity
  8
0
100
AcDbBlockEnd
  0
BLOCK
  5
9F2
330
9F1
100
AcDbEntity
  8
0
100
AcDbBlockBegin
  2
*U53
 70
     1
 10
0.0
 20
0.0
 30
0.0
  3
*U53
  1

  0
LINE
  5
9F3
330
9F1
100
AcDbEntity
  8
AM_7N
  6
AM_ISO08W050x2
100
AcDbLine
 10
2012.674006815402
 20
1351.458312600669
 30
0.0
 11
2020.974006815402
 21
1351.458312600669
 31
0.0
  0
LINE
  5
9F4
330
9F1
100
AcDbEntity
  8
AM_0N
100
AcDbLine
 10
2015.674006815402
 20
1360.858312600669
 30
0.0
 11
2015.674006815402
 21
1342.058312600669
 31
0.0
  0
LINE
  5
9F5
330
9F1
100
AcDbEntity
  8
AM_0N
100
AcDbLine
 10
2017.974006815402
 20
1342.058312600669
 30
0.0
 11
2017.974006815402
 21
1360.858312600669
 31
0.0
  0
LINE
  5
9F6
330
9F1
100
AcDbEntity
  8
AM_0N
100
AcDbLine
 10
2015.674006815402
 20
1342.058312600669
 30
0.0
 11
2017.974006815402
 21
1342.058312600669
 31
0.0
  0
LINE
  5
9F7
330
9F1
100
AcDbEntity
  8
AM_0N
100
AcDbLine
 10
2017.974006815402
 20
1360.858312600669
 30
0.0
 11
2015.674006815402
 21
1360.858312600669
 31
0.0
  0
ENDBLK
  5
9F8
330
9F1
100
AcDbEntity
  8
0
100
AcDbBlockEnd
  0
ENDSEC
  0
SECTION
  2
ENTITIES
  0
LINE
  5
46F
330
1F
100
AcDbEntity
  8
0
  6
Continuous
 62
     7
100
AcDbLine
 10
0.0000001814701136
 20
386.6921006037655
 30
0.0
 11
0.0000001814701136
 21
387.6915291756106
 31
0.0
  0
LINE
  5
470
330
1F
100
AcDbEntity
  8
0
  6
Continuous
 62
     7
100
AcDbLine
 10
0.0000001814701136
 20
387.6915291756106
 30
0.0
 11
0.0000001814701136
 21
442.6601006037653
 31
0.0
  0
LINE
  5
471
330
1F
100
AcDbEntity
  8
0
  6
Continuous
 62
     7
100
AcDbLine
 10
30.28257160962767
 20
387.8254272146996
 30
0.0
 11
30.28257160962767
 21
401.6835291756114
 31
0.0
  0
LINE
  5
472
330
1F
100
AcDbEntity
  8
0
  6
Continuous
 62
     7
100
AcDbLine
 10
30.78228589525679
 20
388.6909577468725
 30
0.0
 11
30.78228589525679
 21
401.6835291756114
 31
0.0
  0
LINE
  5
473
330
1F
100
AcDbEntity
  8
0
  6
Continuous
 62
     7
100
AcDbLine
 10
31.78171446652096
 20
390.6998091756116
 30
0.0
 11
31.78171446652096
 21
302.7401006037655
 31
0.0
  0
LINE
  5
474
330
1F
100
AcDbEntity
  8
0
  6
Continuous
 62
     7
100
AcDbLine
 10
32.78114303836356
 20
387.6915291756106
 30
0.0
 11
32.78114303836356
 21
386.6921006037655
 31
0.0
  0
LINE
  5
475
330
1F
100
AcDbEntity
  8
0
  6
Continuous
 62
     7
100
AcDbLine
 10
32.78114303836356
 20
302.7401006037655
 30
0.0
 11
32.78114303836356
 21
279.7532434612435
 31
0.0
  0
LINE
  5
476
330
1F
100
AcDbEntity
  8
0
  6
Continuous
 62
     7
100
AcDbLine
 10
32.78114303836356
 20
302.7401006037655
 30
0.0
 11
32.78114303836356
 21
386.6921006037655
 31
0.0
  0
LINE
  5
477
330
1F
100
AcDbEntity
  8
0
  6
Continuous
 62
     7
100
AcDbLine
 10
32.78114303836356
 20
387.6915291756106
 30
0.0
 11
32.78114303836356
 21
403.6823863181354
 31
0.0
  0
LINE
  5
478
330
1F
100
AcDbEntity
  8
0
  6
Continuous
 62
     7
100
AcDbLine
 10
34.78000018089097
 20
357.7086720325044
 30
0.0
 11
34.78000018089097
 21
279.7532434612435
 31
0.0
  0
LINE
  5
479
330
1F
100
AcDbEntity
  8
0
  6
Continuous
 62
     7
100
AcDbLine
 10
94.7457144665209
 20
277.7543863181345
 30
0.0
 11
94.7457144665209
 21
275.7555291756114
 31
0.0
  0
LINE
  5
47A
330
1F
100
AcDbEntity
  8
0
  6
Continuous
 62
     7
100
AcDbLine
 10
36.77885732399773
 20
275.7555291756114
 30
0.0
 11
94.7457144665209
 21
275.7555291756114
 31
0.0
  0
LINE
  5
47B
330
1F
100
AcDbEntity
  8
0
  6
Continuous
 62
     7
100
AcDbLine
 10
670.8165716096264
 20
275.7555291756114
 30
0.0
 11
728.7834287527298
 21
275.7555291756114
 31
0.0
  0
LINE
  5
47C
330
1F
100
AcDbEntity
  8
0
  6
Continuous
 62
     7
100
AcDbLine
 10
36.77885732399773
 20
277.7543863181345
 30
0.0
 11
94.7457144665209
 21
277.7543863181345
 31
0.0
  0
LINE
  5
47D
330
1F
100
AcDbEntity
  8
0
  6
Continuous
 62
     7
100
AcDbLine
 10
670.8165716096264
 20
277.7543863181345
 30
0.0
 11
728.7834287527298
 21
277.7543863181345
 31
0.0
  0
LINE
  5
47E
330
1F
100
AcDbEntity
  8
0
  6
Continuous
 62
     7
100
AcDbLine
 10
413.7022922892461
 20
295.7441006037666
 30
0.0
 11
351.7988573239927
 21
295.7441006037666
 31
0.0
  0
LINE
  5
47F
330
1F
100
AcDbEntity
  8
0
  6
Continuous
 62
     7
100
AcDbLine
 10
32.78114303836356
 20
302.7401006037655
 30
0.0
 11
31.78171446652096
 21
302.7401006037655
 31
0.0
  0
LINE
  5
480
330
1F
100
AcDbEntity
  8
0
  6
Continuous
 62
     7
100
AcDbLine
 10
732.7811430383635
 20
317.7315291756104
 30
0.0
 11
733.7805716096222
 21
317.7315291756104
 31
0.0
  0
LINE
  5
481
330
1F
100
AcDbEntity
  8
0
  6
Continuous
 62
     7
100
AcDbLine
 10
345.8004113526186
 20
377.3154442825244
 30
0.0
 11
345.8022857186084
 21
377.2542634253375
 31
0.0
  0
LINE
  5
482
330
1F
100
AcDbEntity
  8
0
  6
Continuous
 62
     7
100
AcDbLine
 10
345.3025716096235
 20
371.7006720325037
 30
0.0
 11
345.3025716096235
 21
302.2403863181355
 31
0.0
  0
LINE
  5
483
330
1F
100
AcDbEntity
  8
0
  6
Continuous
 62
     7
100
AcDbLine
 10
345.8022858952577
 20
377.2542632323643
 30
0.0
 11
345.8022858952577
 21
371.7006720325037
 31
0.0
  0
LINE
  5
484
330
1F
100
AcDbEntity
  8
0
  6
Continuous
 62
     7
100
AcDbLine
 10
732.7811430383635
 20
357.7086720325044
 30
0.0
 11
730.7822858952545
 21
357.7086720325044
 31
0.0
  0
LINE
  5
485
330
1F
100
AcDbEntity
  8
0
  6
Continuous
 62
     7
100
AcDbLine
 10
32.78114303836356
 20
357.7086720325044
 30
0.0
 11
34.78000018089097
 21
357.7086720325044
 31
0.0
  0
LINE
  5
486
330
1F
100
AcDbEntity
  8
0
  6
Continuous
 62
     7
100
AcDbLine
 10
345.7896018656684
 20
377.4129845130496
 30
0.0
 11
345.8004113526186
 21
377.3154442825244
 31
0.0
  0
LINE
  5
487
330
1F
100
AcDbEntity
  8
0
  6
Continuous
 62
     7
100
AcDbLine
 10
732.7811430383635
 20
367.7029577468734
 30
0.0
 11
733.7805716096222
 21
367.7029577468734
 31
0.0
  0
LINE
  5
488
330
1F
100
AcDbEntity
  8
0
  6
Continuous
 62
     7
100
AcDbLine
 10
345.3025432554205
 20
371.7006720325037
 30
0.0
 11
420.2597428213084
 21
371.7006720325037
 31
0.0
  0
LINE
  5
489
330
1F
100
AcDbEntity
  8
0
  6
Continuous
 62
     7
100
AcDbLine
 10
32.78114303836356
 20
372.7001006037656
 30
0.0
 11
31.78171446652096
 21
372.7001006037656
 31
0.0
  0
LINE
  5
48A
330
1F
100
AcDbEntity
  8
0
  6
Continuous
 62
     7
100
AcDbLine
 10
32.78114303836356
 20
378.2536918036267
 30
0.0
 11
344.8382182847631
 21
378.2530662947647
 31
0.0
  0
LINE
  5
48B
330
1F
100
AcDbEntity
  8
0
  6
Continuous
 62
     7
100
AcDbLine
 10
420.7594287527354
 20
378.2536918036267
 30
0.0
 11
732.7811430383635
 21
378.2536918036269
 31
0.0
  0
LINE
  5
48C
330
1F
100
AcDbEntity
  8
0
  6
Continuous
 62
     7
100
AcDbLine
 10
732.7811430383635
 20
383.6101938742386
 30
0.0
 11
751.5492852415246
 21
383.6101938742386
 31
0.0
  0
LINE
  5
48D
330
1F
100
AcDbEntity
  8
0
  6
Continuous
 62
     7
100
AcDbLine
 10
31.782369619767
 20
386.6921006037655
 30
0.0
 11
0.0000001814701136
 21
386.6921006037653
 31
0.0
  0
LINE
  5
48E
330
1F
100
AcDbEntity
  8
0
  6
Continuous
 62
     7
100
AcDbLine
 10
32.78114303836356
 20
386.6921006037655
 30
0.0
 11
752.5487138127886
 21
386.6921006037653
 31
0.0
  0
LWPOLYLINE
  5
48F
330
1F
100
AcDbEntity
  8
0
  6
Continuous
 62
     7
100
AcDbPolyline
 90
       16
 70
     0
 43
0.0
 10
344.8028573239954
 20
378.2536920449875
 10
344.8382182847631
 20
378.2530662947647
 10
344.9360561373692
 20
378.2447762469765
 10
345.0326076261272
 20
378.2269259407326
 10
345.1269413636473
 20
378.1996877189965
 10
345.2181473324054
 20
378.1633243427834
 10
345.3053456588823
 20
378.1181864498624
 10
345.3876949265891
 20
378.0647092713045
 10
345.4644009577573
 20
378.0034079225916
 10
345.5347217304015
 20
377.9348748494886
 10
345.5979781503734
 20
377.8597716841205
 10
345.6535578817033
 20
377.7788260040757
 10
345.7009240711677
 20
377.6928217612883
 10
345.7396200490361
 20
377.6025920785055
 10
345.7692738933765
 20
377.5090108045095
 10
345.7896018656684
 20
377.4129845130496
  0
LINE
  5
490
330
1F
100
AcDbEntity
  8
0
  6
Continuous
 62
     7
100
AcDbLine
 10
419.7600002543476
 20
377.2542638701666
 30
0.0
 11
419.761866526544
 21
377.3153119543506
 31
0.0
  0
LINE
  5
491
330
1F
100
AcDbEntity
  8
0
  6
Continuous
 62
     7
100
AcDbLine
 10
419.761866526544
 20
377.3153119543506
 30
0.0
 11
419.772647801547
 21
377.4127584221515
 31
0.0
  0
LWPOLYLINE
  5
492
330
1F
100
AcDbEntity
  8
0
  6
Continuous
 62
     7
100
AcDbPolyline
 90
       16
 70
     0
 43
0.0
 10
419.772647801547
 20
377.4127584221515
 10
419.7929392564624
 20
377.5087341605154
 10
419.8225568498632
 20
377.6022983858404
 10
419.8612228073143
 20
377.6925365944194
 10
419.9085689678144
 20
377.7785676441274
 10
419.9641398410435
 20
377.8595508215665
 10
420.027397507471
 20
377.9346953023964
 10
420.0977252300544
 20
378.0032665829876
 10
420.1744427107632
 20
378.0646020033864
 10
420.2568036542065
 20
378.1181067508474
 10
420.3440149326134
 20
378.1632676262106
 10
420.4352351405618
 20
378.1996500023956
 10
420.5295849018375
 20
378.2269036882055
 10
420.6261547772482
 20
378.2447659855925
 10
420.7240140020562
 20
378.2530642396882
 10
420.7594287527354
 20
378.2536918974895
  0
LINE
  5
493
330
1F
100
AcDbEntity
  8
0
  6
Continuous
 62
     7
100
AcDbLine
 10
31.782369619767
 20
387.6915291756106
 30
0.0
 11
0.0000001814701136
 21
387.6915291756106
 31
0.0
  0
LINE
  5
494
330
1F
100
AcDbEntity
  8
0
  6
Continuous
 62
     7
100
AcDbLine
 10
32.78114303836356
 20
387.6915291756106
 30
0.0
 11
752.5487138127892
 21
387.6915291756106
 31
0.0
  0
LINE
  5
495
330
1F
100
AcDbEntity
  8
0
  6
Continuous
 62
     7
100
AcDbLine
 10
30.78228589525679
 20
389.7003806043497
 30
0.0
 11
31.78171446652096
 21
389.7003806043497
 31
0.0
  0
LINE
  5
496
330
1F
100
AcDbEntity
  8
0
  6
Continuous
 62
     7
100
AcDbLine
 10
30.78228589525679
 20
390.6998091756116
 30
0.0
 11
31.78171446652096
 21
390.6998091756116
 31
0.0
  0
LINE
  5
497
330
1F
100
AcDbEntity
  8
0
  6
Continuous
 62
     7
100
AcDbLine
 10
752.348713812788
 20
402.6829577468724
 30
0.0
 11
32.78114303836356
 21
402.6829577468724
 31
0.0
  0
LINE
  5
498
330
1F
100
AcDbEntity
  8
0
  6
Continuous
 62
     7
100
AcDbLine
 10
751.2536076903156
 20
402.9731222367086
 30
0.0
 11
731.5607138127884
 21
402.9731222367086
 31
0.0
  0
LINE
  5
499
330
1F
100
AcDbEntity
  8
0
  6
Continuous
 62
     7
100
AcDbLine
 10
32.78114303836356
 20
403.1826720325045
 30
0.0
 11
31.78171446652096
 21
403.1826720325045
 31
0.0
  0
LINE
  5
49A
330
1F
100
AcDbEntity
  8
0
  6
Continuous
 62
     7
100
AcDbLine
 10
419.7600001814721
 20
377.2542632323643
 30
0.0
 11
419.7600001814721
 21
371.7006720325037
 31
0.0
  0
LINE
  5
49B
330
1F
100
AcDbEntity
  8
0
  6
Continuous
 62
     7
100
AcDbLine
 10
420.2597144671026
 20
371.7006720325037
 30
0.0
 11
420.2597144671026
 21
302.2403863181355
 31
0.0
  0
LINE
  5
49C
330
1F
100
AcDbEntity
  8
0
  6
Continuous
 62
     7
100
AcDbLine
 10
752.5487138127886
 20
442.6601006037653
 30
0.0
 11
751.5492852415246
 21
442.6601006037653
 31
0.0
  0
LINE
  5
49D
330
1F
100
AcDbEntity
  8
0
  6
Continuous
 62
     7
100
AcDbLine
 10
751.5492852415246
 20
442.6601006037653
 30
0.0
 11
0.0000001814701136
 21
442.6601006037653
 31
0.0
  0
LINE
  5
49E
330
1F
100
AcDbEntity
  8
0
  6
Continuous
 62
     7
100
AcDbLine
 10
730.7822858952545
 20
279.7532434612435
 30
0.0
 11
730.7822858952545
 21
357.7086720325044
 31
0.0
  0
LINE
  5
49F
330
1F
100
AcDbEntity
  8
0
  6
Continuous
 62
     7
100
AcDbLine
 10
732.7811430383635
 20
383.6101938742386
 30
0.0
 11
732.7811430383635
 21
381.8808045600576
 31
0.0
  0
LINE
  5
4A0
330
1F
100
AcDbEntity
  8
0
  6
Continuous
 62
     7
100
AcDbLine
 10
732.7811430383635
 20
381.8808045600576
 30
0.0
 11
732.7811430383635
 21
317.7315291756104
 31
0.0
  0
LINE
  5
4A1
330
1F
100
AcDbEntity
  8
0
  6
Continuous
 62
     7
100
AcDbLine
 10
732.7811430383635
 20
279.7532434612435
 30
0.0
 11
732.7811430383635
 21
317.7315291756104
 31
0.0
  0
LINE
  5
4A2
330
1F
100
AcDbEntity
  8
0
  6
Continuous
 62
     7
100
AcDbLine
 10
731.5607138127884
 20
402.6829577468724
 30
0.0
 11
731.5607138127884
 21
402.9731222367086
 31
0.0
  0
LINE
  5
4A3
330
1F
100
AcDbEntity
  8
0
  6
Continuous
 62
     7
100
AcDbLine
 10
733.7805716096222
 20
383.6101938742386
 30
0.0
 11
733.7805716096222
 21
317.7315291756104
 31
0.0
  0
LINE
  5
4A4
330
1F
100
AcDbEntity
  8
0
  6
Continuous
 62
     7
100
AcDbLine
 10
751.5492852415246
 20
386.6921006037655
 30
0.0
 11
751.5492852415246
 21
383.6101938742386
 31
0.0
  0
LINE
  5
4A5
330
1F
100
AcDbEntity
  8
0
  6
Continuous
 62
     7
100
AcDbLine
 10
751.5492852415246
 20
386.6921006037655
 30
0.0
 11
751.5492852415246
 21
442.6601006037653
 31
0.0
  0
LINE
  5
4A6
330
1F
100
AcDbEntity
  8
0
  6
Continuous
 62
     7
100
AcDbLine
 10
752.5487138127886
 20
442.6601006037653
 30
0.0
 11
752.5487138127886
 21
386.6921006037655
 31
0.0
  0
CIRCLE
  5
4A7
330
1F
100
AcDbEntity
  8
0
  6
Continuous
 62
     7
100
AcDbCircle
 10
382.7811430383635
 20
338.7195291756116
 30
0.0
 40
24.985714285631
  0
CIRCLE
  5
4A8
330
1F
100
AcDbEntity
  8
0
  6
Continuous
 62
     7
100
AcDbCircle
 10
382.7811430383635
 20
338.7195291756116
 30
0.0
 40
23.48657142873801
  0
ARC
  5
4A9
330
1F
100
AcDbEntity
  8
0
  6
Continuous
 62
     7
100
AcDbCircle
 10
29.78285732399718
 20
388.6909577468725
 30
0.0
 40
1.998857143106999
100
AcDbArc
 50
329.9616926244131
 51
0.0
  0
ARC
  5
4AA
330
1F
100
AcDbEntity
  8
0
  6
Continuous
 62
     7
100
AcDbCircle
 10
36.77885732399773
 20
279.7532434612435
 30
0.0
 40
3.997714285630998
100
AcDbArc
 50
180.0
 51
270.0
  0
ARC
  5
4AB
330
1F
100
AcDbEntity
  8
0
  6
Continuous
 62
     7
100
AcDbCircle
 10
728.7834287527298
 20
279.7532434612435
 30
0.0
 40
3.997714285630998
100
AcDbArc
 50
270.0
 51
0.0
  0
ARC
  5
4AC
330
1F
100
AcDbEntity
  8
0
  6
Continuous
 62
     7
100
AcDbCircle
 10
351.7988573239927
 20
302.2403863181355
 30
0.0
 40
6.496285714368996
100
AcDbArc
 50
180.0
 51
270.0
  0
ARC
  5
4AD
330
1F
100
AcDbEntity
  8
0
  6
Continuous
 62
     7
100
AcDbCircle
 10
413.7634287527325
 20
302.2403863181355
 30
0.0
 40
6.496285714368996
100
AcDbArc
 50
270.0
 51
0.0
  0
CIRCLE
  5
4AE
330
1F
100
AcDbEntity
  8
0
  6
Continuous
 62
     7
100
AcDbCircle
 10
382.7811430383635
 20
338.7195291756116
 30
0.0
 40
25.085657143107
  0
ARC
  5
4AF
330
1F
100
AcDbEntity
  8
0
  6
Continuous
 62
     7
100
AcDbCircle
 10
750.5498566696815
 20
403.6823863181354
 30
0.0
 40
0.9994285712619999
100
AcDbArc
 50
270.0
 51
0.0
  0
ARC
  5
4B0
330
1F
100
AcDbEntity
  8
0
  6
Continuous
 62
     7
100
AcDbCircle
 10
31.78171446652096
 20
401.6835291756114
 30
0.0
 40
0.9994285712619999
100
AcDbArc
 50
0.0
 51
180.0
  0
ARC
  5
4B1
330
1F
100
AcDbEntity
  8
0
  6
Continuous
 62
     7
100
AcDbCircle
 10
29.78285732399718
 20
388.6909577468725
 30
0.0
 40
0.9994285712619999
100
AcDbArc
 50
270.0
 51
0.0
  0
ARC
  5
4B2
330
1F
100
AcDbEntity
  8
0
  6
Continuous
 62
     7
100
AcDbCircle
 10
36.77885732399773
 20
279.7532434612435
 30
0.0
 40
1.998857143106999
100
AcDbArc
 50
180.0
 51
270.0
  0
ARC
  5
4B3
330
1F
100
AcDbEntity
  8
0
  6
Continuous
 62
     7
100
AcDbCircle
 10
728.7834287527298
 20
279.7532434612435
 30
0.0
 40
1.998857143106999
100
AcDbArc
 50
270.0
 51
0.0
  0
ARC
  5
4B4
330
1F
100
AcDbEntity
  8
0
  6
Continuous
 62
     7
100
AcDbCircle
 10
31.78171446652096
 20
401.6835291756114
 30
0.0
 40
1.499142856893
100
AcDbArc
 50
90.0
 51
180.0
  0
LINE
  5
4B5
330
1F
100
AcDbEntity
  8
AM_7
100
AcDbLine
 10
382.7811430383635
 20
338.7195291756116
 30
0.0
 11
407.8668001814699
 21
338.7195291756116
 31
0.0
1001
GENIUS_GENOREF_13
1005
4DB
  0
LINE
  5
4B6
330
1F
100
AcDbEntity
  8
AM_7
100
AcDbLine
 10
382.7811430383635
 20
338.7195291756116
 30
0.0
 11
382.7811430383635
 21
408.1443767136095
 31
0.0
1001
GENIUS_GENOREF_13
1005
4DB
  0
LINE
  5
4B7
330
1F
100
AcDbEntity
  8
AM_7
100
AcDbLine
 10
382.7811430383635
 20
338.7195291756116
 30
0.0
 11
357.6954858952563
 21
338.7195291756116
 31
0.0
1001
GENIUS_GENOREF_13
1005
4DB
  0
LINE
  5
4B8
330
1F
100
AcDbEntity
  8
AM_7
100
AcDbLine
 10
382.7811430383635
 20
338.7195291756116
 30
0.0
 11
382.7811430383635
 21
291.8454376961354
 31
0.0
1001
GENIUS_GENOREF_13
1005
4DB
  0
LINE
  5
4B9
330
1F
100
AcDbEntity
  8
0
  6
Continuous
 62
     7
100
AcDbLine
 10
0.0000001814673851
 20
159.5847999403524
 30
0.0
 11
0.0000001814701136
 21
26.58479994035247
 31
0.0
  0
LINE
  5
4BA
330
1F
100
AcDbEntity
  8
0
  6
Continuous
 62
     7
100
AcDbLine
 10
0.0000001814701136
 20
152.4508570831674
 30
0.0
 11
0.0000001814701136
 21
154.4502856544304
 31
0.0
  0
LINE
  5
4BB
330
1F
100
AcDbEntity
  8
0
  6
Continuous
 62
     7
100
AcDbLine
 10
32.78114303836356
 20
51.08479994035133
 30
0.0
 11
32.78114303836356
 21
157.5853713690894
 31
0.0
  0
LINE
  5
4BC
330
1F
100
AcDbEntity
  8
0
  6
Continuous
 62
     7
100
AcDbLine
 10
34.78000018147213
 20
26.58479994035247
 30
0.0
 11
34.78000018147213
 21
157.5853713690894
 31
0.0
  0
LINE
  5
4BD
330
1F
100
AcDbEntity
  8
0
  6
Continuous
 62
     7
100
AcDbLine
 10
357.7954287527337
 20
-0.0000000596483005
 30
0.0
 11
407.7668573239971
 21
-0.0000000596483005
 31
0.0
  0
LINE
  5
4BE
330
1F
100
AcDbEntity
  8
0
  6
Continuous
 62
     7
100
AcDbLine
 10
0.0000001814701136
 20
26.58479994035247
 30
0.0
 11
752.5702858958466
 21
26.58479994035247
 31
0.0
  0
LINE
  5
4BF
330
1F
100
AcDbEntity
  8
0
  6
Continuous
 62
     7
100
AcDbLine
 10
752.5702858958466
 20
51.08479994035246
 30
0.0
 11
32.78114303836356
 21
51.08479994035156
 31
0.0
  0
LINE
  5
4C0
330
1F
100
AcDbEntity
  8
0
  6
Continuous
 62
     7
100
AcDbLine
 10
357.7954287527337
 20
-0.0000000596483005
 30
0.0
 11
357.7954287527337
 21
26.58479994035247
 31
0.0
  0
LINE
  5
4C1
330
1F
100
AcDbEntity
  8
0
  6
Continuous
 62
     7
100
AcDbLine
 10
34.78000018147168
 20
53.08365708287647
 30
0.0
 11
752.5702858958466
 21
53.08365708287647
 31
0.0
  0
LINE
  5
4C2
330
1F
100
AcDbEntity
  8
0
  6
Continuous
 62
     7
100
AcDbLine
 10
407.7668573239971
 20
-0.0000000596483005
 30
0.0
 11
407.7668573239971
 21
26.58479994035247
 31
0.0
  0
LINE
  5
4C3
102
{ACAD_REACTORS
330
4D9
102
}
330
1F
100
AcDbEntity
  8
0
100
AcDbLine
 10
732.7811430383635
 20
135.0847999403524
 30
0.0
 11
34.78000018147213
 21
135.0847999403524
 31
0.0
  0
LINE
  5
4C4
330
1F
100
AcDbEntity
  8
AM_CL
 62
     0
100
AcDbLine
 10
750.5708573245824
 20
157.5853713690894
 30
0.0
 11
0.0000001814701136
 21
157.5853713690894
 31
0.0
  0
LINE
  5
4C5
330
1F
100
AcDbEntity
  8
AM_CL
 62
     0
100
AcDbLine
 10
750.5708573245824
 20
157.5853713690894
 30
0.0
 11
752.5702858958466
 21
157.5853713690894
 31
0.0
  0
LINE
  5
4C6
330
1F
100
AcDbEntity
  8
AM_CL
 62
     0
100
AcDbLine
 10
0.0000001814701136
 20
159.5847999403524
 30
0.0
 11
750.5708573245824
 21
159.5847999403524
 31
0.0
  0
LINE
  5
4C7
102
{ACAD_REACTORS
330
4D9
102
}
330
1F
100
AcDbEntity
  8
AM_CL
  6
Continuous
 62
     0
100
AcDbLine
 10
730.5822858958472
 20
53.08365708287647
 30
0.0
 11
730.5822858958476
 21
157.5853713690894
 31
0.0
  0
LINE
  5
4C8
330
1F
100
AcDbEntity
  8
AM_CL
 62
     0
100
AcDbLine
 10
750.5708573245824
 20
159.5847999403524
 30
0.0
 11
750.5708573245824
 21
157.5853713690894
 31
0.0
  0
LINE
  5
4C9
330
1F
100
AcDbEntity
  8
AM_CL
 62
     0
100
AcDbLine
 10
750.5708573245824
 20
26.58479994035247
 30
0.0
 11
750.5708573245824
 21
157.5853713690894
 31
0.0
  0
LINE
  5
4CA
330
1F
100
AcDbEntity
  8
AM_CL
 62
     0
100
AcDbLine
 10
752.5702858958466
 20
26.58479994035247
 30
0.0
 11
752.5702858958466
 21
157.5853713690894
 31
0.0
  0
CIRCLE
  5
4CB
330
1F
100
AcDbEntity
  8
0
  6
Continuous
 62
     7
100
AcDbCircle
 10
382.7811430383635
 20
93.08479994006143
 30
0.0
 40
35.97942857126201
  0
CIRCLE
  5
4CC
330
1F
100
AcDbEntity
  8
0
100
AcDbCircle
 10
382.7811430383635
 20
93.08479994006143
 30
0.0
 40
17.5
  0
CIRCLE
  5
4CD
330
1F
100
AcDbEntity
  8
0
100
AcDbCircle
 10
382.7811430383635
 20
93.08479994006143
 30
0.0
 40
30.0
  0
LINE
  5
4CE
330
1F
100
AcDbEntity
  8
0
100
AcDbLine
 10
383.7811430383622
 20
110.5562051497174
 30
0.0
 11
383.7811430383622
 21
75.61339473040561
 31
0.0
  0
LINE
  5
4CF
330
1F
100
AcDbEntity
  8
0
100
AcDbLine
 10
381.7811430383636
 20
110.5562051497174
 30
0.0
 11
381.7811430383636
 21
75.61339473040561
 31
0.0
  0
LINE
  5
4D0
330
1F
100
AcDbEntity
  8
0
100
AcDbLine
 10
730.5822858958472
 20
93.08479994035247
 30
0.0
 11
418.7605716096276
 21
93.08479994035247
 31
0.0
1001
GENIUS_GENOBJ-N-CEN_13
1002
{
1000
OWNER
1000
GEN
1002
}
1001
GENIUS_GENODEF_13
1002
{
1000
HIER
1070
     0
1002
}
1002
{
1000
MANEDIT
1070
     0
1002
}
1002
{
1000
NOSEL
1070
     0
1002
}
1002
{
1000
BEHIND
1070
     0
1002
}
1002
{
1000
OTHER
1070
     0
1002
}
1002
{
1000
REACTOR
1002
}
1001
GENIUS_GENCEN_19
1002
{
1040
3.0
1002
}
  0
LINE
  5
4D1
330
1F
100
AcDbEntity
  8
0
100
AcDbLine
 10
346.8017144671017
 20
93.08479994035247
 30
0.0
 11
34.78000018147168
 21
93.08479994035247
 31
0.0
1001
GENIUS_GENOBJ-N-CEN_13
1002
{
1000
OWNER
1000
GEN
1002
}
1001
GENIUS_GENODEF_13
1002
{
1000
HIER
1070
     0
1002
}
1002
{
1000
MANEDIT
1070
     0
1002
}
1002
{
1000
NOSEL
1070
     0
1002
}
1002
{
1000
BEHIND
1070
     0
1002
}
1002
{
1000
OTHER
1070
     0
1002
}
1002
{
1000
REACTOR
1002
}
1001
GENIUS_GENCEN_19
1002
{
1040
3.0
1002
}
  0
DIMENSION
  5
4D2
330
1F
100
AcDbEntity
  8
AM_5
100
AcDbDimension
  2
*D9
 10
851.0671164019623
 20
402.6829577474575
 30
0.0
 11
844.5671164019621
 21
339.219243461535
 31
0.0
 70
    32
  1
105-160
 71
     5
 42
126.9274285718452
  3
AM_DIN$0
100
AcDbAlignedDimension
 13
728.7834287527298
 23
275.7555291756123
 33
0.0
 14
751.7702858952548
 24
402.6829577474575
 34
0.0
 50
90.0
100
AcDbRotatedDimension
1001
ACAD
1000
DSTYLE
1002
{
1070
    41
1040
7.0
1070
   140
1040
10.0
1002
}
1001
ACAD_DSTYLE_DIMINSPECT
1070
   396
1000
100%
1070
   395
1000

1070
   394
1070
    33
1070
   393
1070
     0
  0
DIMENSION
  5
4D3
330
1F
100
AcDbEntity
  8
AM_5
100
AcDbDimension
  2
*D10
 10
837.7482838346059
 20
159.5847999403524
 30
0.0
 11
831.2482838346058
 21
93.08479994035257
 31
0.0
 70
    32
  1
<>
 71
     5
 42
133.0
  3
AM_DIN$0
100
AcDbAlignedDimension
 13
752.5702858958466
 23
26.58479994035247
 33
0.0
 14
752.5702858958466
 24
159.5847999403524
 34
0.0
 50
90.0
100
AcDbRotatedDimension
1001
ACAD
1000
DSTYLE
1002
{
1070
    41
1040
7.0
1070
   140
1040
10.0
1002
}
1001
ACAD_DSTYLE_DIMINSPECT
1070
   396
1000
100%
1070
   395
1000

1070
   394
1070
    33
1070
   393
1070
     0
  0
DIMENSION
  5
4D4
330
1F
100
AcDbEntity
  8
AM_5
100
AcDbDimension
  2
*D11
 10
32.78114303836356
 20
196.1207858136997
 30
0.0
 11
382.7811430383635
 21
196.1207858136997
 31
0.0
 70
   160
  1
<>
 71
     5
 42
700.0
  3
AM_DIN$0
100
AcDbAlignedDimension
 13
732.7811430383635
 23
135.0847999403524
 33
0.0
 14
32.78114303836356
 24
157.5853713690894
 34
0.0
100
AcDbRotatedDimension
1001
ACAD_DSTYLE_DIMINSPECT
1070
   396
1000
100%
1070
   395
1000

1070
   394
1070
    33
1070
   393
1070
     0
1001
ACAD
1000
DSTYLE
1002
{
1070
    41
1040
7.0
1070
   140
1040
10.0
1070
   271
1070
     0
1002
}
  0
DIMENSION
  5
4D5
330
1F
100
AcDbEntity
  8
AM_5
100
AcDbDimension
  2
*D12
 10
0.0000001814673896
 20
229.3233359705005
 30
0.0
 11
382.7811430383635
 21
229.3233359705005
 31
0.0
 70
   160
  1
<>
 71
     5
 42
752.5702857143792
  3
AM_DIN$0
100
AcDbAlignedDimension
 13
752.5702858958466
 23
156.5853713690894
 33
0.0
 14
0.0000001814673851
 24
156.5853713690906
 34
0.0
100
AcDbRotatedDimension
1001
ACAD
1000
DSTYLE
1002
{
1070
    41
1040
7.0
1070
   140
1040
10.0
1070
   271
1070
     0
1002
}
1001
ACAD_DSTYLE_DIMINSPECT
1070
   396
1000
100%
1070
   395
1000

1070
   394
1070
    33
1070
   393
1070
     0
  0
LINE
  5
4D6
330
1F
100
AcDbEntity
  8
0
100
AcDbLine
 10
670.8165716096264
 20
275.7555291756114
 30
0.0
 11
670.8165716096264
 21
277.7543863181345
 31
0.0
  0
DIMENSION
  5
4D7
102
{ACAD_XDICTIONARY
360
4D8
102
}
102
{ACAD_REACTORS
330
4D9
102
}
330
1F
100
AcDbEntity
  8
AM_5
100
AcDbDimension
  2
*D13
 10
809.2906396929437
 20
135.0847999403524
 30
0.0
 11
802.7906396929438
 21
93.08479994035259
 31
0.0
 70
    32
  1
<>
 71
     5
 42
84.0
  3
AM_DIN$0
100
AcDbAlignedDimension
 13
752.5702858958466
 23
51.08479994035246
 33
0.0
 14
730.5822858958476
 24
135.0847999403524
 34
0.0
 50
90.0
100
AcDbRotatedDimension
1001
ACAD
1000
DSTYLE
1002
{
1070
    41
1040
7.0
1070
   140
1040
10.0
1002
}
1001
ACAD_DSTYLE_DIMINSPECT
1070
   396
1000
100%
1070
   395
1000

1070
   394
1070
    33
1070
   393
1070
     0
  0
LINE
  5
4DA
330
1F
100
AcDbEntity
  8
AM_CL
 62
     0
100
AcDbLine
 10
732.7811430383635
 20
157.5853713690894
 30
0.0
 11
732.7811430383635
 21
53.08365708287647
 31
0.0
  0
POINT
  5
4DB
330
1F
100
AcDbEntity
  8
0
 60
     1
100
AcDbPoint
 10
-1026.94923076222
 20
-879.1035581498485
 30
0.0
1001
GENIUS_GENOENT_13
1002
{
1000
MYREF
1005
4DB
1002
}
1002
{
1000
GRP
1005
0
1002
}
1001
GENIUS_GENOLIS_13
1002
{
1000
ENT
1005
4B8
1005
4B7
1005
4B6
1005
4B5
1002
}
1001
GENIUS_GENODEF_13
1002
{
1000
HIER
1070
    10
1002
}
1002
{
1000
MANEDIT
1070
     0
1002
}
1002
{
1000
NOSEL
1070
     0
1002
}
1002
{
1000
BEHIND
1070
     0
1002
}
1002
{
1000
OTHER
1070
     0
1002
}
1002
{
1000
REACTOR
1002
}
1001
GENIUS_GENOBJ-N-CRS_13
1002
{
1000
OWNER
1000
GEN
1002
}
  0
LINE
  5
687
330
1F
100
AcDbEntity
  8
0
100
AcDbLine
 10
1084.139609201296
 20
362.6829577468911
 30
0.0
 11
1146.139609201296
 21
362.6829577468084
 31
0.0
1001
GENIUS_GENOBJ-N-CEN_13
1002
{
1000
OWNER
1000
GEN
1002
}
1001
GENIUS_GENODEF_13
1002
{
1000
HIER
1070
     0
1002
}
1002
{
1000
MANEDIT
1070
     0
1002
}
1002
{
1000
NOSEL
1070
     0
1002
}
1002
{
1000
BEHIND
1070
     0
1002
}
1002
{
1000
OTHER
1070
     0
1002
}
1002
{
1000
REACTOR
1002
}
  0
LINE
  5
688
330
1F
100
AcDbEntity
  8
0
100
AcDbLine
 10
1085.40403436603
 20
361.1829577468895
 30
0.0
 11
1146.139609201294
 21
361.1829577468084
 31
0.0
1001
GENIUS_GENOBJ-N-CEN_13
1002
{
1000
OWNER
1000
GEN
1002
}
1001
GENIUS_GENODEF_13
1002
{
1000
HIER
1070
     0
1002
}
1002
{
1000
MANEDIT
1070
     0
1002
}
1002
{
1000
NOSEL
1070
     0
1002
}
1002
{
1000
BEHIND
1070
     0
1002
}
1002
{
1000
OTHER
1070
     0
1002
}
1002
{
1000
REACTOR
1002
}
  0
LINE
  5
689
330
1F
100
AcDbEntity
  8
0
100
AcDbLine
 10
1085.404034365968
 20
314.1829577468895
 30
0.0
 11
1146.139609201232
 21
314.1829577468086
 31
0.0
1001
GENIUS_GENOBJ-N-CEN_13
1002
{
1000
OWNER
1000
GEN
1002
}
1001
GENIUS_GENODEF_13
1002
{
1000
HIER
1070
     0
1002
}
1002
{
1000
MANEDIT
1070
     0
1002
}
1002
{
1000
NOSEL
1070
     0
1002
}
1002
{
1000
BEHIND
1070
     0
1002
}
1002
{
1000
OTHER
1070
     0
1002
}
1002
{
1000
REACTOR
1002
}
  0
LINE
  5
68A
330
1F
100
AcDbEntity
  8
0
100
AcDbLine
 10
1084.13960920123
 20
312.6829577468911
 30
0.0
 11
1146.13960920123
 21
312.6829577468086
 31
0.0
1001
GENIUS_GENOBJ-N-CEN_13
1002
{
1000
OWNER
1000
GEN
1002
}
1001
GENIUS_GENODEF_13
1002
{
1000
HIER
1070
     0
1002
}
1002
{
1000
MANEDIT
1070
     0
1002
}
1002
{
1000
NOSEL
1070
     0
1002
}
1002
{
1000
BEHIND
1070
     0
1002
}
1002
{
1000
OTHER
1070
     0
1002
}
1002
{
1000
REACTOR
1002
}
  0
HATCH
  5
68B
330
1F
100
AcDbEntity
  8
KLIN
  6
ByBlock
100
AcDbHatch
 10
0.0
 20
0.0
 30
0.0
210
0.0
220
0.0
230
1.0
  2
LINE
 70
     0
 71
     0
 91
        3
 92
        7
 72
     0
 73
     1
 93
        4
 10
1146.139609201296
 20
362.6829577468084
 10
1084.139609201296
 20
362.6829577468911
 10
1085.40403436603
 20
361.1829577468895
 10
1146.139609201294
 20
361.1829577468084
 97
        0
 92
        7
 72
     0
 73
     1
 93
        4
 10
1118.462098331123
 20
314.1829577468454
 10
1085.404034365968
 20
314.1829577468895
 10
1084.13960920123
 20
312.6829577468911
 10
1119.220122876239
 20
312.6829577468443
 97
        0
 92
        7
 72
     0
 73
     1
 93
        4
 10
1146.139609201232
 20
314.1829577468086
 10
1118.462098331123
 20
314.1829577468454
 10
1119.220122876239
 20
312.6829577468445
 10
1146.13960920123
 20
312.6829577468086
 97
        0
 75
     0
 76
     1
 52
45.0
 41
0.5
 77
     0
 78
     1
 53
44.99999999992357
 43
826.0518974331571
 44
114.8416981273799
 45
-1.122532015132146
 46
1.122532015135142
 79
     0
 47
2.718374431718906
 98
        3
 10
1103.583057776038
 20
361.9159920268944
 10
1103.855047912083
 20
313.528927062023
 10
1127.790236460086
 20
313.2570901234014
  0
LINE
  5
68C
330
1F
100
AcDbEntity
  8
0
100
AcDbLine
 10
1091.139609201345
 20
387.6829577467702
 30
0.0
 11
1120.139609201318
 21
387.6829577467056
 31
0.0
  0
LINE
  5
68D
330
1F
100
AcDbEntity
  8
0
100
AcDbLine
 10
1091.139609201293
 20
386.6829577467702
 30
0.0
 11
1120.139609201319
 21
386.6829577467056
 31
0.0
  0
LINE
  5
68E
330
1F
100
AcDbEntity
  8
7A
100
AcDbLine
 10
1071.248543487691
 20
337.6829577469084
 30
0.0
 11
1151.514784808986
 21
337.6829577468013
 31
0.0
1001
GENIUS_GENOBJ-N-CEN_13
1002
{
1000
OWNER
1000
GEN
1002
}
1001
GENIUS_GENODEF_13
1002
{
1000
HIER
1070
     0
1002
}
1002
{
1000
MANEDIT
1070
     0
1002
}
1002
{
1000
NOSEL
1070
     0
1002
}
1002
{
1000
BEHIND
1070
     0
1002
}
1002
{
1000
OTHER
1070
     0
1002
}
1002
{
1000
REACTOR
1002
}
  0
LINE
  5
6A0
330
1F
100
AcDbEntity
  8
0
100
AcDbLine
 10
1010.139609201307
 20
370.6829577468795
 30
0.0
 11
1010.139609201215
 21
302.6829577468796
 31
0.0
1001
GENIUS_GENODEF_13
1002
{
1000
HIER
1070
     0
1002
}
1002
{
1000
MANEDIT
1070
     0
1002
}
1002
{
1000
NOSEL
1070
     0
1002
}
1002
{
1000
BEHIND
1070
     0
1002
}
1002
{
1000
REACTOR
1002
}
1001
GENIUS_GENOBJ-N-CEN_13
1002
{
1000
OWNER
1000
GEN
1002
}
  0
LINE
  5
6A1
330
1F
100
AcDbEntity
  8
0
100
AcDbLine
 10
1012.13960920132
 20
380.5093586504197
 30
0.0
 11
1012.139609201215
 21
302.6829577468768
 31
0.0
1001
GENIUS_GENODEF_13
1002
{
1000
HIER
1070
     0
1002
}
1002
{
1000
MANEDIT
1070
     0
1002
}
1002
{
1000
NOSEL
1070
     0
1002
}
1002
{
1000
BEHIND
1070
     0
1002
}
1002
{
1000
REACTOR
1002
}
1001
GENIUS_GENOBJ-N-CEN_13
1002
{
1000
OWNER
1000
GEN
1002
}
  0
LINE
  5
6A2
330
1F
100
AcDbEntity
  8
7A
100
AcDbLine
 10
1048.139609201263
 20
289.8112227253216
 30
0.0
 11
1048.139609201342
 21
408.682957746884
 31
0.0
1001
GENIUS_GENOBJ-N-CEN_13
1002
{
1000
OWNER
1000
GEN
1002
}
1001
GENIUS_GENODEF_13
1002
{
1000
HIER
1070
     0
1002
}
1002
{
1000
MANEDIT
1070
     0
1002
}
1002
{
1000
NOSEL
1070
     0
1002
}
1002
{
1000
BEHIND
1070
     0
1002
}
1002
{
1000
OTHER
1070
     0
1002
}
1002
{
1000
REACTOR
1002
}
  0
HATCH
  5
6A3
330
1F
100
AcDbEntity
  8
KLIN
  6
ByBlock
100
AcDbHatch
 10
0.0
 20
0.0
 30
0.0
210
0.0
220
0.0
230
1.0
  2
LINE
 70
     0
 71
     0
 91
        4
 92
        7
 72
     0
 73
     1
 93
        4
 10
1086.139609201307
 20
370.6829577467781
 10
1084.139609201307
 20
370.6829577467809
 10
1084.139609201296
 20
362.6829577468911
 10
1086.139609201296
 20
362.6829577468886
 97
        0
 92
        7
 72
     0
 73
     1
 93
        4
 10
1012.139609201307
 20
370.6829577468768
 10
1010.139609201307
 20
370.6829577468795
 10
1010.139609201271
 20
344.4349976136002
 10
1012.139609201272
 20
345.1095902175755
 97
        0
 92
        7
 72
     1
 73
     1
 93
        8
 10
1012.139609201272
 20
345.1095902175755
 42
0.0
 10
1010.139609201271
 20
344.4349976136002
 42
0.0
 10
1010.139609201215
 20
302.6829577468796
 42
0.4142135623730915
 10
1017.139609201206
 20
295.6829577468702
 42
0.0
 10
1048.139609201267
 20
295.6829577468288
 42
0.0
 10
1048.139609201268
 20
297.6829577468288
 42
0.0
 10
1017.139609201208
 20
297.6829577468702
 42
-0.4142135623730919
 10
1012.139609201215
 20
302.6829577468768
 42
0.0
 97
        0
 92
        7
 72
     1
 73
     1
 93
        8
 10
1048.139609201268
 20
297.6829577468288
 42
0.0
 10
1048.139609201267
 20
295.6829577468288
 42
0.0
 10
1079.139609201208
 20
295.6829577467875
 42
0.4142135623730972
 10
1086.139609201217
 20
302.6829577467781
 42
0.0
 10
1086.13960920123
 20
312.6829577468884
 42
0.0
 10
1084.13960920123
 20
312.6829577468911
 42
0.0
 10
1084.139609201217
 20
302.6829577467808
 42
-0.414213562373096
 10
1079.13960920121
 20
297.6829577467874
 42
0.0
 97
        0
 75
     0
 76
     1
 52
135.0
 41
1.0
 77
     0
 78
     1
 53
134.9999999999235
 43
826.0518974331571
 44
114.8416981273799
 45
-2.245064030270284
 46
-2.245064030264292
 79
     0
 47
2.718374431718906
 98
        4
 10
1085.359676752731
 20
366.809066602631
 10
1011.378187924635
 20
360.2849676294513
 10
1011.37818792459
 20
327.1207988858819
 10
1071.760136423983
 20
296.9468433817881
  0
ARC
  5
6A4
330
1F
100
AcDbEntity
  8
0
100
AcDbCircle
 10
1135.222942534596
 20
337.6829577468238
 30
0.0
 40
55.08333333333285
100
AcDbArc
 50
154.7463521007643
 51
205.2536478991184
  0
ARC
  5
6A5
330
1F
100
AcDbEntity
  8
0
100
AcDbCircle
 10
1144.162248777203
 20
337.682957746812
 30
0.0
 40
65.02089865314992
100
AcDbArc
 50
157.3878080413694
 51
202.6121919584095
  0
LINE
  5
6A6
330
1F
100
AcDbEntity
  8
0
100
AcDbLine
 10
1017.139609201206
 20
295.6829577468702
 30
0.0
 11
1079.139609201208
 21
295.6829577467875
 31
0.0
  0
LINE
  5
6A7
330
1F
100
AcDbEntity
  8
0
100
AcDbLine
 10
1017.139609201208
 20
297.6829577468702
 30
0.0
 11
1079.13960920121
 21
297.6829577467874
 31
0.0
  0
ARC
  5
6A9
330
1F
100
AcDbEntity
  8
0
100
AcDbCircle
 10
1017.139609201215
 20
302.6829577468702
 30
0.0
 40
7.0
100
AcDbArc
 50
179.9999999998697
 51
270.0
  0
ARC
  5
6AA
330
1F
100
AcDbEntity
  8
0
100
AcDbCircle
 10
1017.139609201215
 20
302.6829577468702
 30
0.0
 40
5.0
100
AcDbArc
 50
179.9999999998697
 51
270.0
  0
ARC
  5
6AB
330
1F
100
AcDbEntity
  8
0
100
AcDbCircle
 10
1079.139609201217
 20
302.6829577467875
 30
0.0
 40
5.0
100
AcDbArc
 50
270.0
 51
359.9999999998697
1001
GENIUS_GENODEF_13
1002
{
1000
HIER
1070
     0
1002
}
1002
{
1000
MANEDIT
1070
     0
1002
}
1002
{
1000
NOSEL
1070
     0
1002
}
1002
{
1000
BEHIND
1070
     0
1002
}
1002
{
1000
REACTOR
1002
}
1001
GENIUS_GENOBJ-N-CEN_13
1002
{
1000
OWNER
1000
GEN
1002
}
  0
ARC
  5
6AC
330
1F
100
AcDbEntity
  8
0
100
AcDbCircle
 10
1079.139609201217
 20
302.6829577467875
 30
0.0
 40
7.0
100
AcDbArc
 50
270.0
 51
359.9999999998697
1001
GENIUS_GENODEF_13
1002
{
1000
HIER
1070
     0
1002
}
1002
{
1000
MANEDIT
1070
     0
1002
}
1002
{
1000
NOSEL
1070
     0
1002
}
1002
{
1000
BEHIND
1070
     0
1002
}
1002
{
1000
REACTOR
1002
}
1001
GENIUS_GENOBJ-N-CEN_13
1002
{
1000
OWNER
1000
GEN
1002
}
  0
LINE
  5
6AD
330
1F
100
AcDbEntity
  8
0
100
AcDbLine
 10
1086.13960920123
 20
312.6829577468886
 30
0.0
 11
1086.139609201217
 21
302.6829577467781
 31
0.0
1001
GENIUS_GENODEF_13
1002
{
1000
HIER
1070
     0
1002
}
1002
{
1000
MANEDIT
1070
     0
1002
}
1002
{
1000
NOSEL
1070
     0
1002
}
1002
{
1000
BEHIND
1070
     0
1002
}
1002
{
1000
REACTOR
1002
}
1001
GENIUS_GENOBJ-N-CEN_13
1002
{
1000
OWNER
1000
GEN
1002
}
  0
LINE
  5
6AE
330
1F
100
AcDbEntity
  8
0
100
AcDbLine
 10
1084.13960920123
 20
312.6829577468911
 30
0.0
 11
1084.139609201217
 21
302.6829577467808
 31
0.0
1001
GENIUS_GENODEF_13
1002
{
1000
HIER
1070
     0
1002
}
1002
{
1000
MANEDIT
1070
     0
1002
}
1002
{
1000
NOSEL
1070
     0
1002
}
1002
{
1000
BEHIND
1070
     0
1002
}
1002
{
1000
REACTOR
1002
}
1001
GENIUS_GENOBJ-N-CEN_13
1002
{
1000
OWNER
1000
GEN
1002
}
  0
LINE
  5
6AF
330
1F
100
AcDbEntity
  8
0
100
AcDbLine
 10
1084.13960920123
 20
312.6829577468911
 30
0.0
 11
1085.404034365968
 21
314.1829577468895
 31
0.0
  0
LINE
  5
6B1
330
1F
100
AcDbEntity
  8
0
100
AcDbLine
 10
1089.139609201345
 20
402.6829577468642
 30
0.0
 11
989.1396092013541
 21
402.6829577468843
 31
0.0
  0
ARC
  5
6B2
330
1F
100
AcDbEntity
  8
0
  6
ByBlock
100
AcDbCircle
 10
989.1396092013541
 20
403.6829577468843
 30
0.0
 40
1.0
100
AcDbArc
 50
179.9999999998697
 51
270.0
  0
LINE
  5
6B3
330
1F
100
AcDbEntity
  8
0
  6
ByBlock
100
AcDbLine
 10
1085.973518241616
 20
382.5024501668104
 30
0.0
 11
1048.139609201322
 21
379.3496244135342
 31
0.0
  0
LINE
  5
6B4
330
1F
100
AcDbEntity
  8
0
100
AcDbLine
 10
1048.098086461394
 20
378.3426979703079
 30
0.0
 11
1084.33049583612
 21
381.3620654181232
 31
0.0
  0
LINE
  5
6B5
330
1F
100
AcDbEntity
  8
0
  6
ByBlock
100
AcDbLine
 10
1010.305700161028
 20
382.502450166912
 30
0.0
 11
1048.139609201322
 21
379.3496244135342
 31
0.0
  0
LINE
  5
6B6
330
1F
100
AcDbEntity
  8
0
100
AcDbLine
 10
1048.181131941247
 20
378.3426979703079
 30
0.0
 11
1011.948722566521
 21
381.3620654182205
 31
0.0
  0
LINE
  5
6B7
330
1F
100
AcDbEntity
  8
0
100
AcDbLine
 10
1007.13960920138
 20
383.6030906284459
 30
0.0
 11
1007.139609201351
 21
400.682957746862
 31
0.0
  0
ARC
  5
6B8
330
1F
100
AcDbEntity
  8
0
  6
ByBlock
100
AcDbCircle
 10
1006.139609201351
 20
400.6829577468602
 30
0.0
 40
1.0
100
AcDbArc
 50
0.0000000001302755
 51
90.0
  0
LINE
  5
6B9
330
1F
100
AcDbEntity
  8
0
100
AcDbLine
 10
1008.139609201377
 20
383.6030906284536
 30
0.0
 11
1008.139609201447
 21
400.6829577468761
 31
0.0
  0
ARC
  5
6BA
330
1F
100
AcDbEntity
  8
0
100
AcDbCircle
 10
1006.139609201447
 20
400.6829577468843
 30
0.0
 40
2.0
100
AcDbArc
 50
359.9999999997394
 51
90.0
  0
ARC
  5
6BB
330
1F
100
AcDbEntity
  8
0
100
AcDbCircle
 10
1009.13960920138
 20
383.6030906284493
 30
0.0
 40
2.0
100
AcDbArc
 50
180.0000000001302
 51
265.2363583091914
  0
LINE
  5
6BC
330
1F
100
AcDbEntity
  8
0
100
AcDbLine
 10
1011.13960920132
 20
380.5093586504209
 30
0.0
 11
1011.139609201307
 21
370.6829577468782
 31
0.0
1001
GENIUS_GENODEF_13
1002
{
1000
HIER
1070
     0
1002
}
1002
{
1000
MANEDIT
1070
     0
1002
}
1002
{
1000
NOSEL
1070
     0
1002
}
1002
{
1000
BEHIND
1070
     0
1002
}
1002
{
1000
REACTOR
1002
}
1001
GENIUS_GENOBJ-N-CEN_13
1002
{
1000
OWNER
1000
GEN
1002
}
  0
LINE
  5
6BD
330
1F
100
AcDbEntity
  8
0
100
AcDbLine
 10
1010.222654681174
 20
381.505904408667
 30
0.0
 11
1008.973518241671
 21
381.6099991119595
 31
0.0
  0
ARC
  5
6BE
330
1F
100
AcDbEntity
  8
0
100
AcDbCircle
 10
1010.13960920132
 20
380.5093586504222
 30
0.0
 40
1.0
100
AcDbArc
 50
359.9999999998697
 51
85.23635830919147
1001
GENIUS_GENODEF_13
1002
{
1000
HIER
1070
     0
1002
}
1002
{
1000
MANEDIT
1070
     0
1002
}
1002
{
1000
NOSEL
1070
     0
1002
}
1002
{
1000
BEHIND
1070
     0
1002
}
1002
{
1000
REACTOR
1002
}
1001
GENIUS_GENOBJ-N-CEN_13
1002
{
1000
OWNER
1000
GEN
1002
}
  0
ARC
  5
6BF
330
1F
100
AcDbEntity
  8
0
100
AcDbCircle
 10
1010.13960920132
 20
380.5093586504222
 30
0.0
 40
2.0
100
AcDbArc
 50
359.9999999998697
 51
85.23635830919147
1001
GENIUS_GENODEF_13
1002
{
1000
HIER
1070
     0
1002
}
1002
{
1000
MANEDIT
1070
     0
1002
}
1002
{
1000
NOSEL
1070
     0
1002
}
1002
{
1000
BEHIND
1070
     0
1002
}
1002
{
1000
REACTOR
1002
}
1001
GENIUS_GENOBJ-N-CEN_13
1002
{
1000
OWNER
1000
GEN
1002
}
  0
LINE
  5
6C0
330
1F
100
AcDbEntity
  8
0
100
AcDbLine
 10
1010.305700161028
 20
382.502450166912
 30
0.0
 11
1009.056563721523
 21
382.6065448702047
 31
0.0
  0
ARC
  5
6C1
330
1F
100
AcDbEntity
  8
0
100
AcDbCircle
 10
1009.139609201377
 20
383.6030906284495
 30
0.0
 40
1.0
100
AcDbArc
 50
179.9999999997394
 51
265.2363583091914
  0
LINE
  5
6C2
330
1F
100
AcDbEntity
  8
0
100
AcDbLine
 10
1084.13960920132
 20
380.5093586503229
 30
0.0
 11
1084.139609201296
 21
362.6829577468911
 31
0.0
1001
GENIUS_GENODEF_13
1002
{
1000
HIER
1070
     0
1002
}
1002
{
1000
MANEDIT
1070
     0
1002
}
1002
{
1000
NOSEL
1070
     0
1002
}
1002
{
1000
BEHIND
1070
     0
1002
}
1002
{
1000
REACTOR
1002
}
1001
GENIUS_GENOBJ-N-CEN_13
1002
{
1000
OWNER
1000
GEN
1002
}
  0
LINE
  5
6C3
330
1F
100
AcDbEntity
  8
0
100
AcDbLine
 10
1086.139609201307
 20
370.6829577467781
 30
0.0
 11
1086.139609201296
 21
362.6829577468886
 31
0.0
1001
GENIUS_GENODEF_13
1002
{
1000
HIER
1070
     0
1002
}
1002
{
1000
MANEDIT
1070
     0
1002
}
1002
{
1000
NOSEL
1070
     0
1002
}
1002
{
1000
BEHIND
1070
     0
1002
}
1002
{
1000
REACTOR
1002
}
1001
GENIUS_GENOBJ-N-CEN_13
1002
{
1000
OWNER
1000
GEN
1002
}
  0
LINE
  5
6C4
330
1F
100
AcDbEntity
  8
0
100
AcDbLine
 10
1084.139609201296
 20
362.6829577468911
 30
0.0
 11
1085.40403436603
 21
361.1829577468895
 31
0.0
  0
ARC
  5
6C6
330
1F
100
AcDbEntity
  8
0
100
AcDbCircle
 10
1091.139609201347
 20
388.6829577467702
 30
0.0
 40
1.0
100
AcDbArc
 50
180.0000000001302
 51
270.0
  0
LINE
  5
6C7
330
1F
100
AcDbEntity
  8
0
100
AcDbLine
 10
1088.139609201275
 20
383.6030906283406
 30
0.0
 11
1088.139609201356
 21
401.6829577468838
 31
0.0
  0
LINE
  5
6C8
330
1F
100
AcDbEntity
  8
0
100
AcDbLine
 10
1089.139609201275
 20
383.6030906283365
 30
0.0
 11
1089.139609201353
 21
401.6829577468838
 31
0.0
  0
ARC
  5
6C9
330
1F
100
AcDbEntity
  8
0
100
AcDbCircle
 10
1091.139609201297
 20
388.6829577467702
 30
0.0
 40
2.0
100
AcDbArc
 50
179.9999999997394
 51
270.0
  0
LINE
  5
6CA
330
1F
100
AcDbEntity
  8
0
100
AcDbLine
 10
1085.139609201319
 20
380.5093586503215
 30
0.0
 11
1085.139609201307
 21
370.6829577467795
 31
0.0
1001
GENIUS_GENODEF_13
1002
{
1000
HIER
1070
     0
1002
}
1002
{
1000
MANEDIT
1070
     0
1002
}
1002
{
1000
NOSEL
1070
     0
1002
}
1002
{
1000
BEHIND
1070
     0
1002
}
1002
{
1000
REACTOR
1002
}
1001
GENIUS_GENOBJ-N-CEN_13
1002
{
1000
OWNER
1000
GEN
1002
}
  0
LINE
  5
6CB
330
1F
100
AcDbEntity
  8
0
100
AcDbLine
 10
1085.973518241616
 20
382.5024501668104
 30
0.0
 11
1087.222654681126
 21
382.6065448701001
 31
0.0
  0
LINE
  5
6CC
330
1F
100
AcDbEntity
  8
0
100
AcDbLine
 10
1086.056563721468
 20
381.5059044085651
 30
0.0
 11
1087.305700160978
 21
381.6099991118552
 31
0.0
  0
ARC
  5
6CD
330
1F
100
AcDbEntity
  8
0
100
AcDbCircle
 10
1086.139609201319
 20
380.5093586503201
 30
0.0
 40
2.0
100
AcDbArc
 50
94.76364169054713
 51
179.9999999998697
1001
GENIUS_GENODEF_13
1002
{
1000
HIER
1070
     0
1002
}
1002
{
1000
MANEDIT
1070
     0
1002
}
1002
{
1000
NOSEL
1070
     0
1002
}
1002
{
1000
BEHIND
1070
     0
1002
}
1002
{
1000
REACTOR
1002
}
1001
GENIUS_GENOBJ-N-CEN_13
1002
{
1000
OWNER
1000
GEN
1002
}
  0
ARC
  5
6CE
330
1F
100
AcDbEntity
  8
0
100
AcDbCircle
 10
1086.139609201319
 20
380.5093586503201
 30
0.0
 40
1.0
100
AcDbArc
 50
94.76364169054713
 51
179.9999999998697
  0
ARC
  5
6CF
330
1F
100
AcDbEntity
  8
0
100
AcDbCircle
 10
1087.139609201275
 20
383.6030906283452
 30
0.0
 40
1.0
100
AcDbArc
 50
274.7636416905471
 51
359.9999999997394
  0
ARC
  5
6D0
330
1F
100
AcDbEntity
  8
0
100
AcDbCircle
 10
1087.139609201275
 20
383.6030906283452
 30
0.0
 40
2.0
100
AcDbArc
 50
274.7636416905471
 51
359.9999999997394
  0
LINE
  5
6D1
330
1F
100
AcDbEntity
  8
0
100
AcDbLine
 10
1090.139609201329
 20
401.6829577468809
 30
0.0
 11
1090.139609201347
 21
388.6829577467686
 31
0.0
  0
ARC
  5
6D2
330
1F
100
AcDbEntity
  8
0
100
AcDbCircle
 10
1089.139609201341
 20
401.6829577468795
 30
0.0
 40
0.9999999999848341
100
AcDbArc
 50
359.9999999997394
 51
179.9999999997394
  0
LINE
  5
6D3
330
1F
100
AcDbEntity
  8
0
100
AcDbLine
 10
1146.139609201296
 20
362.6829577468084
 30
0.0
 11
1146.13960920123
 21
312.6829577468084
 31
0.0
1001
GENIUS_GENODEF_13
1002
{
1000
HIER
1070
     0
1002
}
1002
{
1000
MANEDIT
1070
     0
1002
}
1002
{
1000
NOSEL
1070
     0
1002
}
1002
{
1000
BEHIND
1070
     0
1002
}
1002
{
1000
REACTOR
1002
}
1001
GENIUS_GENOBJ-N-CEN_13
1002
{
1000
OWNER
1000
GEN
1002
}
  0
LINE
  5
6E4
330
1F
100
AcDbEntity
  8
0
100
AcDbLine
 10
1120.139609201392
 20
442.682957746708
 30
0.0
 11
1120.139609201319
 21
386.6829577467044
 31
0.0
  0
LINE
  5
6E9
330
1F
100
AcDbEntity
  8
0
  6
ByBlock
100
AcDbLine
 10
988.1396092013542
 20
403.6829577468856
 30
0.0
 11
988.139609201406
 21
442.6829577468843
 31
0.0
  0
LINE
  5
6EA
330
1F
100
AcDbEntity
  8
0
  6
ByBlock
100
AcDbLine
 10
1120.139609201392
 20
442.682957746708
 30
0.0
 11
987.1396092014061
 21
442.6829577468857
 31
0.0
  0
LINE
  5
6EB
330
1F
100
AcDbEntity
  8
0
  6
ByBlock
100
AcDbLine
 10
987.1396092014061
 20
442.6829577468857
 30
0.0
 11
987.1396092013542
 21
403.6829577468856
 31
0.0
  0
LINE
  5
6EC
330
1F
100
AcDbEntity
  8
0
  6
ByBlock
100
AcDbLine
 10
989.1396092013515
 20
401.6829577468829
 30
0.0
 11
1006.139609201353
 21
401.6829577468602
 31
0.0
  0
ARC
  5
6ED
330
1F
100
AcDbEntity
  8
0
  6
ByBlock
100
AcDbCircle
 10
989.1396092013541
 20
403.6829577468829
 30
0.0
 40
2.0
100
AcDbArc
 50
179.9999999998697
 51
270.0
  0
LINE
  5
8AA
330
1F
100
AcDbEntity
  8
0
  6
ByBlock
100
AcDbLine
 10
1010.139609201319
 20
370.6829577468164
 30
0.0
 11
1017.541323485976
 21
370.6829577468168
 31
0.0
  0
LINE
  5
8AB
330
1F
100
AcDbEntity
  8
0
  6
ByBlock
100
AcDbLine
 10
1078.737894916777
 20
370.6829577468168
 30
0.0
 11
1086.139609201318
 21
370.6829577468164
 31
0.0
  0
DIMENSION
  5
8BA
330
1F
100
AcDbEntity
  8
AM_5
100
AcDbDimension
  2
*D48
 10
1008.139609201448
 20
464.8533871394666
 30
0.0
 11
1047.049539124342
 21
464.8533871394666
 31
0.0
 70
   160
 71
     5
 42
79.999999999902
  3
AM_DIN$0
100
AcDbAlignedDimension
 13
1088.13960920135
 23
400.6829577469826
 33
0.0
 14
1008.139609201448
 24
400.6829577468726
 34
0.0
100
AcDbRotatedDimension
1001
ACAD_DSTYLE_DIMINSPECT
1070
   396
1000
100%
1070
   395
1000

1070
   394
1070
    33
1070
   393
1070
     0
1001
ACAD
1000
DSTYLE
1002
{
1070
    41
1040
7.0
1070
   140
1040
10.0
1070
   271
1070
     0
1002
}
  0
LINE
  5
8C0
330
1F
100
AcDbEntity
  8
0
100
AcDbLine
 10
1023.139609201385
 20
275.6943863180786
 30
0.0
 11
1073.139609201386
 21
275.6943863180786
 31
0.0
  0
LINE
  5
8C1
330
1F
100
AcDbEntity
  8
0
100
AcDbLine
 10
1023.139609201384
 20
277.6932434611859
 30
0.0
 11
1073.139609201385
 21
277.6932434611859
 31
0.0
  0
LINE
  5
8C2
330
1F
100
AcDbEntity
  8
0
100
AcDbLine
 10
1023.139609201385
 20
275.6943863180786
 30
0.0
 11
1023.139609201376
 21
295.6829577468622
 31
0.0
  0
LINE
  5
8C3
330
1F
100
AcDbEntity
  8
0
100
AcDbLine
 10
1073.139609201386
 20
275.6943863180786
 30
0.0
 11
1073.139609201377
 21
295.6829577467955
 31
0.0
  0
LINE
  5
8C4
330
1F
100
AcDbEntity
  8
0
100
AcDbLine
 10
1028.139609201377
 20
370.6583863179665
 30
0.0
 11
1028.139609201377
 21
313.6583863179667
 31
0.0
  0
LINE
  5
8C5
330
1F
100
AcDbEntity
  8
0
100
AcDbLine
 10
1028.139609201377
 20
313.6583863179667
 30
0.0
 11
1068.139609201377
 21
313.6583863179667
 31
0.0
  0
LINE
  5
8C6
330
1F
100
AcDbEntity
  8
0
100
AcDbLine
 10
1068.139609201377
 20
313.6583863179667
 30
0.0
 11
1068.139609201377
 21
370.6583863179665
 31
0.0
  0
LINE
  5
8C7
330
1F
100
AcDbEntity
  8
0
100
AcDbLine
 10
1029.639609201377
 20
370.6583863179665
 30
0.0
 11
1029.639609201377
 21
313.6583863179667
 31
0.0
  0
LINE
  5
8C8
330
1F
100
AcDbEntity
  8
0
100
AcDbLine
 10
1066.639609201377
 20
313.6583863179667
 30
0.0
 11
1066.639609201377
 21
370.6583863179665
 31
0.0
  0
HATCH
  5
8C9
330
1F
100
AcDbEntity
  8
8
100
AcDbHatch
 10
0.0
 20
0.0
 30
0.0
210
0.0
220
0.0
230
1.0
  2
LINE
 70
     0
 71
     0
 91
        4
 92
        7
 72
     0
 73
     1
 93
        6
 10
1020.639609201377
 20
360.6583863179667
 10
1021.11258217435
 20
363.4962241558044
 10
1020.139609201377
 20
363.6583863179667
 10
1019.639609201377
 20
360.6583863179667
 10
1019.639609201377
 20
339.1744839299769
 10
1020.639609201377
 20
339.4307503473645
 97
        0
 92
        7
 72
     0
 73
     1
 93
        4
 10
1020.639609201377
 20
339.4307503473642
 10
1019.639609201377
 20
339.1744839299769
 10
1019.639609201377
 20
325.9951632556945
 10
1020.639609201377
 20
326.2514296730817
 97
        0
 92
        7
 72
     1
 73
     1
 93
        8
 10
1020.639609201377
 20
326.2514296730817
 42
0.0
 10
1019.639609201377
 20
325.9951632556945
 42
0.0
 10
1019.639609201377
 20
304.6583863179667
 42
0.4142135623730951
 10
1025.639609201377
 20
298.6583863179667
 42
0.0
 10
1048.139609201377
 20
298.6583863179667
 42
0.0
 10
1048.139609201377
 20
299.6583863179669
 42
0.0
 10
1025.639609201377
 20
299.6583863179669
 42
-0.4142135623730951
 10
1020.639609201377
 20
304.6583863179667
 42
0.0
 97
        0
 92
        7
 72
     1
 73
     1
 93
       10
 10
1076.639609201377
 20
304.6583863179667
 42
0.0
 10
1076.639609201377
 20
360.6583863179667
 42
0.0
 10
1076.139609201377
 20
363.6583863179667
 42
0.0
 10
1075.166636228404
 20
363.4962241558044
 42
0.0
 10
1075.639609201377
 20
360.6583863179667
 42
0.0
 10
1075.639609201377
 20
304.6583863179667
 42
-0.4142135623730951
 10
1070.639609201377
 20
299.6583863179669
 42
0.0
 10
1048.139609201377
 20
299.6583863179669
 42
0.0
 10
1048.139609201377
 20
298.6583863179667
 42
0.0
 10
1070.639609201377
 20
298.6583863179667
 42
0.4142135623730951
 97
        0
 75
     0
 76
     1
 52
45.0
 41
1.0
 77
     0
 78
     1
 53
45.0
 43
930.0760022065
 44
170.944026980425
 45
-2.245064030267287
 46
2.245064030267287
 79
     0
 47
0.144641785732262
 98
        4
 10
1019.961062295396
 20
357.3057850022548
 10
1020.105767766283
 20
329.8238437058738
 10
1020.250470735346
 20
322.0131878694912
 10
1054.689862434488
 20
299.3044272509086
  0
LINE
  5
8CA
330
1F
100
AcDbEntity
  8
0
100
AcDbLine
 10
1019.639609201377
 20
360.6583863179667
 30
0.0
 11
1019.639609201377
 21
304.6583863179667
 31
0.0
  0
LINE
  5
8CB
330
1F
100
AcDbEntity
  8
0
100
AcDbLine
 10
1076.639609201377
 20
304.6583863179667
 30
0.0
 11
1076.639609201377
 21
360.6583863179667
 31
0.0
  0
LINE
  5
8CC
330
1F
100
AcDbEntity
  8
0
100
AcDbLine
 10
1025.639609201377
 20
298.6583863179667
 30
0.0
 11
1070.639609201377
 21
298.6583863179667
 31
0.0
  0
LINE
  5
8CD
330
1F
100
AcDbEntity
  8
0
100
AcDbLine
 10
1068.139609201377
 20
363.6583863179667
 30
0.0
 11
1076.139609201377
 21
363.6583863179667
 31
0.0
  0
LINE
  5
8CE
330
1F
100
AcDbEntity
  8
0
100
AcDbLine
 10
1015.639609201377
 20
374.1583863179667
 30
0.0
 11
1015.639609201377
 21
372.6583863179667
 31
0.0
  0
LINE
  5
8CF
330
1F
100
AcDbEntity
  8
0
100
AcDbLine
 10
1011.639609201377
 20
372.6583863179667
 30
0.0
 11
1014.639609201377
 21
372.6583863179667
 31
0.0
  0
LINE
  5
8D0
330
1F
100
AcDbEntity
  8
0
100
AcDbLine
 10
1080.639609201377
 20
372.6583863179667
 30
0.0
 11
1080.639609201377
 21
374.1583863179667
 31
0.0
  0
LINE
  5
8D1
330
1F
100
AcDbEntity
  8
0
100
AcDbLine
 10
1080.639609201377
 20
374.1583863179667
 30
0.0
 11
1015.639609201377
 21
374.1583863179667
 31
0.0
  0
CIRCLE
  5
8D2
330
1F
100
AcDbEntity
  8
0
100
AcDbCircle
 10
1048.139609201377
 20
371.1583863179665
 30
0.0
 40
1.5
  0
LINE
  5
8D3
330
1F
100
AcDbEntity
  8
7A
100
AcDbLine
 10
1043.639609201377
 20
371.1583863179665
 30
0.0
 11
1052.639609201377
 21
371.1583863179665
 31
0.0
1001
GENIUS_GENOBJ-N-CEN_13
1002
{
1000
OWNER
1000
GEN
1002
}
1001
GENIUS_GENODEF_13
1002
{
1000
HIER
1070
     0
1002
}
1002
{
1000
MANEDIT
1070
     0
1002
}
1002
{
1000
NOSEL
1070
     0
1002
}
1002
{
1000
BEHIND
1070
     0
1002
}
1002
{
1000
OTHER
1070
     0
1002
}
1002
{
1000
REACTOR
1002
}
  0
LINE
  5
8D4
330
1F
100
AcDbEntity
  8
0
100
AcDbLine
 10
1076.639609201377
 20
376.6583863179667
 30
0.0
 11
1019.639609201377
 21
376.6583863179667
 31
0.0
  0
LINE
  5
8D5
330
1F
100
AcDbEntity
  8
0
100
AcDbLine
 10
1019.639609201377
 20
376.6583863179667
 30
0.0
 11
1019.639609201377
 21
374.1583863179667
 31
0.0
  0
LINE
  5
8D6
330
1F
100
AcDbEntity
  8
0
100
AcDbLine
 10
1019.639609201377
 20
372.6583863179667
 30
0.0
 11
1019.639609201377
 21
370.1583863179666
 31
0.0
  0
LINE
  5
8D7
330
1F
100
AcDbEntity
  8
0
100
AcDbLine
 10
1076.639609201377
 20
376.6583863179667
 30
0.0
 11
1076.639609201377
 21
374.1583863179667
 31
0.0
  0
LINE
  5
8D8
330
1F
100
AcDbEntity
  8
0
100
AcDbLine
 10
1076.639609201377
 20
372.6583863179667
 30
0.0
 11
1076.639609201377
 21
370.1583863179666
 31
0.0
  0
LINE
  5
8D9
330
1F
100
AcDbEntity
  8
0
100
AcDbLine
 10
1068.139609201377
 20
370.1583863179666
 30
0.0
 11
1076.639609201377
 21
370.1583863179666
 31
0.0
  0
LINE
  5
8DA
330
1F
100
AcDbEntity
  8
0
100
AcDbLine
 10
1014.639609201377
 20
374.1583863179667
 30
0.0
 11
1014.639609201377
 21
372.6583863179667
 31
0.0
  0
LINE
  5
8DB
330
1F
100
AcDbEntity
  8
0
100
AcDbLine
 10
1011.639609201377
 20
374.1583863179667
 30
0.0
 11
1013.639609201377
 21
375.1583863179665
 31
0.0
  0
LINE
  5
8DC
330
1F
100
AcDbEntity
  8
0
100
AcDbLine
 10
1013.639609201377
 20
375.1583863179665
 30
0.0
 11
1019.639609201377
 21
376.6583863179667
 31
0.0
  0
LINE
  5
8DD
330
1F
100
AcDbEntity
  8
0
100
AcDbLine
 10
1013.639609201377
 20
371.6583863179667
 30
0.0
 11
1019.639609201377
 21
370.1583863179666
 31
0.0
  0
LINE
  5
8DE
330
1F
100
AcDbEntity
  8
0
100
AcDbLine
 10
1011.639609201377
 20
372.6583863179667
 30
0.0
 11
1013.639609201377
 21
371.6583863179667
 31
0.0
  0
LINE
  5
8DF
330
1F
100
AcDbEntity
  8
0
100
AcDbLine
 10
1014.639609201377
 20
374.1583863179667
 30
0.0
 11
1011.639609201377
 21
374.1583863179667
 31
0.0
  0
LINE
  5
8E0
330
1F
100
AcDbEntity
  8
0
100
AcDbLine
 10
1015.639609201377
 20
372.6583863179667
 30
0.0
 11
1026.139609201377
 21
372.6583863179667
 31
0.0
  0
LINE
  5
8E1
330
1F
100
AcDbEntity
  8
0
100
AcDbLine
 10
1084.639609201377
 20
372.6583863179667
 30
0.0
 11
1081.639609201377
 21
372.6583863179667
 31
0.0
  0
LINE
  5
8E2
330
1F
100
AcDbEntity
  8
0
100
AcDbLine
 10
1081.639609201377
 20
374.1583863179667
 30
0.0
 11
1084.639609201377
 21
374.1583863179667
 31
0.0
  0
LINE
  5
8E3
330
1F
100
AcDbEntity
  8
0
100
AcDbLine
 10
1084.639609201377
 20
372.6583863179667
 30
0.0
 11
1082.639609201377
 21
371.6583863179667
 31
0.0
  0
LINE
  5
8E4
330
1F
100
AcDbEntity
  8
0
100
AcDbLine
 10
1084.639609201377
 20
374.1583863179667
 30
0.0
 11
1082.639609201377
 21
375.1583863179665
 31
0.0
  0
LINE
  5
8E6
330
1F
100
AcDbEntity
  8
0
100
AcDbLine
 10
1082.639609201377
 20
375.1583863179665
 30
0.0
 11
1076.639609201377
 21
376.6583863179667
 31
0.0
  0
LINE
  5
8E7
330
1F
100
AcDbEntity
  8
0
100
AcDbLine
 10
1082.639609201377
 20
371.6583863179667
 30
0.0
 11
1076.639609201377
 21
370.1583863179666
 31
0.0
  0
HATCH
  5
8E8
330
1F
100
AcDbEntity
  8
8
100
AcDbHatch
 10
0.0
 20
0.0
 30
0.0
210
0.0
220
0.0
230
1.0
  2
NET
 70
     0
 71
     0
 91
        2
 92
        7
 72
     0
 73
     1
 93
       12
 10
1011.639609201377
 20
372.6583863179667
 10
1013.639609201377
 20
371.6583863179667
 10
1019.639609201377
 20
370.1583863179666
 10
1019.639609201377
 20
372.6583863179667
 10
1015.639609201377
 20
372.6583863179667
 10
1015.639609201377
 20
374.1583863179667
 10
1019.639609201377
 20
374.1583863179667
 10
1019.639609201377
 20
376.6583863179667
 10
1013.639609201377
 20
375.1583863179665
 10
1011.639609201377
 20
374.1583863179667
 10
1014.639609201377
 20
374.1583863179667
 10
1014.639609201377
 20
372.6583863179667
 97
        0
 92
        7
 72
     0
 73
     1
 93
       12
 10
1080.639609201377
 20
372.6583863179667
 10
1076.639609201377
 20
372.6583863179667
 10
1076.639609201377
 20
370.1583863179666
 10
1082.639609201377
 20
371.6583863179667
 10
1084.639609201377
 20
372.6583863179667
 10
1081.639609201377
 20
372.6583863179667
 10
1081.639609201377
 20
374.1583863179667
 10
1084.639609201377
 20
374.1583863179667
 10
1082.639609201377
 20
375.1583863179665
 10
1076.639609201377
 20
376.6583863179667
 10
1076.639609201377
 20
374.1583863179667
 10
1080.639609201377
 20
374.1583863179667
 97
        0
 75
     0
 76
     1
 52
135.0
 41
0.5
 77
     0
 78
     2
 53
135.0
 43
930.0760022065
 44
171.8539972735273
 45
-1.122532015133643
 46
-1.122532015133643
 79
     0
 53
225.0
 43
930.0760022065
 44
171.8539972735273
 45
1.122532015133643
 46
-1.122532015133643
 79
     0
 47
0.1492324330864038
 98
        2
 10
1018.1719983448
 20
371.624029573871
 10
1079.093006227328
 20
371.4747961286448
  0
LINE
  5
8E9
330
1F
100
AcDbEntity
  8
0
100
AcDbLine
 10
1020.639609201377
 20
360.6583863179667
 30
0.0
 11
1020.639609201377
 21
304.6583863179667
 31
0.0
  0
LINE
  5
8EA
330
1F
100
AcDbEntity
  8
0
100
AcDbLine
 10
1025.639609201377
 20
299.6583863179669
 30
0.0
 11
1070.639609201377
 21
299.6583863179669
 31
0.0
  0
LINE
  5
8EB
330
1F
100
AcDbEntity
  8
0
100
AcDbLine
 10
1075.639609201377
 20
304.6583863179667
 30
0.0
 11
1075.639609201377
 21
360.6583863179667
 31
0.0
  0
ARC
  5
8EC
330
1F
100
AcDbEntity
  8
0
100
AcDbCircle
 10
1025.639609201377
 20
304.6583863179667
 30
0.0
 40
5.0
100
AcDbArc
 50
180.0
 51
270.0
1001
GENIUS_GENOBJ-N-FIL_13
1002
{
1000
OWNER
1000
GEN
1002
}
1001
GENIUS_GENODEF_13
1002
{
1000
HIER
1070
     0
1002
}
1002
{
1000
MANEDIT
1070
     0
1002
}
1002
{
1000
NOSEL
1070
     0
1002
}
1002
{
1000
BEHIND
1070
     0
1002
}
1002
{
1000
OTHER
1070
     0
1002
}
1002
{
1000
REACTOR
1002
}
  0
ARC
  5
8ED
330
1F
100
AcDbEntity
  8
0
100
AcDbCircle
 10
1070.639609201377
 20
304.6583863179667
 30
0.0
 40
5.0
100
AcDbArc
 50
270.0
 51
0.0
1001
GENIUS_GENOBJ-N-FIL_13
1002
{
1000
OWNER
1000
GEN
1002
}
1001
GENIUS_GENODEF_13
1002
{
1000
HIER
1070
     0
1002
}
1002
{
1000
MANEDIT
1070
     0
1002
}
1002
{
1000
NOSEL
1070
     0
1002
}
1002
{
1000
BEHIND
1070
     0
1002
}
1002
{
1000
OTHER
1070
     0
1002
}
1002
{
1000
REACTOR
1002
}
  0
ARC
  5
8EE
330
1F
100
AcDbEntity
  8
0
100
AcDbCircle
 10
1025.639609201377
 20
304.6583863179667
 30
0.0
 40
6.0
100
AcDbArc
 50
180.0
 51
270.0
1001
GENIUS_GENOBJ-N-FIL_13
1002
{
1000
OWNER
1000
GEN
1002
}
1001
GENIUS_GENODEF_13
1002
{
1000
HIER
1070
     0
1002
}
1002
{
1000
MANEDIT
1070
     0
1002
}
1002
{
1000
NOSEL
1070
     0
1002
}
1002
{
1000
BEHIND
1070
     0
1002
}
1002
{
1000
OTHER
1070
     0
1002
}
1002
{
1000
REACTOR
1002
}
  0
ARC
  5
8EF
330
1F
100
AcDbEntity
  8
0
100
AcDbCircle
 10
1070.639609201377
 20
304.6583863179667
 30
0.0
 40
6.0
100
AcDbArc
 50
270.0
 51
0.0
1001
GENIUS_GENODEF_13
1002
{
1000
HIER
1070
     0
1002
}
1002
{
1000
MANEDIT
1070
     0
1002
}
1002
{
1000
NOSEL
1070
     0
1002
}
1002
{
1000
BEHIND
1070
     0
1002
}
1002
{
1000
OTHER
1070
     0
1002
}
1002
{
1000
REACTOR
1002
}
1001
GENIUS_GENOBJ-N-FIL_13
1002
{
1000
OWNER
1000
GEN
1002
}
  0
ARC
  5
8F0
330
1F
100
AcDbEntity
  8
0
100
AcDbCircle
 10
1026.139609201377
 20
370.6583863179665
 30
0.0
 40
2.0
100
AcDbArc
 50
0.0
 51
90.0
1001
GENIUS_GENODEF_13
1002
{
1000
HIER
1070
     0
1002
}
1002
{
1000
MANEDIT
1070
     0
1002
}
1002
{
1000
NOSEL
1070
     0
1002
}
1002
{
1000
BEHIND
1070
     0
1002
}
1002
{
1000
OTHER
1070
     0
1002
}
1002
{
1000
REACTOR
1002
}
1001
GENIUS_GENOBJ-N-FIL_13
1002
{
1000
OWNER
1000
GEN
1002
}
  0
LINE
  5
8F1
330
1F
100
AcDbEntity
  8
0
100
AcDbLine
 10
1080.639609201377
 20
372.6583863179667
 30
0.0
 11
1070.139609201377
 21
372.6583863179667
 31
0.0
  0
ARC
  5
8F2
330
1F
100
AcDbEntity
  8
0
100
AcDbCircle
 10
1070.139609201377
 20
370.6583863179665
 30
0.0
 40
2.0
100
AcDbArc
 50
90.0
 51
180.0
1001
GENIUS_GENODEF_13
1002
{
1000
HIER
1070
     0
1002
}
1002
{
1000
MANEDIT
1070
     0
1002
}
1002
{
1000
NOSEL
1070
     0
1002
}
1002
{
1000
BEHIND
1070
     0
1002
}
1002
{
1000
OTHER
1070
     0
1002
}
1002
{
1000
REACTOR
1002
}
1001
GENIUS_GENOBJ-N-FIL_13
1002
{
1000
OWNER
1000
GEN
1002
}
  0
ARC
  5
8F3
330
1F
100
AcDbEntity
  8
0
100
AcDbCircle
 10
1026.139609201377
 20
370.6583863179665
 30
0.0
 40
3.5
100
AcDbArc
 50
0.0
 51
90.0
1001
GENIUS_GENODEF_13
1002
{
1000
HIER
1070
     0
1002
}
1002
{
1000
MANEDIT
1070
     0
1002
}
1002
{
1000
NOSEL
1070
     0
1002
}
1002
{
1000
BEHIND
1070
     0
1002
}
1002
{
1000
OTHER
1070
     0
1002
}
1002
{
1000
REACTOR
1002
}
1001
GENIUS_GENOBJ-N-FIL_13
1002
{
1000
OWNER
1000
GEN
1002
}
  0
ARC
  5
8F4
330
1F
100
AcDbEntity
  8
0
100
AcDbCircle
 10
1070.139609201377
 20
370.6583863179665
 30
0.0
 40
3.5
100
AcDbArc
 50
90.0
 51
180.0
1001
GENIUS_GENODEF_13
1002
{
1000
HIER
1070
     0
1002
}
1002
{
1000
MANEDIT
1070
     0
1002
}
1002
{
1000
NOSEL
1070
     0
1002
}
1002
{
1000
BEHIND
1070
     0
1002
}
1002
{
1000
OTHER
1070
     0
1002
}
1002
{
1000
REACTOR
1002
}
1001
GENIUS_GENOBJ-N-FIL_13
1002
{
1000
OWNER
1000
GEN
1002
}
  0
HATCH
  5
8F5
330
1F
100
AcDbEntity
  8
8
100
AcDbHatch
 10
0.0
 20
0.0
 30
0.0
210
0.0
220
0.0
230
1.0
  2
_U
 70
     0
 71
     0
 91
        1
 92
        1
 93
        8
 72
     1
 10
1068.139609201377
 20
313.6583863179667
 11
1068.139609201377
 21
370.6583863179664
 72
     2
 10
1070.139609201377
 20
370.6583863179665
 40
2.0
 50
180.0
 51
270.0
 73
     0
 72
     1
 10
1070.139609201377
 20
372.6583863179667
 11
1080.639609201377
 21
372.6583863179667
 72
     1
 10
1080.639609201377
 20
372.6583863179667
 11
1080.639609201377
 21
374.1583863179666
 72
     1
 10
1080.639609201377
 20
374.1583863179667
 11
1070.139609201377
 21
374.1583863179667
 72
     2
 10
1070.139609201377
 20
370.6583863179665
 40
3.5
 50
90.0
 51
180.0
 73
     1
 72
     1
 10
1066.639609201377
 20
370.6583863179665
 11
1066.639609201377
 21
313.6583863179668
 72
     1
 10
1066.639609201377
 20
313.6583863179667
 11
1068.139609201377
 21
313.6583863179667
 97
        0
 75
     0
 76
     0
 52
45.0
 41
5.0
 77
     0
 78
     1
 53
45.0
 43
930.0760022065
 44
170.944026980425
 45
-3.535533905932736
 46
3.535533905932736
 79
     0
 98
        1
 10
930.0760022065
 20
170.944026980425
1001
GENIUS_GENODEF_13
1002
{
1000
HIER
1070
     0
1002
}
1002
{
1000
MANEDIT
1070
     0
1002
}
1002
{
1000
NOSEL
1070
     0
1002
}
1002
{
1000
BEHIND
1070
     0
1002
}
1002
{
1000
OTHER
1070
     0
1002
}
1002
{
1000
REACTOR
1002
}
1001
GENIUS_GENOBJ-N-HTC_13
1002
{
1000
OWNER
1000
GEN
1002
}
1001
GENIUS_GENHATCH_13
1002
{
1000
DATA
1040
45.0
1042
5.0
1000
_U
1070
     0
1011
1067.369288130466
1021
353.625586895104
1031
0.0
1002
}
1002
{
1000
UCS
1010
0.0
1020
0.0
1030
0.0
1010
1.0
1020
0.0
1030
0.0
1010
0.0
1020
1.0
1030
0.0
1002
}
  0
HATCH
  5
8F6
330
1F
100
AcDbEntity
  8
8
100
AcDbHatch
 10
0.0
 20
0.0
 30
0.0
210
0.0
220
0.0
230
1.0
  2
_U
 70
     0
 71
     0
 91
        1
 92
        1
 93
        8
 72
     1
 10
1026.139609201377
 20
374.1583863179667
 11
1015.639609201377
 21
374.1583863179667
 72
     1
 10
1015.639609201377
 20
374.1583863179667
 11
1015.639609201377
 21
372.6583863179667
 72
     1
 10
1015.639609201377
 20
372.6583863179667
 11
1026.139609201377
 21
372.6583863179667
 72
     2
 10
1026.139609201377
 20
370.6583863179665
 40
2.0
 50
270.0
 51
360.0
 73
     0
 72
     1
 10
1028.139609201377
 20
370.6583863179665
 11
1028.139609201377
 21
313.6583863179668
 72
     1
 10
1028.139609201377
 20
313.6583863179667
 11
1029.639609201377
 21
313.6583863179667
 72
     1
 10
1029.639609201377
 20
313.6583863179667
 11
1029.639609201377
 21
370.6583863179664
 72
     2
 10
1026.139609201377
 20
370.6583863179665
 40
3.5
 50
0.0
 51
90.0
 73
     1
 97
        0
 75
     0
 76
     0
 52
45.0
 41
5.0
 77
     0
 78
     1
 53
45.0
 43
930.0760022065
 44
170.944026980425
 45
-3.535533905932736
 46
3.535533905932736
 79
     0
 98
        1
 10
930.0760022065
 20
170.944026980425
1001
GENIUS_GENODEF_13
1002
{
1000
HIER
1070
     0
1002
}
1002
{
1000
MANEDIT
1070
     0
1002
}
1002
{
1000
NOSEL
1070
     0
1002
}
1002
{
1000
BEHIND
1070
     0
1002
}
1002
{
1000
OTHER
1070
     0
1002
}
1002
{
1000
REACTOR
1002
}
1001
GENIUS_GENOBJ-N-HTC_13
1002
{
1000
OWNER
1000
GEN
1002
}
1001
GENIUS_GENHATCH_13
1002
{
1000
DATA
1040
45.0
1042
5.0
1000
_U
1070
     0
1011
1029.002341231477
1021
351.4060475762732
1031
0.0
1002
}
1002
{
1000
UCS
1010
0.0
1020
0.0
1030
0.0
1010
1.0
1020
0.0
1030
0.0
1010
0.0
1020
1.0
1030
0.0
1002
}
  0
LINE
  5
8F7
330
1F
100
AcDbEntity
  8
0
100
AcDbLine
 10
1019.639609201377
 20
363.6583863179667
 30
0.0
 11
1020.639609201377
 21
363.6583863179667
 31
0.0
  0
LINE
  5
8F8
330
1F
100
AcDbEntity
  8
0
100
AcDbLine
 10
1019.639609201377
 20
372.6583863179667
 30
0.0
 11
1026.139609201377
 21
372.6583863179667
 31
0.0
  0
LINE
  5
8F9
330
1F
100
AcDbEntity
  8
0
100
AcDbLine
 10
1019.639609201377
 20
363.6583863179667
 30
0.0
 11
1021.400313757192
 21
363.6583863179667
 31
0.0
  0
LINE
  5
8FA
330
1F
100
AcDbEntity
  8
0
100
AcDbLine
 10
1028.139609201377
 20
370.6583863179665
 30
0.0
 11
1028.139609201377
 21
352.6583863179667
 31
0.0
  0
LINE
  5
8FB
330
1F
100
AcDbEntity
  8
0
100
AcDbLine
 10
1021.139609201377
 20
361.1783863179667
 30
0.0
 11
1021.139609201377
 21
359.1783863179667
 31
0.0
  0
LINE
  5
8FC
330
1F
100
AcDbEntity
  8
0
100
AcDbLine
 10
1028.139609201377
 20
352.6583863179667
 30
0.0
 11
1024.903932956493
 21
352.6583863179667
 31
0.0
  0
LINE
  5
8FD
330
1F
100
AcDbEntity
  8
0
100
AcDbLine
 10
1019.639609201377
 20
363.6583863179667
 30
0.0
 11
1019.639609201377
 21
372.6583863179667
 31
0.0
  0
LINE
  5
8FE
330
1F
100
AcDbEntity
  8
0
100
AcDbLine
 10
1021.139609201377
 20
361.1783863179667
 30
0.0
 11
1021.863905684475
 21
362.9710830212588
 31
0.0
  0
ARC
  5
8FF
330
1F
100
AcDbEntity
  8
0
100
AcDbCircle
 10
1021.400313757192
 20
363.1583863179666
 30
0.0
 40
0.5
100
AcDbArc
 50
338.000000000006
 51
90.0
  0
LINE
  5
900
330
1F
100
AcDbEntity
  8
0
100
AcDbLine
 10
1021.139609201377
 20
359.1783863179667
 30
0.0
 11
1024.903932956493
 21
352.6583863179667
 31
0.0
  0
LINE
  5
901
330
1F
100
AcDbEntity
  8
0
100
AcDbLine
 10
1026.139609201377
 20
372.6583863179667
 30
0.0
 11
1028.139609201377
 21
370.6583863179665
 31
0.0
  0
LINE
  5
902
330
1F
100
AcDbEntity
  8
3
100
AcDbLine
 10
1019.639609201377
 20
370.1583863179666
 30
0.0
 11
1028.139609201377
 21
370.1583863179666
 31
0.0
  0
LINE
  5
903
330
1F
100
AcDbEntity
  8
3
100
AcDbLine
 10
1021.400313757192
 20
363.6583863179667
 30
0.0
 11
1028.139609201377
 21
363.6583863179667
 31
0.0
  0
LINE
  5
904
330
1F
100
AcDbEntity
  8
0
100
AcDbLine
 10
1020.639609201377
 20
360.6583863179667
 30
0.0
 11
1021.11258217435
 21
363.4962241558044
 31
0.0
  0
LINE
  5
905
330
1F
100
AcDbEntity
  8
0
100
AcDbLine
 10
1019.639609201377
 20
360.6583863179667
 30
0.0
 11
1020.139609201377
 21
363.6583863179667
 31
0.0
  0
LINE
  5
906
330
1F
100
AcDbEntity
  8
0
100
AcDbLine
 10
1020.139609201377
 20
363.6583863179667
 30
0.0
 11
1021.11258217435
 21
363.4962241558044
 31
0.0
  0
LINE
  5
907
330
1F
100
AcDbEntity
  8
0
100
AcDbLine
 10
1021.11258217435
 20
363.4962241558044
 30
0.0
 11
1021.768913262516
 21
363.4962241558044
 31
0.0
  0
LINE
  5
908
330
1F
100
AcDbEntity
  8
0
100
AcDbLine
 10
1075.639609201377
 20
360.6583863179667
 30
0.0
 11
1075.166636228404
 21
363.4962241558044
 31
0.0
  0
LINE
  5
909
330
1F
100
AcDbEntity
  8
0
100
AcDbLine
 10
1076.639609201377
 20
360.6583863179667
 30
0.0
 11
1076.139609201377
 21
363.6583863179667
 31
0.0
  0
LINE
  5
90A
330
1F
100
AcDbEntity
  8
0
100
AcDbLine
 10
1076.139609201377
 20
363.6583863179667
 30
0.0
 11
1075.166636228404
 21
363.4962241558044
 31
0.0
  0
LINE
  5
90B
330
1F
100
AcDbEntity
  8
0
100
AcDbLine
 10
1075.166636228404
 20
363.4962241558044
 30
0.0
 11
1068.139609201377
 21
363.4962241558044
 31
0.0
  0
INSERT
  5
A08
330
1F
100
AcDbEntity
  8
0
100
AcDbBlockReference
  2
befestigung
 10
2746.456292710656
 20
-1024.374880256259
 30
0.0
 41
-1.0
  0
INSERT
  5
A09
330
1F
100
AcDbEntity
  8
0
100
AcDbBlockReference
  2
befestigung
 10
-1980.894006634511
 20
-1024.374880256259
 30
0.0
  0
ENDSEC
  0
SECTION
  2
OBJECTS
  0
DICTIONARY
  5
C
330
0
100
AcDbDictionary
281
     1
  3
ACAD_2007HEADERVARS_RT
350
A1D
  3
ACAD_COLOR
350
BE
  3
ACAD_GROUP
350
D
  3
ACAD_LAYOUT
350
1A
  3
ACAD_MATERIAL
350
BD
  3
ACAD_MLEADERSTYLE
350
2C4
  3
ACAD_MLINESTYLE
350
17
  3
ACAD_PLOTSETTINGS
350
19
  3
ACAD_PLOTSTYLENAME
350
E
  3
ACAD_SCALELIST
350
2A2
  3
ACAD_TABLESTYLE
350
11A
  3
ACAD_VISUALSTYLE
350
26E
  3
ACDB_RECOMPOSE_DATA
350
2E6
  3
AcDbVariableDictionary
350
94
  3
AcmDictionary
350
5B
  3
AcmSystemVariableManager
350
A2B
  3
AMG
350
41
  3
AMGSNAPSETTINGS
350
364
  3
DWGPROPS
350
A1C
  0
DICTIONARY
  5
5F2
330
2
100
AcDbDictionary
280
     1
281
     1
  3
ACAD_LAYERSTATES
360
5F3
  0
DICTIONARY
  5
A0A
330
10
100
AcDbDictionary
280
     1
281
     1
  3
ADSK_XREC_LAYER_RECONCILED
360
A0B
  0
DICTIONARY
  5
3EB
330
3EA
100
AcDbDictionary
280
     1
281
     1
  3
ADSK_XREC_LAYER_RECONCILED
360
A0C
  0
DICTIONARY
  5
3ED
330
3EC
100
AcDbDictionary
280
     1
281
     1
  3
ADSK_XREC_LAYER_RECONCILED
360
A0D
  0
DICTIONARY
  5
3F0
330
3EF
100
AcDbDictionary
280
     1
281
     1
  3
ADSK_XREC_LAYER_RECONCILED
360
A0E
  0
DICTIONARY
  5
5D5
330
5D4
100
AcDbDictionary
280
     1
281
     1
  3
ADSK_XREC_LAYER_RECONCILED
360
A0F
  0
DICTIONARY
  5
5D7
330
5D6
100
AcDbDictionary
280
     1
281
     1
  3
ADSK_XREC_LAYER_RECONCILED
360
A10
  0
DICTIONARY
  5
5D9
330
5D8
100
AcDbDictionary
280
     1
281
     1
  3
ADSK_XREC_LAYER_RECONCILED
360
A11
  0
DICTIONARY
  5
5DB
330
5DA
100
AcDbDictionary
280
     1
281
     1
  3
ADSK_XREC_LAYER_RECONCILED
360
A12
  0
DICTIONARY
  5
5DD
330
5DC
100
AcDbDictionary
280
     1
281
     1
  3
ADSK_XREC_LAYER_RECONCILED
360
A13
  0
DICTIONARY
  5
7D6
330
7D5
100
AcDbDictionary
280
     1
281
     1
  3
ADSK_XREC_LAYER_RECONCILED
360
A14
  0
DICTIONARY
  5
7D8
330
7D7
100
AcDbDictionary
280
     1
281
     1
  3
ADSK_XREC_LAYER_RECONCILED
360
A15
  0
DICTIONARY
  5
9FA
330
9F9
100
AcDbDictionary
280
     1
281
     1
  3
ADSK_XREC_LAYER_RECONCILED
360
A16
  0
DICTIONARY
  5
9FC
330
9FB
100
AcDbDictionary
280
     1
281
     1
  3
ADSK_XREC_LAYER_RECONCILED
360
A17
  0
DICTIONARY
  5
9FE
330
9FD
100
AcDbDictionary
280
     1
281
     1
  3
ADSK_XREC_LAYER_RECONCILED
360
A18
  0
DICTIONARY
  5
A00
330
9FF
100
AcDbDictionary
280
     1
281
     1
  3
ADSK_XREC_LAYER_RECONCILED
360
A19
  0
DICTIONARY
  5
8F
330
1F
100
AcDbDictionary
280
     1
281
     1
  0
DICTIONARY
  5
4D8
330
4D7
100
AcDbDictionary
280
     1
281
     1
  3
ACAD_DIMASSOC
360
4D9
  0
DICTIONARY
  5
A1D
102
{ACAD_REACTORS
330
C
102
}
330
C
100
AcDbDictionary
281
     1
  3
DIMARCSYM
350
A1E
  3
DIMLTEX1
350
A20
  3
DIMLTEX2
350
A21
  3
DIMLTYPE
350
A1F
  0
DICTIONARY
  5
BE
102
{ACAD_REACTORS
330
C
102
}
330
C
100
AcDbDictionary
281
     1
  0
DICTIONARY
  5
D
102
{ACAD_REACTORS
330
C
102
}
330
C
100
AcDbDictionary
281
     1
  0
DICTIONARY
  5
1A
102
{ACAD_REACTORS
330
C
102
}
330
C
100
AcDbDictionary
281
     1
  3
Layout1
350
1E
  3
Layout2
350
26
  3
Model
350
22
  0
DICTIONARY
  5
BD
102
{ACAD_REACTORS
330
C
102
}
330
C
100
AcDbDictionary
281
     1
  3
ByBlock
350
26C
  3
ByLayer
350
26B
  3
Global
350
26D
  0
DICTIONARY
  5
2C4
102
{ACAD_REACTORS
330
C
102
}
330
C
100
AcDbDictionary
281
     1
  3
Standard
350
2C5
  0
DICTIONARY
  5
17
102
{ACAD_REACTORS
330
C
102
}
330
C
100
AcDbDictionary
281
     1
  3
Standard
350
18
  0
DICTIONARY
  5
19
102
{ACAD_REACTORS
330
C
102
}
330
C
100
AcDbDictionary
281
     1
  0
ACDBDICTIONARYWDFLT
  5
E
102
{ACAD_REACTORS
330
C
102
}
330
C
100
AcDbDictionary
281
     1
  3
Normal
350
F
100
AcDbDictionaryWithDefault
340
F
  0
DICTIONARY
  5
2A2
102
{ACAD_REACTORS
330
C
102
}
330
C
100
AcDbDictionary
281
     1
  3
A0
350
2A3
  3
A1
350
2A4
  3
A2
350
2A5
  3
A3
350
2A6
  3
A4
350
2A7
  3
A5
350
2A8
  3
A6
350
2A9
  3
A7
350
2AA
  3
A8
350
2AB
  3
A9
350
2AC
  3
B0
350
2AD
  3
B1
350
2AE
  3
B2
350
2AF
  3
B3
350
2B0
  3
B4
350
2B1
  3
B5
350
2B2
  3
B6
350
2B3
  3
B7
350
2B4
  3
B8
350
2B5
  3
B9
350
2B6
  3
C0
350
2B7
  3
C1
350
2B8
  3
C2
350
2B9
  3
C3
350
2BA
  3
C4
350
2BB
  3
C5
350
2BC
  3
C6
350
2BD
  3
C7
350
2BE
  3
C8
350
2BF
  3
C9
350
2C0
  3
D0
350
2C1
  3
D1
350
2C2
  3
D2
350
2C3
  0
DICTIONARY
  5
11A
102
{ACAD_REACTORS
330
C
102
}
330
C
100
AcDbDictionary
281
     1
  3
Standard
350
11B
  0
DICTIONARY
  5
26E
102
{ACAD_REACTORS
330
C
102
}
330
C
100
AcDbDictionary
281
     1
  3
2dWireframe
350
274
  3
3D Hidden
350
276
  3
3dWireframe
350
275
  3
Basic
350
273
  3
Brighten
350
27A
  3
ColorChange
350
27E
  3
Conceptual
350
277
  3
Dim
350
279
  3
Facepattern
350
27D
  3
Flat
350
26F
  3
FlatWithEdges
350
270
  3
Gouraud
350
271
  3
GouraudWithEdges
350
272
  3
Linepattern
350
27C
  3
Realistic
350
278
  3
Thicken
350
27B
  0
XRECORD
  5
2E6
102
{ACAD_REACTORS
330
C
102
}
330
C
100
AcDbXrecord
280
     1
 90
        1
330
11B
  0
DICTIONARY
  5
94
102
{ACAD_REACTORS
330
C
102
}
330
C
100
AcDbDictionary
281
     1
  3
CANNOSCALE
350
2E9
  3
CMLEADERSTYLE
350
2E7
  3
CTABLESTYLE
350
138
  3
DIMASSOC
350
96
  3
INDEXCTL
350
95
  3
LAYEREVAL
350
346
  3
LAYERNOTIFY
350
347
  3
LIGHTINGUNITS
350
2EA
  3
MSLTSCALE
350
2E8
  3
SORTENTS
350
A1A
  0
DICTIONARY
  5
5B
102
{ACAD_REACTORS
330
C
102
}
330
C
100
AcDbDictionary
281
     1
  3
AcmBOM
350
36B
  3
AcmStdDictionary
350
61
  3
AMDTSECTSYM_ARROWCOLOR
350
123
  0
DICTIONARY
  5
41
102
{ACAD_REACTORS
330
C
102
}
330
C
100
AcDbDictionary
281
     1
  0
DICTIONARY
  5
364
102
{ACAD_REACTORS
330
C
102
}
330
C
100
AcDbDictionary
281
     1
  0
XRECORD
  5
A1C
102
{ACAD_REACTORS
330
C
102
}
330
C
100
AcDbXrecord
280
     1
  1
DWGPROPS COOKIE
  2

  3

  4

  6

  7

  8
nlazaar
  9

300
AmdtFileType=84
301
=
302
=
303
=
304
=
305
=
306
=
307
=
308
=
309
=
 40
0.0089063541666667
 41
2455098.397697245
 42
2455098.406602338
  1

 90
        1
  0
DICTIONARY
  5
5F3
102
{ACAD_REACTORS
330
5F2
102
}
330
5F2
100
AcDbDictionary
281
     1
  0
XRECORD
  5
A0B
102
{ACAD_REACTORS
330
A0A
102
}
330
A0A
100
AcDbXrecord
280
     1
290
     1
  0
XRECORD
  5
A0C
102
{ACAD_REACTORS
330
3EB
102
}
330
3EB
100
AcDbXrecord
280
     1
290
     1
  0
XRECORD
  5
A0D
102
{ACAD_REACTORS
330
3ED
102
}
330
3ED
100
AcDbXrecord
280
     1
290
     1
  0
XRECORD
  5
A0E
102
{ACAD_REACTORS
330
3F0
102
}
330
3F0
100
AcDbXrecord
280
     1
290
     1
  0
XRECORD
  5
A0F
102
{ACAD_REACTORS
330
5D5
102
}
330
5D5
100
AcDbXrecord
280
     1
290
     1
  0
XRECORD
  5
A10
102
{ACAD_REACTORS
330
5D7
102
}
330
5D7
100
AcDbXrecord
280
     1
290
     1
  0
XRECORD
  5
A11
102
{ACAD_REACTORS
330
5D9
102
}
330
5D9
100
AcDbXrecord
280
     1
290
     1
  0
XRECORD
  5
A12
102
{ACAD_REACTORS
330
5DB
102
}
330
5DB
100
AcDbXrecord
280
     1
290
     1
  0
XRECORD
  5
A13
102
{ACAD_REACTORS
330
5DD
102
}
330
5DD
100
AcDbXrecord
280
     1
290
     1
  0
XRECORD
  5
A14
102
{ACAD_REACTORS
330
7D6
102
}
330
7D6
100
AcDbXrecord
280
     1
290
     1
  0
XRECORD
  5
A15
102
{ACAD_REACTORS
330
7D8
102
}
330
7D8
100
AcDbXrecord
280
     1
290
     1
  0
XRECORD
  5
A16
102
{ACAD_REACTORS
330
9FA
102
}
330
9FA
100
AcDbXrecord
280
     1
290
     1
  0
XRECORD
  5
A17
102
{ACAD_REACTORS
330
9FC
102
}
330
9FC
100
AcDbXrecord
280
     1
290
     1
  0
XRECORD
  5
A18
102
{ACAD_REACTORS
330
9FE
102
}
330
9FE
100
AcDbXrecord
280
     1
290
     1
  0
XRECORD
  5
A19
102
{ACAD_REACTORS
330
A00
102
}
330
A00
100
AcDbXrecord
280
     1
290
     1
  0
DIMASSOC
  5
4D9
102
{ACAD_REACTORS
330
4D8
102
}
330
4D8
100
AcDbDimAssoc
330
4D7
 90
        2
 70
     0
 71
     0
  1
AcDbOsnapPointRef
 72
     6
331
4C3
 73
     0
 91
        0
 40
0.0
 10
0.0
 20
0.0
 30
0.0
332
4C7
 74
     0
 92
        0
 75
     0
  0
XRECORD
  5
A1E
102
{ACAD_REACTORS
330
A1D
102
}
330
A1D
100
AcDbXrecord
280
     1
 70
     1
  0
XRECORD
  5
A20
102
{ACAD_REACTORS
330
A1D
102
}
330
A1D
100
AcDbXrecord
280
     1
340
14
  0
XRECORD
  5
A21
102
{ACAD_REACTORS
330
A1D
102
}
330
A1D
100
AcDbXrecord
280
     1
340
14
  0
XRECORD
  5
A1F
102
{ACAD_REACTORS
330
A1D
102
}
330
A1D
100
AcDbXrecord
280
     1
340
14
  0
LAYOUT
  5
1E
102
{ACAD_XDICTIONARY
360
A22
102
}
102
{ACAD_REACTORS
330
1A
102
}
330
1A
100
AcDbPlotSettings
  1

  2

  4

  6

 40
0.0
 41
0.0
 42
0.0
 43
0.0
 44
0.0
 45
0.0
 46
0.0
 47
0.0
 48
0.0
 49
0.0
140
0.0
141
0.0
142
1.0
143
1.0
 70
   688
 72
     0
 73
     0
 74
     5
  7

 75
    16
147
1.0
148
0.0
149
0.0
100
AcDbLayout
  1
Layout1
 70
     1
 71
     1
 10
0.0
 20
0.0
 11
420.0
 21
297.0
 12
0.0
 22
0.0
 32
0.0
 14
1.000000000000000E+20
 24
1.000000000000000E+20
 34
1.000000000000000E+20
 15
-1.000000000000000E+20
 25
-1.000000000000000E+20
 35
-1.000000000000000E+20
146
0.0
 13
0.0
 23
0.0
 33
0.0
 16
1.0
 26
0.0
 36
0.0
 17
0.0
 27
1.0
 37
0.0
 76
     0
330
1B
  0
LAYOUT
  5
26
102
{ACAD_XDICTIONARY
360
A26
102
}
102
{ACAD_REACTORS
330
1A
102
}
330
1A
100
AcDbPlotSettings
  1

  2

  4

  6

 40
0.0
 41
0.0
 42
0.0
 43
0.0
 44
0.0
 45
0.0
 46
0.0
 47
0.0
 48
0.0
 49
0.0
140
0.0
141
0.0
142
1.0
143
1.0
 70
   688
 72
     0
 73
     0
 74
     5
  7

 75
    16
147
1.0
148
0.0
149
0.0
100
AcDbLayout
  1
Layout2
 70
     1
 71
     2
 10
0.0
 20
0.0
 11
12.0
 21
9.0
 12
0.0
 22
0.0
 32
0.0
 14
0.0
 24
0.0
 34
0.0
 15
0.0
 25
0.0
 35
0.0
146
0.0
 13
0.0
 23
0.0
 33
0.0
 16
1.0
 26
0.0
 36
0.0
 17
0.0
 27
1.0
 37
0.0
 76
     0
330
23
  0
LAYOUT
  5
22
102
{ACAD_XDICTIONARY
360
A24
102
}
102
{ACAD_REACTORS
330
1A
102
}
330
1A
100
AcDbPlotSettings
  1

  2

  4

  6

 40
0.0
 41
0.0
 42
0.0
 43
0.0
 44
0.0
 45
0.0
 46
0.0
 47
0.0
 48
0.0
 49
0.0
140
0.0
141
0.0
142
1.0
143
1.0
 70
  1712
 72
     0
 73
     0
 74
     0
  7

 75
     0
147
1.0
148
0.0
149
0.0
100
AcDbLayout
  1
Model
 70
     1
 71
     0
 10
0.0
 20
0.0
 11
12.0
 21
9.0
 12
0.0
 22
0.0
 32
0.0
 14
0.0
 24
0.0
 34
0.0
 15
0.0
 25
0.0
 35
0.0
146
0.0
 13
0.0
 23
0.0
 33
0.0
 16
1.0
 26
0.0
 36
0.0
 17
0.0
 27
1.0
 37
0.0
 76
     0
330
1F
331
269
  0
MATERIAL
  5
26C
102
{ACAD_XDICTIONARY
360
A30
102
}
102
{ACAD_REACTORS
330
BD
102
}
330
BD
100
AcDbMaterial
  1
ByBlock
 73
     1
 78
     1
172
     1
176
     1
270
     1
274
     1
  0
MATERIAL
  5
26B
102
{ACAD_XDICTIONARY
360
A2E
102
}
102
{ACAD_REACTORS
330
BD
102
}
330
BD
100
AcDbMaterial
  1
ByLayer
 73
     1
 78
     1
172
     1
176
     1
270
     1
274
     1
  0
MATERIAL
  5
26D
102
{ACAD_XDICTIONARY
360
A32
102
}
102
{ACAD_REACTORS
330
BD
102
}
330
BD
100
AcDbMaterial
  1
Global
 73
     1
 78
     1
172
     1
176
     1
270
     1
274
     1
  0
MLEADERSTYLE
  5
2C5
102
{ACAD_REACTORS
330
2C4
102
}
330
2C4
100
AcDbMLeaderStyle
170
     2
171
     1
172
     0
 90
        2
 40
0.0
 41
0.0
173
     1
 91
-1056964608
340
14
 92
       -2
290
     1
 42
2.0
291
     1
 43
0.36
  3
Standard
 44
4.0
300

342
11
174
     1
178
     6
175
     1
176
     0
 93
-1056964608
 45
4.0
292
     0
297
     0
 46
4.0
 94
-1056964608
 47
1.0
 49
1.0
140
1.0
293
     1
141
0.0
294
     1
177
     0
142
1.0
295
     0
296
     0
143
0.125
1001
ACAD_MLEADERVER
1070
     2
  0
MLINESTYLE
  5
18
102
{ACAD_REACTORS
330
17
102
}
330
17
100
AcDbMlineStyle
  2
STANDARD
 70
     0
  3

 62
   256
 51
90.0
 52
90.0
 71
     2
 49
0.5
 62
   256
  6
BYLAYER
 49
-0.5
 62
   256
  6
BYLAYER
  0
ACDBPLACEHOLDER
  5
F
102
{ACAD_REACTORS
330
E
102
}
330
E
  0
SCALE
  5
2A3
102
{ACAD_REACTORS
330
2A2
102
}
330
2A2
100
AcDbScale
 70
     0
300
1:1
140
1.0
141
1.0
290
     1
  0
SCALE
  5
2A4
102
{ACAD_REACTORS
330
2A2
102
}
330
2A2
100
AcDbScale
 70
     0
300
1:2
140
1.0
141
2.0
290
     0
  0
SCALE
  5
2A5
102
{ACAD_REACTORS
330
2A2
102
}
330
2A2
100
AcDbScale
 70
     0
300
1:4
140
1.0
141
4.0
290
     0
  0
SCALE
  5
2A6
102
{ACAD_REACTORS
330
2A2
102
}
330
2A2
100
AcDbScale
 70
     0
300
1:5
140
1.0
141
5.0
290
     0
  0
SCALE
  5
2A7
102
{ACAD_REACTORS
330
2A2
102
}
330
2A2
100
AcDbScale
 70
     0
300
1:8
140
1.0
141
8.0
290
     0
  0
SCALE
  5
2A8
102
{ACAD_REACTORS
330
2A2
102
}
330
2A2
100
AcDbScale
 70
     0
300
1:10
140
1.0
141
10.0
290
     0
  0
SCALE
  5
2A9
102
{ACAD_REACTORS
330
2A2
102
}
330
2A2
100
AcDbScale
 70
     0
300
1:16
140
1.0
141
16.0
290
     0
  0
SCALE
  5
2AA
102
{ACAD_REACTORS
330
2A2
102
}
330
2A2
100
AcDbScale
 70
     0
300
1:20
140
1.0
141
20.0
290
     0
  0
SCALE
  5
2AB
102
{ACAD_REACTORS
330
2A2
102
}
330
2A2
100
AcDbScale
 70
     0
300
1:30
140
1.0
141
30.0
290
     0
  0
SCALE
  5
2AC
102
{ACAD_REACTORS
330
2A2
102
}
330
2A2
100
AcDbScale
 70
     0
300
1:40
140
1.0
141
40.0
290
     0
  0
SCALE
  5
2AD
102
{ACAD_REACTORS
330
2A2
102
}
330
2A2
100
AcDbScale
 70
     0
300
1:50
140
1.0
141
50.0
290
     0
  0
SCALE
  5
2AE
102
{ACAD_REACTORS
330
2A2
102
}
330
2A2
100
AcDbScale
 70
     0
300
1:100
140
1.0
141
100.0
290
     0
  0
SCALE
  5
2AF
102
{ACAD_REACTORS
330
2A2
102
}
330
2A2
100
AcDbScale
 70
     0
300
2:1
140
2.0
141
1.0
290
     0
  0
SCALE
  5
2B0
102
{ACAD_REACTORS
330
2A2
102
}
330
2A2
100
AcDbScale
 70
     0
300
4:1
140
4.0
141
1.0
290
     0
  0
SCALE
  5
2B1
102
{ACAD_REACTORS
330
2A2
102
}
330
2A2
100
AcDbScale
 70
     0
300
8:1
140
8.0
141
1.0
290
     0
  0
SCALE
  5
2B2
102
{ACAD_REACTORS
330
2A2
102
}
330
2A2
100
AcDbScale
 70
     0
300
10:1
140
10.0
141
1.0
290
     0
  0
SCALE
  5
2B3
102
{ACAD_REACTORS
330
2A2
102
}
330
2A2
100
AcDbScale
 70
     0
300
100:1
140
100.0
141
1.0
290
     0
  0
SCALE
  5
2B4
102
{ACAD_REACTORS
330
2A2
102
}
330
2A2
100
AcDbScale
 70
     0
300
1/128" = 1'-0"
140
0.0078125
141
12.0
290
     0
  0
SCALE
  5
2B5
102
{ACAD_REACTORS
330
2A2
102
}
330
2A2
100
AcDbScale
 70
     0
300
1/64" = 1'-0"
140
0.015625
141
12.0
290
     0
  0
SCALE
  5
2B6
102
{ACAD_REACTORS
330
2A2
102
}
330
2A2
100
AcDbScale
 70
     0
300
1/32" = 1'-0"
140
0.03125
141
12.0
290
     0
  0
SCALE
  5
2B7
102
{ACAD_REACTORS
330
2A2
102
}
330
2A2
100
AcDbScale
 70
     0
300
1/16" = 1'-0"
140
0.0625
141
12.0
290
     0
  0
SCALE
  5
2B8
102
{ACAD_REACTORS
330
2A2
102
}
330
2A2
100
AcDbScale
 70
     0
300
3/32" = 1'-0"
140
0.09375
141
12.0
290
     0
  0
SCALE
  5
2B9
102
{ACAD_REACTORS
330
2A2
102
}
330
2A2
100
AcDbScale
 70
     0
300
1/8" = 1'-0"
140
0.125
141
12.0
290
     0
  0
SCALE
  5
2BA
102
{ACAD_REACTORS
330
2A2
102
}
330
2A2
100
AcDbScale
 70
     0
300
3/16" = 1'-0"
140
0.1875
141
12.0
290
     0
  0
SCALE
  5
2BB
102
{ACAD_REACTORS
330
2A2
102
}
330
2A2
100
AcDbScale
 70
     0
300
1/4" = 1'-0"
140
0.25
141
12.0
290
     0
  0
SCALE
  5
2BC
102
{ACAD_REACTORS
330
2A2
102
}
330
2A2
100
AcDbScale
 70
     0
300
3/8" = 1'-0"
140
0.375
141
12.0
290
     0
  0
SCALE
  5
2BD
102
{ACAD_REACTORS
330
2A2
102
}
330
2A2
100
AcDbScale
 70
     0
300
1/2" = 1'-0"
140
0.5
141
12.0
290
     0
  0
SCALE
  5
2BE
102
{ACAD_REACTORS
330
2A2
102
}
330
2A2
100
AcDbScale
 70
     0
300
3/4" = 1'-0"
140
0.75
141
12.0
290
     0
  0
SCALE
  5
2BF
102
{ACAD_REACTORS
330
2A2
102
}
330
2A2
100
AcDbScale
 70
     0
300
1" = 1'-0"
140
1.0
141
12.0
290
     0
  0
SCALE
  5
2C0
102
{ACAD_REACTORS
330
2A2
102
}
330
2A2
100
AcDbScale
 70
     0
300
1-1/2" = 1'-0"
140
1.5
141
12.0
290
     0
  0
SCALE
  5
2C1
102
{ACAD_REACTORS
330
2A2
102
}
330
2A2
100
AcDbScale
 70
     0
300
3" = 1'-0"
140
3.0
141
12.0
290
     0
  0
SCALE
  5
2C2
102
{ACAD_REACTORS
330
2A2
102
}
330
2A2
100
AcDbScale
 70
     0
300
6" = 1'-0"
140
6.0
141
12.0
290
     0
  0
SCALE
  5
2C3
102
{ACAD_REACTORS
330
2A2
102
}
330
2A2
100
AcDbScale
 70
     0
300
1'-0" = 1'-0"
140
12.0
141
12.0
290
     0
  0
TABLESTYLE
  5
11B
102
{ACAD_XDICTIONARY
360
2E4
102
}
102
{ACAD_REACTORS
330
11A
102
}
330
11A
100
AcDbTableStyle
  3
Standard
 70
     0
 71
     0
 40
1.5
 41
1.5
280
     0
281
     0
  7
STANDARD
140
4.5
170
     2
 62
     0
 63
     7
283
     0
274
    -2
284
     1
 64
     0
275
    -2
285
     1
 65
     0
276
    -2
286
     1
 66
     0
277
    -2
287
     1
 67
     0
278
    -2
288
     1
 68
     0
279
    -2
289
     1
 69
     0
  7
STANDARD
140
6.0
170
     5
 62
     0
 63
     7
283
     0
274
    -2
284
     1
 64
     0
275
    -2
285
     1
 65
     0
276
    -2
286
     1
 66
     0
277
    -2
287
     1
 67
     0
278
    -2
288
     1
 68
     0
279
    -2
289
     1
 69
     0
  7
STANDARD
140
4.5
170
     5
 62
     0
 63
     7
283
     0
274
    -2
284
     1
 64
     0
275
    -2
285
     1
 65
     0
276
    -2
286
     1
 66
     0
277
    -2
287
     1
 67
     0
278
    -2
288
     1
 68
     0
279
    -2
289
     1
 69
     0
  0
VISUALSTYLE
  5
274
102
{ACAD_REACTORS
330
26E
102
}
330
26E
100
AcDbVisualStyle
  2
2dWireframe
 70
     4
 71
     0
 72
     2
 73
     0
 90
        0
 40
-0.6
 41
-30.0
 62
     5
 63
     7
 74
     1
 91
        4
 64
     7
 65
   257
 75
     1
175
     1
 42
1.0
 92
        0
 66
   257
 43
1.0
 76
     1
 77
     6
 78
     2
 67
     7
 79
     5
170
     0
171
     0
290
     0
174
     0
 93
        1
 44
0.0
173
     0
291
     0
 45
0.0
1001
ACAD
1000
AcDbSavedByObjectVersion
1070
     0
  0
VISUALSTYLE
  5
276
102
{ACAD_REACTORS
330
26E
102
}
330
26E
100
AcDbVisualStyle
  2
3D Hidden
 70
     6
 71
     1
 72
     2
 73
     2
 90
        0
 40
-0.6
 41
-30.0
 62
     5
 63
     7
 74
     2
 91
        2
 64
     7
 65
   257
 75
     2
175
     1
 42
40.0
 92
        0
 66
   257
 43
1.0
 76
     1
 77
     6
 78
     2
 67
     7
 79
     3
170
     0
171
     0
290
     0
174
     0
 93
        1
 44
0.0
173
     0
291
     0
 45
0.0
1001
ACAD
1000
AcDbSavedByObjectVersion
1070
     0
  0
VISUALSTYLE
  5
275
102
{ACAD_REACTORS
330
26E
102
}
330
26E
100
AcDbVisualStyle
  2
3dWireframe
 70
     5
 71
     0
 72
     2
 73
     0
 90
        0
 40
-0.6
 41
-30.0
 62
     5
 63
     7
 74
     1
 91
        4
 64
     7
 65
   257
 75
     1
175
     1
 42
1.0
 92
        0
 66
   257
 43
1.0
 76
     1
 77
     6
 78
     2
 67
     7
 79
     5
170
     0
171
     0
290
     0
174
     0
 93
        1
 44
0.0
173
     0
291
     0
 45
0.0
1001
ACAD
1000
AcDbSavedByObjectVersion
1070
     0
  0
VISUALSTYLE
  5
273
102
{ACAD_REACTORS
330
26E
102
}
330
26E
100
AcDbVisualStyle
  2
Basic
 70
     7
 71
     1
 72
     0
 73
     1
 90
        0
 40
-0.6
 41
-30.0
 62
     5
 63
     7
 74
     0
 91
        4
 64
     7
 65
   257
 75
     1
175
     1
 42
1.0
 92
        8
 66
     7
 43
1.0
 76
     1
 77
     6
 78
     2
 67
     7
 79
     5
170
     0
171
     0
290
     0
174
     0
 93
        1
 44
0.0
173
     0
291
     1
 45
0.0
1001
ACAD
1000
AcDbSavedByObjectVersion
1070
     0
  0
VISUALSTYLE
  5
27A
102
{ACAD_REACTORS
330
26E
102
}
330
26E
100
AcDbVisualStyle
  2
Brighten
 70
    12
 71
     2
 72
     2
 73
     0
 90
        0
 40
-0.6
 41
-30.0
 62
     5
 63
     7
 74
     1
 91
        4
 64
     7
 65
   257
 75
     1
175
     1
 42
1.0
 92
        8
 66
     7
 43
1.0
 76
     1
 77
     6
 78
     2
 67
     7
 79
     5
170
     0
171
     0
290
     0
174
     0
 93
        1
 44
50.0
173
     0
291
     1
 45
0.0
1001
ACAD
1000
AcDbSavedByObjectVersion
1070
     0
  0
VISUALSTYLE
  5
27E
102
{ACAD_REACTORS
330
26E
102
}
330
26E
100
AcDbVisualStyle
  2
ColorChange
 70
    16
 71
     2
 72
     2
 73
     3
 90
        0
 40
-0.6
 41
-30.0
 62
     5
 63
     8
 74
     1
 91
        4
 64
     7
 65
   257
 75
     1
175
     1
 42
1.0
 92
        8
 66
     8
 43
1.0
 76
     1
 77
     6
 78
     2
 67
     7
 79
     5
170
     0
171
     0
290
     0
174
     0
 93
        1
 44
0.0
173
     0
291
     1
 45
0.0
1001
ACAD
1000
AcDbSavedByObjectVersion
1070
     0
  0
VISUALSTYLE
  5
277
102
{ACAD_REACTORS
330
26E
102
}
330
26E
100
AcDbVisualStyle
  2
Conceptual
 70
     9
 71
     3
 72
     2
 73
     0
 90
        0
 40
-0.6
 41
-30.0
 62
     5
 63
     7
 74
     2
 91
        2
 64
     7
 65
   257
 75
     1
175
     1
 42
40.0
 92
        8
 66
     7
 43
1.0
 76
     1
 77
     6
 78
     2
 67
     7
 79
     3
170
     0
171
     0
290
     0
174
     0
 93
        1
 44
0.0
173
     0
291
     0
 45
0.0
1001
ACAD
1000
AcDbSavedByObjectVersion
1070
     0
  0
VISUALSTYLE
  5
279
102
{ACAD_REACTORS
330
26E
102
}
330
26E
100
AcDbVisualStyle
  2
Dim
 70
    11
 71
     2
 72
     2
 73
     0
 90
        0
 40
-0.6
 41
-30.0
 62
     5
 63
     7
 74
     1
 91
        4
 64
     7
 65
   257
 75
     1
175
     1
 42
1.0
 92
        8
 66
     7
 43
1.0
 76
     1
 77
     6
 78
     2
 67
     7
 79
     5
170
     0
171
     0
290
     0
174
     0
 93
        1
 44
-50.0
173
     0
291
     1
 45
0.0
1001
ACAD
1000
AcDbSavedByObjectVersion
1070
     0
  0
VISUALSTYLE
  5
27D
102
{ACAD_REACTORS
330
26E
102
}
330
26E
100
AcDbVisualStyle
  2
Facepattern
 70
    15
 71
     2
 72
     2
 73
     0
 90
        0
 40
-0.6
 41
-30.0
 62
     5
 63
     7
 74
     1
 91
        4
 64
     7
 65
   257
 75
     1
175
     1
 42
1.0
 92
        8
 66
     7
 43
1.0
 76
     1
 77
     6
 78
     2
 67
     7
 79
     5
170
     0
171
     0
290
     0
174
     0
 93
        1
 44
0.0
173
     0
291
     1
 45
0.0
1001
ACAD
1000
AcDbSavedByObjectVersion
1070
     0
  0
VISUALSTYLE
  5
26F
102
{ACAD_REACTORS
330
26E
102
}
330
26E
100
AcDbVisualStyle
  2
Flat
 70
     0
 71
     2
 72
     1
 73
     1
 90
        2
 40
-0.6
 41
30.0
 62
     5
 63
     7
 74
     0
 91
        4
 64
     7
 65
   257
 75
     1
175
     1
 42
1.0
 92
        8
 66
     7
 43
1.0
 76
     1
 77
     6
 78
     2
 67
     7
 79
     5
170
     0
171
     0
290
     0
174
     0
 93
       13
 44
0.0
173
     0
291
     1
 45
0.0
1001
ACAD
1000
AcDbSavedByObjectVersion
1070
     0
  0
VISUALSTYLE
  5
270
102
{ACAD_REACTORS
330
26E
102
}
330
26E
100
AcDbVisualStyle
  2
FlatWithEdges
 70
     1
 71
     2
 72
     1
 73
     1
 90
        2
 40
-0.6
 41
30.0
 62
     5
 63
     7
 74
     1
 91
        4
 64
     7
 65
   257
 75
     1
175
     1
 42
1.0
 92
        0
 66
   257
 43
1.0
 76
     1
 77
     6
 78
     2
 67
     7
 79
     5
170
     0
171
     0
290
     0
174
     0
 93
       13
 44
0.0
173
     0
291
     1
 45
0.0
1001
ACAD
1000
AcDbSavedByObjectVersion
1070
     0
  0
VISUALSTYLE
  5
271
102
{ACAD_REACTORS
330
26E
102
}
330
26E
100
AcDbVisualStyle
  2
Gouraud
 70
     2
 71
     2
 72
     2
 73
     1
 90
        2
 40
-0.6
 41
30.0
 62
     5
 63
     7
 74
     0
 91
        4
 64
     7
 65
   257
 75
     1
175
     1
 42
1.0
 92
        0
 66
     7
 43
1.0
 76
     1
 77
     6
 78
     2
 67
     7
 79
     5
170
     0
171
     0
290
     0
174
     0
 93
       13
 44
0.0
173
     0
291
     1
 45
0.0
1001
ACAD
1000
AcDbSavedByObjectVersion
1070
     0
  0
VISUALSTYLE
  5
272
102
{ACAD_REACTORS
330
26E
102
}
330
26E
100
AcDbVisualStyle
  2
GouraudWithEdges
 70
     3
 71
     2
 72
     2
 73
     1
 90
        2
 40
-0.6
 41
30.0
 62
     5
 63
     7
 74
     1
 91
        4
 64
     7
 65
   257
 75
     1
175
     1
 42
1.0
 92
        0
 66
   257
 43
1.0
 76
     1
 77
     6
 78
     2
 67
     7
 79
     5
170
     0
171
     0
290
     0
174
     0
 93
       13
 44
0.0
173
     0
291
     1
 45
0.0
1001
ACAD
1000
AcDbSavedByObjectVersion
1070
     0
  0
VISUALSTYLE
  5
27C
102
{ACAD_REACTORS
330
26E
102
}
330
26E
100
AcDbVisualStyle
  2
Linepattern
 70
    14
 71
     2
 72
     2
 73
     0
 90
        0
 40
-0.6
 41
-30.0
 62
     5
 63
     7
 74
     1
 91
        4
 64
     7
 65
   257
 75
     7
175
     7
 42
1.0
 92
        8
 66
     7
 43
1.0
 76
     1
 77
     6
 78
     2
 67
     7
 79
     5
170
     0
171
     0
290
     0
174
     0
 93
        1
 44
0.0
173
     0
291
     1
 45
0.0
1001
ACAD
1000
AcDbSavedByObjectVersion
1070
     0
  0
VISUALSTYLE
  5
278
102
{ACAD_REACTORS
330
26E
102
}
330
26E
100
AcDbVisualStyle
  2
Realistic
 70
     8
 71
     2
 72
     2
 73
     0
 90
        0
 40
-0.6
 41
-30.0
 62
     5
 63
     7
 74
     1
 91
        0
 64
     7
 65
   257
 75
     1
175
     1
 42
1.0
 92
        8
 66
     8
 43
1.0
 76
     1
 77
     6
 78
     2
 67
     7
 79
     5
170
     0
171
     0
290
     0
174
     0
 93
       13
 44
0.0
173
     0
291
     0
 45
0.0
1001
ACAD
1000
AcDbSavedByObjectVersion
1070
     0
  0
VISUALSTYLE
  5
27B
102
{ACAD_REACTORS
330
26E
102
}
330
26E
100
AcDbVisualStyle
  2
Thicken
 70
    13
 71
     2
 72
     2
 73
     0
 90
        0
 40
-0.6
 41
-30.0
 62
     5
 63
     7
 74
     1
 91
        4
 64
     7
 65
   257
 75
     1
175
     1
 42
1.0
 92
       12
 66
     7
 43
1.0
 76
     1
 77
     6
 78
     2
 67
     7
 79
     5
170
     0
171
     0
290
     0
174
     0
 93
        1
 44
0.0
173
     0
291
     1
 45
0.0
1001
ACAD
1000
AcDbSavedByObjectVersion
1070
     0
  0
DICTIONARYVAR
  5
2E9
102
{ACAD_REACTORS
330
94
102
}
330
94
100
DictionaryVariables
280
     0
  1
1:1
  0
DICTIONARYVAR
  5
2E7
102
{ACAD_REACTORS
330
94
102
}
330
94
100
DictionaryVariables
280
     0
  1
STANDARD
  0
DICTIONARYVAR
  5
138
102
{ACAD_REACTORS
330
94
102
}
330
94
100
DictionaryVariables
280
     0
  1
STANDARD
  0
DICTIONARYVAR
  5
96
102
{ACAD_REACTORS
330
94
102
}
330
94
100
DictionaryVariables
280
     0
  1
2
  0
DICTIONARYVAR
  5
95
102
{ACAD_REACTORS
330
94
102
}
330
94
100
DictionaryVariables
280
     0
  1
0
  0
DICTIONARYVAR
  5
346
102
{ACAD_REACTORS
330
94
102
}
330
94
100
DictionaryVariables
280
     0
  1
1
  0
DICTIONARYVAR
  5
347
102
{ACAD_REACTORS
330
94
102
}
330
94
100
DictionaryVariables
280
     0
  1
15
  0
DICTIONARYVAR
  5
2EA
102
{ACAD_REACTORS
330
94
102
}
330
94
100
DictionaryVariables
280
     0
  1
0
  0
DICTIONARYVAR
  5
2E8
102
{ACAD_REACTORS
330
94
102
}
330
94
100
DictionaryVariables
280
     0
  1
0
  0
DICTIONARYVAR
  5
A1A
102
{ACAD_REACTORS
330
94
102
}
330
94
100
DictionaryVariables
280
     0
  1
127
  0
DICTIONARY
  5
36B
102
{ACAD_REACTORS
330
5B
102
}
330
5B
100
AcDbDictionary
281
     1
  0
DICTIONARY
  5
61
102
{ACAD_REACTORS
330
5B
102
}
330
5B
100
AcDbDictionary
281
     1
  0
XRECORD
  5
123
102
{ACAD_REACTORS
330
5B
102
}
330
5B
100
AcDbXrecord
280
     1
 90
-1023410169
  0
DICTIONARY
  5
A22
330
1E
100
AcDbDictionary
280
     1
281
     1
  3
ACAD_XREC_ROUNDTRIP
360
A23
  0
DICTIONARY
  5
A26
330
26
100
AcDbDictionary
280
     1
281
     1
  3
ACAD_XREC_ROUNDTRIP
360
A27
  0
DICTIONARY
  5
A24
330
22
100
AcDbDictionary
280
     1
281
     1
  3
ACAD_XREC_ROUNDTRIP
360
A25
  0
DICTIONARY
  5
A30
330
26C
100
AcDbDictionary
280
     1
281
     1
  3
ACAD_XREC_ROUNDTRIP
360
A31
  0
DICTIONARY
  5
A2E
330
26B
100
AcDbDictionary
280
     1
281
     1
  3
ACAD_XREC_ROUNDTRIP
360
A2F
  0
DICTIONARY
  5
A32
330
26D
100
AcDbDictionary
280
     1
281
     1
  3
ACAD_XREC_ROUNDTRIP
360
A33
  0
DICTIONARY
  5
2E4
330
11B
100
AcDbDictionary
280
     1
281
     1
  3
ACAD_ROUNDTRIP_2008_TABLESTYLE_CELLSTYLEMAP
360
A1B
  3
ACAD_XREC_ROUNDTRIP
360
A2D
  0
XRECORD
  5
A23
102
{ACAD_REACTORS
330
A22
102
}
330
A22
100
AcDbXrecord
280
     1
102
SHADEPLOT
 70
     0
102
SHADEPLOTRESLEVEL
 70
     2
102
SHADEPLOTCUSTOMDPI
 70
   300
  0
XRECORD
  5
A27
102
{ACAD_REACTORS
330
A26
102
}
330
A26
100
AcDbXrecord
280
     1
102
SHADEPLOT
 70
     0
102
SHADEPLOTRESLEVEL
 70
     2
102
SHADEPLOTCUSTOMDPI
 70
   300
  0
XRECORD
  5
A25
102
{ACAD_REACTORS
330
A24
102
}
330
A24
100
AcDbXrecord
280
     1
102
SHADEPLOT
 70
     0
102
SHADEPLOTRESLEVEL
 70
     2
102
SHADEPLOTCUSTOMDPI
 70
   300
  0
XRECORD
  5
A31
102
{ACAD_REACTORS
330
A30
102
}
330
A30
100
AcDbXrecord
280
     1
102
MATERIAL
148
0.0
149
0.0
149
0.0
 93
        0
 94
       63
282
     0
 72
     1
 77
     1
171
     1
175
     1
179
     1
273
     0
  0
XRECORD
  5
A2F
102
{ACAD_REACTORS
330
A2E
102
}
330
A2E
100
AcDbXrecord
280
     1
102
MATERIAL
148
0.0
149
0.0
149
0.0
 93
        0
 94
       63
282
     0
 72
     1
 77
     1
171
     1
175
     1
179
     1
273
     0
  0
XRECORD
  5
A33
102
{ACAD_REACTORS
330
A32
102
}
330
A32
100
AcDbXrecord
280
     1
102
MATERIAL
148
0.0
149
0.0
149
0.0
 93
        0
 94
       63
282
     0
 72
     1
 77
     1
171
     1
175
     1
179
     1
273
     0
  0
CELLSTYLEMAP
  5
A1B
102
{ACAD_REACTORS
330
2E4
102
}
330
2E4
100
AcDbCellStyleMap
 90
        3
300
CELLSTYLE
  1
TABLEFORMAT_BEGIN
 90
        5
170
     1
 91
        0
 92
    32768
 62
   257
 93
        1
300
CONTENTFORMAT
  1
CONTENTFORMAT_BEGIN
 90
        0
 91
        0
 92
      512
 93
        0
300

 40
0.0
140
1.0
 94
        5
 62
     0
340
11
144
6.0
309
CONTENTFORMAT_END
171
     1
301
MARGIN
  1
CELLMARGIN_BEGIN
 40
1.5
 40
1.5
 40
1.5
 40
1.5
 40
0.18
 40
0.18
309
CELLMARGIN_END
 94
        6
 95
        1
302
GRIDFORMAT
  1
GRIDFORMAT_BEGIN
 90
        0
 91
        1
 62
     0
 92
       -2
340
0
 93
        0
 40
0.045
309
GRIDFORMAT_END
 95
        2
302
GRIDFORMAT
  1
GRIDFORMAT_BEGIN
 90
        0
 91
        1
 62
     0
 92
       -2
340
0
 93
        0
 40
0.045
309
GRIDFORMAT_END
 95
        4
302
GRIDFORMAT
  1
GRIDFORMAT_BEGIN
 90
        0
 91
        1
 62
     0
 92
       -2
340
0
 93
        0
 40
0.045
309
GRIDFORMAT_END
 95
        8
302
GRIDFORMAT
  1
GRIDFORMAT_BEGIN
 90
        0
 91
        1
 62
     0
 92
       -2
340
0
 93
        0
 40
0.045
309
GRIDFORMAT_END
 95
       16
302
GRIDFORMAT
  1
GRIDFORMAT_BEGIN
 90
        0
 91
        1
 62
     0
 92
       -2
340
0
 93
        0
 40
0.045
309
GRIDFORMAT_END
 95
       32
302
GRIDFORMAT
  1
GRIDFORMAT_BEGIN
 90
        0
 91
        1
 62
     0
 92
       -2
340
0
 93
        0
 40
0.045
309
GRIDFORMAT_END
309
TABLEFORMAT_END
  1
CELLSTYLE_BEGIN
 90
        1
 91
        1
300
_TITLE
309
CELLSTYLE_END
300
CELLSTYLE
  1
TABLEFORMAT_BEGIN
 90
        5
170
     1
 91
        0
 92
        0
 62
   257
 93
        1
300
CONTENTFORMAT
  1
CONTENTFORMAT_BEGIN
 90
        0
 91
        0
 92
      512
 93
        0
300

 40
0.0
140
1.0
 94
        5
 62
     0
340
11
144
4.5
309
CONTENTFORMAT_END
171
     1
301
MARGIN
  1
CELLMARGIN_BEGIN
 40
1.5
 40
1.5
 40
1.5
 40
1.5
 40
0.18
 40
0.18
309
CELLMARGIN_END
 94
        6
 95
        1
302
GRIDFORMAT
  1
GRIDFORMAT_BEGIN
 90
        0
 91
        1
 62
     0
 92
       -2
340
0
 93
        0
 40
0.045
309
GRIDFORMAT_END
 95
        2
302
GRIDFORMAT
  1
GRIDFORMAT_BEGIN
 90
        0
 91
        1
 62
     0
 92
       -2
340
0
 93
        0
 40
0.045
309
GRIDFORMAT_END
 95
        4
302
GRIDFORMAT
  1
GRIDFORMAT_BEGIN
 90
        0
 91
        1
 62
     0
 92
       -2
340
0
 93
        0
 40
0.045
309
GRIDFORMAT_END
 95
        8
302
GRIDFORMAT
  1
GRIDFORMAT_BEGIN
 90
        0
 91
        1
 62
     0
 92
       -2
340
0
 93
        0
 40
0.045
309
GRIDFORMAT_END
 95
       16
302
GRIDFORMAT
  1
GRIDFORMAT_BEGIN
 90
        0
 91
        1
 62
     0
 92
       -2
340
0
 93
        0
 40
0.045
309
GRIDFORMAT_END
 95
       32
302
GRIDFORMAT
  1
GRIDFORMAT_BEGIN
 90
        0
 91
        1
 62
     0
 92
       -2
340
0
 93
        0
 40
0.045
309
GRIDFORMAT_END
309
TABLEFORMAT_END
  1
CELLSTYLE_BEGIN
 90
        2
 91
        1
300
_HEADER
309
CELLSTYLE_END
300
CELLSTYLE
  1
TABLEFORMAT_BEGIN
 90
        5
170
     1
 91
        0
 92
        0
 62
   257
 93
        1
300
CONTENTFORMAT
  1
CONTENTFORMAT_BEGIN
 90
        0
 91
        0
 92
      512
 93
        0
300

 40
0.0
140
1.0
 94
        2
 62
     0
340
11
144
4.5
309
CONTENTFORMAT_END
171
     1
301
MARGIN
  1
CELLMARGIN_BEGIN
 40
1.5
 40
1.5
 40
1.5
 40
1.5
 40
0.18
 40
0.18
309
CELLMARGIN_END
 94
        6
 95
        1
302
GRIDFORMAT
  1
GRIDFORMAT_BEGIN
 90
        0
 91
        1
 62
     0
 92
       -2
340
0
 93
        0
 40
0.045
309
GRIDFORMAT_END
 95
        2
302
GRIDFORMAT
  1
GRIDFORMAT_BEGIN
 90
        0
 91
        1
 62
     0
 92
       -2
340
0
 93
        0
 40
0.045
309
GRIDFORMAT_END
 95
        4
302
GRIDFORMAT
  1
GRIDFORMAT_BEGIN
 90
        0
 91
        1
 62
     0
 92
       -2
340
0
 93
        0
 40
0.045
309
GRIDFORMAT_END
 95
        8
302
GRIDFORMAT
  1
GRIDFORMAT_BEGIN
 90
        0
 91
        1
 62
     0
 92
       -2
340
0
 93
        0
 40
0.045
309
GRIDFORMAT_END
 95
       16
302
GRIDFORMAT
  1
GRIDFORMAT_BEGIN
 90
        0
 91
        1
 62
     0
 92
       -2
340
0
 93
        0
 40
0.045
309
GRIDFORMAT_END
 95
       32
302
GRIDFORMAT
  1
GRIDFORMAT_BEGIN
 90
        0
 91
        1
 62
     0
 92
       -2
340
0
 93
        0
 40
0.045
309
GRIDFORMAT_END
309
TABLEFORMAT_END
  1
CELLSTYLE_BEGIN
 90
        3
 91
        2
300
_DATA
309
CELLSTYLE_END
  0
XRECORD
  5
A2D
102
{ACAD_REACTORS
330
2E4
102
}
330
2E4
100
AcDbXrecord
280
     1
102
ACAD_ROUNDTRIP_PRE2007_TABLESTYLE
 90
      512
 91
        0
  1

 92
      512
 93
        0
  2

 94
      512
 95
        0
  3

  0
ENDSEC
  0
EOF
