  0
SECTION
  2
HEADER
  9
$ACADVER
  1
AC1015
  9
$ACADMAINTVER
 70
    20
  9
$DWGCODEPAGE
  3
ANSI_1252
  9
$INSBASE
 10
0.0
 20
0.0
 30
0.0
  9
$EXTMIN
 10
-0.0649343198824681
 20
-0.0347321430028842
 30
-0.0000000000000058
  9
$EXTMAX
 10
1418.952124799105
 20
762.397865785897
 30
0.0000000000000104
  9
$LIMMIN
 10
0.0
 20
0.0
  9
$LIMMAX
 10
420.0
 20
297.0
  9
$ORTHOMODE
 70
     1
  9
$REGENMODE
 70
     1
  9
$FILLMODE
 70
     1
  9
$QTEXTMODE
 70
     0
  9
$MIRRTEXT
 70
     1
  9
$LTSCALE
 40
1.0
  9
$ATTMODE
 70
     1
  9
$TEXTSIZE
 40
2.5
  9
$TRACEWID
 40
1.0
  9
$TEXTSTYLE
  7
STANDARD
  9
$CLAYER
  8
0
  9
$CELTYPE
  6
ByLayer
  9
$CECOLOR
 62
   256
  9
$CELTSCALE
 40
1.0
  9
$DISPSILH
 70
     0
  9
$DIMSCALE
 40
1.0
  9
$DIMASZ
 40
3.5
  9
$DIMEXO
 40
1.0
  9
$DIMDLI
 40
10.0
  9
$DIMRND
 40
0.0
  9
$DIMDLE
 40
0.0
  9
$DIMEXE
 40
1.0
  9
$DIMTP
 40
0.1
  9
$DIMTM
 40
0.1
  9
$DIMTXT
 40
3.5
  9
$DIMCEN
 40
0.0
  9
$DIMTSZ
 40
0.0
  9
$DIMTOL
 70
     0
  9
$DIMLIM
 70
     0
  9
$DIMTIH
 70
     0
  9
$DIMTOH
 70
     0
  9
$DIMSE1
 70
     0
  9
$DIMSE2
 70
     0
  9
$DIMTAD
 70
     1
  9
$DIMZIN
 70
     8
  9
$DIMBLK
  1

  9
$DIMASO
 70
     1
  9
$DIMSHO
 70
     1
  9
$DIMPOST
  1

  9
$DIMAPOST
  1
"
  9
$DIMALT
 70
     0
  9
$DIMALTD
 70
     2
  9
$DIMALTF
 40
0.0393701
  9
$DIMLFAC
 40
1.0
  9
$DIMTOFL
 70
     1
  9
$DIMTVP
 40
0.0
  9
$DIMTIX
 70
     0
  9
$DIMSOXD
 70
     0
  9
$DIMSAH
 70
     0
  9
$DIMBLK1
  1

  9
$DIMBLK2
  1

  9
$DIMSTYLE
  2
AM_DIN
  9
$DIMCLRD
 70
   256
  9
$DIMCLRE
 70
   256
  9
$DIMCLRT
 70
     2
  9
$DIMTFAC
 40
0.71
  9
$DIMGAP
 40
1.5
  9
$DIMJUST
 70
     0
  9
$DIMSD1
 70
     0
  9
$DIMSD2
 70
     0
  9
$DIMTOLJ
 70
     0
  9
$DIMTZIN
 70
     8
  9
$DIMALTZ
 70
     0
  9
$DIMALTTZ
 70
     0
  9
$DIMUPT
 70
     0
  9
$DIMDEC
 70
     2
  9
$DIMTDEC
 70
     3
  9
$DIMALTU
 70
     2
  9
$DIMALTTD
 70
     4
  9
$DIMTXSTY
  7
STANDARD
  9
$DIMAUNIT
 70
     0
  9
$DIMADEC
 70
     0
  9
$DIMALTRND
 40
0.0
  9
$DIMAZIN
 70
     2
  9
$DIMDSEP
 70
    46
  9
$DIMATFIT
 70
     3
  9
$DIMFRAC
 70
     0
  9
$DIMLDRBLK
  1

  9
$DIMLUNIT
 70
     2
  9
$DIMLWD
 70
    -1
  9
$DIMLWE
 70
    -1
  9
$DIMTMOVE
 70
     0
  9
$LUNITS
 70
     2
  9
$LUPREC
 70
     2
  9
$SKETCHINC
 40
1.0
  9
$FILLETRAD
 40
0.0
  9
$AUNITS
 70
     0
  9
$AUPREC
 70
     0
  9
$MENU
  1
.
  9
$ELEVATION
 40
0.0
  9
$PELEVATION
 40
0.0
  9
$THICKNESS
 40
0.0
  9
$LIMCHECK
 70
     0
  9
$CHAMFERA
 40
2.5
  9
$CHAMFERB
 40
2.5
  9
$CHAMFERC
 40
20.0
  9
$CHAMFERD
 40
0.0
  9
$SKPOLY
 70
     0
  9
$TDCREATE
 40
2455659.594794641
  9
$TDUCREATE
 40
2455659.511461308
  9
$TDUPDATE
 40
2455665.458363195
  9
$TDUUPDATE
 40
2455665.375029861
  9
$TDINDWG
 40
0.0985884144
  9
$TDUSRTIMER
 40
0.0985876852
  9
$USRTIMER
 70
     1
  9
$ANGBASE
 50
0.0
  9
$ANGDIR
 70
     0
  9
$PDMODE
 70
     0
  9
$PDSIZE
 40
0.0
  9
$PLINEWID
 40
0.0
  9
$SPLFRAME
 70
     0
  9
$SPLINETYPE
 70
     6
  9
$SPLINESEGS
 70
     8
  9
$HANDSEED
  5
D34
  9
$SURFTAB1
 70
     6
  9
$SURFTAB2
 70
     6
  9
$SURFTYPE
 70
     6
  9
$SURFU
 70
     6
  9
$SURFV
 70
     6
  9
$UCSBASE
  2

  9
$UCSNAME
  2

  9
$UCSORG
 10
0.0
 20
0.0
 30
0.0
  9
$UCSXDIR
 10
1.0
 20
0.0
 30
0.0
  9
$UCSYDIR
 10
0.0
 20
1.0
 30
0.0
  9
$UCSORTHOREF
  2

  9
$UCSORTHOVIEW
 70
     0
  9
$UCSORGTOP
 10
0.0
 20
0.0
 30
0.0
  9
$UCSORGBOTTOM
 10
0.0
 20
0.0
 30
0.0
  9
$UCSORGLEFT
 10
0.0
 20
0.0
 30
0.0
  9
$UCSORGRIGHT
 10
0.0
 20
0.0
 30
0.0
  9
$UCSORGFRONT
 10
0.0
 20
0.0
 30
0.0
  9
$UCSORGBACK
 10
0.0
 20
0.0
 30
0.0
  9
$PUCSBASE
  2

  9
$PUCSNAME
  2

  9
$PUCSORG
 10
0.0
 20
0.0
 30
0.0
  9
$PUCSXDIR
 10
1.0
 20
0.0
 30
0.0
  9
$PUCSYDIR
 10
0.0
 20
1.0
 30
0.0
  9
$PUCSORTHOREF
  2

  9
$PUCSORTHOVIEW
 70
     0
  9
$PUCSORGTOP
 10
0.0
 20
0.0
 30
0.0
  9
$PUCSORGBOTTOM
 10
0.0
 20
0.0
 30
0.0
  9
$PUCSORGLEFT
 10
0.0
 20
0.0
 30
0.0
  9
$PUCSORGRIGHT
 10
0.0
 20
0.0
 30
0.0
  9
$PUCSORGFRONT
 10
0.0
 20
0.0
 30
0.0
  9
$PUCSORGBACK
 10
0.0
 20
0.0
 30
0.0
  9
$USERI1
 70
     0
  9
$USERI2
 70
     0
  9
$USERI3
 70
     0
  9
$USERI4
 70
     0
  9
$USERI5
 70
     0
  9
$USERR1
 40
0.0
  9
$USERR2
 40
0.0
  9
$USERR3
 40
0.0
  9
$USERR4
 40
0.0
  9
$USERR5
 40
0.0
  9
$WORLDVIEW
 70
     1
  9
$SHADEDGE
 70
     3
  9
$SHADEDIF
 70
    70
  9
$TILEMODE
 70
     1
  9
$MAXACTVP
 70
    64
  9
$PINSBASE
 10
0.0
 20
0.0
 30
0.0
  9
$PLIMCHECK
 70
     0
  9
$PEXTMIN
 10
1.000000000000000E+20
 20
1.000000000000000E+20
 30
1.000000000000000E+20
  9
$PEXTMAX
 10
-1.000000000000000E+20
 20
-1.000000000000000E+20
 30
-1.000000000000000E+20
  9
$PLIMMIN
 10
0.0
 20
0.0
  9
$PLIMMAX
 10
420.0
 20
297.0
  9
$UNITMODE
 70
     0
  9
$VISRETAIN
 70
     1
  9
$PLINEGEN
 70
     0
  9
$PSLTSCALE
 70
     1
  9
$TREEDEPTH
 70
  3020
  9
$CMLSTYLE
  2
Standard
  9
$CMLJUST
 70
     0
  9
$CMLSCALE
 40
20.0
  9
$PROXYGRAPHICS
 70
     1
  9
$MEASUREMENT
 70
     1
  9
$CELWEIGHT
370
    -1
  9
$ENDCAPS
280
     0
  9
$JOINSTYLE
280
     0
  9
$LWDISPLAY
290
     0
  9
$INSUNITS
 70
     4
  9
$HYPERLINKBASE
  1

  9
$STYLESHEET
  1

  9
$XEDIT
290
     1
  9
$CEPSNTYPE
380
     0
  9
$PSTYLEMODE
290
     1
  9
$FINGERPRINTGUID
  2
{86073F45-AB82-4EDE-A403-2AC907B8DAC9}
  9
$VERSIONGUID
  2
{FFD23B0C-BD75-482B-806B-06EEF1F37CE3}
  9
$EXTNAMES
290
     1
  9
$PSVPSCALE
 40
0.0
  9
$OLESTARTUP
290
     0
  0
ENDSEC
  0
SECTION
  2
CLASSES
  0
CLASS
  1
ACDBDICTIONARYWDFLT
  2
AcDbDictionaryWithDefault
  3
ObjectDBX Classes
 90
        0
280
     0
281
     0
  0
CLASS
  1
ACDBPLACEHOLDER
  2
AcDbPlaceHolder
  3
ObjectDBX Classes
 90
        0
280
     0
281
     0
  0
CLASS
  1
LAYOUT
  2
AcDbLayout
  3
ObjectDBX Classes
 90
        0
280
     0
281
     0
  0
CLASS
  1
ACME_DOCUMENT
  2
AcMeDbDoc
  3
AcMeServices
 90
     1024
280
     0
281
     0
  0
CLASS
  1
AMGSETTINGSOBJ
  2
AmgSettingsObj
  3
"AcadM|Product Description: AutoCAD Mechanical|Company: Autodesk, Inc."
 90
     1024
280
     0
281
     0
  0
CLASS
  1
ACMESCOPE
  2
AcMeScope
  3
AcMeServices
 90
     1024
280
     0
281
     0
  0
CLASS
  1
ACMECOMMANDHISTORY
  2
AcMeCommandHistory
  3
AcMeServices
 90
     1024
280
     0
281
     0
  0
CLASS
  1
ACIMSYSVARMAN
  2
AcImSysVarManager
  3
AcMeServices
 90
     1024
280
     0
281
     0
  0
CLASS
  1
ACIMREALSYSVAR
  2
AcImRealSysVar
  3
AcMeServices
 90
     1024
280
     0
281
     0
  0
CLASS
  1
ACIMINTSYSVAR
  2
AcImIntSysVar
  3
AcMeServices
 90
     1024
280
     0
281
     0
  0
CLASS
  1
ACMEDRAWINGMAN
  2
AcMeDrawingMan
  3
AcMeServices
 90
     1024
280
     0
281
     0
  0
CLASS
  1
ACMEVIEW
  2
AcMeView
  3
AcMeServices
 90
     1024
280
     0
281
     0
  0
CLASS
  1
ACDBENTITYCACHE
  2
AcMeEntityCache
  3
AcMeServices
 90
     1024
280
     0
281
     0
  0
CLASS
  1
GSMANAGER
  2
AcMeGSManager
  3
AcMeServices
 90
     1024
280
     0
281
     0
  0
CLASS
  1
AMDTINTERNALREACTOR
  2
AmdtInternalReactor
  3
AcMeServices
 90
     1024
280
     0
281
     0
  0
CLASS
  1
ACMESTATEMGR
  2
AcMeStateMgr
  3
AcMeServices
 90
     1024
280
     0
281
     0
  0
CLASS
  1
ACGREFMASTER
  2
AcGrefMaster
  3
AcAttribServices
 90
     1024
280
     0
281
     0
  0
CLASS
  1
ACME_DATABASE
  2
AcMeDbDatabase
  3
AcMeServices
 90
     1024
280
     0
281
     0
  0
CLASS
  1
ACRFINSADJUSTERMGR
  2
AcRfInsAdjusterMgr
  3
AcMeServices
 90
     1024
280
     0
281
     0
  0
CLASS
  1
ACGREFACADMASTER
  2
AcGrefacadMaster
  3
AcGrefServices
 90
     1024
280
     0
281
     0
  0
CLASS
  1
AMIMASTER
  2
AmiMaster
  3
AmiServices
 90
     1024
280
     0
281
     0
  0
CLASS
  1
ACMDATADICTIONARY
  2
AcmDataDictionary
  3
"AcmSymBB|Product Description: AutoCAD Mechanical|Company: Autodesk, Inc."
 90
     1024
280
     0
281
     0
  0
CLASS
  1
ACMDATAENTRYBLOCK
  2
AcmDataEntryBlock
  3
AcmSymBB|Product Description: AutoCAD Mechanical|Company: Autodesk, Inc.
 90
    33792
280
     0
281
     0
  0
CLASS
  1
ACIMSTRSYSVAR
  2
AcImStrSysVar
  3
AcMeServices
 90
     1024
280
     0
281
     0
  0
CLASS
  1
ACMSTANDARDISO
  2
AcmStandardISO
  3
"Amdt_StdImp|Product Description: AutoCAD Mechanical|Company: Autodesk, Inc."
 90
    33792
280
     0
281
     0
  0
CLASS
  1
AMGOBJPROPCFG
  2
AmgObjPropCfg
  3
"AmgLay|Product Description: AutoCAD Mechanical|Company: Autodesk, Inc."
 90
     1025
280
     0
281
     0
  0
CLASS
  1
AMDTEDGESTANDARDISO
  2
AmdtEdgeStdISO
  3
"Amdt_StdImp|Product Description: AutoCAD Mechanical|Company: Autodesk, Inc."
 90
    33792
280
     0
281
     0
  0
CLASS
  1
ACMSURFSTANDARDISO
  2
AcmSurfTextStdISO
  3
"Amdt_StdImp|Product Description: AutoCAD Mechanical|Company: Autodesk, Inc."
 90
    33792
280
     0
281
     0
  0
CLASS
  1
ACMFCFSTANDARDISO
  2
AcmFCFStdISO
  3
"Amdt_StdImp|Product Description: AutoCAD Mechanical|Company: Autodesk, Inc."
 90
    33792
280
     0
281
     0
  0
CLASS
  1
ACMWELDSTANDARDISO
  2
AcmWeldingStdISO
  3
"Amdt_StdImp|Product Description: AutoCAD Mechanical|Company: Autodesk, Inc."
 90
    33792
280
     0
281
     0
  0
CLASS
  1
ACMIDSTANDARDISO
  2
AcmIdStdISO
  3
"Amdt_StdImp|Product Description: AutoCAD Mechanical|Company: Autodesk, Inc."
 90
    33792
280
     0
281
     0
  0
CLASS
  1
ACMDATUMSTANDARDISO
  2
AcmDatumStdISO
  3
"Amdt_StdImp|Product Description: AutoCAD Mechanical|Company: Autodesk, Inc."
 90
    33792
280
     0
281
     0
  0
CLASS
  1
ACMBOMSTANDARDISO
  2
AcmBOMStdISO
  3
"Amdt_StdImp|Product Description: AutoCAD Mechanical|Company: Autodesk, Inc."
 90
    33792
280
     0
281
     0
  0
CLASS
  1
ACMDETAILSTANDARDISO
  2
AmdtDetailSymStdISO
  3
"Amdt_StdImp|Product Description: AutoCAD Mechanical|Company: Autodesk, Inc."
 90
    33792
280
     0
281
     0
  0
CLASS
  1
ACMSECTIONSTANDARDISO
  2
AmdtSectionSymStdISO
  3
"Amdt_StdImp|Product Description: AutoCAD Mechanical|Company: Autodesk, Inc."
 90
    33792
280
     0
281
     0
  0
CLASS
  1
ACMCENTERLINESTANDARDISO
  2
AmdtCenterLineStdISO
  3
"Amdt_StdImp|Product Description: AutoCAD Mechanical|Company: Autodesk, Inc."
 90
    33792
280
     0
281
     0
  0
CLASS
  1
ACMNOTESTANDARDISO
  2
AmdtNoteStdISO
  3
"Amdt_StdImp|Product Description: AutoCAD Mechanical|Company: Autodesk, Inc."
 90
    33792
280
     0
281
     0
  0
CLASS
  1
ACAMGLAYSTD
  2
AcAmgLayStd
  3
"AmgLay|Product Description: AutoCAD Mechanical|Company: Autodesk, Inc."
 90
     1024
280
     0
281
     0
  0
CLASS
  1
ACAMGDIMSTD
  2
AcAmgDimStd
  3
"AmgDim|Product Description: AutoCAD Mechanical|Company: Autodesk, Inc."
 90
     1024
280
     0
281
     0
  0
CLASS
  1
ACAMGHOLECHARTSTDISO
  2
AcAmgHoleChartStdISO
  3
AmgDim|Product Description: AutoCAD Mechanical|Company: Autodesk, Inc.
 90
    33792
280
     0
281
     0
  0
CLASS
  1
ACAMGTITLESTD
  2
AcAmgTitleStd
  3
"AmgTitle|Product Description: AutoCAD Mechanical|Company: Autodesk, Inc."
 90
     4095
280
     0
281
     0
  0
CLASS
  1
LAYER_INDEX
  2
AcDbLayerIndex
  3
ObjectDBX Classes
 90
    32768
280
     0
281
     0
  0
CLASS
  1
IDBUFFER
  2
AcDbIdBuffer
  3
ObjectDBX Classes
 90
    32768
280
     0
281
     0
  0
CLASS
  1
DICTIONARYVAR
  2
AcDbDictionaryVar
  3
ObjectDBX Classes
 90
        0
280
     0
281
     0
  0
CLASS
  1
AM_DRAWING_MGR
  2
AcDmDwgMgr
  3
AcMechDwgViewMgmt
 90
     1024
280
     0
281
     0
  0
CLASS
  1
AM_DWG_DOCUMENT
  2
AcDmDwgDocument
  3
AcMechDwgViewMgmt
 90
     1024
280
     0
281
     0
  0
CLASS
  1
AM_DWG_SHEET
  2
AcDmSheet
  3
AcMechDwgViewMgmt
 90
     1024
280
     0
281
     0
  0
CLASS
  1
AM_VIEWDIMPARMAP
  2
AcDmViewDimParMap
  3
AcMechDwgViewMgmt
 90
     1024
280
     0
281
     0
  0
CLASS
  1
AM_DWGMGR_NAME
  2
AcDmDwgMgrName
  3
AcMechDwgViewMgmt
 90
     1024
280
     0
281
     0
  0
CLASS
  1
AMDTMENUSTATEMGR
  2
AmdtMenuStateMgr
  3
McadcomServices
 90
     1024
280
     0
281
     0
  0
CLASS
  1
AMDTMCOMMENUSTATE
  2
AmdtMcomMenuState
  3
McadcomServices
 90
     1024
280
     0
281
     0
  0
CLASS
  1
MAPIAMMOUDLE
  2
MApiAmModule
  3
MApiAmServices
 90
     1024
280
     0
281
     0
  0
CLASS
  1
AMDTADMENUSTATE
  2
AmdtAdMenuState
  3
DesignerServices
 90
     1024
280
     0
281
     0
  0
CLASS
  1
ADAPPL
  2
AcAdAppl
  3
DesignerServices
 90
     1024
280
     0
281
     0
  0
CLASS
  1
DEPMGR
  2
AcAdDepMgr
  3
DesignerServices
 90
     1024
280
     0
281
     0
  0
CLASS
  1
PARAMMGR
  2
AcAdParamMgr
  3
DesignerServices
 90
     1024
280
     0
281
     0
  0
CLASS
  1
PARAMSCOPE
  2
AcAdParamScope
  3
DesignerServices
 90
     1024
280
     0
281
     0
  0
CLASS
  1
NAMEDAPPL
  2
AcAdNamedAppl
  3
DesignerServices
 90
     1024
280
     0
281
     0
  0
CLASS
  1
AMDTDMMENUSTATE
  2
AmdtDmMenuState
  3
AcMechDwgViewMgmt
 90
     1024
280
     0
281
     0
  0
CLASS
  1
AMDTAMMENUSTATE
  2
AmdtAmMenuState
  3
DesignerAssemblies
 90
     1024
280
     0
281
     0
  0
CLASS
  1
ACAMPROJECT
  2
AcAmProject
  3
DesignerAssemblies
 90
     1024
280
     0
281
     0
  0
CLASS
  1
ACAMGRCOMPDEF
  2
AcAmGrCompDef
  3
DesignerAssemblies
 90
     1024
280
     0
281
     0
  0
CLASS
  1
ACCMCONTEXT
  2
AcCmContext
  3
DesignerAssemblies
 90
     1024
280
     0
281
     0
  0
CLASS
  1
ACAMCOMPDEF
  2
AcAmCompDef
  3
DesignerAssemblies
 90
     1024
280
     0
281
     0
  0
CLASS
  1
ACAMCOMPDEFMGR
  2
AcAmCompDefMgr
  3
DesignerAssemblies
 90
     1024
280
     0
281
     0
  0
CLASS
  1
AMCONTEXTMGR
  2
AcAmContextMgr
  3
DesignerAssemblies
 90
     1024
280
     0
281
     0
  0
CLASS
  1
ACAMCONTEXTMODELER
  2
AcAmContextModeler
  3
DesignerAssemblies
 90
     1024
280
     0
281
     0
  0
CLASS
  1
ACMTHREADLINESTANDARDISO
  2
AmdtThreadLineStdISO
  3
"Amdt_StdImp|Product Description: AutoCAD Mechanical|Company: Autodesk, Inc."
 90
    33792
280
     0
281
     0
  0
CLASS
  1
CATALOGSTATE
  2
AcAmCatalogState
  3
DesignerAssemblies
 90
     1024
280
     0
281
     0
  0
CLASS
  1
ACAMGRCOMPDEFSET
  2
AcAmGrCompDefSet
  3
DesignerAssemblies
 90
     1024
280
     0
281
     0
  0
CLASS
  1
AMDTBROWSERDBTAB
  2
AmdtBrowserDbTab
  3
McadcomServices
 90
     1024
280
     0
281
     0
  0
CLASS
  1
CBROWSERAPPOBJECT
  2
CBrowserAppObject
  3
McadcomServices
 90
     1024
280
     0
281
     0
  0
CLASS
  1
DM_PLACEHOLDER
  2
AcDmSelsetPlaceholder
  3
AcMechDwgViewMgmt
 90
     1024
280
     0
281
     0
  0
CLASS
  1
TABLESTYLE
  2
AcDbTableStyle
  3
ObjectDBX Classes
 90
     4095
280
     0
281
     0
  0
CLASS
  1
VAACXREFPANELOBJECT
  2
VaAcXREFPanelObject
  3
VAAC_ADDIN
 90
    32768
280
     0
281
     0
  0
CLASS
  1
VAACIMAGEINVENTORY
  2
VaAcImageInventory
  3
VAAC_ADDIN
 90
    32768
280
     0
281
     0
  0
CLASS
  1
AMDTNOTETEMPLATEDB
  2
AmdtNoteTemplateDB
  3
AcmSymBB|Product Description: AutoCAD Mechanical|Company: Autodesk, Inc.
 90
     1024
280
     0
281
     0
  0
CLASS
  1
ACAMGFILTERDAT
  2
AcAmgFilterDat
  3
"AcadM|Product Description: AutoCAD Mechanical|Company: Autodesk, Inc."
 90
    33792
280
     0
281
     0
  0
CLASS
  1
ACMBOM
  2
AcmBom
  3
"AcmSymBB|Product Description: AutoCAD Mechanical|Company: Autodesk, Inc."
 90
    33792
280
     0
281
     0
  0
CLASS
  1
AMDTFORMULAUPDATEDISPATCHER
  2
AmdtFormulaUpdateDispatcher
  3
AcMeServices
 90
    33792
280
     0
281
     0
  0
CLASS
  1
ACMSTANDARDDIN
  2
AcmStandardDIN
  3
"Amdt_StdImp|Product Description: AutoCAD Mechanical|Company: Autodesk, Inc."
 90
     1024
280
     0
281
     0
  0
CLASS
  1
AMDTEDGESTANDARDDIN13715
  2
AmdtEdgeStdDIN13715
  3
"Amdt_StdImp|Product Description: AutoCAD Mechanical|Company: Autodesk, Inc."
 90
     1024
280
     0
281
     0
  0
CLASS
  1
ACMSURFSTANDARDDIN
  2
AcmSurfTextStdDIN
  3
"Amdt_StdImp|Product Description: AutoCAD Mechanical|Company: Autodesk, Inc."
 90
    33792
280
     0
281
     0
  0
CLASS
  1
ACMFCFSTANDARDDIN
  2
AcmFCFStdDIN
  3
"Amdt_StdImp|Product Description: AutoCAD Mechanical|Company: Autodesk, Inc."
 90
     1024
280
     0
281
     0
  0
CLASS
  1
ACMWELDSTANDARDDIN
  2
AcmWeldingStdDIN
  3
"Amdt_StdImp|Product Description: AutoCAD Mechanical|Company: Autodesk, Inc."
 90
     1024
280
     0
281
     0
  0
CLASS
  1
ACMIDSTANDARDDIN
  2
AcmIdStdDIN
  3
"Amdt_StdImp|Product Description: AutoCAD Mechanical|Company: Autodesk, Inc."
 90
     1024
280
     0
281
     0
  0
CLASS
  1
ACMDATUMSTANDARDDIN
  2
AcmDatumStdDIN
  3
"Amdt_StdImp|Product Description: AutoCAD Mechanical|Company: Autodesk, Inc."
 90
     1024
280
     0
281
     0
  0
CLASS
  1
ACMBOMSTANDARDDIN
  2
AcmBOMStdDIN
  3
"Amdt_StdImp|Product Description: AutoCAD Mechanical|Company: Autodesk, Inc."
 90
     1024
280
     0
281
     0
  0
CLASS
  1
ACMDETAILSTANDARDDIN
  2
AmdtDetailSymStdDIN
  3
"Amdt_StdImp|Product Description: AutoCAD Mechanical|Company: Autodesk, Inc."
 90
     1024
280
     0
281
     0
  0
CLASS
  1
ACMSECTIONSTANDARDDIN
  2
AmdtSectionSymStdDIN
  3
"Amdt_StdImp|Product Description: AutoCAD Mechanical|Company: Autodesk, Inc."
 90
     1024
280
     0
281
     0
  0
CLASS
  1
ACMCENTERLINESTANDARDDIN
  2
AmdtCenterLineStdDIN
  3
"Amdt_StdImp|Product Description: AutoCAD Mechanical|Company: Autodesk, Inc."
 90
     1024
280
     0
281
     0
  0
CLASS
  1
ACMTHREADLINESTANDARDDIN
  2
AmdtThreadLineStdDIN
  3
"Amdt_StdImp|Product Description: AutoCAD Mechanical|Company: Autodesk, Inc."
 90
     1024
280
     0
281
     0
  0
CLASS
  1
ACMNOTESTANDARDDIN
  2
AmdtNoteStdDIN
  3
"Amdt_StdImp|Product Description: AutoCAD Mechanical|Company: Autodesk, Inc."
 90
     1024
280
     0
281
     0
  0
CLASS
  1
ACAMGHOLECHARTSTDDIN
  2
AcAmgHoleChartStdDIN
  3
AmgDim|Product Description: AutoCAD Mechanical|Company: Autodesk, Inc.
 90
     1024
280
     0
281
     0
  0
CLASS
  1
MATERIAL
  2
AcDbMaterial
  3
ObjectDBX Classes
 90
     1153
280
     0
281
     0
  0
CLASS
  1
VISUALSTYLE
  2
AcDbVisualStyle
  3
ObjectDBX Classes
 90
     4095
280
     0
281
     0
  0
CLASS
  1
SCALE
  2
AcDbScale
  3
ObjectDBX Classes
 90
     1153
280
     0
281
     0
  0
CLASS
  1
MLEADERSTYLE
  2
AcDbMLeaderStyle
  3
ACDB_MLEADERSTYLE_CLASS
 90
     4095
280
     0
281
     0
  0
CLASS
  1
ACRFATTGENMGR
  2
AcRfAttGeneralMgr
  3
AcAttribServices
 90
    33792
280
     0
281
     0
  0
CLASS
  1
ACRFOBJATTMGR
  2
AcRfObjAttGroupMgr
  3
AcAttribServices
 90
    33792
280
     0
281
     0
  0
CLASS
  1
ACRFMCADAPIATTHOLDER
  2
AcRfMCADAPIAttHolder
  3
AcAttribServices
 90
    33792
280
     0
281
     0
  0
CLASS
  1
AMDTSYSATTR
  2
AmdtSystemAttribute
  3
AcAttribServices
 90
    33792
280
     0
281
     0
  0
CLASS
  1
ACMTAPERSTANDARDISO
  2
AcmTaperStdISO
  3
"Amdt_StdImp|Product Description: AutoCAD Mechanical|Company: Autodesk, Inc."
 90
    33792
280
     0
281
     0
  0
CLASS
  1
ACMANOOTATIONVIEWSTANDARDISO
  2
AmdtAnViewStdISO
  3
"Amdt_StdImp|Product Description: AutoCAD Mechanical|Company: Autodesk, Inc."
 90
    33792
280
     0
281
     0
  0
CLASS
  1
ACMTAPERSTANDARDDIN
  2
AcmTaperStdDIN
  3
"Amdt_StdImp|Product Description: AutoCAD Mechanical|Company: Autodesk, Inc."
 90
     1024
280
     0
281
     0
  0
CLASS
  1
ACMANOOTATIONVIEWSTANDARDDIN
  2
AmdtAnViewStdDIN
  3
"Amdt_StdImp|Product Description: AutoCAD Mechanical|Company: Autodesk, Inc."
 90
     1024
280
     0
281
     0
  0
CLASS
  1
EXACXREFPANELOBJECT
  2
ExAcXREFPanelObject
  3
EXAC_ESW
 90
     1025
280
     0
281
     0
  0
CLASS
  1
NPOCOLLECTION
  2
AcDbImpNonPersistentObjectsCollection
  3
ObjectDBX Classes
 90
     1153
280
     0
281
     0
  0
CLASS
  1
CAMSSTRUCTBTNSTATE
  2
StructBtnState
  3
DesignerAssemblies
 90
    33792
280
     0
281
     0
  0
CLASS
  1
CELLSTYLEMAP
  2
AcDbCellStyleMap
  3
ObjectDBX Classes
 90
     1152
280
     0
281
     0
  0
CLASS
  1
AEC_REFEDIT_STATUS_TRACKER
  2
AecDbRefEditStatusTracker
  3
AecArchBase50|Product Desc: Autodesk Architectural Desktop 2007 |Company: Autodesk,Inc. |WEB Address: www.autodesk.com
 90
      129
280
     0
281
     0
  0
CLASS
  1
IMAGE
  2
AcDbRasterImage
  3
ISM
 90
    34943
280
     0
281
     1
  0
CLASS
  1
IMAGEDEF_REACTOR
  2
AcDbRasterImageDefReactor
  3
ISM
 90
    32769
280
     0
281
     0
  0
CLASS
  1
IMAGEDEF
  2
AcDbRasterImageDef
  3
ISM
 90
    32768
280
     0
281
     0
  0
CLASS
  1
RASTERVARIABLES
  2
AcDbRasterVariables
  3
ISM
 90
    32768
280
     0
281
     0
  0
CLASS
  1
DIMASSOC
  2
AcDbDimAssoc
  3
"AcDbDimAssoc|Product Desc:     AcDim ARX App For Dimension|Company:          Autodesk, Inc.|WEB Address:      www.autodesk.com"
 90
        0
280
     0
281
     0
  0
CLASS
  1
SORTENTSTABLE
  2
AcDbSortentsTable
  3
ObjectDBX Classes
 90
        0
280
     0
281
     0
  0
CLASS
  1
ACMSURFSTANDARDDIN2002
  2
AcmSurfTextStdDIN2002
  3
"Amdt_StdImp|Product Description: AutoCAD Mechanical|Company: Autodesk, Inc."
 90
     1024
280
     0
281
     0
  0
ENDSEC
  0
SECTION
  2
TABLES
  0
TABLE
  2
VPORT
  5
8
330
0
100
AcDbSymbolTable
 70
     1
  0
VPORT
  5
3B2
330
8
100
AcDbSymbolTableRecord
100
AcDbViewportTableRecord
  2
*Active
 70
     0
 10
0.0
 20
0.0
 11
1.0
 21
1.0
 12
709.4435952396111
 22
381.1815668214471
 13
0.0
 23
0.0
 14
2.5
 24
2.5
 15
10.0
 25
10.0
 16
0.0
 26
0.0
 36
1.0
 17
0.0
 27
0.0
 37
0.0
 40
789.8365785395847
 41
1.803695150115473
 42
50.0
 43
0.0
 44
0.0
 50
0.0
 51
0.0
 71
     0
 72
   100
 73
     1
 74
     3
 75
     0
 76
     0
 77
     0
 78
     0
281
     0
 65
     0
110
0.0
120
0.0
130
0.0
111
1.0
121
0.0
131
0.0
112
0.0
122
1.0
132
0.0
 79
     0
146
0.0
  0
ENDTAB
  0
TABLE
  2
LTYPE
  5
5
330
0
100
AcDbSymbolTable
 70
    24
  0
LTYPE
  5
14
330
5
100
AcDbSymbolTableRecord
100
AcDbLinetypeTableRecord
  2
ByBlock
 70
     0
  3

 72
    65
 73
     0
 40
0.0
  0
LTYPE
  5
15
330
5
100
AcDbSymbolTableRecord
100
AcDbLinetypeTableRecord
  2
ByLayer
 70
     0
  3

 72
    65
 73
     0
 40
0.0
  0
LTYPE
  5
16
330
5
100
AcDbSymbolTableRecord
100
AcDbLinetypeTableRecord
  2
Continuous
 70
     0
  3
Solid line
 72
    65
 73
     0
 40
0.0
  0
LTYPE
  5
64
330
5
100
AcDbSymbolTableRecord
100
AcDbLinetypeTableRecord
  2
AM_ISO02W050
 70
     0
  3
__ __ __ __ __ __ __ __ __ __ __ __ __ __ __
 72
    65
 73
     2
 40
7.5
 49
6.0
 74
     0
 49
-1.5
 74
     0
  0
LTYPE
  5
65
330
5
100
AcDbSymbolTableRecord
100
AcDbLinetypeTableRecord
  2
AM_ISO08W050
 70
     0
  3
____ . ____ . ____ . ____ . ____ . ____ . ____
 72
    65
 73
     4
 40
18.0
 49
12.0
 74
     0
 49
-1.5
 74
     0
 49
3.0
 74
     0
 49
-1.5
 74
     0
  0
LTYPE
  5
66
330
5
100
AcDbSymbolTableRecord
100
AcDbLinetypeTableRecord
  2
AM_ISO09W050
 70
     0
  3
_____ . . _____ . . _____ . . ____ .. ____
 72
    65
 73
     6
 40
22.5
 49
12.0
 74
     0
 49
-1.5
 74
     0
 49
3.0
 74
     0
 49
-1.5
 74
     0
 49
3.0
 74
     0
 49
-1.5
 74
     0
  0
LTYPE
  5
67
330
5
100
AcDbSymbolTableRecord
100
AcDbLinetypeTableRecord
  2
Amconstr
 70
     0
  3
_______________________
 72
    65
 73
     2
 40
9999.0
 49
9999.0
 74
     0
 49
0.0
 74
     0
  0
LTYPE
  5
68
330
5
100
AcDbSymbolTableRecord
100
AcDbLinetypeTableRecord
  2
AM_ISO08W050x2
 70
     0
  3
__ . __ . __ . __ . __ . __
 72
    65
 73
     4
 40
9.0
 49
6.0
 74
     0
 49
-0.75
 74
     0
 49
1.5
 74
     0
 49
-0.75
 74
     0
  0
LTYPE
  5
69
330
5
100
AcDbSymbolTableRecord
100
AcDbLinetypeTableRecord
  2
AM_ISO02W050x2
 70
     0
  3
 _ _ _ _ _ _ _ _ _ _ _ _
 72
    65
 73
     2
 40
3.75
 49
3.0
 74
     0
 49
-0.75
 74
     0
  0
LTYPE
  5
6C
330
5
100
AcDbSymbolTableRecord
100
AcDbLinetypeTableRecord
  2
Amzigzag
 70
     0
  3
/\/-/\/-/\/-/\/-/\/-/\/
 72
    65
 73
     2
 40
11.0001
 49
0.0001
 74
     4
 75
   136
340
22C
 46
0.04
 50
0.0
 44
0.0
 45
0.0
 49
-11.0
 74
     0
  0
LTYPE
  5
7A
330
5
100
AcDbSymbolTableRecord
100
AcDbLinetypeTableRecord
  2
ACISOWELD
 70
     0
  3
_ _ _ _ _
 72
    65
 73
     2
 40
2.0
 49
2.0
 74
     0
 49
-1.0
 74
     0
  0
LTYPE
  5
7B
330
5
100
AcDbSymbolTableRecord
100
AcDbLinetypeTableRecord
  2
ACISOTGB
 70
     0
  3
__ . . __ . .
 72
    65
 73
     6
 40
9.0
 49
4.0
 74
     0
 49
-1.0
 74
     0
 49
1.0
 74
     0
 49
-1.0
 74
     0
 49
1.0
 74
     0
 49
-1.0
 74
     0
  0
LTYPE
  5
7C
330
5
100
AcDbSymbolTableRecord
100
AcDbLinetypeTableRecord
  2
ACISOTGL
 70
     0
  3
_ _ _ _ _
 72
    65
 73
     2
 40
3.0
 49
2.0
 74
     0
 49
-1.0
 74
     0
  0
LTYPE
  5
7E
330
5
100
AcDbSymbolTableRecord
100
AcDbLinetypeTableRecord
  2
CENTER
 70
     0
  3
__ . __
 72
    65
 73
     4
 40
7.0
 49
4.0
 74
     0
 49
-1.0
 74
     0
 49
1.0
 74
     0
 49
-1.0
 74
     0
  0
LTYPE
  5
D8
330
5
100
AcDbSymbolTableRecord
100
AcDbLinetypeTableRecord
  2
HIDDEN
 70
     0
  3
Hidden __ __ __ __ __ __ __ __ __ __ __ __ __ _
 72
    65
 73
     2
 40
9.524999999999996
 49
6.349999999999997
 74
     0
 49
-3.174999999999998
 74
     0
  0
LTYPE
  5
D9
330
5
100
AcDbSymbolTableRecord
100
AcDbLinetypeTableRecord
  2
PHANTOM2
 70
     0
  3
Phantom (.5x) ___ _ _ ___ _ _ ___ _ _ ___ _ _
 72
    65
 73
     6
 40
31.75
 49
15.875
 74
     0
 49
-3.174999999999998
 74
     0
 49
3.174999999999998
 74
     0
 49
-3.174999999999998
 74
     0
 49
3.174999999999998
 74
     0
 49
-3.174999999999998
 74
     0
  0
LTYPE
  5
2E5
330
5
100
AcDbSymbolTableRecord
100
AcDbLinetypeTableRecord
  2
ACDINWELD
 70
     0
  3
_ _ _ _ _
 72
    65
 73
     2
 40
2.0
 49
2.0
 74
     0
 49
-1.0
 74
     0
  0
LTYPE
  5
2E6
330
5
100
AcDbSymbolTableRecord
100
AcDbLinetypeTableRecord
  2
ACDINTGB
 70
     0
  3
__ . . __ . .
 72
    65
 73
     6
 40
9.0
 49
4.0
 74
     0
 49
-1.0
 74
     0
 49
1.0
 74
     0
 49
-1.0
 74
     0
 49
1.0
 74
     0
 49
-1.0
 74
     0
  0
LTYPE
  5
2E7
330
5
100
AcDbSymbolTableRecord
100
AcDbLinetypeTableRecord
  2
ACDINTGL
 70
     0
  3
_ _ _ _ _
 72
    65
 73
     2
 40
3.0
 49
2.0
 74
     0
 49
-1.0
 74
     0
  0
LTYPE
  5
321
330
5
100
AcDbSymbolTableRecord
100
AcDbLinetypeTableRecord
  2
AM_DIN_F_W050
 70
     0
  3
__ __ __ __ __ __ __ __ __ __ __ __ __ __ __
 72
    65
 73
     2
 40
6.25
 49
4.75
 74
     0
 49
-1.5
 74
     0
  0
LTYPE
  5
322
330
5
100
AcDbSymbolTableRecord
100
AcDbLinetypeTableRecord
  2
AM_DIN_G_W050
 70
     0
  3
____ . ____ . ____ . ____ . ____ . ____ . ____
 72
    65
 73
     4
 40
13.75
 49
9.75
 74
     0
 49
-1.5
 74
     0
 49
1.0
 74
     0
 49
-1.5
 74
     0
  0
LTYPE
  5
323
330
5
100
AcDbSymbolTableRecord
100
AcDbLinetypeTableRecord
  2
AM_DIN_K_W050
 70
     0
  3
_____ . . _____ . . _____ . . ____ .. ____
 72
    65
 73
     6
 40
16.25
 49
9.75
 74
     0
 49
-1.5
 74
     0
 49
1.0
 74
     0
 49
-1.5
 74
     0
 49
1.0
 74
     0
 49
-1.5
 74
     0
  0
LTYPE
  5
324
330
5
100
AcDbSymbolTableRecord
100
AcDbLinetypeTableRecord
  2
AM_DIN_G_W050x2
 70
     0
  3
__ . __ . __ . __ . __ . __
 72
    65
 73
     4
 40
6.875
 49
4.75
 74
     0
 49
-0.875
 74
     0
 49
0.375
 74
     0
 49
-0.875
 74
     0
  0
LTYPE
  5
325
330
5
100
AcDbSymbolTableRecord
100
AcDbLinetypeTableRecord
  2
AM_DIN_F_W050x2
 70
     0
  3
 _ _ _ _ _ _ _ _ _ _ _ _
 72
    65
 73
     2
 40
3.125
 49
2.25
 74
     0
 49
-0.875
 74
     0
  0
LTYPE
  5
675
330
5
100
AcDbSymbolTableRecord
100
AcDbLinetypeTableRecord
  2
GEN7A
 70
     0
  3
__ . __ . __
 72
    65
 73
     4
 40
6.875
 49
5.0
 74
     0
 49
-0.625
 74
     0
 49
0.625
 74
     0
 49
-0.625
 74
     0
  0
ENDTAB
  0
TABLE
  2
LAYER
  5
2
102
{ACAD_XDICTIONARY
360
68D
102
}
330
0
100
AcDbSymbolTable
 70
    10
  0
LAYER
  5
10
102
{ACAD_XDICTIONARY
360
7FE
102
}
330
2
100
AcDbSymbolTableRecord
100
AcDbLayerTableRecord
  2
0
 70
     0
 62
     7
  6
Continuous
370
    -3
390
F
  0
LAYER
  5
676
102
{ACAD_XDICTIONARY
360
677
102
}
330
2
100
AcDbSymbolTableRecord
100
AcDbLayerTableRecord
  2
7A
 70
     0
 62
     4
  6
GEN7A
370
    -3
390
F
  0
LAYER
  5
678
102
{ACAD_XDICTIONARY
360
679
102
}
330
2
100
AcDbSymbolTableRecord
100
AcDbLayerTableRecord
  2
5
 70
     0
 62
     3
  6
Continuous
370
    -3
390
F
  0
LAYER
  5
67A
330
2
100
AcDbSymbolTableRecord
100
AcDbLayerTableRecord
  2
DEFPOINTS
 70
     0
 62
     7
  6
Continuous
290
     0
370
    -3
390
F
  0
LAYER
  5
67B
102
{ACAD_XDICTIONARY
360
67C
102
}
330
2
100
AcDbSymbolTableRecord
100
AcDbLayerTableRecord
  2
KLIN
 70
     0
 62
     1
  6
Continuous
370
    -3
390
F
  0
LAYER
  5
67D
102
{ACAD_XDICTIONARY
360
67E
102
}
330
2
100
AcDbSymbolTableRecord
100
AcDbLayerTableRecord
  2
RUNDUNGEN
 70
     0
 62
     7
  6
Continuous
370
    -3
390
F
  0
LAYER
  5
67F
102
{ACAD_XDICTIONARY
360
680
102
}
330
2
100
AcDbSymbolTableRecord
100
AcDbLayerTableRecord
  2
AM_5
 70
     0
 62
     3
  6
Continuous
370
    25
390
F
1001
AcAecLayerStandard
1000

1000

  0
LAYER
  5
681
102
{ACAD_XDICTIONARY
360
682
102
}
330
2
100
AcDbSymbolTableRecord
100
AcDbLayerTableRecord
  2
AM_7
 70
     0
 62
     4
  6
AM_ISO08W050
370
    25
390
F
1001
AcAecLayerStandard
1000

1000

  0
LAYER
  5
7F7
102
{ACAD_XDICTIONARY
360
806
102
}
330
2
100
AcDbSymbolTableRecord
100
AcDbLayerTableRecord
  2
AM_CL
 70
     0
 62
     1
  6
Amconstr
370
    25
390
F
1001
AcAecLayerStandard
1000

1000

  0
LAYER
  5
948
102
{ACAD_XDICTIONARY
360
949
102
}
330
2
100
AcDbSymbolTableRecord
100
AcDbLayerTableRecord
  2
BEZUGSACHSEN
 70
     0
 62
     7
  6
Continuous
370
    -3
390
F
  0
ENDTAB
  0
TABLE
  2
STYLE
  5
3
330
0
100
AcDbSymbolTable
 70
    10
  0
STYLE
  5
11
330
3
100
AcDbSymbolTableRecord
100
AcDbTextStyleTableRecord
  2
STANDARD
 70
     0
 40
0.0
 41
1.0
 50
0.0
 71
     0
 42
2.5
  3
ISOCP.SHX
  4

  0
STYLE
  5
6B
330
3
100
AcDbSymbolTableRecord
100
AcDbTextStyleTableRecord
  2

 70
     1
 40
0.0
 41
1.0
 50
0.0
 71
     0
 42
2.5
  3
ltypeshp.shx
  4

  0
STYLE
  5
6D
330
3
100
AcDbSymbolTableRecord
100
AcDbTextStyleTableRecord
  2
ACISOTS
 70
     0
 40
1.0
 41
1.0
 50
0.0
 71
     0
 42
2.5
  3
isocp.shx
  4
bigfont.shx
  0
STYLE
  5
79
330
3
100
AcDbSymbolTableRecord
100
AcDbTextStyleTableRecord
  2
ACISOGDT
 70
     0
 40
0.0
 41
1.0
 50
0.0
 71
     0
 42
2.5
  3
AMGDT
  4
bigfont.shx
  0
STYLE
  5
1ED
330
3
100
AcDbSymbolTableRecord
100
AcDbTextStyleTableRecord
  2
USER1
 70
     0
 40
0.0
 41
1.0
 50
0.0
 71
     0
 42
2.5
  3
TXT.SHX
  4
bigfont.shx
  0
STYLE
  5
1EE
330
3
100
AcDbSymbolTableRecord
100
AcDbTextStyleTableRecord
  2
USER2
 70
     0
 40
0.0
 41
1.0
 50
0.0
 71
     0
 42
2.5
  3
SIMPLEX.SHX
  4
bigfont.shx
  0
STYLE
  5
1EF
330
3
100
AcDbSymbolTableRecord
100
AcDbTextStyleTableRecord
  2
USER3
 70
     0
 40
0.0
 41
1.0
 50
0.0
 71
     0
 42
2.5
  3
ITALIC.SHX
  4
bigfont.shx
  0
STYLE
  5
22C
330
3
100
AcDbSymbolTableRecord
100
AcDbTextStyleTableRecord
  2

 70
     1
 40
0.0
 41
1.0
 50
0.0
 71
     0
 42
2.5
  3
genltshp.shx
  4

  0
STYLE
  5
2D7
330
3
100
AcDbSymbolTableRecord
100
AcDbTextStyleTableRecord
  2
ACDINTS
 70
     0
 40
1.0
 41
1.0
 50
0.0
 71
     0
 42
2.5
  3
isocp.shx
  4

  0
STYLE
  5
2E4
330
3
100
AcDbSymbolTableRecord
100
AcDbTextStyleTableRecord
  2
ACDINGDT
 70
     0
 40
0.0
 41
1.0
 50
0.0
 71
     0
 42
2.5
  3
amgdt.shx
  4

  0
ENDTAB
  0
TABLE
  2
VIEW
  5
6
330
0
100
AcDbSymbolTable
 70
     0
  0
ENDTAB
  0
TABLE
  2
UCS
  5
7
330
0
100
AcDbSymbolTable
 70
     0
  0
ENDTAB
  0
TABLE
  2
APPID
  5
9
330
0
100
AcDbSymbolTable
 70
    26
  0
APPID
  5
12
330
9
100
AcDbSymbolTableRecord
100
AcDbRegAppTableRecord
  2
ACAD
 70
     0
  0
APPID
  5
46
330
9
100
AcDbSymbolTableRecord
100
AcDbRegAppTableRecord
  2
MCAD_NO_VIS
 70
     0
  0
APPID
  5
47
330
9
100
AcDbSymbolTableRecord
100
AcDbRegAppTableRecord
  2
ACAD_TEMP_GRAPHIC
 70
     0
  0
APPID
  5
58
330
9
100
AcDbSymbolTableRecord
100
AcDbRegAppTableRecord
  2
ACATTRIBSERVICES
 70
     0
  0
APPID
  5
EE
330
9
100
AcDbSymbolTableRecord
100
AcDbRegAppTableRecord
  2
AD_DRAW
 70
     0
  0
APPID
  5
10C
330
9
100
AcDbSymbolTableRecord
100
AcDbRegAppTableRecord
  2
DESIGNERASSEMBLIES
 70
     0
  0
APPID
  5
111
330
9
100
AcDbSymbolTableRecord
100
AcDbRegAppTableRecord
  2
ACADM_DIM_EDIT
 70
     0
  0
APPID
  5
112
330
9
100
AcDbSymbolTableRecord
100
AcDbRegAppTableRecord
  2
AMDT_DM_ADJ
 70
     0
  0
APPID
  5
1A3
330
9
100
AcDbSymbolTableRecord
100
AcDbRegAppTableRecord
  2
ACAD_DSTYLE_DIMARC_LENGTH_SYMBOL
 70
     0
  0
APPID
  5
1A4
330
9
100
AcDbSymbolTableRecord
100
AcDbRegAppTableRecord
  2
ACAD_DSTYLE_DIMJOGGED_JOGANGLE_SYMBOL
 70
     0
  0
APPID
  5
3F1
330
9
100
AcDbSymbolTableRecord
100
AcDbRegAppTableRecord
  2
ACAD_MLEADERVER
 70
     0
  0
APPID
  5
684
330
9
100
AcDbSymbolTableRecord
100
AcDbRegAppTableRecord
  2
GENIUS_GENOENT_13
 70
     0
  0
APPID
  5
685
330
9
100
AcDbSymbolTableRecord
100
AcDbRegAppTableRecord
  2
GENIUS_GENODEF_13
 70
     0
  0
APPID
  5
686
330
9
100
AcDbSymbolTableRecord
100
AcDbRegAppTableRecord
  2
GENIUS_GENOLIS_13
 70
     0
  0
APPID
  5
687
330
9
100
AcDbSymbolTableRecord
100
AcDbRegAppTableRecord
  2
GENIUS_GENOREF_13
 70
     0
  0
APPID
  5
688
330
9
100
AcDbSymbolTableRecord
100
AcDbRegAppTableRecord
  2
GENIUS_GENOBJ-N-CRS_13
 70
     0
  0
APPID
  5
689
330
9
100
AcDbSymbolTableRecord
100
AcDbRegAppTableRecord
  2
GENIUS_GENOBJ-N-CEN_13
 70
     0
  0
APPID
  5
68A
330
9
100
AcDbSymbolTableRecord
100
AcDbRegAppTableRecord
  2
AcAecLayerStandard
 70
     0
  0
APPID
  5
68B
330
9
100
AcDbSymbolTableRecord
100
AcDbRegAppTableRecord
  2
ACAD_DSTYLE_DIMINSPECT
 70
     0
  0
APPID
  5
68C
330
9
100
AcDbSymbolTableRecord
100
AcDbRegAppTableRecord
  2
GENIUS_GENCEN_19
 70
     0
  0
APPID
  5
82A
330
9
100
AcDbSymbolTableRecord
100
AcDbRegAppTableRecord
  2
ACAD_DSTYLE_DIM_LINETYPE
 70
     0
  0
APPID
  5
82B
330
9
100
AcDbSymbolTableRecord
100
AcDbRegAppTableRecord
  2
ACAD_DSTYLE_DIM_EXT1_LINETYPE
 70
     0
  0
APPID
  5
82C
330
9
100
AcDbSymbolTableRecord
100
AcDbRegAppTableRecord
  2
ACAD_DSTYLE_DIM_EXT2_LINETYPE
 70
     0
  0
APPID
  5
94B
330
9
100
AcDbSymbolTableRecord
100
AcDbRegAppTableRecord
  2
ACAD_PSEXT
 70
     0
  0
APPID
  5
9D8
330
9
100
AcDbSymbolTableRecord
100
AcDbRegAppTableRecord
  2
ACAD_EXEMPT_FROM_CAD_STANDARDS
 70
     0
  0
APPID
  5
CC2
330
9
100
AcDbSymbolTableRecord
100
AcDbRegAppTableRecord
  2
DCO15
 70
     0
  0
ENDTAB
  0
TABLE
  2
DIMSTYLE
  5
A
330
0
100
AcDbSymbolTable
 70
    18
100
AcDbDimStyleTable
 71
     2
340
2F0
340
81
  0
DIMSTYLE
105
27
330
A
100
AcDbSymbolTableRecord
100
AcDbDimStyleTableRecord
  2
ISO-25
 70
     0
 41
2.5
 42
0.625
 43
3.75
 44
1.25
 73
     0
 74
     0
 77
     1
 78
     8
140
2.5
141
2.5
143
0.03937007874016
147
0.625
171
     3
172
     1
271
     2
272
     2
274
     3
278
    44
283
     0
284
     8
340
11
  0
DIMSTYLE
105
81
330
A
100
AcDbSymbolTableRecord
100
AcDbDimStyleTableRecord
  2
AM_ISO
 70
     0
  4
"
 41
2.5
 42
1.0
 43
10.0
 44
1.0
 47
0.1
 48
0.1
 73
     0
 74
     0
 77
     1
 78
     8
 79
     2
140
3.5
141
0.0
143
0.0393701
146
0.71
147
1.5
172
     1
176
   256
177
   256
178
     2
271
     2
272
     3
274
     4
283
     0
284
     8
340
11
371
    -1
372
    -1
1001
ACAD_DSTYLE_DIMJOGGED_JOGANGLE_SYMBOL
1070
   384
1040
0.7853981633974483
1001
ACAD_DSTYLE_DIMARC_LENGTH_SYMBOL
1070
   379
1070
     1
  0
DIMSTYLE
105
82
330
A
100
AcDbSymbolTableRecord
100
AcDbDimStyleTableRecord
  2
AM_ISO$3
 70
     0
  4
"
 41
2.5
 42
1.0
 43
10.0
 44
1.0
 47
0.1
 48
0.1
 73
     0
 77
     1
 78
     8
 79
     2
140
3.5
141
0.0
143
0.0393701
146
0.71
147
1.5
176
   256
177
   256
178
     2
271
     2
272
     3
274
     4
283
     0
284
     8
288
     1
289
     0
340
11
371
    -1
372
    -1
1001
ACAD_DSTYLE_DIMJOGGED_JOGANGLE_SYMBOL
1070
   384
1040
0.7853981633974483
1001
ACAD_DSTYLE_DIMARC_LENGTH_SYMBOL
1070
   379
1070
     1
  0
DIMSTYLE
105
83
330
A
100
AcDbSymbolTableRecord
100
AcDbDimStyleTableRecord
  2
AM_ISO$4
 70
     0
  4
"
 41
2.5
 42
1.0
 43
10.0
 44
1.0
 47
0.1
 48
0.1
 73
     0
 77
     1
 78
     8
 79
     2
140
3.5
141
0.0
143
0.0393701
146
0.71
147
1.5
176
   256
177
   256
178
     2
271
     2
272
     3
274
     4
283
     0
284
     8
288
     1
289
     0
340
11
371
    -1
372
    -1
1001
ACAD_DSTYLE_DIMJOGGED_JOGANGLE_SYMBOL
1070
   384
1040
0.7853981633974483
1001
ACAD_DSTYLE_DIMARC_LENGTH_SYMBOL
1070
   379
1070
     1
  0
DIMSTYLE
105
84
330
A
100
AcDbSymbolTableRecord
100
AcDbDimStyleTableRecord
  2
AM_ISO$6
 70
     0
  4
"
 41
2.5
 42
1.0
 43
10.0
 44
1.0
 47
0.1
 48
0.1
 73
     0
 74
     0
 78
     8
 79
     2
140
3.5
141
0.0
143
0.0393701
146
0.71
147
1.5
172
     1
176
   256
177
   256
178
     2
271
     2
272
     3
274
     4
283
     0
284
     8
340
11
371
    -1
372
    -1
1001
ACAD_DSTYLE_DIMJOGGED_JOGANGLE_SYMBOL
1070
   384
1040
0.7853981633974483
1001
ACAD_DSTYLE_DIMARC_LENGTH_SYMBOL
1070
   379
1070
     1
  0
DIMSTYLE
105
85
330
A
100
AcDbSymbolTableRecord
100
AcDbDimStyleTableRecord
  2
AM_ISO$7
 70
     0
  4
"
 41
2.5
 42
1.0
 43
10.0
 44
1.0
 47
0.1
 48
0.1
 73
     0
 74
     0
 77
     1
 78
     8
 79
     2
140
5.0
141
0.0
143
0.0393701
146
0.71
147
1.5
172
     1
176
   256
177
   256
178
     2
271
     2
272
     3
274
     4
283
     0
284
     8
340
11
371
    -1
372
    -1
1001
ACAD_DSTYLE_DIMJOGGED_JOGANGLE_SYMBOL
1070
   384
1040
0.7853981633974483
1001
ACAD_DSTYLE_DIMARC_LENGTH_SYMBOL
1070
   379
1070
     1
  0
DIMSTYLE
105
86
330
A
100
AcDbSymbolTableRecord
100
AcDbDimStyleTableRecord
  2
AM_ISO$SF
 70
     0
  4
"
 41
2.5
 42
1.0
 43
10.0
 44
1.0
 47
0.1
 48
0.1
 73
     0
 74
     0
 75
     1
 76
     1
 77
     1
 78
     8
 79
     2
140
3.5
141
0.0
143
0.0393701
146
0.71
147
1.5
172
     1
176
   256
177
   256
178
     2
271
     2
272
     3
274
     4
283
     0
284
     8
340
11
371
    -1
372
    -1
1001
ACAD_DSTYLE_DIMJOGGED_JOGANGLE_SYMBOL
1070
   384
1040
0.7853981633974483
1001
ACAD_DSTYLE_DIMARC_LENGTH_SYMBOL
1070
   379
1070
     1
  0
DIMSTYLE
105
8B
330
A
100
AcDbSymbolTableRecord
100
AcDbDimStyleTableRecord
  2
AM_ISO$SH
 70
     0
  4
"
 41
2.5
 42
1.0
 43
10.0
 44
1.0
 47
0.1
 48
0.1
 73
     0
 74
     0
 75
     1
 76
     1
 77
     1
 78
     8
 79
     2
140
3.5
141
0.0
143
0.0393701
144
2.0
146
0.71
147
1.5
172
     1
173
     1
176
   256
177
   256
178
     2
271
     2
272
     3
274
     4
283
     0
284
     8
340
11
343
87
371
    -1
372
    -1
1001
ACAD_DSTYLE_DIMJOGGED_JOGANGLE_SYMBOL
1070
   384
1040
0.7853981633974483
1001
ACAD_DSTYLE_DIMARC_LENGTH_SYMBOL
1070
   379
1070
     1
  0
DIMSTYLE
105
2F0
102
{ACAD_REACTORS
330
BE3
102
}
330
A
100
AcDbSymbolTableRecord
100
AcDbDimStyleTableRecord
  2
AM_DIN
 70
     0
  4
"
 41
3.5
 42
1.0
 43
10.0
 44
1.0
 47
0.1
 48
0.1
 73
     0
 74
     0
 77
     1
 78
     8
 79
     2
140
3.5
141
0.0
143
0.0393701
146
0.71
147
1.5
172
     1
176
   256
177
   256
178
     2
271
     2
272
     3
274
     4
283
     0
284
     8
340
11
371
    -1
372
    -1
1001
ACAD_DSTYLE_DIMJOGGED_JOGANGLE_SYMBOL
1070
   384
1040
1.570796326794896
1001
ACAD_DSTYLE_DIM_LINETYPE
1070
   380
1005
14
1001
ACAD_DSTYLE_DIM_EXT1_LINETYPE
1070
   381
1005
14
1001
ACAD_DSTYLE_DIM_EXT2_LINETYPE
1070
   382
1005
14
  0
DIMSTYLE
105
301
330
A
100
AcDbSymbolTableRecord
100
AcDbDimStyleTableRecord
  2
AM_DIN$3
 70
     0
  4
"
 41
3.5
 42
1.0
 43
10.0
 44
1.0
 47
0.1
 48
0.1
 73
     0
 77
     1
 78
     8
 79
     2
140
3.5
141
0.0
143
0.0393701
146
0.71
147
1.5
176
   256
177
   256
178
     2
271
     2
272
     3
274
     4
283
     0
284
     8
288
     1
289
     0
340
11
371
    -1
372
    -1
1001
ACAD_DSTYLE_DIMJOGGED_JOGANGLE_SYMBOL
1070
   384
1040
1.570796326794896
1001
ACAD_DSTYLE_DIM_LINETYPE
1070
   380
1005
14
1001
ACAD_DSTYLE_DIM_EXT1_LINETYPE
1070
   381
1005
14
1001
ACAD_DSTYLE_DIM_EXT2_LINETYPE
1070
   382
1005
14
  0
DIMSTYLE
105
306
330
A
100
AcDbSymbolTableRecord
100
AcDbDimStyleTableRecord
  2
AM_DIN$4
 70
     0
  4
"
 41
3.5
 42
1.0
 43
10.0
 44
1.0
 47
0.1
 48
0.1
 73
     0
 74
     0
 77
     1
 78
     8
 79
     2
140
3.5
141
0.0
143
0.0393701
146
0.71
147
1.5
172
     1
176
   256
177
   256
178
     2
271
     2
272
     3
274
     4
283
     0
284
     8
340
11
371
    -1
372
    -1
1001
ACAD_DSTYLE_DIMJOGGED_JOGANGLE_SYMBOL
1070
   384
1040
1.570796326794896
1001
ACAD_DSTYLE_DIM_LINETYPE
1070
   380
1005
14
1001
ACAD_DSTYLE_DIM_EXT1_LINETYPE
1070
   381
1005
14
1001
ACAD_DSTYLE_DIM_EXT2_LINETYPE
1070
   382
1005
14
  0
DIMSTYLE
105
30B
330
A
100
AcDbSymbolTableRecord
100
AcDbDimStyleTableRecord
  2
AM_DIN$6
 70
     0
  4
"
 41
3.5
 42
1.0
 43
10.0
 44
1.0
 47
0.1
 48
0.1
 73
     0
 74
     0
 78
     8
 79
     2
140
3.5
141
0.0
143
0.0393701
146
0.71
147
1.5
172
     1
176
   256
177
   256
178
     2
271
     2
272
     3
274
     4
283
     0
284
     8
340
11
371
    -1
372
    -1
1001
ACAD_DSTYLE_DIMJOGGED_JOGANGLE_SYMBOL
1070
   384
1040
1.570796326794896
1001
ACAD_DSTYLE_DIM_LINETYPE
1070
   380
1005
14
1001
ACAD_DSTYLE_DIM_EXT1_LINETYPE
1070
   381
1005
14
1001
ACAD_DSTYLE_DIM_EXT2_LINETYPE
1070
   382
1005
14
  0
DIMSTYLE
105
310
330
A
100
AcDbSymbolTableRecord
100
AcDbDimStyleTableRecord
  2
AM_DIN$7
 70
     0
  4
"
 41
3.5
 42
1.0
 43
10.0
 44
1.0
 47
0.1
 48
0.1
 73
     0
 74
     0
 77
     1
 78
     8
 79
     2
140
3.5
141
0.0
143
0.0393701
146
0.71
147
1.5
172
     1
176
   256
177
   256
178
     2
271
     2
272
     3
274
     4
283
     0
284
     8
340
11
371
    -1
372
    -1
1001
ACAD_DSTYLE_DIMJOGGED_JOGANGLE_SYMBOL
1070
   384
1040
1.570796326794896
1001
ACAD_DSTYLE_DIM_LINETYPE
1070
   380
1005
14
1001
ACAD_DSTYLE_DIM_EXT1_LINETYPE
1070
   381
1005
14
1001
ACAD_DSTYLE_DIM_EXT2_LINETYPE
1070
   382
1005
14
  0
DIMSTYLE
105
315
330
A
100
AcDbSymbolTableRecord
100
AcDbDimStyleTableRecord
  2
AM_DIN$SF
 70
     0
  4
"
 41
3.5
 42
1.0
 43
10.0
 44
1.0
 47
0.1
 48
0.1
 73
     0
 74
     0
 75
     1
 76
     1
 77
     1
 78
     8
 79
     2
140
3.5
141
0.0
143
0.0393701
146
0.71
147
1.5
172
     1
176
   256
177
   256
178
     2
271
     2
272
     3
274
     4
283
     0
284
     8
340
11
371
    -1
372
    -1
1001
ACAD_DSTYLE_DIMJOGGED_JOGANGLE_SYMBOL
1070
   384
1040
1.570796326794896
1001
ACAD_DSTYLE_DIM_LINETYPE
1070
   380
1005
14
1001
ACAD_DSTYLE_DIM_EXT1_LINETYPE
1070
   381
1005
14
1001
ACAD_DSTYLE_DIM_EXT2_LINETYPE
1070
   382
1005
14
  0
DIMSTYLE
105
31A
330
A
100
AcDbSymbolTableRecord
100
AcDbDimStyleTableRecord
  2
AM_DIN$SH
 70
     0
  4
"
 41
3.5
 42
1.0
 43
10.0
 44
1.0
 47
0.1
 48
0.1
 73
     0
 74
     0
 75
     1
 76
     1
 77
     1
 78
     8
 79
     2
140
3.5
141
0.0
143
0.0393701
144
2.0
146
0.71
147
1.5
172
     1
173
     1
176
   256
177
   256
178
     2
271
     2
272
     3
274
     4
283
     0
284
     8
340
11
343
87
371
    -1
372
    -1
1001
ACAD_DSTYLE_DIMJOGGED_JOGANGLE_SYMBOL
1070
   384
1040
1.570796326794896
1001
ACAD_DSTYLE_DIM_LINETYPE
1070
   380
1005
14
1001
ACAD_DSTYLE_DIM_EXT1_LINETYPE
1070
   381
1005
14
1001
ACAD_DSTYLE_DIM_EXT2_LINETYPE
1070
   382
1005
14
  0
DIMSTYLE
105
683
102
{ACAD_REACTORS
330
774
330
775
330
776
330
778
330
779
330
77A
330
781
330
784
330
9FB
102
}
330
A
100
AcDbSymbolTableRecord
100
AcDbDimStyleTableRecord
  2
AM_DIN$0
 70
     0
  4
"
 41
3.5
 42
1.0
 43
10.0
 44
1.0
 47
0.1
 48
0.1
 73
     0
 74
     0
 77
     1
 78
     8
 79
     2
140
3.5
141
0.0
143
0.0393701
146
0.71
147
1.5
172
     1
176
   256
177
   256
178
     2
271
     2
272
     3
274
     4
283
     0
284
     8
340
11
371
    -1
372
    -1
1001
ACAD_DSTYLE_DIMJOGGED_JOGANGLE_SYMBOL
1070
   384
1040
1.570796326794896
1001
ACAD_DSTYLE_DIM_LINETYPE
1070
   380
1005
14
1001
ACAD_DSTYLE_DIM_EXT1_LINETYPE
1070
   381
1005
14
1001
ACAD_DSTYLE_DIM_EXT2_LINETYPE
1070
   382
1005
14
  0
DIMSTYLE
105
94A
330
A
100
AcDbSymbolTableRecord
100
AcDbDimStyleTableRecord
  2
GEN-ISO
 70
     0
  3
<>
  4
"
 40
20.0
 41
2.5
 42
1.0
 43
7.0
 44
1.0
 47
0.1
 48
0.1
 73
     0
 74
     0
 77
     1
 78
     8
140
3.5
141
0.0
143
0.0393701
146
0.71
147
0.6
172
     1
176
   256
177
   256
178
     2
271
     2
272
     3
274
     4
283
     0
340
11
  0
ENDTAB
  0
TABLE
  2
BLOCK_RECORD
  5
1
330
0
100
AcDbSymbolTable
 70
    25
  0
BLOCK_RECORD
  5
1F
102
{ACAD_XDICTIONARY
360
8F
102
}
330
1
100
AcDbSymbolTableRecord
100
AcDbBlockTableRecord
  2
*Model_Space
340
22
  0
BLOCK_RECORD
  5
1B
330
1
100
AcDbSymbolTableRecord
100
AcDbBlockTableRecord
  2
*Paper_Space
340
1E
  0
BLOCK_RECORD
  5
23
330
1
100
AcDbSymbolTableRecord
100
AcDbBlockTableRecord
  2
*Paper_Space0
340
26
  0
BLOCK_RECORD
  5
87
330
1
100
AcDbSymbolTableRecord
100
AcDbBlockTableRecord
  2
GENAXEH
340
0
  0
BLOCK_RECORD
  5
5C1
330
1
100
AcDbSymbolTableRecord
100
AcDbBlockTableRecord
  2
stutzen
340
0
310
2800000020000000200000000100080000000000000400000000000000000000000000000000000000000000000080000080000000808000800000008000800080800000C0C0C000C0DCC000F0CAA6000020400000206000002080000020A0000020C0000020E00000400000004020000040400000406000004080000040A0
310
000040C0000040E00000600000006020000060400000606000006080000060A0000060C0000060E00000800000008020000080400000806000008080000080A0000080C0000080E00000A0000000A0200000A0400000A0600000A0800000A0A00000A0C00000A0E00000C0000000C0200000C0400000C0600000C0800000C0
310
A00000C0C00000C0E00000E0000000E0200000E0400000E0600000E0800000E0A00000E0C00000E0E00040000000400020004000400040006000400080004000A0004000C0004000E00040200000402020004020400040206000402080004020A0004020C0004020E000404000004040200040404000404060004040800040
310
40A0004040C0004040E00040600000406020004060400040606000406080004060A0004060C0004060E00040800000408020004080400040806000408080004080A0004080C0004080E00040A0000040A0200040A0400040A0600040A0800040A0A00040A0C00040A0E00040C0000040C0200040C0400040C0600040C08000
310
40C0A00040C0C00040C0E00040E0000040E0200040E0400040E0600040E0800040E0A00040E0C00040E0E00080000000800020008000400080006000800080008000A0008000C0008000E00080200000802020008020400080206000802080008020A0008020C0008020E00080400000804020008040400080406000804080
310
008040A0008040C0008040E00080600000806020008060400080606000806080008060A0008060C0008060E00080800000808020008080400080806000808080008080A0008080C0008080E00080A0000080A0200080A0400080A0600080A0800080A0A00080A0C00080A0E00080C0000080C0200080C0400080C0600080C0
310
800080C0A00080C0C00080C0E00080E0000080E0200080E0400080E0600080E0800080E0A00080E0C00080E0E000C0000000C0002000C0004000C0006000C0008000C000A000C000C000C000E000C0200000C0202000C0204000C0206000C0208000C020A000C020C000C020E000C0400000C0402000C0404000C0406000C0
310
408000C040A000C040C000C040E000C0600000C0602000C0604000C0606000C0608000C060A000C060C000C060E000C0800000C0802000C0804000C0806000C0808000C080A000C080C000C080E000C0A00000C0A02000C0A04000C0A06000C0A08000C0A0A000C0A0C000C0A0E000C0C00000C0C02000C0C04000C0C06000
310
C0C08000C0C0A000F0FBFF00A4A0A000808080000000FF0000FF000000FFFF00FF000000FF00FF00FFFF0000FFFFFF00000000000000000000000000000000000000000000000000000000000000000000000000000000000000000000000000FE0000000000000000000000000000000000000000000000FFFFFFFFFFFFFF
310
FFFFFFFFFFFFFFFFFF00000000000000000000000000000000FFFF000000000000FE0000000000FFFF0000000000000000000000000000F9FFFFFF070707070707070707070707FFFFFFF90000000000000000000000F9FFF9FFFFFFFFFFFFFFFFFFFFFFFFFFFFFFFFF9FFF900000000000000000000F9FF07070707070707
310
0707070707070707070707FFFF00000000000000000000F900000000000000000000FE000000000000000000F900000000000000000000F900000000000000000000FE000000000000000000F900000000000000000000FF00000000000000000000FE000000000000000000F900000000000000000000F900000000000000
310
000000FE000000000000000000F900000000000000000000F900000000000000000000FE000000000000000000FF00000000000000000000F900000000000000000000FE000000000000000000F900000000000000000000F900000000000000000000FE000000000000000000FF00000000000000000000FF000000000000
310
00000000FE000000000000000000F900000000000000000000F900000000000000000000FE000000000000000000F900000000000000000000FF00000000000000000000FE000000000000000000F900000000000000000000F900000000000000000000FE000000000000000000F900000000000000000000F90000000000
310
0000000000FE000000000000000000FF00000000000000000000F900000000000000000000FE000000000000000000F900000000000000000000F900000000000000000000FE000000000000000000F900000000000000000000FF00000000000000000000FE000000000000000000F900000000000000000000F900000000
310
000000000000FE000000000000000000F900000000000000000000FF00000000000000000000FE000000000000000000F900000000000000000000F900000000000000000000FE000000000000000000F900000000000000000000F900000000000000000000FE000000000000000000FF00000000000000000000F9000000
310
00000000000000FE000000000000000000F900000000000000000000F900000000000000000000FE000000000000000000F900000000000000000000FF00000000000000000000FE000000000000000000F900000000000000000000FBFFFFFFFFFFFFFFFFFFFFFFFFFFFFFFFFFFFFFFFFFF00000000000000000000000000
310
0000000000000000FE0000000000000000000000000000000000000000000000000000000000000000000000000000000000000000000000
102
{BLKREFS
331
764
102
}
  0
BLOCK_RECORD
  5
5FF
330
1
100
AcDbSymbolTableRecord
100
AcDbBlockTableRecord
  2
fklö
340
0
310
2800000020000000200000000100080000000000000400000000000000000000000000000000000000000000000080000080000000808000800000008000800080800000C0C0C000C0DCC000F0CAA6000020400000206000002080000020A0000020C0000020E00000400000004020000040400000406000004080000040A0
310
000040C0000040E00000600000006020000060400000606000006080000060A0000060C0000060E00000800000008020000080400000806000008080000080A0000080C0000080E00000A0000000A0200000A0400000A0600000A0800000A0A00000A0C00000A0E00000C0000000C0200000C0400000C0600000C0800000C0
310
A00000C0C00000C0E00000E0000000E0200000E0400000E0600000E0800000E0A00000E0C00000E0E00040000000400020004000400040006000400080004000A0004000C0004000E00040200000402020004020400040206000402080004020A0004020C0004020E000404000004040200040404000404060004040800040
310
40A0004040C0004040E00040600000406020004060400040606000406080004060A0004060C0004060E00040800000408020004080400040806000408080004080A0004080C0004080E00040A0000040A0200040A0400040A0600040A0800040A0A00040A0C00040A0E00040C0000040C0200040C0400040C0600040C08000
310
40C0A00040C0C00040C0E00040E0000040E0200040E0400040E0600040E0800040E0A00040E0C00040E0E00080000000800020008000400080006000800080008000A0008000C0008000E00080200000802020008020400080206000802080008020A0008020C0008020E00080400000804020008040400080406000804080
310
008040A0008040C0008040E00080600000806020008060400080606000806080008060A0008060C0008060E00080800000808020008080400080806000808080008080A0008080C0008080E00080A0000080A0200080A0400080A0600080A0800080A0A00080A0C00080A0E00080C0000080C0200080C0400080C0600080C0
310
800080C0A00080C0C00080C0E00080E0000080E0200080E0400080E0600080E0800080E0A00080E0C00080E0E000C0000000C0002000C0004000C0006000C0008000C000A000C000C000C000E000C0200000C0202000C0204000C0206000C0208000C020A000C020C000C020E000C0400000C0402000C0404000C0406000C0
310
408000C040A000C040C000C040E000C0600000C0602000C0604000C0606000C0608000C060A000C060C000C060E000C0800000C0802000C0804000C0806000C0808000C080A000C080C000C080E000C0A00000C0A02000C0A04000C0A06000C0A08000C0A0A000C0A0C000C0A0E000C0C00000C0C02000C0C04000C0C06000
310
C0C08000C0C0A000F0FBFF00A4A0A000808080000000FF0000FF000000FFFF00FF000000FF00FF00FFFF0000FFFFFF00000000000000000000000000000000000000000000000000000000000000000000000000000000000000000000000000FE000000000000000000000000000000000000000000000000000000000000
310
00FE000000000000000000000000000000000000FBFFFFFFFFFFFFFFFFFFFFFFFFFFFFFFFFFFFFFFFFFFFFFFFFFF000000000000FF000000000000000000000000FE0000000000000000000000FF000000000000FF000000000000000000000000FE0000000000000000000000FF000000000000FF00000000000000000000
310
0000FE0000000000000000000000FB000000000000FF000000000000000000000000FE0000000000000000000000FB000000000000FF000000000000000000000000FE0000000000000000000000FF000000000000FB000000000000000000000000FE0000000000000000000000FF000000000000FB000000000000000000
310
000000FE0000000000000000000000FF000000000000FF000000000000000000000000FE0000000000000000000000FF000000000000FF000000000000000000000000FE0000000000000000000000FB000000000000FF000000000000000000000000FE0000000000000000000000FB000000000000FF0000000000000000
310
00000000FE0000000000000000000000FF000000000000FF000000000000000000000000FE0000000000000000000000FF000000000000FB000000000000000000000000FE0000000000000000000000FF000000000000FB000000000000000000000000FE0000000000000000000000FF000000000000FF00000000000000
310
0000000000FE0000000000000000000000FF000000000000FF000000000000000000000000FE0000000000000000000000FB000000000000FF000000000000000000000000FE0000000000000000000000FB000000000000FF000000000000000000000000FE0000000000000000000000FF000000000000FB000000000000
310
000000000000FE0000000000000000000000FF000000000000FB000000000000000000000000FE0000000000000000000000FF000000000000FF000000000000000000000000FE0000000000000000000000FF000000000000FF000000000000000000000000FE0000000000000000000000FF000000000000FF0000000000
310
00000000000000FE0000000000000000000000FB000000000000FF000000000000000000000000FE0000000000000000000000FB000000000000FFFFFFFFFFFFFFFFFFFFFFFFFFFFFFFFFFFFFFFFFFFFFFFFFFFF00000000000000000000000000000000000000FE0000000000000000000000000000000000000000000000
310
0000000000000000FE0000000000000000000000000000000000000000000000000000000000000000000000000000000000000000000000
  0
BLOCK_RECORD
  5
611
330
1
100
AcDbSymbolTableRecord
100
AcDbBlockTableRecord
  2
*D4
340
0
  0
BLOCK_RECORD
  5
61D
330
1
100
AcDbSymbolTableRecord
100
AcDbBlockTableRecord
  2
*D5
340
0
  0
BLOCK_RECORD
  5
629
330
1
100
AcDbSymbolTableRecord
100
AcDbBlockTableRecord
  2
*D6
340
0
  0
BLOCK_RECORD
  5
635
330
1
100
AcDbSymbolTableRecord
100
AcDbBlockTableRecord
  2
*D7
340
0
  0
BLOCK_RECORD
  5
641
330
1
100
AcDbSymbolTableRecord
100
AcDbBlockTableRecord
  2
*D8
340
0
  0
BLOCK_RECORD
  5
64D
330
1
100
AcDbSymbolTableRecord
100
AcDbBlockTableRecord
  2
*D9
340
0
  0
BLOCK_RECORD
  5
659
330
1
100
AcDbSymbolTableRecord
100
AcDbBlockTableRecord
  2
*D10
340
0
  0
BLOCK_RECORD
  5
667
330
1
100
AcDbSymbolTableRecord
100
AcDbBlockTableRecord
  2
*D11
340
0
  0
BLOCK_RECORD
  5
788
330
1
100
AcDbSymbolTableRecord
100
AcDbBlockTableRecord
  2
*D12
340
0
  0
BLOCK_RECORD
  5
794
330
1
100
AcDbSymbolTableRecord
100
AcDbBlockTableRecord
  2
*D13
340
0
  0
BLOCK_RECORD
  5
7A0
330
1
100
AcDbSymbolTableRecord
100
AcDbBlockTableRecord
  2
*D14
340
0
  0
BLOCK_RECORD
  5
7AC
330
1
100
AcDbSymbolTableRecord
100
AcDbBlockTableRecord
  2
*D15
340
0
  0
BLOCK_RECORD
  5
7B8
330
1
100
AcDbSymbolTableRecord
100
AcDbBlockTableRecord
  2
*D16
340
0
  0
BLOCK_RECORD
  5
7C4
330
1
100
AcDbSymbolTableRecord
100
AcDbBlockTableRecord
  2
*D17
340
0
  0
BLOCK_RECORD
  5
7D0
330
1
100
AcDbSymbolTableRecord
100
AcDbBlockTableRecord
  2
*D18
340
0
  0
BLOCK_RECORD
  5
7DE
330
1
100
AcDbSymbolTableRecord
100
AcDbBlockTableRecord
  2
*D19
340
0
  0
BLOCK_RECORD
  5
9FC
330
1
100
AcDbSymbolTableRecord
100
AcDbBlockTableRecord
  2
*D20
340
0
  0
BLOCK_RECORD
  5
A26
330
1
100
AcDbSymbolTableRecord
100
AcDbBlockTableRecord
  2
*D21
340
0
  0
ENDTAB
  0
ENDSEC
  0
SECTION
  2
BLOCKS
  0
BLOCK
  5
20
330
1F
100
AcDbEntity
  8
0
100
AcDbBlockBegin
  2
*Model_Space
 70
     0
 10
0.0
 20
0.0
 30
0.0
  3
*Model_Space
  1

  0
ENDBLK
  5
21
330
1F
100
AcDbEntity
  8
0
100
AcDbBlockEnd
  0
BLOCK
  5
1C
330
1B
100
AcDbEntity
 67
     1
  8
0
100
AcDbBlockBegin
  2
*Paper_Space
 70
     0
 10
0.0
 20
0.0
 30
0.0
  3
*Paper_Space
  1

  0
ENDBLK
  5
1D
330
1B
100
AcDbEntity
 67
     1
  8
0
100
AcDbBlockEnd
  0
BLOCK
  5
24
330
23
100
AcDbEntity
 67
     1
  8
0
100
AcDbBlockBegin
  2
*Paper_Space0
 70
     0
 10
0.0
 20
0.0
 30
0.0
  3
*Paper_Space0
  1

  0
ENDBLK
  5
25
330
23
100
AcDbEntity
 67
     1
  8
0
100
AcDbBlockEnd
  0
BLOCK
  5
89
330
87
100
AcDbEntity
  8
0
100
AcDbBlockBegin
  2
GENAXEH
 70
     0
 10
0.0
 20
0.0
 30
0.0
  3
GENAXEH
  1

  0
LINE
  5
88
330
87
100
AcDbEntity
  8
0
100
AcDbLine
 10
-1.0
 20
0.0
 30
0.0
 11
1.0
 21
0.0
 31
0.0
  0
ENDBLK
  5
8A
330
87
100
AcDbEntity
  8
0
100
AcDbBlockEnd
  0
BLOCK
  5
5C2
330
5C1
100
AcDbEntity
  8
0
100
AcDbBlockBegin
  2
stutzen
 70
     0
 10
0.0
 20
0.0
 30
0.0
  3
stutzen
  1

  0
LINE
  5
5C3
330
5C1
100
AcDbEntity
  8
0
  6
Continuous
 62
     2
100
AcDbLine
 10
5583.692362419846
 20
3572.388833737998
 30
0.0
 11
5585.24221523384
 21
3573.938686551999
 31
0.0
  0
LINE
  5
5C4
330
5C1
100
AcDbEntity
  8
KLIN
  6
ByBlock
100
AcDbLine
 10
5583.692362419846
 20
3512.779110133001
 30
0.0
 11
5593.692362419846
 21
3522.779110133001
 31
0.0
  0
LINE
  5
5C5
330
5C1
100
AcDbEntity
  8
KLIN
  6
ByBlock
100
AcDbLine
 10
5583.692362419846
 20
3453.169386528003
 30
0.0
 11
5593.692362419846
 21
3463.169386528003
 31
0.0
  0
LINE
  5
5C6
330
5C1
100
AcDbEntity
  8
KLIN
  6
ByBlock
100
AcDbLine
 10
5583.692362419846
 20
3393.559662922001
 30
0.0
 11
5593.692362419846
 21
3403.559662922002
 31
0.0
  0
LINE
  5
5C7
330
5C1
100
AcDbEntity
  8
0
  6
Continuous
 62
     7
100
AcDbLine
 10
6203.692362419847
 20
2658.938686551999
 30
0.0
 11
5703.692362419847
 21
2658.938686551999
 31
0.0
  0
LINE
  5
5C8
330
5C1
100
AcDbEntity
  8
KLIN
  6
ByBlock
100
AcDbLine
 10
5583.692362419846
 20
3333.949939317005
 30
0.0
 11
5593.692362419846
 21
3343.949939317005
 31
0.0
  0
LINE
  5
5C9
330
5C1
100
AcDbEntity
  8
0
  6
Continuous
 62
     9
100
AcDbLine
 10
6193.692362419846
 20
2708.938686551999
 30
0.0
 11
5713.692362419846
 21
2708.938686551999
 31
0.0
  0
LINE
  5
5CA
330
5C1
100
AcDbEntity
  8
0
  6
Continuous
 62
     7
100
AcDbLine
 10
6263.692362419846
 20
2728.938686551999
 30
0.0
 11
6223.692362419846
 21
2728.938686551999
 31
0.0
  0
LINE
  5
5CB
330
5C1
100
AcDbEntity
  8
0
  6
Continuous
 62
     7
100
AcDbLine
 10
5683.692362419846
 20
2728.938686551999
 30
0.0
 11
5643.692362419846
 21
2728.938686551999
 31
0.0
  0
LINE
  5
5CC
330
5C1
100
AcDbEntity
  8
0
  6
Continuous
 62
     7
100
AcDbLine
 10
5583.692362419846
 20
3573.938686551999
 30
0.0
 11
5583.692362419846
 21
2788.938686551999
 31
0.0
  0
LINE
  5
5CD
330
5C1
100
AcDbEntity
  8
0
  6
Continuous
 62
     7
100
AcDbLine
 10
5593.692362419846
 20
3573.938686551999
 30
0.0
 11
5593.692362419846
 21
2788.938686551999
 31
0.0
  0
LINE
  5
5CE
330
5C1
100
AcDbEntity
  8
KLIN
  6
ByBlock
100
AcDbLine
 10
5583.692362419846
 20
3274.340215711
 30
0.0
 11
5593.692362419846
 21
3284.340215710999
 31
0.0
  0
LINE
  5
5CF
330
5C1
100
AcDbEntity
  8
0
  6
Continuous
 62
     7
100
AcDbLine
 10
6263.692362419846
 20
2738.938686551999
 30
0.0
 11
5643.692362419846
 21
2738.938686551999
 31
0.0
  0
LINE
  5
5D0
330
5C1
100
AcDbEntity
  8
KLIN
  6
ByBlock
100
AcDbLine
 10
5583.692362419846
 20
3214.730492105998
 30
0.0
 11
5593.692362419846
 21
3224.730492106
 31
0.0
  0
LINE
  5
5D1
330
5C1
100
AcDbEntity
  8
0
  6
Continuous
 62
     9
100
AcDbLine
 10
5593.692362419846
 20
2788.938686551999
 30
0.0
 11
6313.692362419846
 21
2788.938686551999
 31
0.0
  0
LINE
  5
5D2
330
5C1
100
AcDbEntity
  8
KLIN
  6
ByBlock
100
AcDbLine
 10
5583.692362419846
 20
3155.120768500002
 30
0.0
 11
5593.692362419846
 21
3165.120768500001
 31
0.0
  0
LINE
  5
5D3
330
5C1
100
AcDbEntity
  8
0
  6
Continuous
 62
     7
100
AcDbLine
 10
5703.692362419847
 20
2708.938686551999
 30
0.0
 11
5703.692362419847
 21
2658.938686551999
 31
0.0
  0
LINE
  5
5D4
330
5C1
100
AcDbEntity
  8
0
  6
Continuous
 62
     7
100
AcDbLine
 10
5713.692362419846
 20
2708.938686551999
 30
0.0
 11
5713.692362419846
 21
2658.938686551999
 31
0.0
  0
LINE
  5
5D5
330
5C1
100
AcDbEntity
  8
KLIN
  6
ByBlock
100
AcDbLine
 10
5583.692362419846
 20
3095.511044895
 30
0.0
 11
5593.692362419846
 21
3105.511044895
 31
0.0
  0
LINE
  5
5D6
330
5C1
100
AcDbEntity
  8
KLIN
  6
ByBlock
100
AcDbLine
 10
5583.692362419846
 20
3035.901321289002
 30
0.0
 11
5593.692362419846
 21
3045.901321289003
 31
0.0
  0
LINE
  5
5D7
330
5C1
100
AcDbEntity
  8
KLIN
  6
ByBlock
100
AcDbLine
 10
5583.692362419846
 20
2976.291597684001
 30
0.0
 11
5593.692362419846
 21
2986.291597684001
 31
0.0
  0
LINE
  5
5D8
330
5C1
100
AcDbEntity
  8
KLIN
  6
ByBlock
100
AcDbLine
 10
5583.692362419846
 20
2916.681874078004
 30
0.0
 11
5593.692362419846
 21
2926.681874078004
 31
0.0
  0
LINE
  5
5D9
330
5C1
100
AcDbEntity
  8
KLIN
  6
ByBlock
100
AcDbLine
 10
5583.692362419846
 20
2857.072150472999
 30
0.0
 11
5593.692362419846
 21
2867.072150472999
 31
0.0
  0
LINE
  5
5DA
330
5C1
100
AcDbEntity
  8
KLIN
  6
ByBlock
100
AcDbLine
 10
5583.692362419846
 20
2797.462426867002
 30
0.0
 11
5593.692362419846
 21
2807.462426867001
 31
0.0
  0
LINE
  5
5DB
330
5C1
100
AcDbEntity
  8
KLIN
  6
ByBlock
100
AcDbLine
 10
6313.692362419846
 20
3527.462426867002
 30
0.0
 11
6323.692362419846
 21
3537.462426867001
 31
0.0
  0
LINE
  5
5DC
330
5C1
100
AcDbEntity
  8
7A
100
AcDbLine
 10
5953.692362419847
 20
2628.938686551999
 30
0.0
 11
5953.692362419847
 21
3603.938686552
 31
0.0
  0
LINE
  5
5DD
330
5C1
100
AcDbEntity
  8
KLIN
  6
ByBlock
100
AcDbLine
 10
5597.058898933843
 20
2751.219239776001
 30
0.0
 11
5604.198228947839
 21
2758.358569790002
 31
0.0
  0
LINE
  5
5DE
330
5C1
100
AcDbEntity
  8
KLIN
  6
ByBlock
100
AcDbLine
 10
6313.692362419846
 20
3467.852703262
 30
0.0
 11
6323.692362419846
 21
3477.852703262001
 31
0.0
  0
LINE
  5
5DF
330
5C1
100
AcDbEntity
  8
KLIN
  6
ByBlock
100
AcDbLine
 10
5635.082190905843
 20
2729.632808142
 30
0.0
 11
5644.388069315843
 21
2738.938686551999
 31
0.0
  0
LINE
  5
5E0
330
5C1
100
AcDbEntity
  8
KLIN
  6
ByBlock
100
AcDbLine
 10
6313.692362419846
 20
3408.242979656003
 30
0.0
 11
6323.692362419846
 21
3418.242979656003
 31
0.0
  0
LINE
  5
5E1
330
5C1
100
AcDbEntity
  8
KLIN
  6
ByBlock
100
AcDbLine
 10
5692.120413673838
 20
2727.061307305001
 30
0.0
 11
5699.488629873842
 21
2734.429523505002
 31
0.0
  0
LINE
  5
5E2
330
5C1
100
AcDbEntity
  8
KLIN
  6
ByBlock
100
AcDbLine
 10
6313.692362419846
 20
3348.633256051002
 30
0.0
 11
6323.692362419846
 21
3358.633256051002
 31
0.0
  0
LINE
  5
5E3
330
5C1
100
AcDbEntity
  8
KLIN
  6
ByBlock
100
AcDbLine
 10
5703.692362419847
 20
2679.023532445004
 30
0.0
 11
5713.692362419846
 21
2689.023532445004
 31
0.0
  0
LINE
  5
5E4
330
5C1
100
AcDbEntity
  8
KLIN
  6
ByBlock
100
AcDbLine
 10
6313.692362419846
 20
3289.023532445004
 30
0.0
 11
6323.692362419846
 21
3299.023532445004
 31
0.0
  0
LINE
  5
5E5
330
5C1
100
AcDbEntity
  8
KLIN
  6
ByBlock
100
AcDbLine
 10
6313.692362419846
 20
3229.41380884
 30
0.0
 11
6323.692362419846
 21
3239.41380884
 31
0.0
  0
LINE
  5
5E6
330
5C1
100
AcDbEntity
  8
0
  6
Continuous
 62
     7
100
AcDbLine
 10
6193.692362419846
 20
2708.938686551999
 30
0.0
 11
6193.692362419846
 21
2658.938686551999
 31
0.0
  0
LINE
  5
5E7
330
5C1
100
AcDbEntity
  8
KLIN
  6
ByBlock
100
AcDbLine
 10
6313.692362419846
 20
3169.804085233999
 30
0.0
 11
6323.692362419846
 21
3179.804085233998
 31
0.0
  0
LINE
  5
5E8
330
5C1
100
AcDbEntity
  8
0
  6
Continuous
 62
     7
100
AcDbLine
 10
6203.692362419847
 20
2708.938686551999
 30
0.0
 11
6203.692362419847
 21
2658.938686551999
 31
0.0
  0
LINE
  5
5E9
330
5C1
100
AcDbEntity
  8
KLIN
  6
ByBlock
100
AcDbLine
 10
6313.692362419846
 20
3110.194361629001
 30
0.0
 11
6323.692362419846
 21
3120.194361629001
 31
0.0
  0
LINE
  5
5EA
330
5C1
100
AcDbEntity
  8
KLIN
  6
ByBlock
100
AcDbLine
 10
6313.692362419846
 20
3050.584638023
 30
0.0
 11
6323.692362419846
 21
3060.584638023
 31
0.0
  0
LINE
  5
5EB
330
5C1
100
AcDbEntity
  8
KLIN
  6
ByBlock
100
AcDbLine
 10
6313.692362419846
 20
2990.974914418002
 30
0.0
 11
6323.692362419846
 21
3000.974914418002
 31
0.0
  0
LINE
  5
5EC
330
5C1
100
AcDbEntity
  8
0
  6
Continuous
 62
     7
100
AcDbLine
 10
6313.692362419846
 20
3573.938686551999
 30
0.0
 11
6313.692362419846
 21
2788.938686551999
 31
0.0
  0
LINE
  5
5ED
330
5C1
100
AcDbEntity
  8
0
  6
Continuous
 62
     7
100
AcDbLine
 10
6323.692362419846
 20
3573.938686551999
 30
0.0
 11
6323.692362419846
 21
2788.938686551999
 31
0.0
  0
LINE
  5
5EE
330
5C1
100
AcDbEntity
  8
KLIN
  6
ByBlock
100
AcDbLine
 10
6313.692362419846
 20
2931.365190813002
 30
0.0
 11
6323.692362419846
 21
2941.365190813002
 31
0.0
  0
LINE
  5
5EF
330
5C1
100
AcDbEntity
  8
KLIN
  6
ByBlock
100
AcDbLine
 10
6313.692362419846
 20
2871.755467207004
 30
0.0
 11
6323.692362419846
 21
2881.755467207004
 31
0.0
  0
LINE
  5
5F0
330
5C1
100
AcDbEntity
  8
KLIN
  6
ByBlock
100
AcDbLine
 10
6313.692362419846
 20
2812.145743601999
 30
0.0
 11
6323.692362419846
 21
2822.145743601999
 31
0.0
  0
LINE
  5
5F1
330
5C1
100
AcDbEntity
  8
0
  6
Continuous
 62
     7
100
AcDbLine
 10
6323.692362419846
 20
3573.938686551999
 30
0.0
 11
5583.692362419846
 21
3573.938686551999
 31
0.0
  0
ARC
  5
5F2
330
5C1
100
AcDbEntity
  8
0
  6
Continuous
 62
     7
100
AcDbCircle
 10
6263.692362419846
 20
2788.938686551999
 30
0.0
 40
60.0
100
AcDbArc
 50
270.0
 51
0.0
  0
ARC
  5
5F3
330
5C1
100
AcDbEntity
  8
0
  6
Continuous
 62
     7
100
AcDbCircle
 10
5643.692362419846
 20
2788.938686551999
 30
0.0
 40
60.0
100
AcDbArc
 50
180.0
 51
270.0
  0
ARC
  5
5F4
330
5C1
100
AcDbEntity
  8
0
  6
Continuous
 62
     7
100
AcDbCircle
 10
5643.692362419846
 20
2788.938686551999
 30
0.0
 40
50.0
100
AcDbArc
 50
180.0
 51
270.0
  0
ARC
  5
5F5
330
5C1
100
AcDbEntity
  8
0
  6
Continuous
 62
     7
100
AcDbCircle
 10
6263.692362419846
 20
2788.938686551999
 30
0.0
 40
50.0
100
AcDbArc
 50
270.0
 51
0.0
  0
ARC
  5
5F6
330
5C1
100
AcDbEntity
  8
0
  6
Continuous
 62
     7
100
AcDbCircle
 10
6223.692362419846
 20
2708.938686551999
 30
0.0
 40
30.0
100
AcDbArc
 50
90.0
 51
180.0
  0
ARC
  5
5F7
330
5C1
100
AcDbEntity
  8
0
  6
Continuous
 62
     7
100
AcDbCircle
 10
5683.692362419846
 20
2708.938686551999
 30
0.0
 40
30.0
100
AcDbArc
 50
0.0
 51
90.0
  0
ARC
  5
5F8
330
5C1
100
AcDbEntity
  8
0
  6
Continuous
 62
     7
100
AcDbCircle
 10
6223.692362419846
 20
2708.938686551999
 30
0.0
 40
20.0
100
AcDbArc
 50
90.0
 51
180.0
  0
ARC
  5
5F9
330
5C1
100
AcDbEntity
  8
0
  6
Continuous
 62
     7
100
AcDbCircle
 10
5683.692362419846
 20
2708.938686551999
 30
0.0
 40
20.0
100
AcDbArc
 50
0.0
 51
90.0
  0
LINE
  5
5FA
330
5C1
100
AcDbEntity
  8
KLIN
  6
ByBlock
100
AcDbLine
 10
6310.325825905849
 20
2751.219239776001
 30
0.0
 11
6303.186495891853
 21
2758.358569790002
 31
0.0
  0
LINE
  5
5FB
330
5C1
100
AcDbEntity
  8
KLIN
  6
ByBlock
100
AcDbLine
 10
6272.302533933849
 20
2729.632808142
 30
0.0
 11
6262.996655523849
 21
2738.938686551999
 31
0.0
  0
LINE
  5
5FC
330
5C1
100
AcDbEntity
  8
KLIN
  6
ByBlock
100
AcDbLine
 10
6215.264311165855
 20
2727.061307305001
 30
0.0
 11
6207.89609496585
 21
2734.429523505002
 31
0.0
  0
LINE
  5
5FD
330
5C1
100
AcDbEntity
  8
KLIN
  6
ByBlock
100
AcDbLine
 10
6203.692362419847
 20
2679.023532445004
 30
0.0
 11
6193.692362419846
 21
2689.023532445004
 31
0.0
  0
ENDBLK
  5
5FE
330
5C1
100
AcDbEntity
  8
0
100
AcDbBlockEnd
  0
BLOCK
  5
600
330
5FF
100
AcDbEntity
  8
0
100
AcDbBlockBegin
  2
fklö
 70
     0
 10
0.0
 20
0.0
 30
0.0
  3
fklö
  1

  0
LINE
  5
601
330
5FF
100
AcDbEntity
  8
0
  6
Continuous
 62
     2
100
AcDbLine
 10
9574.808407686447
 20
1094.245064227623
 30
0.0
 11
9584.808407686447
 21
1115.690133432625
 31
0.0
  0
LINE
  5
602
330
5FF
100
AcDbEntity
  8
0
  6
Continuous
 62
     2
100
AcDbLine
 10
9574.808407686447
 20
1223.478428617625
 30
0.0
 11
9584.808407686447
 21
1244.923497822627
 31
0.0
  0
LINE
  5
603
330
5FF
100
AcDbEntity
  8
0
  6
Continuous
 62
     2
100
AcDbLine
 10
9574.808407686447
 20
1352.711793007627
 30
0.0
 11
9584.808407686447
 21
1374.156862212629
 31
0.0
  0
LINE
  5
604
330
5FF
100
AcDbEntity
  8
0
  6
Continuous
 62
     2
100
AcDbLine
 10
9574.808407686447
 20
1481.94515739863
 30
0.0
 11
9584.808407686447
 21
1503.390226603631
 31
0.0
  0
LINE
  5
605
330
5FF
100
AcDbEntity
  8
0
  6
Continuous
 62
     7
100
AcDbLine
 10
9584.808407686447
 20
1528.116201654636
 30
0.0
 11
9584.808407686447
 21
1043.116201654637
 31
0.0
  0
LINE
  5
606
330
5FF
100
AcDbEntity
  8
0
  6
Continuous
 62
     7
100
AcDbLine
 10
9574.808407686447
 20
1528.116201654636
 30
0.0
 11
9574.808407686447
 21
1043.116201654637
 31
0.0
  0
LINE
  5
607
330
5FF
100
AcDbEntity
  8
0
  6
Continuous
 62
     2
100
AcDbLine
 10
9090.866567481048
 20
1043.116201654637
 30
0.0
 11
9094.808407686448
 21
1051.569505254636
 31
0.0
  0
LINE
  5
608
330
5FF
100
AcDbEntity
  8
0
  6
Continuous
 62
     2
100
AcDbLine
 10
9084.808407686447
 20
1159.357800439637
 30
0.0
 11
9094.808407686448
 21
1180.80286964462
 31
0.0
  0
LINE
  5
609
330
5FF
100
AcDbEntity
  8
0
  6
Continuous
 62
     2
100
AcDbLine
 10
9084.808407686447
 20
1288.591164830621
 30
0.0
 11
9094.808407686448
 21
1310.036234035622
 31
0.0
  0
LINE
  5
60A
330
5FF
100
AcDbEntity
  8
0
  6
Continuous
 62
     2
100
AcDbLine
 10
9084.808407686447
 20
1417.824529220641
 30
0.0
 11
9094.808407686448
 21
1439.269598425642
 31
0.0
  0
LINE
  5
60B
330
5FF
100
AcDbEntity
  8
0
  6
Continuous
 62
     7
100
AcDbLine
 10
9094.808407686448
 20
1528.116201654636
 30
0.0
 11
9094.808407686448
 21
1043.116201654637
 31
0.0
  0
LINE
  5
60C
330
5FF
100
AcDbEntity
  8
0
  6
Continuous
 62
     7
100
AcDbLine
 10
9084.808407686447
 20
1528.116201654636
 30
0.0
 11
9084.808407686447
 21
1043.116201654637
 31
0.0
  0
LINE
  5
60D
330
5FF
100
AcDbEntity
  8
0
  6
Continuous
 62
     7
100
AcDbLine
 10
9584.808407686447
 20
1528.116201654636
 30
0.0
 11
9084.808407686447
 21
1528.116201654636
 31
0.0
  0
LINE
  5
60E
330
5FF
100
AcDbEntity
  8
0
100
AcDbLine
 10
9084.808407686447
 20
1043.116201654637
 30
0.0
 11
9584.808407686447
 21
1043.116201654637
 31
0.0
  0
LINE
  5
60F
330
5FF
100
AcDbEntity
  8
AM_7
100
AcDbLine
 10
9334.808407686447
 20
1558.116201654637
 30
0.0
 11
9334.808407686447
 21
1013.116201654637
 31
0.0
1001
GENIUS_GENODEF_13
1002
{
1000
HIER
1070
     0
1002
}
1002
{
1000
MANEDIT
1070
     0
1002
}
1002
{
1000
NOSEL
1070
     0
1002
}
1002
{
1000
BEHIND
1070
     0
1002
}
1002
{
1000
OTHER
1070
     0
1002
}
1002
{
1000
REACTOR
1002
}
1001
GENIUS_GENOBJ-N-CEN_13
1002
{
1000
OWNER
1000
GEN
1002
}
1001
GENIUS_GENCEN_19
1002
{
1040
3.0
1002
}
  0
ENDBLK
  5
610
330
5FF
100
AcDbEntity
  8
0
100
AcDbBlockEnd
  0
BLOCK
  5
612
330
611
100
AcDbEntity
  8
0
100
AcDbBlockBegin
  2
*D4
 70
     1
 10
0.0
 20
0.0
 30
0.0
  3
*D4
  1

  0
LINE
  5
613
330
611
100
AcDbEntity
  8
AM_5
  6
ByBlock
100
AcDbLine
 10
144.0111665837057
 20
160.1359722595784
 30
0.0
 11
144.0111665837057
 21
59.59768096320535
 31
0.0
  0
LINE
  5
614
330
611
100
AcDbEntity
  8
AM_5
  6
ByBlock
100
AcDbLine
 10
1344.011166583705
 20
160.1359722595784
 30
0.0
 11
1344.011166583705
 21
59.59768096320535
 31
0.0
  0
LINE
  5
615
330
611
100
AcDbEntity
  8
AM_5
  6
ByBlock
100
AcDbLine
 10
161.5111665837057
 20
64.59768096320535
 30
0.0
 11
1326.511166583705
 21
64.59768096320535
 31
0.0
  0
SOLID
  5
616
330
611
100
AcDbEntity
  8
AM_5
100
AcDbTrace
 10
161.5111665837057
 20
67.51434762987201
 30
0.0
 11
161.5111665837057
 21
61.68101429653867
 31
0.0
 12
144.0111665837057
 22
64.59768096320535
 32
0.0
 13
144.0111665837057
 23
64.59768096320535
 33
0.0
  0
SOLID
  5
617
330
611
100
AcDbEntity
  8
AM_5
100
AcDbTrace
 10
1326.511166583705
 20
67.51434762987201
 30
0.0
 11
1326.511166583705
 21
61.68101429653867
 31
0.0
 12
1344.011166583705
 22
64.59768096320535
 32
0.0
 13
1344.011166583705
 23
64.59768096320535
 33
0.0
  0
MTEXT
  5
618
330
611
100
AcDbEntity
  8
AM_5
 62
     2
100
AcDbMText
 10
741.4121963599373
 20
80.8494034041502
 30
0.0
 40
17.5
 41
0.0
 71
     5
 72
     1
  1
1200
 73
     1
 44
1.0
1001
ACAD
1000
MTEXTBEGIN
1070
    73
1070
     1
1070
    44
1040
1.0
1070
    74
1070
     0
1000
MTEXTEND
  0
POINT
  5
619
330
611
100
AcDbEntity
  8
DEFPOINTS
 62
     0
100
AcDbPoint
 10
144.0111665837057
 20
165.1359722595785
 30
0.0
  0
POINT
  5
61A
330
611
100
AcDbEntity
  8
DEFPOINTS
 62
     0
100
AcDbPoint
 10
1344.011166583705
 20
165.1359722595785
 30
0.0
  0
POINT
  5
61B
330
611
100
AcDbEntity
  8
DEFPOINTS
 62
     0
100
AcDbPoint
 10
1344.011166583705
 20
64.59768096320535
 30
0.0
  0
ENDBLK
  5
61C
330
611
100
AcDbEntity
  8
0
100
AcDbBlockEnd
  0
BLOCK
  5
61E
330
61D
100
AcDbEntity
  8
0
100
AcDbBlockBegin
  2
*D5
 70
     1
 10
0.0
 20
0.0
 30
0.0
  3
*D5
  1

  0
LINE
  5
61F
330
61D
100
AcDbEntity
  8
AM_5
  6
ByBlock
100
AcDbLine
 10
125.0111665837057
 20
128.5259722592836
 30
0.0
 11
125.0111665837057
 21
0.0000002109393336
 31
0.0
  0
LINE
  5
620
330
61D
100
AcDbEntity
  8
AM_5
  6
ByBlock
100
AcDbLine
 10
1374.011166583705
 20
128.525972259578
 30
0.0
 11
1374.011166583705
 21
0.0000002109393336
 31
0.0
  0
LINE
  5
621
330
61D
100
AcDbEntity
  8
AM_5
  6
ByBlock
100
AcDbLine
 10
142.5111665837057
 20
5.000000210939332
 30
0.0
 11
1356.511166583705
 21
5.000000210939332
 31
0.0
  0
SOLID
  5
622
330
61D
100
AcDbEntity
  8
AM_5
100
AcDbTrace
 10
142.5111665837057
 20
7.916666877605996
 30
0.0
 11
142.5111665837057
 21
2.083333544272667
 31
0.0
 12
125.0111665837057
 22
5.000000210939332
 32
0.0
 13
125.0111665837057
 23
5.000000210939332
 33
0.0
  0
SOLID
  5
623
330
61D
100
AcDbEntity
  8
AM_5
100
AcDbTrace
 10
1356.511166583705
 20
7.916666877605996
 30
0.0
 11
1356.511166583705
 21
2.083333544272667
 31
0.0
 12
1374.011166583705
 22
5.000000210939332
 32
0.0
 13
1374.011166583705
 23
5.000000210939332
 33
0.0
  0
MTEXT
  5
624
330
61D
100
AcDbEntity
  8
AM_5
 62
     2
100
AcDbMText
 10
740.169938420191
 20
21.25172265188421
 30
0.0
 40
17.5
 41
0.0
 71
     5
 72
     1
  1
1249
 73
     1
 44
1.0
1001
ACAD
1000
MTEXTBEGIN
1070
    73
1070
     1
1070
    44
1040
1.0
1070
    74
1070
     0
1000
MTEXTEND
  0
POINT
  5
625
330
61D
100
AcDbEntity
  8
DEFPOINTS
 62
     0
100
AcDbPoint
 10
125.0111665837057
 20
133.5259722592836
 30
0.0
  0
POINT
  5
626
330
61D
100
AcDbEntity
  8
DEFPOINTS
 62
     0
100
AcDbPoint
 10
1374.011166583705
 20
133.525972259578
 30
0.0
  0
POINT
  5
627
330
61D
100
AcDbEntity
  8
DEFPOINTS
 62
     0
100
AcDbPoint
 10
1374.011166583705
 20
5.000000210939332
 30
0.0
  0
ENDBLK
  5
628
330
61D
100
AcDbEntity
  8
0
100
AcDbBlockEnd
  0
BLOCK
  5
62A
330
629
100
AcDbEntity
  8
0
100
AcDbBlockBegin
  2
*D6
 70
     1
 10
0.0
 20
0.0
 30
0.0
  3
*D6
  1

  0
LINE
  5
62B
330
629
100
AcDbEntity
  8
AM_5
  6
ByBlock
100
AcDbLine
 10
1348.011166605365
 20
575.9379725699439
 30
0.0
 11
1408.011166605365
 21
575.9379725699439
 31
0.0
  0
LINE
  5
62C
330
629
100
AcDbEntity
  8
AM_5
  6
ByBlock
100
AcDbLine
 10
1348.011166605365
 20
649.9379725699439
 30
0.0
 11
1408.011166605365
 21
649.9379725699439
 31
0.0
  0
LINE
  5
62D
330
629
100
AcDbEntity
  8
AM_5
  6
ByBlock
100
AcDbLine
 10
1403.011166605365
 20
593.4379725699439
 30
0.0
 11
1403.011166605365
 21
632.4379725699437
 31
0.0
  0
SOLID
  5
62E
330
629
100
AcDbEntity
  8
AM_5
100
AcDbTrace
 10
1400.094499938698
 20
593.4379725699439
 30
0.0
 11
1405.927833272032
 21
593.4379725699439
 31
0.0
 12
1403.011166605365
 22
575.9379725699439
 32
0.0
 13
1403.011166605365
 23
575.9379725699439
 33
0.0
  0
SOLID
  5
62F
330
629
100
AcDbEntity
  8
AM_5
100
AcDbTrace
 10
1400.094499938698
 20
632.4379725699437
 30
0.0
 11
1405.927833272032
 21
632.4379725699437
 31
0.0
 12
1403.011166605365
 22
649.9379725699439
 32
0.0
 13
1403.011166605365
 23
649.9379725699439
 33
0.0
  0
MTEXT
  5
630
330
629
100
AcDbEntity
  8
AM_5
 62
     2
100
AcDbMText
 10
1386.761166605365
 20
612.9379725699441
 30
0.0
 40
17.5
 41
0.0
 71
     5
 72
     1
  1
74
 11
0.0000000000000001
 21
1.0
 31
0.0
 73
     1
 44
1.0
1001
ACAD
1000
MTEXTBEGIN
1070
    73
1070
     1
1070
    44
1040
1.0
1070
    74
1070
     0
1000
MTEXTEND
  0
POINT
  5
631
330
629
100
AcDbEntity
  8
DEFPOINTS
 62
     0
100
AcDbPoint
 10
1343.011166605365
 20
575.9379725699439
 30
0.0
  0
POINT
  5
632
330
629
100
AcDbEntity
  8
DEFPOINTS
 62
     0
100
AcDbPoint
 10
1343.011166605365
 20
649.9379725699439
 30
0.0
  0
POINT
  5
633
330
629
100
AcDbEntity
  8
DEFPOINTS
 62
     0
100
AcDbPoint
 10
1403.011166605365
 20
649.9379725699439
 30
0.0
  0
ENDBLK
  5
634
330
629
100
AcDbEntity
  8
0
100
AcDbBlockEnd
  0
BLOCK
  5
636
330
635
100
AcDbEntity
  8
0
100
AcDbBlockBegin
  2
*D7
 70
     1
 10
0.0
 20
0.0
 30
0.0
  3
*D7
  1

  0
LINE
  5
637
330
635
100
AcDbEntity
  8
AM_5
  6
ByBlock
100
AcDbLine
 10
1379.011166605363
 20
133.5259722592815
 30
0.0
 11
1468.897334945108
 21
133.5259722592815
 31
0.0
  0
LINE
  5
638
330
635
100
AcDbEntity
  8
AM_5
  6
ByBlock
100
AcDbLine
 10
1379.011166605364
 20
277.5259722605708
 30
0.0
 11
1468.897334945108
 21
277.5259722605706
 31
0.0
  0
LINE
  5
639
330
635
100
AcDbEntity
  8
AM_5
  6
ByBlock
100
AcDbLine
 10
1463.897334945108
 20
151.0259722592815
 30
0.0
 11
1463.897334945108
 21
260.0259722605707
 31
0.0
  0
SOLID
  5
63A
330
635
100
AcDbEntity
  8
AM_5
100
AcDbTrace
 10
1460.980668278442
 20
151.0259722592815
 30
0.0
 11
1466.814001611775
 21
151.0259722592815
 31
0.0
 12
1463.897334945108
 22
133.5259722592815
 32
0.0
 13
1463.897334945108
 23
133.5259722592815
 33
0.0
  0
SOLID
  5
63B
330
635
100
AcDbEntity
  8
AM_5
100
AcDbTrace
 10
1460.980668278442
 20
260.0259722605707
 30
0.0
 11
1466.814001611775
 21
260.0259722605707
 31
0.0
 12
1463.897334945108
 22
277.5259722605706
 32
0.0
 13
1463.897334945108
 23
277.5259722605706
 33
0.0
  0
MTEXT
  5
63C
330
635
100
AcDbEntity
  8
AM_5
 62
     2
100
AcDbMText
 10
1447.647334945108
 20
205.5259722599263
 30
0.0
 40
17.5
 41
0.0
 71
     5
 72
     1
  1
144
 11
0.0000000000000001
 21
1.0
 31
0.0
 73
     1
 44
1.0
1001
ACAD
1000
MTEXTBEGIN
1070
    73
1070
     1
1070
    44
1040
1.0
1070
    74
1070
     0
1000
MTEXTEND
  0
POINT
  5
63D
330
635
100
AcDbEntity
  8
DEFPOINTS
 62
     0
100
AcDbPoint
 10
1374.011166605363
 20
133.5259722592815
 30
0.0
  0
POINT
  5
63E
330
635
100
AcDbEntity
  8
DEFPOINTS
 62
     0
100
AcDbPoint
 10
1374.011166605364
 20
277.5259722605708
 30
0.0
  0
POINT
  5
63F
330
635
100
AcDbEntity
  8
DEFPOINTS
 62
     0
100
AcDbPoint
 10
1463.897334945108
 20
277.5259722605706
 30
0.0
  0
ENDBLK
  5
640
330
635
100
AcDbEntity
  8
0
100
AcDbBlockEnd
  0
BLOCK
  5
642
330
641
100
AcDbEntity
  8
0
100
AcDbBlockBegin
  2
*D8
 70
     1
 10
0.0
 20
0.0
 30
0.0
  3
*D8
  1

  0
LINE
  5
643
330
641
100
AcDbEntity
  8
AM_5
  6
ByBlock
100
AcDbLine
 10
1347.011166605363
 20
163.5259722595774
 30
0.0
 11
1419.199733330516
 21
163.5259722595774
 31
0.0
  0
LINE
  5
644
330
641
100
AcDbEntity
  8
AM_5
  6
ByBlock
100
AcDbLine
 10
1347.011166605364
 20
247.5259722605289
 30
0.0
 11
1419.199733330516
 21
247.5259722605289
 31
0.0
  0
LINE
  5
645
330
641
100
AcDbEntity
  8
AM_5
  6
ByBlock
100
AcDbLine
 10
1414.199733330516
 20
181.0259722595774
 30
0.0
 11
1414.199733330516
 21
230.0259722605289
 31
0.0
  0
SOLID
  5
646
330
641
100
AcDbEntity
  8
AM_5
100
AcDbTrace
 10
1411.28306666385
 20
181.0259722595774
 30
0.0
 11
1417.116399997183
 21
181.0259722595774
 31
0.0
 12
1414.199733330516
 22
163.5259722595774
 32
0.0
 13
1414.199733330516
 23
163.5259722595774
 33
0.0
  0
SOLID
  5
647
330
641
100
AcDbEntity
  8
AM_5
100
AcDbTrace
 10
1411.28306666385
 20
230.0259722605289
 30
0.0
 11
1417.116399997183
 21
230.0259722605289
 31
0.0
 12
1414.199733330516
 22
247.5259722605289
 32
0.0
 13
1414.199733330516
 23
247.5259722605289
 33
0.0
  0
MTEXT
  5
648
330
641
100
AcDbEntity
  8
AM_5
 62
     2
100
AcDbMText
 10
1397.949733330516
 20
205.525972260053
 30
0.0
 40
17.5
 41
0.0
 71
     5
 72
     1
  1
84
 11
0.0000000000000001
 21
1.0
 31
0.0
 73
     1
 44
1.0
1001
ACAD
1000
MTEXTBEGIN
1070
    73
1070
     1
1070
    44
1040
1.0
1070
    74
1070
     0
1000
MTEXTEND
  0
POINT
  5
649
330
641
100
AcDbEntity
  8
DEFPOINTS
 62
     0
100
AcDbPoint
 10
1342.011166605363
 20
163.5259722595774
 30
0.0
  0
POINT
  5
64A
330
641
100
AcDbEntity
  8
DEFPOINTS
 62
     0
100
AcDbPoint
 10
1342.011166605364
 20
247.5259722605289
 30
0.0
  0
POINT
  5
64B
330
641
100
AcDbEntity
  8
DEFPOINTS
 62
     0
100
AcDbPoint
 10
1414.199733330516
 20
247.5259722605289
 30
0.0
  0
ENDBLK
  5
64C
330
641
100
AcDbEntity
  8
0
100
AcDbBlockEnd
  0
BLOCK
  5
64E
330
64D
100
AcDbEntity
  8
0
100
AcDbBlockBegin
  2
*D9
 70
     1
 10
0.0
 20
0.0
 30
0.0
  3
*D9
  1

  0
LINE
  5
64F
330
64D
100
AcDbEntity
  8
AM_5
  6
ByBlock
100
AcDbLine
 10
769.0111666024533
 20
477.259628864349
 30
0.0
 11
769.0111666024533
 21
410.8925730684511
 31
0.0
  0
LINE
  5
650
330
64D
100
AcDbEntity
  8
AM_5
  6
ByBlock
100
AcDbLine
 10
719.0111666013619
 20
477.259628864349
 30
0.0
 11
719.0111666013619
 21
410.8925730684511
 31
0.0
  0
LINE
  5
651
330
64D
100
AcDbEntity
  8
AM_5
  6
ByBlock
100
AcDbLine
 10
751.5111666024532
 20
415.8925730684511
 30
0.0
 11
736.5111666013619
 21
415.8925730684511
 31
0.0
  0
SOLID
  5
652
330
64D
100
AcDbEntity
  8
AM_5
100
AcDbTrace
 10
751.5111666024532
 20
418.8092397351176
 30
0.0
 11
751.5111666024532
 21
412.9759064017845
 31
0.0
 12
769.0111666024533
 22
415.8925730684511
 32
0.0
 13
769.0111666024533
 23
415.8925730684511
 33
0.0
  0
SOLID
  5
653
330
64D
100
AcDbEntity
  8
AM_5
100
AcDbTrace
 10
736.5111666013619
 20
418.8092397351176
 30
0.0
 11
736.5111666013619
 21
412.9759064017845
 31
0.0
 12
719.0111666013619
 22
415.8925730684511
 32
0.0
 13
719.0111666013619
 23
415.8925730684511
 33
0.0
  0
MTEXT
  5
654
330
64D
100
AcDbEntity
  8
AM_5
 62
     2
100
AcDbMText
 10
744.0111666019078
 20
432.1425730684511
 30
0.0
 40
17.5
 41
0.0
 71
     5
 72
     1
  1
%%c50
 73
     1
 44
1.0
1001
ACAD
1000
MTEXTBEGIN
1070
    73
1070
     1
1070
    44
1040
1.0
1070
    74
1070
     0
1000
MTEXTEND
  0
POINT
  5
655
330
64D
100
AcDbEntity
  8
DEFPOINTS
 62
     0
100
AcDbPoint
 10
769.0111666024533
 20
482.259628864349
 30
0.0
  0
POINT
  5
656
330
64D
100
AcDbEntity
  8
DEFPOINTS
 62
     0
100
AcDbPoint
 10
719.0111666013619
 20
482.259628864349
 30
0.0
  0
POINT
  5
657
330
64D
100
AcDbEntity
  8
DEFPOINTS
 62
     0
100
AcDbPoint
 10
719.0111666013619
 20
415.8925730684511
 30
0.0
  0
ENDBLK
  5
658
330
64D
100
AcDbEntity
  8
0
100
AcDbBlockEnd
  0
BLOCK
  5
65A
330
659
100
AcDbEntity
  8
0
100
AcDbBlockBegin
  2
*D10
 70
     1
 10
0.0
 20
0.0
 30
0.0
  3
*D10
  1

  0
LINE
  5
65B
330
659
100
AcDbEntity
  8
AM_5
  6
ByBlock
100
AcDbLine
 10
146.0111665837057
 20
654.9379725699451
 30
0.0
 11
146.0111665837057
 21
743.2575543040322
 31
0.0
  0
LINE
  5
65C
330
659
100
AcDbEntity
  8
AM_5
  6
ByBlock
100
AcDbLine
 10
126.0111665837057
 20
694.937972569945
 30
0.0
 11
126.0111665837057
 21
743.2575543040322
 31
0.0
  0
LINE
  5
65D
330
659
100
AcDbEntity
  8
AM_5
  6
ByBlock
100
AcDbLine
 10
108.5111665837057
 20
738.2575543040323
 30
0.0
 11
91.01116658370576
 21
738.2575543040323
 31
0.0
  0
LINE
  5
65E
330
659
100
AcDbEntity
  8
AM_5
  6
ByBlock
100
AcDbLine
 10
163.5111665837056
 20
738.2575543040323
 30
0.0
 11
220.7052440183114
 21
738.2575543040323
 31
0.0
  0
LINE
  5
65F
330
659
100
AcDbEntity
  8
AM_5
  6
ByBlock
100
AcDbLine
 10
126.0111665837057
 20
738.2575543040323
 30
0.0
 11
146.0111665837057
 21
738.2575543040323
 31
0.0
  0
SOLID
  5
660
330
659
100
AcDbEntity
  8
AM_5
100
AcDbTrace
 10
108.5111665837057
 20
741.1742209706991
 30
0.0
 11
108.5111665837057
 21
735.3408876373658
 31
0.0
 12
126.0111665837057
 22
738.2575543040323
 32
0.0
 13
126.0111665837057
 23
738.2575543040323
 33
0.0
  0
SOLID
  5
661
330
659
100
AcDbEntity
  8
AM_5
100
AcDbTrace
 10
163.5111665837056
 20
741.1742209706991
 30
0.0
 11
163.5111665837056
 21
735.3408876373658
 31
0.0
 12
146.0111665837057
 22
738.2575543040323
 32
0.0
 13
146.0111665837057
 23
738.2575543040323
 33
0.0
  0
MTEXT
  5
662
330
659
100
AcDbEntity
  8
AM_5
 62
     2
100
AcDbMText
 10
203.3511593726421
 20
754.5092767449772
 30
0.0
 40
17.5
 41
0.0
 71
     5
 72
     1
  1
20
 73
     1
 44
1.0
1001
ACAD
1000
MTEXTBEGIN
1070
    73
1070
     1
1070
    44
1040
1.0
1070
    74
1070
     0
1000
MTEXTEND
  0
POINT
  5
663
330
659
100
AcDbEntity
  8
DEFPOINTS
 62
     0
100
AcDbPoint
 10
146.0111665837057
 20
649.9379725699451
 30
0.0
  0
POINT
  5
664
330
659
100
AcDbEntity
  8
DEFPOINTS
 62
     0
100
AcDbPoint
 10
126.0111665837057
 20
689.937972569945
 30
0.0
  0
POINT
  5
665
330
659
100
AcDbEntity
  8
DEFPOINTS
 62
     0
100
AcDbPoint
 10
126.0111665837057
 20
738.2575543040323
 30
0.0
  0
ENDBLK
  5
666
330
659
100
AcDbEntity
  8
0
100
AcDbBlockEnd
  0
BLOCK
  5
668
330
667
100
AcDbEntity
  8
0
100
AcDbBlockBegin
  2
*D11
 70
     1
 10
0.0
 20
0.0
 30
0.0
  3
*D11
  1

  0
LINE
  5
669
330
667
100
AcDbEntity
  8
AM_5
  6
ByBlock
100
AcDbLine
 10
140.0111665837057
 20
649.937972569945
 30
0.0
 11
69.14206155105111
 21
649.937972569945
 31
0.0
  0
LINE
  5
66A
330
667
100
AcDbEntity
  8
AM_5
  6
ByBlock
100
AcDbLine
 10
120.0111665837057
 20
689.937972569945
 30
0.0
 11
69.14206155105114
 21
689.937972569945
 31
0.0
  0
LINE
  5
66B
330
667
100
AcDbEntity
  8
AM_5
  6
ByBlock
100
AcDbLine
 10
74.14206155105111
 20
632.437972569945
 30
0.0
 11
74.14206155105111
 21
614.937972569945
 31
0.0
  0
LINE
  5
66C
330
667
100
AcDbEntity
  8
AM_5
  6
ByBlock
100
AcDbLine
 10
74.14206155105114
 20
707.437972569945
 30
0.0
 11
74.14206155105114
 21
724.937972569945
 31
0.0
  0
LINE
  5
66D
330
667
100
AcDbEntity
  8
AM_5
  6
ByBlock
100
AcDbLine
 10
74.14206155105111
 20
649.937972569945
 30
0.0
 11
74.14206155105114
 21
689.937972569945
 31
0.0
  0
SOLID
  5
66E
330
667
100
AcDbEntity
  8
AM_5
100
AcDbTrace
 10
71.22539488438445
 20
632.437972569945
 30
0.0
 11
77.0587282177178
 21
632.437972569945
 31
0.0
 12
74.14206155105111
 22
649.937972569945
 32
0.0
 13
74.14206155105111
 23
649.937972569945
 33
0.0
  0
SOLID
  5
66F
330
667
100
AcDbEntity
  8
AM_5
100
AcDbTrace
 10
71.22539488438447
 20
707.437972569945
 30
0.0
 11
77.05872821771781
 21
707.437972569945
 31
0.0
 12
74.14206155105114
 22
689.937972569945
 32
0.0
 13
74.14206155105114
 23
689.937972569945
 33
0.0
  0
MTEXT
  5
670
330
667
100
AcDbEntity
  8
AM_5
 62
     2
100
AcDbMText
 10
57.89206155105103
 20
669.937972569945
 30
0.0
 40
17.5
 41
0.0
 71
     5
 72
     1
  1
40
 11
0.0000000000000001
 21
1.0
 31
0.0
 73
     1
 44
1.0
1001
ACAD
1000
MTEXTBEGIN
1070
    73
1070
     1
1070
    44
1040
1.0
1070
    74
1070
     0
1000
MTEXTEND
  0
POINT
  5
671
330
667
100
AcDbEntity
  8
DEFPOINTS
 62
     0
100
AcDbPoint
 10
145.0111665837057
 20
649.937972569945
 30
0.0
  0
POINT
  5
672
330
667
100
AcDbEntity
  8
DEFPOINTS
 62
     0
100
AcDbPoint
 10
125.0111665837057
 20
689.937972569945
 30
0.0
  0
POINT
  5
673
330
667
100
AcDbEntity
  8
DEFPOINTS
 62
     0
100
AcDbPoint
 10
74.14206155105114
 20
689.937972569945
 30
0.0
  0
ENDBLK
  5
674
330
667
100
AcDbEntity
  8
0
100
AcDbBlockEnd
  0
BLOCK
  5
789
330
788
100
AcDbEntity
  8
0
100
AcDbBlockBegin
  2
*D12
 70
     1
 10
0.0
 20
0.0
 30
0.0
  3
*D12
  1

  0
LINE
  5
C59
330
788
100
AcDbEntity
  8
AM_5
  6
ByBlock
100
AcDbLine
 10
96.00099568757469
 20
160.1359722192239
 30
0.0
 11
96.00099568757469
 21
59.59768092285083
 31
0.0
  0
LINE
  5
C5A
330
788
100
AcDbEntity
  8
AM_5
  6
ByBlock
100
AcDbLine
 10
1292.000995687574
 20
160.1359722192239
 30
0.0
 11
1292.000995687574
 21
59.59768092285083
 31
0.0
  0
LINE
  5
C5B
330
788
100
AcDbEntity
  8
AM_5
  6
ByBlock
100
AcDbLine
 10
113.5009956875747
 20
64.59768092285083
 30
0.0
 11
1274.500995687574
 21
64.59768092285083
 31
0.0
  0
SOLID
  5
C5C
330
788
100
AcDbEntity
  8
AM_5
100
AcDbTrace
 10
113.5009956875747
 20
67.5143475895175
 30
0.0
 11
113.5009956875747
 21
61.68101425618417
 31
0.0
 12
96.00099568757469
 22
64.59768092285083
 32
0.0
 13
96.00099568757469
 23
64.59768092285083
 33
0.0
  0
SOLID
  5
C5D
330
788
100
AcDbEntity
  8
AM_5
100
AcDbTrace
 10
1274.500995687574
 20
67.5143475895175
 30
0.0
 11
1274.500995687574
 21
61.68101425618417
 31
0.0
 12
1292.000995687574
 22
64.59768092285083
 32
0.0
 13
1292.000995687574
 23
64.59768092285083
 33
0.0
  0
MTEXT
  5
C5E
330
788
100
AcDbEntity
  8
AM_5
 62
     2
100
AcDbMText
 10
691.4020254638063
 20
80.84768092285083
 30
0.0
 40
17.5
 41
0.0
 71
     5
 72
     1
  1
1196
 73
     1
 44
1.0
1001
ACAD
1000
MTEXTBEGIN
1070
    73
1070
     1
1070
    44
1040
1.0
1070
    74
1070
     0
1000
MTEXTEND
  0
POINT
  5
C5F
330
788
100
AcDbEntity
  8
DEFPOINTS
 62
     0
100
AcDbPoint
 10
96.00099568757469
 20
165.1359722192239
 30
0.0
  0
POINT
  5
C60
330
788
100
AcDbEntity
  8
DEFPOINTS
 62
     0
100
AcDbPoint
 10
1292.000995687574
 20
165.1359722192239
 30
0.0
  0
POINT
  5
C61
330
788
100
AcDbEntity
  8
DEFPOINTS
 62
     0
100
AcDbPoint
 10
1292.000995687574
 20
64.59768092285083
 30
0.0
  0
ENDBLK
  5
78A
330
788
100
AcDbEntity
  8
0
100
AcDbBlockEnd
  0
BLOCK
  5
795
330
794
100
AcDbEntity
  8
0
100
AcDbBlockBegin
  2
*D13
 70
     1
 10
0.0
 20
0.0
 30
0.0
  3
*D13
  1

  0
LINE
  5
C62
330
794
100
AcDbEntity
  8
AM_5
  6
ByBlock
100
AcDbLine
 10
75.00099568757469
 20
128.5259722189291
 30
0.0
 11
75.00099568757467
 21
0.0000001705848263
 31
0.0
  0
LINE
  5
C63
330
794
100
AcDbEntity
  8
AM_5
  6
ByBlock
100
AcDbLine
 10
1324.000995687574
 20
128.5259722192235
 30
0.0
 11
1324.000995687574
 21
0.0000001705848263
 31
0.0
  0
LINE
  5
C64
330
794
100
AcDbEntity
  8
AM_5
  6
ByBlock
100
AcDbLine
 10
92.50099568757468
 20
5.000000170584826
 30
0.0
 11
1306.500995687574
 21
5.000000170584826
 31
0.0
  0
SOLID
  5
C65
330
794
100
AcDbEntity
  8
AM_5
100
AcDbTrace
 10
92.50099568757468
 20
7.916666837251492
 30
0.0
 11
92.50099568757468
 21
2.083333503918159
 31
0.0
 12
75.00099568757467
 22
5.000000170584826
 32
0.0
 13
75.00099568757467
 23
5.000000170584826
 33
0.0
  0
SOLID
  5
C66
330
794
100
AcDbEntity
  8
AM_5
100
AcDbTrace
 10
1306.500995687574
 20
7.916666837251492
 30
0.0
 11
1306.500995687574
 21
2.083333503918159
 31
0.0
 12
1324.000995687574
 22
5.000000170584826
 32
0.0
 13
1324.000995687574
 23
5.000000170584826
 33
0.0
  0
MTEXT
  5
C67
330
794
100
AcDbEntity
  8
AM_5
 62
     2
100
AcDbMText
 10
690.1597675240599
 20
21.25172261152971
 30
0.0
 40
17.5
 41
0.0
 71
     5
 72
     1
  1
1249
 73
     1
 44
1.0
1001
ACAD
1000
MTEXTBEGIN
1070
    73
1070
     1
1070
    44
1040
1.0
1070
    74
1070
     0
1000
MTEXTEND
  0
POINT
  5
C68
330
794
100
AcDbEntity
  8
DEFPOINTS
 62
     0
100
AcDbPoint
 10
75.00099568757469
 20
133.5259722189291
 30
0.0
  0
POINT
  5
C69
330
794
100
AcDbEntity
  8
DEFPOINTS
 62
     0
100
AcDbPoint
 10
1324.000995687574
 20
133.5259722192235
 30
0.0
  0
POINT
  5
C6A
330
794
100
AcDbEntity
  8
DEFPOINTS
 62
     0
100
AcDbPoint
 10
1324.000995687574
 20
5.000000170584826
 30
0.0
  0
ENDBLK
  5
796
330
794
100
AcDbEntity
  8
0
100
AcDbBlockEnd
  0
BLOCK
  5
7A1
330
7A0
100
AcDbEntity
  8
0
100
AcDbBlockBegin
  2
*D14
 70
     1
 10
0.0
 20
0.0
 30
0.0
  3
*D14
  1

  0
LINE
  5
C6B
330
7A0
100
AcDbEntity
  8
AM_5
  6
ByBlock
100
AcDbLine
 10
1298.000995709234
 20
575.9379725295892
 30
0.0
 11
1358.000995709234
 21
575.9379725295892
 31
0.0
  0
LINE
  5
C6C
330
7A0
100
AcDbEntity
  8
AM_5
  6
ByBlock
100
AcDbLine
 10
1298.000995709234
 20
649.9379725295892
 30
0.0
 11
1358.000995709234
 21
649.9379725295892
 31
0.0
  0
LINE
  5
C6D
330
7A0
100
AcDbEntity
  8
AM_5
  6
ByBlock
100
AcDbLine
 10
1353.000995709234
 20
593.4379725295892
 30
0.0
 11
1353.000995709234
 21
632.4379725295893
 31
0.0
  0
SOLID
  5
C6E
330
7A0
100
AcDbEntity
  8
AM_5
100
AcDbTrace
 10
1350.084329042567
 20
593.4379725295892
 30
0.0
 11
1355.917662375901
 21
593.4379725295892
 31
0.0
 12
1353.000995709234
 22
575.9379725295892
 32
0.0
 13
1353.000995709234
 23
575.9379725295892
 33
0.0
  0
SOLID
  5
C6F
330
7A0
100
AcDbEntity
  8
AM_5
100
AcDbTrace
 10
1350.084329042567
 20
632.4379725295893
 30
0.0
 11
1355.917662375901
 21
632.4379725295893
 31
0.0
 12
1353.000995709234
 22
649.9379725295892
 32
0.0
 13
1353.000995709234
 23
649.9379725295892
 33
0.0
  0
MTEXT
  5
C70
330
7A0
100
AcDbEntity
  8
AM_5
 62
     2
100
AcDbMText
 10
1336.750995709234
 20
612.9379725295895
 30
0.0
 40
17.5
 41
0.0
 71
     5
 72
     1
  1
74
 11
0.0000000000000001
 21
1.0
 31
0.0
 73
     1
 44
1.0
1001
ACAD
1000
MTEXTBEGIN
1070
    73
1070
     1
1070
    44
1040
1.0
1070
    74
1070
     0
1000
MTEXTEND
  0
POINT
  5
C71
330
7A0
100
AcDbEntity
  8
DEFPOINTS
 62
     0
100
AcDbPoint
 10
1293.000995709234
 20
575.9379725295892
 30
0.0
  0
POINT
  5
C72
330
7A0
100
AcDbEntity
  8
DEFPOINTS
 62
     0
100
AcDbPoint
 10
1293.000995709234
 20
649.9379725295892
 30
0.0
  0
POINT
  5
C73
330
7A0
100
AcDbEntity
  8
DEFPOINTS
 62
     0
100
AcDbPoint
 10
1353.000995709234
 20
649.9379725295892
 30
0.0
  0
ENDBLK
  5
7A2
330
7A0
100
AcDbEntity
  8
0
100
AcDbBlockEnd
  0
BLOCK
  5
7AD
330
7AC
100
AcDbEntity
  8
0
100
AcDbBlockBegin
  2
*D15
 70
     1
 10
0.0
 20
0.0
 30
0.0
  3
*D15
  1

  0
LINE
  5
C74
330
7AC
100
AcDbEntity
  8
AM_5
  6
ByBlock
100
AcDbLine
 10
1329.000995709232
 20
133.525972218927
 30
0.0
 11
1418.887164048977
 21
133.5259722189269
 31
0.0
  0
LINE
  5
C75
330
7AC
100
AcDbEntity
  8
AM_5
  6
ByBlock
100
AcDbLine
 10
1329.000995687574
 20
266.5159722201796
 30
0.0
 11
1418.887164048977
 21
266.5159722201796
 31
0.0
  0
LINE
  5
C76
330
7AC
100
AcDbEntity
  8
AM_5
  6
ByBlock
100
AcDbLine
 10
1413.887164048977
 20
151.0259722189269
 30
0.0
 11
1413.887164048977
 21
249.0159722201796
 31
0.0
  0
SOLID
  5
C77
330
7AC
100
AcDbEntity
  8
AM_5
100
AcDbTrace
 10
1410.97049738231
 20
151.0259722189269
 30
0.0
 11
1416.803830715643
 21
151.0259722189269
 31
0.0
 12
1413.887164048977
 22
133.5259722189269
 32
0.0
 13
1413.887164048977
 23
133.5259722189269
 33
0.0
  0
SOLID
  5
C78
330
7AC
100
AcDbEntity
  8
AM_5
100
AcDbTrace
 10
1410.97049738231
 20
249.0159722201796
 30
0.0
 11
1416.803830715643
 21
249.0159722201796
 31
0.0
 12
1413.887164048977
 22
266.5159722201796
 32
0.0
 13
1413.887164048977
 23
266.5159722201796
 33
0.0
  0
MTEXT
  5
C79
330
7AC
100
AcDbEntity
  8
AM_5
 62
     2
100
AcDbMText
 10
1397.637164048977
 20
200.0209722195535
 30
0.0
 40
17.5
 41
0.0
 71
     5
 72
     1
  1
133
 11
0.0000000000000001
 21
1.0
 31
0.0
 73
     1
 44
1.0
1001
ACAD
1000
MTEXTBEGIN
1070
    73
1070
     1
1070
    44
1040
1.0
1070
    74
1070
     0
1000
MTEXTEND
  0
POINT
  5
C7A
330
7AC
100
AcDbEntity
  8
DEFPOINTS
 62
     0
100
AcDbPoint
 10
1324.000995709232
 20
133.525972218927
 30
0.0
  0
POINT
  5
C7B
330
7AC
100
AcDbEntity
  8
DEFPOINTS
 62
     0
100
AcDbPoint
 10
1324.000995687574
 20
266.5159722201796
 30
0.0
  0
POINT
  5
C7C
330
7AC
100
AcDbEntity
  8
DEFPOINTS
 62
     0
100
AcDbPoint
 10
1413.887164048977
 20
266.5159722201796
 30
0.0
  0
ENDBLK
  5
7AE
330
7AC
100
AcDbEntity
  8
0
100
AcDbBlockEnd
  0
BLOCK
  5
7B9
330
7B8
100
AcDbEntity
  8
0
100
AcDbBlockBegin
  2
*D16
 70
     1
 10
0.0
 20
0.0
 30
0.0
  3
*D16
  1

  0
LINE
  5
C7D
330
7B8
100
AcDbEntity
  8
AM_5
  6
ByBlock
100
AcDbLine
 10
1297.000995709232
 20
163.5259722192229
 30
0.0
 11
1369.189562434385
 21
163.5259722192229
 31
0.0
  0
LINE
  5
C7E
330
7B8
100
AcDbEntity
  8
AM_5
  6
ByBlock
100
AcDbLine
 10
1297.000995687574
 20
245.5159722201788
 30
0.0
 11
1369.189562434385
 21
245.5159722201788
 31
0.0
  0
LINE
  5
C7F
330
7B8
100
AcDbEntity
  8
AM_5
  6
ByBlock
100
AcDbLine
 10
1364.189562434385
 20
181.0259722192229
 30
0.0
 11
1364.189562434385
 21
228.0159722201787
 31
0.0
  0
SOLID
  5
C80
330
7B8
100
AcDbEntity
  8
AM_5
100
AcDbTrace
 10
1361.272895767718
 20
181.0259722192229
 30
0.0
 11
1367.106229101052
 21
181.0259722192229
 31
0.0
 12
1364.189562434385
 22
163.5259722192229
 32
0.0
 13
1364.189562434385
 23
163.5259722192229
 33
0.0
  0
SOLID
  5
C81
330
7B8
100
AcDbEntity
  8
AM_5
100
AcDbTrace
 10
1361.272895767718
 20
228.0159722201787
 30
0.0
 11
1367.106229101052
 21
228.0159722201787
 31
0.0
 12
1364.189562434385
 22
245.5159722201788
 32
0.0
 13
1364.189562434385
 23
245.5159722201788
 33
0.0
  0
MTEXT
  5
C82
330
7B8
100
AcDbEntity
  8
AM_5
 62
     2
100
AcDbMText
 10
1347.93783999344
 20
205.5259722196985
 30
0.0
 40
17.5
 41
0.0
 71
     5
 72
     1
  1
82
 11
0.0000000000000001
 21
1.0
 31
0.0
 73
     1
 44
1.0
1001
ACAD
1000
MTEXTBEGIN
1070
    73
1070
     1
1070
    44
1040
1.0
1070
    74
1070
     0
1000
MTEXTEND
  0
POINT
  5
C83
330
7B8
100
AcDbEntity
  8
DEFPOINTS
 62
     0
100
AcDbPoint
 10
1292.000995709232
 20
163.5259722192229
 30
0.0
  0
POINT
  5
C84
330
7B8
100
AcDbEntity
  8
DEFPOINTS
 62
     0
100
AcDbPoint
 10
1292.000995687574
 20
245.5159722201788
 30
0.0
  0
POINT
  5
C85
330
7B8
100
AcDbEntity
  8
DEFPOINTS
 62
     0
100
AcDbPoint
 10
1364.189562434385
 20
245.5159722201788
 30
0.0
  0
ENDBLK
  5
7BA
330
7B8
100
AcDbEntity
  8
0
100
AcDbBlockEnd
  0
BLOCK
  5
7C5
330
7C4
100
AcDbEntity
  8
0
100
AcDbBlockBegin
  2
*D17
 70
     1
 10
0.0
 20
0.0
 30
0.0
  3
*D17
  1

  0
LINE
  5
CF4
330
7C4
100
AcDbEntity
  8
AM_5
  6
ByBlock
100
AcDbLine
 10
719.0009957061899
 20
482.1556583756697
 30
0.0
 11
719.0009957061899
 21
410.8925730280965
 31
0.0
  0
LINE
  5
CF5
330
7C4
100
AcDbEntity
  8
AM_5
  6
ByBlock
100
AcDbLine
 10
669.0009957055533
 20
482.1556583756697
 30
0.0
 11
669.0009957055533
 21
410.8925730280965
 31
0.0
  0
LINE
  5
CF6
330
7C4
100
AcDbEntity
  8
AM_5
  6
ByBlock
100
AcDbLine
 10
701.50099570619
 20
415.8925730280966
 30
0.0
 11
686.5009957055534
 21
415.8925730280966
 31
0.0
  0
SOLID
  5
CF7
330
7C4
100
AcDbEntity
  8
AM_5
100
AcDbTrace
 10
701.50099570619
 20
418.8092396947633
 30
0.0
 11
701.50099570619
 21
412.9759063614299
 31
0.0
 12
719.0009957061899
 22
415.8925730280966
 32
0.0
 13
719.0009957061899
 23
415.8925730280966
 33
0.0
  0
SOLID
  5
CF8
330
7C4
100
AcDbEntity
  8
AM_5
100
AcDbTrace
 10
686.5009957055534
 20
418.8092396947633
 30
0.0
 11
686.5009957055534
 21
412.9759063614299
 31
0.0
 12
669.0009957055533
 22
415.8925730280966
 32
0.0
 13
669.0009957055533
 23
415.8925730280966
 33
0.0
  0
MTEXT
  5
CF9
330
7C4
100
AcDbEntity
  8
AM_5
 62
     2
100
AcDbMText
 10
694.0009957058716
 20
432.1425730280965
 30
0.0
 40
17.5
 41
0.0
 71
     5
 72
     1
  1
%%c50
 73
     1
 44
1.0
1001
ACAD
1000
MTEXTBEGIN
1070
    73
1070
     1
1070
    44
1040
1.0
1070
    74
1070
     0
1000
MTEXTEND
  0
POINT
  5
CFA
330
7C4
100
AcDbEntity
  8
DEFPOINTS
 62
     0
100
AcDbPoint
 10
719.0009957061899
 20
487.1556583756697
 30
0.0
  0
POINT
  5
CFB
330
7C4
100
AcDbEntity
  8
DEFPOINTS
 62
     0
100
AcDbPoint
 10
669.0009957055533
 20
487.1556583756697
 30
0.0
  0
POINT
  5
CFC
330
7C4
100
AcDbEntity
  8
DEFPOINTS
 62
     0
100
AcDbPoint
 10
669.0009957055533
 20
415.8925730280966
 30
0.0
  0
ENDBLK
  5
7C6
330
7C4
100
AcDbEntity
  8
0
100
AcDbBlockEnd
  0
BLOCK
  5
7D1
330
7D0
100
AcDbEntity
  8
0
100
AcDbBlockBegin
  2
*D18
 70
     1
 10
0.0
 20
0.0
 30
0.0
  3
*D18
  1

  0
LINE
  5
C8F
330
7D0
100
AcDbEntity
  8
AM_5
  6
ByBlock
100
AcDbLine
 10
96.00099568757469
 20
654.9379725295906
 30
0.0
 11
96.00099568757469
 21
743.2575542636779
 31
0.0
  0
LINE
  5
C90
330
7D0
100
AcDbEntity
  8
AM_5
  6
ByBlock
100
AcDbLine
 10
76.00099568757468
 20
694.9379725295902
 30
0.0
 11
76.00099568757468
 21
743.2575542636779
 31
0.0
  0
LINE
  5
C91
330
7D0
100
AcDbEntity
  8
AM_5
  6
ByBlock
100
AcDbLine
 10
58.50099568757468
 20
738.257554263678
 30
0.0
 11
41.00099568757468
 21
738.257554263678
 31
0.0
  0
LINE
  5
C92
330
7D0
100
AcDbEntity
  8
AM_5
  6
ByBlock
100
AcDbLine
 10
113.5009956875747
 20
738.257554263678
 30
0.0
 11
170.6950731221803
 21
738.257554263678
 31
0.0
  0
LINE
  5
C93
330
7D0
100
AcDbEntity
  8
AM_5
  6
ByBlock
100
AcDbLine
 10
76.00099568757468
 20
738.257554263678
 30
0.0
 11
96.00099568757469
 21
738.257554263678
 31
0.0
  0
SOLID
  5
C94
330
7D0
100
AcDbEntity
  8
AM_5
100
AcDbTrace
 10
58.50099568757468
 20
741.1742209303446
 30
0.0
 11
58.50099568757468
 21
735.3408875970114
 31
0.0
 12
76.00099568757468
 22
738.257554263678
 32
0.0
 13
76.00099568757468
 23
738.257554263678
 33
0.0
  0
SOLID
  5
C95
330
7D0
100
AcDbEntity
  8
AM_5
100
AcDbTrace
 10
113.5009956875747
 20
741.1742209303446
 30
0.0
 11
113.5009956875747
 21
735.3408875970114
 31
0.0
 12
96.00099568757469
 22
738.257554263678
 32
0.0
 13
96.00099568757469
 23
738.257554263678
 33
0.0
  0
MTEXT
  5
C96
330
7D0
100
AcDbEntity
  8
AM_5
 62
     2
100
AcDbMText
 10
153.340988476511
 20
754.5092767046228
 30
0.0
 40
17.5
 41
0.0
 71
     5
 72
     1
  1
20
 73
     1
 44
1.0
1001
ACAD
1000
MTEXTBEGIN
1070
    73
1070
     1
1070
    44
1040
1.0
1070
    74
1070
     0
1000
MTEXTEND
  0
POINT
  5
C97
330
7D0
100
AcDbEntity
  8
DEFPOINTS
 62
     0
100
AcDbPoint
 10
96.00099568757469
 20
649.9379725295906
 30
0.0
  0
POINT
  5
C98
330
7D0
100
AcDbEntity
  8
DEFPOINTS
 62
     0
100
AcDbPoint
 10
76.00099568757468
 20
689.9379725295903
 30
0.0
  0
POINT
  5
C99
330
7D0
100
AcDbEntity
  8
DEFPOINTS
 62
     0
100
AcDbPoint
 10
76.00099568757468
 20
738.257554263678
 30
0.0
  0
ENDBLK
  5
7D2
330
7D0
100
AcDbEntity
  8
0
100
AcDbBlockEnd
  0
BLOCK
  5
7DF
330
7DE
100
AcDbEntity
  8
0
100
AcDbBlockBegin
  2
*D19
 70
     1
 10
0.0
 20
0.0
 30
0.0
  3
*D19
  1

  0
LINE
  5
C9A
330
7DE
100
AcDbEntity
  8
AM_5
  6
ByBlock
100
AcDbLine
 10
90.00099568757468
 20
649.9379725295906
 30
0.0
 11
19.13189065492007
 21
649.9379725295906
 31
0.0
  0
LINE
  5
C9B
330
7DE
100
AcDbEntity
  8
AM_5
  6
ByBlock
100
AcDbLine
 10
70.00099568757469
 20
689.9379725295906
 30
0.0
 11
19.13189065492008
 21
689.9379725295906
 31
0.0
  0
LINE
  5
C9C
330
7DE
100
AcDbEntity
  8
AM_5
  6
ByBlock
100
AcDbLine
 10
24.13189065492007
 20
632.4379725295906
 30
0.0
 11
24.13189065492006
 21
614.9379725295906
 31
0.0
  0
LINE
  5
C9D
330
7DE
100
AcDbEntity
  8
AM_5
  6
ByBlock
100
AcDbLine
 10
24.13189065492008
 20
707.4379725295906
 30
0.0
 11
24.13189065492009
 21
724.9379725295906
 31
0.0
  0
LINE
  5
C9E
330
7DE
100
AcDbEntity
  8
AM_5
  6
ByBlock
100
AcDbLine
 10
24.13189065492007
 20
649.9379725295906
 30
0.0
 11
24.13189065492008
 21
689.9379725295906
 31
0.0
  0
SOLID
  5
C9F
330
7DE
100
AcDbEntity
  8
AM_5
100
AcDbTrace
 10
21.2152239882534
 20
632.4379725295906
 30
0.0
 11
27.04855732158673
 21
632.4379725295906
 31
0.0
 12
24.13189065492007
 22
649.9379725295906
 32
0.0
 13
24.13189065492007
 23
649.9379725295906
 33
0.0
  0
SOLID
  5
CA0
330
7DE
100
AcDbEntity
  8
AM_5
100
AcDbTrace
 10
21.21522398825341
 20
707.4379725295906
 30
0.0
 11
27.04855732158675
 21
707.4379725295906
 31
0.0
 12
24.13189065492008
 22
689.9379725295906
 32
0.0
 13
24.13189065492008
 23
689.9379725295906
 33
0.0
  0
MTEXT
  5
CA1
330
7DE
100
AcDbEntity
  8
AM_5
 62
     2
100
AcDbMText
 10
7.881890654919965
 20
669.9379725295906
 30
0.0
 40
17.5
 41
0.0
 71
     5
 72
     1
  1
40
 11
0.0000000000000001
 21
1.0
 31
0.0
 73
     1
 44
1.0
1001
ACAD
1000
MTEXTBEGIN
1070
    73
1070
     1
1070
    44
1040
1.0
1070
    74
1070
     0
1000
MTEXTEND
  0
POINT
  5
CA2
330
7DE
100
AcDbEntity
  8
DEFPOINTS
 62
     0
100
AcDbPoint
 10
95.00099568757468
 20
649.9379725295906
 30
0.0
  0
POINT
  5
CA3
330
7DE
100
AcDbEntity
  8
DEFPOINTS
 62
     0
100
AcDbPoint
 10
75.00099568757469
 20
689.9379725295906
 30
0.0
  0
POINT
  5
CA4
330
7DE
100
AcDbEntity
  8
DEFPOINTS
 62
     0
100
AcDbPoint
 10
24.13189065492008
 20
689.9379725295906
 30
0.0
  0
ENDBLK
  5
7E0
330
7DE
100
AcDbEntity
  8
0
100
AcDbBlockEnd
  0
BLOCK
  5
9FD
330
9FC
100
AcDbEntity
  8
0
100
AcDbBlockBegin
  2
*D20
 70
     1
 10
0.0
 20
0.0
 30
0.0
  3
*D20
  1

  0
LINE
  5
CB0
330
9FC
100
AcDbEntity
  8
AM_5
  6
ByBlock
100
AcDbLine
 10
91.00099568757471
 20
245.5159722201797
 30
0.0
 11
23.12824109894569
 21
245.5159722201797
 31
0.0
  0
LINE
  5
CB1
330
9FC
100
AcDbEntity
  8
AM_5
  6
ByBlock
100
AcDbLine
 10
71.00099568757468
 20
265.5159722201797
 30
0.0
 11
23.12824109894569
 21
265.5159722201797
 31
0.0
  0
LINE
  5
CB2
330
9FC
100
AcDbEntity
  8
AM_5
  6
ByBlock
100
AcDbLine
 10
28.12824109894569
 20
283.0159722201797
 30
0.0
 11
28.1282410989457
 21
300.5159722201796
 31
0.0
  0
LINE
  5
CB3
330
9FC
100
AcDbEntity
  8
AM_5
  6
ByBlock
100
AcDbLine
 10
28.12824109894568
 20
228.0159722201797
 30
0.0
 11
28.12824109894567
 21
175.8078029288411
 31
0.0
  0
LINE
  5
CB4
330
9FC
100
AcDbEntity
  8
AM_5
  6
ByBlock
100
AcDbLine
 10
28.12824109894569
 20
265.5159722201797
 30
0.0
 11
28.12824109894568
 21
245.5159722201797
 31
0.0
  0
SOLID
  5
CB5
330
9FC
100
AcDbEntity
  8
AM_5
100
AcDbTrace
 10
25.21157443227903
 20
283.0159722201797
 30
0.0
 11
31.04490776561236
 21
283.0159722201797
 31
0.0
 12
28.12824109894569
 22
265.5159722201797
 32
0.0
 13
28.12824109894569
 23
265.5159722201797
 33
0.0
  0
SOLID
  5
CB6
330
9FC
100
AcDbEntity
  8
AM_5
100
AcDbTrace
 10
25.21157443227901
 20
228.0159722201797
 30
0.0
 11
31.04490776561235
 21
228.0159722201797
 31
0.0
 12
28.12824109894568
 22
245.5159722201797
 32
0.0
 13
28.12824109894568
 23
245.5159722201797
 33
0.0
  0
MTEXT
  5
CB7
330
9FC
100
AcDbEntity
  8
AM_5
 62
     2
100
AcDbMText
 10
11.87651865800076
 20
193.1618875745104
 30
0.0
 40
17.5
 41
0.0
 71
     5
 72
     1
  1
20
 11
0.0000000000000001
 21
1.0
 31
0.0
 73
     1
 44
1.0
1001
ACAD
1000
MTEXTBEGIN
1070
    73
1070
     1
1070
    44
1040
1.0
1070
    74
1070
     0
1000
MTEXTEND
  0
POINT
  5
CB8
330
9FC
100
AcDbEntity
  8
DEFPOINTS
 62
     0
100
AcDbPoint
 10
96.00099568757471
 20
245.5159722201797
 30
0.0
  0
POINT
  5
CB9
330
9FC
100
AcDbEntity
  8
DEFPOINTS
 62
     0
100
AcDbPoint
 10
76.00099568757468
 20
265.5159722201797
 30
0.0
  0
POINT
  5
CBA
330
9FC
100
AcDbEntity
  8
DEFPOINTS
 62
     0
100
AcDbPoint
 10
28.12824109894569
 20
265.5159722201797
 30
0.0
  0
ENDBLK
  5
9FE
330
9FC
100
AcDbEntity
  8
0
100
AcDbBlockEnd
  0
BLOCK
  5
A27
330
A26
100
AcDbEntity
  8
0
100
AcDbBlockBegin
  2
*D21
 70
     1
 10
0.0
 20
0.0
 30
0.0
  3
*D21
  1

  0
LINE
  5
CA5
330
A26
100
AcDbEntity
  8
AM_5
  6
ByBlock
100
AcDbLine
 10
1292.000995687574
 20
654.9379725295912
 30
0.0
 11
1292.000995687574
 21
753.7795226691291
 31
0.0
  0
LINE
  5
CA6
330
A26
100
AcDbEntity
  8
AM_5
  6
ByBlock
100
AcDbLine
 10
1324.000995687574
 20
694.9379725295902
 30
0.0
 11
1324.000995687574
 21
753.7795226691291
 31
0.0
  0
LINE
  5
CA7
330
A26
100
AcDbEntity
  8
AM_5
  6
ByBlock
100
AcDbLine
 10
1274.500995687574
 20
748.7795226691291
 30
0.0
 11
1257.000995687574
 21
748.7795226691291
 31
0.0
  0
LINE
  5
CA8
330
A26
100
AcDbEntity
  8
AM_5
  6
ByBlock
100
AcDbLine
 10
1341.500995687574
 20
748.7795226691291
 30
0.0
 11
1394.302029152141
 21
748.7795226691291
 31
0.0
  0
LINE
  5
CA9
330
A26
100
AcDbEntity
  8
AM_5
  6
ByBlock
100
AcDbLine
 10
1292.000995687574
 20
748.7795226691291
 30
0.0
 11
1324.000995687574
 21
748.7795226691291
 31
0.0
  0
SOLID
  5
CAA
330
A26
100
AcDbEntity
  8
AM_5
100
AcDbTrace
 10
1274.500995687574
 20
751.6961893357958
 30
0.0
 11
1274.500995687574
 21
745.8628560024625
 31
0.0
 12
1292.000995687574
 22
748.7795226691291
 32
0.0
 13
1292.000995687574
 23
748.7795226691291
 33
0.0
  0
SOLID
  5
CAB
330
A26
100
AcDbEntity
  8
AM_5
100
AcDbTrace
 10
1341.500995687574
 20
751.6961893357958
 30
0.0
 11
1341.500995687574
 21
745.8628560024625
 31
0.0
 12
1324.000995687574
 22
748.7795226691291
 32
0.0
 13
1324.000995687574
 23
748.7795226691291
 33
0.0
  0
MTEXT
  5
CAC
330
A26
100
AcDbEntity
  8
AM_5
 62
     2
100
AcDbMText
 10
1376.651512419857
 20
765.031245110074
 30
0.0
 40
17.5
 41
0.0
 71
     5
 72
     1
  1
32
 73
     1
 44
1.0
1001
ACAD
1000
MTEXTBEGIN
1070
    73
1070
     1
1070
    44
1040
1.0
1070
    74
1070
     0
1000
MTEXTEND
  0
POINT
  5
CAD
330
A26
100
AcDbEntity
  8
DEFPOINTS
 62
     0
100
AcDbPoint
 10
1292.000995687574
 20
649.9379725295912
 30
0.0
  0
POINT
  5
CAE
330
A26
100
AcDbEntity
  8
DEFPOINTS
 62
     0
100
AcDbPoint
 10
1324.000995687574
 20
689.9379725295903
 30
0.0
  0
POINT
  5
CAF
330
A26
100
AcDbEntity
  8
DEFPOINTS
 62
     0
100
AcDbPoint
 10
1324.000995687574
 20
748.7795226691291
 30
0.0
  0
ENDBLK
  5
A28
330
A26
100
AcDbEntity
  8
0
100
AcDbBlockEnd
  0
ENDSEC
  0
SECTION
  2
ENTITIES
  0
LINE
  5
710
330
1F
100
AcDbEntity
  8
RUNDUNGEN
  6
Continuous
 62
     7
100
AcDbLine
 10
96.00099568757469
 20
630.2596288239936
 30
0.0
 11
96.00099568757469
 21
635.9379725295911
 31
0.0
  0
LINE
  5
711
102
{ACAD_REACTORS
330
783
102
}
330
1F
100
AcDbEntity
  8
RUNDUNGEN
  6
Continuous
 62
     7
100
AcDbLine
 10
96.00099568757469
 20
636.9379725295912
 30
0.0
 11
96.00099568757469
 21
649.9379725295912
 31
0.0
  0
LINE
  5
712
102
{ACAD_REACTORS
330
783
330
786
102
}
330
1F
100
AcDbEntity
  8
RUNDUNGEN
  6
Continuous
 62
     7
100
AcDbLine
 10
77.00099568757469
 20
649.9379725295906
 30
0.0
 11
1292.000995687574
 21
649.9379725295912
 31
0.0
  0
LINE
  5
713
330
1F
100
AcDbEntity
  8
0
  6
Continuous
 62
     7
100
AcDbLine
 10
1324.000995687574
 20
636.9379725295896
 30
0.0
 11
76.00099568757467
 21
636.9379725295912
 31
0.0
  0
LINE
  5
714
330
1F
100
AcDbEntity
  8
0
  6
Continuous
 62
     7
100
AcDbLine
 10
1324.000995687574
 20
635.9379725295926
 30
0.0
 11
75.00099568757469
 21
635.9379725295915
 31
0.0
  0
LINE
  5
715
330
1F
100
AcDbEntity
  8
RUNDUNGEN
  6
Continuous
 62
     9
100
AcDbLine
 10
96.00099568757469
 20
633.8619143073936
 30
0.0
 11
1292.000995687578
 21
633.8619143073895
 31
0.0
  0
LINE
  5
716
330
1F
100
AcDbEntity
  8
RUNDUNGEN
  6
Continuous
 62
     7
100
AcDbLine
 10
1292.000995687577
 20
630.2596288239914
 30
0.0
 11
732.4725466123726
 21
630.2596288239936
 31
0.0
  0
LINE
  5
717
330
1F
100
AcDbEntity
  8
RUNDUNGEN
  6
Continuous
 62
     7
100
AcDbLine
 10
655.5294447627837
 20
630.2596288239936
 30
0.0
 11
96.00099568757469
 21
630.2596288239936
 31
0.0
  0
LINE
  5
718
330
1F
100
AcDbEntity
  8
RUNDUNGEN
  6
Continuous
 62
     7
100
AcDbLine
 10
1292.000995687574
 20
649.9379725295912
 30
0.0
 11
1292.000995687574
 21
636.9379725295912
 31
0.0
  0
LINE
  5
719
330
1F
100
AcDbEntity
  8
RUNDUNGEN
  6
Continuous
 62
     7
100
AcDbLine
 10
1292.000995687574
 20
635.9379725295911
 30
0.0
 11
1292.000995687574
 21
630.2596288239914
 31
0.0
  0
LINE
  5
71A
102
{ACAD_REACTORS
330
A09
102
}
330
1F
100
AcDbEntity
  8
RUNDUNGEN
  6
Continuous
 62
     7
100
AcDbLine
 10
96.00099568757469
 20
133.5259722189619
 30
0.0
 11
96.00099568757471
 21
265.5159722201793
 31
0.0
  0
LINE
  5
71B
330
1F
100
AcDbEntity
  8
0
  6
Continuous
 62
     7
100
AcDbLine
 10
1292.000995687574
 20
266.5159722201841
 30
0.0
 11
96.00099568757469
 21
266.5159722201792
 31
0.0
  0
LINE
  5
71D
102
{ACAD_REACTORS
330
A09
102
}
330
1F
100
AcDbEntity
  8
RUNDUNGEN
  6
Continuous
 62
     7
100
AcDbLine
 10
96.00099568757469
 20
245.5159722201797
 30
0.0
 11
1292.000995687574
 21
245.5159722201788
 31
0.0
  0
LINE
  5
71E
330
1F
100
AcDbEntity
  8
RUNDUNGEN
  6
Continuous
 62
     7
100
AcDbLine
 10
96.00099568757469
 20
205.5259722189775
 30
0.0
 11
656.0012205734765
 21
205.5259722195192
 31
0.0
  0
LINE
  5
71F
330
1F
100
AcDbEntity
  8
RUNDUNGEN
  6
Continuous
 62
     7
100
AcDbLine
 10
731.5009956875743
 20
205.5259722187188
 30
0.0
 11
1292.000995687574
 21
205.5259722196249
 31
0.0
  0
LINE
  5
720
330
1F
100
AcDbEntity
  8
RUNDUNGEN
  6
Continuous
 62
     7
100
AcDbLine
 10
96.00099568757469
 20
165.5359722192246
 30
0.0
 11
1292.000995687574
 21
165.5359722192248
 31
0.0
  0
LINE
  5
721
330
1F
100
AcDbEntity
  8
RUNDUNGEN
  6
Continuous
 62
     7
100
AcDbLine
 10
96.00099568757469
 20
163.525972219225
 30
0.0
 11
1292.000995687574
 21
163.52597221922
 31
0.0
  0
LINE
  5
722
330
1F
100
AcDbEntity
  8
0
  6
Continuous
 62
     7
100
AcDbLine
 10
1292.000995687574
 20
133.5259722202194
 30
0.0
 11
96.00099568757469
 21
133.5259722202183
 31
0.0
  0
LINE
  5
723
330
1F
100
AcDbEntity
  8
RUNDUNGEN
  6
Continuous
 62
     7
100
AcDbLine
 10
1292.000995687574
 20
265.5159722201841
 30
0.0
 11
1292.000995687574
 21
133.5259722201857
 31
0.0
  0
LINE
  5
724
330
1F
100
AcDbEntity
  8
RUNDUNGEN
  6
Continuous
 62
     7
100
AcDbLine
 10
656.5152551859736
 20
205.5259722129199
 30
0.0
 11
656.5009956875742
 21
205.52597221312
 31
0.0
  0
LINE
  5
725
330
1F
100
AcDbEntity
  8
RUNDUNGEN
  6
Continuous
 62
     7
100
AcDbLine
 10
656.5009956875742
 20
205.52597221312
 30
0.0
 11
656.0012205734765
 21
205.5259722189188
 31
0.0
  0
LINE
  5
726
330
1F
100
AcDbEntity
  8
RUNDUNGEN
  6
Continuous
 62
     7
100
AcDbLine
 10
731.4867361892772
 20
205.5259722254199
 30
0.0
 11
731.5009956875743
 21
205.5259722252199
 31
0.0
  0
LINE
  5
727
330
1F
100
AcDbEntity
  8
AM_7
100
AcDbLine
 10
694.0009956875743
 20
592.1264051307665
 30
0.0
 11
694.0009956875743
 21
661.9379725295912
 31
0.0
1001
GENIUS_GENOBJ-N-CEN_13
1002
{
1000
OWNER
1000
GEN
1002
}
1001
GENIUS_GENODEF_13
1002
{
1000
HIER
1070
     0
1002
}
1002
{
1000
MANEDIT
1070
     0
1002
}
1002
{
1000
NOSEL
1070
     0
1002
}
1002
{
1000
BEHIND
1070
     0
1002
}
1002
{
1000
OTHER
1070
     0
1002
}
1002
{
1000
REACTOR
1002
}
1001
GENIUS_GENCEN_19
1002
{
1040
12.0
1002
}
  0
LINE
  5
728
330
1F
100
AcDbEntity
  8
0
100
AcDbLine
 10
1292.000995687574
 20
265.5159722201841
 30
0.0
 11
1292.000995687574
 21
133.5259722201857
 31
0.0
  0
LINE
  5
729
330
1F
100
AcDbEntity
  8
0
100
AcDbLine
 10
96.00099568757469
 20
133.5259722189619
 30
0.0
 11
96.00099568757469
 21
265.5159722201791
 31
0.0
  0
LINE
  5
72A
330
1F
100
AcDbEntity
  8
0
100
AcDbLine
 10
656.5290284115198
 20
629.2884824056516
 30
0.0
 11
657.0009956875742
 21
612.9379725295912
 31
0.0
  0
ARC
  5
72B
330
1F
100
AcDbEntity
  8
0
100
AcDbCircle
 10
655.5294447627837
 20
629.2596288239935
 30
0.0
 40
1.0
100
AcDbArc
 50
1.653417926862479
 51
90.0
  0
LINE
  5
72C
330
1F
100
AcDbEntity
  8
0
100
AcDbLine
 10
657.0009956875742
 20
612.9379725295912
 30
0.0
 11
731.0009956875743
 21
612.9379725295912
 31
0.0
  0
LINE
  5
72D
330
1F
100
AcDbEntity
  8
0
100
AcDbLine
 10
731.0009956875743
 20
612.9379725295912
 30
0.0
 11
731.4729629636294
 21
629.2884824056516
 31
0.0
  0
ARC
  5
72E
330
1F
100
AcDbEntity
  8
0
100
AcDbCircle
 10
732.4725466123726
 20
629.2596288239935
 30
0.0
 40
1.0
100
AcDbArc
 50
90.0
 51
178.3465820731375
  0
LINE
  5
72F
330
1F
100
AcDbEntity
  8
AM_7
100
AcDbLine
 10
694.0009956875743
 20
205.5259722237538
 30
0.0
 11
743.5009956875743
 21
205.5259722237538
 31
0.0
1001
GENIUS_GENOREF_13
1005
787
  0
LINE
  5
730
330
1F
100
AcDbEntity
  8
AM_7
100
AcDbLine
 10
694.0009956875743
 20
205.5259722237538
 30
0.0
 11
644.5009956875742
 21
205.5259722237538
 31
0.0
1001
GENIUS_GENOREF_13
1005
787
  0
ARC
  5
731
330
1F
100
AcDbEntity
  8
0
100
AcDbCircle
 10
693.7475083059345
 20
429.3344563046925
 30
0.0
 40
204.5276150863223
100
AcDbArc
 50
89.92898875367945
 51
100.7696033285289
  0
ARC
  5
732
330
1F
100
AcDbEntity
  8
0
100
AcDbCircle
 10
694.2544830692147
 20
429.3344563046925
 30
0.0
 40
204.5276150863223
100
AcDbArc
 50
79.23039667147104
 51
90.07101124611208
  0
LINE
  5
733
330
1F
100
AcDbEntity
  8
RUNDUNGEN
  6
Continuous
 62
     7
100
AcDbLine
 10
1292.000995687574
 20
552.9379725295913
 30
0.0
 11
1292.000995687578
 21
635.9379725295926
 31
0.0
  0
LINE
  5
734
330
1F
100
AcDbEntity
  8
RUNDUNGEN
  6
Continuous
 62
     7
100
AcDbLine
 10
1292.000995687578
 20
636.9379725295912
 30
0.0
 11
1292.000995687574
 21
648.937972529591
 31
0.0
  0
LINE
  5
735
330
1F
100
AcDbEntity
  8
0
  6
Continuous
 62
     9
100
AcDbLine
 10
1293.000995687574
 20
648.937972529591
 30
0.0
 11
1293.000995687574
 21
637.9471762027915
 31
0.0
  0
LINE
  5
736
330
1F
100
AcDbEntity
  8
RUNDUNGEN
  6
Continuous
 62
     7
100
AcDbLine
 10
1293.000995687578
 20
575.9379725295912
 30
0.0
 11
1293.000995687574
 21
635.9379725295911
 31
0.0
  0
LINE
  5
737
330
1F
100
AcDbEntity
  8
RUNDUNGEN
  6
Continuous
 62
     7
100
AcDbLine
 10
1293.000995687574
 20
636.9379725295912
 30
0.0
 11
1293.000995687574
 21
637.9471762027915
 31
0.0
  0
LINE
  5
738
330
1F
100
AcDbEntity
  8
RUNDUNGEN
  6
Continuous
 62
     7
100
AcDbLine
 10
1294.000995687574
 20
637.9379725295912
 30
0.0
 11
1294.000995687574
 21
648.937972529591
 31
0.0
  0
LINE
  5
739
330
1F
100
AcDbEntity
  8
0
  6
Continuous
 62
     7
100
AcDbLine
 10
1324.000995687574
 20
689.9379725295903
 30
0.0
 11
1324.000995687574
 21
635.9379725295911
 31
0.0
  0
LINE
  5
73A
330
1F
100
AcDbEntity
  8
RUNDUNGEN
  6
Continuous
 62
     7
100
AcDbLine
 10
1292.000995687574
 20
619.9379725295912
 30
0.0
 11
1293.000995687574
 21
619.9379725295912
 31
0.0
  0
LINE
  5
73B
330
1F
100
AcDbEntity
  8
0
  6
Continuous
 62
     7
100
AcDbLine
 10
1324.000995687574
 20
635.9379725295911
 30
0.0
 11
1293.000995687574
 21
635.9379725295911
 31
0.0
  0
LINE
  5
73C
330
1F
100
AcDbEntity
  8
RUNDUNGEN
  6
Continuous
 62
     7
100
AcDbLine
 10
1293.000995687574
 20
636.9379725295912
 30
0.0
 11
1324.000995687574
 21
636.9379725295912
 31
0.0
  0
LINE
  5
73D
330
1F
100
AcDbEntity
  8
RUNDUNGEN
  6
Continuous
 62
     7
100
AcDbLine
 10
1294.000995687574
 20
637.9379725295912
 30
0.0
 11
1293.000995687574
 21
637.9379725295912
 31
0.0
  0
LINE
  5
73E
330
1F
100
AcDbEntity
  8
RUNDUNGEN
  6
Continuous
 62
     7
100
AcDbLine
 10
1294.000995687574
 20
638.9471762027915
 30
0.0
 11
1293.000995687574
 21
638.9471762027915
 31
0.0
  0
LINE
  5
73F
330
1F
100
AcDbEntity
  8
RUNDUNGEN
  6
Continuous
 62
     7
100
AcDbLine
 10
1294.000995687574
 20
639.9471762027915
 30
0.0
 11
1293.000995687574
 21
639.9471762027915
 31
0.0
  0
LINE
  5
740
330
1F
100
AcDbEntity
  8
RUNDUNGEN
  6
Continuous
 62
     7
100
AcDbLine
 10
1294.000995687574
 20
648.937972529591
 30
0.0
 11
1292.000995687574
 21
648.937972529591
 31
0.0
  0
ARC
  5
741
330
1F
100
AcDbEntity
  8
0
  6
Continuous
 62
     7
100
AcDbCircle
 10
1295.000995687574
 20
637.9379725295912
 30
0.0
 40
2.0
100
AcDbArc
 50
180.0
 51
210.0383073755363
  0
ARC
  5
742
330
1F
100
AcDbEntity
  8
RUNDUNGEN
  6
Continuous
 62
     7
100
AcDbCircle
 10
1295.000995687574
 20
637.9379725295912
 30
0.0
 40
1.0
100
AcDbArc
 50
180.0
 51
270.0
  0
ARC
  5
743
330
1F
100
AcDbEntity
  8
RUNDUNGEN
  6
Continuous
 62
     7
100
AcDbCircle
 10
1293.000995687574
 20
648.937972529591
 30
0.0
 40
1.0
100
AcDbArc
 50
0.0
 51
180.0
  0
LINE
  5
744
330
1F
100
AcDbEntity
  8
0
100
AcDbLine
 10
1292.000995687574
 20
133.5259722202183
 30
0.0
 11
1324.000995687574
 21
133.5259722202183
 31
0.0
  0
LINE
  5
745
330
1F
100
AcDbEntity
  8
0
100
AcDbLine
 10
1294.000995687574
 20
245.9159722201783
 30
0.0
 11
1294.000995687574
 21
165.1359722192239
 31
0.0
  0
LINE
  5
746
330
1F
100
AcDbEntity
  8
0
100
AcDbLine
 10
1324.000995687574
 20
133.5259722202183
 30
0.0
 11
1324.000995665915
 21
266.5159722201816
 31
0.0
  0
LINE
  5
747
330
1F
100
AcDbEntity
  8
0
100
AcDbLine
 10
1294.000995687574
 20
245.9159722201783
 30
0.0
 11
1292.000995687574
 21
245.9159722201783
 31
0.0
  0
LINE
  5
748
330
1F
100
AcDbEntity
  8
0
100
AcDbLine
 10
1292.000995687574
 20
266.5159722201796
 30
0.0
 11
1324.000995687574
 21
266.5159722201796
 31
0.0
  0
LINE
  5
749
330
1F
100
AcDbEntity
  8
0
100
AcDbLine
 10
1294.000995687574
 20
165.1359722192239
 30
0.0
 11
1292.000995687574
 21
165.1359722192239
 31
0.0
  0
LINE
  5
74A
330
1F
100
AcDbEntity
  8
0
100
AcDbLine
 10
96.00099568757469
 20
133.5259722202183
 30
0.0
 11
75.00099568757469
 21
133.5259722202183
 31
0.0
  0
LINE
  5
74C
330
1F
100
AcDbEntity
  8
0
100
AcDbLine
 10
75.00099568757469
 20
133.5259722189291
 30
0.0
 11
75.00099568757469
 21
266.5159722201796
 31
0.0
  0
LINE
  5
74D
330
1F
100
AcDbEntity
  8
0
100
AcDbLine
 10
76.00099568757468
 20
133.5259722189291
 30
0.0
 11
76.00099568757468
 21
265.5159722201797
 31
0.0
  0
LINE
  5
74F
330
1F
100
AcDbEntity
  8
0
100
AcDbLine
 10
96.00099568757469
 20
266.5159722201796
 30
0.0
 11
75.00099568757469
 21
266.5159722201796
 31
0.0
  0
LINE
  5
751
330
1F
100
AcDbEntity
  8
RUNDUNGEN
  6
Continuous
 62
     7
100
AcDbLine
 10
96.00099568757469
 20
552.9379725295913
 30
0.0
 11
96.00099568757469
 21
630.2596288239936
 31
0.0
  0
LINE
  5
752
330
1F
100
AcDbEntity
  8
0
  6
Continuous
 62
     9
100
AcDbLine
 10
95.00099568757468
 20
648.937972529591
 30
0.0
 11
95.00099568757468
 21
637.9471762027915
 31
0.0
  0
LINE
  5
753
330
1F
100
AcDbEntity
  8
RUNDUNGEN
  6
Continuous
 62
     7
100
AcDbLine
 10
95.00099568757468
 20
575.9379725295922
 30
0.0
 11
95.00099568757468
 21
635.9379725295911
 31
0.0
  0
LINE
  5
754
330
1F
100
AcDbEntity
  8
RUNDUNGEN
  6
Continuous
 62
     7
100
AcDbLine
 10
94.00099568757468
 20
637.9379725295912
 30
0.0
 11
94.00099568757468
 21
648.937972529591
 31
0.0
  0
LINE
  5
755
330
1F
100
AcDbEntity
  8
RUNDUNGEN
  6
Continuous
 62
     7
100
AcDbLine
 10
96.00099568757469
 20
619.9379725295912
 30
0.0
 11
95.00099568757468
 21
619.9379725295912
 31
0.0
  0
LINE
  5
756
330
1F
100
AcDbEntity
  8
0
  6
Continuous
 62
     7
100
AcDbLine
 10
75.00099568757469
 20
635.9379725295911
 30
0.0
 11
95.00099568757468
 21
635.9379725295911
 31
0.0
  0
LINE
  5
757
330
1F
100
AcDbEntity
  8
RUNDUNGEN
  6
Continuous
 62
     7
100
AcDbLine
 10
95.00099568757468
 20
636.9379725295912
 30
0.0
 11
76.00099568757467
 21
636.9379725295912
 31
0.0
  0
LINE
  5
758
330
1F
100
AcDbEntity
  8
RUNDUNGEN
  6
Continuous
 62
     7
100
AcDbLine
 10
94.00099568757468
 20
637.9379725295912
 30
0.0
 11
95.00099568757468
 21
637.9379725295912
 31
0.0
  0
LINE
  5
759
330
1F
100
AcDbEntity
  8
RUNDUNGEN
  6
Continuous
 62
     7
100
AcDbLine
 10
94.00099568757468
 20
638.9471762027915
 30
0.0
 11
95.00099568757468
 21
638.9471762027915
 31
0.0
  0
LINE
  5
75A
330
1F
100
AcDbEntity
  8
RUNDUNGEN
  6
Continuous
 62
     7
100
AcDbLine
 10
94.00099568757468
 20
639.9471762027915
 30
0.0
 11
95.00099568757468
 21
639.9471762027915
 31
0.0
  0
LINE
  5
75B
330
1F
100
AcDbEntity
  8
RUNDUNGEN
  6
Continuous
 62
     7
100
AcDbLine
 10
77.00099568757469
 20
648.937972529591
 30
0.0
 11
94.00099568757468
 21
648.937972529591
 31
0.0
  0
ARC
  5
75C
330
1F
100
AcDbEntity
  8
0
  6
Continuous
 62
     7
100
AcDbCircle
 10
93.00099568757469
 20
637.9379725295912
 30
0.0
 40
2.0
100
AcDbArc
 50
329.9616926244636
 51
0.0
  0
ARC
  5
75D
330
1F
100
AcDbEntity
  8
RUNDUNGEN
  6
Continuous
 62
     7
100
AcDbCircle
 10
93.00099568757469
 20
637.9379725295912
 30
0.0
 40
1.0
100
AcDbArc
 50
270.0
 51
0.0
  0
ARC
  5
75E
102
{ACAD_REACTORS
330
786
102
}
330
1F
100
AcDbEntity
  8
RUNDUNGEN
  6
Continuous
 62
     7
100
AcDbCircle
 10
95.00099568757468
 20
648.937972529591
 30
0.0
 40
1.0
100
AcDbArc
 50
0.0
 51
180.0
  0
INSERT
  5
764
330
1F
100
AcDbEntity
  8
5
  6
ByBlock
100
AcDbBlockReference
  2
stutzen
 10
98.63175944342401
 20
264.8657601684158
 30
0.0
 41
0.1000000000021828
 42
0.1000000000003638
 43
0.1
  0
LINE
  5
766
330
1F
100
AcDbEntity
  8
0
100
AcDbLine
 10
1229.000995687574
 20
530.4425743661927
 30
0.0
 11
1289.000995687574
 21
530.4425743661927
 31
0.0
  0
LINE
  5
767
330
1F
100
AcDbEntity
  8
0
100
AcDbLine
 10
1289.000995687574
 20
530.4425743661927
 30
0.0
 11
1289.000995687574
 21
595.4425743661927
 31
0.0
  0
LINE
  5
768
330
1F
100
AcDbEntity
  8
0
100
AcDbLine
 10
1289.000995687574
 20
595.4425743661927
 30
0.0
 11
1292.000995687574
 21
595.4425743661927
 31
0.0
  0
LINE
  5
769
330
1F
100
AcDbEntity
  8
0
100
AcDbLine
 10
1292.000995687574
 20
595.4425743661927
 30
0.0
 11
1292.000995687574
 21
527.4425743661927
 31
0.0
  0
LINE
  5
76A
330
1F
100
AcDbEntity
  8
0
100
AcDbLine
 10
1292.000995687574
 20
527.4425743661927
 30
0.0
 11
1229.000995687574
 21
527.4425743661927
 31
0.0
  0
LINE
  5
76B
330
1F
100
AcDbEntity
  8
0
100
AcDbLine
 10
1229.000995687574
 20
527.4425743661927
 30
0.0
 11
1229.000995687574
 21
530.4425743661927
 31
0.0
  0
LINE
  5
76C
330
1F
100
AcDbEntity
  8
0
100
AcDbLine
 10
159.0009956875746
 20
526.5988006767916
 30
0.0
 11
99.00099568757468
 21
526.5988006767916
 31
0.0
  0
LINE
  5
76D
330
1F
100
AcDbEntity
  8
0
100
AcDbLine
 10
96.00099568757469
 20
523.5988006767914
 30
0.0
 11
159.0009956875746
 21
523.5988006767914
 31
0.0
  0
LINE
  5
76E
330
1F
100
AcDbEntity
  8
0
100
AcDbLine
 10
99.00099568757468
 20
526.5988006767916
 30
0.0
 11
99.00099568757468
 21
591.5988006767916
 31
0.0
  0
LINE
  5
76F
330
1F
100
AcDbEntity
  8
0
100
AcDbLine
 10
99.00099568757468
 20
591.5988006767916
 30
0.0
 11
96.00099568757469
 21
591.5988006767916
 31
0.0
  0
LINE
  5
770
330
1F
100
AcDbEntity
  8
0
100
AcDbLine
 10
96.00099568757469
 20
591.5988006767916
 30
0.0
 11
96.00099568757469
 21
523.5988006767914
 31
0.0
  0
LINE
  5
771
330
1F
100
AcDbEntity
  8
0
100
AcDbLine
 10
159.0009956875746
 20
523.5988006767914
 30
0.0
 11
159.0009956875746
 21
526.5988006767916
 31
0.0
  0
LINE
  5
772
330
1F
100
AcDbEntity
  8
0
100
AcDbLine
 10
95.00099568757468
 20
575.9379725295912
 30
0.0
 11
96.00099568757469
 21
575.9379725295912
 31
0.0
  0
LINE
  5
773
330
1F
100
AcDbEntity
  8
0
100
AcDbLine
 10
1292.000995687578
 20
575.9379725295922
 30
0.0
 11
1293.000995687574
 21
575.9379725295912
 31
0.0
  0
DIMENSION
  5
774
330
1F
100
AcDbEntity
  8
AM_5
100
AcDbDimension
  2
*D12
 10
1292.000995687574
 20
64.59768092285083
 30
0.0
 11
691.4020254638063
 21
64.59768092285083
 31
0.0
 70
   160
  1
<>
 71
     5
 42
1195.999999999999
  3
AM_DIN$0
100
AcDbAlignedDimension
 13
96.00099568757469
 23
165.1359722192239
 33
0.0
 14
1292.000995687574
 24
165.1359722192239
 34
0.0
100
AcDbRotatedDimension
1001
ACAD
1000
DSTYLE
1002
{
1070
   286
1070
     0
1070
   284
1070
     8
1070
   274
1070
     4
1070
   272
1070
     3
1070
    40
1040
5.0
1070
    47
1040
1.0
1070
    48
1040
1.0
1002
}
1001
ACAD_DSTYLE_DIMINSPECT
1070
   396
1000

1070
   395
1000

1070
   394
1070
     1
1070
   393
1070
     0
  0
DIMENSION
  5
775
330
1F
100
AcDbEntity
  8
AM_5
100
AcDbDimension
  2
*D13
 10
1324.000995687574
 20
5.000000170584826
 30
0.0
 11
690.1597675240599
 21
5.000000170584826
 31
0.0
 70
   160
  1
<>
 71
     5
 42
1248.999999999999
  3
AM_DIN$0
100
AcDbAlignedDimension
 13
75.00099568757469
 23
133.5259722189291
 33
0.0
 14
1324.000995687574
 24
133.5259722192235
 34
0.0
100
AcDbRotatedDimension
1001
ACAD
1000
DSTYLE
1002
{
1070
   286
1070
     0
1070
   284
1070
     8
1070
   274
1070
     4
1070
   272
1070
     3
1070
    40
1040
5.0
1070
    47
1040
1.0
1070
    48
1040
1.0
1002
}
1001
ACAD_DSTYLE_DIMINSPECT
1070
   396
1000
100%
1070
   395
1000

1070
   394
1070
    33
1070
   393
1070
     0
  0
DIMENSION
  5
776
330
1F
100
AcDbEntity
  8
AM_5
100
AcDbDimension
  2
*D14
 10
1353.000995709234
 20
649.9379725295892
 30
0.0
 11
1336.750995709234
 21
612.9379725295895
 31
0.0
 70
    32
  1
<>
 71
     5
 42
74.0
  3
AM_DIN$0
100
AcDbAlignedDimension
 13
1293.000995709234
 23
575.9379725295892
 33
0.0
 14
1293.000995709234
 24
649.9379725295892
 34
0.0
 50
90.0
100
AcDbRotatedDimension
1001
ACAD
1000
DSTYLE
1002
{
1070
   286
1070
     0
1070
   284
1070
     8
1070
   274
1070
     4
1070
   272
1070
     3
1070
    40
1040
5.0
1070
    47
1040
1.0
1070
    48
1040
1.0
1002
}
1001
ACAD_DSTYLE_DIMINSPECT
1070
   396
1000
100%
1070
   395
1000

1070
   394
1070
    33
1070
   393
1070
     0
  0
LINE
  5
777
330
1F
100
AcDbEntity
  8
AM_7
100
AcDbLine
 10
694.0009956875743
 20
269.5159722201816
 30
0.0
 11
694.0009956875748
 21
130.5259722202189
 31
0.0
1001
GENIUS_GENOBJ-N-CEN_13
1002
{
1000
OWNER
1000
GEN
1002
}
1001
GENIUS_GENODEF_13
1002
{
1000
HIER
1070
     0
1002
}
1002
{
1000
MANEDIT
1070
     0
1002
}
1002
{
1000
NOSEL
1070
     0
1002
}
1002
{
1000
BEHIND
1070
     0
1002
}
1002
{
1000
OTHER
1070
     0
1002
}
1002
{
1000
REACTOR
1002
}
1001
GENIUS_GENCEN_19
1002
{
1040
3.0
1002
}
  0
DIMENSION
  5
778
330
1F
100
AcDbEntity
  8
AM_5
100
AcDbDimension
  2
*D15
 10
1413.887164048977
 20
266.5159722201796
 30
0.0
 11
1397.637164048977
 21
200.0209722195535
 31
0.0
 70
    32
 71
     5
 42
132.9900000012526
  3
AM_DIN$0
100
AcDbAlignedDimension
 13
1324.000995709232
 23
133.525972218927
 33
0.0
 14
1324.000995687574
 24
266.5159722201796
 34
0.0
 50
90.0
100
AcDbRotatedDimension
1001
ACAD_DSTYLE_DIMINSPECT
1070
   396
1000
100%
1070
   395
1000

1070
   394
1070
    33
1070
   393
1070
     0
1001
ACAD
1000
DSTYLE
1002
{
1070
    40
1040
5.0
1070
    47
1040
1.0
1070
    48
1040
1.0
1070
   271
1070
     0
1002
}
  0
DIMENSION
  5
779
330
1F
100
AcDbEntity
  8
AM_5
100
AcDbDimension
  2
*D16
 10
1364.189562434385
 20
245.5159722201788
 30
0.0
 11
1364.189562434385
 21
205.5259722196985
 31
0.0
 70
   160
 71
     5
 42
81.99000000095585
  3
AM_DIN$0
100
AcDbAlignedDimension
 13
1292.000995709232
 23
163.5259722192229
 33
0.0
 14
1292.000995687574
 24
245.5159722201788
 34
0.0
 50
90.0
100
AcDbRotatedDimension
1001
ACAD_DSTYLE_DIMINSPECT
1070
   396
1000
100%
1070
   395
1000

1070
   394
1070
    33
1070
   393
1070
     0
1001
ACAD
1000
DSTYLE
1002
{
1070
    40
1040
5.0
1070
    47
1040
1.0
1070
    48
1040
1.0
1070
   271
1070
     0
1002
}
  0
DIMENSION
  5
77A
330
1F
100
AcDbEntity
  8
AM_5
100
AcDbDimension
  2
*D17
 10
669.0009957055533
 20
415.8925730280966
 30
0.0
 11
694.0009957058716
 21
415.8925730280966
 31
0.0
 70
   160
  1
%%c<>
 71
     5
 42
50.00000000063664
  3
AM_DIN$0
100
AcDbAlignedDimension
 13
719.0009957061899
 23
487.1556583756697
 33
0.0
 14
669.0009957055533
 24
487.1556583756697
 34
0.0
100
AcDbRotatedDimension
1001
ACAD_DSTYLE_DIMINSPECT
1070
   396
1000

1070
   395
1000

1070
   394
1070
     1
1070
   393
1070
     0
1001
ACAD
1000
DSTYLE
1002
{
1070
    40
1040
5.0
1070
    47
1040
1.0
1070
    48
1040
1.0
1002
}
  0
LINE
  5
77B
330
1F
100
AcDbEntity
  8
0
100
AcDbLine
 10
76.00099568757467
 20
636.9379725295912
 30
0.0
 11
76.00099568757467
 21
649.2059217220226
 31
0.0
  0
LINE
  5
77C
330
1F
100
AcDbEntity
  8
0
100
AcDbLine
 10
76.00099568757467
 20
650.9379725295906
 30
0.0
 11
76.00099568757468
 21
689.9379725295903
 31
0.0
  0
LINE
  5
77D
330
1F
100
AcDbEntity
  8
0
100
AcDbLine
 10
1324.000995687574
 20
689.9379725295903
 30
0.0
 11
75.00099568757469
 21
689.9379725295903
 31
0.0
  0
LINE
  5
77E
102
{ACAD_REACTORS
330
786
102
}
330
1F
100
AcDbEntity
  8
0
100
AcDbLine
 10
75.00099568757469
 20
689.9379725295903
 30
0.0
 11
75.00099568757469
 21
635.9379725295911
 31
0.0
  0
ARC
  5
77F
330
1F
100
AcDbEntity
  8
0
100
AcDbCircle
 10
77.00099568757469
 20
650.9379725295906
 30
0.0
 40
1.0
100
AcDbArc
 50
180.0
 51
270.0
  0
ARC
  5
780
330
1F
100
AcDbEntity
  8
0
100
AcDbCircle
 10
77.00099568757469
 20
650.9379725295912
 30
0.0
 40
2.0
100
AcDbArc
 50
180.0
 51
270.0
  0
DIMENSION
  5
781
102
{ACAD_XDICTIONARY
360
782
102
}
102
{ACAD_REACTORS
330
783
102
}
330
1F
100
AcDbEntity
  8
AM_5
100
AcDbDimension
  2
*D18
 10
76.00099568757468
 20
738.257554263678
 30
0.0
 11
153.340988476511
 21
738.257554263678
 31
0.0
 70
   160
 71
     5
 42
20.0
  3
AM_DIN$0
100
AcDbAlignedDimension
 13
96.00099568757469
 23
649.9379725295906
 33
0.0
 14
76.00099568757468
 24
689.9379725295903
 34
0.0
 50
0.0000000000000496
100
AcDbRotatedDimension
1001
ACAD_DSTYLE_DIMINSPECT
1070
   396
1000
100%
1070
   395
1000

1070
   394
1070
    33
1070
   393
1070
     0
1001
ACAD
1000
DSTYLE
1002
{
1070
    40
1040
5.0
1070
    47
1040
1.0
1070
    48
1040
1.0
1002
}
  0
DIMENSION
  5
784
102
{ACAD_XDICTIONARY
360
785
102
}
102
{ACAD_REACTORS
330
786
102
}
330
1F
100
AcDbEntity
  8
AM_5
100
AcDbDimension
  2
*D19
 10
24.13189065492008
 20
689.9379725295906
 30
0.0
 11
24.13189065491997
 21
669.9379725295906
 31
0.0
 70
   160
 71
     5
 42
40.0
  3
AM_DIN$0
100
AcDbAlignedDimension
 13
95.00099568757468
 23
649.9379725295906
 33
0.0
 14
75.00099568757469
 24
689.9379725295906
 34
0.0
 50
90.0
100
AcDbRotatedDimension
1001
ACAD_DSTYLE_DIMINSPECT
1070
   396
1000
100%
1070
   395
1000

1070
   394
1070
    33
1070
   393
1070
     0
1001
ACAD
1000
DSTYLE
1002
{
1070
    40
1040
5.0
1070
    47
1040
1.0
1070
    48
1040
1.0
1002
}
  0
POINT
  5
787
330
1F
100
AcDbEntity
  8
0
 60
     1
100
AcDbPoint
 10
-11931.55471682447
 20
3092.277634196762
 30
0.0
1001
GENIUS_GENOENT_13
1002
{
1000
MYREF
1005
787
1002
}
1002
{
1000
GRP
1005
0
1002
}
1001
GENIUS_GENOLIS_13
1002
{
1000
ENT
1005
0
1005
730
1005
0
1005
72F
1002
}
1001
GENIUS_GENOBJ-N-CRS_13
1002
{
1000
OWNER
1000
GEN
1002
}
1001
GENIUS_GENODEF_13
1002
{
1000
HIER
1070
    10
1002
}
1002
{
1000
MANEDIT
1070
     1
1002
}
1002
{
1000
NOSEL
1070
     0
1002
}
1002
{
1000
BEHIND
1070
     0
1002
}
1002
{
1000
OTHER
1070
     0
1002
}
1002
{
1000
REACTOR
1002
}
  0
LINE
  5
7FA
330
1F
100
AcDbEntity
  8
0
100
AcDbLine
 10
96.00099568757469
 20
265.5159722201797
 30
0.0
 11
76.00099568757468
 21
265.5159722201797
 31
0.0
  0
LINE
  5
7FC
330
1F
100
AcDbEntity
  8
0
  6
Continuous
 62
     7
100
AcDbLine
 10
1292.000995687574
 20
265.5159722201841
 30
0.0
 11
96.00099568757469
 21
265.5159722201791
 31
0.0
  0
LINE
  5
7FD
330
1F
100
AcDbEntity
  8
0
100
AcDbLine
 10
1292.000995687574
 20
265.5159722201797
 30
0.0
 11
1324.000995687574
 21
265.5159722201797
 31
0.0
  0
LINE
  5
994
330
1F
100
AcDbEntity
  8
RUNDUNGEN
  6
Continuous
 62
     7
100
AcDbLine
 10
656.5152551859737
 20
205.5259722168003
 30
0.0
 11
656.5009956875748
 21
205.5259722170013
 31
0.0
  0
LINE
  5
995
330
1F
100
AcDbEntity
  8
RUNDUNGEN
  6
Continuous
 62
     7
100
AcDbLine
 10
656.5009956875748
 20
205.5259722170013
 30
0.0
 11
656.0012205734874
 21
205.5259722227993
 31
0.0
  0
LINE
  5
996
330
1F
100
AcDbEntity
  8
RUNDUNGEN
  6
Continuous
 62
     7
100
AcDbLine
 10
731.4867361892885
 20
205.5259722293004
 30
0.0
 11
731.5009956875748
 21
205.5259722291012
 31
0.0
  0
CIRCLE
  5
997
330
1F
100
AcDbEntity
  8
0
  6
Continuous
 62
     7
100
AcDbCircle
 10
694.0009956875748
 20
205.5259722276342
 30
0.0
 40
37.0
  0
LINE
  5
998
330
1F
100
AcDbEntity
  8
RUNDUNGEN
  6
Continuous
 62
     7
100
AcDbLine
 10
656.5152551859737
 20
205.5259722129208
 30
0.0
 11
656.5009956875748
 21
205.52597221312
 31
0.0
  0
LINE
  5
999
330
1F
100
AcDbEntity
  8
RUNDUNGEN
  6
Continuous
 62
     7
100
AcDbLine
 10
656.5009956875748
 20
205.52597221312
 30
0.0
 11
656.0012205734766
 21
205.525972218919
 31
0.0
  0
LINE
  5
99A
330
1F
100
AcDbEntity
  8
RUNDUNGEN
  6
Continuous
 62
     7
100
AcDbLine
 10
731.4867361892776
 20
205.52597222542
 30
0.0
 11
731.5009956875748
 21
205.5259722252199
 31
0.0
  0
LINE
  5
99B
330
1F
100
AcDbEntity
  8
0
  6
Continuous
 62
     7
100
AcDbLine
 10
723.9851186703764
 20
207.7759722237538
 30
0.0
 11
723.9851186703764
 21
203.2759722237538
 31
0.0
  0
LINE
  5
99C
330
1F
100
AcDbEntity
  8
0
  6
Continuous
 62
     7
100
AcDbLine
 10
716.793962634276
 20
185.9149857923526
 30
0.0
 11
713.6119821189769
 21
182.7330052769525
 31
0.0
  0
LINE
  5
99D
330
1F
100
AcDbEntity
  8
0
  6
Continuous
 62
     7
100
AcDbLine
 10
691.7509956875748
 20
235.5100952066528
 30
0.0
 11
696.2509956875748
 21
235.5100952066528
 31
0.0
  0
LINE
  5
99E
330
1F
100
AcDbEntity
  8
0
  6
Continuous
 62
     7
100
AcDbLine
 10
713.6119821189769
 20
228.3189391705533
 30
0.0
 11
716.793962634276
 21
225.1369586551523
 31
0.0
  0
LINE
  5
99F
330
1F
100
AcDbEntity
  8
0
  6
Continuous
 62
     7
100
AcDbLine
 10
716.970739329574
 20
183.9704421440524
 30
0.0
 11
716.793962634276
 21
185.9149857923526
 31
0.0
  0
LINE
  5
9A0
330
1F
100
AcDbEntity
  8
0
  6
Continuous
 62
     7
100
AcDbLine
 10
716.793962634276
 20
225.1369586551523
 30
0.0
 11
716.970739329574
 21
227.0815023034543
 31
0.0
  0
LINE
  5
9A1
330
1F
100
AcDbEntity
  8
0
  6
Continuous
 62
     7
100
AcDbLine
 10
695.0009956875748
 20
174.0418492408539
 30
0.0
 11
696.2509956875748
 21
175.5418492408539
 31
0.0
  0
LINE
  5
9A2
330
1F
100
AcDbEntity
  8
0
  6
Continuous
 62
     7
100
AcDbLine
 10
723.9851186703764
 20
203.2759722237538
 30
0.0
 11
725.4851186703764
 21
204.5259722237529
 31
0.0
  0
LINE
  5
9A3
330
1F
100
AcDbEntity
  8
0
  6
Continuous
 62
     7
100
AcDbLine
 10
715.5565257672734
 20
228.4957158658531
 30
0.0
 11
713.6119821189769
 21
228.3189391705533
 31
0.0
  0
LINE
  5
9A4
330
1F
100
AcDbEntity
  8
0
  6
Continuous
 62
     7
100
AcDbLine
 10
674.3900092560742
 20
228.3189391705533
 30
0.0
 11
672.4454656078761
 21
228.4957158658531
 31
0.0
  0
LINE
  5
9A5
330
1F
100
AcDbEntity
  8
0
  6
Continuous
 62
     7
100
AcDbLine
 10
725.4851186703764
 20
206.5259722237529
 30
0.0
 11
723.9851186703764
 21
207.7759722237538
 31
0.0
  0
LINE
  5
9A6
330
1F
100
AcDbEntity
  8
0
  6
Continuous
 62
     7
100
AcDbLine
 10
696.2509956875748
 20
235.5100952066528
 30
0.0
 11
695.0009956875748
 21
237.0100952066528
 31
0.0
  0
LINE
  5
9A7
330
1F
100
AcDbEntity
  8
RUNDUNGEN
  6
Continuous
 62
     9
100
AcDbLine
 10
703.5009956875748
 20
207.0259722237538
 30
0.0
 11
703.5009956875748
 21
204.0259722237547
 31
0.0
  0
LINE
  5
9A8
330
1F
100
AcDbEntity
  8
0
  6
Continuous
 62
     7
100
AcDbLine
 10
702.0009956875748
 20
206.8259722237531
 30
0.0
 11
702.0009956875748
 21
204.2259722237545
 31
0.0
  0
LINE
  5
9A9
330
1F
100
AcDbEntity
  8
RUNDUNGEN
  6
Continuous
 62
     7
100
AcDbLine
 10
674.2239887328742
 20
207.0259722237538
 30
0.0
 11
685.8009940623762
 21
207.0259722237538
 31
0.0
  0
LINE
  5
9AA
330
1F
100
AcDbEntity
  8
RUNDUNGEN
  6
Continuous
 62
     7
100
AcDbLine
 10
702.2011016199741
 20
207.0259722237538
 30
0.0
 11
713.7780026421768
 21
207.0259722237538
 31
0.0
  0
LINE
  5
9AB
330
1F
100
AcDbEntity
  8
RUNDUNGEN
  6
Continuous
 62
     9
100
AcDbLine
 10
673.0412724069739
 20
206.8259722237531
 30
0.0
 11
686.0009956875748
 21
206.8259722237531
 31
0.0
  0
LINE
  5
9AC
330
1F
100
AcDbEntity
  8
RUNDUNGEN
  6
Continuous
 62
     9
100
AcDbLine
 10
702.0009956875748
 20
206.8259722237531
 30
0.0
 11
714.9607189681757
 21
206.8259722237531
 31
0.0
  0
LINE
  5
9AD
330
1F
100
AcDbEntity
  8
RUNDUNGEN
  6
Continuous
 62
     9
100
AcDbLine
 10
714.9607189681757
 20
204.2259722237545
 30
0.0
 11
702.0009956875748
 21
204.2259722237545
 31
0.0
  0
LINE
  5
9AE
330
1F
100
AcDbEntity
  8
RUNDUNGEN
  6
Continuous
 62
     9
100
AcDbLine
 10
686.0009956875748
 20
204.2259722237545
 30
0.0
 11
673.0412724069739
 21
204.2259722237545
 31
0.0
  0
LINE
  5
9AF
330
1F
100
AcDbEntity
  8
RUNDUNGEN
  6
Continuous
 62
     7
100
AcDbLine
 10
713.7780026421768
 20
204.0259722237547
 30
0.0
 11
702.2009973126753
 21
204.0259722237547
 31
0.0
  0
LINE
  5
9B0
330
1F
100
AcDbEntity
  8
RUNDUNGEN
  6
Continuous
 62
     7
100
AcDbLine
 10
685.8009940673747
 20
204.0259722237547
 30
0.0
 11
674.2239887328742
 21
204.0259722237547
 31
0.0
  0
LINE
  5
9B1
330
1F
100
AcDbEntity
  8
0
  6
Continuous
 62
     7
100
AcDbLine
 10
686.0009956875748
 20
204.2259722237545
 30
0.0
 11
686.0009956875748
 21
206.8259722237531
 31
0.0
  0
LINE
  5
9B2
330
1F
100
AcDbEntity
  8
RUNDUNGEN
  6
Continuous
 62
     9
100
AcDbLine
 10
684.5009956875748
 20
207.0259722237538
 30
0.0
 11
684.5009956875748
 21
204.0259722237547
 31
0.0
  0
LINE
  5
9B3
330
1F
100
AcDbEntity
  8
0
  6
Continuous
 62
     7
100
AcDbLine
 10
671.0312520454738
 20
227.0815023034543
 30
0.0
 11
671.2080287407752
 21
225.1369586551523
 31
0.0
  0
LINE
  5
9B4
330
1F
100
AcDbEntity
  8
0
  6
Continuous
 62
     7
100
AcDbLine
 10
671.2080287407752
 20
185.9149857923526
 30
0.0
 11
671.0312520454738
 21
183.9704421440524
 31
0.0
  0
LINE
  5
9B5
330
1F
100
AcDbEntity
  8
0
  6
Continuous
 62
     7
100
AcDbLine
 10
693.0009956875748
 20
237.0100952066528
 30
0.0
 11
691.7509956875748
 21
235.5100952066528
 31
0.0
  0
LINE
  5
9B6
330
1F
100
AcDbEntity
  8
0
  6
Continuous
 62
     7
100
AcDbLine
 10
664.0168727046749
 20
207.7759722237538
 30
0.0
 11
662.5168727046749
 21
206.5259722237529
 31
0.0
  0
LINE
  5
9B7
330
1F
100
AcDbEntity
  8
0
  6
Continuous
 62
     7
100
AcDbLine
 10
672.4454656078761
 20
182.5562285816536
 30
0.0
 11
674.3900092560742
 21
182.7330052769525
 31
0.0
  0
LINE
  5
9B8
330
1F
100
AcDbEntity
  8
0
  6
Continuous
 62
     7
100
AcDbLine
 10
713.6119821189769
 20
182.7330052769525
 30
0.0
 11
715.5565257672734
 21
182.5562285816536
 31
0.0
  0
LINE
  5
9B9
330
1F
100
AcDbEntity
  8
0
  6
Continuous
 62
     7
100
AcDbLine
 10
662.5168727046749
 20
204.5259722237529
 30
0.0
 11
664.0168727046749
 21
203.2759722237538
 31
0.0
  0
LINE
  5
9BA
330
1F
100
AcDbEntity
  8
0
  6
Continuous
 62
     7
100
AcDbLine
 10
691.7509956875748
 20
175.5418492408539
 30
0.0
 11
693.0009956875748
 21
174.0418492408539
 31
0.0
  0
LINE
  5
9BB
330
1F
100
AcDbEntity
  8
0
  6
Continuous
 62
     7
100
AcDbLine
 10
664.0168727046749
 20
203.2759722237538
 30
0.0
 11
664.0168727046749
 21
207.7759722237538
 31
0.0
  0
LINE
  5
9BC
330
1F
100
AcDbEntity
  8
0
  6
Continuous
 62
     7
100
AcDbLine
 10
671.2080287407752
 20
225.1369586551523
 30
0.0
 11
674.3900092560742
 21
228.3189391705533
 31
0.0
  0
LINE
  5
9BD
330
1F
100
AcDbEntity
  8
0
  6
Continuous
 62
     7
100
AcDbLine
 10
696.2509956875748
 20
175.5418492408539
 30
0.0
 11
691.7509956875748
 21
175.5418492408539
 31
0.0
  0
LINE
  5
9BE
330
1F
100
AcDbEntity
  8
0
  6
Continuous
 62
     7
100
AcDbLine
 10
674.3900092560742
 20
182.7330052769525
 30
0.0
 11
671.2080287407752
 21
185.9149857923526
 31
0.0
  0
ARC
  5
9BF
330
1F
100
AcDbEntity
  8
RUNDUNGEN
  6
Continuous
 62
     7
100
AcDbCircle
 10
702.2009956875755
 20
206.8259722237531
 30
0.0
 40
0.2
100
AcDbArc
 50
89.99953587230413
 51
180.0
  0
ARC
  5
9C0
330
1F
100
AcDbEntity
  8
RUNDUNGEN
  6
Continuous
 62
     7
100
AcDbCircle
 10
685.8009956875738
 20
206.8259722237531
 30
0.0
 40
0.2
100
AcDbArc
 50
0.0
 51
90.00046556135194
  0
CIRCLE
  5
9C1
330
1F
100
AcDbEntity
  8
BEZUGSACHSEN
  6
Continuous
 62
     7
100
AcDbCircle
 10
694.0009956875748
 20
205.5259722237538
 30
0.0
 40
37.75
  0
CIRCLE
  5
9C2
330
1F
100
AcDbEntity
  8
BEZUGSACHSEN
  6
Continuous
 62
     9
100
AcDbCircle
 10
694.0009956875748
 20
205.5259722237538
 30
0.0
 40
34.8249358981
  0
ARC
  5
9C3
330
1F
100
AcDbEntity
  8
0
  6
Continuous
 62
     7
100
AcDbCircle
 10
694.0009956875748
 20
205.5259722237538
 30
0.0
 40
31.5
100
AcDbArc
 50
226.8192192939952
 51
268.1807807059966
  0
ARC
  5
9C4
330
1F
100
AcDbEntity
  8
0
  6
Continuous
 62
     7
100
AcDbCircle
 10
694.0009956875748
 20
205.5259722237538
 30
0.0
 40
31.5
100
AcDbArc
 50
181.8192192940034
 51
223.1807807060762
  0
ARC
  5
9C5
330
1F
100
AcDbEntity
  8
0
  6
Continuous
 62
     7
100
AcDbCircle
 10
694.0009956875748
 20
205.5259722237538
 30
0.0
 40
31.5
100
AcDbArc
 50
136.8192192939237
 51
178.1807807059965
  0
ARC
  5
9C6
330
1F
100
AcDbEntity
  8
0
  6
Continuous
 62
     7
100
AcDbCircle
 10
694.0009956875748
 20
205.5259722237538
 30
0.0
 40
31.5
100
AcDbArc
 50
91.81921929400344
 51
133.1807807060048
  0
ARC
  5
9C7
330
1F
100
AcDbEntity
  8
0
  6
Continuous
 62
     7
100
AcDbCircle
 10
694.0009956875748
 20
205.5259722237538
 30
0.0
 40
31.5
100
AcDbArc
 50
46.81921929399518
 51
88.18078070599655
  0
ARC
  5
9C8
330
1F
100
AcDbEntity
  8
0
  6
Continuous
 62
     7
100
AcDbCircle
 10
694.0009956875748
 20
205.5259722237538
 30
0.0
 40
31.5
100
AcDbArc
 50
1.819219294003453
 51
43.18078070607626
  0
ARC
  5
9C9
330
1F
100
AcDbEntity
  8
0
  6
Continuous
 62
     7
100
AcDbCircle
 10
694.0009956875748
 20
205.5259722237538
 30
0.0
 40
31.5
100
AcDbArc
 50
316.8192192939238
 51
358.1807807059965
  0
ARC
  5
9CA
330
1F
100
AcDbEntity
  8
0
  6
Continuous
 62
     7
100
AcDbCircle
 10
694.0009956875748
 20
205.5259722237538
 30
0.0
 40
31.5
100
AcDbArc
 50
271.8192192940034
 51
313.1807807060048
  0
ARC
  5
9CB
330
1F
100
AcDbEntity
  8
RUNDUNGEN
  6
Continuous
 62
     9
100
AcDbCircle
 10
694.0009956875748
 20
205.5259722237538
 30
0.0
 40
21.0
100
AcDbArc
 50
3.549150897490096
 51
176.4508491025099
  0
ARC
  5
9CC
330
1F
100
AcDbEntity
  8
RUNDUNGEN
  6
Continuous
 62
     9
100
AcDbCircle
 10
694.0009956875748
 20
205.5259722237538
 30
0.0
 40
21.0
100
AcDbArc
 50
183.5491508974901
 51
356.4508491025098
  0
ARC
  5
9CD
330
1F
100
AcDbEntity
  8
0
  6
Continuous
 62
     7
100
AcDbCircle
 10
694.0009956875748
 20
205.5259722237538
 30
0.0
 40
17.5
100
AcDbArc
 50
184.9171003355094
 51
355.0828996644906
  0
ARC
  5
9CE
330
1F
100
AcDbEntity
  8
0
  6
Continuous
 62
     7
100
AcDbCircle
 10
694.0009956875748
 20
205.5259722237538
 30
0.0
 40
17.5
100
AcDbArc
 50
4.917100335509383
 51
175.0828996644905
  0
ARC
  5
9CF
330
1F
100
AcDbEntity
  8
RUNDUNGEN
  6
Continuous
 62
     7
100
AcDbCircle
 10
702.2009956875755
 20
204.2259722237545
 30
0.0
 40
0.2
100
AcDbArc
 50
180.0
 51
270.0004655613519
  0
ARC
  5
9D0
330
1F
100
AcDbEntity
  8
RUNDUNGEN
  6
Continuous
 62
     7
100
AcDbCircle
 10
685.8009956875738
 20
204.2259722237545
 30
0.0
 40
0.2
100
AcDbArc
 50
269.9995358720957
 51
0.0
  0
SPLINE
  5
9D1
330
1F
100
AcDbEntity
  8
RUNDUNGEN
  6
Continuous
 62
     7
100
AcDbSpline
210
0.0
220
0.0
230
1.0
 70
     8
 71
     3
 72
    15
 73
    11
 74
     9
 42
0.0000000001
 43
0.0000000001
 44
0.0000000001
 12
-0.9734575250016488
 22
-0.228867750060301
 32
0.0
 13
-1.0
 23
0.0000000000000001
 33
0.0
 40
0.0
 40
0.0
 40
0.0
 40
0.0
 40
0.1510810008472001
 40
0.3012692817884561
 40
0.450899557878867
 40
0.6001317707656496
 40
0.7491566218497724
 40
0.8985674046151682
 40
1.04907053429716
 40
1.201862823993442
 40
1.201862823993442
 40
1.201862823993442
 40
1.201862823993442
 10
714.9607189681757
 20
204.2259722237545
 30
0.0
 10
714.9116953224559
 20
204.2144463675076
 30
0.0
 10
714.8139361137825
 20
204.1914692807091
 30
0.0
 10
714.667459315879
 20
204.1577802452741
 30
0.0
 10
714.521264234515
 20
204.1256362732629
 30
0.0
 10
714.374975814367
 20
204.0957799787418
 30
0.0
 10
714.2281400668848
 20
204.0691134421014
 30
0.0
 10
714.0801280296138
 20
204.0468266572676
 30
0.0
 10
713.9300447083735
 20
204.030673876968
 30
0.0
 10
713.8289334054089
 20
204.0259722237529
 30
0.0
 10
713.7780026421768
 20
204.0259722237529
 30
0.0
 11
714.9607189681757
 21
204.2259722237545
 31
0.0
 11
714.8136188953741
 21
204.1915188146527
 31
0.0
 11
714.6672246218749
 21
204.1579742708532
 31
0.0
 11
714.5210556727741
 21
204.1259764921538
 31
0.0
 11
714.3748048380749
 21
204.0962957456527
 31
0.0
 11
714.2281407704739
 21
204.0698749675535
 31
0.0
 11
714.0803518354752
 21
204.047920179954
 31
0.0
 11
713.9306653926742
 21
204.0322625656522
 31
0.0
 11
713.7780026421768
 21
204.0259722237529
 31
0.0
  0
SPLINE
  5
9D2
330
1F
100
AcDbEntity
  8
RUNDUNGEN
  6
Continuous
 62
     7
100
AcDbSpline
210
0.0
220
0.0
230
1.0
 70
     8
 71
     3
 72
    15
 73
    11
 74
     9
 42
0.0000000001
 43
0.0000000001
 44
0.0000000001
 12
0.9734575250016488
 22
0.228867750060301
 32
0.0
 13
1.0
 23
-0.0000000000000001
 33
0.0
 40
0.0
 40
0.0
 40
0.0
 40
0.0
 40
0.1510810007472878
 40
0.3012692817878034
 40
0.4508995577788426
 40
0.6001317706657559
 40
0.7491566218498573
 40
0.8985674045187518
 40
1.049070534298002
 40
1.201862823895953
 40
1.201862823895953
 40
1.201862823895953
 40
1.201862823895953
 10
673.0412724069739
 20
206.8259722237531
 30
0.0
 10
673.0902960526613
 20
206.8374980799924
 30
0.0
 10
673.1880552613255
 20
206.8604751668301
 30
0.0
 10
673.3345320592095
 20
206.8941642022007
 30
0.0
 10
673.4807271405629
 20
206.9263081742596
 30
0.0
 10
673.6270155607131
 20
206.9561644687749
 30
0.0
 10
673.7738513082011
 20
206.9828310053832
 30
0.0
 10
673.9218633455003
 20
207.0051177902587
 30
0.0
 10
674.0719466667118
 20
207.0212705705238
 30
0.0
 10
674.1730579696749
 20
207.0259722237538
 30
0.0
 10
674.2239887328742
 20
207.0259722237538
 30
0.0
 11
673.0412724069739
 21
206.8259722237531
 31
0.0
 11
673.1883724796736
 21
206.8604256328522
 31
0.0
 11
673.3347667532743
 21
206.8939701766535
 31
0.0
 11
673.4809357022732
 21
206.925967955353
 31
0.0
 11
673.6271865369728
 21
206.9556487018531
 31
0.0
 11
673.7738506046752
 21
206.9820694799533
 31
0.0
 11
673.9216395395763
 21
207.0040242675527
 31
0.0
 11
674.0713259824753
 21
207.0196818818536
 31
0.0
 11
674.2239887328742
 21
207.0259722237538
 31
0.0
  0
SPLINE
  5
9D3
330
1F
100
AcDbEntity
  8
RUNDUNGEN
  6
Continuous
 62
     7
100
AcDbSpline
210
0.0
220
0.0
230
1.0
 70
     8
 71
     3
 72
    14
 73
    10
 74
     8
 42
0.0000000001
 43
0.0000000001
 44
0.0000000001
 12
1.0
 22
-0.0000000000000001
 32
0.0
 13
0.9734575249949115
 23
-0.2288677500889578
 33
0.0
 40
0.0
 40
0.0
 40
0.0
 40
0.0
 40
0.1775159166276598
 40
0.3522169696264226
 40
0.5240382291779572
 40
0.6932544782934557
 40
0.861517679467969
 40
1.030378979886358
 40
1.201839310652764
 40
1.201839310652764
 40
1.201839310652764
 40
1.201839310652764
 10
713.7780026421768
 20
207.0259722237538
 30
0.0
 10
713.837174614386
 20
207.0259722237538
 30
0.0
 10
713.9545915828803
 20
207.0196657891859
 30
0.0
 10
714.128079753288
 20
206.998813372337
 30
0.0
 10
714.2977478321045
 20
206.970869670422
 30
0.0
 10
714.4643879030783
 20
206.9383618011904
 30
0.0
 10
714.6293831549246
 20
206.9027844791382
 30
0.0
 10
714.7946508944681
 20
206.8650074912118
 30
0.0
 10
714.9050825184349
 20
206.8390528037971
 30
0.0
 10
714.9607189681757
 20
206.8259722237531
 30
0.0
 11
713.7780026421768
 21
207.0259722237538
 31
0.0
 11
713.955323711476
 21
207.0176572349533
 31
0.0
 11
714.1288499960738
 21
206.9974313487533
 31
0.0
 11
714.2984501426745
 21
206.9698934565527
 31
0.0
 11
714.4645864010726
 21
206.9377549654523
 31
0.0
 11
714.6291125038752
 21
206.9024893112533
 31
0.0
 11
714.7937674337753
 21
206.8650341001526
 31
0.0
 11
714.9607189681757
 21
206.8259722237531
 31
0.0
  0
SPLINE
  5
9D4
330
1F
100
AcDbEntity
  8
RUNDUNGEN
  6
Continuous
 62
     7
100
AcDbSpline
210
0.0
220
0.0
230
1.0
 70
     8
 71
     3
 72
    14
 73
    10
 74
     8
 42
0.0000000001
 43
0.0000000001
 44
0.0000000001
 12
-1.0
 22
0.0000000000000001
 32
0.0
 13
-0.9734575249949115
 23
0.2288677500889578
 33
0.0
 40
0.0
 40
0.0
 40
0.0
 40
0.0
 40
0.1775159165294995
 40
0.3522169696178572
 40
0.5240382291848963
 40
0.6932544783009078
 40
0.8615176793756038
 40
1.030378979889902
 40
1.201839310560715
 40
1.201839310560715
 40
1.201839310560715
 40
1.201839310560715
 10
674.2239887328742
 20
204.0259722237529
 30
0.0
 10
674.1648167606976
 20
204.0259722237529
 30
0.0
 10
674.0473997922131
 20
204.0322786583816
 30
0.0
 10
673.8739116217734
 20
204.053131074989
 30
0.0
 10
673.704243542955
 20
204.0810747771294
 30
0.0
 10
673.5376034719979
 20
204.1135826462866
 30
0.0
 10
673.3726082201656
 20
204.1491599684033
 30
0.0
 10
673.20734048064
 20
204.1869369562574
 30
0.0
 10
673.0969088566837
 20
204.2128916437178
 30
0.0
 10
673.0412724069739
 20
204.2259722237545
 30
0.0
 11
674.2239887328742
 21
204.0259722237529
 31
0.0
 11
674.0466676636732
 21
204.0342872125525
 31
0.0
 11
673.8731413789737
 21
204.0545130986534
 31
0.0
 11
673.7035412323731
 21
204.0820509909522
 31
0.0
 11
673.5374049739747
 21
204.1141894820535
 31
0.0
 11
673.3728788712742
 21
204.1494551362525
 31
0.0
 11
673.2082239412758
 21
204.1869103473533
 31
0.0
 11
673.0412724069739
 21
204.2259722237545
 31
0.0
  0
LINE
  5
9F9
102
{ACAD_REACTORS
330
A09
102
}
330
1F
100
AcDbEntity
  8
0
100
AcDbLine
 10
76.00099568757468
 20
265.5159722201797
 30
0.0
 11
75.00099568757469
 21
266.5159722201796
 31
0.0
  0
DIMENSION
  5
9FB
102
{ACAD_XDICTIONARY
360
A08
102
}
102
{ACAD_REACTORS
330
A09
102
}
330
1F
100
AcDbEntity
  8
AM_5
100
AcDbDimension
  2
*D20
 10
28.12824109894569
 20
265.5159722201797
 30
0.0
 11
28.12824109894564
 21
193.1618875745104
 31
0.0
 70
   160
 71
     5
 42
19.99999999999997
  3
AM_DIN$0
100
AcDbAlignedDimension
 13
96.00099568757471
 23
245.5159722201797
 33
0.0
 14
76.00099568757468
 24
265.5159722201797
 34
0.0
 50
90.0
100
AcDbRotatedDimension
1001
ACAD_DSTYLE_DIMINSPECT
1070
   396
1000
100%
1070
   395
1000

1070
   394
1070
    33
1070
   393
1070
     0
1001
ACAD
1000
DSTYLE
1002
{
1070
    40
1040
5.0
1070
    47
1040
1.0
1070
    48
1040
1.0
1002
}
  0
LINE
  5
CD0
330
1F
100
AcDbEntity
  8
0
100
AcDbLine
 10
669.9802016157944
 20
482.2596288244692
 30
0.0
 11
718.0217897957589
 21
482.2596288235205
 31
0.0
  0
LINE
  5
CD1
330
1F
100
AcDbEntity
  8
0
  6
ByBlock
 62
     0
100
AcDbLine
 10
670.0009957055661
 20
487.5096288648787
 30
0.0
 11
671.0509957138377
 21
482.2596288235205
 31
0.0
  0
LINE
  5
CD2
330
1F
100
AcDbEntity
  8
0
100
AcDbLine
 10
669.0009957055533
 20
487.1556583756697
 30
0.0
 11
669.9802016159842
 21
482.2596288235205
 31
0.0
  0
LINE
  5
CD3
330
1F
100
AcDbEntity
  8
0
  6
ByBlock
 62
     0
100
AcDbLine
 10
718.0009957061771
 20
487.5096288648787
 30
0.0
 11
716.9509956979054
 21
482.2596288235205
 31
0.0
  0
LINE
  5
CD4
330
1F
100
AcDbEntity
  8
0
100
AcDbLine
 10
719.0009957061899
 20
487.1556583756697
 30
0.0
 11
718.0217897957589
 21
482.2596288235205
 31
0.0
  0
LINE
  5
CD5
330
1F
100
AcDbEntity
  8
0
  6
Continuous
 62
     2
100
AcDbLine
 10
669.6462451239926
 20
483.929411283477
 30
0.0
 11
670.3956279083955
 21
485.5364678507317
 31
0.0
  0
LINE
  5
CD6
330
1F
100
AcDbEntity
  8
0
  6
Continuous
 62
     2
100
AcDbLine
 10
718.0009956975922
 20
487.3725150823073
 30
0.0
 11
719.0009956976049
 21
489.5170220028347
 31
0.0
  0
LINE
  5
CD7
330
1F
100
AcDbEntity
  8
0
  6
Continuous
 62
     2
100
AcDbLine
 10
718.0009956975922
 20
500.2958515214721
 30
0.0
 11
719.0009956976049
 21
502.4403584419996
 31
0.0
  0
LINE
  5
CD8
330
1F
100
AcDbEntity
  8
0
  6
Continuous
 62
     2
100
AcDbLine
 10
718.0009956975922
 20
513.2191879606367
 30
0.0
 11
719.0009956976049
 21
515.3636948811643
 31
0.0
  0
LINE
  5
CD9
330
1F
100
AcDbEntity
  8
0
  6
Continuous
 62
     2
100
AcDbLine
 10
718.0009956975922
 20
526.1425243999017
 30
0.0
 11
719.0009956976049
 21
528.287031320429
 31
0.0
  0
LINE
  5
CDA
330
1F
100
AcDbEntity
  8
0
  6
Continuous
 62
     7
100
AcDbLine
 10
719.0009956976049
 20
530.759628825561
 30
0.0
 11
719.0009956976049
 21
487.1556583327444
 31
0.0
  0
LINE
  5
CDB
330
1F
100
AcDbEntity
  8
0
  6
Continuous
 62
     7
100
AcDbLine
 10
718.0009956975922
 20
530.759628825561
 30
0.0
 11
718.0009956975922
 21
487.509628821954
 31
0.0
  0
LINE
  5
CDD
330
1F
100
AcDbEntity
  8
0
  6
Continuous
 62
     2
100
AcDbLine
 10
669.0009956969682
 20
493.8837887035916
 30
0.0
 11
670.000995696981
 21
496.0282956241171
 31
0.0
  0
LINE
  5
CDE
330
1F
100
AcDbEntity
  8
0
  6
Continuous
 62
     2
100
AcDbLine
 10
669.0009956969682
 20
506.8071251428545
 30
0.0
 11
670.000995696981
 21
508.9516320633819
 31
0.0
  0
LINE
  5
CDF
330
1F
100
AcDbEntity
  8
0
  6
Continuous
 62
     2
100
AcDbLine
 10
669.0009956969682
 20
519.7304615820211
 30
0.0
 11
670.000995696981
 21
521.8749685025485
 31
0.0
  0
LINE
  5
CE0
330
1F
100
AcDbEntity
  8
0
  6
Continuous
 62
     7
100
AcDbLine
 10
670.000995696981
 20
530.759628825561
 30
0.0
 11
670.0009957055661
 21
487.5096288648787
 31
0.0
  0
LINE
  5
CE1
330
1F
100
AcDbEntity
  8
0
  6
Continuous
 62
     7
100
AcDbLine
 10
669.0009956969682
 20
530.759628825561
 30
0.0
 11
669.0009957055533
 21
487.1556583756697
 31
0.0
  0
LINE
  5
CE2
330
1F
100
AcDbEntity
  8
0
  6
Continuous
 62
     7
100
AcDbLine
 10
719.0009956976049
 20
530.759628825561
 30
0.0
 11
669.0009956969682
 21
530.759628825561
 31
0.0
  0
LINE
  5
CE3
330
1F
100
AcDbEntity
  8
0
100
AcDbLine
 10
669.9802016156995
 20
482.2596288249435
 30
0.0
 11
718.0217897960435
 21
482.2596288249435
 31
0.0
  0
LINE
  5
CE4
330
1F
100
AcDbEntity
  8
AM_7
100
AcDbLine
 10
694.0009956972866
 20
533.7596288255992
 30
0.0
 11
694.0009956972866
 21
479.2596288249054
 31
0.0
1001
GENIUS_GENODEF_13
1002
{
1000
HIER
1070
     0
1002
}
1002
{
1000
MANEDIT
1070
     0
1002
}
1002
{
1000
NOSEL
1070
     0
1002
}
1002
{
1000
BEHIND
1070
     0
1002
}
1002
{
1000
OTHER
1070
     0
1002
}
1002
{
1000
REACTOR
1002
}
1001
GENIUS_GENOBJ-N-CEN_13
1002
{
1000
OWNER
1000
GEN
1002
}
1001
GENIUS_GENCEN_19
1002
{
1040
3.0
1002
}
  0
ENDSEC
  0
SECTION
  2
OBJECTS
  0
DICTIONARY
  5
C
330
0
100
AcDbDictionary
281
     1
  3
ACAD_2007HEADERVARS_RT
350
D26
  3
ACAD_COLOR
350
BE
  3
ACAD_GROUP
350
D
  3
ACAD_LAYOUT
350
1A
  3
ACAD_MATERIAL
350
BD
  3
ACAD_MLEADERSTYLE
350
3EF
  3
ACAD_MLINESTYLE
350
17
  3
ACAD_PLOTSETTINGS
350
19
  3
ACAD_PLOTSTYLENAME
350
E
  3
ACAD_SCALELIST
350
3DD
  3
ACAD_TABLESTYLE
350
11A
  3
ACAD_VISUALSTYLE
350
3CC
  3
ACDB_RECOMPOSE_DATA
350
41D
  3
AcDbVariableDictionary
350
94
  3
AcmDictionary
350
5B
  3
AcmSystemVariableManager
350
D32
  3
AEC_PROPERTY_SET_DEFS
350
70D
  3
AMG
350
41
  3
AMGSNAPSETTINGS
350
26B
  3
DWGPROPS
350
D25
  0
DICTIONARY
  5
68D
330
2
100
AcDbDictionary
280
     1
281
     1
  3
ACAD_LAYERSTATES
360
68E
  0
DICTIONARY
  5
7FE
330
10
100
AcDbDictionary
280
     1
281
     1
  3
ADSK_XREC_LAYER_RECONCILED
360
7FF
  0
DICTIONARY
  5
677
330
676
100
AcDbDictionary
280
     1
281
     1
  3
ADSK_XREC_LAYER_RECONCILED
360
800
  0
DICTIONARY
  5
679
330
678
100
AcDbDictionary
280
     1
281
     1
  3
ADSK_XREC_LAYER_RECONCILED
360
801
  0
DICTIONARY
  5
67C
330
67B
100
AcDbDictionary
280
     1
281
     1
  3
ADSK_XREC_LAYER_RECONCILED
360
802
  0
DICTIONARY
  5
67E
330
67D
100
AcDbDictionary
280
     1
281
     1
  3
ADSK_XREC_LAYER_RECONCILED
360
803
  0
DICTIONARY
  5
680
330
67F
100
AcDbDictionary
280
     1
281
     1
  3
ADSK_XREC_LAYER_RECONCILED
360
804
  0
DICTIONARY
  5
682
330
681
100
AcDbDictionary
280
     1
281
     1
  3
ADSK_XREC_LAYER_RECONCILED
360
805
  0
DICTIONARY
  5
806
330
7F7
100
AcDbDictionary
280
     1
281
     1
  3
ADSK_XREC_LAYER_RECONCILED
360
807
  0
DICTIONARY
  5
949
330
948
100
AcDbDictionary
280
     1
281
     1
  0
DICTIONARY
  5
8F
330
1F
100
AcDbDictionary
280
     1
281
     1
  3
ACAD_SORTENTS
360
7FB
  0
DICTIONARY
  5
782
330
781
100
AcDbDictionary
280
     1
281
     1
  3
ACAD_DIMASSOC
360
783
  0
DICTIONARY
  5
785
330
784
100
AcDbDictionary
280
     1
281
     1
  3
ACAD_DIMASSOC
360
786
  0
DICTIONARY
  5
A08
330
9FB
100
AcDbDictionary
280
     1
281
     1
  3
ACAD_DIMASSOC
360
A09
  0
DICTIONARY
  5
D26
102
{ACAD_REACTORS
330
C
102
}
330
C
100
AcDbDictionary
281
     1
  3
DIMJOGANG
350
D27
  3
DIMLTEX1
350
D29
  3
DIMLTEX2
350
D2A
  3
DIMLTYPE
350
D28
  0
DICTIONARY
  5
BE
102
{ACAD_REACTORS
330
C
102
}
330
C
100
AcDbDictionary
281
     1
  0
DICTIONARY
  5
D
102
{ACAD_REACTORS
330
C
102
}
330
C
100
AcDbDictionary
281
     1
  0
DICTIONARY
  5
1A
102
{ACAD_REACTORS
330
C
102
}
330
C
100
AcDbDictionary
281
     1
  3
Layout1
350
1E
  3
Layout2
350
26
  3
Model
350
22
  0
DICTIONARY
  5
BD
102
{ACAD_REACTORS
330
C
102
}
330
C
100
AcDbDictionary
281
     1
  3
ByBlock
350
3BC
  3
ByLayer
350
3B4
  3
Global
350
3C4
  0
DICTIONARY
  5
3EF
102
{ACAD_REACTORS
330
C
102
}
330
C
100
AcDbDictionary
281
     1
  3
Standard
350
3F0
  0
DICTIONARY
  5
17
102
{ACAD_REACTORS
330
C
102
}
330
C
100
AcDbDictionary
281
     1
  3
Standard
350
18
  0
DICTIONARY
  5
19
102
{ACAD_REACTORS
330
C
102
}
330
C
100
AcDbDictionary
281
     1
  0
ACDBDICTIONARYWDFLT
  5
E
102
{ACAD_REACTORS
330
C
102
}
330
C
100
AcDbDictionary
281
     1
  3
Normal
350
F
100
AcDbDictionaryWithDefault
340
F
  0
DICTIONARY
  5
3DD
102
{ACAD_REACTORS
330
C
102
}
330
C
100
AcDbDictionary
281
     1
  3
A0
350
3DE
  3
A1
350
3DF
  3
A2
350
3E0
  3
A3
350
3E1
  3
A4
350
3E2
  3
A5
350
3E3
  3
A6
350
3E4
  3
A7
350
3E5
  3
A8
350
3E6
  3
A9
350
3E7
  3
B0
350
3E8
  3
B1
350
3E9
  3
B2
350
3EA
  3
B3
350
3EB
  3
B4
350
3EC
  3
B5
350
3ED
  3
B6
350
3EE
  0
DICTIONARY
  5
11A
102
{ACAD_REACTORS
330
C
102
}
330
C
100
AcDbDictionary
281
     1
  3
Standard
350
11B
  0
DICTIONARY
  5
3CC
102
{ACAD_REACTORS
330
C
102
}
330
C
100
AcDbDictionary
281
     1
  3
2dWireframe
350
3D2
  3
3D Hidden
350
3D4
  3
3dWireframe
350
3D3
  3
Basic
350
3D1
  3
Brighten
350
3D8
  3
ColorChange
350
3DC
  3
Conceptual
350
3D5
  3
Dim
350
3D7
  3
Facepattern
350
3DB
  3
Flat
350
3CD
  3
FlatWithEdges
350
3CE
  3
Gouraud
350
3CF
  3
GouraudWithEdges
350
3D0
  3
Linepattern
350
3DA
  3
Realistic
350
3D6
  3
Thicken
350
3D9
  0
XRECORD
  5
41D
102
{ACAD_REACTORS
330
C
102
}
330
C
100
AcDbXrecord
280
     1
 90
        1
330
11B
  0
DICTIONARY
  5
94
102
{ACAD_REACTORS
330
C
102
}
330
C
100
AcDbDictionary
281
     1
  3
CANNOSCALE
350
420
  3
CMLEADERSTYLE
350
41E
  3
CTABLESTYLE
350
138
  3
DIMASSOC
350
96
  3
INDEXCTL
350
95
  3
LAYEREVAL
350
422
  3
LAYERNOTIFY
350
423
  3
LIGHTINGUNITS
350
421
  3
MSLTSCALE
350
41F
  3
SORTENTS
350
81B
  0
DICTIONARY
  5
5B
102
{ACAD_REACTORS
330
C
102
}
330
C
100
AcDbDictionary
281
     1
  3
AcmBOM
350
272
  3
AcmStdDictionary
350
61
  3
AMDTSECTSYM_ARROWCOLOR
350
123
  0
DICTIONARY
  5
70D
102
{ACAD_REACTORS
330
C
102
}
330
C
100
AcDbDictionary
281
     1
  0
DICTIONARY
  5
41
102
{ACAD_REACTORS
330
C
102
}
330
C
100
AcDbDictionary
281
     1
  0
DICTIONARY
  5
26B
102
{ACAD_REACTORS
330
C
102
}
330
C
100
AcDbDictionary
281
     1
  0
XRECORD
  5
D25
102
{ACAD_REACTORS
330
C
102
}
330
C
100
AcDbXrecord
280
     1
  1
DWGPROPS COOKIE
  2

  3

  4

  6

  7

  8
nlazaar
  9

300
AmdtFileType=84
301
=
302
=
303
=
304
=
305
=
306
=
307
=
308
=
309
=
 40
0.0985882407407408
 41
2455659.594794641
 42
2455665.458363195
  1

 90
        1
  0
DICTIONARY
  5
68E
102
{ACAD_REACTORS
330
68D
102
}
330
68D
100
AcDbDictionary
281
     1
  0
XRECORD
  5
7FF
102
{ACAD_REACTORS
330
7FE
102
}
330
7FE
100
AcDbXrecord
280
     1
290
     1
  0
XRECORD
  5
800
102
{ACAD_REACTORS
330
677
102
}
330
677
100
AcDbXrecord
280
     1
290
     1
  0
XRECORD
  5
801
102
{ACAD_REACTORS
330
679
102
}
330
679
100
AcDbXrecord
280
     1
290
     1
  0
XRECORD
  5
802
102
{ACAD_REACTORS
330
67C
102
}
330
67C
100
AcDbXrecord
280
     1
290
     1
  0
XRECORD
  5
803
102
{ACAD_REACTORS
330
67E
102
}
330
67E
100
AcDbXrecord
280
     1
290
     1
  0
XRECORD
  5
804
102
{ACAD_REACTORS
330
680
102
}
330
680
100
AcDbXrecord
280
     1
290
     1
  0
XRECORD
  5
805
102
{ACAD_REACTORS
330
682
102
}
330
682
100
AcDbXrecord
280
     1
290
     1
  0
XRECORD
  5
807
102
{ACAD_REACTORS
330
806
102
}
330
806
100
AcDbXrecord
280
     1
290
     1
  0
SORTENTSTABLE
  5
7FB
102
{ACAD_REACTORS
330
8F
102
}
330
8F
100
AcDbSortentsTable
330
1F
331
CE2
  5
775
331
73A
  5
73B
331
717
  5
717
331
74C
  5
74E
331
9B1
  5
9C0
331
CDA
  5
76D
331
9C3
  5
9D2
331
719
  5
719
331
756
  5
759
331
723
  5
724
331
9BB
  5
9CA
331
9CD
  5
CD5
331
777
  5
997
331
72D
  5
72E
331
99A
  5
9A9
331
766
  5
778
331
9A4
  5
9B3
331
7FA
  5
752
331
9FB
  5
CDE
331
737
  5
738
331
714
  5
714
331
749
  5
74B
331
9AE
  5
9BD
331
CD7
  5
76A
331
9C0
  5
9CF
331
753
  5
756
331
720
  5
721
331
9B8
  5
9C7
331
76D
  5
77F
331
9CA
  5
CD2
331
774
  5
994
331
75D
  5
760
331
72A
  5
72B
331
997
  5
9A6
331
9D4
  5
CDC
331
9A1
  5
9B0
331
77E
  5
99E
331
734
  5
735
331
711
  5
711
331
746
  5
747
331
CD4
  5
CE3
331
9AB
  5
9BA
331
73E
  5
73F
331
9B5
  5
9C4
331
76A
  5
77C
331
CDE
  5
771
331
9C7
  5
9FB
331
771
  5
7FA
331
71D
  5
71E
331
75A
  5
75D
331
727
  5
728
331
9BF
  5
9CE
331
994
  5
9A3
331
9D1
  5
CD9
331
77B
  5
99B
331
731
  5
732
331
99E
  5
9AD
331
743
  5
744
331
CD1
  5
CE0
331
9A8
  5
9B7
331
CE3
  5
776
331
73B
  5
73C
331
74D
  5
74F
331
9B2
  5
9C1
331
CDB
  5
76E
331
9C4
  5
9D3
331
71A
  5
71A
331
780
  5
9A0
331
757
  5
75A
331
724
  5
725
331
9BC
  5
9CB
331
9CE
  5
CD6
331
778
  5
998
331
72E
  5
72F
331
99B
  5
9AA
331
767
  5
779
331
740
  5
741
331
9A5
  5
9B4
331
CE0
  5
773
331
738
  5
739
331
715
  5
715
331
74A
  5
74C
331
9AF
  5
9BE
331
CD8
  5
76B
331
9C1
  5
9D0
331
754
  5
757
331
721
  5
722
331
9B9
  5
9C8
331
76E
  5
780
331
9CB
  5
CD3
331
775
  5
995
331
75E
  5
761
331
72B
  5
72C
331
998
  5
9A7
331
764
  5
767
331
9A2
  5
9B1
331
77F
  5
99F
331
9F9
  5
CDD
331
735
  5
736
331
712
  5
712
331
747
  5
748
331
CD5
  5
CE4
331
9AC
  5
9BB
331
73F
  5
740
331
751
  5
754
331
9B6
  5
9C5
331
76B
  5
77D
331
CDF
  5
772
331
9C8
  5
CD0
331
772
  5
7FC
331
71E
  5
71F
331
784
  5
9A2
331
75B
  5
75E
331
728
  5
729
331
995
  5
9A4
331
9D2
  5
CDA
331
77C
  5
99C
331
732
  5
733
331
99F
  5
9AE
331
744
  5
745
331
CD2
  5
CE1
331
9A9
  5
9B8
331
CE4
  5
777
331
73C
  5
73D
331
9B3
  5
9C2
331
768
  5
77A
331
9C5
  5
9D4
331
71B
  5
71B
331
781
  5
9A1
331
758
  5
75B
331
725
  5
726
331
9BD
  5
9CC
331
9CF
  5
CD7
331
779
  5
999
331
72F
  5
730
331
99C
  5
9AB
331
741
  5
742
331
9A6
  5
9B5
331
7FC
  5
71C
331
CE1
  5
774
331
739
  5
73A
331
716
  5
716
331
9B0
  5
9BF
331
CD9
  5
76C
331
9C2
  5
9D1
331
718
  5
718
331
755
  5
758
331
722
  5
723
331
9BA
  5
9C9
331
76F
  5
781
331
9CC
  5
CD4
331
776
  5
996
331
72C
  5
72D
331
999
  5
9A8
331
9A3
  5
9B2
331
736
  5
737
331
713
  5
713
331
748
  5
749
331
9AD
  5
9BC
331
CD6
  5
769
331
752
  5
755
331
9B7
  5
9C6
331
76C
  5
77E
331
9C9
  5
CD1
331
773
  5
7FD
331
71F
  5
720
331
75C
  5
75F
331
729
  5
72A
331
996
  5
9A5
331
9D3
  5
CDB
331
9A0
  5
9AF
331
77D
  5
99D
331
733
  5
734
331
710
  5
710
331
745
  5
746
331
CD3
  5
CE2
331
9AA
  5
9B9
331
73D
  5
73E
331
74F
  5
751
331
9B4
  5
9C3
331
769
  5
77B
331
CDD
  5
770
331
9C6
  5
9F9
331
770
  5
784
331
759
  5
75C
331
726
  5
727
331
9BE
  5
9CD
331
9D0
  5
CD8
331
77A
  5
99A
331
730
  5
731
331
99D
  5
9AC
331
742
  5
743
331
CD0
  5
CDF
331
9A7
  5
9B6
331
7FD
  5
74A
  0
DIMASSOC
  5
783
102
{ACAD_REACTORS
330
782
102
}
330
782
100
AcDbDimAssoc
330
781
 90
        1
 70
     0
 71
     0
  1
AcDbOsnapPointRef
 72
     6
331
711
 73
     0
 91
        0
 40
0.9999999999999388
 10
0.0
 20
0.0
 30
0.0
332
712
 74
     0
 92
        0
 75
     0
  0
DIMASSOC
  5
786
102
{ACAD_REACTORS
330
785
102
}
330
785
100
AcDbDimAssoc
330
784
 90
        3
 70
     0
 71
     0
  1
AcDbOsnapPointRef
 72
     6
331
712
 73
     0
 91
        0
 40
0.0148148148148148
 10
0.0
 20
0.0
 30
0.0
332
75E
 74
     0
 92
        0
 75
     0
  1
AcDbOsnapPointRef
 72
    13
331
77E
 73
     0
 91
        0
 40
0.0
 10
0.0
 20
0.0
 30
2.000000000000000E+50
 75
     0
  0
DIMASSOC
  5
A09
102
{ACAD_REACTORS
330
A08
102
}
330
A08
100
AcDbDimAssoc
330
9FB
 90
        3
 70
     0
 71
     0
  1
AcDbOsnapPointRef
 72
     6
331
71A
 73
     0
 91
        0
 40
0.8484733691960361
 10
0.0
 20
0.0
 30
0.0
332
71D
 74
     0
 92
        0
 75
     0
  1
AcDbOsnapPointRef
 72
    13
331
9F9
 73
     0
 91
        0
 40
0.0
 10
0.0
 20
0.0
 30
2.000000000000000E+50
 75
     0
  0
XRECORD
  5
D27
102
{ACAD_REACTORS
330
D26
102
}
330
D26
100
AcDbXrecord
280
     1
 40
1.570796326794896
  0
XRECORD
  5
D29
102
{ACAD_REACTORS
330
D26
102
}
330
D26
100
AcDbXrecord
280
     1
340
14
  0
XRECORD
  5
D2A
102
{ACAD_REACTORS
330
D26
102
}
330
D26
100
AcDbXrecord
280
     1
340
14
  0
XRECORD
  5
D28
102
{ACAD_REACTORS
330
D26
102
}
330
D26
100
AcDbXrecord
280
     1
340
14
  0
LAYOUT
  5
1E
102
{ACAD_XDICTIONARY
360
D2B
102
}
102
{ACAD_REACTORS
330
1A
102
}
330
1A
100
AcDbPlotSettings
  1

  2

  4

  6

 40
0.0
 41
0.0
 42
0.0
 43
0.0
 44
0.0
 45
0.0
 46
0.0
 47
0.0
 48
0.0
 49
0.0
140
0.0
141
0.0
142
1.0
143
1.0
 70
   688
 72
     0
 73
     0
 74
     5
  7

 75
    16
147
1.0
148
0.0
149
0.0
100
AcDbLayout
  1
Layout1
 70
     1
 71
     1
 10
0.0
 20
0.0
 11
420.0
 21
297.0
 12
0.0
 22
0.0
 32
0.0
 14
1.000000000000000E+20
 24
1.000000000000000E+20
 34
1.000000000000000E+20
 15
-1.000000000000000E+20
 25
-1.000000000000000E+20
 35
-1.000000000000000E+20
146
0.0
 13
0.0
 23
0.0
 33
0.0
 16
1.0
 26
0.0
 36
0.0
 17
0.0
 27
1.0
 37
0.0
 76
     0
330
1B
  0
LAYOUT
  5
26
102
{ACAD_XDICTIONARY
360
D2F
102
}
102
{ACAD_REACTORS
330
1A
102
}
330
1A
100
AcDbPlotSettings
  1

  2

  4

  6

 40
0.0
 41
0.0
 42
0.0
 43
0.0
 44
0.0
 45
0.0
 46
0.0
 47
0.0
 48
0.0
 49
0.0
140
0.0
141
0.0
142
1.0
143
1.0
 70
   688
 72
     0
 73
     0
 74
     5
  7

 75
    16
147
1.0
148
0.0
149
0.0
100
AcDbLayout
  1
Layout2
 70
     1
 71
     2
 10
0.0
 20
0.0
 11
12.0
 21
9.0
 12
0.0
 22
0.0
 32
0.0
 14
0.0
 24
0.0
 34
0.0
 15
0.0
 25
0.0
 35
0.0
146
0.0
 13
0.0
 23
0.0
 33
0.0
 16
1.0
 26
0.0
 36
0.0
 17
0.0
 27
1.0
 37
0.0
 76
     0
330
23
  0
LAYOUT
  5
22
102
{ACAD_XDICTIONARY
360
D2D
102
}
102
{ACAD_REACTORS
330
1A
102
}
330
1A
100
AcDbPlotSettings
  1

  2

  4

  6

 40
0.0
 41
0.0
 42
0.0
 43
0.0
 44
0.0
 45
0.0
 46
0.0
 47
0.0
 48
0.0
 49
0.0
140
0.0
141
0.0
142
1.0
143
1.0
 70
  1712
 72
     0
 73
     0
 74
     0
  7

 75
     0
147
1.0
148
0.0
149
0.0
100
AcDbLayout
  1
Model
 70
     1
 71
     0
 10
0.0
 20
0.0
 11
12.0
 21
9.0
 12
0.0
 22
0.0
 32
0.0
 14
0.0
 24
0.0
 34
0.0
 15
0.0
 25
0.0
 35
0.0
146
0.0
 13
0.0
 23
0.0
 33
0.0
 16
1.0
 26
0.0
 36
0.0
 17
0.0
 27
1.0
 37
0.0
 76
     0
330
1F
331
3B2
  0
MATERIAL
  5
3BC
102
{ACAD_XDICTIONARY
360
3BD
102
}
102
{ACAD_REACTORS
330
BD
102
}
330
BD
100
AcDbMaterial
  1
ByBlock
 72
     0
 43
0.0008202099737533
 43
0.0
 43
0.0
 43
0.0
 43
0.0
 43
0.0008202099737533
 43
0.0
 43
0.0
 43
0.0
 43
0.0
 43
1.0
 43
0.0
 43
0.0
 43
0.0
 43
0.0
 43
1.0
 77
     0
 47
0.0008202099737533
 47
0.0
 47
0.0
 47
0.0
 47
0.0
 47
0.0008202099737533
 47
0.0
 47
0.0
 47
0.0
 47
0.0
 47
1.0
 47
0.0
 47
0.0
 47
0.0
 47
0.0
 47
1.0
171
     0
 49
0.0008202099737533
 49
0.0
 49
0.0
 49
0.0
 49
0.0
 49
0.0008202099737533
 49
0.0
 49
0.0
 49
0.0
 49
0.0
 49
1.0
 49
0.0
 49
0.0
 49
0.0
 49
0.0
 49
1.0
175
     0
142
0.0008202099737533
142
0.0
142
0.0
142
0.0
142
0.0
142
0.0008202099737533
142
0.0
142
0.0
142
0.0
142
0.0
142
1.0
142
0.0
142
0.0
142
0.0
142
0.0
142
1.0
179
     0
144
0.0008202099737533
144
0.0
144
0.0
144
0.0
144
0.0
144
0.0008202099737533
144
0.0
144
0.0
144
0.0
144
0.0
144
1.0
144
0.0
144
0.0
144
0.0
144
0.0
144
1.0
147
0.0008202099737533
147
0.0
147
0.0
147
0.0
147
0.0
147
0.0008202099737533
147
0.0
147
0.0
147
0.0
147
0.0
147
1.0
147
0.0
147
0.0
147
0.0
147
0.0
147
1.0
  0
MATERIAL
  5
3B4
102
{ACAD_XDICTIONARY
360
3B5
102
}
102
{ACAD_REACTORS
330
BD
102
}
330
BD
100
AcDbMaterial
  1
ByLayer
 72
     0
 43
0.0008202099737533
 43
0.0
 43
0.0
 43
0.0
 43
0.0
 43
0.0008202099737533
 43
0.0
 43
0.0
 43
0.0
 43
0.0
 43
1.0
 43
0.0
 43
0.0
 43
0.0
 43
0.0
 43
1.0
 77
     0
 47
0.0008202099737533
 47
0.0
 47
0.0
 47
0.0
 47
0.0
 47
0.0008202099737533
 47
0.0
 47
0.0
 47
0.0
 47
0.0
 47
1.0
 47
0.0
 47
0.0
 47
0.0
 47
0.0
 47
1.0
171
     0
 49
0.0008202099737533
 49
0.0
 49
0.0
 49
0.0
 49
0.0
 49
0.0008202099737533
 49
0.0
 49
0.0
 49
0.0
 49
0.0
 49
1.0
 49
0.0
 49
0.0
 49
0.0
 49
0.0
 49
1.0
175
     0
142
0.0008202099737533
142
0.0
142
0.0
142
0.0
142
0.0
142
0.0008202099737533
142
0.0
142
0.0
142
0.0
142
0.0
142
1.0
142
0.0
142
0.0
142
0.0
142
0.0
142
1.0
179
     0
144
0.0008202099737533
144
0.0
144
0.0
144
0.0
144
0.0
144
0.0008202099737533
144
0.0
144
0.0
144
0.0
144
0.0
144
1.0
144
0.0
144
0.0
144
0.0
144
0.0
144
1.0
147
0.0008202099737533
147
0.0
147
0.0
147
0.0
147
0.0
147
0.0008202099737533
147
0.0
147
0.0
147
0.0
147
0.0
147
1.0
147
0.0
147
0.0
147
0.0
147
0.0
147
1.0
  0
MATERIAL
  5
3C4
102
{ACAD_XDICTIONARY
360
3C5
102
}
102
{ACAD_REACTORS
330
BD
102
}
330
BD
100
AcDbMaterial
  1
Global
 72
     0
 43
0.0008202099737533
 43
0.0
 43
0.0
 43
0.0
 43
0.0
 43
0.0008202099737533
 43
0.0
 43
0.0
 43
0.0
 43
0.0
 43
1.0
 43
0.0
 43
0.0
 43
0.0
 43
0.0
 43
1.0
 77
     0
 47
0.0008202099737533
 47
0.0
 47
0.0
 47
0.0
 47
0.0
 47
0.0008202099737533
 47
0.0
 47
0.0
 47
0.0
 47
0.0
 47
1.0
 47
0.0
 47
0.0
 47
0.0
 47
0.0
 47
1.0
171
     0
 49
0.0008202099737533
 49
0.0
 49
0.0
 49
0.0
 49
0.0
 49
0.0008202099737533
 49
0.0
 49
0.0
 49
0.0
 49
0.0
 49
1.0
 49
0.0
 49
0.0
 49
0.0
 49
0.0
 49
1.0
175
     0
142
0.0008202099737533
142
0.0
142
0.0
142
0.0
142
0.0
142
0.0008202099737533
142
0.0
142
0.0
142
0.0
142
0.0
142
1.0
142
0.0
142
0.0
142
0.0
142
0.0
142
1.0
179
     0
144
0.0008202099737533
144
0.0
144
0.0
144
0.0
144
0.0
144
0.0008202099737533
144
0.0
144
0.0
144
0.0
144
0.0
144
1.0
144
0.0
144
0.0
144
0.0
144
0.0
144
1.0
147
0.0008202099737533
147
0.0
147
0.0
147
0.0
147
0.0
147
0.0008202099737533
147
0.0
147
0.0
147
0.0
147
0.0
147
1.0
147
0.0
147
0.0
147
0.0
147
0.0
147
1.0
  0
MLEADERSTYLE
  5
3F0
102
{ACAD_REACTORS
330
3EF
102
}
330
3EF
100
AcDbMLeaderStyle
170
     2
171
     1
172
     0
 90
        2
 40
0.0
 41
0.0
173
     1
 91
-1056964608
340
14
 92
       -2
290
     1
 42
2.0
291
     1
 43
0.36
  3
Standard
 44
4.0
300

342
11
174
     1
178
     6
175
     1
176
     0
 93
-1056964608
 45
4.0
292
     0
297
     0
 46
4.0
 94
-1056964608
 47
1.0
 49
1.0
140
1.0
293
     1
141
0.0
294
     1
177
     0
142
1.0
295
     0
296
     0
143
0.125
1001
ACAD_MLEADERVER
1070
     2
  0
MLINESTYLE
  5
18
102
{ACAD_REACTORS
330
17
102
}
330
17
100
AcDbMlineStyle
  2
STANDARD
 70
     0
  3

 62
   256
 51
90.0
 52
90.0
 71
     2
 49
0.5
 62
   256
  6
BYLAYER
 49
-0.5
 62
   256
  6
BYLAYER
  0
ACDBPLACEHOLDER
  5
F
102
{ACAD_REACTORS
330
E
102
}
330
E
  0
SCALE
  5
3DE
102
{ACAD_REACTORS
330
3DD
102
}
330
3DD
100
AcDbScale
 70
     0
300
1:1
140
1.0
141
1.0
290
     1
  0
SCALE
  5
3DF
102
{ACAD_REACTORS
330
3DD
102
}
330
3DD
100
AcDbScale
 70
     0
300
1:2
140
1.0
141
2.0
290
     0
  0
SCALE
  5
3E0
102
{ACAD_REACTORS
330
3DD
102
}
330
3DD
100
AcDbScale
 70
     0
300
1:4
140
1.0
141
4.0
290
     0
  0
SCALE
  5
3E1
102
{ACAD_REACTORS
330
3DD
102
}
330
3DD
100
AcDbScale
 70
     0
300
1:5
140
1.0
141
5.0
290
     0
  0
SCALE
  5
3E2
102
{ACAD_REACTORS
330
3DD
102
}
330
3DD
100
AcDbScale
 70
     0
300
1:8
140
1.0
141
8.0
290
     0
  0
SCALE
  5
3E3
102
{ACAD_REACTORS
330
3DD
102
}
330
3DD
100
AcDbScale
 70
     0
300
1:10
140
1.0
141
10.0
290
     0
  0
SCALE
  5
3E4
102
{ACAD_REACTORS
330
3DD
102
}
330
3DD
100
AcDbScale
 70
     0
300
1:16
140
1.0
141
16.0
290
     0
  0
SCALE
  5
3E5
102
{ACAD_REACTORS
330
3DD
102
}
330
3DD
100
AcDbScale
 70
     0
300
1:20
140
1.0
141
20.0
290
     0
  0
SCALE
  5
3E6
102
{ACAD_REACTORS
330
3DD
102
}
330
3DD
100
AcDbScale
 70
     0
300
1:30
140
1.0
141
30.0
290
     0
  0
SCALE
  5
3E7
102
{ACAD_REACTORS
330
3DD
102
}
330
3DD
100
AcDbScale
 70
     0
300
1:40
140
1.0
141
40.0
290
     0
  0
SCALE
  5
3E8
102
{ACAD_REACTORS
330
3DD
102
}
330
3DD
100
AcDbScale
 70
     0
300
1:50
140
1.0
141
50.0
290
     0
  0
SCALE
  5
3E9
102
{ACAD_REACTORS
330
3DD
102
}
330
3DD
100
AcDbScale
 70
     0
300
1:100
140
1.0
141
100.0
290
     0
  0
SCALE
  5
3EA
102
{ACAD_REACTORS
330
3DD
102
}
330
3DD
100
AcDbScale
 70
     0
300
2:1
140
2.0
141
1.0
290
     0
  0
SCALE
  5
3EB
102
{ACAD_REACTORS
330
3DD
102
}
330
3DD
100
AcDbScale
 70
     0
300
4:1
140
4.0
141
1.0
290
     0
  0
SCALE
  5
3EC
102
{ACAD_REACTORS
330
3DD
102
}
330
3DD
100
AcDbScale
 70
     0
300
8:1
140
8.0
141
1.0
290
     0
  0
SCALE
  5
3ED
102
{ACAD_REACTORS
330
3DD
102
}
330
3DD
100
AcDbScale
 70
     0
300
10:1
140
10.0
141
1.0
290
     0
  0
SCALE
  5
3EE
102
{ACAD_REACTORS
330
3DD
102
}
330
3DD
100
AcDbScale
 70
     0
300
100:1
140
100.0
141
1.0
290
     0
  0
TABLESTYLE
  5
11B
102
{ACAD_XDICTIONARY
360
41B
102
}
102
{ACAD_REACTORS
330
11A
102
}
330
11A
100
AcDbTableStyle
  3
Standard
 70
     0
 71
     0
 40
1.5
 41
1.5
280
     0
281
     0
  7
STANDARD
140
4.5
170
     2
 62
     0
 63
     7
283
     0
274
    -2
284
     1
 64
     0
275
    -2
285
     1
 65
     0
276
    -2
286
     1
 66
     0
277
    -2
287
     1
 67
     0
278
    -2
288
     1
 68
     0
279
    -2
289
     1
 69
     0
  7
STANDARD
140
6.0
170
     5
 62
     0
 63
     7
283
     0
274
    -2
284
     1
 64
     0
275
    -2
285
     1
 65
     0
276
    -2
286
     1
 66
     0
277
    -2
287
     1
 67
     0
278
    -2
288
     1
 68
     0
279
    -2
289
     1
 69
     0
  7
STANDARD
140
4.5
170
     5
 62
     0
 63
     7
283
     0
274
    -2
284
     1
 64
     0
275
    -2
285
     1
 65
     0
276
    -2
286
     1
 66
     0
277
    -2
287
     1
 67
     0
278
    -2
288
     1
 68
     0
279
    -2
289
     1
 69
     0
  0
VISUALSTYLE
  5
3D2
102
{ACAD_REACTORS
330
3CC
102
}
330
3CC
100
AcDbVisualStyle
  2
2dWireframe
 70
     4
 71
     0
 72
     2
 73
     0
 90
        0
 40
-0.6
 41
-30.0
 62
     5
 63
     7
 74
     1
 91
        4
 64
     7
 65
   257
 75
     1
175
     1
 42
1.0
 92
        0
 66
   257
 43
1.0
 76
     1
 77
     6
 78
     2
 67
     7
 79
     5
170
     0
171
     0
290
     0
174
     0
 93
        1
 44
0.0
173
     0
291
     0
 45
0.0
1001
ACAD
1000
AcDbSavedByObjectVersion
1070
     0
1000
AcDbSavedByObjectVersion
1070
     0
1000
AcDbSavedByObjectVersion
1070
     0
1000
AcDbSavedByObjectVersion
1070
     0
  0
VISUALSTYLE
  5
3D4
102
{ACAD_REACTORS
330
3CC
102
}
330
3CC
100
AcDbVisualStyle
  2
3D Hidden
 70
     6
 71
     1
 72
     2
 73
     2
 90
        0
 40
-0.6
 41
-30.0
 62
     5
 63
     7
 74
     2
 91
        2
 64
     7
 65
   257
 75
     2
175
     1
 42
40.0
 92
        0
 66
   257
 43
1.0
 76
     1
 77
     6
 78
     2
 67
     7
 79
     3
170
     0
171
     0
290
     0
174
     0
 93
        1
 44
0.0
173
     0
291
     0
 45
0.0
1001
ACAD
1000
AcDbSavedByObjectVersion
1070
     0
1000
AcDbSavedByObjectVersion
1070
     0
1000
AcDbSavedByObjectVersion
1070
     0
1000
AcDbSavedByObjectVersion
1070
     0
  0
VISUALSTYLE
  5
3D3
102
{ACAD_REACTORS
330
3CC
102
}
330
3CC
100
AcDbVisualStyle
  2
3dWireframe
 70
     5
 71
     0
 72
     2
 73
     0
 90
        0
 40
-0.6
 41
-30.0
 62
     5
 63
     7
 74
     1
 91
        4
 64
     7
 65
   257
 75
     1
175
     1
 42
1.0
 92
        0
 66
   257
 43
1.0
 76
     1
 77
     6
 78
     2
 67
     7
 79
     5
170
     0
171
     0
290
     0
174
     0
 93
        1
 44
0.0
173
     0
291
     0
 45
0.0
1001
ACAD
1000
AcDbSavedByObjectVersion
1070
     0
1000
AcDbSavedByObjectVersion
1070
     0
1000
AcDbSavedByObjectVersion
1070
     0
1000
AcDbSavedByObjectVersion
1070
     0
  0
VISUALSTYLE
  5
3D1
102
{ACAD_REACTORS
330
3CC
102
}
330
3CC
100
AcDbVisualStyle
  2
Basic
 70
     7
 71
     1
 72
     0
 73
     1
 90
        0
 40
-0.6
 41
-30.0
 62
     5
 63
     7
 74
     0
 91
        4
 64
     7
 65
   257
 75
     1
175
     1
 42
1.0
 92
        8
 66
     7
 43
1.0
 76
     1
 77
     6
 78
     2
 67
     7
 79
     5
170
     0
171
     0
290
     0
174
     0
 93
        1
 44
0.0
173
     0
291
     1
 45
0.0
1001
ACAD
1000
AcDbSavedByObjectVersion
1070
     0
1000
AcDbSavedByObjectVersion
1070
     0
1000
AcDbSavedByObjectVersion
1070
     0
1000
AcDbSavedByObjectVersion
1070
     0
  0
VISUALSTYLE
  5
3D8
102
{ACAD_REACTORS
330
3CC
102
}
330
3CC
100
AcDbVisualStyle
  2
Brighten
 70
    12
 71
     2
 72
     2
 73
     0
 90
        0
 40
-0.6
 41
-30.0
 62
     5
 63
     7
 74
     1
 91
        4
 64
     7
 65
   257
 75
     1
175
     1
 42
1.0
 92
        8
 66
     7
 43
1.0
 76
     1
 77
     6
 78
     2
 67
     7
 79
     5
170
     0
171
     0
290
     0
174
     0
 93
        1
 44
50.0
173
     0
291
     1
 45
0.0
1001
ACAD
1000
AcDbSavedByObjectVersion
1070
     0
1000
AcDbSavedByObjectVersion
1070
     0
1000
AcDbSavedByObjectVersion
1070
     0
1000
AcDbSavedByObjectVersion
1070
     0
  0
VISUALSTYLE
  5
3DC
102
{ACAD_REACTORS
330
3CC
102
}
330
3CC
100
AcDbVisualStyle
  2
ColorChange
 70
    16
 71
     2
 72
     2
 73
     3
 90
        0
 40
-0.6
 41
-30.0
 62
     5
 63
     8
 74
     1
 91
        4
 64
     7
 65
   257
 75
     1
175
     1
 42
1.0
 92
        8
 66
     8
 43
1.0
 76
     1
 77
     6
 78
     2
 67
     7
 79
     5
170
     0
171
     0
290
     0
174
     0
 93
        1
 44
0.0
173
     0
291
     1
 45
0.0
1001
ACAD
1000
AcDbSavedByObjectVersion
1070
     0
1000
AcDbSavedByObjectVersion
1070
     0
1000
AcDbSavedByObjectVersion
1070
     0
1000
AcDbSavedByObjectVersion
1070
     0
  0
VISUALSTYLE
  5
3D5
102
{ACAD_REACTORS
330
3CC
102
}
330
3CC
100
AcDbVisualStyle
  2
Conceptual
 70
     9
 71
     3
 72
     2
 73
     0
 90
        0
 40
-0.6
 41
-30.0
 62
     5
 63
     7
 74
     2
 91
        2
 64
     7
 65
   257
 75
     1
175
     1
 42
40.0
 92
        8
 66
     7
 43
1.0
 76
     1
 77
     6
 78
     2
 67
     7
 79
     3
170
     0
171
     0
290
     0
174
     0
 93
        1
 44
0.0
173
     0
291
     0
 45
0.0
1001
ACAD
1000
AcDbSavedByObjectVersion
1070
     0
1000
AcDbSavedByObjectVersion
1070
     0
1000
AcDbSavedByObjectVersion
1070
     0
1000
AcDbSavedByObjectVersion
1070
     0
  0
VISUALSTYLE
  5
3D7
102
{ACAD_REACTORS
330
3CC
102
}
330
3CC
100
AcDbVisualStyle
  2
Dim
 70
    11
 71
     2
 72
     2
 73
     0
 90
        0
 40
-0.6
 41
-30.0
 62
     5
 63
     7
 74
     1
 91
        4
 64
     7
 65
   257
 75
     1
175
     1
 42
1.0
 92
        8
 66
     7
 43
1.0
 76
     1
 77
     6
 78
     2
 67
     7
 79
     5
170
     0
171
     0
290
     0
174
     0
 93
        1
 44
-50.0
173
     0
291
     1
 45
0.0
1001
ACAD
1000
AcDbSavedByObjectVersion
1070
     0
1000
AcDbSavedByObjectVersion
1070
     0
1000
AcDbSavedByObjectVersion
1070
     0
1000
AcDbSavedByObjectVersion
1070
     0
  0
VISUALSTYLE
  5
3DB
102
{ACAD_REACTORS
330
3CC
102
}
330
3CC
100
AcDbVisualStyle
  2
Facepattern
 70
    15
 71
     2
 72
     2
 73
     0
 90
        0
 40
-0.6
 41
-30.0
 62
     5
 63
     7
 74
     1
 91
        4
 64
     7
 65
   257
 75
     1
175
     1
 42
1.0
 92
        8
 66
     7
 43
1.0
 76
     1
 77
     6
 78
     2
 67
     7
 79
     5
170
     0
171
     0
290
     0
174
     0
 93
        1
 44
0.0
173
     0
291
     1
 45
0.0
1001
ACAD
1000
AcDbSavedByObjectVersion
1070
     0
1000
AcDbSavedByObjectVersion
1070
     0
1000
AcDbSavedByObjectVersion
1070
     0
1000
AcDbSavedByObjectVersion
1070
     0
  0
VISUALSTYLE
  5
3CD
102
{ACAD_REACTORS
330
3CC
102
}
330
3CC
100
AcDbVisualStyle
  2
Flat
 70
     0
 71
     2
 72
     1
 73
     1
 90
        2
 40
-0.6
 41
30.0
 62
     5
 63
     7
 74
     0
 91
        4
 64
     7
 65
   257
 75
     1
175
     1
 42
1.0
 92
        8
 66
     7
 43
1.0
 76
     1
 77
     6
 78
     2
 67
     7
 79
     5
170
     0
171
     0
290
     0
174
     0
 93
       13
 44
0.0
173
     0
291
     1
 45
0.0
1001
ACAD
1000
AcDbSavedByObjectVersion
1070
     0
1000
AcDbSavedByObjectVersion
1070
     0
1000
AcDbSavedByObjectVersion
1070
     0
1000
AcDbSavedByObjectVersion
1070
     0
  0
VISUALSTYLE
  5
3CE
102
{ACAD_REACTORS
330
3CC
102
}
330
3CC
100
AcDbVisualStyle
  2
FlatWithEdges
 70
     1
 71
     2
 72
     1
 73
     1
 90
        2
 40
-0.6
 41
30.0
 62
     5
 63
     7
 74
     1
 91
        4
 64
     7
 65
   257
 75
     1
175
     1
 42
1.0
 92
        0
 66
   257
 43
1.0
 76
     1
 77
     6
 78
     2
 67
     7
 79
     5
170
     0
171
     0
290
     0
174
     0
 93
       13
 44
0.0
173
     0
291
     1
 45
0.0
1001
ACAD
1000
AcDbSavedByObjectVersion
1070
     0
1000
AcDbSavedByObjectVersion
1070
     0
1000
AcDbSavedByObjectVersion
1070
     0
1000
AcDbSavedByObjectVersion
1070
     0
  0
VISUALSTYLE
  5
3CF
102
{ACAD_REACTORS
330
3CC
102
}
330
3CC
100
AcDbVisualStyle
  2
Gouraud
 70
     2
 71
     2
 72
     2
 73
     1
 90
        2
 40
-0.6
 41
30.0
 62
     5
 63
     7
 74
     0
 91
        4
 64
     7
 65
   257
 75
     1
175
     1
 42
1.0
 92
        0
 66
     7
 43
1.0
 76
     1
 77
     6
 78
     2
 67
     7
 79
     5
170
     0
171
     0
290
     0
174
     0
 93
       13
 44
0.0
173
     0
291
     1
 45
0.0
1001
ACAD
1000
AcDbSavedByObjectVersion
1070
     0
1000
AcDbSavedByObjectVersion
1070
     0
1000
AcDbSavedByObjectVersion
1070
     0
1000
AcDbSavedByObjectVersion
1070
     0
  0
VISUALSTYLE
  5
3D0
102
{ACAD_REACTORS
330
3CC
102
}
330
3CC
100
AcDbVisualStyle
  2
GouraudWithEdges
 70
     3
 71
     2
 72
     2
 73
     1
 90
        2
 40
-0.6
 41
30.0
 62
     5
 63
     7
 74
     1
 91
        4
 64
     7
 65
   257
 75
     1
175
     1
 42
1.0
 92
        0
 66
   257
 43
1.0
 76
     1
 77
     6
 78
     2
 67
     7
 79
     5
170
     0
171
     0
290
     0
174
     0
 93
       13
 44
0.0
173
     0
291
     1
 45
0.0
1001
ACAD
1000
AcDbSavedByObjectVersion
1070
     0
1000
AcDbSavedByObjectVersion
1070
     0
1000
AcDbSavedByObjectVersion
1070
     0
1000
AcDbSavedByObjectVersion
1070
     0
  0
VISUALSTYLE
  5
3DA
102
{ACAD_REACTORS
330
3CC
102
}
330
3CC
100
AcDbVisualStyle
  2
Linepattern
 70
    14
 71
     2
 72
     2
 73
     0
 90
        0
 40
-0.6
 41
-30.0
 62
     5
 63
     7
 74
     1
 91
        4
 64
     7
 65
   257
 75
     7
175
     7
 42
1.0
 92
        8
 66
     7
 43
1.0
 76
     1
 77
     6
 78
     2
 67
     7
 79
     5
170
     0
171
     0
290
     0
174
     0
 93
        1
 44
0.0
173
     0
291
     1
 45
0.0
1001
ACAD
1000
AcDbSavedByObjectVersion
1070
     0
1000
AcDbSavedByObjectVersion
1070
     0
1000
AcDbSavedByObjectVersion
1070
     0
1000
AcDbSavedByObjectVersion
1070
     0
  0
VISUALSTYLE
  5
3D6
102
{ACAD_REACTORS
330
3CC
102
}
330
3CC
100
AcDbVisualStyle
  2
Realistic
 70
     8
 71
     2
 72
     2
 73
     0
 90
        0
 40
-0.6
 41
-30.0
 62
     5
 63
     7
 74
     1
 91
        0
 64
     7
 65
   257
 75
     1
175
     1
 42
1.0
 92
        8
 66
     8
 43
1.0
 76
     1
 77
     6
 78
     2
 67
     7
 79
     5
170
     0
171
     0
290
     0
174
     0
 93
       13
 44
0.0
173
     0
291
     0
 45
0.0
1001
ACAD
1000
AcDbSavedByObjectVersion
1070
     0
1000
AcDbSavedByObjectVersion
1070
     0
1000
AcDbSavedByObjectVersion
1070
     0
1000
AcDbSavedByObjectVersion
1070
     0
  0
VISUALSTYLE
  5
3D9
102
{ACAD_REACTORS
330
3CC
102
}
330
3CC
100
AcDbVisualStyle
  2
Thicken
 70
    13
 71
     2
 72
     2
 73
     0
 90
        0
 40
-0.6
 41
-30.0
 62
     5
 63
     7
 74
     1
 91
        4
 64
     7
 65
   257
 75
     1
175
     1
 42
1.0
 92
       12
 66
     7
 43
1.0
 76
     1
 77
     6
 78
     2
 67
     7
 79
     5
170
     0
171
     0
290
     0
174
     0
 93
        1
 44
0.0
173
     0
291
     1
 45
0.0
1001
ACAD
1000
AcDbSavedByObjectVersion
1070
     0
1000
AcDbSavedByObjectVersion
1070
     0
1000
AcDbSavedByObjectVersion
1070
     0
1000
AcDbSavedByObjectVersion
1070
     0
  0
DICTIONARYVAR
  5
420
102
{ACAD_REACTORS
330
94
102
}
330
94
100
DictionaryVariables
280
     0
  1
1:1
  0
DICTIONARYVAR
  5
41E
102
{ACAD_REACTORS
330
94
102
}
330
94
100
DictionaryVariables
280
     0
  1
STANDARD
  0
DICTIONARYVAR
  5
138
102
{ACAD_REACTORS
330
94
102
}
330
94
100
DictionaryVariables
280
     0
  1
STANDARD
  0
DICTIONARYVAR
  5
96
102
{ACAD_REACTORS
330
94
102
}
330
94
100
DictionaryVariables
280
     0
  1
2
  0
DICTIONARYVAR
  5
95
102
{ACAD_REACTORS
330
94
102
}
330
94
100
DictionaryVariables
280
     0
  1
0
  0
DICTIONARYVAR
  5
422
102
{ACAD_REACTORS
330
94
102
}
330
94
100
DictionaryVariables
280
     0
  1
1
  0
DICTIONARYVAR
  5
423
102
{ACAD_REACTORS
330
94
102
}
330
94
100
DictionaryVariables
280
     0
  1
15
  0
DICTIONARYVAR
  5
421
102
{ACAD_REACTORS
330
94
102
}
330
94
100
DictionaryVariables
280
     0
  1
0
  0
DICTIONARYVAR
  5
41F
102
{ACAD_REACTORS
330
94
102
}
330
94
100
DictionaryVariables
280
     0
  1
0
  0
DICTIONARYVAR
  5
81B
102
{ACAD_REACTORS
330
94
102
}
330
94
100
DictionaryVariables
280
     0
  1
127
  0
DICTIONARY
  5
272
102
{ACAD_REACTORS
330
5B
102
}
330
5B
100
AcDbDictionary
281
     1
  0
DICTIONARY
  5
61
102
{ACAD_REACTORS
330
5B
102
}
330
5B
100
AcDbDictionary
281
     1
  0
XRECORD
  5
123
102
{ACAD_REACTORS
330
5B
102
}
330
5B
100
AcDbXrecord
280
     1
 90
-1023410169
  0
DICTIONARY
  5
D2B
330
1E
100
AcDbDictionary
280
     1
281
     1
  3
ACAD_XREC_ROUNDTRIP
360
D2C
  0
DICTIONARY
  5
D2F
330
26
100
AcDbDictionary
280
     1
281
     1
  3
ACAD_XREC_ROUNDTRIP
360
D30
  0
DICTIONARY
  5
D2D
330
22
100
AcDbDictionary
280
     1
281
     1
  3
ACAD_XREC_ROUNDTRIP
360
D2E
  0
DICTIONARY
  5
3BD
330
3BC
100
AcDbDictionary
280
     1
281
     1
  3
ACAD_XREC_ROUNDTRIP
360
828
  3
BUMPTILE
360
3BF
  3
DIFFUSETILE
360
3BE
  3
OPACITYTILE
360
3C2
  3
REFLECTIONTILE
360
3C1
  3
REFRACTIONTILE
360
3C3
  3
SPECULARTILE
360
3C0
  0
DICTIONARY
  5
3B5
330
3B4
100
AcDbDictionary
280
     1
281
     1
  3
ACAD_XREC_ROUNDTRIP
360
827
  3
BUMPTILE
360
3B7
  3
DIFFUSETILE
360
3B6
  3
OPACITYTILE
360
3BA
  3
REFLECTIONTILE
360
3B9
  3
REFRACTIONTILE
360
3BB
  3
SPECULARTILE
360
3B8
  0
DICTIONARY
  5
3C5
330
3C4
100
AcDbDictionary
280
     1
281
     1
  3
ACAD_XREC_ROUNDTRIP
360
829
  3
BUMPTILE
360
3C7
  3
DIFFUSETILE
360
3C6
  3
OPACITYTILE
360
3CA
  3
REFLECTIONTILE
360
3C9
  3
REFRACTIONTILE
360
3CB
  3
SPECULARTILE
360
3C8
  0
DICTIONARY
  5
41B
330
11B
100
AcDbDictionary
280
     1
281
     1
  3
ACAD_ROUNDTRIP_2008_TABLESTYLE_CELLSTYLEMAP
360
D24
  3
ACAD_XREC_ROUNDTRIP
360
D31
  0
XRECORD
  5
D2C
102
{ACAD_REACTORS
330
D2B
102
}
330
D2B
100
AcDbXrecord
280
     1
102
SHADEPLOT
 70
     0
102
SHADEPLOTRESLEVEL
 70
     2
102
SHADEPLOTCUSTOMDPI
 70
   300
  0
XRECORD
  5
D30
102
{ACAD_REACTORS
330
D2F
102
}
330
D2F
100
AcDbXrecord
280
     1
102
SHADEPLOT
 70
     0
102
SHADEPLOTRESLEVEL
 70
     2
102
SHADEPLOTCUSTOMDPI
 70
   300
  0
XRECORD
  5
D2E
102
{ACAD_REACTORS
330
D2D
102
}
330
D2D
100
AcDbXrecord
280
     1
102
SHADEPLOT
 70
     0
102
SHADEPLOTRESLEVEL
 70
     2
102
SHADEPLOTCUSTOMDPI
 70
   300
  0
XRECORD
  5
828
102
{ACAD_REACTORS
330
3BD
102
}
330
3BD
100
AcDbXrecord
280
     1
102
MATERIAL
148
0.0
149
0.0
149
0.0
 93
        0
 94
      127
282
     0
 72
     0
 77
     0
171
     0
175
     0
179
     0
273
     0
  0
XRECORD
  5
3BF
102
{ACAD_REACTORS
330
3BD
102
}
330
3BD
100
AcDbXrecord
280
     1
270
     1
271
     1
  0
XRECORD
  5
3BE
102
{ACAD_REACTORS
330
3BD
102
}
330
3BD
100
AcDbXrecord
280
     1
270
     1
271
     1
  0
XRECORD
  5
3C2
102
{ACAD_REACTORS
330
3BD
102
}
330
3BD
100
AcDbXrecord
280
     1
270
     1
271
     1
  0
XRECORD
  5
3C1
102
{ACAD_REACTORS
330
3BD
102
}
330
3BD
100
AcDbXrecord
280
     1
270
     1
271
     1
  0
XRECORD
  5
3C3
102
{ACAD_REACTORS
330
3BD
102
}
330
3BD
100
AcDbXrecord
280
     1
270
     1
271
     1
  0
XRECORD
  5
3C0
102
{ACAD_REACTORS
330
3BD
102
}
330
3BD
100
AcDbXrecord
280
     1
270
     1
271
     1
  0
XRECORD
  5
827
102
{ACAD_REACTORS
330
3B5
102
}
330
3B5
100
AcDbXrecord
280
     1
102
MATERIAL
148
0.0
149
0.0
149
0.0
 93
        0
 94
      127
282
     0
 72
     0
 77
     0
171
     0
175
     0
179
     0
273
     0
  0
XRECORD
  5
3B7
102
{ACAD_REACTORS
330
3B5
102
}
330
3B5
100
AcDbXrecord
280
     1
270
     1
271
     1
  0
XRECORD
  5
3B6
102
{ACAD_REACTORS
330
3B5
102
}
330
3B5
100
AcDbXrecord
280
     1
270
     1
271
     1
  0
XRECORD
  5
3BA
102
{ACAD_REACTORS
330
3B5
102
}
330
3B5
100
AcDbXrecord
280
     1
270
     1
271
     1
  0
XRECORD
  5
3B9
102
{ACAD_REACTORS
330
3B5
102
}
330
3B5
100
AcDbXrecord
280
     1
270
     1
271
     1
  0
XRECORD
  5
3BB
102
{ACAD_REACTORS
330
3B5
102
}
330
3B5
100
AcDbXrecord
280
     1
270
     1
271
     1
  0
XRECORD
  5
3B8
102
{ACAD_REACTORS
330
3B5
102
}
330
3B5
100
AcDbXrecord
280
     1
270
     1
271
     1
  0
XRECORD
  5
829
102
{ACAD_REACTORS
330
3C5
102
}
330
3C5
100
AcDbXrecord
280
     1
102
MATERIAL
148
0.0
149
0.0
149
0.0
 93
        0
 94
      127
282
     0
 72
     0
 77
     0
171
     0
175
     0
179
     0
273
     0
  0
XRECORD
  5
3C7
102
{ACAD_REACTORS
330
3C5
102
}
330
3C5
100
AcDbXrecord
280
     1
270
     1
271
     1
  0
XRECORD
  5
3C6
102
{ACAD_REACTORS
330
3C5
102
}
330
3C5
100
AcDbXrecord
280
     1
270
     1
271
     1
  0
XRECORD
  5
3CA
102
{ACAD_REACTORS
330
3C5
102
}
330
3C5
100
AcDbXrecord
280
     1
270
     1
271
     1
  0
XRECORD
  5
3C9
102
{ACAD_REACTORS
330
3C5
102
}
330
3C5
100
AcDbXrecord
280
     1
270
     1
271
     1
  0
XRECORD
  5
3CB
102
{ACAD_REACTORS
330
3C5
102
}
330
3C5
100
AcDbXrecord
280
     1
270
     1
271
     1
  0
XRECORD
  5
3C8
102
{ACAD_REACTORS
330
3C5
102
}
330
3C5
100
AcDbXrecord
280
     1
270
     1
271
     1
  0
CELLSTYLEMAP
  5
D24
102
{ACAD_REACTORS
330
41B
102
}
330
41B
100
AcDbCellStyleMap
 90
        3
300
CELLSTYLE
  1
TABLEFORMAT_BEGIN
 90
        5
170
     1
 91
        0
 92
    32768
 62
   257
 93
        1
300
CONTENTFORMAT
  1
CONTENTFORMAT_BEGIN
 90
        0
 91
        0
 92
        4
 93
        0
300

 40
0.0
140
1.0
 94
        5
 62
     0
340
11
144
6.0
309
CONTENTFORMAT_END
171
     1
301
MARGIN
  1
CELLMARGIN_BEGIN
 40
1.5
 40
1.5
 40
1.5
 40
1.5
 40
0.18
 40
0.18
309
CELLMARGIN_END
 94
        6
 95
        1
302
GRIDFORMAT
  1
GRIDFORMAT_BEGIN
 90
        0
 91
        1
 62
     0
 92
       -2
340
0
 93
        0
 40
0.045
309
GRIDFORMAT_END
 95
        2
302
GRIDFORMAT
  1
GRIDFORMAT_BEGIN
 90
        0
 91
        1
 62
     0
 92
       -2
340
0
 93
        0
 40
0.045
309
GRIDFORMAT_END
 95
        4
302
GRIDFORMAT
  1
GRIDFORMAT_BEGIN
 90
        0
 91
        1
 62
     0
 92
       -2
340
0
 93
        0
 40
0.045
309
GRIDFORMAT_END
 95
        8
302
GRIDFORMAT
  1
GRIDFORMAT_BEGIN
 90
        0
 91
        1
 62
     0
 92
       -2
340
0
 93
        0
 40
0.045
309
GRIDFORMAT_END
 95
       16
302
GRIDFORMAT
  1
GRIDFORMAT_BEGIN
 90
        0
 91
        1
 62
     0
 92
       -2
340
0
 93
        0
 40
0.045
309
GRIDFORMAT_END
 95
       32
302
GRIDFORMAT
  1
GRIDFORMAT_BEGIN
 90
        0
 91
        1
 62
     0
 92
       -2
340
0
 93
        0
 40
0.045
309
GRIDFORMAT_END
309
TABLEFORMAT_END
  1
CELLSTYLE_BEGIN
 90
        1
 91
        1
300
_TITLE
309
CELLSTYLE_END
300
CELLSTYLE
  1
TABLEFORMAT_BEGIN
 90
        5
170
     1
 91
        0
 92
        0
 62
   257
 93
        1
300
CONTENTFORMAT
  1
CONTENTFORMAT_BEGIN
 90
        0
 91
        0
 92
        4
 93
        0
300

 40
0.0
140
1.0
 94
        5
 62
     0
340
11
144
4.5
309
CONTENTFORMAT_END
171
     1
301
MARGIN
  1
CELLMARGIN_BEGIN
 40
1.5
 40
1.5
 40
1.5
 40
1.5
 40
0.18
 40
0.18
309
CELLMARGIN_END
 94
        6
 95
        1
302
GRIDFORMAT
  1
GRIDFORMAT_BEGIN
 90
        0
 91
        1
 62
     0
 92
       -2
340
0
 93
        0
 40
0.045
309
GRIDFORMAT_END
 95
        2
302
GRIDFORMAT
  1
GRIDFORMAT_BEGIN
 90
        0
 91
        1
 62
     0
 92
       -2
340
0
 93
        0
 40
0.045
309
GRIDFORMAT_END
 95
        4
302
GRIDFORMAT
  1
GRIDFORMAT_BEGIN
 90
        0
 91
        1
 62
     0
 92
       -2
340
0
 93
        0
 40
0.045
309
GRIDFORMAT_END
 95
        8
302
GRIDFORMAT
  1
GRIDFORMAT_BEGIN
 90
        0
 91
        1
 62
     0
 92
       -2
340
0
 93
        0
 40
0.045
309
GRIDFORMAT_END
 95
       16
302
GRIDFORMAT
  1
GRIDFORMAT_BEGIN
 90
        0
 91
        1
 62
     0
 92
       -2
340
0
 93
        0
 40
0.045
309
GRIDFORMAT_END
 95
       32
302
GRIDFORMAT
  1
GRIDFORMAT_BEGIN
 90
        0
 91
        1
 62
     0
 92
       -2
340
0
 93
        0
 40
0.045
309
GRIDFORMAT_END
309
TABLEFORMAT_END
  1
CELLSTYLE_BEGIN
 90
        2
 91
        1
300
_HEADER
309
CELLSTYLE_END
300
CELLSTYLE
  1
TABLEFORMAT_BEGIN
 90
        5
170
     1
 91
        0
 92
        0
 62
   257
 93
        1
300
CONTENTFORMAT
  1
CONTENTFORMAT_BEGIN
 90
        0
 91
        0
 92
        4
 93
        0
300

 40
0.0
140
1.0
 94
        2
 62
     0
340
11
144
4.5
309
CONTENTFORMAT_END
171
     1
301
MARGIN
  1
CELLMARGIN_BEGIN
 40
1.5
 40
1.5
 40
1.5
 40
1.5
 40
0.18
 40
0.18
309
CELLMARGIN_END
 94
        6
 95
        1
302
GRIDFORMAT
  1
GRIDFORMAT_BEGIN
 90
        0
 91
        1
 62
     0
 92
       -2
340
0
 93
        0
 40
0.045
309
GRIDFORMAT_END
 95
        2
302
GRIDFORMAT
  1
GRIDFORMAT_BEGIN
 90
        0
 91
        1
 62
     0
 92
       -2
340
0
 93
        0
 40
0.045
309
GRIDFORMAT_END
 95
        4
302
GRIDFORMAT
  1
GRIDFORMAT_BEGIN
 90
        0
 91
        1
 62
     0
 92
       -2
340
0
 93
        0
 40
0.045
309
GRIDFORMAT_END
 95
        8
302
GRIDFORMAT
  1
GRIDFORMAT_BEGIN
 90
        0
 91
        1
 62
     0
 92
       -2
340
0
 93
        0
 40
0.045
309
GRIDFORMAT_END
 95
       16
302
GRIDFORMAT
  1
GRIDFORMAT_BEGIN
 90
        0
 91
        1
 62
     0
 92
       -2
340
0
 93
        0
 40
0.045
309
GRIDFORMAT_END
 95
       32
302
GRIDFORMAT
  1
GRIDFORMAT_BEGIN
 90
        0
 91
        1
 62
     0
 92
       -2
340
0
 93
        0
 40
0.045
309
GRIDFORMAT_END
309
TABLEFORMAT_END
  1
CELLSTYLE_BEGIN
 90
        3
 91
        2
300
_DATA
309
CELLSTYLE_END
  0
XRECORD
  5
D31
102
{ACAD_REACTORS
330
41B
102
}
330
41B
100
AcDbXrecord
280
     1
102
ACAD_ROUNDTRIP_PRE2007_TABLESTYLE
 90
        4
 91
        0
  1

 92
        4
 93
        0
  2

 94
        4
 95
        0
  3

  0
ENDSEC
  0
EOF
