  0
SECTION
  2
HEADER
  9
$ACADVER
  1
AC1015
  9
$ACADMAINTVER
 70
    20
  9
$DWGCODEPAGE
  3
ANSI_1252
  9
$INSBASE
 10
0.0
 20
0.0
 30
0.0
  9
$EXTMIN
 10
-14.14042182137996
 20
-0.0206973149620353
 30
-0.0000000000000058
  9
$EXTMAX
 10
929.5490269521847
 20
762.8279752444255
 30
0.0000000000000104
  9
$LIMMIN
 10
0.0
 20
0.0
  9
$LIMMAX
 10
420.0
 20
297.0
  9
$ORTHOMODE
 70
     1
  9
$REGENMODE
 70
     1
  9
$FILLMODE
 70
     1
  9
$QTEXTMODE
 70
     0
  9
$MIRRTEXT
 70
     1
  9
$LTSCALE
 40
1.0
  9
$ATTMODE
 70
     1
  9
$TEXTSIZE
 40
2.5
  9
$TRACEWID
 40
1.0
  9
$TEXTSTYLE
  7
STANDARD
  9
$CLAYER
  8
0
  9
$CELTYPE
  6
ByLayer
  9
$CECOLOR
 62
   256
  9
$CELTSCALE
 40
1.0
  9
$DISPSILH
 70
     0
  9
$DIMSCALE
 40
1.0
  9
$DIMASZ
 40
3.5
  9
$DIMEXO
 40
1.0
  9
$DIMDLI
 40
10.0
  9
$DIMRND
 40
0.0
  9
$DIMDLE
 40
0.0
  9
$DIMEXE
 40
1.0
  9
$DIMTP
 40
0.1
  9
$DIMTM
 40
0.1
  9
$DIMTXT
 40
3.5
  9
$DIMCEN
 40
0.0
  9
$DIMTSZ
 40
0.0
  9
$DIMTOL
 70
     0
  9
$DIMLIM
 70
     0
  9
$DIMTIH
 70
     0
  9
$DIMTOH
 70
     0
  9
$DIMSE1
 70
     0
  9
$DIMSE2
 70
     0
  9
$DIMTAD
 70
     1
  9
$DIMZIN
 70
     8
  9
$DIMBLK
  1

  9
$DIMASO
 70
     1
  9
$DIMSHO
 70
     1
  9
$DIMPOST
  1

  9
$DIMAPOST
  1
"
  9
$DIMALT
 70
     0
  9
$DIMALTD
 70
     2
  9
$DIMALTF
 40
0.0393701
  9
$DIMLFAC
 40
1.0
  9
$DIMTOFL
 70
     1
  9
$DIMTVP
 40
0.0
  9
$DIMTIX
 70
     0
  9
$DIMSOXD
 70
     0
  9
$DIMSAH
 70
     0
  9
$DIMBLK1
  1

  9
$DIMBLK2
  1

  9
$DIMSTYLE
  2
AM_DIN
  9
$DIMCLRD
 70
   256
  9
$DIMCLRE
 70
   256
  9
$DIMCLRT
 70
     2
  9
$DIMTFAC
 40
0.71
  9
$DIMGAP
 40
1.5
  9
$DIMJUST
 70
     0
  9
$DIMSD1
 70
     0
  9
$DIMSD2
 70
     0
  9
$DIMTOLJ
 70
     0
  9
$DIMTZIN
 70
     8
  9
$DIMALTZ
 70
     0
  9
$DIMALTTZ
 70
     0
  9
$DIMUPT
 70
     0
  9
$DIMDEC
 70
     2
  9
$DIMTDEC
 70
     3
  9
$DIMALTU
 70
     2
  9
$DIMALTTD
 70
     4
  9
$DIMTXSTY
  7
STANDARD
  9
$DIMAUNIT
 70
     0
  9
$DIMADEC
 70
     0
  9
$DIMALTRND
 40
0.0
  9
$DIMAZIN
 70
     2
  9
$DIMDSEP
 70
    46
  9
$DIMATFIT
 70
     3
  9
$DIMFRAC
 70
     0
  9
$DIMLDRBLK
  1

  9
$DIMLUNIT
 70
     2
  9
$DIMLWD
 70
    -1
  9
$DIMLWE
 70
    -1
  9
$DIMTMOVE
 70
     0
  9
$LUNITS
 70
     2
  9
$LUPREC
 70
     2
  9
$SKETCHINC
 40
1.0
  9
$FILLETRAD
 40
0.0
  9
$AUNITS
 70
     0
  9
$AUPREC
 70
     0
  9
$MENU
  1
.
  9
$ELEVATION
 40
0.0
  9
$PELEVATION
 40
0.0
  9
$THICKNESS
 40
0.0
  9
$LIMCHECK
 70
     0
  9
$CHAMFERA
 40
2.5
  9
$CHAMFERB
 40
2.5
  9
$CHAMFERC
 40
20.0
  9
$CHAMFERD
 40
0.0
  9
$SKPOLY
 70
     0
  9
$TDCREATE
 40
2455659.580409294
  9
$TDUCREATE
 40
2455659.497075961
  9
$TDUPDATE
 40
2455665.458634201
  9
$TDUUPDATE
 40
2455665.375300868
  9
$TDINDWG
 40
0.2601320370
  9
$TDUSRTIMER
 40
0.2601314931
  9
$USRTIMER
 70
     1
  9
$ANGBASE
 50
0.0
  9
$ANGDIR
 70
     0
  9
$PDMODE
 70
     0
  9
$PDSIZE
 40
0.0
  9
$PLINEWID
 40
0.0
  9
$SPLFRAME
 70
     0
  9
$SPLINETYPE
 70
     6
  9
$SPLINESEGS
 70
     8
  9
$HANDSEED
  5
F39
  9
$SURFTAB1
 70
     6
  9
$SURFTAB2
 70
     6
  9
$SURFTYPE
 70
     6
  9
$SURFU
 70
     6
  9
$SURFV
 70
     6
  9
$UCSBASE
  2

  9
$UCSNAME
  2

  9
$UCSORG
 10
0.0
 20
0.0
 30
0.0
  9
$UCSXDIR
 10
1.0
 20
0.0
 30
0.0
  9
$UCSYDIR
 10
0.0
 20
1.0
 30
0.0
  9
$UCSORTHOREF
  2

  9
$UCSORTHOVIEW
 70
     0
  9
$UCSORGTOP
 10
0.0
 20
0.0
 30
0.0
  9
$UCSORGBOTTOM
 10
0.0
 20
0.0
 30
0.0
  9
$UCSORGLEFT
 10
0.0
 20
0.0
 30
0.0
  9
$UCSORGRIGHT
 10
0.0
 20
0.0
 30
0.0
  9
$UCSORGFRONT
 10
0.0
 20
0.0
 30
0.0
  9
$UCSORGBACK
 10
0.0
 20
0.0
 30
0.0
  9
$PUCSBASE
  2

  9
$PUCSNAME
  2

  9
$PUCSORG
 10
0.0
 20
0.0
 30
0.0
  9
$PUCSXDIR
 10
1.0
 20
0.0
 30
0.0
  9
$PUCSYDIR
 10
0.0
 20
1.0
 30
0.0
  9
$PUCSORTHOREF
  2

  9
$PUCSORTHOVIEW
 70
     0
  9
$PUCSORGTOP
 10
0.0
 20
0.0
 30
0.0
  9
$PUCSORGBOTTOM
 10
0.0
 20
0.0
 30
0.0
  9
$PUCSORGLEFT
 10
0.0
 20
0.0
 30
0.0
  9
$PUCSORGRIGHT
 10
0.0
 20
0.0
 30
0.0
  9
$PUCSORGFRONT
 10
0.0
 20
0.0
 30
0.0
  9
$PUCSORGBACK
 10
0.0
 20
0.0
 30
0.0
  9
$USERI1
 70
     0
  9
$USERI2
 70
     0
  9
$USERI3
 70
     0
  9
$USERI4
 70
     0
  9
$USERI5
 70
     0
  9
$USERR1
 40
0.0
  9
$USERR2
 40
0.0
  9
$USERR3
 40
0.0
  9
$USERR4
 40
0.0
  9
$USERR5
 40
0.0
  9
$WORLDVIEW
 70
     1
  9
$SHADEDGE
 70
     3
  9
$SHADEDIF
 70
    70
  9
$TILEMODE
 70
     1
  9
$MAXACTVP
 70
    64
  9
$PINSBASE
 10
0.0
 20
0.0
 30
0.0
  9
$PLIMCHECK
 70
     0
  9
$PEXTMIN
 10
1.000000000000000E+20
 20
1.000000000000000E+20
 30
1.000000000000000E+20
  9
$PEXTMAX
 10
-1.000000000000000E+20
 20
-1.000000000000000E+20
 30
-1.000000000000000E+20
  9
$PLIMMIN
 10
0.0
 20
0.0
  9
$PLIMMAX
 10
420.0
 20
297.0
  9
$UNITMODE
 70
     0
  9
$VISRETAIN
 70
     1
  9
$PLINEGEN
 70
     0
  9
$PSLTSCALE
 70
     1
  9
$TREEDEPTH
 70
  3020
  9
$CMLSTYLE
  2
Standard
  9
$CMLJUST
 70
     0
  9
$CMLSCALE
 40
20.0
  9
$PROXYGRAPHICS
 70
     1
  9
$MEASUREMENT
 70
     1
  9
$CELWEIGHT
370
    -1
  9
$ENDCAPS
280
     0
  9
$JOINSTYLE
280
     0
  9
$LWDISPLAY
290
     0
  9
$INSUNITS
 70
     4
  9
$HYPERLINKBASE
  1

  9
$STYLESHEET
  1
MONOCHROME-DUENN.CTB
  9
$XEDIT
290
     1
  9
$CEPSNTYPE
380
     0
  9
$PSTYLEMODE
290
     1
  9
$FINGERPRINTGUID
  2
{803B8E79-0E25-4170-9AF3-8D002398DE15}
  9
$VERSIONGUID
  2
{B669C171-7114-49FF-9026-1CA3AF4EFC22}
  9
$EXTNAMES
290
     1
  9
$PSVPSCALE
 40
0.0
  9
$OLESTARTUP
290
     0
  0
ENDSEC
  0
SECTION
  2
CLASSES
  0
CLASS
  1
ACDBDICTIONARYWDFLT
  2
AcDbDictionaryWithDefault
  3
ObjectDBX Classes
 90
        0
280
     0
281
     0
  0
CLASS
  1
ACDBPLACEHOLDER
  2
AcDbPlaceHolder
  3
ObjectDBX Classes
 90
        0
280
     0
281
     0
  0
CLASS
  1
LAYOUT
  2
AcDbLayout
  3
ObjectDBX Classes
 90
        0
280
     0
281
     0
  0
CLASS
  1
ACME_DOCUMENT
  2
AcMeDbDoc
  3
AcMeServices
 90
     1024
280
     0
281
     0
  0
CLASS
  1
AMGSETTINGSOBJ
  2
AmgSettingsObj
  3
"AcadM|Product Description: AutoCAD Mechanical|Company: Autodesk, Inc."
 90
     1024
280
     0
281
     0
  0
CLASS
  1
ACMESCOPE
  2
AcMeScope
  3
AcMeServices
 90
     1024
280
     0
281
     0
  0
CLASS
  1
ACMECOMMANDHISTORY
  2
AcMeCommandHistory
  3
AcMeServices
 90
     1024
280
     0
281
     0
  0
CLASS
  1
ACIMSYSVARMAN
  2
AcImSysVarManager
  3
AcMeServices
 90
     1024
280
     0
281
     0
  0
CLASS
  1
ACIMREALSYSVAR
  2
AcImRealSysVar
  3
AcMeServices
 90
     1024
280
     0
281
     0
  0
CLASS
  1
ACIMINTSYSVAR
  2
AcImIntSysVar
  3
AcMeServices
 90
     1024
280
     0
281
     0
  0
CLASS
  1
ACMEDRAWINGMAN
  2
AcMeDrawingMan
  3
AcMeServices
 90
     1024
280
     0
281
     0
  0
CLASS
  1
ACMEVIEW
  2
AcMeView
  3
AcMeServices
 90
     1024
280
     0
281
     0
  0
CLASS
  1
ACDBENTITYCACHE
  2
AcMeEntityCache
  3
AcMeServices
 90
     1024
280
     0
281
     0
  0
CLASS
  1
GSMANAGER
  2
AcMeGSManager
  3
AcMeServices
 90
     1024
280
     0
281
     0
  0
CLASS
  1
AMDTINTERNALREACTOR
  2
AmdtInternalReactor
  3
AcMeServices
 90
     1024
280
     0
281
     0
  0
CLASS
  1
ACMESTATEMGR
  2
AcMeStateMgr
  3
AcMeServices
 90
     1024
280
     0
281
     0
  0
CLASS
  1
ACGREFMASTER
  2
AcGrefMaster
  3
AcAttribServices
 90
     1024
280
     0
281
     0
  0
CLASS
  1
ACME_DATABASE
  2
AcMeDbDatabase
  3
AcMeServices
 90
     1024
280
     0
281
     0
  0
CLASS
  1
ACRFINSADJUSTERMGR
  2
AcRfInsAdjusterMgr
  3
AcMeServices
 90
     1024
280
     0
281
     0
  0
CLASS
  1
ACGREFACADMASTER
  2
AcGrefacadMaster
  3
AcGrefServices
 90
     1024
280
     0
281
     0
  0
CLASS
  1
AMIMASTER
  2
AmiMaster
  3
AmiServices
 90
     1024
280
     0
281
     0
  0
CLASS
  1
ACMDATADICTIONARY
  2
AcmDataDictionary
  3
"AcmSymBB|Product Description: AutoCAD Mechanical|Company: Autodesk, Inc."
 90
     1024
280
     0
281
     0
  0
CLASS
  1
ACMDATAENTRYBLOCK
  2
AcmDataEntryBlock
  3
AcmSymBB|Product Description: AutoCAD Mechanical|Company: Autodesk, Inc.
 90
    33792
280
     0
281
     0
  0
CLASS
  1
ACIMSTRSYSVAR
  2
AcImStrSysVar
  3
AcMeServices
 90
     1024
280
     0
281
     0
  0
CLASS
  1
ACMSTANDARDISO
  2
AcmStandardISO
  3
"Amdt_StdImp|Product Description: AutoCAD Mechanical|Company: Autodesk, Inc."
 90
    33792
280
     0
281
     0
  0
CLASS
  1
AMGOBJPROPCFG
  2
AmgObjPropCfg
  3
"AmgLay|Product Description: AutoCAD Mechanical|Company: Autodesk, Inc."
 90
     1025
280
     0
281
     0
  0
CLASS
  1
AMDTEDGESTANDARDISO
  2
AmdtEdgeStdISO
  3
"Amdt_StdImp|Product Description: AutoCAD Mechanical|Company: Autodesk, Inc."
 90
    33792
280
     0
281
     0
  0
CLASS
  1
ACMSURFSTANDARDISO
  2
AcmSurfTextStdISO
  3
"Amdt_StdImp|Product Description: AutoCAD Mechanical|Company: Autodesk, Inc."
 90
    33792
280
     0
281
     0
  0
CLASS
  1
ACMFCFSTANDARDISO
  2
AcmFCFStdISO
  3
"Amdt_StdImp|Product Description: AutoCAD Mechanical|Company: Autodesk, Inc."
 90
    33792
280
     0
281
     0
  0
CLASS
  1
ACMWELDSTANDARDISO
  2
AcmWeldingStdISO
  3
"Amdt_StdImp|Product Description: AutoCAD Mechanical|Company: Autodesk, Inc."
 90
    33792
280
     0
281
     0
  0
CLASS
  1
ACMIDSTANDARDISO
  2
AcmIdStdISO
  3
"Amdt_StdImp|Product Description: AutoCAD Mechanical|Company: Autodesk, Inc."
 90
    33792
280
     0
281
     0
  0
CLASS
  1
ACMDATUMSTANDARDISO
  2
AcmDatumStdISO
  3
"Amdt_StdImp|Product Description: AutoCAD Mechanical|Company: Autodesk, Inc."
 90
    33792
280
     0
281
     0
  0
CLASS
  1
ACMBOMSTANDARDISO
  2
AcmBOMStdISO
  3
"Amdt_StdImp|Product Description: AutoCAD Mechanical|Company: Autodesk, Inc."
 90
    33792
280
     0
281
     0
  0
CLASS
  1
ACMDETAILSTANDARDISO
  2
AmdtDetailSymStdISO
  3
"Amdt_StdImp|Product Description: AutoCAD Mechanical|Company: Autodesk, Inc."
 90
    33792
280
     0
281
     0
  0
CLASS
  1
ACMSECTIONSTANDARDISO
  2
AmdtSectionSymStdISO
  3
"Amdt_StdImp|Product Description: AutoCAD Mechanical|Company: Autodesk, Inc."
 90
    33792
280
     0
281
     0
  0
CLASS
  1
ACMCENTERLINESTANDARDISO
  2
AmdtCenterLineStdISO
  3
"Amdt_StdImp|Product Description: AutoCAD Mechanical|Company: Autodesk, Inc."
 90
    33792
280
     0
281
     0
  0
CLASS
  1
ACMNOTESTANDARDISO
  2
AmdtNoteStdISO
  3
"Amdt_StdImp|Product Description: AutoCAD Mechanical|Company: Autodesk, Inc."
 90
    33792
280
     0
281
     0
  0
CLASS
  1
ACAMGLAYSTD
  2
AcAmgLayStd
  3
"AmgLay|Product Description: AutoCAD Mechanical|Company: Autodesk, Inc."
 90
     1024
280
     0
281
     0
  0
CLASS
  1
ACAMGDIMSTD
  2
AcAmgDimStd
  3
"AmgDim|Product Description: AutoCAD Mechanical|Company: Autodesk, Inc."
 90
     1024
280
     0
281
     0
  0
CLASS
  1
ACAMGHOLECHARTSTDISO
  2
AcAmgHoleChartStdISO
  3
AmgDim|Product Description: AutoCAD Mechanical|Company: Autodesk, Inc.
 90
    33792
280
     0
281
     0
  0
CLASS
  1
ACAMGTITLESTD
  2
AcAmgTitleStd
  3
"AmgTitle|Product Description: AutoCAD Mechanical|Company: Autodesk, Inc."
 90
     4095
280
     0
281
     0
  0
CLASS
  1
LAYER_INDEX
  2
AcDbLayerIndex
  3
ObjectDBX Classes
 90
    32768
280
     0
281
     0
  0
CLASS
  1
IDBUFFER
  2
AcDbIdBuffer
  3
ObjectDBX Classes
 90
    32768
280
     0
281
     0
  0
CLASS
  1
DICTIONARYVAR
  2
AcDbDictionaryVar
  3
ObjectDBX Classes
 90
        0
280
     0
281
     0
  0
CLASS
  1
AM_DRAWING_MGR
  2
AcDmDwgMgr
  3
AcMechDwgViewMgmt
 90
     1024
280
     0
281
     0
  0
CLASS
  1
AM_DWG_DOCUMENT
  2
AcDmDwgDocument
  3
AcMechDwgViewMgmt
 90
     1024
280
     0
281
     0
  0
CLASS
  1
AM_DWG_SHEET
  2
AcDmSheet
  3
AcMechDwgViewMgmt
 90
     1024
280
     0
281
     0
  0
CLASS
  1
AM_VIEWDIMPARMAP
  2
AcDmViewDimParMap
  3
AcMechDwgViewMgmt
 90
     1024
280
     0
281
     0
  0
CLASS
  1
AM_DWGMGR_NAME
  2
AcDmDwgMgrName
  3
AcMechDwgViewMgmt
 90
     1024
280
     0
281
     0
  0
CLASS
  1
AMDTMENUSTATEMGR
  2
AmdtMenuStateMgr
  3
McadcomServices
 90
     1024
280
     0
281
     0
  0
CLASS
  1
AMDTMCOMMENUSTATE
  2
AmdtMcomMenuState
  3
McadcomServices
 90
     1024
280
     0
281
     0
  0
CLASS
  1
MAPIAMMOUDLE
  2
MApiAmModule
  3
MApiAmServices
 90
     1024
280
     0
281
     0
  0
CLASS
  1
AMDTADMENUSTATE
  2
AmdtAdMenuState
  3
DesignerServices
 90
     1024
280
     0
281
     0
  0
CLASS
  1
ADAPPL
  2
AcAdAppl
  3
DesignerServices
 90
     1024
280
     0
281
     0
  0
CLASS
  1
DEPMGR
  2
AcAdDepMgr
  3
DesignerServices
 90
     1024
280
     0
281
     0
  0
CLASS
  1
PARAMMGR
  2
AcAdParamMgr
  3
DesignerServices
 90
     1024
280
     0
281
     0
  0
CLASS
  1
PARAMSCOPE
  2
AcAdParamScope
  3
DesignerServices
 90
     1024
280
     0
281
     0
  0
CLASS
  1
NAMEDAPPL
  2
AcAdNamedAppl
  3
DesignerServices
 90
     1024
280
     0
281
     0
  0
CLASS
  1
AMDTDMMENUSTATE
  2
AmdtDmMenuState
  3
AcMechDwgViewMgmt
 90
     1024
280
     0
281
     0
  0
CLASS
  1
AMDTAMMENUSTATE
  2
AmdtAmMenuState
  3
DesignerAssemblies
 90
     1024
280
     0
281
     0
  0
CLASS
  1
ACAMPROJECT
  2
AcAmProject
  3
DesignerAssemblies
 90
     1024
280
     0
281
     0
  0
CLASS
  1
ACAMGRCOMPDEF
  2
AcAmGrCompDef
  3
DesignerAssemblies
 90
     1024
280
     0
281
     0
  0
CLASS
  1
ACCMCONTEXT
  2
AcCmContext
  3
DesignerAssemblies
 90
     1024
280
     0
281
     0
  0
CLASS
  1
ACAMCOMPDEF
  2
AcAmCompDef
  3
DesignerAssemblies
 90
     1024
280
     0
281
     0
  0
CLASS
  1
ACAMCOMPDEFMGR
  2
AcAmCompDefMgr
  3
DesignerAssemblies
 90
     1024
280
     0
281
     0
  0
CLASS
  1
AMCONTEXTMGR
  2
AcAmContextMgr
  3
DesignerAssemblies
 90
     1024
280
     0
281
     0
  0
CLASS
  1
ACAMCONTEXTMODELER
  2
AcAmContextModeler
  3
DesignerAssemblies
 90
     1024
280
     0
281
     0
  0
CLASS
  1
ACMTHREADLINESTANDARDISO
  2
AmdtThreadLineStdISO
  3
"Amdt_StdImp|Product Description: AutoCAD Mechanical|Company: Autodesk, Inc."
 90
    33792
280
     0
281
     0
  0
CLASS
  1
CATALOGSTATE
  2
AcAmCatalogState
  3
DesignerAssemblies
 90
     1024
280
     0
281
     0
  0
CLASS
  1
ACAMGRCOMPDEFSET
  2
AcAmGrCompDefSet
  3
DesignerAssemblies
 90
     1024
280
     0
281
     0
  0
CLASS
  1
AMDTBROWSERDBTAB
  2
AmdtBrowserDbTab
  3
McadcomServices
 90
     1024
280
     0
281
     0
  0
CLASS
  1
CBROWSERAPPOBJECT
  2
CBrowserAppObject
  3
McadcomServices
 90
     1024
280
     0
281
     0
  0
CLASS
  1
DM_PLACEHOLDER
  2
AcDmSelsetPlaceholder
  3
AcMechDwgViewMgmt
 90
     1024
280
     0
281
     0
  0
CLASS
  1
TABLESTYLE
  2
AcDbTableStyle
  3
ObjectDBX Classes
 90
     4095
280
     0
281
     0
  0
CLASS
  1
VAACXREFPANELOBJECT
  2
VaAcXREFPanelObject
  3
VAAC_ADDIN
 90
    32768
280
     0
281
     0
  0
CLASS
  1
VAACIMAGEINVENTORY
  2
VaAcImageInventory
  3
VAAC_ADDIN
 90
    32768
280
     0
281
     0
  0
CLASS
  1
AMDTNOTETEMPLATEDB
  2
AmdtNoteTemplateDB
  3
AcmSymBB|Product Description: AutoCAD Mechanical|Company: Autodesk, Inc.
 90
     1024
280
     0
281
     0
  0
CLASS
  1
ACAMGFILTERDAT
  2
AcAmgFilterDat
  3
"AcadM|Product Description: AutoCAD Mechanical|Company: Autodesk, Inc."
 90
    33792
280
     0
281
     0
  0
CLASS
  1
ACMBOM
  2
AcmBom
  3
"AcmSymBB|Product Description: AutoCAD Mechanical|Company: Autodesk, Inc."
 90
    33792
280
     0
281
     0
  0
CLASS
  1
AMDTFORMULAUPDATEDISPATCHER
  2
AmdtFormulaUpdateDispatcher
  3
AcMeServices
 90
    33792
280
     0
281
     0
  0
CLASS
  1
ACMSTANDARDDIN
  2
AcmStandardDIN
  3
"Amdt_StdImp|Product Description: AutoCAD Mechanical|Company: Autodesk, Inc."
 90
     1024
280
     0
281
     0
  0
CLASS
  1
AMDTEDGESTANDARDDIN13715
  2
AmdtEdgeStdDIN13715
  3
"Amdt_StdImp|Product Description: AutoCAD Mechanical|Company: Autodesk, Inc."
 90
     1024
280
     0
281
     0
  0
CLASS
  1
ACMSURFSTANDARDDIN
  2
AcmSurfTextStdDIN
  3
"Amdt_StdImp|Product Description: AutoCAD Mechanical|Company: Autodesk, Inc."
 90
    33792
280
     0
281
     0
  0
CLASS
  1
ACMFCFSTANDARDDIN
  2
AcmFCFStdDIN
  3
"Amdt_StdImp|Product Description: AutoCAD Mechanical|Company: Autodesk, Inc."
 90
     1024
280
     0
281
     0
  0
CLASS
  1
ACMWELDSTANDARDDIN
  2
AcmWeldingStdDIN
  3
"Amdt_StdImp|Product Description: AutoCAD Mechanical|Company: Autodesk, Inc."
 90
     1024
280
     0
281
     0
  0
CLASS
  1
ACMIDSTANDARDDIN
  2
AcmIdStdDIN
  3
"Amdt_StdImp|Product Description: AutoCAD Mechanical|Company: Autodesk, Inc."
 90
     1024
280
     0
281
     0
  0
CLASS
  1
ACMDATUMSTANDARDDIN
  2
AcmDatumStdDIN
  3
"Amdt_StdImp|Product Description: AutoCAD Mechanical|Company: Autodesk, Inc."
 90
     1024
280
     0
281
     0
  0
CLASS
  1
ACMBOMSTANDARDDIN
  2
AcmBOMStdDIN
  3
"Amdt_StdImp|Product Description: AutoCAD Mechanical|Company: Autodesk, Inc."
 90
     1024
280
     0
281
     0
  0
CLASS
  1
ACMDETAILSTANDARDDIN
  2
AmdtDetailSymStdDIN
  3
"Amdt_StdImp|Product Description: AutoCAD Mechanical|Company: Autodesk, Inc."
 90
     1024
280
     0
281
     0
  0
CLASS
  1
ACMSECTIONSTANDARDDIN
  2
AmdtSectionSymStdDIN
  3
"Amdt_StdImp|Product Description: AutoCAD Mechanical|Company: Autodesk, Inc."
 90
     1024
280
     0
281
     0
  0
CLASS
  1
ACMCENTERLINESTANDARDDIN
  2
AmdtCenterLineStdDIN
  3
"Amdt_StdImp|Product Description: AutoCAD Mechanical|Company: Autodesk, Inc."
 90
     1024
280
     0
281
     0
  0
CLASS
  1
ACMTHREADLINESTANDARDDIN
  2
AmdtThreadLineStdDIN
  3
"Amdt_StdImp|Product Description: AutoCAD Mechanical|Company: Autodesk, Inc."
 90
     1024
280
     0
281
     0
  0
CLASS
  1
ACMNOTESTANDARDDIN
  2
AmdtNoteStdDIN
  3
"Amdt_StdImp|Product Description: AutoCAD Mechanical|Company: Autodesk, Inc."
 90
     1024
280
     0
281
     0
  0
CLASS
  1
ACAMGHOLECHARTSTDDIN
  2
AcAmgHoleChartStdDIN
  3
AmgDim|Product Description: AutoCAD Mechanical|Company: Autodesk, Inc.
 90
     1024
280
     0
281
     0
  0
CLASS
  1
MATERIAL
  2
AcDbMaterial
  3
ObjectDBX Classes
 90
     1153
280
     0
281
     0
  0
CLASS
  1
VISUALSTYLE
  2
AcDbVisualStyle
  3
ObjectDBX Classes
 90
     4095
280
     0
281
     0
  0
CLASS
  1
SCALE
  2
AcDbScale
  3
ObjectDBX Classes
 90
     1153
280
     0
281
     0
  0
CLASS
  1
MLEADERSTYLE
  2
AcDbMLeaderStyle
  3
ACDB_MLEADERSTYLE_CLASS
 90
     4095
280
     0
281
     0
  0
CLASS
  1
ACRFATTGENMGR
  2
AcRfAttGeneralMgr
  3
AcAttribServices
 90
    33792
280
     0
281
     0
  0
CLASS
  1
ACRFOBJATTMGR
  2
AcRfObjAttGroupMgr
  3
AcAttribServices
 90
    33792
280
     0
281
     0
  0
CLASS
  1
ACRFMCADAPIATTHOLDER
  2
AcRfMCADAPIAttHolder
  3
AcAttribServices
 90
    33792
280
     0
281
     0
  0
CLASS
  1
AMDTSYSATTR
  2
AmdtSystemAttribute
  3
AcAttribServices
 90
    33792
280
     0
281
     0
  0
CLASS
  1
ACMTAPERSTANDARDISO
  2
AcmTaperStdISO
  3
"Amdt_StdImp|Product Description: AutoCAD Mechanical|Company: Autodesk, Inc."
 90
    33792
280
     0
281
     0
  0
CLASS
  1
ACMANOOTATIONVIEWSTANDARDISO
  2
AmdtAnViewStdISO
  3
"Amdt_StdImp|Product Description: AutoCAD Mechanical|Company: Autodesk, Inc."
 90
    33792
280
     0
281
     0
  0
CLASS
  1
ACMTAPERSTANDARDDIN
  2
AcmTaperStdDIN
  3
"Amdt_StdImp|Product Description: AutoCAD Mechanical|Company: Autodesk, Inc."
 90
     1024
280
     0
281
     0
  0
CLASS
  1
ACMANOOTATIONVIEWSTANDARDDIN
  2
AmdtAnViewStdDIN
  3
"Amdt_StdImp|Product Description: AutoCAD Mechanical|Company: Autodesk, Inc."
 90
     1024
280
     0
281
     0
  0
CLASS
  1
EXACXREFPANELOBJECT
  2
ExAcXREFPanelObject
  3
EXAC_ESW
 90
     1025
280
     0
281
     0
  0
CLASS
  1
NPOCOLLECTION
  2
AcDbImpNonPersistentObjectsCollection
  3
ObjectDBX Classes
 90
     1153
280
     0
281
     0
  0
CLASS
  1
CAMSSTRUCTBTNSTATE
  2
StructBtnState
  3
DesignerAssemblies
 90
    33792
280
     0
281
     0
  0
CLASS
  1
CELLSTYLEMAP
  2
AcDbCellStyleMap
  3
ObjectDBX Classes
 90
     1152
280
     0
281
     0
  0
CLASS
  1
AEC_REFEDIT_STATUS_TRACKER
  2
AecDbRefEditStatusTracker
  3
AecArchBase50|Product Desc: Autodesk Architectural Desktop 2007 |Company: Autodesk,Inc. |WEB Address: www.autodesk.com
 90
      129
280
     0
281
     0
  0
CLASS
  1
IMAGE
  2
AcDbRasterImage
  3
ISM
 90
    34943
280
     0
281
     1
  0
CLASS
  1
IMAGEDEF_REACTOR
  2
AcDbRasterImageDefReactor
  3
ISM
 90
    32769
280
     0
281
     0
  0
CLASS
  1
IMAGEDEF
  2
AcDbRasterImageDef
  3
ISM
 90
    32768
280
     0
281
     0
  0
CLASS
  1
RASTERVARIABLES
  2
AcDbRasterVariables
  3
ISM
 90
    32768
280
     0
281
     0
  0
CLASS
  1
DIMASSOC
  2
AcDbDimAssoc
  3
"AcDbDimAssoc|Product Desc:     AcDim ARX App For Dimension|Company:          Autodesk, Inc.|WEB Address:      www.autodesk.com"
 90
        0
280
     0
281
     0
  0
CLASS
  1
SORTENTSTABLE
  2
AcDbSortentsTable
  3
ObjectDBX Classes
 90
        0
280
     0
281
     0
  0
CLASS
  1
ACMSURFSTANDARDDIN2002
  2
AcmSurfTextStdDIN2002
  3
"Amdt_StdImp|Product Description: AutoCAD Mechanical|Company: Autodesk, Inc."
 90
     1024
280
     0
281
     0
  0
ENDSEC
  0
SECTION
  2
TABLES
  0
TABLE
  2
VPORT
  5
8
330
0
100
AcDbSymbolTable
 70
     1
  0
VPORT
  5
3B2
330
8
100
AcDbSymbolTableRecord
100
AcDbViewportTableRecord
  2
*Active
 70
     0
 10
0.0
 20
0.0
 11
1.0
 21
1.0
 12
457.7043025654022
 22
381.4036389647317
 13
0.0
 23
0.0
 14
2.5
 24
2.5
 15
10.0
 25
10.0
 16
0.0
 26
0.0
 36
1.0
 17
0.0
 27
0.0
 37
0.0
 40
768.5276915608832
 41
1.803695150115473
 42
50.0
 43
0.0
 44
0.0
 50
0.0
 51
0.0
 71
     0
 72
   100
 73
     1
 74
     3
 75
     0
 76
     0
 77
     0
 78
     0
281
     0
 65
     0
110
0.0
120
0.0
130
0.0
111
1.0
121
0.0
131
0.0
112
0.0
122
1.0
132
0.0
 79
     0
146
0.0
  0
ENDTAB
  0
TABLE
  2
LTYPE
  5
5
330
0
100
AcDbSymbolTable
 70
    24
  0
LTYPE
  5
14
330
5
100
AcDbSymbolTableRecord
100
AcDbLinetypeTableRecord
  2
ByBlock
 70
     0
  3

 72
    65
 73
     0
 40
0.0
  0
LTYPE
  5
15
330
5
100
AcDbSymbolTableRecord
100
AcDbLinetypeTableRecord
  2
ByLayer
 70
     0
  3

 72
    65
 73
     0
 40
0.0
  0
LTYPE
  5
16
330
5
100
AcDbSymbolTableRecord
100
AcDbLinetypeTableRecord
  2
Continuous
 70
     0
  3
Solid line
 72
    65
 73
     0
 40
0.0
  0
LTYPE
  5
64
330
5
100
AcDbSymbolTableRecord
100
AcDbLinetypeTableRecord
  2
AM_ISO02W050
 70
     0
  3
__ __ __ __ __ __ __ __ __ __ __ __ __ __ __
 72
    65
 73
     2
 40
7.5
 49
6.0
 74
     0
 49
-1.5
 74
     0
  0
LTYPE
  5
65
330
5
100
AcDbSymbolTableRecord
100
AcDbLinetypeTableRecord
  2
AM_ISO08W050
 70
     0
  3
____ . ____ . ____ . ____ . ____ . ____ . ____
 72
    65
 73
     4
 40
18.0
 49
12.0
 74
     0
 49
-1.5
 74
     0
 49
3.0
 74
     0
 49
-1.5
 74
     0
  0
LTYPE
  5
66
330
5
100
AcDbSymbolTableRecord
100
AcDbLinetypeTableRecord
  2
AM_ISO09W050
 70
     0
  3
_____ . . _____ . . _____ . . ____ .. ____
 72
    65
 73
     6
 40
22.5
 49
12.0
 74
     0
 49
-1.5
 74
     0
 49
3.0
 74
     0
 49
-1.5
 74
     0
 49
3.0
 74
     0
 49
-1.5
 74
     0
  0
LTYPE
  5
67
330
5
100
AcDbSymbolTableRecord
100
AcDbLinetypeTableRecord
  2
Amconstr
 70
     0
  3
_______________________
 72
    65
 73
     2
 40
9999.0
 49
9999.0
 74
     0
 49
0.0
 74
     0
  0
LTYPE
  5
68
330
5
100
AcDbSymbolTableRecord
100
AcDbLinetypeTableRecord
  2
AM_ISO08W050x2
 70
     0
  3
__ . __ . __ . __ . __ . __
 72
    65
 73
     4
 40
9.0
 49
6.0
 74
     0
 49
-0.75
 74
     0
 49
1.5
 74
     0
 49
-0.75
 74
     0
  0
LTYPE
  5
69
330
5
100
AcDbSymbolTableRecord
100
AcDbLinetypeTableRecord
  2
AM_ISO02W050x2
 70
     0
  3
 _ _ _ _ _ _ _ _ _ _ _ _
 72
    65
 73
     2
 40
3.75
 49
3.0
 74
     0
 49
-0.75
 74
     0
  0
LTYPE
  5
6C
330
5
100
AcDbSymbolTableRecord
100
AcDbLinetypeTableRecord
  2
Amzigzag
 70
     0
  3
/\/-/\/-/\/-/\/-/\/-/\/
 72
    65
 73
     2
 40
11.0001
 49
0.0001
 74
     4
 75
   136
340
22C
 46
0.04
 50
0.0
 44
0.0
 45
0.0
 49
-11.0
 74
     0
  0
LTYPE
  5
7A
330
5
100
AcDbSymbolTableRecord
100
AcDbLinetypeTableRecord
  2
ACISOWELD
 70
     0
  3
_ _ _ _ _
 72
    65
 73
     2
 40
2.0
 49
2.0
 74
     0
 49
-1.0
 74
     0
  0
LTYPE
  5
7B
330
5
100
AcDbSymbolTableRecord
100
AcDbLinetypeTableRecord
  2
ACISOTGB
 70
     0
  3
__ . . __ . .
 72
    65
 73
     6
 40
9.0
 49
4.0
 74
     0
 49
-1.0
 74
     0
 49
1.0
 74
     0
 49
-1.0
 74
     0
 49
1.0
 74
     0
 49
-1.0
 74
     0
  0
LTYPE
  5
7C
330
5
100
AcDbSymbolTableRecord
100
AcDbLinetypeTableRecord
  2
ACISOTGL
 70
     0
  3
_ _ _ _ _
 72
    65
 73
     2
 40
3.0
 49
2.0
 74
     0
 49
-1.0
 74
     0
  0
LTYPE
  5
7E
330
5
100
AcDbSymbolTableRecord
100
AcDbLinetypeTableRecord
  2
CENTER
 70
     0
  3
__ . __
 72
    65
 73
     4
 40
7.0
 49
4.0
 74
     0
 49
-1.0
 74
     0
 49
1.0
 74
     0
 49
-1.0
 74
     0
  0
LTYPE
  5
D8
330
5
100
AcDbSymbolTableRecord
100
AcDbLinetypeTableRecord
  2
HIDDEN
 70
     0
  3
Hidden __ __ __ __ __ __ __ __ __ __ __ __ __ _
 72
    65
 73
     2
 40
9.524999999999996
 49
6.349999999999997
 74
     0
 49
-3.174999999999998
 74
     0
  0
LTYPE
  5
D9
330
5
100
AcDbSymbolTableRecord
100
AcDbLinetypeTableRecord
  2
PHANTOM2
 70
     0
  3
Phantom (.5x) ___ _ _ ___ _ _ ___ _ _ ___ _ _
 72
    65
 73
     6
 40
31.75
 49
15.875
 74
     0
 49
-3.174999999999998
 74
     0
 49
3.174999999999998
 74
     0
 49
-3.174999999999998
 74
     0
 49
3.174999999999998
 74
     0
 49
-3.174999999999998
 74
     0
  0
LTYPE
  5
2E5
330
5
100
AcDbSymbolTableRecord
100
AcDbLinetypeTableRecord
  2
ACDINWELD
 70
     0
  3
_ _ _ _ _
 72
    65
 73
     2
 40
2.0
 49
2.0
 74
     0
 49
-1.0
 74
     0
  0
LTYPE
  5
2E6
330
5
100
AcDbSymbolTableRecord
100
AcDbLinetypeTableRecord
  2
ACDINTGB
 70
     0
  3
__ . . __ . .
 72
    65
 73
     6
 40
9.0
 49
4.0
 74
     0
 49
-1.0
 74
     0
 49
1.0
 74
     0
 49
-1.0
 74
     0
 49
1.0
 74
     0
 49
-1.0
 74
     0
  0
LTYPE
  5
2E7
330
5
100
AcDbSymbolTableRecord
100
AcDbLinetypeTableRecord
  2
ACDINTGL
 70
     0
  3
_ _ _ _ _
 72
    65
 73
     2
 40
3.0
 49
2.0
 74
     0
 49
-1.0
 74
     0
  0
LTYPE
  5
321
330
5
100
AcDbSymbolTableRecord
100
AcDbLinetypeTableRecord
  2
AM_DIN_F_W050
 70
     0
  3
__ __ __ __ __ __ __ __ __ __ __ __ __ __ __
 72
    65
 73
     2
 40
6.25
 49
4.75
 74
     0
 49
-1.5
 74
     0
  0
LTYPE
  5
322
330
5
100
AcDbSymbolTableRecord
100
AcDbLinetypeTableRecord
  2
AM_DIN_G_W050
 70
     0
  3
____ . ____ . ____ . ____ . ____ . ____ . ____
 72
    65
 73
     4
 40
13.75
 49
9.75
 74
     0
 49
-1.5
 74
     0
 49
1.0
 74
     0
 49
-1.5
 74
     0
  0
LTYPE
  5
323
330
5
100
AcDbSymbolTableRecord
100
AcDbLinetypeTableRecord
  2
AM_DIN_K_W050
 70
     0
  3
_____ . . _____ . . _____ . . ____ .. ____
 72
    65
 73
     6
 40
16.25
 49
9.75
 74
     0
 49
-1.5
 74
     0
 49
1.0
 74
     0
 49
-1.5
 74
     0
 49
1.0
 74
     0
 49
-1.5
 74
     0
  0
LTYPE
  5
324
330
5
100
AcDbSymbolTableRecord
100
AcDbLinetypeTableRecord
  2
AM_DIN_G_W050x2
 70
     0
  3
__ . __ . __ . __ . __ . __
 72
    65
 73
     4
 40
6.875
 49
4.75
 74
     0
 49
-0.875
 74
     0
 49
0.375
 74
     0
 49
-0.875
 74
     0
  0
LTYPE
  5
325
330
5
100
AcDbSymbolTableRecord
100
AcDbLinetypeTableRecord
  2
AM_DIN_F_W050x2
 70
     0
  3
 _ _ _ _ _ _ _ _ _ _ _ _
 72
    65
 73
     2
 40
3.125
 49
2.25
 74
     0
 49
-0.875
 74
     0
  0
LTYPE
  5
675
330
5
100
AcDbSymbolTableRecord
100
AcDbLinetypeTableRecord
  2
GEN7A
 70
     0
  3
__ . __ . __
 72
    65
 73
     4
 40
6.875
 49
5.0
 74
     0
 49
-0.625
 74
     0
 49
0.625
 74
     0
 49
-0.625
 74
     0
  0
ENDTAB
  0
TABLE
  2
LAYER
  5
2
102
{ACAD_XDICTIONARY
360
68D
102
}
330
0
100
AcDbSymbolTable
 70
    10
  0
LAYER
  5
10
102
{ACAD_XDICTIONARY
360
836
102
}
330
2
100
AcDbSymbolTableRecord
100
AcDbLayerTableRecord
  2
0
 70
     0
 62
     7
  6
Continuous
370
    -3
390
F
  0
LAYER
  5
676
102
{ACAD_XDICTIONARY
360
677
102
}
330
2
100
AcDbSymbolTableRecord
100
AcDbLayerTableRecord
  2
7A
 70
     0
 62
     4
  6
GEN7A
370
    -3
390
F
  0
LAYER
  5
678
102
{ACAD_XDICTIONARY
360
679
102
}
330
2
100
AcDbSymbolTableRecord
100
AcDbLayerTableRecord
  2
5
 70
     0
 62
     3
  6
Continuous
370
    -3
390
F
  0
LAYER
  5
67A
330
2
100
AcDbSymbolTableRecord
100
AcDbLayerTableRecord
  2
DEFPOINTS
 70
     0
 62
     7
  6
Continuous
290
     0
370
    -3
390
F
  0
LAYER
  5
67B
102
{ACAD_XDICTIONARY
360
67C
102
}
330
2
100
AcDbSymbolTableRecord
100
AcDbLayerTableRecord
  2
KLIN
 70
     0
 62
     1
  6
Continuous
370
    -3
390
F
  0
LAYER
  5
67D
102
{ACAD_XDICTIONARY
360
67E
102
}
330
2
100
AcDbSymbolTableRecord
100
AcDbLayerTableRecord
  2
RUNDUNGEN
 70
     0
 62
     7
  6
Continuous
370
    -3
390
F
  0
LAYER
  5
67F
102
{ACAD_XDICTIONARY
360
680
102
}
330
2
100
AcDbSymbolTableRecord
100
AcDbLayerTableRecord
  2
AM_5
 70
     0
 62
     3
  6
Continuous
370
    25
390
F
1001
AcAecLayerStandard
1000

1000

  0
LAYER
  5
681
102
{ACAD_XDICTIONARY
360
682
102
}
330
2
100
AcDbSymbolTableRecord
100
AcDbLayerTableRecord
  2
AM_7
 70
     0
 62
     4
  6
AM_ISO08W050
370
    25
390
F
1001
AcAecLayerStandard
1000

1000

  0
LAYER
  5
7F2
102
{ACAD_XDICTIONARY
360
83E
102
}
330
2
100
AcDbSymbolTableRecord
100
AcDbLayerTableRecord
  2
AM_CL
 70
     0
 62
     1
  6
Amconstr
370
    25
390
F
1001
AcAecLayerStandard
1000

1000

  0
LAYER
  5
B8E
102
{ACAD_XDICTIONARY
360
B8F
102
}
330
2
100
AcDbSymbolTableRecord
100
AcDbLayerTableRecord
  2
BEZUGSACHSEN
 70
     0
 62
     7
  6
Continuous
370
    -3
390
F
  0
ENDTAB
  0
TABLE
  2
STYLE
  5
3
330
0
100
AcDbSymbolTable
 70
    10
  0
STYLE
  5
11
330
3
100
AcDbSymbolTableRecord
100
AcDbTextStyleTableRecord
  2
STANDARD
 70
     0
 40
0.0
 41
1.0
 50
0.0
 71
     0
 42
2.5
  3
ISOCP.SHX
  4

  0
STYLE
  5
6B
330
3
100
AcDbSymbolTableRecord
100
AcDbTextStyleTableRecord
  2

 70
     1
 40
0.0
 41
1.0
 50
0.0
 71
     0
 42
2.5
  3
ltypeshp.shx
  4

  0
STYLE
  5
6D
330
3
100
AcDbSymbolTableRecord
100
AcDbTextStyleTableRecord
  2
ACISOTS
 70
     0
 40
1.0
 41
1.0
 50
0.0
 71
     0
 42
2.5
  3
isocp.shx
  4
bigfont.shx
  0
STYLE
  5
79
330
3
100
AcDbSymbolTableRecord
100
AcDbTextStyleTableRecord
  2
ACISOGDT
 70
     0
 40
0.0
 41
1.0
 50
0.0
 71
     0
 42
2.5
  3
AMGDT
  4
bigfont.shx
  0
STYLE
  5
1ED
330
3
100
AcDbSymbolTableRecord
100
AcDbTextStyleTableRecord
  2
USER1
 70
     0
 40
0.0
 41
1.0
 50
0.0
 71
     0
 42
2.5
  3
TXT.SHX
  4
bigfont.shx
  0
STYLE
  5
1EE
330
3
100
AcDbSymbolTableRecord
100
AcDbTextStyleTableRecord
  2
USER2
 70
     0
 40
0.0
 41
1.0
 50
0.0
 71
     0
 42
2.5
  3
SIMPLEX.SHX
  4
bigfont.shx
  0
STYLE
  5
1EF
330
3
100
AcDbSymbolTableRecord
100
AcDbTextStyleTableRecord
  2
USER3
 70
     0
 40
0.0
 41
1.0
 50
0.0
 71
     0
 42
2.5
  3
ITALIC.SHX
  4
bigfont.shx
  0
STYLE
  5
22C
330
3
100
AcDbSymbolTableRecord
100
AcDbTextStyleTableRecord
  2

 70
     1
 40
0.0
 41
1.0
 50
0.0
 71
     0
 42
2.5
  3
genltshp.shx
  4

  0
STYLE
  5
2D7
330
3
100
AcDbSymbolTableRecord
100
AcDbTextStyleTableRecord
  2
ACDINTS
 70
     0
 40
1.0
 41
1.0
 50
0.0
 71
     0
 42
2.5
  3
isocp.shx
  4

  0
STYLE
  5
2E4
330
3
100
AcDbSymbolTableRecord
100
AcDbTextStyleTableRecord
  2
ACDINGDT
 70
     0
 40
0.0
 41
1.0
 50
0.0
 71
     0
 42
2.5
  3
amgdt.shx
  4

  0
ENDTAB
  0
TABLE
  2
VIEW
  5
6
330
0
100
AcDbSymbolTable
 70
     0
  0
ENDTAB
  0
TABLE
  2
UCS
  5
7
330
0
100
AcDbSymbolTable
 70
     0
  0
ENDTAB
  0
TABLE
  2
APPID
  5
9
330
0
100
AcDbSymbolTable
 70
    26
  0
APPID
  5
12
330
9
100
AcDbSymbolTableRecord
100
AcDbRegAppTableRecord
  2
ACAD
 70
     0
  0
APPID
  5
46
330
9
100
AcDbSymbolTableRecord
100
AcDbRegAppTableRecord
  2
MCAD_NO_VIS
 70
     0
  0
APPID
  5
47
330
9
100
AcDbSymbolTableRecord
100
AcDbRegAppTableRecord
  2
ACAD_TEMP_GRAPHIC
 70
     0
  0
APPID
  5
58
330
9
100
AcDbSymbolTableRecord
100
AcDbRegAppTableRecord
  2
ACATTRIBSERVICES
 70
     0
  0
APPID
  5
EE
330
9
100
AcDbSymbolTableRecord
100
AcDbRegAppTableRecord
  2
AD_DRAW
 70
     0
  0
APPID
  5
10C
330
9
100
AcDbSymbolTableRecord
100
AcDbRegAppTableRecord
  2
DESIGNERASSEMBLIES
 70
     0
  0
APPID
  5
111
330
9
100
AcDbSymbolTableRecord
100
AcDbRegAppTableRecord
  2
ACADM_DIM_EDIT
 70
     0
  0
APPID
  5
112
330
9
100
AcDbSymbolTableRecord
100
AcDbRegAppTableRecord
  2
AMDT_DM_ADJ
 70
     0
  0
APPID
  5
1A3
330
9
100
AcDbSymbolTableRecord
100
AcDbRegAppTableRecord
  2
ACAD_DSTYLE_DIMARC_LENGTH_SYMBOL
 70
     0
  0
APPID
  5
1A4
330
9
100
AcDbSymbolTableRecord
100
AcDbRegAppTableRecord
  2
ACAD_DSTYLE_DIMJOGGED_JOGANGLE_SYMBOL
 70
     0
  0
APPID
  5
3F1
330
9
100
AcDbSymbolTableRecord
100
AcDbRegAppTableRecord
  2
ACAD_MLEADERVER
 70
     0
  0
APPID
  5
684
330
9
100
AcDbSymbolTableRecord
100
AcDbRegAppTableRecord
  2
GENIUS_GENOENT_13
 70
     0
  0
APPID
  5
685
330
9
100
AcDbSymbolTableRecord
100
AcDbRegAppTableRecord
  2
GENIUS_GENODEF_13
 70
     0
  0
APPID
  5
686
330
9
100
AcDbSymbolTableRecord
100
AcDbRegAppTableRecord
  2
GENIUS_GENOLIS_13
 70
     0
  0
APPID
  5
687
330
9
100
AcDbSymbolTableRecord
100
AcDbRegAppTableRecord
  2
GENIUS_GENOREF_13
 70
     0
  0
APPID
  5
688
330
9
100
AcDbSymbolTableRecord
100
AcDbRegAppTableRecord
  2
GENIUS_GENOBJ-N-CRS_13
 70
     0
  0
APPID
  5
689
330
9
100
AcDbSymbolTableRecord
100
AcDbRegAppTableRecord
  2
GENIUS_GENOBJ-N-CEN_13
 70
     0
  0
APPID
  5
68A
330
9
100
AcDbSymbolTableRecord
100
AcDbRegAppTableRecord
  2
AcAecLayerStandard
 70
     0
  0
APPID
  5
68B
330
9
100
AcDbSymbolTableRecord
100
AcDbRegAppTableRecord
  2
ACAD_DSTYLE_DIMINSPECT
 70
     0
  0
APPID
  5
68C
330
9
100
AcDbSymbolTableRecord
100
AcDbRegAppTableRecord
  2
GENIUS_GENCEN_19
 70
     0
  0
APPID
  5
7F5
330
9
100
AcDbSymbolTableRecord
100
AcDbRegAppTableRecord
  2
ACAD_EXEMPT_FROM_CAD_STANDARDS
 70
     0
  0
APPID
  5
852
330
9
100
AcDbSymbolTableRecord
100
AcDbRegAppTableRecord
  2
ACAD_PSEXT
 70
     0
  0
APPID
  5
86B
330
9
100
AcDbSymbolTableRecord
100
AcDbRegAppTableRecord
  2
ACAD_DSTYLE_DIM_LINETYPE
 70
     0
  0
APPID
  5
86C
330
9
100
AcDbSymbolTableRecord
100
AcDbRegAppTableRecord
  2
ACAD_DSTYLE_DIM_EXT1_LINETYPE
 70
     0
  0
APPID
  5
86D
330
9
100
AcDbSymbolTableRecord
100
AcDbRegAppTableRecord
  2
ACAD_DSTYLE_DIM_EXT2_LINETYPE
 70
     0
  0
APPID
  5
ED7
330
9
100
AcDbSymbolTableRecord
100
AcDbRegAppTableRecord
  2
DCO15
 70
     0
  0
ENDTAB
  0
TABLE
  2
DIMSTYLE
  5
A
330
0
100
AcDbSymbolTable
 70
    18
100
AcDbDimStyleTable
 71
     2
340
2F0
340
81
  0
DIMSTYLE
105
27
330
A
100
AcDbSymbolTableRecord
100
AcDbDimStyleTableRecord
  2
ISO-25
 70
     0
 41
2.5
 42
0.625
 43
3.75
 44
1.25
 73
     0
 74
     0
 77
     1
 78
     8
140
2.5
141
2.5
143
0.03937007874016
147
0.625
171
     3
172
     1
271
     2
272
     2
274
     3
278
    44
283
     0
284
     8
340
11
  0
DIMSTYLE
105
81
330
A
100
AcDbSymbolTableRecord
100
AcDbDimStyleTableRecord
  2
AM_ISO
 70
     0
  4
"
 41
2.5
 42
1.0
 43
10.0
 44
1.0
 47
0.1
 48
0.1
 73
     0
 74
     0
 77
     1
 78
     8
 79
     2
140
3.5
141
0.0
143
0.0393701
146
0.71
147
1.5
172
     1
176
   256
177
   256
178
     2
271
     2
272
     3
274
     4
283
     0
284
     8
340
11
371
    -1
372
    -1
1001
ACAD_DSTYLE_DIMJOGGED_JOGANGLE_SYMBOL
1070
   384
1040
0.7853981633974483
1001
ACAD_DSTYLE_DIMARC_LENGTH_SYMBOL
1070
   379
1070
     1
  0
DIMSTYLE
105
82
330
A
100
AcDbSymbolTableRecord
100
AcDbDimStyleTableRecord
  2
AM_ISO$3
 70
     0
  4
"
 41
2.5
 42
1.0
 43
10.0
 44
1.0
 47
0.1
 48
0.1
 73
     0
 77
     1
 78
     8
 79
     2
140
3.5
141
0.0
143
0.0393701
146
0.71
147
1.5
176
   256
177
   256
178
     2
271
     2
272
     3
274
     4
283
     0
284
     8
288
     1
289
     0
340
11
371
    -1
372
    -1
1001
ACAD_DSTYLE_DIMJOGGED_JOGANGLE_SYMBOL
1070
   384
1040
0.7853981633974483
1001
ACAD_DSTYLE_DIMARC_LENGTH_SYMBOL
1070
   379
1070
     1
  0
DIMSTYLE
105
83
330
A
100
AcDbSymbolTableRecord
100
AcDbDimStyleTableRecord
  2
AM_ISO$4
 70
     0
  4
"
 41
2.5
 42
1.0
 43
10.0
 44
1.0
 47
0.1
 48
0.1
 73
     0
 77
     1
 78
     8
 79
     2
140
3.5
141
0.0
143
0.0393701
146
0.71
147
1.5
176
   256
177
   256
178
     2
271
     2
272
     3
274
     4
283
     0
284
     8
288
     1
289
     0
340
11
371
    -1
372
    -1
1001
ACAD_DSTYLE_DIMJOGGED_JOGANGLE_SYMBOL
1070
   384
1040
0.7853981633974483
1001
ACAD_DSTYLE_DIMARC_LENGTH_SYMBOL
1070
   379
1070
     1
  0
DIMSTYLE
105
84
330
A
100
AcDbSymbolTableRecord
100
AcDbDimStyleTableRecord
  2
AM_ISO$6
 70
     0
  4
"
 41
2.5
 42
1.0
 43
10.0
 44
1.0
 47
0.1
 48
0.1
 73
     0
 74
     0
 78
     8
 79
     2
140
3.5
141
0.0
143
0.0393701
146
0.71
147
1.5
172
     1
176
   256
177
   256
178
     2
271
     2
272
     3
274
     4
283
     0
284
     8
340
11
371
    -1
372
    -1
1001
ACAD_DSTYLE_DIMJOGGED_JOGANGLE_SYMBOL
1070
   384
1040
0.7853981633974483
1001
ACAD_DSTYLE_DIMARC_LENGTH_SYMBOL
1070
   379
1070
     1
  0
DIMSTYLE
105
85
330
A
100
AcDbSymbolTableRecord
100
AcDbDimStyleTableRecord
  2
AM_ISO$7
 70
     0
  4
"
 41
2.5
 42
1.0
 43
10.0
 44
1.0
 47
0.1
 48
0.1
 73
     0
 74
     0
 77
     1
 78
     8
 79
     2
140
5.0
141
0.0
143
0.0393701
146
0.71
147
1.5
172
     1
176
   256
177
   256
178
     2
271
     2
272
     3
274
     4
283
     0
284
     8
340
11
371
    -1
372
    -1
1001
ACAD_DSTYLE_DIMJOGGED_JOGANGLE_SYMBOL
1070
   384
1040
0.7853981633974483
1001
ACAD_DSTYLE_DIMARC_LENGTH_SYMBOL
1070
   379
1070
     1
  0
DIMSTYLE
105
86
330
A
100
AcDbSymbolTableRecord
100
AcDbDimStyleTableRecord
  2
AM_ISO$SF
 70
     0
  4
"
 41
2.5
 42
1.0
 43
10.0
 44
1.0
 47
0.1
 48
0.1
 73
     0
 74
     0
 75
     1
 76
     1
 77
     1
 78
     8
 79
     2
140
3.5
141
0.0
143
0.0393701
146
0.71
147
1.5
172
     1
176
   256
177
   256
178
     2
271
     2
272
     3
274
     4
283
     0
284
     8
340
11
371
    -1
372
    -1
1001
ACAD_DSTYLE_DIMJOGGED_JOGANGLE_SYMBOL
1070
   384
1040
0.7853981633974483
1001
ACAD_DSTYLE_DIMARC_LENGTH_SYMBOL
1070
   379
1070
     1
  0
DIMSTYLE
105
8B
330
A
100
AcDbSymbolTableRecord
100
AcDbDimStyleTableRecord
  2
AM_ISO$SH
 70
     0
  4
"
 41
2.5
 42
1.0
 43
10.0
 44
1.0
 47
0.1
 48
0.1
 73
     0
 74
     0
 75
     1
 76
     1
 77
     1
 78
     8
 79
     2
140
3.5
141
0.0
143
0.0393701
144
2.0
146
0.71
147
1.5
172
     1
173
     1
176
   256
177
   256
178
     2
271
     2
272
     3
274
     4
283
     0
284
     8
340
11
343
87
371
    -1
372
    -1
1001
ACAD_DSTYLE_DIMJOGGED_JOGANGLE_SYMBOL
1070
   384
1040
0.7853981633974483
1001
ACAD_DSTYLE_DIMARC_LENGTH_SYMBOL
1070
   379
1070
     1
  0
DIMSTYLE
105
2F0
102
{ACAD_REACTORS
330
DF8
102
}
330
A
100
AcDbSymbolTableRecord
100
AcDbDimStyleTableRecord
  2
AM_DIN
 70
     0
  4
"
 41
3.5
 42
1.0
 43
10.0
 44
1.0
 47
0.1
 48
0.1
 73
     0
 74
     0
 77
     1
 78
     8
 79
     2
140
3.5
141
0.0
143
0.0393701
146
0.71
147
1.5
172
     1
176
   256
177
   256
178
     2
271
     2
272
     3
274
     4
283
     0
284
     8
340
11
371
    -1
372
    -1
1001
ACAD_DSTYLE_DIMJOGGED_JOGANGLE_SYMBOL
1070
   384
1040
1.570796326794896
1001
ACAD_DSTYLE_DIM_LINETYPE
1070
   380
1005
14
1001
ACAD_DSTYLE_DIM_EXT1_LINETYPE
1070
   381
1005
14
1001
ACAD_DSTYLE_DIM_EXT2_LINETYPE
1070
   382
1005
14
  0
DIMSTYLE
105
301
330
A
100
AcDbSymbolTableRecord
100
AcDbDimStyleTableRecord
  2
AM_DIN$3
 70
     0
  4
"
 41
3.5
 42
1.0
 43
10.0
 44
1.0
 47
0.1
 48
0.1
 73
     0
 77
     1
 78
     8
 79
     2
140
3.5
141
0.0
143
0.0393701
146
0.71
147
1.5
176
   256
177
   256
178
     2
271
     2
272
     3
274
     4
283
     0
284
     8
288
     1
289
     0
340
11
371
    -1
372
    -1
1001
ACAD_DSTYLE_DIMJOGGED_JOGANGLE_SYMBOL
1070
   384
1040
1.570796326794896
1001
ACAD_DSTYLE_DIM_LINETYPE
1070
   380
1005
14
1001
ACAD_DSTYLE_DIM_EXT1_LINETYPE
1070
   381
1005
14
1001
ACAD_DSTYLE_DIM_EXT2_LINETYPE
1070
   382
1005
14
  0
DIMSTYLE
105
306
330
A
100
AcDbSymbolTableRecord
100
AcDbDimStyleTableRecord
  2
AM_DIN$4
 70
     0
  4
"
 41
3.5
 42
1.0
 43
10.0
 44
1.0
 47
0.1
 48
0.1
 73
     0
 74
     0
 77
     1
 78
     8
 79
     2
140
3.5
141
0.0
143
0.0393701
146
0.71
147
1.5
172
     1
176
   256
177
   256
178
     2
271
     2
272
     3
274
     4
283
     0
284
     8
340
11
371
    -1
372
    -1
1001
ACAD_DSTYLE_DIMJOGGED_JOGANGLE_SYMBOL
1070
   384
1040
1.570796326794896
1001
ACAD_DSTYLE_DIM_LINETYPE
1070
   380
1005
14
1001
ACAD_DSTYLE_DIM_EXT1_LINETYPE
1070
   381
1005
14
1001
ACAD_DSTYLE_DIM_EXT2_LINETYPE
1070
   382
1005
14
  0
DIMSTYLE
105
30B
330
A
100
AcDbSymbolTableRecord
100
AcDbDimStyleTableRecord
  2
AM_DIN$6
 70
     0
  4
"
 41
3.5
 42
1.0
 43
10.0
 44
1.0
 47
0.1
 48
0.1
 73
     0
 74
     0
 78
     8
 79
     2
140
3.5
141
0.0
143
0.0393701
146
0.71
147
1.5
172
     1
176
   256
177
   256
178
     2
271
     2
272
     3
274
     4
283
     0
284
     8
340
11
371
    -1
372
    -1
1001
ACAD_DSTYLE_DIMJOGGED_JOGANGLE_SYMBOL
1070
   384
1040
1.570796326794896
1001
ACAD_DSTYLE_DIM_LINETYPE
1070
   380
1005
14
1001
ACAD_DSTYLE_DIM_EXT1_LINETYPE
1070
   381
1005
14
1001
ACAD_DSTYLE_DIM_EXT2_LINETYPE
1070
   382
1005
14
  0
DIMSTYLE
105
310
330
A
100
AcDbSymbolTableRecord
100
AcDbDimStyleTableRecord
  2
AM_DIN$7
 70
     0
  4
"
 41
3.5
 42
1.0
 43
10.0
 44
1.0
 47
0.1
 48
0.1
 73
     0
 74
     0
 77
     1
 78
     8
 79
     2
140
3.5
141
0.0
143
0.0393701
146
0.71
147
1.5
172
     1
176
   256
177
   256
178
     2
271
     2
272
     3
274
     4
283
     0
284
     8
340
11
371
    -1
372
    -1
1001
ACAD_DSTYLE_DIMJOGGED_JOGANGLE_SYMBOL
1070
   384
1040
1.570796326794896
1001
ACAD_DSTYLE_DIM_LINETYPE
1070
   380
1005
14
1001
ACAD_DSTYLE_DIM_EXT1_LINETYPE
1070
   381
1005
14
1001
ACAD_DSTYLE_DIM_EXT2_LINETYPE
1070
   382
1005
14
  0
DIMSTYLE
105
315
330
A
100
AcDbSymbolTableRecord
100
AcDbDimStyleTableRecord
  2
AM_DIN$SF
 70
     0
  4
"
 41
3.5
 42
1.0
 43
10.0
 44
1.0
 47
0.1
 48
0.1
 73
     0
 74
     0
 75
     1
 76
     1
 77
     1
 78
     8
 79
     2
140
3.5
141
0.0
143
0.0393701
146
0.71
147
1.5
172
     1
176
   256
177
   256
178
     2
271
     2
272
     3
274
     4
283
     0
284
     8
340
11
371
    -1
372
    -1
1001
ACAD_DSTYLE_DIMJOGGED_JOGANGLE_SYMBOL
1070
   384
1040
1.570796326794896
1001
ACAD_DSTYLE_DIM_LINETYPE
1070
   380
1005
14
1001
ACAD_DSTYLE_DIM_EXT1_LINETYPE
1070
   381
1005
14
1001
ACAD_DSTYLE_DIM_EXT2_LINETYPE
1070
   382
1005
14
  0
DIMSTYLE
105
31A
330
A
100
AcDbSymbolTableRecord
100
AcDbDimStyleTableRecord
  2
AM_DIN$SH
 70
     0
  4
"
 41
3.5
 42
1.0
 43
10.0
 44
1.0
 47
0.1
 48
0.1
 73
     0
 74
     0
 75
     1
 76
     1
 77
     1
 78
     8
 79
     2
140
3.5
141
0.0
143
0.0393701
144
2.0
146
0.71
147
1.5
172
     1
173
     1
176
   256
177
   256
178
     2
271
     2
272
     3
274
     4
283
     0
284
     8
340
11
343
87
371
    -1
372
    -1
1001
ACAD_DSTYLE_DIMJOGGED_JOGANGLE_SYMBOL
1070
   384
1040
1.570796326794896
1001
ACAD_DSTYLE_DIM_LINETYPE
1070
   380
1005
14
1001
ACAD_DSTYLE_DIM_EXT1_LINETYPE
1070
   381
1005
14
1001
ACAD_DSTYLE_DIM_EXT2_LINETYPE
1070
   382
1005
14
  0
DIMSTYLE
105
683
102
{ACAD_REACTORS
330
AEA
330
AEB
330
AEF
330
AF0
330
AF1
330
AF2
330
AF5
330
AF9
330
C3E
102
}
330
A
100
AcDbSymbolTableRecord
100
AcDbDimStyleTableRecord
  2
AM_DIN$0
 70
     0
  4
"
 41
3.5
 42
1.0
 43
10.0
 44
1.0
 47
0.1
 48
0.1
 73
     0
 74
     0
 77
     1
 78
     8
 79
     2
140
3.5
141
0.0
143
0.0393701
146
0.71
147
1.5
172
     1
176
   256
177
   256
178
     2
271
     2
272
     3
274
     4
283
     0
284
     8
340
11
371
    -1
372
    -1
1001
ACAD_DSTYLE_DIMJOGGED_JOGANGLE_SYMBOL
1070
   384
1040
1.570796326794896
1001
ACAD_DSTYLE_DIM_LINETYPE
1070
   380
1005
14
1001
ACAD_DSTYLE_DIM_EXT1_LINETYPE
1070
   381
1005
14
1001
ACAD_DSTYLE_DIM_EXT2_LINETYPE
1070
   382
1005
14
  0
DIMSTYLE
105
B90
330
A
100
AcDbSymbolTableRecord
100
AcDbDimStyleTableRecord
  2
GEN-ISO
 70
     0
  3
<>
  4
"
 40
20.0
 41
2.5
 42
1.0
 43
7.0
 44
1.0
 47
0.1
 48
0.1
 73
     0
 74
     0
 77
     1
 78
     8
140
3.5
141
0.0
143
0.0393701
146
0.71
147
0.6
172
     1
176
   256
177
   256
178
     2
271
     2
272
     3
274
     4
283
     0
340
11
  0
ENDTAB
  0
TABLE
  2
BLOCK_RECORD
  5
1
330
0
100
AcDbSymbolTable
 70
    42
  0
BLOCK_RECORD
  5
1F
102
{ACAD_XDICTIONARY
360
8F
102
}
330
1
100
AcDbSymbolTableRecord
100
AcDbBlockTableRecord
  2
*Model_Space
340
22
  0
BLOCK_RECORD
  5
1B
330
1
100
AcDbSymbolTableRecord
100
AcDbBlockTableRecord
  2
*Paper_Space
340
1E
  0
BLOCK_RECORD
  5
23
330
1
100
AcDbSymbolTableRecord
100
AcDbBlockTableRecord
  2
*Paper_Space0
340
26
  0
BLOCK_RECORD
  5
87
330
1
100
AcDbSymbolTableRecord
100
AcDbBlockTableRecord
  2
GENAXEH
340
0
  0
BLOCK_RECORD
  5
5C1
330
1
100
AcDbSymbolTableRecord
100
AcDbBlockTableRecord
  2
stutzen
340
0
310
2800000020000000200000000100080000000000000400000000000000000000000000000000000000000000000080000080000000808000800000008000800080800000C0C0C000C0DCC000F0CAA6000020400000206000002080000020A0000020C0000020E00000400000004020000040400000406000004080000040A0
310
000040C0000040E00000600000006020000060400000606000006080000060A0000060C0000060E00000800000008020000080400000806000008080000080A0000080C0000080E00000A0000000A0200000A0400000A0600000A0800000A0A00000A0C00000A0E00000C0000000C0200000C0400000C0600000C0800000C0
310
A00000C0C00000C0E00000E0000000E0200000E0400000E0600000E0800000E0A00000E0C00000E0E00040000000400020004000400040006000400080004000A0004000C0004000E00040200000402020004020400040206000402080004020A0004020C0004020E000404000004040200040404000404060004040800040
310
40A0004040C0004040E00040600000406020004060400040606000406080004060A0004060C0004060E00040800000408020004080400040806000408080004080A0004080C0004080E00040A0000040A0200040A0400040A0600040A0800040A0A00040A0C00040A0E00040C0000040C0200040C0400040C0600040C08000
310
40C0A00040C0C00040C0E00040E0000040E0200040E0400040E0600040E0800040E0A00040E0C00040E0E00080000000800020008000400080006000800080008000A0008000C0008000E00080200000802020008020400080206000802080008020A0008020C0008020E00080400000804020008040400080406000804080
310
008040A0008040C0008040E00080600000806020008060400080606000806080008060A0008060C0008060E00080800000808020008080400080806000808080008080A0008080C0008080E00080A0000080A0200080A0400080A0600080A0800080A0A00080A0C00080A0E00080C0000080C0200080C0400080C0600080C0
310
800080C0A00080C0C00080C0E00080E0000080E0200080E0400080E0600080E0800080E0A00080E0C00080E0E000C0000000C0002000C0004000C0006000C0008000C000A000C000C000C000E000C0200000C0202000C0204000C0206000C0208000C020A000C020C000C020E000C0400000C0402000C0404000C0406000C0
310
408000C040A000C040C000C040E000C0600000C0602000C0604000C0606000C0608000C060A000C060C000C060E000C0800000C0802000C0804000C0806000C0808000C080A000C080C000C080E000C0A00000C0A02000C0A04000C0A06000C0A08000C0A0A000C0A0C000C0A0E000C0C00000C0C02000C0C04000C0C06000
310
C0C08000C0C0A000F0FBFF00A4A0A000808080000000FF0000FF000000FFFF00FF000000FF00FF00FFFF0000FFFFFF00000000000000000000000000000000000000000000000000000000000000000000000000000000000000000000000000FE0000000000000000000000000000000000000000000000FFFFFFFFFFFFFF
310
FFFFFFFFFFFFFFFFFF00000000000000000000000000000000FFFF000000000000FE0000000000FFFF0000000000000000000000000000F9FFFFFF070707070707070707070707FFFFFFF90000000000000000000000F9FFF9FFFFFFFFFFFFFFFFFFFFFFFFFFFFFFFFF9FFF900000000000000000000F9FF07070707070707
310
0707070707070707070707FFFF00000000000000000000F900000000000000000000FE000000000000000000F900000000000000000000F900000000000000000000FE000000000000000000F900000000000000000000FF00000000000000000000FE000000000000000000F900000000000000000000F900000000000000
310
000000FE000000000000000000F900000000000000000000F900000000000000000000FE000000000000000000FF00000000000000000000F900000000000000000000FE000000000000000000F900000000000000000000F900000000000000000000FE000000000000000000FF00000000000000000000FF000000000000
310
00000000FE000000000000000000F900000000000000000000F900000000000000000000FE000000000000000000F900000000000000000000FF00000000000000000000FE000000000000000000F900000000000000000000F900000000000000000000FE000000000000000000F900000000000000000000F90000000000
310
0000000000FE000000000000000000FF00000000000000000000F900000000000000000000FE000000000000000000F900000000000000000000F900000000000000000000FE000000000000000000F900000000000000000000FF00000000000000000000FE000000000000000000F900000000000000000000F900000000
310
000000000000FE000000000000000000F900000000000000000000FF00000000000000000000FE000000000000000000F900000000000000000000F900000000000000000000FE000000000000000000F900000000000000000000F900000000000000000000FE000000000000000000FF00000000000000000000F9000000
310
00000000000000FE000000000000000000F900000000000000000000F900000000000000000000FE000000000000000000F900000000000000000000FF00000000000000000000FE000000000000000000F900000000000000000000FBFFFFFFFFFFFFFFFFFFFFFFFFFFFFFFFFFFFFFFFFFF00000000000000000000000000
310
0000000000000000FE0000000000000000000000000000000000000000000000000000000000000000000000000000000000000000000000
102
{BLKREFS
331
ADA
102
}
  0
BLOCK_RECORD
  5
5FF
330
1
100
AcDbSymbolTableRecord
100
AcDbBlockTableRecord
  2
fklö
340
0
310
2800000020000000200000000100080000000000000400000000000000000000000000000000000000000000000080000080000000808000800000008000800080800000C0C0C000C0DCC000F0CAA6000020400000206000002080000020A0000020C0000020E00000400000004020000040400000406000004080000040A0
310
000040C0000040E00000600000006020000060400000606000006080000060A0000060C0000060E00000800000008020000080400000806000008080000080A0000080C0000080E00000A0000000A0200000A0400000A0600000A0800000A0A00000A0C00000A0E00000C0000000C0200000C0400000C0600000C0800000C0
310
A00000C0C00000C0E00000E0000000E0200000E0400000E0600000E0800000E0A00000E0C00000E0E00040000000400020004000400040006000400080004000A0004000C0004000E00040200000402020004020400040206000402080004020A0004020C0004020E000404000004040200040404000404060004040800040
310
40A0004040C0004040E00040600000406020004060400040606000406080004060A0004060C0004060E00040800000408020004080400040806000408080004080A0004080C0004080E00040A0000040A0200040A0400040A0600040A0800040A0A00040A0C00040A0E00040C0000040C0200040C0400040C0600040C08000
310
40C0A00040C0C00040C0E00040E0000040E0200040E0400040E0600040E0800040E0A00040E0C00040E0E00080000000800020008000400080006000800080008000A0008000C0008000E00080200000802020008020400080206000802080008020A0008020C0008020E00080400000804020008040400080406000804080
310
008040A0008040C0008040E00080600000806020008060400080606000806080008060A0008060C0008060E00080800000808020008080400080806000808080008080A0008080C0008080E00080A0000080A0200080A0400080A0600080A0800080A0A00080A0C00080A0E00080C0000080C0200080C0400080C0600080C0
310
800080C0A00080C0C00080C0E00080E0000080E0200080E0400080E0600080E0800080E0A00080E0C00080E0E000C0000000C0002000C0004000C0006000C0008000C000A000C000C000C000E000C0200000C0202000C0204000C0206000C0208000C020A000C020C000C020E000C0400000C0402000C0404000C0406000C0
310
408000C040A000C040C000C040E000C0600000C0602000C0604000C0606000C0608000C060A000C060C000C060E000C0800000C0802000C0804000C0806000C0808000C080A000C080C000C080E000C0A00000C0A02000C0A04000C0A06000C0A08000C0A0A000C0A0C000C0A0E000C0C00000C0C02000C0C04000C0C06000
310
C0C08000C0C0A000F0FBFF00A4A0A000808080000000FF0000FF000000FFFF00FF000000FF00FF00FFFF0000FFFFFF00000000000000000000000000000000000000000000000000000000000000000000000000000000000000000000000000FE000000000000000000000000000000000000000000000000000000000000
310
00FE000000000000000000000000000000000000FBFFFFFFFFFFFFFFFFFFFFFFFFFFFFFFFFFFFFFFFFFFFFFFFFFF000000000000FF000000000000000000000000FE0000000000000000000000FF000000000000FF000000000000000000000000FE0000000000000000000000FF000000000000FF00000000000000000000
310
0000FE0000000000000000000000FB000000000000FF000000000000000000000000FE0000000000000000000000FB000000000000FF000000000000000000000000FE0000000000000000000000FF000000000000FB000000000000000000000000FE0000000000000000000000FF000000000000FB000000000000000000
310
000000FE0000000000000000000000FF000000000000FF000000000000000000000000FE0000000000000000000000FF000000000000FF000000000000000000000000FE0000000000000000000000FB000000000000FF000000000000000000000000FE0000000000000000000000FB000000000000FF0000000000000000
310
00000000FE0000000000000000000000FF000000000000FF000000000000000000000000FE0000000000000000000000FF000000000000FB000000000000000000000000FE0000000000000000000000FF000000000000FB000000000000000000000000FE0000000000000000000000FF000000000000FF00000000000000
310
0000000000FE0000000000000000000000FF000000000000FF000000000000000000000000FE0000000000000000000000FB000000000000FF000000000000000000000000FE0000000000000000000000FB000000000000FF000000000000000000000000FE0000000000000000000000FF000000000000FB000000000000
310
000000000000FE0000000000000000000000FF000000000000FB000000000000000000000000FE0000000000000000000000FF000000000000FF000000000000000000000000FE0000000000000000000000FF000000000000FF000000000000000000000000FE0000000000000000000000FF000000000000FF0000000000
310
00000000000000FE0000000000000000000000FB000000000000FF000000000000000000000000FE0000000000000000000000FB000000000000FFFFFFFFFFFFFFFFFFFFFFFFFFFFFFFFFFFFFFFFFFFFFFFFFFFF00000000000000000000000000000000000000FE0000000000000000000000000000000000000000000000
310
0000000000000000FE0000000000000000000000000000000000000000000000000000000000000000000000000000000000000000000000
  0
BLOCK_RECORD
  5
611
330
1
100
AcDbSymbolTableRecord
100
AcDbBlockTableRecord
  2
*D4
340
0
  0
BLOCK_RECORD
  5
61D
330
1
100
AcDbSymbolTableRecord
100
AcDbBlockTableRecord
  2
*D5
340
0
  0
BLOCK_RECORD
  5
629
330
1
100
AcDbSymbolTableRecord
100
AcDbBlockTableRecord
  2
*D6
340
0
  0
BLOCK_RECORD
  5
635
330
1
100
AcDbSymbolTableRecord
100
AcDbBlockTableRecord
  2
*D7
340
0
  0
BLOCK_RECORD
  5
641
330
1
100
AcDbSymbolTableRecord
100
AcDbBlockTableRecord
  2
*D8
340
0
  0
BLOCK_RECORD
  5
64D
330
1
100
AcDbSymbolTableRecord
100
AcDbBlockTableRecord
  2
*D9
340
0
  0
BLOCK_RECORD
  5
659
330
1
100
AcDbSymbolTableRecord
100
AcDbBlockTableRecord
  2
*D10
340
0
  0
BLOCK_RECORD
  5
667
330
1
100
AcDbSymbolTableRecord
100
AcDbBlockTableRecord
  2
*D11
340
0
  0
BLOCK_RECORD
  5
78E
330
1
100
AcDbSymbolTableRecord
100
AcDbBlockTableRecord
  2
*D12
340
0
  0
BLOCK_RECORD
  5
79A
330
1
100
AcDbSymbolTableRecord
100
AcDbBlockTableRecord
  2
*D13
340
0
  0
BLOCK_RECORD
  5
7A6
330
1
100
AcDbSymbolTableRecord
100
AcDbBlockTableRecord
  2
*D14
340
0
  0
BLOCK_RECORD
  5
7B2
330
1
100
AcDbSymbolTableRecord
100
AcDbBlockTableRecord
  2
*D15
340
0
  0
BLOCK_RECORD
  5
7BE
330
1
100
AcDbSymbolTableRecord
100
AcDbBlockTableRecord
  2
*D16
340
0
  0
BLOCK_RECORD
  5
7CA
330
1
100
AcDbSymbolTableRecord
100
AcDbBlockTableRecord
  2
*D17
340
0
  0
BLOCK_RECORD
  5
7D6
330
1
100
AcDbSymbolTableRecord
100
AcDbBlockTableRecord
  2
*D18
340
0
  0
BLOCK_RECORD
  5
7E4
330
1
100
AcDbSymbolTableRecord
100
AcDbBlockTableRecord
  2
*D19
340
0
  0
BLOCK_RECORD
  5
989
330
1
100
AcDbSymbolTableRecord
100
AcDbBlockTableRecord
  2
*D20
340
0
  0
BLOCK_RECORD
  5
995
330
1
100
AcDbSymbolTableRecord
100
AcDbBlockTableRecord
  2
*D21
340
0
  0
BLOCK_RECORD
  5
9A1
330
1
100
AcDbSymbolTableRecord
100
AcDbBlockTableRecord
  2
*D22
340
0
  0
BLOCK_RECORD
  5
9AD
330
1
100
AcDbSymbolTableRecord
100
AcDbBlockTableRecord
  2
*D23
340
0
  0
BLOCK_RECORD
  5
9B9
330
1
100
AcDbSymbolTableRecord
100
AcDbBlockTableRecord
  2
*D24
340
0
  0
BLOCK_RECORD
  5
9C5
330
1
100
AcDbSymbolTableRecord
100
AcDbBlockTableRecord
  2
*D25
340
0
  0
BLOCK_RECORD
  5
9D1
330
1
100
AcDbSymbolTableRecord
100
AcDbBlockTableRecord
  2
*D26
340
0
  0
BLOCK_RECORD
  5
9DF
330
1
100
AcDbSymbolTableRecord
100
AcDbBlockTableRecord
  2
*D27
340
0
  0
BLOCK_RECORD
  5
9ED
330
1
100
AcDbSymbolTableRecord
100
AcDbBlockTableRecord
  2
*D28
340
0
  0
BLOCK_RECORD
  5
B00
330
1
100
AcDbSymbolTableRecord
100
AcDbBlockTableRecord
  2
*D29
340
0
  0
BLOCK_RECORD
  5
B0C
330
1
100
AcDbSymbolTableRecord
100
AcDbBlockTableRecord
  2
*D30
340
0
  0
BLOCK_RECORD
  5
B18
330
1
100
AcDbSymbolTableRecord
100
AcDbBlockTableRecord
  2
*D31
340
0
  0
BLOCK_RECORD
  5
B24
330
1
100
AcDbSymbolTableRecord
100
AcDbBlockTableRecord
  2
*D32
340
0
  0
BLOCK_RECORD
  5
B30
330
1
100
AcDbSymbolTableRecord
100
AcDbBlockTableRecord
  2
*D33
340
0
  0
BLOCK_RECORD
  5
B3C
330
1
100
AcDbSymbolTableRecord
100
AcDbBlockTableRecord
  2
*D34
340
0
  0
BLOCK_RECORD
  5
B48
330
1
100
AcDbSymbolTableRecord
100
AcDbBlockTableRecord
  2
*D35
340
0
  0
BLOCK_RECORD
  5
B56
330
1
100
AcDbSymbolTableRecord
100
AcDbBlockTableRecord
  2
*D36
340
0
  0
BLOCK_RECORD
  5
B64
330
1
100
AcDbSymbolTableRecord
100
AcDbBlockTableRecord
  2
*D37
340
0
  0
BLOCK_RECORD
  5
C3F
330
1
100
AcDbSymbolTableRecord
100
AcDbBlockTableRecord
  2
*D38
340
0
  0
ENDTAB
  0
ENDSEC
  0
SECTION
  2
BLOCKS
  0
BLOCK
  5
20
330
1F
100
AcDbEntity
  8
0
100
AcDbBlockBegin
  2
*Model_Space
 70
     0
 10
0.0
 20
0.0
 30
0.0
  3
*Model_Space
  1

  0
ENDBLK
  5
21
330
1F
100
AcDbEntity
  8
0
100
AcDbBlockEnd
  0
BLOCK
  5
1C
330
1B
100
AcDbEntity
 67
     1
  8
0
100
AcDbBlockBegin
  2
*Paper_Space
 70
     0
 10
0.0
 20
0.0
 30
0.0
  3
*Paper_Space
  1

  0
ENDBLK
  5
1D
330
1B
100
AcDbEntity
 67
     1
  8
0
100
AcDbBlockEnd
  0
BLOCK
  5
24
330
23
100
AcDbEntity
 67
     1
  8
0
100
AcDbBlockBegin
  2
*Paper_Space0
 70
     0
 10
0.0
 20
0.0
 30
0.0
  3
*Paper_Space0
  1

  0
ENDBLK
  5
25
330
23
100
AcDbEntity
 67
     1
  8
0
100
AcDbBlockEnd
  0
BLOCK
  5
89
330
87
100
AcDbEntity
  8
0
100
AcDbBlockBegin
  2
GENAXEH
 70
     0
 10
0.0
 20
0.0
 30
0.0
  3
GENAXEH
  1

  0
LINE
  5
88
330
87
100
AcDbEntity
  8
0
100
AcDbLine
 10
-1.0
 20
0.0
 30
0.0
 11
1.0
 21
0.0
 31
0.0
  0
ENDBLK
  5
8A
330
87
100
AcDbEntity
  8
0
100
AcDbBlockEnd
  0
BLOCK
  5
5C2
330
5C1
100
AcDbEntity
  8
0
100
AcDbBlockBegin
  2
stutzen
 70
     0
 10
0.0
 20
0.0
 30
0.0
  3
stutzen
  1

  0
LINE
  5
5C3
330
5C1
100
AcDbEntity
  8
0
  6
Continuous
 62
     2
100
AcDbLine
 10
5583.692362419846
 20
3572.388833737998
 30
0.0
 11
5585.24221523384
 21
3573.938686551999
 31
0.0
  0
LINE
  5
5C4
330
5C1
100
AcDbEntity
  8
KLIN
  6
ByBlock
100
AcDbLine
 10
5583.692362419846
 20
3512.779110133001
 30
0.0
 11
5593.692362419846
 21
3522.779110133001
 31
0.0
  0
LINE
  5
5C5
330
5C1
100
AcDbEntity
  8
KLIN
  6
ByBlock
100
AcDbLine
 10
5583.692362419846
 20
3453.169386528003
 30
0.0
 11
5593.692362419846
 21
3463.169386528003
 31
0.0
  0
LINE
  5
5C6
330
5C1
100
AcDbEntity
  8
KLIN
  6
ByBlock
100
AcDbLine
 10
5583.692362419846
 20
3393.559662922001
 30
0.0
 11
5593.692362419846
 21
3403.559662922002
 31
0.0
  0
LINE
  5
5C7
330
5C1
100
AcDbEntity
  8
0
  6
Continuous
 62
     7
100
AcDbLine
 10
6203.692362419847
 20
2658.938686551999
 30
0.0
 11
5703.692362419847
 21
2658.938686551999
 31
0.0
  0
LINE
  5
5C8
330
5C1
100
AcDbEntity
  8
KLIN
  6
ByBlock
100
AcDbLine
 10
5583.692362419846
 20
3333.949939317005
 30
0.0
 11
5593.692362419846
 21
3343.949939317005
 31
0.0
  0
LINE
  5
5C9
330
5C1
100
AcDbEntity
  8
0
  6
Continuous
 62
     9
100
AcDbLine
 10
6193.692362419846
 20
2708.938686551999
 30
0.0
 11
5713.692362419846
 21
2708.938686551999
 31
0.0
  0
LINE
  5
5CA
330
5C1
100
AcDbEntity
  8
0
  6
Continuous
 62
     7
100
AcDbLine
 10
6263.692362419846
 20
2728.938686551999
 30
0.0
 11
6223.692362419846
 21
2728.938686551999
 31
0.0
  0
LINE
  5
5CB
330
5C1
100
AcDbEntity
  8
0
  6
Continuous
 62
     7
100
AcDbLine
 10
5683.692362419846
 20
2728.938686551999
 30
0.0
 11
5643.692362419846
 21
2728.938686551999
 31
0.0
  0
LINE
  5
5CC
330
5C1
100
AcDbEntity
  8
0
  6
Continuous
 62
     7
100
AcDbLine
 10
5583.692362419846
 20
3573.938686551999
 30
0.0
 11
5583.692362419846
 21
2788.938686551999
 31
0.0
  0
LINE
  5
5CD
330
5C1
100
AcDbEntity
  8
0
  6
Continuous
 62
     7
100
AcDbLine
 10
5593.692362419846
 20
3573.938686551999
 30
0.0
 11
5593.692362419846
 21
2788.938686551999
 31
0.0
  0
LINE
  5
5CE
330
5C1
100
AcDbEntity
  8
KLIN
  6
ByBlock
100
AcDbLine
 10
5583.692362419846
 20
3274.340215711
 30
0.0
 11
5593.692362419846
 21
3284.340215710999
 31
0.0
  0
LINE
  5
5CF
330
5C1
100
AcDbEntity
  8
0
  6
Continuous
 62
     7
100
AcDbLine
 10
6263.692362419846
 20
2738.938686551999
 30
0.0
 11
5643.692362419846
 21
2738.938686551999
 31
0.0
  0
LINE
  5
5D0
330
5C1
100
AcDbEntity
  8
KLIN
  6
ByBlock
100
AcDbLine
 10
5583.692362419846
 20
3214.730492105998
 30
0.0
 11
5593.692362419846
 21
3224.730492106
 31
0.0
  0
LINE
  5
5D1
330
5C1
100
AcDbEntity
  8
0
  6
Continuous
 62
     9
100
AcDbLine
 10
5593.692362419846
 20
2788.938686551999
 30
0.0
 11
6313.692362419846
 21
2788.938686551999
 31
0.0
  0
LINE
  5
5D2
330
5C1
100
AcDbEntity
  8
KLIN
  6
ByBlock
100
AcDbLine
 10
5583.692362419846
 20
3155.120768500002
 30
0.0
 11
5593.692362419846
 21
3165.120768500001
 31
0.0
  0
LINE
  5
5D3
330
5C1
100
AcDbEntity
  8
0
  6
Continuous
 62
     7
100
AcDbLine
 10
5703.692362419847
 20
2708.938686551999
 30
0.0
 11
5703.692362419847
 21
2658.938686551999
 31
0.0
  0
LINE
  5
5D4
330
5C1
100
AcDbEntity
  8
0
  6
Continuous
 62
     7
100
AcDbLine
 10
5713.692362419846
 20
2708.938686551999
 30
0.0
 11
5713.692362419846
 21
2658.938686551999
 31
0.0
  0
LINE
  5
5D5
330
5C1
100
AcDbEntity
  8
KLIN
  6
ByBlock
100
AcDbLine
 10
5583.692362419846
 20
3095.511044895
 30
0.0
 11
5593.692362419846
 21
3105.511044895
 31
0.0
  0
LINE
  5
5D6
330
5C1
100
AcDbEntity
  8
KLIN
  6
ByBlock
100
AcDbLine
 10
5583.692362419846
 20
3035.901321289002
 30
0.0
 11
5593.692362419846
 21
3045.901321289003
 31
0.0
  0
LINE
  5
5D7
330
5C1
100
AcDbEntity
  8
KLIN
  6
ByBlock
100
AcDbLine
 10
5583.692362419846
 20
2976.291597684001
 30
0.0
 11
5593.692362419846
 21
2986.291597684001
 31
0.0
  0
LINE
  5
5D8
330
5C1
100
AcDbEntity
  8
KLIN
  6
ByBlock
100
AcDbLine
 10
5583.692362419846
 20
2916.681874078004
 30
0.0
 11
5593.692362419846
 21
2926.681874078004
 31
0.0
  0
LINE
  5
5D9
330
5C1
100
AcDbEntity
  8
KLIN
  6
ByBlock
100
AcDbLine
 10
5583.692362419846
 20
2857.072150472999
 30
0.0
 11
5593.692362419846
 21
2867.072150472999
 31
0.0
  0
LINE
  5
5DA
330
5C1
100
AcDbEntity
  8
KLIN
  6
ByBlock
100
AcDbLine
 10
5583.692362419846
 20
2797.462426867002
 30
0.0
 11
5593.692362419846
 21
2807.462426867001
 31
0.0
  0
LINE
  5
5DB
330
5C1
100
AcDbEntity
  8
KLIN
  6
ByBlock
100
AcDbLine
 10
6313.692362419846
 20
3527.462426867002
 30
0.0
 11
6323.692362419846
 21
3537.462426867001
 31
0.0
  0
LINE
  5
5DC
330
5C1
100
AcDbEntity
  8
7A
100
AcDbLine
 10
5953.692362419847
 20
2628.938686551999
 30
0.0
 11
5953.692362419847
 21
3603.938686552
 31
0.0
  0
LINE
  5
5DD
330
5C1
100
AcDbEntity
  8
KLIN
  6
ByBlock
100
AcDbLine
 10
5597.058898933843
 20
2751.219239776001
 30
0.0
 11
5604.198228947839
 21
2758.358569790002
 31
0.0
  0
LINE
  5
5DE
330
5C1
100
AcDbEntity
  8
KLIN
  6
ByBlock
100
AcDbLine
 10
6313.692362419846
 20
3467.852703262
 30
0.0
 11
6323.692362419846
 21
3477.852703262001
 31
0.0
  0
LINE
  5
5DF
330
5C1
100
AcDbEntity
  8
KLIN
  6
ByBlock
100
AcDbLine
 10
5635.082190905843
 20
2729.632808142
 30
0.0
 11
5644.388069315843
 21
2738.938686551999
 31
0.0
  0
LINE
  5
5E0
330
5C1
100
AcDbEntity
  8
KLIN
  6
ByBlock
100
AcDbLine
 10
6313.692362419846
 20
3408.242979656003
 30
0.0
 11
6323.692362419846
 21
3418.242979656003
 31
0.0
  0
LINE
  5
5E1
330
5C1
100
AcDbEntity
  8
KLIN
  6
ByBlock
100
AcDbLine
 10
5692.120413673838
 20
2727.061307305001
 30
0.0
 11
5699.488629873842
 21
2734.429523505002
 31
0.0
  0
LINE
  5
5E2
330
5C1
100
AcDbEntity
  8
KLIN
  6
ByBlock
100
AcDbLine
 10
6313.692362419846
 20
3348.633256051002
 30
0.0
 11
6323.692362419846
 21
3358.633256051002
 31
0.0
  0
LINE
  5
5E3
330
5C1
100
AcDbEntity
  8
KLIN
  6
ByBlock
100
AcDbLine
 10
5703.692362419847
 20
2679.023532445004
 30
0.0
 11
5713.692362419846
 21
2689.023532445004
 31
0.0
  0
LINE
  5
5E4
330
5C1
100
AcDbEntity
  8
KLIN
  6
ByBlock
100
AcDbLine
 10
6313.692362419846
 20
3289.023532445004
 30
0.0
 11
6323.692362419846
 21
3299.023532445004
 31
0.0
  0
LINE
  5
5E5
330
5C1
100
AcDbEntity
  8
KLIN
  6
ByBlock
100
AcDbLine
 10
6313.692362419846
 20
3229.41380884
 30
0.0
 11
6323.692362419846
 21
3239.41380884
 31
0.0
  0
LINE
  5
5E6
330
5C1
100
AcDbEntity
  8
0
  6
Continuous
 62
     7
100
AcDbLine
 10
6193.692362419846
 20
2708.938686551999
 30
0.0
 11
6193.692362419846
 21
2658.938686551999
 31
0.0
  0
LINE
  5
5E7
330
5C1
100
AcDbEntity
  8
KLIN
  6
ByBlock
100
AcDbLine
 10
6313.692362419846
 20
3169.804085233999
 30
0.0
 11
6323.692362419846
 21
3179.804085233998
 31
0.0
  0
LINE
  5
5E8
330
5C1
100
AcDbEntity
  8
0
  6
Continuous
 62
     7
100
AcDbLine
 10
6203.692362419847
 20
2708.938686551999
 30
0.0
 11
6203.692362419847
 21
2658.938686551999
 31
0.0
  0
LINE
  5
5E9
330
5C1
100
AcDbEntity
  8
KLIN
  6
ByBlock
100
AcDbLine
 10
6313.692362419846
 20
3110.194361629001
 30
0.0
 11
6323.692362419846
 21
3120.194361629001
 31
0.0
  0
LINE
  5
5EA
330
5C1
100
AcDbEntity
  8
KLIN
  6
ByBlock
100
AcDbLine
 10
6313.692362419846
 20
3050.584638023
 30
0.0
 11
6323.692362419846
 21
3060.584638023
 31
0.0
  0
LINE
  5
5EB
330
5C1
100
AcDbEntity
  8
KLIN
  6
ByBlock
100
AcDbLine
 10
6313.692362419846
 20
2990.974914418002
 30
0.0
 11
6323.692362419846
 21
3000.974914418002
 31
0.0
  0
LINE
  5
5EC
330
5C1
100
AcDbEntity
  8
0
  6
Continuous
 62
     7
100
AcDbLine
 10
6313.692362419846
 20
3573.938686551999
 30
0.0
 11
6313.692362419846
 21
2788.938686551999
 31
0.0
  0
LINE
  5
5ED
330
5C1
100
AcDbEntity
  8
0
  6
Continuous
 62
     7
100
AcDbLine
 10
6323.692362419846
 20
3573.938686551999
 30
0.0
 11
6323.692362419846
 21
2788.938686551999
 31
0.0
  0
LINE
  5
5EE
330
5C1
100
AcDbEntity
  8
KLIN
  6
ByBlock
100
AcDbLine
 10
6313.692362419846
 20
2931.365190813002
 30
0.0
 11
6323.692362419846
 21
2941.365190813002
 31
0.0
  0
LINE
  5
5EF
330
5C1
100
AcDbEntity
  8
KLIN
  6
ByBlock
100
AcDbLine
 10
6313.692362419846
 20
2871.755467207004
 30
0.0
 11
6323.692362419846
 21
2881.755467207004
 31
0.0
  0
LINE
  5
5F0
330
5C1
100
AcDbEntity
  8
KLIN
  6
ByBlock
100
AcDbLine
 10
6313.692362419846
 20
2812.145743601999
 30
0.0
 11
6323.692362419846
 21
2822.145743601999
 31
0.0
  0
LINE
  5
5F1
330
5C1
100
AcDbEntity
  8
0
  6
Continuous
 62
     7
100
AcDbLine
 10
6323.692362419846
 20
3573.938686551999
 30
0.0
 11
5583.692362419846
 21
3573.938686551999
 31
0.0
  0
ARC
  5
5F2
330
5C1
100
AcDbEntity
  8
0
  6
Continuous
 62
     7
100
AcDbCircle
 10
6263.692362419846
 20
2788.938686551999
 30
0.0
 40
60.0
100
AcDbArc
 50
270.0
 51
0.0
  0
ARC
  5
5F3
330
5C1
100
AcDbEntity
  8
0
  6
Continuous
 62
     7
100
AcDbCircle
 10
5643.692362419846
 20
2788.938686551999
 30
0.0
 40
60.0
100
AcDbArc
 50
180.0
 51
270.0
  0
ARC
  5
5F4
330
5C1
100
AcDbEntity
  8
0
  6
Continuous
 62
     7
100
AcDbCircle
 10
5643.692362419846
 20
2788.938686551999
 30
0.0
 40
50.0
100
AcDbArc
 50
180.0
 51
270.0
  0
ARC
  5
5F5
330
5C1
100
AcDbEntity
  8
0
  6
Continuous
 62
     7
100
AcDbCircle
 10
6263.692362419846
 20
2788.938686551999
 30
0.0
 40
50.0
100
AcDbArc
 50
270.0
 51
0.0
  0
ARC
  5
5F6
330
5C1
100
AcDbEntity
  8
0
  6
Continuous
 62
     7
100
AcDbCircle
 10
6223.692362419846
 20
2708.938686551999
 30
0.0
 40
30.0
100
AcDbArc
 50
90.0
 51
180.0
  0
ARC
  5
5F7
330
5C1
100
AcDbEntity
  8
0
  6
Continuous
 62
     7
100
AcDbCircle
 10
5683.692362419846
 20
2708.938686551999
 30
0.0
 40
30.0
100
AcDbArc
 50
0.0
 51
90.0
  0
ARC
  5
5F8
330
5C1
100
AcDbEntity
  8
0
  6
Continuous
 62
     7
100
AcDbCircle
 10
6223.692362419846
 20
2708.938686551999
 30
0.0
 40
20.0
100
AcDbArc
 50
90.0
 51
180.0
  0
ARC
  5
5F9
330
5C1
100
AcDbEntity
  8
0
  6
Continuous
 62
     7
100
AcDbCircle
 10
5683.692362419846
 20
2708.938686551999
 30
0.0
 40
20.0
100
AcDbArc
 50
0.0
 51
90.0
  0
LINE
  5
5FA
330
5C1
100
AcDbEntity
  8
KLIN
  6
ByBlock
100
AcDbLine
 10
6310.325825905849
 20
2751.219239776001
 30
0.0
 11
6303.186495891853
 21
2758.358569790002
 31
0.0
  0
LINE
  5
5FB
330
5C1
100
AcDbEntity
  8
KLIN
  6
ByBlock
100
AcDbLine
 10
6272.302533933849
 20
2729.632808142
 30
0.0
 11
6262.996655523849
 21
2738.938686551999
 31
0.0
  0
LINE
  5
5FC
330
5C1
100
AcDbEntity
  8
KLIN
  6
ByBlock
100
AcDbLine
 10
6215.264311165855
 20
2727.061307305001
 30
0.0
 11
6207.89609496585
 21
2734.429523505002
 31
0.0
  0
LINE
  5
5FD
330
5C1
100
AcDbEntity
  8
KLIN
  6
ByBlock
100
AcDbLine
 10
6203.692362419847
 20
2679.023532445004
 30
0.0
 11
6193.692362419846
 21
2689.023532445004
 31
0.0
  0
ENDBLK
  5
5FE
330
5C1
100
AcDbEntity
  8
0
100
AcDbBlockEnd
  0
BLOCK
  5
600
330
5FF
100
AcDbEntity
  8
0
100
AcDbBlockBegin
  2
fklö
 70
     0
 10
0.0
 20
0.0
 30
0.0
  3
fklö
  1

  0
LINE
  5
601
330
5FF
100
AcDbEntity
  8
0
  6
Continuous
 62
     2
100
AcDbLine
 10
9574.808407686447
 20
1094.245064227623
 30
0.0
 11
9584.808407686447
 21
1115.690133432625
 31
0.0
  0
LINE
  5
602
330
5FF
100
AcDbEntity
  8
0
  6
Continuous
 62
     2
100
AcDbLine
 10
9574.808407686447
 20
1223.478428617625
 30
0.0
 11
9584.808407686447
 21
1244.923497822627
 31
0.0
  0
LINE
  5
603
330
5FF
100
AcDbEntity
  8
0
  6
Continuous
 62
     2
100
AcDbLine
 10
9574.808407686447
 20
1352.711793007627
 30
0.0
 11
9584.808407686447
 21
1374.156862212629
 31
0.0
  0
LINE
  5
604
330
5FF
100
AcDbEntity
  8
0
  6
Continuous
 62
     2
100
AcDbLine
 10
9574.808407686447
 20
1481.94515739863
 30
0.0
 11
9584.808407686447
 21
1503.390226603631
 31
0.0
  0
LINE
  5
605
330
5FF
100
AcDbEntity
  8
0
  6
Continuous
 62
     7
100
AcDbLine
 10
9584.808407686447
 20
1528.116201654636
 30
0.0
 11
9584.808407686447
 21
1043.116201654637
 31
0.0
  0
LINE
  5
606
330
5FF
100
AcDbEntity
  8
0
  6
Continuous
 62
     7
100
AcDbLine
 10
9574.808407686447
 20
1528.116201654636
 30
0.0
 11
9574.808407686447
 21
1043.116201654637
 31
0.0
  0
LINE
  5
607
330
5FF
100
AcDbEntity
  8
0
  6
Continuous
 62
     2
100
AcDbLine
 10
9090.866567481048
 20
1043.116201654637
 30
0.0
 11
9094.808407686448
 21
1051.569505254636
 31
0.0
  0
LINE
  5
608
330
5FF
100
AcDbEntity
  8
0
  6
Continuous
 62
     2
100
AcDbLine
 10
9084.808407686447
 20
1159.357800439637
 30
0.0
 11
9094.808407686448
 21
1180.80286964462
 31
0.0
  0
LINE
  5
609
330
5FF
100
AcDbEntity
  8
0
  6
Continuous
 62
     2
100
AcDbLine
 10
9084.808407686447
 20
1288.591164830621
 30
0.0
 11
9094.808407686448
 21
1310.036234035622
 31
0.0
  0
LINE
  5
60A
330
5FF
100
AcDbEntity
  8
0
  6
Continuous
 62
     2
100
AcDbLine
 10
9084.808407686447
 20
1417.824529220641
 30
0.0
 11
9094.808407686448
 21
1439.269598425642
 31
0.0
  0
LINE
  5
60B
330
5FF
100
AcDbEntity
  8
0
  6
Continuous
 62
     7
100
AcDbLine
 10
9094.808407686448
 20
1528.116201654636
 30
0.0
 11
9094.808407686448
 21
1043.116201654637
 31
0.0
  0
LINE
  5
60C
330
5FF
100
AcDbEntity
  8
0
  6
Continuous
 62
     7
100
AcDbLine
 10
9084.808407686447
 20
1528.116201654636
 30
0.0
 11
9084.808407686447
 21
1043.116201654637
 31
0.0
  0
LINE
  5
60D
330
5FF
100
AcDbEntity
  8
0
  6
Continuous
 62
     7
100
AcDbLine
 10
9584.808407686447
 20
1528.116201654636
 30
0.0
 11
9084.808407686447
 21
1528.116201654636
 31
0.0
  0
LINE
  5
60E
330
5FF
100
AcDbEntity
  8
0
100
AcDbLine
 10
9084.808407686447
 20
1043.116201654637
 30
0.0
 11
9584.808407686447
 21
1043.116201654637
 31
0.0
  0
LINE
  5
60F
330
5FF
100
AcDbEntity
  8
AM_7
100
AcDbLine
 10
9334.808407686447
 20
1558.116201654637
 30
0.0
 11
9334.808407686447
 21
1013.116201654637
 31
0.0
1001
GENIUS_GENODEF_13
1002
{
1000
HIER
1070
     0
1002
}
1002
{
1000
MANEDIT
1070
     0
1002
}
1002
{
1000
NOSEL
1070
     0
1002
}
1002
{
1000
BEHIND
1070
     0
1002
}
1002
{
1000
OTHER
1070
     0
1002
}
1002
{
1000
REACTOR
1002
}
1001
GENIUS_GENOBJ-N-CEN_13
1002
{
1000
OWNER
1000
GEN
1002
}
1001
GENIUS_GENCEN_19
1002
{
1040
3.0
1002
}
  0
ENDBLK
  5
610
330
5FF
100
AcDbEntity
  8
0
100
AcDbBlockEnd
  0
BLOCK
  5
612
330
611
100
AcDbEntity
  8
0
100
AcDbBlockBegin
  2
*D4
 70
     1
 10
0.0
 20
0.0
 30
0.0
  3
*D4
  1

  0
LINE
  5
613
330
611
100
AcDbEntity
  8
AM_5
  6
ByBlock
100
AcDbLine
 10
154.0362041760418
 20
163.0977628730251
 30
0.0
 11
154.0362041760418
 21
58.96688621784779
 31
0.0
  0
LINE
  5
614
330
611
100
AcDbEntity
  8
AM_5
  6
ByBlock
100
AcDbLine
 10
854.0362041760417
 20
163.0977628730251
 30
0.0
 11
854.0362041760417
 21
58.96688621784779
 31
0.0
  0
LINE
  5
615
330
611
100
AcDbEntity
  8
AM_5
  6
ByBlock
100
AcDbLine
 10
171.5362041760418
 20
63.96688621784779
 30
0.0
 11
836.5362041760416
 21
63.96688621784779
 31
0.0
  0
SOLID
  5
616
330
611
100
AcDbEntity
  8
AM_5
100
AcDbTrace
 10
171.5362041760418
 20
66.88355288451447
 30
0.0
 11
171.5362041760418
 21
61.05021955118111
 31
0.0
 12
154.0362041760418
 22
63.96688621784779
 32
0.0
 13
154.0362041760418
 23
63.96688621784779
 33
0.0
  0
SOLID
  5
617
330
611
100
AcDbEntity
  8
AM_5
100
AcDbTrace
 10
836.5362041760416
 20
66.88355288451447
 30
0.0
 11
836.5362041760416
 21
61.05021955118111
 31
0.0
 12
854.0362041760417
 22
63.96688621784779
 32
0.0
 13
854.0362041760417
 23
63.96688621784779
 33
0.0
  0
MTEXT
  5
618
330
611
100
AcDbEntity
  8
AM_5
 62
     2
100
AcDbMText
 10
504.0362041760418
 20
80.21688621784781
 30
0.0
 40
17.5
 41
0.0
 71
     5
 72
     1
  1
700
 73
     1
 44
1.0
1001
ACAD
1000
MTEXTBEGIN
1070
    73
1070
     1
1070
    44
1040
1.0
1070
    74
1070
     0
1000
MTEXTEND
  0
POINT
  5
619
330
611
100
AcDbEntity
  8
DEFPOINTS
 62
     0
100
AcDbPoint
 10
154.0362041760418
 20
168.0977628730252
 30
0.0
  0
POINT
  5
61A
330
611
100
AcDbEntity
  8
DEFPOINTS
 62
     0
100
AcDbPoint
 10
854.0362041760417
 20
168.0977628730252
 30
0.0
  0
POINT
  5
61B
330
611
100
AcDbEntity
  8
DEFPOINTS
 62
     0
100
AcDbPoint
 10
854.0362041760417
 20
63.96688621784779
 30
0.0
  0
ENDBLK
  5
61C
330
611
100
AcDbEntity
  8
0
100
AcDbBlockEnd
  0
BLOCK
  5
61E
330
61D
100
AcDbEntity
  8
0
100
AcDbBlockBegin
  2
*D5
 70
     1
 10
0.0
 20
0.0
 30
0.0
  3
*D5
  1

  0
LINE
  5
61F
330
61D
100
AcDbEntity
  8
AM_5
  6
ByBlock
100
AcDbLine
 10
135.0362041760418
 20
131.4877628730528
 30
0.0
 11
135.0362041760418
 21
0.0000000678464858
 31
0.0
  0
LINE
  5
620
330
61D
100
AcDbEntity
  8
AM_5
  6
ByBlock
100
AcDbLine
 10
884.0362041760416
 20
131.4877628730528
 30
0.0
 11
884.0362041760416
 21
0.0000000678464858
 31
0.0
  0
LINE
  5
621
330
61D
100
AcDbEntity
  8
AM_5
  6
ByBlock
100
AcDbLine
 10
152.5362041760418
 20
5.000000067846485
 30
0.0
 11
866.5362041760417
 21
5.000000067846485
 31
0.0
  0
SOLID
  5
622
330
61D
100
AcDbEntity
  8
AM_5
100
AcDbTrace
 10
152.5362041760418
 20
7.916666734513151
 30
0.0
 11
152.5362041760418
 21
2.083333401179819
 31
0.0
 12
135.0362041760418
 22
5.000000067846485
 32
0.0
 13
135.0362041760418
 23
5.000000067846485
 33
0.0
  0
SOLID
  5
623
330
61D
100
AcDbEntity
  8
AM_5
100
AcDbTrace
 10
866.5362041760417
 20
7.916666734513151
 30
0.0
 11
866.5362041760417
 21
2.083333401179819
 31
0.0
 12
884.0362041760416
 22
5.000000067846485
 32
0.0
 13
884.0362041760416
 23
5.000000067846485
 33
0.0
  0
MTEXT
  5
624
330
61D
100
AcDbEntity
  8
AM_5
 62
     2
100
AcDbMText
 10
504.0362041760418
 20
21.25000006784649
 30
0.0
 40
17.5
 41
0.0
 71
     5
 72
     1
  1
749
 73
     1
 44
1.0
1001
ACAD
1000
MTEXTBEGIN
1070
    73
1070
     1
1070
    44
1040
1.0
1070
    74
1070
     0
1000
MTEXTEND
  0
POINT
  5
625
330
61D
100
AcDbEntity
  8
DEFPOINTS
 62
     0
100
AcDbPoint
 10
135.0362041760418
 20
136.4877628730528
 30
0.0
  0
POINT
  5
626
330
61D
100
AcDbEntity
  8
DEFPOINTS
 62
     0
100
AcDbPoint
 10
884.0362041760416
 20
136.4877628730528
 30
0.0
  0
POINT
  5
627
330
61D
100
AcDbEntity
  8
DEFPOINTS
 62
     0
100
AcDbPoint
 10
884.0362041760416
 20
5.000000067846485
 30
0.0
  0
ENDBLK
  5
628
330
61D
100
AcDbEntity
  8
0
100
AcDbBlockEnd
  0
BLOCK
  5
62A
330
629
100
AcDbEntity
  8
0
100
AcDbBlockBegin
  2
*D6
 70
     1
 10
0.0
 20
0.0
 30
0.0
  3
*D6
  1

  0
LINE
  5
62B
330
629
100
AcDbEntity
  8
AM_5
  6
ByBlock
100
AcDbLine
 10
889.0362041760417
 20
280.4877628730557
 30
0.0
 11
988.9474098721986
 21
280.4877628730557
 31
0.0
  0
LINE
  5
62C
330
629
100
AcDbEntity
  8
AM_5
  6
ByBlock
100
AcDbLine
 10
889.0362041760564
 20
136.4877628737824
 30
0.0
 11
988.9474098721986
 21
136.4877628737824
 31
0.0
  0
LINE
  5
62D
330
629
100
AcDbEntity
  8
AM_5
  6
ByBlock
100
AcDbLine
 10
983.9474098721987
 20
262.9877628730556
 30
0.0
 11
983.9474098721986
 21
153.9877628737824
 31
0.0
  0
SOLID
  5
62E
330
629
100
AcDbEntity
  8
AM_5
100
AcDbTrace
 10
981.0307432055321
 20
262.9877628730556
 30
0.0
 11
986.8640765388652
 21
262.9877628730556
 31
0.0
 12
983.9474098721987
 22
280.4877628730557
 32
0.0
 13
983.9474098721987
 23
280.4877628730557
 33
0.0
  0
SOLID
  5
62F
330
629
100
AcDbEntity
  8
AM_5
100
AcDbTrace
 10
981.0307432055321
 20
153.9877628737824
 30
0.0
 11
986.8640765388652
 21
153.9877628737824
 31
0.0
 12
983.9474098721986
 22
136.4877628737824
 32
0.0
 13
983.9474098721986
 23
136.4877628737824
 33
0.0
  0
MTEXT
  5
630
330
629
100
AcDbEntity
  8
AM_5
 62
     2
100
AcDbMText
 10
967.6974098721986
 20
207.7537229432413
 30
0.0
 40
17.5
 41
0.0
 71
     5
 72
     1
  1
144
 11
0.0000000000000001
 21
1.0
 31
0.0
 73
     1
 44
1.0
1001
ACAD
1000
MTEXTBEGIN
1070
    73
1070
     1
1070
    44
1040
1.0
1070
    74
1070
     0
1000
MTEXTEND
  0
POINT
  5
631
330
629
100
AcDbEntity
  8
DEFPOINTS
 62
     0
100
AcDbPoint
 10
884.0362041760419
 20
280.4877628730557
 30
0.0
  0
POINT
  5
632
330
629
100
AcDbEntity
  8
DEFPOINTS
 62
     0
100
AcDbPoint
 10
884.0362041760565
 20
136.4877628737824
 30
0.0
  0
POINT
  5
633
330
629
100
AcDbEntity
  8
DEFPOINTS
 62
     0
100
AcDbPoint
 10
983.9474098721986
 20
136.4877628737824
 30
0.0
  0
ENDBLK
  5
634
330
629
100
AcDbEntity
  8
0
100
AcDbBlockEnd
  0
BLOCK
  5
636
330
635
100
AcDbEntity
  8
0
100
AcDbBlockBegin
  2
*D7
 70
     1
 10
0.0
 20
0.0
 30
0.0
  3
*D7
  1

  0
LINE
  5
637
330
635
100
AcDbEntity
  8
AM_5
  6
ByBlock
100
AcDbLine
 10
857.0362041760303
 20
250.487762873058
 30
0.0
 11
930.7045600861183
 21
250.487762873058
 31
0.0
  0
LINE
  5
638
330
635
100
AcDbEntity
  8
AM_5
  6
ByBlock
100
AcDbLine
 10
857.0362041760388
 20
166.4877628730597
 30
0.0
 11
930.7045600861183
 21
166.4877628730597
 31
0.0
  0
LINE
  5
639
330
635
100
AcDbEntity
  8
AM_5
  6
ByBlock
100
AcDbLine
 10
925.7045600861184
 20
232.987762873058
 30
0.0
 11
925.7045600861184
 21
183.9877628730597
 31
0.0
  0
SOLID
  5
63A
330
635
100
AcDbEntity
  8
AM_5
100
AcDbTrace
 10
922.7878934194515
 20
232.987762873058
 30
0.0
 11
928.6212267527847
 21
232.987762873058
 31
0.0
 12
925.7045600861184
 22
250.487762873058
 32
0.0
 13
925.7045600861184
 23
250.487762873058
 33
0.0
  0
SOLID
  5
63B
330
635
100
AcDbEntity
  8
AM_5
100
AcDbTrace
 10
922.7878934194515
 20
183.9877628730597
 30
0.0
 11
928.6212267527847
 21
183.9877628730597
 31
0.0
 12
925.7045600861184
 22
166.4877628730597
 32
0.0
 13
925.7045600861184
 23
166.4877628730597
 33
0.0
  0
MTEXT
  5
63C
330
635
100
AcDbEntity
  8
AM_5
 62
     2
100
AcDbMText
 10
909.4545600861183
 20
209.0552721718341
 30
0.0
 40
17.5
 41
0.0
 71
     5
 72
     1
  1
84
 11
0.0000000000000001
 21
1.0
 31
0.0
 73
     1
 44
1.0
1001
ACAD
1000
MTEXTBEGIN
1070
    73
1070
     1
1070
    44
1040
1.0
1070
    74
1070
     0
1000
MTEXTEND
  0
POINT
  5
63D
330
635
100
AcDbEntity
  8
DEFPOINTS
 62
     0
100
AcDbPoint
 10
852.0362041760304
 20
250.487762873058
 30
0.0
  0
POINT
  5
63E
330
635
100
AcDbEntity
  8
DEFPOINTS
 62
     0
100
AcDbPoint
 10
852.0362041760389
 20
166.4877628730597
 30
0.0
  0
POINT
  5
63F
330
635
100
AcDbEntity
  8
DEFPOINTS
 62
     0
100
AcDbPoint
 10
925.7045600861184
 20
166.4877628730597
 30
0.0
  0
ENDBLK
  5
640
330
635
100
AcDbEntity
  8
0
100
AcDbBlockEnd
  0
BLOCK
  5
642
330
641
100
AcDbEntity
  8
0
100
AcDbBlockBegin
  2
*D8
 70
     1
 10
0.0
 20
0.0
 30
0.0
  3
*D8
  1

  0
LINE
  5
643
330
641
100
AcDbEntity
  8
AM_5
  6
ByBlock
100
AcDbLine
 10
529.0362041947918
 20
480.2214194771567
 30
0.0
 11
529.0362041947918
 21
419.9857809915718
 31
0.0
  0
LINE
  5
644
330
641
100
AcDbEntity
  8
AM_5
  6
ByBlock
100
AcDbLine
 10
479.0362041937004
 20
480.2214194771567
 30
0.0
 11
479.0362041937004
 21
419.9857809915718
 31
0.0
  0
LINE
  5
645
330
641
100
AcDbEntity
  8
AM_5
  6
ByBlock
100
AcDbLine
 10
511.5362041947919
 20
424.985780991572
 30
0.0
 11
496.5362041937004
 21
424.985780991572
 31
0.0
  0
SOLID
  5
646
330
641
100
AcDbEntity
  8
AM_5
100
AcDbTrace
 10
511.5362041947919
 20
427.9024476582385
 30
0.0
 11
511.5362041947919
 21
422.0691143249053
 31
0.0
 12
529.0362041947918
 22
424.985780991572
 32
0.0
 13
529.0362041947918
 23
424.985780991572
 33
0.0
  0
SOLID
  5
647
330
641
100
AcDbEntity
  8
AM_5
100
AcDbTrace
 10
496.5362041937004
 20
427.9024476582385
 30
0.0
 11
496.5362041937004
 21
422.0691143249053
 31
0.0
 12
479.0362041937004
 22
424.985780991572
 32
0.0
 13
479.0362041937004
 23
424.985780991572
 33
0.0
  0
MTEXT
  5
648
330
641
100
AcDbEntity
  8
AM_5
 62
     2
100
AcDbMText
 10
504.1313851454543
 20
441.235780991572
 30
0.0
 40
17.5
 41
0.0
 71
     5
 72
     1
  1
%%c50
 73
     1
 44
1.0
1001
ACAD
1000
MTEXTBEGIN
1070
    73
1070
     1
1070
    44
1040
1.0
1070
    74
1070
     0
1000
MTEXTEND
  0
POINT
  5
649
330
641
100
AcDbEntity
  8
DEFPOINTS
 62
     0
100
AcDbPoint
 10
529.0362041947918
 20
485.2214194771568
 30
0.0
  0
POINT
  5
64A
330
641
100
AcDbEntity
  8
DEFPOINTS
 62
     0
100
AcDbPoint
 10
479.0362041937004
 20
485.2214194771568
 30
0.0
  0
POINT
  5
64B
330
641
100
AcDbEntity
  8
DEFPOINTS
 62
     0
100
AcDbPoint
 10
479.0362041937004
 20
424.985780991572
 30
0.0
  0
ENDBLK
  5
64C
330
641
100
AcDbEntity
  8
0
100
AcDbBlockEnd
  0
BLOCK
  5
64E
330
64D
100
AcDbEntity
  8
0
100
AcDbBlockBegin
  2
*D9
 70
     1
 10
0.0
 20
0.0
 30
0.0
  3
*D9
  1

  0
LINE
  5
64F
330
64D
100
AcDbEntity
  8
AM_5
  6
ByBlock
100
AcDbLine
 10
858.0362041760416
 20
578.8997631827522
 30
0.0
 11
947.3369904259143
 21
578.8997631827522
 31
0.0
  0
LINE
  5
650
330
64D
100
AcDbEntity
  8
AM_5
  6
ByBlock
100
AcDbLine
 10
857.0362041760416
 20
652.8997631827543
 30
0.0
 11
947.3369904259143
 21
652.8997631827543
 31
0.0
  0
LINE
  5
651
330
64D
100
AcDbEntity
  8
AM_5
  6
ByBlock
100
AcDbLine
 10
942.3369904259143
 20
596.3997631827522
 30
0.0
 11
942.3369904259143
 21
635.3997631827541
 31
0.0
  0
SOLID
  5
652
330
64D
100
AcDbEntity
  8
AM_5
100
AcDbTrace
 10
939.4203237592476
 20
596.3997631827522
 30
0.0
 11
945.2536570925811
 21
596.3997631827522
 31
0.0
 12
942.3369904259143
 22
578.8997631827522
 32
0.0
 13
942.3369904259143
 23
578.8997631827522
 33
0.0
  0
SOLID
  5
653
330
64D
100
AcDbEntity
  8
AM_5
100
AcDbTrace
 10
939.4203237592476
 20
635.3997631827541
 30
0.0
 11
945.2536570925811
 21
635.3997631827541
 31
0.0
 12
942.3369904259143
 22
652.8997631827543
 32
0.0
 13
942.3369904259143
 23
652.8997631827543
 33
0.0
  0
MTEXT
  5
654
330
64D
100
AcDbEntity
  8
AM_5
 62
     2
100
AcDbMText
 10
926.086990425914
 20
615.8997631827535
 30
0.0
 40
17.5
 41
0.0
 71
     5
 72
     1
  1
74
 11
0.0000000000000001
 21
1.0
 31
0.0
 73
     1
 44
1.0
1001
ACAD
1000
MTEXTBEGIN
1070
    73
1070
     1
1070
    44
1040
1.0
1070
    74
1070
     0
1000
MTEXTEND
  0
POINT
  5
655
330
64D
100
AcDbEntity
  8
DEFPOINTS
 62
     0
100
AcDbPoint
 10
853.0362041760417
 20
578.8997631827522
 30
0.0
  0
POINT
  5
656
330
64D
100
AcDbEntity
  8
DEFPOINTS
 62
     0
100
AcDbPoint
 10
852.0362041760417
 20
652.8997631827543
 30
0.0
  0
POINT
  5
657
330
64D
100
AcDbEntity
  8
DEFPOINTS
 62
     0
100
AcDbPoint
 10
942.3369904259143
 20
652.8997631827543
 30
0.0
  0
ENDBLK
  5
658
330
64D
100
AcDbEntity
  8
0
100
AcDbBlockEnd
  0
BLOCK
  5
65A
330
659
100
AcDbEntity
  8
0
100
AcDbBlockBegin
  2
*D10
 70
     1
 10
0.0
 20
0.0
 30
0.0
  3
*D10
  1

  0
LINE
  5
65B
330
659
100
AcDbEntity
  8
AM_5
  6
ByBlock
100
AcDbLine
 10
156.0362041760418
 20
657.8997631827522
 30
0.0
 11
156.0362041760418
 21
743.6704577981145
 31
0.0
  0
LINE
  5
65C
330
659
100
AcDbEntity
  8
AM_5
  6
ByBlock
100
AcDbLine
 10
136.0362041760418
 20
697.8997631827524
 30
0.0
 11
136.0362041760418
 21
743.6704577981145
 31
0.0
  0
LINE
  5
65D
330
659
100
AcDbEntity
  8
AM_5
  6
ByBlock
100
AcDbLine
 10
118.5362041760418
 20
738.6704577981145
 30
0.0
 11
101.0362041760418
 21
738.6704577981145
 31
0.0
  0
LINE
  5
65E
330
659
100
AcDbEntity
  8
AM_5
  6
ByBlock
100
AcDbLine
 10
173.5362041760418
 20
738.6704577981145
 30
0.0
 11
225.8171291017558
 21
738.6704577981145
 31
0.0
  0
LINE
  5
65F
330
659
100
AcDbEntity
  8
AM_5
  6
ByBlock
100
AcDbLine
 10
136.0362041760418
 20
738.6704577981145
 30
0.0
 11
156.0362041760418
 21
738.6704577981145
 31
0.0
  0
SOLID
  5
660
330
659
100
AcDbEntity
  8
AM_5
100
AcDbTrace
 10
118.5362041760418
 20
741.5871244647811
 30
0.0
 11
118.5362041760418
 21
735.7537911314477
 31
0.0
 12
136.0362041760418
 22
738.6704577981145
 32
0.0
 13
136.0362041760418
 23
738.6704577981145
 33
0.0
  0
SOLID
  5
661
330
659
100
AcDbEntity
  8
AM_5
100
AcDbTrace
 10
173.5362041760418
 20
741.5871244647811
 30
0.0
 11
173.5362041760418
 21
735.7537911314477
 31
0.0
 12
156.0362041760418
 22
738.6704577981145
 32
0.0
 13
156.0362041760418
 23
738.6704577981145
 33
0.0
  0
MTEXT
  5
662
330
659
100
AcDbEntity
  8
AM_5
 62
     2
100
AcDbMText
 10
208.4630444560865
 20
754.9221802390593
 30
0.0
 40
17.5
 41
0.0
 71
     5
 72
     1
  1
20
 73
     1
 44
1.0
1001
ACAD
1000
MTEXTBEGIN
1070
    73
1070
     1
1070
    44
1040
1.0
1070
    74
1070
     0
1000
MTEXTEND
  0
POINT
  5
663
330
659
100
AcDbEntity
  8
DEFPOINTS
 62
     0
100
AcDbPoint
 10
156.0362041760418
 20
652.8997631827524
 30
0.0
  0
POINT
  5
664
330
659
100
AcDbEntity
  8
DEFPOINTS
 62
     0
100
AcDbPoint
 10
136.0362041760418
 20
692.8997631827524
 30
0.0
  0
POINT
  5
665
330
659
100
AcDbEntity
  8
DEFPOINTS
 62
     0
100
AcDbPoint
 10
136.0362041760418
 20
738.6704577981145
 30
0.0
  0
ENDBLK
  5
666
330
659
100
AcDbEntity
  8
0
100
AcDbBlockEnd
  0
BLOCK
  5
668
330
667
100
AcDbEntity
  8
0
100
AcDbBlockBegin
  2
*D11
 70
     1
 10
0.0
 20
0.0
 30
0.0
  3
*D11
  1

  0
LINE
  5
669
330
667
100
AcDbEntity
  8
AM_5
  6
ByBlock
100
AcDbLine
 10
131.0362041760418
 20
692.8997631827524
 30
0.0
 11
84.86966415213467
 21
692.8997631827524
 31
0.0
  0
LINE
  5
66A
330
667
100
AcDbEntity
  8
AM_5
  6
ByBlock
100
AcDbLine
 10
132.0362041760418
 20
652.8997631827524
 30
0.0
 11
84.86966415213466
 21
652.8997631827524
 31
0.0
  0
LINE
  5
66B
330
667
100
AcDbEntity
  8
AM_5
  6
ByBlock
100
AcDbLine
 10
89.86966415213464
 20
710.3997631827524
 30
0.0
 11
89.86966415213464
 21
727.8997631827524
 31
0.0
  0
LINE
  5
66C
330
667
100
AcDbEntity
  8
AM_5
  6
ByBlock
100
AcDbLine
 10
89.86966415213464
 20
635.3997631827524
 30
0.0
 11
89.86966415213464
 21
617.8997631827524
 31
0.0
  0
LINE
  5
66D
330
667
100
AcDbEntity
  8
AM_5
  6
ByBlock
100
AcDbLine
 10
89.86966415213464
 20
692.8997631827524
 30
0.0
 11
89.86966415213464
 21
652.8997631827524
 31
0.0
  0
SOLID
  5
66E
330
667
100
AcDbEntity
  8
AM_5
100
AcDbTrace
 10
86.95299748546799
 20
710.3997631827524
 30
0.0
 11
92.78633081880135
 21
710.3997631827524
 31
0.0
 12
89.86966415213464
 22
692.8997631827524
 32
0.0
 13
89.86966415213464
 23
692.8997631827524
 33
0.0
  0
SOLID
  5
66F
330
667
100
AcDbEntity
  8
AM_5
100
AcDbTrace
 10
86.95299748546799
 20
635.3997631827524
 30
0.0
 11
92.78633081880128
 21
635.3997631827524
 31
0.0
 12
89.86966415213464
 22
652.8997631827524
 32
0.0
 13
89.86966415213464
 23
652.8997631827524
 33
0.0
  0
MTEXT
  5
670
330
667
100
AcDbEntity
  8
AM_5
 62
     2
100
AcDbMText
 10
73.61966415213456
 20
672.8997631827524
 30
0.0
 40
17.5
 41
0.0
 71
     5
 72
     1
  1
40
 11
0.0000000000000001
 21
1.0
 31
0.0
 73
     1
 44
1.0
1001
ACAD
1000
MTEXTBEGIN
1070
    73
1070
     1
1070
    44
1040
1.0
1070
    74
1070
     0
1000
MTEXTEND
  0
POINT
  5
671
330
667
100
AcDbEntity
  8
DEFPOINTS
 62
     0
100
AcDbPoint
 10
136.0362041760418
 20
692.8997631827524
 30
0.0
  0
POINT
  5
672
330
667
100
AcDbEntity
  8
DEFPOINTS
 62
     0
100
AcDbPoint
 10
137.0362041760418
 20
652.8997631827524
 30
0.0
  0
POINT
  5
673
330
667
100
AcDbEntity
  8
DEFPOINTS
 62
     0
100
AcDbPoint
 10
89.86966415213464
 20
652.8997631827524
 30
0.0
  0
ENDBLK
  5
674
330
667
100
AcDbEntity
  8
0
100
AcDbBlockEnd
  0
BLOCK
  5
78F
330
78E
100
AcDbEntity
  8
0
100
AcDbBlockBegin
  2
*D12
 70
     1
 10
0.0
 20
0.0
 30
0.0
  3
*D12
  1

  0
LINE
  5
936
330
78E
100
AcDbEntity
  8
AM_5
  6
ByBlock
100
AcDbLine
 10
88.29842981023773
 20
163.0977627576234
 30
0.0
 11
88.29842981023773
 21
58.96688610244599
 31
0.0
  0
LINE
  5
937
330
78E
100
AcDbEntity
  8
AM_5
  6
ByBlock
100
AcDbLine
 10
788.2984298102377
 20
163.0977627576234
 30
0.0
 11
788.2984298102377
 21
58.96688610244599
 31
0.0
  0
LINE
  5
938
330
78E
100
AcDbEntity
  8
AM_5
  6
ByBlock
100
AcDbLine
 10
105.7984298102377
 20
63.96688610244599
 30
0.0
 11
770.7984298102377
 21
63.96688610244599
 31
0.0
  0
SOLID
  5
939
330
78E
100
AcDbEntity
  8
AM_5
100
AcDbTrace
 10
105.7984298102377
 20
66.88355276911264
 30
0.0
 11
105.7984298102377
 21
61.05021943577932
 31
0.0
 12
88.29842981023773
 22
63.96688610244599
 32
0.0
 13
88.29842981023773
 23
63.96688610244599
 33
0.0
  0
SOLID
  5
93A
330
78E
100
AcDbEntity
  8
AM_5
100
AcDbTrace
 10
770.7984298102377
 20
66.88355276911264
 30
0.0
 11
770.7984298102377
 21
61.05021943577932
 31
0.0
 12
788.2984298102377
 22
63.96688610244599
 32
0.0
 13
788.2984298102377
 23
63.96688610244599
 33
0.0
  0
MTEXT
  5
93B
330
78E
100
AcDbEntity
  8
AM_5
 62
     2
100
AcDbMText
 10
438.2984298102376
 20
80.21688610244599
 30
0.0
 40
17.5
 41
0.0
 71
     5
 72
     1
  1
700
 73
     1
 44
1.0
1001
ACAD
1000
MTEXTBEGIN
1070
    73
1070
     1
1070
    44
1040
1.0
1070
    74
1070
     0
1000
MTEXTEND
  0
POINT
  5
93C
330
78E
100
AcDbEntity
  8
DEFPOINTS
 62
     0
100
AcDbPoint
 10
88.29842981023773
 20
168.0977627576234
 30
0.0
  0
POINT
  5
93D
330
78E
100
AcDbEntity
  8
DEFPOINTS
 62
     0
100
AcDbPoint
 10
788.2984298102377
 20
168.0977627576234
 30
0.0
  0
POINT
  5
93E
330
78E
100
AcDbEntity
  8
DEFPOINTS
 62
     0
100
AcDbPoint
 10
788.2984298102377
 20
63.96688610244599
 30
0.0
  0
ENDBLK
  5
790
330
78E
100
AcDbEntity
  8
0
100
AcDbBlockEnd
  0
BLOCK
  5
79B
330
79A
100
AcDbEntity
  8
0
100
AcDbBlockBegin
  2
*D13
 70
     1
 10
0.0
 20
0.0
 30
0.0
  3
*D13
  1

  0
LINE
  5
93F
330
79A
100
AcDbEntity
  8
AM_5
  6
ByBlock
100
AcDbLine
 10
69.29842981023774
 20
131.487762757651
 30
0.0
 11
69.29842981023772
 21
-0.0000000475553179
 31
0.0
  0
LINE
  5
940
330
79A
100
AcDbEntity
  8
AM_5
  6
ByBlock
100
AcDbLine
 10
818.2984298102377
 20
131.487762757651
 30
0.0
 11
818.2984298102377
 21
-0.0000000475553179
 31
0.0
  0
LINE
  5
941
330
79A
100
AcDbEntity
  8
AM_5
  6
ByBlock
100
AcDbLine
 10
86.79842981023773
 20
4.999999952444681
 30
0.0
 11
800.7984298102376
 21
4.999999952444681
 31
0.0
  0
SOLID
  5
942
330
79A
100
AcDbEntity
  8
AM_5
100
AcDbTrace
 10
86.79842981023773
 20
7.916666619111347
 30
0.0
 11
86.79842981023773
 21
2.083333285778014
 31
0.0
 12
69.29842981023772
 22
4.999999952444681
 32
0.0
 13
69.29842981023772
 23
4.999999952444681
 33
0.0
  0
SOLID
  5
943
330
79A
100
AcDbEntity
  8
AM_5
100
AcDbTrace
 10
800.7984298102376
 20
7.916666619111347
 30
0.0
 11
800.7984298102376
 21
2.083333285778014
 31
0.0
 12
818.2984298102377
 22
4.999999952444681
 32
0.0
 13
818.2984298102377
 23
4.999999952444681
 33
0.0
  0
MTEXT
  5
944
330
79A
100
AcDbEntity
  8
AM_5
 62
     2
100
AcDbMText
 10
438.2984298102376
 20
21.24999995244468
 30
0.0
 40
17.5
 41
0.0
 71
     5
 72
     1
  1
749
 73
     1
 44
1.0
1001
ACAD
1000
MTEXTBEGIN
1070
    73
1070
     1
1070
    44
1040
1.0
1070
    74
1070
     0
1000
MTEXTEND
  0
POINT
  5
945
330
79A
100
AcDbEntity
  8
DEFPOINTS
 62
     0
100
AcDbPoint
 10
69.29842981023774
 20
136.487762757651
 30
0.0
  0
POINT
  5
946
330
79A
100
AcDbEntity
  8
DEFPOINTS
 62
     0
100
AcDbPoint
 10
818.2984298102377
 20
136.487762757651
 30
0.0
  0
POINT
  5
947
330
79A
100
AcDbEntity
  8
DEFPOINTS
 62
     0
100
AcDbPoint
 10
818.2984298102377
 20
4.999999952444681
 30
0.0
  0
ENDBLK
  5
79C
330
79A
100
AcDbEntity
  8
0
100
AcDbBlockEnd
  0
BLOCK
  5
7A7
330
7A6
100
AcDbEntity
  8
0
100
AcDbBlockBegin
  2
*D14
 70
     1
 10
0.0
 20
0.0
 30
0.0
  3
*D14
  1

  0
LINE
  5
948
330
7A6
100
AcDbEntity
  8
AM_5
  6
ByBlock
100
AcDbLine
 10
823.2984298102376
 20
280.4877627576539
 30
0.0
 11
923.2096355063942
 21
280.4877627576539
 31
0.0
  0
LINE
  5
949
330
7A6
100
AcDbEntity
  8
AM_5
  6
ByBlock
100
AcDbLine
 10
823.2984298102522
 20
136.4877627583806
 30
0.0
 11
923.2096355063942
 21
136.4877627583805
 31
0.0
  0
LINE
  5
94A
330
7A6
100
AcDbEntity
  8
AM_5
  6
ByBlock
100
AcDbLine
 10
918.2096355063944
 20
262.9877627576539
 30
0.0
 11
918.2096355063944
 21
153.9877627583805
 31
0.0
  0
SOLID
  5
94B
330
7A6
100
AcDbEntity
  8
AM_5
100
AcDbTrace
 10
915.2929688397277
 20
262.9877627576539
 30
0.0
 11
921.126302173061
 21
262.9877627576539
 31
0.0
 12
918.2096355063944
 22
280.4877627576539
 32
0.0
 13
918.2096355063944
 23
280.4877627576539
 33
0.0
  0
SOLID
  5
94C
330
7A6
100
AcDbEntity
  8
AM_5
100
AcDbTrace
 10
915.2929688397277
 20
153.9877627583805
 30
0.0
 11
921.1263021730607
 21
153.9877627583805
 31
0.0
 12
918.2096355063944
 22
136.4877627583805
 32
0.0
 13
918.2096355063944
 23
136.4877627583805
 33
0.0
  0
MTEXT
  5
94D
330
7A6
100
AcDbEntity
  8
AM_5
 62
     2
100
AcDbMText
 10
901.9596355063942
 20
207.7537228278394
 30
0.0
 40
17.5
 41
0.0
 71
     5
 72
     1
  1
144
 11
0.0000000000000001
 21
1.0
 31
0.0
 73
     1
 44
1.0
1001
ACAD
1000
MTEXTBEGIN
1070
    73
1070
     1
1070
    44
1040
1.0
1070
    74
1070
     0
1000
MTEXTEND
  0
POINT
  5
94E
330
7A6
100
AcDbEntity
  8
DEFPOINTS
 62
     0
100
AcDbPoint
 10
818.2984298102379
 20
280.4877627576539
 30
0.0
  0
POINT
  5
94F
330
7A6
100
AcDbEntity
  8
DEFPOINTS
 62
     0
100
AcDbPoint
 10
818.2984298102521
 20
136.4877627583806
 30
0.0
  0
POINT
  5
950
330
7A6
100
AcDbEntity
  8
DEFPOINTS
 62
     0
100
AcDbPoint
 10
918.2096355063944
 20
136.4877627583805
 30
0.0
  0
ENDBLK
  5
7A8
330
7A6
100
AcDbEntity
  8
0
100
AcDbBlockEnd
  0
BLOCK
  5
7B3
330
7B2
100
AcDbEntity
  8
0
100
AcDbBlockBegin
  2
*D15
 70
     1
 10
0.0
 20
0.0
 30
0.0
  3
*D15
  1

  0
LINE
  5
951
330
7B2
100
AcDbEntity
  8
AM_5
  6
ByBlock
100
AcDbLine
 10
791.2984298102262
 20
250.4877627576561
 30
0.0
 11
864.9667857203141
 21
250.4877627576561
 31
0.0
  0
LINE
  5
952
330
7B2
100
AcDbEntity
  8
AM_5
  6
ByBlock
100
AcDbLine
 10
791.2984298102347
 20
166.4877627576579
 30
0.0
 11
864.9667857203141
 21
166.4877627576579
 31
0.0
  0
LINE
  5
953
330
7B2
100
AcDbEntity
  8
AM_5
  6
ByBlock
100
AcDbLine
 10
859.9667857203142
 20
232.9877627576561
 30
0.0
 11
859.9667857203142
 21
183.9877627576579
 31
0.0
  0
SOLID
  5
954
330
7B2
100
AcDbEntity
  8
AM_5
100
AcDbTrace
 10
857.0501190536473
 20
232.9877627576561
 30
0.0
 11
862.8834523869809
 21
232.9877627576561
 31
0.0
 12
859.9667857203142
 22
250.4877627576561
 32
0.0
 13
859.9667857203142
 23
250.4877627576561
 33
0.0
  0
SOLID
  5
955
330
7B2
100
AcDbEntity
  8
AM_5
100
AcDbTrace
 10
857.0501190536473
 20
183.9877627576579
 30
0.0
 11
862.8834523869809
 21
183.9877627576579
 31
0.0
 12
859.9667857203142
 22
166.4877627576579
 32
0.0
 13
859.9667857203142
 23
166.4877627576579
 33
0.0
  0
MTEXT
  5
956
330
7B2
100
AcDbEntity
  8
AM_5
 62
     2
100
AcDbMText
 10
843.7167857203142
 20
209.0552720564323
 30
0.0
 40
17.5
 41
0.0
 71
     5
 72
     1
  1
84
 11
0.0000000000000001
 21
1.0
 31
0.0
 73
     1
 44
1.0
1001
ACAD
1000
MTEXTBEGIN
1070
    73
1070
     1
1070
    44
1040
1.0
1070
    74
1070
     0
1000
MTEXTEND
  0
POINT
  5
957
330
7B2
100
AcDbEntity
  8
DEFPOINTS
 62
     0
100
AcDbPoint
 10
786.2984298102262
 20
250.4877627576561
 30
0.0
  0
POINT
  5
958
330
7B2
100
AcDbEntity
  8
DEFPOINTS
 62
     0
100
AcDbPoint
 10
786.2984298102347
 20
166.4877627576579
 30
0.0
  0
POINT
  5
959
330
7B2
100
AcDbEntity
  8
DEFPOINTS
 62
     0
100
AcDbPoint
 10
859.9667857203142
 20
166.4877627576579
 30
0.0
  0
ENDBLK
  5
7B4
330
7B2
100
AcDbEntity
  8
0
100
AcDbBlockEnd
  0
BLOCK
  5
7BF
330
7BE
100
AcDbEntity
  8
0
100
AcDbBlockBegin
  2
*D16
 70
     1
 10
0.0
 20
0.0
 30
0.0
  3
*D16
  1

  0
LINE
  5
95A
330
7BE
100
AcDbEntity
  8
AM_5
  6
ByBlock
100
AcDbLine
 10
463.2984298289878
 20
480.221419361755
 30
0.0
 11
463.2984298289878
 21
419.9857808761702
 31
0.0
  0
LINE
  5
95B
330
7BE
100
AcDbEntity
  8
AM_5
  6
ByBlock
100
AcDbLine
 10
413.2984298278963
 20
480.221419361755
 30
0.0
 11
413.2984298278963
 21
419.9857808761702
 31
0.0
  0
LINE
  5
95C
330
7BE
100
AcDbEntity
  8
AM_5
  6
ByBlock
100
AcDbLine
 10
445.7984298289878
 20
424.9857808761702
 30
0.0
 11
430.7984298278963
 21
424.9857808761702
 31
0.0
  0
SOLID
  5
95D
330
7BE
100
AcDbEntity
  8
AM_5
100
AcDbTrace
 10
445.7984298289878
 20
427.9024475428368
 30
0.0
 11
445.7984298289878
 21
422.0691142095033
 31
0.0
 12
463.2984298289878
 22
424.9857808761702
 32
0.0
 13
463.2984298289878
 23
424.9857808761702
 33
0.0
  0
SOLID
  5
95E
330
7BE
100
AcDbEntity
  8
AM_5
100
AcDbTrace
 10
430.7984298278963
 20
427.9024475428368
 30
0.0
 11
430.7984298278963
 21
422.0691142095033
 31
0.0
 12
413.2984298278963
 22
424.9857808761702
 32
0.0
 13
413.2984298278963
 23
424.9857808761702
 33
0.0
  0
MTEXT
  5
95F
330
7BE
100
AcDbEntity
  8
AM_5
 62
     2
100
AcDbMText
 10
438.39361077965
 20
441.2357808761702
 30
0.0
 40
17.5
 41
0.0
 71
     5
 72
     1
  1
%%c50
 73
     1
 44
1.0
1001
ACAD
1000
MTEXTBEGIN
1070
    73
1070
     1
1070
    44
1040
1.0
1070
    74
1070
     0
1000
MTEXTEND
  0
POINT
  5
960
330
7BE
100
AcDbEntity
  8
DEFPOINTS
 62
     0
100
AcDbPoint
 10
463.2984298289878
 20
485.221419361755
 30
0.0
  0
POINT
  5
961
330
7BE
100
AcDbEntity
  8
DEFPOINTS
 62
     0
100
AcDbPoint
 10
413.2984298278963
 20
485.221419361755
 30
0.0
  0
POINT
  5
962
330
7BE
100
AcDbEntity
  8
DEFPOINTS
 62
     0
100
AcDbPoint
 10
413.2984298278963
 20
424.9857808761702
 30
0.0
  0
ENDBLK
  5
7C0
330
7BE
100
AcDbEntity
  8
0
100
AcDbBlockEnd
  0
BLOCK
  5
7CB
330
7CA
100
AcDbEntity
  8
0
100
AcDbBlockBegin
  2
*D17
 70
     1
 10
0.0
 20
0.0
 30
0.0
  3
*D17
  1

  0
LINE
  5
963
330
7CA
100
AcDbEntity
  8
AM_5
  6
ByBlock
100
AcDbLine
 10
792.2984298102377
 20
578.8997630673502
 30
0.0
 11
881.5992160601103
 21
578.8997630673502
 31
0.0
  0
LINE
  5
964
330
7CA
100
AcDbEntity
  8
AM_5
  6
ByBlock
100
AcDbLine
 10
791.2984298102377
 20
652.8997630673524
 30
0.0
 11
881.5992160601103
 21
652.8997630673524
 31
0.0
  0
LINE
  5
965
330
7CA
100
AcDbEntity
  8
AM_5
  6
ByBlock
100
AcDbLine
 10
876.5992160601102
 20
596.3997630673502
 30
0.0
 11
876.5992160601102
 21
635.3997630673524
 31
0.0
  0
SOLID
  5
966
330
7CA
100
AcDbEntity
  8
AM_5
100
AcDbTrace
 10
873.6825493934436
 20
596.3997630673502
 30
0.0
 11
879.5158827267769
 21
596.3997630673502
 31
0.0
 12
876.5992160601102
 22
578.8997630673502
 32
0.0
 13
876.5992160601102
 23
578.8997630673502
 33
0.0
  0
SOLID
  5
967
330
7CA
100
AcDbEntity
  8
AM_5
100
AcDbTrace
 10
873.6825493934436
 20
635.3997630673524
 30
0.0
 11
879.5158827267769
 21
635.3997630673524
 31
0.0
 12
876.5992160601102
 22
652.8997630673524
 32
0.0
 13
876.5992160601102
 23
652.8997630673524
 33
0.0
  0
MTEXT
  5
968
330
7CA
100
AcDbEntity
  8
AM_5
 62
     2
100
AcDbMText
 10
860.3492160601101
 20
615.8997630673516
 30
0.0
 40
17.5
 41
0.0
 71
     5
 72
     1
  1
74
 11
0.0000000000000001
 21
1.0
 31
0.0
 73
     1
 44
1.0
1001
ACAD
1000
MTEXTBEGIN
1070
    73
1070
     1
1070
    44
1040
1.0
1070
    74
1070
     0
1000
MTEXTEND
  0
POINT
  5
969
330
7CA
100
AcDbEntity
  8
DEFPOINTS
 62
     0
100
AcDbPoint
 10
787.2984298102377
 20
578.8997630673502
 30
0.0
  0
POINT
  5
96A
330
7CA
100
AcDbEntity
  8
DEFPOINTS
 62
     0
100
AcDbPoint
 10
786.2984298102377
 20
652.8997630673524
 30
0.0
  0
POINT
  5
96B
330
7CA
100
AcDbEntity
  8
DEFPOINTS
 62
     0
100
AcDbPoint
 10
876.5992160601102
 20
652.8997630673524
 30
0.0
  0
ENDBLK
  5
7CC
330
7CA
100
AcDbEntity
  8
0
100
AcDbBlockEnd
  0
BLOCK
  5
7D7
330
7D6
100
AcDbEntity
  8
0
100
AcDbBlockBegin
  2
*D18
 70
     1
 10
0.0
 20
0.0
 30
0.0
  3
*D18
  1

  0
LINE
  5
96C
330
7D6
100
AcDbEntity
  8
AM_5
  6
ByBlock
100
AcDbLine
 10
90.29842981023774
 20
657.8997630673502
 30
0.0
 11
90.29842981023774
 21
743.6704576827127
 31
0.0
  0
LINE
  5
96D
330
7D6
100
AcDbEntity
  8
AM_5
  6
ByBlock
100
AcDbLine
 10
70.29842981023772
 20
697.8997630673505
 30
0.0
 11
70.29842981023772
 21
743.6704576827127
 31
0.0
  0
LINE
  5
96E
330
7D6
100
AcDbEntity
  8
AM_5
  6
ByBlock
100
AcDbLine
 10
52.79842981023772
 20
738.6704576827127
 30
0.0
 11
35.29842981023772
 21
738.6704576827127
 31
0.0
  0
LINE
  5
96F
330
7D6
100
AcDbEntity
  8
AM_5
  6
ByBlock
100
AcDbLine
 10
107.7984298102377
 20
738.6704576827127
 30
0.0
 11
160.0793547359517
 21
738.6704576827127
 31
0.0
  0
LINE
  5
970
330
7D6
100
AcDbEntity
  8
AM_5
  6
ByBlock
100
AcDbLine
 10
70.29842981023772
 20
738.6704576827127
 30
0.0
 11
90.29842981023774
 21
738.6704576827127
 31
0.0
  0
SOLID
  5
971
330
7D6
100
AcDbEntity
  8
AM_5
100
AcDbTrace
 10
52.79842981023772
 20
741.5871243493792
 30
0.0
 11
52.79842981023772
 21
735.7537910160458
 31
0.0
 12
70.29842981023772
 22
738.6704576827127
 32
0.0
 13
70.29842981023772
 23
738.6704576827127
 33
0.0
  0
SOLID
  5
972
330
7D6
100
AcDbEntity
  8
AM_5
100
AcDbTrace
 10
107.7984298102377
 20
741.5871243493792
 30
0.0
 11
107.7984298102377
 21
735.7537910160458
 31
0.0
 12
90.29842981023774
 22
738.6704576827127
 32
0.0
 13
90.29842981023774
 23
738.6704576827127
 33
0.0
  0
MTEXT
  5
973
330
7D6
100
AcDbEntity
  8
AM_5
 62
     2
100
AcDbMText
 10
142.7252700902824
 20
754.9221801236575
 30
0.0
 40
17.5
 41
0.0
 71
     5
 72
     1
  1
20
 73
     1
 44
1.0
1001
ACAD
1000
MTEXTBEGIN
1070
    73
1070
     1
1070
    44
1040
1.0
1070
    74
1070
     0
1000
MTEXTEND
  0
POINT
  5
974
330
7D6
100
AcDbEntity
  8
DEFPOINTS
 62
     0
100
AcDbPoint
 10
90.29842981023774
 20
652.8997630673504
 30
0.0
  0
POINT
  5
975
330
7D6
100
AcDbEntity
  8
DEFPOINTS
 62
     0
100
AcDbPoint
 10
70.29842981023772
 20
692.8997630673506
 30
0.0
  0
POINT
  5
976
330
7D6
100
AcDbEntity
  8
DEFPOINTS
 62
     0
100
AcDbPoint
 10
70.29842981023772
 20
738.6704576827127
 30
0.0
  0
ENDBLK
  5
7D8
330
7D6
100
AcDbEntity
  8
0
100
AcDbBlockEnd
  0
BLOCK
  5
7E5
330
7E4
100
AcDbEntity
  8
0
100
AcDbBlockBegin
  2
*D19
 70
     1
 10
0.0
 20
0.0
 30
0.0
  3
*D19
  1

  0
LINE
  5
977
330
7E4
100
AcDbEntity
  8
AM_5
  6
ByBlock
100
AcDbLine
 10
64.29842981023774
 20
692.8997630673506
 30
0.0
 11
12.82155783299651
 21
692.8997630673506
 31
0.0
  0
LINE
  5
978
330
7E4
100
AcDbEntity
  8
AM_5
  6
ByBlock
100
AcDbLine
 10
66.29842981023774
 20
652.8997630673504
 30
0.0
 11
12.82155783299651
 21
652.8997630673504
 31
0.0
  0
LINE
  5
979
330
7E4
100
AcDbEntity
  8
AM_5
  6
ByBlock
100
AcDbLine
 10
17.82155783299651
 20
710.3997630673505
 30
0.0
 11
17.82155783299652
 21
727.8997630673504
 31
0.0
  0
LINE
  5
97A
330
7E4
100
AcDbEntity
  8
AM_5
  6
ByBlock
100
AcDbLine
 10
17.8215578329965
 20
635.3997630673505
 30
0.0
 11
17.82155783299648
 21
617.8997630673505
 31
0.0
  0
LINE
  5
97B
330
7E4
100
AcDbEntity
  8
AM_5
  6
ByBlock
100
AcDbLine
 10
17.82155783299651
 20
692.8997630673506
 30
0.0
 11
17.8215578329965
 21
652.8997630673504
 31
0.0
  0
SOLID
  5
97C
330
7E4
100
AcDbEntity
  8
AM_5
100
AcDbTrace
 10
14.90489116632985
 20
710.3997630673505
 30
0.0
 11
20.73822449966318
 21
710.3997630673505
 31
0.0
 12
17.82155783299651
 22
692.8997630673506
 32
0.0
 13
17.82155783299651
 23
692.8997630673506
 33
0.0
  0
SOLID
  5
97D
330
7E4
100
AcDbEntity
  8
AM_5
100
AcDbTrace
 10
14.90489116632983
 20
635.3997630673505
 30
0.0
 11
20.73822449966317
 21
635.3997630673505
 31
0.0
 12
17.8215578329965
 22
652.8997630673504
 32
0.0
 13
17.8215578329965
 23
652.8997630673504
 33
0.0
  0
MTEXT
  5
97E
330
7E4
100
AcDbEntity
  8
AM_5
 62
     2
100
AcDbMText
 10
1.571557832996399
 20
672.8997630673505
 30
0.0
 40
17.5
 41
0.0
 71
     5
 72
     1
  1
40
 11
0.0000000000000001
 21
1.0
 31
0.0
 73
     1
 44
1.0
1001
ACAD
1000
MTEXTBEGIN
1070
    73
1070
     1
1070
    44
1040
1.0
1070
    74
1070
     0
1000
MTEXTEND
  0
POINT
  5
97F
330
7E4
100
AcDbEntity
  8
DEFPOINTS
 62
     0
100
AcDbPoint
 10
69.29842981023774
 20
692.8997630673506
 30
0.0
  0
POINT
  5
980
330
7E4
100
AcDbEntity
  8
DEFPOINTS
 62
     0
100
AcDbPoint
 10
71.29842981023774
 20
652.8997630673504
 30
0.0
  0
POINT
  5
981
330
7E4
100
AcDbEntity
  8
DEFPOINTS
 62
     0
100
AcDbPoint
 10
17.8215578329965
 20
652.8997630673504
 30
0.0
  0
ENDBLK
  5
7E6
330
7E4
100
AcDbEntity
  8
0
100
AcDbBlockEnd
  0
BLOCK
  5
98A
330
989
100
AcDbEntity
  8
0
100
AcDbBlockBegin
  2
*D20
 70
     1
 10
0.0
 20
0.0
 30
0.0
  3
*D20
  1

  0
LINE
  5
98B
330
989
100
AcDbEntity
  8
AM_5
  6
ByBlock
100
AcDbLine
 10
94.60876111439151
 20
163.0977611677598
 30
0.0
 11
94.60876111439151
 21
58.96688451258238
 31
0.0
  0
LINE
  5
98C
330
989
100
AcDbEntity
  8
AM_5
  6
ByBlock
100
AcDbLine
 10
794.6087611143913
 20
163.0977611677598
 30
0.0
 11
794.6087611143913
 21
58.96688451258238
 31
0.0
  0
LINE
  5
98D
330
989
100
AcDbEntity
  8
AM_5
  6
ByBlock
100
AcDbLine
 10
112.1087611143915
 20
63.96688451258238
 30
0.0
 11
777.1087611143912
 21
63.96688451258238
 31
0.0
  0
SOLID
  5
98E
330
989
100
AcDbEntity
  8
AM_5
100
AcDbTrace
 10
112.1087611143915
 20
66.88355117924905
 30
0.0
 11
112.1087611143915
 21
61.05021784591574
 31
0.0
 12
94.60876111439151
 22
63.96688451258238
 32
0.0
 13
94.60876111439151
 23
63.96688451258238
 33
0.0
  0
SOLID
  5
98F
330
989
100
AcDbEntity
  8
AM_5
100
AcDbTrace
 10
777.1087611143912
 20
66.88355117924905
 30
0.0
 11
777.1087611143912
 21
61.05021784591574
 31
0.0
 12
794.6087611143913
 22
63.96688451258238
 32
0.0
 13
794.6087611143913
 23
63.96688451258238
 33
0.0
  0
MTEXT
  5
990
330
989
100
AcDbEntity
  8
AM_5
 62
     2
100
AcDbMText
 10
444.6087611143915
 20
80.2168845125824
 30
0.0
 40
17.5
 41
0.0
 71
     5
 72
     1
  1
700
 73
     1
 44
1.0
1001
ACAD
1000
MTEXTBEGIN
1070
    73
1070
     1
1070
    44
1040
1.0
1070
    74
1070
     0
1000
MTEXTEND
  0
POINT
  5
991
330
989
100
AcDbEntity
  8
DEFPOINTS
 62
     0
100
AcDbPoint
 10
94.60876111439151
 20
168.0977611677598
 30
0.0
  0
POINT
  5
992
330
989
100
AcDbEntity
  8
DEFPOINTS
 62
     0
100
AcDbPoint
 10
794.6087611143913
 20
168.0977611677598
 30
0.0
  0
POINT
  5
993
330
989
100
AcDbEntity
  8
DEFPOINTS
 62
     0
100
AcDbPoint
 10
794.6087611143913
 20
63.96688451258238
 30
0.0
  0
ENDBLK
  5
994
330
989
100
AcDbEntity
  8
0
100
AcDbBlockEnd
  0
BLOCK
  5
996
330
995
100
AcDbEntity
  8
0
100
AcDbBlockBegin
  2
*D21
 70
     1
 10
0.0
 20
0.0
 30
0.0
  3
*D21
  1

  0
LINE
  5
997
330
995
100
AcDbEntity
  8
AM_5
  6
ByBlock
100
AcDbLine
 10
75.60876111439154
 20
131.4877611677874
 30
0.0
 11
75.60876111439153
 21
-0.0000016374189045
 31
0.0
  0
LINE
  5
998
330
995
100
AcDbEntity
  8
AM_5
  6
ByBlock
100
AcDbLine
 10
824.6087611143915
 20
131.4877611677874
 30
0.0
 11
824.6087611143915
 21
-0.0000016374189045
 31
0.0
  0
LINE
  5
999
330
995
100
AcDbEntity
  8
AM_5
  6
ByBlock
100
AcDbLine
 10
93.10876111439151
 20
4.999998362581092
 30
0.0
 11
807.1087611143916
 21
4.999998362581092
 31
0.0
  0
SOLID
  5
99A
330
995
100
AcDbEntity
  8
AM_5
100
AcDbTrace
 10
93.10876111439151
 20
7.916665029247761
 30
0.0
 11
93.10876111439151
 21
2.083331695914428
 31
0.0
 12
75.60876111439153
 22
4.999998362581092
 32
0.0
 13
75.60876111439153
 23
4.999998362581092
 33
0.0
  0
SOLID
  5
99B
330
995
100
AcDbEntity
  8
AM_5
100
AcDbTrace
 10
807.1087611143916
 20
7.916665029247761
 30
0.0
 11
807.1087611143916
 21
2.083331695914428
 31
0.0
 12
824.6087611143915
 22
4.999998362581092
 32
0.0
 13
824.6087611143915
 23
4.999998362581092
 33
0.0
  0
MTEXT
  5
99C
330
995
100
AcDbEntity
  8
AM_5
 62
     2
100
AcDbMText
 10
444.6087611143915
 20
21.2499983625811
 30
0.0
 40
17.5
 41
0.0
 71
     5
 72
     1
  1
749
 73
     1
 44
1.0
1001
ACAD
1000
MTEXTBEGIN
1070
    73
1070
     1
1070
    44
1040
1.0
1070
    74
1070
     0
1000
MTEXTEND
  0
POINT
  5
99D
330
995
100
AcDbEntity
  8
DEFPOINTS
 62
     0
100
AcDbPoint
 10
75.60876111439154
 20
136.4877611677874
 30
0.0
  0
POINT
  5
99E
330
995
100
AcDbEntity
  8
DEFPOINTS
 62
     0
100
AcDbPoint
 10
824.6087611143915
 20
136.4877611677874
 30
0.0
  0
POINT
  5
99F
330
995
100
AcDbEntity
  8
DEFPOINTS
 62
     0
100
AcDbPoint
 10
824.6087611143915
 20
4.999998362581092
 30
0.0
  0
ENDBLK
  5
9A0
330
995
100
AcDbEntity
  8
0
100
AcDbBlockEnd
  0
BLOCK
  5
9A2
330
9A1
100
AcDbEntity
  8
0
100
AcDbBlockBegin
  2
*D22
 70
     1
 10
0.0
 20
0.0
 30
0.0
  3
*D22
  1

  0
LINE
  5
9A3
330
9A1
100
AcDbEntity
  8
AM_5
  6
ByBlock
100
AcDbLine
 10
829.6087611143914
 20
280.4877611677903
 30
0.0
 11
929.5199668105482
 21
280.4877611677903
 31
0.0
  0
LINE
  5
9A4
330
9A1
100
AcDbEntity
  8
AM_5
  6
ByBlock
100
AcDbLine
 10
829.6087611144058
 20
136.487761168517
 30
0.0
 11
929.519966810548
 21
136.4877611685169
 31
0.0
  0
LINE
  5
9A5
330
9A1
100
AcDbEntity
  8
AM_5
  6
ByBlock
100
AcDbLine
 10
924.5199668105485
 20
262.9877611677903
 30
0.0
 11
924.5199668105479
 21
153.9877611685169
 31
0.0
  0
SOLID
  5
9A6
330
9A1
100
AcDbEntity
  8
AM_5
100
AcDbTrace
 10
921.6033001438816
 20
262.9877611677903
 30
0.0
 11
927.4366334772148
 21
262.9877611677903
 31
0.0
 12
924.5199668105485
 22
280.4877611677903
 32
0.0
 13
924.5199668105485
 23
280.4877611677903
 33
0.0
  0
SOLID
  5
9A7
330
9A1
100
AcDbEntity
  8
AM_5
100
AcDbTrace
 10
921.6033001438814
 20
153.9877611685169
 30
0.0
 11
927.4366334772148
 21
153.9877611685169
 31
0.0
 12
924.5199668105479
 22
136.4877611685169
 32
0.0
 13
924.5199668105479
 23
136.4877611685169
 33
0.0
  0
MTEXT
  5
9A8
330
9A1
100
AcDbEntity
  8
AM_5
 62
     2
100
AcDbMText
 10
908.269966810548
 20
207.7537212379758
 30
0.0
 40
17.5
 41
0.0
 71
     5
 72
     1
  1
144
 11
0.0000000000000001
 21
1.0
 31
0.0
 73
     1
 44
1.0
1001
ACAD
1000
MTEXTBEGIN
1070
    73
1070
     1
1070
    44
1040
1.0
1070
    74
1070
     0
1000
MTEXTEND
  0
POINT
  5
9A9
330
9A1
100
AcDbEntity
  8
DEFPOINTS
 62
     0
100
AcDbPoint
 10
824.6087611143916
 20
280.4877611677903
 30
0.0
  0
POINT
  5
9AA
330
9A1
100
AcDbEntity
  8
DEFPOINTS
 62
     0
100
AcDbPoint
 10
824.6087611144059
 20
136.487761168517
 30
0.0
  0
POINT
  5
9AB
330
9A1
100
AcDbEntity
  8
DEFPOINTS
 62
     0
100
AcDbPoint
 10
924.5199668105479
 20
136.4877611685169
 30
0.0
  0
ENDBLK
  5
9AC
330
9A1
100
AcDbEntity
  8
0
100
AcDbBlockEnd
  0
BLOCK
  5
9AE
330
9AD
100
AcDbEntity
  8
0
100
AcDbBlockBegin
  2
*D23
 70
     1
 10
0.0
 20
0.0
 30
0.0
  3
*D23
  1

  0
LINE
  5
9AF
330
9AD
100
AcDbEntity
  8
AM_5
  6
ByBlock
100
AcDbLine
 10
797.6087611143801
 20
250.4877611677925
 30
0.0
 11
871.2771170244677
 21
250.4877611677925
 31
0.0
  0
LINE
  5
9B0
330
9AD
100
AcDbEntity
  8
AM_5
  6
ByBlock
100
AcDbLine
 10
797.6087611143884
 20
166.4877611677943
 30
0.0
 11
871.2771170244677
 21
166.4877611677943
 31
0.0
  0
LINE
  5
9B1
330
9AD
100
AcDbEntity
  8
AM_5
  6
ByBlock
100
AcDbLine
 10
866.2771170244679
 20
232.9877611677925
 30
0.0
 11
866.2771170244679
 21
183.9877611677943
 31
0.0
  0
SOLID
  5
9B2
330
9AD
100
AcDbEntity
  8
AM_5
100
AcDbTrace
 10
863.3604503578013
 20
232.9877611677925
 30
0.0
 11
869.1937836911346
 21
232.9877611677925
 31
0.0
 12
866.2771170244679
 22
250.4877611677925
 32
0.0
 13
866.2771170244679
 23
250.4877611677925
 33
0.0
  0
SOLID
  5
9B3
330
9AD
100
AcDbEntity
  8
AM_5
100
AcDbTrace
 10
863.3604503578013
 20
183.9877611677943
 30
0.0
 11
869.1937836911346
 21
183.9877611677943
 31
0.0
 12
866.2771170244679
 22
166.4877611677943
 32
0.0
 13
866.2771170244679
 23
166.4877611677943
 33
0.0
  0
MTEXT
  5
9B4
330
9AD
100
AcDbEntity
  8
AM_5
 62
     2
100
AcDbMText
 10
850.0271170244678
 20
209.0552704665687
 30
0.0
 40
17.5
 41
0.0
 71
     5
 72
     1
  1
84
 11
0.0000000000000001
 21
1.0
 31
0.0
 73
     1
 44
1.0
1001
ACAD
1000
MTEXTBEGIN
1070
    73
1070
     1
1070
    44
1040
1.0
1070
    74
1070
     0
1000
MTEXTEND
  0
POINT
  5
9B5
330
9AD
100
AcDbEntity
  8
DEFPOINTS
 62
     0
100
AcDbPoint
 10
792.60876111438
 20
250.4877611677925
 30
0.0
  0
POINT
  5
9B6
330
9AD
100
AcDbEntity
  8
DEFPOINTS
 62
     0
100
AcDbPoint
 10
792.6087611143884
 20
166.4877611677943
 30
0.0
  0
POINT
  5
9B7
330
9AD
100
AcDbEntity
  8
DEFPOINTS
 62
     0
100
AcDbPoint
 10
866.2771170244679
 20
166.4877611677943
 30
0.0
  0
ENDBLK
  5
9B8
330
9AD
100
AcDbEntity
  8
0
100
AcDbBlockEnd
  0
BLOCK
  5
9BA
330
9B9
100
AcDbEntity
  8
0
100
AcDbBlockBegin
  2
*D24
 70
     1
 10
0.0
 20
0.0
 30
0.0
  3
*D24
  1

  0
LINE
  5
9BB
330
9B9
100
AcDbEntity
  8
AM_5
  6
ByBlock
100
AcDbLine
 10
469.6087611331416
 20
480.2214177718914
 30
0.0
 11
469.6087611331416
 21
419.9857792863066
 31
0.0
  0
LINE
  5
9BC
330
9B9
100
AcDbEntity
  8
AM_5
  6
ByBlock
100
AcDbLine
 10
419.6087611320502
 20
480.2214177718914
 30
0.0
 11
419.6087611320502
 21
419.9857792863066
 31
0.0
  0
LINE
  5
9BD
330
9B9
100
AcDbEntity
  8
AM_5
  6
ByBlock
100
AcDbLine
 10
452.1087611331416
 20
424.9857792863066
 30
0.0
 11
437.1087611320501
 21
424.9857792863066
 31
0.0
  0
SOLID
  5
9BE
330
9B9
100
AcDbEntity
  8
AM_5
100
AcDbTrace
 10
452.1087611331416
 20
427.9024459529733
 30
0.0
 11
452.1087611331416
 21
422.0691126196398
 31
0.0
 12
469.6087611331416
 22
424.9857792863066
 32
0.0
 13
469.6087611331416
 23
424.9857792863066
 33
0.0
  0
SOLID
  5
9BF
330
9B9
100
AcDbEntity
  8
AM_5
100
AcDbTrace
 10
437.1087611320501
 20
427.9024459529733
 30
0.0
 11
437.1087611320501
 21
422.0691126196398
 31
0.0
 12
419.6087611320502
 22
424.9857792863066
 32
0.0
 13
419.6087611320502
 23
424.9857792863066
 33
0.0
  0
MTEXT
  5
9C0
330
9B9
100
AcDbEntity
  8
AM_5
 62
     2
100
AcDbMText
 10
444.7039420838037
 20
441.2357792863066
 30
0.0
 40
17.5
 41
0.0
 71
     5
 72
     1
  1
%%c50
 73
     1
 44
1.0
1001
ACAD
1000
MTEXTBEGIN
1070
    73
1070
     1
1070
    44
1040
1.0
1070
    74
1070
     0
1000
MTEXTEND
  0
POINT
  5
9C1
330
9B9
100
AcDbEntity
  8
DEFPOINTS
 62
     0
100
AcDbPoint
 10
469.6087611331416
 20
485.2214177718914
 30
0.0
  0
POINT
  5
9C2
330
9B9
100
AcDbEntity
  8
DEFPOINTS
 62
     0
100
AcDbPoint
 10
419.6087611320502
 20
485.2214177718914
 30
0.0
  0
POINT
  5
9C3
330
9B9
100
AcDbEntity
  8
DEFPOINTS
 62
     0
100
AcDbPoint
 10
419.6087611320502
 20
424.9857792863066
 30
0.0
  0
ENDBLK
  5
9C4
330
9B9
100
AcDbEntity
  8
0
100
AcDbBlockEnd
  0
BLOCK
  5
9C6
330
9C5
100
AcDbEntity
  8
0
100
AcDbBlockBegin
  2
*D25
 70
     1
 10
0.0
 20
0.0
 30
0.0
  3
*D25
  1

  0
LINE
  5
9C7
330
9C5
100
AcDbEntity
  8
AM_5
  6
ByBlock
100
AcDbLine
 10
798.6087611143913
 20
578.8997614774869
 30
0.0
 11
887.9095473642641
 21
578.8997614774869
 31
0.0
  0
LINE
  5
9C8
330
9C5
100
AcDbEntity
  8
AM_5
  6
ByBlock
100
AcDbLine
 10
797.6087611143912
 20
652.8997614774888
 30
0.0
 11
887.9095473642641
 21
652.8997614774888
 31
0.0
  0
LINE
  5
9C9
330
9C5
100
AcDbEntity
  8
AM_5
  6
ByBlock
100
AcDbLine
 10
882.909547364264
 20
596.3997614774869
 30
0.0
 11
882.909547364264
 21
635.3997614774888
 31
0.0
  0
SOLID
  5
9CA
330
9C5
100
AcDbEntity
  8
AM_5
100
AcDbTrace
 10
879.9928806975975
 20
596.3997614774869
 30
0.0
 11
885.8262140309308
 21
596.3997614774869
 31
0.0
 12
882.909547364264
 22
578.8997614774869
 32
0.0
 13
882.909547364264
 23
578.8997614774869
 33
0.0
  0
SOLID
  5
9CB
330
9C5
100
AcDbEntity
  8
AM_5
100
AcDbTrace
 10
879.9928806975975
 20
635.3997614774888
 30
0.0
 11
885.8262140309308
 21
635.3997614774888
 31
0.0
 12
882.909547364264
 22
652.8997614774888
 32
0.0
 13
882.909547364264
 23
652.8997614774888
 33
0.0
  0
MTEXT
  5
9CC
330
9C5
100
AcDbEntity
  8
AM_5
 62
     2
100
AcDbMText
 10
866.659547364264
 20
615.899761477488
 30
0.0
 40
17.5
 41
0.0
 71
     5
 72
     1
  1
74
 11
0.0000000000000001
 21
1.0
 31
0.0
 73
     1
 44
1.0
1001
ACAD
1000
MTEXTBEGIN
1070
    73
1070
     1
1070
    44
1040
1.0
1070
    74
1070
     0
1000
MTEXTEND
  0
POINT
  5
9CD
330
9C5
100
AcDbEntity
  8
DEFPOINTS
 62
     0
100
AcDbPoint
 10
793.6087611143912
 20
578.8997614774869
 30
0.0
  0
POINT
  5
9CE
330
9C5
100
AcDbEntity
  8
DEFPOINTS
 62
     0
100
AcDbPoint
 10
792.6087611143913
 20
652.8997614774888
 30
0.0
  0
POINT
  5
9CF
330
9C5
100
AcDbEntity
  8
DEFPOINTS
 62
     0
100
AcDbPoint
 10
882.909547364264
 20
652.8997614774888
 30
0.0
  0
ENDBLK
  5
9D0
330
9C5
100
AcDbEntity
  8
0
100
AcDbBlockEnd
  0
BLOCK
  5
9D2
330
9D1
100
AcDbEntity
  8
0
100
AcDbBlockBegin
  2
*D26
 70
     1
 10
0.0
 20
0.0
 30
0.0
  3
*D26
  1

  0
LINE
  5
9D3
330
9D1
100
AcDbEntity
  8
AM_5
  6
ByBlock
100
AcDbLine
 10
96.60876111439156
 20
657.8997614774869
 30
0.0
 11
96.60876111439156
 21
743.670456092849
 31
0.0
  0
LINE
  5
9D4
330
9D1
100
AcDbEntity
  8
AM_5
  6
ByBlock
100
AcDbLine
 10
76.60876111439153
 20
697.8997614774868
 30
0.0
 11
76.60876111439153
 21
743.670456092849
 31
0.0
  0
LINE
  5
9D5
330
9D1
100
AcDbEntity
  8
AM_5
  6
ByBlock
100
AcDbLine
 10
59.10876111439153
 20
738.6704560928491
 30
0.0
 11
41.60876111439153
 21
738.6704560928491
 31
0.0
  0
LINE
  5
9D6
330
9D1
100
AcDbEntity
  8
AM_5
  6
ByBlock
100
AcDbLine
 10
114.1087611143915
 20
738.6704560928491
 30
0.0
 11
166.3896860401055
 21
738.6704560928491
 31
0.0
  0
LINE
  5
9D7
330
9D1
100
AcDbEntity
  8
AM_5
  6
ByBlock
100
AcDbLine
 10
76.60876111439153
 20
738.6704560928491
 30
0.0
 11
96.60876111439156
 21
738.6704560928491
 31
0.0
  0
SOLID
  5
9D8
330
9D1
100
AcDbEntity
  8
AM_5
100
AcDbTrace
 10
59.10876111439153
 20
741.5871227595156
 30
0.0
 11
59.10876111439153
 21
735.7537894261826
 31
0.0
 12
76.60876111439153
 22
738.6704560928491
 32
0.0
 13
76.60876111439153
 23
738.6704560928491
 33
0.0
  0
SOLID
  5
9D9
330
9D1
100
AcDbEntity
  8
AM_5
100
AcDbTrace
 10
114.1087611143915
 20
741.5871227595156
 30
0.0
 11
114.1087611143915
 21
735.7537894261826
 31
0.0
 12
96.60876111439156
 22
738.6704560928491
 32
0.0
 13
96.60876111439156
 23
738.6704560928491
 33
0.0
  0
MTEXT
  5
9DA
330
9D1
100
AcDbEntity
  8
AM_5
 62
     2
100
AcDbMText
 10
149.0356013944362
 20
754.9221785337939
 30
0.0
 40
17.5
 41
0.0
 71
     5
 72
     1
  1
20
 73
     1
 44
1.0
1001
ACAD
1000
MTEXTBEGIN
1070
    73
1070
     1
1070
    44
1040
1.0
1070
    74
1070
     0
1000
MTEXTEND
  0
POINT
  5
9DB
330
9D1
100
AcDbEntity
  8
DEFPOINTS
 62
     0
100
AcDbPoint
 10
96.60876111439156
 20
652.8997614774867
 30
0.0
  0
POINT
  5
9DC
330
9D1
100
AcDbEntity
  8
DEFPOINTS
 62
     0
100
AcDbPoint
 10
76.60876111439153
 20
692.8997614774869
 30
0.0
  0
POINT
  5
9DD
330
9D1
100
AcDbEntity
  8
DEFPOINTS
 62
     0
100
AcDbPoint
 10
76.60876111439153
 20
738.6704560928491
 30
0.0
  0
ENDBLK
  5
9DE
330
9D1
100
AcDbEntity
  8
0
100
AcDbBlockEnd
  0
BLOCK
  5
9E0
330
9DF
100
AcDbEntity
  8
0
100
AcDbBlockBegin
  2
*D27
 70
     1
 10
0.0
 20
0.0
 30
0.0
  3
*D27
  1

  0
LINE
  5
9E1
330
9DF
100
AcDbEntity
  8
AM_5
  6
ByBlock
100
AcDbLine
 10
70.60876111439154
 20
692.8997614774869
 30
0.0
 11
19.13188913715032
 21
692.8997614774869
 31
0.0
  0
LINE
  5
9E2
330
9DF
100
AcDbEntity
  8
AM_5
  6
ByBlock
100
AcDbLine
 10
72.60876111439154
 20
652.8997614774867
 30
0.0
 11
19.13188913715031
 21
652.8997614774867
 31
0.0
  0
LINE
  5
9E3
330
9DF
100
AcDbEntity
  8
AM_5
  6
ByBlock
100
AcDbLine
 10
24.13188913715032
 20
710.3997614774868
 30
0.0
 11
24.13188913715032
 21
727.899761477487
 31
0.0
  0
LINE
  5
9E4
330
9DF
100
AcDbEntity
  8
AM_5
  6
ByBlock
100
AcDbLine
 10
24.13188913715031
 20
635.3997614774868
 30
0.0
 11
24.13188913715031
 21
617.8997614774869
 31
0.0
  0
LINE
  5
9E5
330
9DF
100
AcDbEntity
  8
AM_5
  6
ByBlock
100
AcDbLine
 10
24.13188913715032
 20
692.8997614774869
 30
0.0
 11
24.13188913715031
 21
652.8997614774867
 31
0.0
  0
SOLID
  5
9E6
330
9DF
100
AcDbEntity
  8
AM_5
100
AcDbTrace
 10
21.21522247048365
 20
710.3997614774868
 30
0.0
 11
27.04855580381698
 21
710.3997614774868
 31
0.0
 12
24.13188913715032
 22
692.8997614774869
 32
0.0
 13
24.13188913715032
 23
692.8997614774869
 33
0.0
  0
SOLID
  5
9E7
330
9DF
100
AcDbEntity
  8
AM_5
100
AcDbTrace
 10
21.21522247048364
 20
635.3997614774868
 30
0.0
 11
27.04855580381698
 21
635.3997614774868
 31
0.0
 12
24.13188913715031
 22
652.8997614774867
 32
0.0
 13
24.13188913715031
 23
652.8997614774867
 33
0.0
  0
MTEXT
  5
9E8
330
9DF
100
AcDbEntity
  8
AM_5
 62
     2
100
AcDbMText
 10
7.881889137150205
 20
672.8997614774868
 30
0.0
 40
17.5
 41
0.0
 71
     5
 72
     1
  1
40
 11
0.0000000000000001
 21
1.0
 31
0.0
 73
     1
 44
1.0
1001
ACAD
1000
MTEXTBEGIN
1070
    73
1070
     1
1070
    44
1040
1.0
1070
    74
1070
     0
1000
MTEXTEND
  0
POINT
  5
9E9
330
9DF
100
AcDbEntity
  8
DEFPOINTS
 62
     0
100
AcDbPoint
 10
75.60876111439154
 20
692.8997614774869
 30
0.0
  0
POINT
  5
9EA
330
9DF
100
AcDbEntity
  8
DEFPOINTS
 62
     0
100
AcDbPoint
 10
77.60876111439154
 20
652.8997614774867
 30
0.0
  0
POINT
  5
9EB
330
9DF
100
AcDbEntity
  8
DEFPOINTS
 62
     0
100
AcDbPoint
 10
24.13188913715031
 20
652.8997614774867
 30
0.0
  0
ENDBLK
  5
9EC
330
9DF
100
AcDbEntity
  8
0
100
AcDbBlockEnd
  0
BLOCK
  5
9EE
330
9ED
100
AcDbEntity
  8
0
100
AcDbBlockBegin
  2
*D28
 70
     1
 10
0.0
 20
0.0
 30
0.0
  3
*D28
  1

  0
LINE
  5
9EF
330
9ED
100
AcDbEntity
  8
AM_5
  6
ByBlock
100
AcDbLine
 10
824.6087611143915
 20
697.8997614774868
 30
0.0
 11
824.6087611143915
 21
738.2013890724111
 31
0.0
  0
LINE
  5
9F0
330
9ED
100
AcDbEntity
  8
AM_5
  6
ByBlock
100
AcDbLine
 10
792.6087611143913
 20
657.8997614774888
 30
0.0
 11
792.6087611143913
 21
738.2013890724111
 31
0.0
  0
LINE
  5
9F1
330
9ED
100
AcDbEntity
  8
AM_5
  6
ByBlock
100
AcDbLine
 10
775.1087611143913
 20
733.2013890724112
 30
0.0
 11
757.6087611143913
 21
733.2013890724112
 31
0.0
  0
LINE
  5
9F2
330
9ED
100
AcDbEntity
  8
AM_5
  6
ByBlock
100
AcDbLine
 10
842.1087611143914
 20
733.2013890724112
 30
0.0
 11
895.3422768053936
 21
733.2013890724112
 31
0.0
  0
LINE
  5
9F3
330
9ED
100
AcDbEntity
  8
AM_5
  6
ByBlock
100
AcDbLine
 10
792.6087611143913
 20
733.2013890724112
 30
0.0
 11
824.6087611143915
 21
733.2013890724112
 31
0.0
  0
SOLID
  5
9F4
330
9ED
100
AcDbEntity
  8
AM_5
100
AcDbTrace
 10
775.1087611143913
 20
736.1180557390777
 30
0.0
 11
775.1087611143913
 21
730.2847224057443
 31
0.0
 12
792.6087611143913
 22
733.2013890724112
 32
0.0
 13
792.6087611143913
 23
733.2013890724112
 33
0.0
  0
SOLID
  5
9F5
330
9ED
100
AcDbEntity
  8
AM_5
100
AcDbTrace
 10
842.1087611143914
 20
736.1180557390777
 30
0.0
 11
842.1087611143914
 21
730.2847224057443
 31
0.0
 12
824.6087611143915
 22
733.2013890724112
 32
0.0
 13
824.6087611143915
 23
733.2013890724112
 33
0.0
  0
MTEXT
  5
9F6
330
9ED
100
AcDbEntity
  8
AM_5
 62
     2
100
AcDbMText
 10
877.6917600731103
 20
749.4531115133557
 30
0.0
 40
17.5
 41
0.0
 71
     5
 72
     1
  1
32
 73
     1
 44
1.0
1001
ACAD
1000
MTEXTBEGIN
1070
    73
1070
     1
1070
    44
1040
1.0
1070
    74
1070
     0
1000
MTEXTEND
  0
POINT
  5
9F7
330
9ED
100
AcDbEntity
  8
DEFPOINTS
 62
     0
100
AcDbPoint
 10
824.6087611143915
 20
692.8997614774869
 30
0.0
  0
POINT
  5
9F8
330
9ED
100
AcDbEntity
  8
DEFPOINTS
 62
     0
100
AcDbPoint
 10
792.6087611143913
 20
652.8997614774888
 30
0.0
  0
POINT
  5
9F9
330
9ED
100
AcDbEntity
  8
DEFPOINTS
 62
     0
100
AcDbPoint
 10
792.6087611143913
 20
733.2013890724112
 30
0.0
  0
ENDBLK
  5
9FA
330
9ED
100
AcDbEntity
  8
0
100
AcDbBlockEnd
  0
BLOCK
  5
B01
330
B00
100
AcDbEntity
  8
0
100
AcDbBlockBegin
  2
*D29
 70
     1
 10
0.0
 20
0.0
 30
0.0
  3
*D29
  1

  0
LINE
  5
E6E
330
B00
100
AcDbEntity
  8
AM_5
  6
ByBlock
100
AcDbLine
 10
96.60876167266669
 20
163.4977606971295
 30
0.0
 11
96.60876167266669
 21
58.96688404195163
 31
0.0
  0
LINE
  5
E6F
330
B00
100
AcDbEntity
  8
AM_5
  6
ByBlock
100
AcDbLine
 10
792.6087616726587
 20
163.4977606971304
 30
0.0
 11
792.6087616726587
 21
58.96688404195163
 31
0.0
  0
LINE
  5
E70
330
B00
100
AcDbEntity
  8
AM_5
  6
ByBlock
100
AcDbLine
 10
114.1087616726667
 20
63.96688404195163
 30
0.0
 11
775.1087616726587
 21
63.96688404195163
 31
0.0
  0
SOLID
  5
E71
330
B00
100
AcDbEntity
  8
AM_5
100
AcDbTrace
 10
114.1087616726667
 20
66.8835507086183
 30
0.0
 11
114.1087616726667
 21
61.05021737528497
 31
0.0
 12
96.60876167266669
 22
63.96688404195163
 32
0.0
 13
96.60876167266669
 23
63.96688404195163
 33
0.0
  0
SOLID
  5
E72
330
B00
100
AcDbEntity
  8
AM_5
100
AcDbTrace
 10
775.1087616726587
 20
66.8835507086183
 30
0.0
 11
775.1087616726587
 21
61.05021737528497
 31
0.0
 12
792.6087616726587
 22
63.96688404195163
 32
0.0
 13
792.6087616726587
 23
63.96688404195163
 33
0.0
  0
MTEXT
  5
E73
330
B00
100
AcDbEntity
  8
AM_5
 62
     2
100
AcDbMText
 10
444.6087616726519
 20
80.21688404195163
 30
0.0
 40
17.5
 41
0.0
 71
     5
 72
     1
  1
696
 73
     1
 44
1.0
1001
ACAD
1000
MTEXTBEGIN
1070
    73
1070
     1
1070
    44
1040
1.0
1070
    74
1070
     0
1000
MTEXTEND
  0
POINT
  5
E74
330
B00
100
AcDbEntity
  8
DEFPOINTS
 62
     0
100
AcDbPoint
 10
96.60876167266669
 20
168.4977606971295
 30
0.0
  0
POINT
  5
E75
330
B00
100
AcDbEntity
  8
DEFPOINTS
 62
     0
100
AcDbPoint
 10
792.6087616726587
 20
168.4977606971304
 30
0.0
  0
POINT
  5
E76
330
B00
100
AcDbEntity
  8
DEFPOINTS
 62
     0
100
AcDbPoint
 10
792.6087616726587
 20
63.96688404195163
 30
0.0
  0
ENDBLK
  5
B02
330
B00
100
AcDbEntity
  8
0
100
AcDbBlockEnd
  0
BLOCK
  5
B0D
330
B0C
100
AcDbEntity
  8
0
100
AcDbBlockBegin
  2
*D30
 70
     1
 10
0.0
 20
0.0
 30
0.0
  3
*D30
  1

  0
LINE
  5
E77
330
B0C
100
AcDbEntity
  8
AM_5
  6
ByBlock
100
AcDbLine
 10
75.60876167265212
 20
131.4877606971566
 30
0.0
 11
75.6087616726521
 21
-0.0000021080496708
 31
0.0
  0
LINE
  5
E78
330
B0C
100
AcDbEntity
  8
AM_5
  6
ByBlock
100
AcDbLine
 10
824.6087616726521
 20
131.4877606971566
 30
0.0
 11
824.6087616726521
 21
-0.0000021080496708
 31
0.0
  0
LINE
  5
E79
330
B0C
100
AcDbEntity
  8
AM_5
  6
ByBlock
100
AcDbLine
 10
93.10876167265211
 20
4.999997891950328
 30
0.0
 11
807.108761672652
 21
4.999997891950328
 31
0.0
  0
SOLID
  5
E7A
330
B0C
100
AcDbEntity
  8
AM_5
100
AcDbTrace
 10
93.10876167265211
 20
7.916664558616995
 30
0.0
 11
93.10876167265211
 21
2.083331225283661
 31
0.0
 12
75.6087616726521
 22
4.999997891950328
 32
0.0
 13
75.6087616726521
 23
4.999997891950328
 33
0.0
  0
SOLID
  5
E7B
330
B0C
100
AcDbEntity
  8
AM_5
100
AcDbTrace
 10
807.108761672652
 20
7.916664558616995
 30
0.0
 11
807.108761672652
 21
2.083331225283661
 31
0.0
 12
824.6087616726521
 22
4.999997891950328
 32
0.0
 13
824.6087616726521
 23
4.999997891950328
 33
0.0
  0
MTEXT
  5
E7C
330
B0C
100
AcDbEntity
  8
AM_5
 62
     2
100
AcDbMText
 10
444.6087616726519
 20
21.24999789195033
 30
0.0
 40
17.5
 41
0.0
 71
     5
 72
     1
  1
749
 73
     1
 44
1.0
1001
ACAD
1000
MTEXTBEGIN
1070
    73
1070
     1
1070
    44
1040
1.0
1070
    74
1070
     0
1000
MTEXTEND
  0
POINT
  5
E7D
330
B0C
100
AcDbEntity
  8
DEFPOINTS
 62
     0
100
AcDbPoint
 10
75.60876167265212
 20
136.4877606971566
 30
0.0
  0
POINT
  5
E7E
330
B0C
100
AcDbEntity
  8
DEFPOINTS
 62
     0
100
AcDbPoint
 10
824.6087616726521
 20
136.4877606971566
 30
0.0
  0
POINT
  5
E7F
330
B0C
100
AcDbEntity
  8
DEFPOINTS
 62
     0
100
AcDbPoint
 10
824.6087616726521
 20
4.999997891950328
 30
0.0
  0
ENDBLK
  5
B0E
330
B0C
100
AcDbEntity
  8
0
100
AcDbBlockEnd
  0
BLOCK
  5
B19
330
B18
100
AcDbEntity
  8
0
100
AcDbBlockBegin
  2
*D31
 70
     1
 10
0.0
 20
0.0
 30
0.0
  3
*D31
  1

  0
LINE
  5
E80
330
B18
100
AcDbEntity
  8
AM_5
  6
ByBlock
100
AcDbLine
 10
829.6087616726508
 20
269.4777606971264
 30
0.0
 11
929.5199673688088
 21
269.4777606971263
 31
0.0
  0
LINE
  5
E81
330
B18
100
AcDbEntity
  8
AM_5
  6
ByBlock
100
AcDbLine
 10
829.6087616726664
 20
136.4877606978862
 30
0.0
 11
929.5199673688086
 21
136.4877606978861
 31
0.0
  0
LINE
  5
E82
330
B18
100
AcDbEntity
  8
AM_5
  6
ByBlock
100
AcDbLine
 10
924.5199673688087
 20
251.9777606971263
 30
0.0
 11
924.5199673688087
 21
153.9877606978861
 31
0.0
  0
SOLID
  5
E83
330
B18
100
AcDbEntity
  8
AM_5
100
AcDbTrace
 10
921.6033007021421
 20
251.9777606971263
 30
0.0
 11
927.4366340354752
 21
251.9777606971263
 31
0.0
 12
924.5199673688087
 22
269.4777606971263
 32
0.0
 13
924.5199673688087
 23
269.4777606971263
 33
0.0
  0
SOLID
  5
E84
330
B18
100
AcDbEntity
  8
AM_5
100
AcDbTrace
 10
921.6033007021421
 20
153.9877606978861
 30
0.0
 11
927.4366340354752
 21
153.9877606978861
 31
0.0
 12
924.5199673688087
 22
136.4877606978861
 32
0.0
 13
924.5199673688087
 23
136.4877606978861
 33
0.0
  0
MTEXT
  5
E85
330
B18
100
AcDbEntity
  8
AM_5
 62
     2
100
AcDbMText
 10
908.2699673688086
 20
207.753720767345
 30
0.0
 40
17.5
 41
0.0
 71
     5
 72
     1
  1
133
 11
0.0000000000000001
 21
1.0
 31
0.0
 73
     1
 44
1.0
1001
ACAD
1000
MTEXTBEGIN
1070
    73
1070
     1
1070
    44
1040
1.0
1070
    74
1070
     0
1000
MTEXTEND
  0
POINT
  5
E86
330
B18
100
AcDbEntity
  8
DEFPOINTS
 62
     0
100
AcDbPoint
 10
824.6087616726509
 20
269.4777606971264
 30
0.0
  0
POINT
  5
E87
330
B18
100
AcDbEntity
  8
DEFPOINTS
 62
     0
100
AcDbPoint
 10
824.6087616726665
 20
136.4877606978862
 30
0.0
  0
POINT
  5
E88
330
B18
100
AcDbEntity
  8
DEFPOINTS
 62
     0
100
AcDbPoint
 10
924.5199673688087
 20
136.4877606978861
 30
0.0
  0
ENDBLK
  5
B1A
330
B18
100
AcDbEntity
  8
0
100
AcDbBlockEnd
  0
BLOCK
  5
B25
330
B24
100
AcDbEntity
  8
0
100
AcDbBlockBegin
  2
*D32
 70
     1
 10
0.0
 20
0.0
 30
0.0
  3
*D32
  1

  0
LINE
  5
E89
330
B24
100
AcDbEntity
  8
AM_5
  6
ByBlock
100
AcDbLine
 10
797.6087616726521
 20
248.4777606971265
 30
0.0
 11
871.2771175827285
 21
248.4777606971265
 31
0.0
  0
LINE
  5
E8A
330
B24
100
AcDbEntity
  8
AM_5
  6
ByBlock
100
AcDbLine
 10
797.608761672649
 20
166.4877606971636
 30
0.0
 11
871.2771175827285
 21
166.4877606971636
 31
0.0
  0
LINE
  5
E8B
330
B24
100
AcDbEntity
  8
AM_5
  6
ByBlock
100
AcDbLine
 10
866.2771175827286
 20
230.9777606971265
 30
0.0
 11
866.2771175827286
 21
183.9877606971635
 31
0.0
  0
SOLID
  5
E8C
330
B24
100
AcDbEntity
  8
AM_5
100
AcDbTrace
 10
863.3604509160619
 20
230.9777606971265
 30
0.0
 11
869.1937842493953
 21
230.9777606971265
 31
0.0
 12
866.2771175827286
 22
248.4777606971265
 32
0.0
 13
866.2771175827286
 23
248.4777606971265
 33
0.0
  0
SOLID
  5
E8D
330
B24
100
AcDbEntity
  8
AM_5
100
AcDbTrace
 10
863.3604509160619
 20
183.9877606971635
 30
0.0
 11
869.1937842493953
 21
183.9877606971635
 31
0.0
 12
866.2771175827286
 22
166.4877606971636
 32
0.0
 13
866.2771175827286
 23
166.4877606971636
 33
0.0
  0
MTEXT
  5
E8E
330
B24
100
AcDbEntity
  8
AM_5
 62
     2
100
AcDbMText
 10
850.0253951417837
 20
209.0552699959379
 30
0.0
 40
17.5
 41
0.0
 71
     5
 72
     1
  1
82
 11
0.0000000000000001
 21
1.0
 31
0.0
 73
     1
 44
1.0
1001
ACAD
1000
MTEXTBEGIN
1070
    73
1070
     1
1070
    44
1040
1.0
1070
    74
1070
     0
1000
MTEXTEND
  0
POINT
  5
E8F
330
B24
100
AcDbEntity
  8
DEFPOINTS
 62
     0
100
AcDbPoint
 10
792.6087616726521
 20
248.4777606971265
 30
0.0
  0
POINT
  5
E90
330
B24
100
AcDbEntity
  8
DEFPOINTS
 62
     0
100
AcDbPoint
 10
792.6087616726491
 20
166.4877606971636
 30
0.0
  0
POINT
  5
E91
330
B24
100
AcDbEntity
  8
DEFPOINTS
 62
     0
100
AcDbPoint
 10
866.2771175827286
 20
166.4877606971636
 30
0.0
  0
ENDBLK
  5
B26
330
B24
100
AcDbEntity
  8
0
100
AcDbBlockEnd
  0
BLOCK
  5
B31
330
B30
100
AcDbEntity
  8
0
100
AcDbBlockBegin
  2
*D33
 70
     1
 10
0.0
 20
0.0
 30
0.0
  3
*D33
  1

  0
LINE
  5
F09
330
B30
100
AcDbEntity
  8
AM_5
  6
ByBlock
100
AcDbLine
 10
469.6087616826789
 20
485.1174468100107
 30
0.0
 11
469.6087616826789
 21
419.9857788156758
 31
0.0
  0
LINE
  5
F0A
330
B30
100
AcDbEntity
  8
AM_5
  6
ByBlock
100
AcDbLine
 10
419.6087616906271
 20
485.1174468529355
 30
0.0
 11
419.6087616906271
 21
419.9857788156758
 31
0.0
  0
LINE
  5
F0B
330
B30
100
AcDbEntity
  8
AM_5
  6
ByBlock
100
AcDbLine
 10
487.1087616826788
 20
424.9857788156758
 30
0.0
 11
504.6087616826788
 21
424.9857788156758
 31
0.0
  0
LINE
  5
F0C
330
B30
100
AcDbEntity
  8
AM_5
  6
ByBlock
100
AcDbLine
 10
402.1087616906271
 20
424.9857788156758
 30
0.0
 11
384.6087616906272
 21
424.9857788156758
 31
0.0
  0
LINE
  5
F0D
330
B30
100
AcDbEntity
  8
AM_5
  6
ByBlock
100
AcDbLine
 10
469.6087616826789
 20
424.9857788156758
 30
0.0
 11
419.6087616906271
 21
424.9857788156758
 31
0.0
  0
SOLID
  5
F0E
330
B30
100
AcDbEntity
  8
AM_5
100
AcDbTrace
 10
487.1087616826788
 20
427.9024454823424
 30
0.0
 11
487.1087616826788
 21
422.0691121490091
 31
0.0
 12
469.6087616826789
 22
424.9857788156758
 32
0.0
 13
469.6087616826789
 23
424.9857788156758
 33
0.0
  0
SOLID
  5
F0F
330
B30
100
AcDbEntity
  8
AM_5
100
AcDbTrace
 10
402.1087616906271
 20
427.9024454823424
 30
0.0
 11
402.1087616906271
 21
422.0691121490091
 31
0.0
 12
419.6087616906271
 22
424.9857788156758
 32
0.0
 13
419.6087616906271
 23
424.9857788156758
 33
0.0
  0
MTEXT
  5
F10
330
B30
100
AcDbEntity
  8
AM_5
 62
     2
100
AcDbMText
 10
444.6087616866529
 20
441.2357788156758
 30
0.0
 40
17.5
 41
0.0
 71
     5
 72
     1
  1
%%c50
 73
     1
 44
1.0
1001
ACAD
1000
MTEXTBEGIN
1070
    73
1070
     1
1070
    44
1040
1.0
1070
    74
1070
     0
1000
MTEXTEND
  0
POINT
  5
F11
330
B30
100
AcDbEntity
  8
DEFPOINTS
 62
     0
100
AcDbPoint
 10
469.6087616826789
 20
490.1174468100107
 30
0.0
  0
POINT
  5
F12
330
B30
100
AcDbEntity
  8
DEFPOINTS
 62
     0
100
AcDbPoint
 10
419.6087616906271
 20
490.1174468529355
 30
0.0
  0
POINT
  5
F13
330
B30
100
AcDbEntity
  8
DEFPOINTS
 62
     0
100
AcDbPoint
 10
419.6087616906271
 20
424.9857788156758
 30
0.0
  0
ENDBLK
  5
B32
330
B30
100
AcDbEntity
  8
0
100
AcDbBlockEnd
  0
BLOCK
  5
B3D
330
B3C
100
AcDbEntity
  8
0
100
AcDbBlockBegin
  2
*D34
 70
     1
 10
0.0
 20
0.0
 30
0.0
  3
*D34
  1

  0
LINE
  5
E9B
330
B3C
100
AcDbEntity
  8
AM_5
  6
ByBlock
100
AcDbLine
 10
798.6087616726521
 20
578.8997610068561
 30
0.0
 11
887.9095479225243
 21
578.8997610068561
 31
0.0
  0
LINE
  5
E9C
330
B3C
100
AcDbEntity
  8
AM_5
  6
ByBlock
100
AcDbLine
 10
797.6087616726521
 20
652.8997610068579
 30
0.0
 11
887.9095479225243
 21
652.8997610068579
 31
0.0
  0
LINE
  5
E9D
330
B3C
100
AcDbEntity
  8
AM_5
  6
ByBlock
100
AcDbLine
 10
882.9095479225244
 20
596.399761006856
 30
0.0
 11
882.9095479225244
 21
635.3997610068579
 31
0.0
  0
SOLID
  5
E9E
330
B3C
100
AcDbEntity
  8
AM_5
100
AcDbTrace
 10
879.9928812558578
 20
596.399761006856
 30
0.0
 11
885.8262145891911
 21
596.399761006856
 31
0.0
 12
882.9095479225244
 22
578.8997610068561
 32
0.0
 13
882.9095479225244
 23
578.8997610068561
 33
0.0
  0
SOLID
  5
E9F
330
B3C
100
AcDbEntity
  8
AM_5
100
AcDbTrace
 10
879.9928812558578
 20
635.3997610068579
 30
0.0
 11
885.8262145891911
 21
635.3997610068579
 31
0.0
 12
882.9095479225244
 22
652.8997610068579
 32
0.0
 13
882.9095479225244
 23
652.8997610068579
 33
0.0
  0
MTEXT
  5
EA0
330
B3C
100
AcDbEntity
  8
AM_5
 62
     2
100
AcDbMText
 10
866.6595479225243
 20
615.8997610068572
 30
0.0
 40
17.5
 41
0.0
 71
     5
 72
     1
  1
74
 11
0.0000000000000001
 21
1.0
 31
0.0
 73
     1
 44
1.0
1001
ACAD
1000
MTEXTBEGIN
1070
    73
1070
     1
1070
    44
1040
1.0
1070
    74
1070
     0
1000
MTEXTEND
  0
POINT
  5
EA1
330
B3C
100
AcDbEntity
  8
DEFPOINTS
 62
     0
100
AcDbPoint
 10
793.6087616726521
 20
578.8997610068561
 30
0.0
  0
POINT
  5
EA2
330
B3C
100
AcDbEntity
  8
DEFPOINTS
 62
     0
100
AcDbPoint
 10
792.6087616726521
 20
652.8997610068579
 30
0.0
  0
POINT
  5
EA3
330
B3C
100
AcDbEntity
  8
DEFPOINTS
 62
     0
100
AcDbPoint
 10
882.9095479225244
 20
652.8997610068579
 30
0.0
  0
ENDBLK
  5
B3E
330
B3C
100
AcDbEntity
  8
0
100
AcDbBlockEnd
  0
BLOCK
  5
B49
330
B48
100
AcDbEntity
  8
0
100
AcDbBlockBegin
  2
*D35
 70
     1
 10
0.0
 20
0.0
 30
0.0
  3
*D35
  1

  0
LINE
  5
EA4
330
B48
100
AcDbEntity
  8
AM_5
  6
ByBlock
100
AcDbLine
 10
96.60876167265215
 20
657.8997610068561
 30
0.0
 11
96.60876167265215
 21
743.6704556222183
 31
0.0
  0
LINE
  5
EA5
330
B48
100
AcDbEntity
  8
AM_5
  6
ByBlock
100
AcDbLine
 10
76.60876167265211
 20
697.8997610068562
 30
0.0
 11
76.60876167265211
 21
743.6704556222183
 31
0.0
  0
LINE
  5
EA6
330
B48
100
AcDbEntity
  8
AM_5
  6
ByBlock
100
AcDbLine
 10
59.10876167265211
 20
738.6704556222183
 30
0.0
 11
41.6087616726521
 21
738.6704556222183
 31
0.0
  0
LINE
  5
EA7
330
B48
100
AcDbEntity
  8
AM_5
  6
ByBlock
100
AcDbLine
 10
114.1087616726521
 20
738.6704556222183
 30
0.0
 11
166.3896865983661
 21
738.6704556222183
 31
0.0
  0
LINE
  5
EA8
330
B48
100
AcDbEntity
  8
AM_5
  6
ByBlock
100
AcDbLine
 10
76.60876167265211
 20
738.6704556222183
 30
0.0
 11
96.60876167265215
 21
738.6704556222183
 31
0.0
  0
SOLID
  5
EA9
330
B48
100
AcDbEntity
  8
AM_5
100
AcDbTrace
 10
59.10876167265211
 20
741.5871222888849
 30
0.0
 11
59.10876167265211
 21
735.7537889555517
 31
0.0
 12
76.60876167265211
 22
738.6704556222183
 32
0.0
 13
76.60876167265211
 23
738.6704556222183
 33
0.0
  0
SOLID
  5
EAA
330
B48
100
AcDbEntity
  8
AM_5
100
AcDbTrace
 10
114.1087616726521
 20
741.5871222888849
 30
0.0
 11
114.1087616726521
 21
735.7537889555517
 31
0.0
 12
96.60876167265215
 22
738.6704556222183
 32
0.0
 13
96.60876167265215
 23
738.6704556222183
 33
0.0
  0
MTEXT
  5
EAB
330
B48
100
AcDbEntity
  8
AM_5
 62
     2
100
AcDbMText
 10
149.0356019526968
 20
754.9221780631632
 30
0.0
 40
17.5
 41
0.0
 71
     5
 72
     1
  1
20
 73
     1
 44
1.0
1001
ACAD
1000
MTEXTBEGIN
1070
    73
1070
     1
1070
    44
1040
1.0
1070
    74
1070
     0
1000
MTEXTEND
  0
POINT
  5
EAC
330
B48
100
AcDbEntity
  8
DEFPOINTS
 62
     0
100
AcDbPoint
 10
96.60876167265215
 20
652.8997610068561
 30
0.0
  0
POINT
  5
EAD
330
B48
100
AcDbEntity
  8
DEFPOINTS
 62
     0
100
AcDbPoint
 10
76.60876167265211
 20
692.8997610068562
 30
0.0
  0
POINT
  5
EAE
330
B48
100
AcDbEntity
  8
DEFPOINTS
 62
     0
100
AcDbPoint
 10
76.60876167265211
 20
738.6704556222183
 30
0.0
  0
ENDBLK
  5
B4A
330
B48
100
AcDbEntity
  8
0
100
AcDbBlockEnd
  0
BLOCK
  5
B57
330
B56
100
AcDbEntity
  8
0
100
AcDbBlockBegin
  2
*D36
 70
     1
 10
0.0
 20
0.0
 30
0.0
  3
*D36
  1

  0
LINE
  5
EAF
330
B56
100
AcDbEntity
  8
AM_5
  6
ByBlock
100
AcDbLine
 10
70.60876167265212
 20
692.8997610068562
 30
0.0
 11
19.1318896954109
 21
692.8997610068562
 31
0.0
  0
LINE
  5
EB0
330
B56
100
AcDbEntity
  8
AM_5
  6
ByBlock
100
AcDbLine
 10
72.60876167265212
 20
652.8997610068561
 30
0.0
 11
19.13188969541089
 21
652.8997610068561
 31
0.0
  0
LINE
  5
EB1
330
B56
100
AcDbEntity
  8
AM_5
  6
ByBlock
100
AcDbLine
 10
24.13188969541091
 20
710.3997610068562
 30
0.0
 11
24.13188969541091
 21
727.8997610068562
 31
0.0
  0
LINE
  5
EB2
330
B56
100
AcDbEntity
  8
AM_5
  6
ByBlock
100
AcDbLine
 10
24.13188969541089
 20
635.3997610068561
 30
0.0
 11
24.13188969541089
 21
617.8997610068561
 31
0.0
  0
LINE
  5
EB3
330
B56
100
AcDbEntity
  8
AM_5
  6
ByBlock
100
AcDbLine
 10
24.1318896954109
 20
692.8997610068562
 30
0.0
 11
24.13188969541089
 21
652.8997610068561
 31
0.0
  0
SOLID
  5
EB4
330
B56
100
AcDbEntity
  8
AM_5
100
AcDbTrace
 10
21.21522302874424
 20
710.3997610068562
 30
0.0
 11
27.04855636207757
 21
710.3997610068562
 31
0.0
 12
24.1318896954109
 22
692.8997610068562
 32
0.0
 13
24.1318896954109
 23
692.8997610068562
 33
0.0
  0
SOLID
  5
EB5
330
B56
100
AcDbEntity
  8
AM_5
100
AcDbTrace
 10
21.21522302874423
 20
635.3997610068561
 30
0.0
 11
27.04855636207756
 21
635.3997610068561
 31
0.0
 12
24.13188969541089
 22
652.8997610068561
 32
0.0
 13
24.13188969541089
 23
652.8997610068561
 33
0.0
  0
MTEXT
  5
EB6
330
B56
100
AcDbEntity
  8
AM_5
 62
     2
100
AcDbMText
 10
7.881889695410789
 20
672.8997610068561
 30
0.0
 40
17.5
 41
0.0
 71
     5
 72
     1
  1
40
 11
0.0000000000000001
 21
1.0
 31
0.0
 73
     1
 44
1.0
1001
ACAD
1000
MTEXTBEGIN
1070
    73
1070
     1
1070
    44
1040
1.0
1070
    74
1070
     0
1000
MTEXTEND
  0
POINT
  5
EB7
330
B56
100
AcDbEntity
  8
DEFPOINTS
 62
     0
100
AcDbPoint
 10
75.60876167265212
 20
692.8997610068562
 30
0.0
  0
POINT
  5
EB8
330
B56
100
AcDbEntity
  8
DEFPOINTS
 62
     0
100
AcDbPoint
 10
77.60876167265212
 20
652.8997610068561
 30
0.0
  0
POINT
  5
EB9
330
B56
100
AcDbEntity
  8
DEFPOINTS
 62
     0
100
AcDbPoint
 10
24.13188969541089
 20
652.8997610068561
 30
0.0
  0
ENDBLK
  5
B58
330
B56
100
AcDbEntity
  8
0
100
AcDbBlockEnd
  0
BLOCK
  5
B65
330
B64
100
AcDbEntity
  8
0
100
AcDbBlockBegin
  2
*D37
 70
     1
 10
0.0
 20
0.0
 30
0.0
  3
*D37
  1

  0
LINE
  5
EBA
330
B64
100
AcDbEntity
  8
AM_5
  6
ByBlock
100
AcDbLine
 10
824.6087616726521
 20
697.8997610068562
 30
0.0
 11
824.6087616726521
 21
738.2013886017801
 31
0.0
  0
LINE
  5
EBB
330
B64
100
AcDbEntity
  8
AM_5
  6
ByBlock
100
AcDbLine
 10
792.6087616726521
 20
657.8997610068579
 30
0.0
 11
792.6087616726521
 21
738.2013886017801
 31
0.0
  0
LINE
  5
EBC
330
B64
100
AcDbEntity
  8
AM_5
  6
ByBlock
100
AcDbLine
 10
775.1087616726521
 20
733.2013886017802
 30
0.0
 11
757.6087616726521
 21
733.2013886017802
 31
0.0
  0
LINE
  5
EBD
330
B64
100
AcDbEntity
  8
AM_5
  6
ByBlock
100
AcDbLine
 10
842.108761672652
 20
733.2013886017802
 30
0.0
 11
895.3422773636541
 21
733.2013886017802
 31
0.0
  0
LINE
  5
EBE
330
B64
100
AcDbEntity
  8
AM_5
  6
ByBlock
100
AcDbLine
 10
792.6087616726521
 20
733.2013886017802
 30
0.0
 11
824.6087616726521
 21
733.2013886017802
 31
0.0
  0
SOLID
  5
EBF
330
B64
100
AcDbEntity
  8
AM_5
100
AcDbTrace
 10
775.1087616726521
 20
736.1180552684468
 30
0.0
 11
775.1087616726521
 21
730.2847219351136
 31
0.0
 12
792.6087616726521
 22
733.2013886017802
 32
0.0
 13
792.6087616726521
 23
733.2013886017802
 33
0.0
  0
SOLID
  5
EC0
330
B64
100
AcDbEntity
  8
AM_5
100
AcDbTrace
 10
842.108761672652
 20
736.1180552684468
 30
0.0
 11
842.108761672652
 21
730.2847219351136
 31
0.0
 12
824.6087616726521
 22
733.2013886017802
 32
0.0
 13
824.6087616726521
 23
733.2013886017802
 33
0.0
  0
MTEXT
  5
EC1
330
B64
100
AcDbEntity
  8
AM_5
 62
     2
100
AcDbMText
 10
877.6917606313707
 20
749.453111042725
 30
0.0
 40
17.5
 41
0.0
 71
     5
 72
     1
  1
32
 73
     1
 44
1.0
1001
ACAD
1000
MTEXTBEGIN
1070
    73
1070
     1
1070
    44
1040
1.0
1070
    74
1070
     0
1000
MTEXTEND
  0
POINT
  5
EC2
330
B64
100
AcDbEntity
  8
DEFPOINTS
 62
     0
100
AcDbPoint
 10
824.6087616726521
 20
692.8997610068562
 30
0.0
  0
POINT
  5
EC3
330
B64
100
AcDbEntity
  8
DEFPOINTS
 62
     0
100
AcDbPoint
 10
792.6087616726521
 20
652.8997610068579
 30
0.0
  0
POINT
  5
EC4
330
B64
100
AcDbEntity
  8
DEFPOINTS
 62
     0
100
AcDbPoint
 10
792.6087616726521
 20
733.2013886017802
 30
0.0
  0
ENDBLK
  5
B66
330
B64
100
AcDbEntity
  8
0
100
AcDbBlockEnd
  0
BLOCK
  5
C40
330
C3F
100
AcDbEntity
  8
0
100
AcDbBlockBegin
  2
*D38
 70
     1
 10
0.0
 20
0.0
 30
0.0
  3
*D38
  1

  0
LINE
  5
EC5
330
C3F
100
AcDbEntity
  8
AM_5
  6
ByBlock
100
AcDbLine
 10
91.60876167266669
 20
248.4777606971265
 30
0.0
 11
5.01532262900862
 21
248.4777606971265
 31
0.0
  0
LINE
  5
EC6
330
C3F
100
AcDbEntity
  8
AM_5
  6
ByBlock
100
AcDbLine
 10
71.60876167265097
 20
268.4777606971264
 30
0.0
 11
5.015322629008625
 21
268.4777606971264
 31
0.0
  0
LINE
  5
EC7
330
C3F
100
AcDbEntity
  8
AM_5
  6
ByBlock
100
AcDbLine
 10
10.01532262900863
 20
285.9777606971264
 30
0.0
 11
10.01532262900863
 21
303.4777606971264
 31
0.0
  0
LINE
  5
EC8
330
C3F
100
AcDbEntity
  8
AM_5
  6
ByBlock
100
AcDbLine
 10
10.01532262900862
 20
230.9777606971266
 30
0.0
 11
10.0153226290086
 21
176.2201538240807
 31
0.0
  0
LINE
  5
EC9
330
C3F
100
AcDbEntity
  8
AM_5
  6
ByBlock
100
AcDbLine
 10
10.01532262900862
 20
268.4777606971264
 30
0.0
 11
10.01532262900862
 21
248.4777606971265
 31
0.0
  0
SOLID
  5
ECA
330
C3F
100
AcDbEntity
  8
AM_5
100
AcDbTrace
 10
7.098655962341964
 20
285.9777606971264
 30
0.0
 11
12.9319892956753
 21
285.9777606971264
 31
0.0
 12
10.01532262900862
 22
268.4777606971264
 32
0.0
 13
10.01532262900862
 23
268.4777606971264
 33
0.0
  0
SOLID
  5
ECB
330
C3F
100
AcDbEntity
  8
AM_5
100
AcDbTrace
 10
7.098655962341952
 20
230.9777606971266
 30
0.0
 11
12.93198929567528
 21
230.9777606971266
 31
0.0
 12
10.01532262900862
 22
248.4777606971265
 32
0.0
 13
10.01532262900862
 23
248.4777606971265
 33
0.0
  0
MTEXT
  5
ECC
330
C3F
100
AcDbEntity
  8
AM_5
 62
     2
100
AcDbMText
 10
-6.236399811936302
 20
193.57423846975
 30
0.0
 40
17.5
 41
0.0
 71
     5
 72
     1
  1
20
 11
0.0000000000000001
 21
1.0
 31
0.0
 73
     1
 44
1.0
1001
ACAD
1000
MTEXTBEGIN
1070
    73
1070
     1
1070
    44
1040
1.0
1070
    74
1070
     0
1000
MTEXTEND
  0
POINT
  5
ECD
330
C3F
100
AcDbEntity
  8
DEFPOINTS
 62
     0
100
AcDbPoint
 10
96.60876167266669
 20
248.4777606971265
 30
0.0
  0
POINT
  5
ECE
330
C3F
100
AcDbEntity
  8
DEFPOINTS
 62
     0
100
AcDbPoint
 10
76.60876167265097
 20
268.4777606971264
 30
0.0
  0
POINT
  5
ECF
330
C3F
100
AcDbEntity
  8
DEFPOINTS
 62
     0
100
AcDbPoint
 10
10.01532262900862
 20
268.4777606971264
 30
0.0
  0
ENDBLK
  5
C41
330
C3F
100
AcDbEntity
  8
0
100
AcDbBlockEnd
  0
ENDSEC
  0
SECTION
  2
ENTITIES
  0
LINE
  5
A81
330
1F
100
AcDbEntity
  8
RUNDUNGEN
  6
Continuous
 62
     7
100
AcDbLine
 10
96.60876167265215
 20
633.2214173012587
 30
0.0
 11
96.60876167265215
 21
638.8997610068577
 31
0.0
  0
LINE
  5
A82
330
1F
100
AcDbEntity
  8
0
  6
Continuous
 62
     7
100
AcDbLine
 10
96.60876167265215
 20
638.8997610068577
 30
0.0
 11
96.60876167265215
 21
639.8997610068561
 31
0.0
  0
LINE
  5
A83
330
1F
100
AcDbEntity
  8
RUNDUNGEN
  6
Continuous
 62
     7
100
AcDbLine
 10
96.60876167265215
 20
639.8997610068561
 30
0.0
 11
96.60876167265215
 21
652.8997610068579
 31
0.0
  0
LINE
  5
A84
330
1F
100
AcDbEntity
  8
RUNDUNGEN
  6
Continuous
 62
     7
100
AcDbLine
 10
77.60876167265212
 20
652.8997610068561
 30
0.0
 11
792.6087616726521
 21
652.8997610068579
 31
0.0
  0
LINE
  5
A85
330
1F
100
AcDbEntity
  8
0
  6
Continuous
 62
     7
100
AcDbLine
 10
793.6087616726521
 20
639.8997610068561
 30
0.0
 11
95.60876167265213
 21
639.8997610068589
 31
0.0
  0
LINE
  5
A86
330
1F
100
AcDbEntity
  8
0
  6
Continuous
 62
     7
100
AcDbLine
 10
793.6087616726521
 20
638.8997610068577
 30
0.0
 11
95.60876167265213
 21
638.8997610068562
 31
0.0
  0
LINE
  5
A87
330
1F
100
AcDbEntity
  8
RUNDUNGEN
  6
Continuous
 62
     9
100
AcDbLine
 10
96.60876167266669
 20
636.8237027846606
 30
0.0
 11
792.6087616726521
 21
636.8237027846579
 31
0.0
  0
LINE
  5
A88
330
1F
100
AcDbEntity
  8
RUNDUNGEN
  6
Continuous
 62
     7
100
AcDbLine
 10
792.6087616726666
 20
633.2214173012587
 30
0.0
 11
483.0803125974502
 21
633.2214173012587
 31
0.0
  0
LINE
  5
A89
330
1F
100
AcDbEntity
  8
RUNDUNGEN
  6
Continuous
 62
     7
100
AcDbLine
 10
406.1372107478648
 20
633.2214173012587
 30
0.0
 11
96.60876167266669
 21
633.2214173012587
 31
0.0
  0
LINE
  5
A8A
102
{ACAD_REACTORS
330
AF4
102
}
330
1F
100
AcDbEntity
  8
RUNDUNGEN
  6
Continuous
 62
     7
100
AcDbLine
 10
792.6087616726521
 20
652.8997610068579
 30
0.0
 11
792.6087616726521
 21
639.8997610068561
 31
0.0
  0
LINE
  5
A8B
330
1F
100
AcDbEntity
  8
RUNDUNGEN
  6
Continuous
 62
     7
100
AcDbLine
 10
792.6087616726521
 20
638.8997610068577
 30
0.0
 11
792.6087616726521
 21
633.2214173012587
 31
0.0
  0
LINE
  5
A8C
330
1F
100
AcDbEntity
  8
RUNDUNGEN
  6
Continuous
 62
     7
100
AcDbLine
 10
96.60876167266669
 20
136.4877606971566
 30
0.0
 11
96.6087616726535
 21
268.4777606971264
 31
0.0
  0
LINE
  5
A8D
330
1F
100
AcDbEntity
  8
0
  6
Continuous
 62
     7
100
AcDbLine
 10
792.6087616726507
 20
269.4777606971282
 30
0.0
 11
96.60876167265101
 21
269.4777606971264
 31
0.0
  0
LINE
  5
A8E
330
1F
100
AcDbEntity
  8
0
  6
Continuous
 62
     7
100
AcDbLine
 10
792.6087616726507
 20
268.4777606971284
 30
0.0
 11
96.60876167265101
 21
268.4777606971264
 31
0.0
  0
LINE
  5
A90
330
1F
100
AcDbEntity
  8
RUNDUNGEN
  6
Continuous
 62
     7
100
AcDbLine
 10
96.60876167266669
 20
248.4777606971265
 30
0.0
 11
792.6087616726521
 21
248.4777606971265
 31
0.0
  0
LINE
  5
A91
330
1F
100
AcDbEntity
  8
RUNDUNGEN
  6
Continuous
 62
     7
100
AcDbLine
 10
96.60876167266669
 20
208.4877606964864
 30
0.0
 11
406.6089865585649
 21
208.4877606967856
 31
0.0
  0
LINE
  5
A92
330
1F
100
AcDbEntity
  8
RUNDUNGEN
  6
Continuous
 62
     7
100
AcDbLine
 10
482.1087616726519
 20
208.4877606959853
 30
0.0
 11
792.6087616726521
 21
208.4877606964864
 31
0.0
  0
LINE
  5
A93
330
1F
100
AcDbEntity
  8
RUNDUNGEN
  6
Continuous
 62
     7
100
AcDbLine
 10
96.60876167266669
 20
168.4977606971295
 30
0.0
 11
792.6087616726521
 21
168.4977606971304
 31
0.0
  0
LINE
  5
A94
330
1F
100
AcDbEntity
  8
RUNDUNGEN
  6
Continuous
 62
     7
100
AcDbLine
 10
96.60876167266669
 20
166.4877606971284
 30
0.0
 11
792.6087616726521
 21
166.4877606971284
 31
0.0
  0
LINE
  5
A95
330
1F
100
AcDbEntity
  8
0
  6
Continuous
 62
     7
100
AcDbLine
 10
792.6087616726521
 20
136.4877606971566
 30
0.0
 11
96.60876167266669
 21
136.4877606971566
 31
0.0
  0
LINE
  5
A96
330
1F
100
AcDbEntity
  8
RUNDUNGEN
  6
Continuous
 62
     7
100
AcDbLine
 10
792.6087616726797
 20
268.4777606971263
 30
0.0
 11
792.6087616726521
 21
136.4877606971566
 31
0.0
  0
LINE
  5
A97
330
1F
100
AcDbEntity
  8
RUNDUNGEN
  6
Continuous
 62
     7
100
AcDbLine
 10
407.1230211710512
 20
208.4877606901863
 30
0.0
 11
407.1087616726519
 21
208.4877606903873
 31
0.0
  0
LINE
  5
A98
330
1F
100
AcDbEntity
  8
RUNDUNGEN
  6
Continuous
 62
     7
100
AcDbLine
 10
407.1087616726519
 20
208.4877606903873
 30
0.0
 11
406.6089865585649
 21
208.4877606961853
 31
0.0
  0
LINE
  5
A99
330
1F
100
AcDbEntity
  8
RUNDUNGEN
  6
Continuous
 62
     7
100
AcDbLine
 10
482.0945021743656
 20
208.4877607026863
 30
0.0
 11
482.1087616726519
 21
208.4877607024873
 31
0.0
  0
LINE
  5
A9A
330
1F
100
AcDbEntity
  8
AM_7
100
AcDbLine
 10
444.6087616726519
 20
595.0881936080327
 30
0.0
 11
444.6087616726519
 21
664.8997610068581
 31
0.0
1001
GENIUS_GENOBJ-N-CEN_13
1002
{
1000
OWNER
1000
GEN
1002
}
1001
GENIUS_GENODEF_13
1002
{
1000
HIER
1070
     0
1002
}
1002
{
1000
MANEDIT
1070
     0
1002
}
1002
{
1000
NOSEL
1070
     0
1002
}
1002
{
1000
BEHIND
1070
     0
1002
}
1002
{
1000
OTHER
1070
     0
1002
}
1002
{
1000
REACTOR
1002
}
1001
GENIUS_GENCEN_19
1002
{
1040
12.0
1002
}
  0
LINE
  5
A9B
330
1F
100
AcDbEntity
  8
0
100
AcDbLine
 10
792.6087616726654
 20
268.4777606971264
 30
0.0
 11
792.6087616726521
 21
136.4877606971566
 31
0.0
  0
LINE
  5
A9C
330
1F
100
AcDbEntity
  8
0
100
AcDbLine
 10
96.60876167266669
 20
136.4877606971566
 30
0.0
 11
96.60876167265335
 21
268.4777606971264
 31
0.0
  0
LINE
  5
A9D
330
1F
100
AcDbEntity
  8
0
100
AcDbLine
 10
407.1367943966007
 20
632.2502708829177
 30
0.0
 11
407.6087616726518
 21
615.8997610068579
 31
0.0
  0
ARC
  5
A9E
330
1F
100
AcDbEntity
  8
0
100
AcDbCircle
 10
406.1372107478648
 20
632.2214173012597
 30
0.0
 40
1.0
100
AcDbArc
 50
1.653417926860614
 51
90.0
  0
LINE
  5
A9F
330
1F
100
AcDbEntity
  8
0
100
AcDbLine
 10
407.6087616726518
 20
615.8997610068579
 30
0.0
 11
481.6087616726519
 21
615.8997610068579
 31
0.0
  0
LINE
  5
AA0
330
1F
100
AcDbEntity
  8
0
100
AcDbLine
 10
481.6087616726519
 20
615.8997610068579
 30
0.0
 11
482.0807289487142
 21
632.2502708829177
 31
0.0
  0
ARC
  5
AA1
330
1F
100
AcDbEntity
  8
0
100
AcDbCircle
 10
483.0803125974502
 20
632.2214173012597
 30
0.0
 40
1.0
100
AcDbArc
 50
90.0
 51
178.3465820731393
  0
ARC
  5
AA2
330
1F
100
AcDbEntity
  8
0
100
AcDbCircle
 10
444.3552742910155
 20
432.2962447819588
 30
0.0
 40
204.5276150863223
100
AcDbArc
 50
89.92898875367945
 51
100.7696033285289
  0
ARC
  5
AA3
330
1F
100
AcDbEntity
  8
0
100
AcDbCircle
 10
444.862249054296
 20
432.2962447819588
 30
0.0
 40
204.5276150863223
100
AcDbArc
 50
79.23039667147104
 51
90.07101124611207
  0
LINE
  5
AA4
330
1F
100
AcDbEntity
  8
RUNDUNGEN
  6
Continuous
 62
     7
100
AcDbLine
 10
792.6087616726521
 20
555.8997610068579
 30
0.0
 11
792.6087616726666
 21
638.899761006859
 31
0.0
  0
LINE
  5
AA5
330
1F
100
AcDbEntity
  8
RUNDUNGEN
  6
Continuous
 62
     7
100
AcDbLine
 10
792.6087616726666
 20
639.8997610068561
 30
0.0
 11
792.6087616726521
 21
651.8997610068582
 31
0.0
  0
LINE
  5
AA6
330
1F
100
AcDbEntity
  8
0
  6
Continuous
 62
     9
100
AcDbLine
 10
793.6087616726521
 20
651.8997610068582
 30
0.0
 11
793.6087616726521
 21
640.9089646800582
 31
0.0
  0
LINE
  5
AA7
330
1F
100
AcDbEntity
  8
RUNDUNGEN
  6
Continuous
 62
     7
100
AcDbLine
 10
793.6087616726521
 20
578.8997610068561
 30
0.0
 11
793.6087616726521
 21
638.8997610068577
 31
0.0
  0
LINE
  5
AA8
330
1F
100
AcDbEntity
  8
RUNDUNGEN
  6
Continuous
 62
     7
100
AcDbLine
 10
793.6087616726521
 20
639.8997610068561
 30
0.0
 11
793.6087616726521
 21
640.9089646800582
 31
0.0
  0
LINE
  5
AA9
330
1F
100
AcDbEntity
  8
RUNDUNGEN
  6
Continuous
 62
     7
100
AcDbLine
 10
794.6087616726521
 20
640.8997610068587
 30
0.0
 11
794.6087616726521
 21
651.8997610068582
 31
0.0
  0
LINE
  5
AAA
330
1F
100
AcDbEntity
  8
0
  6
Continuous
 62
     7
100
AcDbLine
 10
824.6087616726521
 20
692.8997610068562
 30
0.0
 11
824.6087616726521
 21
638.8997610068577
 31
0.0
  0
LINE
  5
AAB
330
1F
100
AcDbEntity
  8
RUNDUNGEN
  6
Continuous
 62
     7
100
AcDbLine
 10
792.6087616726521
 20
622.8997610068581
 30
0.0
 11
793.6087616726521
 21
622.8997610068581
 31
0.0
  0
LINE
  5
AAC
330
1F
100
AcDbEntity
  8
0
  6
Continuous
 62
     7
100
AcDbLine
 10
824.6087616726521
 20
638.8997610068577
 30
0.0
 11
793.6087616726521
 21
638.8997610068577
 31
0.0
  0
LINE
  5
AAD
330
1F
100
AcDbEntity
  8
RUNDUNGEN
  6
Continuous
 62
     7
100
AcDbLine
 10
793.6087616726521
 20
639.8997610068561
 30
0.0
 11
824.6087616726521
 21
639.8997610068561
 31
0.0
  0
LINE
  5
AAE
330
1F
100
AcDbEntity
  8
RUNDUNGEN
  6
Continuous
 62
     7
100
AcDbLine
 10
794.6087616726521
 20
640.8997610068587
 30
0.0
 11
793.6087616726521
 21
640.8997610068587
 31
0.0
  0
LINE
  5
AAF
330
1F
100
AcDbEntity
  8
RUNDUNGEN
  6
Continuous
 62
     7
100
AcDbLine
 10
794.6087616726521
 20
641.9089646800584
 30
0.0
 11
793.6087616726521
 21
641.9089646800584
 31
0.0
  0
LINE
  5
AB0
330
1F
100
AcDbEntity
  8
RUNDUNGEN
  6
Continuous
 62
     7
100
AcDbLine
 10
794.6087616726521
 20
642.9089646800584
 30
0.0
 11
793.6087616726521
 21
642.9089646800584
 31
0.0
  0
LINE
  5
AB1
330
1F
100
AcDbEntity
  8
RUNDUNGEN
  6
Continuous
 62
     7
100
AcDbLine
 10
794.6087616726521
 20
651.8997610068582
 30
0.0
 11
792.6087616726521
 21
651.8997610068582
 31
0.0
  0
ARC
  5
AB2
330
1F
100
AcDbEntity
  8
0
  6
Continuous
 62
     7
100
AcDbCircle
 10
795.6087616726521
 20
640.8997610068587
 30
0.0
 40
2.0
100
AcDbArc
 50
180.0
 51
210.0383073755381
  0
ARC
  5
AB3
330
1F
100
AcDbEntity
  8
RUNDUNGEN
  6
Continuous
 62
     7
100
AcDbCircle
 10
795.6087616726521
 20
640.8997610068587
 30
0.0
 40
1.0
100
AcDbArc
 50
180.0
 51
270.0
  0
ARC
  5
AB4
330
1F
100
AcDbEntity
  8
RUNDUNGEN
  6
Continuous
 62
     7
100
AcDbCircle
 10
793.6087616726521
 20
651.8997610068582
 30
0.0
 40
1.0
100
AcDbArc
 50
0.0
 51
180.0
  0
LINE
  5
AB5
330
1F
100
AcDbEntity
  8
0
100
AcDbLine
 10
792.6087616726521
 20
136.4877606971566
 30
0.0
 11
824.6087616726521
 21
136.4877606971566
 31
0.0
  0
LINE
  5
AB6
330
1F
100
AcDbEntity
  8
0
100
AcDbLine
 10
794.6087616726521
 20
248.8777606971261
 30
0.0
 11
794.6087616726521
 21
168.097760697129
 31
0.0
  0
LINE
  5
AB7
330
1F
100
AcDbEntity
  8
0
100
AcDbLine
 10
824.6087616726521
 20
136.4877606971566
 30
0.0
 11
824.6087616726509
 21
269.477760697088
 31
0.0
  0
LINE
  5
AB8
330
1F
100
AcDbEntity
  8
0
100
AcDbLine
 10
794.6087616726521
 20
248.8777606971261
 30
0.0
 11
792.6087616726521
 21
248.8777606971261
 31
0.0
  0
LINE
  5
AB9
330
1F
100
AcDbEntity
  8
0
100
AcDbLine
 10
792.6087616726507
 20
269.4777606971264
 30
0.0
 11
824.6087616726509
 21
269.4777606971264
 31
0.0
  0
LINE
  5
ABA
330
1F
100
AcDbEntity
  8
0
100
AcDbLine
 10
792.6087616726507
 20
268.4777606971264
 30
0.0
 11
824.6087616726509
 21
268.4777606971264
 31
0.0
  0
LINE
  5
ABB
330
1F
100
AcDbEntity
  8
0
100
AcDbLine
 10
794.6087616726521
 20
168.097760697129
 30
0.0
 11
792.6087616726521
 21
168.097760697129
 31
0.0
  0
LINE
  5
ABC
330
1F
100
AcDbEntity
  8
0
100
AcDbLine
 10
96.60876167265215
 20
136.4877606971566
 30
0.0
 11
75.60876167265212
 21
136.4877606971566
 31
0.0
  0
LINE
  5
ABE
330
1F
100
AcDbEntity
  8
0
100
AcDbLine
 10
75.60876167265212
 20
136.4877606971566
 30
0.0
 11
75.60876167265099
 21
269.4777606971264
 31
0.0
  0
LINE
  5
ABF
330
1F
100
AcDbEntity
  8
0
100
AcDbLine
 10
76.60876167265211
 20
136.4877606971566
 30
0.0
 11
76.60876167265097
 21
268.4777606971264
 31
0.0
  0
LINE
  5
AC1
330
1F
100
AcDbEntity
  8
0
100
AcDbLine
 10
96.60876167265101
 20
269.4777606971264
 30
0.0
 11
75.60876167265099
 21
269.4777606971264
 31
0.0
  0
LINE
  5
AC2
330
1F
100
AcDbEntity
  8
0
100
AcDbLine
 10
96.60876167265101
 20
268.4777606971264
 30
0.0
 11
76.60876167265097
 21
268.4777606971264
 31
0.0
  0
LINE
  5
AC4
330
1F
100
AcDbEntity
  8
RUNDUNGEN
  6
Continuous
 62
     7
100
AcDbLine
 10
96.60876167265215
 20
555.8997610068579
 30
0.0
 11
96.60876167265215
 21
633.2214173012587
 31
0.0
  0
LINE
  5
AC5
330
1F
100
AcDbEntity
  8
0
  6
Continuous
 62
     9
100
AcDbLine
 10
95.60876167265213
 20
651.8997610068582
 30
0.0
 11
95.60876167265213
 21
640.9089646800582
 31
0.0
  0
LINE
  5
AC6
330
1F
100
AcDbEntity
  8
RUNDUNGEN
  6
Continuous
 62
     7
100
AcDbLine
 10
95.60876167265213
 20
578.8997610068587
 30
0.0
 11
95.60876167265213
 21
638.8997610068577
 31
0.0
  0
LINE
  5
AC7
330
1F
100
AcDbEntity
  8
RUNDUNGEN
  6
Continuous
 62
     7
100
AcDbLine
 10
94.60876167265213
 20
640.8997610068587
 30
0.0
 11
94.60876167265213
 21
651.8997610068582
 31
0.0
  0
LINE
  5
AC8
102
{ACAD_REACTORS
330
AF7
102
}
330
1F
100
AcDbEntity
  8
0
  6
Continuous
 62
     7
100
AcDbLine
 10
76.60876167265211
 20
692.8997610068562
 30
0.0
 11
76.60876167265211
 21
653.8997610068562
 31
0.0
  0
LINE
  5
AC9
330
1F
100
AcDbEntity
  8
0
  6
Continuous
 62
     7
100
AcDbLine
 10
76.60876167265211
 20
652.1677101992892
 30
0.0
 11
76.60876167265211
 21
639.8997610068561
 31
0.0
  0
LINE
  5
ACA
330
1F
100
AcDbEntity
  8
0
  6
Continuous
 62
     7
100
AcDbLine
 10
75.60876167265212
 20
692.8997610068562
 30
0.0
 11
75.60876167265212
 21
638.8997610068577
 31
0.0
  0
LINE
  5
ACB
330
1F
100
AcDbEntity
  8
RUNDUNGEN
  6
Continuous
 62
     7
100
AcDbLine
 10
96.60876167265215
 20
622.8997610068581
 30
0.0
 11
95.60876167265213
 21
622.8997610068581
 31
0.0
  0
LINE
  5
ACC
330
1F
100
AcDbEntity
  8
0
  6
Continuous
 62
     7
100
AcDbLine
 10
75.60876167265212
 20
638.8997610068577
 30
0.0
 11
95.60876167265213
 21
638.8997610068577
 31
0.0
  0
LINE
  5
ACD
330
1F
100
AcDbEntity
  8
RUNDUNGEN
  6
Continuous
 62
     7
100
AcDbLine
 10
95.60876167265213
 20
639.8997610068561
 30
0.0
 11
76.60876167265211
 21
639.8997610068561
 31
0.0
  0
LINE
  5
ACE
330
1F
100
AcDbEntity
  8
RUNDUNGEN
  6
Continuous
 62
     7
100
AcDbLine
 10
94.60876167265213
 20
640.8997610068587
 30
0.0
 11
95.60876167265213
 21
640.8997610068587
 31
0.0
  0
LINE
  5
ACF
330
1F
100
AcDbEntity
  8
RUNDUNGEN
  6
Continuous
 62
     7
100
AcDbLine
 10
94.60876167265213
 20
641.9089646800584
 30
0.0
 11
95.60876167265213
 21
641.9089646800584
 31
0.0
  0
LINE
  5
AD0
330
1F
100
AcDbEntity
  8
RUNDUNGEN
  6
Continuous
 62
     7
100
AcDbLine
 10
94.60876167265213
 20
642.9089646800584
 30
0.0
 11
95.60876167265213
 21
642.9089646800584
 31
0.0
  0
LINE
  5
AD1
330
1F
100
AcDbEntity
  8
RUNDUNGEN
  6
Continuous
 62
     7
100
AcDbLine
 10
77.60876167265212
 20
651.8997610068582
 30
0.0
 11
94.60876167265213
 21
651.8997610068582
 31
0.0
  0
ARC
  5
AD2
330
1F
100
AcDbEntity
  8
0
  6
Continuous
 62
     7
100
AcDbCircle
 10
93.60876167265216
 20
640.8997610068587
 30
0.0
 40
2.0
100
AcDbArc
 50
329.9616926244619
 51
0.0
  0
ARC
  5
AD3
330
1F
100
AcDbEntity
  8
RUNDUNGEN
  6
Continuous
 62
     7
100
AcDbCircle
 10
93.60876167265216
 20
640.8997610068587
 30
0.0
 40
1.0
100
AcDbArc
 50
270.0
 51
0.0
  0
ARC
  5
AD4
330
1F
100
AcDbEntity
  8
RUNDUNGEN
  6
Continuous
 62
     7
100
AcDbCircle
 10
95.60876167265213
 20
651.8997610068582
 30
0.0
 40
1.0
100
AcDbArc
 50
0.0
 51
180.0
  0
INSERT
  5
ADA
330
1F
100
AcDbEntity
  8
5
  6
ByBlock
100
AcDbBlockReference
  2
stutzen
 10
-150.7604745714985
 20
267.8275486456823
 30
0.0
 41
0.1000000000021828
 42
0.1000000000003638
 43
0.1
  0
LINE
  5
ADC
330
1F
100
AcDbEntity
  8
0
100
AcDbLine
 10
729.6087616726521
 20
533.4043628434591
 30
0.0
 11
789.6087616726521
 21
533.4043628434591
 31
0.0
  0
LINE
  5
ADD
330
1F
100
AcDbEntity
  8
0
100
AcDbLine
 10
789.6087616726521
 20
533.4043628434591
 30
0.0
 11
789.6087616726521
 21
598.404362843459
 31
0.0
  0
LINE
  5
ADE
330
1F
100
AcDbEntity
  8
0
100
AcDbLine
 10
789.6087616726521
 20
598.404362843459
 30
0.0
 11
792.6087616726521
 21
598.404362843459
 31
0.0
  0
LINE
  5
ADF
330
1F
100
AcDbEntity
  8
0
100
AcDbLine
 10
792.6087616726521
 20
598.404362843459
 30
0.0
 11
792.6087616726521
 21
530.4043628434591
 31
0.0
  0
LINE
  5
AE0
330
1F
100
AcDbEntity
  8
0
100
AcDbLine
 10
792.6087616726521
 20
530.4043628434591
 30
0.0
 11
729.6087616726521
 21
530.4043628434591
 31
0.0
  0
LINE
  5
AE1
330
1F
100
AcDbEntity
  8
0
100
AcDbLine
 10
729.6087616726521
 20
530.4043628434591
 30
0.0
 11
729.6087616726521
 21
533.4043628434591
 31
0.0
  0
LINE
  5
AE2
330
1F
100
AcDbEntity
  8
0
100
AcDbLine
 10
159.6087616726521
 20
529.5605891540572
 30
0.0
 11
99.6087616726521
 21
529.5605891540572
 31
0.0
  0
LINE
  5
AE3
330
1F
100
AcDbEntity
  8
0
100
AcDbLine
 10
96.60876167265215
 20
526.5605891540571
 30
0.0
 11
159.6087616726521
 21
526.5605891540571
 31
0.0
  0
LINE
  5
AE4
330
1F
100
AcDbEntity
  8
0
100
AcDbLine
 10
99.6087616726521
 20
529.5605891540572
 30
0.0
 11
99.6087616726521
 21
594.5605891540587
 31
0.0
  0
LINE
  5
AE5
330
1F
100
AcDbEntity
  8
0
100
AcDbLine
 10
99.6087616726521
 20
594.5605891540587
 30
0.0
 11
96.60876167265215
 21
594.5605891540587
 31
0.0
  0
LINE
  5
AE6
330
1F
100
AcDbEntity
  8
0
100
AcDbLine
 10
96.60876167265215
 20
594.5605891540587
 30
0.0
 11
96.60876167265215
 21
526.5605891540571
 31
0.0
  0
LINE
  5
AE7
330
1F
100
AcDbEntity
  8
0
100
AcDbLine
 10
159.6087616726521
 20
526.5605891540571
 30
0.0
 11
159.6087616726521
 21
529.5605891540572
 31
0.0
  0
LINE
  5
AE8
330
1F
100
AcDbEntity
  8
0
100
AcDbLine
 10
95.60876167265213
 20
578.8997610068561
 30
0.0
 11
96.60876167265215
 21
578.8997610068561
 31
0.0
  0
LINE
  5
AE9
102
{ACAD_REACTORS
330
AF4
102
}
330
1F
100
AcDbEntity
  8
0
100
AcDbLine
 10
792.6087616726666
 20
578.8997610068587
 30
0.0
 11
793.6087616726521
 21
578.8997610068561
 31
0.0
  0
DIMENSION
  5
AEA
330
1F
100
AcDbEntity
  8
AM_5
100
AcDbDimension
  2
*D29
 10
792.6087616726587
 20
63.96688404195163
 30
0.0
 11
444.6087616726519
 21
63.96688404195163
 31
0.0
 70
   160
  1
<>
 71
     5
 42
695.999999999992
  3
AM_DIN$0
100
AcDbAlignedDimension
 13
96.60876167266669
 23
168.4977606971295
 33
0.0
 14
792.6087616726587
 24
168.4977606971304
 34
0.0
100
AcDbRotatedDimension
1001
ACAD
1000
DSTYLE
1002
{
1070
   286
1070
     0
1070
   284
1070
     8
1070
   274
1070
     4
1070
   272
1070
     3
1070
    40
1040
5.0
1070
    47
1040
1.0
1070
    48
1040
1.0
1002
}
1001
ACAD_DSTYLE_DIMINSPECT
1070
   396
1000

1070
   395
1000

1070
   394
1070
     1
1070
   393
1070
     0
  0
DIMENSION
  5
AEB
330
1F
100
AcDbEntity
  8
AM_5
100
AcDbDimension
  2
*D30
 10
824.6087616726521
 20
4.999997891950328
 30
0.0
 11
444.6087616726519
 21
4.999997891950328
 31
0.0
 70
   160
  1
<>
 71
     5
 42
749.0
  3
AM_DIN$0
100
AcDbAlignedDimension
 13
75.60876167265212
 23
136.4877606971566
 33
0.0
 14
824.6087616726521
 24
136.4877606971566
 34
0.0
100
AcDbRotatedDimension
1001
ACAD
1000
DSTYLE
1002
{
1070
   286
1070
     0
1070
   284
1070
     8
1070
   274
1070
     4
1070
   272
1070
     3
1070
    40
1040
5.0
1070
    47
1040
1.0
1070
    48
1040
1.0
1002
}
1001
ACAD_DSTYLE_DIMINSPECT
1070
   396
1000
100%
1070
   395
1000

1070
   394
1070
    33
1070
   393
1070
     0
  0
LINE
  5
AEC
330
1F
100
AcDbEntity
  8
AM_7
100
AcDbLine
 10
444.6087616726519
 20
208.4877607010202
 30
0.0
 11
484.6087616726519
 21
208.4877607010202
 31
0.0
1001
GENIUS_GENOREF_13
1005
AFF
  0
LINE
  5
AED
330
1F
100
AcDbEntity
  8
AM_7
100
AcDbLine
 10
444.6087616726519
 20
208.4877607010202
 30
0.0
 11
404.6087616726522
 21
208.4877607010202
 31
0.0
1001
GENIUS_GENOREF_13
1005
AFF
  0
LINE
  5
AEE
330
1F
100
AcDbEntity
  8
AM_7
100
AcDbLine
 10
444.6087616726519
 20
272.4777606971273
 30
0.0
 11
444.6087616726519
 21
131.4877606971566
 31
0.0
1001
GENIUS_GENOBJ-N-CEN_13
1002
{
1000
OWNER
1000
GEN
1002
}
1001
GENIUS_GENODEF_13
1002
{
1000
HIER
1070
     0
1002
}
1002
{
1000
MANEDIT
1070
     0
1002
}
1002
{
1000
NOSEL
1070
     0
1002
}
1002
{
1000
BEHIND
1070
     0
1002
}
1002
{
1000
OTHER
1070
     0
1002
}
1002
{
1000
REACTOR
1002
}
1001
GENIUS_GENCEN_19
1002
{
1040
3.0
1002
}
  0
DIMENSION
  5
AEF
330
1F
100
AcDbEntity
  8
AM_5
100
AcDbDimension
  2
*D31
 10
924.5199673688087
 20
136.4877606978861
 30
0.0
 11
924.5199673688087
 21
207.753720767345
 31
0.0
 70
   160
 71
     5
 42
132.9899999992402
  3
AM_DIN$0
100
AcDbAlignedDimension
 13
824.6087616726509
 23
269.4777606971264
 33
0.0
 14
824.6087616726665
 24
136.4877606978862
 34
0.0
 50
90.00000000000651
100
AcDbRotatedDimension
1001
ACAD_DSTYLE_DIMINSPECT
1070
   396
1000
100%
1070
   395
1000

1070
   394
1070
    33
1070
   393
1070
     0
1001
ACAD
1000
DSTYLE
1002
{
1070
    40
1040
5.0
1070
    47
1040
1.0
1070
    48
1040
1.0
1070
   271
1070
     0
1002
}
  0
DIMENSION
  5
AF0
330
1F
100
AcDbEntity
  8
AM_5
100
AcDbDimension
  2
*D32
 10
866.2771175827286
 20
166.4877606971636
 30
0.0
 11
866.2771175827286
 21
209.0552699959379
 31
0.0
 70
   160
 71
     5
 42
81.98999999996292
  3
AM_DIN$0
100
AcDbAlignedDimension
 13
792.6087616726521
 23
248.4777606971265
 33
0.0
 14
792.6087616726491
 24
166.4877606971636
 34
0.0
 50
90.00000000000651
100
AcDbRotatedDimension
1001
ACAD_DSTYLE_DIMINSPECT
1070
   396
1000
100%
1070
   395
1000

1070
   394
1070
    33
1070
   393
1070
     0
1001
ACAD
1000
DSTYLE
1002
{
1070
    40
1040
5.0
1070
    47
1040
1.0
1070
    48
1040
1.0
1070
   271
1070
     1
1002
}
  0
DIMENSION
  5
AF1
330
1F
100
AcDbEntity
  8
AM_5
100
AcDbDimension
  2
*D33
 10
419.6087616906271
 20
424.9857788156758
 30
0.0
 11
444.6087616866529
 21
424.9857788156758
 31
0.0
 70
   160
  1
%%c<>
 71
     5
 42
49.99999999205176
  3
AM_DIN$0
100
AcDbAlignedDimension
 13
469.6087616826789
 23
490.1174468100107
 33
0.0
 14
419.6087616906271
 24
490.1174468529355
 34
0.0
100
AcDbRotatedDimension
1001
ACAD_DSTYLE_DIMINSPECT
1070
   396
1000
100%
1070
   395
1000

1070
   394
1070
    33
1070
   393
1070
     0
1001
ACAD
1000
DSTYLE
1002
{
1070
    40
1040
5.0
1070
    47
1040
1.0
1070
    48
1040
1.0
1002
}
  0
DIMENSION
  5
AF2
102
{ACAD_XDICTIONARY
360
AF3
102
}
102
{ACAD_REACTORS
330
AF4
102
}
330
1F
100
AcDbEntity
  8
AM_5
100
AcDbDimension
  2
*D34
 10
882.9095479225244
 20
652.8997610068579
 30
0.0
 11
866.6595479225243
 21
615.8997610068572
 31
0.0
 70
    32
 71
     5
 42
74.00000000000182
  3
AM_DIN$0
100
AcDbAlignedDimension
 13
793.6087616726521
 23
578.8997610068561
 33
0.0
 14
792.6087616726521
 24
652.8997610068579
 34
0.0
 50
89.99999999984366
100
AcDbRotatedDimension
1001
ACAD_DSTYLE_DIMINSPECT
1070
   396
1000
100%
1070
   395
1000

1070
   394
1070
    33
1070
   393
1070
     0
1001
ACAD
1000
DSTYLE
1002
{
1070
    40
1040
5.0
1070
    47
1040
1.0
1070
    48
1040
1.0
1002
}
  0
DIMENSION
  5
AF5
102
{ACAD_XDICTIONARY
360
AF6
102
}
102
{ACAD_REACTORS
330
AF7
102
}
330
1F
100
AcDbEntity
  8
AM_5
100
AcDbDimension
  2
*D35
 10
76.60876167265211
 20
738.6704556222183
 30
0.0
 11
149.0356019526968
 21
738.6704556222183
 31
0.0
 70
   160
 71
     5
 42
20.00000000000004
  3
AM_DIN$0
100
AcDbAlignedDimension
 13
96.60876167265215
 23
652.8997610068561
 33
0.0
 14
76.60876167265211
 24
692.8997610068562
 34
0.0
 50
0.0000000000000114
100
AcDbRotatedDimension
1001
ACAD_DSTYLE_DIMINSPECT
1070
   396
1000
100%
1070
   395
1000

1070
   394
1070
    33
1070
   393
1070
     0
1001
ACAD
1000
DSTYLE
1002
{
1070
    40
1040
5.0
1070
    47
1040
1.0
1070
    48
1040
1.0
1070
   271
1070
     1
1002
}
  0
LINE
  5
AF8
330
1F
100
AcDbEntity
  8
0
100
AcDbLine
 10
824.6087616726521
 20
692.8997610068562
 30
0.0
 11
75.60876167265212
 21
692.8997610068562
 31
0.0
  0
DIMENSION
  5
AF9
330
1F
100
AcDbEntity
  8
AM_5
100
AcDbDimension
  2
*D36
 10
24.13188969541089
 20
652.8997610068561
 30
0.0
 11
24.13188969541079
 21
672.8997610068561
 31
0.0
 70
   160
 71
     5
 42
40.00000000000011
  3
AM_DIN$0
100
AcDbAlignedDimension
 13
75.60876167265212
 23
692.8997610068562
 33
0.0
 14
77.60876167265212
 24
652.8997610068561
 34
0.0
 50
90.0
100
AcDbRotatedDimension
1001
ACAD_DSTYLE_DIMINSPECT
1070
   396
1000
100%
1070
   395
1000

1070
   394
1070
    33
1070
   393
1070
     0
1001
ACAD
1000
DSTYLE
1002
{
1070
    40
1040
5.0
1070
    47
1040
1.0
1070
    48
1040
1.0
1070
   271
1070
     1
1002
}
  0
ARC
  5
AFA
330
1F
100
AcDbEntity
  8
0
100
AcDbCircle
 10
77.60876167265212
 20
653.8997610068562
 30
0.0
 40
1.0
100
AcDbArc
 50
180.0
 51
270.0
  0
ARC
  5
AFB
330
1F
100
AcDbEntity
  8
0
100
AcDbCircle
 10
77.60876167265212
 20
653.8997610068579
 30
0.0
 40
2.0
100
AcDbArc
 50
180.0
 51
270.0
  0
POINT
  5
AFF
330
1F
100
AcDbEntity
  8
0
  6
ByBlock
 62
     0
 60
     1
100
AcDbPoint
 10
-28924.17975227768
 20
-5253.341205065388
 30
0.0
1001
GENIUS_GENOLIS_13
1002
{
1000
ENT
1005
0
1005
AED
1005
0
1005
AEC
1002
}
1001
GENIUS_GENOENT_13
1002
{
1000
MYREF
1005
AFF
1002
}
1002
{
1000
GRP
1005
0
1002
}
1001
GENIUS_GENOBJ-N-CRS_13
1002
{
1000
OWNER
1000
GEN
1002
}
1001
GENIUS_GENODEF_13
1002
{
1000
HIER
1070
    10
1002
}
1002
{
1000
MANEDIT
1070
     1
1002
}
1002
{
1000
NOSEL
1070
     0
1002
}
1002
{
1000
BEHIND
1070
     0
1002
}
1002
{
1000
OTHER
1070
     0
1002
}
1002
{
1000
REACTOR
1002
}
  0
LINE
  5
BD8
330
1F
100
AcDbEntity
  8
RUNDUNGEN
  6
Continuous
 62
     7
100
AcDbLine
 10
407.1230211710511
 20
208.4877606901863
 30
0.0
 11
407.1087616726519
 21
208.4877606903873
 31
0.0
  0
LINE
  5
BD9
330
1F
100
AcDbEntity
  8
RUNDUNGEN
  6
Continuous
 62
     7
100
AcDbLine
 10
407.1087616726519
 20
208.4877606903873
 30
0.0
 11
406.6089865585648
 21
208.4877606961853
 31
0.0
  0
LINE
  5
BDA
330
1F
100
AcDbEntity
  8
RUNDUNGEN
  6
Continuous
 62
     7
100
AcDbLine
 10
482.0945021743658
 20
208.4877607026863
 30
0.0
 11
482.1087616726519
 21
208.4877607024872
 31
0.0
  0
CIRCLE
  5
BDB
330
1F
100
AcDbEntity
  8
0
  6
Continuous
 62
     7
100
AcDbCircle
 10
444.6087616726519
 20
208.4877607010202
 30
0.0
 40
37.0
  0
LINE
  5
BDC
330
1F
100
AcDbEntity
  8
RUNDUNGEN
  6
Continuous
 62
     7
100
AcDbLine
 10
407.1230211710511
 20
208.4877606863068
 30
0.0
 11
407.1087616726519
 21
208.487760686506
 31
0.0
  0
LINE
  5
BDD
330
1F
100
AcDbEntity
  8
RUNDUNGEN
  6
Continuous
 62
     7
100
AcDbLine
 10
407.1087616726519
 20
208.487760686506
 30
0.0
 11
406.6089865585538
 21
208.4877606923049
 31
0.0
  0
LINE
  5
BDE
330
1F
100
AcDbEntity
  8
RUNDUNGEN
  6
Continuous
 62
     7
100
AcDbLine
 10
482.0945021743549
 20
208.487760698806
 30
0.0
 11
482.1087616726519
 21
208.4877606986059
 31
0.0
  0
LINE
  5
BDF
330
1F
100
AcDbEntity
  8
0
  6
Continuous
 62
     7
100
AcDbLine
 10
474.5928846554536
 20
210.7377606971398
 30
0.0
 11
474.5928846554536
 21
206.2377606971398
 31
0.0
  0
LINE
  5
BE0
330
1F
100
AcDbEntity
  8
0
  6
Continuous
 62
     7
100
AcDbLine
 10
467.4017286193532
 20
188.8767742657386
 30
0.0
 11
464.2197481040541
 21
185.6947937503385
 31
0.0
  0
LINE
  5
BE1
330
1F
100
AcDbEntity
  8
0
  6
Continuous
 62
     7
100
AcDbLine
 10
442.358761672652
 20
238.4718836800387
 30
0.0
 11
446.8587616726519
 21
238.4718836800387
 31
0.0
  0
LINE
  5
BE2
330
1F
100
AcDbEntity
  8
0
  6
Continuous
 62
     7
100
AcDbLine
 10
464.2197481040541
 20
231.2807276439392
 30
0.0
 11
467.4017286193532
 21
228.0987471285383
 31
0.0
  0
LINE
  5
BE3
330
1F
100
AcDbEntity
  8
0
  6
Continuous
 62
     7
100
AcDbLine
 10
467.5785053146513
 20
186.9322306174384
 30
0.0
 11
467.4017286193532
 21
188.8767742657386
 31
0.0
  0
LINE
  5
BE4
330
1F
100
AcDbEntity
  8
0
  6
Continuous
 62
     7
100
AcDbLine
 10
467.4017286193532
 20
228.0987471285383
 30
0.0
 11
467.5785053146513
 21
230.0432907768403
 31
0.0
  0
LINE
  5
BE5
330
1F
100
AcDbEntity
  8
0
  6
Continuous
 62
     7
100
AcDbLine
 10
445.6087616726518
 20
177.0036377142399
 30
0.0
 11
446.8587616726519
 21
178.5036377142399
 31
0.0
  0
LINE
  5
BE6
330
1F
100
AcDbEntity
  8
0
  6
Continuous
 62
     7
100
AcDbLine
 10
474.5928846554536
 20
206.2377606971398
 30
0.0
 11
476.0928846554537
 21
207.4877606971389
 31
0.0
  0
LINE
  5
BE7
330
1F
100
AcDbEntity
  8
0
  6
Continuous
 62
     7
100
AcDbLine
 10
466.1642917523507
 20
231.4575043392391
 30
0.0
 11
464.2197481040541
 21
231.2807276439392
 31
0.0
  0
LINE
  5
BE8
330
1F
100
AcDbEntity
  8
0
  6
Continuous
 62
     7
100
AcDbLine
 10
424.9977752411516
 20
231.2807276439392
 30
0.0
 11
423.0532315929533
 21
231.4575043392391
 31
0.0
  0
LINE
  5
BE9
330
1F
100
AcDbEntity
  8
0
  6
Continuous
 62
     7
100
AcDbLine
 10
476.0928846554537
 20
209.4877606971389
 30
0.0
 11
474.5928846554536
 21
210.7377606971398
 31
0.0
  0
LINE
  5
BEA
330
1F
100
AcDbEntity
  8
0
  6
Continuous
 62
     7
100
AcDbLine
 10
446.8587616726519
 20
238.4718836800387
 30
0.0
 11
445.6087616726518
 21
239.9718836800388
 31
0.0
  0
LINE
  5
BEB
330
1F
100
AcDbEntity
  8
RUNDUNGEN
  6
Continuous
 62
     9
100
AcDbLine
 10
454.1087616726518
 20
209.9877606971398
 30
0.0
 11
454.1087616726518
 21
206.9877606971407
 31
0.0
  0
LINE
  5
BEC
330
1F
100
AcDbEntity
  8
0
  6
Continuous
 62
     7
100
AcDbLine
 10
452.608761672652
 20
209.7877606971391
 30
0.0
 11
452.608761672652
 21
207.1877606971405
 31
0.0
  0
LINE
  5
BED
330
1F
100
AcDbEntity
  8
RUNDUNGEN
  6
Continuous
 62
     7
100
AcDbLine
 10
424.8317547179516
 20
209.9877606971398
 30
0.0
 11
436.4087600474532
 21
209.9877606971398
 31
0.0
  0
LINE
  5
BEE
330
1F
100
AcDbEntity
  8
RUNDUNGEN
  6
Continuous
 62
     7
100
AcDbLine
 10
452.8088676050513
 20
209.9877606971398
 30
0.0
 11
464.3857686272543
 21
209.9877606971398
 31
0.0
  0
LINE
  5
BEF
330
1F
100
AcDbEntity
  8
RUNDUNGEN
  6
Continuous
 62
     9
100
AcDbLine
 10
423.6490383920512
 20
209.7877606971391
 30
0.0
 11
436.6087616726519
 21
209.7877606971391
 31
0.0
  0
LINE
  5
BF0
330
1F
100
AcDbEntity
  8
RUNDUNGEN
  6
Continuous
 62
     9
100
AcDbLine
 10
452.608761672652
 20
209.7877606971391
 30
0.0
 11
465.5684849532527
 21
209.7877606971391
 31
0.0
  0
LINE
  5
BF1
330
1F
100
AcDbEntity
  8
RUNDUNGEN
  6
Continuous
 62
     9
100
AcDbLine
 10
465.5684849532527
 20
207.1877606971405
 30
0.0
 11
452.608761672652
 21
207.1877606971405
 31
0.0
  0
LINE
  5
BF2
330
1F
100
AcDbEntity
  8
RUNDUNGEN
  6
Continuous
 62
     9
100
AcDbLine
 10
436.6087616726519
 20
207.1877606971405
 30
0.0
 11
423.6490383920512
 21
207.1877606971405
 31
0.0
  0
LINE
  5
BF3
330
1F
100
AcDbEntity
  8
RUNDUNGEN
  6
Continuous
 62
     7
100
AcDbLine
 10
464.3857686272543
 20
206.9877606971407
 30
0.0
 11
452.8087632977523
 21
206.9877606971407
 31
0.0
  0
LINE
  5
BF4
330
1F
100
AcDbEntity
  8
RUNDUNGEN
  6
Continuous
 62
     7
100
AcDbLine
 10
436.408760052452
 20
206.9877606971407
 30
0.0
 11
424.8317547179516
 21
206.9877606971407
 31
0.0
  0
LINE
  5
BF5
330
1F
100
AcDbEntity
  8
0
  6
Continuous
 62
     7
100
AcDbLine
 10
436.6087616726519
 20
207.1877606971405
 30
0.0
 11
436.6087616726519
 21
209.7877606971391
 31
0.0
  0
LINE
  5
BF6
330
1F
100
AcDbEntity
  8
RUNDUNGEN
  6
Continuous
 62
     9
100
AcDbLine
 10
435.1087616726521
 20
209.9877606971398
 30
0.0
 11
435.1087616726521
 21
206.9877606971407
 31
0.0
  0
LINE
  5
BF7
330
1F
100
AcDbEntity
  8
0
  6
Continuous
 62
     7
100
AcDbLine
 10
421.6390180305508
 20
230.0432907768403
 30
0.0
 11
421.8157947258526
 21
228.0987471285383
 31
0.0
  0
LINE
  5
BF8
330
1F
100
AcDbEntity
  8
0
  6
Continuous
 62
     7
100
AcDbLine
 10
421.8157947258526
 20
188.8767742657386
 30
0.0
 11
421.6390180305508
 21
186.9322306174384
 31
0.0
  0
LINE
  5
BF9
330
1F
100
AcDbEntity
  8
0
  6
Continuous
 62
     7
100
AcDbLine
 10
443.6087616726521
 20
239.9718836800388
 30
0.0
 11
442.358761672652
 21
238.4718836800387
 31
0.0
  0
LINE
  5
BFA
330
1F
100
AcDbEntity
  8
0
  6
Continuous
 62
     7
100
AcDbLine
 10
414.6246386897521
 20
210.7377606971398
 30
0.0
 11
413.1246386897521
 21
209.4877606971389
 31
0.0
  0
LINE
  5
BFB
330
1F
100
AcDbEntity
  8
0
  6
Continuous
 62
     7
100
AcDbLine
 10
423.0532315929533
 20
185.5180170550396
 30
0.0
 11
424.9977752411516
 21
185.6947937503385
 31
0.0
  0
LINE
  5
BFC
330
1F
100
AcDbEntity
  8
0
  6
Continuous
 62
     7
100
AcDbLine
 10
464.2197481040541
 20
185.6947937503385
 30
0.0
 11
466.1642917523507
 21
185.5180170550396
 31
0.0
  0
LINE
  5
BFD
330
1F
100
AcDbEntity
  8
0
  6
Continuous
 62
     7
100
AcDbLine
 10
413.1246386897521
 20
207.4877606971389
 30
0.0
 11
414.6246386897521
 21
206.2377606971398
 31
0.0
  0
LINE
  5
BFE
330
1F
100
AcDbEntity
  8
0
  6
Continuous
 62
     7
100
AcDbLine
 10
442.358761672652
 20
178.5036377142399
 30
0.0
 11
443.6087616726521
 21
177.0036377142399
 31
0.0
  0
LINE
  5
BFF
330
1F
100
AcDbEntity
  8
0
  6
Continuous
 62
     7
100
AcDbLine
 10
414.6246386897521
 20
206.2377606971398
 30
0.0
 11
414.6246386897521
 21
210.7377606971398
 31
0.0
  0
LINE
  5
C00
330
1F
100
AcDbEntity
  8
0
  6
Continuous
 62
     7
100
AcDbLine
 10
421.8157947258526
 20
228.0987471285383
 30
0.0
 11
424.9977752411516
 21
231.2807276439392
 31
0.0
  0
LINE
  5
C01
330
1F
100
AcDbEntity
  8
0
  6
Continuous
 62
     7
100
AcDbLine
 10
446.8587616726519
 20
178.5036377142399
 30
0.0
 11
442.358761672652
 21
178.5036377142399
 31
0.0
  0
LINE
  5
C02
330
1F
100
AcDbEntity
  8
0
  6
Continuous
 62
     7
100
AcDbLine
 10
424.9977752411516
 20
185.6947937503385
 30
0.0
 11
421.8157947258526
 21
188.8767742657386
 31
0.0
  0
ARC
  5
C03
330
1F
100
AcDbEntity
  8
RUNDUNGEN
  6
Continuous
 62
     7
100
AcDbCircle
 10
452.8087616726526
 20
209.7877606971391
 30
0.0
 40
0.2
100
AcDbArc
 50
89.99953587230413
 51
180.0
  0
ARC
  5
C04
330
1F
100
AcDbEntity
  8
RUNDUNGEN
  6
Continuous
 62
     7
100
AcDbCircle
 10
436.4087616726513
 20
209.7877606971391
 30
0.0
 40
0.2
100
AcDbArc
 50
0.0
 51
90.00046556135194
  0
CIRCLE
  5
C05
330
1F
100
AcDbEntity
  8
BEZUGSACHSEN
  6
Continuous
 62
     7
100
AcDbCircle
 10
444.6087616726519
 20
208.4877606971398
 30
0.0
 40
37.75
  0
CIRCLE
  5
C06
330
1F
100
AcDbEntity
  8
BEZUGSACHSEN
  6
Continuous
 62
     9
100
AcDbCircle
 10
444.6087616726519
 20
208.4877606971398
 30
0.0
 40
34.8249358981
  0
ARC
  5
C07
330
1F
100
AcDbEntity
  8
0
  6
Continuous
 62
     7
100
AcDbCircle
 10
444.6087616726519
 20
208.4877606971398
 30
0.0
 40
31.5
100
AcDbArc
 50
226.8192192939952
 51
268.1807807059966
  0
ARC
  5
C08
330
1F
100
AcDbEntity
  8
0
  6
Continuous
 62
     7
100
AcDbCircle
 10
444.6087616726519
 20
208.4877606971398
 30
0.0
 40
31.5
100
AcDbArc
 50
181.8192192940034
 51
223.1807807060762
  0
ARC
  5
C09
330
1F
100
AcDbEntity
  8
0
  6
Continuous
 62
     7
100
AcDbCircle
 10
444.6087616726519
 20
208.4877606971398
 30
0.0
 40
31.5
100
AcDbArc
 50
136.8192192939237
 51
178.1807807059965
  0
ARC
  5
C0A
330
1F
100
AcDbEntity
  8
0
  6
Continuous
 62
     7
100
AcDbCircle
 10
444.6087616726519
 20
208.4877606971398
 30
0.0
 40
31.5
100
AcDbArc
 50
91.81921929400344
 51
133.1807807060048
  0
ARC
  5
C0B
330
1F
100
AcDbEntity
  8
0
  6
Continuous
 62
     7
100
AcDbCircle
 10
444.6087616726519
 20
208.4877606971398
 30
0.0
 40
31.5
100
AcDbArc
 50
46.81921929399518
 51
88.18078070599655
  0
ARC
  5
C0C
330
1F
100
AcDbEntity
  8
0
  6
Continuous
 62
     7
100
AcDbCircle
 10
444.6087616726519
 20
208.4877606971398
 30
0.0
 40
31.5
100
AcDbArc
 50
1.819219294003453
 51
43.18078070607625
  0
ARC
  5
C0D
330
1F
100
AcDbEntity
  8
0
  6
Continuous
 62
     7
100
AcDbCircle
 10
444.6087616726519
 20
208.4877606971398
 30
0.0
 40
31.5
100
AcDbArc
 50
316.8192192939238
 51
358.1807807059965
  0
ARC
  5
C0E
330
1F
100
AcDbEntity
  8
0
  6
Continuous
 62
     7
100
AcDbCircle
 10
444.6087616726519
 20
208.4877606971398
 30
0.0
 40
31.5
100
AcDbArc
 50
271.8192192940034
 51
313.1807807060048
  0
ARC
  5
C0F
330
1F
100
AcDbEntity
  8
RUNDUNGEN
  6
Continuous
 62
     9
100
AcDbCircle
 10
444.6087616726519
 20
208.4877606971398
 30
0.0
 40
21.0
100
AcDbArc
 50
3.549150897490096
 51
176.4508491025099
  0
ARC
  5
C10
330
1F
100
AcDbEntity
  8
RUNDUNGEN
  6
Continuous
 62
     9
100
AcDbCircle
 10
444.6087616726519
 20
208.4877606971398
 30
0.0
 40
21.0
100
AcDbArc
 50
183.5491508974901
 51
356.4508491025098
  0
ARC
  5
C11
330
1F
100
AcDbEntity
  8
0
  6
Continuous
 62
     7
100
AcDbCircle
 10
444.6087616726519
 20
208.4877606971398
 30
0.0
 40
17.5
100
AcDbArc
 50
184.9171003355094
 51
355.0828996644906
  0
ARC
  5
C12
330
1F
100
AcDbEntity
  8
0
  6
Continuous
 62
     7
100
AcDbCircle
 10
444.6087616726519
 20
208.4877606971398
 30
0.0
 40
17.5
100
AcDbArc
 50
4.917100335509385
 51
175.0828996644905
  0
ARC
  5
C13
330
1F
100
AcDbEntity
  8
RUNDUNGEN
  6
Continuous
 62
     7
100
AcDbCircle
 10
452.8087616726526
 20
207.1877606971405
 30
0.0
 40
0.2
100
AcDbArc
 50
180.0
 51
270.0004655613519
  0
ARC
  5
C14
330
1F
100
AcDbEntity
  8
RUNDUNGEN
  6
Continuous
 62
     7
100
AcDbCircle
 10
436.4087616726513
 20
207.1877606971405
 30
0.0
 40
0.2
100
AcDbArc
 50
269.9995358720957
 51
0.0
  0
SPLINE
  5
C15
330
1F
100
AcDbEntity
  8
RUNDUNGEN
  6
Continuous
 62
     7
100
AcDbSpline
210
0.0
220
0.0
230
1.0
 70
     8
 71
     3
 72
    15
 73
    11
 74
     9
 42
0.0000000001
 43
0.0000000001
 44
0.0000000001
 12
-0.9734575250016488
 22
-0.228867750060301
 32
0.0
 13
-1.0
 23
0.0000000000000001
 33
0.0
 40
0.0
 40
0.0
 40
0.0
 40
0.0
 40
0.1510810008470405
 40
0.3012692817881239
 40
0.4508995578784299
 40
0.6001317707654296
 40
0.7491566218493288
 40
0.8985674046151743
 40
1.049070534296884
 40
1.201862823992938
 40
1.201862823992938
 40
1.201862823992938
 40
1.201862823992938
 10
465.5684849532527
 20
207.1877606971405
 30
0.0
 10
465.5194613075329
 20
207.1762348408936
 30
0.0
 10
465.4217020988595
 20
207.1532577540951
 30
0.0
 10
465.2752253009562
 20
207.1195687186601
 30
0.0
 10
465.1290302195921
 20
207.0874247466488
 30
0.0
 10
464.982741799444
 20
207.0575684521279
 30
0.0
 10
464.8359060519623
 20
207.0309019154873
 30
0.0
 10
464.6878940146911
 20
207.0086151306536
 30
0.0
 10
464.5378106934508
 20
206.992462350354
 30
0.0
 10
464.4366993904863
 20
206.9877606971389
 30
0.0
 10
464.3857686272543
 20
206.9877606971389
 30
0.0
 11
465.5684849532527
 21
207.1877606971405
 31
0.0
 11
465.4213848804513
 21
207.1533072880387
 31
0.0
 11
465.2749906069522
 21
207.1197627442392
 31
0.0
 11
465.1288216578516
 21
207.0877649655398
 31
0.0
 11
464.9825708231522
 21
207.0580842190387
 31
0.0
 11
464.8359067555514
 21
207.0316634409395
 31
0.0
 11
464.6881178205522
 21
207.00970865334
 31
0.0
 11
464.5384313777515
 21
206.9940510390382
 31
0.0
 11
464.3857686272543
 21
206.9877606971389
 31
0.0
  0
SPLINE
  5
C16
330
1F
100
AcDbEntity
  8
RUNDUNGEN
  6
Continuous
 62
     7
100
AcDbSpline
210
0.0
220
0.0
230
1.0
 70
     8
 71
     3
 72
    15
 73
    11
 74
     9
 42
0.0000000001
 43
0.0000000001
 44
0.0000000001
 12
0.9734575250016488
 22
0.228867750060301
 32
0.0
 13
1.0
 23
-0.0000000000000001
 33
0.0
 40
0.0
 40
0.0
 40
0.0
 40
0.0
 40
0.1510810007471218
 40
0.3012692817878589
 40
0.4508995577788245
 40
0.6001317706657603
 40
0.7491566218500095
 40
0.8985674045185231
 40
1.049070534297776
 40
1.201862823896124
 40
1.201862823896124
 40
1.201862823896124
 40
1.201862823896124
 10
423.6490383920512
 20
209.7877606971391
 30
0.0
 10
423.6980620377384
 20
209.7992865533783
 30
0.0
 10
423.7958212464027
 20
209.8222636402161
 30
0.0
 10
423.9422980442867
 20
209.8559526755867
 30
0.0
 10
424.0884931256402
 20
209.8880966476454
 30
0.0
 10
424.2347815457903
 20
209.917952942161
 30
0.0
 10
424.3816172932786
 20
209.944619478769
 30
0.0
 10
424.5296293305774
 20
209.9669062636447
 30
0.0
 10
424.6797126517888
 20
209.9830590439098
 30
0.0
 10
424.7808239547522
 20
209.9877606971398
 30
0.0
 10
424.8317547179516
 20
209.9877606971398
 30
0.0
 11
423.6490383920512
 21
209.7877606971391
 31
0.0
 11
423.7961384647507
 21
209.8222141062382
 31
0.0
 11
423.9425327383515
 21
209.8557586500395
 31
0.0
 11
424.0887016873505
 21
209.8877564287389
 31
0.0
 11
424.23495252205
 21
209.9174371752391
 31
0.0
 11
424.3816165897526
 21
209.9438579533392
 31
0.0
 11
424.5294055246533
 21
209.9658127409387
 31
0.0
 11
424.6790919675523
 21
209.9814703552396
 31
0.0
 11
424.8317547179516
 21
209.9877606971398
 31
0.0
  0
SPLINE
  5
C17
330
1F
100
AcDbEntity
  8
RUNDUNGEN
  6
Continuous
 62
     7
100
AcDbSpline
210
0.0
220
0.0
230
1.0
 70
     8
 71
     3
 72
    14
 73
    10
 74
     8
 42
0.0000000001
 43
0.0000000001
 44
0.0000000001
 12
1.0
 22
-0.0000000000000001
 32
0.0
 13
0.9734575249949115
 23
-0.2288677500889578
 33
0.0
 40
0.0
 40
0.0
 40
0.0
 40
0.0
 40
0.1775159166274881
 40
0.3522169696263205
 40
0.5240382291777428
 40
0.6932544782932756
 40
0.8615176794676459
 40
1.030378979886183
 40
1.201839310652256
 40
1.201839310652256
 40
1.201839310652256
 40
1.201839310652256
 10
464.3857686272543
 20
209.9877606971398
 30
0.0
 10
464.4449405994635
 20
209.9877606971398
 30
0.0
 10
464.5623575679578
 20
209.981454262572
 30
0.0
 10
464.7358457383652
 20
209.9606018457229
 30
0.0
 10
464.9055138171822
 20
209.9326581438079
 30
0.0
 10
465.0721538881555
 20
209.9001502745766
 30
0.0
 10
465.2371491400018
 20
209.8645729525239
 30
0.0
 10
465.4024168795455
 20
209.826795964598
 30
0.0
 10
465.512848503512
 20
209.8008412771831
 30
0.0
 10
465.5684849532527
 20
209.7877606971391
 30
0.0
 11
464.3857686272543
 21
209.9877606971398
 31
0.0
 11
464.5630896965533
 21
209.9794457083393
 31
0.0
 11
464.7366159811511
 21
209.9592198221392
 31
0.0
 11
464.9062161277519
 21
209.9316819299386
 31
0.0
 11
465.07235238615
 21
209.8995434388383
 31
0.0
 11
465.2368784889524
 21
209.8642777846392
 31
0.0
 11
465.4015334188526
 21
209.8268225735386
 31
0.0
 11
465.5684849532527
 21
209.7877606971391
 31
0.0
  0
SPLINE
  5
C18
330
1F
100
AcDbEntity
  8
RUNDUNGEN
  6
Continuous
 62
     7
100
AcDbSpline
210
0.0
220
0.0
230
1.0
 70
     8
 71
     3
 72
    14
 73
    10
 74
     8
 42
0.0000000001
 43
0.0000000001
 44
0.0000000001
 12
-1.0
 22
0.0000000000000001
 32
0.0
 13
-0.9734575249949115
 23
0.2288677500889578
 33
0.0
 40
0.0
 40
0.0
 40
0.0
 40
0.0
 40
0.1775159165294982
 40
0.3522169696179156
 40
0.5240382291851232
 40
0.6932544783009673
 40
0.8615176793758736
 40
1.030378979890263
 40
1.201839310560887
 40
1.201839310560887
 40
1.201839310560887
 40
1.201839310560887
 10
424.8317547179516
 20
206.9877606971389
 30
0.0
 10
424.7725827457751
 20
206.9877606971389
 30
0.0
 10
424.6551657772906
 20
206.9940671317676
 30
0.0
 10
424.4816776068508
 20
207.0149195483751
 30
0.0
 10
424.3120095280325
 20
207.0428632505153
 30
0.0
 10
424.1453694570751
 20
207.0753711196727
 30
0.0
 10
423.9803742052428
 20
207.1109484417893
 30
0.0
 10
423.8151064657172
 20
207.1487254296432
 30
0.0
 10
423.7046748417609
 20
207.1746801171038
 30
0.0
 10
423.6490383920512
 20
207.1877606971405
 30
0.0
 11
424.8317547179516
 21
206.9877606971389
 31
0.0
 11
424.6544336487507
 21
206.9960756859385
 31
0.0
 11
424.4809073640511
 21
207.0163015720394
 31
0.0
 11
424.3113072174503
 21
207.0438394643382
 31
0.0
 11
424.1451709590521
 21
207.0759779554395
 31
0.0
 11
423.9806448563514
 21
207.1112436096385
 31
0.0
 11
423.8159899263528
 21
207.1486988207392
 31
0.0
 11
423.6490383920512
 21
207.1877606971405
 31
0.0
  0
LINE
  5
C3C
102
{ACAD_REACTORS
330
C4C
102
}
330
1F
100
AcDbEntity
  8
0
100
AcDbLine
 10
76.60876167265097
 20
268.4777606971264
 30
0.0
 11
75.60876167265099
 21
269.4777606971264
 31
0.0
  0
DIMENSION
  5
C3E
102
{ACAD_XDICTIONARY
360
C4B
102
}
102
{ACAD_REACTORS
330
C4C
102
}
330
1F
100
AcDbEntity
  8
AM_5
100
AcDbDimension
  2
*D38
 10
10.01532262900862
 20
268.4777606971264
 30
0.0
 11
10.01532262900858
 21
193.57423846975
 31
0.0
 70
   160
 71
     5
 42
19.99999999999983
  3
AM_DIN$0
100
AcDbAlignedDimension
 13
96.60876167266669
 23
248.4777606971265
 33
0.0
 14
76.60876167265097
 24
268.4777606971264
 34
0.0
 50
90.00000000000005
100
AcDbRotatedDimension
1001
ACAD_DSTYLE_DIMINSPECT
1070
   396
1000
100%
1070
   395
1000

1070
   394
1070
    33
1070
   393
1070
     0
1001
ACAD
1000
DSTYLE
1002
{
1070
    40
1040
5.0
1070
    47
1040
1.0
1070
    48
1040
1.0
1070
   271
1070
     1
1002
}
  0
LINE
  5
EE5
330
1F
100
AcDbEntity
  8
0
100
AcDbLine
 10
420.5879676008683
 20
485.221417301735
 30
0.0
 11
468.6295557808328
 21
485.2214173007863
 31
0.0
  0
LINE
  5
EE6
330
1F
100
AcDbEntity
  8
0
  6
ByBlock
 62
     0
100
AcDbLine
 10
420.6087616906399
 20
490.4714173421445
 30
0.0
 11
421.6587616989116
 21
485.2214173007863
 31
0.0
  0
LINE
  5
EE7
330
1F
100
AcDbEntity
  8
0
100
AcDbLine
 10
419.6087616906271
 20
490.1174468529355
 30
0.0
 11
420.5879676010581
 21
485.2214173007863
 31
0.0
  0
LINE
  5
EE8
330
1F
100
AcDbEntity
  8
0
  6
ByBlock
 62
     0
100
AcDbLine
 10
468.608761691251
 20
490.4714173421445
 30
0.0
 11
467.5587616829793
 21
485.2214173007863
 31
0.0
  0
LINE
  5
EE9
330
1F
100
AcDbEntity
  8
0
100
AcDbLine
 10
469.6087616912638
 20
490.1174468529355
 30
0.0
 11
468.6295557808328
 21
485.2214173007863
 31
0.0
  0
LINE
  5
EEA
330
1F
100
AcDbEntity
  8
0
  6
Continuous
 62
     2
100
AcDbLine
 10
420.2540111090664
 20
486.8911997607427
 30
0.0
 11
421.0033938934694
 21
488.4982563279975
 31
0.0
  0
LINE
  5
EEB
330
1F
100
AcDbEntity
  8
0
  6
Continuous
 62
     2
100
AcDbLine
 10
468.6087616826661
 20
490.3343035595731
 30
0.0
 11
469.6087616826789
 21
492.4788104801005
 31
0.0
  0
LINE
  5
EEC
330
1F
100
AcDbEntity
  8
0
  6
Continuous
 62
     2
100
AcDbLine
 10
468.6087616826661
 20
503.2576399987378
 30
0.0
 11
469.6087616826789
 21
505.4021469192653
 31
0.0
  0
LINE
  5
EED
330
1F
100
AcDbEntity
  8
0
  6
Continuous
 62
     2
100
AcDbLine
 10
468.6087616826661
 20
516.1809764379025
 30
0.0
 11
469.6087616826789
 21
518.32548335843
 31
0.0
  0
LINE
  5
EEE
330
1F
100
AcDbEntity
  8
0
  6
Continuous
 62
     2
100
AcDbLine
 10
468.6087616826661
 20
529.1043128771674
 30
0.0
 11
469.6087616826789
 21
531.2488197976948
 31
0.0
  0
LINE
  5
EEF
330
1F
100
AcDbEntity
  8
0
  6
Continuous
 62
     7
100
AcDbLine
 10
469.6087616826789
 20
533.7214173028268
 30
0.0
 11
469.6087616826789
 21
490.1174468100107
 31
0.0
  0
LINE
  5
EF0
330
1F
100
AcDbEntity
  8
0
  6
Continuous
 62
     7
100
AcDbLine
 10
468.6087616826661
 20
533.7214173028268
 30
0.0
 11
468.608761691251
 21
490.4714173421445
 31
0.0
  0
LINE
  5
EF2
330
1F
100
AcDbEntity
  8
0
  6
Continuous
 62
     2
100
AcDbLine
 10
419.6087616820422
 20
496.8455771808574
 30
0.0
 11
420.608761682055
 21
498.9900841013829
 31
0.0
  0
LINE
  5
EF3
330
1F
100
AcDbEntity
  8
0
  6
Continuous
 62
     2
100
AcDbLine
 10
419.6087616820422
 20
509.7689136201203
 30
0.0
 11
420.608761682055
 21
511.9134205406477
 31
0.0
  0
LINE
  5
EF4
330
1F
100
AcDbEntity
  8
0
  6
Continuous
 62
     2
100
AcDbLine
 10
419.6087616820422
 20
522.6922500592868
 30
0.0
 11
420.608761682055
 21
524.8367569798142
 31
0.0
  0
LINE
  5
EF5
330
1F
100
AcDbEntity
  8
0
  6
Continuous
 62
     7
100
AcDbLine
 10
420.608761682055
 20
533.7214173028268
 30
0.0
 11
420.6087616906399
 21
490.4714173421445
 31
0.0
  0
LINE
  5
EF6
330
1F
100
AcDbEntity
  8
0
  6
Continuous
 62
     7
100
AcDbLine
 10
419.6087616820422
 20
533.7214173028268
 30
0.0
 11
419.6087616906271
 21
490.1174468529355
 31
0.0
  0
LINE
  5
EF7
330
1F
100
AcDbEntity
  8
0
  6
Continuous
 62
     7
100
AcDbLine
 10
469.6087616826789
 20
533.7214173028268
 30
0.0
 11
419.6087616820422
 21
533.7214173028268
 31
0.0
  0
LINE
  5
EF8
330
1F
100
AcDbEntity
  8
0
100
AcDbLine
 10
420.5879676010581
 20
485.2214173007863
 30
0.0
 11
468.6295557808328
 21
485.2214173007863
 31
0.0
  0
LINE
  5
EF9
330
1F
100
AcDbEntity
  8
AM_7
100
AcDbLine
 10
444.6087616823605
 20
536.7214173028651
 30
0.0
 11
444.6087616823605
 21
482.2214173021712
 31
0.0
1001
GENIUS_GENODEF_13
1002
{
1000
HIER
1070
     0
1002
}
1002
{
1000
MANEDIT
1070
     0
1002
}
1002
{
1000
NOSEL
1070
     0
1002
}
1002
{
1000
BEHIND
1070
     0
1002
}
1002
{
1000
OTHER
1070
     0
1002
}
1002
{
1000
REACTOR
1002
}
1001
GENIUS_GENOBJ-N-CEN_13
1002
{
1000
OWNER
1000
GEN
1002
}
1001
GENIUS_GENCEN_19
1002
{
1040
3.0
1002
}
  0
ENDSEC
  0
SECTION
  2
OBJECTS
  0
DICTIONARY
  5
C
330
0
100
AcDbDictionary
281
     1
  3
ACAD_2007HEADERVARS_RT
350
F2B
  3
ACAD_COLOR
350
BE
  3
ACAD_GROUP
350
D
  3
ACAD_LAYOUT
350
1A
  3
ACAD_MATERIAL
350
BD
  3
ACAD_MLEADERSTYLE
350
3EF
  3
ACAD_MLINESTYLE
350
17
  3
ACAD_PLOTSETTINGS
350
19
  3
ACAD_PLOTSTYLENAME
350
E
  3
ACAD_SCALELIST
350
3DD
  3
ACAD_TABLESTYLE
350
11A
  3
ACAD_VISUALSTYLE
350
3CC
  3
ACDB_RECOMPOSE_DATA
350
41D
  3
AcDbVariableDictionary
350
94
  3
AcmDictionary
350
5B
  3
AcmSystemVariableManager
350
F37
  3
AEC_PROPERTY_SET_DEFS
350
710
  3
AMG
350
41
  3
AMGSNAPSETTINGS
350
26B
  3
DWGPROPS
350
F2A
  0
DICTIONARY
  5
68D
330
2
100
AcDbDictionary
280
     1
281
     1
  3
ACAD_LAYERSTATES
360
68E
  0
DICTIONARY
  5
836
330
10
100
AcDbDictionary
280
     1
281
     1
  3
ADSK_XREC_LAYER_RECONCILED
360
837
  0
DICTIONARY
  5
677
330
676
100
AcDbDictionary
280
     1
281
     1
  3
ADSK_XREC_LAYER_RECONCILED
360
838
  0
DICTIONARY
  5
679
330
678
100
AcDbDictionary
280
     1
281
     1
  3
ADSK_XREC_LAYER_RECONCILED
360
839
  0
DICTIONARY
  5
67C
330
67B
100
AcDbDictionary
280
     1
281
     1
  3
ADSK_XREC_LAYER_RECONCILED
360
83A
  0
DICTIONARY
  5
67E
330
67D
100
AcDbDictionary
280
     1
281
     1
  3
ADSK_XREC_LAYER_RECONCILED
360
83B
  0
DICTIONARY
  5
680
330
67F
100
AcDbDictionary
280
     1
281
     1
  3
ADSK_XREC_LAYER_RECONCILED
360
83C
  0
DICTIONARY
  5
682
330
681
100
AcDbDictionary
280
     1
281
     1
  3
ADSK_XREC_LAYER_RECONCILED
360
83D
  0
DICTIONARY
  5
83E
330
7F2
100
AcDbDictionary
280
     1
281
     1
  3
ADSK_XREC_LAYER_RECONCILED
360
83F
  0
DICTIONARY
  5
B8F
330
B8E
100
AcDbDictionary
280
     1
281
     1
  0
DICTIONARY
  5
8F
330
1F
100
AcDbDictionary
280
     1
281
     1
  3
ACAD_SORTENTS
360
833
  0
DICTIONARY
  5
AF3
330
AF2
100
AcDbDictionary
280
     1
281
     1
  3
ACAD_DIMASSOC
360
AF4
  0
DICTIONARY
  5
AF6
330
AF5
100
AcDbDictionary
280
     1
281
     1
  3
ACAD_DIMASSOC
360
AF7
  0
DICTIONARY
  5
C4B
330
C3E
100
AcDbDictionary
280
     1
281
     1
  3
ACAD_DIMASSOC
360
C4C
  0
DICTIONARY
  5
F2B
102
{ACAD_REACTORS
330
C
102
}
330
C
100
AcDbDictionary
281
     1
  3
DIMJOGANG
350
F2C
  3
DIMLTEX1
350
F2E
  3
DIMLTEX2
350
F2F
  3
DIMLTYPE
350
F2D
  0
DICTIONARY
  5
BE
102
{ACAD_REACTORS
330
C
102
}
330
C
100
AcDbDictionary
281
     1
  0
DICTIONARY
  5
D
102
{ACAD_REACTORS
330
C
102
}
330
C
100
AcDbDictionary
281
     1
  0
DICTIONARY
  5
1A
102
{ACAD_REACTORS
330
C
102
}
330
C
100
AcDbDictionary
281
     1
  3
Layout1
350
1E
  3
Layout2
350
26
  3
Model
350
22
  0
DICTIONARY
  5
BD
102
{ACAD_REACTORS
330
C
102
}
330
C
100
AcDbDictionary
281
     1
  3
ByBlock
350
3BC
  3
ByLayer
350
3B4
  3
Global
350
3C4
  0
DICTIONARY
  5
3EF
102
{ACAD_REACTORS
330
C
102
}
330
C
100
AcDbDictionary
281
     1
  3
Standard
350
3F0
  0
DICTIONARY
  5
17
102
{ACAD_REACTORS
330
C
102
}
330
C
100
AcDbDictionary
281
     1
  3
Standard
350
18
  0
DICTIONARY
  5
19
102
{ACAD_REACTORS
330
C
102
}
330
C
100
AcDbDictionary
281
     1
  0
ACDBDICTIONARYWDFLT
  5
E
102
{ACAD_REACTORS
330
C
102
}
330
C
100
AcDbDictionary
281
     1
  3
Normal
350
F
100
AcDbDictionaryWithDefault
340
F
  0
DICTIONARY
  5
3DD
102
{ACAD_REACTORS
330
C
102
}
330
C
100
AcDbDictionary
281
     1
  3
A0
350
3DE
  3
A1
350
3DF
  3
A2
350
3E0
  3
A3
350
3E1
  3
A4
350
3E2
  3
A5
350
3E3
  3
A6
350
3E4
  3
A7
350
3E5
  3
A8
350
3E6
  3
A9
350
3E7
  3
B0
350
3E8
  3
B1
350
3E9
  3
B2
350
3EA
  3
B3
350
3EB
  3
B4
350
3EC
  3
B5
350
3ED
  3
B6
350
3EE
  0
DICTIONARY
  5
11A
102
{ACAD_REACTORS
330
C
102
}
330
C
100
AcDbDictionary
281
     1
  3
Standard
350
11B
  0
DICTIONARY
  5
3CC
102
{ACAD_REACTORS
330
C
102
}
330
C
100
AcDbDictionary
281
     1
  3
2dWireframe
350
3D2
  3
3D Hidden
350
3D4
  3
3dWireframe
350
3D3
  3
Basic
350
3D1
  3
Brighten
350
3D8
  3
ColorChange
350
3DC
  3
Conceptual
350
3D5
  3
Dim
350
3D7
  3
Facepattern
350
3DB
  3
Flat
350
3CD
  3
FlatWithEdges
350
3CE
  3
Gouraud
350
3CF
  3
GouraudWithEdges
350
3D0
  3
Linepattern
350
3DA
  3
Realistic
350
3D6
  3
Thicken
350
3D9
  0
XRECORD
  5
41D
102
{ACAD_REACTORS
330
C
102
}
330
C
100
AcDbXrecord
280
     1
 90
        1
330
11B
  0
DICTIONARY
  5
94
102
{ACAD_REACTORS
330
C
102
}
330
C
100
AcDbDictionary
281
     1
  3
CANNOSCALE
350
420
  3
CMLEADERSTYLE
350
41E
  3
CTABLESTYLE
350
138
  3
DIMASSOC
350
96
  3
INDEXCTL
350
95
  3
LAYEREVAL
350
422
  3
LAYERNOTIFY
350
423
  3
LIGHTINGUNITS
350
421
  3
MSLTSCALE
350
41F
  3
SORTENTS
350
85C
  0
DICTIONARY
  5
5B
102
{ACAD_REACTORS
330
C
102
}
330
C
100
AcDbDictionary
281
     1
  3
AcmBOM
350
272
  3
AcmStdDictionary
350
61
  3
AMDTSECTSYM_ARROWCOLOR
350
123
  0
DICTIONARY
  5
710
102
{ACAD_REACTORS
330
C
102
}
330
C
100
AcDbDictionary
281
     1
  0
DICTIONARY
  5
41
102
{ACAD_REACTORS
330
C
102
}
330
C
100
AcDbDictionary
281
     1
  0
DICTIONARY
  5
26B
102
{ACAD_REACTORS
330
C
102
}
330
C
100
AcDbDictionary
281
     1
  0
XRECORD
  5
F2A
102
{ACAD_REACTORS
330
C
102
}
330
C
100
AcDbXrecord
280
     1
  1
DWGPROPS COOKIE
  2

  3

  4

  6

  7

  8
nlazaar
  9

300
AmdtFileType=84
301
=
302
=
303
=
304
=
305
=
306
=
307
=
308
=
309
=
 40
0.2601316782407407
 41
2455659.580409294
 42
2455665.458634201
  1

 90
        1
  0
DICTIONARY
  5
68E
102
{ACAD_REACTORS
330
68D
102
}
330
68D
100
AcDbDictionary
281
     1
  0
XRECORD
  5
837
102
{ACAD_REACTORS
330
836
102
}
330
836
100
AcDbXrecord
280
     1
290
     1
  0
XRECORD
  5
838
102
{ACAD_REACTORS
330
677
102
}
330
677
100
AcDbXrecord
280
     1
290
     1
  0
XRECORD
  5
839
102
{ACAD_REACTORS
330
679
102
}
330
679
100
AcDbXrecord
280
     1
290
     1
  0
XRECORD
  5
83A
102
{ACAD_REACTORS
330
67C
102
}
330
67C
100
AcDbXrecord
280
     1
290
     1
  0
XRECORD
  5
83B
102
{ACAD_REACTORS
330
67E
102
}
330
67E
100
AcDbXrecord
280
     1
290
     1
  0
XRECORD
  5
83C
102
{ACAD_REACTORS
330
680
102
}
330
680
100
AcDbXrecord
280
     1
290
     1
  0
XRECORD
  5
83D
102
{ACAD_REACTORS
330
682
102
}
330
682
100
AcDbXrecord
280
     1
290
     1
  0
XRECORD
  5
83F
102
{ACAD_REACTORS
330
83E
102
}
330
83E
100
AcDbXrecord
280
     1
290
     1
  0
SORTENTSTABLE
  5
833
102
{ACAD_REACTORS
330
8F
102
}
330
8F
100
AcDbSortentsTable
330
1F
331
AFA
  5
BE5
331
C08
  5
C17
331
BE1
  5
BF0
331
AE9
  5
BD8
331
AC7
  5
AC7
331
AA5
  5
AA5
331
AE0
  5
AEF
331
BF7
  5
C06
331
EF4
  5
AE5
331
AB6
  5
AB6
331
A94
  5
A94
331
A83
  5
A83
331
AF8
  5
BE3
331
C06
  5
C15
331
BDF
  5
BEE
331
AC5
  5
AC5
331
AA3
  5
AA3
331
C17
  5
EF0
331
BF5
  5
C04
331
EF2
  5
AE3
331
AB4
  5
AB4
331
A92
  5
A92
331
A81
  5
A81
331
C04
  5
C13
331
BDD
  5
BEC
331
AA1
  5
AA1
331
BEE
  5
BFD
331
C15
  5
EEE
331
BF3
  5
C02
331
EF0
  5
AE1
331
AD4
  5
AD4
331
AB2
  5
AB2
331
A90
  5
A90
331
C02
  5
C11
331
BDB
  5
BEA
331
AC1
  5
AC1
331
BEC
  5
BFB
331
C13
  5
EEC
331
BF1
  5
C00
331
EEE
  5
ADF
331
AD2
  5
AD2
331
AB0
  5
AB0
331
A9F
  5
A9F
331
A8E
  5
A8E
331
C00
  5
C0F
331
BD9
  5
BE8
331
ADF
  5
AEE
331
BEA
  5
BF9
331
C11
  5
EEA
331
EEC
  5
ADD
331
AF2
  5
BE1
331
AD0
  5
AD0
331
AAE
  5
AAE
331
ABF
  5
ABF
331
A9D
  5
A9D
331
A8C
  5
A8C
331
BFE
  5
C0D
331
ADD
  5
AEC
331
EEA
  5
EF9
331
BE8
  5
BF7
331
C0F
  5
EE8
331
AF0
  5
BDF
331
ACE
  5
ACE
331
AAC
  5
AAC
331
AE7
  5
AFA
331
A9B
  5
A9B
331
A8A
  5
A8A
331
BFC
  5
C0B
331
EF9
  5
AEA
331
EE8
  5
EF7
331
BE6
  5
BF5
331
C0D
  5
EE6
331
AEE
  5
BDD
331
ACC
  5
ACC
331
AAA
  5
AAA
331
AE5
  5
AF8
331
ABB
  5
ABB
331
A99
  5
A99
331
A88
  5
A88
331
BFA
  5
C09
331
EE6
  5
EF5
331
BE4
  5
BF3
331
C0B
  5
C3E
331
AEC
  5
BDB
331
ACA
  5
ACA
331
AA8
  5
AA8
331
AE3
  5
AF2
331
EF7
  5
AE8
331
AB9
  5
AB9
331
A97
  5
A97
331
A86
  5
A86
331
BF8
  5
C07
331
AFB
  5
BE6
331
C09
  5
C18
331
BE2
  5
BF1
331
AEA
  5
BD9
331
AC8
  5
AC8
331
AA6
  5
AA6
331
AE1
  5
AF0
331
EF5
  5
AE6
331
AB7
  5
AB7
331
A95
  5
A95
331
A84
  5
A84
331
C18
  5
EF1
331
AF9
  5
BE4
331
C07
  5
C16
331
BE0
  5
BEF
331
AE8
  5
AFB
331
AC6
  5
AC6
331
AA4
  5
AA4
331
BF6
  5
C05
331
EF3
  5
AE4
331
AB5
  5
AB5
331
A93
  5
A93
331
A82
  5
A82
331
C05
  5
C14
331
BDE
  5
BED
331
AC4
  5
AC4
331
AA2
  5
AA2
331
BEF
  5
BFE
331
C16
  5
EEF
331
BF4
  5
C03
331
AB3
  5
AB3
331
A91
  5
A91
331
C3E
  5
EF3
331
C03
  5
C12
331
BDC
  5
BEB
331
AC2
  5
AC2
331
BED
  5
BFC
331
C14
  5
EED
331
BF2
  5
C01
331
EEF
  5
AE0
331
AF5
  5
BE2
331
AD3
  5
AD3
331
AB1
  5
AB1
331
AA0
  5
AA0
331
C3C
  5
EF2
331
C01
  5
C10
331
BDA
  5
BE9
331
BEB
  5
BFA
331
C12
  5
EEB
331
BF0
  5
BFF
331
EED
  5
ADE
331
AD1
  5
AD1
331
AAF
  5
AAF
331
A9E
  5
A9E
331
A8D
  5
A8D
331
BFF
  5
C0E
331
BD8
  5
BE7
331
ADE
  5
AED
331
BE9
  5
BF8
331
C10
  5
EE9
331
EEB
  5
ADC
331
AF1
  5
BE0
331
ACF
  5
ACF
331
AAD
  5
AAD
331
ABE
  5
ABE
331
A9C
  5
A9C
331
A8B
  5
A8B
331
BFD
  5
C0C
331
ADC
  5
AEB
331
EE9
  5
EF8
331
BE7
  5
BF6
331
C0E
  5
EE7
331
AEF
  5
BDE
331
ACD
  5
ACD
331
AAB
  5
AAB
331
AE6
  5
AF9
331
ABC
  5
ABC
331
A9A
  5
A9A
331
A89
  5
A89
331
BFB
  5
C0A
331
EF8
  5
AE9
331
ADA
  5
ADA
331
EE7
  5
EF6
331
BE5
  5
BF4
331
C0C
  5
EE5
331
AED
  5
BDC
331
ACB
  5
ACB
331
AA9
  5
AA9
331
AE4
  5
AF5
331
ABA
  5
ABA
331
A98
  5
A98
331
A87
  5
A87
331
BF9
  5
C08
331
EE5
  5
EF4
331
BE3
  5
BF2
331
C0A
  5
C3C
331
AEB
  5
BDA
331
AC9
  5
AC9
331
AA7
  5
AA7
331
AE2
  5
AF1
331
EF6
  5
AE7
331
AB8
  5
AB8
331
A96
  5
A96
331
A85
  5
A85
  0
DIMASSOC
  5
AF4
102
{ACAD_REACTORS
330
AF3
102
}
330
AF3
100
AcDbDimAssoc
330
AF2
 90
        3
 70
     0
 71
     0
  1
AcDbOsnapPointRef
 72
     1
331
AE9
 73
     0
 91
        0
 40
0.0
 10
0.0
 20
0.0
 30
2.000000000000000E+50
 75
     0
  1
AcDbOsnapPointRef
 72
    13
331
A8A
 73
     0
 91
        0
 40
0.0
 10
0.0
 20
0.0
 30
2.000000000000000E+50
 75
     0
  0
DIMASSOC
  5
AF7
102
{ACAD_REACTORS
330
AF6
102
}
330
AF6
100
AcDbDimAssoc
330
AF5
 90
        2
 70
     0
 71
     0
  1
AcDbOsnapPointRef
 72
    13
331
AC8
 73
     0
 91
        0
 40
0.0
 10
0.0
 20
0.0
 30
2.000000000000000E+50
 75
     0
  0
DIMASSOC
  5
C4C
102
{ACAD_REACTORS
330
C4B
102
}
330
C4B
100
AcDbDimAssoc
330
C3E
 90
        2
 70
     0
 71
     0
  1
AcDbOsnapPointRef
 72
    13
331
C3C
 73
     0
 91
        0
 40
0.0
 10
0.0
 20
0.0
 30
2.000000000000000E+50
 75
     0
  0
XRECORD
  5
F2C
102
{ACAD_REACTORS
330
F2B
102
}
330
F2B
100
AcDbXrecord
280
     1
 40
1.570796326794896
  0
XRECORD
  5
F2E
102
{ACAD_REACTORS
330
F2B
102
}
330
F2B
100
AcDbXrecord
280
     1
340
14
  0
XRECORD
  5
F2F
102
{ACAD_REACTORS
330
F2B
102
}
330
F2B
100
AcDbXrecord
280
     1
340
14
  0
XRECORD
  5
F2D
102
{ACAD_REACTORS
330
F2B
102
}
330
F2B
100
AcDbXrecord
280
     1
340
14
  0
LAYOUT
  5
1E
102
{ACAD_XDICTIONARY
360
F30
102
}
102
{ACAD_REACTORS
330
1A
102
}
330
1A
100
AcDbPlotSettings
  1

  2

  4

  6

 40
0.0
 41
0.0
 42
0.0
 43
0.0
 44
0.0
 45
0.0
 46
0.0
 47
0.0
 48
0.0
 49
0.0
140
0.0
141
0.0
142
1.0
143
1.0
 70
   688
 72
     0
 73
     0
 74
     5
  7

 75
    16
147
1.0
148
0.0
149
0.0
100
AcDbLayout
  1
Layout1
 70
     1
 71
     1
 10
0.0
 20
0.0
 11
420.0
 21
297.0
 12
0.0
 22
0.0
 32
0.0
 14
1.000000000000000E+20
 24
1.000000000000000E+20
 34
1.000000000000000E+20
 15
-1.000000000000000E+20
 25
-1.000000000000000E+20
 35
-1.000000000000000E+20
146
0.0
 13
0.0
 23
0.0
 33
0.0
 16
1.0
 26
0.0
 36
0.0
 17
0.0
 27
1.0
 37
0.0
 76
     0
330
1B
  0
LAYOUT
  5
26
102
{ACAD_XDICTIONARY
360
F34
102
}
102
{ACAD_REACTORS
330
1A
102
}
330
1A
100
AcDbPlotSettings
  1

  2

  4

  6

 40
0.0
 41
0.0
 42
0.0
 43
0.0
 44
0.0
 45
0.0
 46
0.0
 47
0.0
 48
0.0
 49
0.0
140
0.0
141
0.0
142
1.0
143
1.0
 70
   688
 72
     0
 73
     0
 74
     5
  7

 75
    16
147
1.0
148
0.0
149
0.0
100
AcDbLayout
  1
Layout2
 70
     1
 71
     2
 10
0.0
 20
0.0
 11
12.0
 21
9.0
 12
0.0
 22
0.0
 32
0.0
 14
0.0
 24
0.0
 34
0.0
 15
0.0
 25
0.0
 35
0.0
146
0.0
 13
0.0
 23
0.0
 33
0.0
 16
1.0
 26
0.0
 36
0.0
 17
0.0
 27
1.0
 37
0.0
 76
     0
330
23
  0
LAYOUT
  5
22
102
{ACAD_XDICTIONARY
360
F32
102
}
102
{ACAD_REACTORS
330
1A
102
}
330
1A
100
AcDbPlotSettings
  1

  2
\\rd-sr-230\ST-PR-055
  4
A4
  6

 40
6.805083274841307
 41
5.619739055633544
 42
7.016738891601562
 43
7.14373779296875
 44
209.9733276367186
 45
296.9683227539062
 46
0.0
 47
0.0
 48
0.0
 49
0.0
140
0.0
141
0.0
142
1.0
143
3.842684444421712
 70
 11952
 72
     1
 73
     1
 74
     0
  7

 75
     0
147
0.2602347433059886
148
211.2774135285454
149
-242.9065182627855
100
AcDbLayout
  1
Model
 70
     1
 71
     0
 10
0.0
 20
0.0
 11
12.0
 21
9.0
 12
0.0
 22
0.0
 32
0.0
 14
0.0
 24
0.0
 34
0.0
 15
0.0
 25
0.0
 35
0.0
146
0.0
 13
0.0
 23
0.0
 33
0.0
 16
1.0
 26
0.0
 36
0.0
 17
0.0
 27
1.0
 37
0.0
 76
     0
330
1F
331
3B2
1001
ACAD_PSEXT
1000
\\rd-sr-230\ST-PR-055
1000
Xerox Document Centre 440
1000
ST
1000
*** 
1070
     0
  0
MATERIAL
  5
3BC
102
{ACAD_XDICTIONARY
360
3BD
102
}
102
{ACAD_REACTORS
330
BD
102
}
330
BD
100
AcDbMaterial
  1
ByBlock
 72
     0
 43
0.0008202099737533
 43
0.0
 43
0.0
 43
0.0
 43
0.0
 43
0.0008202099737533
 43
0.0
 43
0.0
 43
0.0
 43
0.0
 43
1.0
 43
0.0
 43
0.0
 43
0.0
 43
0.0
 43
1.0
 77
     0
 47
0.0008202099737533
 47
0.0
 47
0.0
 47
0.0
 47
0.0
 47
0.0008202099737533
 47
0.0
 47
0.0
 47
0.0
 47
0.0
 47
1.0
 47
0.0
 47
0.0
 47
0.0
 47
0.0
 47
1.0
171
     0
 49
0.0008202099737533
 49
0.0
 49
0.0
 49
0.0
 49
0.0
 49
0.0008202099737533
 49
0.0
 49
0.0
 49
0.0
 49
0.0
 49
1.0
 49
0.0
 49
0.0
 49
0.0
 49
0.0
 49
1.0
175
     0
142
0.0008202099737533
142
0.0
142
0.0
142
0.0
142
0.0
142
0.0008202099737533
142
0.0
142
0.0
142
0.0
142
0.0
142
1.0
142
0.0
142
0.0
142
0.0
142
0.0
142
1.0
179
     0
144
0.0008202099737533
144
0.0
144
0.0
144
0.0
144
0.0
144
0.0008202099737533
144
0.0
144
0.0
144
0.0
144
0.0
144
1.0
144
0.0
144
0.0
144
0.0
144
0.0
144
1.0
147
0.0008202099737533
147
0.0
147
0.0
147
0.0
147
0.0
147
0.0008202099737533
147
0.0
147
0.0
147
0.0
147
0.0
147
1.0
147
0.0
147
0.0
147
0.0
147
0.0
147
1.0
  0
MATERIAL
  5
3B4
102
{ACAD_XDICTIONARY
360
3B5
102
}
102
{ACAD_REACTORS
330
BD
102
}
330
BD
100
AcDbMaterial
  1
ByLayer
 72
     0
 43
0.0008202099737533
 43
0.0
 43
0.0
 43
0.0
 43
0.0
 43
0.0008202099737533
 43
0.0
 43
0.0
 43
0.0
 43
0.0
 43
1.0
 43
0.0
 43
0.0
 43
0.0
 43
0.0
 43
1.0
 77
     0
 47
0.0008202099737533
 47
0.0
 47
0.0
 47
0.0
 47
0.0
 47
0.0008202099737533
 47
0.0
 47
0.0
 47
0.0
 47
0.0
 47
1.0
 47
0.0
 47
0.0
 47
0.0
 47
0.0
 47
1.0
171
     0
 49
0.0008202099737533
 49
0.0
 49
0.0
 49
0.0
 49
0.0
 49
0.0008202099737533
 49
0.0
 49
0.0
 49
0.0
 49
0.0
 49
1.0
 49
0.0
 49
0.0
 49
0.0
 49
0.0
 49
1.0
175
     0
142
0.0008202099737533
142
0.0
142
0.0
142
0.0
142
0.0
142
0.0008202099737533
142
0.0
142
0.0
142
0.0
142
0.0
142
1.0
142
0.0
142
0.0
142
0.0
142
0.0
142
1.0
179
     0
144
0.0008202099737533
144
0.0
144
0.0
144
0.0
144
0.0
144
0.0008202099737533
144
0.0
144
0.0
144
0.0
144
0.0
144
1.0
144
0.0
144
0.0
144
0.0
144
0.0
144
1.0
147
0.0008202099737533
147
0.0
147
0.0
147
0.0
147
0.0
147
0.0008202099737533
147
0.0
147
0.0
147
0.0
147
0.0
147
1.0
147
0.0
147
0.0
147
0.0
147
0.0
147
1.0
  0
MATERIAL
  5
3C4
102
{ACAD_XDICTIONARY
360
3C5
102
}
102
{ACAD_REACTORS
330
BD
102
}
330
BD
100
AcDbMaterial
  1
Global
 72
     0
 43
0.0008202099737533
 43
0.0
 43
0.0
 43
0.0
 43
0.0
 43
0.0008202099737533
 43
0.0
 43
0.0
 43
0.0
 43
0.0
 43
1.0
 43
0.0
 43
0.0
 43
0.0
 43
0.0
 43
1.0
 77
     0
 47
0.0008202099737533
 47
0.0
 47
0.0
 47
0.0
 47
0.0
 47
0.0008202099737533
 47
0.0
 47
0.0
 47
0.0
 47
0.0
 47
1.0
 47
0.0
 47
0.0
 47
0.0
 47
0.0
 47
1.0
171
     0
 49
0.0008202099737533
 49
0.0
 49
0.0
 49
0.0
 49
0.0
 49
0.0008202099737533
 49
0.0
 49
0.0
 49
0.0
 49
0.0
 49
1.0
 49
0.0
 49
0.0
 49
0.0
 49
0.0
 49
1.0
175
     0
142
0.0008202099737533
142
0.0
142
0.0
142
0.0
142
0.0
142
0.0008202099737533
142
0.0
142
0.0
142
0.0
142
0.0
142
1.0
142
0.0
142
0.0
142
0.0
142
0.0
142
1.0
179
     0
144
0.0008202099737533
144
0.0
144
0.0
144
0.0
144
0.0
144
0.0008202099737533
144
0.0
144
0.0
144
0.0
144
0.0
144
1.0
144
0.0
144
0.0
144
0.0
144
0.0
144
1.0
147
0.0008202099737533
147
0.0
147
0.0
147
0.0
147
0.0
147
0.0008202099737533
147
0.0
147
0.0
147
0.0
147
0.0
147
1.0
147
0.0
147
0.0
147
0.0
147
0.0
147
1.0
  0
MLEADERSTYLE
  5
3F0
102
{ACAD_REACTORS
330
3EF
102
}
330
3EF
100
AcDbMLeaderStyle
170
     2
171
     1
172
     0
 90
        2
 40
0.0
 41
0.0
173
     1
 91
-1056964608
340
14
 92
       -2
290
     1
 42
2.0
291
     1
 43
0.36
  3
Standard
 44
4.0
300

342
11
174
     1
178
     6
175
     1
176
     0
 93
-1056964608
 45
4.0
292
     0
297
     0
 46
4.0
 94
-1056964608
 47
1.0
 49
1.0
140
1.0
293
     1
141
0.0
294
     1
177
     0
142
1.0
295
     0
296
     0
143
0.125
1001
ACAD_MLEADERVER
1070
     2
  0
MLINESTYLE
  5
18
102
{ACAD_REACTORS
330
17
102
}
330
17
100
AcDbMlineStyle
  2
STANDARD
 70
     0
  3

 62
   256
 51
90.0
 52
90.0
 71
     2
 49
0.5
 62
   256
  6
BYLAYER
 49
-0.5
 62
   256
  6
BYLAYER
  0
ACDBPLACEHOLDER
  5
F
102
{ACAD_REACTORS
330
E
102
}
330
E
  0
SCALE
  5
3DE
102
{ACAD_REACTORS
330
3DD
102
}
330
3DD
100
AcDbScale
 70
     0
300
1:1
140
1.0
141
1.0
290
     1
  0
SCALE
  5
3DF
102
{ACAD_REACTORS
330
3DD
102
}
330
3DD
100
AcDbScale
 70
     0
300
1:2
140
1.0
141
2.0
290
     0
  0
SCALE
  5
3E0
102
{ACAD_REACTORS
330
3DD
102
}
330
3DD
100
AcDbScale
 70
     0
300
1:4
140
1.0
141
4.0
290
     0
  0
SCALE
  5
3E1
102
{ACAD_REACTORS
330
3DD
102
}
330
3DD
100
AcDbScale
 70
     0
300
1:5
140
1.0
141
5.0
290
     0
  0
SCALE
  5
3E2
102
{ACAD_REACTORS
330
3DD
102
}
330
3DD
100
AcDbScale
 70
     0
300
1:8
140
1.0
141
8.0
290
     0
  0
SCALE
  5
3E3
102
{ACAD_REACTORS
330
3DD
102
}
330
3DD
100
AcDbScale
 70
     0
300
1:10
140
1.0
141
10.0
290
     0
  0
SCALE
  5
3E4
102
{ACAD_REACTORS
330
3DD
102
}
330
3DD
100
AcDbScale
 70
     0
300
1:16
140
1.0
141
16.0
290
     0
  0
SCALE
  5
3E5
102
{ACAD_REACTORS
330
3DD
102
}
330
3DD
100
AcDbScale
 70
     0
300
1:20
140
1.0
141
20.0
290
     0
  0
SCALE
  5
3E6
102
{ACAD_REACTORS
330
3DD
102
}
330
3DD
100
AcDbScale
 70
     0
300
1:30
140
1.0
141
30.0
290
     0
  0
SCALE
  5
3E7
102
{ACAD_REACTORS
330
3DD
102
}
330
3DD
100
AcDbScale
 70
     0
300
1:40
140
1.0
141
40.0
290
     0
  0
SCALE
  5
3E8
102
{ACAD_REACTORS
330
3DD
102
}
330
3DD
100
AcDbScale
 70
     0
300
1:50
140
1.0
141
50.0
290
     0
  0
SCALE
  5
3E9
102
{ACAD_REACTORS
330
3DD
102
}
330
3DD
100
AcDbScale
 70
     0
300
1:100
140
1.0
141
100.0
290
     0
  0
SCALE
  5
3EA
102
{ACAD_REACTORS
330
3DD
102
}
330
3DD
100
AcDbScale
 70
     0
300
2:1
140
2.0
141
1.0
290
     0
  0
SCALE
  5
3EB
102
{ACAD_REACTORS
330
3DD
102
}
330
3DD
100
AcDbScale
 70
     0
300
4:1
140
4.0
141
1.0
290
     0
  0
SCALE
  5
3EC
102
{ACAD_REACTORS
330
3DD
102
}
330
3DD
100
AcDbScale
 70
     0
300
8:1
140
8.0
141
1.0
290
     0
  0
SCALE
  5
3ED
102
{ACAD_REACTORS
330
3DD
102
}
330
3DD
100
AcDbScale
 70
     0
300
10:1
140
10.0
141
1.0
290
     0
  0
SCALE
  5
3EE
102
{ACAD_REACTORS
330
3DD
102
}
330
3DD
100
AcDbScale
 70
     0
300
100:1
140
100.0
141
1.0
290
     0
  0
TABLESTYLE
  5
11B
102
{ACAD_XDICTIONARY
360
41B
102
}
102
{ACAD_REACTORS
330
11A
102
}
330
11A
100
AcDbTableStyle
  3
Standard
 70
     0
 71
     0
 40
1.5
 41
1.5
280
     0
281
     0
  7
STANDARD
140
4.5
170
     2
 62
     0
 63
     7
283
     0
274
    -2
284
     1
 64
     0
275
    -2
285
     1
 65
     0
276
    -2
286
     1
 66
     0
277
    -2
287
     1
 67
     0
278
    -2
288
     1
 68
     0
279
    -2
289
     1
 69
     0
  7
STANDARD
140
6.0
170
     5
 62
     0
 63
     7
283
     0
274
    -2
284
     1
 64
     0
275
    -2
285
     1
 65
     0
276
    -2
286
     1
 66
     0
277
    -2
287
     1
 67
     0
278
    -2
288
     1
 68
     0
279
    -2
289
     1
 69
     0
  7
STANDARD
140
4.5
170
     5
 62
     0
 63
     7
283
     0
274
    -2
284
     1
 64
     0
275
    -2
285
     1
 65
     0
276
    -2
286
     1
 66
     0
277
    -2
287
     1
 67
     0
278
    -2
288
     1
 68
     0
279
    -2
289
     1
 69
     0
  0
VISUALSTYLE
  5
3D2
102
{ACAD_REACTORS
330
3CC
102
}
330
3CC
100
AcDbVisualStyle
  2
2dWireframe
 70
     4
 71
     0
 72
     2
 73
     0
 90
        0
 40
-0.6
 41
-30.0
 62
     5
 63
     7
 74
     1
 91
        4
 64
     7
 65
   257
 75
     1
175
     1
 42
1.0
 92
        0
 66
   257
 43
1.0
 76
     1
 77
     6
 78
     2
 67
     7
 79
     5
170
     0
171
     0
290
     0
174
     0
 93
        1
 44
0.0
173
     0
291
     0
 45
0.0
1001
ACAD
1000
AcDbSavedByObjectVersion
1070
     0
1000
AcDbSavedByObjectVersion
1070
     0
1000
AcDbSavedByObjectVersion
1070
     0
1000
AcDbSavedByObjectVersion
1070
     0
  0
VISUALSTYLE
  5
3D4
102
{ACAD_REACTORS
330
3CC
102
}
330
3CC
100
AcDbVisualStyle
  2
3D Hidden
 70
     6
 71
     1
 72
     2
 73
     2
 90
        0
 40
-0.6
 41
-30.0
 62
     5
 63
     7
 74
     2
 91
        2
 64
     7
 65
   257
 75
     2
175
     1
 42
40.0
 92
        0
 66
   257
 43
1.0
 76
     1
 77
     6
 78
     2
 67
     7
 79
     3
170
     0
171
     0
290
     0
174
     0
 93
        1
 44
0.0
173
     0
291
     0
 45
0.0
1001
ACAD
1000
AcDbSavedByObjectVersion
1070
     0
1000
AcDbSavedByObjectVersion
1070
     0
1000
AcDbSavedByObjectVersion
1070
     0
1000
AcDbSavedByObjectVersion
1070
     0
  0
VISUALSTYLE
  5
3D3
102
{ACAD_REACTORS
330
3CC
102
}
330
3CC
100
AcDbVisualStyle
  2
3dWireframe
 70
     5
 71
     0
 72
     2
 73
     0
 90
        0
 40
-0.6
 41
-30.0
 62
     5
 63
     7
 74
     1
 91
        4
 64
     7
 65
   257
 75
     1
175
     1
 42
1.0
 92
        0
 66
   257
 43
1.0
 76
     1
 77
     6
 78
     2
 67
     7
 79
     5
170
     0
171
     0
290
     0
174
     0
 93
        1
 44
0.0
173
     0
291
     0
 45
0.0
1001
ACAD
1000
AcDbSavedByObjectVersion
1070
     0
1000
AcDbSavedByObjectVersion
1070
     0
1000
AcDbSavedByObjectVersion
1070
     0
1000
AcDbSavedByObjectVersion
1070
     0
  0
VISUALSTYLE
  5
3D1
102
{ACAD_REACTORS
330
3CC
102
}
330
3CC
100
AcDbVisualStyle
  2
Basic
 70
     7
 71
     1
 72
     0
 73
     1
 90
        0
 40
-0.6
 41
-30.0
 62
     5
 63
     7
 74
     0
 91
        4
 64
     7
 65
   257
 75
     1
175
     1
 42
1.0
 92
        8
 66
     7
 43
1.0
 76
     1
 77
     6
 78
     2
 67
     7
 79
     5
170
     0
171
     0
290
     0
174
     0
 93
        1
 44
0.0
173
     0
291
     1
 45
0.0
1001
ACAD
1000
AcDbSavedByObjectVersion
1070
     0
1000
AcDbSavedByObjectVersion
1070
     0
1000
AcDbSavedByObjectVersion
1070
     0
1000
AcDbSavedByObjectVersion
1070
     0
  0
VISUALSTYLE
  5
3D8
102
{ACAD_REACTORS
330
3CC
102
}
330
3CC
100
AcDbVisualStyle
  2
Brighten
 70
    12
 71
     2
 72
     2
 73
     0
 90
        0
 40
-0.6
 41
-30.0
 62
     5
 63
     7
 74
     1
 91
        4
 64
     7
 65
   257
 75
     1
175
     1
 42
1.0
 92
        8
 66
     7
 43
1.0
 76
     1
 77
     6
 78
     2
 67
     7
 79
     5
170
     0
171
     0
290
     0
174
     0
 93
        1
 44
50.0
173
     0
291
     1
 45
0.0
1001
ACAD
1000
AcDbSavedByObjectVersion
1070
     0
1000
AcDbSavedByObjectVersion
1070
     0
1000
AcDbSavedByObjectVersion
1070
     0
1000
AcDbSavedByObjectVersion
1070
     0
  0
VISUALSTYLE
  5
3DC
102
{ACAD_REACTORS
330
3CC
102
}
330
3CC
100
AcDbVisualStyle
  2
ColorChange
 70
    16
 71
     2
 72
     2
 73
     3
 90
        0
 40
-0.6
 41
-30.0
 62
     5
 63
     8
 74
     1
 91
        4
 64
     7
 65
   257
 75
     1
175
     1
 42
1.0
 92
        8
 66
     8
 43
1.0
 76
     1
 77
     6
 78
     2
 67
     7
 79
     5
170
     0
171
     0
290
     0
174
     0
 93
        1
 44
0.0
173
     0
291
     1
 45
0.0
1001
ACAD
1000
AcDbSavedByObjectVersion
1070
     0
1000
AcDbSavedByObjectVersion
1070
     0
1000
AcDbSavedByObjectVersion
1070
     0
1000
AcDbSavedByObjectVersion
1070
     0
  0
VISUALSTYLE
  5
3D5
102
{ACAD_REACTORS
330
3CC
102
}
330
3CC
100
AcDbVisualStyle
  2
Conceptual
 70
     9
 71
     3
 72
     2
 73
     0
 90
        0
 40
-0.6
 41
-30.0
 62
     5
 63
     7
 74
     2
 91
        2
 64
     7
 65
   257
 75
     1
175
     1
 42
40.0
 92
        8
 66
     7
 43
1.0
 76
     1
 77
     6
 78
     2
 67
     7
 79
     3
170
     0
171
     0
290
     0
174
     0
 93
        1
 44
0.0
173
     0
291
     0
 45
0.0
1001
ACAD
1000
AcDbSavedByObjectVersion
1070
     0
1000
AcDbSavedByObjectVersion
1070
     0
1000
AcDbSavedByObjectVersion
1070
     0
1000
AcDbSavedByObjectVersion
1070
     0
  0
VISUALSTYLE
  5
3D7
102
{ACAD_REACTORS
330
3CC
102
}
330
3CC
100
AcDbVisualStyle
  2
Dim
 70
    11
 71
     2
 72
     2
 73
     0
 90
        0
 40
-0.6
 41
-30.0
 62
     5
 63
     7
 74
     1
 91
        4
 64
     7
 65
   257
 75
     1
175
     1
 42
1.0
 92
        8
 66
     7
 43
1.0
 76
     1
 77
     6
 78
     2
 67
     7
 79
     5
170
     0
171
     0
290
     0
174
     0
 93
        1
 44
-50.0
173
     0
291
     1
 45
0.0
1001
ACAD
1000
AcDbSavedByObjectVersion
1070
     0
1000
AcDbSavedByObjectVersion
1070
     0
1000
AcDbSavedByObjectVersion
1070
     0
1000
AcDbSavedByObjectVersion
1070
     0
  0
VISUALSTYLE
  5
3DB
102
{ACAD_REACTORS
330
3CC
102
}
330
3CC
100
AcDbVisualStyle
  2
Facepattern
 70
    15
 71
     2
 72
     2
 73
     0
 90
        0
 40
-0.6
 41
-30.0
 62
     5
 63
     7
 74
     1
 91
        4
 64
     7
 65
   257
 75
     1
175
     1
 42
1.0
 92
        8
 66
     7
 43
1.0
 76
     1
 77
     6
 78
     2
 67
     7
 79
     5
170
     0
171
     0
290
     0
174
     0
 93
        1
 44
0.0
173
     0
291
     1
 45
0.0
1001
ACAD
1000
AcDbSavedByObjectVersion
1070
     0
1000
AcDbSavedByObjectVersion
1070
     0
1000
AcDbSavedByObjectVersion
1070
     0
1000
AcDbSavedByObjectVersion
1070
     0
  0
VISUALSTYLE
  5
3CD
102
{ACAD_REACTORS
330
3CC
102
}
330
3CC
100
AcDbVisualStyle
  2
Flat
 70
     0
 71
     2
 72
     1
 73
     1
 90
        2
 40
-0.6
 41
30.0
 62
     5
 63
     7
 74
     0
 91
        4
 64
     7
 65
   257
 75
     1
175
     1
 42
1.0
 92
        8
 66
     7
 43
1.0
 76
     1
 77
     6
 78
     2
 67
     7
 79
     5
170
     0
171
     0
290
     0
174
     0
 93
       13
 44
0.0
173
     0
291
     1
 45
0.0
1001
ACAD
1000
AcDbSavedByObjectVersion
1070
     0
1000
AcDbSavedByObjectVersion
1070
     0
1000
AcDbSavedByObjectVersion
1070
     0
1000
AcDbSavedByObjectVersion
1070
     0
  0
VISUALSTYLE
  5
3CE
102
{ACAD_REACTORS
330
3CC
102
}
330
3CC
100
AcDbVisualStyle
  2
FlatWithEdges
 70
     1
 71
     2
 72
     1
 73
     1
 90
        2
 40
-0.6
 41
30.0
 62
     5
 63
     7
 74
     1
 91
        4
 64
     7
 65
   257
 75
     1
175
     1
 42
1.0
 92
        0
 66
   257
 43
1.0
 76
     1
 77
     6
 78
     2
 67
     7
 79
     5
170
     0
171
     0
290
     0
174
     0
 93
       13
 44
0.0
173
     0
291
     1
 45
0.0
1001
ACAD
1000
AcDbSavedByObjectVersion
1070
     0
1000
AcDbSavedByObjectVersion
1070
     0
1000
AcDbSavedByObjectVersion
1070
     0
1000
AcDbSavedByObjectVersion
1070
     0
  0
VISUALSTYLE
  5
3CF
102
{ACAD_REACTORS
330
3CC
102
}
330
3CC
100
AcDbVisualStyle
  2
Gouraud
 70
     2
 71
     2
 72
     2
 73
     1
 90
        2
 40
-0.6
 41
30.0
 62
     5
 63
     7
 74
     0
 91
        4
 64
     7
 65
   257
 75
     1
175
     1
 42
1.0
 92
        0
 66
     7
 43
1.0
 76
     1
 77
     6
 78
     2
 67
     7
 79
     5
170
     0
171
     0
290
     0
174
     0
 93
       13
 44
0.0
173
     0
291
     1
 45
0.0
1001
ACAD
1000
AcDbSavedByObjectVersion
1070
     0
1000
AcDbSavedByObjectVersion
1070
     0
1000
AcDbSavedByObjectVersion
1070
     0
1000
AcDbSavedByObjectVersion
1070
     0
  0
VISUALSTYLE
  5
3D0
102
{ACAD_REACTORS
330
3CC
102
}
330
3CC
100
AcDbVisualStyle
  2
GouraudWithEdges
 70
     3
 71
     2
 72
     2
 73
     1
 90
        2
 40
-0.6
 41
30.0
 62
     5
 63
     7
 74
     1
 91
        4
 64
     7
 65
   257
 75
     1
175
     1
 42
1.0
 92
        0
 66
   257
 43
1.0
 76
     1
 77
     6
 78
     2
 67
     7
 79
     5
170
     0
171
     0
290
     0
174
     0
 93
       13
 44
0.0
173
     0
291
     1
 45
0.0
1001
ACAD
1000
AcDbSavedByObjectVersion
1070
     0
1000
AcDbSavedByObjectVersion
1070
     0
1000
AcDbSavedByObjectVersion
1070
     0
1000
AcDbSavedByObjectVersion
1070
     0
  0
VISUALSTYLE
  5
3DA
102
{ACAD_REACTORS
330
3CC
102
}
330
3CC
100
AcDbVisualStyle
  2
Linepattern
 70
    14
 71
     2
 72
     2
 73
     0
 90
        0
 40
-0.6
 41
-30.0
 62
     5
 63
     7
 74
     1
 91
        4
 64
     7
 65
   257
 75
     7
175
     7
 42
1.0
 92
        8
 66
     7
 43
1.0
 76
     1
 77
     6
 78
     2
 67
     7
 79
     5
170
     0
171
     0
290
     0
174
     0
 93
        1
 44
0.0
173
     0
291
     1
 45
0.0
1001
ACAD
1000
AcDbSavedByObjectVersion
1070
     0
1000
AcDbSavedByObjectVersion
1070
     0
1000
AcDbSavedByObjectVersion
1070
     0
1000
AcDbSavedByObjectVersion
1070
     0
  0
VISUALSTYLE
  5
3D6
102
{ACAD_REACTORS
330
3CC
102
}
330
3CC
100
AcDbVisualStyle
  2
Realistic
 70
     8
 71
     2
 72
     2
 73
     0
 90
        0
 40
-0.6
 41
-30.0
 62
     5
 63
     7
 74
     1
 91
        0
 64
     7
 65
   257
 75
     1
175
     1
 42
1.0
 92
        8
 66
     8
 43
1.0
 76
     1
 77
     6
 78
     2
 67
     7
 79
     5
170
     0
171
     0
290
     0
174
     0
 93
       13
 44
0.0
173
     0
291
     0
 45
0.0
1001
ACAD
1000
AcDbSavedByObjectVersion
1070
     0
1000
AcDbSavedByObjectVersion
1070
     0
1000
AcDbSavedByObjectVersion
1070
     0
1000
AcDbSavedByObjectVersion
1070
     0
  0
VISUALSTYLE
  5
3D9
102
{ACAD_REACTORS
330
3CC
102
}
330
3CC
100
AcDbVisualStyle
  2
Thicken
 70
    13
 71
     2
 72
     2
 73
     0
 90
        0
 40
-0.6
 41
-30.0
 62
     5
 63
     7
 74
     1
 91
        4
 64
     7
 65
   257
 75
     1
175
     1
 42
1.0
 92
       12
 66
     7
 43
1.0
 76
     1
 77
     6
 78
     2
 67
     7
 79
     5
170
     0
171
     0
290
     0
174
     0
 93
        1
 44
0.0
173
     0
291
     1
 45
0.0
1001
ACAD
1000
AcDbSavedByObjectVersion
1070
     0
1000
AcDbSavedByObjectVersion
1070
     0
1000
AcDbSavedByObjectVersion
1070
     0
1000
AcDbSavedByObjectVersion
1070
     0
  0
DICTIONARYVAR
  5
420
102
{ACAD_REACTORS
330
94
102
}
330
94
100
DictionaryVariables
280
     0
  1
1:1
  0
DICTIONARYVAR
  5
41E
102
{ACAD_REACTORS
330
94
102
}
330
94
100
DictionaryVariables
280
     0
  1
STANDARD
  0
DICTIONARYVAR
  5
138
102
{ACAD_REACTORS
330
94
102
}
330
94
100
DictionaryVariables
280
     0
  1
STANDARD
  0
DICTIONARYVAR
  5
96
102
{ACAD_REACTORS
330
94
102
}
330
94
100
DictionaryVariables
280
     0
  1
2
  0
DICTIONARYVAR
  5
95
102
{ACAD_REACTORS
330
94
102
}
330
94
100
DictionaryVariables
280
     0
  1
0
  0
DICTIONARYVAR
  5
422
102
{ACAD_REACTORS
330
94
102
}
330
94
100
DictionaryVariables
280
     0
  1
1
  0
DICTIONARYVAR
  5
423
102
{ACAD_REACTORS
330
94
102
}
330
94
100
DictionaryVariables
280
     0
  1
15
  0
DICTIONARYVAR
  5
421
102
{ACAD_REACTORS
330
94
102
}
330
94
100
DictionaryVariables
280
     0
  1
0
  0
DICTIONARYVAR
  5
41F
102
{ACAD_REACTORS
330
94
102
}
330
94
100
DictionaryVariables
280
     0
  1
0
  0
DICTIONARYVAR
  5
85C
102
{ACAD_REACTORS
330
94
102
}
330
94
100
DictionaryVariables
280
     0
  1
127
  0
DICTIONARY
  5
272
102
{ACAD_REACTORS
330
5B
102
}
330
5B
100
AcDbDictionary
281
     1
  0
DICTIONARY
  5
61
102
{ACAD_REACTORS
330
5B
102
}
330
5B
100
AcDbDictionary
281
     1
  0
XRECORD
  5
123
102
{ACAD_REACTORS
330
5B
102
}
330
5B
100
AcDbXrecord
280
     1
 90
-1023410169
  0
DICTIONARY
  5
F30
330
1E
100
AcDbDictionary
280
     1
281
     1
  3
ACAD_XREC_ROUNDTRIP
360
F31
  0
DICTIONARY
  5
F34
330
26
100
AcDbDictionary
280
     1
281
     1
  3
ACAD_XREC_ROUNDTRIP
360
F35
  0
DICTIONARY
  5
F32
330
22
100
AcDbDictionary
280
     1
281
     1
  3
ACAD_XREC_ROUNDTRIP
360
F33
  0
DICTIONARY
  5
3BD
330
3BC
100
AcDbDictionary
280
     1
281
     1
  3
ACAD_XREC_ROUNDTRIP
360
869
  3
BUMPTILE
360
3BF
  3
DIFFUSETILE
360
3BE
  3
OPACITYTILE
360
3C2
  3
REFLECTIONTILE
360
3C1
  3
REFRACTIONTILE
360
3C3
  3
SPECULARTILE
360
3C0
  0
DICTIONARY
  5
3B5
330
3B4
100
AcDbDictionary
280
     1
281
     1
  3
ACAD_XREC_ROUNDTRIP
360
868
  3
BUMPTILE
360
3B7
  3
DIFFUSETILE
360
3B6
  3
OPACITYTILE
360
3BA
  3
REFLECTIONTILE
360
3B9
  3
REFRACTIONTILE
360
3BB
  3
SPECULARTILE
360
3B8
  0
DICTIONARY
  5
3C5
330
3C4
100
AcDbDictionary
280
     1
281
     1
  3
ACAD_XREC_ROUNDTRIP
360
86A
  3
BUMPTILE
360
3C7
  3
DIFFUSETILE
360
3C6
  3
OPACITYTILE
360
3CA
  3
REFLECTIONTILE
360
3C9
  3
REFRACTIONTILE
360
3CB
  3
SPECULARTILE
360
3C8
  0
DICTIONARY
  5
41B
330
11B
100
AcDbDictionary
280
     1
281
     1
  3
ACAD_ROUNDTRIP_2008_TABLESTYLE_CELLSTYLEMAP
360
F29
  3
ACAD_XREC_ROUNDTRIP
360
F36
  0
XRECORD
  5
F31
102
{ACAD_REACTORS
330
F30
102
}
330
F30
100
AcDbXrecord
280
     1
102
SHADEPLOT
 70
     0
102
SHADEPLOTRESLEVEL
 70
     2
102
SHADEPLOTCUSTOMDPI
 70
   300
  0
XRECORD
  5
F35
102
{ACAD_REACTORS
330
F34
102
}
330
F34
100
AcDbXrecord
280
     1
102
SHADEPLOT
 70
     0
102
SHADEPLOTRESLEVEL
 70
     2
102
SHADEPLOTCUSTOMDPI
 70
   300
  0
XRECORD
  5
F33
102
{ACAD_REACTORS
330
F32
102
}
330
F32
100
AcDbXrecord
280
     1
102
SHADEPLOT
 70
     0
102
SHADEPLOTRESLEVEL
 70
     2
102
SHADEPLOTCUSTOMDPI
 70
   300
  0
XRECORD
  5
869
102
{ACAD_REACTORS
330
3BD
102
}
330
3BD
100
AcDbXrecord
280
     1
102
MATERIAL
148
0.0
149
0.0
149
0.0
 93
        0
 94
      127
282
     0
 72
     0
 77
     0
171
     0
175
     0
179
     0
273
     0
  0
XRECORD
  5
3BF
102
{ACAD_REACTORS
330
3BD
102
}
330
3BD
100
AcDbXrecord
280
     1
270
     1
271
     1
  0
XRECORD
  5
3BE
102
{ACAD_REACTORS
330
3BD
102
}
330
3BD
100
AcDbXrecord
280
     1
270
     1
271
     1
  0
XRECORD
  5
3C2
102
{ACAD_REACTORS
330
3BD
102
}
330
3BD
100
AcDbXrecord
280
     1
270
     1
271
     1
  0
XRECORD
  5
3C1
102
{ACAD_REACTORS
330
3BD
102
}
330
3BD
100
AcDbXrecord
280
     1
270
     1
271
     1
  0
XRECORD
  5
3C3
102
{ACAD_REACTORS
330
3BD
102
}
330
3BD
100
AcDbXrecord
280
     1
270
     1
271
     1
  0
XRECORD
  5
3C0
102
{ACAD_REACTORS
330
3BD
102
}
330
3BD
100
AcDbXrecord
280
     1
270
     1
271
     1
  0
XRECORD
  5
868
102
{ACAD_REACTORS
330
3B5
102
}
330
3B5
100
AcDbXrecord
280
     1
102
MATERIAL
148
0.0
149
0.0
149
0.0
 93
        0
 94
      127
282
     0
 72
     0
 77
     0
171
     0
175
     0
179
     0
273
     0
  0
XRECORD
  5
3B7
102
{ACAD_REACTORS
330
3B5
102
}
330
3B5
100
AcDbXrecord
280
     1
270
     1
271
     1
  0
XRECORD
  5
3B6
102
{ACAD_REACTORS
330
3B5
102
}
330
3B5
100
AcDbXrecord
280
     1
270
     1
271
     1
  0
XRECORD
  5
3BA
102
{ACAD_REACTORS
330
3B5
102
}
330
3B5
100
AcDbXrecord
280
     1
270
     1
271
     1
  0
XRECORD
  5
3B9
102
{ACAD_REACTORS
330
3B5
102
}
330
3B5
100
AcDbXrecord
280
     1
270
     1
271
     1
  0
XRECORD
  5
3BB
102
{ACAD_REACTORS
330
3B5
102
}
330
3B5
100
AcDbXrecord
280
     1
270
     1
271
     1
  0
XRECORD
  5
3B8
102
{ACAD_REACTORS
330
3B5
102
}
330
3B5
100
AcDbXrecord
280
     1
270
     1
271
     1
  0
XRECORD
  5
86A
102
{ACAD_REACTORS
330
3C5
102
}
330
3C5
100
AcDbXrecord
280
     1
102
MATERIAL
148
0.0
149
0.0
149
0.0
 93
        0
 94
      127
282
     0
 72
     0
 77
     0
171
     0
175
     0
179
     0
273
     0
  0
XRECORD
  5
3C7
102
{ACAD_REACTORS
330
3C5
102
}
330
3C5
100
AcDbXrecord
280
     1
270
     1
271
     1
  0
XRECORD
  5
3C6
102
{ACAD_REACTORS
330
3C5
102
}
330
3C5
100
AcDbXrecord
280
     1
270
     1
271
     1
  0
XRECORD
  5
3CA
102
{ACAD_REACTORS
330
3C5
102
}
330
3C5
100
AcDbXrecord
280
     1
270
     1
271
     1
  0
XRECORD
  5
3C9
102
{ACAD_REACTORS
330
3C5
102
}
330
3C5
100
AcDbXrecord
280
     1
270
     1
271
     1
  0
XRECORD
  5
3CB
102
{ACAD_REACTORS
330
3C5
102
}
330
3C5
100
AcDbXrecord
280
     1
270
     1
271
     1
  0
XRECORD
  5
3C8
102
{ACAD_REACTORS
330
3C5
102
}
330
3C5
100
AcDbXrecord
280
     1
270
     1
271
     1
  0
CELLSTYLEMAP
  5
F29
102
{ACAD_REACTORS
330
41B
102
}
330
41B
100
AcDbCellStyleMap
 90
        3
300
CELLSTYLE
  1
TABLEFORMAT_BEGIN
 90
        5
170
     1
 91
        0
 92
    32768
 62
   257
 93
        1
300
CONTENTFORMAT
  1
CONTENTFORMAT_BEGIN
 90
        0
 91
        0
 92
        4
 93
        0
300

 40
0.0
140
1.0
 94
        5
 62
     0
340
11
144
6.0
309
CONTENTFORMAT_END
171
     1
301
MARGIN
  1
CELLMARGIN_BEGIN
 40
1.5
 40
1.5
 40
1.5
 40
1.5
 40
0.18
 40
0.18
309
CELLMARGIN_END
 94
        6
 95
        1
302
GRIDFORMAT
  1
GRIDFORMAT_BEGIN
 90
        0
 91
        1
 62
     0
 92
       -2
340
0
 93
        0
 40
0.045
309
GRIDFORMAT_END
 95
        2
302
GRIDFORMAT
  1
GRIDFORMAT_BEGIN
 90
        0
 91
        1
 62
     0
 92
       -2
340
0
 93
        0
 40
0.045
309
GRIDFORMAT_END
 95
        4
302
GRIDFORMAT
  1
GRIDFORMAT_BEGIN
 90
        0
 91
        1
 62
     0
 92
       -2
340
0
 93
        0
 40
0.045
309
GRIDFORMAT_END
 95
        8
302
GRIDFORMAT
  1
GRIDFORMAT_BEGIN
 90
        0
 91
        1
 62
     0
 92
       -2
340
0
 93
        0
 40
0.045
309
GRIDFORMAT_END
 95
       16
302
GRIDFORMAT
  1
GRIDFORMAT_BEGIN
 90
        0
 91
        1
 62
     0
 92
       -2
340
0
 93
        0
 40
0.045
309
GRIDFORMAT_END
 95
       32
302
GRIDFORMAT
  1
GRIDFORMAT_BEGIN
 90
        0
 91
        1
 62
     0
 92
       -2
340
0
 93
        0
 40
0.045
309
GRIDFORMAT_END
309
TABLEFORMAT_END
  1
CELLSTYLE_BEGIN
 90
        1
 91
        1
300
_TITLE
309
CELLSTYLE_END
300
CELLSTYLE
  1
TABLEFORMAT_BEGIN
 90
        5
170
     1
 91
        0
 92
        0
 62
   257
 93
        1
300
CONTENTFORMAT
  1
CONTENTFORMAT_BEGIN
 90
        0
 91
        0
 92
        4
 93
        0
300

 40
0.0
140
1.0
 94
        5
 62
     0
340
11
144
4.5
309
CONTENTFORMAT_END
171
     1
301
MARGIN
  1
CELLMARGIN_BEGIN
 40
1.5
 40
1.5
 40
1.5
 40
1.5
 40
0.18
 40
0.18
309
CELLMARGIN_END
 94
        6
 95
        1
302
GRIDFORMAT
  1
GRIDFORMAT_BEGIN
 90
        0
 91
        1
 62
     0
 92
       -2
340
0
 93
        0
 40
0.045
309
GRIDFORMAT_END
 95
        2
302
GRIDFORMAT
  1
GRIDFORMAT_BEGIN
 90
        0
 91
        1
 62
     0
 92
       -2
340
0
 93
        0
 40
0.045
309
GRIDFORMAT_END
 95
        4
302
GRIDFORMAT
  1
GRIDFORMAT_BEGIN
 90
        0
 91
        1
 62
     0
 92
       -2
340
0
 93
        0
 40
0.045
309
GRIDFORMAT_END
 95
        8
302
GRIDFORMAT
  1
GRIDFORMAT_BEGIN
 90
        0
 91
        1
 62
     0
 92
       -2
340
0
 93
        0
 40
0.045
309
GRIDFORMAT_END
 95
       16
302
GRIDFORMAT
  1
GRIDFORMAT_BEGIN
 90
        0
 91
        1
 62
     0
 92
       -2
340
0
 93
        0
 40
0.045
309
GRIDFORMAT_END
 95
       32
302
GRIDFORMAT
  1
GRIDFORMAT_BEGIN
 90
        0
 91
        1
 62
     0
 92
       -2
340
0
 93
        0
 40
0.045
309
GRIDFORMAT_END
309
TABLEFORMAT_END
  1
CELLSTYLE_BEGIN
 90
        2
 91
        1
300
_HEADER
309
CELLSTYLE_END
300
CELLSTYLE
  1
TABLEFORMAT_BEGIN
 90
        5
170
     1
 91
        0
 92
        0
 62
   257
 93
        1
300
CONTENTFORMAT
  1
CONTENTFORMAT_BEGIN
 90
        0
 91
        0
 92
        4
 93
        0
300

 40
0.0
140
1.0
 94
        2
 62
     0
340
11
144
4.5
309
CONTENTFORMAT_END
171
     1
301
MARGIN
  1
CELLMARGIN_BEGIN
 40
1.5
 40
1.5
 40
1.5
 40
1.5
 40
0.18
 40
0.18
309
CELLMARGIN_END
 94
        6
 95
        1
302
GRIDFORMAT
  1
GRIDFORMAT_BEGIN
 90
        0
 91
        1
 62
     0
 92
       -2
340
0
 93
        0
 40
0.045
309
GRIDFORMAT_END
 95
        2
302
GRIDFORMAT
  1
GRIDFORMAT_BEGIN
 90
        0
 91
        1
 62
     0
 92
       -2
340
0
 93
        0
 40
0.045
309
GRIDFORMAT_END
 95
        4
302
GRIDFORMAT
  1
GRIDFORMAT_BEGIN
 90
        0
 91
        1
 62
     0
 92
       -2
340
0
 93
        0
 40
0.045
309
GRIDFORMAT_END
 95
        8
302
GRIDFORMAT
  1
GRIDFORMAT_BEGIN
 90
        0
 91
        1
 62
     0
 92
       -2
340
0
 93
        0
 40
0.045
309
GRIDFORMAT_END
 95
       16
302
GRIDFORMAT
  1
GRIDFORMAT_BEGIN
 90
        0
 91
        1
 62
     0
 92
       -2
340
0
 93
        0
 40
0.045
309
GRIDFORMAT_END
 95
       32
302
GRIDFORMAT
  1
GRIDFORMAT_BEGIN
 90
        0
 91
        1
 62
     0
 92
       -2
340
0
 93
        0
 40
0.045
309
GRIDFORMAT_END
309
TABLEFORMAT_END
  1
CELLSTYLE_BEGIN
 90
        3
 91
        2
300
_DATA
309
CELLSTYLE_END
  0
XRECORD
  5
F36
102
{ACAD_REACTORS
330
41B
102
}
330
41B
100
AcDbXrecord
280
     1
102
ACAD_ROUNDTRIP_PRE2007_TABLESTYLE
 90
        4
 91
        0
  1

 92
        4
 93
        0
  2

 94
        4
 95
        0
  3

  0
ENDSEC
  0
EOF
