  0
SECTION
  2
HEADER
  9
$ACADVER
  1
AC1015
  9
$ACADMAINTVER
 70
    20
  9
$DWGCODEPAGE
  3
ANSI_1252
  9
$INSBASE
 10
0.0
 20
0.0
 30
0.0
  9
$EXTMIN
 10
-50.09820972885837
 20
-0.0157434559278045
 30
-0.0015258207003583
  9
$EXTMAX
 10
1638.504850574849
 20
515.9127761694423
 30
0.0000000349246037
  9
$LIMMIN
 10
0.0
 20
0.0
  9
$LIMMAX
 10
420.0
 20
297.0
  9
$ORTHOMODE
 70
     1
  9
$REGENMODE
 70
     1
  9
$FILLMODE
 70
     1
  9
$QTEXTMODE
 70
     0
  9
$MIRRTEXT
 70
     1
  9
$LTSCALE
 40
1.0
  9
$ATTMODE
 70
     1
  9
$TEXTSIZE
 40
2.5
  9
$TRACEWID
 40
1.0
  9
$TEXTSTYLE
  7
STANDARD
  9
$CLAYER
  8
0
  9
$CELTYPE
  6
ByLayer
  9
$CECOLOR
 62
   256
  9
$CELTSCALE
 40
1.0
  9
$DISPSILH
 70
     0
  9
$DIMSCALE
 40
1.0
  9
$DIMASZ
 40
3.5
  9
$DIMEXO
 40
1.0
  9
$DIMDLI
 40
10.0
  9
$DIMRND
 40
0.0
  9
$DIMDLE
 40
0.0
  9
$DIMEXE
 40
1.0
  9
$DIMTP
 40
0.1
  9
$DIMTM
 40
0.1
  9
$DIMTXT
 40
3.5
  9
$DIMCEN
 40
0.0
  9
$DIMTSZ
 40
0.0
  9
$DIMTOL
 70
     0
  9
$DIMLIM
 70
     0
  9
$DIMTIH
 70
     0
  9
$DIMTOH
 70
     0
  9
$DIMSE1
 70
     0
  9
$DIMSE2
 70
     0
  9
$DIMTAD
 70
     1
  9
$DIMZIN
 70
     8
  9
$DIMBLK
  1

  9
$DIMASO
 70
     1
  9
$DIMSHO
 70
     1
  9
$DIMPOST
  1

  9
$DIMAPOST
  1
"
  9
$DIMALT
 70
     0
  9
$DIMALTD
 70
     2
  9
$DIMALTF
 40
0.0393701
  9
$DIMLFAC
 40
1.0
  9
$DIMTOFL
 70
     1
  9
$DIMTVP
 40
0.0
  9
$DIMTIX
 70
     0
  9
$DIMSOXD
 70
     0
  9
$DIMSAH
 70
     0
  9
$DIMBLK1
  1

  9
$DIMBLK2
  1

  9
$DIMSTYLE
  2
AM_ISO
  9
$DIMCLRD
 70
   256
  9
$DIMCLRE
 70
   256
  9
$DIMCLRT
 70
   140
  9
$DIMTFAC
 40
0.71
  9
$DIMGAP
 40
1.5
  9
$DIMJUST
 70
     0
  9
$DIMSD1
 70
     0
  9
$DIMSD2
 70
     0
  9
$DIMTOLJ
 70
     0
  9
$DIMTZIN
 70
     8
  9
$DIMALTZ
 70
     0
  9
$DIMALTTZ
 70
     0
  9
$DIMUPT
 70
     0
  9
$DIMDEC
 70
     2
  9
$DIMTDEC
 70
     3
  9
$DIMALTU
 70
     2
  9
$DIMALTTD
 70
     4
  9
$DIMTXSTY
  7
STANDARD
  9
$DIMAUNIT
 70
     0
  9
$DIMADEC
 70
     0
  9
$DIMALTRND
 40
0.0
  9
$DIMAZIN
 70
     2
  9
$DIMDSEP
 70
    46
  9
$DIMATFIT
 70
     3
  9
$DIMFRAC
 70
     0
  9
$DIMLDRBLK
  1

  9
$DIMLUNIT
 70
     2
  9
$DIMLWD
 70
    -1
  9
$DIMLWE
 70
    -1
  9
$DIMTMOVE
 70
     0
  9
$LUNITS
 70
     2
  9
$LUPREC
 70
     2
  9
$SKETCHINC
 40
1.0
  9
$FILLETRAD
 40
0.0
  9
$AUNITS
 70
     0
  9
$AUPREC
 70
     0
  9
$MENU
  1
.
  9
$ELEVATION
 40
0.0
  9
$PELEVATION
 40
0.0
  9
$THICKNESS
 40
0.0
  9
$LIMCHECK
 70
     0
  9
$CHAMFERA
 40
2.5
  9
$CHAMFERB
 40
2.5
  9
$CHAMFERC
 40
20.0
  9
$CHAMFERD
 40
0.0
  9
$SKPOLY
 70
     0
  9
$TDCREATE
 40
2455098.650511991
  9
$TDUCREATE
 40
2455098.567178657
  9
$TDUPDATE
 40
2455098.652548114
  9
$TDUUPDATE
 40
2455098.569214780
  9
$TDINDWG
 40
0.0020373727
  9
$TDUSRTIMER
 40
0.0020371991
  9
$USRTIMER
 70
     1
  9
$ANGBASE
 50
0.0
  9
$ANGDIR
 70
     0
  9
$PDMODE
 70
     0
  9
$PDSIZE
 40
0.0
  9
$PLINEWID
 40
0.0
  9
$SPLFRAME
 70
     0
  9
$SPLINETYPE
 70
     6
  9
$SPLINESEGS
 70
     8
  9
$HANDSEED
  5
85B
  9
$SURFTAB1
 70
     6
  9
$SURFTAB2
 70
     6
  9
$SURFTYPE
 70
     6
  9
$SURFU
 70
     6
  9
$SURFV
 70
     6
  9
$UCSBASE
  2

  9
$UCSNAME
  2

  9
$UCSORG
 10
0.0
 20
0.0
 30
0.0
  9
$UCSXDIR
 10
1.0
 20
0.0
 30
0.0
  9
$UCSYDIR
 10
0.0
 20
1.0
 30
0.0
  9
$UCSORTHOREF
  2

  9
$UCSORTHOVIEW
 70
     0
  9
$UCSORGTOP
 10
0.0
 20
0.0
 30
0.0
  9
$UCSORGBOTTOM
 10
0.0
 20
0.0
 30
0.0
  9
$UCSORGLEFT
 10
0.0
 20
0.0
 30
0.0
  9
$UCSORGRIGHT
 10
0.0
 20
0.0
 30
0.0
  9
$UCSORGFRONT
 10
0.0
 20
0.0
 30
0.0
  9
$UCSORGBACK
 10
0.0
 20
0.0
 30
0.0
  9
$PUCSBASE
  2

  9
$PUCSNAME
  2

  9
$PUCSORG
 10
0.0
 20
0.0
 30
0.0
  9
$PUCSXDIR
 10
1.0
 20
0.0
 30
0.0
  9
$PUCSYDIR
 10
0.0
 20
1.0
 30
0.0
  9
$PUCSORTHOREF
  2

  9
$PUCSORTHOVIEW
 70
     0
  9
$PUCSORGTOP
 10
0.0
 20
0.0
 30
0.0
  9
$PUCSORGBOTTOM
 10
0.0
 20
0.0
 30
0.0
  9
$PUCSORGLEFT
 10
0.0
 20
0.0
 30
0.0
  9
$PUCSORGRIGHT
 10
0.0
 20
0.0
 30
0.0
  9
$PUCSORGFRONT
 10
0.0
 20
0.0
 30
0.0
  9
$PUCSORGBACK
 10
0.0
 20
0.0
 30
0.0
  9
$USERI1
 70
     0
  9
$USERI2
 70
     0
  9
$USERI3
 70
     0
  9
$USERI4
 70
     0
  9
$USERI5
 70
     0
  9
$USERR1
 40
0.0
  9
$USERR2
 40
0.0
  9
$USERR3
 40
0.0
  9
$USERR4
 40
0.0
  9
$USERR5
 40
0.0
  9
$WORLDVIEW
 70
     1
  9
$SHADEDGE
 70
     3
  9
$SHADEDIF
 70
    70
  9
$TILEMODE
 70
     1
  9
$MAXACTVP
 70
    64
  9
$PINSBASE
 10
0.0
 20
0.0
 30
0.0
  9
$PLIMCHECK
 70
     0
  9
$PEXTMIN
 10
1.000000000000000E+20
 20
1.000000000000000E+20
 30
1.000000000000000E+20
  9
$PEXTMAX
 10
-1.000000000000000E+20
 20
-1.000000000000000E+20
 30
-1.000000000000000E+20
  9
$PLIMMIN
 10
0.0
 20
0.0
  9
$PLIMMAX
 10
420.0
 20
297.0
  9
$UNITMODE
 70
     0
  9
$VISRETAIN
 70
     1
  9
$PLINEGEN
 70
     0
  9
$PSLTSCALE
 70
     1
  9
$TREEDEPTH
 70
  3020
  9
$CMLSTYLE
  2
Standard
  9
$CMLJUST
 70
     0
  9
$CMLSCALE
 40
20.0
  9
$PROXYGRAPHICS
 70
     1
  9
$MEASUREMENT
 70
     1
  9
$CELWEIGHT
370
    -1
  9
$ENDCAPS
280
     0
  9
$JOINSTYLE
280
     0
  9
$LWDISPLAY
290
     0
  9
$INSUNITS
 70
     4
  9
$HYPERLINKBASE
  1

  9
$STYLESHEET
  1

  9
$XEDIT
290
     1
  9
$CEPSNTYPE
380
     0
  9
$PSTYLEMODE
290
     1
  9
$FINGERPRINTGUID
  2
{9B6B2F73-61FE-4CFA-8A85-ECB366A46A5C}
  9
$VERSIONGUID
  2
{8613808E-78B1-40BD-892F-02472C9A4363}
  9
$EXTNAMES
290
     1
  9
$PSVPSCALE
 40
0.0
  9
$OLESTARTUP
290
     0
  0
ENDSEC
  0
SECTION
  2
CLASSES
  0
CLASS
  1
ACDBDICTIONARYWDFLT
  2
AcDbDictionaryWithDefault
  3
ObjectDBX Classes
 90
        0
280
     0
281
     0
  0
CLASS
  1
ACDBPLACEHOLDER
  2
AcDbPlaceHolder
  3
ObjectDBX Classes
 90
        0
280
     0
281
     0
  0
CLASS
  1
LAYOUT
  2
AcDbLayout
  3
ObjectDBX Classes
 90
        0
280
     0
281
     0
  0
CLASS
  1
ACME_DOCUMENT
  2
AcMeDbDoc
  3
AcMeServices
 90
     1024
280
     0
281
     0
  0
CLASS
  1
AMGSETTINGSOBJ
  2
AmgSettingsObj
  3
"AcadM|Product Description: AutoCAD Mechanical|Company: Autodesk, Inc."
 90
     1024
280
     0
281
     0
  0
CLASS
  1
ACMESCOPE
  2
AcMeScope
  3
AcMeServices
 90
     1024
280
     0
281
     0
  0
CLASS
  1
ACMECOMMANDHISTORY
  2
AcMeCommandHistory
  3
AcMeServices
 90
     1024
280
     0
281
     0
  0
CLASS
  1
ACIMSYSVARMAN
  2
AcImSysVarManager
  3
AcMeServices
 90
     1024
280
     0
281
     0
  0
CLASS
  1
ACIMREALSYSVAR
  2
AcImRealSysVar
  3
AcMeServices
 90
     1024
280
     0
281
     0
  0
CLASS
  1
ACIMINTSYSVAR
  2
AcImIntSysVar
  3
AcMeServices
 90
     1024
280
     0
281
     0
  0
CLASS
  1
ACMEDRAWINGMAN
  2
AcMeDrawingMan
  3
AcMeServices
 90
     1024
280
     0
281
     0
  0
CLASS
  1
ACMEVIEW
  2
AcMeView
  3
AcMeServices
 90
     1024
280
     0
281
     0
  0
CLASS
  1
ACDBENTITYCACHE
  2
AcMeEntityCache
  3
AcMeServices
 90
     1024
280
     0
281
     0
  0
CLASS
  1
GSMANAGER
  2
AcMeGSManager
  3
AcMeServices
 90
     1024
280
     0
281
     0
  0
CLASS
  1
AMDTINTERNALREACTOR
  2
AmdtInternalReactor
  3
AcMeServices
 90
     1024
280
     0
281
     0
  0
CLASS
  1
ACMESTATEMGR
  2
AcMeStateMgr
  3
AcMeServices
 90
     1024
280
     0
281
     0
  0
CLASS
  1
ACGREFMASTER
  2
AcGrefMaster
  3
AcAttribServices
 90
     1024
280
     0
281
     0
  0
CLASS
  1
ACME_DATABASE
  2
AcMeDbDatabase
  3
AcMeServices
 90
     1024
280
     0
281
     0
  0
CLASS
  1
ACRFINSADJUSTERMGR
  2
AcRfInsAdjusterMgr
  3
AcMeServices
 90
     1024
280
     0
281
     0
  0
CLASS
  1
ACGREFACADMASTER
  2
AcGrefacadMaster
  3
AcGrefServices
 90
     1024
280
     0
281
     0
  0
CLASS
  1
AMIMASTER
  2
AmiMaster
  3
AmiServices
 90
     1024
280
     0
281
     0
  0
CLASS
  1
ACMDATADICTIONARY
  2
AcmDataDictionary
  3
"AcmSymBB|Product Description: AutoCAD Mechanical|Company: Autodesk, Inc."
 90
     1024
280
     0
281
     0
  0
CLASS
  1
ACMDATAENTRYBLOCK
  2
AcmDataEntryBlock
  3
AcmSymBB|Product Description: AutoCAD Mechanical|Company: Autodesk, Inc.
 90
     1024
280
     0
281
     0
  0
CLASS
  1
ACIMSTRSYSVAR
  2
AcImStrSysVar
  3
AcMeServices
 90
     1024
280
     0
281
     0
  0
CLASS
  1
ACMSTANDARDISO
  2
AcmStandardISO
  3
"Amdt_StdImp|Product Description: AutoCAD Mechanical|Company: Autodesk, Inc."
 90
     1024
280
     0
281
     0
  0
CLASS
  1
AMGOBJPROPCFG
  2
AmgObjPropCfg
  3
"AmgLay|Product Description: AutoCAD Mechanical|Company: Autodesk, Inc."
 90
     1025
280
     0
281
     0
  0
CLASS
  1
AMDTEDGESTANDARDISO
  2
AmdtEdgeStdISO
  3
"Amdt_StdImp|Product Description: AutoCAD Mechanical|Company: Autodesk, Inc."
 90
    33792
280
     0
281
     0
  0
CLASS
  1
ACMSURFSTANDARDISO
  2
AcmSurfTextStdISO
  3
"Amdt_StdImp|Product Description: AutoCAD Mechanical|Company: Autodesk, Inc."
 90
    33792
280
     0
281
     0
  0
CLASS
  1
ACMFCFSTANDARDISO
  2
AcmFCFStdISO
  3
"Amdt_StdImp|Product Description: AutoCAD Mechanical|Company: Autodesk, Inc."
 90
     1024
280
     0
281
     0
  0
CLASS
  1
ACMWELDSTANDARDISO
  2
AcmWeldingStdISO
  3
"Amdt_StdImp|Product Description: AutoCAD Mechanical|Company: Autodesk, Inc."
 90
     1024
280
     0
281
     0
  0
CLASS
  1
ACMIDSTANDARDISO
  2
AcmIdStdISO
  3
"Amdt_StdImp|Product Description: AutoCAD Mechanical|Company: Autodesk, Inc."
 90
     1024
280
     0
281
     0
  0
CLASS
  1
ACMDATUMSTANDARDISO
  2
AcmDatumStdISO
  3
"Amdt_StdImp|Product Description: AutoCAD Mechanical|Company: Autodesk, Inc."
 90
     1024
280
     0
281
     0
  0
CLASS
  1
ACMBOMSTANDARDISO
  2
AcmBOMStdISO
  3
"Amdt_StdImp|Product Description: AutoCAD Mechanical|Company: Autodesk, Inc."
 90
     1024
280
     0
281
     0
  0
CLASS
  1
ACMDETAILSTANDARDISO
  2
AmdtDetailSymStdISO
  3
"Amdt_StdImp|Product Description: AutoCAD Mechanical|Company: Autodesk, Inc."
 90
     1024
280
     0
281
     0
  0
CLASS
  1
ACMSECTIONSTANDARDISO
  2
AmdtSectionSymStdISO
  3
"Amdt_StdImp|Product Description: AutoCAD Mechanical|Company: Autodesk, Inc."
 90
    33792
280
     0
281
     0
  0
CLASS
  1
ACMCENTERLINESTANDARDISO
  2
AmdtCenterLineStdISO
  3
"Amdt_StdImp|Product Description: AutoCAD Mechanical|Company: Autodesk, Inc."
 90
     1024
280
     0
281
     0
  0
CLASS
  1
ACMNOTESTANDARDISO
  2
AmdtNoteStdISO
  3
"Amdt_StdImp|Product Description: AutoCAD Mechanical|Company: Autodesk, Inc."
 90
     1024
280
     0
281
     0
  0
CLASS
  1
ACAMGLAYSTD
  2
AcAmgLayStd
  3
"AmgLay|Product Description: AutoCAD Mechanical|Company: Autodesk, Inc."
 90
     1024
280
     0
281
     0
  0
CLASS
  1
ACAMGDIMSTD
  2
AcAmgDimStd
  3
"AmgDim|Product Description: AutoCAD Mechanical|Company: Autodesk, Inc."
 90
     1024
280
     0
281
     0
  0
CLASS
  1
ACAMGHOLECHARTSTDISO
  2
AcAmgHoleChartStdISO
  3
AmgDim|Product Description: AutoCAD Mechanical|Company: Autodesk, Inc.
 90
     1024
280
     0
281
     0
  0
CLASS
  1
ACAMGTITLESTD
  2
AcAmgTitleStd
  3
"AmgTitle|Product Description: AutoCAD Mechanical|Company: Autodesk, Inc."
 90
     4095
280
     0
281
     0
  0
CLASS
  1
LAYER_INDEX
  2
AcDbLayerIndex
  3
ObjectDBX Classes
 90
    32768
280
     0
281
     0
  0
CLASS
  1
IDBUFFER
  2
AcDbIdBuffer
  3
ObjectDBX Classes
 90
    32768
280
     0
281
     0
  0
CLASS
  1
DICTIONARYVAR
  2
AcDbDictionaryVar
  3
ObjectDBX Classes
 90
        0
280
     0
281
     0
  0
CLASS
  1
AM_DRAWING_MGR
  2
AcDmDwgMgr
  3
AcMechDwgViewMgmt
 90
     1024
280
     0
281
     0
  0
CLASS
  1
AM_DWG_DOCUMENT
  2
AcDmDwgDocument
  3
AcMechDwgViewMgmt
 90
     1024
280
     0
281
     0
  0
CLASS
  1
AM_DWG_SHEET
  2
AcDmSheet
  3
AcMechDwgViewMgmt
 90
     1024
280
     0
281
     0
  0
CLASS
  1
AM_VIEWDIMPARMAP
  2
AcDmViewDimParMap
  3
AcMechDwgViewMgmt
 90
     1024
280
     0
281
     0
  0
CLASS
  1
AM_DWGMGR_NAME
  2
AcDmDwgMgrName
  3
AcMechDwgViewMgmt
 90
     1024
280
     0
281
     0
  0
CLASS
  1
AMDTMENUSTATEMGR
  2
AmdtMenuStateMgr
  3
McadcomServices
 90
     1024
280
     0
281
     0
  0
CLASS
  1
AMDTMCOMMENUSTATE
  2
AmdtMcomMenuState
  3
McadcomServices
 90
     1024
280
     0
281
     0
  0
CLASS
  1
MAPIAMMOUDLE
  2
MApiAmModule
  3
MApiAmServices
 90
     1024
280
     0
281
     0
  0
CLASS
  1
AMDTADMENUSTATE
  2
AmdtAdMenuState
  3
DesignerServices
 90
     1024
280
     0
281
     0
  0
CLASS
  1
ADAPPL
  2
AcAdAppl
  3
DesignerServices
 90
     1024
280
     0
281
     0
  0
CLASS
  1
DEPMGR
  2
AcAdDepMgr
  3
DesignerServices
 90
     1024
280
     0
281
     0
  0
CLASS
  1
PARAMMGR
  2
AcAdParamMgr
  3
DesignerServices
 90
     1024
280
     0
281
     0
  0
CLASS
  1
PARAMSCOPE
  2
AcAdParamScope
  3
DesignerServices
 90
     1024
280
     0
281
     0
  0
CLASS
  1
NAMEDAPPL
  2
AcAdNamedAppl
  3
DesignerServices
 90
     1024
280
     0
281
     0
  0
CLASS
  1
AMDTDMMENUSTATE
  2
AmdtDmMenuState
  3
AcMechDwgViewMgmt
 90
     1024
280
     0
281
     0
  0
CLASS
  1
AMDTAMMENUSTATE
  2
AmdtAmMenuState
  3
DesignerAssemblies
 90
     1024
280
     0
281
     0
  0
CLASS
  1
ACAMPROJECT
  2
AcAmProject
  3
DesignerAssemblies
 90
     1024
280
     0
281
     0
  0
CLASS
  1
ACAMGRCOMPDEF
  2
AcAmGrCompDef
  3
DesignerAssemblies
 90
     1024
280
     0
281
     0
  0
CLASS
  1
ACCMCONTEXT
  2
AcCmContext
  3
DesignerAssemblies
 90
     1024
280
     0
281
     0
  0
CLASS
  1
ACAMCOMPDEF
  2
AcAmCompDef
  3
DesignerAssemblies
 90
     1024
280
     0
281
     0
  0
CLASS
  1
ACAMCOMPDEFMGR
  2
AcAmCompDefMgr
  3
DesignerAssemblies
 90
     1024
280
     0
281
     0
  0
CLASS
  1
AMCONTEXTMGR
  2
AcAmContextMgr
  3
DesignerAssemblies
 90
     1024
280
     0
281
     0
  0
CLASS
  1
ACAMCONTEXTMODELER
  2
AcAmContextModeler
  3
DesignerAssemblies
 90
     1024
280
     0
281
     0
  0
CLASS
  1
ACMTHREADLINESTANDARDISO
  2
AmdtThreadLineStdISO
  3
"Amdt_StdImp|Product Description: AutoCAD Mechanical|Company: Autodesk, Inc."
 90
     1024
280
     0
281
     0
  0
CLASS
  1
CATALOGSTATE
  2
AcAmCatalogState
  3
DesignerAssemblies
 90
     1024
280
     0
281
     0
  0
CLASS
  1
ACAMGRCOMPDEFSET
  2
AcAmGrCompDefSet
  3
DesignerAssemblies
 90
     1024
280
     0
281
     0
  0
CLASS
  1
AMDTBROWSERDBTAB
  2
AmdtBrowserDbTab
  3
McadcomServices
 90
     1024
280
     0
281
     0
  0
CLASS
  1
CBROWSERAPPOBJECT
  2
CBrowserAppObject
  3
McadcomServices
 90
     1024
280
     0
281
     0
  0
CLASS
  1
DM_PLACEHOLDER
  2
AcDmSelsetPlaceholder
  3
AcMechDwgViewMgmt
 90
     1024
280
     0
281
     0
  0
CLASS
  1
TABLESTYLE
  2
AcDbTableStyle
  3
ObjectDBX Classes
 90
     4095
280
     0
281
     0
  0
CLASS
  1
VAACXREFPANELOBJECT
  2
VaAcXREFPanelObject
  3
VAAC_ADDIN
 90
    32768
280
     0
281
     0
  0
CLASS
  1
VAACIMAGEINVENTORY
  2
VaAcImageInventory
  3
VAAC_ADDIN
 90
    32768
280
     0
281
     0
  0
CLASS
  1
AMDTNOTETEMPLATEDB
  2
AmdtNoteTemplateDB
  3
AcmSymBB|Product Description: AutoCAD Mechanical|Company: Autodesk, Inc.
 90
     1024
280
     0
281
     0
  0
CLASS
  1
MATERIAL
  2
AcDbMaterial
  3
ObjectDBX Classes
 90
     1153
280
     0
281
     0
  0
CLASS
  1
VISUALSTYLE
  2
AcDbVisualStyle
  3
ObjectDBX Classes
 90
     4095
280
     0
281
     0
  0
CLASS
  1
ACRFATTGENMGR
  2
AcRfAttGeneralMgr
  3
AcAttribServices
 90
     1024
280
     0
281
     0
  0
CLASS
  1
ACRFOBJATTMGR
  2
AcRfObjAttGroupMgr
  3
AcAttribServices
 90
     1024
280
     0
281
     0
  0
CLASS
  1
ACRFMCADAPIATTHOLDER
  2
AcRfMCADAPIAttHolder
  3
AcAttribServices
 90
     1024
280
     0
281
     0
  0
CLASS
  1
AMDTSYSATTR
  2
AmdtSystemAttribute
  3
AcAttribServices
 90
     1024
280
     0
281
     0
  0
CLASS
  1
ACMTAPERSTANDARDISO
  2
AcmTaperStdISO
  3
"Amdt_StdImp|Product Description: AutoCAD Mechanical|Company: Autodesk, Inc."
 90
     1024
280
     0
281
     0
  0
CLASS
  1
CAMSSTRUCTBTNSTATE
  2
StructBtnState
  3
DesignerAssemblies
 90
     1024
280
     0
281
     0
  0
CLASS
  1
SCALE
  2
AcDbScale
  3
ObjectDBX Classes
 90
     1153
280
     0
281
     0
  0
CLASS
  1
MLEADERSTYLE
  2
AcDbMLeaderStyle
  3
ACDB_MLEADERSTYLE_CLASS
 90
     4095
280
     0
281
     0
  0
CLASS
  1
ACMANOOTATIONVIEWSTANDARDISO
  2
AmdtAnViewStdISO
  3
"Amdt_StdImp|Product Description: AutoCAD Mechanical|Company: Autodesk, Inc."
 90
     1024
280
     0
281
     0
  0
CLASS
  1
ACMSURFSTANDARDISO2002
  2
AcmSurfTextStdISO2002
  3
"Amdt_StdImp|Product Description: AutoCAD Mechanical|Company: Autodesk, Inc."
 90
     1024
280
     0
281
     0
  0
CLASS
  1
CELLSTYLEMAP
  2
AcDbCellStyleMap
  3
ObjectDBX Classes
 90
     1152
280
     0
281
     0
  0
CLASS
  1
ACMSECTIONSTANDARDISO2001
  2
AmdtSectionSymStdISO2001
  3
"Amdt_StdImp|Product Description: AutoCAD Mechanical|Company: Autodesk, Inc."
 90
     1024
280
     0
281
     0
  0
CLASS
  1
EXACXREFPANELOBJECT
  2
ExAcXREFPanelObject
  3
EXAC_ESW
 90
     1025
280
     0
281
     0
  0
CLASS
  1
NPOCOLLECTION
  2
AcDbImpNonPersistentObjectsCollection
  3
ObjectDBX Classes
 90
     1153
280
     0
281
     0
  0
CLASS
  1
AMDTEDGESTANDARDISO13715
  2
AmdtEdgeStdISO13715
  3
"Amdt_StdImp|Product Description: AutoCAD Mechanical|Company: Autodesk, Inc."
 90
     1024
280
     0
281
     0
  0
CLASS
  1
ACAMGFILTERDAT
  2
AcAmgFilterDat
  3
"AcadM|Product Description: AutoCAD Mechanical|Company: Autodesk, Inc."
 90
     1024
280
     0
281
     0
  0
CLASS
  1
ACMBOM
  2
AcmBom
  3
"AcmSymBB|Product Description: AutoCAD Mechanical|Company: Autodesk, Inc."
 90
    33792
280
     0
281
     0
  0
CLASS
  1
AMDTFORMULAUPDATEDISPATCHER
  2
AmdtFormulaUpdateDispatcher
  3
AcMeServices
 90
    33792
280
     0
281
     0
  0
CLASS
  1
AEC_REFEDIT_STATUS_TRACKER
  2
AecDbRefEditStatusTracker
  3
AecArchBase50|Product Desc: Autodesk Architectural Desktop 2007 |Company: Autodesk,Inc. |WEB Address: www.autodesk.com
 90
      129
280
     0
281
     0
  0
ENDSEC
  0
SECTION
  2
TABLES
  0
TABLE
  2
VPORT
  5
8
330
0
100
AcDbSymbolTable
 70
     1
  0
VPORT
  5
269
330
8
100
AcDbSymbolTableRecord
100
AcDbViewportTableRecord
  2
*Active
 70
     0
 10
0.0
 20
0.0
 11
1.0
 21
1.0
 12
794.2033204229954
 22
257.9485163567572
 13
0.0
 23
0.0
 14
2.5
 24
2.5
 15
10.0
 25
10.0
 16
0.0
 26
0.0
 36
1.0
 17
0.0
 27
0.0
 37
0.0
 40
896.5205876603956
 41
1.890606420927467
 42
50.0
 43
0.0
 44
0.0
 50
0.0
 51
0.0
 71
     0
 72
   100
 73
     1
 74
     3
 75
     0
 76
     0
 77
     0
 78
     0
281
     0
 65
     1
110
0.0
120
0.0
130
0.0
111
1.0
121
0.0
131
0.0
112
0.0
122
1.0
132
0.0
 79
     0
146
0.0
  0
ENDTAB
  0
TABLE
  2
LTYPE
  5
5
330
0
100
AcDbSymbolTable
 70
    17
  0
LTYPE
  5
14
330
5
100
AcDbSymbolTableRecord
100
AcDbLinetypeTableRecord
  2
ByBlock
 70
     0
  3

 72
    65
 73
     0
 40
0.0
  0
LTYPE
  5
15
330
5
100
AcDbSymbolTableRecord
100
AcDbLinetypeTableRecord
  2
ByLayer
 70
     0
  3

 72
    65
 73
     0
 40
0.0
  0
LTYPE
  5
16
330
5
100
AcDbSymbolTableRecord
100
AcDbLinetypeTableRecord
  2
Continuous
 70
     0
  3
Solid line
 72
    65
 73
     0
 40
0.0
  0
LTYPE
  5
64
330
5
100
AcDbSymbolTableRecord
100
AcDbLinetypeTableRecord
  2
AM_ISO02W050
 70
     0
  3
__ __ __ __ __ __ __ __ __ __ __ __ __ __ __
 72
    65
 73
     2
 40
7.5
 49
6.0
 74
     0
 49
-1.5
 74
     0
  0
LTYPE
  5
65
330
5
100
AcDbSymbolTableRecord
100
AcDbLinetypeTableRecord
  2
AM_ISO08W050
 70
     0
  3
____ . ____ . ____ . ____ . ____ . ____ . ____
 72
    65
 73
     4
 40
18.0
 49
12.0
 74
     0
 49
-1.5
 74
     0
 49
3.0
 74
     0
 49
-1.5
 74
     0
  0
LTYPE
  5
66
330
5
100
AcDbSymbolTableRecord
100
AcDbLinetypeTableRecord
  2
AM_ISO09W050
 70
     0
  3
_____ . . _____ . . _____ . . ____ .. ____
 72
    65
 73
     6
 40
22.5
 49
12.0
 74
     0
 49
-1.5
 74
     0
 49
3.0
 74
     0
 49
-1.5
 74
     0
 49
3.0
 74
     0
 49
-1.5
 74
     0
  0
LTYPE
  5
67
330
5
100
AcDbSymbolTableRecord
100
AcDbLinetypeTableRecord
  2
Amconstr
 70
     0
  3
_______________________
 72
    65
 73
     2
 40
9999.0
 49
9999.0
 74
     0
 49
0.0
 74
     0
  0
LTYPE
  5
68
330
5
100
AcDbSymbolTableRecord
100
AcDbLinetypeTableRecord
  2
AM_ISO08W050x2
 70
     0
  3
__ . __ . __ . __ . __ . __
 72
    65
 73
     4
 40
9.0
 49
6.0
 74
     0
 49
-0.75
 74
     0
 49
1.5
 74
     0
 49
-0.75
 74
     0
  0
LTYPE
  5
69
330
5
100
AcDbSymbolTableRecord
100
AcDbLinetypeTableRecord
  2
AM_ISO02W050x2
 70
     0
  3
 _ _ _ _ _ _ _ _ _ _ _ _
 72
    65
 73
     2
 40
3.75
 49
3.0
 74
     0
 49
-0.75
 74
     0
  0
LTYPE
  5
6C
330
5
100
AcDbSymbolTableRecord
100
AcDbLinetypeTableRecord
  2
Amzigzag
 70
     0
  3
/\/-/\/-/\/-/\/-/\/-/\/
 72
    65
 73
     2
 40
11.0001
 49
0.0001
 74
     4
 75
   136
340
22C
 46
0.04
 50
0.0
 44
0.0
 45
0.0
 49
-11.0
 74
     0
  0
LTYPE
  5
7A
330
5
100
AcDbSymbolTableRecord
100
AcDbLinetypeTableRecord
  2
ACISOWELD
 70
     0
  3
_ _ _ _ _
 72
    65
 73
     2
 40
2.0
 49
2.0
 74
     0
 49
-1.0
 74
     0
  0
LTYPE
  5
7B
330
5
100
AcDbSymbolTableRecord
100
AcDbLinetypeTableRecord
  2
ACISOTGB
 70
     0
  3
__ . . __ . .
 72
    65
 73
     6
 40
9.0
 49
4.0
 74
     0
 49
-1.0
 74
     0
 49
1.0
 74
     0
 49
-1.0
 74
     0
 49
1.0
 74
     0
 49
-1.0
 74
     0
  0
LTYPE
  5
7C
330
5
100
AcDbSymbolTableRecord
100
AcDbLinetypeTableRecord
  2
ACISOTGL
 70
     0
  3
_ _ _ _ _
 72
    65
 73
     2
 40
3.0
 49
2.0
 74
     0
 49
-1.0
 74
     0
  0
LTYPE
  5
7E
330
5
100
AcDbSymbolTableRecord
100
AcDbLinetypeTableRecord
  2
CENTER
 70
     0
  3
__ . __
 72
    65
 73
     4
 40
7.0
 49
4.0
 74
     0
 49
-1.0
 74
     0
 49
1.0
 74
     0
 49
-1.0
 74
     0
  0
LTYPE
  5
D8
330
5
100
AcDbSymbolTableRecord
100
AcDbLinetypeTableRecord
  2
HIDDEN
 70
     0
  3
Hidden __ __ __ __ __ __ __ __ __ __ __ __ __ _
 72
    65
 73
     2
 40
9.524999999999998
 49
6.349999999999999
 74
     0
 49
-3.174999999999999
 74
     0
  0
LTYPE
  5
D9
330
5
100
AcDbSymbolTableRecord
100
AcDbLinetypeTableRecord
  2
PHANTOM2
 70
     0
  3
Phantom (.5x) ___ _ _ ___ _ _ ___ _ _ ___ _ _
 72
    65
 73
     6
 40
31.75
 49
15.875
 74
     0
 49
-3.174999999999999
 74
     0
 49
3.174999999999999
 74
     0
 49
-3.174999999999999
 74
     0
 49
3.174999999999999
 74
     0
 49
-3.174999999999999
 74
     0
  0
LTYPE
  5
43C
330
5
100
AcDbSymbolTableRecord
100
AcDbLinetypeTableRecord
  2
GEN7A
 70
     0
  3
__ . __ . __
 72
    65
 73
     4
 40
6.875
 49
5.0
 74
     0
 49
-0.625
 74
     0
 49
0.625
 74
     0
 49
-0.625
 74
     0
  0
LTYPE
  5
43D
330
5
100
AcDbSymbolTableRecord
100
AcDbLinetypeTableRecord
  2
GEN3
 70
     0
  3
-- -- -- -- -- -- -- -- -- -- -- -- -- -- --
 72
    65
 73
     2
 40
6.25
 49
5.0
 74
     0
 49
-1.25
 74
     0
  0
ENDTAB
  0
TABLE
  2
LAYER
  5
2
102
{ACAD_XDICTIONARY
360
462
102
}
330
0
100
AcDbSymbolTable
 70
    13
  0
LAYER
  5
10
102
{ACAD_XDICTIONARY
360
834
102
}
330
2
100
AcDbSymbolTableRecord
100
AcDbLayerTableRecord
  2
0
 70
     0
 62
     7
  6
Continuous
370
    -3
390
F
  0
LAYER
  5
43E
102
{ACAD_XDICTIONARY
360
43F
102
}
330
2
100
AcDbSymbolTableRecord
100
AcDbLayerTableRecord
  2
AM_7
 70
     0
 62
     4
  6
AM_ISO08W050
370
    25
390
F
1001
AcAecLayerStandard
1000

1000

  0
LAYER
  5
440
102
{ACAD_XDICTIONARY
360
441
102
}
330
2
100
AcDbSymbolTableRecord
100
AcDbLayerTableRecord
  2
AM_CL
 70
     0
 62
     1
  6
Amconstr
370
    25
390
F
1001
AcAecLayerStandard
1000

1000

  0
LAYER
  5
442
330
2
100
AcDbSymbolTableRecord
100
AcDbLayerTableRecord
  2
Defpoints
 70
     0
 62
     7
  6
Continuous
290
     0
370
    -3
390
F
  0
LAYER
  5
443
102
{ACAD_XDICTIONARY
360
444
102
}
330
2
100
AcDbSymbolTableRecord
100
AcDbLayerTableRecord
  2
AM_5
 70
     0
 62
     3
  6
Continuous
370
    25
390
F
1001
AcAecLayerStandard
1000

1000

  0
LAYER
  5
445
102
{ACAD_XDICTIONARY
360
446
102
}
330
2
100
AcDbSymbolTableRecord
100
AcDbLayerTableRecord
  2
7A
 70
     0
 62
     4
  6
GEN7A
370
    -3
390
F
  0
LAYER
  5
447
102
{ACAD_XDICTIONARY
360
448
102
}
330
2
100
AcDbSymbolTableRecord
100
AcDbLayerTableRecord
  2
KLIN
 70
     0
 62
     1
  6
Continuous
370
    -3
390
F
  0
LAYER
  5
449
102
{ACAD_XDICTIONARY
360
44A
102
}
330
2
100
AcDbSymbolTableRecord
100
AcDbLayerTableRecord
  2
8
 70
     0
 62
     1
  6
Continuous
370
    -3
390
F
  0
LAYER
  5
44B
102
{ACAD_XDICTIONARY
360
44C
102
}
330
2
100
AcDbSymbolTableRecord
100
AcDbLayerTableRecord
  2
3
 70
     0
 62
     6
  6
GEN3
370
    -3
390
F
  0
LAYER
  5
44D
102
{ACAD_XDICTIONARY
360
44E
102
}
330
2
100
AcDbSymbolTableRecord
100
AcDbLayerTableRecord
  2
AM_0N
 70
     0
 62
     7
  6
Continuous
370
    50
390
F
1001
AcAecLayerStandard
1000

1000

  0
LAYER
  5
44F
102
{ACAD_XDICTIONARY
360
450
102
}
330
2
100
AcDbSymbolTableRecord
100
AcDbLayerTableRecord
  2
AM_7N
 70
     0
 62
   142
  6
AM_ISO08W050
370
    25
390
F
1001
AcAecLayerStandard
1000

1000

  0
LAYER
  5
451
102
{ACAD_XDICTIONARY
360
452
102
}
330
2
100
AcDbSymbolTableRecord
100
AcDbLayerTableRecord
  2
AM_4N
 70
     0
 62
    92
  6
Continuous
370
    25
390
F
1001
AcAecLayerStandard
1000

1000

  0
LAYER
  5
453
102
{ACAD_XDICTIONARY
360
454
102
}
330
2
100
AcDbSymbolTableRecord
100
AcDbLayerTableRecord
  2
AM_9N
 70
     0
 62
  -253
  6
Continuous
370
     0
390
F
1001
AcAecLayerStandard
1000

1000

  0
ENDTAB
  0
TABLE
  2
STYLE
  5
3
330
0
100
AcDbSymbolTable
 70
     8
  0
STYLE
  5
11
330
3
100
AcDbSymbolTableRecord
100
AcDbTextStyleTableRecord
  2
STANDARD
 70
     0
 40
0.0
 41
1.0
 50
0.0
 71
     0
 42
2.5
  3
ISOCP.SHX
  4

  0
STYLE
  5
6B
330
3
100
AcDbSymbolTableRecord
100
AcDbTextStyleTableRecord
  2

 70
     1
 40
0.0
 41
1.0
 50
0.0
 71
     0
 42
2.5
  3
ltypeshp.shx
  4

  0
STYLE
  5
6D
330
3
100
AcDbSymbolTableRecord
100
AcDbTextStyleTableRecord
  2
ACISOTS
 70
     0
 40
1.0
 41
1.0
 50
0.0
 71
     0
 42
2.5
  3
isocp.shx
  4

  0
STYLE
  5
79
330
3
100
AcDbSymbolTableRecord
100
AcDbTextStyleTableRecord
  2
ACISOGDT
 70
     0
 40
0.0
 41
1.0
 50
0.0
 71
     0
 42
2.5
  3
amgdt.shx
  4

  0
STYLE
  5
1ED
330
3
100
AcDbSymbolTableRecord
100
AcDbTextStyleTableRecord
  2
USER1
 70
     0
 40
0.0
 41
1.0
 50
0.0
 71
     0
 42
2.5
  3
TXT.SHX
  4

  0
STYLE
  5
1EE
330
3
100
AcDbSymbolTableRecord
100
AcDbTextStyleTableRecord
  2
USER2
 70
     0
 40
0.0
 41
1.0
 50
0.0
 71
     0
 42
2.5
  3
SIMPLEX.SHX
  4

  0
STYLE
  5
1EF
330
3
100
AcDbSymbolTableRecord
100
AcDbTextStyleTableRecord
  2
USER3
 70
     0
 40
0.0
 41
1.0
 50
0.0
 71
     0
 42
2.5
  3
ITALIC.SHX
  4

  0
STYLE
  5
22C
330
3
100
AcDbSymbolTableRecord
100
AcDbTextStyleTableRecord
  2

 70
     1
 40
0.0
 41
1.0
 50
0.0
 71
     0
 42
2.5
  3
genltshp.shx
  4

  0
ENDTAB
  0
TABLE
  2
VIEW
  5
6
330
0
100
AcDbSymbolTable
 70
     0
  0
ENDTAB
  0
TABLE
  2
UCS
  5
7
330
0
100
AcDbSymbolTable
 70
     0
  0
ENDTAB
  0
TABLE
  2
APPID
  5
9
330
0
100
AcDbSymbolTable
 70
    27
  0
APPID
  5
12
330
9
100
AcDbSymbolTableRecord
100
AcDbRegAppTableRecord
  2
ACAD
 70
     0
  0
APPID
  5
46
330
9
100
AcDbSymbolTableRecord
100
AcDbRegAppTableRecord
  2
MCAD_NO_VIS
 70
     0
  0
APPID
  5
47
330
9
100
AcDbSymbolTableRecord
100
AcDbRegAppTableRecord
  2
ACAD_TEMP_GRAPHIC
 70
     0
  0
APPID
  5
58
330
9
100
AcDbSymbolTableRecord
100
AcDbRegAppTableRecord
  2
ACATTRIBSERVICES
 70
     0
  0
APPID
  5
EE
330
9
100
AcDbSymbolTableRecord
100
AcDbRegAppTableRecord
  2
AD_DRAW
 70
     0
  0
APPID
  5
10C
330
9
100
AcDbSymbolTableRecord
100
AcDbRegAppTableRecord
  2
DESIGNERASSEMBLIES
 70
     0
  0
APPID
  5
111
330
9
100
AcDbSymbolTableRecord
100
AcDbRegAppTableRecord
  2
ACADM_DIM_EDIT
 70
     0
  0
APPID
  5
112
330
9
100
AcDbSymbolTableRecord
100
AcDbRegAppTableRecord
  2
AMDT_DM_ADJ
 70
     0
  0
APPID
  5
1A3
330
9
100
AcDbSymbolTableRecord
100
AcDbRegAppTableRecord
  2
ACAD_DSTYLE_DIMARC_LENGTH_SYMBOL
 70
     0
  0
APPID
  5
1A4
330
9
100
AcDbSymbolTableRecord
100
AcDbRegAppTableRecord
  2
ACAD_DSTYLE_DIMJOGGED_JOGANGLE_SYMBOL
 70
     0
  0
APPID
  5
2C6
330
9
100
AcDbSymbolTableRecord
100
AcDbRegAppTableRecord
  2
ACAD_MLEADERVER
 70
     0
  0
APPID
  5
36E
330
9
100
AcDbSymbolTableRecord
100
AcDbRegAppTableRecord
  2
ACAD_EXEMPT_FROM_CAD_STANDARDS
 70
     0
  0
APPID
  5
456
330
9
100
AcDbSymbolTableRecord
100
AcDbRegAppTableRecord
  2
AcAecLayerStandard
 70
     0
  0
APPID
  5
457
330
9
100
AcDbSymbolTableRecord
100
AcDbRegAppTableRecord
  2
GENIUS_GENOENT_13
 70
     0
  0
APPID
  5
458
330
9
100
AcDbSymbolTableRecord
100
AcDbRegAppTableRecord
  2
GENIUS_GENOLIS_13
 70
     0
  0
APPID
  5
459
330
9
100
AcDbSymbolTableRecord
100
AcDbRegAppTableRecord
  2
GENIUS_GENODEF_13
 70
     0
  0
APPID
  5
45A
330
9
100
AcDbSymbolTableRecord
100
AcDbRegAppTableRecord
  2
GENIUS_GENOBJ-N-CRS_13
 70
     0
  0
APPID
  5
45B
330
9
100
AcDbSymbolTableRecord
100
AcDbRegAppTableRecord
  2
GENIUS_GENOREF_13
 70
     0
  0
APPID
  5
45C
330
9
100
AcDbSymbolTableRecord
100
AcDbRegAppTableRecord
  2
GENIUS_GENOBJ-N-CEN_13
 70
     0
  0
APPID
  5
45D
330
9
100
AcDbSymbolTableRecord
100
AcDbRegAppTableRecord
  2
GENIUS_GENCEN_19
 70
     0
  0
APPID
  5
45E
330
9
100
AcDbSymbolTableRecord
100
AcDbRegAppTableRecord
  2
ACAD_DSTYLE_DIMINSPECT
 70
     0
  0
APPID
  5
45F
330
9
100
AcDbSymbolTableRecord
100
AcDbRegAppTableRecord
  2
GENIUS_GENOBJ-N-FIL_13
 70
     0
  0
APPID
  5
460
330
9
100
AcDbSymbolTableRecord
100
AcDbRegAppTableRecord
  2
GENIUS_GENOBJ-N-HTC_13
 70
     0
  0
APPID
  5
461
330
9
100
AcDbSymbolTableRecord
100
AcDbRegAppTableRecord
  2
GENIUS_GENHATCH_13
 70
     0
  0
APPID
  5
84F
330
9
100
AcDbSymbolTableRecord
100
AcDbRegAppTableRecord
  2
ACAD_DSTYLE_DIM_LINETYPE
 70
     0
  0
APPID
  5
850
330
9
100
AcDbSymbolTableRecord
100
AcDbRegAppTableRecord
  2
ACAD_DSTYLE_DIM_EXT1_LINETYPE
 70
     0
  0
APPID
  5
851
330
9
100
AcDbSymbolTableRecord
100
AcDbRegAppTableRecord
  2
ACAD_DSTYLE_DIM_EXT2_LINETYPE
 70
     0
  0
ENDTAB
  0
TABLE
  2
DIMSTYLE
  5
A
330
0
100
AcDbSymbolTable
 70
    10
100
AcDbDimStyleTable
 71
     1
340
81
  0
DIMSTYLE
105
27
330
A
100
AcDbSymbolTableRecord
100
AcDbDimStyleTableRecord
  2
ISO-25
 70
     0
 41
2.5
 42
0.625
 43
3.75
 44
1.25
 73
     0
 74
     0
 77
     1
 78
     8
140
2.5
141
2.5
143
0.03937007874016
147
0.625
171
     3
172
     1
271
     2
272
     2
274
     3
278
    44
283
     0
284
     8
340
11
  0
DIMSTYLE
105
81
102
{ACAD_REACTORS
330
62
102
}
330
A
100
AcDbSymbolTableRecord
100
AcDbDimStyleTableRecord
  2
AM_ISO
 70
     0
  4
"
 41
3.5
 42
1.0
 43
10.0
 44
1.0
 47
0.1
 48
0.1
 73
     0
 74
     0
 77
     1
 78
     8
 79
     2
140
3.5
141
0.0
143
0.0393701
146
0.71
147
1.5
172
     1
176
   256
177
   256
178
   140
271
     2
272
     3
274
     4
283
     0
284
     8
340
11
371
    -1
372
    -1
1001
ACAD_DSTYLE_DIMJOGGED_JOGANGLE_SYMBOL
1070
   384
1040
0.7853981633974483
1001
ACAD_DSTYLE_DIMARC_LENGTH_SYMBOL
1070
   379
1070
     1
1001
ACAD_DSTYLE_DIM_LINETYPE
1070
   380
1005
14
1001
ACAD_DSTYLE_DIM_EXT1_LINETYPE
1070
   381
1005
14
1001
ACAD_DSTYLE_DIM_EXT2_LINETYPE
1070
   382
1005
14
  0
DIMSTYLE
105
82
330
A
100
AcDbSymbolTableRecord
100
AcDbDimStyleTableRecord
  2
AM_ISO$3
 70
     0
  4
"
 41
3.5
 42
1.0
 43
10.0
 44
1.0
 47
0.1
 48
0.1
 73
     0
 77
     1
 78
     8
 79
     2
140
3.5
141
0.0
143
0.0393701
146
0.71
147
1.5
176
   256
177
   256
178
   140
271
     2
272
     3
274
     4
283
     0
284
     8
288
     1
289
     0
340
11
371
    -1
372
    -1
1001
ACAD_DSTYLE_DIMJOGGED_JOGANGLE_SYMBOL
1070
   384
1040
0.7853981633974483
1001
ACAD_DSTYLE_DIMARC_LENGTH_SYMBOL
1070
   379
1070
     1
1001
ACAD_DSTYLE_DIM_LINETYPE
1070
   380
1005
14
1001
ACAD_DSTYLE_DIM_EXT1_LINETYPE
1070
   381
1005
14
1001
ACAD_DSTYLE_DIM_EXT2_LINETYPE
1070
   382
1005
14
  0
DIMSTYLE
105
83
330
A
100
AcDbSymbolTableRecord
100
AcDbDimStyleTableRecord
  2
AM_ISO$4
 70
     0
  4
"
 41
3.5
 42
1.0
 43
10.0
 44
1.0
 47
0.1
 48
0.1
 73
     0
 74
     0
 77
     1
 78
     8
 79
     2
140
3.5
141
0.0
143
0.0393701
146
0.71
147
1.5
172
     1
176
   256
177
   256
178
   140
271
     2
272
     3
274
     4
283
     0
284
     8
340
11
371
    -1
372
    -1
1001
ACAD_DSTYLE_DIMJOGGED_JOGANGLE_SYMBOL
1070
   384
1040
0.7853981633974483
1001
ACAD_DSTYLE_DIMARC_LENGTH_SYMBOL
1070
   379
1070
     1
1001
ACAD_DSTYLE_DIM_LINETYPE
1070
   380
1005
14
1001
ACAD_DSTYLE_DIM_EXT1_LINETYPE
1070
   381
1005
14
1001
ACAD_DSTYLE_DIM_EXT2_LINETYPE
1070
   382
1005
14
  0
DIMSTYLE
105
84
330
A
100
AcDbSymbolTableRecord
100
AcDbDimStyleTableRecord
  2
AM_ISO$6
 70
     0
  4
"
 41
3.5
 42
1.0
 43
10.0
 44
1.0
 47
0.1
 48
0.1
 73
     0
 74
     0
 78
     8
 79
     2
140
3.5
141
0.0
143
0.0393701
146
0.71
147
1.5
172
     1
176
   256
177
   256
178
   140
271
     2
272
     3
274
     4
283
     0
284
     8
340
11
371
    -1
372
    -1
1001
ACAD_DSTYLE_DIMJOGGED_JOGANGLE_SYMBOL
1070
   384
1040
0.7853981633974483
1001
ACAD_DSTYLE_DIMARC_LENGTH_SYMBOL
1070
   379
1070
     1
1001
ACAD_DSTYLE_DIM_LINETYPE
1070
   380
1005
14
1001
ACAD_DSTYLE_DIM_EXT1_LINETYPE
1070
   381
1005
14
1001
ACAD_DSTYLE_DIM_EXT2_LINETYPE
1070
   382
1005
14
  0
DIMSTYLE
105
85
330
A
100
AcDbSymbolTableRecord
100
AcDbDimStyleTableRecord
  2
AM_ISO$7
 70
     0
  4
"
 41
3.5
 42
1.0
 43
10.0
 44
1.0
 47
0.1
 48
0.1
 73
     0
 74
     0
 77
     1
 78
     8
 79
     2
140
3.5
141
0.0
143
0.0393701
146
0.71
147
1.5
172
     1
176
   256
177
   256
178
   140
271
     2
272
     3
274
     4
283
     0
284
     8
340
11
371
    -1
372
    -1
1001
ACAD_DSTYLE_DIMJOGGED_JOGANGLE_SYMBOL
1070
   384
1040
0.7853981633974483
1001
ACAD_DSTYLE_DIMARC_LENGTH_SYMBOL
1070
   379
1070
     1
1001
ACAD_DSTYLE_DIM_LINETYPE
1070
   380
1005
14
1001
ACAD_DSTYLE_DIM_EXT1_LINETYPE
1070
   381
1005
14
1001
ACAD_DSTYLE_DIM_EXT2_LINETYPE
1070
   382
1005
14
  0
DIMSTYLE
105
86
330
A
100
AcDbSymbolTableRecord
100
AcDbDimStyleTableRecord
  2
AM_ISO$SF
 70
     0
  4
"
 41
3.5
 42
1.0
 43
10.0
 44
1.0
 47
0.1
 48
0.1
 73
     0
 74
     0
 75
     1
 76
     1
 77
     1
 78
     8
 79
     2
140
3.5
141
0.0
143
0.0393701
146
0.71
147
1.5
172
     1
176
   256
177
   256
178
   140
271
     2
272
     3
274
     4
283
     0
284
     8
340
11
371
    -1
372
    -1
1001
ACAD_DSTYLE_DIMJOGGED_JOGANGLE_SYMBOL
1070
   384
1040
0.7853981633974483
1001
ACAD_DSTYLE_DIMARC_LENGTH_SYMBOL
1070
   379
1070
     1
1001
ACAD_DSTYLE_DIM_LINETYPE
1070
   380
1005
14
1001
ACAD_DSTYLE_DIM_EXT1_LINETYPE
1070
   381
1005
14
1001
ACAD_DSTYLE_DIM_EXT2_LINETYPE
1070
   382
1005
14
  0
DIMSTYLE
105
8B
330
A
100
AcDbSymbolTableRecord
100
AcDbDimStyleTableRecord
  2
AM_ISO$SH
 70
     0
  4
"
 41
3.5
 42
1.0
 43
10.0
 44
1.0
 47
0.1
 48
0.1
 73
     0
 74
     0
 75
     1
 76
     1
 77
     1
 78
     8
 79
     2
140
3.5
141
0.0
143
0.0393701
144
2.0
146
0.71
147
1.5
172
     1
173
     1
176
   256
177
   256
178
   140
271
     2
272
     3
274
     4
283
     0
284
     8
340
11
343
87
371
    -1
372
    -1
1001
ACAD_DSTYLE_DIMJOGGED_JOGANGLE_SYMBOL
1070
   384
1040
0.7853981633974483
1001
ACAD_DSTYLE_DIMARC_LENGTH_SYMBOL
1070
   379
1070
     1
1001
ACAD_DSTYLE_DIM_LINETYPE
1070
   380
1005
14
1001
ACAD_DSTYLE_DIM_EXT1_LINETYPE
1070
   381
1005
14
1001
ACAD_DSTYLE_DIM_EXT2_LINETYPE
1070
   382
1005
14
  0
DIMSTYLE
105
455
102
{ACAD_REACTORS
330
4CA
330
4CB
330
4CC
330
4CD
330
4CE
330
512
330
597
330
65B
330
65C
330
65D
330
65E
330
65F
330
6A3
330
728
102
}
330
A
100
AcDbSymbolTableRecord
100
AcDbDimStyleTableRecord
  2
AM_DIN$0
 70
     0
  4
"
 41
3.5
 42
1.0
 43
10.0
 44
1.0
 47
0.1
 48
0.1
 73
     0
 74
     0
 77
     1
 78
     8
 79
     2
140
3.5
141
0.0
143
0.0393701
146
0.71
147
1.5
172
     1
176
   256
177
   256
178
     2
271
     2
272
     3
274
     4
283
     0
284
     8
340
11
371
    -1
372
    -1
1001
ACAD_DSTYLE_DIMJOGGED_JOGANGLE_SYMBOL
1070
   384
1040
1.570796326794896
1001
ACAD_DSTYLE_DIM_LINETYPE
1070
   380
1005
14
1001
ACAD_DSTYLE_DIM_EXT1_LINETYPE
1070
   381
1005
14
1001
ACAD_DSTYLE_DIM_EXT2_LINETYPE
1070
   382
1005
14
  0
ENDTAB
  0
TABLE
  2
BLOCK_RECORD
  5
1
330
0
100
AcDbSymbolTable
 70
    22
  0
BLOCK_RECORD
  5
1F
102
{ACAD_XDICTIONARY
360
8F
102
}
330
1
100
AcDbSymbolTableRecord
100
AcDbBlockTableRecord
  2
*Model_Space
340
22
  0
BLOCK_RECORD
  5
1B
330
1
100
AcDbSymbolTableRecord
100
AcDbBlockTableRecord
  2
*Paper_Space
340
1E
  0
BLOCK_RECORD
  5
23
330
1
100
AcDbSymbolTableRecord
100
AcDbBlockTableRecord
  2
*Paper_Space0
340
26
  0
BLOCK_RECORD
  5
87
330
1
100
AcDbSymbolTableRecord
100
AcDbBlockTableRecord
  2
GENAXEH
340
0
  0
BLOCK_RECORD
  5
3AE
330
1
100
AcDbSymbolTableRecord
100
AcDbBlockTableRecord
  2
befestigung
340
0
310
2800000020000000200000000100080000000000000400000000000000000000000000000000000000000000000080000080000000808000800000008000800080800000C0C0C000C0DCC000F0CAA6000020400000206000002080000020A0000020C0000020E00000400000004020000040400000406000004080000040A0
310
000040C0000040E00000600000006020000060400000606000006080000060A0000060C0000060E00000800000008020000080400000806000008080000080A0000080C0000080E00000A0000000A0200000A0400000A0600000A0800000A0A00000A0C00000A0E00000C0000000C0200000C0400000C0600000C0800000C0
310
A00000C0C00000C0E00000E0000000E0200000E0400000E0600000E0800000E0A00000E0C00000E0E00040000000400020004000400040006000400080004000A0004000C0004000E00040200000402020004020400040206000402080004020A0004020C0004020E000404000004040200040404000404060004040800040
310
40A0004040C0004040E00040600000406020004060400040606000406080004060A0004060C0004060E00040800000408020004080400040806000408080004080A0004080C0004080E00040A0000040A0200040A0400040A0600040A0800040A0A00040A0C00040A0E00040C0000040C0200040C0400040C0600040C08000
310
40C0A00040C0C00040C0E00040E0000040E0200040E0400040E0600040E0800040E0A00040E0C00040E0E00080000000800020008000400080006000800080008000A0008000C0008000E00080200000802020008020400080206000802080008020A0008020C0008020E00080400000804020008040400080406000804080
310
008040A0008040C0008040E00080600000806020008060400080606000806080008060A0008060C0008060E00080800000808020008080400080806000808080008080A0008080C0008080E00080A0000080A0200080A0400080A0600080A0800080A0A00080A0C00080A0E00080C0000080C0200080C0400080C0600080C0
310
800080C0A00080C0C00080C0E00080E0000080E0200080E0400080E0600080E0800080E0A00080E0C00080E0E000C0000000C0002000C0004000C0006000C0008000C000A000C000C000C000E000C0200000C0202000C0204000C0206000C0208000C020A000C020C000C020E000C0400000C0402000C0404000C0406000C0
310
408000C040A000C040C000C040E000C0600000C0602000C0604000C0606000C0608000C060A000C060C000C060E000C0800000C0802000C0804000C0806000C0808000C080A000C080C000C080E000C0A00000C0A02000C0A04000C0A06000C0A08000C0A0A000C0A0C000C0A0E000C0C00000C0C02000C0C04000C0C06000
310
C0C08000C0C0A000F0FBFF00A4A0A000808080000000FF0000FF000000FFFF00FF000000FF00FF00FFFF0000FFFFFF00000000000000000000000000000000000000000000000000000000000000000000000000000000000000000000000000000000000000FF000000000000000000000000000000000000000000000000
310
000000000000FF00FFFFFF00000000000000000000000000000000000000000000000000FFFF0000000000FF0000000000000000000000000000000000000000000000FF00000000000000FF00000000000000000000000000000000000000000000FF000000000000000000FF000000000000000000000000000000000000
310
0000FF00000000000000000000FF00000000000000000000000000000000000000FF0000000000000000000000FF000000000000000000000000000000000000FF0000000000000000000000FF00000000000000000000000000000000FFFFFF0000000000000000000000FF0000000000000000000000FFFFFFFFFF00FFFF
310
FFFFFF00000000000000FFFF0000000000000000000000FFFF000000FF00FFFF000000FFFFFFFFFFFFFF00000000000000000000000000FFFF000000FF00FFFF00000000000000FF000000000000000000000000000000FFFFFFFFFFFF00FFFF00000000000000FF3030303030FFFF0000000000000000FFFF000000FF00FF
310
FF00000000000000FF0000000000FFFF0000000000000000FFFF000000FF00FFFF00000000000000FF0000000000FFFF000000000000E8E8FFFFE8E8E8E8E8FFFFE8E8E8E8E8E8E8FFE8E8E8E8E8FFFFE8E8000000000000FFFF000000FF00FFFF00000000000000FF0000000000FFFF0000000000000000FFFFFFFFFFFF00
310
FFFF00000000000000FFFFFFFFFFFFFFFF0000000000000000FFFF000000FF00FFFF00000000000000FF000000000000000000000000000000FFFF000000FF00FFFF00000000FFFFFFFFFF000000000000000000000000000000FFFFFFFFFF00FFFFFFFFFFFF0000000000FFFFFF0000000000000000000000000000000000
310
00FFFFFF0000000000000000000000FF0000000000000000000000000000000000000000FF0000000000000000000000FF0000000000000000000000000000000000000000FF0000000000000000000000FF0000000000000000000000000000000000000000FF00000000000000000000FF00000000000000000000000000
310
0000000000000000FF000000000000000000FF00000000000000000000000000000000000000000000FF00000000000000FF000000000000000000000000000000000000000000000000FF000000000000FF00000000000000000000000000000000000000000000000000FFFF0000FFFF0000000000000000000000000000
310
0000000000000000000000000000FFFF00000000000000000000000000000000000000000000000000000000000000000000000000000000
102
{BLKREFS
331
5ED
331
5EC
331
77D
331
77E
102
}
1001
ACAD
1000
DesignCenter Data
1002
{
1070
     1
1070
     4
1002
}
  0
BLOCK_RECORD
  5
3D2
330
1
100
AcDbSymbolTableRecord
100
AcDbBlockTableRecord
  2
*U4
340
0
102
{BLKREFS
331
3CF
102
}
  0
BLOCK_RECORD
  5
3E0
330
1
100
AcDbSymbolTableRecord
100
AcDbBlockTableRecord
  2
*U5
340
0
102
{BLKREFS
331
3D0
102
}
  0
BLOCK_RECORD
  5
3E8
330
1
100
AcDbSymbolTableRecord
100
AcDbBlockTableRecord
  2
*D6
340
0
  0
BLOCK_RECORD
  5
3F4
330
1
100
AcDbSymbolTableRecord
100
AcDbBlockTableRecord
  2
*D7
340
0
  0
BLOCK_RECORD
  5
400
330
1
100
AcDbSymbolTableRecord
100
AcDbBlockTableRecord
  2
*D8
340
0
  0
BLOCK_RECORD
  5
40C
330
1
100
AcDbSymbolTableRecord
100
AcDbBlockTableRecord
  2
*D9
340
0
  0
BLOCK_RECORD
  5
418
330
1
100
AcDbSymbolTableRecord
100
AcDbBlockTableRecord
  2
*D10
340
0
  0
BLOCK_RECORD
  5
424
330
1
100
AcDbSymbolTableRecord
100
AcDbBlockTableRecord
  2
*D11
340
0
  0
BLOCK_RECORD
  5
430
330
1
100
AcDbSymbolTableRecord
100
AcDbBlockTableRecord
  2
*D12
340
0
  0
BLOCK_RECORD
  5
780
330
1
100
AcDbSymbolTableRecord
100
AcDbBlockTableRecord
  2
*D14
340
0
  0
BLOCK_RECORD
  5
78C
330
1
100
AcDbSymbolTableRecord
100
AcDbBlockTableRecord
  2
*D15
340
0
  0
BLOCK_RECORD
  5
798
330
1
100
AcDbSymbolTableRecord
100
AcDbBlockTableRecord
  2
*D16
340
0
  0
BLOCK_RECORD
  5
7A4
330
1
100
AcDbSymbolTableRecord
100
AcDbBlockTableRecord
  2
*D17
340
0
  0
BLOCK_RECORD
  5
7B0
330
1
100
AcDbSymbolTableRecord
100
AcDbBlockTableRecord
  2
*D18
340
0
  0
BLOCK_RECORD
  5
7BC
330
1
100
AcDbSymbolTableRecord
100
AcDbBlockTableRecord
  2
*D19
340
0
  0
BLOCK_RECORD
  5
7C8
330
1
100
AcDbSymbolTableRecord
100
AcDbBlockTableRecord
  2
*D20
340
0
  0
ENDTAB
  0
ENDSEC
  0
SECTION
  2
BLOCKS
  0
BLOCK
  5
20
330
1F
100
AcDbEntity
  8
0
100
AcDbBlockBegin
  2
*Model_Space
 70
     0
 10
0.0
 20
0.0
 30
0.0
  3
*Model_Space
  1

  0
ENDBLK
  5
21
330
1F
100
AcDbEntity
  8
0
100
AcDbBlockEnd
  0
BLOCK
  5
1C
330
1B
100
AcDbEntity
 67
     1
  8
0
100
AcDbBlockBegin
  2
*Paper_Space
 70
     0
 10
0.0
 20
0.0
 30
0.0
  3
*Paper_Space
  1

  0
ENDBLK
  5
1D
330
1B
100
AcDbEntity
 67
     1
  8
0
100
AcDbBlockEnd
  0
BLOCK
  5
24
330
23
100
AcDbEntity
 67
     1
  8
0
100
AcDbBlockBegin
  2
*Paper_Space0
 70
     0
 10
0.0
 20
0.0
 30
0.0
  3
*Paper_Space0
  1

  0
ENDBLK
  5
25
330
23
100
AcDbEntity
 67
     1
  8
0
100
AcDbBlockEnd
  0
BLOCK
  5
89
330
87
100
AcDbEntity
  8
0
100
AcDbBlockBegin
  2
GENAXEH
 70
     0
 10
0.0
 20
0.0
 30
0.0
  3
GENAXEH
  1

  0
LINE
  5
88
330
87
100
AcDbEntity
  8
0
100
AcDbLine
 10
-1.0
 20
0.0
 30
0.0
 11
1.0
 21
0.0
 31
0.0
  0
ENDBLK
  5
8A
330
87
100
AcDbEntity
  8
0
100
AcDbBlockEnd
  0
BLOCK
  5
3AF
330
3AE
100
AcDbEntity
  8
0
100
AcDbBlockBegin
  2
befestigung
 70
     0
 10
0.0
 20
0.0
 30
0.0
  3
befestigung
  1

  0
LINE
  5
3B0
330
3AE
100
AcDbEntity
  8
AM_7N
  6
AM_ISO08W050x2
100
AcDbLine
 10
2003.869006815402
 20
1351.458312600669
 30
0.0
 11
2040.549006815402
 21
1351.458312600669
 31
0.0
1001
GENIUS_GENOREF_13
1005
0
1005
0
1005
0
  0
LINE
  5
3B1
330
3AE
100
AcDbEntity
  8
AM_9N
100
AcDbLine
 10
2015.674006815402
 20
1347.458312600669
 30
0.0
 11
2017.974006815402
 21
1347.458312600669
 31
0.0
1001
GENIUS_GENOREF_13
1005
0
1005
0
1005
0
  0
LINE
  5
3B2
330
3AE
100
AcDbEntity
  8
AM_9N
100
AcDbLine
 10
2022.209006815402
 20
1347.458312600669
 30
0.0
 11
2032.209006815401
 21
1347.458312600669
 31
0.0
1001
GENIUS_GENOREF_13
1005
0
1005
0
1005
0
  0
LINE
  5
3B3
330
3AE
100
AcDbEntity
  8
AM_0N
100
AcDbLine
 10
2027.974006815401
 20
1347.458312600669
 30
0.0
 11
2036.782194315402
 21
1347.458312600669
 31
0.0
1001
GENIUS_GENOREF_13
1005
0
1005
0
1005
0
  0
LINE
  5
3B4
330
3AE
100
AcDbEntity
  8
AM_9N
100
AcDbLine
 10
2015.674006815402
 20
1348.225125100669
 30
0.0
 11
2017.974006815402
 21
1348.225125100669
 31
0.0
1001
GENIUS_GENOREF_13
1005
0
1005
0
1005
0
  0
LINE
  5
3B5
330
3AE
100
AcDbEntity
  8
AM_9N
100
AcDbLine
 10
2022.209006815402
 20
1348.225125100669
 30
0.0
 11
2032.209006815401
 21
1348.225125100669
 31
0.0
1001
GENIUS_GENOREF_13
1005
0
1005
0
1005
0
  0
LINE
  5
3B6
330
3AE
100
AcDbEntity
  8
AM_4N
100
AcDbLine
 10
2027.974006815401
 20
1348.225125100669
 30
0.0
 11
2037.549006815402
 21
1348.225125100669
 31
0.0
1001
GENIUS_GENOREF_13
1005
0
1005
0
1005
0
  0
LINE
  5
3B7
330
3AE
100
AcDbEntity
  8
AM_9N
100
AcDbLine
 10
2015.674006815402
 20
1354.691500100669
 30
0.0
 11
2017.974006815402
 21
1354.691500100669
 31
0.0
1001
GENIUS_GENOREF_13
1005
0
1005
0
1005
0
  0
LINE
  5
3B8
330
3AE
100
AcDbEntity
  8
AM_9N
100
AcDbLine
 10
2027.974006815401
 20
1354.691500100669
 30
0.0
 11
2032.209006815401
 21
1354.691500100669
 31
0.0
1001
GENIUS_GENOREF_13
1005
0
1005
0
1005
0
  0
LINE
  5
3B9
330
3AE
100
AcDbEntity
  8
AM_4N
100
AcDbLine
 10
2027.974006815401
 20
1354.691500100669
 30
0.0
 11
2037.549006815402
 21
1354.691500100669
 31
0.0
1001
GENIUS_GENOREF_13
1005
0
1005
0
1005
0
  0
LINE
  5
3BA
330
3AE
100
AcDbEntity
  8
AM_9N
100
AcDbLine
 10
2015.674006815402
 20
1355.458312600669
 30
0.0
 11
2017.974006815402
 21
1355.458312600669
 31
0.0
1001
GENIUS_GENOREF_13
1005
0
1005
0
1005
0
  0
LINE
  5
3BB
330
3AE
100
AcDbEntity
  8
AM_9N
100
AcDbLine
 10
2027.974006815401
 20
1355.458312600669
 30
0.0
 11
2032.209006815401
 21
1355.458312600669
 31
0.0
1001
GENIUS_GENOREF_13
1005
0
1005
0
1005
0
  0
LINE
  5
3BC
330
3AE
100
AcDbEntity
  8
AM_0N
100
AcDbLine
 10
2027.974006815401
 20
1355.458312600669
 30
0.0
 11
2036.782194315402
 21
1355.458312600669
 31
0.0
1001
GENIUS_GENOREF_13
1005
0
1005
0
1005
0
  0
ARC
  5
3BD
330
3AE
100
AcDbEntity
  8
AM_0N
100
AcDbCircle
 10
2019.27813978905
 20
1351.458312600669
 30
0.0
 40
12.4091329736479
100
AcDbArc
 50
162.3875260144767
 51
197.6124739855233
1001
GENIUS_GENOREF_13
1005
0
1005
0
1005
0
  0
LINE
  5
3BE
330
3AE
100
AcDbEntity
  8
AM_0N
100
AcDbLine
 10
2012.549006815402
 20
1347.458312600669
 30
0.0
 11
2012.549006815402
 21
1355.458312600669
 31
0.0
1001
GENIUS_GENOREF_13
1005
0
1005
0
1005
0
  0
LINE
  5
3BF
330
3AE
100
AcDbEntity
  8
AM_0N
100
AcDbLine
 10
2012.549006815402
 20
1355.458312600669
 30
0.0
 11
2012.549006815402
 21
1347.458312600669
 31
0.0
1001
GENIUS_GENOREF_13
1005
0
1005
0
1005
0
  0
LINE
  5
3C0
330
3AE
100
AcDbEntity
  8
AM_0N
100
AcDbLine
 10
2006.869006815402
 20
1357.958312600669
 30
0.0
 11
2006.869006815402
 21
1344.958312600669
 31
0.0
1001
GENIUS_GENOREF_13
1005
0
1005
0
1005
0
  0
LINE
  5
3C1
330
3AE
100
AcDbEntity
  8
AM_0N
100
AcDbLine
 10
2007.45068721161
 20
1343.950812600669
 30
0.0
 11
2012.549006815402
 21
1343.950812600669
 31
0.0
1001
GENIUS_GENOREF_13
1005
0
1005
0
1005
0
  0
LINE
  5
3C2
330
3AE
100
AcDbEntity
  8
AM_0N
100
AcDbLine
 10
2007.45068721161
 20
1347.703589350401
 30
0.0
 11
2012.549006815402
 21
1347.703589350401
 31
0.0
1001
GENIUS_GENOREF_13
1005
0
1005
0
1005
0
  0
ARC
  5
3C3
330
3AE
100
AcDbEntity
  8
AM_0N
100
AcDbCircle
 10
2010.186279876194
 20
1345.827200975535
 30
0.0
 40
3.317273060791837
100
AcDbArc
 50
145.5531276177371
 51
205.5531276177362
1001
GENIUS_GENOREF_13
1005
0
1005
0
1005
0
  0
LINE
  5
3C4
330
3AE
100
AcDbEntity
  8
AM_0N
100
AcDbLine
 10
2007.45068721161
 20
1343.950812600669
 30
0.0
 11
2006.869006815402
 21
1344.958312600669
 31
0.0
1001
GENIUS_GENOREF_13
1005
0
1005
0
1005
0
  0
LINE
  5
3C5
330
3AE
100
AcDbEntity
  8
AM_0N
100
AcDbLine
 10
2012.549006815402
 20
1343.950812600669
 30
0.0
 11
2012.549006815402
 21
1347.458312600669
 31
0.0
1001
GENIUS_GENOREF_13
1005
0
1005
0
1005
0
  0
LINE
  5
3C6
330
3AE
100
AcDbEntity
  8
AM_0N
100
AcDbLine
 10
2012.549006815402
 20
1355.458312600669
 30
0.0
 11
2012.549006815402
 21
1358.965812600669
 31
0.0
1001
GENIUS_GENOREF_13
1005
0
1005
0
1005
0
  0
LINE
  5
3C7
330
3AE
100
AcDbEntity
  8
AM_0N
100
AcDbLine
 10
2007.45068721161
 20
1358.965812600669
 30
0.0
 11
2006.869006815402
 21
1357.958312600669
 31
0.0
1001
GENIUS_GENOREF_13
1005
0
1005
0
1005
0
  0
LINE
  5
3C8
330
3AE
100
AcDbEntity
  8
AM_0N
100
AcDbLine
 10
2007.45068721161
 20
1355.213035850936
 30
0.0
 11
2012.549006815402
 21
1355.213035850936
 31
0.0
1001
GENIUS_GENOREF_13
1005
0
1005
0
1005
0
  0
ARC
  5
3C9
330
3AE
100
AcDbEntity
  8
AM_0N
100
AcDbCircle
 10
2010.186279876194
 20
1357.089424225803
 30
0.0
 40
3.317273060791837
100
AcDbArc
 50
154.4468723822637
 51
214.4468723822629
1001
GENIUS_GENOREF_13
1005
0
1005
0
1005
0
  0
LINE
  5
3CA
330
3AE
100
AcDbEntity
  8
AM_0N
100
AcDbLine
 10
2007.45068721161
 20
1358.965812600669
 30
0.0
 11
2012.549006815402
 21
1358.965812600669
 31
0.0
1001
GENIUS_GENOREF_13
1005
0
1005
0
1005
0
  0
LINE
  5
3CB
330
3AE
100
AcDbEntity
  8
AM_0N
100
AcDbLine
 10
2036.782194315402
 20
1347.458312600669
 30
0.0
 11
2036.782194315402
 21
1355.458312600669
 31
0.0
1001
GENIUS_GENOREF_13
1005
0
1005
0
1005
0
  0
LINE
  5
3CC
330
3AE
100
AcDbEntity
  8
AM_0N
100
AcDbLine
 10
2037.549006815402
 20
1348.225125100669
 30
0.0
 11
2036.782194315402
 21
1347.458312600669
 31
0.0
1001
GENIUS_GENOREF_13
1005
0
1005
0
1005
0
  0
LINE
  5
3CD
330
3AE
100
AcDbEntity
  8
AM_0N
100
AcDbLine
 10
2037.549006815402
 20
1348.225125100669
 30
0.0
 11
2037.549006815402
 21
1354.691500100669
 31
0.0
1001
GENIUS_GENOREF_13
1005
0
1005
0
1005
0
  0
LINE
  5
3CE
330
3AE
100
AcDbEntity
  8
AM_0N
100
AcDbLine
 10
2036.782194315402
 20
1355.458312600669
 30
0.0
 11
2037.549006815402
 21
1354.691500100669
 31
0.0
1001
GENIUS_GENOREF_13
1005
0
1005
0
1005
0
  0
INSERT
  5
3CF
330
3AE
100
AcDbEntity
  8
AM_0N
100
AcDbBlockReference
  2
*U4
 10
0.0
 20
0.0
 30
0.0
1001
GENIUS_GENOREF_13
1005
0
  0
INSERT
  5
3D0
330
3AE
100
AcDbEntity
  8
AM_0N
100
AcDbBlockReference
  2
*U5
 10
0.0
 20
0.0
 30
0.0
1001
GENIUS_GENOREF_13
1005
0
  0
ENDBLK
  5
3D1
330
3AE
100
AcDbEntity
  8
0
100
AcDbBlockEnd
  0
BLOCK
  5
3D3
330
3D2
100
AcDbEntity
  8
0
100
AcDbBlockBegin
  2
*U4
 70
     1
 10
0.0
 20
0.0
 30
0.0
  3
*U4
  1

  0
ARC
  5
3D4
330
3D2
100
AcDbEntity
  8
AM_0N
100
AcDbCircle
 10
2031.974006815402
 20
1364.958312600669
 30
0.0
 40
6.0
100
AcDbArc
 50
284.6765041088877
 51
134.956760177952
  0
LINE
  5
3D5
330
3D2
100
AcDbEntity
  8
AM_0N
100
AcDbLine
 10
2017.974006815402
 20
1359.458312600669
 30
0.0
 11
2027.734569160611
 21
1369.204153903773
 31
0.0
  0
LINE
  5
3D6
330
3D2
100
AcDbEntity
  8
AM_0N
100
AcDbLine
 10
2027.974006815401
 20
1357.708312600669
 30
0.0
 11
2033.494174408163
 21
1359.154082204663
 31
0.0
  0
ARC
  5
3D7
330
3D2
100
AcDbEntity
  8
AM_0N
100
AcDbCircle
 10
2031.974006815402
 20
1337.958312600669
 30
0.0
 40
6.0
100
AcDbArc
 50
225.043239822048
 51
75.3234958911123
  0
LINE
  5
3D8
330
3D2
100
AcDbEntity
  8
AM_0N
100
AcDbLine
 10
2017.974006815402
 20
1343.458312600669
 30
0.0
 11
2027.734569160611
 21
1333.712471297565
 31
0.0
  0
LINE
  5
3D9
330
3D2
100
AcDbEntity
  8
AM_7N
  6
AM_ISO08W050x2
100
AcDbLine
 10
2030.974006815402
 20
1351.458312600669
 30
0.0
 11
2014.974006815402
 21
1351.458312600669
 31
0.0
  0
LINE
  5
3DA
330
3D2
100
AcDbEntity
  8
AM_0N
100
AcDbLine
 10
2017.974006815402
 20
1343.458312600669
 30
0.0
 11
2017.974006815402
 21
1359.458312600669
 31
0.0
  0
LINE
  5
3DB
330
3D2
100
AcDbEntity
  8
AM_0N
100
AcDbLine
 10
2027.974006815401
 20
1357.708312600669
 30
0.0
 11
2027.974006815401
 21
1345.208312600669
 31
0.0
  0
LINE
  5
3DC
330
3D2
100
AcDbEntity
  8
AM_0N
100
AcDbLine
 10
2027.974006815401
 20
1345.208312600669
 30
0.0
 11
2017.974006815402
 21
1343.458312600669
 31
0.0
  0
LINE
  5
3DD
330
3D2
100
AcDbEntity
  8
AM_0N
100
AcDbLine
 10
2027.974006815401
 20
1345.208312600669
 30
0.0
 11
2033.494174408163
 21
1343.762542996675
 31
0.0
  0
LINE
  5
3DE
330
3D2
100
AcDbEntity
  8
AM_0N
100
AcDbLine
 10
2017.974006815402
 20
1359.458312600669
 30
0.0
 11
2027.974006815401
 21
1357.708312600669
 31
0.0
  0
ENDBLK
  5
3DF
330
3D2
100
AcDbEntity
  8
0
100
AcDbBlockEnd
  0
BLOCK
  5
3E1
330
3E0
100
AcDbEntity
  8
0
100
AcDbBlockBegin
  2
*U5
 70
     1
 10
0.0
 20
0.0
 30
0.0
  3
*U5
  1

  0
LINE
  5
3E2
330
3E0
100
AcDbEntity
  8
AM_7N
  6
AM_ISO08W050x2
100
AcDbLine
 10
2012.674006815402
 20
1351.458312600669
 30
0.0
 11
2020.974006815402
 21
1351.458312600669
 31
0.0
  0
LINE
  5
3E3
330
3E0
100
AcDbEntity
  8
AM_0N
100
AcDbLine
 10
2015.674006815402
 20
1360.858312600669
 30
0.0
 11
2015.674006815402
 21
1342.058312600669
 31
0.0
  0
LINE
  5
3E4
330
3E0
100
AcDbEntity
  8
AM_0N
100
AcDbLine
 10
2017.974006815402
 20
1342.058312600669
 30
0.0
 11
2017.974006815402
 21
1360.858312600669
 31
0.0
  0
LINE
  5
3E5
330
3E0
100
AcDbEntity
  8
AM_0N
100
AcDbLine
 10
2015.674006815402
 20
1342.058312600669
 30
0.0
 11
2017.974006815402
 21
1342.058312600669
 31
0.0
  0
LINE
  5
3E6
330
3E0
100
AcDbEntity
  8
AM_0N
100
AcDbLine
 10
2017.974006815402
 20
1360.858312600669
 30
0.0
 11
2015.674006815402
 21
1360.858312600669
 31
0.0
  0
ENDBLK
  5
3E7
330
3E0
100
AcDbEntity
  8
0
100
AcDbBlockEnd
  0
BLOCK
  5
3E9
330
3E8
100
AcDbEntity
  8
0
100
AcDbBlockBegin
  2
*D6
 70
     1
 10
0.0
 20
0.0
 30
0.0
  3
*D6
  1

  0
LINE
  5
3EA
330
3E8
100
AcDbEntity
  8
AM_5
  6
ByBlock
100
AcDbLine
 10
1097.170728227971
 20
315.7952390353723
 30
0.0
 11
1219.454415877204
 21
315.7952390353723
 31
0.0
  0
LINE
  5
3EB
330
3E8
100
AcDbEntity
  8
AM_5
  6
ByBlock
100
AcDbLine
 10
1089.175299656706
 20
442.7226676066331
 30
0.0
 11
1219.454415877204
 21
442.7226676066331
 31
0.0
  0
LINE
  5
3EC
330
3E8
100
AcDbEntity
  8
AM_5
  6
ByBlock
100
AcDbLine
 10
1218.454415877204
 20
322.7952390353723
 30
0.0
 11
1218.454415877204
 21
435.7226676066331
 31
0.0
  0
SOLID
  5
3ED
330
3E8
100
AcDbEntity
  8
AM_5
100
AcDbTrace
 10
1217.287749210537
 20
322.7952390353723
 30
0.0
 11
1219.621082543871
 21
322.7952390353723
 31
0.0
 12
1218.454415877204
 22
315.7952390353723
 32
0.0
 13
1218.454415877204
 23
315.7952390353723
 33
0.0
  0
SOLID
  5
3EE
330
3E8
100
AcDbEntity
  8
AM_5
100
AcDbTrace
 10
1217.287749210537
 20
435.7226676066331
 30
0.0
 11
1219.621082543871
 21
435.7226676066331
 31
0.0
 12
1218.454415877204
 22
442.7226676066331
 32
0.0
 13
1218.454415877204
 23
442.7226676066331
 33
0.0
  0
MTEXT
  5
3EF
330
3E8
100
AcDbEntity
  8
AM_5
 62
     2
100
AcDbMText
 10
1211.954415877204
 20
379.2589533210029
 30
0.0
 40
10.0
 41
0.0
 71
     5
 72
     1
  1
105-160
 11
0.0000000000000001
 21
1.0
 31
0.0
 73
     1
 44
1.0
1001
ACAD
1000
MTEXTBEGIN
1070
    73
1070
     1
1070
    44
1040
1.0
1070
    74
1070
     0
1000
MTEXTEND
  0
POINT
  5
3F0
330
3E8
100
AcDbEntity
  8
Defpoints
 62
     0
100
AcDbPoint
 10
1096.170728227971
 20
315.7952390353723
 30
0.0
  0
POINT
  5
3F1
330
3E8
100
AcDbEntity
  8
Defpoints
 62
     0
100
AcDbPoint
 10
1088.175299656706
 20
442.7226676066331
 30
0.0
  0
POINT
  5
3F2
330
3E8
100
AcDbEntity
  8
Defpoints
 62
     0
100
AcDbPoint
 10
1218.454415877204
 20
442.7226676066331
 30
0.0
  0
ENDBLK
  5
3F3
330
3E8
100
AcDbEntity
  8
0
100
AcDbBlockEnd
  0
BLOCK
  5
3F5
330
3F4
100
AcDbEntity
  8
0
100
AcDbBlockBegin
  2
*D7
 70
     1
 10
0.0
 20
0.0
 30
0.0
  3
*D7
  1

  0
LINE
  5
3F6
330
3F4
100
AcDbEntity
  8
AM_5
  6
ByBlock
100
AcDbLine
 10
1089.175299656121
 20
51.08480223771221
 30
0.0
 11
1160.444547655208
 21
51.08480223771219
 31
0.0
  0
LINE
  5
3F7
330
3F4
100
AcDbEntity
  8
AM_5
  6
ByBlock
100
AcDbLine
 10
1091.374156799225
 20
135.0848022377113
 30
0.0
 11
1160.444547655208
 21
135.0848022377113
 31
0.0
  0
LINE
  5
3F8
330
3F4
100
AcDbEntity
  8
AM_5
  6
ByBlock
100
AcDbLine
 10
1159.444547655208
 20
58.08480223771219
 30
0.0
 11
1159.444547655208
 21
128.0848022377113
 31
0.0
  0
SOLID
  5
3F9
330
3F4
100
AcDbEntity
  8
AM_5
100
AcDbTrace
 10
1158.277880988541
 20
58.08480223771219
 30
0.0
 11
1160.611214321875
 21
58.08480223771219
 31
0.0
 12
1159.444547655208
 22
51.08480223771219
 32
0.0
 13
1159.444547655208
 23
51.08480223771219
 33
0.0
  0
SOLID
  5
3FA
330
3F4
100
AcDbEntity
  8
AM_5
100
AcDbTrace
 10
1158.277880988541
 20
128.0848022377113
 30
0.0
 11
1160.611214321875
 21
128.0848022377113
 31
0.0
 12
1159.444547655208
 22
135.0848022377113
 32
0.0
 13
1159.444547655208
 23
135.0848022377113
 33
0.0
  0
MTEXT
  5
3FB
330
3F4
100
AcDbEntity
  8
AM_5
 62
     2
100
AcDbMText
 10
1152.944547655208
 20
93.08480223771192
 30
0.0
 40
10.0
 41
0.0
 71
     5
 72
     1
  1
84
 11
0.0000000000000001
 21
1.0
 31
0.0
 73
     1
 44
1.0
1001
ACAD
1000
MTEXTBEGIN
1070
    73
1070
     1
1070
    44
1040
1.0
1070
    74
1070
     0
1000
MTEXTEND
  0
POINT
  5
3FC
330
3F4
100
AcDbEntity
  8
Defpoints
 62
     0
100
AcDbPoint
 10
1088.175299656121
 20
51.08480223771221
 30
0.0
  0
POINT
  5
3FD
330
3F4
100
AcDbEntity
  8
Defpoints
 62
     0
100
AcDbPoint
 10
1090.374156799225
 20
135.0848022377113
 30
0.0
  0
POINT
  5
3FE
330
3F4
100
AcDbEntity
  8
Defpoints
 62
     0
100
AcDbPoint
 10
1159.444547655208
 20
135.0848022377113
 30
0.0
  0
ENDBLK
  5
3FF
330
3F4
100
AcDbEntity
  8
0
100
AcDbBlockEnd
  0
BLOCK
  5
401
330
400
100
AcDbEntity
  8
0
100
AcDbBlockBegin
  2
*D8
 70
     1
 10
0.0
 20
0.0
 30
0.0
  3
*D8
  1

  0
LINE
  5
402
330
400
100
AcDbEntity
  8
AM_5
  6
ByBlock
100
AcDbLine
 10
1121.15701394234
 20
26.5848022377113
 30
0.0
 11
1196.341297595469
 21
26.58480223771128
 31
0.0
  0
LINE
  5
403
330
400
100
AcDbEntity
  8
AM_5
  6
ByBlock
100
AcDbLine
 10
1121.15701394234
 20
159.5848022377113
 30
0.0
 11
1196.341297595469
 21
159.5848022377113
 31
0.0
  0
LINE
  5
404
330
400
100
AcDbEntity
  8
AM_5
  6
ByBlock
100
AcDbLine
 10
1195.341297595469
 20
33.58480223771128
 30
0.0
 11
1195.341297595469
 21
152.5848022377113
 31
0.0
  0
SOLID
  5
405
330
400
100
AcDbEntity
  8
AM_5
100
AcDbTrace
 10
1194.174630928802
 20
33.58480223771128
 30
0.0
 11
1196.507964262135
 21
33.58480223771128
 31
0.0
 12
1195.341297595469
 22
26.58480223771128
 32
0.0
 13
1195.341297595469
 23
26.58480223771128
 33
0.0
  0
SOLID
  5
406
330
400
100
AcDbEntity
  8
AM_5
100
AcDbTrace
 10
1194.174630928802
 20
152.5848022377113
 30
0.0
 11
1196.507964262135
 21
152.5848022377113
 31
0.0
 12
1195.341297595469
 22
159.5848022377113
 32
0.0
 13
1195.341297595469
 23
159.5848022377113
 33
0.0
  0
MTEXT
  5
407
330
400
100
AcDbEntity
  8
AM_5
 62
     2
100
AcDbMText
 10
1188.841297595469
 20
93.08480223771148
 30
0.0
 40
10.0
 41
0.0
 71
     5
 72
     1
  1
133
 11
0.0000000000000001
 21
1.0
 31
0.0
 73
     1
 44
1.0
1001
ACAD
1000
MTEXTBEGIN
1070
    73
1070
     1
1070
    44
1040
1.0
1070
    74
1070
     0
1000
MTEXTEND
  0
POINT
  5
408
330
400
100
AcDbEntity
  8
Defpoints
 62
     0
100
AcDbPoint
 10
1120.15701394234
 20
26.5848022377113
 30
0.0
  0
POINT
  5
409
330
400
100
AcDbEntity
  8
Defpoints
 62
     0
100
AcDbPoint
 10
1120.15701394234
 20
159.5848022377113
 30
0.0
  0
POINT
  5
40A
330
400
100
AcDbEntity
  8
Defpoints
 62
     0
100
AcDbPoint
 10
1195.341297595469
 20
159.5848022377113
 30
0.0
  0
ENDBLK
  5
40B
330
400
100
AcDbEntity
  8
0
100
AcDbBlockEnd
  0
BLOCK
  5
40D
330
40C
100
AcDbEntity
  8
0
100
AcDbBlockBegin
  2
*D9
 70
     1
 10
0.0
 20
0.0
 30
0.0
  3
*D9
  1

  0
LINE
  5
40E
330
40C
100
AcDbEntity
  8
AM_5
  6
ByBlock
100
AcDbLine
 10
1090.374156799225
 20
133.4622879517885
 30
0.0
 11
1090.374156799225
 21
204.4235521965402
 31
0.0
  0
LINE
  5
40F
330
40C
100
AcDbEntity
  8
AM_5
  6
ByBlock
100
AcDbLine
 10
290.3741567992256
 20
133.4622879517885
 30
0.0
 11
290.3741567992256
 21
204.4235521965402
 31
0.0
  0
LINE
  5
410
330
40C
100
AcDbEntity
  8
AM_5
  6
ByBlock
100
AcDbLine
 10
1083.374156799225
 20
203.4235521965402
 30
0.0
 11
297.3741567992256
 21
203.4235521965402
 31
0.0
  0
SOLID
  5
411
330
40C
100
AcDbEntity
  8
AM_5
100
AcDbTrace
 10
1083.374156799225
 20
204.5902188632068
 30
0.0
 11
1083.374156799225
 21
202.2568855298735
 31
0.0
 12
1090.374156799225
 22
203.4235521965402
 32
0.0
 13
1090.374156799225
 23
203.4235521965402
 33
0.0
  0
SOLID
  5
412
330
40C
100
AcDbEntity
  8
AM_5
100
AcDbTrace
 10
297.3741567992256
 20
204.5902188632068
 30
0.0
 11
297.3741567992256
 21
202.2568855298735
 31
0.0
 12
290.3741567992256
 22
203.4235521965402
 32
0.0
 13
290.3741567992256
 23
203.4235521965402
 33
0.0
  0
MTEXT
  5
413
330
40C
100
AcDbEntity
  8
AM_5
 62
     2
100
AcDbMText
 10
695.0981734795519
 20
209.9235521965402
 30
0.0
 40
10.0
 41
0.0
 71
     5
 72
     1
  1
800
 73
     1
 44
1.0
1001
ACAD
1000
MTEXTBEGIN
1070
    73
1070
     1
1070
    44
1040
1.0
1070
    74
1070
     0
1000
MTEXTEND
  0
POINT
  5
414
330
40C
100
AcDbEntity
  8
Defpoints
 62
     0
100
AcDbPoint
 10
1090.374156799225
 20
132.4622879517885
 30
0.0
  0
POINT
  5
415
330
40C
100
AcDbEntity
  8
Defpoints
 62
     0
100
AcDbPoint
 10
290.3741567992256
 20
132.4622879517885
 30
0.0
  0
POINT
  5
416
330
40C
100
AcDbEntity
  8
Defpoints
 62
     0
100
AcDbPoint
 10
290.3741567992256
 20
203.4235521965402
 30
0.0
  0
ENDBLK
  5
417
330
40C
100
AcDbEntity
  8
0
100
AcDbBlockEnd
  0
BLOCK
  5
419
330
418
100
AcDbEntity
  8
0
100
AcDbBlockBegin
  2
*D10
 70
     1
 10
0.0
 20
0.0
 30
0.0
  3
*D10
  1

  0
LINE
  5
41A
330
418
100
AcDbEntity
  8
AM_5
  6
ByBlock
100
AcDbLine
 10
1120.15701394234
 20
154.4505736661583
 30
0.0
 11
1120.15701394234
 21
238.1819668388323
 31
0.0
  0
LINE
  5
41B
330
418
100
AcDbEntity
  8
AM_5
  6
ByBlock
100
AcDbLine
 10
267.5867282279551
 20
153.4508593805262
 30
0.0
 11
267.5867282279551
 21
238.1819668388323
 31
0.0
  0
LINE
  5
41C
330
418
100
AcDbEntity
  8
AM_5
  6
ByBlock
100
AcDbLine
 10
1113.15701394234
 20
237.1819668388323
 30
0.0
 11
274.5867282279551
 21
237.1819668388323
 31
0.0
  0
SOLID
  5
41D
330
418
100
AcDbEntity
  8
AM_5
100
AcDbTrace
 10
1113.15701394234
 20
238.3486335054989
 30
0.0
 11
1113.15701394234
 21
236.0153001721656
 31
0.0
 12
1120.15701394234
 22
237.1819668388323
 32
0.0
 13
1120.15701394234
 23
237.1819668388323
 33
0.0
  0
SOLID
  5
41E
330
418
100
AcDbEntity
  8
AM_5
100
AcDbTrace
 10
274.5867282279551
 20
238.3486335054989
 30
0.0
 11
274.5867282279551
 21
236.0153001721656
 31
0.0
 12
267.5867282279551
 22
237.1819668388323
 32
0.0
 13
267.5867282279551
 23
237.1819668388323
 33
0.0
  0
MTEXT
  5
41F
330
418
100
AcDbEntity
  8
AM_5
 62
     2
100
AcDbMText
 10
693.8718710851476
 20
243.6819668388323
 30
0.0
 40
10.0
 41
0.0
 71
     5
 72
     1
  1
853
 73
     1
 44
1.0
1001
ACAD
1000
MTEXTBEGIN
1070
    73
1070
     1
1070
    44
1040
1.0
1070
    74
1070
     0
1000
MTEXTEND
  0
POINT
  5
420
330
418
100
AcDbEntity
  8
Defpoints
 62
     0
100
AcDbPoint
 10
1120.15701394234
 20
153.4505736661583
 30
0.0
  0
POINT
  5
421
330
418
100
AcDbEntity
  8
Defpoints
 62
     0
100
AcDbPoint
 10
267.5867282279551
 20
152.4508593805262
 30
0.0
  0
POINT
  5
422
330
418
100
AcDbEntity
  8
Defpoints
 62
     0
100
AcDbPoint
 10
267.5867282279551
 20
237.1819668388323
 30
0.0
  0
ENDBLK
  5
423
330
418
100
AcDbEntity
  8
0
100
AcDbBlockEnd
  0
BLOCK
  5
425
330
424
100
AcDbEntity
  8
0
100
AcDbBlockBegin
  2
*D11
 70
     1
 10
0.0
 20
0.0
 30
0.0
  3
*D11
  1

  0
LINE
  5
426
330
424
100
AcDbEntity
  8
AM_5
  6
ByBlock
100
AcDbLine
 10
13.37517512962381
 20
441.7226676067432
 30
0.0
 11
13.37517512962381
 21
505.8930969992273
 31
0.0
  0
LINE
  5
427
330
424
100
AcDbEntity
  8
AM_5
  6
ByBlock
100
AcDbLine
 10
93.37517512952491
 20
441.7226676066333
 30
0.0
 11
93.37517512952491
 21
505.8930969992273
 31
0.0
  0
LINE
  5
428
330
424
100
AcDbEntity
  8
AM_5
  6
ByBlock
100
AcDbLine
 10
20.37517512962382
 20
504.8930969992272
 30
0.0
 11
86.3751751295249
 21
504.8930969992272
 31
0.0
  0
SOLID
  5
429
330
424
100
AcDbEntity
  8
AM_5
100
AcDbTrace
 10
20.37517512962382
 20
506.0597636658939
 30
0.0
 11
20.37517512962382
 21
503.7264303325605
 31
0.0
 12
13.37517512962381
 22
504.8930969992272
 32
0.0
 13
13.37517512962381
 23
504.8930969992272
 33
0.0
  0
SOLID
  5
42A
330
424
100
AcDbEntity
  8
AM_5
100
AcDbTrace
 10
86.3751751295249
 20
506.0597636658939
 30
0.0
 11
86.3751751295249
 21
503.7264303325605
 31
0.0
 12
93.37517512952491
 22
504.8930969992272
 32
0.0
 13
93.37517512952491
 23
504.8930969992272
 33
0.0
  0
MTEXT
  5
42B
330
424
100
AcDbEntity
  8
AM_5
 62
     2
100
AcDbMText
 10
54.46524520663093
 20
511.3930969992273
 30
0.0
 40
10.0
 41
0.0
 71
     5
 72
     1
  1
80
 73
     1
 44
1.0
1001
ACAD
1000
MTEXTBEGIN
1070
    73
1070
     1
1070
    44
1040
1.0
1070
    74
1070
     0
1000
MTEXTEND
  0
POINT
  5
42C
330
424
100
AcDbEntity
  8
Defpoints
 62
     0
100
AcDbPoint
 10
13.37517512962381
 20
440.7226676067432
 30
0.0
  0
POINT
  5
42D
330
424
100
AcDbEntity
  8
Defpoints
 62
     0
100
AcDbPoint
 10
93.37517512952491
 20
440.7226676066334
 30
0.0
  0
POINT
  5
42E
330
424
100
AcDbEntity
  8
Defpoints
 62
     0
100
AcDbPoint
 10
93.37517512952491
 20
504.8930969992272
 30
0.0
  0
ENDBLK
  5
42F
330
424
100
AcDbEntity
  8
0
100
AcDbBlockEnd
  0
BLOCK
  5
431
330
430
100
AcDbEntity
  8
0
100
AcDbBlockBegin
  2
*D12
 70
     1
 10
0.0
 20
0.0
 30
0.0
  3
*D12
  1

  0
LINE
  5
432
330
430
100
AcDbEntity
  8
AM_5
  6
ByBlock
100
AcDbLine
 10
1475.031456906754
 20
442.7226676066825
 30
0.0
 11
1475.031456906754
 21
491.4532551055986
 31
0.0
  0
LINE
  5
433
330
430
100
AcDbEntity
  8
AM_5
  6
ByBlock
100
AcDbLine
 10
1395.031452760042
 20
441.722667606518
 30
0.0
 11
1395.031452760042
 21
491.4532551055986
 31
0.0
  0
LINE
  5
434
330
430
100
AcDbEntity
  8
AM_5
  6
ByBlock
100
AcDbLine
 10
1468.031456906754
 20
490.4532551055986
 30
0.0
 11
1402.031452760042
 21
490.4532551055986
 31
0.0
  0
SOLID
  5
435
330
430
100
AcDbEntity
  8
AM_5
100
AcDbTrace
 10
1468.031456906754
 20
491.6199217722653
 30
0.0
 11
1468.031456906754
 21
489.2865884389319
 31
0.0
 12
1475.031456906754
 22
490.4532551055986
 32
0.0
 13
1475.031456906754
 23
490.4532551055986
 33
0.0
  0
SOLID
  5
436
330
430
100
AcDbEntity
  8
AM_5
100
AcDbTrace
 10
1402.031452760042
 20
491.6199217722653
 30
0.0
 11
1402.031452760042
 21
489.2865884389319
 31
0.0
 12
1395.031452760042
 22
490.4532551055986
 32
0.0
 13
1395.031452760042
 23
490.4532551055986
 33
0.0
  0
MTEXT
  5
437
330
430
100
AcDbEntity
  8
AM_5
 62
     2
100
AcDbMText
 10
1435.031454833398
 20
496.9532551055986
 30
0.0
 40
10.0
 41
0.0
 71
     5
 72
     1
  1
80
 73
     1
 44
1.0
1001
ACAD
1000
MTEXTBEGIN
1070
    73
1070
     1
1070
    44
1040
1.0
1070
    74
1070
     0
1000
MTEXTEND
  0
POINT
  5
438
330
430
100
AcDbEntity
  8
Defpoints
 62
     0
100
AcDbPoint
 10
1475.031456906754
 20
441.7226676066825
 30
0.0
  0
POINT
  5
439
330
430
100
AcDbEntity
  8
Defpoints
 62
     0
100
AcDbPoint
 10
1395.031452760042
 20
440.722667606518
 30
0.0
  0
POINT
  5
43A
330
430
100
AcDbEntity
  8
Defpoints
 62
     0
100
AcDbPoint
 10
1395.031452760042
 20
490.4532551055986
 30
0.0
  0
ENDBLK
  5
43B
330
430
100
AcDbEntity
  8
0
100
AcDbBlockEnd
  0
BLOCK
  5
781
330
780
100
AcDbEntity
  8
0
100
AcDbBlockBegin
  2
*D14
 70
     1
 10
0.0
 20
0.0
 30
0.0
  3
*D14
  1

  0
LINE
  5
7EF
330
780
100
AcDbEntity
  8
AM_5
  6
ByBlock
100
AcDbLine
 10
1197.1707291629
 20
315.7952360685574
 30
0.0
 11
1319.454416812133
 21
315.7952360685574
 31
0.0
  0
LINE
  5
7F0
330
780
100
AcDbEntity
  8
AM_5
  6
ByBlock
100
AcDbLine
 10
1189.175300591635
 20
442.7226646398183
 30
0.0
 11
1319.454416812133
 21
442.7226646398183
 31
0.0
  0
LINE
  5
7F1
330
780
100
AcDbEntity
  8
AM_5
  6
ByBlock
100
AcDbLine
 10
1318.454416812133
 20
322.7952360685574
 30
0.0
 11
1318.454416812133
 21
435.7226646398182
 31
0.0
  0
SOLID
  5
7F2
330
780
100
AcDbEntity
  8
AM_5
100
AcDbTrace
 10
1317.287750145466
 20
322.7952360685574
 30
0.0
 11
1319.621083478799
 21
322.7952360685574
 31
0.0
 12
1318.454416812133
 22
315.7952360685574
 32
0.0
 13
1318.454416812133
 23
315.7952360685574
 33
0.0
  0
SOLID
  5
7F3
330
780
100
AcDbEntity
  8
AM_5
100
AcDbTrace
 10
1317.287750145466
 20
435.7226646398182
 30
0.0
 11
1319.621083478799
 21
435.7226646398182
 31
0.0
 12
1318.454416812133
 22
442.7226646398183
 32
0.0
 13
1318.454416812133
 23
442.7226646398183
 33
0.0
  0
MTEXT
  5
7F4
330
780
100
AcDbEntity
  8
AM_5
 62
     2
100
AcDbMText
 10
1311.954416812133
 20
379.2589503541881
 30
0.0
 40
10.0
 41
0.0
 71
     5
 72
     1
  1
105-160
 11
0.0000000000000001
 21
1.0
 31
0.0
 73
     1
 44
1.0
1001
ACAD
1000
MTEXTBEGIN
1070
    73
1070
     1
1070
    44
1040
1.0
1070
    74
1070
     0
1000
MTEXTEND
  0
POINT
  5
7F5
330
780
100
AcDbEntity
  8
Defpoints
 62
     0
100
AcDbPoint
 10
1196.1707291629
 20
315.7952360685574
 30
0.0
  0
POINT
  5
7F6
330
780
100
AcDbEntity
  8
Defpoints
 62
     0
100
AcDbPoint
 10
1188.175300591635
 20
442.7226646398183
 30
0.0
  0
POINT
  5
7F7
330
780
100
AcDbEntity
  8
Defpoints
 62
     0
100
AcDbPoint
 10
1318.454416812133
 20
442.7226646398183
 30
0.0
  0
ENDBLK
  5
782
330
780
100
AcDbEntity
  8
0
100
AcDbBlockEnd
  0
BLOCK
  5
78D
330
78C
100
AcDbEntity
  8
0
100
AcDbBlockBegin
  2
*D15
 70
     1
 10
0.0
 20
0.0
 30
0.0
  3
*D15
  1

  0
LINE
  5
7F8
330
78C
100
AcDbEntity
  8
AM_5
  6
ByBlock
100
AcDbLine
 10
1189.175300591049
 20
51.08479927089729
 30
0.0
 11
1260.444548590137
 21
51.08479927089727
 31
0.0
  0
LINE
  5
7F9
330
78C
100
AcDbEntity
  8
AM_5
  6
ByBlock
100
AcDbLine
 10
1191.374157734154
 20
135.0847992708964
 30
0.0
 11
1260.444548590137
 21
135.0847992708963
 31
0.0
  0
LINE
  5
7FA
330
78C
100
AcDbEntity
  8
AM_5
  6
ByBlock
100
AcDbLine
 10
1259.444548590137
 20
58.08479927089727
 30
0.0
 11
1259.444548590137
 21
128.0847992708963
 31
0.0
  0
SOLID
  5
7FB
330
78C
100
AcDbEntity
  8
AM_5
100
AcDbTrace
 10
1258.27788192347
 20
58.08479927089727
 30
0.0
 11
1260.611215256804
 21
58.08479927089727
 31
0.0
 12
1259.444548590137
 22
51.08479927089727
 32
0.0
 13
1259.444548590137
 23
51.08479927089727
 33
0.0
  0
SOLID
  5
7FC
330
78C
100
AcDbEntity
  8
AM_5
100
AcDbTrace
 10
1258.27788192347
 20
128.0847992708963
 30
0.0
 11
1260.611215256804
 21
128.0847992708963
 31
0.0
 12
1259.444548590137
 22
135.0847992708963
 32
0.0
 13
1259.444548590137
 23
135.0847992708963
 33
0.0
  0
MTEXT
  5
7FD
330
78C
100
AcDbEntity
  8
AM_5
 62
     2
100
AcDbMText
 10
1252.944548590137
 20
93.08479927089702
 30
0.0
 40
10.0
 41
0.0
 71
     5
 72
     1
  1
84
 11
0.0000000000000001
 21
1.0
 31
0.0
 73
     1
 44
1.0
1001
ACAD
1000
MTEXTBEGIN
1070
    73
1070
     1
1070
    44
1040
1.0
1070
    74
1070
     0
1000
MTEXTEND
  0
POINT
  5
7FE
330
78C
100
AcDbEntity
  8
Defpoints
 62
     0
100
AcDbPoint
 10
1188.175300591049
 20
51.08479927089729
 30
0.0
  0
POINT
  5
7FF
330
78C
100
AcDbEntity
  8
Defpoints
 62
     0
100
AcDbPoint
 10
1190.374157734154
 20
135.0847992708964
 30
0.0
  0
POINT
  5
800
330
78C
100
AcDbEntity
  8
Defpoints
 62
     0
100
AcDbPoint
 10
1259.444548590137
 20
135.0847992708963
 30
0.0
  0
ENDBLK
  5
78E
330
78C
100
AcDbEntity
  8
0
100
AcDbBlockEnd
  0
BLOCK
  5
799
330
798
100
AcDbEntity
  8
0
100
AcDbBlockBegin
  2
*D16
 70
     1
 10
0.0
 20
0.0
 30
0.0
  3
*D16
  1

  0
LINE
  5
801
330
798
100
AcDbEntity
  8
AM_5
  6
ByBlock
100
AcDbLine
 10
1221.157014877269
 20
26.58479927089639
 30
0.0
 11
1296.341298530397
 21
26.58479927089636
 31
0.0
  0
LINE
  5
802
330
798
100
AcDbEntity
  8
AM_5
  6
ByBlock
100
AcDbLine
 10
1221.157014877269
 20
159.5847992708964
 30
0.0
 11
1296.341298530397
 21
159.5847992708964
 31
0.0
  0
LINE
  5
803
330
798
100
AcDbEntity
  8
AM_5
  6
ByBlock
100
AcDbLine
 10
1295.341298530397
 20
33.58479927089637
 30
0.0
 11
1295.341298530397
 21
152.5847992708964
 31
0.0
  0
SOLID
  5
804
330
798
100
AcDbEntity
  8
AM_5
100
AcDbTrace
 10
1294.174631863731
 20
33.58479927089637
 30
0.0
 11
1296.507965197064
 21
33.58479927089636
 31
0.0
 12
1295.341298530397
 22
26.58479927089636
 32
0.0
 13
1295.341298530397
 23
26.58479927089636
 33
0.0
  0
SOLID
  5
805
330
798
100
AcDbEntity
  8
AM_5
100
AcDbTrace
 10
1294.174631863731
 20
152.5847992708964
 30
0.0
 11
1296.507965197064
 21
152.5847992708964
 31
0.0
 12
1295.341298530397
 22
159.5847992708964
 32
0.0
 13
1295.341298530397
 23
159.5847992708964
 33
0.0
  0
MTEXT
  5
806
330
798
100
AcDbEntity
  8
AM_5
 62
     2
100
AcDbMText
 10
1288.841298530397
 20
93.08479927089658
 30
0.0
 40
10.0
 41
0.0
 71
     5
 72
     1
  1
133
 11
0.0000000000000001
 21
1.0
 31
0.0
 73
     1
 44
1.0
1001
ACAD
1000
MTEXTBEGIN
1070
    73
1070
     1
1070
    44
1040
1.0
1070
    74
1070
     0
1000
MTEXTEND
  0
POINT
  5
807
330
798
100
AcDbEntity
  8
Defpoints
 62
     0
100
AcDbPoint
 10
1220.157014877269
 20
26.58479927089639
 30
0.0
  0
POINT
  5
808
330
798
100
AcDbEntity
  8
Defpoints
 62
     0
100
AcDbPoint
 10
1220.157014877269
 20
159.5847992708964
 30
0.0
  0
POINT
  5
809
330
798
100
AcDbEntity
  8
Defpoints
 62
     0
100
AcDbPoint
 10
1295.341298530397
 20
159.5847992708964
 30
0.0
  0
ENDBLK
  5
79A
330
798
100
AcDbEntity
  8
0
100
AcDbBlockEnd
  0
BLOCK
  5
7A5
330
7A4
100
AcDbEntity
  8
0
100
AcDbBlockBegin
  2
*D17
 70
     1
 10
0.0
 20
0.0
 30
0.0
  3
*D17
  1

  0
LINE
  5
82B
330
7A4
100
AcDbEntity
  8
AM_5
  6
ByBlock
100
AcDbLine
 10
1190.374157734154
 20
133.4622849849736
 30
0.0
 11
1190.374157734154
 21
204.4235492297253
 31
0.0
  0
LINE
  5
82C
330
7A4
100
AcDbEntity
  8
AM_5
  6
ByBlock
100
AcDbLine
 10
290.3741577341543
 20
133.4622849849736
 30
0.0
 11
290.3741577341543
 21
204.4235492297253
 31
0.0
  0
LINE
  5
82D
330
7A4
100
AcDbEntity
  8
AM_5
  6
ByBlock
100
AcDbLine
 10
1183.374157734154
 20
203.4235492297252
 30
0.0
 11
297.3741577341543
 21
203.4235492297252
 31
0.0
  0
SOLID
  5
82E
330
7A4
100
AcDbEntity
  8
AM_5
100
AcDbTrace
 10
1183.374157734154
 20
204.5902158963919
 30
0.0
 11
1183.374157734154
 21
202.2568825630586
 31
0.0
 12
1190.374157734154
 22
203.4235492297252
 32
0.0
 13
1190.374157734154
 23
203.4235492297252
 33
0.0
  0
SOLID
  5
82F
330
7A4
100
AcDbEntity
  8
AM_5
100
AcDbTrace
 10
297.3741577341543
 20
204.5902158963919
 30
0.0
 11
297.3741577341543
 21
202.2568825630586
 31
0.0
 12
290.3741577341543
 22
203.4235492297252
 32
0.0
 13
290.3741577341543
 23
203.4235492297252
 33
0.0
  0
MTEXT
  5
830
330
7A4
100
AcDbEntity
  8
AM_5
 62
     2
100
AcDbMText
 10
745.1973439854332
 20
209.9235492297253
 30
0.0
 40
10.0
 41
0.0
 71
     5
 72
     1
  1
900
 73
     1
 44
1.0
1001
ACAD
1000
MTEXTBEGIN
1070
    73
1070
     1
1070
    44
1040
1.0
1070
    74
1070
     0
1000
MTEXTEND
  0
POINT
  5
831
330
7A4
100
AcDbEntity
  8
Defpoints
 62
     0
100
AcDbPoint
 10
1190.374157734154
 20
132.4622849849736
 30
0.0
  0
POINT
  5
832
330
7A4
100
AcDbEntity
  8
Defpoints
 62
     0
100
AcDbPoint
 10
290.3741577341543
 20
132.4622849849736
 30
0.0
  0
POINT
  5
833
330
7A4
100
AcDbEntity
  8
Defpoints
 62
     0
100
AcDbPoint
 10
290.3741577341543
 20
203.4235492297252
 30
0.0
  0
ENDBLK
  5
7A6
330
7A4
100
AcDbEntity
  8
0
100
AcDbBlockEnd
  0
BLOCK
  5
7B1
330
7B0
100
AcDbEntity
  8
0
100
AcDbBlockBegin
  2
*D18
 70
     1
 10
0.0
 20
0.0
 30
0.0
  3
*D18
  1

  0
LINE
  5
822
330
7B0
100
AcDbEntity
  8
AM_5
  6
ByBlock
100
AcDbLine
 10
1220.157014877269
 20
154.4505706993434
 30
0.0
 11
1220.157014877269
 21
238.1819638720174
 31
0.0
  0
LINE
  5
823
330
7B0
100
AcDbEntity
  8
AM_5
  6
ByBlock
100
AcDbLine
 10
267.5867291628838
 20
153.4508564137113
 30
0.0
 11
267.5867291628838
 21
238.1819638720174
 31
0.0
  0
LINE
  5
824
330
7B0
100
AcDbEntity
  8
AM_5
  6
ByBlock
100
AcDbLine
 10
1213.157014877269
 20
237.1819638720174
 30
0.0
 11
274.5867291628838
 21
237.1819638720174
 31
0.0
  0
SOLID
  5
825
330
7B0
100
AcDbEntity
  8
AM_5
100
AcDbTrace
 10
1213.157014877269
 20
238.348630538684
 30
0.0
 11
1213.157014877269
 21
236.0152972053507
 31
0.0
 12
1220.157014877269
 22
237.1819638720174
 32
0.0
 13
1220.157014877269
 23
237.1819638720174
 33
0.0
  0
SOLID
  5
826
330
7B0
100
AcDbEntity
  8
AM_5
100
AcDbTrace
 10
274.5867291628838
 20
238.348630538684
 30
0.0
 11
274.5867291628838
 21
236.0152972053507
 31
0.0
 12
267.5867291628838
 22
237.1819638720174
 32
0.0
 13
267.5867291628838
 23
237.1819638720174
 33
0.0
  0
MTEXT
  5
827
330
7B0
100
AcDbEntity
  8
AM_5
 62
     2
100
AcDbMText
 10
743.8718720200763
 20
243.6819638720174
 30
0.0
 40
10.0
 41
0.0
 71
     5
 72
     1
  1
953
 73
     1
 44
1.0
1001
ACAD
1000
MTEXTBEGIN
1070
    73
1070
     1
1070
    44
1040
1.0
1070
    74
1070
     0
1000
MTEXTEND
  0
POINT
  5
828
330
7B0
100
AcDbEntity
  8
Defpoints
 62
     0
100
AcDbPoint
 10
1220.157014877269
 20
153.4505706993434
 30
0.0
  0
POINT
  5
829
330
7B0
100
AcDbEntity
  8
Defpoints
 62
     0
100
AcDbPoint
 10
267.5867291628838
 20
152.4508564137113
 30
0.0
  0
POINT
  5
82A
330
7B0
100
AcDbEntity
  8
Defpoints
 62
     0
100
AcDbPoint
 10
267.5867291628838
 20
237.1819638720174
 30
0.0
  0
ENDBLK
  5
7B2
330
7B0
100
AcDbEntity
  8
0
100
AcDbBlockEnd
  0
BLOCK
  5
7BD
330
7BC
100
AcDbEntity
  8
0
100
AcDbBlockBegin
  2
*D19
 70
     1
 10
0.0
 20
0.0
 30
0.0
  3
*D19
  1

  0
LINE
  5
7E6
330
7BC
100
AcDbEntity
  8
AM_5
  6
ByBlock
100
AcDbLine
 10
13.37517606455253
 20
441.7226646399283
 30
0.0
 11
13.37517606455254
 21
505.8930940324123
 31
0.0
  0
LINE
  5
7E7
330
7BC
100
AcDbEntity
  8
AM_5
  6
ByBlock
100
AcDbLine
 10
93.37517606445363
 20
441.7226646398185
 30
0.0
 11
93.37517606445363
 21
505.8930940324123
 31
0.0
  0
LINE
  5
7E8
330
7BC
100
AcDbEntity
  8
AM_5
  6
ByBlock
100
AcDbLine
 10
20.37517606455254
 20
504.8930940324123
 30
0.0
 11
86.37517606445362
 21
504.8930940324123
 31
0.0
  0
SOLID
  5
7E9
330
7BC
100
AcDbEntity
  8
AM_5
100
AcDbTrace
 10
20.37517606455254
 20
506.059760699079
 30
0.0
 11
20.37517606455254
 21
503.7264273657457
 31
0.0
 12
13.37517606455254
 22
504.8930940324123
 32
0.0
 13
13.37517606455254
 23
504.8930940324123
 33
0.0
  0
SOLID
  5
7EA
330
7BC
100
AcDbEntity
  8
AM_5
100
AcDbTrace
 10
86.37517606445362
 20
506.059760699079
 30
0.0
 11
86.37517606445362
 21
503.7264273657457
 31
0.0
 12
93.37517606445363
 22
504.8930940324123
 32
0.0
 13
93.37517606445363
 23
504.8930940324123
 33
0.0
  0
MTEXT
  5
7EB
330
7BC
100
AcDbEntity
  8
AM_5
 62
     2
100
AcDbMText
 10
54.46524614155965
 20
511.3930940324123
 30
0.0
 40
10.0
 41
0.0
 71
     5
 72
     1
  1
80
 73
     1
 44
1.0
1001
ACAD
1000
MTEXTBEGIN
1070
    73
1070
     1
1070
    44
1040
1.0
1070
    74
1070
     0
1000
MTEXTEND
  0
POINT
  5
7EC
330
7BC
100
AcDbEntity
  8
Defpoints
 62
     0
100
AcDbPoint
 10
13.37517606455253
 20
440.7226646399283
 30
0.0
  0
POINT
  5
7ED
330
7BC
100
AcDbEntity
  8
Defpoints
 62
     0
100
AcDbPoint
 10
93.37517606445363
 20
440.7226646398185
 30
0.0
  0
POINT
  5
7EE
330
7BC
100
AcDbEntity
  8
Defpoints
 62
     0
100
AcDbPoint
 10
93.37517606445363
 20
504.8930940324123
 30
0.0
  0
ENDBLK
  5
7BE
330
7BC
100
AcDbEntity
  8
0
100
AcDbBlockEnd
  0
BLOCK
  5
7C9
330
7C8
100
AcDbEntity
  8
0
100
AcDbBlockBegin
  2
*D20
 70
     1
 10
0.0
 20
0.0
 30
0.0
  3
*D20
  1

  0
LINE
  5
80A
330
7C8
100
AcDbEntity
  8
AM_5
  6
ByBlock
100
AcDbLine
 10
1575.031457841683
 20
442.7226646398676
 30
0.0
 11
1575.031457841683
 21
491.4532521387837
 31
0.0
  0
LINE
  5
80B
330
7C8
100
AcDbEntity
  8
AM_5
  6
ByBlock
100
AcDbLine
 10
1495.031453694971
 20
441.7226646397031
 30
0.0
 11
1495.031453694971
 21
491.4532521387837
 31
0.0
  0
LINE
  5
80C
330
7C8
100
AcDbEntity
  8
AM_5
  6
ByBlock
100
AcDbLine
 10
1568.031457841683
 20
490.4532521387837
 30
0.0
 11
1502.031453694971
 21
490.4532521387837
 31
0.0
  0
SOLID
  5
80D
330
7C8
100
AcDbEntity
  8
AM_5
100
AcDbTrace
 10
1568.031457841683
 20
491.6199188054504
 30
0.0
 11
1568.031457841683
 21
489.286585472117
 31
0.0
 12
1575.031457841683
 22
490.4532521387837
 32
0.0
 13
1575.031457841683
 23
490.4532521387837
 33
0.0
  0
SOLID
  5
80E
330
7C8
100
AcDbEntity
  8
AM_5
100
AcDbTrace
 10
1502.031453694971
 20
491.6199188054504
 30
0.0
 11
1502.031453694971
 21
489.286585472117
 31
0.0
 12
1495.031453694971
 22
490.4532521387837
 32
0.0
 13
1495.031453694971
 23
490.4532521387837
 33
0.0
  0
MTEXT
  5
80F
330
7C8
100
AcDbEntity
  8
AM_5
 62
     2
100
AcDbMText
 10
1535.031455768327
 20
496.9532521387837
 30
0.0
 40
10.0
 41
0.0
 71
     5
 72
     1
  1
80
 73
     1
 44
1.0
1001
ACAD
1000
MTEXTBEGIN
1070
    73
1070
     1
1070
    44
1040
1.0
1070
    74
1070
     0
1000
MTEXTEND
  0
POINT
  5
810
330
7C8
100
AcDbEntity
  8
Defpoints
 62
     0
100
AcDbPoint
 10
1575.031457841683
 20
441.7226646398677
 30
0.0
  0
POINT
  5
811
330
7C8
100
AcDbEntity
  8
Defpoints
 62
     0
100
AcDbPoint
 10
1495.031453694971
 20
440.7226646397031
 30
0.0
  0
POINT
  5
812
330
7C8
100
AcDbEntity
  8
Defpoints
 62
     0
100
AcDbPoint
 10
1495.031453694971
 20
490.4532521387837
 30
0.0
  0
ENDBLK
  5
7CA
330
7C8
100
AcDbEntity
  8
0
100
AcDbBlockEnd
  0
ENDSEC
  0
SECTION
  2
ENTITIES
  0
LINE
  5
5F6
330
1F
100
AcDbEntity
  8
0
  6
Continuous
 62
     7
100
AcDbLine
 10
267.657702557226
 20
426.7318074967122
 30
0.0
 11
267.657702557226
 21
482.6998074967116
 31
0.0
  0
LINE
  5
5F7
330
1F
100
AcDbEntity
  8
0
  6
Continuous
 62
     7
100
AcDbLine
 10
268.6571311284906
 20
423.6499007671852
 30
0.0
 11
268.6571311284906
 21
426.7318074967122
 31
0.0
  0
LINE
  5
5F8
330
1F
100
AcDbEntity
  8
0
  6
Continuous
 62
     7
100
AcDbLine
 10
268.6571311284906
 20
426.7318074967122
 30
0.0
 11
268.6571311284906
 21
482.6998074967116
 31
0.0
  0
LINE
  5
5F9
330
1F
100
AcDbEntity
  8
0
  6
Continuous
 62
     7
100
AcDbLine
 10
287.6462739853787
 20
423.6499007671852
 30
0.0
 11
287.6462739853787
 21
357.7712360685562
 31
0.0
  0
LINE
  5
5FA
330
1F
100
AcDbEntity
  8
0
  6
Continuous
 62
     7
100
AcDbLine
 10
288.6457025572299
 20
423.6499007671852
 30
0.0
 11
288.6457025572299
 21
421.9205114530033
 31
0.0
  0
LINE
  5
5FB
330
1F
100
AcDbEntity
  8
0
  6
Continuous
 62
     7
100
AcDbLine
 10
288.6457025572299
 20
421.9205114530033
 30
0.0
 11
288.6457025572299
 21
357.7712360685562
 31
0.0
  0
LINE
  5
5FC
330
1F
100
AcDbEntity
  8
0
  6
Continuous
 62
     7
100
AcDbLine
 10
288.6457025572299
 20
357.7712360685562
 30
0.0
 11
288.6457025572299
 21
319.7929503541873
 31
0.0
  0
LINE
  5
5FD
330
1F
100
AcDbEntity
  8
0
  6
Continuous
 62
     7
100
AcDbLine
 10
288.6457025572299
 20
442.7226646398183
 30
0.0
 11
288.6457025572299
 21
443.0128291296535
 31
0.0
  0
LINE
  5
5FE
330
1F
100
AcDbEntity
  8
0
  6
Continuous
 62
     7
100
AcDbLine
 10
290.6445596997464
 20
397.7483789254493
 30
0.0
 11
290.6445596997464
 21
319.7929503541873
 31
0.0
  0
LINE
  5
5FF
330
1F
100
AcDbEntity
  8
0
  6
Continuous
 62
     7
100
AcDbLine
 10
350.6102739853877
 20
317.7940932110794
 30
0.0
 11
350.6102739853877
 21
315.7952360685563
 31
0.0
  0
LINE
  5
600
330
1F
100
AcDbEntity
  8
0
  6
Continuous
 62
     7
100
AcDbLine
 10
292.6434168428595
 20
315.7952360685563
 30
0.0
 11
350.6102739853877
 21
315.7952360685563
 31
0.0
  0
LINE
  5
601
330
1F
100
AcDbEntity
  8
0
  6
Continuous
 62
     7
100
AcDbLine
 10
1126.210729162895
 20
315.7952360685563
 30
0.0
 11
1184.177586305998
 21
315.7952360685563
 31
0.0
  0
LINE
  5
602
330
1F
100
AcDbEntity
  8
0
  6
Continuous
 62
     7
100
AcDbLine
 10
292.6434168428595
 20
317.7940932110794
 30
0.0
 11
350.6102739853877
 21
317.7940932110794
 31
0.0
  0
LINE
  5
603
330
1F
100
AcDbEntity
  8
0
  6
Continuous
 62
     7
100
AcDbLine
 10
1126.210729162895
 20
317.7940932110794
 30
0.0
 11
1184.177586305998
 21
317.7940932110794
 31
0.0
  0
LINE
  5
604
330
1F
100
AcDbEntity
  8
0
  6
Continuous
 62
     7
100
AcDbLine
 10
703.3934260489941
 20
417.3551511754704
 30
0.0
 11
703.3953004149853
 21
417.2939703182835
 31
0.0
  0
LINE
  5
605
330
1F
100
AcDbEntity
  8
0
  6
Continuous
 62
     7
100
AcDbLine
 10
702.8955863060064
 20
411.7403789254492
 30
0.0
 11
702.8955863060064
 21
342.2800932110804
 31
0.0
  0
LINE
  5
606
330
1F
100
AcDbEntity
  8
0
  6
Continuous
 62
     7
100
AcDbLine
 10
703.3953005916345
 20
417.2939701253094
 30
0.0
 11
703.3953005916345
 21
411.7403789254492
 31
0.0
  0
LINE
  5
607
330
1F
100
AcDbEntity
  8
0
  6
Continuous
 62
     7
100
AcDbLine
 10
771.2953069850364
 20
335.7838074967115
 30
0.0
 11
709.3918720203755
 21
335.7838074967115
 31
0.0
  0
LINE
  5
608
330
1F
100
AcDbEntity
  8
0
  6
Continuous
 62
     7
100
AcDbLine
 10
1188.175300591635
 20
342.7798074967106
 30
0.0
 11
1189.174729162901
 21
342.7798074967106
 31
0.0
  0
LINE
  5
609
330
1F
100
AcDbEntity
  8
0
  6
Continuous
 62
     7
100
AcDbLine
 10
703.3826165614619
 20
417.4526914059954
 30
0.0
 11
703.3934260489941
 21
417.3551511754704
 31
0.0
  0
LINE
  5
60A
330
1F
100
AcDbEntity
  8
0
  6
Continuous
 62
     7
100
AcDbLine
 10
288.6457025572299
 20
357.7712360685562
 30
0.0
 11
287.6462739853787
 21
357.7712360685562
 31
0.0
  0
LINE
  5
60B
330
1F
100
AcDbEntity
  8
0
  6
Continuous
 62
     7
100
AcDbLine
 10
1188.175300591635
 20
397.7483789254493
 30
0.0
 11
1186.176443448533
 21
397.7483789254493
 31
0.0
  0
LINE
  5
60C
330
1F
100
AcDbEntity
  8
0
  6
Continuous
 62
     7
100
AcDbLine
 10
288.6457025572299
 20
397.7483789254493
 30
0.0
 11
290.6445596997464
 21
397.7483789254493
 31
0.0
  0
LINE
  5
60D
330
1F
100
AcDbEntity
  8
0
  6
Continuous
 62
     7
100
AcDbLine
 10
777.3530148772743
 20
417.2939701253094
 30
0.0
 11
777.3530148772743
 21
411.7403789254492
 31
0.0
  0
LINE
  5
60E
330
1F
100
AcDbEntity
  8
0
  6
Continuous
 62
     7
100
AcDbLine
 10
777.8527291628952
 20
411.7403789254492
 30
0.0
 11
777.8527291628952
 21
342.2800932110804
 31
0.0
  0
LINE
  5
60F
330
1F
100
AcDbEntity
  8
0
  6
Continuous
 62
     7
100
AcDbLine
 10
777.3530149501485
 20
417.2939707631103
 30
0.0
 11
777.354881222921
 21
417.3550188472965
 31
0.0
  0
LINE
  5
610
330
1F
100
AcDbEntity
  8
0
  6
Continuous
 62
     7
100
AcDbLine
 10
777.354881222921
 20
417.3550188472965
 30
0.0
 11
777.3656624979148
 21
417.4524653150974
 31
0.0
  0
LWPOLYLINE
  5
611
330
1F
100
AcDbEntity
  8
0
  6
Continuous
 62
     7
100
AcDbPolyline
 90
       16
 70
     0
 43
0.0
 10
777.3656624979148
 20
417.4524653150974
 10
777.3859539522627
 20
417.5484410534613
 10
777.4155715462357
 20
417.6420052787855
 10
777.4542375037008
 20
417.7322434873643
 10
777.5015836636094
 20
417.8182745370724
 10
777.5571545374159
 20
417.8992577145124
 10
777.6204122032604
 20
417.9744021953415
 10
777.6907399264337
 20
418.0429734759331
 10
777.767457406565
 20
418.1043088963324
 10
777.8498183505826
 20
418.1578136437933
 10
777.9370296284078
 20
418.2029745191575
 10
778.028249836937
 20
418.2393568953416
 10
778.122599597632
 20
418.2666105811515
 10
778.2191694736275
 20
418.2844728785394
 10
778.3170286984268
 20
418.2927711326342
 10
778.3524434485252
 20
418.2933987904343
  0
LINE
  5
612
330
1F
100
AcDbEntity
  8
0
  6
Continuous
 62
     7
100
AcDbLine
 10
288.6457025572299
 20
407.7426646398184
 30
0.0
 11
287.6462739853787
 21
407.7426646398184
 31
0.0
  0
LINE
  5
613
330
1F
100
AcDbEntity
  8
0
  6
Continuous
 62
     7
100
AcDbLine
 10
702.895557951223
 20
411.7403789254492
 30
0.0
 11
777.8527575176894
 21
411.7403789254492
 31
0.0
  0
LINE
  5
614
330
1F
100
AcDbEntity
  8
0
  6
Continuous
 62
     7
100
AcDbLine
 10
1188.175300591635
 20
412.7398074967116
 30
0.0
 11
1189.174729162901
 21
412.7398074967116
 31
0.0
  0
LINE
  5
615
330
1F
100
AcDbEntity
  8
0
  6
Continuous
 62
     7
100
AcDbLine
 10
288.6457025572299
 20
418.2933986965712
 30
0.0
 11
740.3741577341543
 21
418.2933986965712
 31
0.0
  0
LINE
  5
616
330
1F
100
AcDbEntity
  8
0
  6
Continuous
 62
     7
100
AcDbLine
 10
740.3741577341543
 20
418.2933986965712
 30
0.0
 11
1188.175300591635
 21
418.2933986965712
 31
0.0
  0
LINE
  5
617
330
1F
100
AcDbEntity
  8
0
  6
Continuous
 62
     7
100
AcDbLine
 10
268.6571311284906
 20
423.6499007671852
 30
0.0
 11
288.6457025572299
 21
423.6499007671852
 31
0.0
  0
LINE
  5
618
330
1F
100
AcDbEntity
  8
0
  6
Continuous
 62
     7
100
AcDbLine
 10
267.6690212907624
 20
426.7318074967122
 30
0.0
 11
1188.175300591635
 21
426.7318074967122
 31
0.0
  0
LINE
  5
619
330
1F
100
AcDbEntity
  8
0
  6
Continuous
 62
     7
100
AcDbLine
 10
1189.174729162901
 20
426.7318074967122
 30
0.0
 11
1220.157014877269
 21
426.7318074967122
 31
0.0
  0
LWPOLYLINE
  5
61A
330
1F
100
AcDbEntity
  8
0
  6
Continuous
 62
     7
100
AcDbPolyline
 90
       16
 70
     0
 43
0.0
 10
702.395872020369
 20
418.2933989379335
 10
702.4312329811391
 20
418.2927731877116
 10
702.5290708337498
 20
418.2844831399225
 10
702.6256223225036
 20
418.2666328336783
 10
702.7199560594408
 20
418.2393946119434
 10
702.8111620287773
 20
418.2030312357294
 10
702.8983603552669
 20
418.1578933428084
 10
702.9807096229587
 20
418.1044161642494
 10
703.0574156535467
 20
418.0431148155373
 10
703.1277364267761
 20
417.9745817424334
 10
703.1909928467457
 20
417.8994785770664
 10
703.2465725780812
 20
417.8185328970194
 10
703.2939387669566
 20
417.7325286542352
 10
703.3326347454176
 20
417.6422989714501
 10
703.362288589752
 20
417.5487176974542
 10
703.3826165614619
 20
417.4526914059954
  0
LINE
  5
61B
330
1F
100
AcDbEntity
  8
0
  6
Continuous
 62
     7
100
AcDbLine
 10
268.6571311284906
 20
427.7312360685562
 30
0.0
 11
1188.175300591635
 21
427.7312360685562
 31
0.0
  0
LINE
  5
61C
330
1F
100
AcDbEntity
  8
0
  6
Continuous
 62
     7
100
AcDbLine
 10
1189.174729162901
 20
427.7312360685562
 30
0.0
 11
1220.157014877269
 21
427.7312360685562
 31
0.0
  0
LINE
  5
61D
330
1F
100
AcDbEntity
  8
0
  6
Continuous
 62
     7
100
AcDbLine
 10
1190.174157734155
 20
429.7400874967122
 30
0.0
 11
1189.174729162901
 21
429.7400874967122
 31
0.0
  0
LINE
  5
61E
330
1F
100
AcDbEntity
  8
0
  6
Continuous
 62
     7
100
AcDbLine
 10
1190.174157734155
 20
430.7395160685575
 30
0.0
 11
1189.174729162901
 21
430.7395160685575
 31
0.0
  0
LINE
  5
61F
330
1F
100
AcDbEntity
  8
0
  6
Continuous
 62
     7
100
AcDbLine
 10
1188.175300591635
 20
442.7226646398183
 30
0.0
 11
268.6571311284906
 21
442.7226646398183
 31
0.0
  0
LINE
  5
620
330
1F
100
AcDbEntity
  8
0
  6
Continuous
 62
     7
100
AcDbLine
 10
268.9528086797054
 20
443.0128291296535
 30
0.0
 11
288.6457025572299
 21
443.0128291296535
 31
0.0
  0
LINE
  5
621
330
1F
100
AcDbEntity
  8
0
  6
Continuous
 62
     7
100
AcDbLine
 10
1189.174729162901
 20
443.2223789254492
 30
0.0
 11
1188.175300591635
 21
443.2223789254492
 31
0.0
  0
LINE
  5
622
330
1F
100
AcDbEntity
  8
0
  6
Continuous
 62
     7
100
AcDbLine
 10
1220.157014877269
 20
482.6998074967116
 30
0.0
 11
268.6571311284906
 21
482.6998074967116
 31
0.0
  0
LINE
  5
623
330
1F
100
AcDbEntity
  8
0
  6
Continuous
 62
     7
100
AcDbLine
 10
267.657702557226
 20
482.6998074967116
 30
0.0
 11
268.6571311284906
 21
482.6998074967116
 31
0.0
  0
LINE
  5
624
330
1F
100
AcDbEntity
  8
0
  6
Continuous
 62
     7
100
AcDbLine
 10
1126.210729162895
 20
317.7940932110794
 30
0.0
 11
1126.210729162895
 21
315.7952360685563
 31
0.0
  0
LINE
  5
625
330
1F
100
AcDbEntity
  8
0
  6
Continuous
 62
     7
100
AcDbLine
 10
1186.176443448533
 20
319.7929503541873
 30
0.0
 11
1186.176443448533
 21
397.7483789254493
 31
0.0
  0
LINE
  5
626
330
1F
100
AcDbEntity
  8
0
  6
Continuous
 62
     7
100
AcDbLine
 10
1188.175300591635
 20
427.7312360685562
 30
0.0
 11
1188.175300591635
 21
426.7318074967122
 31
0.0
  0
LINE
  5
627
330
1F
100
AcDbEntity
  8
0
  6
Continuous
 62
     7
100
AcDbLine
 10
1188.175300591635
 20
319.7929503541873
 30
0.0
 11
1188.175300591635
 21
342.7798074967106
 31
0.0
  0
LINE
  5
628
330
1F
100
AcDbEntity
  8
0
  6
Continuous
 62
     7
100
AcDbLine
 10
1188.175300591635
 20
342.7798074967106
 30
0.0
 11
1188.175300591635
 21
426.7318074967122
 31
0.0
  0
LINE
  5
629
330
1F
100
AcDbEntity
  8
0
  6
Continuous
 62
     7
100
AcDbLine
 10
1188.175300591635
 20
427.7312360685562
 30
0.0
 11
1188.175300591635
 21
443.722093211081
 31
0.0
  0
LINE
  5
62A
330
1F
100
AcDbEntity
  8
0
  6
Continuous
 62
     7
100
AcDbLine
 10
1189.174729162901
 20
342.7798074967106
 30
0.0
 11
1189.174729162901
 21
430.7395160685575
 31
0.0
  0
LINE
  5
62B
330
1F
100
AcDbEntity
  8
0
  6
Continuous
 62
     7
100
AcDbLine
 10
1190.174157734155
 20
428.7306646398171
 30
0.0
 11
1190.174157734155
 21
441.7232360685573
 31
0.0
  0
LINE
  5
62C
330
1F
100
AcDbEntity
  8
0
  6
Continuous
 62
     7
100
AcDbLine
 10
1190.673872020376
 20
427.8651341076445
 30
0.0
 11
1190.673872020376
 21
441.7232360685573
 31
0.0
  0
LINE
  5
62D
330
1F
100
AcDbEntity
  8
0
  6
Continuous
 62
     7
100
AcDbLine
 10
1220.157014877269
 20
482.6998074967116
 30
0.0
 11
1220.157014877269
 21
427.7312360685562
 31
0.0
  0
LINE
  5
62E
330
1F
100
AcDbEntity
  8
0
  6
Continuous
 62
     7
100
AcDbLine
 10
1220.157014877269
 20
426.7318074967122
 30
0.0
 11
1220.157014877269
 21
427.7312360685562
 31
0.0
  0
CIRCLE
  5
62F
330
1F
100
AcDbEntity
  8
0
  6
Continuous
 62
     7
100
AcDbCircle
 10
740.3741577341543
 20
378.7592360685576
 30
0.0
 40
24.985714285631
  0
CIRCLE
  5
630
330
1F
100
AcDbEntity
  8
0
  6
Continuous
 62
     7
100
AcDbCircle
 10
740.3741577341543
 20
378.7592360685576
 30
0.0
 40
23.48657142873801
  0
ARC
  5
631
330
1F
100
AcDbEntity
  8
0
  6
Continuous
 62
     7
100
AcDbCircle
 10
1191.173586306005
 20
428.7306646398171
 30
0.0
 40
1.998857143106999
100
AcDbArc
 50
180.0
 51
210.0383073756208
  0
ARC
  5
632
330
1F
100
AcDbEntity
  8
0
  6
Continuous
 62
     7
100
AcDbCircle
 10
1184.177586305998
 20
319.7929503541873
 30
0.0
 40
3.997714285630998
100
AcDbArc
 50
270.0
 51
0.0
  0
ARC
  5
633
330
1F
100
AcDbEntity
  8
0
  6
Continuous
 62
     7
100
AcDbCircle
 10
292.6434168428595
 20
319.7929503541873
 30
0.0
 40
3.997714285630998
100
AcDbArc
 50
180.0
 51
270.0
  0
ARC
  5
634
330
1F
100
AcDbEntity
  8
0
  6
Continuous
 62
     7
100
AcDbCircle
 10
709.3918720203755
 20
342.2800932110804
 30
0.0
 40
6.496285714368996
100
AcDbArc
 50
180.0
 51
270.0
  0
ARC
  5
635
330
1F
100
AcDbEntity
  8
0
  6
Continuous
 62
     7
100
AcDbCircle
 10
771.3564434485351
 20
342.2800932110804
 30
0.0
 40
6.496285714368996
100
AcDbArc
 50
270.0
 51
0.0
  0
CIRCLE
  5
636
330
1F
100
AcDbEntity
  8
0
  6
Continuous
 62
     7
100
AcDbCircle
 10
740.3741577341543
 20
378.7592360685576
 30
0.0
 40
25.085657143107
  0
ARC
  5
637
330
1F
100
AcDbEntity
  8
0
  6
Continuous
 62
     7
100
AcDbCircle
 10
269.6565596997598
 20
443.722093211081
 30
0.0
 40
0.9994285712619999
100
AcDbArc
 50
180.0
 51
270.0
  0
ARC
  5
638
330
1F
100
AcDbEntity
  8
0
  6
Continuous
 62
     7
100
AcDbCircle
 10
1191.173586306005
 20
428.7306646398171
 30
0.0
 40
0.9994285712619999
100
AcDbArc
 50
180.0
 51
270.0
  0
ARC
  5
639
330
1F
100
AcDbEntity
  8
0
  6
Continuous
 62
     7
100
AcDbCircle
 10
1189.174729162901
 20
441.7232360685573
 30
0.0
 40
0.9994285712619999
100
AcDbArc
 50
0.0
 51
180.0
  0
ARC
  5
63A
330
1F
100
AcDbEntity
  8
0
  6
Continuous
 62
     7
100
AcDbCircle
 10
1184.177586305998
 20
319.7929503541873
 30
0.0
 40
1.998857143106999
100
AcDbArc
 50
270.0
 51
0.0
  0
ARC
  5
63B
330
1F
100
AcDbEntity
  8
0
  6
Continuous
 62
     7
100
AcDbCircle
 10
292.6434168428595
 20
319.7929503541873
 30
0.0
 40
1.998857143106999
100
AcDbArc
 50
180.0
 51
270.0
  0
ARC
  5
63C
330
1F
100
AcDbEntity
  8
0
  6
Continuous
 62
     7
100
AcDbCircle
 10
1189.174729162901
 20
441.7232360685573
 30
0.0
 40
1.499142856893
100
AcDbArc
 50
0.0
 51
90.0
  0
LINE
  5
63D
330
1F
100
AcDbEntity
  8
AM_7
100
AcDbLine
 10
740.3741577341543
 20
378.7592360685576
 30
0.0
 11
765.4598148772593
 21
378.7592360685576
 31
0.0
1001
GENIUS_GENOREF_13
1005
77F
  0
LINE
  5
63E
330
1F
100
AcDbEntity
  8
AM_7
100
AcDbLine
 10
740.3741577341543
 20
378.7592360685576
 30
0.0
 11
740.3741577341543
 21
448.1840836065555
 31
0.0
1001
GENIUS_GENOREF_13
1005
77F
  0
LINE
  5
63F
330
1F
100
AcDbEntity
  8
AM_7
100
AcDbLine
 10
740.3741577341543
 20
378.7592360685576
 30
0.0
 11
715.2885005910475
 21
378.7592360685576
 31
0.0
1001
GENIUS_GENOREF_13
1005
77F
  0
LINE
  5
640
330
1F
100
AcDbEntity
  8
AM_7
100
AcDbLine
 10
740.3741577341543
 20
378.7592360685576
 30
0.0
 11
740.3741577341543
 21
331.8851445890814
 31
0.0
1001
GENIUS_GENOREF_13
1005
77F
  0
LINE
  5
641
330
1F
100
AcDbEntity
  8
AM_CL
 62
     0
100
AcDbLine
 10
267.5867291628838
 20
159.5847992708964
 30
0.0
 11
267.5867291628847
 21
26.58479927089639
 31
0.0
  0
LINE
  5
642
330
1F
100
AcDbEntity
  8
AM_CL
 62
     0
100
AcDbLine
 10
269.5861577341484
 20
154.4502849849753
 30
0.0
 11
269.5861577341484
 21
152.4508564137113
 31
0.0
  0
LINE
  5
643
330
1F
100
AcDbEntity
  8
AM_CL
 62
     0
100
AcDbLine
 10
269.5861577341484
 20
159.5847992708966
 30
0.0
 11
269.5861577341493
 21
26.58479927089639
 31
0.0
  0
LINE
  5
644
330
1F
100
AcDbEntity
  8
0
  6
Continuous
 62
     7
100
AcDbLine
 10
290.3741577341534
 20
53.08365641342016
 30
0.0
 11
290.3741577341561
 21
152.4508564137113
 31
0.0
  0
LINE
  5
645
330
1F
100
AcDbEntity
  8
0
  6
Continuous
 62
     7
100
AcDbLine
 10
715.3884434485326
 20
-0.0000007291043858
 30
0.0
 11
765.3598720203762
 21
-0.0000007291043858
 31
0.0
  0
LINE
  5
646
330
1F
100
AcDbEntity
  8
0
  6
Continuous
 62
     7
100
AcDbLine
 10
267.5867291628838
 20
26.58479927089639
 30
0.0
 11
1220.157014877269
 21
26.58479927089639
 31
0.0
  0
LINE
  5
647
330
1F
100
AcDbEntity
  8
0
  6
Continuous
 62
     7
100
AcDbLine
 10
715.3884434485326
 20
-0.0000007291043858
 30
0.0
 11
715.3884434485326
 21
26.58479927089639
 31
0.0
  0
LINE
  5
648
330
1F
100
AcDbEntity
  8
0
  6
Continuous
 62
     7
100
AcDbLine
 10
1188.375300591636
 20
51.08479927089638
 30
0.0
 11
269.5861577341493
 21
51.08479927089638
 31
0.0
  0
LINE
  5
649
330
1F
100
AcDbEntity
  8
0
  6
Continuous
 62
     7
100
AcDbLine
 10
1190.374157734156
 20
51.4845706990502
 30
0.0
 11
1188.375300591636
 21
51.4845706990502
 31
0.0
  0
LINE
  5
64A
330
1F
100
AcDbEntity
  8
0
  6
Continuous
 62
     7
100
AcDbLine
 10
269.5861577341493
 20
53.08365641342016
 30
0.0
 11
1188.375300591636
 21
53.08365641342015
 31
0.0
  0
LINE
  5
64B
330
1F
100
AcDbEntity
  8
0
  6
Continuous
 62
     7
100
AcDbLine
 10
765.3598720203762
 20
-0.0000007291043858
 30
0.0
 11
765.3598720203762
 21
26.58479927089639
 31
0.0
  0
LINE
  5
64C
330
1F
100
AcDbEntity
  8
0
  6
Continuous
 62
     7
100
AcDbLine
 10
1188.375300591634
 20
135.0847992708966
 30
0.0
 11
290.3741577341561
 21
135.0847992708964
 31
0.0
  0
LINE
  5
64D
330
1F
100
AcDbEntity
  8
AM_CL
 62
     0
100
AcDbLine
 10
269.5861577341484
 20
157.5853706996324
 30
0.0
 11
267.5867291628819
 21
157.5853706996315
 31
0.0
  0
LINE
  5
64E
330
1F
100
AcDbEntity
  8
AM_CL
 62
     0
100
AcDbLine
 10
1220.157014877269
 20
157.5853706996324
 30
0.0
 11
269.5861577341484
 21
157.5853706996324
 31
0.0
  0
LINE
  5
64F
330
1F
100
AcDbEntity
  8
AM_CL
 62
     0
100
AcDbLine
 10
1220.157014877269
 20
159.5847992708964
 30
0.0
 11
269.5861577341484
 21
159.5847992708964
 31
0.0
  0
LINE
  5
650
330
1F
100
AcDbEntity
  8
0
  6
Continuous
 62
     7
100
AcDbLine
 10
1188.375300591634
 20
26.58479927089639
 30
0.0
 11
1188.375300591634
 21
159.5847992708964
 31
0.0
  0
LINE
  5
651
330
1F
100
AcDbEntity
  8
0
  6
Continuous
 62
     7
100
AcDbLine
 10
1190.374157734154
 20
157.5853706996324
 30
0.0
 11
1190.374157734156
 21
51.4845706990502
 31
0.0
  0
LINE
  5
652
330
1F
100
AcDbEntity
  8
0
  6
Continuous
 62
     7
100
AcDbLine
 10
1220.157014877269
 20
152.4508564137113
 30
0.0
 11
1220.157014877269
 21
159.5847992708964
 31
0.0
  0
LINE
  5
653
330
1F
100
AcDbEntity
  8
0
  6
Continuous
 62
     7
100
AcDbLine
 10
1220.157014877269
 20
26.58479927089639
 30
0.0
 11
1220.157014877269
 21
152.4508564137113
 31
0.0
  0
CIRCLE
  5
654
330
1F
100
AcDbEntity
  8
0
  6
Continuous
 62
     7
100
AcDbCircle
 10
740.3741577341543
 20
93.08479927060558
 30
0.0
 40
35.97942857126201
  0
CIRCLE
  5
655
330
1F
100
AcDbEntity
  8
0
100
AcDbCircle
 10
740.3741577341543
 20
93.08479927060558
 30
0.0
 40
17.5
  0
CIRCLE
  5
656
330
1F
100
AcDbEntity
  8
0
100
AcDbCircle
 10
740.3741577341543
 20
93.08479927060558
 30
0.0
 40
30.0
  0
LINE
  5
657
330
1F
100
AcDbEntity
  8
0
100
AcDbLine
 10
741.3741577341525
 20
110.5562044802613
 30
0.0
 11
741.3741577341525
 21
75.61339406094953
 31
0.0
  0
LINE
  5
658
330
1F
100
AcDbEntity
  8
0
100
AcDbLine
 10
739.3741577341525
 20
110.5562044802613
 30
0.0
 11
739.3741577341525
 21
75.61339406094953
 31
0.0
  0
LINE
  5
659
330
1F
100
AcDbEntity
  8
0
100
AcDbLine
 10
1188.175300591048
 20
93.08479927089639
 30
0.0
 11
776.3535863054175
 21
93.08479927089639
 31
0.0
1001
GENIUS_GENOBJ-N-CEN_13
1002
{
1000
OWNER
1000
GEN
1002
}
1001
GENIUS_GENODEF_13
1002
{
1000
HIER
1070
     0
1002
}
1002
{
1000
MANEDIT
1070
     0
1002
}
1002
{
1000
NOSEL
1070
     0
1002
}
1002
{
1000
BEHIND
1070
     0
1002
}
1002
{
1000
OTHER
1070
     0
1002
}
1002
{
1000
REACTOR
1002
}
1001
GENIUS_GENCEN_19
1002
{
1040
3.0
1002
}
  0
LINE
  5
65A
330
1F
100
AcDbEntity
  8
0
100
AcDbLine
 10
704.394729162891
 20
93.08479927089639
 30
0.0
 11
290.3741577341552
 21
93.08479927089639
 31
0.0
1001
GENIUS_GENOBJ-N-CEN_13
1002
{
1000
OWNER
1000
GEN
1002
}
1001
GENIUS_GENODEF_13
1002
{
1000
HIER
1070
     0
1002
}
1002
{
1000
MANEDIT
1070
     0
1002
}
1002
{
1000
NOSEL
1070
     0
1002
}
1002
{
1000
BEHIND
1070
     0
1002
}
1002
{
1000
OTHER
1070
     0
1002
}
1002
{
1000
REACTOR
1002
}
1001
GENIUS_GENCEN_19
1002
{
1040
3.0
1002
}
  0
DIMENSION
  5
65B
330
1F
100
AcDbEntity
  8
AM_5
100
AcDbDimension
  2
*D14
 10
1318.454416812133
 20
442.7226646398183
 30
0.0
 11
1311.954416812133
 21
379.2589503541881
 31
0.0
 70
    32
  1
105-160
 71
     5
 42
126.9274285712608
  3
AM_DIN$0
100
AcDbAlignedDimension
 13
1196.1707291629
 23
315.7952360685574
 33
0.0
 14
1188.175300591635
 24
442.7226646398183
 34
0.0
 50
90.0
100
AcDbRotatedDimension
1001
ACAD
1000
DSTYLE
1002
{
1070
    41
1040
7.0
1070
   140
1040
10.0
1002
}
1001
ACAD_DSTYLE_DIMINSPECT
1070
   396
1000
100%
1070
   395
1000

1070
   394
1070
    33
1070
   393
1070
     0
  0
DIMENSION
  5
65C
330
1F
100
AcDbEntity
  8
AM_5
100
AcDbDimension
  2
*D15
 10
1259.444548590137
 20
135.0847992708963
 30
0.0
 11
1252.944548590137
 21
93.08479927089702
 31
0.0
 70
    32
  1
<>
 71
     5
 42
83.99999999999909
  3
AM_DIN$0
100
AcDbAlignedDimension
 13
1188.175300591049
 23
51.08479927089729
 33
0.0
 14
1190.374157734154
 24
135.0847992708964
 34
0.0
 50
90.0
100
AcDbRotatedDimension
1001
ACAD
1000
DSTYLE
1002
{
1070
    41
1040
7.0
1070
   140
1040
10.0
1002
}
1001
ACAD_DSTYLE_DIMINSPECT
1070
   396
1000
100%
1070
   395
1000

1070
   394
1070
    33
1070
   393
1070
     0
  0
DIMENSION
  5
65D
330
1F
100
AcDbEntity
  8
AM_5
100
AcDbDimension
  2
*D16
 10
1295.341298530397
 20
159.5847992708964
 30
0.0
 11
1288.841298530397
 21
93.08479927089658
 31
0.0
 70
    32
  1
<>
 71
     5
 42
133.0
  3
AM_DIN$0
100
AcDbAlignedDimension
 13
1220.157014877269
 23
26.58479927089639
 33
0.0
 14
1220.157014877269
 24
159.5847992708964
 34
0.0
 50
90.0
100
AcDbRotatedDimension
1001
ACAD
1000
DSTYLE
1002
{
1070
    41
1040
7.0
1070
   140
1040
10.0
1002
}
1001
ACAD_DSTYLE_DIMINSPECT
1070
   396
1000
100%
1070
   395
1000

1070
   394
1070
    33
1070
   393
1070
     0
  0
DIMENSION
  5
65E
330
1F
100
AcDbEntity
  8
AM_5
100
AcDbDimension
  2
*D17
 10
290.3741577341543
 20
203.4235492297252
 30
0.0
 11
745.1973439854332
 21
203.4235492297252
 31
0.0
 70
   160
  1
<>
 71
     5
 42
900.0
  3
AM_DIN$0
100
AcDbAlignedDimension
 13
1190.374157734154
 23
132.4622849849736
 33
0.0
 14
290.3741577341543
 24
132.4622849849736
 34
0.0
100
AcDbRotatedDimension
1001
ACAD
1000
DSTYLE
1002
{
1070
    41
1040
7.0
1070
   140
1040
10.0
1002
}
1001
ACAD_DSTYLE_DIMINSPECT
1070
   396
1000
100%
1070
   395
1000

1070
   394
1070
    33
1070
   393
1070
     0
  0
DIMENSION
  5
65F
330
1F
100
AcDbEntity
  8
AM_5
100
AcDbDimension
  2
*D18
 10
267.5867291628838
 20
237.1819638720174
 30
0.0
 11
743.8718720200763
 21
243.6819638720174
 31
0.0
 70
    32
  1
<>
 71
     5
 42
952.5702857143851
  3
AM_DIN$0
100
AcDbAlignedDimension
 13
1220.157014877269
 23
153.4505706993434
 33
0.0
 14
267.5867291628838
 24
152.4508564137113
 34
0.0
100
AcDbRotatedDimension
1001
ACAD_DSTYLE_DIMINSPECT
1070
   396
1000
100%
1070
   395
1000

1070
   394
1070
    33
1070
   393
1070
     0
1001
ACAD
1000
DSTYLE
1002
{
1070
    41
1040
7.0
1070
   140
1040
10.0
1070
   271
1070
     0
1002
}
  0
LINE
  5
660
330
1F
100
AcDbEntity
  8
7A
100
AcDbLine
 10
1535.031457841617
 20
329.8509296182674
 30
0.0
 11
1535.031457841696
 21
448.7226646398299
 31
0.0
1001
GENIUS_GENOBJ-N-CEN_13
1002
{
1000
OWNER
1000
GEN
1002
}
1001
GENIUS_GENODEF_13
1002
{
1000
HIER
1070
     0
1002
}
1002
{
1000
MANEDIT
1070
     0
1002
}
1002
{
1000
NOSEL
1070
     0
1002
}
1002
{
1000
BEHIND
1070
     0
1002
}
1002
{
1000
OTHER
1070
     0
1002
}
1002
{
1000
REACTOR
1002
}
  0
LINE
  5
661
330
1F
100
AcDbEntity
  8
0
100
AcDbLine
 10
1576.031457841699
 20
442.72266463981
 30
0.0
 11
1476.031457841708
 21
442.7226646398302
 31
0.0
  0
LINE
  5
662
330
1F
100
AcDbEntity
  8
0
100
AcDbLine
 10
17.37517606460574
 20
402.7226646398369
 30
0.0
 11
-44.62482393539426
 21
402.7226646397541
 31
0.0
1001
GENIUS_GENOBJ-N-CEN_13
1002
{
1000
OWNER
1000
GEN
1002
}
1001
GENIUS_GENODEF_13
1002
{
1000
HIER
1070
     0
1002
}
1002
{
1000
MANEDIT
1070
     0
1002
}
1002
{
1000
NOSEL
1070
     0
1002
}
1002
{
1000
BEHIND
1070
     0
1002
}
1002
{
1000
OTHER
1070
     0
1002
}
1002
{
1000
REACTOR
1002
}
  0
LINE
  5
663
330
1F
100
AcDbEntity
  8
0
100
AcDbLine
 10
16.11075089987184
 20
401.2226646398351
 30
0.0
 11
-44.62482393539244
 21
401.2226646397541
 31
0.0
1001
GENIUS_GENOBJ-N-CEN_13
1002
{
1000
OWNER
1000
GEN
1002
}
1001
GENIUS_GENODEF_13
1002
{
1000
HIER
1070
     0
1002
}
1002
{
1000
MANEDIT
1070
     0
1002
}
1002
{
1000
NOSEL
1070
     0
1002
}
1002
{
1000
BEHIND
1070
     0
1002
}
1002
{
1000
OTHER
1070
     0
1002
}
1002
{
1000
REACTOR
1002
}
  0
LINE
  5
664
330
1F
100
AcDbEntity
  8
0
100
AcDbLine
 10
16.11075089993369
 20
354.2226646398353
 30
0.0
 11
-44.62482393533014
 21
354.2226646397544
 31
0.0
1001
GENIUS_GENOBJ-N-CEN_13
1002
{
1000
OWNER
1000
GEN
1002
}
1001
GENIUS_GENODEF_13
1002
{
1000
HIER
1070
     0
1002
}
1002
{
1000
MANEDIT
1070
     0
1002
}
1002
{
1000
NOSEL
1070
     0
1002
}
1002
{
1000
BEHIND
1070
     0
1002
}
1002
{
1000
OTHER
1070
     0
1002
}
1002
{
1000
REACTOR
1002
}
  0
LINE
  5
665
330
1F
100
AcDbEntity
  8
0
100
AcDbLine
 10
17.37517606467168
 20
352.7226646398369
 30
0.0
 11
-44.62482393532832
 21
352.7226646397544
 31
0.0
1001
GENIUS_GENOBJ-N-CEN_13
1002
{
1000
OWNER
1000
GEN
1002
}
1001
GENIUS_GENODEF_13
1002
{
1000
HIER
1070
     0
1002
}
1002
{
1000
MANEDIT
1070
     0
1002
}
1002
{
1000
NOSEL
1070
     0
1002
}
1002
{
1000
BEHIND
1070
     0
1002
}
1002
{
1000
OTHER
1070
     0
1002
}
1002
{
1000
REACTOR
1002
}
  0
HATCH
  5
666
330
1F
100
AcDbEntity
  8
KLIN
  6
ByBlock
100
AcDbHatch
 10
0.0
 20
0.0
 30
0.0
210
0.0
220
0.0
230
1.0
  2
LINE
 70
     0
 71
     0
 91
        3
 92
        7
 72
     0
 73
     1
 93
        4
 10
-44.62482393539426
 20
402.7226646397541
 10
17.37517606460574
 20
402.7226646398369
 10
16.11075089987184
 20
401.2226646398351
 10
-44.62482393539244
 20
401.2226646397541
 97
        0
 92
        7
 72
     0
 73
     1
 93
        4
 10
-16.94731306522135
 20
354.2226646397912
 10
16.11075089993369
 20
354.2226646398353
 10
17.37517606467168
 20
352.7226646398369
 10
-17.70533761033857
 20
352.7226646397901
 97
        0
 92
        7
 72
     0
 73
     1
 93
        4
 10
-44.62482393533014
 20
354.2226646397544
 10
-16.94731306522135
 20
354.2226646397912
 10
-17.70533761033857
 20
352.7226646397903
 10
-44.62482393532832
 20
352.7226646397544
 97
        0
 75
     0
 76
     1
 52
45.0
 41
0.5
 77
     0
 78
     1
 53
135.0000000000764
 43
275.4628878327446
 44
154.8814050203257
 45
1.122532015132146
 46
1.122532015135142
 79
     0
 47
2.718374431718905
 98
        3
 10
-2.068272510136466
 20
401.9556989198401
 10
-2.340262646181372
 20
353.5686339549688
 10
-26.27545119418437
 20
353.2967970163472
  0
LINE
  5
667
330
1F
100
AcDbEntity
  8
0
100
AcDbLine
 10
10.37517606455662
 20
427.7226646397159
 30
0.0
 11
-18.62482393541631
 21
427.7226646396513
 31
0.0
  0
LINE
  5
668
330
1F
100
AcDbEntity
  8
0
100
AcDbLine
 10
10.37517606460869
 20
426.7226646397159
 30
0.0
 11
-18.62482393541722
 21
426.7226646396514
 31
0.0
  0
LINE
  5
669
330
1F
100
AcDbEntity
  8
7A
100
AcDbLine
 10
30.26624177821077
 20
377.7226646398542
 30
0.0
 11
-49.99999954308441
 21
377.7226646397471
 31
0.0
1001
GENIUS_GENOBJ-N-CEN_13
1002
{
1000
OWNER
1000
GEN
1002
}
1001
GENIUS_GENODEF_13
1002
{
1000
HIER
1070
     0
1002
}
1002
{
1000
MANEDIT
1070
     0
1002
}
1002
{
1000
NOSEL
1070
     0
1002
}
1002
{
1000
BEHIND
1070
     0
1002
}
1002
{
1000
OTHER
1070
     0
1002
}
1002
{
1000
REACTOR
1002
}
  0
LINE
  5
66A
330
1F
100
AcDbEntity
  8
0
100
AcDbLine
 10
91.37517606459459
 20
410.7226646398252
 30
0.0
 11
91.37517606468646
 21
342.7226646398253
 31
0.0
1001
GENIUS_GENODEF_13
1002
{
1000
HIER
1070
     0
1002
}
1002
{
1000
MANEDIT
1070
     0
1002
}
1002
{
1000
NOSEL
1070
     0
1002
}
1002
{
1000
BEHIND
1070
     0
1002
}
1002
{
1000
REACTOR
1002
}
1001
GENIUS_GENOBJ-N-CEN_13
1002
{
1000
OWNER
1000
GEN
1002
}
  0
LINE
  5
66B
330
1F
100
AcDbEntity
  8
0
100
AcDbLine
 10
89.37517606458163
 20
420.5490655433655
 30
0.0
 11
89.37517606468645
 21
342.7226646398226
 31
0.0
1001
GENIUS_GENODEF_13
1002
{
1000
HIER
1070
     0
1002
}
1002
{
1000
MANEDIT
1070
     0
1002
}
1002
{
1000
NOSEL
1070
     0
1002
}
1002
{
1000
BEHIND
1070
     0
1002
}
1002
{
1000
REACTOR
1002
}
1001
GENIUS_GENOBJ-N-CEN_13
1002
{
1000
OWNER
1000
GEN
1002
}
  0
LINE
  5
66C
330
1F
100
AcDbEntity
  8
7A
100
AcDbLine
 10
53.37517606463871
 20
329.8509296182674
 30
0.0
 11
53.37517606455958
 21
448.7226646398299
 31
0.0
1001
GENIUS_GENOBJ-N-CEN_13
1002
{
1000
OWNER
1000
GEN
1002
}
1001
GENIUS_GENODEF_13
1002
{
1000
HIER
1070
     0
1002
}
1002
{
1000
MANEDIT
1070
     0
1002
}
1002
{
1000
NOSEL
1070
     0
1002
}
1002
{
1000
BEHIND
1070
     0
1002
}
1002
{
1000
OTHER
1070
     0
1002
}
1002
{
1000
REACTOR
1002
}
  0
HATCH
  5
66D
330
1F
100
AcDbEntity
  8
KLIN
  6
ByBlock
100
AcDbHatch
 10
0.0
 20
0.0
 30
0.0
210
0.0
220
0.0
230
1.0
  2
LINE
 70
     0
 71
     0
 91
        4
 92
        7
 72
     0
 73
     1
 93
        4
 10
15.37517606459459
 20
410.7226646397239
 10
17.3751760645946
 20
410.7226646397267
 10
17.37517606460574
 20
402.7226646398369
 10
15.37517606460574
 20
402.7226646398344
 97
        0
 92
        7
 72
     0
 73
     1
 93
        4
 10
89.3751760645946
 20
410.7226646398226
 10
91.37517606459459
 20
410.7226646398252
 10
91.37517606463076
 20
384.474704506546
 10
89.37517606462984
 20
385.1492971105213
 97
        0
 92
        7
 72
     1
 73
     1
 93
        8
 10
89.37517606462984
 20
385.1492971105213
 42
0.0
 10
91.37517606463076
 20
384.474704506546
 42
0.0
 10
91.37517606468646
 20
342.7226646398253
 42
-0.4142135623730915
 10
84.37517606469578
 20
335.722664639816
 42
0.0
 10
53.37517606463461
 20
335.7226646397746
 42
0.0
 10
53.37517606463371
 20
337.7226646397746
 42
0.0
 10
84.3751760646926
 20
337.722664639816
 42
0.4142135623730919
 10
89.37517606468645
 20
342.7226646398226
 42
0.0
 97
        0
 92
        7
 72
     1
 73
     1
 93
        8
 10
53.37517606463371
 20
337.7226646397746
 42
0.0
 10
53.37517606463461
 20
335.7226646397746
 42
0.0
 10
22.37517606469351
 20
335.7226646397332
 42
-0.4142135623730973
 10
15.37517606468554
 20
342.7226646397239
 42
0.0
 10
15.37517606467168
 20
352.7226646398342
 42
0.0
 10
17.37517606467168
 20
352.7226646398369
 42
0.0
 10
17.37517606468464
 20
342.7226646397266
 42
0.414213562373096
 10
22.37517606469169
 20
337.7226646397332
 42
0.0
 97
        0
 75
     0
 76
     1
 52
135.0
 41
1.0
 77
     0
 78
     1
 53
45.00000000007651
 43
275.4628878327446
 44
154.8814050203257
 45
2.245064030270284
 46
-2.245064030264292
 79
     0
 47
2.718374431718905
 98
        4
 10
16.15510851317071
 20
406.8487734955767
 10
90.13659734126667
 20
400.3246745223971
 10
90.1365973413117
 20
367.1605057788277
 10
29.75464884191865
 20
336.9865502747339
  0
ARC
  5
66E
330
1F
100
AcDbEntity
  8
0
100
AcDbCircle
 10
-33.70815726869455
 20
377.7226646397696
 30
0.0
 40
55.08333333333285
100
AcDbArc
 50
334.7463521008766
 51
25.25364789923173
  0
ARC
  5
66F
330
1F
100
AcDbEntity
  8
0
100
AcDbCircle
 10
-42.64746351130134
 20
377.7226646397578
 30
0.0
 40
65.02089865314991
100
AcDbArc
 50
337.3878080415857
 51
22.61219195863834
  0
LINE
  5
670
330
1F
100
AcDbEntity
  8
0
100
AcDbLine
 10
84.37517606469578
 20
335.722664639816
 30
0.0
 11
22.37517606469351
 21
335.7226646397332
 31
0.0
  0
LINE
  5
671
330
1F
100
AcDbEntity
  8
0
100
AcDbLine
 10
84.3751760646926
 20
337.722664639816
 30
0.0
 11
22.37517606469169
 21
337.7226646397332
 31
0.0
  0
ARC
  5
672
330
1F
100
AcDbEntity
  8
0
100
AcDbCircle
 10
84.37517606468645
 20
342.722664639816
 30
0.0
 40
7.0
100
AcDbArc
 50
270.0
 51
0.0000000001302755
  0
ARC
  5
673
330
1F
100
AcDbEntity
  8
0
100
AcDbCircle
 10
84.37517606468645
 20
342.722664639816
 30
0.0
 40
5.0
100
AcDbArc
 50
270.0
 51
0.0000000001302755
  0
ARC
  5
674
330
1F
100
AcDbEntity
  8
0
100
AcDbCircle
 10
22.37517606468464
 20
342.7226646397333
 30
0.0
 40
5.0
100
AcDbArc
 50
180.0000000001302
 51
270.0
1001
GENIUS_GENODEF_13
1002
{
1000
HIER
1070
     0
1002
}
1002
{
1000
MANEDIT
1070
     0
1002
}
1002
{
1000
NOSEL
1070
     0
1002
}
1002
{
1000
BEHIND
1070
     0
1002
}
1002
{
1000
REACTOR
1002
}
1001
GENIUS_GENOBJ-N-CEN_13
1002
{
1000
OWNER
1000
GEN
1002
}
  0
ARC
  5
675
330
1F
100
AcDbEntity
  8
0
100
AcDbCircle
 10
22.37517606468464
 20
342.7226646397333
 30
0.0
 40
7.0
100
AcDbArc
 50
180.0000000001302
 51
270.0
1001
GENIUS_GENODEF_13
1002
{
1000
HIER
1070
     0
1002
}
1002
{
1000
MANEDIT
1070
     0
1002
}
1002
{
1000
NOSEL
1070
     0
1002
}
1002
{
1000
BEHIND
1070
     0
1002
}
1002
{
1000
REACTOR
1002
}
1001
GENIUS_GENOBJ-N-CEN_13
1002
{
1000
OWNER
1000
GEN
1002
}
  0
LINE
  5
676
330
1F
100
AcDbEntity
  8
0
100
AcDbLine
 10
15.37517606467168
 20
352.7226646398344
 30
0.0
 11
15.37517606468554
 21
342.7226646397239
 31
0.0
1001
GENIUS_GENODEF_13
1002
{
1000
HIER
1070
     0
1002
}
1002
{
1000
MANEDIT
1070
     0
1002
}
1002
{
1000
NOSEL
1070
     0
1002
}
1002
{
1000
BEHIND
1070
     0
1002
}
1002
{
1000
REACTOR
1002
}
1001
GENIUS_GENOBJ-N-CEN_13
1002
{
1000
OWNER
1000
GEN
1002
}
  0
LINE
  5
677
330
1F
100
AcDbEntity
  8
0
100
AcDbLine
 10
17.37517606467168
 20
352.7226646398369
 30
0.0
 11
17.37517606468464
 21
342.7226646397266
 31
0.0
1001
GENIUS_GENODEF_13
1002
{
1000
HIER
1070
     0
1002
}
1002
{
1000
MANEDIT
1070
     0
1002
}
1002
{
1000
NOSEL
1070
     0
1002
}
1002
{
1000
BEHIND
1070
     0
1002
}
1002
{
1000
REACTOR
1002
}
1001
GENIUS_GENOBJ-N-CEN_13
1002
{
1000
OWNER
1000
GEN
1002
}
  0
LINE
  5
678
330
1F
100
AcDbEntity
  8
0
100
AcDbLine
 10
17.37517606467168
 20
352.7226646398369
 30
0.0
 11
16.11075089993369
 21
354.2226646398353
 31
0.0
  0
LINE
  5
679
330
1F
100
AcDbEntity
  8
0
100
AcDbLine
 10
12.37517606455662
 20
442.7226646398099
 30
0.0
 11
112.3751760645477
 21
442.7226646398301
 31
0.0
  0
ARC
  5
67A
330
1F
100
AcDbEntity
  8
0
  6
ByBlock
100
AcDbCircle
 10
112.3751760645477
 20
443.72266463983
 30
0.0
 40
1.0
100
AcDbArc
 50
270.0
 51
0.0000000001302755
  0
LINE
  5
67B
330
1F
100
AcDbEntity
  8
0
  6
ByBlock
100
AcDbLine
 10
15.54126702428561
 20
422.5421570597561
 30
0.0
 11
53.37517606457982
 21
419.3893313064799
 31
0.0
  0
LINE
  5
67C
330
1F
100
AcDbEntity
  8
0
100
AcDbLine
 10
53.41669880450763
 20
418.3824048632536
 30
0.0
 11
17.18428942978176
 21
421.4017723110689
 31
0.0
  0
LINE
  5
67D
330
1F
100
AcDbEntity
  8
0
  6
ByBlock
100
AcDbLine
 10
91.20908510487357
 20
422.5421570598578
 30
0.0
 11
53.37517606457982
 21
419.3893313064799
 31
0.0
  0
LINE
  5
67E
330
1F
100
AcDbEntity
  8
0
100
AcDbLine
 10
53.33365332465451
 20
418.3824048632536
 30
0.0
 11
89.56606269938083
 21
421.4017723111663
 31
0.0
  0
LINE
  5
67F
330
1F
100
AcDbEntity
  8
0
100
AcDbLine
 10
94.37517606452274
 20
423.6427975213916
 30
0.0
 11
94.37517606455072
 21
440.7226646398076
 31
0.0
  0
ARC
  5
680
330
1F
100
AcDbEntity
  8
0
  6
ByBlock
100
AcDbCircle
 10
95.37517606455072
 20
440.722664639806
 30
0.0
 40
1.0
100
AcDbArc
 50
90.0
 51
179.9999999998697
  0
LINE
  5
681
330
1F
100
AcDbEntity
  8
0
100
AcDbLine
 10
93.37517606452479
 20
423.6427975213993
 30
0.0
 11
93.37517606445453
 21
440.7226646398219
 31
0.0
  0
ARC
  5
682
330
1F
100
AcDbEntity
  8
0
100
AcDbCircle
 10
95.37517606445453
 20
440.7226646398299
 30
0.0
 40
2.0
100
AcDbArc
 50
90.0
 51
180.0000000002605
  0
ARC
  5
683
330
1F
100
AcDbEntity
  8
0
100
AcDbCircle
 10
92.37517606452275
 20
423.6427975213951
 30
0.0
 40
2.0
100
AcDbArc
 50
274.7636416908086
 51
359.9999999998697
  0
LINE
  5
684
330
1F
100
AcDbEntity
  8
0
100
AcDbLine
 10
90.37517606458164
 20
420.5490655433666
 30
0.0
 11
90.37517606459459
 21
410.7226646398239
 31
0.0
1001
GENIUS_GENODEF_13
1002
{
1000
HIER
1070
     0
1002
}
1002
{
1000
MANEDIT
1070
     0
1002
}
1002
{
1000
NOSEL
1070
     0
1002
}
1002
{
1000
BEHIND
1070
     0
1002
}
1002
{
1000
REACTOR
1002
}
1001
GENIUS_GENOBJ-N-CEN_13
1002
{
1000
OWNER
1000
GEN
1002
}
  0
LINE
  5
685
330
1F
100
AcDbEntity
  8
0
100
AcDbLine
 10
91.29213058472783
 20
421.5456113016127
 30
0.0
 11
92.54126702423059
 21
421.6497060049053
 31
0.0
  0
ARC
  5
686
330
1F
100
AcDbEntity
  8
0
100
AcDbCircle
 10
91.37517606458164
 20
420.5490655433679
 30
0.0
 40
1.0
100
AcDbArc
 50
94.76364169080856
 51
180.0000000001302
1001
GENIUS_GENODEF_13
1002
{
1000
HIER
1070
     0
1002
}
1002
{
1000
MANEDIT
1070
     0
1002
}
1002
{
1000
NOSEL
1070
     0
1002
}
1002
{
1000
BEHIND
1070
     0
1002
}
1002
{
1000
REACTOR
1002
}
1001
GENIUS_GENOBJ-N-CEN_13
1002
{
1000
OWNER
1000
GEN
1002
}
  0
ARC
  5
687
330
1F
100
AcDbEntity
  8
0
100
AcDbCircle
 10
91.37517606458164
 20
420.5490655433679
 30
0.0
 40
2.0
100
AcDbArc
 50
94.76364169080856
 51
180.0000000001302
1001
GENIUS_GENODEF_13
1002
{
1000
HIER
1070
     0
1002
}
1002
{
1000
MANEDIT
1070
     0
1002
}
1002
{
1000
NOSEL
1070
     0
1002
}
1002
{
1000
BEHIND
1070
     0
1002
}
1002
{
1000
REACTOR
1002
}
1001
GENIUS_GENOBJ-N-CEN_13
1002
{
1000
OWNER
1000
GEN
1002
}
  0
LINE
  5
688
330
1F
100
AcDbEntity
  8
0
100
AcDbLine
 10
91.20908510487357
 20
422.5421570598578
 30
0.0
 11
92.4582215443786
 21
422.6462517631504
 31
0.0
  0
ARC
  5
689
330
1F
100
AcDbEntity
  8
0
100
AcDbCircle
 10
92.37517606452479
 20
423.6427975213953
 30
0.0
 40
1.0
100
AcDbArc
 50
274.7636416908086
 51
0.000000000260551
  0
LINE
  5
68A
330
1F
100
AcDbEntity
  8
0
100
AcDbLine
 10
17.37517606458277
 20
420.5490655432686
 30
0.0
 11
17.37517606460574
 21
402.7226646398369
 31
0.0
1001
GENIUS_GENODEF_13
1002
{
1000
HIER
1070
     0
1002
}
1002
{
1000
MANEDIT
1070
     0
1002
}
1002
{
1000
NOSEL
1070
     0
1002
}
1002
{
1000
BEHIND
1070
     0
1002
}
1002
{
1000
REACTOR
1002
}
1001
GENIUS_GENOBJ-N-CEN_13
1002
{
1000
OWNER
1000
GEN
1002
}
  0
LINE
  5
68B
330
1F
100
AcDbEntity
  8
0
100
AcDbLine
 10
15.37517606459459
 20
410.7226646397239
 30
0.0
 11
15.37517606460574
 21
402.7226646398344
 31
0.0
1001
GENIUS_GENODEF_13
1002
{
1000
HIER
1070
     0
1002
}
1002
{
1000
MANEDIT
1070
     0
1002
}
1002
{
1000
NOSEL
1070
     0
1002
}
1002
{
1000
BEHIND
1070
     0
1002
}
1002
{
1000
REACTOR
1002
}
1001
GENIUS_GENOBJ-N-CEN_13
1002
{
1000
OWNER
1000
GEN
1002
}
  0
LINE
  5
68C
330
1F
100
AcDbEntity
  8
0
100
AcDbLine
 10
17.37517606460574
 20
402.7226646398369
 30
0.0
 11
16.11075089987184
 21
401.2226646398351
 31
0.0
  0
ARC
  5
68D
330
1F
100
AcDbEntity
  8
0
100
AcDbCircle
 10
10.3751760645548
 20
428.7226646397159
 30
0.0
 40
1.0
100
AcDbArc
 50
270.0
 51
359.9999999998697
  0
LINE
  5
68E
330
1F
100
AcDbEntity
  8
0
100
AcDbLine
 10
13.37517606462666
 20
423.6427975212864
 30
0.0
 11
13.37517606454548
 21
441.7226646398296
 31
0.0
  0
LINE
  5
68F
330
1F
100
AcDbEntity
  8
0
100
AcDbLine
 10
12.37517606462666
 20
423.6427975212823
 30
0.0
 11
12.37517606454867
 21
441.7226646398296
 31
0.0
  0
ARC
  5
690
330
1F
100
AcDbEntity
  8
0
100
AcDbCircle
 10
10.37517606460483
 20
428.7226646397159
 30
0.0
 40
2.0
100
AcDbArc
 50
270.0
 51
0.000000000260551
  0
LINE
  5
691
330
1F
100
AcDbEntity
  8
0
100
AcDbLine
 10
16.37517606458277
 20
420.5490655432672
 30
0.0
 11
16.3751760645946
 21
410.7226646397252
 31
0.0
1001
GENIUS_GENODEF_13
1002
{
1000
HIER
1070
     0
1002
}
1002
{
1000
MANEDIT
1070
     0
1002
}
1002
{
1000
NOSEL
1070
     0
1002
}
1002
{
1000
BEHIND
1070
     0
1002
}
1002
{
1000
REACTOR
1002
}
1001
GENIUS_GENOBJ-N-CEN_13
1002
{
1000
OWNER
1000
GEN
1002
}
  0
LINE
  5
692
330
1F
100
AcDbEntity
  8
0
100
AcDbLine
 10
15.54126702428561
 20
422.5421570597561
 30
0.0
 11
14.29213058477557
 21
422.6462517630459
 31
0.0
  0
LINE
  5
693
330
1F
100
AcDbEntity
  8
0
100
AcDbLine
 10
15.45822154443363
 20
421.5456113015108
 30
0.0
 11
14.20908510492359
 21
421.6497060048009
 31
0.0
  0
ARC
  5
694
330
1F
100
AcDbEntity
  8
0
100
AcDbCircle
 10
15.37517606458164
 20
420.5490655432659
 30
0.0
 40
2.0
100
AcDbArc
 50
0.0000000001302755
 51
85.23635830945289
1001
GENIUS_GENODEF_13
1002
{
1000
HIER
1070
     0
1002
}
1002
{
1000
MANEDIT
1070
     0
1002
}
1002
{
1000
NOSEL
1070
     0
1002
}
1002
{
1000
BEHIND
1070
     0
1002
}
1002
{
1000
REACTOR
1002
}
1001
GENIUS_GENOBJ-N-CEN_13
1002
{
1000
OWNER
1000
GEN
1002
}
  0
ARC
  5
695
330
1F
100
AcDbEntity
  8
0
100
AcDbCircle
 10
15.37517606458164
 20
420.5490655432659
 30
0.0
 40
1.0
100
AcDbArc
 50
0.0000000001302755
 51
85.23635830945289
  0
ARC
  5
696
330
1F
100
AcDbEntity
  8
0
100
AcDbCircle
 10
14.37517606462666
 20
423.6427975212909
 30
0.0
 40
1.0
100
AcDbArc
 50
180.0000000002605
 51
265.2363583094529
  0
ARC
  5
697
330
1F
100
AcDbEntity
  8
0
100
AcDbCircle
 10
14.37517606462666
 20
423.6427975212909
 30
0.0
 40
2.0
100
AcDbArc
 50
180.0000000002605
 51
265.2363583094529
  0
LINE
  5
698
330
1F
100
AcDbEntity
  8
0
100
AcDbLine
 10
11.37517606457368
 20
441.7226646398266
 30
0.0
 11
11.37517606455481
 21
428.7226646397143
 31
0.0
  0
ARC
  5
699
330
1F
100
AcDbEntity
  8
0
100
AcDbCircle
 10
12.37517606456049
 20
441.7226646398253
 30
0.0
 40
0.9999999999848339
100
AcDbArc
 50
0.000000000260551
 51
180.0000000002605
  0
LINE
  5
69A
330
1F
100
AcDbEntity
  8
0
100
AcDbLine
 10
-44.62482393539426
 20
402.7226646397541
 30
0.0
 11
-44.62482393532832
 21
352.7226646397541
 31
0.0
1001
GENIUS_GENODEF_13
1002
{
1000
HIER
1070
     0
1002
}
1002
{
1000
MANEDIT
1070
     0
1002
}
1002
{
1000
NOSEL
1070
     0
1002
}
1002
{
1000
BEHIND
1070
     0
1002
}
1002
{
1000
REACTOR
1002
}
1001
GENIUS_GENOBJ-N-CEN_13
1002
{
1000
OWNER
1000
GEN
1002
}
  0
LINE
  5
69B
330
1F
100
AcDbEntity
  8
0
100
AcDbLine
 10
-18.62482393549044
 20
482.7226646396538
 30
0.0
 11
-18.62482393541722
 21
426.7226646396502
 31
0.0
  0
LINE
  5
69C
330
1F
100
AcDbEntity
  8
0
  6
ByBlock
100
AcDbLine
 10
113.3751760645477
 20
443.7226646398314
 30
0.0
 11
113.3751760644954
 21
482.7226646398299
 31
0.0
  0
LINE
  5
69D
330
1F
100
AcDbEntity
  8
0
  6
ByBlock
100
AcDbLine
 10
-18.62482393549044
 20
482.7226646396538
 30
0.0
 11
114.3751760644954
 21
482.7226646398314
 31
0.0
  0
LINE
  5
69E
330
1F
100
AcDbEntity
  8
0
  6
ByBlock
100
AcDbLine
 10
114.3751760644954
 20
482.7226646398314
 30
0.0
 11
114.3751760645477
 21
443.7226646398314
 31
0.0
  0
LINE
  5
69F
330
1F
100
AcDbEntity
  8
0
  6
ByBlock
100
AcDbLine
 10
112.3751760645507
 20
441.7226646398287
 30
0.0
 11
95.37517606454867
 21
441.7226646398059
 31
0.0
  0
ARC
  5
6A0
330
1F
100
AcDbEntity
  8
0
  6
ByBlock
100
AcDbCircle
 10
112.3751760645477
 20
443.7226646398287
 30
0.0
 40
2.0
100
AcDbArc
 50
270.0
 51
0.0000000001302755
  0
LINE
  5
6A1
330
1F
100
AcDbEntity
  8
0
  6
ByBlock
100
AcDbLine
 10
91.37517606458368
 20
410.7226646397622
 30
0.0
 11
83.97346177992586
 21
410.7226646397625
 31
0.0
  0
LINE
  5
6A2
330
1F
100
AcDbEntity
  8
0
  6
ByBlock
100
AcDbLine
 10
22.77689034912464
 20
410.7226646397625
 30
0.0
 11
15.37517606458277
 21
410.7226646397622
 31
0.0
  0
DIMENSION
  5
6A3
330
1F
100
AcDbEntity
  8
AM_5
100
AcDbDimension
  2
*D19
 10
93.37517606445363
 20
504.8930940324123
 30
0.0
 11
54.46524614155965
 21
504.8930940324123
 31
0.0
 70
   160
 71
     5
 42
79.99999999990109
  3
AM_DIN$0
100
AcDbAlignedDimension
 13
13.37517606455253
 23
440.7226646399283
 33
0.0
 14
93.37517606445363
 24
440.7226646398185
 34
0.0
 50
180.0
100
AcDbRotatedDimension
1001
ACAD_DSTYLE_DIMINSPECT
1070
   396
1000
100%
1070
   395
1000

1070
   394
1070
    33
1070
   393
1070
     0
1001
ACAD
1000
DSTYLE
1002
{
1070
    41
1040
7.0
1070
   140
1040
10.0
1070
   271
1070
     0
1002
}
  0
LINE
  5
6A4
330
1F
100
AcDbEntity
  8
0
100
AcDbLine
 10
78.37517606451661
 20
315.7340932110244
 30
0.0
 11
28.3751760645157
 21
315.7340932110244
 31
0.0
  0
LINE
  5
6A5
330
1F
100
AcDbEntity
  8
0
100
AcDbLine
 10
78.37517606451775
 20
317.7329503541319
 30
0.0
 11
28.37517606451661
 21
317.7329503541319
 31
0.0
  0
LINE
  5
6A6
330
1F
100
AcDbEntity
  8
0
100
AcDbLine
 10
78.37517606451661
 20
315.7340932110244
 30
0.0
 11
78.3751760645257
 21
335.7226646398081
 31
0.0
  0
LINE
  5
6A7
330
1F
100
AcDbEntity
  8
0
100
AcDbLine
 10
28.3751760645157
 20
315.7340932110244
 30
0.0
 11
28.37517606452479
 21
335.7226646397412
 31
0.0
  0
LINE
  5
6A8
330
1F
100
AcDbEntity
  8
0
100
AcDbLine
 10
73.37517606452479
 20
410.6980932109122
 30
0.0
 11
73.37517606452479
 21
353.6980932109125
 31
0.0
  0
LINE
  5
6A9
330
1F
100
AcDbEntity
  8
0
100
AcDbLine
 10
73.37517606452479
 20
353.6980932109125
 30
0.0
 11
33.37517606452479
 21
353.6980932109125
 31
0.0
  0
LINE
  5
6AA
330
1F
100
AcDbEntity
  8
0
100
AcDbLine
 10
33.37517606452479
 20
353.6980932109125
 30
0.0
 11
33.37517606452479
 21
410.6980932109122
 31
0.0
  0
LINE
  5
6AB
330
1F
100
AcDbEntity
  8
0
100
AcDbLine
 10
71.87517606452479
 20
410.6980932109122
 30
0.0
 11
71.87517606452479
 21
353.6980932109125
 31
0.0
  0
LINE
  5
6AC
330
1F
100
AcDbEntity
  8
0
100
AcDbLine
 10
34.8751760645248
 20
353.6980932109125
 30
0.0
 11
34.8751760645248
 21
410.6980932109122
 31
0.0
  0
HATCH
  5
6AD
330
1F
100
AcDbEntity
  8
8
100
AcDbHatch
 10
0.0
 20
0.0
 30
0.0
210
0.0
220
0.0
230
1.0
  2
LINE
 70
     0
 71
     0
 91
        4
 92
        7
 72
     0
 73
     1
 93
        6
 10
80.87517606452479
 20
400.6980932109124
 10
80.40220309155188
 20
403.5359310487502
 10
81.3751760645248
 20
403.6980932109124
 10
81.87517606452479
 20
400.6980932109124
 10
81.87517606452479
 20
379.2141908229228
 10
80.87517606452479
 20
379.4704572403105
 97
        0
 92
        7
 72
     0
 73
     1
 93
        4
 10
80.87517606452479
 20
379.47045724031
 10
81.87517606452479
 20
379.2141908229228
 10
81.87517606452479
 20
366.0348701486403
 10
80.87517606452479
 20
366.2911365660275
 97
        0
 92
        7
 72
     1
 73
     1
 93
        8
 10
80.87517606452479
 20
366.2911365660275
 42
0.0
 10
81.87517606452479
 20
366.0348701486403
 42
0.0
 10
81.87517606452479
 20
344.6980932109125
 42
-0.4142135623730951
 10
75.87517606452479
 20
338.6980932109125
 42
0.0
 10
53.37517606452479
 20
338.6980932109125
 42
0.0
 10
53.37517606452479
 20
339.6980932109127
 42
0.0
 10
75.87517606452479
 20
339.6980932109127
 42
0.4142135623730951
 10
80.87517606452479
 20
344.6980932109125
 42
0.0
 97
        0
 92
        7
 72
     1
 73
     1
 93
       10
 10
24.8751760645248
 20
344.6980932109125
 42
0.0
 10
24.8751760645248
 20
400.6980932109124
 42
0.0
 10
25.3751760645248
 20
403.6980932109124
 42
0.0
 10
26.34814903749748
 20
403.5359310487502
 42
0.0
 10
25.87517606452479
 20
400.6980932109124
 42
0.0
 10
25.87517606452479
 20
344.6980932109125
 42
0.4142135623730951
 10
30.87517606452479
 20
339.6980932109127
 42
0.0
 10
53.37517606452479
 20
339.6980932109127
 42
0.0
 10
53.37517606452479
 20
338.6980932109125
 42
0.0
 10
30.87517606452479
 20
338.6980932109125
 42
-0.4142135623730951
 97
        0
 75
     0
 76
     1
 52
45.0
 41
1.0
 77
     0
 78
     1
 53
135.0
 43
171.4387830594016
 44
210.9837338733707
 45
2.245064030267287
 46
2.245064030267287
 79
     0
 47
0.144641785732262
 98
        4
 10
81.55372297050575
 20
397.3454918952007
 10
81.40901749961859
 20
369.8635505988195
 10
81.26431453055579
 20
362.0528947624371
 10
46.82492283141482
 20
339.3441341438545
  0
LINE
  5
6AE
330
1F
100
AcDbEntity
  8
0
100
AcDbLine
 10
81.87517606452479
 20
400.6980932109124
 30
0.0
 11
81.87517606452479
 21
344.6980932109125
 31
0.0
  0
LINE
  5
6AF
330
1F
100
AcDbEntity
  8
0
100
AcDbLine
 10
24.8751760645248
 20
344.6980932109125
 30
0.0
 11
24.8751760645248
 21
400.6980932109124
 31
0.0
  0
LINE
  5
6B0
330
1F
100
AcDbEntity
  8
0
100
AcDbLine
 10
75.87517606452479
 20
338.6980932109125
 30
0.0
 11
30.87517606452479
 21
338.6980932109125
 31
0.0
  0
LINE
  5
6B1
330
1F
100
AcDbEntity
  8
0
100
AcDbLine
 10
33.37517606452479
 20
403.6980932109124
 30
0.0
 11
25.3751760645248
 21
403.6980932109124
 31
0.0
  0
LINE
  5
6B2
330
1F
100
AcDbEntity
  8
0
100
AcDbLine
 10
85.87517606452479
 20
414.1980932109125
 30
0.0
 11
85.87517606452479
 21
412.6980932109124
 31
0.0
  0
LINE
  5
6B3
330
1F
100
AcDbEntity
  8
0
100
AcDbLine
 10
89.87517606452479
 20
412.6980932109124
 30
0.0
 11
86.87517606452479
 21
412.6980932109124
 31
0.0
  0
LINE
  5
6B4
330
1F
100
AcDbEntity
  8
0
100
AcDbLine
 10
20.87517606452479
 20
412.6980932109124
 30
0.0
 11
20.87517606452479
 21
414.1980932109125
 31
0.0
  0
LINE
  5
6B5
330
1F
100
AcDbEntity
  8
0
100
AcDbLine
 10
20.87517606452479
 20
414.1980932109125
 30
0.0
 11
85.87517606452479
 21
414.1980932109125
 31
0.0
  0
CIRCLE
  5
6B6
330
1F
100
AcDbEntity
  8
0
100
AcDbCircle
 10
53.37517606452479
 20
411.1980932109122
 30
0.0
 40
1.5
  0
LINE
  5
6B7
330
1F
100
AcDbEntity
  8
7A
100
AcDbLine
 10
57.87517606452479
 20
411.1980932109122
 30
0.0
 11
48.8751760645248
 21
411.1980932109122
 31
0.0
1001
GENIUS_GENOBJ-N-CEN_13
1002
{
1000
OWNER
1000
GEN
1002
}
1001
GENIUS_GENODEF_13
1002
{
1000
HIER
1070
     0
1002
}
1002
{
1000
MANEDIT
1070
     0
1002
}
1002
{
1000
NOSEL
1070
     0
1002
}
1002
{
1000
BEHIND
1070
     0
1002
}
1002
{
1000
OTHER
1070
     0
1002
}
1002
{
1000
REACTOR
1002
}
  0
LINE
  5
6B8
330
1F
100
AcDbEntity
  8
0
100
AcDbLine
 10
24.8751760645248
 20
416.6980932109124
 30
0.0
 11
81.87517606452479
 21
416.6980932109124
 31
0.0
  0
LINE
  5
6B9
330
1F
100
AcDbEntity
  8
0
100
AcDbLine
 10
81.87517606452479
 20
416.6980932109124
 30
0.0
 11
81.87517606452479
 21
414.1980932109125
 31
0.0
  0
LINE
  5
6BA
330
1F
100
AcDbEntity
  8
0
100
AcDbLine
 10
81.87517606452479
 20
412.6980932109124
 30
0.0
 11
81.87517606452479
 21
410.1980932109125
 31
0.0
  0
LINE
  5
6BB
330
1F
100
AcDbEntity
  8
0
100
AcDbLine
 10
24.8751760645248
 20
416.6980932109124
 30
0.0
 11
24.8751760645248
 21
414.1980932109125
 31
0.0
  0
LINE
  5
6BC
330
1F
100
AcDbEntity
  8
0
100
AcDbLine
 10
24.8751760645248
 20
412.6980932109124
 30
0.0
 11
24.8751760645248
 21
410.1980932109125
 31
0.0
  0
LINE
  5
6BD
330
1F
100
AcDbEntity
  8
0
100
AcDbLine
 10
33.37517606452479
 20
410.1980932109125
 30
0.0
 11
24.8751760645248
 21
410.1980932109125
 31
0.0
  0
LINE
  5
6BE
330
1F
100
AcDbEntity
  8
0
100
AcDbLine
 10
86.87517606452479
 20
414.1980932109125
 30
0.0
 11
86.87517606452479
 21
412.6980932109124
 31
0.0
  0
LINE
  5
6BF
330
1F
100
AcDbEntity
  8
0
100
AcDbLine
 10
89.87517606452479
 20
414.1980932109125
 30
0.0
 11
87.8751760645248
 21
415.1980932109122
 31
0.0
  0
LINE
  5
6C0
330
1F
100
AcDbEntity
  8
0
100
AcDbLine
 10
87.8751760645248
 20
415.1980932109122
 30
0.0
 11
81.87517606452479
 21
416.6980932109124
 31
0.0
  0
LINE
  5
6C1
330
1F
100
AcDbEntity
  8
0
100
AcDbLine
 10
87.8751760645248
 20
411.6980932109124
 30
0.0
 11
81.87517606452479
 21
410.1980932109125
 31
0.0
  0
LINE
  5
6C2
330
1F
100
AcDbEntity
  8
0
100
AcDbLine
 10
89.87517606452479
 20
412.6980932109124
 30
0.0
 11
87.8751760645248
 21
411.6980932109124
 31
0.0
  0
LINE
  5
6C3
330
1F
100
AcDbEntity
  8
0
100
AcDbLine
 10
86.87517606452479
 20
414.1980932109125
 30
0.0
 11
89.87517606452479
 21
414.1980932109125
 31
0.0
  0
LINE
  5
6C4
330
1F
100
AcDbEntity
  8
0
100
AcDbLine
 10
85.87517606452479
 20
412.6980932109124
 30
0.0
 11
75.37517606452479
 21
412.6980932109124
 31
0.0
  0
LINE
  5
6C5
330
1F
100
AcDbEntity
  8
0
100
AcDbLine
 10
16.87517606452479
 20
412.6980932109124
 30
0.0
 11
19.87517606452479
 21
412.6980932109124
 31
0.0
  0
LINE
  5
6C6
330
1F
100
AcDbEntity
  8
0
100
AcDbLine
 10
19.87517606452479
 20
414.1980932109125
 30
0.0
 11
16.87517606452479
 21
414.1980932109125
 31
0.0
  0
LINE
  5
6C7
330
1F
100
AcDbEntity
  8
0
100
AcDbLine
 10
16.87517606452479
 20
412.6980932109124
 30
0.0
 11
18.87517606452479
 21
411.6980932109124
 31
0.0
  0
LINE
  5
6C8
330
1F
100
AcDbEntity
  8
0
100
AcDbLine
 10
16.87517606452479
 20
414.1980932109125
 30
0.0
 11
18.87517606452479
 21
415.1980932109122
 31
0.0
  0
LINE
  5
6C9
330
1F
100
AcDbEntity
  8
0
100
AcDbLine
 10
18.87517606452479
 20
415.1980932109122
 30
0.0
 11
24.8751760645248
 21
416.6980932109124
 31
0.0
  0
LINE
  5
6CA
330
1F
100
AcDbEntity
  8
0
100
AcDbLine
 10
18.87517606452479
 20
411.6980932109124
 30
0.0
 11
24.8751760645248
 21
410.1980932109125
 31
0.0
  0
HATCH
  5
6CB
330
1F
100
AcDbEntity
  8
8
100
AcDbHatch
 10
0.0
 20
0.0
 30
0.0
210
0.0
220
0.0
230
1.0
  2
NET
 70
     0
 71
     0
 91
        2
 92
        7
 72
     0
 73
     1
 93
       12
 10
89.87517606452479
 20
412.6980932109124
 10
87.8751760645248
 20
411.6980932109124
 10
81.87517606452479
 20
410.1980932109125
 10
81.87517606452479
 20
412.6980932109124
 10
85.87517606452479
 20
412.6980932109124
 10
85.87517606452479
 20
414.1980932109125
 10
81.87517606452479
 20
414.1980932109125
 10
81.87517606452479
 20
416.6980932109124
 10
87.8751760645248
 20
415.1980932109122
 10
89.87517606452479
 20
414.1980932109125
 10
86.87517606452479
 20
414.1980932109125
 10
86.87517606452479
 20
412.6980932109124
 97
        0
 92
        7
 72
     0
 73
     1
 93
       12
 10
20.87517606452479
 20
412.6980932109124
 10
24.8751760645248
 20
412.6980932109124
 10
24.8751760645248
 20
410.1980932109125
 10
18.87517606452479
 20
411.6980932109124
 10
16.87517606452479
 20
412.6980932109124
 10
19.87517606452479
 20
412.6980932109124
 10
19.87517606452479
 20
414.1980932109125
 10
16.87517606452479
 20
414.1980932109125
 10
18.87517606452479
 20
415.1980932109122
 10
24.8751760645248
 20
416.6980932109124
 10
24.8751760645248
 20
414.1980932109125
 10
20.87517606452479
 20
414.1980932109125
 97
        0
 75
     0
 76
     1
 52
135.0
 41
0.5
 77
     0
 78
     2
 53
45.0
 43
171.4387830594016
 44
211.8937041664731
 45
1.122532015133643
 46
-1.122532015133643
 79
     0
 53
315.0
 43
171.4387830594016
 44
211.8937041664731
 45
-1.122532015133643
 46
-1.122532015133643
 79
     0
 47
0.1492324330864038
 98
        2
 10
83.3427869211016
 20
411.6637364668167
 10
22.42177903857351
 20
411.5145030215906
  0
LINE
  5
6CC
330
1F
100
AcDbEntity
  8
0
100
AcDbLine
 10
80.87517606452479
 20
400.6980932109124
 30
0.0
 11
80.87517606452479
 21
344.6980932109125
 31
0.0
  0
LINE
  5
6CD
330
1F
100
AcDbEntity
  8
0
100
AcDbLine
 10
75.87517606452479
 20
339.6980932109127
 30
0.0
 11
30.87517606452479
 21
339.6980932109127
 31
0.0
  0
LINE
  5
6CE
330
1F
100
AcDbEntity
  8
0
100
AcDbLine
 10
25.87517606452479
 20
344.6980932109125
 30
0.0
 11
25.87517606452479
 21
400.6980932109124
 31
0.0
  0
ARC
  5
6CF
330
1F
100
AcDbEntity
  8
0
100
AcDbCircle
 10
75.87517606452479
 20
344.6980932109125
 30
0.0
 40
5.0
100
AcDbArc
 50
270.0
 51
0.0
1001
GENIUS_GENOBJ-N-FIL_13
1002
{
1000
OWNER
1000
GEN
1002
}
1001
GENIUS_GENODEF_13
1002
{
1000
HIER
1070
     0
1002
}
1002
{
1000
MANEDIT
1070
     0
1002
}
1002
{
1000
NOSEL
1070
     0
1002
}
1002
{
1000
BEHIND
1070
     0
1002
}
1002
{
1000
OTHER
1070
     0
1002
}
1002
{
1000
REACTOR
1002
}
  0
ARC
  5
6D0
330
1F
100
AcDbEntity
  8
0
100
AcDbCircle
 10
30.87517606452479
 20
344.6980932109125
 30
0.0
 40
5.0
100
AcDbArc
 50
180.0
 51
270.0
1001
GENIUS_GENOBJ-N-FIL_13
1002
{
1000
OWNER
1000
GEN
1002
}
1001
GENIUS_GENODEF_13
1002
{
1000
HIER
1070
     0
1002
}
1002
{
1000
MANEDIT
1070
     0
1002
}
1002
{
1000
NOSEL
1070
     0
1002
}
1002
{
1000
BEHIND
1070
     0
1002
}
1002
{
1000
OTHER
1070
     0
1002
}
1002
{
1000
REACTOR
1002
}
  0
ARC
  5
6D1
330
1F
100
AcDbEntity
  8
0
100
AcDbCircle
 10
75.87517606452479
 20
344.6980932109125
 30
0.0
 40
6.0
100
AcDbArc
 50
270.0
 51
0.0
1001
GENIUS_GENOBJ-N-FIL_13
1002
{
1000
OWNER
1000
GEN
1002
}
1001
GENIUS_GENODEF_13
1002
{
1000
HIER
1070
     0
1002
}
1002
{
1000
MANEDIT
1070
     0
1002
}
1002
{
1000
NOSEL
1070
     0
1002
}
1002
{
1000
BEHIND
1070
     0
1002
}
1002
{
1000
OTHER
1070
     0
1002
}
1002
{
1000
REACTOR
1002
}
  0
ARC
  5
6D2
330
1F
100
AcDbEntity
  8
0
100
AcDbCircle
 10
30.87517606452479
 20
344.6980932109125
 30
0.0
 40
6.0
100
AcDbArc
 50
180.0
 51
270.0
1001
GENIUS_GENODEF_13
1002
{
1000
HIER
1070
     0
1002
}
1002
{
1000
MANEDIT
1070
     0
1002
}
1002
{
1000
NOSEL
1070
     0
1002
}
1002
{
1000
BEHIND
1070
     0
1002
}
1002
{
1000
OTHER
1070
     0
1002
}
1002
{
1000
REACTOR
1002
}
1001
GENIUS_GENOBJ-N-FIL_13
1002
{
1000
OWNER
1000
GEN
1002
}
  0
ARC
  5
6D3
330
1F
100
AcDbEntity
  8
0
100
AcDbCircle
 10
75.37517606452479
 20
410.6980932109122
 30
0.0
 40
2.0
100
AcDbArc
 50
90.0
 51
180.0
1001
GENIUS_GENODEF_13
1002
{
1000
HIER
1070
     0
1002
}
1002
{
1000
MANEDIT
1070
     0
1002
}
1002
{
1000
NOSEL
1070
     0
1002
}
1002
{
1000
BEHIND
1070
     0
1002
}
1002
{
1000
OTHER
1070
     0
1002
}
1002
{
1000
REACTOR
1002
}
1001
GENIUS_GENOBJ-N-FIL_13
1002
{
1000
OWNER
1000
GEN
1002
}
  0
LINE
  5
6D4
330
1F
100
AcDbEntity
  8
0
100
AcDbLine
 10
20.87517606452479
 20
412.6980932109124
 30
0.0
 11
31.3751760645248
 21
412.6980932109124
 31
0.0
  0
ARC
  5
6D5
330
1F
100
AcDbEntity
  8
0
100
AcDbCircle
 10
31.3751760645248
 20
410.6980932109122
 30
0.0
 40
2.0
100
AcDbArc
 50
0.0
 51
90.0
1001
GENIUS_GENODEF_13
1002
{
1000
HIER
1070
     0
1002
}
1002
{
1000
MANEDIT
1070
     0
1002
}
1002
{
1000
NOSEL
1070
     0
1002
}
1002
{
1000
BEHIND
1070
     0
1002
}
1002
{
1000
OTHER
1070
     0
1002
}
1002
{
1000
REACTOR
1002
}
1001
GENIUS_GENOBJ-N-FIL_13
1002
{
1000
OWNER
1000
GEN
1002
}
  0
ARC
  5
6D6
330
1F
100
AcDbEntity
  8
0
100
AcDbCircle
 10
75.37517606452479
 20
410.6980932109122
 30
0.0
 40
3.5
100
AcDbArc
 50
90.0
 51
180.0
1001
GENIUS_GENODEF_13
1002
{
1000
HIER
1070
     0
1002
}
1002
{
1000
MANEDIT
1070
     0
1002
}
1002
{
1000
NOSEL
1070
     0
1002
}
1002
{
1000
BEHIND
1070
     0
1002
}
1002
{
1000
OTHER
1070
     0
1002
}
1002
{
1000
REACTOR
1002
}
1001
GENIUS_GENOBJ-N-FIL_13
1002
{
1000
OWNER
1000
GEN
1002
}
  0
ARC
  5
6D7
330
1F
100
AcDbEntity
  8
0
100
AcDbCircle
 10
31.3751760645248
 20
410.6980932109122
 30
0.0
 40
3.5
100
AcDbArc
 50
0.0
 51
90.0
1001
GENIUS_GENODEF_13
1002
{
1000
HIER
1070
     0
1002
}
1002
{
1000
MANEDIT
1070
     0
1002
}
1002
{
1000
NOSEL
1070
     0
1002
}
1002
{
1000
BEHIND
1070
     0
1002
}
1002
{
1000
OTHER
1070
     0
1002
}
1002
{
1000
REACTOR
1002
}
1001
GENIUS_GENOBJ-N-FIL_13
1002
{
1000
OWNER
1000
GEN
1002
}
  0
HATCH
  5
6D8
330
1F
100
AcDbEntity
  8
8
100
AcDbHatch
 10
0.0
 20
0.0
 30
0.0
210
0.0
220
0.0
230
1.0
  2
_U
 70
     0
 71
     0
 91
        1
 92
        1
 93
        8
 72
     1
 10
33.37517606452479
 20
353.6980932109125
 11
33.37517606452479
 21
410.6980932109122
 72
     2
 10
31.3751760645248
 20
410.6980932109122
 40
2.0
 50
360.0
 51
450.0
 73
     1
 72
     1
 10
31.3751760645248
 20
412.6980932109124
 11
20.87517606452479
 21
412.6980932109124
 72
     1
 10
20.87517606452479
 20
412.6980932109124
 11
20.87517606452479
 21
414.1980932109125
 72
     1
 10
20.87517606452479
 20
414.1980932109125
 11
31.3751760645248
 21
414.1980932109125
 72
     2
 10
31.3751760645248
 20
410.6980932109122
 40
3.5
 50
-90.0
 51
0.0
 73
     0
 72
     1
 10
34.8751760645248
 20
410.6980932109122
 11
34.8751760645248
 21
353.6980932109125
 72
     1
 10
34.8751760645248
 20
353.6980932109125
 11
33.37517606452479
 21
353.6980932109125
 97
        0
 75
     0
 76
     0
 52
45.0
 41
5.0
 77
     0
 78
     1
 53
135.0
 43
171.4387830594016
 44
210.9837338733707
 45
3.535533905932736
 46
3.535533905932736
 79
     0
 98
        1
 10
171.4387830594016
 20
210.9837338733707
1001
GENIUS_GENODEF_13
1002
{
1000
HIER
1070
     0
1002
}
1002
{
1000
MANEDIT
1070
     0
1002
}
1002
{
1000
NOSEL
1070
     0
1002
}
1002
{
1000
BEHIND
1070
     0
1002
}
1002
{
1000
OTHER
1070
     0
1002
}
1002
{
1000
REACTOR
1002
}
1001
GENIUS_GENOBJ-N-HTC_13
1002
{
1000
OWNER
1000
GEN
1002
}
1001
GENIUS_GENHATCH_13
1002
{
1000
DATA
1040
45.0
1042
-5.0
1000
_U
1070
     0
1011
34.14549713543579
1021
393.6652937880499
1031
0.0
1002
}
1002
{
1000
UCS
1010
0.0
1020
0.0
1030
0.0
1010
1.0
1020
0.0
1030
0.0
1010
0.0
1020
1.0
1030
0.0
1002
}
  0
HATCH
  5
6D9
330
1F
100
AcDbEntity
  8
8
100
AcDbHatch
 10
0.0
 20
0.0
 30
0.0
210
0.0
220
0.0
230
1.0
  2
_U
 70
     0
 71
     0
 91
        1
 92
        1
 93
        8
 72
     1
 10
75.37517606452479
 20
414.1980932109125
 11
85.87517606452479
 21
414.1980932109125
 72
     1
 10
85.87517606452479
 20
414.1980932109125
 11
85.87517606452479
 21
412.6980932109127
 72
     1
 10
85.87517606452479
 20
412.6980932109124
 11
75.37517606452479
 21
412.6980932109124
 72
     2
 10
75.37517606452479
 20
410.6980932109122
 40
2.0
 50
450.0
 51
540.0
 73
     1
 72
     1
 10
73.37517606452479
 20
410.6980932109122
 11
73.37517606452479
 21
353.6980932109125
 72
     1
 10
73.37517606452479
 20
353.6980932109125
 11
71.87517606452479
 21
353.6980932109125
 72
     1
 10
71.87517606452479
 20
353.6980932109125
 11
71.87517606452479
 21
410.6980932109122
 72
     2
 10
75.37517606452479
 20
410.6980932109122
 40
3.5
 50
-180.0
 51
-90.0
 73
     0
 97
        0
 75
     0
 76
     0
 52
45.0
 41
5.0
 77
     0
 78
     1
 53
135.0
 43
171.4387830594016
 44
210.9837338733707
 45
3.535533905932736
 46
3.535533905932736
 79
     0
 98
        1
 10
171.4387830594016
 20
210.9837338733707
1001
GENIUS_GENODEF_13
1002
{
1000
HIER
1070
     0
1002
}
1002
{
1000
MANEDIT
1070
     0
1002
}
1002
{
1000
NOSEL
1070
     0
1002
}
1002
{
1000
BEHIND
1070
     0
1002
}
1002
{
1000
OTHER
1070
     0
1002
}
1002
{
1000
REACTOR
1002
}
1001
GENIUS_GENOBJ-N-HTC_13
1002
{
1000
OWNER
1000
GEN
1002
}
1001
GENIUS_GENHATCH_13
1002
{
1000
DATA
1040
45.0
1042
-5.0
1000
_U
1070
     0
1011
72.51244403442479
1021
391.4457544692189
1031
0.0
1002
}
1002
{
1000
UCS
1010
0.0
1020
0.0
1030
0.0
1010
1.0
1020
0.0
1030
0.0
1010
0.0
1020
1.0
1030
0.0
1002
}
  0
LINE
  5
6DA
330
1F
100
AcDbEntity
  8
0
100
AcDbLine
 10
81.87517606452479
 20
403.6980932109124
 30
0.0
 11
80.87517606452479
 21
403.6980932109124
 31
0.0
  0
LINE
  5
6DB
330
1F
100
AcDbEntity
  8
0
100
AcDbLine
 10
81.87517606452479
 20
412.6980932109124
 30
0.0
 11
75.37517606452479
 21
412.6980932109124
 31
0.0
  0
LINE
  5
6DC
330
1F
100
AcDbEntity
  8
0
100
AcDbLine
 10
81.87517606452479
 20
403.6980932109124
 30
0.0
 11
80.11447150870958
 21
403.6980932109124
 31
0.0
  0
LINE
  5
6DD
330
1F
100
AcDbEntity
  8
0
100
AcDbLine
 10
73.37517606452479
 20
410.6980932109122
 30
0.0
 11
73.37517606452479
 21
392.6980932109125
 31
0.0
  0
LINE
  5
6DE
330
1F
100
AcDbEntity
  8
0
100
AcDbLine
 10
80.3751760645248
 20
401.2180932109124
 30
0.0
 11
80.3751760645248
 21
399.2180932109125
 31
0.0
  0
LINE
  5
6DF
330
1F
100
AcDbEntity
  8
0
100
AcDbLine
 10
73.37517606452479
 20
392.6980932109125
 30
0.0
 11
76.61085230940853
 21
392.6980932109125
 31
0.0
  0
LINE
  5
6E0
330
1F
100
AcDbEntity
  8
0
100
AcDbLine
 10
81.87517606452479
 20
403.6980932109124
 30
0.0
 11
81.87517606452479
 21
412.6980932109124
 31
0.0
  0
LINE
  5
6E1
330
1F
100
AcDbEntity
  8
0
100
AcDbLine
 10
80.3751760645248
 20
401.2180932109124
 30
0.0
 11
79.65087958142658
 21
403.0107899142047
 31
0.0
  0
ARC
  5
6E2
330
1F
100
AcDbEntity
  8
0
100
AcDbCircle
 10
80.11447150870958
 20
403.1980932109124
 30
0.0
 40
0.5
100
AcDbArc
 50
90.0
 51
201.9999999999892
  0
LINE
  5
6E3
330
1F
100
AcDbEntity
  8
0
100
AcDbLine
 10
80.3751760645248
 20
399.2180932109125
 30
0.0
 11
76.61085230940853
 21
392.6980932109125
 31
0.0
  0
LINE
  5
6E4
330
1F
100
AcDbEntity
  8
0
100
AcDbLine
 10
75.37517606452479
 20
412.6980932109124
 30
0.0
 11
73.37517606452479
 21
410.6980932109122
 31
0.0
  0
LINE
  5
6E5
330
1F
100
AcDbEntity
  8
3
100
AcDbLine
 10
81.87517606452479
 20
410.1980932109125
 30
0.0
 11
73.37517606452479
 21
410.1980932109125
 31
0.0
  0
LINE
  5
6E6
330
1F
100
AcDbEntity
  8
3
100
AcDbLine
 10
80.11447150870958
 20
403.6980932109124
 30
0.0
 11
73.37517606452479
 21
403.6980932109124
 31
0.0
  0
LINE
  5
6E7
330
1F
100
AcDbEntity
  8
0
100
AcDbLine
 10
80.87517606452479
 20
400.6980932109124
 30
0.0
 11
80.40220309155188
 21
403.5359310487502
 31
0.0
  0
LINE
  5
6E8
330
1F
100
AcDbEntity
  8
0
100
AcDbLine
 10
81.87517606452479
 20
400.6980932109124
 30
0.0
 11
81.3751760645248
 21
403.6980932109124
 31
0.0
  0
LINE
  5
6E9
330
1F
100
AcDbEntity
  8
0
100
AcDbLine
 10
81.3751760645248
 20
403.6980932109124
 30
0.0
 11
80.40220309155188
 21
403.5359310487502
 31
0.0
  0
LINE
  5
6EA
330
1F
100
AcDbEntity
  8
0
100
AcDbLine
 10
80.40220309155188
 20
403.5359310487502
 30
0.0
 11
79.74587200338556
 21
403.5359310487502
 31
0.0
  0
LINE
  5
6EB
330
1F
100
AcDbEntity
  8
0
100
AcDbLine
 10
25.87517606452479
 20
400.6980932109124
 30
0.0
 11
26.34814903749748
 21
403.5359310487502
 31
0.0
  0
LINE
  5
6EC
330
1F
100
AcDbEntity
  8
0
100
AcDbLine
 10
24.8751760645248
 20
400.6980932109124
 30
0.0
 11
25.3751760645248
 21
403.6980932109124
 31
0.0
  0
LINE
  5
6ED
330
1F
100
AcDbEntity
  8
0
100
AcDbLine
 10
25.3751760645248
 20
403.6980932109124
 30
0.0
 11
26.34814903749748
 21
403.5359310487502
 31
0.0
  0
LINE
  5
6EE
330
1F
100
AcDbEntity
  8
0
100
AcDbLine
 10
26.34814903749748
 20
403.5359310487502
 30
0.0
 11
33.37517606452479
 21
403.5359310487502
 31
0.0
  0
LINE
  5
6EF
330
1F
100
AcDbEntity
  8
0
100
AcDbLine
 10
1576.031457841666
 20
442.7226646398731
 30
0.0
 11
1476.031453694866
 21
442.7226646397393
 31
0.0
  0
LINE
  5
6F0
330
1F
100
AcDbEntity
  8
0
100
AcDbLine
 10
1494.031457841729
 20
423.6427975213251
 30
0.0
 11
1494.031453694874
 21
440.7226646397111
 31
0.0
  0
LINE
  5
6F1
330
1F
100
AcDbEntity
  8
0
100
AcDbLine
 10
1495.031457841724
 20
423.6427975213342
 30
0.0
 11
1495.031453694971
 21
440.7226646397031
 31
0.0
  0
LINE
  5
6F2
330
1F
100
AcDbEntity
  8
0
100
AcDbLine
 10
1497.197548801378
 20
422.542157059796
 30
0.0
 11
1495.948412361873
 21
422.646251763087
 31
0.0
  0
LINE
  5
6F3
330
1F
100
AcDbEntity
  8
0
100
AcDbLine
 10
1607.031457841663
 20
427.7226646397256
 30
0.0
 11
1607.031457841664
 21
426.7226646397344
 31
0.0
  0
LINE
  5
6F4
330
1F
100
AcDbEntity
  8
0
100
AcDbLine
 10
1578.031457841638
 20
426.7226646397618
 30
0.0
 11
1607.031457841664
 21
426.7226646397361
 31
0.0
  0
LINE
  5
6F5
330
1F
100
AcDbEntity
  8
0
100
AcDbLine
 10
1578.03145784169
 20
427.7226646397617
 30
0.0
 11
1607.031457841663
 21
427.7226646397361
 31
0.0
  0
LINE
  5
6F6
330
1F
100
AcDbEntity
  8
0
100
AcDbLine
 10
1572.865366881967
 20
422.5421570597947
 30
0.0
 11
1574.114503321475
 21
422.646251763087
 31
0.0
  0
LINE
  5
6F7
330
1F
100
AcDbEntity
  8
0
100
AcDbLine
 10
1576.031457841623
 20
423.6427975213251
 30
0.0
 11
1576.031457841679
 21
441.722664639873
 31
0.0
  0
LINE
  5
6F8
330
1F
100
AcDbEntity
  8
0
100
AcDbLine
 10
1575.031457841624
 20
423.6427975213274
 30
0.0
 11
1575.031457841683
 21
441.7226646398717
 31
0.0
  0
LINE
  5
6F9
330
1F
100
AcDbEntity
  8
0
100
AcDbLine
 10
1577.031457841653
 20
441.7226646398708
 30
0.0
 11
1577.03145784169
 21
428.7226646397589
 31
0.0
  0
LINE
  5
6FA
330
1F
100
AcDbEntity
  8
7A
100
AcDbLine
 10
1535.031457841736
 20
329.8509296182571
 30
0.0
 11
1535.03145784172
 21
359.3055043019776
 31
0.0
1001
GENIUS_GENOBJ-N-CEN_13
1002
{
1000
OWNER
1000
GEN
1002
}
1001
GENIUS_GENODEF_13
1002
{
1000
HIER
1070
     0
1002
}
1002
{
1000
MANEDIT
1070
     0
1002
}
1002
{
1000
NOSEL
1070
     0
1002
}
1002
{
1000
BEHIND
1070
     0
1002
}
1002
{
1000
OTHER
1070
     0
1002
}
1002
{
1000
REACTOR
1002
}
  0
LINE
  5
6FB
330
1F
100
AcDbEntity
  8
0
100
AcDbLine
 10
1497.031457841672
 20
410.7226646397621
 30
0.0
 11
1497.031457841672
 21
343.6980932109141
 31
0.0
1001
GENIUS_GENODEF_13
1002
{
1000
HIER
1070
     0
1002
}
1002
{
1000
MANEDIT
1070
     0
1002
}
1002
{
1000
NOSEL
1070
     0
1002
}
1002
{
1000
BEHIND
1070
     0
1002
}
1002
{
1000
REACTOR
1002
}
1001
GENIUS_GENOBJ-N-CEN_13
1002
{
1000
OWNER
1000
GEN
1002
}
  0
LINE
  5
6FC
330
1F
100
AcDbEntity
  8
0
100
AcDbLine
 10
1573.031457841673
 20
410.7226646397621
 30
0.0
 11
1573.031457841673
 21
403.6980932110239
 31
0.0
1001
GENIUS_GENODEF_13
1002
{
1000
HIER
1070
     0
1002
}
1002
{
1000
MANEDIT
1070
     0
1002
}
1002
{
1000
NOSEL
1070
     0
1002
}
1002
{
1000
BEHIND
1070
     0
1002
}
1002
{
1000
REACTOR
1002
}
1001
GENIUS_GENOBJ-N-CEN_13
1002
{
1000
OWNER
1000
GEN
1002
}
  0
LINE
  5
6FD
330
1F
100
AcDbEntity
  8
7A
100
AcDbLine
 10
1565.819629578174
 20
378.6980932110247
 30
0.0
 11
1638.406633449395
 21
378.6980932110247
 31
0.0
1001
GENIUS_GENOBJ-N-CEN_13
1002
{
1000
OWNER
1000
GEN
1002
}
1001
GENIUS_GENODEF_13
1002
{
1000
HIER
1070
     0
1002
}
1002
{
1000
MANEDIT
1070
     0
1002
}
1002
{
1000
NOSEL
1070
     0
1002
}
1002
{
1000
BEHIND
1070
     0
1002
}
1002
{
1000
OTHER
1070
     0
1002
}
1002
{
1000
REACTOR
1002
}
  0
LINE
  5
6FE
330
1F
100
AcDbEntity
  8
0
100
AcDbLine
 10
1504.031457841673
 20
336.6980932109129
 30
0.0
 11
1566.031457841674
 21
336.6980932109129
 31
0.0
  0
LINE
  5
6FF
330
1F
100
AcDbEntity
  8
0
100
AcDbLine
 10
1633.031457841673
 20
403.6980932110239
 30
0.0
 11
1633.031457841673
 21
353.6980932110247
 31
0.0
1001
GENIUS_GENODEF_13
1002
{
1000
HIER
1070
     0
1002
}
1002
{
1000
MANEDIT
1070
     0
1002
}
1002
{
1000
NOSEL
1070
     0
1002
}
1002
{
1000
BEHIND
1070
     0
1002
}
1002
{
1000
REACTOR
1002
}
1001
GENIUS_GENOBJ-N-CEN_13
1002
{
1000
OWNER
1000
GEN
1002
}
  0
LINE
  5
700
330
1F
100
AcDbEntity
  8
0
100
AcDbLine
 10
1571.031457841673
 20
403.6980932110239
 30
0.0
 11
1633.031457841673
 21
403.6980932110239
 31
0.0
1001
GENIUS_GENOBJ-N-CEN_13
1002
{
1000
OWNER
1000
GEN
1002
}
1001
GENIUS_GENODEF_13
1002
{
1000
HIER
1070
     0
1002
}
1002
{
1000
MANEDIT
1070
     0
1002
}
1002
{
1000
NOSEL
1070
     0
1002
}
1002
{
1000
BEHIND
1070
     0
1002
}
1002
{
1000
OTHER
1070
     0
1002
}
1002
{
1000
REACTOR
1002
}
  0
LINE
  5
701
330
1F
100
AcDbEntity
  8
0
100
AcDbLine
 10
1571.031457841673
 20
353.6980932110247
 30
0.0
 11
1633.031457841673
 21
353.6980932110247
 31
0.0
1001
GENIUS_GENOBJ-N-CEN_13
1002
{
1000
OWNER
1000
GEN
1002
}
1001
GENIUS_GENODEF_13
1002
{
1000
HIER
1070
     0
1002
}
1002
{
1000
MANEDIT
1070
     0
1002
}
1002
{
1000
NOSEL
1070
     0
1002
}
1002
{
1000
BEHIND
1070
     0
1002
}
1002
{
1000
OTHER
1070
     0
1002
}
1002
{
1000
REACTOR
1002
}
  0
ARC
  5
702
330
1F
100
AcDbEntity
  8
0
100
AcDbCircle
 10
1622.114791175007
 20
378.6980932110247
 30
0.0
 40
55.08333333333284
100
AcDbArc
 50
154.7463521009392
 51
205.2536478990607
  0
LINE
  5
703
330
1F
100
AcDbEntity
  8
0
100
AcDbLine
 10
1573.031457841673
 20
353.6980932110247
 30
0.0
 11
1573.031457841675
 21
343.6980932109141
 31
0.0
1001
GENIUS_GENODEF_13
1002
{
1000
HIER
1070
     0
1002
}
1002
{
1000
MANEDIT
1070
     0
1002
}
1002
{
1000
NOSEL
1070
     0
1002
}
1002
{
1000
BEHIND
1070
     0
1002
}
1002
{
1000
REACTOR
1002
}
1001
GENIUS_GENOBJ-N-CEN_13
1002
{
1000
OWNER
1000
GEN
1002
}
  0
LINE
  5
704
330
1F
100
AcDbEntity
  8
0
100
AcDbLine
 10
1572.295883006408
 20
402.1980932110245
 30
0.0
 11
1633.031457841673
 21
402.1980932110245
 31
0.0
1001
GENIUS_GENOBJ-N-CEN_13
1002
{
1000
OWNER
1000
GEN
1002
}
1001
GENIUS_GENODEF_13
1002
{
1000
HIER
1070
     0
1002
}
1002
{
1000
MANEDIT
1070
     0
1002
}
1002
{
1000
NOSEL
1070
     0
1002
}
1002
{
1000
BEHIND
1070
     0
1002
}
1002
{
1000
OTHER
1070
     0
1002
}
1002
{
1000
REACTOR
1002
}
  0
LINE
  5
705
330
1F
100
AcDbEntity
  8
0
100
AcDbLine
 10
1572.295883006408
 20
355.1980932110246
 30
0.0
 11
1633.031457841673
 21
355.1980932110246
 31
0.0
1001
GENIUS_GENOBJ-N-CEN_13
1002
{
1000
OWNER
1000
GEN
1002
}
1001
GENIUS_GENODEF_13
1002
{
1000
HIER
1070
     0
1002
}
1002
{
1000
MANEDIT
1070
     0
1002
}
1002
{
1000
NOSEL
1070
     0
1002
}
1002
{
1000
BEHIND
1070
     0
1002
}
1002
{
1000
OTHER
1070
     0
1002
}
1002
{
1000
REACTOR
1002
}
  0
ARC
  5
706
330
1F
100
AcDbEntity
  8
0
100
AcDbCircle
 10
1631.054097417613
 20
378.6980932110247
 30
0.0
 40
65.02089865314991
100
AcDbArc
 50
157.3878080414822
 51
202.6121919585178
  0
LINE
  5
707
330
1F
100
AcDbEntity
  8
0
100
AcDbLine
 10
1571.031457841673
 20
403.6980932110239
 30
0.0
 11
1572.295883006408
 21
402.1980932110245
 31
0.0
  0
LINE
  5
708
330
1F
100
AcDbEntity
  8
0
100
AcDbLine
 10
1571.031457841673
 20
353.6980932110247
 30
0.0
 11
1572.295883006408
 21
355.1980932110246
 31
0.0
  0
LINE
  5
709
330
1F
100
AcDbEntity
  8
0
100
AcDbLine
 10
1535.072980581603
 20
418.3824048632419
 30
0.0
 11
1498.84057120687
 21
421.4017723111074
 31
0.0
  0
LINE
  5
70A
330
1F
100
AcDbEntity
  8
0
100
AcDbLine
 10
1534.989935101751
 20
418.3824048632419
 30
0.0
 11
1571.222344476474
 21
421.4017723111066
 31
0.0
  0
ARC
  5
70B
330
1F
100
AcDbEntity
  8
0
100
AcDbCircle
 10
1576.031457841666
 20
441.7226646398677
 30
0.0
 40
0.9999999999848339
100
AcDbArc
 50
359.9999999997655
 51
179.9999999997655
  0
ARC
  5
70C
330
1F
100
AcDbEntity
  8
0
100
AcDbCircle
 10
1496.031457841729
 20
423.6427975213316
 30
0.0
 40
2.0
100
AcDbArc
 50
180.0000000001563
 51
265.2363583092438
  0
ARC
  5
70D
330
1F
100
AcDbEntity
  8
0
100
AcDbCircle
 10
1574.031457841624
 20
423.6427975213316
 30
0.0
 40
2.0
100
AcDbArc
 50
274.7636416907562
 51
359.9999999997655
  0
ARC
  5
70E
330
1F
100
AcDbEntity
  8
0
100
AcDbCircle
 10
1578.03145784164
 20
428.7226646397617
 30
0.0
 40
2.0
100
AcDbArc
 50
179.9999999997655
 51
269.9999999998958
  0
ARC
  5
70F
330
1F
100
AcDbEntity
  8
0
100
AcDbCircle
 10
1496.031457841725
 20
423.6427975213316
 30
0.0
 40
1.0
100
AcDbArc
 50
179.9999999998437
 51
265.2363583092438
  0
ARC
  5
710
330
1F
100
AcDbEntity
  8
0
100
AcDbCircle
 10
1574.031457841624
 20
423.6427975213316
 30
0.0
 40
1.0
100
AcDbArc
 50
274.7636416907562
 51
359.9999999997655
  0
ARC
  5
711
330
1F
100
AcDbEntity
  8
0
100
AcDbCircle
 10
1578.03145784169
 20
428.7226646397617
 30
0.0
 40
1.0
100
AcDbArc
 50
180.0000000001302
 51
269.9999999998958
  0
ARC
  5
712
330
1F
100
AcDbEntity
  8
0
100
AcDbCircle
 10
1504.031457841673
 20
343.6980932109129
 30
0.0
 40
7.0
100
AcDbArc
 50
180.0
 51
270.0
  0
ARC
  5
713
330
1F
100
AcDbEntity
  8
0
100
AcDbCircle
 10
1566.031457841674
 20
343.6980932109129
 30
0.0
 40
7.0
100
AcDbArc
 50
270.0
 51
0.0
1001
GENIUS_GENODEF_13
1002
{
1000
HIER
1070
     0
1002
}
1002
{
1000
MANEDIT
1070
     0
1002
}
1002
{
1000
NOSEL
1070
     0
1002
}
1002
{
1000
BEHIND
1070
     0
1002
}
1002
{
1000
REACTOR
1002
}
1001
GENIUS_GENOBJ-N-CEN_13
1002
{
1000
OWNER
1000
GEN
1002
}
  0
LINE
  5
714
330
1F
100
AcDbEntity
  8
0
100
AcDbLine
 10
1571.031457841673
 20
420.5490655433064
 30
0.0
 11
1571.031457841673
 21
403.6980932110239
 31
0.0
1001
GENIUS_GENODEF_13
1002
{
1000
HIER
1070
     0
1002
}
1002
{
1000
MANEDIT
1070
     0
1002
}
1002
{
1000
NOSEL
1070
     0
1002
}
1002
{
1000
BEHIND
1070
     0
1002
}
1002
{
1000
REACTOR
1002
}
1001
GENIUS_GENOBJ-N-CEN_13
1002
{
1000
OWNER
1000
GEN
1002
}
  0
LINE
  5
715
330
1F
100
AcDbEntity
  8
0
100
AcDbLine
 10
1571.031457841673
 20
353.6980932110247
 30
0.0
 11
1571.031457841674
 21
343.6980932109141
 31
0.0
1001
GENIUS_GENODEF_13
1002
{
1000
HIER
1070
     0
1002
}
1002
{
1000
MANEDIT
1070
     0
1002
}
1002
{
1000
NOSEL
1070
     0
1002
}
1002
{
1000
BEHIND
1070
     0
1002
}
1002
{
1000
REACTOR
1002
}
1001
GENIUS_GENOBJ-N-CEN_13
1002
{
1000
OWNER
1000
GEN
1002
}
  0
ARC
  5
716
330
1F
100
AcDbEntity
  8
0
100
AcDbCircle
 10
1566.031457841674
 20
343.6980932109129
 30
0.0
 40
5.0
100
AcDbArc
 50
270.0
 51
0.0
1001
GENIUS_GENODEF_13
1002
{
1000
HIER
1070
     0
1002
}
1002
{
1000
MANEDIT
1070
     0
1002
}
1002
{
1000
NOSEL
1070
     0
1002
}
1002
{
1000
BEHIND
1070
     0
1002
}
1002
{
1000
REACTOR
1002
}
1001
GENIUS_GENOBJ-N-CEN_13
1002
{
1000
OWNER
1000
GEN
1002
}
  0
LINE
  5
717
330
1F
100
AcDbEntity
  8
0
100
AcDbLine
 10
1504.031457841673
 20
338.6980932109129
 30
0.0
 11
1566.031457841674
 21
338.6980932109129
 31
0.0
  0
ARC
  5
718
330
1F
100
AcDbEntity
  8
0
100
AcDbCircle
 10
1504.031457841673
 20
343.6980932109129
 30
0.0
 40
5.0
100
AcDbArc
 50
180.0
 51
270.0
  0
LINE
  5
719
330
1F
100
AcDbEntity
  8
0
100
AcDbLine
 10
1499.031457841672
 20
420.5490655433064
 30
0.0
 11
1499.031457841672
 21
343.6980932109129
 31
0.0
1001
GENIUS_GENODEF_13
1002
{
1000
HIER
1070
     0
1002
}
1002
{
1000
MANEDIT
1070
     0
1002
}
1002
{
1000
NOSEL
1070
     0
1002
}
1002
{
1000
BEHIND
1070
     0
1002
}
1002
{
1000
REACTOR
1002
}
1001
GENIUS_GENOBJ-N-CEN_13
1002
{
1000
OWNER
1000
GEN
1002
}
  0
LINE
  5
71A
330
1F
100
AcDbEntity
  8
0
  6
ByBlock
100
AcDbLine
 10
1497.031457841672
 20
410.7226646397621
 30
0.0
 11
1504.43317212633
 21
410.7226646397625
 31
0.0
  0
LINE
  5
71B
330
1F
100
AcDbEntity
  8
0
  6
ByBlock
100
AcDbLine
 10
1565.62974355713
 20
410.7226646397625
 30
0.0
 11
1573.031457841673
 21
410.7226646397621
 31
0.0
  0
LINE
  5
71C
330
1F
100
AcDbEntity
  8
0
100
AcDbLine
 10
1498.031457841673
 20
420.5490655433064
 30
0.0
 11
1498.031457841673
 21
410.7226646397635
 31
0.0
1001
GENIUS_GENODEF_13
1002
{
1000
HIER
1070
     0
1002
}
1002
{
1000
MANEDIT
1070
     0
1002
}
1002
{
1000
NOSEL
1070
     0
1002
}
1002
{
1000
BEHIND
1070
     0
1002
}
1002
{
1000
REACTOR
1002
}
1001
GENIUS_GENOBJ-N-CEN_13
1002
{
1000
OWNER
1000
GEN
1002
}
  0
LINE
  5
71D
330
1F
100
AcDbEntity
  8
0
100
AcDbLine
 10
1572.031457841674
 20
420.5490655433064
 30
0.0
 11
1572.031457841674
 21
410.7226646397621
 31
0.0
1001
GENIUS_GENODEF_13
1002
{
1000
HIER
1070
     0
1002
}
1002
{
1000
MANEDIT
1070
     0
1002
}
1002
{
1000
NOSEL
1070
     0
1002
}
1002
{
1000
BEHIND
1070
     0
1002
}
1002
{
1000
REACTOR
1002
}
1001
GENIUS_GENOBJ-N-CEN_13
1002
{
1000
OWNER
1000
GEN
1002
}
  0
ARC
  5
71E
330
1F
100
AcDbEntity
  8
0
100
AcDbCircle
 10
1497.031457841672
 20
420.5490655433064
 30
0.0
 40
2.0
100
AcDbArc
 50
0.0
 51
85.23635830924375
1001
GENIUS_GENODEF_13
1002
{
1000
HIER
1070
     0
1002
}
1002
{
1000
MANEDIT
1070
     0
1002
}
1002
{
1000
NOSEL
1070
     0
1002
}
1002
{
1000
BEHIND
1070
     0
1002
}
1002
{
1000
REACTOR
1002
}
1001
GENIUS_GENOBJ-N-CEN_13
1002
{
1000
OWNER
1000
GEN
1002
}
  0
LINE
  5
71F
330
1F
100
AcDbEntity
  8
0
  6
ByBlock
100
AcDbLine
 10
1497.197548801378
 20
422.542157059796
 30
0.0
 11
1535.031457841675
 21
419.3893313064696
 31
0.0
  0
ARC
  5
720
330
1F
100
AcDbEntity
  8
0
100
AcDbCircle
 10
1573.031457841673
 20
420.5490655433064
 30
0.0
 40
2.0
100
AcDbArc
 50
94.76364169075626
 51
180.0
1001
GENIUS_GENODEF_13
1002
{
1000
HIER
1070
     0
1002
}
1002
{
1000
MANEDIT
1070
     0
1002
}
1002
{
1000
NOSEL
1070
     0
1002
}
1002
{
1000
BEHIND
1070
     0
1002
}
1002
{
1000
REACTOR
1002
}
1001
GENIUS_GENOBJ-N-CEN_13
1002
{
1000
OWNER
1000
GEN
1002
}
  0
LINE
  5
721
330
1F
100
AcDbEntity
  8
0
  6
ByBlock
100
AcDbLine
 10
1572.865366881967
 20
422.5421570597947
 30
0.0
 11
1535.031457841675
 21
419.3893313064696
 31
0.0
  0
LINE
  5
722
330
1F
100
AcDbEntity
  8
0
100
AcDbLine
 10
1572.948412361818
 20
421.5456113015502
 30
0.0
 11
1574.197548801331
 21
421.6497060048424
 31
0.0
  0
LINE
  5
723
330
1F
100
AcDbEntity
  8
0
100
AcDbLine
 10
1497.114503321524
 20
421.5456113015502
 30
0.0
 11
1495.865366882022
 21
421.6497060048424
 31
0.0
  0
ARC
  5
724
330
1F
100
AcDbEntity
  8
0
100
AcDbCircle
 10
1497.031457841672
 20
420.5490655433064
 30
0.0
 40
1.0
100
AcDbArc
 50
0.0
 51
85.23635830924375
1001
GENIUS_GENODEF_13
1002
{
1000
HIER
1070
     0
1002
}
1002
{
1000
MANEDIT
1070
     0
1002
}
1002
{
1000
NOSEL
1070
     0
1002
}
1002
{
1000
BEHIND
1070
     0
1002
}
1002
{
1000
REACTOR
1002
}
1001
GENIUS_GENOBJ-N-CEN_13
1002
{
1000
OWNER
1000
GEN
1002
}
  0
ARC
  5
725
330
1F
100
AcDbEntity
  8
0
100
AcDbCircle
 10
1573.031457841673
 20
420.5490655433064
 30
0.0
 40
1.0
100
AcDbArc
 50
94.76364169075626
 51
180.0
  0
HATCH
  5
726
330
1F
100
AcDbEntity
  8
KLIN
  6
ByBlock
100
AcDbHatch
 10
0.0
 20
0.0
 30
0.0
210
0.0
220
0.0
230
1.0
  2
LINE
 70
     0
 71
     0
 91
        4
 92
        7
 72
     0
 73
     1
 93
        4
 10
1573.031457841673
 20
411.6980932109123
 10
1571.031457841673
 20
411.6980932109136
 10
1571.031457841673
 20
403.6980932110239
 10
1573.031457841673
 20
403.6980932110239
 97
        0
 92
        7
 72
     1
 73
     1
 93
        8
 10
1499.031457841672
 20
386.1247256816114
 42
0.0
 10
1497.031457841672
 20
385.4501330776344
 42
0.0
 10
1497.031457841672
 20
343.6980932109141
 42
0.4142135623730982
 10
1504.031457841673
 20
336.6980932109129
 42
0.0
 10
1535.031457841733
 20
336.6980932109129
 42
0.0
 10
1535.031457841731
 20
338.6980932109129
 42
0.0
 10
1504.031457841673
 20
338.6980932109129
 42
-0.4142135623730974
 10
1499.031457841672
 20
343.6980932109141
 42
0.0
 97
        0
 92
        7
 72
     1
 73
     1
 93
        8
 10
1573.031457841675
 20
343.6980932109141
 42
0.0
 10
1573.031457841673
 20
353.6980932110247
 42
0.0
 10
1571.031457841673
 20
353.6980932110247
 42
0.0
 10
1571.031457841674
 20
343.6980932109141
 42
-0.4142135623731005
 10
1566.031457841674
 20
338.6980932109129
 42
0.0
 10
1535.031457841731
 20
338.6980932109129
 42
0.0
 10
1535.031457841733
 20
336.6980932109129
 42
0.0
 10
1566.031457841674
 20
336.6980932109129
 42
0.4142135623730998
 97
        0
 92
        1
 93
        4
 72
     1
 10
1499.031457841672
 20
410.7226646397621
 11
1497.031457841672
 21
410.7226646397621
 72
     1
 10
1497.031457841672
 20
410.7226646397621
 11
1497.031457841672
 21
385.4501330776344
 72
     1
 10
1497.031457841672
 20
385.4501330776344
 11
1499.031457841675
 21
386.1247256816114
 72
     1
 10
1499.031457841672
 20
386.1247256816114
 11
1499.031457841672
 21
410.7226646397625
 97
        0
 75
     0
 76
     1
 52
135.0
 41
1.0
 77
     0
 78
     1
 53
135.0
 43
1312.943746073863
 44
155.8568335911676
 45
-2.245064030267287
 46
-2.245064030267287
 79
     0
 47
2.718374431718904
 98
        4
 10
1572.251525393102
 20
407.8242020667654
 10
1498.270036565014
 20
401.300103093487
 10
1498.270036565014
 20
368.1359343499177
 10
1558.651985064447
 20
337.9619788459041
  0
HATCH
  5
727
330
1F
100
AcDbEntity
  8
KLIN
  6
ByBlock
100
AcDbHatch
 10
0.0
 20
0.0
 30
0.0
210
0.0
220
0.0
230
1.0
  2
LINE
 70
     0
 71
     0
 91
        3
 92
        7
 72
     0
 73
     1
 93
        4
 10
1633.031457841673
 20
403.6980932110239
 10
1571.031457841673
 20
403.6980932110239
 10
1572.295883006408
 20
402.1980932110245
 10
1633.031457841673
 20
402.1980932110245
 97
        0
 92
        7
 72
     0
 73
     1
 93
        4
 10
1605.353946971567
 20
355.1980932110246
 10
1572.295883006408
 20
355.1980932110246
 10
1571.031457841673
 20
353.6980932110247
 10
1606.111971516685
 20
353.6980932110247
 97
        0
 92
        7
 72
     0
 73
     1
 93
        4
 10
1633.031457841673
 20
355.1980932110246
 10
1605.353946971567
 20
355.1980932110246
 10
1606.111971516685
 20
353.6980932110247
 10
1633.031457841673
 20
353.6980932110247
 97
        0
 75
     0
 76
     1
 52
45.0
 41
0.5
 77
     0
 78
     1
 53
45.0
 43
1312.943746073863
 44
155.8568335911676
 45
-1.122532015133643
 46
1.122532015133643
 79
     0
 47
2.718374431718904
 98
        3
 10
1590.474906416416
 20
402.931127491052
 10
1590.746896552525
 20
354.5440625261819
 10
1614.68208510053
 20
354.272225587593
  0
DIMENSION
  5
728
330
1F
100
AcDbEntity
  8
AM_5
100
AcDbDimension
  2
*D20
 10
1495.031453694971
 20
490.4532521387837
 30
0.0
 11
1535.031455768327
 21
496.9532521387837
 31
0.0
 70
    32
 71
     5
 42
80.00000414671195
  3
AM_DIN$0
100
AcDbAlignedDimension
 13
1575.031457841683
 23
441.7226646398677
 33
0.0
 14
1495.031453694971
 24
440.7226646397031
 34
0.0
100
AcDbRotatedDimension
1001
ACAD_DSTYLE_DIMINSPECT
1070
   396
1000
100%
1070
   395
1000

1070
   394
1070
    33
1070
   393
1070
     0
1001
ACAD
1000
DSTYLE
1002
{
1070
    41
1040
7.0
1070
   140
1040
10.0
1070
   271
1070
     0
1002
}
  0
LINE
  5
729
330
1F
100
AcDbEntity
  8
0
100
AcDbLine
 10
1510.03145784174
 20
315.7340932110248
 30
0.0
 11
1560.03145784174
 21
315.7340932110248
 31
0.0
  0
LINE
  5
72A
330
1F
100
AcDbEntity
  8
0
100
AcDbLine
 10
1510.031457841738
 20
317.732950354132
 30
0.0
 11
1560.03145784174
 21
317.732950354132
 31
0.0
  0
LINE
  5
72B
330
1F
100
AcDbEntity
  8
0
100
AcDbLine
 10
1510.03145784174
 20
315.7340932110248
 30
0.0
 11
1510.031457841729
 21
336.6980932109129
 31
0.0
  0
LINE
  5
72C
330
1F
100
AcDbEntity
  8
0
100
AcDbLine
 10
1560.03145784174
 20
315.7340932110248
 30
0.0
 11
1560.031457841733
 21
336.6980932109129
 31
0.0
  0
LINE
  5
72D
330
1F
100
AcDbEntity
  8
0
100
AcDbLine
 10
1515.031457841731
 20
410.6980932109122
 30
0.0
 11
1515.031457841731
 21
353.6980932109127
 31
0.0
  0
LINE
  5
72E
330
1F
100
AcDbEntity
  8
0
100
AcDbLine
 10
1515.031457841731
 20
353.6980932109127
 30
0.0
 11
1555.031457841731
 21
353.6980932109127
 31
0.0
  0
LINE
  5
72F
330
1F
100
AcDbEntity
  8
0
100
AcDbLine
 10
1555.031457841731
 20
353.6980932109127
 30
0.0
 11
1555.031457841731
 21
410.6980932109122
 31
0.0
  0
LINE
  5
730
330
1F
100
AcDbEntity
  8
0
100
AcDbLine
 10
1516.531457841731
 20
410.6980932109122
 30
0.0
 11
1516.531457841731
 21
353.6980932109127
 31
0.0
  0
LINE
  5
731
330
1F
100
AcDbEntity
  8
0
100
AcDbLine
 10
1553.531457841731
 20
353.6980932109127
 30
0.0
 11
1553.531457841731
 21
410.6980932109122
 31
0.0
  0
HATCH
  5
732
330
1F
100
AcDbEntity
  8
8
100
AcDbHatch
 10
0.0
 20
0.0
 30
0.0
210
0.0
220
0.0
230
1.0
  2
LINE
 70
     0
 71
     0
 91
        4
 92
        7
 72
     0
 73
     1
 93
        6
 10
1507.531457841731
 20
400.6980932109126
 10
1508.004430814702
 20
403.5359310487501
 10
1507.031457841731
 20
403.6980932109126
 10
1506.531457841731
 20
400.6980932109126
 10
1506.531457841731
 20
379.2141908229228
 10
1507.531457841731
 20
379.4704572403104
 97
        0
 92
        7
 72
     0
 73
     1
 93
        4
 10
1507.531457841731
 20
379.4704572403104
 10
1506.531457841731
 20
379.2141908229228
 10
1506.531457841731
 20
366.0348701486402
 10
1507.531457841731
 20
366.2911365660276
 97
        0
 92
        7
 72
     1
 73
     1
 93
        8
 10
1507.531457841731
 20
366.2911365660276
 42
0.0
 10
1506.531457841731
 20
366.0348701486402
 42
0.0
 10
1506.531457841731
 20
344.6980932109129
 42
0.4142135623730951
 10
1512.531457841731
 20
338.6980932109129
 42
0.0
 10
1535.031457841731
 20
338.6980932109129
 42
0.0
 10
1535.031457841731
 20
339.6980932109129
 42
0.0
 10
1512.531457841731
 20
339.6980932109129
 42
-0.4142135623730951
 10
1507.531457841731
 20
344.6980932109129
 42
0.0
 97
        0
 92
        7
 72
     1
 73
     1
 93
       10
 10
1563.531457841731
 20
344.6980932109129
 42
0.0
 10
1563.531457841731
 20
400.6980932109126
 42
0.0
 10
1563.031457841731
 20
403.6980932109126
 42
0.0
 10
1562.058484868759
 20
403.5359310487501
 42
0.0
 10
1562.531457841731
 20
400.6980932109126
 42
0.0
 10
1562.531457841731
 20
344.6980932109129
 42
-0.4142135623730951
 10
1557.531457841731
 20
339.6980932109129
 42
0.0
 10
1535.031457841731
 20
339.6980932109129
 42
0.0
 10
1535.031457841731
 20
338.6980932109129
 42
0.0
 10
1557.531457841731
 20
338.6980932109129
 42
0.4142135623730951
 97
        0
 75
     0
 76
     1
 52
45.0
 41
1.0
 77
     0
 78
     1
 53
45.0
 43
1416.967850846853
 44
210.9837338733711
 45
-2.245064030267287
 46
2.245064030267287
 79
     0
 47
0.144641785732262
 98
        4
 10
1506.85291093575
 20
397.3454918952008
 10
1506.997616406638
 20
369.8635505988195
 10
1507.1423193757
 20
362.0528947624372
 10
1541.581711074842
 20
339.3441341438544
  0
LINE
  5
733
330
1F
100
AcDbEntity
  8
0
100
AcDbLine
 10
1506.531457841731
 20
400.6980932109126
 30
0.0
 11
1506.531457841731
 21
344.6980932109129
 31
0.0
  0
LINE
  5
734
330
1F
100
AcDbEntity
  8
0
100
AcDbLine
 10
1563.531457841731
 20
344.6980932109129
 30
0.0
 11
1563.531457841731
 21
400.6980932109126
 31
0.0
  0
LINE
  5
735
330
1F
100
AcDbEntity
  8
0
100
AcDbLine
 10
1512.531457841731
 20
338.6980932109129
 30
0.0
 11
1557.531457841731
 21
338.6980932109129
 31
0.0
  0
LINE
  5
736
330
1F
100
AcDbEntity
  8
0
100
AcDbLine
 10
1555.031457841731
 20
403.6980932109126
 30
0.0
 11
1563.031457841731
 21
403.6980932109126
 31
0.0
  0
LINE
  5
737
330
1F
100
AcDbEntity
  8
0
100
AcDbLine
 10
1502.531457841731
 20
414.1980932109123
 30
0.0
 11
1502.531457841731
 21
412.6980932109126
 31
0.0
  0
LINE
  5
738
330
1F
100
AcDbEntity
  8
0
100
AcDbLine
 10
1498.531457841731
 20
412.6980932109126
 30
0.0
 11
1501.531457841729
 21
412.6980932109126
 31
0.0
  0
LINE
  5
739
330
1F
100
AcDbEntity
  8
0
100
AcDbLine
 10
1567.531457841731
 20
412.6980932109126
 30
0.0
 11
1567.531457841731
 21
414.1980932109123
 31
0.0
  0
LINE
  5
73A
330
1F
100
AcDbEntity
  8
0
100
AcDbLine
 10
1567.531457841731
 20
414.1980932109123
 30
0.0
 11
1502.531457841731
 21
414.1980932109123
 31
0.0
  0
CIRCLE
  5
73B
330
1F
100
AcDbEntity
  8
0
100
AcDbCircle
 10
1535.031457841731
 20
411.1980932109121
 30
0.0
 40
1.5
  0
LINE
  5
73C
330
1F
100
AcDbEntity
  8
7A
100
AcDbLine
 10
1530.531457841731
 20
411.1980932109121
 30
0.0
 11
1539.531457841731
 21
411.1980932109121
 31
0.0
1001
GENIUS_GENOBJ-N-CEN_13
1002
{
1000
OWNER
1000
GEN
1002
}
1001
GENIUS_GENODEF_13
1002
{
1000
HIER
1070
     0
1002
}
1002
{
1000
MANEDIT
1070
     0
1002
}
1002
{
1000
NOSEL
1070
     0
1002
}
1002
{
1000
BEHIND
1070
     0
1002
}
1002
{
1000
OTHER
1070
     0
1002
}
1002
{
1000
REACTOR
1002
}
  0
LINE
  5
73D
330
1F
100
AcDbEntity
  8
0
100
AcDbLine
 10
1563.531457841731
 20
416.6980932109126
 30
0.0
 11
1506.531457841731
 21
416.6980932109126
 31
0.0
  0
LINE
  5
73E
330
1F
100
AcDbEntity
  8
0
100
AcDbLine
 10
1506.531457841731
 20
416.6980932109126
 30
0.0
 11
1506.531457841731
 21
414.1980932109123
 31
0.0
  0
LINE
  5
73F
330
1F
100
AcDbEntity
  8
0
100
AcDbLine
 10
1506.531457841731
 20
412.6980932109126
 30
0.0
 11
1506.531457841731
 21
410.1980932109123
 31
0.0
  0
LINE
  5
740
330
1F
100
AcDbEntity
  8
0
100
AcDbLine
 10
1563.531457841731
 20
416.6980932109126
 30
0.0
 11
1563.531457841731
 21
414.1980932109123
 31
0.0
  0
LINE
  5
741
330
1F
100
AcDbEntity
  8
0
100
AcDbLine
 10
1563.531457841731
 20
412.6980932109126
 30
0.0
 11
1563.531457841731
 21
410.1980932109123
 31
0.0
  0
LINE
  5
742
330
1F
100
AcDbEntity
  8
0
100
AcDbLine
 10
1555.031457841731
 20
410.1980932109123
 30
0.0
 11
1563.531457841731
 21
410.1980932109123
 31
0.0
  0
LINE
  5
743
330
1F
100
AcDbEntity
  8
0
100
AcDbLine
 10
1501.531457841729
 20
414.1980932109123
 30
0.0
 11
1501.531457841729
 21
412.6980932109126
 31
0.0
  0
LINE
  5
744
330
1F
100
AcDbEntity
  8
0
100
AcDbLine
 10
1498.531457841731
 20
414.1980932109123
 30
0.0
 11
1500.531457841731
 21
415.1980932109121
 31
0.0
  0
LINE
  5
745
330
1F
100
AcDbEntity
  8
0
100
AcDbLine
 10
1500.531457841731
 20
415.1980932109121
 30
0.0
 11
1506.531457841731
 21
416.6980932109126
 31
0.0
  0
LINE
  5
746
330
1F
100
AcDbEntity
  8
0
100
AcDbLine
 10
1500.531457841731
 20
411.6980932109123
 30
0.0
 11
1506.531457841731
 21
410.1980932109123
 31
0.0
  0
LINE
  5
747
330
1F
100
AcDbEntity
  8
0
100
AcDbLine
 10
1498.531457841731
 20
412.6980932109126
 30
0.0
 11
1500.531457841731
 21
411.6980932109123
 31
0.0
  0
LINE
  5
748
330
1F
100
AcDbEntity
  8
0
100
AcDbLine
 10
1501.531457841729
 20
414.1980932109123
 30
0.0
 11
1498.531457841731
 21
414.1980932109123
 31
0.0
  0
LINE
  5
749
330
1F
100
AcDbEntity
  8
0
100
AcDbLine
 10
1502.531457841731
 20
412.6980932109126
 30
0.0
 11
1513.031457841731
 21
412.6980932109126
 31
0.0
  0
LINE
  5
74A
330
1F
100
AcDbEntity
  8
0
100
AcDbLine
 10
1571.531457841731
 20
412.6980932109126
 30
0.0
 11
1568.531457841731
 21
412.6980932109126
 31
0.0
  0
LINE
  5
74B
330
1F
100
AcDbEntity
  8
0
100
AcDbLine
 10
1568.531457841731
 20
414.1980932109123
 30
0.0
 11
1571.531457841731
 21
414.1980932109123
 31
0.0
  0
LINE
  5
74C
330
1F
100
AcDbEntity
  8
0
100
AcDbLine
 10
1571.531457841731
 20
412.6980932109126
 30
0.0
 11
1569.531457841731
 21
411.6980932109123
 31
0.0
  0
LINE
  5
74D
330
1F
100
AcDbEntity
  8
0
100
AcDbLine
 10
1571.531457841731
 20
414.1980932109123
 30
0.0
 11
1569.531457841731
 21
415.1980932109121
 31
0.0
  0
LINE
  5
74E
330
1F
100
AcDbEntity
  8
0
100
AcDbLine
 10
1568.531457841731
 20
414.1980932109123
 30
0.0
 11
1568.531457841731
 21
412.6980932109126
 31
0.0
  0
LINE
  5
74F
330
1F
100
AcDbEntity
  8
0
100
AcDbLine
 10
1569.531457841731
 20
415.1980932109121
 30
0.0
 11
1563.531457841731
 21
416.6980932109126
 31
0.0
  0
LINE
  5
750
330
1F
100
AcDbEntity
  8
0
100
AcDbLine
 10
1569.531457841731
 20
411.6980932109123
 30
0.0
 11
1563.531457841731
 21
410.1980932109123
 31
0.0
  0
HATCH
  5
751
330
1F
100
AcDbEntity
  8
8
100
AcDbHatch
 10
0.0
 20
0.0
 30
0.0
210
0.0
220
0.0
230
1.0
  2
NET
 70
     0
 71
     0
 91
        2
 92
        7
 72
     0
 73
     1
 93
       12
 10
1498.531457841731
 20
412.6980932109126
 10
1500.531457841731
 20
411.6980932109123
 10
1506.531457841731
 20
410.1980932109123
 10
1506.531457841731
 20
412.6980932109126
 10
1502.531457841731
 20
412.6980932109126
 10
1502.531457841731
 20
414.1980932109123
 10
1506.531457841731
 20
414.1980932109123
 10
1506.531457841731
 20
416.6980932109126
 10
1500.531457841731
 20
415.1980932109121
 10
1498.531457841731
 20
414.1980932109123
 10
1501.531457841729
 20
414.1980932109123
 10
1501.531457841729
 20
412.6980932109126
 97
        0
 92
        7
 72
     0
 73
     1
 93
       12
 10
1567.531457841731
 20
412.6980932109126
 10
1563.531457841731
 20
412.6980932109126
 10
1563.531457841731
 20
410.1980932109123
 10
1569.531457841731
 20
411.6980932109123
 10
1571.531457841731
 20
412.6980932109126
 10
1568.531457841731
 20
412.6980932109126
 10
1568.531457841731
 20
414.1980932109123
 10
1571.531457841731
 20
414.1980932109123
 10
1569.531457841731
 20
415.1980932109121
 10
1563.531457841731
 20
416.6980932109126
 10
1563.531457841731
 20
414.1980932109123
 10
1567.531457841731
 20
414.1980932109123
 97
        0
 75
     0
 76
     1
 52
135.0
 41
0.5
 77
     0
 78
     2
 53
135.0
 43
1416.967850846853
 44
211.8937041664733
 45
-1.122532015133643
 46
-1.122532015133643
 79
     0
 53
225.0
 43
1416.967850846853
 44
211.8937041664733
 45
1.122532015133643
 46
-1.122532015133643
 79
     0
 47
0.1492324330864038
 98
        2
 10
1505.063846985154
 20
411.6637364668169
 10
1565.984854867683
 20
411.5145030215904
  0
LINE
  5
752
330
1F
100
AcDbEntity
  8
0
100
AcDbLine
 10
1507.531457841731
 20
400.6980932109126
 30
0.0
 11
1507.531457841731
 21
344.6980932109129
 31
0.0
  0
LINE
  5
753
330
1F
100
AcDbEntity
  8
0
100
AcDbLine
 10
1512.531457841731
 20
339.6980932109129
 30
0.0
 11
1557.531457841731
 21
339.6980932109129
 31
0.0
  0
LINE
  5
754
330
1F
100
AcDbEntity
  8
0
100
AcDbLine
 10
1562.531457841731
 20
344.6980932109129
 30
0.0
 11
1562.531457841731
 21
400.6980932109126
 31
0.0
  0
ARC
  5
755
330
1F
100
AcDbEntity
  8
0
100
AcDbCircle
 10
1512.531457841731
 20
344.6980932109129
 30
0.0
 40
5.0
100
AcDbArc
 50
180.0
 51
270.0
1001
GENIUS_GENOBJ-N-FIL_13
1002
{
1000
OWNER
1000
GEN
1002
}
1001
GENIUS_GENODEF_13
1002
{
1000
HIER
1070
     0
1002
}
1002
{
1000
MANEDIT
1070
     0
1002
}
1002
{
1000
NOSEL
1070
     0
1002
}
1002
{
1000
BEHIND
1070
     0
1002
}
1002
{
1000
OTHER
1070
     0
1002
}
1002
{
1000
REACTOR
1002
}
  0
ARC
  5
756
330
1F
100
AcDbEntity
  8
0
100
AcDbCircle
 10
1557.531457841731
 20
344.6980932109129
 30
0.0
 40
5.0
100
AcDbArc
 50
270.0
 51
0.0
1001
GENIUS_GENOBJ-N-FIL_13
1002
{
1000
OWNER
1000
GEN
1002
}
1001
GENIUS_GENODEF_13
1002
{
1000
HIER
1070
     0
1002
}
1002
{
1000
MANEDIT
1070
     0
1002
}
1002
{
1000
NOSEL
1070
     0
1002
}
1002
{
1000
BEHIND
1070
     0
1002
}
1002
{
1000
OTHER
1070
     0
1002
}
1002
{
1000
REACTOR
1002
}
  0
ARC
  5
757
330
1F
100
AcDbEntity
  8
0
100
AcDbCircle
 10
1512.531457841731
 20
344.6980932109129
 30
0.0
 40
6.0
100
AcDbArc
 50
180.0
 51
270.0
1001
GENIUS_GENOBJ-N-FIL_13
1002
{
1000
OWNER
1000
GEN
1002
}
1001
GENIUS_GENODEF_13
1002
{
1000
HIER
1070
     0
1002
}
1002
{
1000
MANEDIT
1070
     0
1002
}
1002
{
1000
NOSEL
1070
     0
1002
}
1002
{
1000
BEHIND
1070
     0
1002
}
1002
{
1000
OTHER
1070
     0
1002
}
1002
{
1000
REACTOR
1002
}
  0
ARC
  5
758
330
1F
100
AcDbEntity
  8
0
100
AcDbCircle
 10
1557.531457841731
 20
344.6980932109129
 30
0.0
 40
6.0
100
AcDbArc
 50
270.0
 51
0.0
1001
GENIUS_GENODEF_13
1002
{
1000
HIER
1070
     0
1002
}
1002
{
1000
MANEDIT
1070
     0
1002
}
1002
{
1000
NOSEL
1070
     0
1002
}
1002
{
1000
BEHIND
1070
     0
1002
}
1002
{
1000
OTHER
1070
     0
1002
}
1002
{
1000
REACTOR
1002
}
1001
GENIUS_GENOBJ-N-FIL_13
1002
{
1000
OWNER
1000
GEN
1002
}
  0
ARC
  5
759
330
1F
100
AcDbEntity
  8
0
100
AcDbCircle
 10
1513.031457841731
 20
410.6980932109122
 30
0.0
 40
2.0
100
AcDbArc
 50
0.0
 51
90.0
1001
GENIUS_GENODEF_13
1002
{
1000
HIER
1070
     0
1002
}
1002
{
1000
MANEDIT
1070
     0
1002
}
1002
{
1000
NOSEL
1070
     0
1002
}
1002
{
1000
BEHIND
1070
     0
1002
}
1002
{
1000
OTHER
1070
     0
1002
}
1002
{
1000
REACTOR
1002
}
1001
GENIUS_GENOBJ-N-FIL_13
1002
{
1000
OWNER
1000
GEN
1002
}
  0
LINE
  5
75A
330
1F
100
AcDbEntity
  8
0
100
AcDbLine
 10
1567.531457841731
 20
412.6980932109126
 30
0.0
 11
1557.031457841732
 21
412.6980932109126
 31
0.0
  0
ARC
  5
75B
330
1F
100
AcDbEntity
  8
0
100
AcDbCircle
 10
1557.031457841732
 20
410.6980932109122
 30
0.0
 40
2.0
100
AcDbArc
 50
90.0
 51
180.0
1001
GENIUS_GENODEF_13
1002
{
1000
HIER
1070
     0
1002
}
1002
{
1000
MANEDIT
1070
     0
1002
}
1002
{
1000
NOSEL
1070
     0
1002
}
1002
{
1000
BEHIND
1070
     0
1002
}
1002
{
1000
OTHER
1070
     0
1002
}
1002
{
1000
REACTOR
1002
}
1001
GENIUS_GENOBJ-N-FIL_13
1002
{
1000
OWNER
1000
GEN
1002
}
  0
ARC
  5
75C
330
1F
100
AcDbEntity
  8
0
100
AcDbCircle
 10
1513.031457841731
 20
410.6980932109122
 30
0.0
 40
3.5
100
AcDbArc
 50
0.0
 51
90.0
1001
GENIUS_GENODEF_13
1002
{
1000
HIER
1070
     0
1002
}
1002
{
1000
MANEDIT
1070
     0
1002
}
1002
{
1000
NOSEL
1070
     0
1002
}
1002
{
1000
BEHIND
1070
     0
1002
}
1002
{
1000
OTHER
1070
     0
1002
}
1002
{
1000
REACTOR
1002
}
1001
GENIUS_GENOBJ-N-FIL_13
1002
{
1000
OWNER
1000
GEN
1002
}
  0
ARC
  5
75D
330
1F
100
AcDbEntity
  8
0
100
AcDbCircle
 10
1557.031457841732
 20
410.6980932109122
 30
0.0
 40
3.5
100
AcDbArc
 50
90.0
 51
180.0
1001
GENIUS_GENODEF_13
1002
{
1000
HIER
1070
     0
1002
}
1002
{
1000
MANEDIT
1070
     0
1002
}
1002
{
1000
NOSEL
1070
     0
1002
}
1002
{
1000
BEHIND
1070
     0
1002
}
1002
{
1000
OTHER
1070
     0
1002
}
1002
{
1000
REACTOR
1002
}
1001
GENIUS_GENOBJ-N-FIL_13
1002
{
1000
OWNER
1000
GEN
1002
}
  0
HATCH
  5
75E
330
1F
100
AcDbEntity
  8
8
100
AcDbHatch
 10
0.0
 20
0.0
 30
0.0
210
0.0
220
0.0
230
1.0
  2
_U
 70
     0
 71
     0
 91
        1
 92
        1
 93
        8
 72
     1
 10
1555.031457841731
 20
353.6980932109127
 11
1555.031457841731
 21
410.6980932109122
 72
     2
 10
1557.031457841732
 20
410.6980932109122
 40
2.0
 50
180.0
 51
270.0
 73
     0
 72
     1
 10
1557.031457841732
 20
412.6980932109126
 11
1567.531457841731
 21
412.6980932109126
 72
     1
 10
1567.531457841731
 20
412.6980932109126
 11
1567.531457841731
 21
414.1980932109126
 72
     1
 10
1567.531457841731
 20
414.1980932109123
 11
1557.031457841732
 21
414.1980932109123
 72
     2
 10
1557.031457841732
 20
410.6980932109122
 40
3.5
 50
90.0
 51
180.0
 73
     1
 72
     1
 10
1553.531457841731
 20
410.6980932109122
 11
1553.531457841731
 21
353.6980932109127
 72
     1
 10
1553.531457841731
 20
353.6980932109127
 11
1555.031457841731
 21
353.6980932109127
 97
        0
 75
     0
 76
     0
 52
45.0
 41
5.0
 77
     0
 78
     1
 53
45.0
 43
1416.967850846853
 44
210.9837338733711
 45
-3.535533905932736
 46
3.535533905932736
 79
     0
 98
        1
 10
1416.967850846853
 20
210.9837338733711
1001
GENIUS_GENODEF_13
1002
{
1000
HIER
1070
     0
1002
}
1002
{
1000
MANEDIT
1070
     0
1002
}
1002
{
1000
NOSEL
1070
     0
1002
}
1002
{
1000
BEHIND
1070
     0
1002
}
1002
{
1000
OTHER
1070
     0
1002
}
1002
{
1000
REACTOR
1002
}
1001
GENIUS_GENOBJ-N-HTC_13
1002
{
1000
OWNER
1000
GEN
1002
}
1001
GENIUS_GENHATCH_13
1002
{
1000
DATA
1040
45.0
1042
5.0
1000
_U
1070
     0
1011
1554.26113677082
1021
393.6652937880499
1031
0.0
1002
}
1002
{
1000
UCS
1010
0.0
1020
0.0
1030
0.0
1010
1.0
1020
0.0
1030
0.0
1010
0.0
1020
1.0
1030
0.0
1002
}
  0
HATCH
  5
75F
330
1F
100
AcDbEntity
  8
8
100
AcDbHatch
 10
0.0
 20
0.0
 30
0.0
210
0.0
220
0.0
230
1.0
  2
_U
 70
     0
 71
     0
 91
        1
 92
        1
 93
        8
 72
     1
 10
1513.031457841731
 20
414.1980932109123
 11
1502.531457841731
 21
414.1980932109123
 72
     1
 10
1502.531457841731
 20
414.1980932109123
 11
1502.531457841731
 21
412.6980932109123
 72
     1
 10
1502.531457841731
 20
412.6980932109126
 11
1513.031457841731
 21
412.6980932109126
 72
     2
 10
1513.031457841731
 20
410.6980932109122
 40
2.0
 50
270.0
 51
360.0
 73
     0
 72
     1
 10
1515.031457841731
 20
410.6980932109122
 11
1515.031457841731
 21
353.6980932109127
 72
     1
 10
1515.031457841731
 20
353.6980932109127
 11
1516.531457841731
 21
353.6980932109127
 72
     1
 10
1516.531457841731
 20
353.6980932109127
 11
1516.531457841731
 21
410.6980932109122
 72
     2
 10
1513.031457841731
 20
410.6980932109122
 40
3.5
 50
0.0
 51
90.0
 73
     1
 97
        0
 75
     0
 76
     0
 52
45.0
 41
5.0
 77
     0
 78
     1
 53
45.0
 43
1416.967850846853
 44
210.9837338733711
 45
-3.535533905932736
 46
3.535533905932736
 79
     0
 98
        1
 10
1416.967850846853
 20
210.9837338733711
1001
GENIUS_GENODEF_13
1002
{
1000
HIER
1070
     0
1002
}
1002
{
1000
MANEDIT
1070
     0
1002
}
1002
{
1000
NOSEL
1070
     0
1002
}
1002
{
1000
BEHIND
1070
     0
1002
}
1002
{
1000
OTHER
1070
     0
1002
}
1002
{
1000
REACTOR
1002
}
1001
GENIUS_GENOBJ-N-HTC_13
1002
{
1000
OWNER
1000
GEN
1002
}
1001
GENIUS_GENHATCH_13
1002
{
1000
DATA
1040
45.0
1042
5.0
1000
_U
1070
     0
1011
1515.894189871831
1021
391.4457544692191
1031
0.0
1002
}
1002
{
1000
UCS
1010
0.0
1020
0.0
1030
0.0
1010
1.0
1020
0.0
1030
0.0
1010
0.0
1020
1.0
1030
0.0
1002
}
  0
LINE
  5
760
330
1F
100
AcDbEntity
  8
0
100
AcDbLine
 10
1506.531457841731
 20
403.6980932109126
 30
0.0
 11
1507.531457841731
 21
403.6980932109126
 31
0.0
  0
LINE
  5
761
330
1F
100
AcDbEntity
  8
0
100
AcDbLine
 10
1506.531457841731
 20
412.6980932109126
 30
0.0
 11
1513.031457841731
 21
412.6980932109126
 31
0.0
  0
LINE
  5
762
330
1F
100
AcDbEntity
  8
0
100
AcDbLine
 10
1506.531457841731
 20
403.6980932109126
 30
0.0
 11
1508.292162397547
 21
403.6980932109126
 31
0.0
  0
LINE
  5
763
330
1F
100
AcDbEntity
  8
0
100
AcDbLine
 10
1515.031457841731
 20
410.6980932109122
 30
0.0
 11
1515.031457841731
 21
392.6980932109127
 31
0.0
  0
LINE
  5
764
330
1F
100
AcDbEntity
  8
0
100
AcDbLine
 10
1508.031457841731
 20
401.2180932109123
 30
0.0
 11
1508.031457841731
 21
399.2180932109126
 31
0.0
  0
LINE
  5
765
330
1F
100
AcDbEntity
  8
0
100
AcDbLine
 10
1515.031457841731
 20
392.6980932109127
 30
0.0
 11
1511.795781596847
 21
392.6980932109127
 31
0.0
  0
LINE
  5
766
330
1F
100
AcDbEntity
  8
0
100
AcDbLine
 10
1506.531457841731
 20
403.6980932109126
 30
0.0
 11
1506.531457841731
 21
412.6980932109126
 31
0.0
  0
LINE
  5
767
330
1F
100
AcDbEntity
  8
0
100
AcDbLine
 10
1508.031457841731
 20
401.2180932109123
 30
0.0
 11
1508.755754324829
 21
403.0107899142045
 31
0.0
  0
ARC
  5
768
330
1F
100
AcDbEntity
  8
0
100
AcDbCircle
 10
1508.292162397547
 20
403.1980932109121
 30
0.0
 40
0.5
100
AcDbArc
 50
337.9999999999847
 51
90.0
  0
LINE
  5
769
330
1F
100
AcDbEntity
  8
0
100
AcDbLine
 10
1508.031457841731
 20
399.2180932109126
 30
0.0
 11
1511.795781596847
 21
392.6980932109127
 31
0.0
  0
LINE
  5
76A
330
1F
100
AcDbEntity
  8
0
100
AcDbLine
 10
1513.031457841731
 20
412.6980932109126
 30
0.0
 11
1515.031457841731
 21
410.6980932109122
 31
0.0
  0
LINE
  5
76B
330
1F
100
AcDbEntity
  8
3
100
AcDbLine
 10
1506.531457841731
 20
410.1980932109123
 30
0.0
 11
1515.031457841731
 21
410.1980932109123
 31
0.0
  0
LINE
  5
76C
330
1F
100
AcDbEntity
  8
3
100
AcDbLine
 10
1508.292162397547
 20
403.6980932109126
 30
0.0
 11
1515.031457841731
 21
403.6980932109126
 31
0.0
  0
LINE
  5
76D
330
1F
100
AcDbEntity
  8
0
100
AcDbLine
 10
1507.531457841731
 20
400.6980932109126
 30
0.0
 11
1508.004430814702
 21
403.5359310487501
 31
0.0
  0
LINE
  5
76E
330
1F
100
AcDbEntity
  8
0
100
AcDbLine
 10
1506.531457841731
 20
400.6980932109126
 30
0.0
 11
1507.031457841731
 21
403.6980932109126
 31
0.0
  0
LINE
  5
76F
330
1F
100
AcDbEntity
  8
0
100
AcDbLine
 10
1507.031457841731
 20
403.6980932109126
 30
0.0
 11
1508.004430814702
 21
403.5359310487501
 31
0.0
  0
LINE
  5
770
330
1F
100
AcDbEntity
  8
0
100
AcDbLine
 10
1508.004430814702
 20
403.5359310487501
 30
0.0
 11
1508.660761902872
 21
403.5359310487501
 31
0.0
  0
LINE
  5
771
330
1F
100
AcDbEntity
  8
0
100
AcDbLine
 10
1562.531457841731
 20
400.6980932109126
 30
0.0
 11
1562.058484868759
 21
403.5359310487501
 31
0.0
  0
LINE
  5
772
330
1F
100
AcDbEntity
  8
0
100
AcDbLine
 10
1563.531457841731
 20
400.6980932109126
 30
0.0
 11
1563.031457841731
 21
403.6980932109126
 31
0.0
  0
LINE
  5
773
330
1F
100
AcDbEntity
  8
0
100
AcDbLine
 10
1563.031457841731
 20
403.6980932109126
 30
0.0
 11
1562.058484868759
 21
403.5359310487501
 31
0.0
  0
LINE
  5
774
330
1F
100
AcDbEntity
  8
0
100
AcDbLine
 10
1562.058484868759
 20
403.5359310487501
 30
0.0
 11
1555.031457841731
 21
403.5359310487501
 31
0.0
  0
ARC
  5
775
330
1F
100
AcDbEntity
  8
0
100
AcDbCircle
 10
1493.031453694971
 20
440.7226646397031
 30
0.0
 40
2.0
100
AcDbArc
 50
0.0
 51
90.00000000026055
  0
LINE
  5
776
330
1F
100
AcDbEntity
  8
0
  6
ByBlock
100
AcDbLine
 10
1475.031453694865
 20
443.7226646396536
 30
0.0
 11
1475.031453694751
 21
482.7226646396535
 31
0.0
  0
ARC
  5
777
330
1F
100
AcDbEntity
  8
0
  6
ByBlock
100
AcDbCircle
 10
1476.031453694863
 20
443.7226646396561
 30
0.0
 40
1.0
100
AcDbArc
 50
180.0000000002605
 51
270.0000000002606
  0
LINE
  5
778
330
1F
100
AcDbEntity
  8
0
  6
ByBlock
100
AcDbLine
 10
1475.031453694751
 20
482.7226646396535
 30
0.0
 11
1474.031453694751
 21
482.7226646396507
 31
0.0
  0
LINE
  5
779
330
1F
100
AcDbEntity
  8
0
  6
ByBlock
100
AcDbLine
 10
1474.031453694751
 20
482.7226646396507
 30
0.0
 11
1474.031453694864
 21
443.7226646396509
 31
0.0
  0
ARC
  5
77A
330
1F
100
AcDbEntity
  8
0
  6
ByBlock
100
AcDbCircle
 10
1476.031453694863
 20
443.7226646396561
 30
0.0
 40
2.0
100
AcDbArc
 50
180.0000000002605
 51
270.0000000002606
  0
LINE
  5
77B
330
1F
100
AcDbEntity
  8
0
  6
ByBlock
100
AcDbLine
 10
1476.031453694871
 20
441.7226646396562
 30
0.0
 11
1493.031453694873
 21
441.7226646397067
 31
0.0
  0
ARC
  5
77C
330
1F
100
AcDbEntity
  8
0
  6
ByBlock
100
AcDbCircle
 10
1493.031453694873
 20
440.7226646397066
 30
0.0
 40
1.0
100
AcDbArc
 50
0.000000000260551
 51
90.00000000026055
  0
INSERT
  5
77D
330
1F
100
AcDbEntity
  8
0
100
AcDbBlockReference
  2
befestigung
 10
3201.850450263935
 20
-984.3351733633131
 30
0.0
 41
-1.0
  0
INSERT
  5
77E
330
1F
100
AcDbEntity
  8
0
100
AcDbBlockReference
  2
befestigung
 10
-1725.029447115655
 20
-984.3351733633147
 30
0.0
  0
POINT
  5
77F
330
1F
100
AcDbEntity
  8
0
 60
     1
100
AcDbPoint
 10
-669.3562160664314
 20
-839.0638512569028
 30
0.0
1001
GENIUS_GENOENT_13
1002
{
1000
MYREF
1005
77F
1002
}
1002
{
1000
GRP
1005
0
1002
}
1001
GENIUS_GENOLIS_13
1002
{
1000
ENT
1005
640
1005
63F
1005
63E
1005
63D
1002
}
1001
GENIUS_GENODEF_13
1002
{
1000
HIER
1070
    10
1002
}
1002
{
1000
MANEDIT
1070
     0
1002
}
1002
{
1000
NOSEL
1070
     0
1002
}
1002
{
1000
BEHIND
1070
     0
1002
}
1002
{
1000
OTHER
1070
     0
1002
}
1002
{
1000
REACTOR
1002
}
1001
GENIUS_GENOBJ-N-CRS_13
1002
{
1000
OWNER
1000
GEN
1002
}
  0
ENDSEC
  0
SECTION
  2
OBJECTS
  0
DICTIONARY
  5
C
330
0
100
AcDbDictionary
281
     1
  3
ACAD_2007HEADERVARS_RT
350
844
  3
ACAD_COLOR
350
BE
  3
ACAD_GROUP
350
D
  3
ACAD_LAYOUT
350
1A
  3
ACAD_MATERIAL
350
BD
  3
ACAD_MLEADERSTYLE
350
2C4
  3
ACAD_MLINESTYLE
350
17
  3
ACAD_PLOTSETTINGS
350
19
  3
ACAD_PLOTSTYLENAME
350
E
  3
ACAD_SCALELIST
350
2A2
  3
ACAD_TABLESTYLE
350
11A
  3
ACAD_VISUALSTYLE
350
26E
  3
ACDB_RECOMPOSE_DATA
350
2E6
  3
AcDbVariableDictionary
350
94
  3
AcmDictionary
350
5B
  3
AcmSystemVariableManager
350
852
  3
AEC_PROPERTY_SET_DEFS
350
5F3
  3
AMG
350
41
  3
AMGSNAPSETTINGS
350
364
  3
DWGPROPS
350
843
  0
DICTIONARY
  5
462
330
2
100
AcDbDictionary
280
     1
281
     1
  3
ACAD_LAYERSTATES
360
463
  0
DICTIONARY
  5
834
330
10
100
AcDbDictionary
280
     1
281
     1
  3
ADSK_XREC_LAYER_RECONCILED
360
835
  0
DICTIONARY
  5
43F
330
43E
100
AcDbDictionary
280
     1
281
     1
  3
ADSK_XREC_LAYER_RECONCILED
360
836
  0
DICTIONARY
  5
441
330
440
100
AcDbDictionary
280
     1
281
     1
  3
ADSK_XREC_LAYER_RECONCILED
360
837
  0
DICTIONARY
  5
444
330
443
100
AcDbDictionary
280
     1
281
     1
  3
ADSK_XREC_LAYER_RECONCILED
360
838
  0
DICTIONARY
  5
446
330
445
100
AcDbDictionary
280
     1
281
     1
  3
ADSK_XREC_LAYER_RECONCILED
360
839
  0
DICTIONARY
  5
448
330
447
100
AcDbDictionary
280
     1
281
     1
  3
ADSK_XREC_LAYER_RECONCILED
360
83A
  0
DICTIONARY
  5
44A
330
449
100
AcDbDictionary
280
     1
281
     1
  3
ADSK_XREC_LAYER_RECONCILED
360
83B
  0
DICTIONARY
  5
44C
330
44B
100
AcDbDictionary
280
     1
281
     1
  3
ADSK_XREC_LAYER_RECONCILED
360
83C
  0
DICTIONARY
  5
44E
330
44D
100
AcDbDictionary
280
     1
281
     1
  3
ADSK_XREC_LAYER_RECONCILED
360
83D
  0
DICTIONARY
  5
450
330
44F
100
AcDbDictionary
280
     1
281
     1
  3
ADSK_XREC_LAYER_RECONCILED
360
83E
  0
DICTIONARY
  5
452
330
451
100
AcDbDictionary
280
     1
281
     1
  3
ADSK_XREC_LAYER_RECONCILED
360
83F
  0
DICTIONARY
  5
454
330
453
100
AcDbDictionary
280
     1
281
     1
  3
ADSK_XREC_LAYER_RECONCILED
360
840
  0
DICTIONARY
  5
8F
330
1F
100
AcDbDictionary
280
     1
281
     1
  0
DICTIONARY
  5
844
102
{ACAD_REACTORS
330
C
102
}
330
C
100
AcDbDictionary
281
     1
  3
DIMARCSYM
350
845
  3
DIMLTEX1
350
847
  3
DIMLTEX2
350
848
  3
DIMLTYPE
350
846
  0
DICTIONARY
  5
BE
102
{ACAD_REACTORS
330
C
102
}
330
C
100
AcDbDictionary
281
     1
  0
DICTIONARY
  5
D
102
{ACAD_REACTORS
330
C
102
}
330
C
100
AcDbDictionary
281
     1
  0
DICTIONARY
  5
1A
102
{ACAD_REACTORS
330
C
102
}
330
C
100
AcDbDictionary
281
     1
  3
Layout1
350
1E
  3
Layout2
350
26
  3
Model
350
22
  0
DICTIONARY
  5
BD
102
{ACAD_REACTORS
330
C
102
}
330
C
100
AcDbDictionary
281
     1
  3
ByBlock
350
26C
  3
ByLayer
350
26B
  3
Global
350
26D
  0
DICTIONARY
  5
2C4
102
{ACAD_REACTORS
330
C
102
}
330
C
100
AcDbDictionary
281
     1
  3
Standard
350
2C5
  0
DICTIONARY
  5
17
102
{ACAD_REACTORS
330
C
102
}
330
C
100
AcDbDictionary
281
     1
  3
Standard
350
18
  0
DICTIONARY
  5
19
102
{ACAD_REACTORS
330
C
102
}
330
C
100
AcDbDictionary
281
     1
  0
ACDBDICTIONARYWDFLT
  5
E
102
{ACAD_REACTORS
330
C
102
}
330
C
100
AcDbDictionary
281
     1
  3
Normal
350
F
100
AcDbDictionaryWithDefault
340
F
  0
DICTIONARY
  5
2A2
102
{ACAD_REACTORS
330
C
102
}
330
C
100
AcDbDictionary
281
     1
  3
A0
350
2A3
  3
A1
350
2A4
  3
A2
350
2A5
  3
A3
350
2A6
  3
A4
350
2A7
  3
A5
350
2A8
  3
A6
350
2A9
  3
A7
350
2AA
  3
A8
350
2AB
  3
A9
350
2AC
  3
B0
350
2AD
  3
B1
350
2AE
  3
B2
350
2AF
  3
B3
350
2B0
  3
B4
350
2B1
  3
B5
350
2B2
  3
B6
350
2B3
  3
B7
350
2B4
  3
B8
350
2B5
  3
B9
350
2B6
  3
C0
350
2B7
  3
C1
350
2B8
  3
C2
350
2B9
  3
C3
350
2BA
  3
C4
350
2BB
  3
C5
350
2BC
  3
C6
350
2BD
  3
C7
350
2BE
  3
C8
350
2BF
  3
C9
350
2C0
  3
D0
350
2C1
  3
D1
350
2C2
  3
D2
350
2C3
  0
DICTIONARY
  5
11A
102
{ACAD_REACTORS
330
C
102
}
330
C
100
AcDbDictionary
281
     1
  3
Standard
350
11B
  0
DICTIONARY
  5
26E
102
{ACAD_REACTORS
330
C
102
}
330
C
100
AcDbDictionary
281
     1
  3
2dWireframe
350
274
  3
3D Hidden
350
276
  3
3dWireframe
350
275
  3
Basic
350
273
  3
Brighten
350
27A
  3
ColorChange
350
27E
  3
Conceptual
350
277
  3
Dim
350
279
  3
Facepattern
350
27D
  3
Flat
350
26F
  3
FlatWithEdges
350
270
  3
Gouraud
350
271
  3
GouraudWithEdges
350
272
  3
Linepattern
350
27C
  3
Realistic
350
278
  3
Thicken
350
27B
  0
XRECORD
  5
2E6
102
{ACAD_REACTORS
330
C
102
}
330
C
100
AcDbXrecord
280
     1
 90
        1
330
11B
  0
DICTIONARY
  5
94
102
{ACAD_REACTORS
330
C
102
}
330
C
100
AcDbDictionary
281
     1
  3
CANNOSCALE
350
2E9
  3
CMLEADERSTYLE
350
2E7
  3
CTABLESTYLE
350
138
  3
DIMASSOC
350
96
  3
INDEXCTL
350
95
  3
LAYEREVAL
350
346
  3
LAYERNOTIFY
350
347
  3
LIGHTINGUNITS
350
2EA
  3
MSLTSCALE
350
2E8
  3
SORTENTS
350
841
  0
DICTIONARY
  5
5B
102
{ACAD_REACTORS
330
C
102
}
330
C
100
AcDbDictionary
281
     1
  3
AcmBOM
350
36B
  3
AcmStdDictionary
350
61
  3
AMDTSECTSYM_ARROWCOLOR
350
123
  0
DICTIONARY
  5
5F3
102
{ACAD_REACTORS
330
C
102
}
330
C
100
AcDbDictionary
281
     1
  0
DICTIONARY
  5
41
102
{ACAD_REACTORS
330
C
102
}
330
C
100
AcDbDictionary
281
     1
  0
DICTIONARY
  5
364
102
{ACAD_REACTORS
330
C
102
}
330
C
100
AcDbDictionary
281
     1
  0
XRECORD
  5
843
102
{ACAD_REACTORS
330
C
102
}
330
C
100
AcDbXrecord
280
     1
  1
DWGPROPS COOKIE
  2

  3

  4

  6

  7

  8
nlazaar
  9

300
AmdtFileType=84
301
=
302
=
303
=
304
=
305
=
306
=
307
=
308
=
309
=
 40
0.0020370138888889
 41
2455098.650511991
 42
2455098.652548114
  1

 90
        1
  0
DICTIONARY
  5
463
102
{ACAD_REACTORS
330
462
102
}
330
462
100
AcDbDictionary
281
     1
  0
XRECORD
  5
835
102
{ACAD_REACTORS
330
834
102
}
330
834
100
AcDbXrecord
280
     1
290
     1
  0
XRECORD
  5
836
102
{ACAD_REACTORS
330
43F
102
}
330
43F
100
AcDbXrecord
280
     1
290
     1
  0
XRECORD
  5
837
102
{ACAD_REACTORS
330
441
102
}
330
441
100
AcDbXrecord
280
     1
290
     1
  0
XRECORD
  5
838
102
{ACAD_REACTORS
330
444
102
}
330
444
100
AcDbXrecord
280
     1
290
     1
  0
XRECORD
  5
839
102
{ACAD_REACTORS
330
446
102
}
330
446
100
AcDbXrecord
280
     1
290
     1
  0
XRECORD
  5
83A
102
{ACAD_REACTORS
330
448
102
}
330
448
100
AcDbXrecord
280
     1
290
     1
  0
XRECORD
  5
83B
102
{ACAD_REACTORS
330
44A
102
}
330
44A
100
AcDbXrecord
280
     1
290
     1
  0
XRECORD
  5
83C
102
{ACAD_REACTORS
330
44C
102
}
330
44C
100
AcDbXrecord
280
     1
290
     1
  0
XRECORD
  5
83D
102
{ACAD_REACTORS
330
44E
102
}
330
44E
100
AcDbXrecord
280
     1
290
     1
  0
XRECORD
  5
83E
102
{ACAD_REACTORS
330
450
102
}
330
450
100
AcDbXrecord
280
     1
290
     1
  0
XRECORD
  5
83F
102
{ACAD_REACTORS
330
452
102
}
330
452
100
AcDbXrecord
280
     1
290
     1
  0
XRECORD
  5
840
102
{ACAD_REACTORS
330
454
102
}
330
454
100
AcDbXrecord
280
     1
290
     1
  0
XRECORD
  5
845
102
{ACAD_REACTORS
330
844
102
}
330
844
100
AcDbXrecord
280
     1
 70
     1
  0
XRECORD
  5
847
102
{ACAD_REACTORS
330
844
102
}
330
844
100
AcDbXrecord
280
     1
340
14
  0
XRECORD
  5
848
102
{ACAD_REACTORS
330
844
102
}
330
844
100
AcDbXrecord
280
     1
340
14
  0
XRECORD
  5
846
102
{ACAD_REACTORS
330
844
102
}
330
844
100
AcDbXrecord
280
     1
340
14
  0
LAYOUT
  5
1E
102
{ACAD_XDICTIONARY
360
849
102
}
102
{ACAD_REACTORS
330
1A
102
}
330
1A
100
AcDbPlotSettings
  1

  2

  4

  6

 40
0.0
 41
0.0
 42
0.0
 43
0.0
 44
0.0
 45
0.0
 46
0.0
 47
0.0
 48
0.0
 49
0.0
140
0.0
141
0.0
142
1.0
143
1.0
 70
   688
 72
     0
 73
     0
 74
     5
  7

 75
    16
147
1.0
148
0.0
149
0.0
100
AcDbLayout
  1
Layout1
 70
     1
 71
     1
 10
0.0
 20
0.0
 11
420.0
 21
297.0
 12
0.0
 22
0.0
 32
0.0
 14
1.000000000000000E+20
 24
1.000000000000000E+20
 34
1.000000000000000E+20
 15
-1.000000000000000E+20
 25
-1.000000000000000E+20
 35
-1.000000000000000E+20
146
0.0
 13
0.0
 23
0.0
 33
0.0
 16
1.0
 26
0.0
 36
0.0
 17
0.0
 27
1.0
 37
0.0
 76
     0
330
1B
  0
LAYOUT
  5
26
102
{ACAD_XDICTIONARY
360
84D
102
}
102
{ACAD_REACTORS
330
1A
102
}
330
1A
100
AcDbPlotSettings
  1

  2

  4

  6

 40
0.0
 41
0.0
 42
0.0
 43
0.0
 44
0.0
 45
0.0
 46
0.0
 47
0.0
 48
0.0
 49
0.0
140
0.0
141
0.0
142
1.0
143
1.0
 70
   688
 72
     0
 73
     0
 74
     5
  7

 75
    16
147
1.0
148
0.0
149
0.0
100
AcDbLayout
  1
Layout2
 70
     1
 71
     2
 10
0.0
 20
0.0
 11
12.0
 21
9.0
 12
0.0
 22
0.0
 32
0.0
 14
0.0
 24
0.0
 34
0.0
 15
0.0
 25
0.0
 35
0.0
146
0.0
 13
0.0
 23
0.0
 33
0.0
 16
1.0
 26
0.0
 36
0.0
 17
0.0
 27
1.0
 37
0.0
 76
     0
330
23
  0
LAYOUT
  5
22
102
{ACAD_XDICTIONARY
360
84B
102
}
102
{ACAD_REACTORS
330
1A
102
}
330
1A
100
AcDbPlotSettings
  1

  2

  4

  6

 40
0.0
 41
0.0
 42
0.0
 43
0.0
 44
0.0
 45
0.0
 46
0.0
 47
0.0
 48
0.0
 49
0.0
140
0.0
141
0.0
142
1.0
143
1.0
 70
  1712
 72
     0
 73
     0
 74
     0
  7

 75
     0
147
1.0
148
0.0
149
0.0
100
AcDbLayout
  1
Model
 70
     1
 71
     0
 10
0.0
 20
0.0
 11
12.0
 21
9.0
 12
0.0
 22
0.0
 32
0.0
 14
0.0
 24
0.0
 34
0.0
 15
0.0
 25
0.0
 35
0.0
146
0.0
 13
0.0
 23
0.0
 33
0.0
 16
1.0
 26
0.0
 36
0.0
 17
0.0
 27
1.0
 37
0.0
 76
     0
330
1F
331
269
  0
MATERIAL
  5
26C
102
{ACAD_XDICTIONARY
360
857
102
}
102
{ACAD_REACTORS
330
BD
102
}
330
BD
100
AcDbMaterial
  1
ByBlock
 73
     1
 78
     1
172
     1
176
     1
270
     1
274
     1
  0
MATERIAL
  5
26B
102
{ACAD_XDICTIONARY
360
855
102
}
102
{ACAD_REACTORS
330
BD
102
}
330
BD
100
AcDbMaterial
  1
ByLayer
 73
     1
 78
     1
172
     1
176
     1
270
     1
274
     1
  0
MATERIAL
  5
26D
102
{ACAD_XDICTIONARY
360
859
102
}
102
{ACAD_REACTORS
330
BD
102
}
330
BD
100
AcDbMaterial
  1
Global
 73
     1
 78
     1
172
     1
176
     1
270
     1
274
     1
  0
MLEADERSTYLE
  5
2C5
102
{ACAD_REACTORS
330
2C4
102
}
330
2C4
100
AcDbMLeaderStyle
170
     2
171
     1
172
     0
 90
        2
 40
0.0
 41
0.0
173
     1
 91
-1056964608
340
14
 92
       -2
290
     1
 42
2.0
291
     1
 43
0.36
  3
Standard
 44
4.0
300

342
11
174
     1
178
     6
175
     1
176
     0
 93
-1056964608
 45
4.0
292
     0
297
     0
 46
4.0
 94
-1056964608
 47
1.0
 49
1.0
140
1.0
293
     1
141
0.0
294
     1
177
     0
142
1.0
295
     0
296
     0
143
0.125
1001
ACAD_MLEADERVER
1070
     2
  0
MLINESTYLE
  5
18
102
{ACAD_REACTORS
330
17
102
}
330
17
100
AcDbMlineStyle
  2
STANDARD
 70
     0
  3

 62
   256
 51
90.0
 52
90.0
 71
     2
 49
0.5
 62
   256
  6
BYLAYER
 49
-0.5
 62
   256
  6
BYLAYER
  0
ACDBPLACEHOLDER
  5
F
102
{ACAD_REACTORS
330
E
102
}
330
E
  0
SCALE
  5
2A3
102
{ACAD_REACTORS
330
2A2
102
}
330
2A2
100
AcDbScale
 70
     0
300
1:1
140
1.0
141
1.0
290
     1
  0
SCALE
  5
2A4
102
{ACAD_REACTORS
330
2A2
102
}
330
2A2
100
AcDbScale
 70
     0
300
1:2
140
1.0
141
2.0
290
     0
  0
SCALE
  5
2A5
102
{ACAD_REACTORS
330
2A2
102
}
330
2A2
100
AcDbScale
 70
     0
300
1:4
140
1.0
141
4.0
290
     0
  0
SCALE
  5
2A6
102
{ACAD_REACTORS
330
2A2
102
}
330
2A2
100
AcDbScale
 70
     0
300
1:5
140
1.0
141
5.0
290
     0
  0
SCALE
  5
2A7
102
{ACAD_REACTORS
330
2A2
102
}
330
2A2
100
AcDbScale
 70
     0
300
1:8
140
1.0
141
8.0
290
     0
  0
SCALE
  5
2A8
102
{ACAD_REACTORS
330
2A2
102
}
330
2A2
100
AcDbScale
 70
     0
300
1:10
140
1.0
141
10.0
290
     0
  0
SCALE
  5
2A9
102
{ACAD_REACTORS
330
2A2
102
}
330
2A2
100
AcDbScale
 70
     0
300
1:16
140
1.0
141
16.0
290
     0
  0
SCALE
  5
2AA
102
{ACAD_REACTORS
330
2A2
102
}
330
2A2
100
AcDbScale
 70
     0
300
1:20
140
1.0
141
20.0
290
     0
  0
SCALE
  5
2AB
102
{ACAD_REACTORS
330
2A2
102
}
330
2A2
100
AcDbScale
 70
     0
300
1:30
140
1.0
141
30.0
290
     0
  0
SCALE
  5
2AC
102
{ACAD_REACTORS
330
2A2
102
}
330
2A2
100
AcDbScale
 70
     0
300
1:40
140
1.0
141
40.0
290
     0
  0
SCALE
  5
2AD
102
{ACAD_REACTORS
330
2A2
102
}
330
2A2
100
AcDbScale
 70
     0
300
1:50
140
1.0
141
50.0
290
     0
  0
SCALE
  5
2AE
102
{ACAD_REACTORS
330
2A2
102
}
330
2A2
100
AcDbScale
 70
     0
300
1:100
140
1.0
141
100.0
290
     0
  0
SCALE
  5
2AF
102
{ACAD_REACTORS
330
2A2
102
}
330
2A2
100
AcDbScale
 70
     0
300
2:1
140
2.0
141
1.0
290
     0
  0
SCALE
  5
2B0
102
{ACAD_REACTORS
330
2A2
102
}
330
2A2
100
AcDbScale
 70
     0
300
4:1
140
4.0
141
1.0
290
     0
  0
SCALE
  5
2B1
102
{ACAD_REACTORS
330
2A2
102
}
330
2A2
100
AcDbScale
 70
     0
300
8:1
140
8.0
141
1.0
290
     0
  0
SCALE
  5
2B2
102
{ACAD_REACTORS
330
2A2
102
}
330
2A2
100
AcDbScale
 70
     0
300
10:1
140
10.0
141
1.0
290
     0
  0
SCALE
  5
2B3
102
{ACAD_REACTORS
330
2A2
102
}
330
2A2
100
AcDbScale
 70
     0
300
100:1
140
100.0
141
1.0
290
     0
  0
SCALE
  5
2B4
102
{ACAD_REACTORS
330
2A2
102
}
330
2A2
100
AcDbScale
 70
     0
300
1/128" = 1'-0"
140
0.0078125
141
12.0
290
     0
  0
SCALE
  5
2B5
102
{ACAD_REACTORS
330
2A2
102
}
330
2A2
100
AcDbScale
 70
     0
300
1/64" = 1'-0"
140
0.015625
141
12.0
290
     0
  0
SCALE
  5
2B6
102
{ACAD_REACTORS
330
2A2
102
}
330
2A2
100
AcDbScale
 70
     0
300
1/32" = 1'-0"
140
0.03125
141
12.0
290
     0
  0
SCALE
  5
2B7
102
{ACAD_REACTORS
330
2A2
102
}
330
2A2
100
AcDbScale
 70
     0
300
1/16" = 1'-0"
140
0.0625
141
12.0
290
     0
  0
SCALE
  5
2B8
102
{ACAD_REACTORS
330
2A2
102
}
330
2A2
100
AcDbScale
 70
     0
300
3/32" = 1'-0"
140
0.09375
141
12.0
290
     0
  0
SCALE
  5
2B9
102
{ACAD_REACTORS
330
2A2
102
}
330
2A2
100
AcDbScale
 70
     0
300
1/8" = 1'-0"
140
0.125
141
12.0
290
     0
  0
SCALE
  5
2BA
102
{ACAD_REACTORS
330
2A2
102
}
330
2A2
100
AcDbScale
 70
     0
300
3/16" = 1'-0"
140
0.1875
141
12.0
290
     0
  0
SCALE
  5
2BB
102
{ACAD_REACTORS
330
2A2
102
}
330
2A2
100
AcDbScale
 70
     0
300
1/4" = 1'-0"
140
0.25
141
12.0
290
     0
  0
SCALE
  5
2BC
102
{ACAD_REACTORS
330
2A2
102
}
330
2A2
100
AcDbScale
 70
     0
300
3/8" = 1'-0"
140
0.375
141
12.0
290
     0
  0
SCALE
  5
2BD
102
{ACAD_REACTORS
330
2A2
102
}
330
2A2
100
AcDbScale
 70
     0
300
1/2" = 1'-0"
140
0.5
141
12.0
290
     0
  0
SCALE
  5
2BE
102
{ACAD_REACTORS
330
2A2
102
}
330
2A2
100
AcDbScale
 70
     0
300
3/4" = 1'-0"
140
0.75
141
12.0
290
     0
  0
SCALE
  5
2BF
102
{ACAD_REACTORS
330
2A2
102
}
330
2A2
100
AcDbScale
 70
     0
300
1" = 1'-0"
140
1.0
141
12.0
290
     0
  0
SCALE
  5
2C0
102
{ACAD_REACTORS
330
2A2
102
}
330
2A2
100
AcDbScale
 70
     0
300
1-1/2" = 1'-0"
140
1.5
141
12.0
290
     0
  0
SCALE
  5
2C1
102
{ACAD_REACTORS
330
2A2
102
}
330
2A2
100
AcDbScale
 70
     0
300
3" = 1'-0"
140
3.0
141
12.0
290
     0
  0
SCALE
  5
2C2
102
{ACAD_REACTORS
330
2A2
102
}
330
2A2
100
AcDbScale
 70
     0
300
6" = 1'-0"
140
6.0
141
12.0
290
     0
  0
SCALE
  5
2C3
102
{ACAD_REACTORS
330
2A2
102
}
330
2A2
100
AcDbScale
 70
     0
300
1'-0" = 1'-0"
140
12.0
141
12.0
290
     0
  0
TABLESTYLE
  5
11B
102
{ACAD_XDICTIONARY
360
2E4
102
}
102
{ACAD_REACTORS
330
11A
102
}
330
11A
100
AcDbTableStyle
  3
Standard
 70
     0
 71
     0
 40
1.5
 41
1.5
280
     0
281
     0
  7
STANDARD
140
4.5
170
     2
 62
     0
 63
     7
283
     0
274
    -2
284
     1
 64
     0
275
    -2
285
     1
 65
     0
276
    -2
286
     1
 66
     0
277
    -2
287
     1
 67
     0
278
    -2
288
     1
 68
     0
279
    -2
289
     1
 69
     0
  7
STANDARD
140
6.0
170
     5
 62
     0
 63
     7
283
     0
274
    -2
284
     1
 64
     0
275
    -2
285
     1
 65
     0
276
    -2
286
     1
 66
     0
277
    -2
287
     1
 67
     0
278
    -2
288
     1
 68
     0
279
    -2
289
     1
 69
     0
  7
STANDARD
140
4.5
170
     5
 62
     0
 63
     7
283
     0
274
    -2
284
     1
 64
     0
275
    -2
285
     1
 65
     0
276
    -2
286
     1
 66
     0
277
    -2
287
     1
 67
     0
278
    -2
288
     1
 68
     0
279
    -2
289
     1
 69
     0
  0
VISUALSTYLE
  5
274
102
{ACAD_REACTORS
330
26E
102
}
330
26E
100
AcDbVisualStyle
  2
2dWireframe
 70
     4
 71
     0
 72
     2
 73
     0
 90
        0
 40
-0.6
 41
-30.0
 62
     5
 63
     7
 74
     1
 91
        4
 64
     7
 65
   257
 75
     1
175
     1
 42
1.0
 92
        0
 66
   257
 43
1.0
 76
     1
 77
     6
 78
     2
 67
     7
 79
     5
170
     0
171
     0
290
     0
174
     0
 93
        1
 44
0.0
173
     0
291
     0
 45
0.0
1001
ACAD
1000
AcDbSavedByObjectVersion
1070
     0
  0
VISUALSTYLE
  5
276
102
{ACAD_REACTORS
330
26E
102
}
330
26E
100
AcDbVisualStyle
  2
3D Hidden
 70
     6
 71
     1
 72
     2
 73
     2
 90
        0
 40
-0.6
 41
-30.0
 62
     5
 63
     7
 74
     2
 91
        2
 64
     7
 65
   257
 75
     2
175
     1
 42
40.0
 92
        0
 66
   257
 43
1.0
 76
     1
 77
     6
 78
     2
 67
     7
 79
     3
170
     0
171
     0
290
     0
174
     0
 93
        1
 44
0.0
173
     0
291
     0
 45
0.0
1001
ACAD
1000
AcDbSavedByObjectVersion
1070
     0
  0
VISUALSTYLE
  5
275
102
{ACAD_REACTORS
330
26E
102
}
330
26E
100
AcDbVisualStyle
  2
3dWireframe
 70
     5
 71
     0
 72
     2
 73
     0
 90
        0
 40
-0.6
 41
-30.0
 62
     5
 63
     7
 74
     1
 91
        4
 64
     7
 65
   257
 75
     1
175
     1
 42
1.0
 92
        0
 66
   257
 43
1.0
 76
     1
 77
     6
 78
     2
 67
     7
 79
     5
170
     0
171
     0
290
     0
174
     0
 93
        1
 44
0.0
173
     0
291
     0
 45
0.0
1001
ACAD
1000
AcDbSavedByObjectVersion
1070
     0
  0
VISUALSTYLE
  5
273
102
{ACAD_REACTORS
330
26E
102
}
330
26E
100
AcDbVisualStyle
  2
Basic
 70
     7
 71
     1
 72
     0
 73
     1
 90
        0
 40
-0.6
 41
-30.0
 62
     5
 63
     7
 74
     0
 91
        4
 64
     7
 65
   257
 75
     1
175
     1
 42
1.0
 92
        8
 66
     7
 43
1.0
 76
     1
 77
     6
 78
     2
 67
     7
 79
     5
170
     0
171
     0
290
     0
174
     0
 93
        1
 44
0.0
173
     0
291
     1
 45
0.0
1001
ACAD
1000
AcDbSavedByObjectVersion
1070
     0
  0
VISUALSTYLE
  5
27A
102
{ACAD_REACTORS
330
26E
102
}
330
26E
100
AcDbVisualStyle
  2
Brighten
 70
    12
 71
     2
 72
     2
 73
     0
 90
        0
 40
-0.6
 41
-30.0
 62
     5
 63
     7
 74
     1
 91
        4
 64
     7
 65
   257
 75
     1
175
     1
 42
1.0
 92
        8
 66
     7
 43
1.0
 76
     1
 77
     6
 78
     2
 67
     7
 79
     5
170
     0
171
     0
290
     0
174
     0
 93
        1
 44
50.0
173
     0
291
     1
 45
0.0
1001
ACAD
1000
AcDbSavedByObjectVersion
1070
     0
  0
VISUALSTYLE
  5
27E
102
{ACAD_REACTORS
330
26E
102
}
330
26E
100
AcDbVisualStyle
  2
ColorChange
 70
    16
 71
     2
 72
     2
 73
     3
 90
        0
 40
-0.6
 41
-30.0
 62
     5
 63
     8
 74
     1
 91
        4
 64
     7
 65
   257
 75
     1
175
     1
 42
1.0
 92
        8
 66
     8
 43
1.0
 76
     1
 77
     6
 78
     2
 67
     7
 79
     5
170
     0
171
     0
290
     0
174
     0
 93
        1
 44
0.0
173
     0
291
     1
 45
0.0
1001
ACAD
1000
AcDbSavedByObjectVersion
1070
     0
  0
VISUALSTYLE
  5
277
102
{ACAD_REACTORS
330
26E
102
}
330
26E
100
AcDbVisualStyle
  2
Conceptual
 70
     9
 71
     3
 72
     2
 73
     0
 90
        0
 40
-0.6
 41
-30.0
 62
     5
 63
     7
 74
     2
 91
        2
 64
     7
 65
   257
 75
     1
175
     1
 42
40.0
 92
        8
 66
     7
 43
1.0
 76
     1
 77
     6
 78
     2
 67
     7
 79
     3
170
     0
171
     0
290
     0
174
     0
 93
        1
 44
0.0
173
     0
291
     0
 45
0.0
1001
ACAD
1000
AcDbSavedByObjectVersion
1070
     0
  0
VISUALSTYLE
  5
279
102
{ACAD_REACTORS
330
26E
102
}
330
26E
100
AcDbVisualStyle
  2
Dim
 70
    11
 71
     2
 72
     2
 73
     0
 90
        0
 40
-0.6
 41
-30.0
 62
     5
 63
     7
 74
     1
 91
        4
 64
     7
 65
   257
 75
     1
175
     1
 42
1.0
 92
        8
 66
     7
 43
1.0
 76
     1
 77
     6
 78
     2
 67
     7
 79
     5
170
     0
171
     0
290
     0
174
     0
 93
        1
 44
-50.0
173
     0
291
     1
 45
0.0
1001
ACAD
1000
AcDbSavedByObjectVersion
1070
     0
  0
VISUALSTYLE
  5
27D
102
{ACAD_REACTORS
330
26E
102
}
330
26E
100
AcDbVisualStyle
  2
Facepattern
 70
    15
 71
     2
 72
     2
 73
     0
 90
        0
 40
-0.6
 41
-30.0
 62
     5
 63
     7
 74
     1
 91
        4
 64
     7
 65
   257
 75
     1
175
     1
 42
1.0
 92
        8
 66
     7
 43
1.0
 76
     1
 77
     6
 78
     2
 67
     7
 79
     5
170
     0
171
     0
290
     0
174
     0
 93
        1
 44
0.0
173
     0
291
     1
 45
0.0
1001
ACAD
1000
AcDbSavedByObjectVersion
1070
     0
  0
VISUALSTYLE
  5
26F
102
{ACAD_REACTORS
330
26E
102
}
330
26E
100
AcDbVisualStyle
  2
Flat
 70
     0
 71
     2
 72
     1
 73
     1
 90
        2
 40
-0.6
 41
30.0
 62
     5
 63
     7
 74
     0
 91
        4
 64
     7
 65
   257
 75
     1
175
     1
 42
1.0
 92
        8
 66
     7
 43
1.0
 76
     1
 77
     6
 78
     2
 67
     7
 79
     5
170
     0
171
     0
290
     0
174
     0
 93
       13
 44
0.0
173
     0
291
     1
 45
0.0
1001
ACAD
1000
AcDbSavedByObjectVersion
1070
     0
  0
VISUALSTYLE
  5
270
102
{ACAD_REACTORS
330
26E
102
}
330
26E
100
AcDbVisualStyle
  2
FlatWithEdges
 70
     1
 71
     2
 72
     1
 73
     1
 90
        2
 40
-0.6
 41
30.0
 62
     5
 63
     7
 74
     1
 91
        4
 64
     7
 65
   257
 75
     1
175
     1
 42
1.0
 92
        0
 66
   257
 43
1.0
 76
     1
 77
     6
 78
     2
 67
     7
 79
     5
170
     0
171
     0
290
     0
174
     0
 93
       13
 44
0.0
173
     0
291
     1
 45
0.0
1001
ACAD
1000
AcDbSavedByObjectVersion
1070
     0
  0
VISUALSTYLE
  5
271
102
{ACAD_REACTORS
330
26E
102
}
330
26E
100
AcDbVisualStyle
  2
Gouraud
 70
     2
 71
     2
 72
     2
 73
     1
 90
        2
 40
-0.6
 41
30.0
 62
     5
 63
     7
 74
     0
 91
        4
 64
     7
 65
   257
 75
     1
175
     1
 42
1.0
 92
        0
 66
     7
 43
1.0
 76
     1
 77
     6
 78
     2
 67
     7
 79
     5
170
     0
171
     0
290
     0
174
     0
 93
       13
 44
0.0
173
     0
291
     1
 45
0.0
1001
ACAD
1000
AcDbSavedByObjectVersion
1070
     0
  0
VISUALSTYLE
  5
272
102
{ACAD_REACTORS
330
26E
102
}
330
26E
100
AcDbVisualStyle
  2
GouraudWithEdges
 70
     3
 71
     2
 72
     2
 73
     1
 90
        2
 40
-0.6
 41
30.0
 62
     5
 63
     7
 74
     1
 91
        4
 64
     7
 65
   257
 75
     1
175
     1
 42
1.0
 92
        0
 66
   257
 43
1.0
 76
     1
 77
     6
 78
     2
 67
     7
 79
     5
170
     0
171
     0
290
     0
174
     0
 93
       13
 44
0.0
173
     0
291
     1
 45
0.0
1001
ACAD
1000
AcDbSavedByObjectVersion
1070
     0
  0
VISUALSTYLE
  5
27C
102
{ACAD_REACTORS
330
26E
102
}
330
26E
100
AcDbVisualStyle
  2
Linepattern
 70
    14
 71
     2
 72
     2
 73
     0
 90
        0
 40
-0.6
 41
-30.0
 62
     5
 63
     7
 74
     1
 91
        4
 64
     7
 65
   257
 75
     7
175
     7
 42
1.0
 92
        8
 66
     7
 43
1.0
 76
     1
 77
     6
 78
     2
 67
     7
 79
     5
170
     0
171
     0
290
     0
174
     0
 93
        1
 44
0.0
173
     0
291
     1
 45
0.0
1001
ACAD
1000
AcDbSavedByObjectVersion
1070
     0
  0
VISUALSTYLE
  5
278
102
{ACAD_REACTORS
330
26E
102
}
330
26E
100
AcDbVisualStyle
  2
Realistic
 70
     8
 71
     2
 72
     2
 73
     0
 90
        0
 40
-0.6
 41
-30.0
 62
     5
 63
     7
 74
     1
 91
        0
 64
     7
 65
   257
 75
     1
175
     1
 42
1.0
 92
        8
 66
     8
 43
1.0
 76
     1
 77
     6
 78
     2
 67
     7
 79
     5
170
     0
171
     0
290
     0
174
     0
 93
       13
 44
0.0
173
     0
291
     0
 45
0.0
1001
ACAD
1000
AcDbSavedByObjectVersion
1070
     0
  0
VISUALSTYLE
  5
27B
102
{ACAD_REACTORS
330
26E
102
}
330
26E
100
AcDbVisualStyle
  2
Thicken
 70
    13
 71
     2
 72
     2
 73
     0
 90
        0
 40
-0.6
 41
-30.0
 62
     5
 63
     7
 74
     1
 91
        4
 64
     7
 65
   257
 75
     1
175
     1
 42
1.0
 92
       12
 66
     7
 43
1.0
 76
     1
 77
     6
 78
     2
 67
     7
 79
     5
170
     0
171
     0
290
     0
174
     0
 93
        1
 44
0.0
173
     0
291
     1
 45
0.0
1001
ACAD
1000
AcDbSavedByObjectVersion
1070
     0
  0
DICTIONARYVAR
  5
2E9
102
{ACAD_REACTORS
330
94
102
}
330
94
100
DictionaryVariables
280
     0
  1
1:1
  0
DICTIONARYVAR
  5
2E7
102
{ACAD_REACTORS
330
94
102
}
330
94
100
DictionaryVariables
280
     0
  1
STANDARD
  0
DICTIONARYVAR
  5
138
102
{ACAD_REACTORS
330
94
102
}
330
94
100
DictionaryVariables
280
     0
  1
STANDARD
  0
DICTIONARYVAR
  5
96
102
{ACAD_REACTORS
330
94
102
}
330
94
100
DictionaryVariables
280
     0
  1
2
  0
DICTIONARYVAR
  5
95
102
{ACAD_REACTORS
330
94
102
}
330
94
100
DictionaryVariables
280
     0
  1
0
  0
DICTIONARYVAR
  5
346
102
{ACAD_REACTORS
330
94
102
}
330
94
100
DictionaryVariables
280
     0
  1
1
  0
DICTIONARYVAR
  5
347
102
{ACAD_REACTORS
330
94
102
}
330
94
100
DictionaryVariables
280
     0
  1
15
  0
DICTIONARYVAR
  5
2EA
102
{ACAD_REACTORS
330
94
102
}
330
94
100
DictionaryVariables
280
     0
  1
0
  0
DICTIONARYVAR
  5
2E8
102
{ACAD_REACTORS
330
94
102
}
330
94
100
DictionaryVariables
280
     0
  1
0
  0
DICTIONARYVAR
  5
841
102
{ACAD_REACTORS
330
94
102
}
330
94
100
DictionaryVariables
280
     0
  1
127
  0
DICTIONARY
  5
36B
102
{ACAD_REACTORS
330
5B
102
}
330
5B
100
AcDbDictionary
281
     1
  0
DICTIONARY
  5
61
102
{ACAD_REACTORS
330
5B
102
}
330
5B
100
AcDbDictionary
281
     1
  0
XRECORD
  5
123
102
{ACAD_REACTORS
330
5B
102
}
330
5B
100
AcDbXrecord
280
     1
 90
-1023410169
  0
DICTIONARY
  5
849
330
1E
100
AcDbDictionary
280
     1
281
     1
  3
ACAD_XREC_ROUNDTRIP
360
84A
  0
DICTIONARY
  5
84D
330
26
100
AcDbDictionary
280
     1
281
     1
  3
ACAD_XREC_ROUNDTRIP
360
84E
  0
DICTIONARY
  5
84B
330
22
100
AcDbDictionary
280
     1
281
     1
  3
ACAD_XREC_ROUNDTRIP
360
84C
  0
DICTIONARY
  5
857
330
26C
100
AcDbDictionary
280
     1
281
     1
  3
ACAD_XREC_ROUNDTRIP
360
858
  0
DICTIONARY
  5
855
330
26B
100
AcDbDictionary
280
     1
281
     1
  3
ACAD_XREC_ROUNDTRIP
360
856
  0
DICTIONARY
  5
859
330
26D
100
AcDbDictionary
280
     1
281
     1
  3
ACAD_XREC_ROUNDTRIP
360
85A
  0
DICTIONARY
  5
2E4
330
11B
100
AcDbDictionary
280
     1
281
     1
  3
ACAD_ROUNDTRIP_2008_TABLESTYLE_CELLSTYLEMAP
360
842
  3
ACAD_XREC_ROUNDTRIP
360
854
  0
XRECORD
  5
84A
102
{ACAD_REACTORS
330
849
102
}
330
849
100
AcDbXrecord
280
     1
102
SHADEPLOT
 70
     0
102
SHADEPLOTRESLEVEL
 70
     2
102
SHADEPLOTCUSTOMDPI
 70
   300
  0
XRECORD
  5
84E
102
{ACAD_REACTORS
330
84D
102
}
330
84D
100
AcDbXrecord
280
     1
102
SHADEPLOT
 70
     0
102
SHADEPLOTRESLEVEL
 70
     2
102
SHADEPLOTCUSTOMDPI
 70
   300
  0
XRECORD
  5
84C
102
{ACAD_REACTORS
330
84B
102
}
330
84B
100
AcDbXrecord
280
     1
102
SHADEPLOT
 70
     0
102
SHADEPLOTRESLEVEL
 70
     2
102
SHADEPLOTCUSTOMDPI
 70
   300
  0
XRECORD
  5
858
102
{ACAD_REACTORS
330
857
102
}
330
857
100
AcDbXrecord
280
     1
102
MATERIAL
148
0.0
149
0.0
149
0.0
 93
        0
 94
       63
282
     0
 72
     1
 77
     1
171
     1
175
     1
179
     1
273
     0
  0
XRECORD
  5
856
102
{ACAD_REACTORS
330
855
102
}
330
855
100
AcDbXrecord
280
     1
102
MATERIAL
148
0.0
149
0.0
149
0.0
 93
        0
 94
       63
282
     0
 72
     1
 77
     1
171
     1
175
     1
179
     1
273
     0
  0
XRECORD
  5
85A
102
{ACAD_REACTORS
330
859
102
}
330
859
100
AcDbXrecord
280
     1
102
MATERIAL
148
0.0
149
0.0
149
0.0
 93
        0
 94
       63
282
     0
 72
     1
 77
     1
171
     1
175
     1
179
     1
273
     0
  0
CELLSTYLEMAP
  5
842
102
{ACAD_REACTORS
330
2E4
102
}
330
2E4
100
AcDbCellStyleMap
 90
        3
300
CELLSTYLE
  1
TABLEFORMAT_BEGIN
 90
        5
170
     1
 91
        0
 92
    32768
 62
   257
 93
        1
300
CONTENTFORMAT
  1
CONTENTFORMAT_BEGIN
 90
        0
 91
        0
 92
      512
 93
        0
300

 40
0.0
140
1.0
 94
        5
 62
     0
340
11
144
6.0
309
CONTENTFORMAT_END
171
     1
301
MARGIN
  1
CELLMARGIN_BEGIN
 40
1.5
 40
1.5
 40
1.5
 40
1.5
 40
0.18
 40
0.18
309
CELLMARGIN_END
 94
        6
 95
        1
302
GRIDFORMAT
  1
GRIDFORMAT_BEGIN
 90
        0
 91
        1
 62
     0
 92
       -2
340
0
 93
        0
 40
0.045
309
GRIDFORMAT_END
 95
        2
302
GRIDFORMAT
  1
GRIDFORMAT_BEGIN
 90
        0
 91
        1
 62
     0
 92
       -2
340
0
 93
        0
 40
0.045
309
GRIDFORMAT_END
 95
        4
302
GRIDFORMAT
  1
GRIDFORMAT_BEGIN
 90
        0
 91
        1
 62
     0
 92
       -2
340
0
 93
        0
 40
0.045
309
GRIDFORMAT_END
 95
        8
302
GRIDFORMAT
  1
GRIDFORMAT_BEGIN
 90
        0
 91
        1
 62
     0
 92
       -2
340
0
 93
        0
 40
0.045
309
GRIDFORMAT_END
 95
       16
302
GRIDFORMAT
  1
GRIDFORMAT_BEGIN
 90
        0
 91
        1
 62
     0
 92
       -2
340
0
 93
        0
 40
0.045
309
GRIDFORMAT_END
 95
       32
302
GRIDFORMAT
  1
GRIDFORMAT_BEGIN
 90
        0
 91
        1
 62
     0
 92
       -2
340
0
 93
        0
 40
0.045
309
GRIDFORMAT_END
309
TABLEFORMAT_END
  1
CELLSTYLE_BEGIN
 90
        1
 91
        1
300
_TITLE
309
CELLSTYLE_END
300
CELLSTYLE
  1
TABLEFORMAT_BEGIN
 90
        5
170
     1
 91
        0
 92
        0
 62
   257
 93
        1
300
CONTENTFORMAT
  1
CONTENTFORMAT_BEGIN
 90
        0
 91
        0
 92
      512
 93
        0
300

 40
0.0
140
1.0
 94
        5
 62
     0
340
11
144
4.5
309
CONTENTFORMAT_END
171
     1
301
MARGIN
  1
CELLMARGIN_BEGIN
 40
1.5
 40
1.5
 40
1.5
 40
1.5
 40
0.18
 40
0.18
309
CELLMARGIN_END
 94
        6
 95
        1
302
GRIDFORMAT
  1
GRIDFORMAT_BEGIN
 90
        0
 91
        1
 62
     0
 92
       -2
340
0
 93
        0
 40
0.045
309
GRIDFORMAT_END
 95
        2
302
GRIDFORMAT
  1
GRIDFORMAT_BEGIN
 90
        0
 91
        1
 62
     0
 92
       -2
340
0
 93
        0
 40
0.045
309
GRIDFORMAT_END
 95
        4
302
GRIDFORMAT
  1
GRIDFORMAT_BEGIN
 90
        0
 91
        1
 62
     0
 92
       -2
340
0
 93
        0
 40
0.045
309
GRIDFORMAT_END
 95
        8
302
GRIDFORMAT
  1
GRIDFORMAT_BEGIN
 90
        0
 91
        1
 62
     0
 92
       -2
340
0
 93
        0
 40
0.045
309
GRIDFORMAT_END
 95
       16
302
GRIDFORMAT
  1
GRIDFORMAT_BEGIN
 90
        0
 91
        1
 62
     0
 92
       -2
340
0
 93
        0
 40
0.045
309
GRIDFORMAT_END
 95
       32
302
GRIDFORMAT
  1
GRIDFORMAT_BEGIN
 90
        0
 91
        1
 62
     0
 92
       -2
340
0
 93
        0
 40
0.045
309
GRIDFORMAT_END
309
TABLEFORMAT_END
  1
CELLSTYLE_BEGIN
 90
        2
 91
        1
300
_HEADER
309
CELLSTYLE_END
300
CELLSTYLE
  1
TABLEFORMAT_BEGIN
 90
        5
170
     1
 91
        0
 92
        0
 62
   257
 93
        1
300
CONTENTFORMAT
  1
CONTENTFORMAT_BEGIN
 90
        0
 91
        0
 92
      512
 93
        0
300

 40
0.0
140
1.0
 94
        2
 62
     0
340
11
144
4.5
309
CONTENTFORMAT_END
171
     1
301
MARGIN
  1
CELLMARGIN_BEGIN
 40
1.5
 40
1.5
 40
1.5
 40
1.5
 40
0.18
 40
0.18
309
CELLMARGIN_END
 94
        6
 95
        1
302
GRIDFORMAT
  1
GRIDFORMAT_BEGIN
 90
        0
 91
        1
 62
     0
 92
       -2
340
0
 93
        0
 40
0.045
309
GRIDFORMAT_END
 95
        2
302
GRIDFORMAT
  1
GRIDFORMAT_BEGIN
 90
        0
 91
        1
 62
     0
 92
       -2
340
0
 93
        0
 40
0.045
309
GRIDFORMAT_END
 95
        4
302
GRIDFORMAT
  1
GRIDFORMAT_BEGIN
 90
        0
 91
        1
 62
     0
 92
       -2
340
0
 93
        0
 40
0.045
309
GRIDFORMAT_END
 95
        8
302
GRIDFORMAT
  1
GRIDFORMAT_BEGIN
 90
        0
 91
        1
 62
     0
 92
       -2
340
0
 93
        0
 40
0.045
309
GRIDFORMAT_END
 95
       16
302
GRIDFORMAT
  1
GRIDFORMAT_BEGIN
 90
        0
 91
        1
 62
     0
 92
       -2
340
0
 93
        0
 40
0.045
309
GRIDFORMAT_END
 95
       32
302
GRIDFORMAT
  1
GRIDFORMAT_BEGIN
 90
        0
 91
        1
 62
     0
 92
       -2
340
0
 93
        0
 40
0.045
309
GRIDFORMAT_END
309
TABLEFORMAT_END
  1
CELLSTYLE_BEGIN
 90
        3
 91
        2
300
_DATA
309
CELLSTYLE_END
  0
XRECORD
  5
854
102
{ACAD_REACTORS
330
2E4
102
}
330
2E4
100
AcDbXrecord
280
     1
102
ACAD_ROUNDTRIP_PRE2007_TABLESTYLE
 90
      512
 91
        0
  1

 92
      512
 93
        0
  2

 94
      512
 95
        0
  3

  0
ENDSEC
  0
EOF
