  0
SECTION
  2
HEADER
  9
$ACADVER
  1
AC1015
  9
$ACADMAINTVER
 70
    20
  9
$DWGCODEPAGE
  3
ANSI_1252
  9
$INSBASE
 10
0.0
 20
0.0
 30
0.0
  9
$EXTMIN
 10
-50.03872647726848
 20
-0.0156702060323824
 30
-0.0015258207003583
  9
$EXTMAX
 10
1384.73070593394
 20
513.5361617666772
 30
0.0000000349246037
  9
$LIMMIN
 10
0.0
 20
0.0
  9
$LIMMAX
 10
420.0
 20
297.0
  9
$ORTHOMODE
 70
     1
  9
$REGENMODE
 70
     1
  9
$FILLMODE
 70
     1
  9
$QTEXTMODE
 70
     0
  9
$MIRRTEXT
 70
     1
  9
$LTSCALE
 40
1.0
  9
$ATTMODE
 70
     1
  9
$TEXTSIZE
 40
2.5
  9
$TRACEWID
 40
1.0
  9
$TEXTSTYLE
  7
STANDARD
  9
$CLAYER
  8
0
  9
$CELTYPE
  6
ByLayer
  9
$CECOLOR
 62
   256
  9
$CELTSCALE
 40
1.0
  9
$DISPSILH
 70
     0
  9
$DIMSCALE
 40
1.0
  9
$DIMASZ
 40
3.5
  9
$DIMEXO
 40
1.0
  9
$DIMDLI
 40
10.0
  9
$DIMRND
 40
0.0
  9
$DIMDLE
 40
0.0
  9
$DIMEXE
 40
1.0
  9
$DIMTP
 40
0.1
  9
$DIMTM
 40
0.1
  9
$DIMTXT
 40
3.5
  9
$DIMCEN
 40
0.0
  9
$DIMTSZ
 40
0.0
  9
$DIMTOL
 70
     0
  9
$DIMLIM
 70
     0
  9
$DIMTIH
 70
     0
  9
$DIMTOH
 70
     0
  9
$DIMSE1
 70
     0
  9
$DIMSE2
 70
     0
  9
$DIMTAD
 70
     1
  9
$DIMZIN
 70
     8
  9
$DIMBLK
  1

  9
$DIMASO
 70
     1
  9
$DIMSHO
 70
     1
  9
$DIMPOST
  1

  9
$DIMAPOST
  1
"
  9
$DIMALT
 70
     0
  9
$DIMALTD
 70
     2
  9
$DIMALTF
 40
0.0393701
  9
$DIMLFAC
 40
1.0
  9
$DIMTOFL
 70
     1
  9
$DIMTVP
 40
0.0
  9
$DIMTIX
 70
     0
  9
$DIMSOXD
 70
     0
  9
$DIMSAH
 70
     0
  9
$DIMBLK1
  1

  9
$DIMBLK2
  1

  9
$DIMSTYLE
  2
AM_ISO
  9
$DIMCLRD
 70
   256
  9
$DIMCLRE
 70
   256
  9
$DIMCLRT
 70
   140
  9
$DIMTFAC
 40
0.71
  9
$DIMGAP
 40
1.5
  9
$DIMJUST
 70
     0
  9
$DIMSD1
 70
     0
  9
$DIMSD2
 70
     0
  9
$DIMTOLJ
 70
     0
  9
$DIMTZIN
 70
     8
  9
$DIMALTZ
 70
     0
  9
$DIMALTTZ
 70
     0
  9
$DIMUPT
 70
     0
  9
$DIMDEC
 70
     2
  9
$DIMTDEC
 70
     3
  9
$DIMALTU
 70
     2
  9
$DIMALTTD
 70
     4
  9
$DIMTXSTY
  7
STANDARD
  9
$DIMAUNIT
 70
     0
  9
$DIMADEC
 70
     0
  9
$DIMALTRND
 40
0.0
  9
$DIMAZIN
 70
     2
  9
$DIMDSEP
 70
    46
  9
$DIMATFIT
 70
     3
  9
$DIMFRAC
 70
     0
  9
$DIMLDRBLK
  1

  9
$DIMLUNIT
 70
     2
  9
$DIMLWD
 70
    -1
  9
$DIMLWE
 70
    -1
  9
$DIMTMOVE
 70
     0
  9
$LUNITS
 70
     2
  9
$LUPREC
 70
     2
  9
$SKETCHINC
 40
1.0
  9
$FILLETRAD
 40
0.0
  9
$AUNITS
 70
     0
  9
$AUPREC
 70
     0
  9
$MENU
  1
.
  9
$ELEVATION
 40
0.0
  9
$PELEVATION
 40
0.0
  9
$THICKNESS
 40
0.0
  9
$LIMCHECK
 70
     0
  9
$CHAMFERA
 40
2.5
  9
$CHAMFERB
 40
2.5
  9
$CHAMFERC
 40
20.0
  9
$CHAMFERD
 40
0.0
  9
$SKPOLY
 70
     0
  9
$TDCREATE
 40
2455097.701019236
  9
$TDUCREATE
 40
2455097.617685903
  9
$TDUPDATE
 40
2455097.703581655
  9
$TDUUPDATE
 40
2455097.620248322
  9
$TDINDWG
 40
0.0025633102
  9
$TDUSRTIMER
 40
0.0025631366
  9
$USRTIMER
 70
     1
  9
$ANGBASE
 50
0.0
  9
$ANGDIR
 70
     0
  9
$PDMODE
 70
     0
  9
$PDSIZE
 40
0.0
  9
$PLINEWID
 40
0.0
  9
$SPLFRAME
 70
     0
  9
$SPLINETYPE
 70
     6
  9
$SPLINESEGS
 70
     8
  9
$HANDSEED
  5
72D
  9
$SURFTAB1
 70
     6
  9
$SURFTAB2
 70
     6
  9
$SURFTYPE
 70
     6
  9
$SURFU
 70
     6
  9
$SURFV
 70
     6
  9
$UCSBASE
  2

  9
$UCSNAME
  2

  9
$UCSORG
 10
0.0
 20
0.0
 30
0.0
  9
$UCSXDIR
 10
1.0
 20
0.0
 30
0.0
  9
$UCSYDIR
 10
0.0
 20
1.0
 30
0.0
  9
$UCSORTHOREF
  2

  9
$UCSORTHOVIEW
 70
     0
  9
$UCSORGTOP
 10
0.0
 20
0.0
 30
0.0
  9
$UCSORGBOTTOM
 10
0.0
 20
0.0
 30
0.0
  9
$UCSORGLEFT
 10
0.0
 20
0.0
 30
0.0
  9
$UCSORGRIGHT
 10
0.0
 20
0.0
 30
0.0
  9
$UCSORGFRONT
 10
0.0
 20
0.0
 30
0.0
  9
$UCSORGBACK
 10
0.0
 20
0.0
 30
0.0
  9
$PUCSBASE
  2

  9
$PUCSNAME
  2

  9
$PUCSORG
 10
0.0
 20
0.0
 30
0.0
  9
$PUCSXDIR
 10
1.0
 20
0.0
 30
0.0
  9
$PUCSYDIR
 10
0.0
 20
1.0
 30
0.0
  9
$PUCSORTHOREF
  2

  9
$PUCSORTHOVIEW
 70
     0
  9
$PUCSORGTOP
 10
0.0
 20
0.0
 30
0.0
  9
$PUCSORGBOTTOM
 10
0.0
 20
0.0
 30
0.0
  9
$PUCSORGLEFT
 10
0.0
 20
0.0
 30
0.0
  9
$PUCSORGRIGHT
 10
0.0
 20
0.0
 30
0.0
  9
$PUCSORGFRONT
 10
0.0
 20
0.0
 30
0.0
  9
$PUCSORGBACK
 10
0.0
 20
0.0
 30
0.0
  9
$USERI1
 70
     0
  9
$USERI2
 70
     0
  9
$USERI3
 70
     0
  9
$USERI4
 70
     0
  9
$USERI5
 70
     0
  9
$USERR1
 40
0.0
  9
$USERR2
 40
0.0
  9
$USERR3
 40
0.0
  9
$USERR4
 40
0.0
  9
$USERR5
 40
0.0
  9
$WORLDVIEW
 70
     1
  9
$SHADEDGE
 70
     3
  9
$SHADEDIF
 70
    70
  9
$TILEMODE
 70
     1
  9
$MAXACTVP
 70
    64
  9
$PINSBASE
 10
0.0
 20
0.0
 30
0.0
  9
$PLIMCHECK
 70
     0
  9
$PEXTMIN
 10
1.000000000000000E+20
 20
1.000000000000000E+20
 30
1.000000000000000E+20
  9
$PEXTMAX
 10
-1.000000000000000E+20
 20
-1.000000000000000E+20
 30
-1.000000000000000E+20
  9
$PLIMMIN
 10
0.0
 20
0.0
  9
$PLIMMAX
 10
420.0
 20
297.0
  9
$UNITMODE
 70
     0
  9
$VISRETAIN
 70
     1
  9
$PLINEGEN
 70
     0
  9
$PSLTSCALE
 70
     1
  9
$TREEDEPTH
 70
  3020
  9
$CMLSTYLE
  2
Standard
  9
$CMLJUST
 70
     0
  9
$CMLSCALE
 40
20.0
  9
$PROXYGRAPHICS
 70
     1
  9
$MEASUREMENT
 70
     1
  9
$CELWEIGHT
370
    -1
  9
$ENDCAPS
280
     0
  9
$JOINSTYLE
280
     0
  9
$LWDISPLAY
290
     0
  9
$INSUNITS
 70
     4
  9
$HYPERLINKBASE
  1

  9
$STYLESHEET
  1

  9
$XEDIT
290
     1
  9
$CEPSNTYPE
380
     0
  9
$PSTYLEMODE
290
     1
  9
$FINGERPRINTGUID
  2
{098077A0-63AB-4867-B622-333BB6E8857A}
  9
$VERSIONGUID
  2
{F94F46B5-DE30-4825-AEAE-46E665584220}
  9
$EXTNAMES
290
     1
  9
$PSVPSCALE
 40
0.0
  9
$OLESTARTUP
290
     0
  0
ENDSEC
  0
SECTION
  2
CLASSES
  0
CLASS
  1
ACDBDICTIONARYWDFLT
  2
AcDbDictionaryWithDefault
  3
ObjectDBX Classes
 90
        0
280
     0
281
     0
  0
CLASS
  1
ACDBPLACEHOLDER
  2
AcDbPlaceHolder
  3
ObjectDBX Classes
 90
        0
280
     0
281
     0
  0
CLASS
  1
LAYOUT
  2
AcDbLayout
  3
ObjectDBX Classes
 90
        0
280
     0
281
     0
  0
CLASS
  1
ACME_DOCUMENT
  2
AcMeDbDoc
  3
AcMeServices
 90
     1024
280
     0
281
     0
  0
CLASS
  1
AMGSETTINGSOBJ
  2
AmgSettingsObj
  3
"AcadM|Product Description: AutoCAD Mechanical|Company: Autodesk, Inc."
 90
     1024
280
     0
281
     0
  0
CLASS
  1
ACMESCOPE
  2
AcMeScope
  3
AcMeServices
 90
     1024
280
     0
281
     0
  0
CLASS
  1
ACMECOMMANDHISTORY
  2
AcMeCommandHistory
  3
AcMeServices
 90
     1024
280
     0
281
     0
  0
CLASS
  1
ACIMSYSVARMAN
  2
AcImSysVarManager
  3
AcMeServices
 90
     1024
280
     0
281
     0
  0
CLASS
  1
ACIMREALSYSVAR
  2
AcImRealSysVar
  3
AcMeServices
 90
     1024
280
     0
281
     0
  0
CLASS
  1
ACIMINTSYSVAR
  2
AcImIntSysVar
  3
AcMeServices
 90
     1024
280
     0
281
     0
  0
CLASS
  1
ACMEDRAWINGMAN
  2
AcMeDrawingMan
  3
AcMeServices
 90
     1024
280
     0
281
     0
  0
CLASS
  1
ACMEVIEW
  2
AcMeView
  3
AcMeServices
 90
     1024
280
     0
281
     0
  0
CLASS
  1
ACDBENTITYCACHE
  2
AcMeEntityCache
  3
AcMeServices
 90
     1024
280
     0
281
     0
  0
CLASS
  1
GSMANAGER
  2
AcMeGSManager
  3
AcMeServices
 90
     1024
280
     0
281
     0
  0
CLASS
  1
AMDTINTERNALREACTOR
  2
AmdtInternalReactor
  3
AcMeServices
 90
     1024
280
     0
281
     0
  0
CLASS
  1
ACMESTATEMGR
  2
AcMeStateMgr
  3
AcMeServices
 90
     1024
280
     0
281
     0
  0
CLASS
  1
ACGREFMASTER
  2
AcGrefMaster
  3
AcAttribServices
 90
     1024
280
     0
281
     0
  0
CLASS
  1
ACME_DATABASE
  2
AcMeDbDatabase
  3
AcMeServices
 90
     1024
280
     0
281
     0
  0
CLASS
  1
ACRFINSADJUSTERMGR
  2
AcRfInsAdjusterMgr
  3
AcMeServices
 90
     1024
280
     0
281
     0
  0
CLASS
  1
ACGREFACADMASTER
  2
AcGrefacadMaster
  3
AcGrefServices
 90
     1024
280
     0
281
     0
  0
CLASS
  1
AMIMASTER
  2
AmiMaster
  3
AmiServices
 90
     1024
280
     0
281
     0
  0
CLASS
  1
ACMDATADICTIONARY
  2
AcmDataDictionary
  3
"AcmSymBB|Product Description: AutoCAD Mechanical|Company: Autodesk, Inc."
 90
     1024
280
     0
281
     0
  0
CLASS
  1
ACMDATAENTRYBLOCK
  2
AcmDataEntryBlock
  3
AcmSymBB|Product Description: AutoCAD Mechanical|Company: Autodesk, Inc.
 90
     1024
280
     0
281
     0
  0
CLASS
  1
ACIMSTRSYSVAR
  2
AcImStrSysVar
  3
AcMeServices
 90
     1024
280
     0
281
     0
  0
CLASS
  1
ACMSTANDARDISO
  2
AcmStandardISO
  3
"Amdt_StdImp|Product Description: AutoCAD Mechanical|Company: Autodesk, Inc."
 90
     1024
280
     0
281
     0
  0
CLASS
  1
AMGOBJPROPCFG
  2
AmgObjPropCfg
  3
"AmgLay|Product Description: AutoCAD Mechanical|Company: Autodesk, Inc."
 90
     1025
280
     0
281
     0
  0
CLASS
  1
AMDTEDGESTANDARDISO
  2
AmdtEdgeStdISO
  3
"Amdt_StdImp|Product Description: AutoCAD Mechanical|Company: Autodesk, Inc."
 90
    33792
280
     0
281
     0
  0
CLASS
  1
ACMSURFSTANDARDISO
  2
AcmSurfTextStdISO
  3
"Amdt_StdImp|Product Description: AutoCAD Mechanical|Company: Autodesk, Inc."
 90
    33792
280
     0
281
     0
  0
CLASS
  1
ACMFCFSTANDARDISO
  2
AcmFCFStdISO
  3
"Amdt_StdImp|Product Description: AutoCAD Mechanical|Company: Autodesk, Inc."
 90
     1024
280
     0
281
     0
  0
CLASS
  1
ACMWELDSTANDARDISO
  2
AcmWeldingStdISO
  3
"Amdt_StdImp|Product Description: AutoCAD Mechanical|Company: Autodesk, Inc."
 90
     1024
280
     0
281
     0
  0
CLASS
  1
ACMIDSTANDARDISO
  2
AcmIdStdISO
  3
"Amdt_StdImp|Product Description: AutoCAD Mechanical|Company: Autodesk, Inc."
 90
     1024
280
     0
281
     0
  0
CLASS
  1
ACMDATUMSTANDARDISO
  2
AcmDatumStdISO
  3
"Amdt_StdImp|Product Description: AutoCAD Mechanical|Company: Autodesk, Inc."
 90
     1024
280
     0
281
     0
  0
CLASS
  1
ACMBOMSTANDARDISO
  2
AcmBOMStdISO
  3
"Amdt_StdImp|Product Description: AutoCAD Mechanical|Company: Autodesk, Inc."
 90
     1024
280
     0
281
     0
  0
CLASS
  1
ACMDETAILSTANDARDISO
  2
AmdtDetailSymStdISO
  3
"Amdt_StdImp|Product Description: AutoCAD Mechanical|Company: Autodesk, Inc."
 90
     1024
280
     0
281
     0
  0
CLASS
  1
ACMSECTIONSTANDARDISO
  2
AmdtSectionSymStdISO
  3
"Amdt_StdImp|Product Description: AutoCAD Mechanical|Company: Autodesk, Inc."
 90
    33792
280
     0
281
     0
  0
CLASS
  1
ACMCENTERLINESTANDARDISO
  2
AmdtCenterLineStdISO
  3
"Amdt_StdImp|Product Description: AutoCAD Mechanical|Company: Autodesk, Inc."
 90
     1024
280
     0
281
     0
  0
CLASS
  1
ACMNOTESTANDARDISO
  2
AmdtNoteStdISO
  3
"Amdt_StdImp|Product Description: AutoCAD Mechanical|Company: Autodesk, Inc."
 90
     1024
280
     0
281
     0
  0
CLASS
  1
ACAMGLAYSTD
  2
AcAmgLayStd
  3
"AmgLay|Product Description: AutoCAD Mechanical|Company: Autodesk, Inc."
 90
     1024
280
     0
281
     0
  0
CLASS
  1
ACAMGDIMSTD
  2
AcAmgDimStd
  3
"AmgDim|Product Description: AutoCAD Mechanical|Company: Autodesk, Inc."
 90
     1024
280
     0
281
     0
  0
CLASS
  1
ACAMGHOLECHARTSTDISO
  2
AcAmgHoleChartStdISO
  3
AmgDim|Product Description: AutoCAD Mechanical|Company: Autodesk, Inc.
 90
     1024
280
     0
281
     0
  0
CLASS
  1
ACAMGTITLESTD
  2
AcAmgTitleStd
  3
"AmgTitle|Product Description: AutoCAD Mechanical|Company: Autodesk, Inc."
 90
     4095
280
     0
281
     0
  0
CLASS
  1
LAYER_INDEX
  2
AcDbLayerIndex
  3
ObjectDBX Classes
 90
    32768
280
     0
281
     0
  0
CLASS
  1
IDBUFFER
  2
AcDbIdBuffer
  3
ObjectDBX Classes
 90
    32768
280
     0
281
     0
  0
CLASS
  1
DICTIONARYVAR
  2
AcDbDictionaryVar
  3
ObjectDBX Classes
 90
        0
280
     0
281
     0
  0
CLASS
  1
AM_DRAWING_MGR
  2
AcDmDwgMgr
  3
AcMechDwgViewMgmt
 90
     1024
280
     0
281
     0
  0
CLASS
  1
AM_DWG_DOCUMENT
  2
AcDmDwgDocument
  3
AcMechDwgViewMgmt
 90
     1024
280
     0
281
     0
  0
CLASS
  1
AM_DWG_SHEET
  2
AcDmSheet
  3
AcMechDwgViewMgmt
 90
     1024
280
     0
281
     0
  0
CLASS
  1
AM_VIEWDIMPARMAP
  2
AcDmViewDimParMap
  3
AcMechDwgViewMgmt
 90
     1024
280
     0
281
     0
  0
CLASS
  1
AM_DWGMGR_NAME
  2
AcDmDwgMgrName
  3
AcMechDwgViewMgmt
 90
     1024
280
     0
281
     0
  0
CLASS
  1
AMDTMENUSTATEMGR
  2
AmdtMenuStateMgr
  3
McadcomServices
 90
     1024
280
     0
281
     0
  0
CLASS
  1
AMDTMCOMMENUSTATE
  2
AmdtMcomMenuState
  3
McadcomServices
 90
     1024
280
     0
281
     0
  0
CLASS
  1
MAPIAMMOUDLE
  2
MApiAmModule
  3
MApiAmServices
 90
     1024
280
     0
281
     0
  0
CLASS
  1
AMDTADMENUSTATE
  2
AmdtAdMenuState
  3
DesignerServices
 90
     1024
280
     0
281
     0
  0
CLASS
  1
ADAPPL
  2
AcAdAppl
  3
DesignerServices
 90
     1024
280
     0
281
     0
  0
CLASS
  1
DEPMGR
  2
AcAdDepMgr
  3
DesignerServices
 90
     1024
280
     0
281
     0
  0
CLASS
  1
PARAMMGR
  2
AcAdParamMgr
  3
DesignerServices
 90
     1024
280
     0
281
     0
  0
CLASS
  1
PARAMSCOPE
  2
AcAdParamScope
  3
DesignerServices
 90
     1024
280
     0
281
     0
  0
CLASS
  1
NAMEDAPPL
  2
AcAdNamedAppl
  3
DesignerServices
 90
     1024
280
     0
281
     0
  0
CLASS
  1
AMDTDMMENUSTATE
  2
AmdtDmMenuState
  3
AcMechDwgViewMgmt
 90
     1024
280
     0
281
     0
  0
CLASS
  1
AMDTAMMENUSTATE
  2
AmdtAmMenuState
  3
DesignerAssemblies
 90
     1024
280
     0
281
     0
  0
CLASS
  1
ACAMPROJECT
  2
AcAmProject
  3
DesignerAssemblies
 90
     1024
280
     0
281
     0
  0
CLASS
  1
ACAMGRCOMPDEF
  2
AcAmGrCompDef
  3
DesignerAssemblies
 90
     1024
280
     0
281
     0
  0
CLASS
  1
ACCMCONTEXT
  2
AcCmContext
  3
DesignerAssemblies
 90
     1024
280
     0
281
     0
  0
CLASS
  1
ACAMCOMPDEF
  2
AcAmCompDef
  3
DesignerAssemblies
 90
     1024
280
     0
281
     0
  0
CLASS
  1
ACAMCOMPDEFMGR
  2
AcAmCompDefMgr
  3
DesignerAssemblies
 90
     1024
280
     0
281
     0
  0
CLASS
  1
AMCONTEXTMGR
  2
AcAmContextMgr
  3
DesignerAssemblies
 90
     1024
280
     0
281
     0
  0
CLASS
  1
ACAMCONTEXTMODELER
  2
AcAmContextModeler
  3
DesignerAssemblies
 90
     1024
280
     0
281
     0
  0
CLASS
  1
ACMTHREADLINESTANDARDISO
  2
AmdtThreadLineStdISO
  3
"Amdt_StdImp|Product Description: AutoCAD Mechanical|Company: Autodesk, Inc."
 90
     1024
280
     0
281
     0
  0
CLASS
  1
CATALOGSTATE
  2
AcAmCatalogState
  3
DesignerAssemblies
 90
     1024
280
     0
281
     0
  0
CLASS
  1
ACAMGRCOMPDEFSET
  2
AcAmGrCompDefSet
  3
DesignerAssemblies
 90
     1024
280
     0
281
     0
  0
CLASS
  1
AMDTBROWSERDBTAB
  2
AmdtBrowserDbTab
  3
McadcomServices
 90
     1024
280
     0
281
     0
  0
CLASS
  1
CBROWSERAPPOBJECT
  2
CBrowserAppObject
  3
McadcomServices
 90
     1024
280
     0
281
     0
  0
CLASS
  1
DM_PLACEHOLDER
  2
AcDmSelsetPlaceholder
  3
AcMechDwgViewMgmt
 90
     1024
280
     0
281
     0
  0
CLASS
  1
TABLESTYLE
  2
AcDbTableStyle
  3
ObjectDBX Classes
 90
     4095
280
     0
281
     0
  0
CLASS
  1
VAACXREFPANELOBJECT
  2
VaAcXREFPanelObject
  3
VAAC_ADDIN
 90
    32768
280
     0
281
     0
  0
CLASS
  1
VAACIMAGEINVENTORY
  2
VaAcImageInventory
  3
VAAC_ADDIN
 90
    32768
280
     0
281
     0
  0
CLASS
  1
AMDTNOTETEMPLATEDB
  2
AmdtNoteTemplateDB
  3
AcmSymBB|Product Description: AutoCAD Mechanical|Company: Autodesk, Inc.
 90
     1024
280
     0
281
     0
  0
CLASS
  1
MATERIAL
  2
AcDbMaterial
  3
ObjectDBX Classes
 90
     1153
280
     0
281
     0
  0
CLASS
  1
VISUALSTYLE
  2
AcDbVisualStyle
  3
ObjectDBX Classes
 90
     4095
280
     0
281
     0
  0
CLASS
  1
ACRFATTGENMGR
  2
AcRfAttGeneralMgr
  3
AcAttribServices
 90
     1024
280
     0
281
     0
  0
CLASS
  1
ACRFOBJATTMGR
  2
AcRfObjAttGroupMgr
  3
AcAttribServices
 90
     1024
280
     0
281
     0
  0
CLASS
  1
ACRFMCADAPIATTHOLDER
  2
AcRfMCADAPIAttHolder
  3
AcAttribServices
 90
     1024
280
     0
281
     0
  0
CLASS
  1
AMDTSYSATTR
  2
AmdtSystemAttribute
  3
AcAttribServices
 90
     1024
280
     0
281
     0
  0
CLASS
  1
ACMTAPERSTANDARDISO
  2
AcmTaperStdISO
  3
"Amdt_StdImp|Product Description: AutoCAD Mechanical|Company: Autodesk, Inc."
 90
     1024
280
     0
281
     0
  0
CLASS
  1
CAMSSTRUCTBTNSTATE
  2
StructBtnState
  3
DesignerAssemblies
 90
     1024
280
     0
281
     0
  0
CLASS
  1
SCALE
  2
AcDbScale
  3
ObjectDBX Classes
 90
     1153
280
     0
281
     0
  0
CLASS
  1
MLEADERSTYLE
  2
AcDbMLeaderStyle
  3
ACDB_MLEADERSTYLE_CLASS
 90
     4095
280
     0
281
     0
  0
CLASS
  1
ACMANOOTATIONVIEWSTANDARDISO
  2
AmdtAnViewStdISO
  3
"Amdt_StdImp|Product Description: AutoCAD Mechanical|Company: Autodesk, Inc."
 90
     1024
280
     0
281
     0
  0
CLASS
  1
ACMSURFSTANDARDISO2002
  2
AcmSurfTextStdISO2002
  3
"Amdt_StdImp|Product Description: AutoCAD Mechanical|Company: Autodesk, Inc."
 90
     1024
280
     0
281
     0
  0
CLASS
  1
CELLSTYLEMAP
  2
AcDbCellStyleMap
  3
ObjectDBX Classes
 90
     1152
280
     0
281
     0
  0
CLASS
  1
ACMSECTIONSTANDARDISO2001
  2
AmdtSectionSymStdISO2001
  3
"Amdt_StdImp|Product Description: AutoCAD Mechanical|Company: Autodesk, Inc."
 90
     1024
280
     0
281
     0
  0
CLASS
  1
EXACXREFPANELOBJECT
  2
ExAcXREFPanelObject
  3
EXAC_ESW
 90
     1025
280
     0
281
     0
  0
CLASS
  1
NPOCOLLECTION
  2
AcDbImpNonPersistentObjectsCollection
  3
ObjectDBX Classes
 90
     1153
280
     0
281
     0
  0
CLASS
  1
AMDTEDGESTANDARDISO13715
  2
AmdtEdgeStdISO13715
  3
"Amdt_StdImp|Product Description: AutoCAD Mechanical|Company: Autodesk, Inc."
 90
     1024
280
     0
281
     0
  0
CLASS
  1
ACAMGFILTERDAT
  2
AcAmgFilterDat
  3
"AcadM|Product Description: AutoCAD Mechanical|Company: Autodesk, Inc."
 90
     1024
280
     0
281
     0
  0
CLASS
  1
ACMBOM
  2
AcmBom
  3
"AcmSymBB|Product Description: AutoCAD Mechanical|Company: Autodesk, Inc."
 90
    33792
280
     0
281
     0
  0
CLASS
  1
AMDTFORMULAUPDATEDISPATCHER
  2
AmdtFormulaUpdateDispatcher
  3
AcMeServices
 90
    33792
280
     0
281
     0
  0
CLASS
  1
AEC_REFEDIT_STATUS_TRACKER
  2
AecDbRefEditStatusTracker
  3
AecArchBase50|Product Desc: Autodesk Architectural Desktop 2007 |Company: Autodesk,Inc. |WEB Address: www.autodesk.com
 90
      129
280
     0
281
     0
  0
ENDSEC
  0
SECTION
  2
TABLES
  0
TABLE
  2
VPORT
  5
8
330
0
100
AcDbSymbolTable
 70
     1
  0
VPORT
  5
269
330
8
100
AcDbSymbolTableRecord
100
AcDbViewportTableRecord
  2
*Active
 70
     0
 10
0.0
 20
0.0
 11
1.0
 21
1.0
 12
667.3459897283361
 22
256.7602457803224
 13
0.0
 23
0.0
 14
2.5
 24
2.5
 15
10.0
 25
10.0
 16
0.0
 26
0.0
 36
1.0
 17
0.0
 27
0.0
 37
0.0
 40
748.5230801519549
 41
1.923900118906064
 42
50.0
 43
0.0
 44
0.0
 50
0.0
 51
0.0
 71
     0
 72
   100
 73
     1
 74
     3
 75
     0
 76
     0
 77
     0
 78
     0
281
     0
 65
     1
110
0.0
120
0.0
130
0.0
111
1.0
121
0.0
131
0.0
112
0.0
122
1.0
132
0.0
 79
     0
146
0.0
  0
ENDTAB
  0
TABLE
  2
LTYPE
  5
5
330
0
100
AcDbSymbolTable
 70
    17
  0
LTYPE
  5
14
330
5
100
AcDbSymbolTableRecord
100
AcDbLinetypeTableRecord
  2
ByBlock
 70
     0
  3

 72
    65
 73
     0
 40
0.0
  0
LTYPE
  5
15
330
5
100
AcDbSymbolTableRecord
100
AcDbLinetypeTableRecord
  2
ByLayer
 70
     0
  3

 72
    65
 73
     0
 40
0.0
  0
LTYPE
  5
16
330
5
100
AcDbSymbolTableRecord
100
AcDbLinetypeTableRecord
  2
Continuous
 70
     0
  3
Solid line
 72
    65
 73
     0
 40
0.0
  0
LTYPE
  5
64
330
5
100
AcDbSymbolTableRecord
100
AcDbLinetypeTableRecord
  2
AM_ISO02W050
 70
     0
  3
__ __ __ __ __ __ __ __ __ __ __ __ __ __ __
 72
    65
 73
     2
 40
7.5
 49
6.0
 74
     0
 49
-1.5
 74
     0
  0
LTYPE
  5
65
330
5
100
AcDbSymbolTableRecord
100
AcDbLinetypeTableRecord
  2
AM_ISO08W050
 70
     0
  3
____ . ____ . ____ . ____ . ____ . ____ . ____
 72
    65
 73
     4
 40
18.0
 49
12.0
 74
     0
 49
-1.5
 74
     0
 49
3.0
 74
     0
 49
-1.5
 74
     0
  0
LTYPE
  5
66
330
5
100
AcDbSymbolTableRecord
100
AcDbLinetypeTableRecord
  2
AM_ISO09W050
 70
     0
  3
_____ . . _____ . . _____ . . ____ .. ____
 72
    65
 73
     6
 40
22.5
 49
12.0
 74
     0
 49
-1.5
 74
     0
 49
3.0
 74
     0
 49
-1.5
 74
     0
 49
3.0
 74
     0
 49
-1.5
 74
     0
  0
LTYPE
  5
67
330
5
100
AcDbSymbolTableRecord
100
AcDbLinetypeTableRecord
  2
Amconstr
 70
     0
  3
_______________________
 72
    65
 73
     2
 40
9999.0
 49
9999.0
 74
     0
 49
0.0
 74
     0
  0
LTYPE
  5
68
330
5
100
AcDbSymbolTableRecord
100
AcDbLinetypeTableRecord
  2
AM_ISO08W050x2
 70
     0
  3
__ . __ . __ . __ . __ . __
 72
    65
 73
     4
 40
9.0
 49
6.0
 74
     0
 49
-0.75
 74
     0
 49
1.5
 74
     0
 49
-0.75
 74
     0
  0
LTYPE
  5
69
330
5
100
AcDbSymbolTableRecord
100
AcDbLinetypeTableRecord
  2
AM_ISO02W050x2
 70
     0
  3
 _ _ _ _ _ _ _ _ _ _ _ _
 72
    65
 73
     2
 40
3.75
 49
3.0
 74
     0
 49
-0.75
 74
     0
  0
LTYPE
  5
6C
330
5
100
AcDbSymbolTableRecord
100
AcDbLinetypeTableRecord
  2
Amzigzag
 70
     0
  3
/\/-/\/-/\/-/\/-/\/-/\/
 72
    65
 73
     2
 40
11.0001
 49
0.0001
 74
     4
 75
   136
340
22C
 46
0.04
 50
0.0
 44
0.0
 45
0.0
 49
-11.0
 74
     0
  0
LTYPE
  5
7A
330
5
100
AcDbSymbolTableRecord
100
AcDbLinetypeTableRecord
  2
ACISOWELD
 70
     0
  3
_ _ _ _ _
 72
    65
 73
     2
 40
2.0
 49
2.0
 74
     0
 49
-1.0
 74
     0
  0
LTYPE
  5
7B
330
5
100
AcDbSymbolTableRecord
100
AcDbLinetypeTableRecord
  2
ACISOTGB
 70
     0
  3
__ . . __ . .
 72
    65
 73
     6
 40
9.0
 49
4.0
 74
     0
 49
-1.0
 74
     0
 49
1.0
 74
     0
 49
-1.0
 74
     0
 49
1.0
 74
     0
 49
-1.0
 74
     0
  0
LTYPE
  5
7C
330
5
100
AcDbSymbolTableRecord
100
AcDbLinetypeTableRecord
  2
ACISOTGL
 70
     0
  3
_ _ _ _ _
 72
    65
 73
     2
 40
3.0
 49
2.0
 74
     0
 49
-1.0
 74
     0
  0
LTYPE
  5
7E
330
5
100
AcDbSymbolTableRecord
100
AcDbLinetypeTableRecord
  2
CENTER
 70
     0
  3
__ . __
 72
    65
 73
     4
 40
7.0
 49
4.0
 74
     0
 49
-1.0
 74
     0
 49
1.0
 74
     0
 49
-1.0
 74
     0
  0
LTYPE
  5
D8
330
5
100
AcDbSymbolTableRecord
100
AcDbLinetypeTableRecord
  2
HIDDEN
 70
     0
  3
Hidden __ __ __ __ __ __ __ __ __ __ __ __ __ _
 72
    65
 73
     2
 40
9.524999999999998
 49
6.349999999999999
 74
     0
 49
-3.174999999999999
 74
     0
  0
LTYPE
  5
D9
330
5
100
AcDbSymbolTableRecord
100
AcDbLinetypeTableRecord
  2
PHANTOM2
 70
     0
  3
Phantom (.5x) ___ _ _ ___ _ _ ___ _ _ ___ _ _
 72
    65
 73
     6
 40
31.75
 49
15.875
 74
     0
 49
-3.174999999999999
 74
     0
 49
3.174999999999999
 74
     0
 49
-3.174999999999999
 74
     0
 49
3.174999999999999
 74
     0
 49
-3.174999999999999
 74
     0
  0
LTYPE
  5
430
330
5
100
AcDbSymbolTableRecord
100
AcDbLinetypeTableRecord
  2
GEN7A
 70
     0
  3
__ . __ . __
 72
    65
 73
     4
 40
6.875
 49
5.0
 74
     0
 49
-0.625
 74
     0
 49
0.625
 74
     0
 49
-0.625
 74
     0
  0
LTYPE
  5
431
330
5
100
AcDbSymbolTableRecord
100
AcDbLinetypeTableRecord
  2
GEN3
 70
     0
  3
-- -- -- -- -- -- -- -- -- -- -- -- -- -- --
 72
    65
 73
     2
 40
6.25
 49
5.0
 74
     0
 49
-1.25
 74
     0
  0
ENDTAB
  0
TABLE
  2
LAYER
  5
2
102
{ACAD_XDICTIONARY
360
452
102
}
330
0
100
AcDbSymbolTable
 70
    12
  0
LAYER
  5
10
102
{ACAD_XDICTIONARY
360
707
102
}
330
2
100
AcDbSymbolTableRecord
100
AcDbLayerTableRecord
  2
0
 70
     0
 62
     7
  6
Continuous
370
    -3
390
F
  0
LAYER
  5
432
102
{ACAD_XDICTIONARY
360
433
102
}
330
2
100
AcDbSymbolTableRecord
100
AcDbLayerTableRecord
  2
AM_7
 70
     0
 62
     4
  6
AM_ISO08W050
370
    25
390
F
1001
AcAecLayerStandard
1000

1000

  0
LAYER
  5
434
102
{ACAD_XDICTIONARY
360
435
102
}
330
2
100
AcDbSymbolTableRecord
100
AcDbLayerTableRecord
  2
AM_CL
 70
     0
 62
     1
  6
Amconstr
370
    25
390
F
1001
AcAecLayerStandard
1000

1000

  0
LAYER
  5
436
330
2
100
AcDbSymbolTableRecord
100
AcDbLayerTableRecord
  2
Defpoints
 70
     0
 62
     7
  6
Continuous
290
     0
370
    -3
390
F
  0
LAYER
  5
437
102
{ACAD_XDICTIONARY
360
438
102
}
330
2
100
AcDbSymbolTableRecord
100
AcDbLayerTableRecord
  2
AM_5
 70
     0
 62
     3
  6
Continuous
370
    25
390
F
1001
AcAecLayerStandard
1000

1000

  0
LAYER
  5
439
102
{ACAD_XDICTIONARY
360
43A
102
}
330
2
100
AcDbSymbolTableRecord
100
AcDbLayerTableRecord
  2
AM_0N
 70
     0
 62
     7
  6
Continuous
370
    50
390
F
1001
AcAecLayerStandard
1000

1000

  0
LAYER
  5
43B
102
{ACAD_XDICTIONARY
360
43C
102
}
330
2
100
AcDbSymbolTableRecord
100
AcDbLayerTableRecord
  2
AM_7N
 70
     0
 62
   142
  6
AM_ISO08W050
370
    25
390
F
1001
AcAecLayerStandard
1000

1000

  0
LAYER
  5
43D
102
{ACAD_XDICTIONARY
360
43E
102
}
330
2
100
AcDbSymbolTableRecord
100
AcDbLayerTableRecord
  2
AM_4N
 70
     0
 62
    92
  6
Continuous
370
    25
390
F
1001
AcAecLayerStandard
1000

1000

  0
LAYER
  5
43F
102
{ACAD_XDICTIONARY
360
440
102
}
330
2
100
AcDbSymbolTableRecord
100
AcDbLayerTableRecord
  2
AM_9N
 70
     0
 62
  -253
  6
Continuous
370
     0
390
F
1001
AcAecLayerStandard
1000

1000

  0
LAYER
  5
441
102
{ACAD_XDICTIONARY
360
442
102
}
330
2
100
AcDbSymbolTableRecord
100
AcDbLayerTableRecord
  2
7A
 70
     0
 62
     4
  6
GEN7A
370
    -3
390
F
  0
LAYER
  5
443
102
{ACAD_XDICTIONARY
360
444
102
}
330
2
100
AcDbSymbolTableRecord
100
AcDbLayerTableRecord
  2
8
 70
     0
 62
     1
  6
Continuous
370
    -3
390
F
  0
LAYER
  5
445
102
{ACAD_XDICTIONARY
360
446
102
}
330
2
100
AcDbSymbolTableRecord
100
AcDbLayerTableRecord
  2
3
 70
     0
 62
     6
  6
GEN3
370
    -3
390
F
  0
ENDTAB
  0
TABLE
  2
STYLE
  5
3
330
0
100
AcDbSymbolTable
 70
     8
  0
STYLE
  5
11
330
3
100
AcDbSymbolTableRecord
100
AcDbTextStyleTableRecord
  2
STANDARD
 70
     0
 40
0.0
 41
1.0
 50
0.0
 71
     0
 42
2.5
  3
ISOCP.SHX
  4

  0
STYLE
  5
6B
330
3
100
AcDbSymbolTableRecord
100
AcDbTextStyleTableRecord
  2

 70
     1
 40
0.0
 41
1.0
 50
0.0
 71
     0
 42
2.5
  3
ltypeshp.shx
  4

  0
STYLE
  5
6D
330
3
100
AcDbSymbolTableRecord
100
AcDbTextStyleTableRecord
  2
ACISOTS
 70
     0
 40
1.0
 41
1.0
 50
0.0
 71
     0
 42
2.5
  3
isocp.shx
  4

  0
STYLE
  5
79
330
3
100
AcDbSymbolTableRecord
100
AcDbTextStyleTableRecord
  2
ACISOGDT
 70
     0
 40
0.0
 41
1.0
 50
0.0
 71
     0
 42
2.5
  3
amgdt.shx
  4

  0
STYLE
  5
1ED
330
3
100
AcDbSymbolTableRecord
100
AcDbTextStyleTableRecord
  2
USER1
 70
     0
 40
0.0
 41
1.0
 50
0.0
 71
     0
 42
2.5
  3
TXT.SHX
  4

  0
STYLE
  5
1EE
330
3
100
AcDbSymbolTableRecord
100
AcDbTextStyleTableRecord
  2
USER2
 70
     0
 40
0.0
 41
1.0
 50
0.0
 71
     0
 42
2.5
  3
SIMPLEX.SHX
  4

  0
STYLE
  5
1EF
330
3
100
AcDbSymbolTableRecord
100
AcDbTextStyleTableRecord
  2
USER3
 70
     0
 40
0.0
 41
1.0
 50
0.0
 71
     0
 42
2.5
  3
ITALIC.SHX
  4

  0
STYLE
  5
22C
330
3
100
AcDbSymbolTableRecord
100
AcDbTextStyleTableRecord
  2

 70
     1
 40
0.0
 41
1.0
 50
0.0
 71
     0
 42
2.5
  3
genltshp.shx
  4

  0
ENDTAB
  0
TABLE
  2
VIEW
  5
6
330
0
100
AcDbSymbolTable
 70
     0
  0
ENDTAB
  0
TABLE
  2
UCS
  5
7
330
0
100
AcDbSymbolTable
 70
     0
  0
ENDTAB
  0
TABLE
  2
APPID
  5
9
330
0
100
AcDbSymbolTable
 70
    25
  0
APPID
  5
12
330
9
100
AcDbSymbolTableRecord
100
AcDbRegAppTableRecord
  2
ACAD
 70
     0
  0
APPID
  5
46
330
9
100
AcDbSymbolTableRecord
100
AcDbRegAppTableRecord
  2
MCAD_NO_VIS
 70
     0
  0
APPID
  5
47
330
9
100
AcDbSymbolTableRecord
100
AcDbRegAppTableRecord
  2
ACAD_TEMP_GRAPHIC
 70
     0
  0
APPID
  5
58
330
9
100
AcDbSymbolTableRecord
100
AcDbRegAppTableRecord
  2
ACATTRIBSERVICES
 70
     0
  0
APPID
  5
EE
330
9
100
AcDbSymbolTableRecord
100
AcDbRegAppTableRecord
  2
AD_DRAW
 70
     0
  0
APPID
  5
10C
330
9
100
AcDbSymbolTableRecord
100
AcDbRegAppTableRecord
  2
DESIGNERASSEMBLIES
 70
     0
  0
APPID
  5
111
330
9
100
AcDbSymbolTableRecord
100
AcDbRegAppTableRecord
  2
ACADM_DIM_EDIT
 70
     0
  0
APPID
  5
112
330
9
100
AcDbSymbolTableRecord
100
AcDbRegAppTableRecord
  2
AMDT_DM_ADJ
 70
     0
  0
APPID
  5
1A3
330
9
100
AcDbSymbolTableRecord
100
AcDbRegAppTableRecord
  2
ACAD_DSTYLE_DIMARC_LENGTH_SYMBOL
 70
     0
  0
APPID
  5
1A4
330
9
100
AcDbSymbolTableRecord
100
AcDbRegAppTableRecord
  2
ACAD_DSTYLE_DIMJOGGED_JOGANGLE_SYMBOL
 70
     0
  0
APPID
  5
2C6
330
9
100
AcDbSymbolTableRecord
100
AcDbRegAppTableRecord
  2
ACAD_MLEADERVER
 70
     0
  0
APPID
  5
36E
330
9
100
AcDbSymbolTableRecord
100
AcDbRegAppTableRecord
  2
ACAD_EXEMPT_FROM_CAD_STANDARDS
 70
     0
  0
APPID
  5
448
330
9
100
AcDbSymbolTableRecord
100
AcDbRegAppTableRecord
  2
AcAecLayerStandard
 70
     0
  0
APPID
  5
449
330
9
100
AcDbSymbolTableRecord
100
AcDbRegAppTableRecord
  2
GENIUS_GENOENT_13
 70
     0
  0
APPID
  5
44A
330
9
100
AcDbSymbolTableRecord
100
AcDbRegAppTableRecord
  2
GENIUS_GENOLIS_13
 70
     0
  0
APPID
  5
44B
330
9
100
AcDbSymbolTableRecord
100
AcDbRegAppTableRecord
  2
GENIUS_GENODEF_13
 70
     0
  0
APPID
  5
44C
330
9
100
AcDbSymbolTableRecord
100
AcDbRegAppTableRecord
  2
GENIUS_GENOBJ-N-CRS_13
 70
     0
  0
APPID
  5
44D
330
9
100
AcDbSymbolTableRecord
100
AcDbRegAppTableRecord
  2
GENIUS_GENOREF_13
 70
     0
  0
APPID
  5
44E
330
9
100
AcDbSymbolTableRecord
100
AcDbRegAppTableRecord
  2
GENIUS_GENOBJ-N-CEN_13
 70
     0
  0
APPID
  5
44F
330
9
100
AcDbSymbolTableRecord
100
AcDbRegAppTableRecord
  2
GENIUS_GENCEN_19
 70
     0
  0
APPID
  5
450
330
9
100
AcDbSymbolTableRecord
100
AcDbRegAppTableRecord
  2
ACAD_DSTYLE_DIMINSPECT
 70
     0
  0
APPID
  5
451
330
9
100
AcDbSymbolTableRecord
100
AcDbRegAppTableRecord
  2
GENIUS_GENOBJ-N-FIL_13
 70
     0
  0
APPID
  5
721
330
9
100
AcDbSymbolTableRecord
100
AcDbRegAppTableRecord
  2
ACAD_DSTYLE_DIM_LINETYPE
 70
     0
  0
APPID
  5
722
330
9
100
AcDbSymbolTableRecord
100
AcDbRegAppTableRecord
  2
ACAD_DSTYLE_DIM_EXT1_LINETYPE
 70
     0
  0
APPID
  5
723
330
9
100
AcDbSymbolTableRecord
100
AcDbRegAppTableRecord
  2
ACAD_DSTYLE_DIM_EXT2_LINETYPE
 70
     0
  0
ENDTAB
  0
TABLE
  2
DIMSTYLE
  5
A
330
0
100
AcDbSymbolTable
 70
    10
100
AcDbDimStyleTable
 71
     1
340
81
  0
DIMSTYLE
105
27
330
A
100
AcDbSymbolTableRecord
100
AcDbDimStyleTableRecord
  2
ISO-25
 70
     0
 41
2.5
 42
0.625
 43
3.75
 44
1.25
 73
     0
 74
     0
 77
     1
 78
     8
140
2.5
141
2.5
143
0.03937007874016
147
0.625
171
     3
172
     1
271
     2
272
     2
274
     3
278
    44
283
     0
284
     8
340
11
  0
DIMSTYLE
105
81
102
{ACAD_REACTORS
330
62
102
}
330
A
100
AcDbSymbolTableRecord
100
AcDbDimStyleTableRecord
  2
AM_ISO
 70
     0
  4
"
 41
3.5
 42
1.0
 43
10.0
 44
1.0
 47
0.1
 48
0.1
 73
     0
 74
     0
 77
     1
 78
     8
 79
     2
140
3.5
141
0.0
143
0.0393701
146
0.71
147
1.5
172
     1
176
   256
177
   256
178
   140
271
     2
272
     3
274
     4
283
     0
284
     8
340
11
371
    -1
372
    -1
1001
ACAD_DSTYLE_DIMJOGGED_JOGANGLE_SYMBOL
1070
   384
1040
0.7853981633974483
1001
ACAD_DSTYLE_DIMARC_LENGTH_SYMBOL
1070
   379
1070
     1
1001
ACAD_DSTYLE_DIM_LINETYPE
1070
   380
1005
14
1001
ACAD_DSTYLE_DIM_EXT1_LINETYPE
1070
   381
1005
14
1001
ACAD_DSTYLE_DIM_EXT2_LINETYPE
1070
   382
1005
14
  0
DIMSTYLE
105
82
330
A
100
AcDbSymbolTableRecord
100
AcDbDimStyleTableRecord
  2
AM_ISO$3
 70
     0
  4
"
 41
3.5
 42
1.0
 43
10.0
 44
1.0
 47
0.1
 48
0.1
 73
     0
 77
     1
 78
     8
 79
     2
140
3.5
141
0.0
143
0.0393701
146
0.71
147
1.5
176
   256
177
   256
178
   140
271
     2
272
     3
274
     4
283
     0
284
     8
288
     1
289
     0
340
11
371
    -1
372
    -1
1001
ACAD_DSTYLE_DIMJOGGED_JOGANGLE_SYMBOL
1070
   384
1040
0.7853981633974483
1001
ACAD_DSTYLE_DIMARC_LENGTH_SYMBOL
1070
   379
1070
     1
1001
ACAD_DSTYLE_DIM_LINETYPE
1070
   380
1005
14
1001
ACAD_DSTYLE_DIM_EXT1_LINETYPE
1070
   381
1005
14
1001
ACAD_DSTYLE_DIM_EXT2_LINETYPE
1070
   382
1005
14
  0
DIMSTYLE
105
83
330
A
100
AcDbSymbolTableRecord
100
AcDbDimStyleTableRecord
  2
AM_ISO$4
 70
     0
  4
"
 41
3.5
 42
1.0
 43
10.0
 44
1.0
 47
0.1
 48
0.1
 73
     0
 74
     0
 77
     1
 78
     8
 79
     2
140
3.5
141
0.0
143
0.0393701
146
0.71
147
1.5
172
     1
176
   256
177
   256
178
   140
271
     2
272
     3
274
     4
283
     0
284
     8
340
11
371
    -1
372
    -1
1001
ACAD_DSTYLE_DIMJOGGED_JOGANGLE_SYMBOL
1070
   384
1040
0.7853981633974483
1001
ACAD_DSTYLE_DIMARC_LENGTH_SYMBOL
1070
   379
1070
     1
1001
ACAD_DSTYLE_DIM_LINETYPE
1070
   380
1005
14
1001
ACAD_DSTYLE_DIM_EXT1_LINETYPE
1070
   381
1005
14
1001
ACAD_DSTYLE_DIM_EXT2_LINETYPE
1070
   382
1005
14
  0
DIMSTYLE
105
84
330
A
100
AcDbSymbolTableRecord
100
AcDbDimStyleTableRecord
  2
AM_ISO$6
 70
     0
  4
"
 41
3.5
 42
1.0
 43
10.0
 44
1.0
 47
0.1
 48
0.1
 73
     0
 74
     0
 78
     8
 79
     2
140
3.5
141
0.0
143
0.0393701
146
0.71
147
1.5
172
     1
176
   256
177
   256
178
   140
271
     2
272
     3
274
     4
283
     0
284
     8
340
11
371
    -1
372
    -1
1001
ACAD_DSTYLE_DIMJOGGED_JOGANGLE_SYMBOL
1070
   384
1040
0.7853981633974483
1001
ACAD_DSTYLE_DIMARC_LENGTH_SYMBOL
1070
   379
1070
     1
1001
ACAD_DSTYLE_DIM_LINETYPE
1070
   380
1005
14
1001
ACAD_DSTYLE_DIM_EXT1_LINETYPE
1070
   381
1005
14
1001
ACAD_DSTYLE_DIM_EXT2_LINETYPE
1070
   382
1005
14
  0
DIMSTYLE
105
85
330
A
100
AcDbSymbolTableRecord
100
AcDbDimStyleTableRecord
  2
AM_ISO$7
 70
     0
  4
"
 41
3.5
 42
1.0
 43
10.0
 44
1.0
 47
0.1
 48
0.1
 73
     0
 74
     0
 77
     1
 78
     8
 79
     2
140
3.5
141
0.0
143
0.0393701
146
0.71
147
1.5
172
     1
176
   256
177
   256
178
   140
271
     2
272
     3
274
     4
283
     0
284
     8
340
11
371
    -1
372
    -1
1001
ACAD_DSTYLE_DIMJOGGED_JOGANGLE_SYMBOL
1070
   384
1040
0.7853981633974483
1001
ACAD_DSTYLE_DIMARC_LENGTH_SYMBOL
1070
   379
1070
     1
1001
ACAD_DSTYLE_DIM_LINETYPE
1070
   380
1005
14
1001
ACAD_DSTYLE_DIM_EXT1_LINETYPE
1070
   381
1005
14
1001
ACAD_DSTYLE_DIM_EXT2_LINETYPE
1070
   382
1005
14
  0
DIMSTYLE
105
86
330
A
100
AcDbSymbolTableRecord
100
AcDbDimStyleTableRecord
  2
AM_ISO$SF
 70
     0
  4
"
 41
3.5
 42
1.0
 43
10.0
 44
1.0
 47
0.1
 48
0.1
 73
     0
 74
     0
 75
     1
 76
     1
 77
     1
 78
     8
 79
     2
140
3.5
141
0.0
143
0.0393701
146
0.71
147
1.5
172
     1
176
   256
177
   256
178
   140
271
     2
272
     3
274
     4
283
     0
284
     8
340
11
371
    -1
372
    -1
1001
ACAD_DSTYLE_DIMJOGGED_JOGANGLE_SYMBOL
1070
   384
1040
0.7853981633974483
1001
ACAD_DSTYLE_DIMARC_LENGTH_SYMBOL
1070
   379
1070
     1
1001
ACAD_DSTYLE_DIM_LINETYPE
1070
   380
1005
14
1001
ACAD_DSTYLE_DIM_EXT1_LINETYPE
1070
   381
1005
14
1001
ACAD_DSTYLE_DIM_EXT2_LINETYPE
1070
   382
1005
14
  0
DIMSTYLE
105
8B
330
A
100
AcDbSymbolTableRecord
100
AcDbDimStyleTableRecord
  2
AM_ISO$SH
 70
     0
  4
"
 41
3.5
 42
1.0
 43
10.0
 44
1.0
 47
0.1
 48
0.1
 73
     0
 74
     0
 75
     1
 76
     1
 77
     1
 78
     8
 79
     2
140
3.5
141
0.0
143
0.0393701
144
2.0
146
0.71
147
1.5
172
     1
173
     1
176
   256
177
   256
178
   140
271
     2
272
     3
274
     4
283
     0
284
     8
340
11
343
87
371
    -1
372
    -1
1001
ACAD_DSTYLE_DIMJOGGED_JOGANGLE_SYMBOL
1070
   384
1040
0.7853981633974483
1001
ACAD_DSTYLE_DIMARC_LENGTH_SYMBOL
1070
   379
1070
     1
1001
ACAD_DSTYLE_DIM_LINETYPE
1070
   380
1005
14
1001
ACAD_DSTYLE_DIM_EXT1_LINETYPE
1070
   381
1005
14
1001
ACAD_DSTYLE_DIM_EXT2_LINETYPE
1070
   382
1005
14
  0
DIMSTYLE
105
447
102
{ACAD_REACTORS
330
498
330
499
330
49A
330
49B
330
49C
330
4AB
330
5A5
330
5A6
330
5A7
330
5A8
330
5A9
330
5B8
102
}
330
A
100
AcDbSymbolTableRecord
100
AcDbDimStyleTableRecord
  2
AM_DIN$0
 70
     0
  4
"
 41
3.5
 42
1.0
 43
10.0
 44
1.0
 47
0.1
 48
0.1
 73
     0
 74
     0
 77
     1
 78
     8
 79
     2
140
3.5
141
0.0
143
0.0393701
146
0.71
147
1.5
172
     1
176
   256
177
   256
178
     2
271
     2
272
     3
274
     4
283
     0
284
     8
340
11
371
    -1
372
    -1
1001
ACAD_DSTYLE_DIMJOGGED_JOGANGLE_SYMBOL
1070
   384
1040
1.570796326794896
1001
ACAD_DSTYLE_DIM_LINETYPE
1070
   380
1005
14
1001
ACAD_DSTYLE_DIM_EXT1_LINETYPE
1070
   381
1005
14
1001
ACAD_DSTYLE_DIM_EXT2_LINETYPE
1070
   382
1005
14
  0
ENDTAB
  0
TABLE
  2
BLOCK_RECORD
  5
1
330
0
100
AcDbSymbolTable
 70
    20
  0
BLOCK_RECORD
  5
1F
102
{ACAD_XDICTIONARY
360
8F
102
}
330
1
100
AcDbSymbolTableRecord
100
AcDbBlockTableRecord
  2
*Model_Space
340
22
  0
BLOCK_RECORD
  5
1B
330
1
100
AcDbSymbolTableRecord
100
AcDbBlockTableRecord
  2
*Paper_Space
340
1E
  0
BLOCK_RECORD
  5
23
330
1
100
AcDbSymbolTableRecord
100
AcDbBlockTableRecord
  2
*Paper_Space0
340
26
  0
BLOCK_RECORD
  5
87
330
1
100
AcDbSymbolTableRecord
100
AcDbBlockTableRecord
  2
GENAXEH
340
0
  0
BLOCK_RECORD
  5
3AE
330
1
100
AcDbSymbolTableRecord
100
AcDbBlockTableRecord
  2
befestigung
340
0
310
2800000020000000200000000100080000000000000400000000000000000000000000000000000000000000000080000080000000808000800000008000800080800000C0C0C000C0DCC000F0CAA6000020400000206000002080000020A0000020C0000020E00000400000004020000040400000406000004080000040A0
310
000040C0000040E00000600000006020000060400000606000006080000060A0000060C0000060E00000800000008020000080400000806000008080000080A0000080C0000080E00000A0000000A0200000A0400000A0600000A0800000A0A00000A0C00000A0E00000C0000000C0200000C0400000C0600000C0800000C0
310
A00000C0C00000C0E00000E0000000E0200000E0400000E0600000E0800000E0A00000E0C00000E0E00040000000400020004000400040006000400080004000A0004000C0004000E00040200000402020004020400040206000402080004020A0004020C0004020E000404000004040200040404000404060004040800040
310
40A0004040C0004040E00040600000406020004060400040606000406080004060A0004060C0004060E00040800000408020004080400040806000408080004080A0004080C0004080E00040A0000040A0200040A0400040A0600040A0800040A0A00040A0C00040A0E00040C0000040C0200040C0400040C0600040C08000
310
40C0A00040C0C00040C0E00040E0000040E0200040E0400040E0600040E0800040E0A00040E0C00040E0E00080000000800020008000400080006000800080008000A0008000C0008000E00080200000802020008020400080206000802080008020A0008020C0008020E00080400000804020008040400080406000804080
310
008040A0008040C0008040E00080600000806020008060400080606000806080008060A0008060C0008060E00080800000808020008080400080806000808080008080A0008080C0008080E00080A0000080A0200080A0400080A0600080A0800080A0A00080A0C00080A0E00080C0000080C0200080C0400080C0600080C0
310
800080C0A00080C0C00080C0E00080E0000080E0200080E0400080E0600080E0800080E0A00080E0C00080E0E000C0000000C0002000C0004000C0006000C0008000C000A000C000C000C000E000C0200000C0202000C0204000C0206000C0208000C020A000C020C000C020E000C0400000C0402000C0404000C0406000C0
310
408000C040A000C040C000C040E000C0600000C0602000C0604000C0606000C0608000C060A000C060C000C060E000C0800000C0802000C0804000C0806000C0808000C080A000C080C000C080E000C0A00000C0A02000C0A04000C0A06000C0A08000C0A0A000C0A0C000C0A0E000C0C00000C0C02000C0C04000C0C06000
310
C0C08000C0C0A000F0FBFF00A4A0A000808080000000FF0000FF000000FFFF00FF000000FF00FF00FFFF0000FFFFFF00000000000000000000000000000000000000000000000000000000000000000000000000000000000000000000000000000000000000FF000000000000000000000000000000000000000000000000
310
000000000000FF00FFFFFF00000000000000000000000000000000000000000000000000FFFF0000000000FF0000000000000000000000000000000000000000000000FF00000000000000FF00000000000000000000000000000000000000000000FF000000000000000000FF000000000000000000000000000000000000
310
0000FF00000000000000000000FF00000000000000000000000000000000000000FF0000000000000000000000FF000000000000000000000000000000000000FF0000000000000000000000FF00000000000000000000000000000000FFFFFF0000000000000000000000FF0000000000000000000000FFFFFFFFFF00FFFF
310
FFFFFF00000000000000FFFF0000000000000000000000FFFF000000FF00FFFF000000FFFFFFFFFFFFFF00000000000000000000000000FFFF000000FF00FFFF00000000000000FF000000000000000000000000000000FFFFFFFFFFFF00FFFF00000000000000FF3030303030FFFF0000000000000000FFFF000000FF00FF
310
FF00000000000000FF0000000000FFFF0000000000000000FFFF000000FF00FFFF00000000000000FF0000000000FFFF000000000000E8E8FFFFE8E8E8E8E8FFFFE8E8E8E8E8E8E8FFE8E8E8E8E8FFFFE8E8000000000000FFFF000000FF00FFFF00000000000000FF0000000000FFFF0000000000000000FFFFFFFFFFFF00
310
FFFF00000000000000FFFFFFFFFFFFFFFF0000000000000000FFFF000000FF00FFFF00000000000000FF000000000000000000000000000000FFFF000000FF00FFFF00000000FFFFFFFFFF000000000000000000000000000000FFFFFFFFFF00FFFFFFFFFFFF0000000000FFFFFF0000000000000000000000000000000000
310
00FFFFFF0000000000000000000000FF0000000000000000000000000000000000000000FF0000000000000000000000FF0000000000000000000000000000000000000000FF0000000000000000000000FF0000000000000000000000000000000000000000FF00000000000000000000FF00000000000000000000000000
310
0000000000000000FF000000000000000000FF00000000000000000000000000000000000000000000FF00000000000000FF000000000000000000000000000000000000000000000000FF000000000000FF00000000000000000000000000000000000000000000000000FFFF0000FFFF0000000000000000000000000000
310
0000000000000000000000000000FFFF00000000000000000000000000000000000000000000000000000000000000000000000000000000
102
{BLKREFS
331
540
331
54F
331
64D
331
65C
102
}
1001
ACAD
1000
DesignCenter Data
1002
{
1070
     1
1070
     4
1002
}
  0
BLOCK_RECORD
  5
3D2
330
1
100
AcDbSymbolTableRecord
100
AcDbBlockTableRecord
  2
*U4
340
0
102
{BLKREFS
331
3CF
102
}
  0
BLOCK_RECORD
  5
3E0
330
1
100
AcDbSymbolTableRecord
100
AcDbBlockTableRecord
  2
*U5
340
0
102
{BLKREFS
331
3D0
102
}
  0
BLOCK_RECORD
  5
3E8
330
1
100
AcDbSymbolTableRecord
100
AcDbBlockTableRecord
  2
*D6
340
0
  0
BLOCK_RECORD
  5
3F4
330
1
100
AcDbSymbolTableRecord
100
AcDbBlockTableRecord
  2
*D7
340
0
  0
BLOCK_RECORD
  5
400
330
1
100
AcDbSymbolTableRecord
100
AcDbBlockTableRecord
  2
*D8
340
0
  0
BLOCK_RECORD
  5
40C
330
1
100
AcDbSymbolTableRecord
100
AcDbBlockTableRecord
  2
*D9
340
0
  0
BLOCK_RECORD
  5
418
330
1
100
AcDbSymbolTableRecord
100
AcDbBlockTableRecord
  2
*D10
340
0
  0
BLOCK_RECORD
  5
424
330
1
100
AcDbSymbolTableRecord
100
AcDbBlockTableRecord
  2
*D11
340
0
  0
BLOCK_RECORD
  5
668
330
1
100
AcDbSymbolTableRecord
100
AcDbBlockTableRecord
  2
*D13
340
0
  0
BLOCK_RECORD
  5
674
330
1
100
AcDbSymbolTableRecord
100
AcDbBlockTableRecord
  2
*D14
340
0
  0
BLOCK_RECORD
  5
680
330
1
100
AcDbSymbolTableRecord
100
AcDbBlockTableRecord
  2
*D15
340
0
  0
BLOCK_RECORD
  5
68C
330
1
100
AcDbSymbolTableRecord
100
AcDbBlockTableRecord
  2
*D16
340
0
  0
BLOCK_RECORD
  5
698
330
1
100
AcDbSymbolTableRecord
100
AcDbBlockTableRecord
  2
*D17
340
0
  0
BLOCK_RECORD
  5
6A4
330
1
100
AcDbSymbolTableRecord
100
AcDbBlockTableRecord
  2
*D18
340
0
  0
ENDTAB
  0
ENDSEC
  0
SECTION
  2
BLOCKS
  0
BLOCK
  5
20
330
1F
100
AcDbEntity
  8
0
100
AcDbBlockBegin
  2
*Model_Space
 70
     0
 10
0.0
 20
0.0
 30
0.0
  3
*Model_Space
  1

  0
ENDBLK
  5
21
330
1F
100
AcDbEntity
  8
0
100
AcDbBlockEnd
  0
BLOCK
  5
1C
330
1B
100
AcDbEntity
 67
     1
  8
0
100
AcDbBlockBegin
  2
*Paper_Space
 70
     0
 10
0.0
 20
0.0
 30
0.0
  3
*Paper_Space
  1

  0
ENDBLK
  5
1D
330
1B
100
AcDbEntity
 67
     1
  8
0
100
AcDbBlockEnd
  0
BLOCK
  5
24
330
23
100
AcDbEntity
 67
     1
  8
0
100
AcDbBlockBegin
  2
*Paper_Space0
 70
     0
 10
0.0
 20
0.0
 30
0.0
  3
*Paper_Space0
  1

  0
ENDBLK
  5
25
330
23
100
AcDbEntity
 67
     1
  8
0
100
AcDbBlockEnd
  0
BLOCK
  5
89
330
87
100
AcDbEntity
  8
0
100
AcDbBlockBegin
  2
GENAXEH
 70
     0
 10
0.0
 20
0.0
 30
0.0
  3
GENAXEH
  1

  0
LINE
  5
88
330
87
100
AcDbEntity
  8
0
100
AcDbLine
 10
-1.0
 20
0.0
 30
0.0
 11
1.0
 21
0.0
 31
0.0
  0
ENDBLK
  5
8A
330
87
100
AcDbEntity
  8
0
100
AcDbBlockEnd
  0
BLOCK
  5
3AF
330
3AE
100
AcDbEntity
  8
0
100
AcDbBlockBegin
  2
befestigung
 70
     0
 10
0.0
 20
0.0
 30
0.0
  3
befestigung
  1

  0
LINE
  5
3B0
330
3AE
100
AcDbEntity
  8
AM_7N
  6
AM_ISO08W050x2
100
AcDbLine
 10
2003.869006815402
 20
1351.458312600669
 30
0.0
 11
2040.549006815402
 21
1351.458312600669
 31
0.0
1001
GENIUS_GENOREF_13
1005
0
1005
0
1005
0
  0
LINE
  5
3B1
330
3AE
100
AcDbEntity
  8
AM_9N
100
AcDbLine
 10
2015.674006815402
 20
1347.458312600669
 30
0.0
 11
2017.974006815402
 21
1347.458312600669
 31
0.0
1001
GENIUS_GENOREF_13
1005
0
1005
0
1005
0
  0
LINE
  5
3B2
330
3AE
100
AcDbEntity
  8
AM_9N
100
AcDbLine
 10
2022.209006815402
 20
1347.458312600669
 30
0.0
 11
2032.209006815401
 21
1347.458312600669
 31
0.0
1001
GENIUS_GENOREF_13
1005
0
1005
0
1005
0
  0
LINE
  5
3B3
330
3AE
100
AcDbEntity
  8
AM_0N
100
AcDbLine
 10
2027.974006815401
 20
1347.458312600669
 30
0.0
 11
2036.782194315402
 21
1347.458312600669
 31
0.0
1001
GENIUS_GENOREF_13
1005
0
1005
0
1005
0
  0
LINE
  5
3B4
330
3AE
100
AcDbEntity
  8
AM_9N
100
AcDbLine
 10
2015.674006815402
 20
1348.225125100669
 30
0.0
 11
2017.974006815402
 21
1348.225125100669
 31
0.0
1001
GENIUS_GENOREF_13
1005
0
1005
0
1005
0
  0
LINE
  5
3B5
330
3AE
100
AcDbEntity
  8
AM_9N
100
AcDbLine
 10
2022.209006815402
 20
1348.225125100669
 30
0.0
 11
2032.209006815401
 21
1348.225125100669
 31
0.0
1001
GENIUS_GENOREF_13
1005
0
1005
0
1005
0
  0
LINE
  5
3B6
330
3AE
100
AcDbEntity
  8
AM_4N
100
AcDbLine
 10
2027.974006815401
 20
1348.225125100669
 30
0.0
 11
2037.549006815402
 21
1348.225125100669
 31
0.0
1001
GENIUS_GENOREF_13
1005
0
1005
0
1005
0
  0
LINE
  5
3B7
330
3AE
100
AcDbEntity
  8
AM_9N
100
AcDbLine
 10
2015.674006815402
 20
1354.691500100669
 30
0.0
 11
2017.974006815402
 21
1354.691500100669
 31
0.0
1001
GENIUS_GENOREF_13
1005
0
1005
0
1005
0
  0
LINE
  5
3B8
330
3AE
100
AcDbEntity
  8
AM_9N
100
AcDbLine
 10
2027.974006815401
 20
1354.691500100669
 30
0.0
 11
2032.209006815401
 21
1354.691500100669
 31
0.0
1001
GENIUS_GENOREF_13
1005
0
1005
0
1005
0
  0
LINE
  5
3B9
330
3AE
100
AcDbEntity
  8
AM_4N
100
AcDbLine
 10
2027.974006815401
 20
1354.691500100669
 30
0.0
 11
2037.549006815402
 21
1354.691500100669
 31
0.0
1001
GENIUS_GENOREF_13
1005
0
1005
0
1005
0
  0
LINE
  5
3BA
330
3AE
100
AcDbEntity
  8
AM_9N
100
AcDbLine
 10
2015.674006815402
 20
1355.458312600669
 30
0.0
 11
2017.974006815402
 21
1355.458312600669
 31
0.0
1001
GENIUS_GENOREF_13
1005
0
1005
0
1005
0
  0
LINE
  5
3BB
330
3AE
100
AcDbEntity
  8
AM_9N
100
AcDbLine
 10
2027.974006815401
 20
1355.458312600669
 30
0.0
 11
2032.209006815401
 21
1355.458312600669
 31
0.0
1001
GENIUS_GENOREF_13
1005
0
1005
0
1005
0
  0
LINE
  5
3BC
330
3AE
100
AcDbEntity
  8
AM_0N
100
AcDbLine
 10
2027.974006815401
 20
1355.458312600669
 30
0.0
 11
2036.782194315402
 21
1355.458312600669
 31
0.0
1001
GENIUS_GENOREF_13
1005
0
1005
0
1005
0
  0
ARC
  5
3BD
330
3AE
100
AcDbEntity
  8
AM_0N
100
AcDbCircle
 10
2019.27813978905
 20
1351.458312600669
 30
0.0
 40
12.4091329736479
100
AcDbArc
 50
162.3875260144767
 51
197.6124739855233
1001
GENIUS_GENOREF_13
1005
0
1005
0
1005
0
  0
LINE
  5
3BE
330
3AE
100
AcDbEntity
  8
AM_0N
100
AcDbLine
 10
2012.549006815402
 20
1347.458312600669
 30
0.0
 11
2012.549006815402
 21
1355.458312600669
 31
0.0
1001
GENIUS_GENOREF_13
1005
0
1005
0
1005
0
  0
LINE
  5
3BF
330
3AE
100
AcDbEntity
  8
AM_0N
100
AcDbLine
 10
2012.549006815402
 20
1355.458312600669
 30
0.0
 11
2012.549006815402
 21
1347.458312600669
 31
0.0
1001
GENIUS_GENOREF_13
1005
0
1005
0
1005
0
  0
LINE
  5
3C0
330
3AE
100
AcDbEntity
  8
AM_0N
100
AcDbLine
 10
2006.869006815402
 20
1357.958312600669
 30
0.0
 11
2006.869006815402
 21
1344.958312600669
 31
0.0
1001
GENIUS_GENOREF_13
1005
0
1005
0
1005
0
  0
LINE
  5
3C1
330
3AE
100
AcDbEntity
  8
AM_0N
100
AcDbLine
 10
2007.45068721161
 20
1343.950812600669
 30
0.0
 11
2012.549006815402
 21
1343.950812600669
 31
0.0
1001
GENIUS_GENOREF_13
1005
0
1005
0
1005
0
  0
LINE
  5
3C2
330
3AE
100
AcDbEntity
  8
AM_0N
100
AcDbLine
 10
2007.45068721161
 20
1347.703589350401
 30
0.0
 11
2012.549006815402
 21
1347.703589350401
 31
0.0
1001
GENIUS_GENOREF_13
1005
0
1005
0
1005
0
  0
ARC
  5
3C3
330
3AE
100
AcDbEntity
  8
AM_0N
100
AcDbCircle
 10
2010.186279876194
 20
1345.827200975535
 30
0.0
 40
3.317273060791837
100
AcDbArc
 50
145.5531276177371
 51
205.5531276177362
1001
GENIUS_GENOREF_13
1005
0
1005
0
1005
0
  0
LINE
  5
3C4
330
3AE
100
AcDbEntity
  8
AM_0N
100
AcDbLine
 10
2007.45068721161
 20
1343.950812600669
 30
0.0
 11
2006.869006815402
 21
1344.958312600669
 31
0.0
1001
GENIUS_GENOREF_13
1005
0
1005
0
1005
0
  0
LINE
  5
3C5
330
3AE
100
AcDbEntity
  8
AM_0N
100
AcDbLine
 10
2012.549006815402
 20
1343.950812600669
 30
0.0
 11
2012.549006815402
 21
1347.458312600669
 31
0.0
1001
GENIUS_GENOREF_13
1005
0
1005
0
1005
0
  0
LINE
  5
3C6
330
3AE
100
AcDbEntity
  8
AM_0N
100
AcDbLine
 10
2012.549006815402
 20
1355.458312600669
 30
0.0
 11
2012.549006815402
 21
1358.965812600669
 31
0.0
1001
GENIUS_GENOREF_13
1005
0
1005
0
1005
0
  0
LINE
  5
3C7
330
3AE
100
AcDbEntity
  8
AM_0N
100
AcDbLine
 10
2007.45068721161
 20
1358.965812600669
 30
0.0
 11
2006.869006815402
 21
1357.958312600669
 31
0.0
1001
GENIUS_GENOREF_13
1005
0
1005
0
1005
0
  0
LINE
  5
3C8
330
3AE
100
AcDbEntity
  8
AM_0N
100
AcDbLine
 10
2007.45068721161
 20
1355.213035850936
 30
0.0
 11
2012.549006815402
 21
1355.213035850936
 31
0.0
1001
GENIUS_GENOREF_13
1005
0
1005
0
1005
0
  0
ARC
  5
3C9
330
3AE
100
AcDbEntity
  8
AM_0N
100
AcDbCircle
 10
2010.186279876194
 20
1357.089424225803
 30
0.0
 40
3.317273060791837
100
AcDbArc
 50
154.4468723822637
 51
214.4468723822629
1001
GENIUS_GENOREF_13
1005
0
1005
0
1005
0
  0
LINE
  5
3CA
330
3AE
100
AcDbEntity
  8
AM_0N
100
AcDbLine
 10
2007.45068721161
 20
1358.965812600669
 30
0.0
 11
2012.549006815402
 21
1358.965812600669
 31
0.0
1001
GENIUS_GENOREF_13
1005
0
1005
0
1005
0
  0
LINE
  5
3CB
330
3AE
100
AcDbEntity
  8
AM_0N
100
AcDbLine
 10
2036.782194315402
 20
1347.458312600669
 30
0.0
 11
2036.782194315402
 21
1355.458312600669
 31
0.0
1001
GENIUS_GENOREF_13
1005
0
1005
0
1005
0
  0
LINE
  5
3CC
330
3AE
100
AcDbEntity
  8
AM_0N
100
AcDbLine
 10
2037.549006815402
 20
1348.225125100669
 30
0.0
 11
2036.782194315402
 21
1347.458312600669
 31
0.0
1001
GENIUS_GENOREF_13
1005
0
1005
0
1005
0
  0
LINE
  5
3CD
330
3AE
100
AcDbEntity
  8
AM_0N
100
AcDbLine
 10
2037.549006815402
 20
1348.225125100669
 30
0.0
 11
2037.549006815402
 21
1354.691500100669
 31
0.0
1001
GENIUS_GENOREF_13
1005
0
1005
0
1005
0
  0
LINE
  5
3CE
330
3AE
100
AcDbEntity
  8
AM_0N
100
AcDbLine
 10
2036.782194315402
 20
1355.458312600669
 30
0.0
 11
2037.549006815402
 21
1354.691500100669
 31
0.0
1001
GENIUS_GENOREF_13
1005
0
1005
0
1005
0
  0
INSERT
  5
3CF
330
3AE
100
AcDbEntity
  8
AM_0N
100
AcDbBlockReference
  2
*U4
 10
0.0
 20
0.0
 30
0.0
1001
GENIUS_GENOREF_13
1005
0
  0
INSERT
  5
3D0
330
3AE
100
AcDbEntity
  8
AM_0N
100
AcDbBlockReference
  2
*U5
 10
0.0
 20
0.0
 30
0.0
1001
GENIUS_GENOREF_13
1005
0
  0
ENDBLK
  5
3D1
330
3AE
100
AcDbEntity
  8
0
100
AcDbBlockEnd
  0
BLOCK
  5
3D3
330
3D2
100
AcDbEntity
  8
0
100
AcDbBlockBegin
  2
*U4
 70
     1
 10
0.0
 20
0.0
 30
0.0
  3
*U4
  1

  0
ARC
  5
3D4
330
3D2
100
AcDbEntity
  8
AM_0N
100
AcDbCircle
 10
2031.974006815402
 20
1364.958312600669
 30
0.0
 40
6.0
100
AcDbArc
 50
284.6765041088877
 51
134.956760177952
  0
LINE
  5
3D5
330
3D2
100
AcDbEntity
  8
AM_0N
100
AcDbLine
 10
2017.974006815402
 20
1359.458312600669
 30
0.0
 11
2027.734569160611
 21
1369.204153903773
 31
0.0
  0
LINE
  5
3D6
330
3D2
100
AcDbEntity
  8
AM_0N
100
AcDbLine
 10
2027.974006815401
 20
1357.708312600669
 30
0.0
 11
2033.494174408163
 21
1359.154082204663
 31
0.0
  0
ARC
  5
3D7
330
3D2
100
AcDbEntity
  8
AM_0N
100
AcDbCircle
 10
2031.974006815402
 20
1337.958312600669
 30
0.0
 40
6.0
100
AcDbArc
 50
225.043239822048
 51
75.3234958911123
  0
LINE
  5
3D8
330
3D2
100
AcDbEntity
  8
AM_0N
100
AcDbLine
 10
2017.974006815402
 20
1343.458312600669
 30
0.0
 11
2027.734569160611
 21
1333.712471297565
 31
0.0
  0
LINE
  5
3D9
330
3D2
100
AcDbEntity
  8
AM_7N
  6
AM_ISO08W050x2
100
AcDbLine
 10
2030.974006815402
 20
1351.458312600669
 30
0.0
 11
2014.974006815402
 21
1351.458312600669
 31
0.0
  0
LINE
  5
3DA
330
3D2
100
AcDbEntity
  8
AM_0N
100
AcDbLine
 10
2017.974006815402
 20
1343.458312600669
 30
0.0
 11
2017.974006815402
 21
1359.458312600669
 31
0.0
  0
LINE
  5
3DB
330
3D2
100
AcDbEntity
  8
AM_0N
100
AcDbLine
 10
2027.974006815401
 20
1357.708312600669
 30
0.0
 11
2027.974006815401
 21
1345.208312600669
 31
0.0
  0
LINE
  5
3DC
330
3D2
100
AcDbEntity
  8
AM_0N
100
AcDbLine
 10
2027.974006815401
 20
1345.208312600669
 30
0.0
 11
2017.974006815402
 21
1343.458312600669
 31
0.0
  0
LINE
  5
3DD
330
3D2
100
AcDbEntity
  8
AM_0N
100
AcDbLine
 10
2027.974006815401
 20
1345.208312600669
 30
0.0
 11
2033.494174408163
 21
1343.762542996675
 31
0.0
  0
LINE
  5
3DE
330
3D2
100
AcDbEntity
  8
AM_0N
100
AcDbLine
 10
2017.974006815402
 20
1359.458312600669
 30
0.0
 11
2027.974006815401
 21
1357.708312600669
 31
0.0
  0
ENDBLK
  5
3DF
330
3D2
100
AcDbEntity
  8
0
100
AcDbBlockEnd
  0
BLOCK
  5
3E1
330
3E0
100
AcDbEntity
  8
0
100
AcDbBlockBegin
  2
*U5
 70
     1
 10
0.0
 20
0.0
 30
0.0
  3
*U5
  1

  0
LINE
  5
3E2
330
3E0
100
AcDbEntity
  8
AM_7N
  6
AM_ISO08W050x2
100
AcDbLine
 10
2012.674006815402
 20
1351.458312600669
 30
0.0
 11
2020.974006815402
 21
1351.458312600669
 31
0.0
  0
LINE
  5
3E3
330
3E0
100
AcDbEntity
  8
AM_0N
100
AcDbLine
 10
2015.674006815402
 20
1360.858312600669
 30
0.0
 11
2015.674006815402
 21
1342.058312600669
 31
0.0
  0
LINE
  5
3E4
330
3E0
100
AcDbEntity
  8
AM_0N
100
AcDbLine
 10
2017.974006815402
 20
1342.058312600669
 30
0.0
 11
2017.974006815402
 21
1360.858312600669
 31
0.0
  0
LINE
  5
3E5
330
3E0
100
AcDbEntity
  8
AM_0N
100
AcDbLine
 10
2015.674006815402
 20
1342.058312600669
 30
0.0
 11
2017.974006815402
 21
1342.058312600669
 31
0.0
  0
LINE
  5
3E6
330
3E0
100
AcDbEntity
  8
AM_0N
100
AcDbLine
 10
2017.974006815402
 20
1360.858312600669
 30
0.0
 11
2015.674006815402
 21
1360.858312600669
 31
0.0
  0
ENDBLK
  5
3E7
330
3E0
100
AcDbEntity
  8
0
100
AcDbBlockEnd
  0
BLOCK
  5
3E9
330
3E8
100
AcDbEntity
  8
0
100
AcDbBlockBegin
  2
*D6
 70
     1
 10
0.0
 20
0.0
 30
0.0
  3
*D6
  1

  0
LINE
  5
3EA
330
3E8
100
AcDbEntity
  8
AM_5
  6
ByBlock
100
AcDbLine
 10
877.0022899110832
 20
352.7524658726968
 30
0.0
 11
1001.213232605977
 21
352.7524658726968
 31
0.0
  0
LINE
  5
3EB
330
3E8
100
AcDbEntity
  8
AM_5
  6
ByBlock
100
AcDbLine
 10
881.0000041967123
 20
452.7165107781596
 30
0.0
 11
1001.213232605977
 21
452.7165107781595
 31
0.0
  0
LINE
  5
3EC
330
3E8
100
AcDbEntity
  8
AM_5
  6
ByBlock
100
AcDbLine
 10
1000.213232605977
 20
359.7524658726968
 30
0.0
 11
1000.213232605977
 21
445.7165107781595
 31
0.0
  0
SOLID
  5
3ED
330
3E8
100
AcDbEntity
  8
AM_5
100
AcDbTrace
 10
999.0465659393107
 20
359.7524658726968
 30
0.0
 11
1001.379899272644
 21
359.7524658726968
 31
0.0
 12
1000.213232605977
 22
352.7524658726968
 32
0.0
 13
1000.213232605977
 23
352.7524658726968
 33
0.0
  0
SOLID
  5
3EE
330
3E8
100
AcDbEntity
  8
AM_5
100
AcDbTrace
 10
999.0465659393107
 20
445.7165107781595
 30
0.0
 11
1001.379899272644
 21
445.7165107781595
 31
0.0
 12
1000.213232605977
 22
452.7165107781595
 32
0.0
 13
1000.213232605977
 23
452.7165107781595
 33
0.0
  0
MTEXT
  5
3EF
330
3E8
100
AcDbEntity
  8
AM_5
 62
     2
100
AcDbMText
 10
993.7132326059771
 20
402.7344883254283
 30
0.0
 40
10.0
 41
0.0
 71
     5
 72
     1
  1
79-134
 11
0.0000000000000001
 21
1.0
 31
0.0
 73
     1
 44
1.0
1001
ACAD
1000
MTEXTBEGIN
1070
    73
1070
     1
1070
    44
1040
1.0
1070
    74
1070
     0
1000
MTEXTEND
  0
POINT
  5
3F0
330
3E8
100
AcDbEntity
  8
Defpoints
 62
     0
100
AcDbPoint
 10
876.0022899110833
 20
352.7524658726968
 30
0.0
  0
POINT
  5
3F1
330
3E8
100
AcDbEntity
  8
Defpoints
 62
     0
100
AcDbPoint
 10
880.0000041967123
 20
452.7165107781596
 30
0.0
  0
POINT
  5
3F2
330
3E8
100
AcDbEntity
  8
Defpoints
 62
     0
100
AcDbPoint
 10
1000.213232605977
 20
452.7165107781595
 30
0.0
  0
ENDBLK
  5
3F3
330
3E8
100
AcDbEntity
  8
0
100
AcDbBlockEnd
  0
BLOCK
  5
3F5
330
3F4
100
AcDbEntity
  8
0
100
AcDbBlockBegin
  2
*D7
 70
     1
 10
0.0
 20
0.0
 30
0.0
  3
*D7
  1

  0
LINE
  5
3F6
330
3F4
100
AcDbEntity
  8
AM_5
  6
ByBlock
100
AcDbLine
 10
878.8011470536094
 20
51.0848002863886
 30
0.0
 11
959.0641093383265
 21
51.08480028638857
 31
0.0
  0
LINE
  5
3F7
330
3F4
100
AcDbEntity
  8
AM_5
  6
ByBlock
100
AcDbLine
 10
880.8000041967153
 20
135.0848002863887
 30
0.0
 11
959.0641093383265
 21
135.0848002863887
 31
0.0
  0
LINE
  5
3F8
330
3F4
100
AcDbEntity
  8
AM_5
  6
ByBlock
100
AcDbLine
 10
958.0641093383265
 20
58.08480028638857
 30
0.0
 11
958.0641093383265
 21
128.0848002863887
 31
0.0
  0
SOLID
  5
3F9
330
3F4
100
AcDbEntity
  8
AM_5
100
AcDbTrace
 10
956.8974426716598
 20
58.08480028638857
 30
0.0
 11
959.2307760049932
 21
58.08480028638857
 31
0.0
 12
958.0641093383265
 22
51.08480028638857
 32
0.0
 13
958.0641093383265
 23
51.08480028638857
 33
0.0
  0
SOLID
  5
3FA
330
3F4
100
AcDbEntity
  8
AM_5
100
AcDbTrace
 10
956.8974426716598
 20
128.0848002863887
 30
0.0
 11
959.2307760049932
 21
128.0848002863887
 31
0.0
 12
958.0641093383265
 22
135.0848002863887
 32
0.0
 13
958.0641093383265
 23
135.0848002863887
 33
0.0
  0
MTEXT
  5
3FB
330
3F4
100
AcDbEntity
  8
AM_5
 62
     2
100
AcDbMText
 10
951.5641093383264
 20
93.0848002863888
 30
0.0
 40
10.0
 41
0.0
 71
     5
 72
     1
  1
84
 11
0.0000000000000001
 21
1.0
 31
0.0
 73
     1
 44
1.0
1001
ACAD
1000
MTEXTBEGIN
1070
    73
1070
     1
1070
    44
1040
1.0
1070
    74
1070
     0
1000
MTEXTEND
  0
POINT
  5
3FC
330
3F4
100
AcDbEntity
  8
Defpoints
 62
     0
100
AcDbPoint
 10
877.8011470536094
 20
51.0848002863886
 30
0.0
  0
POINT
  5
3FD
330
3F4
100
AcDbEntity
  8
Defpoints
 62
     0
100
AcDbPoint
 10
879.8000041967153
 20
135.0848002863887
 30
0.0
  0
POINT
  5
3FE
330
3F4
100
AcDbEntity
  8
Defpoints
 62
     0
100
AcDbPoint
 10
958.0641093383265
 20
135.0848002863887
 30
0.0
  0
ENDBLK
  5
3FF
330
3F4
100
AcDbEntity
  8
0
100
AcDbBlockEnd
  0
BLOCK
  5
401
330
400
100
AcDbEntity
  8
0
100
AcDbBlockBegin
  2
*D8
 70
     1
 10
0.0
 20
0.0
 30
0.0
  3
*D8
  1

  0
LINE
  5
402
330
400
100
AcDbEntity
  8
AM_5
  6
ByBlock
100
AcDbLine
 10
909.7828613392403
 20
26.5848002863886
 30
0.0
 11
994.9608592785862
 21
26.58480028638858
 31
0.0
  0
LINE
  5
403
330
400
100
AcDbEntity
  8
AM_5
  6
ByBlock
100
AcDbLine
 10
910.7828613392403
 20
159.5848002863885
 30
0.0
 11
994.9608592785862
 21
159.5848002863885
 31
0.0
  0
LINE
  5
404
330
400
100
AcDbEntity
  8
AM_5
  6
ByBlock
100
AcDbLine
 10
993.9608592785862
 20
33.58480028638858
 30
0.0
 11
993.9608592785862
 21
152.5848002863885
 31
0.0
  0
SOLID
  5
405
330
400
100
AcDbEntity
  8
AM_5
100
AcDbTrace
 10
992.7941926119196
 20
33.58480028638858
 30
0.0
 11
995.1275259452527
 21
33.58480028638858
 31
0.0
 12
993.9608592785862
 22
26.58480028638858
 32
0.0
 13
993.9608592785862
 23
26.58480028638858
 33
0.0
  0
SOLID
  5
406
330
400
100
AcDbEntity
  8
AM_5
100
AcDbTrace
 10
992.7941926119196
 20
152.5848002863885
 30
0.0
 11
995.1275259452527
 21
152.5848002863885
 31
0.0
 12
993.9608592785862
 22
159.5848002863885
 32
0.0
 13
993.9608592785862
 23
159.5848002863885
 33
0.0
  0
MTEXT
  5
407
330
400
100
AcDbEntity
  8
AM_5
 62
     2
100
AcDbMText
 10
987.4608592785861
 20
93.08480028638872
 30
0.0
 40
10.0
 41
0.0
 71
     5
 72
     1
  1
133
 11
0.0000000000000001
 21
1.0
 31
0.0
 73
     1
 44
1.0
1001
ACAD
1000
MTEXTBEGIN
1070
    73
1070
     1
1070
    44
1040
1.0
1070
    74
1070
     0
1000
MTEXTEND
  0
POINT
  5
408
330
400
100
AcDbEntity
  8
Defpoints
 62
     0
100
AcDbPoint
 10
908.7828613392403
 20
26.5848002863886
 30
0.0
  0
POINT
  5
409
330
400
100
AcDbEntity
  8
Defpoints
 62
     0
100
AcDbPoint
 10
909.7828613392403
 20
159.5848002863885
 30
0.0
  0
POINT
  5
40A
330
400
100
AcDbEntity
  8
Defpoints
 62
     0
100
AcDbPoint
 10
993.9608592785862
 20
159.5848002863885
 30
0.0
  0
ENDBLK
  5
40B
330
400
100
AcDbEntity
  8
0
100
AcDbBlockEnd
  0
BLOCK
  5
40D
330
40C
100
AcDbEntity
  8
0
100
AcDbBlockBegin
  2
*D9
 70
     1
 10
0.0
 20
0.0
 30
0.0
  3
*D9
  1

  0
LINE
  5
40E
330
40C
100
AcDbEntity
  8
AM_5
  6
ByBlock
100
AcDbLine
 10
880.0000041967127
 20
158.5853717151266
 30
0.0
 11
880.0000041967127
 21
180.533714873504
 31
0.0
  0
LINE
  5
40F
330
40C
100
AcDbEntity
  8
AM_5
  6
ByBlock
100
AcDbLine
 10
-19.99999580328768
 20
158.5853717151266
 30
0.0
 11
-19.99999580328768
 21
180.533714873504
 31
0.0
  0
LINE
  5
410
330
40C
100
AcDbEntity
  8
AM_5
  6
ByBlock
100
AcDbLine
 10
873.0000041967128
 20
179.533714873504
 30
0.0
 11
-12.99999580328768
 21
179.533714873504
 31
0.0
  0
SOLID
  5
411
330
40C
100
AcDbEntity
  8
AM_5
100
AcDbTrace
 10
873.0000041967128
 20
180.7003815401707
 30
0.0
 11
873.0000041967128
 21
178.3670482068374
 31
0.0
 12
880.0000041967127
 22
179.533714873504
 32
0.0
 13
880.0000041967127
 23
179.533714873504
 33
0.0
  0
SOLID
  5
412
330
40C
100
AcDbEntity
  8
AM_5
100
AcDbTrace
 10
-12.99999580328768
 20
180.7003815401707
 30
0.0
 11
-12.99999580328768
 21
178.3670482068374
 31
0.0
 12
-19.99999580328768
 22
179.533714873504
 32
0.0
 13
-19.99999580328768
 23
179.533714873504
 33
0.0
  0
MTEXT
  5
413
330
40C
100
AcDbEntity
  8
AM_5
 62
     2
100
AcDbMText
 10
430.0000041967125
 20
186.033714873504
 30
0.0
 40
10.0
 41
0.0
 71
     5
 72
     1
  1
900
 73
     1
 44
1.0
1001
ACAD
1000
MTEXTBEGIN
1070
    73
1070
     1
1070
    44
1040
1.0
1070
    74
1070
     0
1000
MTEXTEND
  0
POINT
  5
414
330
40C
100
AcDbEntity
  8
Defpoints
 62
     0
100
AcDbPoint
 10
880.0000041967127
 20
157.5853717151266
 30
0.0
  0
POINT
  5
415
330
40C
100
AcDbEntity
  8
Defpoints
 62
     0
100
AcDbPoint
 10
-19.99999580328768
 20
157.5853717151266
 30
0.0
  0
POINT
  5
416
330
40C
100
AcDbEntity
  8
Defpoints
 62
     0
100
AcDbPoint
 10
-19.99999580328768
 20
179.533714873504
 30
0.0
  0
ENDBLK
  5
417
330
40C
100
AcDbEntity
  8
0
100
AcDbBlockEnd
  0
BLOCK
  5
419
330
418
100
AcDbEntity
  8
0
100
AcDbBlockBegin
  2
*D10
 70
     1
 10
0.0
 20
0.0
 30
0.0
  3
*D10
  1

  0
LINE
  5
41A
330
418
100
AcDbEntity
  8
AM_5
  6
ByBlock
100
AcDbLine
 10
910.0000041967122
 20
160.5848002863885
 30
0.0
 11
910.0000041967122
 21
215.657169940609
 31
0.0
  0
LINE
  5
41B
330
418
100
AcDbEntity
  8
AM_5
  6
ByBlock
100
AcDbLine
 10
-49.99999580328768
 20
155.4502860004649
 30
0.0
 11
-49.99999580328768
 21
215.657169940609
 31
0.0
  0
LINE
  5
41C
330
418
100
AcDbEntity
  8
AM_5
  6
ByBlock
100
AcDbLine
 10
903.0000041967124
 20
214.6571699406091
 30
0.0
 11
-42.99999580328767
 21
214.6571699406091
 31
0.0
  0
SOLID
  5
41D
330
418
100
AcDbEntity
  8
AM_5
100
AcDbTrace
 10
903.0000041967124
 20
215.8238366072757
 30
0.0
 11
903.0000041967124
 21
213.4905032739424
 31
0.0
 12
910.0000041967122
 22
214.6571699406091
 32
0.0
 13
910.0000041967122
 23
214.6571699406091
 33
0.0
  0
SOLID
  5
41E
330
418
100
AcDbEntity
  8
AM_5
100
AcDbTrace
 10
-42.99999580328767
 20
215.8238366072757
 30
0.0
 11
-42.99999580328767
 21
213.4905032739424
 31
0.0
 12
-49.99999580328768
 22
214.6571699406091
 32
0.0
 13
-49.99999580328768
 23
214.6571699406091
 33
0.0
  0
MTEXT
  5
41F
330
418
100
AcDbEntity
  8
AM_5
 62
     2
100
AcDbMText
 10
430.0000041967122
 20
221.157169940609
 30
0.0
 40
10.0
 41
0.0
 71
     5
 72
     1
  1
960
 73
     1
 44
1.0
1001
ACAD
1000
MTEXTBEGIN
1070
    73
1070
     1
1070
    44
1040
1.0
1070
    74
1070
     0
1000
MTEXTEND
  0
POINT
  5
420
330
418
100
AcDbEntity
  8
Defpoints
 62
     0
100
AcDbPoint
 10
910.0000041967122
 20
159.5848002863885
 30
0.0
  0
POINT
  5
421
330
418
100
AcDbEntity
  8
Defpoints
 62
     0
100
AcDbPoint
 10
-49.99999580328768
 20
154.4502860004649
 30
0.0
  0
POINT
  5
422
330
418
100
AcDbEntity
  8
Defpoints
 62
     0
100
AcDbPoint
 10
-49.99999580328768
 20
214.6571699406091
 30
0.0
  0
ENDBLK
  5
423
330
418
100
AcDbEntity
  8
0
100
AcDbBlockEnd
  0
BLOCK
  5
425
330
424
100
AcDbEntity
  8
0
100
AcDbBlockBegin
  2
*D11
 70
     1
 10
0.0
 20
0.0
 30
0.0
  3
*D11
  1

  0
LINE
  5
426
330
424
100
AcDbEntity
  8
AM_5
  6
ByBlock
100
AcDbLine
 10
1224.792381243848
 20
452.7165107782455
 30
0.0
 11
1224.792381243848
 21
503.5165517390915
 31
0.0
  0
LINE
  5
427
330
424
100
AcDbEntity
  8
AM_5
  6
ByBlock
100
AcDbLine
 10
1144.792381243947
 20
451.7165107780463
 30
0.0
 11
1144.792381243947
 21
503.5165517390915
 31
0.0
  0
LINE
  5
428
330
424
100
AcDbEntity
  8
AM_5
  6
ByBlock
100
AcDbLine
 10
1217.792381243848
 20
502.5165517390915
 30
0.0
 11
1151.792381243947
 21
502.5165517390915
 31
0.0
  0
SOLID
  5
429
330
424
100
AcDbEntity
  8
AM_5
100
AcDbTrace
 10
1217.792381243848
 20
503.6832184057582
 30
0.0
 11
1217.792381243848
 21
501.3498850724247
 31
0.0
 12
1224.792381243848
 22
502.5165517390915
 32
0.0
 13
1224.792381243848
 23
502.5165517390915
 33
0.0
  0
SOLID
  5
42A
330
424
100
AcDbEntity
  8
AM_5
100
AcDbTrace
 10
1151.792381243947
 20
503.6832184057582
 30
0.0
 11
1151.792381243947
 21
501.3498850724247
 31
0.0
 12
1144.792381243947
 22
502.5165517390915
 32
0.0
 13
1144.792381243947
 23
502.5165517390915
 33
0.0
  0
MTEXT
  5
42B
330
424
100
AcDbEntity
  8
AM_5
 62
     2
100
AcDbMText
 10
1184.792372950136
 20
509.0165517390914
 30
0.0
 40
10.0
 41
0.0
 71
     5
 72
     1
  1
80
 73
     1
 44
1.0
1001
ACAD
1000
MTEXTBEGIN
1070
    73
1070
     1
1070
    44
1040
1.0
1070
    74
1070
     0
1000
MTEXTEND
  0
POINT
  5
42C
330
424
100
AcDbEntity
  8
Defpoints
 62
     0
100
AcDbPoint
 10
1224.792381243848
 20
451.7165107782456
 30
0.0
  0
POINT
  5
42D
330
424
100
AcDbEntity
  8
Defpoints
 62
     0
100
AcDbPoint
 10
1144.792381243947
 20
450.7165107780463
 30
0.0
  0
POINT
  5
42E
330
424
100
AcDbEntity
  8
Defpoints
 62
     0
100
AcDbPoint
 10
1144.792381243947
 20
502.5165517390915
 30
0.0
  0
ENDBLK
  5
42F
330
424
100
AcDbEntity
  8
0
100
AcDbBlockEnd
  0
BLOCK
  5
669
330
668
100
AcDbEntity
  8
0
100
AcDbBlockBegin
  2
*D13
 70
     1
 10
0.0
 20
0.0
 30
0.0
  3
*D13
  1

  0
LINE
  5
6C2
330
668
100
AcDbEntity
  8
AM_5
  6
ByBlock
100
AcDbLine
 10
977.0022868952597
 20
352.7524662951103
 30
0.0
 11
1101.213229590153
 21
352.7524662951103
 31
0.0
  0
LINE
  5
6C3
330
668
100
AcDbEntity
  8
AM_5
  6
ByBlock
100
AcDbLine
 10
981.0000011808888
 20
452.7165112005731
 30
0.0
 11
1101.213229590153
 21
452.7165112005731
 31
0.0
  0
LINE
  5
6C4
330
668
100
AcDbEntity
  8
AM_5
  6
ByBlock
100
AcDbLine
 10
1100.213229590154
 20
359.7524662951102
 30
0.0
 11
1100.213229590154
 21
445.716511200573
 31
0.0
  0
SOLID
  5
6C5
330
668
100
AcDbEntity
  8
AM_5
100
AcDbTrace
 10
1099.046562923487
 20
359.7524662951102
 30
0.0
 11
1101.37989625682
 21
359.7524662951102
 31
0.0
 12
1100.213229590154
 22
352.7524662951103
 32
0.0
 13
1100.213229590154
 23
352.7524662951103
 33
0.0
  0
SOLID
  5
6C6
330
668
100
AcDbEntity
  8
AM_5
100
AcDbTrace
 10
1099.046562923487
 20
445.716511200573
 30
0.0
 11
1101.37989625682
 21
445.716511200573
 31
0.0
 12
1100.213229590154
 22
452.7165112005731
 32
0.0
 13
1100.213229590154
 23
452.7165112005731
 33
0.0
  0
MTEXT
  5
6C7
330
668
100
AcDbEntity
  8
AM_5
 62
     2
100
AcDbMText
 10
1093.713229590154
 20
402.7344887478418
 30
0.0
 40
10.0
 41
0.0
 71
     5
 72
     1
  1
79-134
 11
0.0000000000000001
 21
1.0
 31
0.0
 73
     1
 44
1.0
1001
ACAD
1000
MTEXTBEGIN
1070
    73
1070
     1
1070
    44
1040
1.0
1070
    74
1070
     0
1000
MTEXTEND
  0
POINT
  5
6C8
330
668
100
AcDbEntity
  8
Defpoints
 62
     0
100
AcDbPoint
 10
976.0022868952598
 20
352.7524662951103
 30
0.0
  0
POINT
  5
6C9
330
668
100
AcDbEntity
  8
Defpoints
 62
     0
100
AcDbPoint
 10
980.0000011808888
 20
452.7165112005731
 30
0.0
  0
POINT
  5
6CA
330
668
100
AcDbEntity
  8
Defpoints
 62
     0
100
AcDbPoint
 10
1100.213229590154
 20
452.7165112005731
 30
0.0
  0
ENDBLK
  5
66A
330
668
100
AcDbEntity
  8
0
100
AcDbBlockEnd
  0
BLOCK
  5
675
330
674
100
AcDbEntity
  8
0
100
AcDbBlockBegin
  2
*D14
 70
     1
 10
0.0
 20
0.0
 30
0.0
  3
*D14
  1

  0
LINE
  5
6FE
330
674
100
AcDbEntity
  8
AM_5
  6
ByBlock
100
AcDbLine
 10
981.0000011808888
 20
51.08480070880204
 30
0.0
 11
1059.064106322503
 21
51.08480070880203
 31
0.0
  0
LINE
  5
6FF
330
674
100
AcDbEntity
  8
AM_5
  6
ByBlock
100
AcDbLine
 10
980.8000011808918
 20
135.0848007088022
 30
0.0
 11
1059.064106322503
 21
135.0848007088022
 31
0.0
  0
LINE
  5
700
330
674
100
AcDbEntity
  8
AM_5
  6
ByBlock
100
AcDbLine
 10
1058.064106322503
 20
58.08480070880203
 30
0.0
 11
1058.064106322503
 21
128.0848007088022
 31
0.0
  0
SOLID
  5
701
330
674
100
AcDbEntity
  8
AM_5
100
AcDbTrace
 10
1056.897439655836
 20
58.08480070880203
 30
0.0
 11
1059.230772989169
 21
58.08480070880203
 31
0.0
 12
1058.064106322503
 22
51.08480070880203
 32
0.0
 13
1058.064106322503
 23
51.08480070880203
 33
0.0
  0
SOLID
  5
702
330
674
100
AcDbEntity
  8
AM_5
100
AcDbTrace
 10
1056.897439655836
 20
128.0848007088022
 30
0.0
 11
1059.230772989169
 21
128.0848007088022
 31
0.0
 12
1058.064106322503
 22
135.0848007088022
 32
0.0
 13
1058.064106322503
 23
135.0848007088022
 33
0.0
  0
MTEXT
  5
703
330
674
100
AcDbEntity
  8
AM_5
 62
     2
100
AcDbMText
 10
1051.564106322503
 20
93.08480070880227
 30
0.0
 40
10.0
 41
0.0
 71
     5
 72
     1
  1
84
 11
0.0000000000000001
 21
1.0
 31
0.0
 73
     1
 44
1.0
1001
ACAD
1000
MTEXTBEGIN
1070
    73
1070
     1
1070
    44
1040
1.0
1070
    74
1070
     0
1000
MTEXTEND
  0
POINT
  5
704
330
674
100
AcDbEntity
  8
Defpoints
 62
     0
100
AcDbPoint
 10
980.0000011808888
 20
51.08480070880204
 30
0.0
  0
POINT
  5
705
330
674
100
AcDbEntity
  8
Defpoints
 62
     0
100
AcDbPoint
 10
979.8000011808918
 20
135.0848007088022
 30
0.0
  0
POINT
  5
706
330
674
100
AcDbEntity
  8
Defpoints
 62
     0
100
AcDbPoint
 10
1058.064106322503
 20
135.0848007088022
 30
0.0
  0
ENDBLK
  5
676
330
674
100
AcDbEntity
  8
0
100
AcDbBlockEnd
  0
BLOCK
  5
681
330
680
100
AcDbEntity
  8
0
100
AcDbBlockBegin
  2
*D15
 70
     1
 10
0.0
 20
0.0
 30
0.0
  3
*D15
  1

  0
LINE
  5
6D4
330
680
100
AcDbEntity
  8
AM_5
  6
ByBlock
100
AcDbLine
 10
1009.782858323417
 20
26.58480070880205
 30
0.0
 11
1094.960856262763
 21
26.58480070880203
 31
0.0
  0
LINE
  5
6D5
330
680
100
AcDbEntity
  8
AM_5
  6
ByBlock
100
AcDbLine
 10
1010.782858323417
 20
159.584800708802
 30
0.0
 11
1094.960856262763
 21
159.5848007088019
 31
0.0
  0
LINE
  5
6D6
330
680
100
AcDbEntity
  8
AM_5
  6
ByBlock
100
AcDbLine
 10
1093.960856262762
 20
33.58480070880203
 30
0.0
 11
1093.960856262762
 21
152.5848007088019
 31
0.0
  0
SOLID
  5
6D7
330
680
100
AcDbEntity
  8
AM_5
100
AcDbTrace
 10
1092.794189596096
 20
33.58480070880203
 30
0.0
 11
1095.127522929429
 21
33.58480070880203
 31
0.0
 12
1093.960856262762
 22
26.58480070880203
 32
0.0
 13
1093.960856262762
 23
26.58480070880203
 33
0.0
  0
SOLID
  5
6D8
330
680
100
AcDbEntity
  8
AM_5
100
AcDbTrace
 10
1092.794189596096
 20
152.5848007088019
 30
0.0
 11
1095.127522929429
 21
152.5848007088019
 31
0.0
 12
1093.960856262762
 22
159.5848007088019
 32
0.0
 13
1093.960856262762
 23
159.5848007088019
 33
0.0
  0
MTEXT
  5
6D9
330
680
100
AcDbEntity
  8
AM_5
 62
     2
100
AcDbMText
 10
1087.460856262763
 20
93.08480070880218
 30
0.0
 40
10.0
 41
0.0
 71
     5
 72
     1
  1
133
 11
0.0000000000000001
 21
1.0
 31
0.0
 73
     1
 44
1.0
1001
ACAD
1000
MTEXTBEGIN
1070
    73
1070
     1
1070
    44
1040
1.0
1070
    74
1070
     0
1000
MTEXTEND
  0
POINT
  5
6DA
330
680
100
AcDbEntity
  8
Defpoints
 62
     0
100
AcDbPoint
 10
1008.782858323417
 20
26.58480070880205
 30
0.0
  0
POINT
  5
6DB
330
680
100
AcDbEntity
  8
Defpoints
 62
     0
100
AcDbPoint
 10
1009.782858323417
 20
159.584800708802
 30
0.0
  0
POINT
  5
6DC
330
680
100
AcDbEntity
  8
Defpoints
 62
     0
100
AcDbPoint
 10
1093.960856262762
 20
159.5848007088019
 30
0.0
  0
ENDBLK
  5
682
330
680
100
AcDbEntity
  8
0
100
AcDbBlockEnd
  0
BLOCK
  5
68D
330
68C
100
AcDbEntity
  8
0
100
AcDbBlockBegin
  2
*D16
 70
     1
 10
0.0
 20
0.0
 30
0.0
  3
*D16
  1

  0
LINE
  5
6F5
330
68C
100
AcDbEntity
  8
AM_5
  6
ByBlock
100
AcDbLine
 10
980.0000011808892
 20
158.58537213754
 30
0.0
 11
980.0000011808892
 21
180.5337152959175
 31
0.0
  0
LINE
  5
6F6
330
68C
100
AcDbEntity
  8
AM_5
  6
ByBlock
100
AcDbLine
 10
-19.99999881911117
 20
158.58537213754
 30
0.0
 11
-19.99999881911117
 21
180.5337152959175
 31
0.0
  0
LINE
  5
6F7
330
68C
100
AcDbEntity
  8
AM_5
  6
ByBlock
100
AcDbLine
 10
973.0000011808893
 20
179.5337152959175
 30
0.0
 11
-12.99999881911117
 21
179.5337152959175
 31
0.0
  0
SOLID
  5
6F8
330
68C
100
AcDbEntity
  8
AM_5
100
AcDbTrace
 10
973.0000011808893
 20
180.7003819625841
 30
0.0
 11
973.0000011808893
 21
178.3670486292508
 31
0.0
 12
980.0000011808892
 22
179.5337152959175
 32
0.0
 13
980.0000011808892
 23
179.5337152959175
 33
0.0
  0
SOLID
  5
6F9
330
68C
100
AcDbEntity
  8
AM_5
100
AcDbTrace
 10
-12.99999881911117
 20
180.7003819625841
 30
0.0
 11
-12.99999881911117
 21
178.3670486292508
 31
0.0
 12
-19.99999881911117
 22
179.5337152959175
 32
0.0
 13
-19.99999881911117
 23
179.5337152959175
 33
0.0
  0
MTEXT
  5
6FA
330
68C
100
AcDbEntity
  8
AM_5
 62
     2
100
AcDbMText
 10
480.000001180889
 20
186.0337152959175
 30
0.0
 40
10.0
 41
0.0
 71
     5
 72
     1
  1
1000
 73
     1
 44
1.0
1001
ACAD
1000
MTEXTBEGIN
1070
    73
1070
     1
1070
    44
1040
1.0
1070
    74
1070
     0
1000
MTEXTEND
  0
POINT
  5
6FB
330
68C
100
AcDbEntity
  8
Defpoints
 62
     0
100
AcDbPoint
 10
980.0000011808892
 20
157.58537213754
 30
0.0
  0
POINT
  5
6FC
330
68C
100
AcDbEntity
  8
Defpoints
 62
     0
100
AcDbPoint
 10
-19.99999881911117
 20
157.58537213754
 30
0.0
  0
POINT
  5
6FD
330
68C
100
AcDbEntity
  8
Defpoints
 62
     0
100
AcDbPoint
 10
-19.99999881911117
 20
179.5337152959175
 30
0.0
  0
ENDBLK
  5
68E
330
68C
100
AcDbEntity
  8
0
100
AcDbBlockEnd
  0
BLOCK
  5
699
330
698
100
AcDbEntity
  8
0
100
AcDbBlockBegin
  2
*D17
 70
     1
 10
0.0
 20
0.0
 30
0.0
  3
*D17
  1

  0
LINE
  5
6EC
330
698
100
AcDbEntity
  8
AM_5
  6
ByBlock
100
AcDbLine
 10
1010.000001180888
 20
160.584800708802
 30
0.0
 11
1010.000001180888
 21
215.6571703630225
 31
0.0
  0
LINE
  5
6ED
330
698
100
AcDbEntity
  8
AM_5
  6
ByBlock
100
AcDbLine
 10
-49.99999881911117
 20
155.4502864228784
 30
0.0
 11
-49.99999881911116
 21
215.6571703630225
 31
0.0
  0
LINE
  5
6EE
330
698
100
AcDbEntity
  8
AM_5
  6
ByBlock
100
AcDbLine
 10
1003.000001180889
 20
214.6571703630225
 30
0.0
 11
-42.99999881911116
 21
214.6571703630225
 31
0.0
  0
SOLID
  5
6EF
330
698
100
AcDbEntity
  8
AM_5
100
AcDbTrace
 10
1003.000001180889
 20
215.8238370296892
 30
0.0
 11
1003.000001180889
 21
213.4905036963558
 31
0.0
 12
1010.000001180888
 22
214.6571703630225
 32
0.0
 13
1010.000001180888
 23
214.6571703630225
 33
0.0
  0
SOLID
  5
6F0
330
698
100
AcDbEntity
  8
AM_5
100
AcDbTrace
 10
-42.99999881911116
 20
215.8238370296892
 30
0.0
 11
-42.99999881911116
 21
213.4905036963558
 31
0.0
 12
-49.99999881911116
 22
214.6571703630225
 32
0.0
 13
-49.99999881911116
 23
214.6571703630225
 33
0.0
  0
MTEXT
  5
6F1
330
698
100
AcDbEntity
  8
AM_5
 62
     2
100
AcDbMText
 10
480.0000011808888
 20
221.1571703630225
 30
0.0
 40
10.0
 41
0.0
 71
     5
 72
     1
  1
1060
 73
     1
 44
1.0
1001
ACAD
1000
MTEXTBEGIN
1070
    73
1070
     1
1070
    44
1040
1.0
1070
    74
1070
     0
1000
MTEXTEND
  0
POINT
  5
6F2
330
698
100
AcDbEntity
  8
Defpoints
 62
     0
100
AcDbPoint
 10
1010.000001180888
 20
159.584800708802
 30
0.0
  0
POINT
  5
6F3
330
698
100
AcDbEntity
  8
Defpoints
 62
     0
100
AcDbPoint
 10
-49.99999881911117
 20
154.4502864228784
 30
0.0
  0
POINT
  5
6F4
330
698
100
AcDbEntity
  8
Defpoints
 62
     0
100
AcDbPoint
 10
-49.99999881911116
 20
214.6571703630225
 30
0.0
  0
ENDBLK
  5
69A
330
698
100
AcDbEntity
  8
0
100
AcDbBlockEnd
  0
BLOCK
  5
6A5
330
6A4
100
AcDbEntity
  8
0
100
AcDbBlockBegin
  2
*D18
 70
     1
 10
0.0
 20
0.0
 30
0.0
  3
*D18
  1

  0
LINE
  5
6DD
330
6A4
100
AcDbEntity
  8
AM_5
  6
ByBlock
100
AcDbLine
 10
1324.792378228024
 20
452.716511200659
 30
0.0
 11
1324.792378228024
 21
503.5165521615049
 31
0.0
  0
LINE
  5
6DE
330
6A4
100
AcDbEntity
  8
AM_5
  6
ByBlock
100
AcDbLine
 10
1244.792378228123
 20
451.7165112004597
 30
0.0
 11
1244.792378228123
 21
503.5165521615049
 31
0.0
  0
LINE
  5
6DF
330
6A4
100
AcDbEntity
  8
AM_5
  6
ByBlock
100
AcDbLine
 10
1317.792378228024
 20
502.5165521615049
 30
0.0
 11
1251.792378228123
 21
502.5165521615049
 31
0.0
  0
SOLID
  5
6E0
330
6A4
100
AcDbEntity
  8
AM_5
100
AcDbTrace
 10
1317.792378228024
 20
503.6832188281715
 30
0.0
 11
1317.792378228024
 21
501.3498854948382
 31
0.0
 12
1324.792378228024
 22
502.5165521615049
 32
0.0
 13
1324.792378228024
 23
502.5165521615049
 33
0.0
  0
SOLID
  5
6E1
330
6A4
100
AcDbEntity
  8
AM_5
100
AcDbTrace
 10
1251.792378228123
 20
503.6832188281715
 30
0.0
 11
1251.792378228123
 21
501.3498854948382
 31
0.0
 12
1244.792378228123
 22
502.5165521615049
 32
0.0
 13
1244.792378228123
 23
502.5165521615049
 33
0.0
  0
MTEXT
  5
6E2
330
6A4
100
AcDbEntity
  8
AM_5
 62
     2
100
AcDbMText
 10
1284.792369934312
 20
509.0165521615049
 30
0.0
 40
10.0
 41
0.0
 71
     5
 72
     1
  1
80
 73
     1
 44
1.0
1001
ACAD
1000
MTEXTBEGIN
1070
    73
1070
     1
1070
    44
1040
1.0
1070
    74
1070
     0
1000
MTEXTEND
  0
POINT
  5
6E3
330
6A4
100
AcDbEntity
  8
Defpoints
 62
     0
100
AcDbPoint
 10
1324.792378228024
 20
451.716511200659
 30
0.0
  0
POINT
  5
6E4
330
6A4
100
AcDbEntity
  8
Defpoints
 62
     0
100
AcDbPoint
 10
1244.792378228123
 20
450.7165112004598
 30
0.0
  0
POINT
  5
6E5
330
6A4
100
AcDbEntity
  8
Defpoints
 62
     0
100
AcDbPoint
 10
1244.792378228123
 20
502.5165521615049
 30
0.0
  0
ENDBLK
  5
6A6
330
6A4
100
AcDbEntity
  8
0
100
AcDbBlockEnd
  0
ENDSEC
  0
SECTION
  2
ENTITIES
  0
LINE
  5
562
330
1F
100
AcDbEntity
  8
0
  6
Continuous
 62
     7
100
AcDbLine
 10
-49.99999881911117
 20
437.725082629311
 30
0.0
 11
-49.99999881911117
 21
492.6936540574661
 31
0.0
  0
LINE
  5
563
330
1F
100
AcDbEntity
  8
0
  6
Continuous
 62
     7
100
AcDbLine
 10
-22.49857024727226
 20
437.8589806683998
 30
0.0
 11
-22.49857024727226
 21
451.7170826293121
 31
0.0
  0
LINE
  5
564
330
1F
100
AcDbEntity
  8
0
  6
Continuous
 62
     7
100
AcDbLine
 10
-21.99885596163858
 20
438.7245112005721
 30
0.0
 11
-21.99885596163858
 21
451.7170826293121
 31
0.0
  0
LINE
  5
565
330
1F
100
AcDbEntity
  8
0
  6
Continuous
 62
     7
100
AcDbLine
 10
-19.99999881911117
 20
437.725082629311
 30
0.0
 11
-19.99999881911117
 21
436.725654057466
 31
0.0
  0
LINE
  5
566
330
1F
100
AcDbEntity
  8
0
  6
Continuous
 62
     7
100
AcDbLine
 10
-19.99999881911117
 20
437.725082629311
 30
0.0
 11
-19.99999881911117
 21
453.216225486204
 31
0.0
  0
LINE
  5
567
330
1F
100
AcDbEntity
  8
0
  6
Continuous
 62
     7
100
AcDbLine
 10
443.0192818623267
 20
427.348796363361
 30
0.0
 11
443.0211439042769
 21
427.287817559398
 31
0.0
  0
LINE
  5
568
330
1F
100
AcDbEntity
  8
0
  6
Continuous
 62
     7
100
AcDbLine
 10
443.0085153179907
 20
427.446193902304
 30
0.0
 11
443.0192818623267
 21
427.348796363361
 31
0.0
  0
LINE
  5
569
330
1F
100
AcDbEntity
  8
0
  6
Continuous
 62
     7
100
AcDbLine
 10
-19.99999881911117
 20
428.287245257326
 30
0.0
 11
480.0000012187992
 21
428.287245257326
 31
0.0
  0
LINE
  5
56A
330
1F
100
AcDbEntity
  8
0
  6
Continuous
 62
     7
100
AcDbLine
 10
480.0000012187992
 20
428.287245257326
 30
0.0
 11
980.0000011808888
 21
428.287245257326
 31
0.0
  0
LINE
  5
56B
330
1F
100
AcDbEntity
  8
0
  6
Continuous
 62
     7
100
AcDbLine
 10
-20.99877223771182
 20
436.725654057466
 30
0.0
 11
-49.99999881911117
 21
436.725654057466
 31
0.0
  0
LINE
  5
56C
330
1F
100
AcDbEntity
  8
0
  6
Continuous
 62
     7
100
AcDbLine
 10
-19.99999881911117
 20
436.725654057466
 30
0.0
 11
980.0000011808892
 21
436.725654057466
 31
0.0
  0
LINE
  5
56D
330
1F
100
AcDbEntity
  8
0
  6
Continuous
 62
     7
100
AcDbLine
 10
980.9994297527346
 20
436.725654057466
 30
0.0
 11
1010.000001180888
 21
436.725654057466
 31
0.0
  0
LINE
  5
56E
330
1F
100
AcDbEntity
  8
0
  6
Continuous
 62
     7
100
AcDbLine
 10
-20.99877223771182
 20
437.725082629311
 30
0.0
 11
-49.99999881911117
 21
437.725082629311
 31
0.0
  0
LINE
  5
56F
330
1F
100
AcDbEntity
  8
0
  6
Continuous
 62
     7
100
AcDbLine
 10
-19.99999881911117
 20
437.725082629311
 30
0.0
 11
980.0000011808892
 21
437.7250826293112
 31
0.0
  0
LINE
  5
570
330
1F
100
AcDbEntity
  8
0
  6
Continuous
 62
     7
100
AcDbLine
 10
980.9994297527346
 20
437.725082629311
 30
0.0
 11
1010.000001180888
 21
437.725082629311
 31
0.0
  0
LWPOLYLINE
  5
571
330
1F
100
AcDbEntity
  8
0
  6
Continuous
 62
     7
100
AcDbPolyline
 90
       16
 70
     0
 43
0.0
 10
442.0217154665197
 20
428.2872454322269
 10
442.0571583160535
 20
428.28661677808
 10
442.1550287000605
 20
428.2783142383508
 10
442.2516081780659
 20
428.2604456760451
 10
442.3459663083063
 20
428.233183909272
 10
442.4371939535854
 20
428.1967916022649
 10
442.5244119942081
 20
428.1516187130198
 10
442.6067790311726
 20
428.0980995561307
 10
442.683502481213
 20
428.036746328579
 10
442.7538338172357
 20
427.9681550843199
 10
442.8170921092219
 20
427.8929890260781
 10
442.8726583306902
 20
427.8119862714987
 10
442.9199940088483
 20
427.7259412309551
 10
442.9586442742706
 20
427.6356985770039
 10
442.9882429318354
 20
427.54214325467
 10
443.0085153179907
 20
427.446193902304
  0
LINE
  5
572
330
1F
100
AcDbEntity
  8
0
  6
Continuous
 62
     7
100
AcDbLine
 10
516.9788583968743
 20
427.2878173238659
 30
0.0
 11
516.9807246690707
 21
427.348865408051
 31
0.0
  0
LINE
  5
573
330
1F
100
AcDbEntity
  8
0
  6
Continuous
 62
     7
100
AcDbLine
 10
516.9807246690707
 20
427.348865408051
 30
0.0
 11
516.9915059440736
 21
427.4463118758529
 31
0.0
  0
LWPOLYLINE
  5
574
330
1F
100
AcDbEntity
  8
0
  6
Continuous
 62
     7
100
AcDbPolyline
 90
       16
 70
     0
 43
0.0
 10
516.9915059440736
 20
427.4463118758529
 10
517.0117973984142
 20
427.5422876142157
 10
517.041414992394
 20
427.63585183954
 10
517.0800809498468
 20
427.7260900481191
 10
517.1274271103443
 20
427.812121097827
 10
517.1829979835688
 20
427.8931042752677
 10
517.2462556499963
 20
427.968248756096
 10
517.3165833725843
 20
428.036820036688
 10
517.3933008532921
 20
428.0981554570877
 10
517.4756617967378
 20
428.1516602045469
 10
517.5628730751423
 20
428.196821079912
 10
517.6540932830926
 20
428.2332034560949
 10
517.7484430443655
 20
428.260457141905
 10
517.8450129197754
 20
428.2783194392941
 10
517.942872144582
 20
428.286617693389
 10
517.9782868952588
 20
428.2872453511887
  0
LINE
  5
575
330
1F
100
AcDbEntity
  8
0
  6
Continuous
 62
     7
100
AcDbLine
 10
981.9988583239938
 20
439.7339340574668
 30
0.0
 11
980.9994297527346
 21
439.7339340574668
 31
0.0
  0
LINE
  5
576
330
1F
100
AcDbEntity
  8
0
  6
Continuous
 62
     7
100
AcDbLine
 10
-21.99885596163858
 20
439.7339340580502
 30
0.0
 11
-20.99942739037715
 21
439.7339340580502
 31
0.0
  0
LINE
  5
577
330
1F
100
AcDbEntity
  8
0
  6
Continuous
 62
     7
100
AcDbLine
 10
981.9988583239938
 20
440.7333626293111
 30
0.0
 11
980.9994297527346
 21
440.7333626293111
 31
0.0
  0
LINE
  5
578
330
1F
100
AcDbEntity
  8
0
  6
Continuous
 62
     7
100
AcDbLine
 10
-21.99885596163858
 20
440.7333626293111
 30
0.0
 11
-20.99942739037715
 21
440.7333626293111
 31
0.0
  0
LINE
  5
579
330
1F
100
AcDbEntity
  8
0
  6
Continuous
 62
     7
100
AcDbLine
 10
980.0000011808888
 20
452.7165112005729
 30
0.0
 11
-19.99999881911117
 21
452.7165112005731
 31
0.0
  0
LINE
  5
57A
330
1F
100
AcDbEntity
  8
0
  6
Continuous
 62
     7
100
AcDbLine
 10
980.9994297527346
 20
453.216225486204
 30
0.0
 11
980.0000011808888
 21
453.216225486204
 31
0.0
  0
LINE
  5
57B
330
1F
100
AcDbEntity
  8
0
  6
Continuous
 62
     7
100
AcDbLine
 10
-19.99999881911117
 20
453.216225486204
 30
0.0
 11
-20.99942739037715
 21
453.216225486204
 31
0.0
  0
LINE
  5
57C
330
1F
100
AcDbEntity
  8
0
  6
Continuous
 62
     7
100
AcDbLine
 10
1010.000001180888
 20
492.6936540574661
 30
0.0
 11
-49.99999881911117
 21
492.6936540574661
 31
0.0
  0
LINE
  5
57D
330
1F
100
AcDbEntity
  8
0
  6
Continuous
 62
     7
100
AcDbLine
 10
980.0000011808888
 20
437.725082629311
 30
0.0
 11
980.0000011808888
 21
436.725654057466
 31
0.0
  0
LINE
  5
57E
330
1F
100
AcDbEntity
  8
0
  6
Continuous
 62
     7
100
AcDbLine
 10
980.0000011808892
 20
428.287245257326
 30
0.0
 11
980.0000011808888
 21
453.216225486204
 31
0.0
  0
LINE
  5
57F
330
1F
100
AcDbEntity
  8
0
  6
Continuous
 62
     7
100
AcDbLine
 10
981.9988583239938
 20
438.7245112005721
 30
0.0
 11
981.9988583239938
 21
451.7170826293121
 31
0.0
  0
LINE
  5
580
330
1F
100
AcDbEntity
  8
0
  6
Continuous
 62
     7
100
AcDbLine
 10
982.4985726096247
 20
437.8589806683998
 30
0.0
 11
982.4985726096247
 21
451.7170826293121
 31
0.0
  0
LINE
  5
581
330
1F
100
AcDbEntity
  8
0
  6
Continuous
 62
     7
100
AcDbLine
 10
1010.000001180888
 20
492.6936540574661
 30
0.0
 11
1010.000001180888
 21
437.725082629311
 31
0.0
  0
LINE
  5
582
330
1F
100
AcDbEntity
  8
0
  6
Continuous
 62
     7
100
AcDbLine
 10
1010.000001180888
 20
436.725654057466
 30
0.0
 11
1010.000001180888
 21
437.725082629311
 31
0.0
  0
ARC
  5
583
330
1F
100
AcDbEntity
  8
0
  6
Continuous
 62
     7
100
AcDbCircle
 10
-22.99828453347936
 20
438.7245112005721
 30
0.0
 40
1.998857143106999
100
AcDbArc
 50
329.9616926244011
 51
0.0
  0
ARC
  5
584
330
1F
100
AcDbEntity
  8
0
  6
Continuous
 62
     7
100
AcDbCircle
 10
982.9982868952566
 20
438.7245112005721
 30
0.0
 40
1.998857143106999
100
AcDbArc
 50
180.0
 51
210.0383073755989
  0
ARC
  5
585
330
1F
100
AcDbEntity
  8
0
  6
Continuous
 62
     7
100
AcDbCircle
 10
-20.99942739037715
 20
451.7170826293121
 30
0.0
 40
0.9994285712619999
100
AcDbArc
 50
0.0
 51
180.0
  0
ARC
  5
586
330
1F
100
AcDbEntity
  8
0
  6
Continuous
 62
     7
100
AcDbCircle
 10
-22.99828453347936
 20
438.7245112005721
 30
0.0
 40
0.9994285712619999
100
AcDbArc
 50
270.0
 51
0.0
  0
ARC
  5
587
330
1F
100
AcDbEntity
  8
0
  6
Continuous
 62
     7
100
AcDbCircle
 10
982.9982868952566
 20
438.7245112005721
 30
0.0
 40
0.9994285712619999
100
AcDbArc
 50
180.0
 51
270.0
  0
ARC
  5
588
330
1F
100
AcDbEntity
  8
0
  6
Continuous
 62
     7
100
AcDbCircle
 10
980.9994297527346
 20
451.7170826293121
 30
0.0
 40
0.9994285712619999
100
AcDbArc
 50
0.0
 51
180.0
  0
ARC
  5
589
330
1F
100
AcDbEntity
  8
0
  6
Continuous
 62
     7
100
AcDbCircle
 10
-20.99942739037715
 20
451.7170826293121
 30
0.0
 40
1.499142856893
100
AcDbArc
 50
90.0
 51
180.0
  0
ARC
  5
58A
330
1F
100
AcDbEntity
  8
0
  6
Continuous
 62
     7
100
AcDbCircle
 10
980.9994297527346
 20
451.7170826293121
 30
0.0
 40
1.499142856893
100
AcDbArc
 50
0.0
 51
90.0
  0
LINE
  5
58B
330
1F
100
AcDbEntity
  8
AM_7
100
AcDbLine
 10
480.0000012537672
 20
400.7164725054646
 30
0.0
 11
480.0000011808888
 21
458.1779301673089
 31
0.0
1001
GENIUS_GENOREF_13
1005
667
  0
LINE
  5
58C
330
1F
100
AcDbEntity
  8
AM_7
100
AcDbLine
 10
480.0000012537672
 20
400.7164725054646
 30
0.0
 11
480.0000011808888
 21
365.3160368895736
 31
0.0
1001
GENIUS_GENOREF_13
1005
667
  0
LINE
  5
58D
330
1F
100
AcDbEntity
  8
0
  6
Continuous
 62
     7
100
AcDbLine
 10
-49.99999881911117
 20
159.3094864231709
 30
0.0
 11
-49.99999881911117
 21
26.58480070880205
 31
0.0
  0
LINE
  5
58E
330
1F
100
AcDbEntity
  8
0
  6
Continuous
 62
     7
100
AcDbLine
 10
-49.99999881911117
 20
152.4508578516165
 30
0.0
 11
-49.99999881911117
 21
153.4502864228784
 31
0.0
  0
LINE
  5
58F
330
1F
100
AcDbEntity
  8
0
  6
Continuous
 62
     7
100
AcDbLine
 10
-19.99999881911117
 20
51.48457213695678
 30
0.0
 11
-19.99999881911117
 21
157.58537213754
 31
0.0
  0
LINE
  5
590
330
1F
100
AcDbEntity
  8
0
  6
Continuous
 62
     7
100
AcDbLine
 10
-18.00114167658421
 20
26.58480070880205
 30
0.0
 11
-18.00114167658421
 21
157.58537213754
 31
0.0
  0
LINE
  5
591
330
1F
100
AcDbEntity
  8
0
  6
Continuous
 62
     7
100
AcDbLine
 10
455.0142868952675
 20
0.0000007088030998
 30
0.0
 11
504.9857154665246
 21
0.0000007088030998
 31
0.0
  0
LINE
  5
592
330
1F
100
AcDbEntity
  8
0
  6
Continuous
 62
     7
100
AcDbLine
 10
-18.01828453347934
 20
26.58480070880205
 30
0.0
 11
-49.99999881911117
 21
26.58480070880205
 31
0.0
  0
LINE
  5
593
330
1F
100
AcDbEntity
  8
0
  6
Continuous
 62
     7
100
AcDbLine
 10
-21.79885596221357
 20
26.58480070880205
 30
0.0
 11
1009.782858323417
 21
26.58480070880205
 31
0.0
  0
LINE
  5
594
330
1F
100
AcDbEntity
  8
0
  6
Continuous
 62
     7
100
AcDbLine
 10
455.0142868952675
 20
0.0000007088030998
 30
0.0
 11
455.0142868952675
 21
26.58480070880205
 31
0.0
  0
LINE
  5
595
330
1F
100
AcDbEntity
  8
0
  6
Continuous
 62
     7
100
AcDbLine
 10
980.0000011808888
 20
51.08480070880204
 30
0.0
 11
-18.00114167658421
 21
51.08480070880204
 31
0.0
  0
LINE
  5
596
330
1F
100
AcDbEntity
  8
0
  6
Continuous
 62
     7
100
AcDbLine
 10
980.0000011808888
 20
53.08365785132583
 30
0.0
 11
-18.00114167658421
 21
53.08365785132583
 31
0.0
  0
LINE
  5
597
330
1F
100
AcDbEntity
  8
0
  6
Continuous
 62
     7
100
AcDbLine
 10
504.9857154665246
 20
0.0000007088030998
 30
0.0
 11
504.9857154665246
 21
26.58480070880205
 31
0.0
  0
LINE
  5
598
330
1F
100
AcDbEntity
  8
0
  6
Continuous
 62
     7
100
AcDbLine
 10
980.0000011808892
 20
135.0848007088022
 30
0.0
 11
-18.00114167658421
 21
135.0848007088022
 31
0.0
  0
LINE
  5
599
330
1F
100
AcDbEntity
  8
AM_CL
 62
     0
100
AcDbLine
 10
1010.000001180888
 20
157.58537213754
 30
0.0
 11
-49.99999881911117
 21
157.58537213754
 31
0.0
  0
LINE
  5
59A
330
1F
100
AcDbEntity
  8
AM_CL
 62
     0
100
AcDbLine
 10
1010.000001180888
 20
159.584800708802
 30
0.0
 11
-49.99999881911117
 21
159.584800708802
 31
0.0
  0
LINE
  5
59B
330
1F
100
AcDbEntity
  8
0
  6
Continuous
 62
     7
100
AcDbLine
 10
978.0011440377824
 20
26.58480070880205
 30
0.0
 11
978.0011440377824
 21
157.5853721375402
 31
0.0
  0
LINE
  5
59C
330
1F
100
AcDbEntity
  8
0
  6
Continuous
 62
     7
100
AcDbLine
 10
980.0000011808892
 20
157.58537213754
 30
0.0
 11
980.0000011808888
 21
51.08480070880204
 31
0.0
  0
LINE
  5
59D
330
1F
100
AcDbEntity
  8
0
  6
Continuous
 62
     7
100
AcDbLine
 10
1010.000001180888
 20
26.58480070880205
 30
0.0
 11
1010.000001180888
 21
159.584800708802
 31
0.0
  0
CIRCLE
  5
59E
330
1F
100
AcDbEntity
  8
0
  6
Continuous
 62
     7
100
AcDbCircle
 10
480.0000011808888
 20
93.08480070851171
 30
0.0
 40
35.97942857126201
  0
CIRCLE
  5
59F
330
1F
100
AcDbEntity
  8
0
100
AcDbCircle
 10
480.0000011808888
 20
93.08480070851171
 30
0.0
 40
17.5
  0
CIRCLE
  5
5A0
330
1F
100
AcDbEntity
  8
0
100
AcDbCircle
 10
480.0000011808888
 20
93.08480070851171
 30
0.0
 40
30.0
  0
LINE
  5
5A1
330
1F
100
AcDbEntity
  8
0
100
AcDbLine
 10
481.0000011808888
 20
110.5562059181666
 30
0.0
 11
481.0000011808888
 21
75.61339549885452
 31
0.0
  0
LINE
  5
5A2
330
1F
100
AcDbEntity
  8
0
100
AcDbLine
 10
479.0000011808888
 20
110.5562059181666
 30
0.0
 11
479.0000011808888
 21
75.61339549885452
 31
0.0
  0
LINE
  5
5A3
330
1F
100
AcDbEntity
  8
0
100
AcDbLine
 10
977.8011440377813
 20
93.0848007088025
 30
0.0
 11
515.9794297521516
 21
93.08480070880161
 31
0.0
1001
GENIUS_GENOBJ-N-CEN_13
1002
{
1000
OWNER
1000
GEN
1002
}
1001
GENIUS_GENODEF_13
1002
{
1000
HIER
1070
     0
1002
}
1002
{
1000
MANEDIT
1070
     0
1002
}
1002
{
1000
NOSEL
1070
     0
1002
}
1002
{
1000
BEHIND
1070
     0
1002
}
1002
{
1000
OTHER
1070
     0
1002
}
1002
{
1000
REACTOR
1002
}
1001
GENIUS_GENCEN_19
1002
{
1040
3.0
1002
}
  0
LINE
  5
5A4
330
1F
100
AcDbEntity
  8
0
100
AcDbLine
 10
444.0205726096278
 20
93.08480070880158
 30
0.0
 11
-18.00114167658876
 21
93.08480070880161
 31
0.0
1001
GENIUS_GENOBJ-N-CEN_13
1002
{
1000
OWNER
1000
GEN
1002
}
1001
GENIUS_GENODEF_13
1002
{
1000
HIER
1070
     0
1002
}
1002
{
1000
MANEDIT
1070
     0
1002
}
1002
{
1000
NOSEL
1070
     0
1002
}
1002
{
1000
BEHIND
1070
     0
1002
}
1002
{
1000
OTHER
1070
     0
1002
}
1002
{
1000
REACTOR
1002
}
1001
GENIUS_GENCEN_19
1002
{
1040
3.0
1002
}
  0
DIMENSION
  5
5A5
330
1F
100
AcDbEntity
  8
AM_5
100
AcDbDimension
  2
*D13
 10
1100.213229590154
 20
452.7165112005731
 30
0.0
 11
1093.713229590154
 21
402.7344887478418
 31
0.0
 70
    32
  1
79-134
 71
     5
 42
99.9640449054628
  3
AM_DIN$0
100
AcDbAlignedDimension
 13
976.0022868952598
 23
352.7524662951103
 33
0.0
 14
980.0000011808888
 24
452.7165112005731
 34
0.0
 50
90.0
100
AcDbRotatedDimension
1001
ACAD
1000
DSTYLE
1002
{
1070
    41
1040
7.0
1070
   140
1040
10.0
1002
}
1001
ACAD_DSTYLE_DIMINSPECT
1070
   396
1000
100%
1070
   395
1000

1070
   394
1070
    33
1070
   393
1070
     0
  0
DIMENSION
  5
5A6
330
1F
100
AcDbEntity
  8
AM_5
100
AcDbDimension
  2
*D14
 10
1058.064106322503
 20
135.0848007088022
 30
0.0
 11
1051.564106322503
 21
93.08480070880227
 31
0.0
 70
    32
  1
<>
 71
     5
 42
84.00000000000014
  3
AM_DIN$0
100
AcDbAlignedDimension
 13
980.0000011808888
 23
51.08480070880204
 33
0.0
 14
979.8000011808918
 24
135.0848007088022
 34
0.0
 50
90.0
100
AcDbRotatedDimension
1001
ACAD
1000
DSTYLE
1002
{
1070
    41
1040
7.0
1070
   140
1040
10.0
1002
}
1001
ACAD_DSTYLE_DIMINSPECT
1070
   396
1000
100%
1070
   395
1000

1070
   394
1070
    33
1070
   393
1070
     0
  0
DIMENSION
  5
5A7
330
1F
100
AcDbEntity
  8
AM_5
100
AcDbDimension
  2
*D15
 10
1093.960856262762
 20
159.5848007088019
 30
0.0
 11
1087.460856262763
 21
93.08480070880218
 31
0.0
 70
    32
  1
<>
 71
     5
 42
132.9999999999999
  3
AM_DIN$0
100
AcDbAlignedDimension
 13
1008.782858323417
 23
26.58480070880205
 33
0.0
 14
1009.782858323417
 24
159.584800708802
 34
0.0
 50
90.0
100
AcDbRotatedDimension
1001
ACAD
1000
DSTYLE
1002
{
1070
    41
1040
7.0
1070
   140
1040
10.0
1002
}
1001
ACAD_DSTYLE_DIMINSPECT
1070
   396
1000
100%
1070
   395
1000

1070
   394
1070
    33
1070
   393
1070
     0
  0
DIMENSION
  5
5A8
330
1F
100
AcDbEntity
  8
AM_5
100
AcDbDimension
  2
*D16
 10
-19.99999881911117
 20
179.5337152959175
 30
0.0
 11
480.000001180889
 21
186.0337152959175
 31
0.0
 70
    32
  1
<>
 71
     5
 42
1000.0
  3
AM_DIN$0
100
AcDbAlignedDimension
 13
980.0000011808892
 23
157.58537213754
 33
0.0
 14
-19.99999881911117
 24
157.58537213754
 34
0.0
100
AcDbRotatedDimension
1001
ACAD_DSTYLE_DIMINSPECT
1070
   396
1000
100%
1070
   395
1000

1070
   394
1070
    33
1070
   393
1070
     0
1001
ACAD
1000
DSTYLE
1002
{
1070
    41
1040
7.0
1070
   140
1040
10.0
1070
   271
1070
     0
1002
}
  0
DIMENSION
  5
5A9
330
1F
100
AcDbEntity
  8
AM_5
100
AcDbDimension
  2
*D17
 10
-49.99999881911116
 20
214.6571703630225
 30
0.0
 11
480.0000011808888
 21
221.1571703630225
 31
0.0
 70
    32
  1
<>
 71
     5
 42
1060.0
  3
AM_DIN$0
100
AcDbAlignedDimension
 13
1010.000001180888
 23
159.584800708802
 33
0.0
 14
-49.99999881911117
 24
154.4502864228784
 34
0.0
100
AcDbRotatedDimension
1001
ACAD_DSTYLE_DIMINSPECT
1070
   396
1000
100%
1070
   395
1000

1070
   394
1070
    33
1070
   393
1070
     0
1001
ACAD
1000
DSTYLE
1002
{
1070
    41
1040
7.0
1070
   140
1040
10.0
1070
   271
1070
     0
1002
}
  0
LINE
  5
5AA
330
1F
100
AcDbEntity
  8
0
100
AcDbLine
 10
1325.792369934286
 20
452.7165112006297
 30
0.0
 11
1225.792365787486
 21
452.716511200496
 31
0.0
  0
LINE
  5
5AB
330
1F
100
AcDbEntity
  8
7A
100
AcDbLine
 10
1284.79236993434
 20
369.2993508627343
 30
0.0
 11
1284.79236993431
 21
458.1855318071241
 31
0.0
1001
GENIUS_GENOBJ-N-CEN_13
1002
{
1000
OWNER
1000
GEN
1002
}
1001
GENIUS_GENODEF_13
1002
{
1000
HIER
1070
     0
1002
}
1002
{
1000
MANEDIT
1070
     0
1002
}
1002
{
1000
NOSEL
1070
     0
1002
}
1002
{
1000
BEHIND
1070
     0
1002
}
1002
{
1000
OTHER
1070
     0
1002
}
1002
{
1000
REACTOR
1002
}
  0
LINE
  5
5AC
330
1F
100
AcDbEntity
  8
0
  6
Continuous
 62
     7
100
AcDbLine
 10
516.9807329395151
 20
427.3490039471646
 30
0.0
 11
516.9788585735276
 21
427.2878230899763
 31
0.0
  0
LINE
  5
5AD
330
1F
100
AcDbEntity
  8
0
  6
Continuous
 62
     7
100
AcDbLine
 10
516.9915424264653
 20
427.4465441776873
 30
0.0
 11
516.9807329395151
 21
427.3490039471646
 31
0.0
  0
LWPOLYLINE
  5
5AE
330
1F
100
AcDbEntity
  8
0
  6
Continuous
 62
     7
100
AcDbPolyline
 90
       16
 70
     0
 43
0.0
 10
517.9782869681384
 20
428.2872517096277
 10
517.9429260073701
 20
428.2866259594036
 10
517.8450881547648
 20
428.2783359116147
 10
517.7485366660073
 20
428.2604856053728
 10
517.6542029284881
 20
428.2332473836365
 10
517.5629969597284
 20
428.1968840074213
 10
517.4757986332513
 20
428.151746114501
 10
517.3934493655467
 20
428.0982689359435
 10
517.3167433343767
 20
428.0369675872306
 10
517.2464225617329
 20
427.9684345141287
 10
517.1831661417615
 20
427.8933313487597
 10
517.1275864104334
 20
427.8123856687149
 10
517.0802202209667
 20
427.7263814259288
 10
517.0415242430952
 20
427.6361517431434
 10
517.0118703987554
 20
427.5425704691471
 10
516.9915424264653
 20
427.4465441776873
  0
LINE
  5
5AF
330
1F
100
AcDbEntity
  8
0
  6
Continuous
 62
     7
100
AcDbLine
 10
443.021144037788
 20
427.2878235348054
 30
0.0
 11
443.0192777655883
 21
427.3488716189906
 31
0.0
  0
LINE
  5
5B0
330
1F
100
AcDbEntity
  8
0
  6
Continuous
 62
     7
100
AcDbLine
 10
443.0192777655883
 20
427.3488716189906
 30
0.0
 11
443.0084964905891
 21
427.4463180867897
 31
0.0
  0
LWPOLYLINE
  5
5B1
330
1F
100
AcDbEntity
  8
0
  6
Continuous
 62
     7
100
AcDbPolyline
 90
       16
 70
     0
 43
0.0
 10
443.0084964905891
 20
427.4463180867897
 10
442.98820503567
 20
427.5422938251533
 10
442.9585874422698
 20
427.6358580504792
 10
442.9199214848175
 20
427.7260962590577
 10
442.8725753243195
 20
427.8121273087664
 10
442.8170044510933
 20
427.893110486206
 10
442.753746784665
 20
427.9682549670344
 10
442.6834190620793
 20
428.0368262476264
 10
442.6067015813713
 20
428.0981616680242
 10
442.5243406379268
 20
428.1516664154866
 10
442.4371293595193
 20
428.1968272908481
 10
442.3459091515723
 20
428.2332096670343
 10
442.251559390299
 20
428.2604633528444
 10
442.1549895148855
 20
428.2783256502327
 10
442.0571302900788
 20
428.2866239043269
 10
442.0217155394
 20
428.2872515621276
  0
LINE
  5
5B2
330
1F
100
AcDbEntity
  8
0
  6
Continuous
 62
     7
100
AcDbLine
 10
516.9807205723333
 20
427.3488025748833
 30
0.0
 11
516.9788585303831
 21
427.2878237703377
 31
0.0
  0
LINE
  5
5B3
330
1F
100
AcDbEntity
  8
0
  6
Continuous
 62
     7
100
AcDbLine
 10
516.9914871166727
 20
427.4462001138265
 30
0.0
 11
516.9807205723333
 21
427.3488025748833
 31
0.0
  0
LWPOLYLINE
  5
5B4
330
1F
100
AcDbEntity
  8
0
  6
Continuous
 62
     7
100
AcDbPolyline
 90
       16
 70
     0
 43
0.0
 10
517.9782869681364
 20
428.2872516431655
 10
517.9428441186082
 20
428.2866229896014
 10
517.8449737346016
 20
428.2783204498734
 10
517.7483942565938
 20
428.2604518875682
 10
517.6540361263557
 20
428.2331901207935
 10
517.5628084810776
 20
428.1967978137883
 10
517.4755904404516
 20
428.1516249245423
 10
517.3932234034927
 20
428.0981057676535
 10
517.3164999534454
 20
428.0367525401024
 10
517.2461686174245
 20
427.9681612958425
 10
517.1829103254384
 20
427.8929952376002
 10
517.1273441039718
 20
427.8119924824387
 10
517.0800084258114
 20
427.7259474424772
 10
517.0413581603877
 20
427.6357047885254
 10
517.0117595028275
 20
427.5421494656095
 10
516.9914871166727
 20
427.4462001138265
  0
LINE
  5
5B5
330
1F
100
AcDbEntity
  8
0
  6
Continuous
 62
     7
100
AcDbLine
 10
443.0192819352029
 20
427.3488025748833
 30
0.0
 11
443.0211439771538
 21
427.2878237703377
 31
0.0
  0
LINE
  5
5B6
330
1F
100
AcDbEntity
  8
0
  6
Continuous
 62
     7
100
AcDbLine
 10
443.0085153908638
 20
427.4462001138265
 30
0.0
 11
443.0192819352029
 21
427.3488025748833
 31
0.0
  0
LINE
  5
5B7
330
1F
100
AcDbEntity
  8
0
100
AcDbLine
 10
1325.792374081122
 20
452.7165112006297
 30
0.0
 11
1243.792365787501
 21
452.7165112005201
 31
0.0
  0
DIMENSION
  5
5B8
330
1F
100
AcDbEntity
  8
AM_5
100
AcDbDimension
  2
*D18
 10
1244.792378228123
 20
502.5165521615049
 30
0.0
 11
1284.792369934312
 21
502.5165521615049
 31
0.0
 70
   160
 71
     5
 42
79.99999999990132
  3
AM_DIN$0
100
AcDbAlignedDimension
 13
1324.792378228024
 23
451.716511200659
 33
0.0
 14
1244.792378228123
 24
450.7165112004598
 34
0.0
100
AcDbRotatedDimension
1001
ACAD_DSTYLE_DIMINSPECT
1070
   396
1000
100%
1070
   395
1000

1070
   394
1070
    33
1070
   393
1070
     0
1001
ACAD
1000
DSTYLE
1002
{
1070
    41
1040
7.0
1070
   140
1040
10.0
1070
   271
1070
     0
1002
}
  0
LINE
  5
5B9
330
1F
100
AcDbEntity
  8
0
100
AcDbLine
 10
1259.792369934372
 20
352.7525112006868
 30
0.0
 11
1309.792369934372
 21
352.7525112006868
 31
0.0
  0
LINE
  5
5BA
330
1F
100
AcDbEntity
  8
0
100
AcDbLine
 10
1259.792369934369
 20
354.7513683437939
 30
0.0
 11
1309.792369934372
 21
354.7513683437939
 31
0.0
  0
LINE
  5
5BB
330
1F
100
AcDbEntity
  8
0
100
AcDbLine
 10
1259.792369934372
 20
352.7525112006868
 30
0.0
 11
1259.792369934362
 21
373.7165112005749
 31
0.0
  0
LINE
  5
5BC
330
1F
100
AcDbEntity
  8
0
100
AcDbLine
 10
1309.792369934372
 20
352.7525112006868
 30
0.0
 11
1309.792369934363
 21
373.7165112005749
 31
0.0
  0
LINE
  5
5BD
330
1F
100
AcDbEntity
  8
0
100
AcDbLine
 10
1327.792369934336
 20
437.7165112005185
 30
0.0
 11
1356.79236993431
 21
437.7165112004919
 31
0.0
  0
LINE
  5
5BE
330
1F
100
AcDbEntity
  8
0
100
AcDbLine
 10
1327.792369934285
 20
436.7165112005184
 30
0.0
 11
1356.792369934313
 21
436.7165112004919
 31
0.0
  0
LINE
  5
5BF
330
1F
100
AcDbEntity
  8
0
100
AcDbLine
 10
1248.792369934321
 20
430.5429121040655
 30
0.0
 11
1248.792369934369
 21
380.2165112005749
 31
0.0
1001
GENIUS_GENODEF_13
1002
{
1000
HIER
1070
     0
1002
}
1002
{
1000
MANEDIT
1070
     0
1002
}
1002
{
1000
NOSEL
1070
     0
1002
}
1002
{
1000
BEHIND
1070
     0
1002
}
1002
{
1000
REACTOR
1002
}
1001
GENIUS_GENOBJ-N-CEN_13
1002
{
1000
OWNER
1000
GEN
1002
}
  0
LINE
  5
5C0
330
1F
100
AcDbEntity
  8
0
  6
ByBlock
100
AcDbLine
 10
1247.292369934323
 20
422.2165112005195
 30
0.0
 11
1255.221622187935
 21
422.2165112005195
 31
0.0
  0
LINE
  5
5C1
330
1F
100
AcDbEntity
  8
0
  6
ByBlock
100
AcDbLine
 10
1314.363117680729
 20
422.2165112005195
 30
0.0
 11
1322.292369934368
 21
422.2165112005195
 31
0.0
  0
LINE
  5
5C2
330
1F
100
AcDbEntity
  8
0
100
AcDbLine
 10
1325.792369934312
 20
452.7165112006294
 30
0.0
 11
1243.792361640694
 21
452.7165112005203
 31
0.0
  0
LINE
  5
5C3
330
1F
100
AcDbEntity
  8
0
  6
ByBlock
100
AcDbLine
 10
1322.626278974615
 20
432.536003620552
 30
0.0
 11
1284.792369934324
 21
429.3831778672254
 31
0.0
  0
LINE
  5
5C4
330
1F
100
AcDbEntity
  8
0
100
AcDbLine
 10
1284.750847194398
 20
428.3762514239985
 30
0.0
 11
1320.98325656912
 21
431.3956188718618
 31
0.0
  0
LINE
  5
5C5
330
1F
100
AcDbEntity
  8
0
  6
ByBlock
100
AcDbLine
 10
1246.958460894028
 20
432.536003620552
 30
0.0
 11
1284.792369934324
 21
429.3831778672254
 31
0.0
  0
LINE
  5
5C6
330
1F
100
AcDbEntity
  8
0
100
AcDbLine
 10
1284.833892674251
 20
428.3762514239985
 30
0.0
 11
1248.601483299522
 21
431.3956188718625
 31
0.0
  0
LINE
  5
5C7
330
1F
100
AcDbEntity
  8
0
100
AcDbLine
 10
1243.792369934377
 20
433.6366440820816
 30
0.0
 11
1243.792365787493
 21
450.7165112004679
 31
0.0
  0
LINE
  5
5C8
330
1F
100
AcDbEntity
  8
0
100
AcDbLine
 10
1244.792369934375
 20
433.6366440820909
 30
0.0
 11
1244.792365787591
 21
450.7165112004598
 31
0.0
  0
ARC
  5
5C9
330
1F
100
AcDbEntity
  8
0
100
AcDbCircle
 10
1245.792369934378
 20
433.6366440820884
 30
0.0
 40
2.0
100
AcDbArc
 50
180.0000000001302
 51
265.2363583089299
  0
LINE
  5
5CA
330
1F
100
AcDbEntity
  8
0
100
AcDbLine
 10
1247.792369934321
 20
430.5429121040622
 30
0.0
 11
1247.792369934317
 21
422.2165112005195
 31
0.0
1001
GENIUS_GENODEF_13
1002
{
1000
HIER
1070
     0
1002
}
1002
{
1000
MANEDIT
1070
     0
1002
}
1002
{
1000
NOSEL
1070
     0
1002
}
1002
{
1000
BEHIND
1070
     0
1002
}
1002
{
1000
REACTOR
1002
}
1001
GENIUS_GENOBJ-N-CEN_13
1002
{
1000
OWNER
1000
GEN
1002
}
  0
LINE
  5
5CB
330
1F
100
AcDbEntity
  8
0
100
AcDbLine
 10
1246.875415414175
 20
431.5394578623069
 30
0.0
 11
1245.626278974671
 21
431.6435525655976
 31
0.0
  0
ARC
  5
5CC
330
1F
100
AcDbEntity
  8
0
100
AcDbCircle
 10
1246.792369934321
 20
430.5429121040622
 30
0.0
 40
1.0
100
AcDbArc
 50
0.0
 51
85.23635830892958
1001
GENIUS_GENODEF_13
1002
{
1000
HIER
1070
     0
1002
}
1002
{
1000
MANEDIT
1070
     0
1002
}
1002
{
1000
NOSEL
1070
     0
1002
}
1002
{
1000
BEHIND
1070
     0
1002
}
1002
{
1000
REACTOR
1002
}
1001
GENIUS_GENOBJ-N-CEN_13
1002
{
1000
OWNER
1000
GEN
1002
}
  0
ARC
  5
5CD
330
1F
100
AcDbEntity
  8
0
100
AcDbCircle
 10
1246.792369934321
 20
430.5429121040622
 30
0.0
 40
2.0
100
AcDbArc
 50
0.0
 51
85.23635830892958
1001
GENIUS_GENODEF_13
1002
{
1000
HIER
1070
     0
1002
}
1002
{
1000
MANEDIT
1070
     0
1002
}
1002
{
1000
NOSEL
1070
     0
1002
}
1002
{
1000
BEHIND
1070
     0
1002
}
1002
{
1000
REACTOR
1002
}
1001
GENIUS_GENOBJ-N-CEN_13
1002
{
1000
OWNER
1000
GEN
1002
}
  0
LINE
  5
5CE
330
1F
100
AcDbEntity
  8
0
100
AcDbLine
 10
1246.958460894028
 20
432.536003620552
 30
0.0
 11
1245.709324454523
 21
432.6400983238434
 31
0.0
  0
ARC
  5
5CF
330
1F
100
AcDbEntity
  8
0
100
AcDbCircle
 10
1245.792369934375
 20
433.6366440820884
 30
0.0
 40
1.0
100
AcDbArc
 50
179.9999999998697
 51
265.2363583089299
  0
LINE
  5
5D0
330
1F
100
AcDbEntity
  8
0
100
AcDbLine
 10
1320.79236993432
 20
430.5429121040606
 30
0.0
 11
1320.792369934322
 21
420.2165112005745
 31
0.0
1001
GENIUS_GENODEF_13
1002
{
1000
HIER
1070
     0
1002
}
1002
{
1000
MANEDIT
1070
     0
1002
}
1002
{
1000
NOSEL
1070
     0
1002
}
1002
{
1000
BEHIND
1070
     0
1002
}
1002
{
1000
REACTOR
1002
}
1001
GENIUS_GENOBJ-N-CEN_13
1002
{
1000
OWNER
1000
GEN
1002
}
  0
ARC
  5
5D1
330
1F
100
AcDbEntity
  8
0
100
AcDbCircle
 10
1327.792369934336
 20
438.7165112005185
 30
0.0
 40
1.0
100
AcDbArc
 50
180.0000000001302
 51
270.0
  0
LINE
  5
5D2
330
1F
100
AcDbEntity
  8
0
100
AcDbLine
 10
1324.792369934271
 20
433.6366440820848
 30
0.0
 11
1324.792369934329
 21
451.7165112006275
 31
0.0
  0
LINE
  5
5D3
330
1F
100
AcDbEntity
  8
0
100
AcDbLine
 10
1325.792369934272
 20
433.6366440820816
 30
0.0
 11
1325.792369934326
 21
451.7165112006294
 31
0.0
  0
ARC
  5
5D4
330
1F
100
AcDbEntity
  8
0
100
AcDbCircle
 10
1327.792369934286
 20
438.7165112005185
 30
0.0
 40
2.0
100
AcDbArc
 50
179.9999999998697
 51
270.0
  0
LINE
  5
5D5
330
1F
100
AcDbEntity
  8
0
100
AcDbLine
 10
1321.79236993432
 20
430.5429121040613
 30
0.0
 11
1321.792369934318
 21
422.2165112005195
 31
0.0
1001
GENIUS_GENODEF_13
1002
{
1000
HIER
1070
     0
1002
}
1002
{
1000
MANEDIT
1070
     0
1002
}
1002
{
1000
NOSEL
1070
     0
1002
}
1002
{
1000
BEHIND
1070
     0
1002
}
1002
{
1000
REACTOR
1002
}
1001
GENIUS_GENOBJ-N-CEN_13
1002
{
1000
OWNER
1000
GEN
1002
}
  0
LINE
  5
5D6
330
1F
100
AcDbEntity
  8
0
100
AcDbLine
 10
1322.626278974615
 20
432.536003620552
 30
0.0
 11
1323.875415414125
 21
432.6400983238434
 31
0.0
  0
LINE
  5
5D7
330
1F
100
AcDbEntity
  8
0
100
AcDbLine
 10
1322.709324454468
 20
431.5394578623059
 30
0.0
 11
1323.958460893978
 21
431.6435525655976
 31
0.0
  0
ARC
  5
5D8
330
1F
100
AcDbEntity
  8
0
100
AcDbCircle
 10
1322.79236993432
 20
430.5429121040613
 30
0.0
 40
2.0
100
AcDbArc
 50
94.76364169107
 51
180.0
1001
GENIUS_GENODEF_13
1002
{
1000
HIER
1070
     0
1002
}
1002
{
1000
MANEDIT
1070
     0
1002
}
1002
{
1000
NOSEL
1070
     0
1002
}
1002
{
1000
BEHIND
1070
     0
1002
}
1002
{
1000
REACTOR
1002
}
1001
GENIUS_GENOBJ-N-CEN_13
1002
{
1000
OWNER
1000
GEN
1002
}
  0
ARC
  5
5D9
330
1F
100
AcDbEntity
  8
0
100
AcDbCircle
 10
1322.79236993432
 20
430.5429121040613
 30
0.0
 40
1.0
100
AcDbArc
 50
94.76364169107
 51
180.0
  0
ARC
  5
5DA
330
1F
100
AcDbEntity
  8
0
100
AcDbCircle
 10
1323.792369934271
 20
433.6366440820884
 30
0.0
 40
1.0
100
AcDbArc
 50
274.76364169107
 51
359.9999999998697
  0
ARC
  5
5DB
330
1F
100
AcDbEntity
  8
0
100
AcDbCircle
 10
1323.792369934272
 20
433.6366440820884
 30
0.0
 40
2.0
100
AcDbArc
 50
274.76364169107
 51
359.9999999998697
  0
LINE
  5
5DC
330
1F
100
AcDbEntity
  8
0
100
AcDbLine
 10
1326.792369934301
 20
451.7165112006275
 30
0.0
 11
1326.792369934336
 21
438.716511200516
 31
0.0
  0
ARC
  5
5DD
330
1F
100
AcDbEntity
  8
0
100
AcDbCircle
 10
1325.792369934312
 20
451.716511200625
 30
0.0
 40
0.9999999999848339
100
AcDbArc
 50
359.9999999998697
 51
179.9999999998697
  0
LINE
  5
5DE
330
1F
100
AcDbEntity
  8
0
100
AcDbLine
 10
1356.79236993431
 20
436.716511200482
 30
0.0
 11
1356.79236993431
 21
437.7165112004919
 31
0.0
  0
LINE
  5
5DF
330
1F
100
AcDbEntity
  8
0
100
AcDbLine
 10
1320.792369934324
 20
420.2165112005748
 30
0.0
 11
1382.292369934358
 21
420.2165112005748
 31
0.0
1001
GENIUS_GENOBJ-N-CEN_13
1002
{
1000
OWNER
1000
GEN
1002
}
1001
GENIUS_GENODEF_13
1002
{
1000
HIER
1070
     0
1002
}
1002
{
1000
MANEDIT
1070
     0
1002
}
1002
{
1000
NOSEL
1070
     0
1002
}
1002
{
1000
BEHIND
1070
     0
1002
}
1002
{
1000
OTHER
1070
     0
1002
}
1002
{
1000
REACTOR
1002
}
  0
LINE
  5
5E0
330
1F
100
AcDbEntity
  8
0
100
AcDbLine
 10
1322.056795099101
 20
418.7165112005748
 30
0.0
 11
1382.292369934356
 21
418.7165112005748
 31
0.0
1001
GENIUS_GENOBJ-N-CEN_13
1002
{
1000
OWNER
1000
GEN
1002
}
1001
GENIUS_GENODEF_13
1002
{
1000
HIER
1070
     0
1002
}
1002
{
1000
MANEDIT
1070
     0
1002
}
1002
{
1000
NOSEL
1070
     0
1002
}
1002
{
1000
BEHIND
1070
     0
1002
}
1002
{
1000
OTHER
1070
     0
1002
}
1002
{
1000
REACTOR
1002
}
  0
LINE
  5
5E1
330
1F
100
AcDbEntity
  8
0
100
AcDbLine
 10
1322.056795099101
 20
381.7165112005749
 30
0.0
 11
1382.292369934289
 21
381.7165112005749
 31
0.0
1001
GENIUS_GENOBJ-N-CEN_13
1002
{
1000
OWNER
1000
GEN
1002
}
1001
GENIUS_GENODEF_13
1002
{
1000
HIER
1070
     0
1002
}
1002
{
1000
MANEDIT
1070
     0
1002
}
1002
{
1000
NOSEL
1070
     0
1002
}
1002
{
1000
BEHIND
1070
     0
1002
}
1002
{
1000
OTHER
1070
     0
1002
}
1002
{
1000
REACTOR
1002
}
  0
LINE
  5
5E2
330
1F
100
AcDbEntity
  8
0
100
AcDbLine
 10
1320.792369934365
 20
380.2165112005749
 30
0.0
 11
1382.292369934285
 21
380.2165112005749
 31
0.0
1001
GENIUS_GENOBJ-N-CEN_13
1002
{
1000
OWNER
1000
GEN
1002
}
1001
GENIUS_GENODEF_13
1002
{
1000
HIER
1070
     0
1002
}
1002
{
1000
MANEDIT
1070
     0
1002
}
1002
{
1000
NOSEL
1070
     0
1002
}
1002
{
1000
BEHIND
1070
     0
1002
}
1002
{
1000
OTHER
1070
     0
1002
}
1002
{
1000
REACTOR
1002
}
  0
LINE
  5
5E3
330
1F
100
AcDbEntity
  8
7A
100
AcDbLine
 10
1312.589918701926
 20
400.7165112006848
 30
0.0
 11
1384.691973241528
 21
400.7165112006848
 31
0.0
1001
GENIUS_GENOBJ-N-CEN_13
1002
{
1000
OWNER
1000
GEN
1002
}
1001
GENIUS_GENODEF_13
1002
{
1000
HIER
1070
     0
1002
}
1002
{
1000
MANEDIT
1070
     0
1002
}
1002
{
1000
NOSEL
1070
     0
1002
}
1002
{
1000
BEHIND
1070
     0
1002
}
1002
{
1000
OTHER
1070
     0
1002
}
1002
{
1000
REACTOR
1002
}
  0
LINE
  5
5E4
330
1F
100
AcDbEntity
  8
0
100
AcDbLine
 10
1247.292369934325
 20
422.2165112005195
 30
0.0
 11
1247.292369934368
 21
380.2165112005756
 31
0.0
1001
GENIUS_GENODEF_13
1002
{
1000
HIER
1070
     0
1002
}
1002
{
1000
MANEDIT
1070
     0
1002
}
1002
{
1000
NOSEL
1070
     0
1002
}
1002
{
1000
BEHIND
1070
     0
1002
}
1002
{
1000
REACTOR
1002
}
1001
GENIUS_GENOBJ-N-CEN_13
1002
{
1000
OWNER
1000
GEN
1002
}
  0
ARC
  5
5E5
330
1F
100
AcDbEntity
  8
0
100
AcDbCircle
 10
1347.196752247894
 20
400.2165112006803
 30
0.0
 40
31.21325752700308
100
AcDbArc
 50
143.6513793379419
 51
216.3486206625025
  0
ARC
  5
5E6
330
1F
100
AcDbEntity
  8
0
100
AcDbCircle
 10
1353.247994986097
 20
400.216511200516
 30
0.0
 40
38.1230586062579
100
AcDbArc
 50
148.3575447252304
 51
211.6424552744476
  0
LINE
  5
5E7
330
1F
100
AcDbEntity
  8
0
100
AcDbLine
 10
1253.792369934369
 20
373.7165112005749
 30
0.0
 11
1315.792369934355
 21
373.7165112005749
 31
0.0
  0
LINE
  5
5E8
330
1F
100
AcDbEntity
  8
0
100
AcDbLine
 10
1253.792369934369
 20
375.2165112005749
 30
0.0
 11
1315.792369934355
 21
375.2165112005749
 31
0.0
  0
ARC
  5
5E9
330
1F
100
AcDbEntity
  8
0
100
AcDbCircle
 10
1253.792369934369
 20
380.2165112005749
 30
0.0
 40
6.5
100
AcDbArc
 50
180.0
 51
270.0
  0
ARC
  5
5EA
330
1F
100
AcDbEntity
  8
0
100
AcDbCircle
 10
1253.792369934369
 20
380.2165112005749
 30
0.0
 40
5.0
100
AcDbArc
 50
180.0
 51
270.0
  0
LINE
  5
5EB
330
1F
100
AcDbEntity
  8
0
100
AcDbLine
 10
1320.792369934365
 20
380.2165112005749
 30
0.0
 11
1322.056795099101
 21
381.7165112005749
 31
0.0
  0
LINE
  5
5EC
330
1F
100
AcDbEntity
  8
0
100
AcDbLine
 10
1322.292369934362
 20
422.2165112005195
 30
0.0
 11
1322.292369934359
 21
420.2165112005748
 31
0.0
1001
GENIUS_GENODEF_13
1002
{
1000
HIER
1070
     0
1002
}
1002
{
1000
MANEDIT
1070
     0
1002
}
1002
{
1000
NOSEL
1070
     0
1002
}
1002
{
1000
BEHIND
1070
     0
1002
}
1002
{
1000
REACTOR
1002
}
1001
GENIUS_GENOBJ-N-CEN_13
1002
{
1000
OWNER
1000
GEN
1002
}
  0
LINE
  5
5ED
330
1F
100
AcDbEntity
  8
0
100
AcDbLine
 10
1320.792369934358
 20
420.2165112004005
 30
0.0
 11
1322.056795099094
 21
418.7165112004001
 31
0.0
  0
ARC
  5
5EE
330
1F
100
AcDbEntity
  8
0
100
AcDbCircle
 10
1315.792369934355
 20
380.216511200618
 30
0.0
 40
6.5
100
AcDbArc
 50
270.0
 51
0.0000000000781653
  0
ARC
  5
5EF
330
1F
100
AcDbEntity
  8
0
100
AcDbCircle
 10
1315.792369934355
 20
380.216511200618
 30
0.0
 40
5.0
100
AcDbArc
 50
270.0
 51
0.0000000000781653
  0
LINE
  5
5F0
330
1F
100
AcDbEntity
  8
0
100
AcDbLine
 10
1264.79236993433
 20
422.4488242639197
 30
0.0
 11
1264.79236993433
 21
390.4488242639199
 31
0.0
  0
LINE
  5
5F1
330
1F
100
AcDbEntity
  8
0
100
AcDbLine
 10
1264.79236993433
 20
390.4488242639199
 30
0.0
 11
1304.79236993433
 21
390.4488242639199
 31
0.0
  0
LINE
  5
5F2
330
1F
100
AcDbEntity
  8
0
100
AcDbLine
 10
1304.79236993433
 20
390.4488242639199
 30
0.0
 11
1304.79236993433
 21
422.4488242639197
 31
0.0
  0
LINE
  5
5F3
330
1F
100
AcDbEntity
  8
0
100
AcDbLine
 10
1266.29236993433
 20
422.4488242639197
 30
0.0
 11
1266.29236993433
 21
390.4488242639199
 31
0.0
  0
LINE
  5
5F4
330
1F
100
AcDbEntity
  8
0
100
AcDbLine
 10
1303.29236993433
 20
390.4488242639199
 30
0.0
 11
1303.29236993433
 21
422.4488242639197
 31
0.0
  0
LINE
  5
5F5
330
1F
100
AcDbEntity
  8
0
100
AcDbLine
 10
1256.292369934331
 20
412.4488242639198
 30
0.0
 11
1256.292369934331
 21
381.4488242639198
 31
0.0
  0
LINE
  5
5F6
330
1F
100
AcDbEntity
  8
0
100
AcDbLine
 10
1313.29236993433
 20
381.4488242639198
 30
0.0
 11
1313.29236993433
 21
412.4488242639198
 31
0.0
  0
LINE
  5
5F7
330
1F
100
AcDbEntity
  8
0
100
AcDbLine
 10
1262.29236993433
 20
375.4488242639198
 30
0.0
 11
1307.29236993433
 21
375.4488242639198
 31
0.0
  0
LINE
  5
5F8
330
1F
100
AcDbEntity
  8
0
100
AcDbLine
 10
1304.79236993433
 20
415.4488242639198
 30
0.0
 11
1312.79236993433
 21
415.4488242639198
 31
0.0
  0
LINE
  5
5F9
330
1F
100
AcDbEntity
  8
0
100
AcDbLine
 10
1252.292369934331
 20
425.9488242639198
 30
0.0
 11
1252.292369934331
 21
424.4488242639198
 31
0.0
  0
LINE
  5
5FA
330
1F
100
AcDbEntity
  8
0
100
AcDbLine
 10
1248.292369934331
 20
424.4488242639198
 30
0.0
 11
1251.292369934331
 21
424.4488242639198
 31
0.0
  0
LINE
  5
5FB
330
1F
100
AcDbEntity
  8
0
100
AcDbLine
 10
1317.29236993433
 20
424.4488242639198
 30
0.0
 11
1317.29236993433
 21
425.9488242639198
 31
0.0
  0
LINE
  5
5FC
330
1F
100
AcDbEntity
  8
0
100
AcDbLine
 10
1317.29236993433
 20
425.9488242639198
 30
0.0
 11
1252.292369934331
 21
425.9488242639198
 31
0.0
  0
CIRCLE
  5
5FD
330
1F
100
AcDbEntity
  8
0
100
AcDbCircle
 10
1284.79236993433
 20
422.9488242639197
 30
0.0
 40
1.5
  0
LINE
  5
5FE
330
1F
100
AcDbEntity
  8
7A
100
AcDbLine
 10
1280.29236993433
 20
422.9488242639197
 30
0.0
 11
1289.29236993433
 21
422.9488242639197
 31
0.0
1001
GENIUS_GENOBJ-N-CEN_13
1002
{
1000
OWNER
1000
GEN
1002
}
1001
GENIUS_GENODEF_13
1002
{
1000
HIER
1070
     0
1002
}
1002
{
1000
MANEDIT
1070
     0
1002
}
1002
{
1000
NOSEL
1070
     0
1002
}
1002
{
1000
BEHIND
1070
     0
1002
}
1002
{
1000
OTHER
1070
     0
1002
}
1002
{
1000
REACTOR
1002
}
  0
LINE
  5
5FF
330
1F
100
AcDbEntity
  8
0
100
AcDbLine
 10
1313.29236993433
 20
428.4488242639198
 30
0.0
 11
1256.292369934331
 21
428.4488242639198
 31
0.0
  0
LINE
  5
600
330
1F
100
AcDbEntity
  8
0
100
AcDbLine
 10
1256.292369934331
 20
428.4488242639198
 30
0.0
 11
1256.292369934331
 21
425.9488242639198
 31
0.0
  0
LINE
  5
601
330
1F
100
AcDbEntity
  8
0
100
AcDbLine
 10
1256.292369934331
 20
424.4488242639198
 30
0.0
 11
1256.292369934331
 21
421.9488242639198
 31
0.0
  0
LINE
  5
602
330
1F
100
AcDbEntity
  8
0
100
AcDbLine
 10
1313.29236993433
 20
428.4488242639198
 30
0.0
 11
1313.29236993433
 21
425.9488242639198
 31
0.0
  0
LINE
  5
603
330
1F
100
AcDbEntity
  8
0
100
AcDbLine
 10
1313.29236993433
 20
424.4488242639198
 30
0.0
 11
1313.29236993433
 21
421.9488242639198
 31
0.0
  0
LINE
  5
604
330
1F
100
AcDbEntity
  8
0
100
AcDbLine
 10
1304.79236993433
 20
421.9488242639198
 30
0.0
 11
1313.29236993433
 21
421.9488242639198
 31
0.0
  0
LINE
  5
605
330
1F
100
AcDbEntity
  8
0
100
AcDbLine
 10
1251.292369934331
 20
425.9488242639198
 30
0.0
 11
1251.292369934331
 21
424.4488242639198
 31
0.0
  0
LINE
  5
606
330
1F
100
AcDbEntity
  8
0
100
AcDbLine
 10
1248.292369934331
 20
425.9488242639198
 30
0.0
 11
1250.292369934331
 21
426.9488242639197
 31
0.0
  0
LINE
  5
607
330
1F
100
AcDbEntity
  8
0
100
AcDbLine
 10
1250.292369934331
 20
426.9488242639197
 30
0.0
 11
1256.292369934331
 21
428.4488242639198
 31
0.0
  0
LINE
  5
608
330
1F
100
AcDbEntity
  8
0
100
AcDbLine
 10
1250.292369934331
 20
423.4488242639198
 30
0.0
 11
1256.292369934331
 21
421.9488242639198
 31
0.0
  0
LINE
  5
609
330
1F
100
AcDbEntity
  8
0
100
AcDbLine
 10
1248.292369934331
 20
424.4488242639198
 30
0.0
 11
1250.292369934331
 21
423.4488242639198
 31
0.0
  0
LINE
  5
60A
330
1F
100
AcDbEntity
  8
0
100
AcDbLine
 10
1251.292369934331
 20
425.9488242639198
 30
0.0
 11
1248.292369934331
 21
425.9488242639198
 31
0.0
  0
LINE
  5
60B
330
1F
100
AcDbEntity
  8
0
100
AcDbLine
 10
1252.292369934331
 20
424.4488242639198
 30
0.0
 11
1262.79236993433
 21
424.4488242639198
 31
0.0
  0
LINE
  5
60C
330
1F
100
AcDbEntity
  8
0
100
AcDbLine
 10
1321.29236993433
 20
424.4488242639198
 30
0.0
 11
1318.29236993433
 21
424.4488242639198
 31
0.0
  0
LINE
  5
60D
330
1F
100
AcDbEntity
  8
0
100
AcDbLine
 10
1318.29236993433
 20
425.9488242639198
 30
0.0
 11
1321.29236993433
 21
425.9488242639198
 31
0.0
  0
LINE
  5
60E
330
1F
100
AcDbEntity
  8
0
100
AcDbLine
 10
1321.29236993433
 20
424.4488242639198
 30
0.0
 11
1319.29236993433
 21
423.4488242639198
 31
0.0
  0
LINE
  5
60F
330
1F
100
AcDbEntity
  8
0
100
AcDbLine
 10
1321.29236993433
 20
425.9488242639198
 30
0.0
 11
1319.29236993433
 21
426.9488242639197
 31
0.0
  0
LINE
  5
610
330
1F
100
AcDbEntity
  8
0
100
AcDbLine
 10
1318.29236993433
 20
425.9488242639198
 30
0.0
 11
1318.29236993433
 21
424.4488242639198
 31
0.0
  0
LINE
  5
611
330
1F
100
AcDbEntity
  8
0
100
AcDbLine
 10
1319.29236993433
 20
426.9488242639197
 30
0.0
 11
1313.29236993433
 21
428.4488242639198
 31
0.0
  0
LINE
  5
612
330
1F
100
AcDbEntity
  8
0
100
AcDbLine
 10
1319.29236993433
 20
423.4488242639198
 30
0.0
 11
1313.29236993433
 21
421.9488242639198
 31
0.0
  0
HATCH
  5
613
330
1F
100
AcDbEntity
  8
8
100
AcDbHatch
 10
0.0
 20
0.0
 30
0.0
210
0.0
220
0.0
230
1.0
  2
NET
 70
     0
 71
     0
 91
        2
 92
        7
 72
     0
 73
     1
 93
       12
 10
1248.292369934331
 20
424.4488242639198
 10
1250.292369934331
 20
423.4488242639198
 10
1256.292369934331
 20
421.9488242639198
 10
1256.292369934331
 20
424.4488242639198
 10
1252.292369934331
 20
424.4488242639198
 10
1252.292369934331
 20
425.9488242639198
 10
1256.292369934331
 20
425.9488242639198
 10
1256.292369934331
 20
428.4488242639198
 10
1250.292369934331
 20
426.9488242639197
 10
1248.292369934331
 20
425.9488242639198
 10
1251.292369934331
 20
425.9488242639198
 10
1251.292369934331
 20
424.4488242639198
 97
        0
 92
        7
 72
     0
 73
     1
 93
       12
 10
1317.29236993433
 20
424.4488242639198
 10
1313.29236993433
 20
424.4488242639198
 10
1313.29236993433
 20
421.9488242639198
 10
1319.29236993433
 20
423.4488242639198
 10
1321.29236993433
 20
424.4488242639198
 10
1318.29236993433
 20
424.4488242639198
 10
1318.29236993433
 20
425.9488242639198
 10
1321.29236993433
 20
425.9488242639198
 10
1319.29236993433
 20
426.9488242639197
 10
1313.29236993433
 20
428.4488242639198
 10
1313.29236993433
 20
425.9488242639198
 10
1317.29236993433
 20
425.9488242639198
 97
        0
 75
     0
 76
     1
 52
135.0
 41
0.5
 77
     0
 78
     2
 53
135.0
 43
1166.728762939454
 44
223.6444352194808
 45
-1.122532015133643
 46
-1.122532015133643
 79
     0
 53
225.0
 43
1166.728762939454
 44
223.6444352194808
 45
1.122532015133643
 46
-1.122532015133643
 79
     0
 47
0.1492324330864038
 98
        2
 10
1254.824759077755
 20
423.4144675198249
 10
1315.745766960282
 20
423.265234074598
  0
LINE
  5
614
330
1F
100
AcDbEntity
  8
0
100
AcDbLine
 10
1257.292369934331
 20
412.4488242639198
 30
0.0
 11
1257.292369934331
 21
381.4488242639198
 31
0.0
  0
LINE
  5
615
330
1F
100
AcDbEntity
  8
0
100
AcDbLine
 10
1262.29236993433
 20
376.4488242639199
 30
0.0
 11
1307.29236993433
 21
376.4488242639199
 31
0.0
  0
LINE
  5
616
330
1F
100
AcDbEntity
  8
0
100
AcDbLine
 10
1312.29236993433
 20
381.4488242639198
 30
0.0
 11
1312.29236993433
 21
412.4488242639198
 31
0.0
  0
ARC
  5
617
330
1F
100
AcDbEntity
  8
0
100
AcDbCircle
 10
1262.29236993433
 20
381.4488242639198
 30
0.0
 40
5.0
100
AcDbArc
 50
180.0
 51
270.0
1001
GENIUS_GENOBJ-N-FIL_13
1002
{
1000
OWNER
1000
GEN
1002
}
1001
GENIUS_GENODEF_13
1002
{
1000
HIER
1070
     0
1002
}
1002
{
1000
MANEDIT
1070
     0
1002
}
1002
{
1000
NOSEL
1070
     0
1002
}
1002
{
1000
BEHIND
1070
     0
1002
}
1002
{
1000
OTHER
1070
     0
1002
}
1002
{
1000
REACTOR
1002
}
  0
ARC
  5
618
330
1F
100
AcDbEntity
  8
0
100
AcDbCircle
 10
1307.29236993433
 20
381.4488242639198
 30
0.0
 40
5.0
100
AcDbArc
 50
270.0
 51
0.0
1001
GENIUS_GENOBJ-N-FIL_13
1002
{
1000
OWNER
1000
GEN
1002
}
1001
GENIUS_GENODEF_13
1002
{
1000
HIER
1070
     0
1002
}
1002
{
1000
MANEDIT
1070
     0
1002
}
1002
{
1000
NOSEL
1070
     0
1002
}
1002
{
1000
BEHIND
1070
     0
1002
}
1002
{
1000
OTHER
1070
     0
1002
}
1002
{
1000
REACTOR
1002
}
  0
ARC
  5
619
330
1F
100
AcDbEntity
  8
0
100
AcDbCircle
 10
1262.29236993433
 20
381.4488242639198
 30
0.0
 40
6.0
100
AcDbArc
 50
180.0
 51
270.0
1001
GENIUS_GENOBJ-N-FIL_13
1002
{
1000
OWNER
1000
GEN
1002
}
1001
GENIUS_GENODEF_13
1002
{
1000
HIER
1070
     0
1002
}
1002
{
1000
MANEDIT
1070
     0
1002
}
1002
{
1000
NOSEL
1070
     0
1002
}
1002
{
1000
BEHIND
1070
     0
1002
}
1002
{
1000
OTHER
1070
     0
1002
}
1002
{
1000
REACTOR
1002
}
  0
ARC
  5
61A
330
1F
100
AcDbEntity
  8
0
100
AcDbCircle
 10
1307.29236993433
 20
381.4488242639198
 30
0.0
 40
6.0
100
AcDbArc
 50
270.0
 51
0.0
1001
GENIUS_GENODEF_13
1002
{
1000
HIER
1070
     0
1002
}
1002
{
1000
MANEDIT
1070
     0
1002
}
1002
{
1000
NOSEL
1070
     0
1002
}
1002
{
1000
BEHIND
1070
     0
1002
}
1002
{
1000
OTHER
1070
     0
1002
}
1002
{
1000
REACTOR
1002
}
1001
GENIUS_GENOBJ-N-FIL_13
1002
{
1000
OWNER
1000
GEN
1002
}
  0
ARC
  5
61B
330
1F
100
AcDbEntity
  8
0
100
AcDbCircle
 10
1262.79236993433
 20
422.4488242639197
 30
0.0
 40
2.0
100
AcDbArc
 50
0.0
 51
90.0
1001
GENIUS_GENODEF_13
1002
{
1000
HIER
1070
     0
1002
}
1002
{
1000
MANEDIT
1070
     0
1002
}
1002
{
1000
NOSEL
1070
     0
1002
}
1002
{
1000
BEHIND
1070
     0
1002
}
1002
{
1000
OTHER
1070
     0
1002
}
1002
{
1000
REACTOR
1002
}
1001
GENIUS_GENOBJ-N-FIL_13
1002
{
1000
OWNER
1000
GEN
1002
}
  0
LINE
  5
61C
330
1F
100
AcDbEntity
  8
0
100
AcDbLine
 10
1317.29236993433
 20
424.4488242639198
 30
0.0
 11
1306.79236993433
 21
424.4488242639198
 31
0.0
  0
ARC
  5
61D
330
1F
100
AcDbEntity
  8
0
100
AcDbCircle
 10
1306.79236993433
 20
422.4488242639197
 30
0.0
 40
2.0
100
AcDbArc
 50
90.0
 51
180.0
1001
GENIUS_GENODEF_13
1002
{
1000
HIER
1070
     0
1002
}
1002
{
1000
MANEDIT
1070
     0
1002
}
1002
{
1000
NOSEL
1070
     0
1002
}
1002
{
1000
BEHIND
1070
     0
1002
}
1002
{
1000
OTHER
1070
     0
1002
}
1002
{
1000
REACTOR
1002
}
1001
GENIUS_GENOBJ-N-FIL_13
1002
{
1000
OWNER
1000
GEN
1002
}
  0
ARC
  5
61E
330
1F
100
AcDbEntity
  8
0
100
AcDbCircle
 10
1262.79236993433
 20
422.4488242639197
 30
0.0
 40
3.5
100
AcDbArc
 50
0.0
 51
90.0
1001
GENIUS_GENODEF_13
1002
{
1000
HIER
1070
     0
1002
}
1002
{
1000
MANEDIT
1070
     0
1002
}
1002
{
1000
NOSEL
1070
     0
1002
}
1002
{
1000
BEHIND
1070
     0
1002
}
1002
{
1000
OTHER
1070
     0
1002
}
1002
{
1000
REACTOR
1002
}
1001
GENIUS_GENOBJ-N-FIL_13
1002
{
1000
OWNER
1000
GEN
1002
}
  0
ARC
  5
61F
330
1F
100
AcDbEntity
  8
0
100
AcDbCircle
 10
1306.79236993433
 20
422.4488242639197
 30
0.0
 40
3.5
100
AcDbArc
 50
90.0
 51
180.0
1001
GENIUS_GENODEF_13
1002
{
1000
HIER
1070
     0
1002
}
1002
{
1000
MANEDIT
1070
     0
1002
}
1002
{
1000
NOSEL
1070
     0
1002
}
1002
{
1000
BEHIND
1070
     0
1002
}
1002
{
1000
OTHER
1070
     0
1002
}
1002
{
1000
REACTOR
1002
}
1001
GENIUS_GENOBJ-N-FIL_13
1002
{
1000
OWNER
1000
GEN
1002
}
  0
LINE
  5
620
330
1F
100
AcDbEntity
  8
0
100
AcDbLine
 10
1256.292369934331
 20
415.4488242639198
 30
0.0
 11
1257.292369934331
 21
415.4488242639198
 31
0.0
  0
LINE
  5
621
330
1F
100
AcDbEntity
  8
0
100
AcDbLine
 10
1256.292369934331
 20
424.4488242639198
 30
0.0
 11
1262.79236993433
 21
424.4488242639198
 31
0.0
  0
LINE
  5
622
330
1F
100
AcDbEntity
  8
0
100
AcDbLine
 10
1256.292369934331
 20
415.4488242639198
 30
0.0
 11
1258.053074490145
 21
415.4488242639198
 31
0.0
  0
LINE
  5
623
330
1F
100
AcDbEntity
  8
0
100
AcDbLine
 10
1264.79236993433
 20
422.4488242639197
 30
0.0
 11
1264.79236993433
 21
404.4488242639198
 31
0.0
  0
LINE
  5
624
330
1F
100
AcDbEntity
  8
0
100
AcDbLine
 10
1257.79236993433
 20
412.9688242639203
 30
0.0
 11
1257.79236993433
 21
410.9688242639203
 31
0.0
  0
LINE
  5
625
330
1F
100
AcDbEntity
  8
0
100
AcDbLine
 10
1264.79236993433
 20
404.4488242639198
 30
0.0
 11
1261.556693689448
 21
404.4488242639198
 31
0.0
  0
LINE
  5
626
330
1F
100
AcDbEntity
  8
0
100
AcDbLine
 10
1256.292369934331
 20
415.4488242639198
 30
0.0
 11
1256.292369934331
 21
424.4488242639198
 31
0.0
  0
LINE
  5
627
330
1F
100
AcDbEntity
  8
0
100
AcDbLine
 10
1257.79236993433
 20
412.9688242639203
 30
0.0
 11
1258.516666417429
 21
414.7615209672119
 31
0.0
  0
ARC
  5
628
330
1F
100
AcDbEntity
  8
0
100
AcDbCircle
 10
1258.053074490145
 20
414.9488242639198
 30
0.0
 40
0.5
100
AcDbArc
 50
337.9999999999495
 51
90.0
  0
LINE
  5
629
330
1F
100
AcDbEntity
  8
0
100
AcDbLine
 10
1257.79236993433
 20
410.9688242639199
 30
0.0
 11
1261.556693689448
 21
404.4488242639198
 31
0.0
  0
LINE
  5
62A
330
1F
100
AcDbEntity
  8
0
100
AcDbLine
 10
1262.79236993433
 20
424.4488242639198
 30
0.0
 11
1264.79236993433
 21
422.4488242639197
 31
0.0
  0
LINE
  5
62B
330
1F
100
AcDbEntity
  8
3
100
AcDbLine
 10
1256.292369934331
 20
421.9488242639198
 30
0.0
 11
1264.79236993433
 21
421.9488242639198
 31
0.0
  0
LINE
  5
62C
330
1F
100
AcDbEntity
  8
3
100
AcDbLine
 10
1258.053074490145
 20
415.4488242639198
 30
0.0
 11
1264.79236993433
 21
415.4488242639198
 31
0.0
  0
LINE
  5
62D
330
1F
100
AcDbEntity
  8
0
100
AcDbLine
 10
1257.292369934331
 20
412.4488242639198
 30
0.0
 11
1257.765342907303
 21
415.2866621017576
 31
0.0
  0
LINE
  5
62E
330
1F
100
AcDbEntity
  8
0
100
AcDbLine
 10
1256.292369934331
 20
412.4488242639198
 30
0.0
 11
1256.792369934331
 21
415.4488242639198
 31
0.0
  0
LINE
  5
62F
330
1F
100
AcDbEntity
  8
0
100
AcDbLine
 10
1256.792369934331
 20
415.4488242639198
 30
0.0
 11
1257.765342907303
 21
415.2866621017576
 31
0.0
  0
LINE
  5
630
330
1F
100
AcDbEntity
  8
0
100
AcDbLine
 10
1257.765342907303
 20
415.2866621017576
 30
0.0
 11
1258.421673995469
 21
415.2866621017576
 31
0.0
  0
LINE
  5
631
330
1F
100
AcDbEntity
  8
0
100
AcDbLine
 10
1312.29236993433
 20
412.4488242639198
 30
0.0
 11
1311.819396961357
 21
415.2866621017576
 31
0.0
  0
LINE
  5
632
330
1F
100
AcDbEntity
  8
0
100
AcDbLine
 10
1313.29236993433
 20
412.4488242639198
 30
0.0
 11
1312.79236993433
 21
415.4488242639198
 31
0.0
  0
LINE
  5
633
330
1F
100
AcDbEntity
  8
0
100
AcDbLine
 10
1312.79236993433
 20
415.4488242639198
 30
0.0
 11
1311.819396961357
 21
415.2866621017576
 31
0.0
  0
LINE
  5
634
330
1F
100
AcDbEntity
  8
0
100
AcDbLine
 10
1311.819396961357
 20
415.2866621017576
 30
0.0
 11
1304.79236993433
 21
415.2866621017576
 31
0.0
  0
LINE
  5
635
330
1F
100
AcDbEntity
  8
0
100
AcDbLine
 10
1382.292369934358
 20
420.2165112005748
 30
0.0
 11
1382.292369934285
 21
380.2165112005749
 31
0.0
  0
LINE
  5
636
330
1F
100
AcDbEntity
  8
0
  6
Continuous
 62
     7
100
AcDbLine
 10
442.5214298250273
 20
421.7342316977264
 30
0.0
 11
442.5214298250273
 21
380.2127582197238
 31
0.0
  0
LINE
  5
637
330
1F
100
AcDbEntity
  8
0
  6
Continuous
 62
     7
100
AcDbLine
 10
443.0211441106602
 20
427.287822897003
 30
0.0
 11
443.0211441106602
 21
421.7342316977264
 31
0.0
  0
LINE
  5
638
330
1F
100
AcDbEntity
  8
0
  6
Continuous
 62
     7
100
AcDbLine
 10
480.0000012537672
 20
373.7164725053546
 30
0.0
 11
449.017715539399
 21
373.7164725053546
 31
0.0
  0
LINE
  5
639
330
1F
100
AcDbEntity
  8
0
  6
Continuous
 62
     7
100
AcDbLine
 10
442.5214014708244
 20
421.7342316977264
 30
0.0
 11
480.0000012537672
 21
421.7342316977264
 31
0.0
  0
ARC
  5
63A
330
1F
100
AcDbEntity
  8
0
  6
Continuous
 62
     7
100
AcDbCircle
 10
449.017715539399
 20
380.2127582197238
 30
0.0
 40
6.496285714368996
100
AcDbArc
 50
180.0
 51
270.0
  0
LINE
  5
63B
330
1F
100
AcDbEntity
  8
0
  6
Continuous
 62
     7
100
AcDbLine
 10
517.4785726825075
 20
421.7342316977264
 30
0.0
 11
517.4785726825075
 21
380.2127582197238
 31
0.0
  0
LINE
  5
63C
330
1F
100
AcDbEntity
  8
0
  6
Continuous
 62
     7
100
AcDbLine
 10
516.9788583968743
 20
427.287822897003
 30
0.0
 11
516.9788583968743
 21
421.7342316977264
 31
0.0
  0
LINE
  5
63D
330
1F
100
AcDbEntity
  8
0
  6
Continuous
 62
     7
100
AcDbLine
 10
480.0000012537672
 20
373.7164725053546
 30
0.0
 11
510.9822869681353
 21
373.7164725053546
 31
0.0
  0
LINE
  5
63E
330
1F
100
AcDbEntity
  8
0
  6
Continuous
 62
     7
100
AcDbLine
 10
517.4786010367102
 20
421.7342316977264
 30
0.0
 11
480.0000012537672
 21
421.7342316977264
 31
0.0
  0
ARC
  5
63F
330
1F
100
AcDbEntity
  8
0
  6
Continuous
 62
     7
100
AcDbCircle
 10
510.9822869681353
 20
380.2127582197238
 30
0.0
 40
6.496285714368996
100
AcDbArc
 50
270.0
 51
0.0
  0
CIRCLE
  5
640
330
1F
100
AcDbEntity
  8
0
100
AcDbCircle
 10
480.0000012537672
 20
400.7164725054646
 30
0.0
 40
20.0
  0
CIRCLE
  5
641
330
1F
100
AcDbEntity
  8
0
100
AcDbCircle
 10
480.0000012537672
 20
400.7164725054646
 30
0.0
 40
18.5
  0
LINE
  5
642
330
1F
100
AcDbEntity
  8
AM_7
100
AcDbLine
 10
480.0000012537672
 20
400.7164725054646
 30
0.0
 11
507.5002636343801
 21
400.7164725054646
 31
0.0
1001
GENIUS_GENOREF_13
1005
666
  0
LINE
  5
643
330
1F
100
AcDbEntity
  8
AM_7
100
AcDbLine
 10
480.0000012537672
 20
400.7164725054646
 30
0.0
 11
452.4997388731544
 21
400.7164725054646
 31
0.0
1001
GENIUS_GENOREF_13
1005
666
  0
LINE
  5
644
330
1F
100
AcDbEntity
  8
0
  6
Continuous
 62
     7
100
AcDbLine
 10
980.9994297521518
 20
359.6963862605787
 30
0.0
 11
980.9994297527314
 21
440.7325667573543
 31
0.0
  0
LINE
  5
645
330
1F
100
AcDbEntity
  8
0
  6
Continuous
 62
     7
100
AcDbLine
 10
980.0000011808908
 20
356.7501805807412
 30
0.0
 11
980.0000011808892
 21
436.7256540580488
 31
0.0
  0
LINE
  5
646
330
1F
100
AcDbEntity
  8
0
  6
Continuous
 62
     7
100
AcDbLine
 10
978.0011440377823
 20
425.5820847803743
 30
0.0
 11
978.0011440377823
 21
356.7501322586352
 31
0.0
  0
LINE
  5
647
330
1F
100
AcDbEntity
  8
0
  6
Continuous
 62
     7
100
AcDbLine
 10
918.0354297521517
 20
354.7513234376343
 30
0.0
 11
918.0354297521517
 21
352.7524662945273
 31
0.0
  0
LINE
  5
648
330
1F
100
AcDbEntity
  8
0
  6
Continuous
 62
     7
100
AcDbLine
 10
976.0022868952598
 20
352.7524662945273
 30
0.0
 11
918.0354297521517
 21
352.7524662945273
 31
0.0
  0
LINE
  5
649
330
1F
100
AcDbEntity
  8
0
  6
Continuous
 62
     7
100
AcDbLine
 10
976.0022868952598
 20
354.7513234376343
 30
0.0
 11
918.0354297521517
 21
354.7513234376343
 31
0.0
  0
LINE
  5
64A
330
1F
100
AcDbEntity
  8
0
  6
Continuous
 62
     7
100
AcDbLine
 10
980.0000011808892
 20
425.5820847803743
 30
0.0
 11
978.0011440377823
 21
425.5820847803743
 31
0.0
  0
ARC
  5
64B
330
1F
100
AcDbEntity
  8
0
  6
Continuous
 62
     7
100
AcDbCircle
 10
976.0022868952598
 20
356.7501805807412
 30
0.0
 40
3.997714285630998
100
AcDbArc
 50
270.0
 51
0.0
  0
ARC
  5
64C
330
1F
100
AcDbEntity
  8
0
  6
Continuous
 62
     7
100
AcDbCircle
 10
976.0022868952598
 20
356.7501805807412
 30
0.0
 40
1.998857143106999
100
AcDbArc
 50
270.0
 51
0.0
  0
INSERT
  5
64D
330
1F
100
AcDbEntity
  8
0
100
AcDbBlockReference
  2
befestigung
 10
2993.71660750608
 20
-974.3413268019779
 30
0.0
 41
-1.0
  0
LINE
  5
64E
330
1F
100
AcDbEntity
  8
0
100
AcDbLine
 10
980.0000011808908
 20
359.6963862605787
 30
0.0
 11
980.9994297521518
 21
359.6963862605787
 31
0.0
  0
LINE
  5
64F
330
1F
100
AcDbEntity
  8
0
  6
Continuous
 62
     7
100
AcDbLine
 10
-20.99942739037307
 20
359.6963862605787
 30
0.0
 11
-20.99942739037307
 21
381.1169857986911
 31
0.0
  0
LINE
  5
650
330
1F
100
AcDbEntity
  8
0
  6
Continuous
 62
     7
100
AcDbLine
 10
-20.99942739037307
 20
381.1169857986911
 30
0.0
 11
-20.99942739037715
 21
440.7333626293111
 31
0.0
  0
LINE
  5
651
330
1F
100
AcDbEntity
  8
0
  6
Continuous
 62
     7
100
AcDbLine
 10
-19.99999881911187
 20
356.7501805807412
 30
0.0
 11
-19.99999881911117
 21
381.1169857986911
 31
0.0
  0
LINE
  5
652
330
1F
100
AcDbEntity
  8
0
  6
Continuous
 62
     7
100
AcDbLine
 10
-19.99999881911117
 20
381.1169857986911
 30
0.0
 11
-19.99999881911117
 21
436.725654057466
 31
0.0
  0
LINE
  5
653
330
1F
100
AcDbEntity
  8
0
  6
Continuous
 62
     7
100
AcDbLine
 10
-18.00114167600504
 20
425.5820847803743
 30
0.0
 11
-18.00114167600504
 21
386.5169857986911
 31
0.0
1001
GENIUS_GENOREF_13
1005
0
  0
LINE
  5
654
330
1F
100
AcDbEntity
  8
0
  6
Continuous
 62
     7
100
AcDbLine
 10
41.96457260962698
 20
354.7513234376343
 30
0.0
 11
41.96457260962698
 21
352.7524662945273
 31
0.0
  0
LINE
  5
655
330
1F
100
AcDbEntity
  8
0
  6
Continuous
 62
     7
100
AcDbLine
 10
-16.00228453348087
 20
352.7524662945273
 30
0.0
 11
41.96457260962698
 21
352.7524662945273
 31
0.0
  0
LINE
  5
656
330
1F
100
AcDbEntity
  8
0
  6
Continuous
 62
     7
100
AcDbLine
 10
-16.00228453348087
 20
354.7513234376343
 30
0.0
 11
41.96457260962698
 21
354.7513234376343
 31
0.0
  0
LINE
  5
657
330
1F
100
AcDbEntity
  8
0
  6
Continuous
 62
     7
100
AcDbLine
 10
-19.99999881911117
 20
359.6963862605787
 30
0.0
 11
-20.99942739037307
 21
359.6963862605787
 31
0.0
  0
LINE
  5
658
330
1F
100
AcDbEntity
  8
0
  6
Continuous
 62
     7
100
AcDbLine
 10
-19.99999881911117
 20
425.5820847803743
 30
0.0
 11
-18.00114167600504
 21
425.5820847803743
 31
0.0
  0
ARC
  5
659
330
1F
100
AcDbEntity
  8
0
  6
Continuous
 62
     7
100
AcDbCircle
 10
-16.00228453348087
 20
356.7501805807412
 30
0.0
 40
3.997714285630998
100
AcDbArc
 50
180.0
 51
270.0
  0
ARC
  5
65A
330
1F
100
AcDbEntity
  8
0
  6
Continuous
 62
     7
100
AcDbCircle
 10
-16.00228453348087
 20
356.7501805807412
 30
0.0
 40
1.998857143106999
100
AcDbArc
 50
180.0
 51
270.0
  0
LINE
  5
65B
330
1F
100
AcDbEntity
  8
0
  6
Continuous
 62
     7
100
AcDbLine
 10
-18.00114167600504
 20
367.7169857986912
 30
0.0
 11
-18.00114167600504
 21
356.7501323134856
 31
0.0
1001
GENIUS_GENOREF_13
1005
0
  0
INSERT
  5
65C
330
1F
100
AcDbEntity
  8
0
100
AcDbBlockReference
  2
befestigung
 10
-2033.7166051443
 20
-974.3413268019779
 30
0.0
  0
LINE
  5
65D
330
1F
100
AcDbEntity
  8
0
100
AcDbLine
 10
1325.792369934286
 20
452.7165112006298
 30
0.0
 11
1225.792365787486
 21
452.716511200496
 31
0.0
  0
ARC
  5
65E
330
1F
100
AcDbEntity
  8
0
100
AcDbCircle
 10
1242.792365787591
 20
450.7165112004598
 30
0.0
 40
2.0
100
AcDbArc
 50
0.0
 51
90.00000000026055
  0
LINE
  5
65F
330
1F
100
AcDbEntity
  8
0
  6
ByBlock
100
AcDbLine
 10
1224.792365787485
 20
453.7165112004101
 30
0.0
 11
1224.792365787371
 21
492.7165112004102
 31
0.0
  0
ARC
  5
660
330
1F
100
AcDbEntity
  8
0
  6
ByBlock
100
AcDbCircle
 10
1225.792365787484
 20
453.7165112004129
 30
0.0
 40
1.0
100
AcDbArc
 50
180.0000000002605
 51
270.0000000002606
  0
LINE
  5
661
330
1F
100
AcDbEntity
  8
0
  6
ByBlock
100
AcDbLine
 10
1224.792365787371
 20
492.7165112004102
 30
0.0
 11
1223.792365787371
 21
492.7165112004074
 31
0.0
  0
LINE
  5
662
330
1F
100
AcDbEntity
  8
0
  6
ByBlock
100
AcDbLine
 10
1223.792365787371
 20
492.7165112004074
 30
0.0
 11
1223.792365787484
 21
453.7165112004076
 31
0.0
  0
ARC
  5
663
330
1F
100
AcDbEntity
  8
0
  6
ByBlock
100
AcDbCircle
 10
1225.792365787484
 20
453.7165112004129
 30
0.0
 40
2.0
100
AcDbArc
 50
180.0000000002605
 51
270.0000000002606
  0
LINE
  5
664
330
1F
100
AcDbEntity
  8
0
  6
ByBlock
100
AcDbLine
 10
1225.792365787491
 20
451.7165112004128
 30
0.0
 11
1242.792365787492
 21
451.7165112004634
 31
0.0
  0
ARC
  5
665
330
1F
100
AcDbEntity
  8
0
  6
ByBlock
100
AcDbCircle
 10
1242.792365787493
 20
450.7165112004634
 30
0.0
 40
1.0
100
AcDbArc
 50
0.000000000260551
 51
90.00000000026055
  0
POINT
  5
666
330
1F
100
AcDbEntity
  8
0
 60
     1
100
AcDbPoint
 10
87.8793896938596
 20
237.4947324069769
 30
0.0
1001
GENIUS_GENOLIS_13
1002
{
1000
ENT
1005
0
1005
643
1005
0
1005
642
1002
}
1001
GENIUS_GENOENT_13
1002
{
1000
MYREF
1005
666
1002
}
1002
{
1000
GRP
1005
0
1002
}
1001
GENIUS_GENOBJ-N-CRS_13
1002
{
1000
OWNER
1000
GEN
1002
}
1001
GENIUS_GENODEF_13
1002
{
1000
HIER
1070
    10
1002
}
1002
{
1000
MANEDIT
1070
     1
1002
}
1002
{
1000
NOSEL
1070
     0
1002
}
1002
{
1000
BEHIND
1070
     0
1002
}
1002
{
1000
OTHER
1070
     0
1002
}
1002
{
1000
REACTOR
1002
}
  0
POINT
  5
667
330
1F
100
AcDbEntity
  8
0
 60
     1
100
AcDbPoint
 10
-929.730372619695
 20
-829.0700046961488
 30
0.0
1001
GENIUS_GENOENT_13
1002
{
1000
MYREF
1005
667
1002
}
1002
{
1000
GRP
1005
0
1002
}
1001
GENIUS_GENOLIS_13
1002
{
1000
ENT
1005
58C
1005
0
1005
58B
1005
0
1002
}
1001
GENIUS_GENOBJ-N-CRS_13
1002
{
1000
OWNER
1000
GEN
1002
}
1001
GENIUS_GENODEF_13
1002
{
1000
HIER
1070
    10
1002
}
1002
{
1000
MANEDIT
1070
     1
1002
}
1002
{
1000
NOSEL
1070
     0
1002
}
1002
{
1000
BEHIND
1070
     0
1002
}
1002
{
1000
OTHER
1070
     0
1002
}
1002
{
1000
REACTOR
1002
}
  0
ENDSEC
  0
SECTION
  2
OBJECTS
  0
DICTIONARY
  5
C
330
0
100
AcDbDictionary
281
     1
  3
ACAD_2007HEADERVARS_RT
350
716
  3
ACAD_COLOR
350
BE
  3
ACAD_GROUP
350
D
  3
ACAD_LAYOUT
350
1A
  3
ACAD_MATERIAL
350
BD
  3
ACAD_MLEADERSTYLE
350
2C4
  3
ACAD_MLINESTYLE
350
17
  3
ACAD_PLOTSETTINGS
350
19
  3
ACAD_PLOTSTYLENAME
350
E
  3
ACAD_SCALELIST
350
2A2
  3
ACAD_TABLESTYLE
350
11A
  3
ACAD_VISUALSTYLE
350
26E
  3
ACDB_RECOMPOSE_DATA
350
2E6
  3
AcDbVariableDictionary
350
94
  3
AcmDictionary
350
5B
  3
AcmSystemVariableManager
350
724
  3
AEC_PROPERTY_SET_DEFS
350
55F
  3
AMG
350
41
  3
AMGSNAPSETTINGS
350
364
  3
DWGPROPS
350
715
  0
DICTIONARY
  5
452
330
2
100
AcDbDictionary
280
     1
281
     1
  3
ACAD_LAYERSTATES
360
453
  0
DICTIONARY
  5
707
330
10
100
AcDbDictionary
280
     1
281
     1
  3
ADSK_XREC_LAYER_RECONCILED
360
708
  0
DICTIONARY
  5
433
330
432
100
AcDbDictionary
280
     1
281
     1
  3
ADSK_XREC_LAYER_RECONCILED
360
709
  0
DICTIONARY
  5
435
330
434
100
AcDbDictionary
280
     1
281
     1
  3
ADSK_XREC_LAYER_RECONCILED
360
70A
  0
DICTIONARY
  5
438
330
437
100
AcDbDictionary
280
     1
281
     1
  3
ADSK_XREC_LAYER_RECONCILED
360
70B
  0
DICTIONARY
  5
43A
330
439
100
AcDbDictionary
280
     1
281
     1
  3
ADSK_XREC_LAYER_RECONCILED
360
70C
  0
DICTIONARY
  5
43C
330
43B
100
AcDbDictionary
280
     1
281
     1
  3
ADSK_XREC_LAYER_RECONCILED
360
70D
  0
DICTIONARY
  5
43E
330
43D
100
AcDbDictionary
280
     1
281
     1
  3
ADSK_XREC_LAYER_RECONCILED
360
70E
  0
DICTIONARY
  5
440
330
43F
100
AcDbDictionary
280
     1
281
     1
  3
ADSK_XREC_LAYER_RECONCILED
360
70F
  0
DICTIONARY
  5
442
330
441
100
AcDbDictionary
280
     1
281
     1
  3
ADSK_XREC_LAYER_RECONCILED
360
710
  0
DICTIONARY
  5
444
330
443
100
AcDbDictionary
280
     1
281
     1
  3
ADSK_XREC_LAYER_RECONCILED
360
711
  0
DICTIONARY
  5
446
330
445
100
AcDbDictionary
280
     1
281
     1
  3
ADSK_XREC_LAYER_RECONCILED
360
712
  0
DICTIONARY
  5
8F
330
1F
100
AcDbDictionary
280
     1
281
     1
  0
DICTIONARY
  5
716
102
{ACAD_REACTORS
330
C
102
}
330
C
100
AcDbDictionary
281
     1
  3
DIMARCSYM
350
717
  3
DIMLTEX1
350
719
  3
DIMLTEX2
350
71A
  3
DIMLTYPE
350
718
  0
DICTIONARY
  5
BE
102
{ACAD_REACTORS
330
C
102
}
330
C
100
AcDbDictionary
281
     1
  0
DICTIONARY
  5
D
102
{ACAD_REACTORS
330
C
102
}
330
C
100
AcDbDictionary
281
     1
  0
DICTIONARY
  5
1A
102
{ACAD_REACTORS
330
C
102
}
330
C
100
AcDbDictionary
281
     1
  3
Layout1
350
1E
  3
Layout2
350
26
  3
Model
350
22
  0
DICTIONARY
  5
BD
102
{ACAD_REACTORS
330
C
102
}
330
C
100
AcDbDictionary
281
     1
  3
ByBlock
350
26C
  3
ByLayer
350
26B
  3
Global
350
26D
  0
DICTIONARY
  5
2C4
102
{ACAD_REACTORS
330
C
102
}
330
C
100
AcDbDictionary
281
     1
  3
Standard
350
2C5
  0
DICTIONARY
  5
17
102
{ACAD_REACTORS
330
C
102
}
330
C
100
AcDbDictionary
281
     1
  3
Standard
350
18
  0
DICTIONARY
  5
19
102
{ACAD_REACTORS
330
C
102
}
330
C
100
AcDbDictionary
281
     1
  0
ACDBDICTIONARYWDFLT
  5
E
102
{ACAD_REACTORS
330
C
102
}
330
C
100
AcDbDictionary
281
     1
  3
Normal
350
F
100
AcDbDictionaryWithDefault
340
F
  0
DICTIONARY
  5
2A2
102
{ACAD_REACTORS
330
C
102
}
330
C
100
AcDbDictionary
281
     1
  3
A0
350
2A3
  3
A1
350
2A4
  3
A2
350
2A5
  3
A3
350
2A6
  3
A4
350
2A7
  3
A5
350
2A8
  3
A6
350
2A9
  3
A7
350
2AA
  3
A8
350
2AB
  3
A9
350
2AC
  3
B0
350
2AD
  3
B1
350
2AE
  3
B2
350
2AF
  3
B3
350
2B0
  3
B4
350
2B1
  3
B5
350
2B2
  3
B6
350
2B3
  3
B7
350
2B4
  3
B8
350
2B5
  3
B9
350
2B6
  3
C0
350
2B7
  3
C1
350
2B8
  3
C2
350
2B9
  3
C3
350
2BA
  3
C4
350
2BB
  3
C5
350
2BC
  3
C6
350
2BD
  3
C7
350
2BE
  3
C8
350
2BF
  3
C9
350
2C0
  3
D0
350
2C1
  3
D1
350
2C2
  3
D2
350
2C3
  0
DICTIONARY
  5
11A
102
{ACAD_REACTORS
330
C
102
}
330
C
100
AcDbDictionary
281
     1
  3
Standard
350
11B
  0
DICTIONARY
  5
26E
102
{ACAD_REACTORS
330
C
102
}
330
C
100
AcDbDictionary
281
     1
  3
2dWireframe
350
274
  3
3D Hidden
350
276
  3
3dWireframe
350
275
  3
Basic
350
273
  3
Brighten
350
27A
  3
ColorChange
350
27E
  3
Conceptual
350
277
  3
Dim
350
279
  3
Facepattern
350
27D
  3
Flat
350
26F
  3
FlatWithEdges
350
270
  3
Gouraud
350
271
  3
GouraudWithEdges
350
272
  3
Linepattern
350
27C
  3
Realistic
350
278
  3
Thicken
350
27B
  0
XRECORD
  5
2E6
102
{ACAD_REACTORS
330
C
102
}
330
C
100
AcDbXrecord
280
     1
 90
        1
330
11B
  0
DICTIONARY
  5
94
102
{ACAD_REACTORS
330
C
102
}
330
C
100
AcDbDictionary
281
     1
  3
CANNOSCALE
350
2E9
  3
CMLEADERSTYLE
350
2E7
  3
CTABLESTYLE
350
138
  3
DIMASSOC
350
96
  3
INDEXCTL
350
95
  3
LAYEREVAL
350
346
  3
LAYERNOTIFY
350
347
  3
LIGHTINGUNITS
350
2EA
  3
MSLTSCALE
350
2E8
  3
SORTENTS
350
713
  0
DICTIONARY
  5
5B
102
{ACAD_REACTORS
330
C
102
}
330
C
100
AcDbDictionary
281
     1
  3
AcmBOM
350
36B
  3
AcmStdDictionary
350
61
  3
AMDTSECTSYM_ARROWCOLOR
350
123
  0
DICTIONARY
  5
55F
102
{ACAD_REACTORS
330
C
102
}
330
C
100
AcDbDictionary
281
     1
  0
DICTIONARY
  5
41
102
{ACAD_REACTORS
330
C
102
}
330
C
100
AcDbDictionary
281
     1
  0
DICTIONARY
  5
364
102
{ACAD_REACTORS
330
C
102
}
330
C
100
AcDbDictionary
281
     1
  0
XRECORD
  5
715
102
{ACAD_REACTORS
330
C
102
}
330
C
100
AcDbXrecord
280
     1
  1
DWGPROPS COOKIE
  2

  3

  4

  6

  7

  8
nlazaar
  9

300
AmdtFileType=84
301
=
302
=
303
=
304
=
305
=
306
=
307
=
308
=
309
=
 40
0.0025631365740741
 41
2455097.701019236
 42
2455097.703581655
  1

 90
        1
  0
DICTIONARY
  5
453
102
{ACAD_REACTORS
330
452
102
}
330
452
100
AcDbDictionary
281
     1
  0
XRECORD
  5
708
102
{ACAD_REACTORS
330
707
102
}
330
707
100
AcDbXrecord
280
     1
290
     1
  0
XRECORD
  5
709
102
{ACAD_REACTORS
330
433
102
}
330
433
100
AcDbXrecord
280
     1
290
     1
  0
XRECORD
  5
70A
102
{ACAD_REACTORS
330
435
102
}
330
435
100
AcDbXrecord
280
     1
290
     1
  0
XRECORD
  5
70B
102
{ACAD_REACTORS
330
438
102
}
330
438
100
AcDbXrecord
280
     1
290
     1
  0
XRECORD
  5
70C
102
{ACAD_REACTORS
330
43A
102
}
330
43A
100
AcDbXrecord
280
     1
290
     1
  0
XRECORD
  5
70D
102
{ACAD_REACTORS
330
43C
102
}
330
43C
100
AcDbXrecord
280
     1
290
     1
  0
XRECORD
  5
70E
102
{ACAD_REACTORS
330
43E
102
}
330
43E
100
AcDbXrecord
280
     1
290
     1
  0
XRECORD
  5
70F
102
{ACAD_REACTORS
330
440
102
}
330
440
100
AcDbXrecord
280
     1
290
     1
  0
XRECORD
  5
710
102
{ACAD_REACTORS
330
442
102
}
330
442
100
AcDbXrecord
280
     1
290
     1
  0
XRECORD
  5
711
102
{ACAD_REACTORS
330
444
102
}
330
444
100
AcDbXrecord
280
     1
290
     1
  0
XRECORD
  5
712
102
{ACAD_REACTORS
330
446
102
}
330
446
100
AcDbXrecord
280
     1
290
     1
  0
XRECORD
  5
717
102
{ACAD_REACTORS
330
716
102
}
330
716
100
AcDbXrecord
280
     1
 70
     1
  0
XRECORD
  5
719
102
{ACAD_REACTORS
330
716
102
}
330
716
100
AcDbXrecord
280
     1
340
14
  0
XRECORD
  5
71A
102
{ACAD_REACTORS
330
716
102
}
330
716
100
AcDbXrecord
280
     1
340
14
  0
XRECORD
  5
718
102
{ACAD_REACTORS
330
716
102
}
330
716
100
AcDbXrecord
280
     1
340
14
  0
LAYOUT
  5
1E
102
{ACAD_XDICTIONARY
360
71B
102
}
102
{ACAD_REACTORS
330
1A
102
}
330
1A
100
AcDbPlotSettings
  1

  2

  4

  6

 40
0.0
 41
0.0
 42
0.0
 43
0.0
 44
0.0
 45
0.0
 46
0.0
 47
0.0
 48
0.0
 49
0.0
140
0.0
141
0.0
142
1.0
143
1.0
 70
   688
 72
     0
 73
     0
 74
     5
  7

 75
    16
147
1.0
148
0.0
149
0.0
100
AcDbLayout
  1
Layout1
 70
     1
 71
     1
 10
0.0
 20
0.0
 11
420.0
 21
297.0
 12
0.0
 22
0.0
 32
0.0
 14
1.000000000000000E+20
 24
1.000000000000000E+20
 34
1.000000000000000E+20
 15
-1.000000000000000E+20
 25
-1.000000000000000E+20
 35
-1.000000000000000E+20
146
0.0
 13
0.0
 23
0.0
 33
0.0
 16
1.0
 26
0.0
 36
0.0
 17
0.0
 27
1.0
 37
0.0
 76
     0
330
1B
  0
LAYOUT
  5
26
102
{ACAD_XDICTIONARY
360
71F
102
}
102
{ACAD_REACTORS
330
1A
102
}
330
1A
100
AcDbPlotSettings
  1

  2

  4

  6

 40
0.0
 41
0.0
 42
0.0
 43
0.0
 44
0.0
 45
0.0
 46
0.0
 47
0.0
 48
0.0
 49
0.0
140
0.0
141
0.0
142
1.0
143
1.0
 70
   688
 72
     0
 73
     0
 74
     5
  7

 75
    16
147
1.0
148
0.0
149
0.0
100
AcDbLayout
  1
Layout2
 70
     1
 71
     2
 10
0.0
 20
0.0
 11
12.0
 21
9.0
 12
0.0
 22
0.0
 32
0.0
 14
0.0
 24
0.0
 34
0.0
 15
0.0
 25
0.0
 35
0.0
146
0.0
 13
0.0
 23
0.0
 33
0.0
 16
1.0
 26
0.0
 36
0.0
 17
0.0
 27
1.0
 37
0.0
 76
     0
330
23
  0
LAYOUT
  5
22
102
{ACAD_XDICTIONARY
360
71D
102
}
102
{ACAD_REACTORS
330
1A
102
}
330
1A
100
AcDbPlotSettings
  1

  2

  4

  6

 40
0.0
 41
0.0
 42
0.0
 43
0.0
 44
0.0
 45
0.0
 46
0.0
 47
0.0
 48
0.0
 49
0.0
140
0.0
141
0.0
142
1.0
143
1.0
 70
  1712
 72
     0
 73
     0
 74
     0
  7

 75
     0
147
1.0
148
0.0
149
0.0
100
AcDbLayout
  1
Model
 70
     1
 71
     0
 10
0.0
 20
0.0
 11
12.0
 21
9.0
 12
0.0
 22
0.0
 32
0.0
 14
0.0
 24
0.0
 34
0.0
 15
0.0
 25
0.0
 35
0.0
146
0.0
 13
0.0
 23
0.0
 33
0.0
 16
1.0
 26
0.0
 36
0.0
 17
0.0
 27
1.0
 37
0.0
 76
     0
330
1F
331
269
  0
MATERIAL
  5
26C
102
{ACAD_XDICTIONARY
360
729
102
}
102
{ACAD_REACTORS
330
BD
102
}
330
BD
100
AcDbMaterial
  1
ByBlock
 73
     1
 78
     1
172
     1
176
     1
270
     1
274
     1
  0
MATERIAL
  5
26B
102
{ACAD_XDICTIONARY
360
727
102
}
102
{ACAD_REACTORS
330
BD
102
}
330
BD
100
AcDbMaterial
  1
ByLayer
 73
     1
 78
     1
172
     1
176
     1
270
     1
274
     1
  0
MATERIAL
  5
26D
102
{ACAD_XDICTIONARY
360
72B
102
}
102
{ACAD_REACTORS
330
BD
102
}
330
BD
100
AcDbMaterial
  1
Global
 73
     1
 78
     1
172
     1
176
     1
270
     1
274
     1
  0
MLEADERSTYLE
  5
2C5
102
{ACAD_REACTORS
330
2C4
102
}
330
2C4
100
AcDbMLeaderStyle
170
     2
171
     1
172
     0
 90
        2
 40
0.0
 41
0.0
173
     1
 91
-1056964608
340
14
 92
       -2
290
     1
 42
2.0
291
     1
 43
0.36
  3
Standard
 44
4.0
300

342
11
174
     1
178
     6
175
     1
176
     0
 93
-1056964608
 45
4.0
292
     0
297
     0
 46
4.0
 94
-1056964608
 47
1.0
 49
1.0
140
1.0
293
     1
141
0.0
294
     1
177
     0
142
1.0
295
     0
296
     0
143
0.125
1001
ACAD_MLEADERVER
1070
     2
  0
MLINESTYLE
  5
18
102
{ACAD_REACTORS
330
17
102
}
330
17
100
AcDbMlineStyle
  2
STANDARD
 70
     0
  3

 62
   256
 51
90.0
 52
90.0
 71
     2
 49
0.5
 62
   256
  6
BYLAYER
 49
-0.5
 62
   256
  6
BYLAYER
  0
ACDBPLACEHOLDER
  5
F
102
{ACAD_REACTORS
330
E
102
}
330
E
  0
SCALE
  5
2A3
102
{ACAD_REACTORS
330
2A2
102
}
330
2A2
100
AcDbScale
 70
     0
300
1:1
140
1.0
141
1.0
290
     1
  0
SCALE
  5
2A4
102
{ACAD_REACTORS
330
2A2
102
}
330
2A2
100
AcDbScale
 70
     0
300
1:2
140
1.0
141
2.0
290
     0
  0
SCALE
  5
2A5
102
{ACAD_REACTORS
330
2A2
102
}
330
2A2
100
AcDbScale
 70
     0
300
1:4
140
1.0
141
4.0
290
     0
  0
SCALE
  5
2A6
102
{ACAD_REACTORS
330
2A2
102
}
330
2A2
100
AcDbScale
 70
     0
300
1:5
140
1.0
141
5.0
290
     0
  0
SCALE
  5
2A7
102
{ACAD_REACTORS
330
2A2
102
}
330
2A2
100
AcDbScale
 70
     0
300
1:8
140
1.0
141
8.0
290
     0
  0
SCALE
  5
2A8
102
{ACAD_REACTORS
330
2A2
102
}
330
2A2
100
AcDbScale
 70
     0
300
1:10
140
1.0
141
10.0
290
     0
  0
SCALE
  5
2A9
102
{ACAD_REACTORS
330
2A2
102
}
330
2A2
100
AcDbScale
 70
     0
300
1:16
140
1.0
141
16.0
290
     0
  0
SCALE
  5
2AA
102
{ACAD_REACTORS
330
2A2
102
}
330
2A2
100
AcDbScale
 70
     0
300
1:20
140
1.0
141
20.0
290
     0
  0
SCALE
  5
2AB
102
{ACAD_REACTORS
330
2A2
102
}
330
2A2
100
AcDbScale
 70
     0
300
1:30
140
1.0
141
30.0
290
     0
  0
SCALE
  5
2AC
102
{ACAD_REACTORS
330
2A2
102
}
330
2A2
100
AcDbScale
 70
     0
300
1:40
140
1.0
141
40.0
290
     0
  0
SCALE
  5
2AD
102
{ACAD_REACTORS
330
2A2
102
}
330
2A2
100
AcDbScale
 70
     0
300
1:50
140
1.0
141
50.0
290
     0
  0
SCALE
  5
2AE
102
{ACAD_REACTORS
330
2A2
102
}
330
2A2
100
AcDbScale
 70
     0
300
1:100
140
1.0
141
100.0
290
     0
  0
SCALE
  5
2AF
102
{ACAD_REACTORS
330
2A2
102
}
330
2A2
100
AcDbScale
 70
     0
300
2:1
140
2.0
141
1.0
290
     0
  0
SCALE
  5
2B0
102
{ACAD_REACTORS
330
2A2
102
}
330
2A2
100
AcDbScale
 70
     0
300
4:1
140
4.0
141
1.0
290
     0
  0
SCALE
  5
2B1
102
{ACAD_REACTORS
330
2A2
102
}
330
2A2
100
AcDbScale
 70
     0
300
8:1
140
8.0
141
1.0
290
     0
  0
SCALE
  5
2B2
102
{ACAD_REACTORS
330
2A2
102
}
330
2A2
100
AcDbScale
 70
     0
300
10:1
140
10.0
141
1.0
290
     0
  0
SCALE
  5
2B3
102
{ACAD_REACTORS
330
2A2
102
}
330
2A2
100
AcDbScale
 70
     0
300
100:1
140
100.0
141
1.0
290
     0
  0
SCALE
  5
2B4
102
{ACAD_REACTORS
330
2A2
102
}
330
2A2
100
AcDbScale
 70
     0
300
1/128" = 1'-0"
140
0.0078125
141
12.0
290
     0
  0
SCALE
  5
2B5
102
{ACAD_REACTORS
330
2A2
102
}
330
2A2
100
AcDbScale
 70
     0
300
1/64" = 1'-0"
140
0.015625
141
12.0
290
     0
  0
SCALE
  5
2B6
102
{ACAD_REACTORS
330
2A2
102
}
330
2A2
100
AcDbScale
 70
     0
300
1/32" = 1'-0"
140
0.03125
141
12.0
290
     0
  0
SCALE
  5
2B7
102
{ACAD_REACTORS
330
2A2
102
}
330
2A2
100
AcDbScale
 70
     0
300
1/16" = 1'-0"
140
0.0625
141
12.0
290
     0
  0
SCALE
  5
2B8
102
{ACAD_REACTORS
330
2A2
102
}
330
2A2
100
AcDbScale
 70
     0
300
3/32" = 1'-0"
140
0.09375
141
12.0
290
     0
  0
SCALE
  5
2B9
102
{ACAD_REACTORS
330
2A2
102
}
330
2A2
100
AcDbScale
 70
     0
300
1/8" = 1'-0"
140
0.125
141
12.0
290
     0
  0
SCALE
  5
2BA
102
{ACAD_REACTORS
330
2A2
102
}
330
2A2
100
AcDbScale
 70
     0
300
3/16" = 1'-0"
140
0.1875
141
12.0
290
     0
  0
SCALE
  5
2BB
102
{ACAD_REACTORS
330
2A2
102
}
330
2A2
100
AcDbScale
 70
     0
300
1/4" = 1'-0"
140
0.25
141
12.0
290
     0
  0
SCALE
  5
2BC
102
{ACAD_REACTORS
330
2A2
102
}
330
2A2
100
AcDbScale
 70
     0
300
3/8" = 1'-0"
140
0.375
141
12.0
290
     0
  0
SCALE
  5
2BD
102
{ACAD_REACTORS
330
2A2
102
}
330
2A2
100
AcDbScale
 70
     0
300
1/2" = 1'-0"
140
0.5
141
12.0
290
     0
  0
SCALE
  5
2BE
102
{ACAD_REACTORS
330
2A2
102
}
330
2A2
100
AcDbScale
 70
     0
300
3/4" = 1'-0"
140
0.75
141
12.0
290
     0
  0
SCALE
  5
2BF
102
{ACAD_REACTORS
330
2A2
102
}
330
2A2
100
AcDbScale
 70
     0
300
1" = 1'-0"
140
1.0
141
12.0
290
     0
  0
SCALE
  5
2C0
102
{ACAD_REACTORS
330
2A2
102
}
330
2A2
100
AcDbScale
 70
     0
300
1-1/2" = 1'-0"
140
1.5
141
12.0
290
     0
  0
SCALE
  5
2C1
102
{ACAD_REACTORS
330
2A2
102
}
330
2A2
100
AcDbScale
 70
     0
300
3" = 1'-0"
140
3.0
141
12.0
290
     0
  0
SCALE
  5
2C2
102
{ACAD_REACTORS
330
2A2
102
}
330
2A2
100
AcDbScale
 70
     0
300
6" = 1'-0"
140
6.0
141
12.0
290
     0
  0
SCALE
  5
2C3
102
{ACAD_REACTORS
330
2A2
102
}
330
2A2
100
AcDbScale
 70
     0
300
1'-0" = 1'-0"
140
12.0
141
12.0
290
     0
  0
TABLESTYLE
  5
11B
102
{ACAD_XDICTIONARY
360
2E4
102
}
102
{ACAD_REACTORS
330
11A
102
}
330
11A
100
AcDbTableStyle
  3
Standard
 70
     0
 71
     0
 40
1.5
 41
1.5
280
     0
281
     0
  7
STANDARD
140
4.5
170
     2
 62
     0
 63
     7
283
     0
274
    -2
284
     1
 64
     0
275
    -2
285
     1
 65
     0
276
    -2
286
     1
 66
     0
277
    -2
287
     1
 67
     0
278
    -2
288
     1
 68
     0
279
    -2
289
     1
 69
     0
  7
STANDARD
140
6.0
170
     5
 62
     0
 63
     7
283
     0
274
    -2
284
     1
 64
     0
275
    -2
285
     1
 65
     0
276
    -2
286
     1
 66
     0
277
    -2
287
     1
 67
     0
278
    -2
288
     1
 68
     0
279
    -2
289
     1
 69
     0
  7
STANDARD
140
4.5
170
     5
 62
     0
 63
     7
283
     0
274
    -2
284
     1
 64
     0
275
    -2
285
     1
 65
     0
276
    -2
286
     1
 66
     0
277
    -2
287
     1
 67
     0
278
    -2
288
     1
 68
     0
279
    -2
289
     1
 69
     0
  0
VISUALSTYLE
  5
274
102
{ACAD_REACTORS
330
26E
102
}
330
26E
100
AcDbVisualStyle
  2
2dWireframe
 70
     4
 71
     0
 72
     2
 73
     0
 90
        0
 40
-0.6
 41
-30.0
 62
     5
 63
     7
 74
     1
 91
        4
 64
     7
 65
   257
 75
     1
175
     1
 42
1.0
 92
        0
 66
   257
 43
1.0
 76
     1
 77
     6
 78
     2
 67
     7
 79
     5
170
     0
171
     0
290
     0
174
     0
 93
        1
 44
0.0
173
     0
291
     0
 45
0.0
1001
ACAD
1000
AcDbSavedByObjectVersion
1070
     0
  0
VISUALSTYLE
  5
276
102
{ACAD_REACTORS
330
26E
102
}
330
26E
100
AcDbVisualStyle
  2
3D Hidden
 70
     6
 71
     1
 72
     2
 73
     2
 90
        0
 40
-0.6
 41
-30.0
 62
     5
 63
     7
 74
     2
 91
        2
 64
     7
 65
   257
 75
     2
175
     1
 42
40.0
 92
        0
 66
   257
 43
1.0
 76
     1
 77
     6
 78
     2
 67
     7
 79
     3
170
     0
171
     0
290
     0
174
     0
 93
        1
 44
0.0
173
     0
291
     0
 45
0.0
1001
ACAD
1000
AcDbSavedByObjectVersion
1070
     0
  0
VISUALSTYLE
  5
275
102
{ACAD_REACTORS
330
26E
102
}
330
26E
100
AcDbVisualStyle
  2
3dWireframe
 70
     5
 71
     0
 72
     2
 73
     0
 90
        0
 40
-0.6
 41
-30.0
 62
     5
 63
     7
 74
     1
 91
        4
 64
     7
 65
   257
 75
     1
175
     1
 42
1.0
 92
        0
 66
   257
 43
1.0
 76
     1
 77
     6
 78
     2
 67
     7
 79
     5
170
     0
171
     0
290
     0
174
     0
 93
        1
 44
0.0
173
     0
291
     0
 45
0.0
1001
ACAD
1000
AcDbSavedByObjectVersion
1070
     0
  0
VISUALSTYLE
  5
273
102
{ACAD_REACTORS
330
26E
102
}
330
26E
100
AcDbVisualStyle
  2
Basic
 70
     7
 71
     1
 72
     0
 73
     1
 90
        0
 40
-0.6
 41
-30.0
 62
     5
 63
     7
 74
     0
 91
        4
 64
     7
 65
   257
 75
     1
175
     1
 42
1.0
 92
        8
 66
     7
 43
1.0
 76
     1
 77
     6
 78
     2
 67
     7
 79
     5
170
     0
171
     0
290
     0
174
     0
 93
        1
 44
0.0
173
     0
291
     1
 45
0.0
1001
ACAD
1000
AcDbSavedByObjectVersion
1070
     0
  0
VISUALSTYLE
  5
27A
102
{ACAD_REACTORS
330
26E
102
}
330
26E
100
AcDbVisualStyle
  2
Brighten
 70
    12
 71
     2
 72
     2
 73
     0
 90
        0
 40
-0.6
 41
-30.0
 62
     5
 63
     7
 74
     1
 91
        4
 64
     7
 65
   257
 75
     1
175
     1
 42
1.0
 92
        8
 66
     7
 43
1.0
 76
     1
 77
     6
 78
     2
 67
     7
 79
     5
170
     0
171
     0
290
     0
174
     0
 93
        1
 44
50.0
173
     0
291
     1
 45
0.0
1001
ACAD
1000
AcDbSavedByObjectVersion
1070
     0
  0
VISUALSTYLE
  5
27E
102
{ACAD_REACTORS
330
26E
102
}
330
26E
100
AcDbVisualStyle
  2
ColorChange
 70
    16
 71
     2
 72
     2
 73
     3
 90
        0
 40
-0.6
 41
-30.0
 62
     5
 63
     8
 74
     1
 91
        4
 64
     7
 65
   257
 75
     1
175
     1
 42
1.0
 92
        8
 66
     8
 43
1.0
 76
     1
 77
     6
 78
     2
 67
     7
 79
     5
170
     0
171
     0
290
     0
174
     0
 93
        1
 44
0.0
173
     0
291
     1
 45
0.0
1001
ACAD
1000
AcDbSavedByObjectVersion
1070
     0
  0
VISUALSTYLE
  5
277
102
{ACAD_REACTORS
330
26E
102
}
330
26E
100
AcDbVisualStyle
  2
Conceptual
 70
     9
 71
     3
 72
     2
 73
     0
 90
        0
 40
-0.6
 41
-30.0
 62
     5
 63
     7
 74
     2
 91
        2
 64
     7
 65
   257
 75
     1
175
     1
 42
40.0
 92
        8
 66
     7
 43
1.0
 76
     1
 77
     6
 78
     2
 67
     7
 79
     3
170
     0
171
     0
290
     0
174
     0
 93
        1
 44
0.0
173
     0
291
     0
 45
0.0
1001
ACAD
1000
AcDbSavedByObjectVersion
1070
     0
  0
VISUALSTYLE
  5
279
102
{ACAD_REACTORS
330
26E
102
}
330
26E
100
AcDbVisualStyle
  2
Dim
 70
    11
 71
     2
 72
     2
 73
     0
 90
        0
 40
-0.6
 41
-30.0
 62
     5
 63
     7
 74
     1
 91
        4
 64
     7
 65
   257
 75
     1
175
     1
 42
1.0
 92
        8
 66
     7
 43
1.0
 76
     1
 77
     6
 78
     2
 67
     7
 79
     5
170
     0
171
     0
290
     0
174
     0
 93
        1
 44
-50.0
173
     0
291
     1
 45
0.0
1001
ACAD
1000
AcDbSavedByObjectVersion
1070
     0
  0
VISUALSTYLE
  5
27D
102
{ACAD_REACTORS
330
26E
102
}
330
26E
100
AcDbVisualStyle
  2
Facepattern
 70
    15
 71
     2
 72
     2
 73
     0
 90
        0
 40
-0.6
 41
-30.0
 62
     5
 63
     7
 74
     1
 91
        4
 64
     7
 65
   257
 75
     1
175
     1
 42
1.0
 92
        8
 66
     7
 43
1.0
 76
     1
 77
     6
 78
     2
 67
     7
 79
     5
170
     0
171
     0
290
     0
174
     0
 93
        1
 44
0.0
173
     0
291
     1
 45
0.0
1001
ACAD
1000
AcDbSavedByObjectVersion
1070
     0
  0
VISUALSTYLE
  5
26F
102
{ACAD_REACTORS
330
26E
102
}
330
26E
100
AcDbVisualStyle
  2
Flat
 70
     0
 71
     2
 72
     1
 73
     1
 90
        2
 40
-0.6
 41
30.0
 62
     5
 63
     7
 74
     0
 91
        4
 64
     7
 65
   257
 75
     1
175
     1
 42
1.0
 92
        8
 66
     7
 43
1.0
 76
     1
 77
     6
 78
     2
 67
     7
 79
     5
170
     0
171
     0
290
     0
174
     0
 93
       13
 44
0.0
173
     0
291
     1
 45
0.0
1001
ACAD
1000
AcDbSavedByObjectVersion
1070
     0
  0
VISUALSTYLE
  5
270
102
{ACAD_REACTORS
330
26E
102
}
330
26E
100
AcDbVisualStyle
  2
FlatWithEdges
 70
     1
 71
     2
 72
     1
 73
     1
 90
        2
 40
-0.6
 41
30.0
 62
     5
 63
     7
 74
     1
 91
        4
 64
     7
 65
   257
 75
     1
175
     1
 42
1.0
 92
        0
 66
   257
 43
1.0
 76
     1
 77
     6
 78
     2
 67
     7
 79
     5
170
     0
171
     0
290
     0
174
     0
 93
       13
 44
0.0
173
     0
291
     1
 45
0.0
1001
ACAD
1000
AcDbSavedByObjectVersion
1070
     0
  0
VISUALSTYLE
  5
271
102
{ACAD_REACTORS
330
26E
102
}
330
26E
100
AcDbVisualStyle
  2
Gouraud
 70
     2
 71
     2
 72
     2
 73
     1
 90
        2
 40
-0.6
 41
30.0
 62
     5
 63
     7
 74
     0
 91
        4
 64
     7
 65
   257
 75
     1
175
     1
 42
1.0
 92
        0
 66
     7
 43
1.0
 76
     1
 77
     6
 78
     2
 67
     7
 79
     5
170
     0
171
     0
290
     0
174
     0
 93
       13
 44
0.0
173
     0
291
     1
 45
0.0
1001
ACAD
1000
AcDbSavedByObjectVersion
1070
     0
  0
VISUALSTYLE
  5
272
102
{ACAD_REACTORS
330
26E
102
}
330
26E
100
AcDbVisualStyle
  2
GouraudWithEdges
 70
     3
 71
     2
 72
     2
 73
     1
 90
        2
 40
-0.6
 41
30.0
 62
     5
 63
     7
 74
     1
 91
        4
 64
     7
 65
   257
 75
     1
175
     1
 42
1.0
 92
        0
 66
   257
 43
1.0
 76
     1
 77
     6
 78
     2
 67
     7
 79
     5
170
     0
171
     0
290
     0
174
     0
 93
       13
 44
0.0
173
     0
291
     1
 45
0.0
1001
ACAD
1000
AcDbSavedByObjectVersion
1070
     0
  0
VISUALSTYLE
  5
27C
102
{ACAD_REACTORS
330
26E
102
}
330
26E
100
AcDbVisualStyle
  2
Linepattern
 70
    14
 71
     2
 72
     2
 73
     0
 90
        0
 40
-0.6
 41
-30.0
 62
     5
 63
     7
 74
     1
 91
        4
 64
     7
 65
   257
 75
     7
175
     7
 42
1.0
 92
        8
 66
     7
 43
1.0
 76
     1
 77
     6
 78
     2
 67
     7
 79
     5
170
     0
171
     0
290
     0
174
     0
 93
        1
 44
0.0
173
     0
291
     1
 45
0.0
1001
ACAD
1000
AcDbSavedByObjectVersion
1070
     0
  0
VISUALSTYLE
  5
278
102
{ACAD_REACTORS
330
26E
102
}
330
26E
100
AcDbVisualStyle
  2
Realistic
 70
     8
 71
     2
 72
     2
 73
     0
 90
        0
 40
-0.6
 41
-30.0
 62
     5
 63
     7
 74
     1
 91
        0
 64
     7
 65
   257
 75
     1
175
     1
 42
1.0
 92
        8
 66
     8
 43
1.0
 76
     1
 77
     6
 78
     2
 67
     7
 79
     5
170
     0
171
     0
290
     0
174
     0
 93
       13
 44
0.0
173
     0
291
     0
 45
0.0
1001
ACAD
1000
AcDbSavedByObjectVersion
1070
     0
  0
VISUALSTYLE
  5
27B
102
{ACAD_REACTORS
330
26E
102
}
330
26E
100
AcDbVisualStyle
  2
Thicken
 70
    13
 71
     2
 72
     2
 73
     0
 90
        0
 40
-0.6
 41
-30.0
 62
     5
 63
     7
 74
     1
 91
        4
 64
     7
 65
   257
 75
     1
175
     1
 42
1.0
 92
       12
 66
     7
 43
1.0
 76
     1
 77
     6
 78
     2
 67
     7
 79
     5
170
     0
171
     0
290
     0
174
     0
 93
        1
 44
0.0
173
     0
291
     1
 45
0.0
1001
ACAD
1000
AcDbSavedByObjectVersion
1070
     0
  0
DICTIONARYVAR
  5
2E9
102
{ACAD_REACTORS
330
94
102
}
330
94
100
DictionaryVariables
280
     0
  1
1:1
  0
DICTIONARYVAR
  5
2E7
102
{ACAD_REACTORS
330
94
102
}
330
94
100
DictionaryVariables
280
     0
  1
STANDARD
  0
DICTIONARYVAR
  5
138
102
{ACAD_REACTORS
330
94
102
}
330
94
100
DictionaryVariables
280
     0
  1
STANDARD
  0
DICTIONARYVAR
  5
96
102
{ACAD_REACTORS
330
94
102
}
330
94
100
DictionaryVariables
280
     0
  1
2
  0
DICTIONARYVAR
  5
95
102
{ACAD_REACTORS
330
94
102
}
330
94
100
DictionaryVariables
280
     0
  1
0
  0
DICTIONARYVAR
  5
346
102
{ACAD_REACTORS
330
94
102
}
330
94
100
DictionaryVariables
280
     0
  1
1
  0
DICTIONARYVAR
  5
347
102
{ACAD_REACTORS
330
94
102
}
330
94
100
DictionaryVariables
280
     0
  1
15
  0
DICTIONARYVAR
  5
2EA
102
{ACAD_REACTORS
330
94
102
}
330
94
100
DictionaryVariables
280
     0
  1
0
  0
DICTIONARYVAR
  5
2E8
102
{ACAD_REACTORS
330
94
102
}
330
94
100
DictionaryVariables
280
     0
  1
0
  0
DICTIONARYVAR
  5
713
102
{ACAD_REACTORS
330
94
102
}
330
94
100
DictionaryVariables
280
     0
  1
127
  0
DICTIONARY
  5
36B
102
{ACAD_REACTORS
330
5B
102
}
330
5B
100
AcDbDictionary
281
     1
  0
DICTIONARY
  5
61
102
{ACAD_REACTORS
330
5B
102
}
330
5B
100
AcDbDictionary
281
     1
  0
XRECORD
  5
123
102
{ACAD_REACTORS
330
5B
102
}
330
5B
100
AcDbXrecord
280
     1
 90
-1023410169
  0
DICTIONARY
  5
71B
330
1E
100
AcDbDictionary
280
     1
281
     1
  3
ACAD_XREC_ROUNDTRIP
360
71C
  0
DICTIONARY
  5
71F
330
26
100
AcDbDictionary
280
     1
281
     1
  3
ACAD_XREC_ROUNDTRIP
360
720
  0
DICTIONARY
  5
71D
330
22
100
AcDbDictionary
280
     1
281
     1
  3
ACAD_XREC_ROUNDTRIP
360
71E
  0
DICTIONARY
  5
729
330
26C
100
AcDbDictionary
280
     1
281
     1
  3
ACAD_XREC_ROUNDTRIP
360
72A
  0
DICTIONARY
  5
727
330
26B
100
AcDbDictionary
280
     1
281
     1
  3
ACAD_XREC_ROUNDTRIP
360
728
  0
DICTIONARY
  5
72B
330
26D
100
AcDbDictionary
280
     1
281
     1
  3
ACAD_XREC_ROUNDTRIP
360
72C
  0
DICTIONARY
  5
2E4
330
11B
100
AcDbDictionary
280
     1
281
     1
  3
ACAD_ROUNDTRIP_2008_TABLESTYLE_CELLSTYLEMAP
360
714
  3
ACAD_XREC_ROUNDTRIP
360
726
  0
XRECORD
  5
71C
102
{ACAD_REACTORS
330
71B
102
}
330
71B
100
AcDbXrecord
280
     1
102
SHADEPLOT
 70
     0
102
SHADEPLOTRESLEVEL
 70
     2
102
SHADEPLOTCUSTOMDPI
 70
   300
  0
XRECORD
  5
720
102
{ACAD_REACTORS
330
71F
102
}
330
71F
100
AcDbXrecord
280
     1
102
SHADEPLOT
 70
     0
102
SHADEPLOTRESLEVEL
 70
     2
102
SHADEPLOTCUSTOMDPI
 70
   300
  0
XRECORD
  5
71E
102
{ACAD_REACTORS
330
71D
102
}
330
71D
100
AcDbXrecord
280
     1
102
SHADEPLOT
 70
     0
102
SHADEPLOTRESLEVEL
 70
     2
102
SHADEPLOTCUSTOMDPI
 70
   300
  0
XRECORD
  5
72A
102
{ACAD_REACTORS
330
729
102
}
330
729
100
AcDbXrecord
280
     1
102
MATERIAL
148
0.0
149
0.0
149
0.0
 93
        0
 94
       63
282
     0
 72
     1
 77
     1
171
     1
175
     1
179
     1
273
     0
  0
XRECORD
  5
728
102
{ACAD_REACTORS
330
727
102
}
330
727
100
AcDbXrecord
280
     1
102
MATERIAL
148
0.0
149
0.0
149
0.0
 93
        0
 94
       63
282
     0
 72
     1
 77
     1
171
     1
175
     1
179
     1
273
     0
  0
XRECORD
  5
72C
102
{ACAD_REACTORS
330
72B
102
}
330
72B
100
AcDbXrecord
280
     1
102
MATERIAL
148
0.0
149
0.0
149
0.0
 93
        0
 94
       63
282
     0
 72
     1
 77
     1
171
     1
175
     1
179
     1
273
     0
  0
CELLSTYLEMAP
  5
714
102
{ACAD_REACTORS
330
2E4
102
}
330
2E4
100
AcDbCellStyleMap
 90
        3
300
CELLSTYLE
  1
TABLEFORMAT_BEGIN
 90
        5
170
     1
 91
        0
 92
    32768
 62
   257
 93
        1
300
CONTENTFORMAT
  1
CONTENTFORMAT_BEGIN
 90
        0
 91
        0
 92
      512
 93
        0
300

 40
0.0
140
1.0
 94
        5
 62
     0
340
11
144
6.0
309
CONTENTFORMAT_END
171
     1
301
MARGIN
  1
CELLMARGIN_BEGIN
 40
1.5
 40
1.5
 40
1.5
 40
1.5
 40
0.18
 40
0.18
309
CELLMARGIN_END
 94
        6
 95
        1
302
GRIDFORMAT
  1
GRIDFORMAT_BEGIN
 90
        0
 91
        1
 62
     0
 92
       -2
340
0
 93
        0
 40
0.045
309
GRIDFORMAT_END
 95
        2
302
GRIDFORMAT
  1
GRIDFORMAT_BEGIN
 90
        0
 91
        1
 62
     0
 92
       -2
340
0
 93
        0
 40
0.045
309
GRIDFORMAT_END
 95
        4
302
GRIDFORMAT
  1
GRIDFORMAT_BEGIN
 90
        0
 91
        1
 62
     0
 92
       -2
340
0
 93
        0
 40
0.045
309
GRIDFORMAT_END
 95
        8
302
GRIDFORMAT
  1
GRIDFORMAT_BEGIN
 90
        0
 91
        1
 62
     0
 92
       -2
340
0
 93
        0
 40
0.045
309
GRIDFORMAT_END
 95
       16
302
GRIDFORMAT
  1
GRIDFORMAT_BEGIN
 90
        0
 91
        1
 62
     0
 92
       -2
340
0
 93
        0
 40
0.045
309
GRIDFORMAT_END
 95
       32
302
GRIDFORMAT
  1
GRIDFORMAT_BEGIN
 90
        0
 91
        1
 62
     0
 92
       -2
340
0
 93
        0
 40
0.045
309
GRIDFORMAT_END
309
TABLEFORMAT_END
  1
CELLSTYLE_BEGIN
 90
        1
 91
        1
300
_TITLE
309
CELLSTYLE_END
300
CELLSTYLE
  1
TABLEFORMAT_BEGIN
 90
        5
170
     1
 91
        0
 92
        0
 62
   257
 93
        1
300
CONTENTFORMAT
  1
CONTENTFORMAT_BEGIN
 90
        0
 91
        0
 92
      512
 93
        0
300

 40
0.0
140
1.0
 94
        5
 62
     0
340
11
144
4.5
309
CONTENTFORMAT_END
171
     1
301
MARGIN
  1
CELLMARGIN_BEGIN
 40
1.5
 40
1.5
 40
1.5
 40
1.5
 40
0.18
 40
0.18
309
CELLMARGIN_END
 94
        6
 95
        1
302
GRIDFORMAT
  1
GRIDFORMAT_BEGIN
 90
        0
 91
        1
 62
     0
 92
       -2
340
0
 93
        0
 40
0.045
309
GRIDFORMAT_END
 95
        2
302
GRIDFORMAT
  1
GRIDFORMAT_BEGIN
 90
        0
 91
        1
 62
     0
 92
       -2
340
0
 93
        0
 40
0.045
309
GRIDFORMAT_END
 95
        4
302
GRIDFORMAT
  1
GRIDFORMAT_BEGIN
 90
        0
 91
        1
 62
     0
 92
       -2
340
0
 93
        0
 40
0.045
309
GRIDFORMAT_END
 95
        8
302
GRIDFORMAT
  1
GRIDFORMAT_BEGIN
 90
        0
 91
        1
 62
     0
 92
       -2
340
0
 93
        0
 40
0.045
309
GRIDFORMAT_END
 95
       16
302
GRIDFORMAT
  1
GRIDFORMAT_BEGIN
 90
        0
 91
        1
 62
     0
 92
       -2
340
0
 93
        0
 40
0.045
309
GRIDFORMAT_END
 95
       32
302
GRIDFORMAT
  1
GRIDFORMAT_BEGIN
 90
        0
 91
        1
 62
     0
 92
       -2
340
0
 93
        0
 40
0.045
309
GRIDFORMAT_END
309
TABLEFORMAT_END
  1
CELLSTYLE_BEGIN
 90
        2
 91
        1
300
_HEADER
309
CELLSTYLE_END
300
CELLSTYLE
  1
TABLEFORMAT_BEGIN
 90
        5
170
     1
 91
        0
 92
        0
 62
   257
 93
        1
300
CONTENTFORMAT
  1
CONTENTFORMAT_BEGIN
 90
        0
 91
        0
 92
      512
 93
        0
300

 40
0.0
140
1.0
 94
        2
 62
     0
340
11
144
4.5
309
CONTENTFORMAT_END
171
     1
301
MARGIN
  1
CELLMARGIN_BEGIN
 40
1.5
 40
1.5
 40
1.5
 40
1.5
 40
0.18
 40
0.18
309
CELLMARGIN_END
 94
        6
 95
        1
302
GRIDFORMAT
  1
GRIDFORMAT_BEGIN
 90
        0
 91
        1
 62
     0
 92
       -2
340
0
 93
        0
 40
0.045
309
GRIDFORMAT_END
 95
        2
302
GRIDFORMAT
  1
GRIDFORMAT_BEGIN
 90
        0
 91
        1
 62
     0
 92
       -2
340
0
 93
        0
 40
0.045
309
GRIDFORMAT_END
 95
        4
302
GRIDFORMAT
  1
GRIDFORMAT_BEGIN
 90
        0
 91
        1
 62
     0
 92
       -2
340
0
 93
        0
 40
0.045
309
GRIDFORMAT_END
 95
        8
302
GRIDFORMAT
  1
GRIDFORMAT_BEGIN
 90
        0
 91
        1
 62
     0
 92
       -2
340
0
 93
        0
 40
0.045
309
GRIDFORMAT_END
 95
       16
302
GRIDFORMAT
  1
GRIDFORMAT_BEGIN
 90
        0
 91
        1
 62
     0
 92
       -2
340
0
 93
        0
 40
0.045
309
GRIDFORMAT_END
 95
       32
302
GRIDFORMAT
  1
GRIDFORMAT_BEGIN
 90
        0
 91
        1
 62
     0
 92
       -2
340
0
 93
        0
 40
0.045
309
GRIDFORMAT_END
309
TABLEFORMAT_END
  1
CELLSTYLE_BEGIN
 90
        3
 91
        2
300
_DATA
309
CELLSTYLE_END
  0
XRECORD
  5
726
102
{ACAD_REACTORS
330
2E4
102
}
330
2E4
100
AcDbXrecord
280
     1
102
ACAD_ROUNDTRIP_PRE2007_TABLESTYLE
 90
      512
 91
        0
  1

 92
      512
 93
        0
  2

 94
      512
 95
        0
  3

  0
ENDSEC
  0
EOF
