  0
SECTION
  2
HEADER
  9
$ACADVER
  1
AC1015
  9
$ACADMAINTVER
 70
    20
  9
$DWGCODEPAGE
  3
ANSI_1252
  9
$INSBASE
 10
0.0
 20
0.0
 30
0.0
  9
$EXTMIN
 10
-50.03778194573214
 20
-0.0326428456457961
 30
-0.0000000349181948
  9
$EXTMAX
 10
1188.205334165017
 20
511.4523486115163
 30
0.0000000814935747
  9
$LIMMIN
 10
0.0
 20
0.0
  9
$LIMMAX
 10
420.0
 20
297.0
  9
$ORTHOMODE
 70
     1
  9
$REGENMODE
 70
     1
  9
$FILLMODE
 70
     1
  9
$QTEXTMODE
 70
     0
  9
$MIRRTEXT
 70
     1
  9
$LTSCALE
 40
1.0
  9
$ATTMODE
 70
     1
  9
$TEXTSIZE
 40
2.5
  9
$TRACEWID
 40
1.0
  9
$TEXTSTYLE
  7
STANDARD
  9
$CLAYER
  8
0
  9
$CELTYPE
  6
ByLayer
  9
$CECOLOR
 62
   256
  9
$CELTSCALE
 40
1.0
  9
$DISPSILH
 70
     0
  9
$DIMSCALE
 40
1.0
  9
$DIMASZ
 40
3.5
  9
$DIMEXO
 40
1.0
  9
$DIMDLI
 40
10.0
  9
$DIMRND
 40
0.0
  9
$DIMDLE
 40
0.0
  9
$DIMEXE
 40
1.0
  9
$DIMTP
 40
0.1
  9
$DIMTM
 40
0.1
  9
$DIMTXT
 40
3.5
  9
$DIMCEN
 40
0.0
  9
$DIMTSZ
 40
0.0
  9
$DIMTOL
 70
     0
  9
$DIMLIM
 70
     0
  9
$DIMTIH
 70
     0
  9
$DIMTOH
 70
     0
  9
$DIMSE1
 70
     0
  9
$DIMSE2
 70
     0
  9
$DIMTAD
 70
     1
  9
$DIMZIN
 70
     8
  9
$DIMBLK
  1

  9
$DIMASO
 70
     1
  9
$DIMSHO
 70
     1
  9
$DIMPOST
  1

  9
$DIMAPOST
  1
"
  9
$DIMALT
 70
     0
  9
$DIMALTD
 70
     2
  9
$DIMALTF
 40
0.0393701
  9
$DIMLFAC
 40
1.0
  9
$DIMTOFL
 70
     1
  9
$DIMTVP
 40
0.0
  9
$DIMTIX
 70
     0
  9
$DIMSOXD
 70
     0
  9
$DIMSAH
 70
     0
  9
$DIMBLK1
  1

  9
$DIMBLK2
  1

  9
$DIMSTYLE
  2
AM_ISO
  9
$DIMCLRD
 70
   256
  9
$DIMCLRE
 70
   256
  9
$DIMCLRT
 70
   140
  9
$DIMTFAC
 40
0.71
  9
$DIMGAP
 40
1.5
  9
$DIMJUST
 70
     0
  9
$DIMSD1
 70
     0
  9
$DIMSD2
 70
     0
  9
$DIMTOLJ
 70
     0
  9
$DIMTZIN
 70
     8
  9
$DIMALTZ
 70
     0
  9
$DIMALTTZ
 70
     0
  9
$DIMUPT
 70
     0
  9
$DIMDEC
 70
     2
  9
$DIMTDEC
 70
     3
  9
$DIMALTU
 70
     2
  9
$DIMALTTD
 70
     4
  9
$DIMTXSTY
  7
STANDARD
  9
$DIMAUNIT
 70
     0
  9
$DIMADEC
 70
     0
  9
$DIMALTRND
 40
0.0
  9
$DIMAZIN
 70
     2
  9
$DIMDSEP
 70
    46
  9
$DIMATFIT
 70
     3
  9
$DIMFRAC
 70
     0
  9
$DIMLDRBLK
  1

  9
$DIMLUNIT
 70
     2
  9
$DIMLWD
 70
    -1
  9
$DIMLWE
 70
    -1
  9
$DIMTMOVE
 70
     0
  9
$LUNITS
 70
     2
  9
$LUPREC
 70
     2
  9
$SKETCHINC
 40
1.0
  9
$FILLETRAD
 40
0.0
  9
$AUNITS
 70
     0
  9
$AUPREC
 70
     0
  9
$MENU
  1
.
  9
$ELEVATION
 40
0.0
  9
$PELEVATION
 40
0.0
  9
$THICKNESS
 40
0.0
  9
$LIMCHECK
 70
     0
  9
$CHAMFERA
 40
2.5
  9
$CHAMFERB
 40
2.5
  9
$CHAMFERC
 40
20.0
  9
$CHAMFERD
 40
0.0
  9
$SKPOLY
 70
     0
  9
$TDCREATE
 40
2455097.637665220
  9
$TDUCREATE
 40
2455097.554331887
  9
$TDUPDATE
 40
2455097.707573183
  9
$TDUUPDATE
 40
2455097.624239849
  9
$TDINDWG
 40
0.0246493634
  9
$TDUSRTIMER
 40
0.0246493634
  9
$USRTIMER
 70
     1
  9
$ANGBASE
 50
0.0
  9
$ANGDIR
 70
     0
  9
$PDMODE
 70
     0
  9
$PDSIZE
 40
0.0
  9
$PLINEWID
 40
0.0
  9
$SPLFRAME
 70
     0
  9
$SPLINETYPE
 70
     6
  9
$SPLINESEGS
 70
     8
  9
$HANDSEED
  5
B7A
  9
$SURFTAB1
 70
     6
  9
$SURFTAB2
 70
     6
  9
$SURFTYPE
 70
     6
  9
$SURFU
 70
     6
  9
$SURFV
 70
     6
  9
$UCSBASE
  2

  9
$UCSNAME
  2

  9
$UCSORG
 10
0.0
 20
0.0
 30
0.0
  9
$UCSXDIR
 10
1.0
 20
0.0
 30
0.0
  9
$UCSYDIR
 10
0.0
 20
1.0
 30
0.0
  9
$UCSORTHOREF
  2

  9
$UCSORTHOVIEW
 70
     0
  9
$UCSORGTOP
 10
0.0
 20
0.0
 30
0.0
  9
$UCSORGBOTTOM
 10
0.0
 20
0.0
 30
0.0
  9
$UCSORGLEFT
 10
0.0
 20
0.0
 30
0.0
  9
$UCSORGRIGHT
 10
0.0
 20
0.0
 30
0.0
  9
$UCSORGFRONT
 10
0.0
 20
0.0
 30
0.0
  9
$UCSORGBACK
 10
0.0
 20
0.0
 30
0.0
  9
$PUCSBASE
  2

  9
$PUCSNAME
  2

  9
$PUCSORG
 10
0.0
 20
0.0
 30
0.0
  9
$PUCSXDIR
 10
1.0
 20
0.0
 30
0.0
  9
$PUCSYDIR
 10
0.0
 20
1.0
 30
0.0
  9
$PUCSORTHOREF
  2

  9
$PUCSORTHOVIEW
 70
     0
  9
$PUCSORGTOP
 10
0.0
 20
0.0
 30
0.0
  9
$PUCSORGBOTTOM
 10
0.0
 20
0.0
 30
0.0
  9
$PUCSORGLEFT
 10
0.0
 20
0.0
 30
0.0
  9
$PUCSORGRIGHT
 10
0.0
 20
0.0
 30
0.0
  9
$PUCSORGFRONT
 10
0.0
 20
0.0
 30
0.0
  9
$PUCSORGBACK
 10
0.0
 20
0.0
 30
0.0
  9
$USERI1
 70
     0
  9
$USERI2
 70
     0
  9
$USERI3
 70
     0
  9
$USERI4
 70
     0
  9
$USERI5
 70
     0
  9
$USERR1
 40
0.0
  9
$USERR2
 40
0.0
  9
$USERR3
 40
0.0
  9
$USERR4
 40
0.0
  9
$USERR5
 40
0.0
  9
$WORLDVIEW
 70
     1
  9
$SHADEDGE
 70
     3
  9
$SHADEDIF
 70
    70
  9
$TILEMODE
 70
     1
  9
$MAXACTVP
 70
    64
  9
$PINSBASE
 10
0.0
 20
0.0
 30
0.0
  9
$PLIMCHECK
 70
     0
  9
$PEXTMIN
 10
1.000000000000000E+20
 20
1.000000000000000E+20
 30
1.000000000000000E+20
  9
$PEXTMAX
 10
-1.000000000000000E+20
 20
-1.000000000000000E+20
 30
-1.000000000000000E+20
  9
$PLIMMIN
 10
0.0
 20
0.0
  9
$PLIMMAX
 10
420.0
 20
297.0
  9
$UNITMODE
 70
     0
  9
$VISRETAIN
 70
     1
  9
$PLINEGEN
 70
     0
  9
$PSLTSCALE
 70
     1
  9
$TREEDEPTH
 70
  3020
  9
$CMLSTYLE
  2
Standard
  9
$CMLJUST
 70
     0
  9
$CMLSCALE
 40
20.0
  9
$PROXYGRAPHICS
 70
     1
  9
$MEASUREMENT
 70
     1
  9
$CELWEIGHT
370
    -1
  9
$ENDCAPS
280
     0
  9
$JOINSTYLE
280
     0
  9
$LWDISPLAY
290
     0
  9
$INSUNITS
 70
     4
  9
$HYPERLINKBASE
  1

  9
$STYLESHEET
  1

  9
$XEDIT
290
     1
  9
$CEPSNTYPE
380
     0
  9
$PSTYLEMODE
290
     1
  9
$FINGERPRINTGUID
  2
{69AF5408-6EAD-478C-9A76-96886F16104D}
  9
$VERSIONGUID
  2
{08066935-DCCB-4784-B865-ABC9207AA149}
  9
$EXTNAMES
290
     1
  9
$PSVPSCALE
 40
0.0
  9
$OLESTARTUP
290
     0
  0
ENDSEC
  0
SECTION
  2
CLASSES
  0
CLASS
  1
ACDBDICTIONARYWDFLT
  2
AcDbDictionaryWithDefault
  3
ObjectDBX Classes
 90
        0
280
     0
281
     0
  0
CLASS
  1
ACDBPLACEHOLDER
  2
AcDbPlaceHolder
  3
ObjectDBX Classes
 90
        0
280
     0
281
     0
  0
CLASS
  1
LAYOUT
  2
AcDbLayout
  3
ObjectDBX Classes
 90
        0
280
     0
281
     0
  0
CLASS
  1
ACME_DOCUMENT
  2
AcMeDbDoc
  3
AcMeServices
 90
     1024
280
     0
281
     0
  0
CLASS
  1
AMGSETTINGSOBJ
  2
AmgSettingsObj
  3
"AcadM|Product Description: AutoCAD Mechanical|Company: Autodesk, Inc."
 90
     1024
280
     0
281
     0
  0
CLASS
  1
ACMESCOPE
  2
AcMeScope
  3
AcMeServices
 90
     1024
280
     0
281
     0
  0
CLASS
  1
ACMECOMMANDHISTORY
  2
AcMeCommandHistory
  3
AcMeServices
 90
     1024
280
     0
281
     0
  0
CLASS
  1
ACIMSYSVARMAN
  2
AcImSysVarManager
  3
AcMeServices
 90
     1024
280
     0
281
     0
  0
CLASS
  1
ACIMREALSYSVAR
  2
AcImRealSysVar
  3
AcMeServices
 90
     1024
280
     0
281
     0
  0
CLASS
  1
ACIMINTSYSVAR
  2
AcImIntSysVar
  3
AcMeServices
 90
     1024
280
     0
281
     0
  0
CLASS
  1
ACMEDRAWINGMAN
  2
AcMeDrawingMan
  3
AcMeServices
 90
     1024
280
     0
281
     0
  0
CLASS
  1
ACMEVIEW
  2
AcMeView
  3
AcMeServices
 90
     1024
280
     0
281
     0
  0
CLASS
  1
ACDBENTITYCACHE
  2
AcMeEntityCache
  3
AcMeServices
 90
     1024
280
     0
281
     0
  0
CLASS
  1
GSMANAGER
  2
AcMeGSManager
  3
AcMeServices
 90
     1024
280
     0
281
     0
  0
CLASS
  1
AMDTINTERNALREACTOR
  2
AmdtInternalReactor
  3
AcMeServices
 90
     1024
280
     0
281
     0
  0
CLASS
  1
ACMESTATEMGR
  2
AcMeStateMgr
  3
AcMeServices
 90
     1024
280
     0
281
     0
  0
CLASS
  1
ACGREFMASTER
  2
AcGrefMaster
  3
AcAttribServices
 90
     1024
280
     0
281
     0
  0
CLASS
  1
ACME_DATABASE
  2
AcMeDbDatabase
  3
AcMeServices
 90
     1024
280
     0
281
     0
  0
CLASS
  1
ACRFINSADJUSTERMGR
  2
AcRfInsAdjusterMgr
  3
AcMeServices
 90
     1024
280
     0
281
     0
  0
CLASS
  1
ACGREFACADMASTER
  2
AcGrefacadMaster
  3
AcGrefServices
 90
     1024
280
     0
281
     0
  0
CLASS
  1
AMIMASTER
  2
AmiMaster
  3
AmiServices
 90
     1024
280
     0
281
     0
  0
CLASS
  1
ACMDATADICTIONARY
  2
AcmDataDictionary
  3
"AcmSymBB|Product Description: AutoCAD Mechanical|Company: Autodesk, Inc."
 90
     1024
280
     0
281
     0
  0
CLASS
  1
ACMDATAENTRYBLOCK
  2
AcmDataEntryBlock
  3
AcmSymBB|Product Description: AutoCAD Mechanical|Company: Autodesk, Inc.
 90
    33792
280
     0
281
     0
  0
CLASS
  1
ACIMSTRSYSVAR
  2
AcImStrSysVar
  3
AcMeServices
 90
     1024
280
     0
281
     0
  0
CLASS
  1
ACMSTANDARDISO
  2
AcmStandardISO
  3
"Amdt_StdImp|Product Description: AutoCAD Mechanical|Company: Autodesk, Inc."
 90
    33792
280
     0
281
     0
  0
CLASS
  1
AMGOBJPROPCFG
  2
AmgObjPropCfg
  3
"AmgLay|Product Description: AutoCAD Mechanical|Company: Autodesk, Inc."
 90
     1025
280
     0
281
     0
  0
CLASS
  1
AMDTEDGESTANDARDISO
  2
AmdtEdgeStdISO
  3
"Amdt_StdImp|Product Description: AutoCAD Mechanical|Company: Autodesk, Inc."
 90
    33792
280
     0
281
     0
  0
CLASS
  1
ACMSURFSTANDARDISO
  2
AcmSurfTextStdISO
  3
"Amdt_StdImp|Product Description: AutoCAD Mechanical|Company: Autodesk, Inc."
 90
    33792
280
     0
281
     0
  0
CLASS
  1
ACMFCFSTANDARDISO
  2
AcmFCFStdISO
  3
"Amdt_StdImp|Product Description: AutoCAD Mechanical|Company: Autodesk, Inc."
 90
    33792
280
     0
281
     0
  0
CLASS
  1
ACMWELDSTANDARDISO
  2
AcmWeldingStdISO
  3
"Amdt_StdImp|Product Description: AutoCAD Mechanical|Company: Autodesk, Inc."
 90
    33792
280
     0
281
     0
  0
CLASS
  1
ACMIDSTANDARDISO
  2
AcmIdStdISO
  3
"Amdt_StdImp|Product Description: AutoCAD Mechanical|Company: Autodesk, Inc."
 90
    33792
280
     0
281
     0
  0
CLASS
  1
ACMDATUMSTANDARDISO
  2
AcmDatumStdISO
  3
"Amdt_StdImp|Product Description: AutoCAD Mechanical|Company: Autodesk, Inc."
 90
    33792
280
     0
281
     0
  0
CLASS
  1
ACMBOMSTANDARDISO
  2
AcmBOMStdISO
  3
"Amdt_StdImp|Product Description: AutoCAD Mechanical|Company: Autodesk, Inc."
 90
    33792
280
     0
281
     0
  0
CLASS
  1
ACMDETAILSTANDARDISO
  2
AmdtDetailSymStdISO
  3
"Amdt_StdImp|Product Description: AutoCAD Mechanical|Company: Autodesk, Inc."
 90
    33792
280
     0
281
     0
  0
CLASS
  1
ACMSECTIONSTANDARDISO
  2
AmdtSectionSymStdISO
  3
"Amdt_StdImp|Product Description: AutoCAD Mechanical|Company: Autodesk, Inc."
 90
    33792
280
     0
281
     0
  0
CLASS
  1
ACMCENTERLINESTANDARDISO
  2
AmdtCenterLineStdISO
  3
"Amdt_StdImp|Product Description: AutoCAD Mechanical|Company: Autodesk, Inc."
 90
    33792
280
     0
281
     0
  0
CLASS
  1
ACMNOTESTANDARDISO
  2
AmdtNoteStdISO
  3
"Amdt_StdImp|Product Description: AutoCAD Mechanical|Company: Autodesk, Inc."
 90
    33792
280
     0
281
     0
  0
CLASS
  1
ACAMGLAYSTD
  2
AcAmgLayStd
  3
"AmgLay|Product Description: AutoCAD Mechanical|Company: Autodesk, Inc."
 90
    33792
280
     0
281
     0
  0
CLASS
  1
ACAMGDIMSTD
  2
AcAmgDimStd
  3
"AmgDim|Product Description: AutoCAD Mechanical|Company: Autodesk, Inc."
 90
    33792
280
     0
281
     0
  0
CLASS
  1
ACAMGHOLECHARTSTDISO
  2
AcAmgHoleChartStdISO
  3
AmgDim|Product Description: AutoCAD Mechanical|Company: Autodesk, Inc.
 90
    33792
280
     0
281
     0
  0
CLASS
  1
ACAMGTITLESTD
  2
AcAmgTitleStd
  3
"AmgTitle|Product Description: AutoCAD Mechanical|Company: Autodesk, Inc."
 90
    36863
280
     0
281
     0
  0
CLASS
  1
LAYER_INDEX
  2
AcDbLayerIndex
  3
ObjectDBX Classes
 90
    32768
280
     0
281
     0
  0
CLASS
  1
IDBUFFER
  2
AcDbIdBuffer
  3
ObjectDBX Classes
 90
    32768
280
     0
281
     0
  0
CLASS
  1
DICTIONARYVAR
  2
AcDbDictionaryVar
  3
ObjectDBX Classes
 90
        0
280
     0
281
     0
  0
CLASS
  1
AM_DRAWING_MGR
  2
AcDmDwgMgr
  3
AcMechDwgViewMgmt
 90
     1024
280
     0
281
     0
  0
CLASS
  1
AM_DWG_DOCUMENT
  2
AcDmDwgDocument
  3
AcMechDwgViewMgmt
 90
     1024
280
     0
281
     0
  0
CLASS
  1
AM_DWG_SHEET
  2
AcDmSheet
  3
AcMechDwgViewMgmt
 90
     1024
280
     0
281
     0
  0
CLASS
  1
AM_VIEWDIMPARMAP
  2
AcDmViewDimParMap
  3
AcMechDwgViewMgmt
 90
     1024
280
     0
281
     0
  0
CLASS
  1
AM_DWGMGR_NAME
  2
AcDmDwgMgrName
  3
AcMechDwgViewMgmt
 90
     1024
280
     0
281
     0
  0
CLASS
  1
AMDTMENUSTATEMGR
  2
AmdtMenuStateMgr
  3
McadcomServices
 90
     1024
280
     0
281
     0
  0
CLASS
  1
AMDTMCOMMENUSTATE
  2
AmdtMcomMenuState
  3
McadcomServices
 90
     1024
280
     0
281
     0
  0
CLASS
  1
MAPIAMMOUDLE
  2
MApiAmModule
  3
MApiAmServices
 90
     1024
280
     0
281
     0
  0
CLASS
  1
AMDTADMENUSTATE
  2
AmdtAdMenuState
  3
DesignerServices
 90
     1024
280
     0
281
     0
  0
CLASS
  1
ADAPPL
  2
AcAdAppl
  3
DesignerServices
 90
     1024
280
     0
281
     0
  0
CLASS
  1
DEPMGR
  2
AcAdDepMgr
  3
DesignerServices
 90
     1024
280
     0
281
     0
  0
CLASS
  1
PARAMMGR
  2
AcAdParamMgr
  3
DesignerServices
 90
     1024
280
     0
281
     0
  0
CLASS
  1
PARAMSCOPE
  2
AcAdParamScope
  3
DesignerServices
 90
     1024
280
     0
281
     0
  0
CLASS
  1
NAMEDAPPL
  2
AcAdNamedAppl
  3
DesignerServices
 90
     1024
280
     0
281
     0
  0
CLASS
  1
AMDTDMMENUSTATE
  2
AmdtDmMenuState
  3
AcMechDwgViewMgmt
 90
     1024
280
     0
281
     0
  0
CLASS
  1
AMDTAMMENUSTATE
  2
AmdtAmMenuState
  3
DesignerAssemblies
 90
     1024
280
     0
281
     0
  0
CLASS
  1
ACAMPROJECT
  2
AcAmProject
  3
DesignerAssemblies
 90
     1024
280
     0
281
     0
  0
CLASS
  1
ACAMGRCOMPDEF
  2
AcAmGrCompDef
  3
DesignerAssemblies
 90
     1024
280
     0
281
     0
  0
CLASS
  1
ACCMCONTEXT
  2
AcCmContext
  3
DesignerAssemblies
 90
     1024
280
     0
281
     0
  0
CLASS
  1
ACAMCOMPDEF
  2
AcAmCompDef
  3
DesignerAssemblies
 90
     1024
280
     0
281
     0
  0
CLASS
  1
ACAMCOMPDEFMGR
  2
AcAmCompDefMgr
  3
DesignerAssemblies
 90
     1024
280
     0
281
     0
  0
CLASS
  1
AMCONTEXTMGR
  2
AcAmContextMgr
  3
DesignerAssemblies
 90
     1024
280
     0
281
     0
  0
CLASS
  1
ACAMCONTEXTMODELER
  2
AcAmContextModeler
  3
DesignerAssemblies
 90
     1024
280
     0
281
     0
  0
CLASS
  1
ACMTHREADLINESTANDARDISO
  2
AmdtThreadLineStdISO
  3
"Amdt_StdImp|Product Description: AutoCAD Mechanical|Company: Autodesk, Inc."
 90
    33792
280
     0
281
     0
  0
CLASS
  1
CATALOGSTATE
  2
AcAmCatalogState
  3
DesignerAssemblies
 90
     1024
280
     0
281
     0
  0
CLASS
  1
ACAMGRCOMPDEFSET
  2
AcAmGrCompDefSet
  3
DesignerAssemblies
 90
     1024
280
     0
281
     0
  0
CLASS
  1
AMDTBROWSERDBTAB
  2
AmdtBrowserDbTab
  3
McadcomServices
 90
     1024
280
     0
281
     0
  0
CLASS
  1
CBROWSERAPPOBJECT
  2
CBrowserAppObject
  3
McadcomServices
 90
     1024
280
     0
281
     0
  0
CLASS
  1
DM_PLACEHOLDER
  2
AcDmSelsetPlaceholder
  3
AcMechDwgViewMgmt
 90
     1024
280
     0
281
     0
  0
CLASS
  1
TABLESTYLE
  2
AcDbTableStyle
  3
ObjectDBX Classes
 90
     4095
280
     0
281
     0
  0
CLASS
  1
VAACXREFPANELOBJECT
  2
VaAcXREFPanelObject
  3
VAAC_ADDIN
 90
    32768
280
     0
281
     0
  0
CLASS
  1
VAACIMAGEINVENTORY
  2
VaAcImageInventory
  3
VAAC_ADDIN
 90
    32768
280
     0
281
     0
  0
CLASS
  1
AMDTNOTETEMPLATEDB
  2
AmdtNoteTemplateDB
  3
AcmSymBB|Product Description: AutoCAD Mechanical|Company: Autodesk, Inc.
 90
    33792
280
     0
281
     0
  0
CLASS
  1
MATERIAL
  2
AcDbMaterial
  3
ObjectDBX Classes
 90
     1153
280
     0
281
     0
  0
CLASS
  1
VISUALSTYLE
  2
AcDbVisualStyle
  3
ObjectDBX Classes
 90
     4095
280
     0
281
     0
  0
CLASS
  1
ACRFATTGENMGR
  2
AcRfAttGeneralMgr
  3
AcAttribServices
 90
    33792
280
     0
281
     0
  0
CLASS
  1
ACRFOBJATTMGR
  2
AcRfObjAttGroupMgr
  3
AcAttribServices
 90
    33792
280
     0
281
     0
  0
CLASS
  1
ACRFMCADAPIATTHOLDER
  2
AcRfMCADAPIAttHolder
  3
AcAttribServices
 90
    33792
280
     0
281
     0
  0
CLASS
  1
AMDTSYSATTR
  2
AmdtSystemAttribute
  3
AcAttribServices
 90
    33792
280
     0
281
     0
  0
CLASS
  1
ACMTAPERSTANDARDISO
  2
AcmTaperStdISO
  3
"Amdt_StdImp|Product Description: AutoCAD Mechanical|Company: Autodesk, Inc."
 90
    33792
280
     0
281
     0
  0
CLASS
  1
CAMSSTRUCTBTNSTATE
  2
StructBtnState
  3
DesignerAssemblies
 90
    33792
280
     0
281
     0
  0
CLASS
  1
SCALE
  2
AcDbScale
  3
ObjectDBX Classes
 90
     1153
280
     0
281
     0
  0
CLASS
  1
MLEADERSTYLE
  2
AcDbMLeaderStyle
  3
ACDB_MLEADERSTYLE_CLASS
 90
     4095
280
     0
281
     0
  0
CLASS
  1
ACMANOOTATIONVIEWSTANDARDISO
  2
AmdtAnViewStdISO
  3
"Amdt_StdImp|Product Description: AutoCAD Mechanical|Company: Autodesk, Inc."
 90
    33792
280
     0
281
     0
  0
CLASS
  1
ACMSURFSTANDARDISO2002
  2
AcmSurfTextStdISO2002
  3
"Amdt_StdImp|Product Description: AutoCAD Mechanical|Company: Autodesk, Inc."
 90
    33792
280
     0
281
     0
  0
CLASS
  1
CELLSTYLEMAP
  2
AcDbCellStyleMap
  3
ObjectDBX Classes
 90
     1152
280
     0
281
     0
  0
CLASS
  1
ACMSECTIONSTANDARDISO2001
  2
AmdtSectionSymStdISO2001
  3
"Amdt_StdImp|Product Description: AutoCAD Mechanical|Company: Autodesk, Inc."
 90
    33792
280
     0
281
     0
  0
CLASS
  1
EXACXREFPANELOBJECT
  2
ExAcXREFPanelObject
  3
EXAC_ESW
 90
     1025
280
     0
281
     0
  0
CLASS
  1
NPOCOLLECTION
  2
AcDbImpNonPersistentObjectsCollection
  3
ObjectDBX Classes
 90
     1153
280
     0
281
     0
  0
CLASS
  1
AMDTEDGESTANDARDISO13715
  2
AmdtEdgeStdISO13715
  3
"Amdt_StdImp|Product Description: AutoCAD Mechanical|Company: Autodesk, Inc."
 90
    33792
280
     0
281
     0
  0
CLASS
  1
ACAMGFILTERDAT
  2
AcAmgFilterDat
  3
"AcadM|Product Description: AutoCAD Mechanical|Company: Autodesk, Inc."
 90
    33792
280
     0
281
     0
  0
CLASS
  1
ACMBOM
  2
AcmBom
  3
"AcmSymBB|Product Description: AutoCAD Mechanical|Company: Autodesk, Inc."
 90
    33792
280
     0
281
     0
  0
CLASS
  1
AMDTFORMULAUPDATEDISPATCHER
  2
AmdtFormulaUpdateDispatcher
  3
AcMeServices
 90
    33792
280
     0
281
     0
  0
CLASS
  1
DIMASSOC
  2
AcDbDimAssoc
  3
"AcDbDimAssoc|Product Desc:     AcDim ARX App For Dimension|Company:          Autodesk, Inc.|WEB Address:      www.autodesk.com"
 90
        0
280
     0
281
     0
  0
CLASS
  1
AEC_REFEDIT_STATUS_TRACKER
  2
AecDbRefEditStatusTracker
  3
AecArchBase50|Product Desc: Autodesk Architectural Desktop 2007 |Company: Autodesk,Inc. |WEB Address: www.autodesk.com
 90
    32897
280
     0
281
     0
  0
ENDSEC
  0
SECTION
  2
TABLES
  0
TABLE
  2
VPORT
  5
8
330
0
100
AcDbSymbolTable
 70
     1
  0
VPORT
  5
269
330
8
100
AcDbSymbolTableRecord
100
AcDbViewportTableRecord
  2
*Active
 70
     0
 10
0.0
 20
0.0
 11
1.0
 21
1.0
 12
569.0837761096424
 22
255.7098528829353
 13
0.0
 23
0.0
 14
2.5
 24
2.5
 15
10.0
 25
10.0
 16
0.0
 26
0.0
 36
1.0
 17
0.0
 27
0.0
 37
0.0
 40
645.9947712229583
 41
1.923900118906064
 42
50.0
 43
0.0
 44
0.0
 50
0.0
 51
0.0
 71
     0
 72
   100
 73
     1
 74
     3
 75
     0
 76
     0
 77
     0
 78
     0
281
     0
 65
     0
110
0.0
120
0.0
130
0.0
111
1.0
121
0.0
131
0.0
112
0.0
122
1.0
132
0.0
 79
     0
146
0.0
  0
ENDTAB
  0
TABLE
  2
LTYPE
  5
5
330
0
100
AcDbSymbolTable
 70
    16
  0
LTYPE
  5
14
330
5
100
AcDbSymbolTableRecord
100
AcDbLinetypeTableRecord
  2
ByBlock
 70
     0
  3

 72
    65
 73
     0
 40
0.0
  0
LTYPE
  5
15
330
5
100
AcDbSymbolTableRecord
100
AcDbLinetypeTableRecord
  2
ByLayer
 70
     0
  3

 72
    65
 73
     0
 40
0.0
  0
LTYPE
  5
16
330
5
100
AcDbSymbolTableRecord
100
AcDbLinetypeTableRecord
  2
Continuous
 70
     0
  3
Solid line
 72
    65
 73
     0
 40
0.0
  0
LTYPE
  5
64
330
5
100
AcDbSymbolTableRecord
100
AcDbLinetypeTableRecord
  2
AM_ISO02W050
 70
     0
  3
__ __ __ __ __ __ __ __ __ __ __ __ __ __ __
 72
    65
 73
     2
 40
7.5
 49
6.0
 74
     0
 49
-1.5
 74
     0
  0
LTYPE
  5
65
330
5
100
AcDbSymbolTableRecord
100
AcDbLinetypeTableRecord
  2
AM_ISO08W050
 70
     0
  3
____ . ____ . ____ . ____ . ____ . ____ . ____
 72
    65
 73
     4
 40
18.0
 49
12.0
 74
     0
 49
-1.5
 74
     0
 49
3.0
 74
     0
 49
-1.5
 74
     0
  0
LTYPE
  5
66
330
5
100
AcDbSymbolTableRecord
100
AcDbLinetypeTableRecord
  2
AM_ISO09W050
 70
     0
  3
_____ . . _____ . . _____ . . ____ .. ____
 72
    65
 73
     6
 40
22.5
 49
12.0
 74
     0
 49
-1.5
 74
     0
 49
3.0
 74
     0
 49
-1.5
 74
     0
 49
3.0
 74
     0
 49
-1.5
 74
     0
  0
LTYPE
  5
67
330
5
100
AcDbSymbolTableRecord
100
AcDbLinetypeTableRecord
  2
Amconstr
 70
     0
  3
_______________________
 72
    65
 73
     2
 40
9999.0
 49
9999.0
 74
     0
 49
0.0
 74
     0
  0
LTYPE
  5
68
330
5
100
AcDbSymbolTableRecord
100
AcDbLinetypeTableRecord
  2
AM_ISO08W050x2
 70
     0
  3
__ . __ . __ . __ . __ . __
 72
    65
 73
     4
 40
9.0
 49
6.0
 74
     0
 49
-0.75
 74
     0
 49
1.5
 74
     0
 49
-0.75
 74
     0
  0
LTYPE
  5
69
330
5
100
AcDbSymbolTableRecord
100
AcDbLinetypeTableRecord
  2
AM_ISO02W050x2
 70
     0
  3
 _ _ _ _ _ _ _ _ _ _ _ _
 72
    65
 73
     2
 40
3.75
 49
3.0
 74
     0
 49
-0.75
 74
     0
  0
LTYPE
  5
6C
330
5
100
AcDbSymbolTableRecord
100
AcDbLinetypeTableRecord
  2
Amzigzag
 70
     0
  3
/\/-/\/-/\/-/\/-/\/-/\/
 72
    65
 73
     2
 40
11.0001
 49
0.0001
 74
     4
 75
   136
340
22C
 46
0.04
 50
0.0
 44
0.0
 45
0.0
 49
-11.0
 74
     0
  0
LTYPE
  5
7A
330
5
100
AcDbSymbolTableRecord
100
AcDbLinetypeTableRecord
  2
ACISOWELD
 70
     0
  3
_ _ _ _ _
 72
    65
 73
     2
 40
2.0
 49
2.0
 74
     0
 49
-1.0
 74
     0
  0
LTYPE
  5
7B
330
5
100
AcDbSymbolTableRecord
100
AcDbLinetypeTableRecord
  2
ACISOTGB
 70
     0
  3
__ . . __ . .
 72
    65
 73
     6
 40
9.0
 49
4.0
 74
     0
 49
-1.0
 74
     0
 49
1.0
 74
     0
 49
-1.0
 74
     0
 49
1.0
 74
     0
 49
-1.0
 74
     0
  0
LTYPE
  5
7C
330
5
100
AcDbSymbolTableRecord
100
AcDbLinetypeTableRecord
  2
ACISOTGL
 70
     0
  3
_ _ _ _ _
 72
    65
 73
     2
 40
3.0
 49
2.0
 74
     0
 49
-1.0
 74
     0
  0
LTYPE
  5
7E
330
5
100
AcDbSymbolTableRecord
100
AcDbLinetypeTableRecord
  2
CENTER
 70
     0
  3
__ . __
 72
    65
 73
     4
 40
7.0
 49
4.0
 74
     0
 49
-1.0
 74
     0
 49
1.0
 74
     0
 49
-1.0
 74
     0
  0
LTYPE
  5
D8
330
5
100
AcDbSymbolTableRecord
100
AcDbLinetypeTableRecord
  2
HIDDEN
 70
     0
  3
Hidden __ __ __ __ __ __ __ __ __ __ __ __ __ _
 72
    65
 73
     2
 40
9.524999999999996
 49
6.349999999999998
 74
     0
 49
-3.174999999999998
 74
     0
  0
LTYPE
  5
D9
330
5
100
AcDbSymbolTableRecord
100
AcDbLinetypeTableRecord
  2
PHANTOM2
 70
     0
  3
Phantom (.5x) ___ _ _ ___ _ _ ___ _ _ ___ _ _
 72
    65
 73
     6
 40
31.75
 49
15.875
 74
     0
 49
-3.174999999999998
 74
     0
 49
3.174999999999998
 74
     0
 49
-3.174999999999998
 74
     0
 49
3.174999999999998
 74
     0
 49
-3.174999999999998
 74
     0
  0
LTYPE
  5
456
330
5
100
AcDbSymbolTableRecord
100
AcDbLinetypeTableRecord
  2
GEN7A
 70
     0
  3
__ . __ . __
 72
    65
 73
     4
 40
6.875
 49
5.0
 74
     0
 49
-0.625
 74
     0
 49
0.625
 74
     0
 49
-0.625
 74
     0
  0
LTYPE
  5
457
330
5
100
AcDbSymbolTableRecord
100
AcDbLinetypeTableRecord
  2
GEN3
 70
     0
  3
-- -- -- -- -- -- -- -- -- -- -- -- -- -- --
 72
    65
 73
     2
 40
6.25
 49
5.0
 74
     0
 49
-1.25
 74
     0
  0
ENDTAB
  0
TABLE
  2
LAYER
  5
2
102
{ACAD_XDICTIONARY
360
47D
102
}
330
0
100
AcDbSymbolTable
 70
    13
  0
LAYER
  5
10
102
{ACAD_XDICTIONARY
360
77F
102
}
330
2
100
AcDbSymbolTableRecord
100
AcDbLayerTableRecord
  2
0
 70
     0
 62
     7
  6
Continuous
370
    -3
390
F
  0
LAYER
  5
458
102
{ACAD_XDICTIONARY
360
459
102
}
330
2
100
AcDbSymbolTableRecord
100
AcDbLayerTableRecord
  2
AM_7
 70
     0
 62
     4
  6
AM_ISO08W050
370
    25
390
F
1001
AcAecLayerStandard
1000

1000

  0
LAYER
  5
45A
102
{ACAD_XDICTIONARY
360
45B
102
}
330
2
100
AcDbSymbolTableRecord
100
AcDbLayerTableRecord
  2
AM_CL
 70
     0
 62
     1
  6
Amconstr
370
    25
390
F
1001
AcAecLayerStandard
1000

1000

  0
LAYER
  5
45C
330
2
100
AcDbSymbolTableRecord
100
AcDbLayerTableRecord
  2
Defpoints
 70
     0
 62
     7
  6
Continuous
290
     0
370
    -3
390
F
  0
LAYER
  5
45D
102
{ACAD_XDICTIONARY
360
45E
102
}
330
2
100
AcDbSymbolTableRecord
100
AcDbLayerTableRecord
  2
AM_5
 70
     0
 62
     3
  6
Continuous
370
    25
390
F
1001
AcAecLayerStandard
1000

1000

  0
LAYER
  5
45F
102
{ACAD_XDICTIONARY
360
460
102
}
330
2
100
AcDbSymbolTableRecord
100
AcDbLayerTableRecord
  2
AM_0N
 70
     0
 62
     7
  6
Continuous
370
    50
390
F
1001
AcAecLayerStandard
1000

1000

  0
LAYER
  5
461
102
{ACAD_XDICTIONARY
360
462
102
}
330
2
100
AcDbSymbolTableRecord
100
AcDbLayerTableRecord
  2
AM_7N
 70
     0
 62
   142
  6
AM_ISO08W050
370
    25
390
F
1001
AcAecLayerStandard
1000

1000

  0
LAYER
  5
463
102
{ACAD_XDICTIONARY
360
464
102
}
330
2
100
AcDbSymbolTableRecord
100
AcDbLayerTableRecord
  2
AM_4N
 70
     0
 62
    92
  6
Continuous
370
    25
390
F
1001
AcAecLayerStandard
1000

1000

  0
LAYER
  5
465
102
{ACAD_XDICTIONARY
360
466
102
}
330
2
100
AcDbSymbolTableRecord
100
AcDbLayerTableRecord
  2
AM_9N
 70
     0
 62
  -253
  6
Continuous
370
     0
390
F
1001
AcAecLayerStandard
1000

1000

  0
LAYER
  5
467
102
{ACAD_XDICTIONARY
360
468
102
}
330
2
100
AcDbSymbolTableRecord
100
AcDbLayerTableRecord
  2
7A
 70
     0
 62
     4
  6
GEN7A
370
    -3
390
F
  0
LAYER
  5
469
102
{ACAD_XDICTIONARY
360
46A
102
}
330
2
100
AcDbSymbolTableRecord
100
AcDbLayerTableRecord
  2
KLIN
 70
     0
 62
     1
  6
Continuous
370
    -3
390
F
  0
LAYER
  5
46B
102
{ACAD_XDICTIONARY
360
46C
102
}
330
2
100
AcDbSymbolTableRecord
100
AcDbLayerTableRecord
  2
8
 70
     0
 62
     1
  6
Continuous
370
    -3
390
F
  0
LAYER
  5
46D
102
{ACAD_XDICTIONARY
360
46E
102
}
330
2
100
AcDbSymbolTableRecord
100
AcDbLayerTableRecord
  2
3
 70
     0
 62
     6
  6
GEN3
370
    -3
390
F
  0
ENDTAB
  0
TABLE
  2
STYLE
  5
3
330
0
100
AcDbSymbolTable
 70
     8
  0
STYLE
  5
11
330
3
100
AcDbSymbolTableRecord
100
AcDbTextStyleTableRecord
  2
STANDARD
 70
     0
 40
0.0
 41
1.0
 50
0.0
 71
     0
 42
2.5
  3
ISOCP.SHX
  4

  0
STYLE
  5
6B
330
3
100
AcDbSymbolTableRecord
100
AcDbTextStyleTableRecord
  2

 70
     1
 40
0.0
 41
1.0
 50
0.0
 71
     0
 42
2.5
  3
ltypeshp.shx
  4

  0
STYLE
  5
6D
330
3
100
AcDbSymbolTableRecord
100
AcDbTextStyleTableRecord
  2
ACISOTS
 70
     0
 40
1.0
 41
1.0
 50
0.0
 71
     0
 42
2.5
  3
isocp.shx
  4

  0
STYLE
  5
79
330
3
100
AcDbSymbolTableRecord
100
AcDbTextStyleTableRecord
  2
ACISOGDT
 70
     0
 40
0.0
 41
1.0
 50
0.0
 71
     0
 42
2.5
  3
amgdt.shx
  4

  0
STYLE
  5
1ED
330
3
100
AcDbSymbolTableRecord
100
AcDbTextStyleTableRecord
  2
USER1
 70
     0
 40
0.0
 41
1.0
 50
0.0
 71
     0
 42
2.5
  3
TXT.SHX
  4

  0
STYLE
  5
1EE
330
3
100
AcDbSymbolTableRecord
100
AcDbTextStyleTableRecord
  2
USER2
 70
     0
 40
0.0
 41
1.0
 50
0.0
 71
     0
 42
2.5
  3
SIMPLEX.SHX
  4

  0
STYLE
  5
1EF
330
3
100
AcDbSymbolTableRecord
100
AcDbTextStyleTableRecord
  2
USER3
 70
     0
 40
0.0
 41
1.0
 50
0.0
 71
     0
 42
2.5
  3
ITALIC.SHX
  4

  0
STYLE
  5
22C
330
3
100
AcDbSymbolTableRecord
100
AcDbTextStyleTableRecord
  2

 70
     1
 40
0.0
 41
1.0
 50
0.0
 71
     0
 42
2.5
  3
genltshp.shx
  4

  0
ENDTAB
  0
TABLE
  2
VIEW
  5
6
330
0
100
AcDbSymbolTable
 70
     0
  0
ENDTAB
  0
TABLE
  2
UCS
  5
7
330
0
100
AcDbSymbolTable
 70
     0
  0
ENDTAB
  0
TABLE
  2
APPID
  5
9
330
0
100
AcDbSymbolTable
 70
    27
  0
APPID
  5
12
330
9
100
AcDbSymbolTableRecord
100
AcDbRegAppTableRecord
  2
ACAD
 70
     0
  0
APPID
  5
46
330
9
100
AcDbSymbolTableRecord
100
AcDbRegAppTableRecord
  2
MCAD_NO_VIS
 70
     0
  0
APPID
  5
47
330
9
100
AcDbSymbolTableRecord
100
AcDbRegAppTableRecord
  2
ACAD_TEMP_GRAPHIC
 70
     0
  0
APPID
  5
58
330
9
100
AcDbSymbolTableRecord
100
AcDbRegAppTableRecord
  2
ACATTRIBSERVICES
 70
     0
  0
APPID
  5
EE
330
9
100
AcDbSymbolTableRecord
100
AcDbRegAppTableRecord
  2
AD_DRAW
 70
     0
  0
APPID
  5
10C
330
9
100
AcDbSymbolTableRecord
100
AcDbRegAppTableRecord
  2
DESIGNERASSEMBLIES
 70
     0
  0
APPID
  5
111
330
9
100
AcDbSymbolTableRecord
100
AcDbRegAppTableRecord
  2
ACADM_DIM_EDIT
 70
     0
  0
APPID
  5
112
330
9
100
AcDbSymbolTableRecord
100
AcDbRegAppTableRecord
  2
AMDT_DM_ADJ
 70
     0
  0
APPID
  5
1A3
330
9
100
AcDbSymbolTableRecord
100
AcDbRegAppTableRecord
  2
ACAD_DSTYLE_DIMARC_LENGTH_SYMBOL
 70
     0
  0
APPID
  5
1A4
330
9
100
AcDbSymbolTableRecord
100
AcDbRegAppTableRecord
  2
ACAD_DSTYLE_DIMJOGGED_JOGANGLE_SYMBOL
 70
     0
  0
APPID
  5
2C6
330
9
100
AcDbSymbolTableRecord
100
AcDbRegAppTableRecord
  2
ACAD_MLEADERVER
 70
     0
  0
APPID
  5
36E
330
9
100
AcDbSymbolTableRecord
100
AcDbRegAppTableRecord
  2
ACAD_EXEMPT_FROM_CAD_STANDARDS
 70
     0
  0
APPID
  5
471
330
9
100
AcDbSymbolTableRecord
100
AcDbRegAppTableRecord
  2
AcAecLayerStandard
 70
     0
  0
APPID
  5
472
330
9
100
AcDbSymbolTableRecord
100
AcDbRegAppTableRecord
  2
GENIUS_GENOENT_13
 70
     0
  0
APPID
  5
473
330
9
100
AcDbSymbolTableRecord
100
AcDbRegAppTableRecord
  2
GENIUS_GENOLIS_13
 70
     0
  0
APPID
  5
474
330
9
100
AcDbSymbolTableRecord
100
AcDbRegAppTableRecord
  2
GENIUS_GENODEF_13
 70
     0
  0
APPID
  5
475
330
9
100
AcDbSymbolTableRecord
100
AcDbRegAppTableRecord
  2
GENIUS_GENOBJ-N-CRS_13
 70
     0
  0
APPID
  5
476
330
9
100
AcDbSymbolTableRecord
100
AcDbRegAppTableRecord
  2
GENIUS_GENOREF_13
 70
     0
  0
APPID
  5
477
330
9
100
AcDbSymbolTableRecord
100
AcDbRegAppTableRecord
  2
GENIUS_GENOBJ-N-CEN_13
 70
     0
  0
APPID
  5
478
330
9
100
AcDbSymbolTableRecord
100
AcDbRegAppTableRecord
  2
GENIUS_GENCEN_19
 70
     0
  0
APPID
  5
479
330
9
100
AcDbSymbolTableRecord
100
AcDbRegAppTableRecord
  2
ACAD_DSTYLE_DIMINSPECT
 70
     0
  0
APPID
  5
47A
330
9
100
AcDbSymbolTableRecord
100
AcDbRegAppTableRecord
  2
GENIUS_GENOBJ-N-FIL_13
 70
     0
  0
APPID
  5
47B
330
9
100
AcDbSymbolTableRecord
100
AcDbRegAppTableRecord
  2
GENIUS_GENOBJ-N-HTC_13
 70
     0
  0
APPID
  5
47C
330
9
100
AcDbSymbolTableRecord
100
AcDbRegAppTableRecord
  2
GENIUS_GENHATCH_13
 70
     0
  0
APPID
  5
AF9
330
9
100
AcDbSymbolTableRecord
100
AcDbRegAppTableRecord
  2
ACAD_DSTYLE_DIM_LINETYPE
 70
     0
  0
APPID
  5
AFA
330
9
100
AcDbSymbolTableRecord
100
AcDbRegAppTableRecord
  2
ACAD_DSTYLE_DIM_EXT1_LINETYPE
 70
     0
  0
APPID
  5
AFB
330
9
100
AcDbSymbolTableRecord
100
AcDbRegAppTableRecord
  2
ACAD_DSTYLE_DIM_EXT2_LINETYPE
 70
     0
  0
ENDTAB
  0
TABLE
  2
DIMSTYLE
  5
A
330
0
100
AcDbSymbolTable
 70
    11
100
AcDbDimStyleTable
 71
     1
340
81
  0
DIMSTYLE
105
27
330
A
100
AcDbSymbolTableRecord
100
AcDbDimStyleTableRecord
  2
ISO-25
 70
     0
 41
2.5
 42
0.625
 43
3.75
 44
1.25
 73
     0
 74
     0
 77
     1
 78
     8
140
2.5
141
2.5
143
0.03937007874016
147
0.625
171
     3
172
     1
271
     2
272
     2
274
     3
278
    44
283
     0
284
     8
340
11
  0
DIMSTYLE
105
81
330
A
100
AcDbSymbolTableRecord
100
AcDbDimStyleTableRecord
  2
AM_ISO
 70
     0
  4
"
 41
3.5
 42
1.0
 43
10.0
 44
1.0
 47
0.1
 48
0.1
 73
     0
 74
     0
 77
     1
 78
     8
 79
     2
140
3.5
141
0.0
143
0.0393701
146
0.71
147
1.5
172
     1
176
   256
177
   256
178
   140
271
     2
272
     3
274
     4
283
     0
284
     8
340
11
371
    -1
372
    -1
1001
ACAD_DSTYLE_DIMJOGGED_JOGANGLE_SYMBOL
1070
   384
1040
0.7853981633974483
1001
ACAD_DSTYLE_DIMARC_LENGTH_SYMBOL
1070
   379
1070
     1
1001
ACAD_DSTYLE_DIM_LINETYPE
1070
   380
1005
14
1001
ACAD_DSTYLE_DIM_EXT1_LINETYPE
1070
   381
1005
14
1001
ACAD_DSTYLE_DIM_EXT2_LINETYPE
1070
   382
1005
14
  0
DIMSTYLE
105
82
330
A
100
AcDbSymbolTableRecord
100
AcDbDimStyleTableRecord
  2
AM_ISO$3
 70
     0
  4
"
 41
3.5
 42
1.0
 43
10.0
 44
1.0
 47
0.1
 48
0.1
 73
     0
 77
     1
 78
     8
 79
     2
140
3.5
141
0.0
143
0.0393701
146
0.71
147
1.5
176
   256
177
   256
178
   140
271
     2
272
     3
274
     4
283
     0
284
     8
288
     1
289
     0
340
11
371
    -1
372
    -1
1001
ACAD_DSTYLE_DIMJOGGED_JOGANGLE_SYMBOL
1070
   384
1040
0.7853981633974483
1001
ACAD_DSTYLE_DIMARC_LENGTH_SYMBOL
1070
   379
1070
     1
1001
ACAD_DSTYLE_DIM_LINETYPE
1070
   380
1005
14
1001
ACAD_DSTYLE_DIM_EXT1_LINETYPE
1070
   381
1005
14
1001
ACAD_DSTYLE_DIM_EXT2_LINETYPE
1070
   382
1005
14
  0
DIMSTYLE
105
83
330
A
100
AcDbSymbolTableRecord
100
AcDbDimStyleTableRecord
  2
AM_ISO$4
 70
     0
  4
"
 41
3.5
 42
1.0
 43
10.0
 44
1.0
 47
0.1
 48
0.1
 73
     0
 74
     0
 77
     1
 78
     8
 79
     2
140
3.5
141
0.0
143
0.0393701
146
0.71
147
1.5
172
     1
176
   256
177
   256
178
   140
271
     2
272
     3
274
     4
283
     0
284
     8
340
11
371
    -1
372
    -1
1001
ACAD_DSTYLE_DIMJOGGED_JOGANGLE_SYMBOL
1070
   384
1040
0.7853981633974483
1001
ACAD_DSTYLE_DIMARC_LENGTH_SYMBOL
1070
   379
1070
     1
1001
ACAD_DSTYLE_DIM_LINETYPE
1070
   380
1005
14
1001
ACAD_DSTYLE_DIM_EXT1_LINETYPE
1070
   381
1005
14
1001
ACAD_DSTYLE_DIM_EXT2_LINETYPE
1070
   382
1005
14
  0
DIMSTYLE
105
84
330
A
100
AcDbSymbolTableRecord
100
AcDbDimStyleTableRecord
  2
AM_ISO$6
 70
     0
  4
"
 41
3.5
 42
1.0
 43
10.0
 44
1.0
 47
0.1
 48
0.1
 73
     0
 74
     0
 78
     8
 79
     2
140
3.5
141
0.0
143
0.0393701
146
0.71
147
1.5
172
     1
176
   256
177
   256
178
   140
271
     2
272
     3
274
     4
283
     0
284
     8
340
11
371
    -1
372
    -1
1001
ACAD_DSTYLE_DIMJOGGED_JOGANGLE_SYMBOL
1070
   384
1040
0.7853981633974483
1001
ACAD_DSTYLE_DIMARC_LENGTH_SYMBOL
1070
   379
1070
     1
1001
ACAD_DSTYLE_DIM_LINETYPE
1070
   380
1005
14
1001
ACAD_DSTYLE_DIM_EXT1_LINETYPE
1070
   381
1005
14
1001
ACAD_DSTYLE_DIM_EXT2_LINETYPE
1070
   382
1005
14
  0
DIMSTYLE
105
85
330
A
100
AcDbSymbolTableRecord
100
AcDbDimStyleTableRecord
  2
AM_ISO$7
 70
     0
  4
"
 41
3.5
 42
1.0
 43
10.0
 44
1.0
 47
0.1
 48
0.1
 73
     0
 74
     0
 77
     1
 78
     8
 79
     2
140
3.5
141
0.0
143
0.0393701
146
0.71
147
1.5
172
     1
176
   256
177
   256
178
   140
271
     2
272
     3
274
     4
283
     0
284
     8
340
11
371
    -1
372
    -1
1001
ACAD_DSTYLE_DIMJOGGED_JOGANGLE_SYMBOL
1070
   384
1040
0.7853981633974483
1001
ACAD_DSTYLE_DIMARC_LENGTH_SYMBOL
1070
   379
1070
     1
1001
ACAD_DSTYLE_DIM_LINETYPE
1070
   380
1005
14
1001
ACAD_DSTYLE_DIM_EXT1_LINETYPE
1070
   381
1005
14
1001
ACAD_DSTYLE_DIM_EXT2_LINETYPE
1070
   382
1005
14
  0
DIMSTYLE
105
86
330
A
100
AcDbSymbolTableRecord
100
AcDbDimStyleTableRecord
  2
AM_ISO$SF
 70
     0
  4
"
 41
3.5
 42
1.0
 43
10.0
 44
1.0
 47
0.1
 48
0.1
 73
     0
 74
     0
 75
     1
 76
     1
 77
     1
 78
     8
 79
     2
140
3.5
141
0.0
143
0.0393701
146
0.71
147
1.5
172
     1
176
   256
177
   256
178
   140
271
     2
272
     3
274
     4
283
     0
284
     8
340
11
371
    -1
372
    -1
1001
ACAD_DSTYLE_DIMJOGGED_JOGANGLE_SYMBOL
1070
   384
1040
0.7853981633974483
1001
ACAD_DSTYLE_DIMARC_LENGTH_SYMBOL
1070
   379
1070
     1
1001
ACAD_DSTYLE_DIM_LINETYPE
1070
   380
1005
14
1001
ACAD_DSTYLE_DIM_EXT1_LINETYPE
1070
   381
1005
14
1001
ACAD_DSTYLE_DIM_EXT2_LINETYPE
1070
   382
1005
14
  0
DIMSTYLE
105
8B
330
A
100
AcDbSymbolTableRecord
100
AcDbDimStyleTableRecord
  2
AM_ISO$SH
 70
     0
  4
"
 41
3.5
 42
1.0
 43
10.0
 44
1.0
 47
0.1
 48
0.1
 73
     0
 74
     0
 75
     1
 76
     1
 77
     1
 78
     8
 79
     2
140
3.5
141
0.0
143
0.0393701
144
2.0
146
0.71
147
1.5
172
     1
173
     1
176
   256
177
   256
178
   140
271
     2
272
     3
274
     4
283
     0
284
     8
340
11
343
87
371
    -1
372
    -1
1001
ACAD_DSTYLE_DIMJOGGED_JOGANGLE_SYMBOL
1070
   384
1040
0.7853981633974483
1001
ACAD_DSTYLE_DIMARC_LENGTH_SYMBOL
1070
   379
1070
     1
1001
ACAD_DSTYLE_DIM_LINETYPE
1070
   380
1005
14
1001
ACAD_DSTYLE_DIM_EXT1_LINETYPE
1070
   381
1005
14
1001
ACAD_DSTYLE_DIM_EXT2_LINETYPE
1070
   382
1005
14
  0
DIMSTYLE
105
46F
102
{ACAD_REACTORS
330
9A3
330
9A4
330
9A5
330
9A6
330
9A7
330
9E2
102
}
330
A
100
AcDbSymbolTableRecord
100
AcDbDimStyleTableRecord
  2
AM_DIN$0
 70
     0
  4
"
 41
3.5
 42
1.0
 43
10.0
 44
1.0
 47
0.1
 48
0.1
 73
     0
 74
     0
 77
     1
 78
     8
 79
     2
140
3.5
141
0.0
143
0.0393701
146
0.71
147
1.5
172
     1
176
   256
177
   256
178
     2
271
     2
272
     3
274
     4
283
     0
284
     8
340
11
371
    -1
372
    -1
1001
ACAD_DSTYLE_DIMJOGGED_JOGANGLE_SYMBOL
1070
   384
1040
1.570796326794896
1001
ACAD_DSTYLE_DIM_LINETYPE
1070
   380
1005
14
1001
ACAD_DSTYLE_DIM_EXT1_LINETYPE
1070
   381
1005
14
1001
ACAD_DSTYLE_DIM_EXT2_LINETYPE
1070
   382
1005
14
  0
DIMSTYLE
105
470
330
A
100
AcDbSymbolTableRecord
100
AcDbDimStyleTableRecord
  2
AM_ISO$0
 70
     0
  4
"
 41
3.5
 42
1.0
 43
10.0
 44
1.0
 47
0.1
 48
0.1
 73
     0
 74
     0
 77
     1
 78
     8
 79
     2
140
3.5
141
0.0
143
0.0393701
146
0.71
147
1.5
172
     1
176
   256
177
   256
178
   140
271
     2
272
     3
274
     4
283
     0
284
     8
340
11
371
    -1
372
    -1
1001
ACAD_DSTYLE_DIMJOGGED_JOGANGLE_SYMBOL
1070
   384
1040
0.7853981633974483
1001
ACAD_DSTYLE_DIMARC_LENGTH_SYMBOL
1070
   379
1070
     1
1001
ACAD_DSTYLE_DIM_LINETYPE
1070
   380
1005
14
1001
ACAD_DSTYLE_DIM_EXT1_LINETYPE
1070
   381
1005
14
1001
ACAD_DSTYLE_DIM_EXT2_LINETYPE
1070
   382
1005
14
  0
DIMSTYLE
105
830
330
A
100
AcDbSymbolTableRecord
100
AcDbDimStyleTableRecord
  2
AM_DIN
 70
     0
  4
"
 41
3.5
 42
1.0
 43
10.0
 44
1.0
 47
0.1
 48
0.1
 73
     0
 74
     0
 77
     1
 78
     8
 79
     2
140
3.5
141
0.0
143
0.0393701
146
0.71
147
1.5
172
     1
176
   256
177
   256
178
     2
271
     2
272
     3
274
     4
283
     0
284
     8
340
11
371
    -1
372
    -1
1001
ACAD_DSTYLE_DIMJOGGED_JOGANGLE_SYMBOL
1070
   384
1040
1.570796326794896
1001
ACAD_DSTYLE_DIM_LINETYPE
1070
   380
1005
14
1001
ACAD_DSTYLE_DIM_EXT1_LINETYPE
1070
   381
1005
14
1001
ACAD_DSTYLE_DIM_EXT2_LINETYPE
1070
   382
1005
14
  0
ENDTAB
  0
TABLE
  2
BLOCK_RECORD
  5
1
330
0
100
AcDbSymbolTable
 70
    40
  0
BLOCK_RECORD
  5
1F
102
{ACAD_XDICTIONARY
360
8F
102
}
330
1
100
AcDbSymbolTableRecord
100
AcDbBlockTableRecord
  2
*Model_Space
340
22
  0
BLOCK_RECORD
  5
1B
330
1
100
AcDbSymbolTableRecord
100
AcDbBlockTableRecord
  2
*Paper_Space
340
1E
  0
BLOCK_RECORD
  5
23
330
1
100
AcDbSymbolTableRecord
100
AcDbBlockTableRecord
  2
*Paper_Space0
340
26
  0
BLOCK_RECORD
  5
87
330
1
100
AcDbSymbolTableRecord
100
AcDbBlockTableRecord
  2
GENAXEH
340
0
  0
BLOCK_RECORD
  5
3AE
330
1
100
AcDbSymbolTableRecord
100
AcDbBlockTableRecord
  2
befestigung
340
0
310
2800000020000000200000000100080000000000000400000000000000000000000000000000000000000000000080000080000000808000800000008000800080800000C0C0C000C0DCC000F0CAA6000020400000206000002080000020A0000020C0000020E00000400000004020000040400000406000004080000040A0
310
000040C0000040E00000600000006020000060400000606000006080000060A0000060C0000060E00000800000008020000080400000806000008080000080A0000080C0000080E00000A0000000A0200000A0400000A0600000A0800000A0A00000A0C00000A0E00000C0000000C0200000C0400000C0600000C0800000C0
310
A00000C0C00000C0E00000E0000000E0200000E0400000E0600000E0800000E0A00000E0C00000E0E00040000000400020004000400040006000400080004000A0004000C0004000E00040200000402020004020400040206000402080004020A0004020C0004020E000404000004040200040404000404060004040800040
310
40A0004040C0004040E00040600000406020004060400040606000406080004060A0004060C0004060E00040800000408020004080400040806000408080004080A0004080C0004080E00040A0000040A0200040A0400040A0600040A0800040A0A00040A0C00040A0E00040C0000040C0200040C0400040C0600040C08000
310
40C0A00040C0C00040C0E00040E0000040E0200040E0400040E0600040E0800040E0A00040E0C00040E0E00080000000800020008000400080006000800080008000A0008000C0008000E00080200000802020008020400080206000802080008020A0008020C0008020E00080400000804020008040400080406000804080
310
008040A0008040C0008040E00080600000806020008060400080606000806080008060A0008060C0008060E00080800000808020008080400080806000808080008080A0008080C0008080E00080A0000080A0200080A0400080A0600080A0800080A0A00080A0C00080A0E00080C0000080C0200080C0400080C0600080C0
310
800080C0A00080C0C00080C0E00080E0000080E0200080E0400080E0600080E0800080E0A00080E0C00080E0E000C0000000C0002000C0004000C0006000C0008000C000A000C000C000C000E000C0200000C0202000C0204000C0206000C0208000C020A000C020C000C020E000C0400000C0402000C0404000C0406000C0
310
408000C040A000C040C000C040E000C0600000C0602000C0604000C0606000C0608000C060A000C060C000C060E000C0800000C0802000C0804000C0806000C0808000C080A000C080C000C080E000C0A00000C0A02000C0A04000C0A06000C0A08000C0A0A000C0A0C000C0A0E000C0C00000C0C02000C0C04000C0C06000
310
C0C08000C0C0A000F0FBFF00A4A0A000808080000000FF0000FF000000FFFF00FF000000FF00FF00FFFF0000FFFFFF00000000000000000000000000000000000000000000000000000000000000000000000000000000000000000000000000000000000000FF000000000000000000000000000000000000000000000000
310
000000000000FF00FFFFFF00000000000000000000000000000000000000000000000000FFFF0000000000FF0000000000000000000000000000000000000000000000FF00000000000000FF00000000000000000000000000000000000000000000FF000000000000000000FF000000000000000000000000000000000000
310
0000FF00000000000000000000FF00000000000000000000000000000000000000FF0000000000000000000000FF000000000000000000000000000000000000FF0000000000000000000000FF00000000000000000000000000000000FFFFFF0000000000000000000000FF0000000000000000000000FFFFFFFFFF00FFFF
310
FFFFFF00000000000000FFFF0000000000000000000000FFFF000000FF00FFFF000000FFFFFFFFFFFFFF00000000000000000000000000FFFF000000FF00FFFF00000000000000FF000000000000000000000000000000FFFFFFFFFFFF00FFFF00000000000000FF3030303030FFFF0000000000000000FFFF000000FF00FF
310
FF00000000000000FF0000000000FFFF0000000000000000FFFF000000FF00FFFF00000000000000FF0000000000FFFF000000000000E8E8FFFFE8E8E8E8E8FFFFE8E8E8E8E8E8E8FFE8E8E8E8E8FFFFE8E8000000000000FFFF000000FF00FFFF00000000000000FF0000000000FFFF0000000000000000FFFFFFFFFFFF00
310
FFFF00000000000000FFFFFFFFFFFFFFFF0000000000000000FFFF000000FF00FFFF00000000000000FF000000000000000000000000000000FFFF000000FF00FFFF00000000FFFFFFFFFF000000000000000000000000000000FFFFFFFFFF00FFFFFFFFFFFF0000000000FFFFFF0000000000000000000000000000000000
310
00FFFFFF0000000000000000000000FF0000000000000000000000000000000000000000FF0000000000000000000000FF0000000000000000000000000000000000000000FF0000000000000000000000FF0000000000000000000000000000000000000000FF00000000000000000000FF00000000000000000000000000
310
0000000000000000FF000000000000000000FF00000000000000000000000000000000000000000000FF00000000000000FF000000000000000000000000000000000000000000000000FF000000000000FF00000000000000000000000000000000000000000000000000FFFF0000FFFF0000000000000000000000000000
310
0000000000000000000000000000FFFF00000000000000000000000000000000000000000000000000000000000000000000000000000000
102
{BLKREFS
331
A32
331
A33
102
}
1001
ACAD
1000
DesignCenter Data
1002
{
1070
     1
1070
     4
1002
}
  0
BLOCK_RECORD
  5
3D2
330
1
100
AcDbSymbolTableRecord
100
AcDbBlockTableRecord
  2
*U3
340
0
102
{BLKREFS
331
3CF
102
}
  0
BLOCK_RECORD
  5
3E0
330
1
100
AcDbSymbolTableRecord
100
AcDbBlockTableRecord
  2
*U4
340
0
102
{BLKREFS
331
3D0
102
}
  0
BLOCK_RECORD
  5
3E8
330
1
100
AcDbSymbolTableRecord
100
AcDbBlockTableRecord
  2
*D5
340
0
  0
BLOCK_RECORD
  5
3F4
330
1
100
AcDbSymbolTableRecord
100
AcDbBlockTableRecord
  2
*D6
340
0
  0
BLOCK_RECORD
  5
402
330
1
100
AcDbSymbolTableRecord
100
AcDbBlockTableRecord
  2
*D7
340
0
  0
BLOCK_RECORD
  5
40E
330
1
100
AcDbSymbolTableRecord
100
AcDbBlockTableRecord
  2
*D8
340
0
  0
BLOCK_RECORD
  5
41A
330
1
100
AcDbSymbolTableRecord
100
AcDbBlockTableRecord
  2
*D9
340
0
  0
BLOCK_RECORD
  5
426
330
1
100
AcDbSymbolTableRecord
100
AcDbBlockTableRecord
  2
*D10
340
0
  0
BLOCK_RECORD
  5
432
330
1
100
AcDbSymbolTableRecord
100
AcDbBlockTableRecord
  2
*D11
340
0
  0
BLOCK_RECORD
  5
43E
330
1
100
AcDbSymbolTableRecord
100
AcDbBlockTableRecord
  2
*D12
340
0
  0
BLOCK_RECORD
  5
44A
330
1
100
AcDbSymbolTableRecord
100
AcDbBlockTableRecord
  2
*D13
340
0
  0
BLOCK_RECORD
  5
69D
330
1
100
AcDbSymbolTableRecord
100
AcDbBlockTableRecord
  2
*D14
340
0
  0
BLOCK_RECORD
  5
6A9
330
1
100
AcDbSymbolTableRecord
100
AcDbBlockTableRecord
  2
*D15
340
0
  0
BLOCK_RECORD
  5
6B7
330
1
100
AcDbSymbolTableRecord
100
AcDbBlockTableRecord
  2
*D16
340
0
  0
BLOCK_RECORD
  5
6C3
330
1
100
AcDbSymbolTableRecord
100
AcDbBlockTableRecord
  2
*D17
340
0
  0
BLOCK_RECORD
  5
6CF
330
1
100
AcDbSymbolTableRecord
100
AcDbBlockTableRecord
  2
*D18
340
0
  0
BLOCK_RECORD
  5
6DB
330
1
100
AcDbSymbolTableRecord
100
AcDbBlockTableRecord
  2
*D19
340
0
  0
BLOCK_RECORD
  5
6E7
330
1
100
AcDbSymbolTableRecord
100
AcDbBlockTableRecord
  2
*D20
340
0
  0
BLOCK_RECORD
  5
6F3
330
1
100
AcDbSymbolTableRecord
100
AcDbBlockTableRecord
  2
*D21
340
0
  0
BLOCK_RECORD
  5
6FF
330
1
100
AcDbSymbolTableRecord
100
AcDbBlockTableRecord
  2
*D22
340
0
  0
BLOCK_RECORD
  5
7C6
330
1
100
AcDbSymbolTableRecord
100
AcDbBlockTableRecord
  2
*U23
340
0
  0
BLOCK_RECORD
  5
7D4
330
1
100
AcDbSymbolTableRecord
100
AcDbBlockTableRecord
  2
*U24
340
0
  0
BLOCK_RECORD
  5
7DC
330
1
100
AcDbSymbolTableRecord
100
AcDbBlockTableRecord
  2
*D25
340
0
  0
BLOCK_RECORD
  5
7E8
330
1
100
AcDbSymbolTableRecord
100
AcDbBlockTableRecord
  2
*D26
340
0
  0
BLOCK_RECORD
  5
7F4
330
1
100
AcDbSymbolTableRecord
100
AcDbBlockTableRecord
  2
*D27
340
0
  0
BLOCK_RECORD
  5
800
330
1
100
AcDbSymbolTableRecord
100
AcDbBlockTableRecord
  2
*D28
340
0
  0
BLOCK_RECORD
  5
80C
330
1
100
AcDbSymbolTableRecord
100
AcDbBlockTableRecord
  2
*D29
340
0
  0
BLOCK_RECORD
  5
818
330
1
100
AcDbSymbolTableRecord
100
AcDbBlockTableRecord
  2
*D30
340
0
  0
BLOCK_RECORD
  5
824
330
1
100
AcDbSymbolTableRecord
100
AcDbBlockTableRecord
  2
*D31
340
0
  0
BLOCK_RECORD
  5
A3D
330
1
100
AcDbSymbolTableRecord
100
AcDbBlockTableRecord
  2
*D32
340
0
  0
BLOCK_RECORD
  5
A49
330
1
100
AcDbSymbolTableRecord
100
AcDbBlockTableRecord
  2
*D33
340
0
  0
BLOCK_RECORD
  5
A55
330
1
100
AcDbSymbolTableRecord
100
AcDbBlockTableRecord
  2
*D34
340
0
  0
BLOCK_RECORD
  5
A61
330
1
100
AcDbSymbolTableRecord
100
AcDbBlockTableRecord
  2
*D35
340
0
  0
BLOCK_RECORD
  5
A6D
330
1
100
AcDbSymbolTableRecord
100
AcDbBlockTableRecord
  2
*D36
340
0
  0
BLOCK_RECORD
  5
A79
330
1
100
AcDbSymbolTableRecord
100
AcDbBlockTableRecord
  2
*D37
340
0
  0
BLOCK_RECORD
  5
A85
330
1
100
AcDbSymbolTableRecord
100
AcDbBlockTableRecord
  2
*D38
340
0
  0
ENDTAB
  0
ENDSEC
  0
SECTION
  2
BLOCKS
  0
BLOCK
  5
20
330
1F
100
AcDbEntity
  8
0
100
AcDbBlockBegin
  2
*Model_Space
 70
     0
 10
0.0
 20
0.0
 30
0.0
  3
*Model_Space
  1

  0
ENDBLK
  5
21
330
1F
100
AcDbEntity
  8
0
100
AcDbBlockEnd
  0
BLOCK
  5
1C
330
1B
100
AcDbEntity
 67
     1
  8
0
100
AcDbBlockBegin
  2
*Paper_Space
 70
     0
 10
0.0
 20
0.0
 30
0.0
  3
*Paper_Space
  1

  0
ENDBLK
  5
1D
330
1B
100
AcDbEntity
 67
     1
  8
0
100
AcDbBlockEnd
  0
BLOCK
  5
24
330
23
100
AcDbEntity
 67
     1
  8
0
100
AcDbBlockBegin
  2
*Paper_Space0
 70
     0
 10
0.0
 20
0.0
 30
0.0
  3
*Paper_Space0
  1

  0
ENDBLK
  5
25
330
23
100
AcDbEntity
 67
     1
  8
0
100
AcDbBlockEnd
  0
BLOCK
  5
89
330
87
100
AcDbEntity
  8
0
100
AcDbBlockBegin
  2
GENAXEH
 70
     0
 10
0.0
 20
0.0
 30
0.0
  3
GENAXEH
  1

  0
LINE
  5
88
330
87
100
AcDbEntity
  8
0
100
AcDbLine
 10
-1.0
 20
0.0
 30
0.0
 11
1.0
 21
0.0
 31
0.0
  0
ENDBLK
  5
8A
330
87
100
AcDbEntity
  8
0
100
AcDbBlockEnd
  0
BLOCK
  5
3AF
330
3AE
100
AcDbEntity
  8
0
100
AcDbBlockBegin
  2
befestigung
 70
     0
 10
0.0
 20
0.0
 30
0.0
  3
befestigung
  1

  0
LINE
  5
3B0
330
3AE
100
AcDbEntity
  8
AM_7N
  6
AM_ISO08W050x2
100
AcDbLine
 10
2003.869006815402
 20
1351.458312600669
 30
0.0
 11
2040.549006815402
 21
1351.458312600669
 31
0.0
1001
GENIUS_GENOREF_13
1005
0
1005
0
1005
0
  0
LINE
  5
3B1
330
3AE
100
AcDbEntity
  8
AM_9N
100
AcDbLine
 10
2015.674006815402
 20
1347.458312600669
 30
0.0
 11
2017.974006815402
 21
1347.458312600669
 31
0.0
1001
GENIUS_GENOREF_13
1005
0
1005
0
1005
0
  0
LINE
  5
3B2
330
3AE
100
AcDbEntity
  8
AM_9N
100
AcDbLine
 10
2022.209006815402
 20
1347.458312600669
 30
0.0
 11
2032.209006815401
 21
1347.458312600669
 31
0.0
1001
GENIUS_GENOREF_13
1005
0
1005
0
1005
0
  0
LINE
  5
3B3
330
3AE
100
AcDbEntity
  8
AM_0N
100
AcDbLine
 10
2027.974006815401
 20
1347.458312600669
 30
0.0
 11
2036.782194315402
 21
1347.458312600669
 31
0.0
1001
GENIUS_GENOREF_13
1005
0
1005
0
1005
0
  0
LINE
  5
3B4
330
3AE
100
AcDbEntity
  8
AM_9N
100
AcDbLine
 10
2015.674006815402
 20
1348.225125100669
 30
0.0
 11
2017.974006815402
 21
1348.225125100669
 31
0.0
1001
GENIUS_GENOREF_13
1005
0
1005
0
1005
0
  0
LINE
  5
3B5
330
3AE
100
AcDbEntity
  8
AM_9N
100
AcDbLine
 10
2022.209006815402
 20
1348.225125100669
 30
0.0
 11
2032.209006815401
 21
1348.225125100669
 31
0.0
1001
GENIUS_GENOREF_13
1005
0
1005
0
1005
0
  0
LINE
  5
3B6
330
3AE
100
AcDbEntity
  8
AM_4N
100
AcDbLine
 10
2027.974006815401
 20
1348.225125100669
 30
0.0
 11
2037.549006815402
 21
1348.225125100669
 31
0.0
1001
GENIUS_GENOREF_13
1005
0
1005
0
1005
0
  0
LINE
  5
3B7
330
3AE
100
AcDbEntity
  8
AM_9N
100
AcDbLine
 10
2015.674006815402
 20
1354.691500100669
 30
0.0
 11
2017.974006815402
 21
1354.691500100669
 31
0.0
1001
GENIUS_GENOREF_13
1005
0
1005
0
1005
0
  0
LINE
  5
3B8
330
3AE
100
AcDbEntity
  8
AM_9N
100
AcDbLine
 10
2027.974006815401
 20
1354.691500100669
 30
0.0
 11
2032.209006815401
 21
1354.691500100669
 31
0.0
1001
GENIUS_GENOREF_13
1005
0
1005
0
1005
0
  0
LINE
  5
3B9
330
3AE
100
AcDbEntity
  8
AM_4N
100
AcDbLine
 10
2027.974006815401
 20
1354.691500100669
 30
0.0
 11
2037.549006815402
 21
1354.691500100669
 31
0.0
1001
GENIUS_GENOREF_13
1005
0
1005
0
1005
0
  0
LINE
  5
3BA
330
3AE
100
AcDbEntity
  8
AM_9N
100
AcDbLine
 10
2015.674006815402
 20
1355.458312600669
 30
0.0
 11
2017.974006815402
 21
1355.458312600669
 31
0.0
1001
GENIUS_GENOREF_13
1005
0
1005
0
1005
0
  0
LINE
  5
3BB
330
3AE
100
AcDbEntity
  8
AM_9N
100
AcDbLine
 10
2027.974006815401
 20
1355.458312600669
 30
0.0
 11
2032.209006815401
 21
1355.458312600669
 31
0.0
1001
GENIUS_GENOREF_13
1005
0
1005
0
1005
0
  0
LINE
  5
3BC
330
3AE
100
AcDbEntity
  8
AM_0N
100
AcDbLine
 10
2027.974006815401
 20
1355.458312600669
 30
0.0
 11
2036.782194315402
 21
1355.458312600669
 31
0.0
1001
GENIUS_GENOREF_13
1005
0
1005
0
1005
0
  0
ARC
  5
3BD
330
3AE
100
AcDbEntity
  8
AM_0N
100
AcDbCircle
 10
2019.27813978905
 20
1351.458312600669
 30
0.0
 40
12.4091329736479
100
AcDbArc
 50
162.3875260144767
 51
197.6124739855233
1001
GENIUS_GENOREF_13
1005
0
1005
0
1005
0
  0
LINE
  5
3BE
330
3AE
100
AcDbEntity
  8
AM_0N
100
AcDbLine
 10
2012.549006815402
 20
1347.458312600669
 30
0.0
 11
2012.549006815402
 21
1355.458312600669
 31
0.0
1001
GENIUS_GENOREF_13
1005
0
1005
0
1005
0
  0
LINE
  5
3BF
330
3AE
100
AcDbEntity
  8
AM_0N
100
AcDbLine
 10
2012.549006815402
 20
1355.458312600669
 30
0.0
 11
2012.549006815402
 21
1347.458312600669
 31
0.0
1001
GENIUS_GENOREF_13
1005
0
1005
0
1005
0
  0
LINE
  5
3C0
330
3AE
100
AcDbEntity
  8
AM_0N
100
AcDbLine
 10
2006.869006815402
 20
1357.958312600669
 30
0.0
 11
2006.869006815402
 21
1344.958312600669
 31
0.0
1001
GENIUS_GENOREF_13
1005
0
1005
0
1005
0
  0
LINE
  5
3C1
330
3AE
100
AcDbEntity
  8
AM_0N
100
AcDbLine
 10
2007.45068721161
 20
1343.950812600669
 30
0.0
 11
2012.549006815402
 21
1343.950812600669
 31
0.0
1001
GENIUS_GENOREF_13
1005
0
1005
0
1005
0
  0
LINE
  5
3C2
330
3AE
100
AcDbEntity
  8
AM_0N
100
AcDbLine
 10
2007.45068721161
 20
1347.703589350401
 30
0.0
 11
2012.549006815402
 21
1347.703589350401
 31
0.0
1001
GENIUS_GENOREF_13
1005
0
1005
0
1005
0
  0
ARC
  5
3C3
330
3AE
100
AcDbEntity
  8
AM_0N
100
AcDbCircle
 10
2010.186279876194
 20
1345.827200975535
 30
0.0
 40
3.317273060791837
100
AcDbArc
 50
145.5531276177371
 51
205.5531276177362
1001
GENIUS_GENOREF_13
1005
0
1005
0
1005
0
  0
LINE
  5
3C4
330
3AE
100
AcDbEntity
  8
AM_0N
100
AcDbLine
 10
2007.45068721161
 20
1343.950812600669
 30
0.0
 11
2006.869006815402
 21
1344.958312600669
 31
0.0
1001
GENIUS_GENOREF_13
1005
0
1005
0
1005
0
  0
LINE
  5
3C5
330
3AE
100
AcDbEntity
  8
AM_0N
100
AcDbLine
 10
2012.549006815402
 20
1343.950812600669
 30
0.0
 11
2012.549006815402
 21
1347.458312600669
 31
0.0
1001
GENIUS_GENOREF_13
1005
0
1005
0
1005
0
  0
LINE
  5
3C6
330
3AE
100
AcDbEntity
  8
AM_0N
100
AcDbLine
 10
2012.549006815402
 20
1355.458312600669
 30
0.0
 11
2012.549006815402
 21
1358.965812600669
 31
0.0
1001
GENIUS_GENOREF_13
1005
0
1005
0
1005
0
  0
LINE
  5
3C7
330
3AE
100
AcDbEntity
  8
AM_0N
100
AcDbLine
 10
2007.45068721161
 20
1358.965812600669
 30
0.0
 11
2006.869006815402
 21
1357.958312600669
 31
0.0
1001
GENIUS_GENOREF_13
1005
0
1005
0
1005
0
  0
LINE
  5
3C8
330
3AE
100
AcDbEntity
  8
AM_0N
100
AcDbLine
 10
2007.45068721161
 20
1355.213035850936
 30
0.0
 11
2012.549006815402
 21
1355.213035850936
 31
0.0
1001
GENIUS_GENOREF_13
1005
0
1005
0
1005
0
  0
ARC
  5
3C9
330
3AE
100
AcDbEntity
  8
AM_0N
100
AcDbCircle
 10
2010.186279876194
 20
1357.089424225803
 30
0.0
 40
3.317273060791837
100
AcDbArc
 50
154.4468723822637
 51
214.4468723822629
1001
GENIUS_GENOREF_13
1005
0
1005
0
1005
0
  0
LINE
  5
3CA
330
3AE
100
AcDbEntity
  8
AM_0N
100
AcDbLine
 10
2007.45068721161
 20
1358.965812600669
 30
0.0
 11
2012.549006815402
 21
1358.965812600669
 31
0.0
1001
GENIUS_GENOREF_13
1005
0
1005
0
1005
0
  0
LINE
  5
3CB
330
3AE
100
AcDbEntity
  8
AM_0N
100
AcDbLine
 10
2036.782194315402
 20
1347.458312600669
 30
0.0
 11
2036.782194315402
 21
1355.458312600669
 31
0.0
1001
GENIUS_GENOREF_13
1005
0
1005
0
1005
0
  0
LINE
  5
3CC
330
3AE
100
AcDbEntity
  8
AM_0N
100
AcDbLine
 10
2037.549006815402
 20
1348.225125100669
 30
0.0
 11
2036.782194315402
 21
1347.458312600669
 31
0.0
1001
GENIUS_GENOREF_13
1005
0
1005
0
1005
0
  0
LINE
  5
3CD
330
3AE
100
AcDbEntity
  8
AM_0N
100
AcDbLine
 10
2037.549006815402
 20
1348.225125100669
 30
0.0
 11
2037.549006815402
 21
1354.691500100669
 31
0.0
1001
GENIUS_GENOREF_13
1005
0
1005
0
1005
0
  0
LINE
  5
3CE
330
3AE
100
AcDbEntity
  8
AM_0N
100
AcDbLine
 10
2036.782194315402
 20
1355.458312600669
 30
0.0
 11
2037.549006815402
 21
1354.691500100669
 31
0.0
1001
GENIUS_GENOREF_13
1005
0
1005
0
1005
0
  0
INSERT
  5
3CF
330
3AE
100
AcDbEntity
  8
AM_0N
100
AcDbBlockReference
  2
*U3
 10
0.0
 20
0.0
 30
0.0
1001
GENIUS_GENOREF_13
1005
0
  0
INSERT
  5
3D0
330
3AE
100
AcDbEntity
  8
AM_0N
100
AcDbBlockReference
  2
*U4
 10
0.0
 20
0.0
 30
0.0
1001
GENIUS_GENOREF_13
1005
0
  0
ENDBLK
  5
3D1
330
3AE
100
AcDbEntity
  8
0
100
AcDbBlockEnd
  0
BLOCK
  5
3D3
330
3D2
100
AcDbEntity
  8
0
100
AcDbBlockBegin
  2
*U3
 70
     1
 10
0.0
 20
0.0
 30
0.0
  3
*U3
  1

  0
ARC
  5
3D4
330
3D2
100
AcDbEntity
  8
AM_0N
100
AcDbCircle
 10
2031.974006815402
 20
1364.958312600669
 30
0.0
 40
6.0
100
AcDbArc
 50
284.6765041088877
 51
134.956760177952
  0
LINE
  5
3D5
330
3D2
100
AcDbEntity
  8
AM_0N
100
AcDbLine
 10
2017.974006815402
 20
1359.458312600669
 30
0.0
 11
2027.734569160611
 21
1369.204153903773
 31
0.0
  0
LINE
  5
3D6
330
3D2
100
AcDbEntity
  8
AM_0N
100
AcDbLine
 10
2027.974006815401
 20
1357.708312600669
 30
0.0
 11
2033.494174408163
 21
1359.154082204663
 31
0.0
  0
ARC
  5
3D7
330
3D2
100
AcDbEntity
  8
AM_0N
100
AcDbCircle
 10
2031.974006815402
 20
1337.958312600669
 30
0.0
 40
6.0
100
AcDbArc
 50
225.043239822048
 51
75.3234958911123
  0
LINE
  5
3D8
330
3D2
100
AcDbEntity
  8
AM_0N
100
AcDbLine
 10
2017.974006815402
 20
1343.458312600669
 30
0.0
 11
2027.734569160611
 21
1333.712471297565
 31
0.0
  0
LINE
  5
3D9
330
3D2
100
AcDbEntity
  8
AM_7N
  6
AM_ISO08W050x2
100
AcDbLine
 10
2030.974006815402
 20
1351.458312600669
 30
0.0
 11
2014.974006815402
 21
1351.458312600669
 31
0.0
  0
LINE
  5
3DA
330
3D2
100
AcDbEntity
  8
AM_0N
100
AcDbLine
 10
2017.974006815402
 20
1343.458312600669
 30
0.0
 11
2017.974006815402
 21
1359.458312600669
 31
0.0
  0
LINE
  5
3DB
330
3D2
100
AcDbEntity
  8
AM_0N
100
AcDbLine
 10
2027.974006815401
 20
1357.708312600669
 30
0.0
 11
2027.974006815401
 21
1345.208312600669
 31
0.0
  0
LINE
  5
3DC
330
3D2
100
AcDbEntity
  8
AM_0N
100
AcDbLine
 10
2027.974006815401
 20
1345.208312600669
 30
0.0
 11
2017.974006815402
 21
1343.458312600669
 31
0.0
  0
LINE
  5
3DD
330
3D2
100
AcDbEntity
  8
AM_0N
100
AcDbLine
 10
2027.974006815401
 20
1345.208312600669
 30
0.0
 11
2033.494174408163
 21
1343.762542996675
 31
0.0
  0
LINE
  5
3DE
330
3D2
100
AcDbEntity
  8
AM_0N
100
AcDbLine
 10
2017.974006815402
 20
1359.458312600669
 30
0.0
 11
2027.974006815401
 21
1357.708312600669
 31
0.0
  0
ENDBLK
  5
3DF
330
3D2
100
AcDbEntity
  8
0
100
AcDbBlockEnd
  0
BLOCK
  5
3E1
330
3E0
100
AcDbEntity
  8
0
100
AcDbBlockBegin
  2
*U4
 70
     1
 10
0.0
 20
0.0
 30
0.0
  3
*U4
  1

  0
LINE
  5
3E2
330
3E0
100
AcDbEntity
  8
AM_7N
  6
AM_ISO08W050x2
100
AcDbLine
 10
2012.674006815402
 20
1351.458312600669
 30
0.0
 11
2020.974006815402
 21
1351.458312600669
 31
0.0
  0
LINE
  5
3E3
330
3E0
100
AcDbEntity
  8
AM_0N
100
AcDbLine
 10
2015.674006815402
 20
1360.858312600669
 30
0.0
 11
2015.674006815402
 21
1342.058312600669
 31
0.0
  0
LINE
  5
3E4
330
3E0
100
AcDbEntity
  8
AM_0N
100
AcDbLine
 10
2017.974006815402
 20
1342.058312600669
 30
0.0
 11
2017.974006815402
 21
1360.858312600669
 31
0.0
  0
LINE
  5
3E5
330
3E0
100
AcDbEntity
  8
AM_0N
100
AcDbLine
 10
2015.674006815402
 20
1342.058312600669
 30
0.0
 11
2017.974006815402
 21
1342.058312600669
 31
0.0
  0
LINE
  5
3E6
330
3E0
100
AcDbEntity
  8
AM_0N
100
AcDbLine
 10
2017.974006815402
 20
1360.858312600669
 30
0.0
 11
2015.674006815402
 21
1360.858312600669
 31
0.0
  0
ENDBLK
  5
3E7
330
3E0
100
AcDbEntity
  8
0
100
AcDbBlockEnd
  0
BLOCK
  5
3E9
330
3E8
100
AcDbEntity
  8
0
100
AcDbBlockBegin
  2
*D5
 70
     1
 10
0.0
 20
0.0
 30
0.0
  3
*D5
  1

  0
LINE
  5
3EA
330
3E8
100
AcDbEntity
  8
AM_5
  6
ByBlock
100
AcDbLine
 10
4050.379443753896
 20
325.7890823187033
 30
0.0
 11
4172.663131403129
 21
325.7890823187033
 31
0.0
  0
LINE
  5
3EB
330
3E8
100
AcDbEntity
  8
AM_5
  6
ByBlock
100
AcDbLine
 10
4052.449902993864
 20
452.7165108899651
 30
0.0
 11
4172.663131403129
 21
452.7165108899651
 31
0.0
  0
LINE
  5
3EC
330
3E8
100
AcDbEntity
  8
AM_5
  6
ByBlock
100
AcDbLine
 10
4171.663131403129
 20
332.7890823187033
 30
0.0
 11
4171.663131403129
 21
445.716510889965
 31
0.0
  0
SOLID
  5
3ED
330
3E8
100
AcDbEntity
  8
AM_5
100
AcDbTrace
 10
4170.496464736461
 20
332.7890823187033
 30
0.0
 11
4172.829798069796
 21
332.7890823187033
 31
0.0
 12
4171.663131403129
 22
325.7890823187033
 32
0.0
 13
4171.663131403129
 23
325.7890823187033
 33
0.0
  0
SOLID
  5
3EE
330
3E8
100
AcDbEntity
  8
AM_5
100
AcDbTrace
 10
4170.496464736461
 20
445.716510889965
 30
0.0
 11
4172.829798069796
 21
445.716510889965
 31
0.0
 12
4171.663131403129
 22
452.7165108899651
 32
0.0
 13
4171.663131403129
 23
452.7165108899651
 33
0.0
  0
MTEXT
  5
3EF
330
3E8
100
AcDbEntity
  8
AM_5
 62
     2
100
AcDbMText
 10
4165.163131403128
 20
389.2527966043349
 30
0.0
 40
10.0
 41
0.0
 71
     5
 72
     1
  1
107-160
 11
0.0000000000000001
 21
1.0
 31
0.0
 73
     1
 44
1.0
1001
ACAD
1000
MTEXTBEGIN
1070
    73
1070
     1
1070
    44
1040
1.0
1070
    74
1070
     0
1000
MTEXTEND
  0
POINT
  5
3F0
330
3E8
100
AcDbEntity
  8
Defpoints
 62
     0
100
AcDbPoint
 10
4049.379443753895
 20
325.7890823187033
 30
0.0
  0
POINT
  5
3F1
330
3E8
100
AcDbEntity
  8
Defpoints
 62
     0
100
AcDbPoint
 10
4051.449902993864
 20
452.7165108899651
 30
0.0
  0
POINT
  5
3F2
330
3E8
100
AcDbEntity
  8
Defpoints
 62
     0
100
AcDbPoint
 10
4171.663131403129
 20
452.7165108899651
 30
0.0
  0
ENDBLK
  5
3F3
330
3E8
100
AcDbEntity
  8
0
100
AcDbBlockEnd
  0
BLOCK
  5
3F5
330
3F4
100
AcDbEntity
  8
0
100
AcDbBlockBegin
  2
*D6
 70
     1
 10
0.0
 20
0.0
 30
0.0
  3
*D6
  1

  0
LINE
  5
3F6
330
3F4
100
AcDbEntity
  8
AM_5
  6
ByBlock
100
AcDbLine
 10
4074.365729468266
 20
437.7250823187041
 30
0.0
 11
4127.297921615272
 21
437.7250823187041
 31
0.0
  0
LINE
  5
3F7
330
3F4
100
AcDbEntity
  8
AM_5
  6
ByBlock
100
AcDbLine
 10
4052.449902993864
 20
452.7165108899651
 30
0.0
 11
4127.297921615272
 21
452.7165108899651
 31
0.0
  0
LINE
  5
3F8
330
3F4
100
AcDbEntity
  8
AM_5
  6
ByBlock
100
AcDbLine
 10
4126.297921615273
 20
430.7250823187041
 30
0.0
 11
4126.297921615273
 21
423.7250823187041
 31
0.0
  0
LINE
  5
3F9
330
3F4
100
AcDbEntity
  8
AM_5
  6
ByBlock
100
AcDbLine
 10
4126.297921615273
 20
459.7165108899651
 30
0.0
 11
4126.297921615273
 21
466.7165108899649
 31
0.0
  0
LINE
  5
3FA
330
3F4
100
AcDbEntity
  8
AM_5
  6
ByBlock
100
AcDbLine
 10
4126.297921615273
 20
437.7250823187041
 30
0.0
 11
4126.297921615273
 21
452.7165108899651
 31
0.0
  0
SOLID
  5
3FB
330
3F4
100
AcDbEntity
  8
AM_5
100
AcDbTrace
 10
4125.131254948605
 20
430.7250823187041
 30
0.0
 11
4127.464588281941
 21
430.7250823187041
 31
0.0
 12
4126.297921615273
 22
437.7250823187041
 32
0.0
 13
4126.297921615273
 23
437.7250823187041
 33
0.0
  0
SOLID
  5
3FC
330
3F4
100
AcDbEntity
  8
AM_5
100
AcDbTrace
 10
4125.131254948605
 20
459.7165108899651
 30
0.0
 11
4127.464588281941
 21
459.7165108899651
 31
0.0
 12
4126.297921615273
 22
452.7165108899651
 32
0.0
 13
4126.297921615273
 23
452.7165108899651
 33
0.0
  0
MTEXT
  5
3FD
330
3F4
100
AcDbEntity
  8
AM_5
 62
     2
100
AcDbMText
 10
4119.797921615274
 20
445.2207966043353
 30
0.0
 40
10.0
 41
0.0
 71
     5
 72
     1
  1
15
 11
0.0000000000000001
 21
1.0
 31
0.0
 73
     1
 44
1.0
1001
ACAD
1000
MTEXTBEGIN
1070
    73
1070
     1
1070
    44
1040
1.0
1070
    74
1070
     0
1000
MTEXTEND
  0
POINT
  5
3FE
330
3F4
100
AcDbEntity
  8
Defpoints
 62
     0
100
AcDbPoint
 10
4073.365729468267
 20
437.7250823187041
 30
0.0
  0
POINT
  5
3FF
330
3F4
100
AcDbEntity
  8
Defpoints
 62
     0
100
AcDbPoint
 10
4051.449902993864
 20
452.7165108899651
 30
0.0
  0
POINT
  5
400
330
3F4
100
AcDbEntity
  8
Defpoints
 62
     0
100
AcDbPoint
 10
4126.297921615273
 20
452.7165108899651
 30
0.0
  0
ENDBLK
  5
401
330
3F4
100
AcDbEntity
  8
0
100
AcDbBlockEnd
  0
BLOCK
  5
403
330
402
100
AcDbEntity
  8
0
100
AcDbBlockBegin
  2
*D7
 70
     1
 10
0.0
 20
0.0
 30
0.0
  3
*D7
  1

  0
LINE
  5
404
330
402
100
AcDbEntity
  8
AM_5
  6
ByBlock
100
AcDbLine
 10
4052.449902993864
 20
452.7165108899651
 30
0.0
 11
4127.448072187616
 21
452.7165108899651
 31
0.0
  0
LINE
  5
405
330
402
100
AcDbEntity
  8
AM_5
  6
ByBlock
100
AcDbLine
 10
4074.365729468266
 20
492.6936537468582
 30
0.0
 11
4127.448072187616
 21
492.6936537468582
 31
0.0
  0
LINE
  5
406
330
402
100
AcDbEntity
  8
AM_5
  6
ByBlock
100
AcDbLine
 10
4126.448072187616
 20
459.7165108899651
 30
0.0
 11
4126.448072187616
 21
485.6936537468582
 31
0.0
  0
SOLID
  5
407
330
402
100
AcDbEntity
  8
AM_5
100
AcDbTrace
 10
4125.281405520949
 20
459.7165108899651
 30
0.0
 11
4127.614738854282
 21
459.7165108899651
 31
0.0
 12
4126.448072187616
 22
452.7165108899651
 32
0.0
 13
4126.448072187616
 23
452.7165108899651
 33
0.0
  0
SOLID
  5
408
330
402
100
AcDbEntity
  8
AM_5
100
AcDbTrace
 10
4125.281405520949
 20
485.6936537468582
 30
0.0
 11
4127.614738854282
 21
485.6936537468582
 31
0.0
 12
4126.448072187616
 22
492.6936537468582
 32
0.0
 13
4126.448072187616
 23
492.6936537468582
 33
0.0
  0
MTEXT
  5
409
330
402
100
AcDbEntity
  8
AM_5
 62
     2
100
AcDbMText
 10
4119.948072187616
 20
472.7050823184123
 30
0.0
 40
10.0
 41
0.0
 71
     5
 72
     1
  1
40
 11
0.0000000000000001
 21
1.0
 31
0.0
 73
     1
 44
1.0
1001
ACAD
1000
MTEXTBEGIN
1070
    73
1070
     1
1070
    44
1040
1.0
1070
    74
1070
     0
1000
MTEXTEND
  0
POINT
  5
40A
330
402
100
AcDbEntity
  8
Defpoints
 62
     0
100
AcDbPoint
 10
4051.449902993864
 20
452.7165108899651
 30
0.0
  0
POINT
  5
40B
330
402
100
AcDbEntity
  8
Defpoints
 62
     0
100
AcDbPoint
 10
4073.365729468267
 20
492.6936537468582
 30
0.0
  0
POINT
  5
40C
330
402
100
AcDbEntity
  8
Defpoints
 62
     0
100
AcDbPoint
 10
4126.448072187616
 20
492.6936537468582
 30
0.0
  0
ENDBLK
  5
40D
330
402
100
AcDbEntity
  8
0
100
AcDbBlockEnd
  0
BLOCK
  5
40F
330
40E
100
AcDbEntity
  8
0
100
AcDbBlockBegin
  2
*D8
 70
     1
 10
0.0
 20
0.0
 30
0.0
  3
*D8
  1

  0
LINE
  5
410
330
40E
100
AcDbEntity
  8
AM_5
  6
ByBlock
100
AcDbLine
 10
4052.449902993864
 20
51.08480039819415
 30
0.0
 11
4132.712865278581
 21
51.08480039819411
 31
0.0
  0
LINE
  5
411
330
40E
100
AcDbEntity
  8
AM_5
  6
ByBlock
100
AcDbLine
 10
4054.44876013697
 20
135.0848003981943
 30
0.0
 11
4132.712865278581
 21
135.0848003981943
 31
0.0
  0
LINE
  5
412
330
40E
100
AcDbEntity
  8
AM_5
  6
ByBlock
100
AcDbLine
 10
4131.712865278581
 20
58.08480039819411
 30
0.0
 11
4131.712865278581
 21
128.0848003981944
 31
0.0
  0
SOLID
  5
413
330
40E
100
AcDbEntity
  8
AM_5
100
AcDbTrace
 10
4130.546198611916
 20
58.08480039819411
 30
0.0
 11
4132.879531945247
 21
58.08480039819411
 31
0.0
 12
4131.712865278581
 22
51.08480039819411
 32
0.0
 13
4131.712865278581
 23
51.08480039819411
 33
0.0
  0
SOLID
  5
414
330
40E
100
AcDbEntity
  8
AM_5
100
AcDbTrace
 10
4130.546198611916
 20
128.0848003981944
 30
0.0
 11
4132.879531945247
 21
128.0848003981944
 31
0.0
 12
4131.712865278581
 22
135.0848003981943
 32
0.0
 13
4131.712865278581
 23
135.0848003981943
 33
0.0
  0
MTEXT
  5
415
330
40E
100
AcDbEntity
  8
AM_5
 62
     2
100
AcDbMText
 10
4125.212865278581
 20
93.08480039819492
 30
0.0
 40
10.0
 41
0.0
 71
     5
 72
     1
  1
84
 11
0.0000000000000001
 21
1.0
 31
0.0
 73
     1
 44
1.0
1001
ACAD
1000
MTEXTBEGIN
1070
    73
1070
     1
1070
    44
1040
1.0
1070
    74
1070
     0
1000
MTEXTEND
  0
POINT
  5
416
330
40E
100
AcDbEntity
  8
Defpoints
 62
     0
100
AcDbPoint
 10
4051.449902993864
 20
51.08480039819415
 30
0.0
  0
POINT
  5
417
330
40E
100
AcDbEntity
  8
Defpoints
 62
     0
100
AcDbPoint
 10
4053.44876013697
 20
135.0848003981943
 30
0.0
  0
POINT
  5
418
330
40E
100
AcDbEntity
  8
Defpoints
 62
     0
100
AcDbPoint
 10
4131.712865278581
 20
135.0848003981943
 30
0.0
  0
ENDBLK
  5
419
330
40E
100
AcDbEntity
  8
0
100
AcDbBlockEnd
  0
BLOCK
  5
41B
330
41A
100
AcDbEntity
  8
0
100
AcDbBlockBegin
  2
*D9
 70
     1
 10
0.0
 20
0.0
 30
0.0
  3
*D9
  1

  0
LINE
  5
41C
330
41A
100
AcDbEntity
  8
AM_5
  6
ByBlock
100
AcDbLine
 10
4083.431617279495
 20
26.58480039819415
 30
0.0
 11
4168.609615218841
 21
26.58480039819413
 31
0.0
  0
LINE
  5
41D
330
41A
100
AcDbEntity
  8
AM_5
  6
ByBlock
100
AcDbLine
 10
4084.431617279495
 20
159.5848003981941
 30
0.0
 11
4168.609615218841
 21
159.5848003981941
 31
0.0
  0
LINE
  5
41E
330
41A
100
AcDbEntity
  8
AM_5
  6
ByBlock
100
AcDbLine
 10
4167.609615218841
 20
33.58480039819413
 30
0.0
 11
4167.609615218841
 21
152.5848003981941
 31
0.0
  0
SOLID
  5
41F
330
41A
100
AcDbEntity
  8
AM_5
100
AcDbTrace
 10
4166.442948552174
 20
33.58480039819413
 30
0.0
 11
4168.776281885508
 21
33.58480039819413
 31
0.0
 12
4167.609615218841
 22
26.58480039819413
 32
0.0
 13
4167.609615218841
 23
26.58480039819413
 33
0.0
  0
SOLID
  5
420
330
41A
100
AcDbEntity
  8
AM_5
100
AcDbTrace
 10
4166.442948552174
 20
152.5848003981941
 30
0.0
 11
4168.776281885508
 21
152.5848003981941
 31
0.0
 12
4167.609615218841
 22
159.5848003981941
 32
0.0
 13
4167.609615218841
 23
159.5848003981941
 33
0.0
  0
MTEXT
  5
421
330
41A
100
AcDbEntity
  8
AM_5
 62
     2
100
AcDbMText
 10
4161.10961521884
 20
93.08480039819478
 30
0.0
 40
10.0
 41
0.0
 71
     5
 72
     1
  1
133
 11
0.0000000000000001
 21
1.0
 31
0.0
 73
     1
 44
1.0
1001
ACAD
1000
MTEXTBEGIN
1070
    73
1070
     1
1070
    44
1040
1.0
1070
    74
1070
     0
1000
MTEXTEND
  0
POINT
  5
422
330
41A
100
AcDbEntity
  8
Defpoints
 62
     0
100
AcDbPoint
 10
4082.431617279495
 20
26.58480039819415
 30
0.0
  0
POINT
  5
423
330
41A
100
AcDbEntity
  8
Defpoints
 62
     0
100
AcDbPoint
 10
4083.431617279495
 20
159.5848003981941
 30
0.0
  0
POINT
  5
424
330
41A
100
AcDbEntity
  8
Defpoints
 62
     0
100
AcDbPoint
 10
4167.609615218841
 20
159.5848003981941
 30
0.0
  0
ENDBLK
  5
425
330
41A
100
AcDbEntity
  8
0
100
AcDbBlockEnd
  0
BLOCK
  5
427
330
426
100
AcDbEntity
  8
0
100
AcDbBlockBegin
  2
*D10
 70
     1
 10
0.0
 20
0.0
 30
0.0
  3
*D10
  1

  0
LINE
  5
428
330
426
100
AcDbEntity
  8
AM_5
  6
ByBlock
100
AcDbLine
 10
4051.449902993864
 20
94.0848003981946
 30
0.0
 11
4051.449902993864
 21
180.5337149853096
 31
0.0
  0
LINE
  5
429
330
426
100
AcDbEntity
  8
AM_5
  6
ByBlock
100
AcDbLine
 10
3351.849902993861
 20
94.08480039819368
 30
0.0
 11
3351.849902993861
 21
180.5337149853096
 31
0.0
  0
LINE
  5
42A
330
426
100
AcDbEntity
  8
AM_5
  6
ByBlock
100
AcDbLine
 10
4044.449902993863
 20
179.5337149853096
 30
0.0
 11
3358.84990299386
 21
179.5337149853096
 31
0.0
  0
SOLID
  5
42B
330
426
100
AcDbEntity
  8
AM_5
100
AcDbTrace
 10
4044.449902993863
 20
180.7003816519763
 30
0.0
 11
4044.449902993863
 21
178.367048318643
 31
0.0
 12
4051.449902993864
 22
179.5337149853096
 32
0.0
 13
4051.449902993864
 23
179.5337149853096
 33
0.0
  0
SOLID
  5
42C
330
426
100
AcDbEntity
  8
AM_5
100
AcDbTrace
 10
3358.84990299386
 20
180.7003816519763
 30
0.0
 11
3358.84990299386
 21
178.367048318643
 31
0.0
 12
3351.849902993861
 22
179.5337149853096
 32
0.0
 13
3351.849902993861
 23
179.5337149853096
 33
0.0
  0
MTEXT
  5
42D
330
426
100
AcDbEntity
  8
AM_5
 62
     2
100
AcDbMText
 10
3701.649902993862
 20
186.0337149853096
 30
0.0
 40
10.0
 41
0.0
 71
     5
 72
     1
  1
700
 73
     1
 44
1.0
1001
ACAD
1000
MTEXTBEGIN
1070
    73
1070
     1
1070
    44
1040
1.0
1070
    74
1070
     0
1000
MTEXTEND
  0
POINT
  5
42E
330
426
100
AcDbEntity
  8
Defpoints
 62
     0
100
AcDbPoint
 10
4051.449902993864
 20
93.0848003981946
 30
0.0
  0
POINT
  5
42F
330
426
100
AcDbEntity
  8
Defpoints
 62
     0
100
AcDbPoint
 10
3351.849902993861
 20
93.0848003981937
 30
0.0
  0
POINT
  5
430
330
426
100
AcDbEntity
  8
Defpoints
 62
     0
100
AcDbPoint
 10
3351.849902993861
 20
179.5337149853096
 30
0.0
  0
ENDBLK
  5
431
330
426
100
AcDbEntity
  8
0
100
AcDbBlockEnd
  0
BLOCK
  5
433
330
432
100
AcDbEntity
  8
0
100
AcDbBlockBegin
  2
*D11
 70
     1
 10
0.0
 20
0.0
 30
0.0
  3
*D11
  1

  0
LINE
  5
434
330
432
100
AcDbEntity
  8
AM_5
  6
ByBlock
100
AcDbLine
 10
4083.431617279495
 20
155.4502861122705
 30
0.0
 11
4083.431617279495
 21
215.6571700524146
 31
0.0
  0
LINE
  5
435
330
432
100
AcDbEntity
  8
AM_5
  6
ByBlock
100
AcDbLine
 10
3319.868188708234
 20
155.4502861122705
 30
0.0
 11
3319.868188708234
 21
215.6571700524146
 31
0.0
  0
LINE
  5
436
330
432
100
AcDbEntity
  8
AM_5
  6
ByBlock
100
AcDbLine
 10
4076.431617279495
 20
214.6571700524146
 30
0.0
 11
3326.868188708234
 21
214.6571700524146
 31
0.0
  0
SOLID
  5
437
330
432
100
AcDbEntity
  8
AM_5
100
AcDbTrace
 10
4076.431617279495
 20
215.8238367190812
 30
0.0
 11
4076.431617279495
 21
213.4905033857479
 31
0.0
 12
4083.431617279495
 22
214.6571700524146
 32
0.0
 13
4083.431617279495
 23
214.6571700524146
 33
0.0
  0
SOLID
  5
438
330
432
100
AcDbEntity
  8
AM_5
100
AcDbTrace
 10
3326.868188708234
 20
215.8238367190812
 30
0.0
 11
3326.868188708234
 21
213.4905033857479
 31
0.0
 12
3319.868188708234
 22
214.6571700524146
 32
0.0
 13
3319.868188708234
 23
214.6571700524146
 33
0.0
  0
MTEXT
  5
439
330
432
100
AcDbEntity
  8
AM_5
 62
     2
100
AcDbMText
 10
3701.649902993864
 20
221.1571700524146
 30
0.0
 40
10.0
 41
0.0
 71
     5
 72
     1
  1
764
 73
     1
 44
1.0
1001
ACAD
1000
MTEXTBEGIN
1070
    73
1070
     1
1070
    44
1040
1.0
1070
    74
1070
     0
1000
MTEXTEND
  0
POINT
  5
43A
330
432
100
AcDbEntity
  8
Defpoints
 62
     0
100
AcDbPoint
 10
4083.431617279495
 20
154.4502861122705
 30
0.0
  0
POINT
  5
43B
330
432
100
AcDbEntity
  8
Defpoints
 62
     0
100
AcDbPoint
 10
3319.868188708234
 20
154.4502861122705
 30
0.0
  0
POINT
  5
43C
330
432
100
AcDbEntity
  8
Defpoints
 62
     0
100
AcDbPoint
 10
3319.868188708234
 20
214.6571700524146
 30
0.0
  0
ENDBLK
  5
43D
330
432
100
AcDbEntity
  8
0
100
AcDbBlockEnd
  0
BLOCK
  5
43F
330
43E
100
AcDbEntity
  8
0
100
AcDbBlockBegin
  2
*D12
 70
     1
 10
0.0
 20
0.0
 30
0.0
  3
*D12
  1

  0
LINE
  5
440
330
43E
100
AcDbEntity
  8
AM_5
  6
ByBlock
100
AcDbLine
 10
4398.441128890381
 20
452.7165108900164
 30
0.0
 11
4398.441128890381
 21
501.4470983889324
 31
0.0
  0
LINE
  5
441
330
43E
100
AcDbEntity
  8
AM_5
  6
ByBlock
100
AcDbLine
 10
4318.441128890477
 20
452.7165108899064
 30
0.0
 11
4318.441128890477
 21
501.4470983889324
 31
0.0
  0
LINE
  5
442
330
43E
100
AcDbEntity
  8
AM_5
  6
ByBlock
100
AcDbLine
 10
4391.441128890381
 20
500.4470983889325
 30
0.0
 11
4325.441128890477
 21
500.4470983889325
 31
0.0
  0
SOLID
  5
443
330
43E
100
AcDbEntity
  8
AM_5
100
AcDbTrace
 10
4391.441128890381
 20
501.6137650555992
 30
0.0
 11
4391.441128890381
 21
499.2804317222658
 31
0.0
 12
4398.441128890381
 22
500.4470983889325
 32
0.0
 13
4398.441128890381
 23
500.4470983889325
 33
0.0
  0
SOLID
  5
444
330
43E
100
AcDbEntity
  8
AM_5
100
AcDbTrace
 10
4325.441128890477
 20
501.6137650555992
 30
0.0
 11
4325.441128890477
 21
499.2804317222658
 31
0.0
 12
4318.441128890477
 22
500.4470983889325
 32
0.0
 13
4318.441128890477
 23
500.4470983889325
 33
0.0
  0
MTEXT
  5
445
330
43E
100
AcDbEntity
  8
AM_5
 62
     2
100
AcDbMText
 10
4358.441128890429
 20
506.9470983889324
 30
0.0
 40
10.0
 41
0.0
 71
     5
 72
     1
  1
80
 73
     1
 44
1.0
1001
ACAD
1000
MTEXTBEGIN
1070
    73
1070
     1
1070
    44
1040
1.0
1070
    74
1070
     0
1000
MTEXTEND
  0
POINT
  5
446
330
43E
100
AcDbEntity
  8
Defpoints
 62
     0
100
AcDbPoint
 10
4398.441128890381
 20
451.7165108900164
 30
0.0
  0
POINT
  5
447
330
43E
100
AcDbEntity
  8
Defpoints
 62
     0
100
AcDbPoint
 10
4318.441128890477
 20
451.7165108899063
 30
0.0
  0
POINT
  5
448
330
43E
100
AcDbEntity
  8
Defpoints
 62
     0
100
AcDbPoint
 10
4318.441128890477
 20
500.4470983889325
 30
0.0
  0
ENDBLK
  5
449
330
43E
100
AcDbEntity
  8
0
100
AcDbBlockEnd
  0
BLOCK
  5
44B
330
44A
100
AcDbEntity
  8
0
100
AcDbBlockBegin
  2
*D13
 70
     1
 10
0.0
 20
0.0
 30
0.0
  3
*D13
  1

  0
LINE
  5
44C
330
44A
100
AcDbEntity
  8
AM_5
  6
ByBlock
100
AcDbLine
 10
4316.441128890398
 20
452.7165108899091
 30
0.0
 11
4316.441128890398
 21
524.8433797953468
 31
0.0
  0
LINE
  5
44D
330
44A
100
AcDbEntity
  8
AM_5
  6
ByBlock
100
AcDbLine
 10
4400.441128890348
 20
452.7165108900128
 30
0.0
 11
4400.441128890348
 21
524.8433797953468
 31
0.0
  0
LINE
  5
44E
330
44A
100
AcDbEntity
  8
AM_5
  6
ByBlock
100
AcDbLine
 10
4323.441128890399
 20
523.8433797953469
 30
0.0
 11
4393.44112889035
 21
523.8433797953469
 31
0.0
  0
SOLID
  5
44F
330
44A
100
AcDbEntity
  8
AM_5
100
AcDbTrace
 10
4323.441128890399
 20
525.0100464620135
 30
0.0
 11
4323.441128890399
 21
522.6767131286801
 31
0.0
 12
4316.441128890398
 22
523.8433797953469
 32
0.0
 13
4316.441128890398
 23
523.8433797953469
 33
0.0
  0
SOLID
  5
450
330
44A
100
AcDbEntity
  8
AM_5
100
AcDbTrace
 10
4393.44112889035
 20
525.0100464620135
 30
0.0
 11
4393.44112889035
 21
522.6767131286801
 31
0.0
 12
4400.441128890348
 22
523.8433797953469
 32
0.0
 13
4400.441128890348
 23
523.8433797953469
 33
0.0
  0
MTEXT
  5
451
330
44A
100
AcDbEntity
  8
AM_5
 62
     2
100
AcDbMText
 10
4358.441128890375
 20
530.3433797953467
 30
0.0
 40
10.0
 41
0.0
 71
     5
 72
     1
  1
84
 73
     1
 44
1.0
1001
ACAD
1000
MTEXTBEGIN
1070
    73
1070
     1
1070
    44
1040
1.0
1070
    74
1070
     0
1000
MTEXTEND
  0
POINT
  5
452
330
44A
100
AcDbEntity
  8
Defpoints
 62
     0
100
AcDbPoint
 10
4316.441128890398
 20
451.7165108899091
 30
0.0
  0
POINT
  5
453
330
44A
100
AcDbEntity
  8
Defpoints
 62
     0
100
AcDbPoint
 10
4400.441128890348
 20
451.7165108900128
 30
0.0
  0
POINT
  5
454
330
44A
100
AcDbEntity
  8
Defpoints
 62
     0
100
AcDbPoint
 10
4400.441128890348
 20
523.8433797953469
 30
0.0
  0
ENDBLK
  5
455
330
44A
100
AcDbEntity
  8
0
100
AcDbBlockEnd
  0
BLOCK
  5
69E
330
69D
100
AcDbEntity
  8
0
100
AcDbBlockBegin
  2
*D14
 70
     1
 10
0.0
 20
0.0
 30
0.0
  3
*D14
  1

  0
LINE
  5
71D
330
69D
100
AcDbEntity
  8
AM_5
  6
ByBlock
100
AcDbLine
 10
3074.981575676172
 20
325.7890818297201
 30
0.0
 11
3197.265263325406
 21
325.7890818297201
 31
0.0
  0
LINE
  5
71E
330
69D
100
AcDbEntity
  8
AM_5
  6
ByBlock
100
AcDbLine
 10
3077.05203491614
 20
452.7165104009817
 30
0.0
 11
3197.265263325406
 21
452.7165104009817
 31
0.0
  0
LINE
  5
71F
330
69D
100
AcDbEntity
  8
AM_5
  6
ByBlock
100
AcDbLine
 10
3196.265263325405
 20
332.7890818297201
 30
0.0
 11
3196.265263325405
 21
445.7165104009818
 31
0.0
  0
SOLID
  5
720
330
69D
100
AcDbEntity
  8
AM_5
100
AcDbTrace
 10
3195.098596658738
 20
332.7890818297201
 30
0.0
 11
3197.431929992071
 21
332.7890818297201
 31
0.0
 12
3196.265263325405
 22
325.7890818297201
 32
0.0
 13
3196.265263325405
 23
325.7890818297201
 33
0.0
  0
SOLID
  5
721
330
69D
100
AcDbEntity
  8
AM_5
100
AcDbTrace
 10
3195.098596658738
 20
445.7165104009818
 30
0.0
 11
3197.431929992071
 21
445.7165104009818
 31
0.0
 12
3196.265263325405
 22
452.7165104009817
 32
0.0
 13
3196.265263325405
 23
452.7165104009817
 33
0.0
  0
MTEXT
  5
722
330
69D
100
AcDbEntity
  8
AM_5
 62
     2
100
AcDbMText
 10
3189.765263325405
 20
389.2527961153515
 30
0.0
 40
10.0
 41
0.0
 71
     5
 72
     1
  1
107-160
 11
0.0000000000000001
 21
1.0
 31
0.0
 73
     1
 44
1.0
1001
ACAD
1000
MTEXTBEGIN
1070
    73
1070
     1
1070
    44
1040
1.0
1070
    74
1070
     0
1000
MTEXTEND
  0
POINT
  5
723
330
69D
100
AcDbEntity
  8
Defpoints
 62
     0
100
AcDbPoint
 10
3073.981575676172
 20
325.7890818297201
 30
0.0
  0
POINT
  5
724
330
69D
100
AcDbEntity
  8
Defpoints
 62
     0
100
AcDbPoint
 10
3076.05203491614
 20
452.7165104009817
 30
0.0
  0
POINT
  5
725
330
69D
100
AcDbEntity
  8
Defpoints
 62
     0
100
AcDbPoint
 10
3196.265263325405
 20
452.7165104009817
 30
0.0
  0
ENDBLK
  5
69F
330
69D
100
AcDbEntity
  8
0
100
AcDbBlockEnd
  0
BLOCK
  5
6AA
330
6A9
100
AcDbEntity
  8
0
100
AcDbBlockBegin
  2
*D15
 70
     1
 10
0.0
 20
0.0
 30
0.0
  3
*D15
  1

  0
LINE
  5
726
330
6A9
100
AcDbEntity
  8
AM_5
  6
ByBlock
100
AcDbLine
 10
3098.967861390542
 20
437.7250818297208
 30
0.0
 11
3151.900053537549
 21
437.7250818297208
 31
0.0
  0
LINE
  5
727
330
6A9
100
AcDbEntity
  8
AM_5
  6
ByBlock
100
AcDbLine
 10
3077.05203491614
 20
452.7165104009817
 30
0.0
 11
3151.900053537549
 21
452.7165104009817
 31
0.0
  0
LINE
  5
728
330
6A9
100
AcDbEntity
  8
AM_5
  6
ByBlock
100
AcDbLine
 10
3150.900053537549
 20
430.7250818297208
 30
0.0
 11
3150.900053537549
 21
423.7250818297209
 31
0.0
  0
LINE
  5
729
330
6A9
100
AcDbEntity
  8
AM_5
  6
ByBlock
100
AcDbLine
 10
3150.900053537549
 20
459.7165104009818
 30
0.0
 11
3150.900053537549
 21
466.7165104009818
 31
0.0
  0
LINE
  5
72A
330
6A9
100
AcDbEntity
  8
AM_5
  6
ByBlock
100
AcDbLine
 10
3150.900053537549
 20
437.7250818297208
 30
0.0
 11
3150.900053537549
 21
452.7165104009817
 31
0.0
  0
SOLID
  5
72B
330
6A9
100
AcDbEntity
  8
AM_5
100
AcDbTrace
 10
3149.733386870884
 20
430.7250818297208
 30
0.0
 11
3152.066720204216
 21
430.7250818297208
 31
0.0
 12
3150.900053537549
 22
437.7250818297208
 32
0.0
 13
3150.900053537549
 23
437.7250818297208
 33
0.0
  0
SOLID
  5
72C
330
6A9
100
AcDbEntity
  8
AM_5
100
AcDbTrace
 10
3149.733386870884
 20
459.7165104009818
 30
0.0
 11
3152.066720204216
 21
459.7165104009818
 31
0.0
 12
3150.900053537549
 22
452.7165104009817
 32
0.0
 13
3150.900053537549
 23
452.7165104009817
 33
0.0
  0
MTEXT
  5
72D
330
6A9
100
AcDbEntity
  8
AM_5
 62
     2
100
AcDbMText
 10
3144.400053537549
 20
445.2207961153518
 30
0.0
 40
10.0
 41
0.0
 71
     5
 72
     1
  1
15
 11
0.0000000000000001
 21
1.0
 31
0.0
 73
     1
 44
1.0
1001
ACAD
1000
MTEXTBEGIN
1070
    73
1070
     1
1070
    44
1040
1.0
1070
    74
1070
     0
1000
MTEXTEND
  0
POINT
  5
72E
330
6A9
100
AcDbEntity
  8
Defpoints
 62
     0
100
AcDbPoint
 10
3097.967861390542
 20
437.7250818297208
 30
0.0
  0
POINT
  5
72F
330
6A9
100
AcDbEntity
  8
Defpoints
 62
     0
100
AcDbPoint
 10
3076.05203491614
 20
452.7165104009817
 30
0.0
  0
POINT
  5
730
330
6A9
100
AcDbEntity
  8
Defpoints
 62
     0
100
AcDbPoint
 10
3150.900053537549
 20
452.7165104009817
 30
0.0
  0
ENDBLK
  5
6AB
330
6A9
100
AcDbEntity
  8
0
100
AcDbBlockEnd
  0
BLOCK
  5
6B8
330
6B7
100
AcDbEntity
  8
0
100
AcDbBlockBegin
  2
*D16
 70
     1
 10
0.0
 20
0.0
 30
0.0
  3
*D16
  1

  0
LINE
  5
731
330
6B7
100
AcDbEntity
  8
AM_5
  6
ByBlock
100
AcDbLine
 10
3077.05203491614
 20
452.7165104009817
 30
0.0
 11
3152.050204109893
 21
452.7165104009817
 31
0.0
  0
LINE
  5
732
330
6B7
100
AcDbEntity
  8
AM_5
  6
ByBlock
100
AcDbLine
 10
3098.967861390542
 20
492.6936532578749
 30
0.0
 11
3152.050204109893
 21
492.6936532578749
 31
0.0
  0
LINE
  5
733
330
6B7
100
AcDbEntity
  8
AM_5
  6
ByBlock
100
AcDbLine
 10
3151.050204109892
 20
459.7165104009818
 30
0.0
 11
3151.050204109892
 21
485.693653257875
 31
0.0
  0
SOLID
  5
734
330
6B7
100
AcDbEntity
  8
AM_5
100
AcDbTrace
 10
3149.883537443225
 20
459.7165104009818
 30
0.0
 11
3152.216870776558
 21
459.7165104009818
 31
0.0
 12
3151.050204109892
 22
452.7165104009817
 32
0.0
 13
3151.050204109892
 23
452.7165104009817
 33
0.0
  0
SOLID
  5
735
330
6B7
100
AcDbEntity
  8
AM_5
100
AcDbTrace
 10
3149.883537443225
 20
485.693653257875
 30
0.0
 11
3152.216870776558
 21
485.693653257875
 31
0.0
 12
3151.050204109892
 22
492.6936532578749
 32
0.0
 13
3151.050204109892
 23
492.6936532578749
 33
0.0
  0
MTEXT
  5
736
330
6B7
100
AcDbEntity
  8
AM_5
 62
     2
100
AcDbMText
 10
3144.550204109892
 20
472.7050818294288
 30
0.0
 40
10.0
 41
0.0
 71
     5
 72
     1
  1
40
 11
0.0000000000000001
 21
1.0
 31
0.0
 73
     1
 44
1.0
1001
ACAD
1000
MTEXTBEGIN
1070
    73
1070
     1
1070
    44
1040
1.0
1070
    74
1070
     0
1000
MTEXTEND
  0
POINT
  5
737
330
6B7
100
AcDbEntity
  8
Defpoints
 62
     0
100
AcDbPoint
 10
3076.05203491614
 20
452.7165104009817
 30
0.0
  0
POINT
  5
738
330
6B7
100
AcDbEntity
  8
Defpoints
 62
     0
100
AcDbPoint
 10
3097.967861390542
 20
492.6936532578749
 30
0.0
  0
POINT
  5
739
330
6B7
100
AcDbEntity
  8
Defpoints
 62
     0
100
AcDbPoint
 10
3151.050204109892
 20
492.6936532578749
 30
0.0
  0
ENDBLK
  5
6B9
330
6B7
100
AcDbEntity
  8
0
100
AcDbBlockEnd
  0
BLOCK
  5
6C4
330
6C3
100
AcDbEntity
  8
0
100
AcDbBlockBegin
  2
*D17
 70
     1
 10
0.0
 20
0.0
 30
0.0
  3
*D17
  1

  0
LINE
  5
73A
330
6C3
100
AcDbEntity
  8
AM_5
  6
ByBlock
100
AcDbLine
 10
3077.05203491614
 20
51.0847999092109
 30
0.0
 11
3157.314997200857
 21
51.0847999092109
 31
0.0
  0
LINE
  5
73B
330
6C3
100
AcDbEntity
  8
AM_5
  6
ByBlock
100
AcDbLine
 10
3079.050892059246
 20
135.0847999092111
 30
0.0
 11
3157.314997200857
 21
135.0847999092111
 31
0.0
  0
LINE
  5
73C
330
6C3
100
AcDbEntity
  8
AM_5
  6
ByBlock
100
AcDbLine
 10
3156.314997200857
 20
58.08479990921089
 30
0.0
 11
3156.314997200857
 21
128.0847999092111
 31
0.0
  0
SOLID
  5
73D
330
6C3
100
AcDbEntity
  8
AM_5
100
AcDbTrace
 10
3155.148330534192
 20
58.08479990921089
 30
0.0
 11
3157.481663867523
 21
58.08479990921089
 31
0.0
 12
3156.314997200857
 22
51.0847999092109
 32
0.0
 13
3156.314997200857
 23
51.0847999092109
 33
0.0
  0
SOLID
  5
73E
330
6C3
100
AcDbEntity
  8
AM_5
100
AcDbTrace
 10
3155.148330534192
 20
128.0847999092111
 30
0.0
 11
3157.481663867523
 21
128.0847999092111
 31
0.0
 12
3156.314997200857
 22
135.0847999092111
 32
0.0
 13
3156.314997200857
 23
135.0847999092111
 33
0.0
  0
MTEXT
  5
73F
330
6C3
100
AcDbEntity
  8
AM_5
 62
     2
100
AcDbMText
 10
3149.814997200857
 20
93.08479990921153
 30
0.0
 40
10.0
 41
0.0
 71
     5
 72
     1
  1
84
 11
0.0000000000000001
 21
1.0
 31
0.0
 73
     1
 44
1.0
1001
ACAD
1000
MTEXTBEGIN
1070
    73
1070
     1
1070
    44
1040
1.0
1070
    74
1070
     0
1000
MTEXTEND
  0
POINT
  5
740
330
6C3
100
AcDbEntity
  8
Defpoints
 62
     0
100
AcDbPoint
 10
3076.05203491614
 20
51.0847999092109
 30
0.0
  0
POINT
  5
741
330
6C3
100
AcDbEntity
  8
Defpoints
 62
     0
100
AcDbPoint
 10
3078.050892059246
 20
135.0847999092111
 30
0.0
  0
POINT
  5
742
330
6C3
100
AcDbEntity
  8
Defpoints
 62
     0
100
AcDbPoint
 10
3156.314997200857
 20
135.0847999092111
 30
0.0
  0
ENDBLK
  5
6C5
330
6C3
100
AcDbEntity
  8
0
100
AcDbBlockEnd
  0
BLOCK
  5
6D0
330
6CF
100
AcDbEntity
  8
0
100
AcDbBlockBegin
  2
*D18
 70
     1
 10
0.0
 20
0.0
 30
0.0
  3
*D18
  1

  0
LINE
  5
743
330
6CF
100
AcDbEntity
  8
AM_5
  6
ByBlock
100
AcDbLine
 10
3108.033749201772
 20
26.58479990921092
 30
0.0
 11
3193.211747141117
 21
26.58479990921089
 31
0.0
  0
LINE
  5
744
330
6CF
100
AcDbEntity
  8
AM_5
  6
ByBlock
100
AcDbLine
 10
3109.033749201771
 20
159.5847999092109
 30
0.0
 11
3193.211747141117
 21
159.5847999092109
 31
0.0
  0
LINE
  5
745
330
6CF
100
AcDbEntity
  8
AM_5
  6
ByBlock
100
AcDbLine
 10
3192.211747141117
 20
33.5847999092109
 30
0.0
 11
3192.211747141117
 21
152.5847999092109
 31
0.0
  0
SOLID
  5
746
330
6CF
100
AcDbEntity
  8
AM_5
100
AcDbTrace
 10
3191.045080474451
 20
33.5847999092109
 30
0.0
 11
3193.378413807784
 21
33.5847999092109
 31
0.0
 12
3192.211747141117
 22
26.58479990921089
 32
0.0
 13
3192.211747141117
 23
26.58479990921089
 33
0.0
  0
SOLID
  5
747
330
6CF
100
AcDbEntity
  8
AM_5
100
AcDbTrace
 10
3191.045080474451
 20
152.5847999092109
 30
0.0
 11
3193.378413807784
 21
152.5847999092109
 31
0.0
 12
3192.211747141117
 22
159.5847999092109
 32
0.0
 13
3192.211747141117
 23
159.5847999092109
 33
0.0
  0
MTEXT
  5
748
330
6CF
100
AcDbEntity
  8
AM_5
 62
     2
100
AcDbMText
 10
3185.711747141116
 20
93.0847999092114
 30
0.0
 40
10.0
 41
0.0
 71
     5
 72
     1
  1
133
 11
0.0000000000000001
 21
1.0
 31
0.0
 73
     1
 44
1.0
1001
ACAD
1000
MTEXTBEGIN
1070
    73
1070
     1
1070
    44
1040
1.0
1070
    74
1070
     0
1000
MTEXTEND
  0
POINT
  5
749
330
6CF
100
AcDbEntity
  8
Defpoints
 62
     0
100
AcDbPoint
 10
3107.033749201771
 20
26.58479990921092
 30
0.0
  0
POINT
  5
74A
330
6CF
100
AcDbEntity
  8
Defpoints
 62
     0
100
AcDbPoint
 10
3108.033749201772
 20
159.5847999092109
 30
0.0
  0
POINT
  5
74B
330
6CF
100
AcDbEntity
  8
Defpoints
 62
     0
100
AcDbPoint
 10
3192.211747141117
 20
159.5847999092109
 30
0.0
  0
ENDBLK
  5
6D1
330
6CF
100
AcDbEntity
  8
0
100
AcDbBlockEnd
  0
BLOCK
  5
6DC
330
6DB
100
AcDbEntity
  8
0
100
AcDbBlockBegin
  2
*D19
 70
     1
 10
0.0
 20
0.0
 30
0.0
  3
*D19
  1

  0
LINE
  5
776
330
6DB
100
AcDbEntity
  8
AM_5
  6
ByBlock
100
AcDbLine
 10
3076.05203491614
 20
158.3100570523179
 30
0.0
 11
3076.05203491614
 21
180.5337144963264
 31
0.0
  0
LINE
  5
777
330
6DB
100
AcDbEntity
  8
AM_5
  6
ByBlock
100
AcDbLine
 10
2276.452034916136
 20
94.08479990921046
 30
0.0
 11
2276.452034916136
 21
180.5337144963264
 31
0.0
  0
LINE
  5
778
330
6DB
100
AcDbEntity
  8
AM_5
  6
ByBlock
100
AcDbLine
 10
3069.05203491614
 20
179.5337144963264
 30
0.0
 11
2283.452034916136
 21
179.5337144963264
 31
0.0
  0
SOLID
  5
779
330
6DB
100
AcDbEntity
  8
AM_5
100
AcDbTrace
 10
3069.05203491614
 20
180.7003811629931
 30
0.0
 11
3069.05203491614
 21
178.3670478296597
 31
0.0
 12
3076.05203491614
 22
179.5337144963264
 32
0.0
 13
3076.05203491614
 23
179.5337144963264
 33
0.0
  0
SOLID
  5
77A
330
6DB
100
AcDbEntity
  8
AM_5
100
AcDbTrace
 10
2283.452034916136
 20
180.7003811629931
 30
0.0
 11
2283.452034916136
 21
178.3670478296597
 31
0.0
 12
2276.452034916136
 22
179.5337144963264
 32
0.0
 13
2276.452034916136
 23
179.5337144963264
 33
0.0
  0
MTEXT
  5
77B
330
6DB
100
AcDbEntity
  8
AM_5
 62
     2
100
AcDbMText
 10
2676.252034916138
 20
186.0337144963264
 30
0.0
 40
10.0
 41
0.0
 71
     5
 72
     1
  1
800
 73
     1
 44
1.0
1001
ACAD
1000
MTEXTBEGIN
1070
    73
1070
     1
1070
    44
1040
1.0
1070
    74
1070
     0
1000
MTEXTEND
  0
POINT
  5
77C
330
6DB
100
AcDbEntity
  8
Defpoints
 62
     0
100
AcDbPoint
 10
3076.05203491614
 20
157.3100570523179
 30
0.0
  0
POINT
  5
77D
330
6DB
100
AcDbEntity
  8
Defpoints
 62
     0
100
AcDbPoint
 10
2276.452034916136
 20
93.08479990921046
 30
0.0
  0
POINT
  5
77E
330
6DB
100
AcDbEntity
  8
Defpoints
 62
     0
100
AcDbPoint
 10
2276.452034916136
 20
179.5337144963264
 30
0.0
  0
ENDBLK
  5
6DD
330
6DB
100
AcDbEntity
  8
0
100
AcDbBlockEnd
  0
BLOCK
  5
6E8
330
6E7
100
AcDbEntity
  8
0
100
AcDbBlockBegin
  2
*D20
 70
     1
 10
0.0
 20
0.0
 30
0.0
  3
*D20
  1

  0
LINE
  5
764
330
6E7
100
AcDbEntity
  8
AM_5
  6
ByBlock
100
AcDbLine
 10
3108.033749201772
 20
160.3094856235798
 30
0.0
 11
3108.033749201772
 21
215.6571695634314
 31
0.0
  0
LINE
  5
765
330
6E7
100
AcDbEntity
  8
AM_5
  6
ByBlock
100
AcDbLine
 10
2244.470320630509
 20
155.4502856232873
 30
0.0
 11
2244.470320630509
 21
215.6571695634314
 31
0.0
  0
LINE
  5
766
330
6E7
100
AcDbEntity
  8
AM_5
  6
ByBlock
100
AcDbLine
 10
3101.033749201771
 20
214.6571695634313
 30
0.0
 11
2251.47032063051
 21
214.6571695634313
 31
0.0
  0
SOLID
  5
767
330
6E7
100
AcDbEntity
  8
AM_5
100
AcDbTrace
 10
3101.033749201771
 20
215.823836230098
 30
0.0
 11
3101.033749201771
 21
213.4905028967647
 31
0.0
 12
3108.033749201772
 22
214.6571695634313
 32
0.0
 13
3108.033749201772
 23
214.6571695634313
 33
0.0
  0
SOLID
  5
768
330
6E7
100
AcDbEntity
  8
AM_5
100
AcDbTrace
 10
2251.47032063051
 20
215.823836230098
 30
0.0
 11
2251.47032063051
 21
213.4905028967647
 31
0.0
 12
2244.470320630509
 22
214.6571695634313
 32
0.0
 13
2244.470320630509
 23
214.6571695634313
 33
0.0
  0
MTEXT
  5
769
330
6E7
100
AcDbEntity
  8
AM_5
 62
     2
100
AcDbMText
 10
2676.25203491614
 20
221.1571695634313
 30
0.0
 40
10.0
 41
0.0
 71
     5
 72
     1
  1
864
 73
     1
 44
1.0
1001
ACAD
1000
MTEXTBEGIN
1070
    73
1070
     1
1070
    44
1040
1.0
1070
    74
1070
     0
1000
MTEXTEND
  0
POINT
  5
76A
330
6E7
100
AcDbEntity
  8
Defpoints
 62
     0
100
AcDbPoint
 10
3108.033749201772
 20
159.3094856235798
 30
0.0
  0
POINT
  5
76B
330
6E7
100
AcDbEntity
  8
Defpoints
 62
     0
100
AcDbPoint
 10
2244.470320630509
 20
154.4502856232873
 30
0.0
  0
POINT
  5
76C
330
6E7
100
AcDbEntity
  8
Defpoints
 62
     0
100
AcDbPoint
 10
2244.470320630509
 20
214.6571695634313
 30
0.0
  0
ENDBLK
  5
6E9
330
6E7
100
AcDbEntity
  8
0
100
AcDbBlockEnd
  0
BLOCK
  5
6F4
330
6F3
100
AcDbEntity
  8
0
100
AcDbBlockBegin
  2
*D21
 70
     1
 10
0.0
 20
0.0
 30
0.0
  3
*D21
  1

  0
LINE
  5
74C
330
6F3
100
AcDbEntity
  8
AM_5
  6
ByBlock
100
AcDbLine
 10
3423.043260812657
 20
452.7165104010332
 30
0.0
 11
3423.043260812657
 21
501.4470978999493
 31
0.0
  0
LINE
  5
74D
330
6F3
100
AcDbEntity
  8
AM_5
  6
ByBlock
100
AcDbLine
 10
3343.043260812754
 20
452.7165104009231
 30
0.0
 11
3343.043260812754
 21
501.4470978999493
 31
0.0
  0
LINE
  5
74E
330
6F3
100
AcDbEntity
  8
AM_5
  6
ByBlock
100
AcDbLine
 10
3416.043260812657
 20
500.4470978999493
 30
0.0
 11
3350.043260812754
 21
500.4470978999493
 31
0.0
  0
SOLID
  5
74F
330
6F3
100
AcDbEntity
  8
AM_5
100
AcDbTrace
 10
3416.043260812657
 20
501.613764566616
 30
0.0
 11
3416.043260812657
 21
499.2804312332826
 31
0.0
 12
3423.043260812657
 22
500.4470978999493
 32
0.0
 13
3423.043260812657
 23
500.4470978999493
 33
0.0
  0
SOLID
  5
750
330
6F3
100
AcDbEntity
  8
AM_5
100
AcDbTrace
 10
3350.043260812754
 20
501.613764566616
 30
0.0
 11
3350.043260812754
 21
499.2804312332826
 31
0.0
 12
3343.043260812754
 22
500.4470978999493
 32
0.0
 13
3343.043260812754
 23
500.4470978999493
 33
0.0
  0
MTEXT
  5
751
330
6F3
100
AcDbEntity
  8
AM_5
 62
     2
100
AcDbMText
 10
3383.043260812705
 20
506.9470978999492
 30
0.0
 40
10.0
 41
0.0
 71
     5
 72
     1
  1
80
 73
     1
 44
1.0
1001
ACAD
1000
MTEXTBEGIN
1070
    73
1070
     1
1070
    44
1040
1.0
1070
    74
1070
     0
1000
MTEXTEND
  0
POINT
  5
752
330
6F3
100
AcDbEntity
  8
Defpoints
 62
     0
100
AcDbPoint
 10
3423.043260812657
 20
451.7165104010332
 30
0.0
  0
POINT
  5
753
330
6F3
100
AcDbEntity
  8
Defpoints
 62
     0
100
AcDbPoint
 10
3343.043260812754
 20
451.7165104009231
 30
0.0
  0
POINT
  5
754
330
6F3
100
AcDbEntity
  8
Defpoints
 62
     0
100
AcDbPoint
 10
3343.043260812754
 20
500.4470978999493
 30
0.0
  0
ENDBLK
  5
6F5
330
6F3
100
AcDbEntity
  8
0
100
AcDbBlockEnd
  0
BLOCK
  5
700
330
6FF
100
AcDbEntity
  8
0
100
AcDbBlockBegin
  2
*D22
 70
     1
 10
0.0
 20
0.0
 30
0.0
  3
*D22
  1

  0
LINE
  5
755
330
6FF
100
AcDbEntity
  8
AM_5
  6
ByBlock
100
AcDbLine
 10
3341.043260812675
 20
452.7165104009259
 30
0.0
 11
3341.043260812675
 21
524.8433793063635
 31
0.0
  0
LINE
  5
756
330
6FF
100
AcDbEntity
  8
AM_5
  6
ByBlock
100
AcDbLine
 10
3425.043260812626
 20
452.7165104010296
 30
0.0
 11
3425.043260812626
 21
524.8433793063635
 31
0.0
  0
LINE
  5
757
330
6FF
100
AcDbEntity
  8
AM_5
  6
ByBlock
100
AcDbLine
 10
3348.043260812676
 20
523.8433793063635
 30
0.0
 11
3418.043260812626
 21
523.8433793063635
 31
0.0
  0
SOLID
  5
758
330
6FF
100
AcDbEntity
  8
AM_5
100
AcDbTrace
 10
3348.043260812676
 20
525.0100459730303
 30
0.0
 11
3348.043260812676
 21
522.676712639697
 31
0.0
 12
3341.043260812675
 22
523.8433793063635
 32
0.0
 13
3341.043260812675
 23
523.8433793063635
 33
0.0
  0
SOLID
  5
759
330
6FF
100
AcDbEntity
  8
AM_5
100
AcDbTrace
 10
3418.043260812626
 20
525.0100459730303
 30
0.0
 11
3418.043260812626
 21
522.676712639697
 31
0.0
 12
3425.043260812626
 22
523.8433793063635
 32
0.0
 13
3425.043260812626
 23
523.8433793063635
 33
0.0
  0
MTEXT
  5
75A
330
6FF
100
AcDbEntity
  8
AM_5
 62
     2
100
AcDbMText
 10
3383.04326081265
 20
530.3433793063637
 30
0.0
 40
10.0
 41
0.0
 71
     5
 72
     1
  1
84
 73
     1
 44
1.0
1001
ACAD
1000
MTEXTBEGIN
1070
    73
1070
     1
1070
    44
1040
1.0
1070
    74
1070
     0
1000
MTEXTEND
  0
POINT
  5
75B
330
6FF
100
AcDbEntity
  8
Defpoints
 62
     0
100
AcDbPoint
 10
3341.043260812675
 20
451.7165104009259
 30
0.0
  0
POINT
  5
75C
330
6FF
100
AcDbEntity
  8
Defpoints
 62
     0
100
AcDbPoint
 10
3425.043260812626
 20
451.7165104010294
 30
0.0
  0
POINT
  5
75D
330
6FF
100
AcDbEntity
  8
Defpoints
 62
     0
100
AcDbPoint
 10
3425.043260812626
 20
523.8433793063635
 30
0.0
  0
ENDBLK
  5
701
330
6FF
100
AcDbEntity
  8
0
100
AcDbBlockEnd
  0
BLOCK
  5
7C7
330
7C6
100
AcDbEntity
  8
0
100
AcDbBlockBegin
  2
*U23
 70
     1
 10
0.0
 20
0.0
 30
0.0
  3
*U23
  1

  0
ARC
  5
7C8
330
7C6
100
AcDbEntity
  8
AM_0N
100
AcDbCircle
 10
2031.974006815402
 20
1364.958312600669
 30
0.0
 40
6.0
100
AcDbArc
 50
284.6765041088877
 51
134.956760177952
  0
LINE
  5
7C9
330
7C6
100
AcDbEntity
  8
AM_0N
100
AcDbLine
 10
2017.974006815402
 20
1359.458312600669
 30
0.0
 11
2027.734569160611
 21
1369.204153903773
 31
0.0
  0
LINE
  5
7CA
330
7C6
100
AcDbEntity
  8
AM_0N
100
AcDbLine
 10
2027.974006815401
 20
1357.708312600669
 30
0.0
 11
2033.494174408163
 21
1359.154082204663
 31
0.0
  0
ARC
  5
7CB
330
7C6
100
AcDbEntity
  8
AM_0N
100
AcDbCircle
 10
2031.974006815402
 20
1337.958312600669
 30
0.0
 40
6.0
100
AcDbArc
 50
225.043239822048
 51
75.3234958911123
  0
LINE
  5
7CC
330
7C6
100
AcDbEntity
  8
AM_0N
100
AcDbLine
 10
2017.974006815402
 20
1343.458312600669
 30
0.0
 11
2027.734569160611
 21
1333.712471297565
 31
0.0
  0
LINE
  5
7CD
330
7C6
100
AcDbEntity
  8
AM_7N
  6
AM_ISO08W050x2
100
AcDbLine
 10
2030.974006815402
 20
1351.458312600669
 30
0.0
 11
2014.974006815402
 21
1351.458312600669
 31
0.0
  0
LINE
  5
7CE
330
7C6
100
AcDbEntity
  8
AM_0N
100
AcDbLine
 10
2017.974006815402
 20
1343.458312600669
 30
0.0
 11
2017.974006815402
 21
1359.458312600669
 31
0.0
  0
LINE
  5
7CF
330
7C6
100
AcDbEntity
  8
AM_0N
100
AcDbLine
 10
2027.974006815401
 20
1357.708312600669
 30
0.0
 11
2027.974006815401
 21
1345.208312600669
 31
0.0
  0
LINE
  5
7D0
330
7C6
100
AcDbEntity
  8
AM_0N
100
AcDbLine
 10
2027.974006815401
 20
1345.208312600669
 30
0.0
 11
2017.974006815402
 21
1343.458312600669
 31
0.0
  0
LINE
  5
7D1
330
7C6
100
AcDbEntity
  8
AM_0N
100
AcDbLine
 10
2027.974006815401
 20
1345.208312600669
 30
0.0
 11
2033.494174408163
 21
1343.762542996675
 31
0.0
  0
LINE
  5
7D2
330
7C6
100
AcDbEntity
  8
AM_0N
100
AcDbLine
 10
2017.974006815402
 20
1359.458312600669
 30
0.0
 11
2027.974006815401
 21
1357.708312600669
 31
0.0
  0
ENDBLK
  5
7D3
330
7C6
100
AcDbEntity
  8
0
100
AcDbBlockEnd
  0
BLOCK
  5
7D5
330
7D4
100
AcDbEntity
  8
0
100
AcDbBlockBegin
  2
*U24
 70
     1
 10
0.0
 20
0.0
 30
0.0
  3
*U24
  1

  0
LINE
  5
7D6
330
7D4
100
AcDbEntity
  8
AM_7N
  6
AM_ISO08W050x2
100
AcDbLine
 10
2012.674006815402
 20
1351.458312600669
 30
0.0
 11
2020.974006815402
 21
1351.458312600669
 31
0.0
  0
LINE
  5
7D7
330
7D4
100
AcDbEntity
  8
AM_0N
100
AcDbLine
 10
2015.674006815402
 20
1360.858312600669
 30
0.0
 11
2015.674006815402
 21
1342.058312600669
 31
0.0
  0
LINE
  5
7D8
330
7D4
100
AcDbEntity
  8
AM_0N
100
AcDbLine
 10
2017.974006815402
 20
1342.058312600669
 30
0.0
 11
2017.974006815402
 21
1360.858312600669
 31
0.0
  0
LINE
  5
7D9
330
7D4
100
AcDbEntity
  8
AM_0N
100
AcDbLine
 10
2015.674006815402
 20
1342.058312600669
 30
0.0
 11
2017.974006815402
 21
1342.058312600669
 31
0.0
  0
LINE
  5
7DA
330
7D4
100
AcDbEntity
  8
AM_0N
100
AcDbLine
 10
2017.974006815402
 20
1360.858312600669
 30
0.0
 11
2015.674006815402
 21
1360.858312600669
 31
0.0
  0
ENDBLK
  5
7DB
330
7D4
100
AcDbEntity
  8
0
100
AcDbBlockEnd
  0
BLOCK
  5
7DD
330
7DC
100
AcDbEntity
  8
0
100
AcDbBlockBegin
  2
*D25
 70
     1
 10
0.0
 20
0.0
 30
0.0
  3
*D25
  1

  0
LINE
  5
7DE
330
7DC
100
AcDbEntity
  8
AM_5
  6
ByBlock
100
AcDbLine
 10
4050.651045851334
 20
325.7890823187033
 30
0.0
 11
4174.861988546232
 21
325.7890823187033
 31
0.0
  0
LINE
  5
7DF
330
7DC
100
AcDbEntity
  8
AM_5
  6
ByBlock
100
AcDbLine
 10
4054.648760136966
 20
452.7165108899651
 30
0.0
 11
4174.861988546232
 21
452.7165108899651
 31
0.0
  0
LINE
  5
7E0
330
7DC
100
AcDbEntity
  8
AM_5
  6
ByBlock
100
AcDbLine
 10
4173.861988546232
 20
332.7890823187033
 30
0.0
 11
4173.861988546232
 21
445.716510889965
 31
0.0
  0
SOLID
  5
7E1
330
7DC
100
AcDbEntity
  8
AM_5
100
AcDbTrace
 10
4172.695321879564
 20
332.7890823187033
 30
0.0
 11
4175.028655212899
 21
332.7890823187033
 31
0.0
 12
4173.861988546232
 22
325.7890823187033
 32
0.0
 13
4173.861988546232
 23
325.7890823187033
 33
0.0
  0
SOLID
  5
7E2
330
7DC
100
AcDbEntity
  8
AM_5
100
AcDbTrace
 10
4172.695321879564
 20
445.716510889965
 30
0.0
 11
4175.028655212899
 21
445.716510889965
 31
0.0
 12
4173.861988546232
 22
452.7165108899651
 32
0.0
 13
4173.861988546232
 23
452.7165108899651
 33
0.0
  0
MTEXT
  5
7E3
330
7DC
100
AcDbEntity
  8
AM_5
 62
     2
100
AcDbMText
 10
4167.361988546232
 20
389.2527966043349
 30
0.0
 40
10.0
 41
0.0
 71
     5
 72
     1
  1
105-160
 11
0.0000000000000001
 21
1.0
 31
0.0
 73
     1
 44
1.0
1001
ACAD
1000
MTEXTBEGIN
1070
    73
1070
     1
1070
    44
1040
1.0
1070
    74
1070
     0
1000
MTEXTEND
  0
POINT
  5
7E4
330
7DC
100
AcDbEntity
  8
Defpoints
 62
     0
100
AcDbPoint
 10
4049.651045851335
 20
325.7890823187033
 30
0.0
  0
POINT
  5
7E5
330
7DC
100
AcDbEntity
  8
Defpoints
 62
     0
100
AcDbPoint
 10
4053.648760136967
 20
452.7165108899651
 30
0.0
  0
POINT
  5
7E6
330
7DC
100
AcDbEntity
  8
Defpoints
 62
     0
100
AcDbPoint
 10
4173.861988546232
 20
452.7165108899651
 30
0.0
  0
ENDBLK
  5
7E7
330
7DC
100
AcDbEntity
  8
0
100
AcDbBlockEnd
  0
BLOCK
  5
7E9
330
7E8
100
AcDbEntity
  8
0
100
AcDbBlockBegin
  2
*D26
 70
     1
 10
0.0
 20
0.0
 30
0.0
  3
*D26
  1

  0
LINE
  5
7EA
330
7E8
100
AcDbEntity
  8
AM_5
  6
ByBlock
100
AcDbLine
 10
4052.449902993864
 20
51.08480039819415
 30
0.0
 11
4132.712865278581
 21
51.08480039819411
 31
0.0
  0
LINE
  5
7EB
330
7E8
100
AcDbEntity
  8
AM_5
  6
ByBlock
100
AcDbLine
 10
4054.44876013697
 20
135.0848003981943
 30
0.0
 11
4132.712865278581
 21
135.0848003981943
 31
0.0
  0
LINE
  5
7EC
330
7E8
100
AcDbEntity
  8
AM_5
  6
ByBlock
100
AcDbLine
 10
4131.712865278581
 20
58.08480039819411
 30
0.0
 11
4131.712865278581
 21
128.0848003981944
 31
0.0
  0
SOLID
  5
7ED
330
7E8
100
AcDbEntity
  8
AM_5
100
AcDbTrace
 10
4130.546198611916
 20
58.08480039819411
 30
0.0
 11
4132.879531945247
 21
58.08480039819411
 31
0.0
 12
4131.712865278581
 22
51.08480039819411
 32
0.0
 13
4131.712865278581
 23
51.08480039819411
 33
0.0
  0
SOLID
  5
7EE
330
7E8
100
AcDbEntity
  8
AM_5
100
AcDbTrace
 10
4130.546198611916
 20
128.0848003981944
 30
0.0
 11
4132.879531945247
 21
128.0848003981944
 31
0.0
 12
4131.712865278581
 22
135.0848003981943
 32
0.0
 13
4131.712865278581
 23
135.0848003981943
 33
0.0
  0
MTEXT
  5
7EF
330
7E8
100
AcDbEntity
  8
AM_5
 62
     2
100
AcDbMText
 10
4125.212865278581
 20
93.08480039819492
 30
0.0
 40
10.0
 41
0.0
 71
     5
 72
     1
  1
84
 11
0.0000000000000001
 21
1.0
 31
0.0
 73
     1
 44
1.0
1001
ACAD
1000
MTEXTBEGIN
1070
    73
1070
     1
1070
    44
1040
1.0
1070
    74
1070
     0
1000
MTEXTEND
  0
POINT
  5
7F0
330
7E8
100
AcDbEntity
  8
Defpoints
 62
     0
100
AcDbPoint
 10
4051.449902993864
 20
51.08480039819415
 30
0.0
  0
POINT
  5
7F1
330
7E8
100
AcDbEntity
  8
Defpoints
 62
     0
100
AcDbPoint
 10
4053.44876013697
 20
135.0848003981943
 30
0.0
  0
POINT
  5
7F2
330
7E8
100
AcDbEntity
  8
Defpoints
 62
     0
100
AcDbPoint
 10
4131.712865278581
 20
135.0848003981943
 30
0.0
  0
ENDBLK
  5
7F3
330
7E8
100
AcDbEntity
  8
0
100
AcDbBlockEnd
  0
BLOCK
  5
7F5
330
7F4
100
AcDbEntity
  8
0
100
AcDbBlockBegin
  2
*D27
 70
     1
 10
0.0
 20
0.0
 30
0.0
  3
*D27
  1

  0
LINE
  5
7F6
330
7F4
100
AcDbEntity
  8
AM_5
  6
ByBlock
100
AcDbLine
 10
4083.431617279495
 20
26.58480039819415
 30
0.0
 11
4168.609615218841
 21
26.58480039819413
 31
0.0
  0
LINE
  5
7F7
330
7F4
100
AcDbEntity
  8
AM_5
  6
ByBlock
100
AcDbLine
 10
4084.431617279495
 20
159.5848003981941
 30
0.0
 11
4168.609615218841
 21
159.5848003981941
 31
0.0
  0
LINE
  5
7F8
330
7F4
100
AcDbEntity
  8
AM_5
  6
ByBlock
100
AcDbLine
 10
4167.609615218841
 20
33.58480039819413
 30
0.0
 11
4167.609615218841
 21
152.5848003981941
 31
0.0
  0
SOLID
  5
7F9
330
7F4
100
AcDbEntity
  8
AM_5
100
AcDbTrace
 10
4166.442948552174
 20
33.58480039819413
 30
0.0
 11
4168.776281885508
 21
33.58480039819413
 31
0.0
 12
4167.609615218841
 22
26.58480039819413
 32
0.0
 13
4167.609615218841
 23
26.58480039819413
 33
0.0
  0
SOLID
  5
7FA
330
7F4
100
AcDbEntity
  8
AM_5
100
AcDbTrace
 10
4166.442948552174
 20
152.5848003981941
 30
0.0
 11
4168.776281885508
 21
152.5848003981941
 31
0.0
 12
4167.609615218841
 22
159.5848003981941
 32
0.0
 13
4167.609615218841
 23
159.5848003981941
 33
0.0
  0
MTEXT
  5
7FB
330
7F4
100
AcDbEntity
  8
AM_5
 62
     2
100
AcDbMText
 10
4161.10961521884
 20
93.08480039819478
 30
0.0
 40
10.0
 41
0.0
 71
     5
 72
     1
  1
133
 11
0.0000000000000001
 21
1.0
 31
0.0
 73
     1
 44
1.0
1001
ACAD
1000
MTEXTBEGIN
1070
    73
1070
     1
1070
    44
1040
1.0
1070
    74
1070
     0
1000
MTEXTEND
  0
POINT
  5
7FC
330
7F4
100
AcDbEntity
  8
Defpoints
 62
     0
100
AcDbPoint
 10
4082.431617279495
 20
26.58480039819415
 30
0.0
  0
POINT
  5
7FD
330
7F4
100
AcDbEntity
  8
Defpoints
 62
     0
100
AcDbPoint
 10
4083.431617279495
 20
159.5848003981941
 30
0.0
  0
POINT
  5
7FE
330
7F4
100
AcDbEntity
  8
Defpoints
 62
     0
100
AcDbPoint
 10
4167.609615218841
 20
159.5848003981941
 30
0.0
  0
ENDBLK
  5
7FF
330
7F4
100
AcDbEntity
  8
0
100
AcDbBlockEnd
  0
BLOCK
  5
801
330
800
100
AcDbEntity
  8
0
100
AcDbBlockBegin
  2
*D28
 70
     1
 10
0.0
 20
0.0
 30
0.0
  3
*D28
  1

  0
LINE
  5
802
330
800
100
AcDbEntity
  8
AM_5
  6
ByBlock
100
AcDbLine
 10
4053.648760136968
 20
158.5853718269321
 30
0.0
 11
4053.648760136968
 21
180.5337149853096
 31
0.0
  0
LINE
  5
803
330
800
100
AcDbEntity
  8
AM_5
  6
ByBlock
100
AcDbLine
 10
3353.648760136967
 20
158.5853718269321
 30
0.0
 11
3353.648760136967
 21
180.5337149853096
 31
0.0
  0
LINE
  5
804
330
800
100
AcDbEntity
  8
AM_5
  6
ByBlock
100
AcDbLine
 10
4046.648760136966
 20
179.5337149853096
 30
0.0
 11
3360.648760136967
 21
179.5337149853096
 31
0.0
  0
SOLID
  5
805
330
800
100
AcDbEntity
  8
AM_5
100
AcDbTrace
 10
4046.648760136966
 20
180.7003816519763
 30
0.0
 11
4046.648760136966
 21
178.367048318643
 31
0.0
 12
4053.648760136968
 22
179.5337149853096
 32
0.0
 13
4053.648760136968
 23
179.5337149853096
 33
0.0
  0
SOLID
  5
806
330
800
100
AcDbEntity
  8
AM_5
100
AcDbTrace
 10
3360.648760136967
 20
180.7003816519763
 30
0.0
 11
3360.648760136967
 21
178.367048318643
 31
0.0
 12
3353.648760136967
 22
179.5337149853096
 32
0.0
 13
3353.648760136967
 23
179.5337149853096
 33
0.0
  0
MTEXT
  5
807
330
800
100
AcDbEntity
  8
AM_5
 62
     2
100
AcDbMText
 10
3703.648760136967
 20
186.0337149853096
 30
0.0
 40
10.0
 41
0.0
 71
     5
 72
     1
  1
700
 73
     1
 44
1.0
1001
ACAD
1000
MTEXTBEGIN
1070
    73
1070
     1
1070
    44
1040
1.0
1070
    74
1070
     0
1000
MTEXTEND
  0
POINT
  5
808
330
800
100
AcDbEntity
  8
Defpoints
 62
     0
100
AcDbPoint
 10
4053.648760136968
 20
157.5853718269321
 30
0.0
  0
POINT
  5
809
330
800
100
AcDbEntity
  8
Defpoints
 62
     0
100
AcDbPoint
 10
3353.648760136967
 20
157.5853718269321
 30
0.0
  0
POINT
  5
80A
330
800
100
AcDbEntity
  8
Defpoints
 62
     0
100
AcDbPoint
 10
3353.648760136967
 20
179.5337149853096
 30
0.0
  0
ENDBLK
  5
80B
330
800
100
AcDbEntity
  8
0
100
AcDbBlockEnd
  0
BLOCK
  5
80D
330
80C
100
AcDbEntity
  8
0
100
AcDbBlockBegin
  2
*D29
 70
     1
 10
0.0
 20
0.0
 30
0.0
  3
*D29
  1

  0
LINE
  5
80E
330
80C
100
AcDbEntity
  8
AM_5
  6
ByBlock
100
AcDbLine
 10
4083.648760136967
 20
158.5853718269321
 30
0.0
 11
4083.648760136967
 21
215.6571700524146
 31
0.0
  0
LINE
  5
80F
330
80C
100
AcDbEntity
  8
AM_5
  6
ByBlock
100
AcDbLine
 10
3323.648760136967
 20
155.4502861122705
 30
0.0
 11
3323.648760136967
 21
215.6571700524146
 31
0.0
  0
LINE
  5
810
330
80C
100
AcDbEntity
  8
AM_5
  6
ByBlock
100
AcDbLine
 10
4076.648760136968
 20
214.6571700524146
 30
0.0
 11
3330.648760136968
 21
214.6571700524146
 31
0.0
  0
SOLID
  5
811
330
80C
100
AcDbEntity
  8
AM_5
100
AcDbTrace
 10
4076.648760136968
 20
215.8238367190812
 30
0.0
 11
4076.648760136968
 21
213.4905033857479
 31
0.0
 12
4083.648760136967
 22
214.6571700524146
 32
0.0
 13
4083.648760136967
 23
214.6571700524146
 33
0.0
  0
SOLID
  5
812
330
80C
100
AcDbEntity
  8
AM_5
100
AcDbTrace
 10
3330.648760136968
 20
215.8238367190812
 30
0.0
 11
3330.648760136968
 21
213.4905033857479
 31
0.0
 12
3323.648760136967
 22
214.6571700524146
 32
0.0
 13
3323.648760136967
 23
214.6571700524146
 33
0.0
  0
MTEXT
  5
813
330
80C
100
AcDbEntity
  8
AM_5
 62
     2
100
AcDbMText
 10
3703.648760136967
 20
221.1571700524146
 30
0.0
 40
10.0
 41
0.0
 71
     5
 72
     1
  1
760
 73
     1
 44
1.0
1001
ACAD
1000
MTEXTBEGIN
1070
    73
1070
     1
1070
    44
1040
1.0
1070
    74
1070
     0
1000
MTEXTEND
  0
POINT
  5
814
330
80C
100
AcDbEntity
  8
Defpoints
 62
     0
100
AcDbPoint
 10
4083.648760136967
 20
157.5853718269321
 30
0.0
  0
POINT
  5
815
330
80C
100
AcDbEntity
  8
Defpoints
 62
     0
100
AcDbPoint
 10
3323.648760136967
 20
154.4502861122705
 30
0.0
  0
POINT
  5
816
330
80C
100
AcDbEntity
  8
Defpoints
 62
     0
100
AcDbPoint
 10
3323.648760136967
 20
214.6571700524146
 30
0.0
  0
ENDBLK
  5
817
330
80C
100
AcDbEntity
  8
0
100
AcDbBlockEnd
  0
BLOCK
  5
819
330
818
100
AcDbEntity
  8
0
100
AcDbBlockBegin
  2
*D30
 70
     1
 10
0.0
 20
0.0
 30
0.0
  3
*D30
  1

  0
LINE
  5
81A
330
818
100
AcDbEntity
  8
AM_5
  6
ByBlock
100
AcDbLine
 10
4398.441128890381
 20
452.7165108900164
 30
0.0
 11
4398.441128890381
 21
501.4470983889324
 31
0.0
  0
LINE
  5
81B
330
818
100
AcDbEntity
  8
AM_5
  6
ByBlock
100
AcDbLine
 10
4318.441124743669
 20
451.7165108898518
 30
0.0
 11
4318.441124743669
 21
501.4470983889324
 31
0.0
  0
LINE
  5
81C
330
818
100
AcDbEntity
  8
AM_5
  6
ByBlock
100
AcDbLine
 10
4391.441128890381
 20
500.4470983889325
 30
0.0
 11
4325.441124743669
 21
500.4470983889325
 31
0.0
  0
SOLID
  5
81D
330
818
100
AcDbEntity
  8
AM_5
100
AcDbTrace
 10
4391.441128890381
 20
501.6137650555992
 30
0.0
 11
4391.441128890381
 21
499.2804317222658
 31
0.0
 12
4398.441128890381
 22
500.4470983889325
 32
0.0
 13
4398.441128890381
 23
500.4470983889325
 33
0.0
  0
SOLID
  5
81E
330
818
100
AcDbEntity
  8
AM_5
100
AcDbTrace
 10
4325.441124743669
 20
501.6137650555992
 30
0.0
 11
4325.441124743669
 21
499.2804317222658
 31
0.0
 12
4318.441124743669
 22
500.4470983889325
 32
0.0
 13
4318.441124743669
 23
500.4470983889325
 33
0.0
  0
MTEXT
  5
81F
330
818
100
AcDbEntity
  8
AM_5
 62
     2
100
AcDbMText
 10
4358.441126817025
 20
506.9470983889324
 30
0.0
 40
10.0
 41
0.0
 71
     5
 72
     1
  1
80
 73
     1
 44
1.0
1001
ACAD
1000
MTEXTBEGIN
1070
    73
1070
     1
1070
    44
1040
1.0
1070
    74
1070
     0
1000
MTEXTEND
  0
POINT
  5
820
330
818
100
AcDbEntity
  8
Defpoints
 62
     0
100
AcDbPoint
 10
4398.441128890381
 20
451.7165108900164
 30
0.0
  0
POINT
  5
821
330
818
100
AcDbEntity
  8
Defpoints
 62
     0
100
AcDbPoint
 10
4318.441124743669
 20
450.7165108898518
 30
0.0
  0
POINT
  5
822
330
818
100
AcDbEntity
  8
Defpoints
 62
     0
100
AcDbPoint
 10
4318.441124743669
 20
500.4470983889325
 30
0.0
  0
ENDBLK
  5
823
330
818
100
AcDbEntity
  8
0
100
AcDbBlockEnd
  0
BLOCK
  5
825
330
824
100
AcDbEntity
  8
0
100
AcDbBlockBegin
  2
*D31
 70
     1
 10
0.0
 20
0.0
 30
0.0
  3
*D31
  1

  0
LINE
  5
826
330
824
100
AcDbEntity
  8
AM_5
  6
ByBlock
100
AcDbLine
 10
4316.44112474366
 20
453.7165108898518
 30
0.0
 11
4316.44112474366
 21
524.8433797953468
 31
0.0
  0
LINE
  5
827
330
824
100
AcDbEntity
  8
AM_5
  6
ByBlock
100
AcDbLine
 10
4400.441128890348
 20
452.7165108900128
 30
0.0
 11
4400.441128890348
 21
524.8433797953468
 31
0.0
  0
LINE
  5
828
330
824
100
AcDbEntity
  8
AM_5
  6
ByBlock
100
AcDbLine
 10
4323.44112474366
 20
523.8433797953469
 30
0.0
 11
4393.44112889035
 21
523.8433797953469
 31
0.0
  0
SOLID
  5
829
330
824
100
AcDbEntity
  8
AM_5
100
AcDbTrace
 10
4323.44112474366
 20
525.0100464620135
 30
0.0
 11
4323.44112474366
 21
522.6767131286801
 31
0.0
 12
4316.44112474366
 22
523.8433797953469
 32
0.0
 13
4316.44112474366
 23
523.8433797953469
 33
0.0
  0
SOLID
  5
82A
330
824
100
AcDbEntity
  8
AM_5
100
AcDbTrace
 10
4393.44112889035
 20
525.0100464620135
 30
0.0
 11
4393.44112889035
 21
522.6767131286801
 31
0.0
 12
4400.441128890348
 22
523.8433797953469
 32
0.0
 13
4400.441128890348
 23
523.8433797953469
 33
0.0
  0
MTEXT
  5
82B
330
824
100
AcDbEntity
  8
AM_5
 62
     2
100
AcDbMText
 10
4358.441126817004
 20
530.3433797953467
 30
0.0
 40
10.0
 41
0.0
 71
     5
 72
     1
  1
84
 73
     1
 44
1.0
1001
ACAD
1000
MTEXTBEGIN
1070
    73
1070
     1
1070
    44
1040
1.0
1070
    74
1070
     0
1000
MTEXTEND
  0
POINT
  5
82C
330
824
100
AcDbEntity
  8
Defpoints
 62
     0
100
AcDbPoint
 10
4316.44112474366
 20
452.7165108898518
 30
0.0
  0
POINT
  5
82D
330
824
100
AcDbEntity
  8
Defpoints
 62
     0
100
AcDbPoint
 10
4400.441128890348
 20
451.7165108900128
 30
0.0
  0
POINT
  5
82E
330
824
100
AcDbEntity
  8
Defpoints
 62
     0
100
AcDbPoint
 10
4400.441128890348
 20
523.8433797953469
 30
0.0
  0
ENDBLK
  5
82F
330
824
100
AcDbEntity
  8
0
100
AcDbBlockEnd
  0
BLOCK
  5
A3E
330
A3D
100
AcDbEntity
  8
0
100
AcDbBlockBegin
  2
*D32
 70
     1
 10
0.0
 20
0.0
 30
0.0
  3
*D32
  1

  0
LINE
  5
AA3
330
A3D
100
AcDbEntity
  8
AM_5
  6
ByBlock
100
AcDbLine
 10
777.002286760613
 20
325.7890817040265
 30
0.0
 11
901.2132294555103
 21
325.7890817040264
 31
0.0
  0
LINE
  5
AA4
330
A3D
100
AcDbEntity
  8
AM_5
  6
ByBlock
100
AcDbLine
 10
781.0000010462454
 20
452.7165102752883
 30
0.0
 11
901.2132294555103
 21
452.7165102752881
 31
0.0
  0
LINE
  5
AA5
330
A3D
100
AcDbEntity
  8
AM_5
  6
ByBlock
100
AcDbLine
 10
900.2132294555103
 20
332.7890817040264
 30
0.0
 11
900.2132294555103
 21
445.7165102752881
 31
0.0
  0
SOLID
  5
AA6
330
A3D
100
AcDbEntity
  8
AM_5
100
AcDbTrace
 10
899.0465627888438
 20
332.7890817040264
 30
0.0
 11
901.379896122177
 21
332.7890817040264
 31
0.0
 12
900.2132294555103
 22
325.7890817040264
 32
0.0
 13
900.2132294555103
 23
325.7890817040264
 33
0.0
  0
SOLID
  5
AA7
330
A3D
100
AcDbEntity
  8
AM_5
100
AcDbTrace
 10
899.0465627888438
 20
445.7165102752881
 30
0.0
 11
901.379896122177
 21
445.7165102752881
 31
0.0
 12
900.2132294555103
 22
452.7165102752881
 32
0.0
 13
900.2132294555103
 23
452.7165102752881
 33
0.0
  0
MTEXT
  5
AA8
330
A3D
100
AcDbEntity
  8
AM_5
 62
     2
100
AcDbMText
 10
893.7132294555102
 20
389.2527959896575
 30
0.0
 40
10.0
 41
0.0
 71
     5
 72
     1
  1
105-160
 11
0.0000000000000001
 21
1.0
 31
0.0
 73
     1
 44
1.0
1001
ACAD
1000
MTEXTBEGIN
1070
    73
1070
     1
1070
    44
1040
1.0
1070
    74
1070
     0
1000
MTEXTEND
  0
POINT
  5
AA9
330
A3D
100
AcDbEntity
  8
Defpoints
 62
     0
100
AcDbPoint
 10
776.0022867606131
 20
325.7890817040265
 30
0.0
  0
POINT
  5
AAA
330
A3D
100
AcDbEntity
  8
Defpoints
 62
     0
100
AcDbPoint
 10
780.0000010462454
 20
452.7165102752883
 30
0.0
  0
POINT
  5
AAB
330
A3D
100
AcDbEntity
  8
Defpoints
 62
     0
100
AcDbPoint
 10
900.2132294555103
 20
452.7165102752881
 30
0.0
  0
ENDBLK
  5
A3F
330
A3D
100
AcDbEntity
  8
0
100
AcDbBlockEnd
  0
BLOCK
  5
A4A
330
A49
100
AcDbEntity
  8
0
100
AcDbBlockBegin
  2
*D33
 70
     1
 10
0.0
 20
0.0
 30
0.0
  3
*D33
  1

  0
LINE
  5
AAC
330
A49
100
AcDbEntity
  8
AM_5
  6
ByBlock
100
AcDbLine
 10
778.8011439031423
 20
51.08479978351738
 30
0.0
 11
859.0641061878597
 21
51.08479978351735
 31
0.0
  0
LINE
  5
AAD
330
A49
100
AcDbEntity
  8
AM_5
  6
ByBlock
100
AcDbLine
 10
780.8000010462483
 20
135.0847997835176
 30
0.0
 11
859.0641061878597
 21
135.0847997835176
 31
0.0
  0
LINE
  5
AAE
330
A49
100
AcDbEntity
  8
AM_5
  6
ByBlock
100
AcDbLine
 10
858.0641061878596
 20
58.08479978351735
 30
0.0
 11
858.0641061878596
 21
128.0847997835176
 31
0.0
  0
SOLID
  5
AAF
330
A49
100
AcDbEntity
  8
AM_5
100
AcDbTrace
 10
856.8974395211929
 20
58.08479978351735
 30
0.0
 11
859.2307728545263
 21
58.08479978351735
 31
0.0
 12
858.0641061878596
 22
51.08479978351735
 32
0.0
 13
858.0641061878596
 23
51.08479978351735
 33
0.0
  0
SOLID
  5
AB0
330
A49
100
AcDbEntity
  8
AM_5
100
AcDbTrace
 10
856.8974395211929
 20
128.0847997835176
 30
0.0
 11
859.2307728545263
 21
128.0847997835176
 31
0.0
 12
858.0641061878596
 22
135.0847997835176
 32
0.0
 13
858.0641061878596
 23
135.0847997835176
 33
0.0
  0
MTEXT
  5
AB1
330
A49
100
AcDbEntity
  8
AM_5
 62
     2
100
AcDbMText
 10
851.5641061878595
 20
93.0847997835176
 30
0.0
 40
10.0
 41
0.0
 71
     5
 72
     1
  1
84
 11
0.0000000000000001
 21
1.0
 31
0.0
 73
     1
 44
1.0
1001
ACAD
1000
MTEXTBEGIN
1070
    73
1070
     1
1070
    44
1040
1.0
1070
    74
1070
     0
1000
MTEXTEND
  0
POINT
  5
AB2
330
A49
100
AcDbEntity
  8
Defpoints
 62
     0
100
AcDbPoint
 10
777.8011439031423
 20
51.08479978351738
 30
0.0
  0
POINT
  5
AB3
330
A49
100
AcDbEntity
  8
Defpoints
 62
     0
100
AcDbPoint
 10
779.8000010462483
 20
135.0847997835176
 30
0.0
  0
POINT
  5
AB4
330
A49
100
AcDbEntity
  8
Defpoints
 62
     0
100
AcDbPoint
 10
858.0641061878596
 20
135.0847997835176
 30
0.0
  0
ENDBLK
  5
A4B
330
A49
100
AcDbEntity
  8
0
100
AcDbBlockEnd
  0
BLOCK
  5
A56
330
A55
100
AcDbEntity
  8
0
100
AcDbBlockBegin
  2
*D34
 70
     1
 10
0.0
 20
0.0
 30
0.0
  3
*D34
  1

  0
LINE
  5
AE2
330
A55
100
AcDbEntity
  8
AM_5
  6
ByBlock
100
AcDbLine
 10
811.0000010462453
 20
26.58479978351738
 30
0.0
 11
894.9608561281191
 21
26.58479978351736
 31
0.0
  0
LINE
  5
AE3
330
A55
100
AcDbEntity
  8
AM_5
  6
ByBlock
100
AcDbLine
 10
810.7828581887734
 20
159.5847997835174
 30
0.0
 11
894.9608561281191
 21
159.5847997835173
 31
0.0
  0
LINE
  5
AE4
330
A55
100
AcDbEntity
  8
AM_5
  6
ByBlock
100
AcDbLine
 10
893.9608561281191
 20
33.58479978351736
 30
0.0
 11
893.9608561281191
 21
152.5847997835173
 31
0.0
  0
SOLID
  5
AE5
330
A55
100
AcDbEntity
  8
AM_5
100
AcDbTrace
 10
892.7941894614528
 20
33.58479978351736
 30
0.0
 11
895.1275227947858
 21
33.58479978351736
 31
0.0
 12
893.9608561281191
 22
26.58479978351736
 32
0.0
 13
893.9608561281191
 23
26.58479978351736
 33
0.0
  0
SOLID
  5
AE6
330
A55
100
AcDbEntity
  8
AM_5
100
AcDbTrace
 10
892.7941894614528
 20
152.5847997835173
 30
0.0
 11
895.1275227947858
 21
152.5847997835173
 31
0.0
 12
893.9608561281191
 22
159.5847997835173
 32
0.0
 13
893.9608561281191
 23
159.5847997835173
 33
0.0
  0
MTEXT
  5
AE7
330
A55
100
AcDbEntity
  8
AM_5
 62
     2
100
AcDbMText
 10
887.4608561281192
 20
93.0847997835175
 30
0.0
 40
10.0
 41
0.0
 71
     5
 72
     1
  1
133
 11
0.0000000000000001
 21
1.0
 31
0.0
 73
     1
 44
1.0
1001
ACAD
1000
MTEXTBEGIN
1070
    73
1070
     1
1070
    44
1040
1.0
1070
    74
1070
     0
1000
MTEXTEND
  0
POINT
  5
AE8
330
A55
100
AcDbEntity
  8
Defpoints
 62
     0
100
AcDbPoint
 10
810.0000010462453
 20
26.58479978351738
 30
0.0
  0
POINT
  5
AE9
330
A55
100
AcDbEntity
  8
Defpoints
 62
     0
100
AcDbPoint
 10
809.7828581887734
 20
159.5847997835174
 30
0.0
  0
POINT
  5
AEA
330
A55
100
AcDbEntity
  8
Defpoints
 62
     0
100
AcDbPoint
 10
893.9608561281191
 20
159.5847997835173
 30
0.0
  0
ENDBLK
  5
A57
330
A55
100
AcDbEntity
  8
0
100
AcDbBlockEnd
  0
BLOCK
  5
A62
330
A61
100
AcDbEntity
  8
0
100
AcDbBlockBegin
  2
*D35
 70
     1
 10
0.0
 20
0.0
 30
0.0
  3
*D35
  1

  0
LINE
  5
AD9
330
A61
100
AcDbEntity
  8
AM_5
  6
ByBlock
100
AcDbLine
 10
780.0000010462459
 20
158.5853712122555
 30
0.0
 11
780.0000010462459
 21
180.5337143706329
 31
0.0
  0
LINE
  5
ADA
330
A61
100
AcDbEntity
  8
AM_5
  6
ByBlock
100
AcDbLine
 10
-19.99999895375458
 20
158.5853712122555
 30
0.0
 11
-19.99999895375458
 21
180.5337143706329
 31
0.0
  0
LINE
  5
ADB
330
A61
100
AcDbEntity
  8
AM_5
  6
ByBlock
100
AcDbLine
 10
773.0000010462457
 20
179.5337143706329
 30
0.0
 11
-12.99999895375458
 21
179.5337143706329
 31
0.0
  0
SOLID
  5
ADC
330
A61
100
AcDbEntity
  8
AM_5
100
AcDbTrace
 10
773.0000010462457
 20
180.7003810372995
 30
0.0
 11
773.0000010462457
 21
178.3670477039661
 31
0.0
 12
780.0000010462459
 22
179.5337143706329
 32
0.0
 13
780.0000010462459
 23
179.5337143706329
 33
0.0
  0
SOLID
  5
ADD
330
A61
100
AcDbEntity
  8
AM_5
100
AcDbTrace
 10
-12.99999895375458
 20
180.7003810372995
 30
0.0
 11
-12.99999895375458
 21
178.3670477039661
 31
0.0
 12
-19.99999895375458
 22
179.5337143706329
 32
0.0
 13
-19.99999895375458
 23
179.5337143706329
 33
0.0
  0
MTEXT
  5
ADE
330
A61
100
AcDbEntity
  8
AM_5
 62
     2
100
AcDbMText
 10
380.0000010462456
 20
186.0337143706328
 30
0.0
 40
10.0
 41
0.0
 71
     5
 72
     1
  1
800
 73
     1
 44
1.0
1001
ACAD
1000
MTEXTBEGIN
1070
    73
1070
     1
1070
    44
1040
1.0
1070
    74
1070
     0
1000
MTEXTEND
  0
POINT
  5
ADF
330
A61
100
AcDbEntity
  8
Defpoints
 62
     0
100
AcDbPoint
 10
780.0000010462459
 20
157.5853712122555
 30
0.0
  0
POINT
  5
AE0
330
A61
100
AcDbEntity
  8
Defpoints
 62
     0
100
AcDbPoint
 10
-19.99999895375458
 20
157.5853712122555
 30
0.0
  0
POINT
  5
AE1
330
A61
100
AcDbEntity
  8
Defpoints
 62
     0
100
AcDbPoint
 10
-19.99999895375458
 20
179.5337143706329
 30
0.0
  0
ENDBLK
  5
A63
330
A61
100
AcDbEntity
  8
0
100
AcDbBlockEnd
  0
BLOCK
  5
A6E
330
A6D
100
AcDbEntity
  8
0
100
AcDbBlockBegin
  2
*D36
 70
     1
 10
0.0
 20
0.0
 30
0.0
  3
*D36
  1

  0
LINE
  5
AD0
330
A6D
100
AcDbEntity
  8
AM_5
  6
ByBlock
100
AcDbLine
 10
810.0000010462453
 20
160.5847997835174
 30
0.0
 11
810.0000010462453
 21
215.6571694377378
 31
0.0
  0
LINE
  5
AD1
330
A6D
100
AcDbEntity
  8
AM_5
  6
ByBlock
100
AcDbLine
 10
-49.99999895375458
 20
155.4502854975936
 30
0.0
 11
-49.99999895375458
 21
215.6571694377378
 31
0.0
  0
LINE
  5
AD2
330
A6D
100
AcDbEntity
  8
AM_5
  6
ByBlock
100
AcDbLine
 10
803.0000010462455
 20
214.6571694377378
 30
0.0
 11
-42.99999895375457
 21
214.6571694377378
 31
0.0
  0
SOLID
  5
AD3
330
A6D
100
AcDbEntity
  8
AM_5
100
AcDbTrace
 10
803.0000010462455
 20
215.8238361044045
 30
0.0
 11
803.0000010462455
 21
213.4905027710712
 31
0.0
 12
810.0000010462453
 22
214.6571694377378
 32
0.0
 13
810.0000010462453
 23
214.6571694377378
 33
0.0
  0
SOLID
  5
AD4
330
A6D
100
AcDbEntity
  8
AM_5
100
AcDbTrace
 10
-42.99999895375457
 20
215.8238361044045
 30
0.0
 11
-42.99999895375457
 21
213.4905027710712
 31
0.0
 12
-49.99999895375458
 22
214.6571694377378
 32
0.0
 13
-49.99999895375458
 23
214.6571694377378
 33
0.0
  0
MTEXT
  5
AD5
330
A6D
100
AcDbEntity
  8
AM_5
 62
     2
100
AcDbMText
 10
380.0000010462454
 20
221.1571694377378
 30
0.0
 40
10.0
 41
0.0
 71
     5
 72
     1
  1
860
 73
     1
 44
1.0
1001
ACAD
1000
MTEXTBEGIN
1070
    73
1070
     1
1070
    44
1040
1.0
1070
    74
1070
     0
1000
MTEXTEND
  0
POINT
  5
AD6
330
A6D
100
AcDbEntity
  8
Defpoints
 62
     0
100
AcDbPoint
 10
810.0000010462453
 20
159.5847997835174
 30
0.0
  0
POINT
  5
AD7
330
A6D
100
AcDbEntity
  8
Defpoints
 62
     0
100
AcDbPoint
 10
-49.99999895375458
 20
154.4502854975936
 30
0.0
  0
POINT
  5
AD8
330
A6D
100
AcDbEntity
  8
Defpoints
 62
     0
100
AcDbPoint
 10
-49.99999895375458
 20
214.6571694377378
 30
0.0
  0
ENDBLK
  5
A6F
330
A6D
100
AcDbEntity
  8
0
100
AcDbBlockEnd
  0
BLOCK
  5
A7A
330
A79
100
AcDbEntity
  8
0
100
AcDbBlockBegin
  2
*D37
 70
     1
 10
0.0
 20
0.0
 30
0.0
  3
*D37
  1

  0
LINE
  5
ABE
330
A79
100
AcDbEntity
  8
AM_5
  6
ByBlock
100
AcDbLine
 10
1124.792369799659
 20
452.7165102753397
 30
0.0
 11
1124.792369799659
 21
501.4470977742558
 31
0.0
  0
LINE
  5
ABF
330
A79
100
AcDbEntity
  8
AM_5
  6
ByBlock
100
AcDbLine
 10
1044.792365652947
 20
451.7165102751751
 30
0.0
 11
1044.792365652947
 21
501.4470977742558
 31
0.0
  0
LINE
  5
AC0
330
A79
100
AcDbEntity
  8
AM_5
  6
ByBlock
100
AcDbLine
 10
1117.792369799659
 20
500.4470977742556
 30
0.0
 11
1051.792365652947
 21
500.4470977742556
 31
0.0
  0
SOLID
  5
AC1
330
A79
100
AcDbEntity
  8
AM_5
100
AcDbTrace
 10
1117.792369799659
 20
501.6137644409225
 30
0.0
 11
1117.792369799659
 21
499.280431107589
 31
0.0
 12
1124.792369799659
 22
500.4470977742556
 32
0.0
 13
1124.792369799659
 23
500.4470977742556
 33
0.0
  0
SOLID
  5
AC2
330
A79
100
AcDbEntity
  8
AM_5
100
AcDbTrace
 10
1051.792365652947
 20
501.6137644409225
 30
0.0
 11
1051.792365652947
 21
499.280431107589
 31
0.0
 12
1044.792365652947
 22
500.4470977742556
 32
0.0
 13
1044.792365652947
 23
500.4470977742556
 33
0.0
  0
MTEXT
  5
AC3
330
A79
100
AcDbEntity
  8
AM_5
 62
     2
100
AcDbMText
 10
1084.792367726303
 20
506.9470977742557
 30
0.0
 40
10.0
 41
0.0
 71
     5
 72
     1
  1
80
 73
     1
 44
1.0
1001
ACAD
1000
MTEXTBEGIN
1070
    73
1070
     1
1070
    44
1040
1.0
1070
    74
1070
     0
1000
MTEXTEND
  0
POINT
  5
AC4
330
A79
100
AcDbEntity
  8
Defpoints
 62
     0
100
AcDbPoint
 10
1124.792369799659
 20
451.7165102753396
 30
0.0
  0
POINT
  5
AC5
330
A79
100
AcDbEntity
  8
Defpoints
 62
     0
100
AcDbPoint
 10
1044.792365652947
 20
450.716510275175
 30
0.0
  0
POINT
  5
AC6
330
A79
100
AcDbEntity
  8
Defpoints
 62
     0
100
AcDbPoint
 10
1044.792365652947
 20
500.4470977742556
 30
0.0
  0
ENDBLK
  5
A7B
330
A79
100
AcDbEntity
  8
0
100
AcDbBlockEnd
  0
BLOCK
  5
A86
330
A85
100
AcDbEntity
  8
0
100
AcDbBlockBegin
  2
*D38
 70
     1
 10
0.0
 20
0.0
 30
0.0
  3
*D38
  1

  0
LINE
  5
AC7
330
A85
100
AcDbEntity
  8
AM_5
  6
ByBlock
100
AcDbLine
 10
1042.792365652938
 20
453.7165102751751
 30
0.0
 11
1042.792365652938
 21
524.8433791806701
 31
0.0
  0
LINE
  5
AC8
330
A85
100
AcDbEntity
  8
AM_5
  6
ByBlock
100
AcDbLine
 10
1126.792369799628
 20
452.716510275336
 30
0.0
 11
1126.792369799628
 21
524.8433791806701
 31
0.0
  0
LINE
  5
AC9
330
A85
100
AcDbEntity
  8
AM_5
  6
ByBlock
100
AcDbLine
 10
1049.792365652938
 20
523.8433791806701
 30
0.0
 11
1119.792369799628
 21
523.8433791806701
 31
0.0
  0
SOLID
  5
ACA
330
A85
100
AcDbEntity
  8
AM_5
100
AcDbTrace
 10
1049.792365652938
 20
525.0100458473366
 30
0.0
 11
1049.792365652938
 21
522.6767125140034
 31
0.0
 12
1042.792365652938
 22
523.8433791806701
 32
0.0
 13
1042.792365652938
 23
523.8433791806701
 33
0.0
  0
SOLID
  5
ACB
330
A85
100
AcDbEntity
  8
AM_5
100
AcDbTrace
 10
1119.792369799628
 20
525.0100458473366
 30
0.0
 11
1119.792369799628
 21
522.6767125140034
 31
0.0
 12
1126.792369799628
 22
523.8433791806701
 32
0.0
 13
1126.792369799628
 23
523.8433791806701
 33
0.0
  0
MTEXT
  5
ACC
330
A85
100
AcDbEntity
  8
AM_5
 62
     2
100
AcDbMText
 10
1084.792367726283
 20
530.3433791806701
 30
0.0
 40
10.0
 41
0.0
 71
     5
 72
     1
  1
84
 73
     1
 44
1.0
1001
ACAD
1000
MTEXTBEGIN
1070
    73
1070
     1
1070
    44
1040
1.0
1070
    74
1070
     0
1000
MTEXTEND
  0
POINT
  5
ACD
330
A85
100
AcDbEntity
  8
Defpoints
 62
     0
100
AcDbPoint
 10
1042.792365652938
 20
452.7165102751751
 30
0.0
  0
POINT
  5
ACE
330
A85
100
AcDbEntity
  8
Defpoints
 62
     0
100
AcDbPoint
 10
1126.792369799628
 20
451.7165102753359
 30
0.0
  0
POINT
  5
ACF
330
A85
100
AcDbEntity
  8
Defpoints
 62
     0
100
AcDbPoint
 10
1126.792369799628
 20
523.8433791806701
 30
0.0
  0
ENDBLK
  5
A87
330
A85
100
AcDbEntity
  8
0
100
AcDbBlockEnd
  0
ENDSEC
  0
SECTION
  2
ENTITIES
  0
LINE
  5
93B
330
1F
100
AcDbEntity
  8
0
  6
Continuous
 62
     7
100
AcDbLine
 10
-49.99999895375458
 20
437.7250817040263
 30
0.0
 11
-49.99999895375458
 21
492.6936531321813
 31
0.0
  0
LINE
  5
93C
330
1F
100
AcDbEntity
  8
0
  6
Continuous
 62
     7
100
AcDbLine
 10
-22.49857038191567
 20
437.8589797431152
 30
0.0
 11
-22.49857038191567
 21
451.7170817040273
 31
0.0
  0
LINE
  5
93D
330
1F
100
AcDbEntity
  8
0
  6
Continuous
 62
     7
100
AcDbLine
 10
-21.998856096282
 20
438.7245102752873
 30
0.0
 11
-21.998856096282
 21
451.7170817040273
 31
0.0
  0
LINE
  5
93E
330
1F
100
AcDbEntity
  8
0
  6
Continuous
 62
     7
100
AcDbLine
 10
-20.99942752502102
 20
440.7333617040264
 30
0.0
 11
-20.99942752502102
 21
352.7736531321805
 31
0.0
  0
LINE
  5
93F
330
1F
100
AcDbEntity
  8
0
  6
Continuous
 62
     7
100
AcDbLine
 10
-19.99999895375458
 20
437.7250817040263
 30
0.0
 11
-19.99999895375458
 21
436.7256531321813
 31
0.0
  0
LINE
  5
940
330
1F
100
AcDbEntity
  8
0
  6
Continuous
 62
     7
100
AcDbLine
 10
-19.99999895375458
 20
352.7736531321805
 30
0.0
 11
-19.99999895375458
 21
329.7867959896582
 31
0.0
  0
LINE
  5
941
330
1F
100
AcDbEntity
  8
0
  6
Continuous
 62
     7
100
AcDbLine
 10
-19.99999895375458
 20
352.7736531321805
 30
0.0
 11
-19.99999895375458
 21
436.7256531321813
 31
0.0
  0
LINE
  5
942
330
1F
100
AcDbEntity
  8
0
  6
Continuous
 62
     7
100
AcDbLine
 10
-19.99999895375458
 20
437.7250817040263
 30
0.0
 11
-19.99999895375458
 21
453.2162245609193
 31
0.0
  0
LINE
  5
943
330
1F
100
AcDbEntity
  8
0
  6
Continuous
 62
     7
100
AcDbLine
 10
-18.00114181065419
 20
407.7422245609204
 30
0.0
 11
-18.00114181065419
 21
329.7867959896582
 31
0.0
  0
LINE
  5
944
330
1F
100
AcDbEntity
  8
0
  6
Continuous
 62
     7
100
AcDbLine
 10
41.96457247498164
 20
327.7879388465513
 30
0.0
 11
41.96457247498164
 21
325.7890817040266
 31
0.0
  0
LINE
  5
945
330
1F
100
AcDbEntity
  8
0
  6
Continuous
 62
     7
100
AcDbLine
 10
-16.00228466812587
 20
325.7890817040266
 30
0.0
 11
41.96457247498164
 21
325.7890817040266
 31
0.0
  0
LINE
  5
946
330
1F
100
AcDbEntity
  8
0
  6
Continuous
 62
     7
100
AcDbLine
 10
718.0354296180876
 20
325.7890817040266
 30
0.0
 11
776.0022867606131
 21
325.7890817040266
 31
0.0
  0
LINE
  5
947
330
1F
100
AcDbEntity
  8
0
  6
Continuous
 62
     7
100
AcDbLine
 10
-16.00228466812587
 20
327.7879388465513
 30
0.0
 11
41.96457247498164
 21
327.7879388465513
 31
0.0
  0
LINE
  5
948
330
1F
100
AcDbEntity
  8
0
  6
Continuous
 62
     7
100
AcDbLine
 10
718.0354296180876
 20
327.7879388465513
 30
0.0
 11
776.0022867606131
 21
327.7879388465513
 31
0.0
  0
LINE
  5
949
330
1F
100
AcDbEntity
  8
0
  6
Continuous
 62
     7
100
AcDbLine
 10
410.9211502971328
 20
345.7776531321822
 30
0.0
 11
349.0177153318819
 21
345.7776531321822
 31
0.0
  0
LINE
  5
94A
330
1F
100
AcDbEntity
  8
0
  6
Continuous
 62
     7
100
AcDbLine
 10
-19.99999895375458
 20
352.7736531321805
 30
0.0
 11
-20.99942752502102
 21
352.7736531321805
 31
0.0
  0
LINE
  5
94B
330
1F
100
AcDbEntity
  8
0
  6
Continuous
 62
     7
100
AcDbLine
 10
780.0000010462454
 20
352.7736531321805
 30
0.0
 11
780.9994296180913
 21
352.7736531321805
 31
0.0
  0
LINE
  5
94C
330
1F
100
AcDbEntity
  8
0
  6
Continuous
 62
     7
100
AcDbLine
 10
343.0192817276829
 20
427.3487954380764
 30
0.0
 11
343.0211437696335
 21
427.2878166341134
 31
0.0
  0
LINE
  5
94D
330
1F
100
AcDbEntity
  8
0
  6
Continuous
 62
     7
100
AcDbLine
 10
342.5214296175099
 20
421.7342245609204
 30
0.0
 11
342.5214296175099
 21
352.2739388465502
 31
0.0
  0
LINE
  5
94E
330
1F
100
AcDbEntity
  8
0
  6
Continuous
 62
     7
100
AcDbLine
 10
343.0211439031436
 20
427.2878157607804
 30
0.0
 11
343.0211439031436
 21
421.7342245609204
 31
0.0
  0
LINE
  5
94F
330
1F
100
AcDbEntity
  8
0
  6
Continuous
 62
     7
100
AcDbLine
 10
343.0085151833473
 20
427.4461929770193
 30
0.0
 11
343.0192817276829
 21
427.3487954380764
 31
0.0
  0
LINE
  5
950
330
1F
100
AcDbEntity
  8
0
  6
Continuous
 62
     7
100
AcDbLine
 10
780.0000010462454
 20
407.7422245609204
 30
0.0
 11
778.0011439037216
 21
407.7422245609204
 31
0.0
  0
LINE
  5
951
330
1F
100
AcDbEntity
  8
0
  6
Continuous
 62
     7
100
AcDbLine
 10
-19.99999895375458
 20
407.7422245609204
 30
0.0
 11
-18.00114181065419
 21
407.7422245609204
 31
0.0
  0
LINE
  5
952
330
1F
100
AcDbEntity
  8
0
  6
Continuous
 62
     7
100
AcDbLine
 10
342.5214012633032
 20
421.7342245609204
 30
0.0
 11
417.4786008291912
 21
421.7342245609204
 31
0.0
  0
LINE
  5
953
330
1F
100
AcDbEntity
  8
0
  6
Continuous
 62
     7
100
AcDbLine
 10
-19.99999895375458
 20
422.7336531321805
 30
0.0
 11
-20.99942752502102
 21
422.7336531321805
 31
0.0
  0
LINE
  5
954
330
1F
100
AcDbEntity
  8
0
  6
Continuous
 62
     7
100
AcDbLine
 10
780.0000010462454
 20
422.7336531321805
 30
0.0
 11
780.9994296180913
 21
422.7336531321805
 31
0.0
  0
LINE
  5
955
330
1F
100
AcDbEntity
  8
0
  6
Continuous
 62
     7
100
AcDbLine
 10
-19.99999895375458
 20
428.2872443320413
 30
0.0
 11
381.7988581893478
 21
428.2872443320413
 31
0.0
  0
LINE
  5
956
330
1F
100
AcDbEntity
  8
0
  6
Continuous
 62
     7
100
AcDbLine
 10
380.0000010462454
 20
428.2872443320413
 30
0.0
 11
780.0000010462454
 21
428.2872443320413
 31
0.0
  0
LINE
  5
957
330
1F
100
AcDbEntity
  8
0
  6
Continuous
 62
     7
100
AcDbLine
 10
-20.99877237235523
 20
436.7256531321813
 30
0.0
 11
-49.99999895375458
 21
436.7256531321813
 31
0.0
  0
LINE
  5
958
330
1F
100
AcDbEntity
  8
0
  6
Continuous
 62
     7
100
AcDbLine
 10
-19.99999895375458
 20
436.7256531321813
 30
0.0
 11
780.0000010462462
 21
436.7256531321813
 31
0.0
  0
LINE
  5
959
330
1F
100
AcDbEntity
  8
0
  6
Continuous
 62
     7
100
AcDbLine
 10
780.9994296180913
 20
436.7256531321813
 30
0.0
 11
810.0000010462453
 21
436.7256531321813
 31
0.0
  0
LINE
  5
95A
330
1F
100
AcDbEntity
  8
0
  6
Continuous
 62
     7
100
AcDbLine
 10
-20.99877237235523
 20
437.7250817040263
 30
0.0
 11
-49.99999895375458
 21
437.7250817040263
 31
0.0
  0
LINE
  5
95B
330
1F
100
AcDbEntity
  8
0
  6
Continuous
 62
     7
100
AcDbLine
 10
-19.99999895375458
 20
437.7250817040263
 30
0.0
 11
780.0000010462462
 21
437.7250817040264
 31
0.0
  0
LINE
  5
95C
330
1F
100
AcDbEntity
  8
0
  6
Continuous
 62
     7
100
AcDbLine
 10
780.9994296180913
 20
437.7250817040263
 30
0.0
 11
810.0000010462453
 21
437.7250817040263
 31
0.0
  0
LWPOLYLINE
  5
95D
330
1F
100
AcDbEntity
  8
0
  6
Continuous
 62
     7
100
AcDbPolyline
 90
       16
 70
     0
 43
0.0
 10
342.0217153318763
 20
428.2872445069424
 10
342.0571581814102
 20
428.2866158527954
 10
342.1550285654166
 20
428.2783133130663
 10
342.2516080434216
 20
428.2604447507607
 10
342.3459661736623
 20
428.2331829839875
 10
342.4371938189424
 20
428.1967906769803
 10
342.5244118595638
 20
428.151617787735
 10
342.6067788965292
 20
428.0980986308462
 10
342.6835023465692
 20
428.0367454032942
 10
342.7538336825918
 20
427.9681541590353
 10
342.8170919745781
 20
427.8929881007933
 10
342.8726581960463
 20
427.8119853462142
 10
342.9199938742049
 20
427.7259403056704
 10
342.9586441396268
 20
427.6356976517193
 10
342.9882427971925
 20
427.5421423293852
 10
343.0085151833473
 20
427.4461929770193
  0
LINE
  5
95E
330
1F
100
AcDbEntity
  8
0
  6
Continuous
 62
     7
100
AcDbLine
 10
416.9788581887723
 20
427.2878157607804
 30
0.0
 11
416.9788581887723
 21
421.7342245609204
 31
0.0
  0
LINE
  5
95F
330
1F
100
AcDbEntity
  8
0
  6
Continuous
 62
     7
100
AcDbLine
 10
417.478572474988
 20
421.7342245609204
 30
0.0
 11
417.478572474988
 21
352.2739388465502
 31
0.0
  0
LINE
  5
960
330
1F
100
AcDbEntity
  8
0
  6
Continuous
 62
     7
100
AcDbLine
 10
416.9788582622303
 20
427.2878163985811
 30
0.0
 11
416.9807245344263
 21
427.3488644827663
 31
0.0
  0
LINE
  5
961
330
1F
100
AcDbEntity
  8
0
  6
Continuous
 62
     7
100
AcDbLine
 10
416.9807245344263
 20
427.3488644827663
 30
0.0
 11
416.9915058094293
 21
427.4463109505681
 31
0.0
  0
LWPOLYLINE
  5
962
330
1F
100
AcDbEntity
  8
0
  6
Continuous
 62
     7
100
AcDbPolyline
 90
       16
 70
     0
 43
0.0
 10
416.9915058094293
 20
427.4463109505681
 10
417.0117972637708
 20
427.5422866889312
 10
417.0414148577501
 20
427.6358509142553
 10
417.0800808152026
 20
427.7260891228344
 10
417.1274269757012
 20
427.8121201725423
 10
417.1829978489248
 20
427.8931033499832
 10
417.2462555153534
 20
427.9682478308114
 10
417.3165832379408
 20
428.0368191114034
 10
417.3933007186486
 20
428.0981545318032
 10
417.4756616620933
 20
428.1516592792621
 10
417.5628729404989
 20
428.1968201546273
 10
417.6540931484487
 20
428.2332025308103
 10
417.7484429097221
 20
428.2604562166205
 10
417.8450127851319
 20
428.2783185140094
 10
417.9428720099377
 20
428.2866167681041
 10
417.9782867606144
 20
428.2872444259041
  0
LINE
  5
963
330
1F
100
AcDbEntity
  8
0
  6
Continuous
 62
     7
100
AcDbLine
 10
781.9988581893511
 20
439.7339331321822
 30
0.0
 11
780.9994296180913
 21
439.7339331321822
 31
0.0
  0
LINE
  5
964
330
1F
100
AcDbEntity
  8
0
  6
Continuous
 62
     7
100
AcDbLine
 10
-21.998856096282
 20
439.7339331327655
 30
0.0
 11
-20.99942752502102
 21
439.7339331327655
 31
0.0
  0
LINE
  5
965
330
1F
100
AcDbEntity
  8
0
  6
Continuous
 62
     7
100
AcDbLine
 10
781.9988581893511
 20
440.7333617040264
 30
0.0
 11
780.9994296180913
 21
440.7333617040264
 31
0.0
  0
LINE
  5
966
330
1F
100
AcDbEntity
  8
0
  6
Continuous
 62
     7
100
AcDbLine
 10
-21.998856096282
 20
440.7333617040264
 30
0.0
 11
-20.99942752502102
 21
440.7333617040264
 31
0.0
  0
LINE
  5
967
330
1F
100
AcDbEntity
  8
0
  6
Continuous
 62
     7
100
AcDbLine
 10
780.0000010462454
 20
452.7165102752881
 30
0.0
 11
-19.99999895375458
 21
452.7165102752883
 31
0.0
  0
LINE
  5
968
330
1F
100
AcDbEntity
  8
0
  6
Continuous
 62
     7
100
AcDbLine
 10
780.9994296180913
 20
453.2162245609193
 30
0.0
 11
780.0000010462454
 21
453.2162245609193
 31
0.0
  0
LINE
  5
969
330
1F
100
AcDbEntity
  8
0
  6
Continuous
 62
     7
100
AcDbLine
 10
-19.99999895375458
 20
453.2162245609193
 30
0.0
 11
-20.99942752502102
 21
453.2162245609193
 31
0.0
  0
LINE
  5
96A
330
1F
100
AcDbEntity
  8
0
  6
Continuous
 62
     7
100
AcDbLine
 10
810.0000010462453
 20
492.6936531321813
 30
0.0
 11
-49.99999895375458
 21
492.6936531321813
 31
0.0
  0
LINE
  5
96B
330
1F
100
AcDbEntity
  8
0
  6
Continuous
 62
     7
100
AcDbLine
 10
718.0354296180876
 20
327.7879388465513
 30
0.0
 11
718.0354296180876
 21
325.7890817040266
 31
0.0
  0
LINE
  5
96C
330
1F
100
AcDbEntity
  8
0
  6
Continuous
 62
     7
100
AcDbLine
 10
778.0011439037216
 20
329.7867959896582
 30
0.0
 11
778.0011439037216
 21
407.7422245609204
 31
0.0
  0
LINE
  5
96D
330
1F
100
AcDbEntity
  8
0
  6
Continuous
 62
     7
100
AcDbLine
 10
780.0000010462454
 20
437.7250817040263
 30
0.0
 11
780.0000010462454
 21
436.7256531321813
 31
0.0
  0
LINE
  5
96E
330
1F
100
AcDbEntity
  8
0
  6
Continuous
 62
     7
100
AcDbLine
 10
780.0000010462454
 20
329.7867959896582
 30
0.0
 11
780.0000010462454
 21
352.7736531321805
 31
0.0
  0
LINE
  5
96F
330
1F
100
AcDbEntity
  8
0
  6
Continuous
 62
     7
100
AcDbLine
 10
780.0000010462454
 20
352.7736531321805
 30
0.0
 11
780.0000010462454
 21
436.7256531321813
 31
0.0
  0
LINE
  5
970
330
1F
100
AcDbEntity
  8
0
  6
Continuous
 62
     7
100
AcDbLine
 10
780.0000010462459
 20
428.2872443320413
 30
0.0
 11
780.0000010462454
 21
453.2162245609193
 31
0.0
  0
LINE
  5
971
330
1F
100
AcDbEntity
  8
0
  6
Continuous
 62
     7
100
AcDbLine
 10
780.9994296180913
 20
352.7736531321805
 30
0.0
 11
780.9994296180913
 21
440.7333617040264
 31
0.0
  0
LINE
  5
972
330
1F
100
AcDbEntity
  8
0
  6
Continuous
 62
     7
100
AcDbLine
 10
781.9988581893511
 20
438.7245102752873
 30
0.0
 11
781.9988581893511
 21
451.7170817040273
 31
0.0
  0
LINE
  5
973
330
1F
100
AcDbEntity
  8
0
  6
Continuous
 62
     7
100
AcDbLine
 10
782.4985724749812
 20
437.8589797431152
 30
0.0
 11
782.4985724749812
 21
451.7170817040273
 31
0.0
  0
LINE
  5
974
330
1F
100
AcDbEntity
  8
0
  6
Continuous
 62
     7
100
AcDbLine
 10
810.0000010462453
 20
492.6936531321813
 30
0.0
 11
810.0000010462453
 21
437.7250817040263
 31
0.0
  0
LINE
  5
975
330
1F
100
AcDbEntity
  8
0
  6
Continuous
 62
     7
100
AcDbLine
 10
810.0000010462453
 20
436.7256531321813
 30
0.0
 11
810.0000010462453
 21
437.7250817040263
 31
0.0
  0
CIRCLE
  5
976
330
1F
100
AcDbEntity
  8
0
  6
Continuous
 62
     7
100
AcDbCircle
 10
380.0000010462454
 20
388.7530817040274
 30
0.0
 40
24.985714285631
  0
CIRCLE
  5
977
330
1F
100
AcDbEntity
  8
0
  6
Continuous
 62
     7
100
AcDbCircle
 10
380.0000010462454
 20
388.7530817040274
 30
0.0
 40
23.48657142873801
  0
ARC
  5
978
330
1F
100
AcDbEntity
  8
0
  6
Continuous
 62
     7
100
AcDbCircle
 10
-22.99828466812323
 20
438.7245102752873
 30
0.0
 40
1.998857143106999
100
AcDbArc
 50
329.9616926244011
 51
0.0
  0
ARC
  5
979
330
1F
100
AcDbEntity
  8
0
  6
Continuous
 62
     7
100
AcDbCircle
 10
782.9982867606132
 20
438.7245102752873
 30
0.0
 40
1.998857143106999
100
AcDbArc
 50
180.0
 51
210.0383073755989
  0
ARC
  5
97A
330
1F
100
AcDbEntity
  8
0
  6
Continuous
 62
     7
100
AcDbCircle
 10
776.0022867606131
 20
329.7867959896582
 30
0.0
 40
3.997714285630998
100
AcDbArc
 50
270.0
 51
0.0
  0
ARC
  5
97B
330
1F
100
AcDbEntity
  8
0
  6
Continuous
 62
     7
100
AcDbCircle
 10
-16.00228466812587
 20
329.7867959896582
 30
0.0
 40
3.997714285630998
100
AcDbArc
 50
180.0
 51
270.0
  0
ARC
  5
97C
330
1F
100
AcDbEntity
  8
0
  6
Continuous
 62
     7
100
AcDbCircle
 10
349.0177153318819
 20
352.2739388465502
 30
0.0
 40
6.496285714368996
100
AcDbArc
 50
180.0
 51
270.0
  0
ARC
  5
97D
330
1F
100
AcDbEntity
  8
0
  6
Continuous
 62
     7
100
AcDbCircle
 10
410.9822867606197
 20
352.2739388465502
 30
0.0
 40
6.496285714368996
100
AcDbArc
 50
270.0
 51
0.0
  0
CIRCLE
  5
97E
330
1F
100
AcDbEntity
  8
0
  6
Continuous
 62
     7
100
AcDbCircle
 10
380.0000010462454
 20
388.7530817040274
 30
0.0
 40
25.085657143107
  0
ARC
  5
97F
330
1F
100
AcDbEntity
  8
0
  6
Continuous
 62
     7
100
AcDbCircle
 10
-20.99942752502102
 20
451.7170817040273
 30
0.0
 40
0.9994285712619999
100
AcDbArc
 50
0.0
 51
180.0
  0
ARC
  5
980
330
1F
100
AcDbEntity
  8
0
  6
Continuous
 62
     7
100
AcDbCircle
 10
-22.99828466812323
 20
438.7245102752873
 30
0.0
 40
0.9994285712619999
100
AcDbArc
 50
270.0
 51
0.0
  0
ARC
  5
981
330
1F
100
AcDbEntity
  8
0
  6
Continuous
 62
     7
100
AcDbCircle
 10
782.9982867606132
 20
438.7245102752873
 30
0.0
 40
0.9994285712619999
100
AcDbArc
 50
180.0
 51
270.0
  0
ARC
  5
982
330
1F
100
AcDbEntity
  8
0
  6
Continuous
 62
     7
100
AcDbCircle
 10
780.9994296180913
 20
451.7170817040273
 30
0.0
 40
0.9994285712619999
100
AcDbArc
 50
0.0
 51
180.0
  0
ARC
  5
983
330
1F
100
AcDbEntity
  8
0
  6
Continuous
 62
     7
100
AcDbCircle
 10
776.0022867606131
 20
329.7867959896582
 30
0.0
 40
1.998857143106999
100
AcDbArc
 50
270.0
 51
0.0
  0
ARC
  5
984
330
1F
100
AcDbEntity
  8
0
  6
Continuous
 62
     7
100
AcDbCircle
 10
-16.00228466812587
 20
329.7867959896582
 30
0.0
 40
1.998857143106999
100
AcDbArc
 50
180.0
 51
270.0
  0
ARC
  5
985
330
1F
100
AcDbEntity
  8
0
  6
Continuous
 62
     7
100
AcDbCircle
 10
-20.99942752502102
 20
451.7170817040273
 30
0.0
 40
1.499142856893
100
AcDbArc
 50
90.0
 51
180.0
  0
ARC
  5
986
330
1F
100
AcDbEntity
  8
0
  6
Continuous
 62
     7
100
AcDbCircle
 10
780.9994296180913
 20
451.7170817040273
 30
0.0
 40
1.499142856893
100
AcDbArc
 50
0.0
 51
90.0
  0
LINE
  5
987
330
1F
100
AcDbEntity
  8
AM_7
100
AcDbLine
 10
380.0000010462454
 20
388.7530817040274
 30
0.0
 11
405.0856581893513
 21
388.7530817040274
 31
0.0
1001
GENIUS_GENOREF_13
1005
A3C
  0
LINE
  5
988
330
1F
100
AcDbEntity
  8
AM_7
100
AcDbLine
 10
380.0000010462454
 20
388.7530817040274
 30
0.0
 11
380.0000010462454
 21
458.1779292420241
 31
0.0
1001
GENIUS_GENOREF_13
1005
A3C
  0
LINE
  5
989
330
1F
100
AcDbEntity
  8
AM_7
100
AcDbLine
 10
380.0000010462454
 20
388.7530817040274
 30
0.0
 11
354.9143439031387
 21
388.7530817040274
 31
0.0
1001
GENIUS_GENOREF_13
1005
A3C
  0
LINE
  5
98A
330
1F
100
AcDbEntity
  8
AM_7
100
AcDbLine
 10
380.0000010462454
 20
388.7530817040274
 30
0.0
 11
380.0000010462454
 21
341.8789902245505
 31
0.0
1001
GENIUS_GENOREF_13
1005
A3C
  0
LINE
  5
98B
330
1F
100
AcDbEntity
  8
0
  6
Continuous
 62
     7
100
AcDbLine
 10
-49.99999895375458
 20
159.3094854978863
 30
0.0
 11
-49.99999895375458
 21
26.58479978351738
 31
0.0
  0
LINE
  5
98C
330
1F
100
AcDbEntity
  8
0
  6
Continuous
 62
     7
100
AcDbLine
 10
-49.99999895375458
 20
152.4508569263319
 30
0.0
 11
-49.99999895375458
 21
153.4502854975937
 31
0.0
  0
LINE
  5
98D
330
1F
100
AcDbEntity
  8
0
  6
Continuous
 62
     7
100
AcDbLine
 10
-19.99999895375458
 20
51.4845712116721
 30
0.0
 11
-19.99999895375458
 21
157.5853712122555
 31
0.0
  0
LINE
  5
98E
330
1F
100
AcDbEntity
  8
0
  6
Continuous
 62
     7
100
AcDbLine
 10
-18.00114181122717
 20
26.58479978351738
 30
0.0
 11
-18.00114181122717
 21
157.5853712122555
 31
0.0
  0
LINE
  5
98F
330
1F
100
AcDbEntity
  8
0
  6
Continuous
 62
     7
100
AcDbLine
 10
355.0142867606237
 20
-0.0000002164815669
 30
0.0
 11
404.9857153318807
 21
-0.0000002164815669
 31
0.0
  0
LINE
  5
990
330
1F
100
AcDbEntity
  8
0
  6
Continuous
 62
     7
100
AcDbLine
 10
-18.01828466812367
 20
26.58479978351738
 30
0.0
 11
-49.99999895375458
 21
26.58479978351738
 31
0.0
  0
LINE
  5
991
330
1F
100
AcDbEntity
  8
0
  6
Continuous
 62
     7
100
AcDbLine
 10
-21.79885609685698
 20
26.58479978351738
 30
0.0
 11
810.0000010462453
 21
26.58479978351738
 31
0.0
  0
LINE
  5
992
330
1F
100
AcDbEntity
  8
0
  6
Continuous
 62
     7
100
AcDbLine
 10
355.0142867606237
 20
-0.0000002164815669
 30
0.0
 11
355.0142867606237
 21
26.58479978351738
 31
0.0
  0
LINE
  5
993
330
1F
100
AcDbEntity
  8
0
  6
Continuous
 62
     7
100
AcDbLine
 10
780.0000010462454
 20
51.08479978351738
 30
0.0
 11
-18.00114181122717
 21
51.08479978351738
 31
0.0
  0
LINE
  5
994
330
1F
100
AcDbEntity
  8
0
  6
Continuous
 62
     7
100
AcDbLine
 10
780.0000010462454
 20
53.08365692604116
 30
0.0
 11
-18.00114181122717
 21
53.08365692604116
 31
0.0
  0
LINE
  5
995
330
1F
100
AcDbEntity
  8
0
  6
Continuous
 62
     7
100
AcDbLine
 10
404.9857153318807
 20
-0.0000002164815669
 30
0.0
 11
404.9857153318807
 21
26.58479978351738
 31
0.0
  0
LINE
  5
996
330
1F
100
AcDbEntity
  8
0
  6
Continuous
 62
     7
100
AcDbLine
 10
781.5988581887722
 20
135.0847997835176
 30
0.0
 11
-18.00114181122717
 21
135.0847997835176
 31
0.0
  0
LINE
  5
997
330
1F
100
AcDbEntity
  8
AM_CL
 62
     0
100
AcDbLine
 10
810.0000010462453
 20
157.5853712122555
 30
0.0
 11
-49.99999895375458
 21
157.5853712122555
 31
0.0
  0
LINE
  5
998
330
1F
100
AcDbEntity
  8
AM_CL
 62
     0
100
AcDbLine
 10
810.0000010462453
 20
159.5847997835174
 30
0.0
 11
-49.99999895375458
 21
159.5847997835174
 31
0.0
  0
LINE
  5
999
330
1F
100
AcDbEntity
  8
0
  6
Continuous
 62
     7
100
AcDbLine
 10
778.0011439031397
 20
26.58479978351738
 30
0.0
 11
778.0011439031397
 21
157.5853712122555
 31
0.0
  0
LINE
  5
99A
330
1F
100
AcDbEntity
  8
0
  6
Continuous
 62
     7
100
AcDbLine
 10
780.0000010462459
 20
157.5853712122555
 30
0.0
 11
780.0000010462454
 21
51.08479978351738
 31
0.0
  0
LINE
  5
99B
330
1F
100
AcDbEntity
  8
0
  6
Continuous
 62
     7
100
AcDbLine
 10
810.0000010462453
 20
26.58479978351738
 30
0.0
 11
810.0000010462453
 21
159.5847997835174
 31
0.0
  0
CIRCLE
  5
99C
330
1F
100
AcDbEntity
  8
0
  6
Continuous
 62
     7
100
AcDbCircle
 10
380.0000010462454
 20
93.08479978322704
 30
0.0
 40
35.97942857126201
  0
CIRCLE
  5
99D
330
1F
100
AcDbEntity
  8
0
100
AcDbCircle
 10
380.0000010462454
 20
93.08479978322704
 30
0.0
 40
17.5
  0
CIRCLE
  5
99E
330
1F
100
AcDbEntity
  8
0
100
AcDbCircle
 10
380.0000010462454
 20
93.08479978322704
 30
0.0
 40
30.0
  0
LINE
  5
99F
330
1F
100
AcDbEntity
  8
0
100
AcDbLine
 10
381.0000010462454
 20
110.5562049928819
 30
0.0
 11
381.0000010462454
 21
75.61339457356983
 31
0.0
  0
LINE
  5
9A0
330
1F
100
AcDbEntity
  8
0
100
AcDbLine
 10
379.0000010462454
 20
110.5562049928819
 30
0.0
 11
379.0000010462454
 21
75.61339457356983
 31
0.0
  0
LINE
  5
9A1
330
1F
100
AcDbEntity
  8
0
100
AcDbLine
 10
777.8011439031387
 20
93.08479978351783
 30
0.0
 11
415.9794296175086
 21
93.08479978351693
 31
0.0
1001
GENIUS_GENOBJ-N-CEN_13
1002
{
1000
OWNER
1000
GEN
1002
}
1001
GENIUS_GENODEF_13
1002
{
1000
HIER
1070
     0
1002
}
1002
{
1000
MANEDIT
1070
     0
1002
}
1002
{
1000
NOSEL
1070
     0
1002
}
1002
{
1000
BEHIND
1070
     0
1002
}
1002
{
1000
OTHER
1070
     0
1002
}
1002
{
1000
REACTOR
1002
}
1001
GENIUS_GENCEN_19
1002
{
1040
3.0
1002
}
  0
LINE
  5
9A2
330
1F
100
AcDbEntity
  8
0
100
AcDbLine
 10
344.0205724749835
 20
93.08479978351693
 30
0.0
 11
-18.00114181123172
 21
93.08479978351693
 31
0.0
1001
GENIUS_GENOBJ-N-CEN_13
1002
{
1000
OWNER
1000
GEN
1002
}
1001
GENIUS_GENODEF_13
1002
{
1000
HIER
1070
     0
1002
}
1002
{
1000
MANEDIT
1070
     0
1002
}
1002
{
1000
NOSEL
1070
     0
1002
}
1002
{
1000
BEHIND
1070
     0
1002
}
1002
{
1000
OTHER
1070
     0
1002
}
1002
{
1000
REACTOR
1002
}
1001
GENIUS_GENCEN_19
1002
{
1040
3.0
1002
}
  0
DIMENSION
  5
9A3
330
1F
100
AcDbEntity
  8
AM_5
100
AcDbDimension
  2
*D32
 10
900.2132294555103
 20
452.7165102752881
 30
0.0
 11
893.7132294555102
 21
389.2527959896575
 31
0.0
 70
    32
  1
105-160
 71
     5
 42
126.9274285712618
  3
AM_DIN$0
100
AcDbAlignedDimension
 13
776.0022867606131
 23
325.7890817040265
 33
0.0
 14
780.0000010462454
 24
452.7165102752883
 34
0.0
 50
90.0
100
AcDbRotatedDimension
1001
ACAD
1000
DSTYLE
1002
{
1070
    41
1040
7.0
1070
   140
1040
10.0
1002
}
1001
ACAD_DSTYLE_DIMINSPECT
1070
   396
1000
100%
1070
   395
1000

1070
   394
1070
    33
1070
   393
1070
     0
  0
DIMENSION
  5
9A4
330
1F
100
AcDbEntity
  8
AM_5
100
AcDbDimension
  2
*D33
 10
858.0641061878596
 20
135.0847997835176
 30
0.0
 11
851.5641061878595
 21
93.0847997835176
 31
0.0
 70
    32
  1
<>
 71
     5
 42
84.00000000000025
  3
AM_DIN$0
100
AcDbAlignedDimension
 13
777.8011439031423
 23
51.08479978351738
 33
0.0
 14
779.8000010462483
 24
135.0847997835176
 34
0.0
 50
90.0
100
AcDbRotatedDimension
1001
ACAD
1000
DSTYLE
1002
{
1070
    41
1040
7.0
1070
   140
1040
10.0
1002
}
1001
ACAD_DSTYLE_DIMINSPECT
1070
   396
1000
100%
1070
   395
1000

1070
   394
1070
    33
1070
   393
1070
     0
  0
DIMENSION
  5
9A5
330
1F
100
AcDbEntity
  8
AM_5
100
AcDbDimension
  2
*D34
 10
893.9608561281191
 20
159.5847997835173
 30
0.0
 11
887.4608561281192
 21
93.0847997835175
 31
0.0
 70
    32
  1
<>
 71
     5
 42
133.0
  3
AM_DIN$0
100
AcDbAlignedDimension
 13
810.0000010462453
 23
26.58479978351738
 33
0.0
 14
809.7828581887734
 24
159.5847997835174
 34
0.0
 50
90.0
100
AcDbRotatedDimension
1001
ACAD
1000
DSTYLE
1002
{
1070
    41
1040
7.0
1070
   140
1040
10.0
1002
}
1001
ACAD_DSTYLE_DIMINSPECT
1070
   396
1000
100%
1070
   395
1000

1070
   394
1070
    33
1070
   393
1070
     0
  0
DIMENSION
  5
9A6
330
1F
100
AcDbEntity
  8
AM_5
100
AcDbDimension
  2
*D35
 10
-19.99999895375458
 20
179.5337143706329
 30
0.0
 11
380.0000010462456
 21
186.0337143706328
 31
0.0
 70
    32
  1
<>
 71
     5
 42
800.0000000000005
  3
AM_DIN$0
100
AcDbAlignedDimension
 13
780.0000010462459
 23
157.5853712122555
 33
0.0
 14
-19.99999895375458
 24
157.5853712122555
 34
0.0
100
AcDbRotatedDimension
1001
ACAD_DSTYLE_DIMINSPECT
1070
   396
1000
100%
1070
   395
1000

1070
   394
1070
    33
1070
   393
1070
     0
1001
ACAD
1000
DSTYLE
1002
{
1070
    41
1040
7.0
1070
   140
1040
10.0
1070
   271
1070
     0
1002
}
  0
DIMENSION
  5
9A7
330
1F
100
AcDbEntity
  8
AM_5
100
AcDbDimension
  2
*D36
 10
-49.99999895375458
 20
214.6571694377378
 30
0.0
 11
380.0000010462454
 21
221.1571694377378
 31
0.0
 70
    32
  1
<>
 71
     5
 42
860.0
  3
AM_DIN$0
100
AcDbAlignedDimension
 13
810.0000010462453
 23
159.5847997835174
 33
0.0
 14
-49.99999895375458
 24
154.4502854975936
 34
0.0
100
AcDbRotatedDimension
1001
ACAD_DSTYLE_DIMINSPECT
1070
   396
1000
100%
1070
   395
1000

1070
   394
1070
    33
1070
   393
1070
     0
1001
ACAD
1000
DSTYLE
1002
{
1070
    41
1040
7.0
1070
   140
1040
10.0
1070
   271
1070
     0
1002
}
  0
LINE
  5
9A8
330
1F
100
AcDbEntity
  8
0
100
AcDbLine
 10
1125.792369799644
 20
452.7165102753452
 30
0.0
 11
1025.792365652843
 21
452.7165102752114
 31
0.0
  0
LINE
  5
9A9
330
1F
100
AcDbEntity
  8
0
100
AcDbLine
 10
1043.792369799706
 20
433.6366431567971
 30
0.0
 11
1043.792365652851
 21
450.7165102751833
 31
0.0
  0
LINE
  5
9AA
330
1F
100
AcDbEntity
  8
0
100
AcDbLine
 10
1044.792369799702
 20
433.6366431568063
 30
0.0
 11
1044.792365652947
 21
450.716510275175
 31
0.0
  0
LINE
  5
9AB
330
1F
100
AcDbEntity
  8
0
100
AcDbLine
 10
1046.958460759356
 20
432.5360026952679
 30
0.0
 11
1045.70932431985
 21
432.6400973985592
 31
0.0
  0
LINE
  5
9AC
330
1F
100
AcDbEntity
  8
0
100
AcDbLine
 10
1156.792369799639
 20
437.7165102751978
 30
0.0
 11
1156.79236979964
 21
436.7165102752063
 31
0.0
  0
LINE
  5
9AD
330
1F
100
AcDbEntity
  8
0
100
AcDbLine
 10
1127.792369799615
 20
436.7165102752337
 30
0.0
 11
1156.79236979964
 21
436.7165102752083
 31
0.0
  0
LINE
  5
9AE
330
1F
100
AcDbEntity
  8
0
100
AcDbLine
 10
1127.792369799666
 20
437.7165102752337
 30
0.0
 11
1156.792369799639
 21
437.7165102752083
 31
0.0
  0
LINE
  5
9AF
330
1F
100
AcDbEntity
  8
0
100
AcDbLine
 10
1122.626278839943
 20
432.5360026952666
 30
0.0
 11
1123.875415279453
 21
432.6400973985592
 31
0.0
  0
LINE
  5
9B0
330
1F
100
AcDbEntity
  8
0
100
AcDbLine
 10
1125.7923697996
 20
433.6366431567971
 30
0.0
 11
1125.792369799656
 21
451.7165102753451
 31
0.0
  0
LINE
  5
9B1
330
1F
100
AcDbEntity
  8
0
100
AcDbLine
 10
1124.7923697996
 20
433.6366431567993
 30
0.0
 11
1124.792369799659
 21
451.7165102753438
 31
0.0
  0
LINE
  5
9B2
330
1F
100
AcDbEntity
  8
0
100
AcDbLine
 10
1126.792369799629
 20
451.7165102753428
 30
0.0
 11
1126.792369799666
 21
438.716510275231
 31
0.0
  0
LINE
  5
9B3
330
1F
100
AcDbEntity
  8
7A
100
AcDbLine
 10
1084.792369799713
 20
339.844775253729
 30
0.0
 11
1084.792369799695
 21
369.2993499374497
 31
0.0
1001
GENIUS_GENOBJ-N-CEN_13
1002
{
1000
OWNER
1000
GEN
1002
}
1001
GENIUS_GENODEF_13
1002
{
1000
HIER
1070
     0
1002
}
1002
{
1000
MANEDIT
1070
     0
1002
}
1002
{
1000
NOSEL
1070
     0
1002
}
1002
{
1000
BEHIND
1070
     0
1002
}
1002
{
1000
OTHER
1070
     0
1002
}
1002
{
1000
REACTOR
1002
}
  0
LINE
  5
9B4
330
1F
100
AcDbEntity
  8
7A
100
AcDbLine
 10
1084.792369799695
 20
369.2993499374497
 30
0.0
 11
1084.792369799668
 21
458.1855308818393
 31
0.0
1001
GENIUS_GENOBJ-N-CEN_13
1002
{
1000
OWNER
1000
GEN
1002
}
1001
GENIUS_GENODEF_13
1002
{
1000
HIER
1070
     0
1002
}
1002
{
1000
MANEDIT
1070
     0
1002
}
1002
{
1000
NOSEL
1070
     0
1002
}
1002
{
1000
BEHIND
1070
     0
1002
}
1002
{
1000
OTHER
1070
     0
1002
}
1002
{
1000
REACTOR
1002
}
  0
LINE
  5
9B5
330
1F
100
AcDbEntity
  8
0
100
AcDbLine
 10
1046.79236979965
 20
420.7165102752342
 30
0.0
 11
1046.79236979965
 21
353.6919388463862
 31
0.0
1001
GENIUS_GENODEF_13
1002
{
1000
HIER
1070
     0
1002
}
1002
{
1000
MANEDIT
1070
     0
1002
}
1002
{
1000
NOSEL
1070
     0
1002
}
1002
{
1000
BEHIND
1070
     0
1002
}
1002
{
1000
REACTOR
1002
}
1001
GENIUS_GENOBJ-N-CEN_13
1002
{
1000
OWNER
1000
GEN
1002
}
  0
LINE
  5
9B6
330
1F
100
AcDbEntity
  8
0
100
AcDbLine
 10
1122.792369799649
 20
420.7165102752342
 30
0.0
 11
1122.792369799649
 21
413.6919388464958
 31
0.0
1001
GENIUS_GENODEF_13
1002
{
1000
HIER
1070
     0
1002
}
1002
{
1000
MANEDIT
1070
     0
1002
}
1002
{
1000
NOSEL
1070
     0
1002
}
1002
{
1000
BEHIND
1070
     0
1002
}
1002
{
1000
REACTOR
1002
}
1001
GENIUS_GENOBJ-N-CEN_13
1002
{
1000
OWNER
1000
GEN
1002
}
  0
LINE
  5
9B7
330
1F
100
AcDbEntity
  8
7A
100
AcDbLine
 10
1115.580541536153
 20
388.6919388464967
 30
0.0
 11
1188.167545407373
 21
388.6919388464967
 31
0.0
1001
GENIUS_GENOBJ-N-CEN_13
1002
{
1000
OWNER
1000
GEN
1002
}
1001
GENIUS_GENODEF_13
1002
{
1000
HIER
1070
     0
1002
}
1002
{
1000
MANEDIT
1070
     0
1002
}
1002
{
1000
NOSEL
1070
     0
1002
}
1002
{
1000
BEHIND
1070
     0
1002
}
1002
{
1000
OTHER
1070
     0
1002
}
1002
{
1000
REACTOR
1002
}
  0
LINE
  5
9B8
330
1F
100
AcDbEntity
  8
0
100
AcDbLine
 10
1053.792369799649
 20
346.6919388463848
 30
0.0
 11
1115.792369799651
 21
346.6919388463848
 31
0.0
  0
LINE
  5
9B9
330
1F
100
AcDbEntity
  8
0
100
AcDbLine
 10
1182.792369799649
 20
413.6919388464958
 30
0.0
 11
1182.792369799649
 21
363.6919388464967
 31
0.0
1001
GENIUS_GENODEF_13
1002
{
1000
HIER
1070
     0
1002
}
1002
{
1000
MANEDIT
1070
     0
1002
}
1002
{
1000
NOSEL
1070
     0
1002
}
1002
{
1000
BEHIND
1070
     0
1002
}
1002
{
1000
REACTOR
1002
}
1001
GENIUS_GENOBJ-N-CEN_13
1002
{
1000
OWNER
1000
GEN
1002
}
  0
LINE
  5
9BA
330
1F
100
AcDbEntity
  8
0
100
AcDbLine
 10
1120.792369799649
 20
413.6919388464958
 30
0.0
 11
1182.792369799649
 21
413.6919388464958
 31
0.0
1001
GENIUS_GENOBJ-N-CEN_13
1002
{
1000
OWNER
1000
GEN
1002
}
1001
GENIUS_GENODEF_13
1002
{
1000
HIER
1070
     0
1002
}
1002
{
1000
MANEDIT
1070
     0
1002
}
1002
{
1000
NOSEL
1070
     0
1002
}
1002
{
1000
BEHIND
1070
     0
1002
}
1002
{
1000
OTHER
1070
     0
1002
}
1002
{
1000
REACTOR
1002
}
  0
LINE
  5
9BB
330
1F
100
AcDbEntity
  8
0
100
AcDbLine
 10
1120.792369799649
 20
363.6919388464967
 30
0.0
 11
1182.792369799649
 21
363.6919388464967
 31
0.0
1001
GENIUS_GENOBJ-N-CEN_13
1002
{
1000
OWNER
1000
GEN
1002
}
1001
GENIUS_GENODEF_13
1002
{
1000
HIER
1070
     0
1002
}
1002
{
1000
MANEDIT
1070
     0
1002
}
1002
{
1000
NOSEL
1070
     0
1002
}
1002
{
1000
BEHIND
1070
     0
1002
}
1002
{
1000
OTHER
1070
     0
1002
}
1002
{
1000
REACTOR
1002
}
  0
ARC
  5
9BC
330
1F
100
AcDbEntity
  8
0
100
AcDbCircle
 10
1171.875703132982
 20
388.6919388464967
 30
0.0
 40
55.08333333333284
100
AcDbArc
 50
154.7463521009509
 51
205.253647899049
  0
LINE
  5
9BD
330
1F
100
AcDbEntity
  8
0
100
AcDbLine
 10
1122.792369799649
 20
363.6919388464967
 30
0.0
 11
1122.792369799651
 21
353.6919388463862
 31
0.0
1001
GENIUS_GENODEF_13
1002
{
1000
HIER
1070
     0
1002
}
1002
{
1000
MANEDIT
1070
     0
1002
}
1002
{
1000
NOSEL
1070
     0
1002
}
1002
{
1000
BEHIND
1070
     0
1002
}
1002
{
1000
REACTOR
1002
}
1001
GENIUS_GENOBJ-N-CEN_13
1002
{
1000
OWNER
1000
GEN
1002
}
  0
LINE
  5
9BE
330
1F
100
AcDbEntity
  8
0
100
AcDbLine
 10
1122.056794964386
 20
412.1919388464966
 30
0.0
 11
1182.792369799649
 21
412.1919388464966
 31
0.0
1001
GENIUS_GENOBJ-N-CEN_13
1002
{
1000
OWNER
1000
GEN
1002
}
1001
GENIUS_GENODEF_13
1002
{
1000
HIER
1070
     0
1002
}
1002
{
1000
MANEDIT
1070
     0
1002
}
1002
{
1000
NOSEL
1070
     0
1002
}
1002
{
1000
BEHIND
1070
     0
1002
}
1002
{
1000
OTHER
1070
     0
1002
}
1002
{
1000
REACTOR
1002
}
  0
LINE
  5
9BF
330
1F
100
AcDbEntity
  8
0
100
AcDbLine
 10
1122.056794964387
 20
365.1919388464967
 30
0.0
 11
1182.792369799649
 21
365.1919388464967
 31
0.0
1001
GENIUS_GENOBJ-N-CEN_13
1002
{
1000
OWNER
1000
GEN
1002
}
1001
GENIUS_GENODEF_13
1002
{
1000
HIER
1070
     0
1002
}
1002
{
1000
MANEDIT
1070
     0
1002
}
1002
{
1000
NOSEL
1070
     0
1002
}
1002
{
1000
BEHIND
1070
     0
1002
}
1002
{
1000
OTHER
1070
     0
1002
}
1002
{
1000
REACTOR
1002
}
  0
ARC
  5
9C0
330
1F
100
AcDbEntity
  8
0
100
AcDbCircle
 10
1180.815009375589
 20
388.6919388464967
 30
0.0
 40
65.02089865314991
100
AcDbArc
 50
157.3878080414809
 51
202.612191958519
  0
LINE
  5
9C1
330
1F
100
AcDbEntity
  8
0
100
AcDbLine
 10
1120.792369799649
 20
413.6919388464958
 30
0.0
 11
1122.056794964386
 21
412.1919388464966
 31
0.0
  0
LINE
  5
9C2
330
1F
100
AcDbEntity
  8
0
100
AcDbLine
 10
1120.792369799649
 20
363.6919388464967
 30
0.0
 11
1122.056794964387
 21
365.1919388464967
 31
0.0
  0
LINE
  5
9C3
330
1F
100
AcDbEntity
  8
0
100
AcDbLine
 10
1084.833892539579
 20
428.3762504987138
 30
0.0
 11
1048.601483164849
 21
431.3956179465795
 31
0.0
  0
LINE
  5
9C4
330
1F
100
AcDbEntity
  8
0
100
AcDbLine
 10
1084.750847059727
 20
428.3762504987138
 30
0.0
 11
1120.98325643445
 21
431.3956179465785
 31
0.0
  0
ARC
  5
9C5
330
1F
100
AcDbEntity
  8
0
100
AcDbCircle
 10
1125.792369799644
 20
451.7165102753396
 30
0.0
 40
0.9999999999848339
100
AcDbArc
 50
359.9999999997655
 51
179.9999999997655
  0
ARC
  5
9C6
330
1F
100
AcDbEntity
  8
0
100
AcDbCircle
 10
1045.792369799706
 20
433.6366431568035
 30
0.0
 40
2.0
100
AcDbArc
 50
180.0000000001563
 51
265.2363583092438
  0
ARC
  5
9C7
330
1F
100
AcDbEntity
  8
0
100
AcDbCircle
 10
1123.7923697996
 20
433.6366431568035
 30
0.0
 40
2.0
100
AcDbArc
 50
274.7636416907562
 51
359.9999999997655
  0
ARC
  5
9C8
330
1F
100
AcDbEntity
  8
0
100
AcDbCircle
 10
1127.792369799617
 20
438.7165102752336
 30
0.0
 40
2.0
100
AcDbArc
 50
179.9999999997655
 51
269.9999999998958
  0
ARC
  5
9C9
330
1F
100
AcDbEntity
  8
0
100
AcDbCircle
 10
1045.792369799702
 20
433.6366431568035
 30
0.0
 40
1.0
100
AcDbArc
 50
179.9999999998437
 51
265.2363583092438
  0
ARC
  5
9CA
330
1F
100
AcDbEntity
  8
0
100
AcDbCircle
 10
1123.7923697996
 20
433.6366431568035
 30
0.0
 40
1.0
100
AcDbArc
 50
274.7636416907562
 51
359.9999999997655
  0
ARC
  5
9CB
330
1F
100
AcDbEntity
  8
0
100
AcDbCircle
 10
1127.792369799666
 20
438.7165102752336
 30
0.0
 40
1.0
100
AcDbArc
 50
180.0000000001302
 51
269.9999999998958
  0
ARC
  5
9CC
330
1F
100
AcDbEntity
  8
0
100
AcDbCircle
 10
1053.792369799649
 20
353.6919388463848
 30
0.0
 40
7.0
100
AcDbArc
 50
180.0
 51
270.0
  0
ARC
  5
9CD
330
1F
100
AcDbEntity
  8
0
100
AcDbCircle
 10
1115.792369799651
 20
353.6919388463848
 30
0.0
 40
7.0
100
AcDbArc
 50
270.0
 51
0.0
1001
GENIUS_GENODEF_13
1002
{
1000
HIER
1070
     0
1002
}
1002
{
1000
MANEDIT
1070
     0
1002
}
1002
{
1000
NOSEL
1070
     0
1002
}
1002
{
1000
BEHIND
1070
     0
1002
}
1002
{
1000
REACTOR
1002
}
1001
GENIUS_GENOBJ-N-CEN_13
1002
{
1000
OWNER
1000
GEN
1002
}
  0
LINE
  5
9CE
330
1F
100
AcDbEntity
  8
0
100
AcDbLine
 10
1120.792369799649
 20
430.5429111787783
 30
0.0
 11
1120.792369799649
 21
413.6919388464958
 31
0.0
1001
GENIUS_GENODEF_13
1002
{
1000
HIER
1070
     0
1002
}
1002
{
1000
MANEDIT
1070
     0
1002
}
1002
{
1000
NOSEL
1070
     0
1002
}
1002
{
1000
BEHIND
1070
     0
1002
}
1002
{
1000
REACTOR
1002
}
1001
GENIUS_GENOBJ-N-CEN_13
1002
{
1000
OWNER
1000
GEN
1002
}
  0
LINE
  5
9CF
330
1F
100
AcDbEntity
  8
0
100
AcDbLine
 10
1120.792369799649
 20
363.6919388464967
 30
0.0
 11
1120.792369799651
 21
353.6919388463862
 31
0.0
1001
GENIUS_GENODEF_13
1002
{
1000
HIER
1070
     0
1002
}
1002
{
1000
MANEDIT
1070
     0
1002
}
1002
{
1000
NOSEL
1070
     0
1002
}
1002
{
1000
BEHIND
1070
     0
1002
}
1002
{
1000
REACTOR
1002
}
1001
GENIUS_GENOBJ-N-CEN_13
1002
{
1000
OWNER
1000
GEN
1002
}
  0
ARC
  5
9D0
330
1F
100
AcDbEntity
  8
0
100
AcDbCircle
 10
1115.792369799651
 20
353.6919388463848
 30
0.0
 40
5.0
100
AcDbArc
 50
270.0
 51
0.0
1001
GENIUS_GENODEF_13
1002
{
1000
HIER
1070
     0
1002
}
1002
{
1000
MANEDIT
1070
     0
1002
}
1002
{
1000
NOSEL
1070
     0
1002
}
1002
{
1000
BEHIND
1070
     0
1002
}
1002
{
1000
REACTOR
1002
}
1001
GENIUS_GENOBJ-N-CEN_13
1002
{
1000
OWNER
1000
GEN
1002
}
  0
LINE
  5
9D1
330
1F
100
AcDbEntity
  8
0
100
AcDbLine
 10
1053.792369799649
 20
348.6919388463848
 30
0.0
 11
1115.792369799651
 21
348.6919388463848
 31
0.0
  0
ARC
  5
9D2
330
1F
100
AcDbEntity
  8
0
100
AcDbCircle
 10
1053.792369799649
 20
353.6919388463848
 30
0.0
 40
5.0
100
AcDbArc
 50
180.0
 51
270.0
  0
LINE
  5
9D3
330
1F
100
AcDbEntity
  8
0
100
AcDbLine
 10
1048.792369799649
 20
430.5429111787783
 30
0.0
 11
1048.792369799649
 21
353.6919388463848
 31
0.0
1001
GENIUS_GENODEF_13
1002
{
1000
HIER
1070
     0
1002
}
1002
{
1000
MANEDIT
1070
     0
1002
}
1002
{
1000
NOSEL
1070
     0
1002
}
1002
{
1000
BEHIND
1070
     0
1002
}
1002
{
1000
REACTOR
1002
}
1001
GENIUS_GENOBJ-N-CEN_13
1002
{
1000
OWNER
1000
GEN
1002
}
  0
LINE
  5
9D4
330
1F
100
AcDbEntity
  8
0
  6
ByBlock
100
AcDbLine
 10
1046.79236979965
 20
420.7165102752342
 30
0.0
 11
1054.194084084307
 21
420.7165102752346
 31
0.0
  0
LINE
  5
9D5
330
1F
100
AcDbEntity
  8
0
  6
ByBlock
100
AcDbLine
 10
1115.390655515107
 20
420.7165102752346
 30
0.0
 11
1122.792369799649
 21
420.7165102752342
 31
0.0
  0
LINE
  5
9D6
330
1F
100
AcDbEntity
  8
0
100
AcDbLine
 10
1047.792369799649
 20
430.5429111787783
 30
0.0
 11
1047.792369799649
 21
420.7165102752354
 31
0.0
1001
GENIUS_GENODEF_13
1002
{
1000
HIER
1070
     0
1002
}
1002
{
1000
MANEDIT
1070
     0
1002
}
1002
{
1000
NOSEL
1070
     0
1002
}
1002
{
1000
BEHIND
1070
     0
1002
}
1002
{
1000
REACTOR
1002
}
1001
GENIUS_GENOBJ-N-CEN_13
1002
{
1000
OWNER
1000
GEN
1002
}
  0
LINE
  5
9D7
330
1F
100
AcDbEntity
  8
0
100
AcDbLine
 10
1121.79236979965
 20
430.5429111787783
 30
0.0
 11
1121.79236979965
 21
420.7165102752342
 31
0.0
1001
GENIUS_GENODEF_13
1002
{
1000
HIER
1070
     0
1002
}
1002
{
1000
MANEDIT
1070
     0
1002
}
1002
{
1000
NOSEL
1070
     0
1002
}
1002
{
1000
BEHIND
1070
     0
1002
}
1002
{
1000
REACTOR
1002
}
1001
GENIUS_GENOBJ-N-CEN_13
1002
{
1000
OWNER
1000
GEN
1002
}
  0
ARC
  5
9D8
330
1F
100
AcDbEntity
  8
0
100
AcDbCircle
 10
1046.79236979965
 20
430.5429111787783
 30
0.0
 40
2.0
100
AcDbArc
 50
0.0
 51
85.23635830924375
1001
GENIUS_GENODEF_13
1002
{
1000
HIER
1070
     0
1002
}
1002
{
1000
MANEDIT
1070
     0
1002
}
1002
{
1000
NOSEL
1070
     0
1002
}
1002
{
1000
BEHIND
1070
     0
1002
}
1002
{
1000
REACTOR
1002
}
1001
GENIUS_GENOBJ-N-CEN_13
1002
{
1000
OWNER
1000
GEN
1002
}
  0
LINE
  5
9D9
330
1F
100
AcDbEntity
  8
0
  6
ByBlock
100
AcDbLine
 10
1046.958460759356
 20
432.5360026952679
 30
0.0
 11
1084.792369799652
 21
429.3831769419417
 31
0.0
  0
ARC
  5
9DA
330
1F
100
AcDbEntity
  8
0
100
AcDbCircle
 10
1122.792369799649
 20
430.5429111787783
 30
0.0
 40
2.0
100
AcDbArc
 50
94.76364169075626
 51
180.0
1001
GENIUS_GENODEF_13
1002
{
1000
HIER
1070
     0
1002
}
1002
{
1000
MANEDIT
1070
     0
1002
}
1002
{
1000
NOSEL
1070
     0
1002
}
1002
{
1000
BEHIND
1070
     0
1002
}
1002
{
1000
REACTOR
1002
}
1001
GENIUS_GENOBJ-N-CEN_13
1002
{
1000
OWNER
1000
GEN
1002
}
  0
LINE
  5
9DB
330
1F
100
AcDbEntity
  8
0
  6
ByBlock
100
AcDbLine
 10
1122.626278839943
 20
432.5360026952666
 30
0.0
 11
1084.792369799652
 21
429.3831769419417
 31
0.0
  0
LINE
  5
9DC
330
1F
100
AcDbEntity
  8
0
100
AcDbLine
 10
1122.709324319797
 20
431.5394569370223
 30
0.0
 11
1123.958460759307
 21
431.6435516403144
 31
0.0
  0
LINE
  5
9DD
330
1F
100
AcDbEntity
  8
0
100
AcDbLine
 10
1046.875415279503
 20
431.5394569370223
 30
0.0
 11
1045.626278840001
 21
431.6435516403144
 31
0.0
  0
ARC
  5
9DE
330
1F
100
AcDbEntity
  8
0
100
AcDbCircle
 10
1046.79236979965
 20
430.5429111787783
 30
0.0
 40
1.0
100
AcDbArc
 50
0.0
 51
85.23635830924375
1001
GENIUS_GENODEF_13
1002
{
1000
HIER
1070
     0
1002
}
1002
{
1000
MANEDIT
1070
     0
1002
}
1002
{
1000
NOSEL
1070
     0
1002
}
1002
{
1000
BEHIND
1070
     0
1002
}
1002
{
1000
REACTOR
1002
}
1001
GENIUS_GENOBJ-N-CEN_13
1002
{
1000
OWNER
1000
GEN
1002
}
  0
ARC
  5
9DF
330
1F
100
AcDbEntity
  8
0
100
AcDbCircle
 10
1122.792369799649
 20
430.5429111787783
 30
0.0
 40
1.0
100
AcDbArc
 50
94.76364169075626
 51
180.0
  0
HATCH
  5
9E0
330
1F
100
AcDbEntity
  8
KLIN
  6
ByBlock
100
AcDbHatch
 10
0.0
 20
0.0
 30
0.0
210
0.0
220
0.0
230
1.0
  2
LINE
 70
     0
 71
     0
 91
        4
 92
        7
 72
     0
 73
     1
 93
        4
 10
1122.792369799649
 20
421.6919388463843
 10
1120.792369799649
 20
421.6919388463856
 10
1120.792369799649
 20
413.6919388464958
 10
1122.792369799649
 20
413.6919388464958
 97
        0
 92
        7
 72
     1
 73
     1
 93
        8
 10
1048.792369799649
 20
396.1185713170835
 42
0.0
 10
1046.79236979965
 20
395.4439787131064
 42
0.0
 10
1046.79236979965
 20
353.6919388463862
 42
0.4142135623730982
 10
1053.792369799649
 20
346.6919388463848
 42
0.0
 10
1084.792369799709
 20
346.6919388463848
 42
0.0
 10
1084.792369799708
 20
348.6919388463848
 42
0.0
 10
1053.792369799649
 20
348.6919388463848
 42
-0.4142135623730974
 10
1048.792369799649
 20
353.6919388463862
 42
0.0
 97
        0
 92
        7
 72
     1
 73
     1
 93
        8
 10
1122.792369799651
 20
353.6919388463862
 42
0.0
 10
1122.792369799649
 20
363.6919388464967
 42
0.0
 10
1120.792369799649
 20
363.6919388464967
 42
0.0
 10
1120.792369799651
 20
353.6919388463862
 42
-0.4142135623731005
 10
1115.792369799651
 20
348.6919388463848
 42
0.0
 10
1084.792369799708
 20
348.6919388463848
 42
0.0
 10
1084.792369799709
 20
346.6919388463848
 42
0.0
 10
1115.792369799651
 20
346.6919388463848
 42
0.4142135623730998
 97
        0
 92
        1
 93
        4
 72
     1
 10
1048.792369799649
 20
420.7165102752342
 11
1046.79236979965
 21
420.7165102752342
 72
     1
 10
1046.79236979965
 20
420.7165102752342
 11
1046.79236979965
 21
395.4439787131064
 72
     1
 10
1046.79236979965
 20
395.4439787131064
 11
1048.792369799651
 21
396.1185713170835
 72
     1
 10
1048.792369799649
 20
396.1185713170835
 11
1048.792369799648
 21
420.7165102752346
 97
        0
 75
     0
 76
     1
 52
135.0
 41
1.0
 77
     0
 78
     1
 53
135.0
 43
862.7046580318419
 44
165.8506792266396
 45
-2.245064030267287
 46
-2.245064030267287
 79
     0
 47
2.718374431718904
 98
        4
 10
1122.01243735108
 20
417.8180477022373
 10
1048.030948522991
 20
411.2939487289589
 10
1048.030948522991
 20
378.1297799853896
 10
1108.412897022424
 20
347.9558244813761
  0
HATCH
  5
9E1
330
1F
100
AcDbEntity
  8
KLIN
  6
ByBlock
100
AcDbHatch
 10
0.0
 20
0.0
 30
0.0
210
0.0
220
0.0
230
1.0
  2
LINE
 70
     0
 71
     0
 91
        3
 92
        7
 72
     0
 73
     1
 93
        4
 10
1182.792369799649
 20
413.6919388464958
 10
1120.792369799649
 20
413.6919388464958
 10
1122.056794964386
 20
412.1919388464966
 10
1182.792369799649
 20
412.1919388464966
 97
        0
 92
        7
 72
     0
 73
     1
 93
        4
 10
1155.114858929542
 20
365.1919388464967
 10
1122.056794964386
 20
365.1919388464967
 10
1120.792369799649
 20
363.6919388464967
 10
1155.872883474661
 20
363.6919388464967
 97
        0
 92
        7
 72
     0
 73
     1
 93
        4
 10
1182.792369799649
 20
365.1919388464967
 10
1155.114858929542
 20
365.1919388464967
 10
1155.872883474661
 20
363.6919388464967
 10
1182.792369799649
 20
363.6919388464967
 97
        0
 75
     0
 76
     1
 52
45.0
 41
0.5
 77
     0
 78
     1
 53
45.0
 43
862.7046580318419
 44
165.8506792266396
 45
-1.122532015133643
 46
1.122532015133643
 79
     0
 47
2.718374431718904
 98
        3
 10
1140.235818374392
 20
412.924973126524
 10
1140.507808510503
 20
364.5379081616539
 10
1164.442997058507
 20
364.266071223065
  0
DIMENSION
  5
9E2
330
1F
100
AcDbEntity
  8
AM_5
100
AcDbDimension
  2
*D37
 10
1044.792365652947
 20
500.4470977742556
 30
0.0
 11
1084.792367726303
 21
506.9470977742557
 31
0.0
 70
    32
 71
     5
 42
80.00000414671195
  3
AM_DIN$0
100
AcDbAlignedDimension
 13
1124.792369799659
 23
451.7165102753396
 33
0.0
 14
1044.792365652947
 24
450.716510275175
 34
0.0
100
AcDbRotatedDimension
1001
ACAD_DSTYLE_DIMINSPECT
1070
   396
1000
100%
1070
   395
1000

1070
   394
1070
    33
1070
   393
1070
     0
1001
ACAD
1000
DSTYLE
1002
{
1070
    41
1040
7.0
1070
   140
1040
10.0
1070
   271
1070
     0
1002
}
  0
LINE
  5
9E6
330
1F
100
AcDbEntity
  8
0
100
AcDbLine
 10
1059.792369799717
 20
325.7279388464967
 30
0.0
 11
1109.792369799717
 21
325.7279388464967
 31
0.0
  0
LINE
  5
9E7
330
1F
100
AcDbEntity
  8
0
100
AcDbLine
 10
1059.792369799715
 20
327.726795989604
 30
0.0
 11
1109.792369799717
 21
327.726795989604
 31
0.0
  0
LINE
  5
9E8
330
1F
100
AcDbEntity
  8
0
100
AcDbLine
 10
1059.792369799717
 20
325.7279388464967
 30
0.0
 11
1059.792369799706
 21
346.6919388463848
 31
0.0
  0
LINE
  5
9E9
330
1F
100
AcDbEntity
  8
0
100
AcDbLine
 10
1109.792369799717
 20
325.7279388464967
 30
0.0
 11
1109.792369799708
 21
346.6919388463848
 31
0.0
  0
LINE
  5
9EA
330
1F
100
AcDbEntity
  8
0
100
AcDbLine
 10
1064.792369799708
 20
420.6919388463843
 30
0.0
 11
1064.792369799708
 21
363.6919388463848
 31
0.0
  0
LINE
  5
9EB
330
1F
100
AcDbEntity
  8
0
100
AcDbLine
 10
1064.792369799708
 20
363.6919388463848
 30
0.0
 11
1104.792369799708
 21
363.6919388463848
 31
0.0
  0
LINE
  5
9EC
330
1F
100
AcDbEntity
  8
0
100
AcDbLine
 10
1104.792369799708
 20
363.6919388463848
 30
0.0
 11
1104.792369799708
 21
420.6919388463843
 31
0.0
  0
LINE
  5
9ED
330
1F
100
AcDbEntity
  8
0
100
AcDbLine
 10
1066.292369799708
 20
420.6919388463843
 30
0.0
 11
1066.292369799708
 21
363.6919388463848
 31
0.0
  0
LINE
  5
9EE
330
1F
100
AcDbEntity
  8
0
100
AcDbLine
 10
1103.292369799708
 20
363.6919388463848
 30
0.0
 11
1103.292369799708
 21
420.6919388463843
 31
0.0
  0
HATCH
  5
9EF
330
1F
100
AcDbEntity
  8
8
100
AcDbHatch
 10
0.0
 20
0.0
 30
0.0
210
0.0
220
0.0
230
1.0
  2
LINE
 70
     0
 71
     0
 91
        4
 92
        7
 72
     0
 73
     1
 93
        6
 10
1057.292369799708
 20
410.6919388463848
 10
1057.765342772681
 20
413.5297766842223
 10
1056.792369799708
 20
413.6919388463848
 10
1056.292369799708
 20
410.6919388463848
 10
1056.292369799708
 20
389.2080364583949
 10
1057.292369799708
 20
389.4643028757823
 97
        0
 92
        7
 72
     0
 73
     1
 93
        4
 10
1057.292369799708
 20
389.4643028757823
 10
1056.292369799708
 20
389.2080364583949
 10
1056.292369799708
 20
376.0287157841121
 10
1057.292369799708
 20
376.2849822014997
 97
        0
 92
        7
 72
     1
 73
     1
 93
        8
 10
1057.292369799708
 20
376.2849822014997
 42
0.0
 10
1056.292369799708
 20
376.0287157841121
 42
0.0
 10
1056.292369799708
 20
354.6919388463848
 42
0.4142135623730951
 10
1062.292369799708
 20
348.6919388463848
 42
0.0
 10
1084.792369799708
 20
348.6919388463848
 42
0.0
 10
1084.792369799708
 20
349.6919388463848
 42
0.0
 10
1062.292369799708
 20
349.6919388463848
 42
-0.4142135623730951
 10
1057.292369799708
 20
354.6919388463848
 42
0.0
 97
        0
 92
        7
 72
     1
 73
     1
 93
       10
 10
1113.292369799708
 20
354.6919388463848
 42
0.0
 10
1113.292369799708
 20
410.6919388463848
 42
0.0
 10
1112.792369799708
 20
413.6919388463848
 42
0.0
 10
1111.819396826736
 20
413.5297766842223
 42
0.0
 10
1112.292369799708
 20
410.6919388463848
 42
0.0
 10
1112.292369799708
 20
354.6919388463848
 42
-0.4142135623730951
 10
1107.292369799708
 20
349.6919388463848
 42
0.0
 10
1084.792369799708
 20
349.6919388463848
 42
0.0
 10
1084.792369799708
 20
348.6919388463848
 42
0.0
 10
1107.292369799708
 20
348.6919388463848
 42
0.4142135623730951
 97
        0
 75
     0
 76
     1
 52
45.0
 41
1.0
 77
     0
 78
     1
 53
45.0
 43
966.7287628048295
 44
220.9775795088431
 45
-2.245064030267287
 46
2.245064030267287
 79
     0
 47
0.144641785732262
 98
        4
 10
1056.613822893726
 20
407.3393375306727
 10
1056.758528364614
 20
379.8573962342916
 10
1056.903231333677
 20
372.0467403979092
 10
1091.342623032818
 20
349.3379797793263
  0
LINE
  5
9F0
330
1F
100
AcDbEntity
  8
0
100
AcDbLine
 10
1056.292369799708
 20
410.6919388463848
 30
0.0
 11
1056.292369799708
 21
354.6919388463848
 31
0.0
  0
LINE
  5
9F1
330
1F
100
AcDbEntity
  8
0
100
AcDbLine
 10
1113.292369799708
 20
354.6919388463848
 30
0.0
 11
1113.292369799708
 21
410.6919388463848
 31
0.0
  0
LINE
  5
9F2
330
1F
100
AcDbEntity
  8
0
100
AcDbLine
 10
1062.292369799708
 20
348.6919388463848
 30
0.0
 11
1107.292369799708
 21
348.6919388463848
 31
0.0
  0
LINE
  5
9F3
330
1F
100
AcDbEntity
  8
0
100
AcDbLine
 10
1104.792369799708
 20
413.6919388463848
 30
0.0
 11
1112.792369799708
 21
413.6919388463848
 31
0.0
  0
LINE
  5
9F4
330
1F
100
AcDbEntity
  8
0
100
AcDbLine
 10
1052.292369799708
 20
424.1919388463842
 30
0.0
 11
1052.292369799708
 21
422.6919388463848
 31
0.0
  0
LINE
  5
9F5
330
1F
100
AcDbEntity
  8
0
100
AcDbLine
 10
1048.292369799708
 20
422.6919388463848
 30
0.0
 11
1051.292369799708
 21
422.6919388463848
 31
0.0
  0
LINE
  5
9F6
330
1F
100
AcDbEntity
  8
0
100
AcDbLine
 10
1117.292369799708
 20
422.6919388463848
 30
0.0
 11
1117.292369799708
 21
424.1919388463842
 31
0.0
  0
LINE
  5
9F7
330
1F
100
AcDbEntity
  8
0
100
AcDbLine
 10
1117.292369799708
 20
424.1919388463842
 30
0.0
 11
1052.292369799708
 21
424.1919388463842
 31
0.0
  0
CIRCLE
  5
9F8
330
1F
100
AcDbEntity
  8
0
100
AcDbCircle
 10
1084.792369799708
 20
421.1919388463843
 30
0.0
 40
1.5
  0
LINE
  5
9F9
330
1F
100
AcDbEntity
  8
7A
100
AcDbLine
 10
1080.292369799708
 20
421.1919388463843
 30
0.0
 11
1089.292369799708
 21
421.1919388463843
 31
0.0
1001
GENIUS_GENOBJ-N-CEN_13
1002
{
1000
OWNER
1000
GEN
1002
}
1001
GENIUS_GENODEF_13
1002
{
1000
HIER
1070
     0
1002
}
1002
{
1000
MANEDIT
1070
     0
1002
}
1002
{
1000
NOSEL
1070
     0
1002
}
1002
{
1000
BEHIND
1070
     0
1002
}
1002
{
1000
OTHER
1070
     0
1002
}
1002
{
1000
REACTOR
1002
}
  0
LINE
  5
9FA
330
1F
100
AcDbEntity
  8
0
100
AcDbLine
 10
1113.292369799708
 20
426.6919388463848
 30
0.0
 11
1056.292369799708
 21
426.6919388463848
 31
0.0
  0
LINE
  5
9FB
330
1F
100
AcDbEntity
  8
0
100
AcDbLine
 10
1056.292369799708
 20
426.6919388463848
 30
0.0
 11
1056.292369799708
 21
424.1919388463842
 31
0.0
  0
LINE
  5
9FC
330
1F
100
AcDbEntity
  8
0
100
AcDbLine
 10
1056.292369799708
 20
422.6919388463848
 30
0.0
 11
1056.292369799708
 21
420.1919388463842
 31
0.0
  0
LINE
  5
9FD
330
1F
100
AcDbEntity
  8
0
100
AcDbLine
 10
1113.292369799708
 20
426.6919388463848
 30
0.0
 11
1113.292369799708
 21
424.1919388463842
 31
0.0
  0
LINE
  5
9FE
330
1F
100
AcDbEntity
  8
0
100
AcDbLine
 10
1113.292369799708
 20
422.6919388463848
 30
0.0
 11
1113.292369799708
 21
420.1919388463842
 31
0.0
  0
LINE
  5
9FF
330
1F
100
AcDbEntity
  8
0
100
AcDbLine
 10
1104.792369799708
 20
420.1919388463842
 30
0.0
 11
1113.292369799708
 21
420.1919388463842
 31
0.0
  0
LINE
  5
A00
330
1F
100
AcDbEntity
  8
0
100
AcDbLine
 10
1051.292369799708
 20
424.1919388463842
 30
0.0
 11
1051.292369799708
 21
422.6919388463848
 31
0.0
  0
LINE
  5
A01
330
1F
100
AcDbEntity
  8
0
100
AcDbLine
 10
1048.292369799708
 20
424.1919388463842
 30
0.0
 11
1050.292369799708
 21
425.1919388463843
 31
0.0
  0
LINE
  5
A02
330
1F
100
AcDbEntity
  8
0
100
AcDbLine
 10
1050.292369799708
 20
425.1919388463843
 30
0.0
 11
1056.292369799708
 21
426.6919388463848
 31
0.0
  0
LINE
  5
A03
330
1F
100
AcDbEntity
  8
0
100
AcDbLine
 10
1050.292369799708
 20
421.6919388463843
 30
0.0
 11
1056.292369799708
 21
420.1919388463842
 31
0.0
  0
LINE
  5
A04
330
1F
100
AcDbEntity
  8
0
100
AcDbLine
 10
1048.292369799708
 20
422.6919388463848
 30
0.0
 11
1050.292369799708
 21
421.6919388463843
 31
0.0
  0
LINE
  5
A05
330
1F
100
AcDbEntity
  8
0
100
AcDbLine
 10
1051.292369799708
 20
424.1919388463842
 30
0.0
 11
1048.292369799708
 21
424.1919388463842
 31
0.0
  0
LINE
  5
A06
330
1F
100
AcDbEntity
  8
0
100
AcDbLine
 10
1052.292369799708
 20
422.6919388463848
 30
0.0
 11
1062.792369799708
 21
422.6919388463848
 31
0.0
  0
LINE
  5
A07
330
1F
100
AcDbEntity
  8
0
100
AcDbLine
 10
1121.292369799708
 20
422.6919388463848
 30
0.0
 11
1118.292369799708
 21
422.6919388463848
 31
0.0
  0
LINE
  5
A08
330
1F
100
AcDbEntity
  8
0
100
AcDbLine
 10
1118.292369799708
 20
424.1919388463842
 30
0.0
 11
1121.292369799708
 21
424.1919388463842
 31
0.0
  0
LINE
  5
A09
330
1F
100
AcDbEntity
  8
0
100
AcDbLine
 10
1121.292369799708
 20
422.6919388463848
 30
0.0
 11
1119.292369799708
 21
421.6919388463843
 31
0.0
  0
LINE
  5
A0A
330
1F
100
AcDbEntity
  8
0
100
AcDbLine
 10
1121.292369799708
 20
424.1919388463842
 30
0.0
 11
1119.292369799708
 21
425.1919388463843
 31
0.0
  0
LINE
  5
A0B
330
1F
100
AcDbEntity
  8
0
100
AcDbLine
 10
1118.292369799708
 20
424.1919388463842
 30
0.0
 11
1118.292369799708
 21
422.6919388463848
 31
0.0
  0
LINE
  5
A0C
330
1F
100
AcDbEntity
  8
0
100
AcDbLine
 10
1119.292369799708
 20
425.1919388463843
 30
0.0
 11
1113.292369799708
 21
426.6919388463848
 31
0.0
  0
LINE
  5
A0D
330
1F
100
AcDbEntity
  8
0
100
AcDbLine
 10
1119.292369799708
 20
421.6919388463843
 30
0.0
 11
1113.292369799708
 21
420.1919388463842
 31
0.0
  0
HATCH
  5
A0E
330
1F
100
AcDbEntity
  8
8
100
AcDbHatch
 10
0.0
 20
0.0
 30
0.0
210
0.0
220
0.0
230
1.0
  2
NET
 70
     0
 71
     0
 91
        2
 92
        7
 72
     0
 73
     1
 93
       12
 10
1048.292369799708
 20
422.6919388463848
 10
1050.292369799708
 20
421.6919388463843
 10
1056.292369799708
 20
420.1919388463842
 10
1056.292369799708
 20
422.6919388463848
 10
1052.292369799708
 20
422.6919388463848
 10
1052.292369799708
 20
424.1919388463842
 10
1056.292369799708
 20
424.1919388463842
 10
1056.292369799708
 20
426.6919388463848
 10
1050.292369799708
 20
425.1919388463843
 10
1048.292369799708
 20
424.1919388463842
 10
1051.292369799708
 20
424.1919388463842
 10
1051.292369799708
 20
422.6919388463848
 97
        0
 92
        7
 72
     0
 73
     1
 93
       12
 10
1117.292369799708
 20
422.6919388463848
 10
1113.292369799708
 20
422.6919388463848
 10
1113.292369799708
 20
420.1919388463842
 10
1119.292369799708
 20
421.6919388463843
 10
1121.292369799708
 20
422.6919388463848
 10
1118.292369799708
 20
422.6919388463848
 10
1118.292369799708
 20
424.1919388463842
 10
1121.292369799708
 20
424.1919388463842
 10
1119.292369799708
 20
425.1919388463843
 10
1113.292369799708
 20
426.6919388463848
 10
1113.292369799708
 20
424.1919388463842
 10
1117.292369799708
 20
424.1919388463842
 97
        0
 75
     0
 76
     1
 52
135.0
 41
0.5
 77
     0
 78
     2
 53
135.0
 43
966.7287628048295
 44
221.8875498019452
 45
-1.122532015133643
 46
-1.122532015133643
 79
     0
 53
225.0
 43
966.7287628048295
 44
221.8875498019452
 45
1.122532015133643
 46
-1.122532015133643
 79
     0
 47
0.1492324330864038
 98
        2
 10
1054.824758943131
 20
421.6575821022888
 10
1115.745766825659
 20
421.5083486570623
  0
LINE
  5
A0F
330
1F
100
AcDbEntity
  8
0
100
AcDbLine
 10
1057.292369799708
 20
410.6919388463848
 30
0.0
 11
1057.292369799708
 21
354.6919388463848
 31
0.0
  0
LINE
  5
A10
330
1F
100
AcDbEntity
  8
0
100
AcDbLine
 10
1062.292369799708
 20
349.6919388463848
 30
0.0
 11
1107.292369799708
 21
349.6919388463848
 31
0.0
  0
LINE
  5
A11
330
1F
100
AcDbEntity
  8
0
100
AcDbLine
 10
1112.292369799708
 20
354.6919388463848
 30
0.0
 11
1112.292369799708
 21
410.6919388463848
 31
0.0
  0
ARC
  5
A12
330
1F
100
AcDbEntity
  8
0
100
AcDbCircle
 10
1062.292369799708
 20
354.6919388463848
 30
0.0
 40
5.0
100
AcDbArc
 50
180.0
 51
270.0
1001
GENIUS_GENOBJ-N-FIL_13
1002
{
1000
OWNER
1000
GEN
1002
}
1001
GENIUS_GENODEF_13
1002
{
1000
HIER
1070
     0
1002
}
1002
{
1000
MANEDIT
1070
     0
1002
}
1002
{
1000
NOSEL
1070
     0
1002
}
1002
{
1000
BEHIND
1070
     0
1002
}
1002
{
1000
OTHER
1070
     0
1002
}
1002
{
1000
REACTOR
1002
}
  0
ARC
  5
A13
330
1F
100
AcDbEntity
  8
0
100
AcDbCircle
 10
1107.292369799708
 20
354.6919388463848
 30
0.0
 40
5.0
100
AcDbArc
 50
270.0
 51
0.0
1001
GENIUS_GENOBJ-N-FIL_13
1002
{
1000
OWNER
1000
GEN
1002
}
1001
GENIUS_GENODEF_13
1002
{
1000
HIER
1070
     0
1002
}
1002
{
1000
MANEDIT
1070
     0
1002
}
1002
{
1000
NOSEL
1070
     0
1002
}
1002
{
1000
BEHIND
1070
     0
1002
}
1002
{
1000
OTHER
1070
     0
1002
}
1002
{
1000
REACTOR
1002
}
  0
ARC
  5
A14
330
1F
100
AcDbEntity
  8
0
100
AcDbCircle
 10
1062.292369799708
 20
354.6919388463848
 30
0.0
 40
6.0
100
AcDbArc
 50
180.0
 51
270.0
1001
GENIUS_GENOBJ-N-FIL_13
1002
{
1000
OWNER
1000
GEN
1002
}
1001
GENIUS_GENODEF_13
1002
{
1000
HIER
1070
     0
1002
}
1002
{
1000
MANEDIT
1070
     0
1002
}
1002
{
1000
NOSEL
1070
     0
1002
}
1002
{
1000
BEHIND
1070
     0
1002
}
1002
{
1000
OTHER
1070
     0
1002
}
1002
{
1000
REACTOR
1002
}
  0
ARC
  5
A15
330
1F
100
AcDbEntity
  8
0
100
AcDbCircle
 10
1107.292369799708
 20
354.6919388463848
 30
0.0
 40
6.0
100
AcDbArc
 50
270.0
 51
0.0
1001
GENIUS_GENODEF_13
1002
{
1000
HIER
1070
     0
1002
}
1002
{
1000
MANEDIT
1070
     0
1002
}
1002
{
1000
NOSEL
1070
     0
1002
}
1002
{
1000
BEHIND
1070
     0
1002
}
1002
{
1000
OTHER
1070
     0
1002
}
1002
{
1000
REACTOR
1002
}
1001
GENIUS_GENOBJ-N-FIL_13
1002
{
1000
OWNER
1000
GEN
1002
}
  0
ARC
  5
A16
330
1F
100
AcDbEntity
  8
0
100
AcDbCircle
 10
1062.792369799708
 20
420.6919388463843
 30
0.0
 40
2.0
100
AcDbArc
 50
0.0
 51
90.0
1001
GENIUS_GENODEF_13
1002
{
1000
HIER
1070
     0
1002
}
1002
{
1000
MANEDIT
1070
     0
1002
}
1002
{
1000
NOSEL
1070
     0
1002
}
1002
{
1000
BEHIND
1070
     0
1002
}
1002
{
1000
OTHER
1070
     0
1002
}
1002
{
1000
REACTOR
1002
}
1001
GENIUS_GENOBJ-N-FIL_13
1002
{
1000
OWNER
1000
GEN
1002
}
  0
LINE
  5
A17
330
1F
100
AcDbEntity
  8
0
100
AcDbLine
 10
1117.292369799708
 20
422.6919388463848
 30
0.0
 11
1106.792369799708
 21
422.6919388463848
 31
0.0
  0
ARC
  5
A18
330
1F
100
AcDbEntity
  8
0
100
AcDbCircle
 10
1106.792369799708
 20
420.6919388463843
 30
0.0
 40
2.0
100
AcDbArc
 50
90.0
 51
180.0
1001
GENIUS_GENODEF_13
1002
{
1000
HIER
1070
     0
1002
}
1002
{
1000
MANEDIT
1070
     0
1002
}
1002
{
1000
NOSEL
1070
     0
1002
}
1002
{
1000
BEHIND
1070
     0
1002
}
1002
{
1000
OTHER
1070
     0
1002
}
1002
{
1000
REACTOR
1002
}
1001
GENIUS_GENOBJ-N-FIL_13
1002
{
1000
OWNER
1000
GEN
1002
}
  0
ARC
  5
A19
330
1F
100
AcDbEntity
  8
0
100
AcDbCircle
 10
1062.792369799708
 20
420.6919388463843
 30
0.0
 40
3.5
100
AcDbArc
 50
0.0
 51
90.0
1001
GENIUS_GENODEF_13
1002
{
1000
HIER
1070
     0
1002
}
1002
{
1000
MANEDIT
1070
     0
1002
}
1002
{
1000
NOSEL
1070
     0
1002
}
1002
{
1000
BEHIND
1070
     0
1002
}
1002
{
1000
OTHER
1070
     0
1002
}
1002
{
1000
REACTOR
1002
}
1001
GENIUS_GENOBJ-N-FIL_13
1002
{
1000
OWNER
1000
GEN
1002
}
  0
ARC
  5
A1A
330
1F
100
AcDbEntity
  8
0
100
AcDbCircle
 10
1106.792369799708
 20
420.6919388463843
 30
0.0
 40
3.5
100
AcDbArc
 50
90.0
 51
180.0
1001
GENIUS_GENODEF_13
1002
{
1000
HIER
1070
     0
1002
}
1002
{
1000
MANEDIT
1070
     0
1002
}
1002
{
1000
NOSEL
1070
     0
1002
}
1002
{
1000
BEHIND
1070
     0
1002
}
1002
{
1000
OTHER
1070
     0
1002
}
1002
{
1000
REACTOR
1002
}
1001
GENIUS_GENOBJ-N-FIL_13
1002
{
1000
OWNER
1000
GEN
1002
}
  0
HATCH
  5
A1B
330
1F
100
AcDbEntity
  8
8
100
AcDbHatch
 10
0.0
 20
0.0
 30
0.0
210
0.0
220
0.0
230
1.0
  2
_U
 70
     0
 71
     0
 91
        1
 92
        1
 93
        8
 72
     1
 10
1104.792369799708
 20
363.6919388463848
 11
1104.792369799708
 21
420.6919388463843
 72
     2
 10
1106.792369799708
 20
420.6919388463843
 40
2.0
 50
180.0
 51
270.0
 73
     0
 72
     1
 10
1106.792369799708
 20
422.6919388463848
 11
1117.292369799708
 21
422.6919388463848
 72
     1
 10
1117.292369799708
 20
422.6919388463848
 11
1117.292369799708
 21
424.1919388463847
 72
     1
 10
1117.292369799708
 20
424.1919388463842
 11
1106.792369799708
 21
424.1919388463842
 72
     2
 10
1106.792369799708
 20
420.6919388463843
 40
3.5
 50
90.0
 51
180.0
 73
     1
 72
     1
 10
1103.292369799708
 20
420.6919388463843
 11
1103.292369799708
 21
363.6919388463848
 72
     1
 10
1103.292369799708
 20
363.6919388463848
 11
1104.792369799708
 21
363.6919388463848
 97
        0
 75
     0
 76
     0
 52
45.0
 41
5.0
 77
     0
 78
     1
 53
45.0
 43
966.7287628048295
 44
220.9775795088431
 45
-3.535533905932736
 46
3.535533905932736
 79
     0
 98
        1
 10
966.7287628048295
 20
220.9775795088431
1001
GENIUS_GENODEF_13
1002
{
1000
HIER
1070
     0
1002
}
1002
{
1000
MANEDIT
1070
     0
1002
}
1002
{
1000
NOSEL
1070
     0
1002
}
1002
{
1000
BEHIND
1070
     0
1002
}
1002
{
1000
OTHER
1070
     0
1002
}
1002
{
1000
REACTOR
1002
}
1001
GENIUS_GENOBJ-N-HTC_13
1002
{
1000
OWNER
1000
GEN
1002
}
1001
GENIUS_GENHATCH_13
1002
{
1000
DATA
1040
45.0
1042
5.0
1000
_U
1070
     0
1011
1104.022048728798
1021
403.659139423522
1031
0.0
1002
}
1002
{
1000
UCS
1010
0.0
1020
0.0
1030
0.0
1010
1.0
1020
0.0
1030
0.0
1010
0.0
1020
1.0
1030
0.0
1002
}
  0
HATCH
  5
A1C
330
1F
100
AcDbEntity
  8
8
100
AcDbHatch
 10
0.0
 20
0.0
 30
0.0
210
0.0
220
0.0
230
1.0
  2
_U
 70
     0
 71
     0
 91
        1
 92
        1
 93
        8
 72
     1
 10
1062.792369799708
 20
424.1919388463842
 11
1052.292369799708
 21
424.1919388463842
 72
     1
 10
1052.292369799708
 20
424.1919388463842
 11
1052.292369799708
 21
422.6919388463842
 72
     1
 10
1052.292369799708
 20
422.6919388463848
 11
1062.792369799708
 21
422.6919388463848
 72
     2
 10
1062.792369799708
 20
420.6919388463843
 40
2.0
 50
270.0
 51
360.0
 73
     0
 72
     1
 10
1064.792369799708
 20
420.6919388463843
 11
1064.792369799708
 21
363.6919388463848
 72
     1
 10
1064.792369799708
 20
363.6919388463848
 11
1066.292369799708
 21
363.6919388463848
 72
     1
 10
1066.292369799708
 20
363.6919388463848
 11
1066.292369799708
 21
420.6919388463843
 72
     2
 10
1062.792369799708
 20
420.6919388463843
 40
3.5
 50
0.0
 51
90.0
 73
     1
 97
        0
 75
     0
 76
     0
 52
45.0
 41
5.0
 77
     0
 78
     1
 53
45.0
 43
966.7287628048295
 44
220.9775795088431
 45
-3.535533905932736
 46
3.535533905932736
 79
     0
 98
        1
 10
966.7287628048295
 20
220.9775795088431
1001
GENIUS_GENODEF_13
1002
{
1000
HIER
1070
     0
1002
}
1002
{
1000
MANEDIT
1070
     0
1002
}
1002
{
1000
NOSEL
1070
     0
1002
}
1002
{
1000
BEHIND
1070
     0
1002
}
1002
{
1000
OTHER
1070
     0
1002
}
1002
{
1000
REACTOR
1002
}
1001
GENIUS_GENOBJ-N-HTC_13
1002
{
1000
OWNER
1000
GEN
1002
}
1001
GENIUS_GENHATCH_13
1002
{
1000
DATA
1040
45.0
1042
5.0
1000
_U
1070
     0
1011
1065.655101829808
1021
401.4396001046911
1031
0.0
1002
}
1002
{
1000
UCS
1010
0.0
1020
0.0
1030
0.0
1010
1.0
1020
0.0
1030
0.0
1010
0.0
1020
1.0
1030
0.0
1002
}
  0
LINE
  5
A1D
330
1F
100
AcDbEntity
  8
0
100
AcDbLine
 10
1056.292369799708
 20
413.6919388463848
 30
0.0
 11
1057.292369799708
 21
413.6919388463848
 31
0.0
  0
LINE
  5
A1E
330
1F
100
AcDbEntity
  8
0
100
AcDbLine
 10
1056.292369799708
 20
422.6919388463848
 30
0.0
 11
1062.792369799708
 21
422.6919388463848
 31
0.0
  0
LINE
  5
A1F
330
1F
100
AcDbEntity
  8
0
100
AcDbLine
 10
1056.292369799708
 20
413.6919388463848
 30
0.0
 11
1058.053074355524
 21
413.6919388463848
 31
0.0
  0
LINE
  5
A20
330
1F
100
AcDbEntity
  8
0
100
AcDbLine
 10
1064.792369799708
 20
420.6919388463843
 30
0.0
 11
1064.792369799708
 21
402.6919388463848
 31
0.0
  0
LINE
  5
A21
330
1F
100
AcDbEntity
  8
0
100
AcDbLine
 10
1057.792369799708
 20
411.2119388463843
 30
0.0
 11
1057.792369799708
 21
409.2119388463848
 31
0.0
  0
LINE
  5
A22
330
1F
100
AcDbEntity
  8
0
100
AcDbLine
 10
1064.792369799708
 20
402.6919388463848
 30
0.0
 11
1061.556693554824
 21
402.6919388463848
 31
0.0
  0
LINE
  5
A23
330
1F
100
AcDbEntity
  8
0
100
AcDbLine
 10
1056.292369799708
 20
413.6919388463848
 30
0.0
 11
1056.292369799708
 21
422.6919388463848
 31
0.0
  0
LINE
  5
A24
330
1F
100
AcDbEntity
  8
0
100
AcDbLine
 10
1057.792369799708
 20
411.2119388463843
 30
0.0
 11
1058.516666282806
 21
413.0046355496764
 31
0.0
  0
ARC
  5
A25
330
1F
100
AcDbEntity
  8
0
100
AcDbCircle
 10
1058.053074355524
 20
413.1919388463843
 30
0.0
 40
0.5
100
AcDbArc
 50
337.9999999999949
 51
90.0
  0
LINE
  5
A26
330
1F
100
AcDbEntity
  8
0
100
AcDbLine
 10
1057.792369799708
 20
409.2119388463848
 30
0.0
 11
1061.556693554824
 21
402.6919388463848
 31
0.0
  0
LINE
  5
A27
330
1F
100
AcDbEntity
  8
0
100
AcDbLine
 10
1062.792369799708
 20
422.6919388463848
 30
0.0
 11
1064.792369799708
 21
420.6919388463843
 31
0.0
  0
LINE
  5
A28
330
1F
100
AcDbEntity
  8
3
100
AcDbLine
 10
1056.292369799708
 20
420.1919388463842
 30
0.0
 11
1064.792369799708
 21
420.1919388463842
 31
0.0
  0
LINE
  5
A29
330
1F
100
AcDbEntity
  8
3
100
AcDbLine
 10
1058.053074355524
 20
413.6919388463848
 30
0.0
 11
1064.792369799708
 21
413.6919388463848
 31
0.0
  0
LINE
  5
A2A
330
1F
100
AcDbEntity
  8
0
100
AcDbLine
 10
1057.292369799708
 20
410.6919388463848
 30
0.0
 11
1057.765342772681
 21
413.5297766842223
 31
0.0
  0
LINE
  5
A2B
330
1F
100
AcDbEntity
  8
0
100
AcDbLine
 10
1056.292369799708
 20
410.6919388463848
 30
0.0
 11
1056.792369799708
 21
413.6919388463848
 31
0.0
  0
LINE
  5
A2C
330
1F
100
AcDbEntity
  8
0
100
AcDbLine
 10
1056.792369799708
 20
413.6919388463848
 30
0.0
 11
1057.765342772681
 21
413.5297766842223
 31
0.0
  0
LINE
  5
A2D
330
1F
100
AcDbEntity
  8
0
100
AcDbLine
 10
1057.765342772681
 20
413.5297766842223
 30
0.0
 11
1058.421673860848
 21
413.5297766842223
 31
0.0
  0
LINE
  5
A2E
330
1F
100
AcDbEntity
  8
0
100
AcDbLine
 10
1112.292369799708
 20
410.6919388463848
 30
0.0
 11
1111.819396826736
 21
413.5297766842223
 31
0.0
  0
LINE
  5
A2F
330
1F
100
AcDbEntity
  8
0
100
AcDbLine
 10
1113.292369799708
 20
410.6919388463848
 30
0.0
 11
1112.792369799708
 21
413.6919388463848
 31
0.0
  0
LINE
  5
A30
330
1F
100
AcDbEntity
  8
0
100
AcDbLine
 10
1112.792369799708
 20
413.6919388463848
 30
0.0
 11
1111.819396826736
 21
413.5297766842223
 31
0.0
  0
LINE
  5
A31
330
1F
100
AcDbEntity
  8
0
100
AcDbLine
 10
1111.819396826736
 20
413.5297766842223
 30
0.0
 11
1104.792369799708
 21
413.5297766842223
 31
0.0
  0
INSERT
  5
A32
330
1F
100
AcDbEntity
  8
0
100
AcDbBlockReference
  2
befestigung
 10
2793.67515071913
 20
-974.3413277278433
 30
0.0
 41
-1.0
  0
INSERT
  5
A33
330
1F
100
AcDbEntity
  8
0
100
AcDbBlockReference
  2
befestigung
 10
-2033.675148626631
 20
-974.3413277278447
 30
0.0
  0
ARC
  5
A34
330
1F
100
AcDbEntity
  8
0
100
AcDbCircle
 10
1042.792365652947
 20
450.716510275175
 30
0.0
 40
2.0
100
AcDbArc
 50
0.0
 51
90.00000000026053
  0
LINE
  5
A35
330
1F
100
AcDbEntity
  8
0
  6
ByBlock
100
AcDbLine
 10
1024.792365652842
 20
453.7165102751256
 30
0.0
 11
1024.792365652727
 21
492.7165102751255
 31
0.0
  0
ARC
  5
A36
330
1F
100
AcDbEntity
  8
0
  6
ByBlock
100
AcDbCircle
 10
1025.792365652842
 20
453.7165102751282
 30
0.0
 40
1.0
100
AcDbArc
 50
180.0000000002605
 51
270.0000000002606
  0
LINE
  5
A37
330
1F
100
AcDbEntity
  8
0
  6
ByBlock
100
AcDbLine
 10
1024.792365652727
 20
492.7165102751255
 30
0.0
 11
1023.792365652727
 21
492.7165102751228
 31
0.0
  0
LINE
  5
A38
330
1F
100
AcDbEntity
  8
0
  6
ByBlock
100
AcDbLine
 10
1023.792365652727
 20
492.7165102751228
 30
0.0
 11
1023.792365652842
 21
453.7165102751228
 31
0.0
  0
ARC
  5
A39
330
1F
100
AcDbEntity
  8
0
  6
ByBlock
100
AcDbCircle
 10
1025.792365652842
 20
453.7165102751282
 30
0.0
 40
2.0
100
AcDbArc
 50
180.0000000002605
 51
270.0000000002606
  0
LINE
  5
A3A
330
1F
100
AcDbEntity
  8
0
  6
ByBlock
100
AcDbLine
 10
1025.792365652847
 20
451.7165102751283
 30
0.0
 11
1042.792365652848
 21
451.7165102751786
 31
0.0
  0
ARC
  5
A3B
330
1F
100
AcDbEntity
  8
0
  6
ByBlock
100
AcDbCircle
 10
1042.792365652851
 20
450.7165102751788
 30
0.0
 40
1.0
100
AcDbArc
 50
0.000000000260551
 51
90.00000000026053
  0
POINT
  5
A3C
330
1F
100
AcDbEntity
  8
0
 60
     1
100
AcDbPoint
 10
-1029.730372754338
 20
-829.0700056214332
 30
0.0
1001
GENIUS_GENOENT_13
1002
{
1000
MYREF
1005
A3C
1002
}
1002
{
1000
GRP
1005
0
1002
}
1001
GENIUS_GENOLIS_13
1002
{
1000
ENT
1005
98A
1005
989
1005
988
1005
987
1002
}
1001
GENIUS_GENODEF_13
1002
{
1000
HIER
1070
    10
1002
}
1002
{
1000
MANEDIT
1070
     0
1002
}
1002
{
1000
NOSEL
1070
     0
1002
}
1002
{
1000
BEHIND
1070
     0
1002
}
1002
{
1000
OTHER
1070
     0
1002
}
1002
{
1000
REACTOR
1002
}
1001
GENIUS_GENOBJ-N-CRS_13
1002
{
1000
OWNER
1000
GEN
1002
}
  0
ENDSEC
  0
SECTION
  2
OBJECTS
  0
DICTIONARY
  5
C
330
0
100
AcDbDictionary
281
     1
  3
ACAD_2007HEADERVARS_RT
350
B6D
  3
ACAD_COLOR
350
BE
  3
ACAD_GROUP
350
D
  3
ACAD_LAYOUT
350
1A
  3
ACAD_MATERIAL
350
BD
  3
ACAD_MLEADERSTYLE
350
2C4
  3
ACAD_MLINESTYLE
350
17
  3
ACAD_PLOTSETTINGS
350
19
  3
ACAD_PLOTSTYLENAME
350
E
  3
ACAD_SCALELIST
350
2A2
  3
ACAD_TABLESTYLE
350
11A
  3
ACAD_VISUALSTYLE
350
26E
  3
ACDB_RECOMPOSE_DATA
350
2E6
  3
AcDbVariableDictionary
350
94
  3
AcmDictionary
350
5B
  3
AEC_PROPERTY_SET_DEFS
350
938
  3
AMG
350
41
  3
AMGSNAPSETTINGS
350
364
  3
DWGPROPS
350
B6C
  0
DICTIONARY
  5
47D
330
2
100
AcDbDictionary
280
     1
281
     1
  3
ACAD_LAYERSTATES
360
47E
  0
DICTIONARY
  5
77F
330
10
100
AcDbDictionary
280
     1
281
     1
  3
ADSK_XREC_LAYER_RECONCILED
360
780
  0
DICTIONARY
  5
459
330
458
100
AcDbDictionary
280
     1
281
     1
  3
ADSK_XREC_LAYER_RECONCILED
360
781
  0
DICTIONARY
  5
45B
330
45A
100
AcDbDictionary
280
     1
281
     1
  3
ADSK_XREC_LAYER_RECONCILED
360
782
  0
DICTIONARY
  5
45E
330
45D
100
AcDbDictionary
280
     1
281
     1
  3
ADSK_XREC_LAYER_RECONCILED
360
783
  0
DICTIONARY
  5
460
330
45F
100
AcDbDictionary
280
     1
281
     1
  3
ADSK_XREC_LAYER_RECONCILED
360
784
  0
DICTIONARY
  5
462
330
461
100
AcDbDictionary
280
     1
281
     1
  3
ADSK_XREC_LAYER_RECONCILED
360
785
  0
DICTIONARY
  5
464
330
463
100
AcDbDictionary
280
     1
281
     1
  3
ADSK_XREC_LAYER_RECONCILED
360
786
  0
DICTIONARY
  5
466
330
465
100
AcDbDictionary
280
     1
281
     1
  3
ADSK_XREC_LAYER_RECONCILED
360
787
  0
DICTIONARY
  5
468
330
467
100
AcDbDictionary
280
     1
281
     1
  3
ADSK_XREC_LAYER_RECONCILED
360
788
  0
DICTIONARY
  5
46A
330
469
100
AcDbDictionary
280
     1
281
     1
  3
ADSK_XREC_LAYER_RECONCILED
360
789
  0
DICTIONARY
  5
46C
330
46B
100
AcDbDictionary
280
     1
281
     1
  3
ADSK_XREC_LAYER_RECONCILED
360
78A
  0
DICTIONARY
  5
46E
330
46D
100
AcDbDictionary
280
     1
281
     1
  3
ADSK_XREC_LAYER_RECONCILED
360
78B
  0
DICTIONARY
  5
8F
330
1F
100
AcDbDictionary
280
     1
281
     1
  0
DICTIONARY
  5
B6D
102
{ACAD_REACTORS
330
C
102
}
330
C
100
AcDbDictionary
281
     1
  3
DIMARCSYM
350
B6E
  3
DIMJOGANG
350
B6F
  3
DIMLTEX1
350
B71
  3
DIMLTEX2
350
B72
  3
DIMLTYPE
350
B70
  0
DICTIONARY
  5
BE
102
{ACAD_REACTORS
330
C
102
}
330
C
100
AcDbDictionary
281
     1
  0
DICTIONARY
  5
D
102
{ACAD_REACTORS
330
C
102
}
330
C
100
AcDbDictionary
281
     1
  0
DICTIONARY
  5
1A
102
{ACAD_REACTORS
330
C
102
}
330
C
100
AcDbDictionary
281
     1
  3
Layout1
350
1E
  3
Layout2
350
26
  3
Model
350
22
  0
DICTIONARY
  5
BD
102
{ACAD_REACTORS
330
C
102
}
330
C
100
AcDbDictionary
281
     1
  3
ByBlock
350
26C
  3
ByLayer
350
26B
  3
Global
350
26D
  0
DICTIONARY
  5
2C4
102
{ACAD_REACTORS
330
C
102
}
330
C
100
AcDbDictionary
281
     1
  3
Standard
350
2C5
  0
DICTIONARY
  5
17
102
{ACAD_REACTORS
330
C
102
}
330
C
100
AcDbDictionary
281
     1
  3
Standard
350
18
  0
DICTIONARY
  5
19
102
{ACAD_REACTORS
330
C
102
}
330
C
100
AcDbDictionary
281
     1
  0
ACDBDICTIONARYWDFLT
  5
E
102
{ACAD_REACTORS
330
C
102
}
330
C
100
AcDbDictionary
281
     1
  3
Normal
350
F
100
AcDbDictionaryWithDefault
340
F
  0
DICTIONARY
  5
2A2
102
{ACAD_REACTORS
330
C
102
}
330
C
100
AcDbDictionary
281
     1
  3
A0
350
2A3
  3
A1
350
2A4
  3
A2
350
2A5
  3
A3
350
2A6
  3
A4
350
2A7
  3
A5
350
2A8
  3
A6
350
2A9
  3
A7
350
2AA
  3
A8
350
2AB
  3
A9
350
2AC
  3
B0
350
2AD
  3
B1
350
2AE
  3
B2
350
2AF
  3
B3
350
2B0
  3
B4
350
2B1
  3
B5
350
2B2
  3
B6
350
2B3
  3
B7
350
2B4
  3
B8
350
2B5
  3
B9
350
2B6
  3
C0
350
2B7
  3
C1
350
2B8
  3
C2
350
2B9
  3
C3
350
2BA
  3
C4
350
2BB
  3
C5
350
2BC
  3
C6
350
2BD
  3
C7
350
2BE
  3
C8
350
2BF
  3
C9
350
2C0
  3
D0
350
2C1
  3
D1
350
2C2
  3
D2
350
2C3
  0
DICTIONARY
  5
11A
102
{ACAD_REACTORS
330
C
102
}
330
C
100
AcDbDictionary
281
     1
  3
Standard
350
11B
  0
DICTIONARY
  5
26E
102
{ACAD_REACTORS
330
C
102
}
330
C
100
AcDbDictionary
281
     1
  3
2dWireframe
350
274
  3
3D Hidden
350
276
  3
3dWireframe
350
275
  3
Basic
350
273
  3
Brighten
350
27A
  3
ColorChange
350
27E
  3
Conceptual
350
277
  3
Dim
350
279
  3
Facepattern
350
27D
  3
Flat
350
26F
  3
FlatWithEdges
350
270
  3
Gouraud
350
271
  3
GouraudWithEdges
350
272
  3
Linepattern
350
27C
  3
Realistic
350
278
  3
Thicken
350
27B
  0
XRECORD
  5
2E6
102
{ACAD_REACTORS
330
C
102
}
330
C
100
AcDbXrecord
280
     1
 90
        1
330
11B
  0
DICTIONARY
  5
94
102
{ACAD_REACTORS
330
C
102
}
330
C
100
AcDbDictionary
281
     1
  3
CANNOSCALE
350
2E9
  3
CMLEADERSTYLE
350
2E7
  3
CTABLESTYLE
350
138
  3
DIMASSOC
350
96
  3
INDEXCTL
350
95
  3
LAYEREVAL
350
346
  3
LAYERNOTIFY
350
347
  3
LIGHTINGUNITS
350
2EA
  3
MSLTSCALE
350
2E8
  3
SORTENTS
350
AEB
  0
DICTIONARY
  5
5B
102
{ACAD_REACTORS
330
C
102
}
330
C
100
AcDbDictionary
281
     1
  3
AcmBOM
350
36B
  3
AcmStdDictionary
350
61
  3
AMDTSECTSYM_ARROWCOLOR
350
123
  0
DICTIONARY
  5
938
102
{ACAD_REACTORS
330
C
102
}
330
C
100
AcDbDictionary
281
     1
  0
DICTIONARY
  5
41
102
{ACAD_REACTORS
330
C
102
}
330
C
100
AcDbDictionary
281
     1
  0
DICTIONARY
  5
364
102
{ACAD_REACTORS
330
C
102
}
330
C
100
AcDbDictionary
281
     1
  0
XRECORD
  5
B6C
102
{ACAD_REACTORS
330
C
102
}
330
C
100
AcDbXrecord
280
     1
  1
DWGPROPS COOKIE
  2

  3

  4

  6

  7

  8
nlazaar
  9

300
AmdtFileType=84
301
=
302
=
303
=
304
=
305
=
306
=
307
=
308
=
309
=
 40
0.0246491782407408
 41
2455097.63766522
 42
2455097.707573183
  1

 90
        1
  0
DICTIONARY
  5
47E
102
{ACAD_REACTORS
330
47D
102
}
330
47D
100
AcDbDictionary
281
     1
  0
XRECORD
  5
780
102
{ACAD_REACTORS
330
77F
102
}
330
77F
100
AcDbXrecord
280
     1
290
     1
  0
XRECORD
  5
781
102
{ACAD_REACTORS
330
459
102
}
330
459
100
AcDbXrecord
280
     1
290
     1
  0
XRECORD
  5
782
102
{ACAD_REACTORS
330
45B
102
}
330
45B
100
AcDbXrecord
280
     1
290
     1
  0
XRECORD
  5
783
102
{ACAD_REACTORS
330
45E
102
}
330
45E
100
AcDbXrecord
280
     1
290
     1
  0
XRECORD
  5
784
102
{ACAD_REACTORS
330
460
102
}
330
460
100
AcDbXrecord
280
     1
290
     1
  0
XRECORD
  5
785
102
{ACAD_REACTORS
330
462
102
}
330
462
100
AcDbXrecord
280
     1
290
     1
  0
XRECORD
  5
786
102
{ACAD_REACTORS
330
464
102
}
330
464
100
AcDbXrecord
280
     1
290
     1
  0
XRECORD
  5
787
102
{ACAD_REACTORS
330
466
102
}
330
466
100
AcDbXrecord
280
     1
290
     1
  0
XRECORD
  5
788
102
{ACAD_REACTORS
330
468
102
}
330
468
100
AcDbXrecord
280
     1
290
     1
  0
XRECORD
  5
789
102
{ACAD_REACTORS
330
46A
102
}
330
46A
100
AcDbXrecord
280
     1
290
     1
  0
XRECORD
  5
78A
102
{ACAD_REACTORS
330
46C
102
}
330
46C
100
AcDbXrecord
280
     1
290
     1
  0
XRECORD
  5
78B
102
{ACAD_REACTORS
330
46E
102
}
330
46E
100
AcDbXrecord
280
     1
290
     1
  0
XRECORD
  5
B6E
102
{ACAD_REACTORS
330
B6D
102
}
330
B6D
100
AcDbXrecord
280
     1
 70
     1
  0
XRECORD
  5
B6F
102
{ACAD_REACTORS
330
B6D
102
}
330
B6D
100
AcDbXrecord
280
     1
 40
1.570796326794896
  0
XRECORD
  5
B71
102
{ACAD_REACTORS
330
B6D
102
}
330
B6D
100
AcDbXrecord
280
     1
340
14
  0
XRECORD
  5
B72
102
{ACAD_REACTORS
330
B6D
102
}
330
B6D
100
AcDbXrecord
280
     1
340
14
  0
XRECORD
  5
B70
102
{ACAD_REACTORS
330
B6D
102
}
330
B6D
100
AcDbXrecord
280
     1
340
14
  0
LAYOUT
  5
1E
102
{ACAD_XDICTIONARY
360
B73
102
}
102
{ACAD_REACTORS
330
1A
102
}
330
1A
100
AcDbPlotSettings
  1

  2

  4

  6

 40
0.0
 41
0.0
 42
0.0
 43
0.0
 44
0.0
 45
0.0
 46
0.0
 47
0.0
 48
0.0
 49
0.0
140
0.0
141
0.0
142
1.0
143
1.0
 70
   688
 72
     0
 73
     0
 74
     5
  7

 75
    16
147
1.0
148
0.0
149
0.0
100
AcDbLayout
  1
Layout1
 70
     1
 71
     1
 10
0.0
 20
0.0
 11
420.0
 21
297.0
 12
0.0
 22
0.0
 32
0.0
 14
1.000000000000000E+20
 24
1.000000000000000E+20
 34
1.000000000000000E+20
 15
-1.000000000000000E+20
 25
-1.000000000000000E+20
 35
-1.000000000000000E+20
146
0.0
 13
0.0
 23
0.0
 33
0.0
 16
1.0
 26
0.0
 36
0.0
 17
0.0
 27
1.0
 37
0.0
 76
     0
330
1B
  0
LAYOUT
  5
26
102
{ACAD_XDICTIONARY
360
B77
102
}
102
{ACAD_REACTORS
330
1A
102
}
330
1A
100
AcDbPlotSettings
  1

  2

  4

  6

 40
0.0
 41
0.0
 42
0.0
 43
0.0
 44
0.0
 45
0.0
 46
0.0
 47
0.0
 48
0.0
 49
0.0
140
0.0
141
0.0
142
1.0
143
1.0
 70
   688
 72
     0
 73
     0
 74
     5
  7

 75
    16
147
1.0
148
0.0
149
0.0
100
AcDbLayout
  1
Layout2
 70
     1
 71
     2
 10
0.0
 20
0.0
 11
12.0
 21
9.0
 12
0.0
 22
0.0
 32
0.0
 14
0.0
 24
0.0
 34
0.0
 15
0.0
 25
0.0
 35
0.0
146
0.0
 13
0.0
 23
0.0
 33
0.0
 16
1.0
 26
0.0
 36
0.0
 17
0.0
 27
1.0
 37
0.0
 76
     0
330
23
  0
LAYOUT
  5
22
102
{ACAD_XDICTIONARY
360
B75
102
}
102
{ACAD_REACTORS
330
1A
102
}
330
1A
100
AcDbPlotSettings
  1

  2

  4

  6

 40
0.0
 41
0.0
 42
0.0
 43
0.0
 44
0.0
 45
0.0
 46
0.0
 47
0.0
 48
0.0
 49
0.0
140
0.0
141
0.0
142
1.0
143
1.0
 70
  1712
 72
     0
 73
     0
 74
     0
  7

 75
     0
147
1.0
148
0.0
149
0.0
100
AcDbLayout
  1
Model
 70
     1
 71
     0
 10
0.0
 20
0.0
 11
12.0
 21
9.0
 12
0.0
 22
0.0
 32
0.0
 14
0.0
 24
0.0
 34
0.0
 15
0.0
 25
0.0
 35
0.0
146
0.0
 13
0.0
 23
0.0
 33
0.0
 16
1.0
 26
0.0
 36
0.0
 17
0.0
 27
1.0
 37
0.0
 76
     0
330
1F
331
269
  0
MATERIAL
  5
26C
102
{ACAD_XDICTIONARY
360
B01
102
}
102
{ACAD_REACTORS
330
BD
102
}
330
BD
100
AcDbMaterial
  1
ByBlock
 73
     1
 78
     1
172
     1
176
     1
270
     1
274
     1
  0
MATERIAL
  5
26B
102
{ACAD_XDICTIONARY
360
AFF
102
}
102
{ACAD_REACTORS
330
BD
102
}
330
BD
100
AcDbMaterial
  1
ByLayer
 73
     1
 78
     1
172
     1
176
     1
270
     1
274
     1
  0
MATERIAL
  5
26D
102
{ACAD_XDICTIONARY
360
B03
102
}
102
{ACAD_REACTORS
330
BD
102
}
330
BD
100
AcDbMaterial
  1
Global
 73
     1
 78
     1
172
     1
176
     1
270
     1
274
     1
  0
MLEADERSTYLE
  5
2C5
102
{ACAD_REACTORS
330
2C4
102
}
330
2C4
100
AcDbMLeaderStyle
170
     2
171
     1
172
     0
 90
        2
 40
0.0
 41
0.0
173
     1
 91
-1056964608
340
14
 92
       -2
290
     1
 42
2.0
291
     1
 43
0.36
  3
Standard
 44
4.0
300

342
11
174
     1
178
     6
175
     1
176
     0
 93
-1056964608
 45
4.0
292
     0
297
     0
 46
4.0
 94
-1056964608
 47
1.0
 49
1.0
140
1.0
293
     1
141
0.0
294
     1
177
     0
142
1.0
295
     0
296
     0
143
0.125
1001
ACAD_MLEADERVER
1070
     2
  0
MLINESTYLE
  5
18
102
{ACAD_REACTORS
330
17
102
}
330
17
100
AcDbMlineStyle
  2
STANDARD
 70
     0
  3

 62
   256
 51
90.0
 52
90.0
 71
     2
 49
0.5
 62
   256
  6
BYLAYER
 49
-0.5
 62
   256
  6
BYLAYER
  0
ACDBPLACEHOLDER
  5
F
102
{ACAD_REACTORS
330
E
102
}
330
E
  0
SCALE
  5
2A3
102
{ACAD_REACTORS
330
2A2
102
}
330
2A2
100
AcDbScale
 70
     0
300
1:1
140
1.0
141
1.0
290
     1
  0
SCALE
  5
2A4
102
{ACAD_REACTORS
330
2A2
102
}
330
2A2
100
AcDbScale
 70
     0
300
1:2
140
1.0
141
2.0
290
     0
  0
SCALE
  5
2A5
102
{ACAD_REACTORS
330
2A2
102
}
330
2A2
100
AcDbScale
 70
     0
300
1:4
140
1.0
141
4.0
290
     0
  0
SCALE
  5
2A6
102
{ACAD_REACTORS
330
2A2
102
}
330
2A2
100
AcDbScale
 70
     0
300
1:5
140
1.0
141
5.0
290
     0
  0
SCALE
  5
2A7
102
{ACAD_REACTORS
330
2A2
102
}
330
2A2
100
AcDbScale
 70
     0
300
1:8
140
1.0
141
8.0
290
     0
  0
SCALE
  5
2A8
102
{ACAD_REACTORS
330
2A2
102
}
330
2A2
100
AcDbScale
 70
     0
300
1:10
140
1.0
141
10.0
290
     0
  0
SCALE
  5
2A9
102
{ACAD_REACTORS
330
2A2
102
}
330
2A2
100
AcDbScale
 70
     0
300
1:16
140
1.0
141
16.0
290
     0
  0
SCALE
  5
2AA
102
{ACAD_REACTORS
330
2A2
102
}
330
2A2
100
AcDbScale
 70
     0
300
1:20
140
1.0
141
20.0
290
     0
  0
SCALE
  5
2AB
102
{ACAD_REACTORS
330
2A2
102
}
330
2A2
100
AcDbScale
 70
     0
300
1:30
140
1.0
141
30.0
290
     0
  0
SCALE
  5
2AC
102
{ACAD_REACTORS
330
2A2
102
}
330
2A2
100
AcDbScale
 70
     0
300
1:40
140
1.0
141
40.0
290
     0
  0
SCALE
  5
2AD
102
{ACAD_REACTORS
330
2A2
102
}
330
2A2
100
AcDbScale
 70
     0
300
1:50
140
1.0
141
50.0
290
     0
  0
SCALE
  5
2AE
102
{ACAD_REACTORS
330
2A2
102
}
330
2A2
100
AcDbScale
 70
     0
300
1:100
140
1.0
141
100.0
290
     0
  0
SCALE
  5
2AF
102
{ACAD_REACTORS
330
2A2
102
}
330
2A2
100
AcDbScale
 70
     0
300
2:1
140
2.0
141
1.0
290
     0
  0
SCALE
  5
2B0
102
{ACAD_REACTORS
330
2A2
102
}
330
2A2
100
AcDbScale
 70
     0
300
4:1
140
4.0
141
1.0
290
     0
  0
SCALE
  5
2B1
102
{ACAD_REACTORS
330
2A2
102
}
330
2A2
100
AcDbScale
 70
     0
300
8:1
140
8.0
141
1.0
290
     0
  0
SCALE
  5
2B2
102
{ACAD_REACTORS
330
2A2
102
}
330
2A2
100
AcDbScale
 70
     0
300
10:1
140
10.0
141
1.0
290
     0
  0
SCALE
  5
2B3
102
{ACAD_REACTORS
330
2A2
102
}
330
2A2
100
AcDbScale
 70
     0
300
100:1
140
100.0
141
1.0
290
     0
  0
SCALE
  5
2B4
102
{ACAD_REACTORS
330
2A2
102
}
330
2A2
100
AcDbScale
 70
     0
300
1/128" = 1'-0"
140
0.0078125
141
12.0
290
     0
  0
SCALE
  5
2B5
102
{ACAD_REACTORS
330
2A2
102
}
330
2A2
100
AcDbScale
 70
     0
300
1/64" = 1'-0"
140
0.015625
141
12.0
290
     0
  0
SCALE
  5
2B6
102
{ACAD_REACTORS
330
2A2
102
}
330
2A2
100
AcDbScale
 70
     0
300
1/32" = 1'-0"
140
0.03125
141
12.0
290
     0
  0
SCALE
  5
2B7
102
{ACAD_REACTORS
330
2A2
102
}
330
2A2
100
AcDbScale
 70
     0
300
1/16" = 1'-0"
140
0.0625
141
12.0
290
     0
  0
SCALE
  5
2B8
102
{ACAD_REACTORS
330
2A2
102
}
330
2A2
100
AcDbScale
 70
     0
300
3/32" = 1'-0"
140
0.09375
141
12.0
290
     0
  0
SCALE
  5
2B9
102
{ACAD_REACTORS
330
2A2
102
}
330
2A2
100
AcDbScale
 70
     0
300
1/8" = 1'-0"
140
0.125
141
12.0
290
     0
  0
SCALE
  5
2BA
102
{ACAD_REACTORS
330
2A2
102
}
330
2A2
100
AcDbScale
 70
     0
300
3/16" = 1'-0"
140
0.1875
141
12.0
290
     0
  0
SCALE
  5
2BB
102
{ACAD_REACTORS
330
2A2
102
}
330
2A2
100
AcDbScale
 70
     0
300
1/4" = 1'-0"
140
0.25
141
12.0
290
     0
  0
SCALE
  5
2BC
102
{ACAD_REACTORS
330
2A2
102
}
330
2A2
100
AcDbScale
 70
     0
300
3/8" = 1'-0"
140
0.375
141
12.0
290
     0
  0
SCALE
  5
2BD
102
{ACAD_REACTORS
330
2A2
102
}
330
2A2
100
AcDbScale
 70
     0
300
1/2" = 1'-0"
140
0.5
141
12.0
290
     0
  0
SCALE
  5
2BE
102
{ACAD_REACTORS
330
2A2
102
}
330
2A2
100
AcDbScale
 70
     0
300
3/4" = 1'-0"
140
0.75
141
12.0
290
     0
  0
SCALE
  5
2BF
102
{ACAD_REACTORS
330
2A2
102
}
330
2A2
100
AcDbScale
 70
     0
300
1" = 1'-0"
140
1.0
141
12.0
290
     0
  0
SCALE
  5
2C0
102
{ACAD_REACTORS
330
2A2
102
}
330
2A2
100
AcDbScale
 70
     0
300
1-1/2" = 1'-0"
140
1.5
141
12.0
290
     0
  0
SCALE
  5
2C1
102
{ACAD_REACTORS
330
2A2
102
}
330
2A2
100
AcDbScale
 70
     0
300
3" = 1'-0"
140
3.0
141
12.0
290
     0
  0
SCALE
  5
2C2
102
{ACAD_REACTORS
330
2A2
102
}
330
2A2
100
AcDbScale
 70
     0
300
6" = 1'-0"
140
6.0
141
12.0
290
     0
  0
SCALE
  5
2C3
102
{ACAD_REACTORS
330
2A2
102
}
330
2A2
100
AcDbScale
 70
     0
300
1'-0" = 1'-0"
140
12.0
141
12.0
290
     0
  0
TABLESTYLE
  5
11B
102
{ACAD_XDICTIONARY
360
2E4
102
}
102
{ACAD_REACTORS
330
11A
102
}
330
11A
100
AcDbTableStyle
  3
Standard
 70
     0
 71
     0
 40
1.5
 41
1.5
280
     0
281
     0
  7
STANDARD
140
4.5
170
     2
 62
     0
 63
     7
283
     0
274
    -2
284
     1
 64
     0
275
    -2
285
     1
 65
     0
276
    -2
286
     1
 66
     0
277
    -2
287
     1
 67
     0
278
    -2
288
     1
 68
     0
279
    -2
289
     1
 69
     0
  7
STANDARD
140
6.0
170
     5
 62
     0
 63
     7
283
     0
274
    -2
284
     1
 64
     0
275
    -2
285
     1
 65
     0
276
    -2
286
     1
 66
     0
277
    -2
287
     1
 67
     0
278
    -2
288
     1
 68
     0
279
    -2
289
     1
 69
     0
  7
STANDARD
140
4.5
170
     5
 62
     0
 63
     7
283
     0
274
    -2
284
     1
 64
     0
275
    -2
285
     1
 65
     0
276
    -2
286
     1
 66
     0
277
    -2
287
     1
 67
     0
278
    -2
288
     1
 68
     0
279
    -2
289
     1
 69
     0
  0
VISUALSTYLE
  5
274
102
{ACAD_REACTORS
330
26E
102
}
330
26E
100
AcDbVisualStyle
  2
2dWireframe
 70
     4
 71
     0
 72
     2
 73
     0
 90
        0
 40
-0.6
 41
-30.0
 62
     5
 63
     7
 74
     1
 91
        4
 64
     7
 65
   257
 75
     1
175
     1
 42
1.0
 92
        0
 66
   257
 43
1.0
 76
     1
 77
     6
 78
     2
 67
     7
 79
     5
170
     0
171
     0
290
     0
174
     0
 93
        1
 44
0.0
173
     0
291
     0
 45
0.0
1001
ACAD
1000
AcDbSavedByObjectVersion
1070
     0
1000
AcDbSavedByObjectVersion
1070
     0
  0
VISUALSTYLE
  5
276
102
{ACAD_REACTORS
330
26E
102
}
330
26E
100
AcDbVisualStyle
  2
3D Hidden
 70
     6
 71
     1
 72
     2
 73
     2
 90
        0
 40
-0.6
 41
-30.0
 62
     5
 63
     7
 74
     2
 91
        2
 64
     7
 65
   257
 75
     2
175
     1
 42
40.0
 92
        0
 66
   257
 43
1.0
 76
     1
 77
     6
 78
     2
 67
     7
 79
     3
170
     0
171
     0
290
     0
174
     0
 93
        1
 44
0.0
173
     0
291
     0
 45
0.0
1001
ACAD
1000
AcDbSavedByObjectVersion
1070
     0
1000
AcDbSavedByObjectVersion
1070
     0
  0
VISUALSTYLE
  5
275
102
{ACAD_REACTORS
330
26E
102
}
330
26E
100
AcDbVisualStyle
  2
3dWireframe
 70
     5
 71
     0
 72
     2
 73
     0
 90
        0
 40
-0.6
 41
-30.0
 62
     5
 63
     7
 74
     1
 91
        4
 64
     7
 65
   257
 75
     1
175
     1
 42
1.0
 92
        0
 66
   257
 43
1.0
 76
     1
 77
     6
 78
     2
 67
     7
 79
     5
170
     0
171
     0
290
     0
174
     0
 93
        1
 44
0.0
173
     0
291
     0
 45
0.0
1001
ACAD
1000
AcDbSavedByObjectVersion
1070
     0
1000
AcDbSavedByObjectVersion
1070
     0
  0
VISUALSTYLE
  5
273
102
{ACAD_REACTORS
330
26E
102
}
330
26E
100
AcDbVisualStyle
  2
Basic
 70
     7
 71
     1
 72
     0
 73
     1
 90
        0
 40
-0.6
 41
-30.0
 62
     5
 63
     7
 74
     0
 91
        4
 64
     7
 65
   257
 75
     1
175
     1
 42
1.0
 92
        8
 66
     7
 43
1.0
 76
     1
 77
     6
 78
     2
 67
     7
 79
     5
170
     0
171
     0
290
     0
174
     0
 93
        1
 44
0.0
173
     0
291
     1
 45
0.0
1001
ACAD
1000
AcDbSavedByObjectVersion
1070
     0
1000
AcDbSavedByObjectVersion
1070
     0
  0
VISUALSTYLE
  5
27A
102
{ACAD_REACTORS
330
26E
102
}
330
26E
100
AcDbVisualStyle
  2
Brighten
 70
    12
 71
     2
 72
     2
 73
     0
 90
        0
 40
-0.6
 41
-30.0
 62
     5
 63
     7
 74
     1
 91
        4
 64
     7
 65
   257
 75
     1
175
     1
 42
1.0
 92
        8
 66
     7
 43
1.0
 76
     1
 77
     6
 78
     2
 67
     7
 79
     5
170
     0
171
     0
290
     0
174
     0
 93
        1
 44
50.0
173
     0
291
     1
 45
0.0
1001
ACAD
1000
AcDbSavedByObjectVersion
1070
     0
1000
AcDbSavedByObjectVersion
1070
     0
  0
VISUALSTYLE
  5
27E
102
{ACAD_REACTORS
330
26E
102
}
330
26E
100
AcDbVisualStyle
  2
ColorChange
 70
    16
 71
     2
 72
     2
 73
     3
 90
        0
 40
-0.6
 41
-30.0
 62
     5
 63
     8
 74
     1
 91
        4
 64
     7
 65
   257
 75
     1
175
     1
 42
1.0
 92
        8
 66
     8
 43
1.0
 76
     1
 77
     6
 78
     2
 67
     7
 79
     5
170
     0
171
     0
290
     0
174
     0
 93
        1
 44
0.0
173
     0
291
     1
 45
0.0
1001
ACAD
1000
AcDbSavedByObjectVersion
1070
     0
1000
AcDbSavedByObjectVersion
1070
     0
  0
VISUALSTYLE
  5
277
102
{ACAD_REACTORS
330
26E
102
}
330
26E
100
AcDbVisualStyle
  2
Conceptual
 70
     9
 71
     3
 72
     2
 73
     0
 90
        0
 40
-0.6
 41
-30.0
 62
     5
 63
     7
 74
     2
 91
        2
 64
     7
 65
   257
 75
     1
175
     1
 42
40.0
 92
        8
 66
     7
 43
1.0
 76
     1
 77
     6
 78
     2
 67
     7
 79
     3
170
     0
171
     0
290
     0
174
     0
 93
        1
 44
0.0
173
     0
291
     0
 45
0.0
1001
ACAD
1000
AcDbSavedByObjectVersion
1070
     0
1000
AcDbSavedByObjectVersion
1070
     0
  0
VISUALSTYLE
  5
279
102
{ACAD_REACTORS
330
26E
102
}
330
26E
100
AcDbVisualStyle
  2
Dim
 70
    11
 71
     2
 72
     2
 73
     0
 90
        0
 40
-0.6
 41
-30.0
 62
     5
 63
     7
 74
     1
 91
        4
 64
     7
 65
   257
 75
     1
175
     1
 42
1.0
 92
        8
 66
     7
 43
1.0
 76
     1
 77
     6
 78
     2
 67
     7
 79
     5
170
     0
171
     0
290
     0
174
     0
 93
        1
 44
-50.0
173
     0
291
     1
 45
0.0
1001
ACAD
1000
AcDbSavedByObjectVersion
1070
     0
1000
AcDbSavedByObjectVersion
1070
     0
  0
VISUALSTYLE
  5
27D
102
{ACAD_REACTORS
330
26E
102
}
330
26E
100
AcDbVisualStyle
  2
Facepattern
 70
    15
 71
     2
 72
     2
 73
     0
 90
        0
 40
-0.6
 41
-30.0
 62
     5
 63
     7
 74
     1
 91
        4
 64
     7
 65
   257
 75
     1
175
     1
 42
1.0
 92
        8
 66
     7
 43
1.0
 76
     1
 77
     6
 78
     2
 67
     7
 79
     5
170
     0
171
     0
290
     0
174
     0
 93
        1
 44
0.0
173
     0
291
     1
 45
0.0
1001
ACAD
1000
AcDbSavedByObjectVersion
1070
     0
1000
AcDbSavedByObjectVersion
1070
     0
  0
VISUALSTYLE
  5
26F
102
{ACAD_REACTORS
330
26E
102
}
330
26E
100
AcDbVisualStyle
  2
Flat
 70
     0
 71
     2
 72
     1
 73
     1
 90
        2
 40
-0.6
 41
30.0
 62
     5
 63
     7
 74
     0
 91
        4
 64
     7
 65
   257
 75
     1
175
     1
 42
1.0
 92
        8
 66
     7
 43
1.0
 76
     1
 77
     6
 78
     2
 67
     7
 79
     5
170
     0
171
     0
290
     0
174
     0
 93
       13
 44
0.0
173
     0
291
     1
 45
0.0
1001
ACAD
1000
AcDbSavedByObjectVersion
1070
     0
1000
AcDbSavedByObjectVersion
1070
     0
  0
VISUALSTYLE
  5
270
102
{ACAD_REACTORS
330
26E
102
}
330
26E
100
AcDbVisualStyle
  2
FlatWithEdges
 70
     1
 71
     2
 72
     1
 73
     1
 90
        2
 40
-0.6
 41
30.0
 62
     5
 63
     7
 74
     1
 91
        4
 64
     7
 65
   257
 75
     1
175
     1
 42
1.0
 92
        0
 66
   257
 43
1.0
 76
     1
 77
     6
 78
     2
 67
     7
 79
     5
170
     0
171
     0
290
     0
174
     0
 93
       13
 44
0.0
173
     0
291
     1
 45
0.0
1001
ACAD
1000
AcDbSavedByObjectVersion
1070
     0
1000
AcDbSavedByObjectVersion
1070
     0
  0
VISUALSTYLE
  5
271
102
{ACAD_REACTORS
330
26E
102
}
330
26E
100
AcDbVisualStyle
  2
Gouraud
 70
     2
 71
     2
 72
     2
 73
     1
 90
        2
 40
-0.6
 41
30.0
 62
     5
 63
     7
 74
     0
 91
        4
 64
     7
 65
   257
 75
     1
175
     1
 42
1.0
 92
        0
 66
     7
 43
1.0
 76
     1
 77
     6
 78
     2
 67
     7
 79
     5
170
     0
171
     0
290
     0
174
     0
 93
       13
 44
0.0
173
     0
291
     1
 45
0.0
1001
ACAD
1000
AcDbSavedByObjectVersion
1070
     0
1000
AcDbSavedByObjectVersion
1070
     0
  0
VISUALSTYLE
  5
272
102
{ACAD_REACTORS
330
26E
102
}
330
26E
100
AcDbVisualStyle
  2
GouraudWithEdges
 70
     3
 71
     2
 72
     2
 73
     1
 90
        2
 40
-0.6
 41
30.0
 62
     5
 63
     7
 74
     1
 91
        4
 64
     7
 65
   257
 75
     1
175
     1
 42
1.0
 92
        0
 66
   257
 43
1.0
 76
     1
 77
     6
 78
     2
 67
     7
 79
     5
170
     0
171
     0
290
     0
174
     0
 93
       13
 44
0.0
173
     0
291
     1
 45
0.0
1001
ACAD
1000
AcDbSavedByObjectVersion
1070
     0
1000
AcDbSavedByObjectVersion
1070
     0
  0
VISUALSTYLE
  5
27C
102
{ACAD_REACTORS
330
26E
102
}
330
26E
100
AcDbVisualStyle
  2
Linepattern
 70
    14
 71
     2
 72
     2
 73
     0
 90
        0
 40
-0.6
 41
-30.0
 62
     5
 63
     7
 74
     1
 91
        4
 64
     7
 65
   257
 75
     7
175
     7
 42
1.0
 92
        8
 66
     7
 43
1.0
 76
     1
 77
     6
 78
     2
 67
     7
 79
     5
170
     0
171
     0
290
     0
174
     0
 93
        1
 44
0.0
173
     0
291
     1
 45
0.0
1001
ACAD
1000
AcDbSavedByObjectVersion
1070
     0
1000
AcDbSavedByObjectVersion
1070
     0
  0
VISUALSTYLE
  5
278
102
{ACAD_REACTORS
330
26E
102
}
330
26E
100
AcDbVisualStyle
  2
Realistic
 70
     8
 71
     2
 72
     2
 73
     0
 90
        0
 40
-0.6
 41
-30.0
 62
     5
 63
     7
 74
     1
 91
        0
 64
     7
 65
   257
 75
     1
175
     1
 42
1.0
 92
        8
 66
     8
 43
1.0
 76
     1
 77
     6
 78
     2
 67
     7
 79
     5
170
     0
171
     0
290
     0
174
     0
 93
       13
 44
0.0
173
     0
291
     0
 45
0.0
1001
ACAD
1000
AcDbSavedByObjectVersion
1070
     0
1000
AcDbSavedByObjectVersion
1070
     0
  0
VISUALSTYLE
  5
27B
102
{ACAD_REACTORS
330
26E
102
}
330
26E
100
AcDbVisualStyle
  2
Thicken
 70
    13
 71
     2
 72
     2
 73
     0
 90
        0
 40
-0.6
 41
-30.0
 62
     5
 63
     7
 74
     1
 91
        4
 64
     7
 65
   257
 75
     1
175
     1
 42
1.0
 92
       12
 66
     7
 43
1.0
 76
     1
 77
     6
 78
     2
 67
     7
 79
     5
170
     0
171
     0
290
     0
174
     0
 93
        1
 44
0.0
173
     0
291
     1
 45
0.0
1001
ACAD
1000
AcDbSavedByObjectVersion
1070
     0
1000
AcDbSavedByObjectVersion
1070
     0
  0
DICTIONARYVAR
  5
2E9
102
{ACAD_REACTORS
330
94
102
}
330
94
100
DictionaryVariables
280
     0
  1
1:1
  0
DICTIONARYVAR
  5
2E7
102
{ACAD_REACTORS
330
94
102
}
330
94
100
DictionaryVariables
280
     0
  1
STANDARD
  0
DICTIONARYVAR
  5
138
102
{ACAD_REACTORS
330
94
102
}
330
94
100
DictionaryVariables
280
     0
  1
STANDARD
  0
DICTIONARYVAR
  5
96
102
{ACAD_REACTORS
330
94
102
}
330
94
100
DictionaryVariables
280
     0
  1
2
  0
DICTIONARYVAR
  5
95
102
{ACAD_REACTORS
330
94
102
}
330
94
100
DictionaryVariables
280
     0
  1
0
  0
DICTIONARYVAR
  5
346
102
{ACAD_REACTORS
330
94
102
}
330
94
100
DictionaryVariables
280
     0
  1
1
  0
DICTIONARYVAR
  5
347
102
{ACAD_REACTORS
330
94
102
}
330
94
100
DictionaryVariables
280
     0
  1
15
  0
DICTIONARYVAR
  5
2EA
102
{ACAD_REACTORS
330
94
102
}
330
94
100
DictionaryVariables
280
     0
  1
0
  0
DICTIONARYVAR
  5
2E8
102
{ACAD_REACTORS
330
94
102
}
330
94
100
DictionaryVariables
280
     0
  1
0
  0
DICTIONARYVAR
  5
AEB
102
{ACAD_REACTORS
330
94
102
}
330
94
100
DictionaryVariables
280
     0
  1
127
  0
DICTIONARY
  5
36B
102
{ACAD_REACTORS
330
5B
102
}
330
5B
100
AcDbDictionary
281
     1
  0
DICTIONARY
  5
61
102
{ACAD_REACTORS
330
5B
102
}
330
5B
100
AcDbDictionary
281
     1
  0
XRECORD
  5
123
102
{ACAD_REACTORS
330
5B
102
}
330
5B
100
AcDbXrecord
280
     1
 90
-1023410169
  0
DICTIONARY
  5
B73
330
1E
100
AcDbDictionary
280
     1
281
     1
  3
ACAD_XREC_ROUNDTRIP
360
B74
  0
DICTIONARY
  5
B77
330
26
100
AcDbDictionary
280
     1
281
     1
  3
ACAD_XREC_ROUNDTRIP
360
B78
  0
DICTIONARY
  5
B75
330
22
100
AcDbDictionary
280
     1
281
     1
  3
ACAD_XREC_ROUNDTRIP
360
B76
  0
DICTIONARY
  5
B01
330
26C
100
AcDbDictionary
280
     1
281
     1
  3
ACAD_XREC_ROUNDTRIP
360
B02
  0
DICTIONARY
  5
AFF
330
26B
100
AcDbDictionary
280
     1
281
     1
  3
ACAD_XREC_ROUNDTRIP
360
B00
  0
DICTIONARY
  5
B03
330
26D
100
AcDbDictionary
280
     1
281
     1
  3
ACAD_XREC_ROUNDTRIP
360
B04
  0
DICTIONARY
  5
2E4
330
11B
100
AcDbDictionary
280
     1
281
     1
  3
ACAD_ROUNDTRIP_2008_TABLESTYLE_CELLSTYLEMAP
360
B6B
  3
ACAD_XREC_ROUNDTRIP
360
B79
  0
XRECORD
  5
B74
102
{ACAD_REACTORS
330
B73
102
}
330
B73
100
AcDbXrecord
280
     1
102
SHADEPLOT
 70
     0
102
SHADEPLOTRESLEVEL
 70
     2
102
SHADEPLOTCUSTOMDPI
 70
   300
  0
XRECORD
  5
B78
102
{ACAD_REACTORS
330
B77
102
}
330
B77
100
AcDbXrecord
280
     1
102
SHADEPLOT
 70
     0
102
SHADEPLOTRESLEVEL
 70
     2
102
SHADEPLOTCUSTOMDPI
 70
   300
  0
XRECORD
  5
B76
102
{ACAD_REACTORS
330
B75
102
}
330
B75
100
AcDbXrecord
280
     1
102
SHADEPLOT
 70
     0
102
SHADEPLOTRESLEVEL
 70
     2
102
SHADEPLOTCUSTOMDPI
 70
   300
  0
XRECORD
  5
B02
102
{ACAD_REACTORS
330
B01
102
}
330
B01
100
AcDbXrecord
280
     1
102
MATERIAL
148
0.0
149
0.0
149
0.0
 93
        0
 94
      127
282
     0
 72
     1
 77
     1
171
     1
175
     1
179
     1
273
     0
  0
XRECORD
  5
B00
102
{ACAD_REACTORS
330
AFF
102
}
330
AFF
100
AcDbXrecord
280
     1
102
MATERIAL
148
0.0
149
0.0
149
0.0
 93
        0
 94
      127
282
     0
 72
     1
 77
     1
171
     1
175
     1
179
     1
273
     0
  0
XRECORD
  5
B04
102
{ACAD_REACTORS
330
B03
102
}
330
B03
100
AcDbXrecord
280
     1
102
MATERIAL
148
0.0
149
0.0
149
0.0
 93
        0
 94
      127
282
     0
 72
     1
 77
     1
171
     1
175
     1
179
     1
273
     0
  0
CELLSTYLEMAP
  5
B6B
102
{ACAD_REACTORS
330
2E4
102
}
330
2E4
100
AcDbCellStyleMap
 90
        3
300
CELLSTYLE
  1
TABLEFORMAT_BEGIN
 90
        5
170
     1
 91
        0
 92
    32768
 62
   257
 93
        1
300
CONTENTFORMAT
  1
CONTENTFORMAT_BEGIN
 90
        0
 91
        0
 92
      512
 93
        0
300

 40
0.0
140
1.0
 94
        5
 62
     0
340
11
144
6.0
309
CONTENTFORMAT_END
171
     1
301
MARGIN
  1
CELLMARGIN_BEGIN
 40
1.5
 40
1.5
 40
1.5
 40
1.5
 40
0.18
 40
0.18
309
CELLMARGIN_END
 94
        6
 95
        1
302
GRIDFORMAT
  1
GRIDFORMAT_BEGIN
 90
        0
 91
        1
 62
     0
 92
       -2
340
0
 93
        0
 40
0.045
309
GRIDFORMAT_END
 95
        2
302
GRIDFORMAT
  1
GRIDFORMAT_BEGIN
 90
        0
 91
        1
 62
     0
 92
       -2
340
0
 93
        0
 40
0.045
309
GRIDFORMAT_END
 95
        4
302
GRIDFORMAT
  1
GRIDFORMAT_BEGIN
 90
        0
 91
        1
 62
     0
 92
       -2
340
0
 93
        0
 40
0.045
309
GRIDFORMAT_END
 95
        8
302
GRIDFORMAT
  1
GRIDFORMAT_BEGIN
 90
        0
 91
        1
 62
     0
 92
       -2
340
0
 93
        0
 40
0.045
309
GRIDFORMAT_END
 95
       16
302
GRIDFORMAT
  1
GRIDFORMAT_BEGIN
 90
        0
 91
        1
 62
     0
 92
       -2
340
0
 93
        0
 40
0.045
309
GRIDFORMAT_END
 95
       32
302
GRIDFORMAT
  1
GRIDFORMAT_BEGIN
 90
        0
 91
        1
 62
     0
 92
       -2
340
0
 93
        0
 40
0.045
309
GRIDFORMAT_END
309
TABLEFORMAT_END
  1
CELLSTYLE_BEGIN
 90
        1
 91
        1
300
_TITLE
309
CELLSTYLE_END
300
CELLSTYLE
  1
TABLEFORMAT_BEGIN
 90
        5
170
     1
 91
        0
 92
        0
 62
   257
 93
        1
300
CONTENTFORMAT
  1
CONTENTFORMAT_BEGIN
 90
        0
 91
        0
 92
      512
 93
        0
300

 40
0.0
140
1.0
 94
        5
 62
     0
340
11
144
4.5
309
CONTENTFORMAT_END
171
     1
301
MARGIN
  1
CELLMARGIN_BEGIN
 40
1.5
 40
1.5
 40
1.5
 40
1.5
 40
0.18
 40
0.18
309
CELLMARGIN_END
 94
        6
 95
        1
302
GRIDFORMAT
  1
GRIDFORMAT_BEGIN
 90
        0
 91
        1
 62
     0
 92
       -2
340
0
 93
        0
 40
0.045
309
GRIDFORMAT_END
 95
        2
302
GRIDFORMAT
  1
GRIDFORMAT_BEGIN
 90
        0
 91
        1
 62
     0
 92
       -2
340
0
 93
        0
 40
0.045
309
GRIDFORMAT_END
 95
        4
302
GRIDFORMAT
  1
GRIDFORMAT_BEGIN
 90
        0
 91
        1
 62
     0
 92
       -2
340
0
 93
        0
 40
0.045
309
GRIDFORMAT_END
 95
        8
302
GRIDFORMAT
  1
GRIDFORMAT_BEGIN
 90
        0
 91
        1
 62
     0
 92
       -2
340
0
 93
        0
 40
0.045
309
GRIDFORMAT_END
 95
       16
302
GRIDFORMAT
  1
GRIDFORMAT_BEGIN
 90
        0
 91
        1
 62
     0
 92
       -2
340
0
 93
        0
 40
0.045
309
GRIDFORMAT_END
 95
       32
302
GRIDFORMAT
  1
GRIDFORMAT_BEGIN
 90
        0
 91
        1
 62
     0
 92
       -2
340
0
 93
        0
 40
0.045
309
GRIDFORMAT_END
309
TABLEFORMAT_END
  1
CELLSTYLE_BEGIN
 90
        2
 91
        1
300
_HEADER
309
CELLSTYLE_END
300
CELLSTYLE
  1
TABLEFORMAT_BEGIN
 90
        5
170
     1
 91
        0
 92
        0
 62
   257
 93
        1
300
CONTENTFORMAT
  1
CONTENTFORMAT_BEGIN
 90
        0
 91
        0
 92
      512
 93
        0
300

 40
0.0
140
1.0
 94
        2
 62
     0
340
11
144
4.5
309
CONTENTFORMAT_END
171
     1
301
MARGIN
  1
CELLMARGIN_BEGIN
 40
1.5
 40
1.5
 40
1.5
 40
1.5
 40
0.18
 40
0.18
309
CELLMARGIN_END
 94
        6
 95
        1
302
GRIDFORMAT
  1
GRIDFORMAT_BEGIN
 90
        0
 91
        1
 62
     0
 92
       -2
340
0
 93
        0
 40
0.045
309
GRIDFORMAT_END
 95
        2
302
GRIDFORMAT
  1
GRIDFORMAT_BEGIN
 90
        0
 91
        1
 62
     0
 92
       -2
340
0
 93
        0
 40
0.045
309
GRIDFORMAT_END
 95
        4
302
GRIDFORMAT
  1
GRIDFORMAT_BEGIN
 90
        0
 91
        1
 62
     0
 92
       -2
340
0
 93
        0
 40
0.045
309
GRIDFORMAT_END
 95
        8
302
GRIDFORMAT
  1
GRIDFORMAT_BEGIN
 90
        0
 91
        1
 62
     0
 92
       -2
340
0
 93
        0
 40
0.045
309
GRIDFORMAT_END
 95
       16
302
GRIDFORMAT
  1
GRIDFORMAT_BEGIN
 90
        0
 91
        1
 62
     0
 92
       -2
340
0
 93
        0
 40
0.045
309
GRIDFORMAT_END
 95
       32
302
GRIDFORMAT
  1
GRIDFORMAT_BEGIN
 90
        0
 91
        1
 62
     0
 92
       -2
340
0
 93
        0
 40
0.045
309
GRIDFORMAT_END
309
TABLEFORMAT_END
  1
CELLSTYLE_BEGIN
 90
        3
 91
        2
300
_DATA
309
CELLSTYLE_END
  0
XRECORD
  5
B79
102
{ACAD_REACTORS
330
2E4
102
}
330
2E4
100
AcDbXrecord
280
     1
102
ACAD_ROUNDTRIP_PRE2007_TABLESTYLE
 90
      512
 91
        0
  1

 92
      512
 93
        0
  2

 94
      512
 95
        0
  3

  0
ENDSEC
  0
EOF
