  0
SECTION
  2
HEADER
  9
$ACADVER
  1
AC1015
  9
$ACADMAINTVER
 70
    20
  9
$DWGCODEPAGE
  3
ANSI_1252
  9
$INSBASE
 10
0.0
 20
0.0
 30
0.0
  9
$EXTMIN
 10
3323.628242544926
 20
-0.0093438758203774
 30
-0.0000000000112498
  9
$EXTMAX
 10
4461.959673330351
 20
534.8647550521661
 30
0.0000000000002956
  9
$LIMMIN
 10
0.0
 20
0.0
  9
$LIMMAX
 10
420.0
 20
297.0
  9
$ORTHOMODE
 70
     1
  9
$REGENMODE
 70
     1
  9
$FILLMODE
 70
     1
  9
$QTEXTMODE
 70
     0
  9
$MIRRTEXT
 70
     1
  9
$LTSCALE
 40
1.0
  9
$ATTMODE
 70
     1
  9
$TEXTSIZE
 40
2.5
  9
$TRACEWID
 40
1.0
  9
$TEXTSTYLE
  7
STANDARD
  9
$CLAYER
  8
0
  9
$CELTYPE
  6
ByLayer
  9
$CECOLOR
 62
   256
  9
$CELTSCALE
 40
1.0
  9
$DISPSILH
 70
     0
  9
$DIMSCALE
 40
1.0
  9
$DIMASZ
 40
3.5
  9
$DIMEXO
 40
1.0
  9
$DIMDLI
 40
10.0
  9
$DIMRND
 40
0.0
  9
$DIMDLE
 40
0.0
  9
$DIMEXE
 40
1.0
  9
$DIMTP
 40
0.1
  9
$DIMTM
 40
0.1
  9
$DIMTXT
 40
3.5
  9
$DIMCEN
 40
0.0
  9
$DIMTSZ
 40
0.0
  9
$DIMTOL
 70
     0
  9
$DIMLIM
 70
     0
  9
$DIMTIH
 70
     0
  9
$DIMTOH
 70
     0
  9
$DIMSE1
 70
     0
  9
$DIMSE2
 70
     0
  9
$DIMTAD
 70
     1
  9
$DIMZIN
 70
     8
  9
$DIMBLK
  1

  9
$DIMASO
 70
     1
  9
$DIMSHO
 70
     1
  9
$DIMPOST
  1

  9
$DIMAPOST
  1
"
  9
$DIMALT
 70
     0
  9
$DIMALTD
 70
     2
  9
$DIMALTF
 40
0.0393701
  9
$DIMLFAC
 40
1.0
  9
$DIMTOFL
 70
     1
  9
$DIMTVP
 40
0.0
  9
$DIMTIX
 70
     0
  9
$DIMSOXD
 70
     0
  9
$DIMSAH
 70
     0
  9
$DIMBLK1
  1

  9
$DIMBLK2
  1

  9
$DIMSTYLE
  2
AM_ISO
  9
$DIMCLRD
 70
   256
  9
$DIMCLRE
 70
   256
  9
$DIMCLRT
 70
   140
  9
$DIMTFAC
 40
0.71
  9
$DIMGAP
 40
1.5
  9
$DIMJUST
 70
     0
  9
$DIMSD1
 70
     0
  9
$DIMSD2
 70
     0
  9
$DIMTOLJ
 70
     0
  9
$DIMTZIN
 70
     8
  9
$DIMALTZ
 70
     0
  9
$DIMALTTZ
 70
     0
  9
$DIMUPT
 70
     0
  9
$DIMDEC
 70
     0
  9
$DIMTDEC
 70
     3
  9
$DIMALTU
 70
     2
  9
$DIMALTTD
 70
     4
  9
$DIMTXSTY
  7
STANDARD
  9
$DIMAUNIT
 70
     0
  9
$DIMADEC
 70
     0
  9
$DIMALTRND
 40
0.0
  9
$DIMAZIN
 70
     2
  9
$DIMDSEP
 70
    46
  9
$DIMATFIT
 70
     3
  9
$DIMFRAC
 70
     0
  9
$DIMLDRBLK
  1

  9
$DIMLUNIT
 70
     2
  9
$DIMLWD
 70
    -1
  9
$DIMLWE
 70
    -1
  9
$DIMTMOVE
 70
     0
  9
$LUNITS
 70
     2
  9
$LUPREC
 70
     2
  9
$SKETCHINC
 40
1.0
  9
$FILLETRAD
 40
0.0
  9
$AUNITS
 70
     0
  9
$AUPREC
 70
     0
  9
$MENU
  1
.
  9
$ELEVATION
 40
0.0
  9
$PELEVATION
 40
0.0
  9
$THICKNESS
 40
0.0
  9
$LIMCHECK
 70
     0
  9
$CHAMFERA
 40
2.5
  9
$CHAMFERB
 40
2.5
  9
$CHAMFERC
 40
20.0
  9
$CHAMFERD
 40
0.0
  9
$SKPOLY
 70
     0
  9
$TDCREATE
 40
2455097.591265521
  9
$TDUCREATE
 40
2455097.507932188
  9
$TDUPDATE
 40
2455097.707104271
  9
$TDUUPDATE
 40
2455097.623770937
  9
$TDINDWG
 40
0.0957310648
  9
$TDUSRTIMER
 40
0.0957310648
  9
$USRTIMER
 70
     1
  9
$ANGBASE
 50
0.0
  9
$ANGDIR
 70
     0
  9
$PDMODE
 70
     0
  9
$PDSIZE
 40
0.0
  9
$PLINEWID
 40
0.0
  9
$SPLFRAME
 70
     0
  9
$SPLINETYPE
 70
     6
  9
$SPLINESEGS
 70
     8
  9
$HANDSEED
  5
CF5
  9
$SURFTAB1
 70
     6
  9
$SURFTAB2
 70
     6
  9
$SURFTYPE
 70
     6
  9
$SURFU
 70
     6
  9
$SURFV
 70
     6
  9
$UCSBASE
  2

  9
$UCSNAME
  2

  9
$UCSORG
 10
0.0
 20
0.0
 30
0.0
  9
$UCSXDIR
 10
1.0
 20
0.0
 30
0.0
  9
$UCSYDIR
 10
0.0
 20
1.0
 30
0.0
  9
$UCSORTHOREF
  2

  9
$UCSORTHOVIEW
 70
     0
  9
$UCSORGTOP
 10
0.0
 20
0.0
 30
0.0
  9
$UCSORGBOTTOM
 10
0.0
 20
0.0
 30
0.0
  9
$UCSORGLEFT
 10
0.0
 20
0.0
 30
0.0
  9
$UCSORGRIGHT
 10
0.0
 20
0.0
 30
0.0
  9
$UCSORGFRONT
 10
0.0
 20
0.0
 30
0.0
  9
$UCSORGBACK
 10
0.0
 20
0.0
 30
0.0
  9
$PUCSBASE
  2

  9
$PUCSNAME
  2

  9
$PUCSORG
 10
0.0
 20
0.0
 30
0.0
  9
$PUCSXDIR
 10
1.0
 20
0.0
 30
0.0
  9
$PUCSYDIR
 10
0.0
 20
1.0
 30
0.0
  9
$PUCSORTHOREF
  2

  9
$PUCSORTHOVIEW
 70
     0
  9
$PUCSORGTOP
 10
0.0
 20
0.0
 30
0.0
  9
$PUCSORGBOTTOM
 10
0.0
 20
0.0
 30
0.0
  9
$PUCSORGLEFT
 10
0.0
 20
0.0
 30
0.0
  9
$PUCSORGRIGHT
 10
0.0
 20
0.0
 30
0.0
  9
$PUCSORGFRONT
 10
0.0
 20
0.0
 30
0.0
  9
$PUCSORGBACK
 10
0.0
 20
0.0
 30
0.0
  9
$USERI1
 70
     0
  9
$USERI2
 70
     0
  9
$USERI3
 70
     0
  9
$USERI4
 70
     0
  9
$USERI5
 70
     0
  9
$USERR1
 40
0.0
  9
$USERR2
 40
0.0
  9
$USERR3
 40
0.0
  9
$USERR4
 40
0.0
  9
$USERR5
 40
0.0
  9
$WORLDVIEW
 70
     1
  9
$SHADEDGE
 70
     3
  9
$SHADEDIF
 70
    70
  9
$TILEMODE
 70
     1
  9
$MAXACTVP
 70
    64
  9
$PINSBASE
 10
0.0
 20
0.0
 30
0.0
  9
$PLIMCHECK
 70
     0
  9
$PEXTMIN
 10
1.000000000000000E+20
 20
1.000000000000000E+20
 30
1.000000000000000E+20
  9
$PEXTMAX
 10
-1.000000000000000E+20
 20
-1.000000000000000E+20
 30
-1.000000000000000E+20
  9
$PLIMMIN
 10
0.0
 20
0.0
  9
$PLIMMAX
 10
420.0
 20
297.0
  9
$UNITMODE
 70
     0
  9
$VISRETAIN
 70
     1
  9
$PLINEGEN
 70
     0
  9
$PSLTSCALE
 70
     1
  9
$TREEDEPTH
 70
  3020
  9
$CMLSTYLE
  2
Standard
  9
$CMLJUST
 70
     0
  9
$CMLSCALE
 40
20.0
  9
$PROXYGRAPHICS
 70
     1
  9
$MEASUREMENT
 70
     1
  9
$CELWEIGHT
370
    -1
  9
$ENDCAPS
280
     0
  9
$JOINSTYLE
280
     0
  9
$LWDISPLAY
290
     0
  9
$INSUNITS
 70
     4
  9
$HYPERLINKBASE
  1

  9
$STYLESHEET
  1

  9
$XEDIT
290
     1
  9
$CEPSNTYPE
380
     0
  9
$PSTYLEMODE
290
     1
  9
$FINGERPRINTGUID
  2
{190CBD52-C333-4498-8178-155A2A96C6AD}
  9
$VERSIONGUID
  2
{CA1399CC-C376-468E-B23C-12778BF9C445}
  9
$EXTNAMES
290
     1
  9
$PSVPSCALE
 40
0.0
  9
$OLESTARTUP
290
     0
  0
ENDSEC
  0
SECTION
  2
CLASSES
  0
CLASS
  1
ACDBDICTIONARYWDFLT
  2
AcDbDictionaryWithDefault
  3
ObjectDBX Classes
 90
        0
280
     0
281
     0
  0
CLASS
  1
ACDBPLACEHOLDER
  2
AcDbPlaceHolder
  3
ObjectDBX Classes
 90
        0
280
     0
281
     0
  0
CLASS
  1
LAYOUT
  2
AcDbLayout
  3
ObjectDBX Classes
 90
        0
280
     0
281
     0
  0
CLASS
  1
ACME_DOCUMENT
  2
AcMeDbDoc
  3
AcMeServices
 90
     1024
280
     0
281
     0
  0
CLASS
  1
AMGSETTINGSOBJ
  2
AmgSettingsObj
  3
"AcadM|Product Description: AutoCAD Mechanical|Company: Autodesk, Inc."
 90
     1024
280
     0
281
     0
  0
CLASS
  1
ACMESCOPE
  2
AcMeScope
  3
AcMeServices
 90
     1024
280
     0
281
     0
  0
CLASS
  1
ACMECOMMANDHISTORY
  2
AcMeCommandHistory
  3
AcMeServices
 90
     1024
280
     0
281
     0
  0
CLASS
  1
ACIMSYSVARMAN
  2
AcImSysVarManager
  3
AcMeServices
 90
     1024
280
     0
281
     0
  0
CLASS
  1
ACIMREALSYSVAR
  2
AcImRealSysVar
  3
AcMeServices
 90
     1024
280
     0
281
     0
  0
CLASS
  1
ACIMINTSYSVAR
  2
AcImIntSysVar
  3
AcMeServices
 90
     1024
280
     0
281
     0
  0
CLASS
  1
ACMEDRAWINGMAN
  2
AcMeDrawingMan
  3
AcMeServices
 90
     1024
280
     0
281
     0
  0
CLASS
  1
ACMEVIEW
  2
AcMeView
  3
AcMeServices
 90
     1024
280
     0
281
     0
  0
CLASS
  1
ACDBENTITYCACHE
  2
AcMeEntityCache
  3
AcMeServices
 90
     1024
280
     0
281
     0
  0
CLASS
  1
GSMANAGER
  2
AcMeGSManager
  3
AcMeServices
 90
     1024
280
     0
281
     0
  0
CLASS
  1
AMDTINTERNALREACTOR
  2
AmdtInternalReactor
  3
AcMeServices
 90
     1024
280
     0
281
     0
  0
CLASS
  1
ACMESTATEMGR
  2
AcMeStateMgr
  3
AcMeServices
 90
     1024
280
     0
281
     0
  0
CLASS
  1
ACGREFMASTER
  2
AcGrefMaster
  3
AcAttribServices
 90
     1024
280
     0
281
     0
  0
CLASS
  1
ACME_DATABASE
  2
AcMeDbDatabase
  3
AcMeServices
 90
     1024
280
     0
281
     0
  0
CLASS
  1
ACRFINSADJUSTERMGR
  2
AcRfInsAdjusterMgr
  3
AcMeServices
 90
     1024
280
     0
281
     0
  0
CLASS
  1
ACGREFACADMASTER
  2
AcGrefacadMaster
  3
AcGrefServices
 90
     1024
280
     0
281
     0
  0
CLASS
  1
AMIMASTER
  2
AmiMaster
  3
AmiServices
 90
     1024
280
     0
281
     0
  0
CLASS
  1
ACMDATADICTIONARY
  2
AcmDataDictionary
  3
"AcmSymBB|Product Description: AutoCAD Mechanical|Company: Autodesk, Inc."
 90
     1024
280
     0
281
     0
  0
CLASS
  1
ACMDATAENTRYBLOCK
  2
AcmDataEntryBlock
  3
AcmSymBB|Product Description: AutoCAD Mechanical|Company: Autodesk, Inc.
 90
    33792
280
     0
281
     0
  0
CLASS
  1
ACIMSTRSYSVAR
  2
AcImStrSysVar
  3
AcMeServices
 90
     1024
280
     0
281
     0
  0
CLASS
  1
ACMSTANDARDISO
  2
AcmStandardISO
  3
"Amdt_StdImp|Product Description: AutoCAD Mechanical|Company: Autodesk, Inc."
 90
    33792
280
     0
281
     0
  0
CLASS
  1
AMGOBJPROPCFG
  2
AmgObjPropCfg
  3
"AmgLay|Product Description: AutoCAD Mechanical|Company: Autodesk, Inc."
 90
     1025
280
     0
281
     0
  0
CLASS
  1
AMDTEDGESTANDARDISO
  2
AmdtEdgeStdISO
  3
"Amdt_StdImp|Product Description: AutoCAD Mechanical|Company: Autodesk, Inc."
 90
    33792
280
     0
281
     0
  0
CLASS
  1
ACMSURFSTANDARDISO
  2
AcmSurfTextStdISO
  3
"Amdt_StdImp|Product Description: AutoCAD Mechanical|Company: Autodesk, Inc."
 90
    33792
280
     0
281
     0
  0
CLASS
  1
ACMFCFSTANDARDISO
  2
AcmFCFStdISO
  3
"Amdt_StdImp|Product Description: AutoCAD Mechanical|Company: Autodesk, Inc."
 90
    33792
280
     0
281
     0
  0
CLASS
  1
ACMWELDSTANDARDISO
  2
AcmWeldingStdISO
  3
"Amdt_StdImp|Product Description: AutoCAD Mechanical|Company: Autodesk, Inc."
 90
    33792
280
     0
281
     0
  0
CLASS
  1
ACMIDSTANDARDISO
  2
AcmIdStdISO
  3
"Amdt_StdImp|Product Description: AutoCAD Mechanical|Company: Autodesk, Inc."
 90
    33792
280
     0
281
     0
  0
CLASS
  1
ACMDATUMSTANDARDISO
  2
AcmDatumStdISO
  3
"Amdt_StdImp|Product Description: AutoCAD Mechanical|Company: Autodesk, Inc."
 90
    33792
280
     0
281
     0
  0
CLASS
  1
ACMBOMSTANDARDISO
  2
AcmBOMStdISO
  3
"Amdt_StdImp|Product Description: AutoCAD Mechanical|Company: Autodesk, Inc."
 90
    33792
280
     0
281
     0
  0
CLASS
  1
ACMDETAILSTANDARDISO
  2
AmdtDetailSymStdISO
  3
"Amdt_StdImp|Product Description: AutoCAD Mechanical|Company: Autodesk, Inc."
 90
    33792
280
     0
281
     0
  0
CLASS
  1
ACMSECTIONSTANDARDISO
  2
AmdtSectionSymStdISO
  3
"Amdt_StdImp|Product Description: AutoCAD Mechanical|Company: Autodesk, Inc."
 90
    33792
280
     0
281
     0
  0
CLASS
  1
ACMCENTERLINESTANDARDISO
  2
AmdtCenterLineStdISO
  3
"Amdt_StdImp|Product Description: AutoCAD Mechanical|Company: Autodesk, Inc."
 90
    33792
280
     0
281
     0
  0
CLASS
  1
ACMNOTESTANDARDISO
  2
AmdtNoteStdISO
  3
"Amdt_StdImp|Product Description: AutoCAD Mechanical|Company: Autodesk, Inc."
 90
    33792
280
     0
281
     0
  0
CLASS
  1
ACAMGLAYSTD
  2
AcAmgLayStd
  3
"AmgLay|Product Description: AutoCAD Mechanical|Company: Autodesk, Inc."
 90
    33792
280
     0
281
     0
  0
CLASS
  1
ACAMGDIMSTD
  2
AcAmgDimStd
  3
"AmgDim|Product Description: AutoCAD Mechanical|Company: Autodesk, Inc."
 90
    33792
280
     0
281
     0
  0
CLASS
  1
ACAMGHOLECHARTSTDISO
  2
AcAmgHoleChartStdISO
  3
AmgDim|Product Description: AutoCAD Mechanical|Company: Autodesk, Inc.
 90
    33792
280
     0
281
     0
  0
CLASS
  1
ACAMGTITLESTD
  2
AcAmgTitleStd
  3
"AmgTitle|Product Description: AutoCAD Mechanical|Company: Autodesk, Inc."
 90
    36863
280
     0
281
     0
  0
CLASS
  1
LAYER_INDEX
  2
AcDbLayerIndex
  3
ObjectDBX Classes
 90
    32768
280
     0
281
     0
  0
CLASS
  1
IDBUFFER
  2
AcDbIdBuffer
  3
ObjectDBX Classes
 90
    32768
280
     0
281
     0
  0
CLASS
  1
DICTIONARYVAR
  2
AcDbDictionaryVar
  3
ObjectDBX Classes
 90
        0
280
     0
281
     0
  0
CLASS
  1
AM_DRAWING_MGR
  2
AcDmDwgMgr
  3
AcMechDwgViewMgmt
 90
     1024
280
     0
281
     0
  0
CLASS
  1
AM_DWG_DOCUMENT
  2
AcDmDwgDocument
  3
AcMechDwgViewMgmt
 90
     1024
280
     0
281
     0
  0
CLASS
  1
AM_DWG_SHEET
  2
AcDmSheet
  3
AcMechDwgViewMgmt
 90
     1024
280
     0
281
     0
  0
CLASS
  1
AM_VIEWDIMPARMAP
  2
AcDmViewDimParMap
  3
AcMechDwgViewMgmt
 90
     1024
280
     0
281
     0
  0
CLASS
  1
AM_DWGMGR_NAME
  2
AcDmDwgMgrName
  3
AcMechDwgViewMgmt
 90
     1024
280
     0
281
     0
  0
CLASS
  1
AMDTMENUSTATEMGR
  2
AmdtMenuStateMgr
  3
McadcomServices
 90
     1024
280
     0
281
     0
  0
CLASS
  1
AMDTMCOMMENUSTATE
  2
AmdtMcomMenuState
  3
McadcomServices
 90
     1024
280
     0
281
     0
  0
CLASS
  1
MAPIAMMOUDLE
  2
MApiAmModule
  3
MApiAmServices
 90
     1024
280
     0
281
     0
  0
CLASS
  1
AMDTADMENUSTATE
  2
AmdtAdMenuState
  3
DesignerServices
 90
     1024
280
     0
281
     0
  0
CLASS
  1
ADAPPL
  2
AcAdAppl
  3
DesignerServices
 90
     1024
280
     0
281
     0
  0
CLASS
  1
DEPMGR
  2
AcAdDepMgr
  3
DesignerServices
 90
     1024
280
     0
281
     0
  0
CLASS
  1
PARAMMGR
  2
AcAdParamMgr
  3
DesignerServices
 90
     1024
280
     0
281
     0
  0
CLASS
  1
PARAMSCOPE
  2
AcAdParamScope
  3
DesignerServices
 90
     1024
280
     0
281
     0
  0
CLASS
  1
NAMEDAPPL
  2
AcAdNamedAppl
  3
DesignerServices
 90
     1024
280
     0
281
     0
  0
CLASS
  1
AMDTDMMENUSTATE
  2
AmdtDmMenuState
  3
AcMechDwgViewMgmt
 90
     1024
280
     0
281
     0
  0
CLASS
  1
AMDTAMMENUSTATE
  2
AmdtAmMenuState
  3
DesignerAssemblies
 90
     1024
280
     0
281
     0
  0
CLASS
  1
ACAMPROJECT
  2
AcAmProject
  3
DesignerAssemblies
 90
     1024
280
     0
281
     0
  0
CLASS
  1
ACAMGRCOMPDEF
  2
AcAmGrCompDef
  3
DesignerAssemblies
 90
     1024
280
     0
281
     0
  0
CLASS
  1
ACCMCONTEXT
  2
AcCmContext
  3
DesignerAssemblies
 90
     1024
280
     0
281
     0
  0
CLASS
  1
ACAMCOMPDEF
  2
AcAmCompDef
  3
DesignerAssemblies
 90
     1024
280
     0
281
     0
  0
CLASS
  1
ACAMCOMPDEFMGR
  2
AcAmCompDefMgr
  3
DesignerAssemblies
 90
     1024
280
     0
281
     0
  0
CLASS
  1
AMCONTEXTMGR
  2
AcAmContextMgr
  3
DesignerAssemblies
 90
     1024
280
     0
281
     0
  0
CLASS
  1
ACAMCONTEXTMODELER
  2
AcAmContextModeler
  3
DesignerAssemblies
 90
     1024
280
     0
281
     0
  0
CLASS
  1
ACMTHREADLINESTANDARDISO
  2
AmdtThreadLineStdISO
  3
"Amdt_StdImp|Product Description: AutoCAD Mechanical|Company: Autodesk, Inc."
 90
    33792
280
     0
281
     0
  0
CLASS
  1
CATALOGSTATE
  2
AcAmCatalogState
  3
DesignerAssemblies
 90
     1024
280
     0
281
     0
  0
CLASS
  1
ACAMGRCOMPDEFSET
  2
AcAmGrCompDefSet
  3
DesignerAssemblies
 90
     1024
280
     0
281
     0
  0
CLASS
  1
AMDTBROWSERDBTAB
  2
AmdtBrowserDbTab
  3
McadcomServices
 90
     1024
280
     0
281
     0
  0
CLASS
  1
CBROWSERAPPOBJECT
  2
CBrowserAppObject
  3
McadcomServices
 90
     1024
280
     0
281
     0
  0
CLASS
  1
DM_PLACEHOLDER
  2
AcDmSelsetPlaceholder
  3
AcMechDwgViewMgmt
 90
     1024
280
     0
281
     0
  0
CLASS
  1
TABLESTYLE
  2
AcDbTableStyle
  3
ObjectDBX Classes
 90
     4095
280
     0
281
     0
  0
CLASS
  1
VAACXREFPANELOBJECT
  2
VaAcXREFPanelObject
  3
VAAC_ADDIN
 90
    32768
280
     0
281
     0
  0
CLASS
  1
VAACIMAGEINVENTORY
  2
VaAcImageInventory
  3
VAAC_ADDIN
 90
    32768
280
     0
281
     0
  0
CLASS
  1
AMDTNOTETEMPLATEDB
  2
AmdtNoteTemplateDB
  3
AcmSymBB|Product Description: AutoCAD Mechanical|Company: Autodesk, Inc.
 90
    33792
280
     0
281
     0
  0
CLASS
  1
MATERIAL
  2
AcDbMaterial
  3
ObjectDBX Classes
 90
     1153
280
     0
281
     0
  0
CLASS
  1
VISUALSTYLE
  2
AcDbVisualStyle
  3
ObjectDBX Classes
 90
     4095
280
     0
281
     0
  0
CLASS
  1
ACRFATTGENMGR
  2
AcRfAttGeneralMgr
  3
AcAttribServices
 90
    33792
280
     0
281
     0
  0
CLASS
  1
ACRFOBJATTMGR
  2
AcRfObjAttGroupMgr
  3
AcAttribServices
 90
    33792
280
     0
281
     0
  0
CLASS
  1
ACRFMCADAPIATTHOLDER
  2
AcRfMCADAPIAttHolder
  3
AcAttribServices
 90
    33792
280
     0
281
     0
  0
CLASS
  1
AMDTSYSATTR
  2
AmdtSystemAttribute
  3
AcAttribServices
 90
    33792
280
     0
281
     0
  0
CLASS
  1
ACMTAPERSTANDARDISO
  2
AcmTaperStdISO
  3
"Amdt_StdImp|Product Description: AutoCAD Mechanical|Company: Autodesk, Inc."
 90
    33792
280
     0
281
     0
  0
CLASS
  1
CAMSSTRUCTBTNSTATE
  2
StructBtnState
  3
DesignerAssemblies
 90
     1024
280
     0
281
     0
  0
CLASS
  1
SCALE
  2
AcDbScale
  3
ObjectDBX Classes
 90
     1153
280
     0
281
     0
  0
CLASS
  1
MLEADERSTYLE
  2
AcDbMLeaderStyle
  3
ACDB_MLEADERSTYLE_CLASS
 90
     4095
280
     0
281
     0
  0
CLASS
  1
ACMANOOTATIONVIEWSTANDARDISO
  2
AmdtAnViewStdISO
  3
"Amdt_StdImp|Product Description: AutoCAD Mechanical|Company: Autodesk, Inc."
 90
    33792
280
     0
281
     0
  0
CLASS
  1
ACMSURFSTANDARDISO2002
  2
AcmSurfTextStdISO2002
  3
"Amdt_StdImp|Product Description: AutoCAD Mechanical|Company: Autodesk, Inc."
 90
    33792
280
     0
281
     0
  0
CLASS
  1
CELLSTYLEMAP
  2
AcDbCellStyleMap
  3
ObjectDBX Classes
 90
     1152
280
     0
281
     0
  0
CLASS
  1
ACMSECTIONSTANDARDISO2001
  2
AmdtSectionSymStdISO2001
  3
"Amdt_StdImp|Product Description: AutoCAD Mechanical|Company: Autodesk, Inc."
 90
    33792
280
     0
281
     0
  0
CLASS
  1
EXACXREFPANELOBJECT
  2
ExAcXREFPanelObject
  3
EXAC_ESW
 90
     1025
280
     0
281
     0
  0
CLASS
  1
NPOCOLLECTION
  2
AcDbImpNonPersistentObjectsCollection
  3
ObjectDBX Classes
 90
     1153
280
     0
281
     0
  0
CLASS
  1
AMDTEDGESTANDARDISO13715
  2
AmdtEdgeStdISO13715
  3
"Amdt_StdImp|Product Description: AutoCAD Mechanical|Company: Autodesk, Inc."
 90
    33792
280
     0
281
     0
  0
CLASS
  1
ACAMGFILTERDAT
  2
AcAmgFilterDat
  3
"AcadM|Product Description: AutoCAD Mechanical|Company: Autodesk, Inc."
 90
    33792
280
     0
281
     0
  0
CLASS
  1
ACMBOM
  2
AcmBom
  3
"AcmSymBB|Product Description: AutoCAD Mechanical|Company: Autodesk, Inc."
 90
    33792
280
     0
281
     0
  0
CLASS
  1
AMDTFORMULAUPDATEDISPATCHER
  2
AmdtFormulaUpdateDispatcher
  3
AcMeServices
 90
    33792
280
     0
281
     0
  0
CLASS
  1
DIMASSOC
  2
AcDbDimAssoc
  3
"AcDbDimAssoc|Product Desc:     AcDim ARX App For Dimension|Company:          Autodesk, Inc.|WEB Address:      www.autodesk.com"
 90
        0
280
     0
281
     0
  0
CLASS
  1
SORTENTSTABLE
  2
AcDbSortentsTable
  3
ObjectDBX Classes
 90
    32768
280
     0
281
     0
  0
CLASS
  1
ACMDIMBREAKPERSREACTOR
  2
AcmDimBreakPersReactor
  3
AmgDim|Product Description: AutoCAD Mechanical|Company: Autodesk, Inc.
 90
    36863
280
     0
281
     0
  0
CLASS
  1
ACMSTANDARDDIN
  2
AcmStandardDIN
  3
"Amdt_StdImp|Product Description: AutoCAD Mechanical|Company: Autodesk, Inc."
 90
    33792
280
     0
281
     0
  0
CLASS
  1
AMDTEDGESTANDARDDIN13715
  2
AmdtEdgeStdDIN13715
  3
"Amdt_StdImp|Product Description: AutoCAD Mechanical|Company: Autodesk, Inc."
 90
    33792
280
     0
281
     0
  0
CLASS
  1
ACMSURFSTANDARDDIN
  2
AcmSurfTextStdDIN
  3
"Amdt_StdImp|Product Description: AutoCAD Mechanical|Company: Autodesk, Inc."
 90
    33792
280
     0
281
     0
  0
CLASS
  1
ACMFCFSTANDARDDIN
  2
AcmFCFStdDIN
  3
"Amdt_StdImp|Product Description: AutoCAD Mechanical|Company: Autodesk, Inc."
 90
    33792
280
     0
281
     0
  0
CLASS
  1
ACMWELDSTANDARDDIN
  2
AcmWeldingStdDIN
  3
"Amdt_StdImp|Product Description: AutoCAD Mechanical|Company: Autodesk, Inc."
 90
    33792
280
     0
281
     0
  0
CLASS
  1
ACMIDSTANDARDDIN
  2
AcmIdStdDIN
  3
"Amdt_StdImp|Product Description: AutoCAD Mechanical|Company: Autodesk, Inc."
 90
    33792
280
     0
281
     0
  0
CLASS
  1
ACMDATUMSTANDARDDIN
  2
AcmDatumStdDIN
  3
"Amdt_StdImp|Product Description: AutoCAD Mechanical|Company: Autodesk, Inc."
 90
    33792
280
     0
281
     0
  0
CLASS
  1
ACMBOMSTANDARDDIN
  2
AcmBOMStdDIN
  3
"Amdt_StdImp|Product Description: AutoCAD Mechanical|Company: Autodesk, Inc."
 90
    33792
280
     0
281
     0
  0
CLASS
  1
ACMDETAILSTANDARDDIN
  2
AmdtDetailSymStdDIN
  3
"Amdt_StdImp|Product Description: AutoCAD Mechanical|Company: Autodesk, Inc."
 90
    33792
280
     0
281
     0
  0
CLASS
  1
ACMSECTIONSTANDARDDIN
  2
AmdtSectionSymStdDIN
  3
"Amdt_StdImp|Product Description: AutoCAD Mechanical|Company: Autodesk, Inc."
 90
    33792
280
     0
281
     0
  0
CLASS
  1
ACMCENTERLINESTANDARDDIN
  2
AmdtCenterLineStdDIN
  3
"Amdt_StdImp|Product Description: AutoCAD Mechanical|Company: Autodesk, Inc."
 90
    33792
280
     0
281
     0
  0
CLASS
  1
ACMTHREADLINESTANDARDDIN
  2
AmdtThreadLineStdDIN
  3
"Amdt_StdImp|Product Description: AutoCAD Mechanical|Company: Autodesk, Inc."
 90
    33792
280
     0
281
     0
  0
CLASS
  1
ACMNOTESTANDARDDIN
  2
AmdtNoteStdDIN
  3
"Amdt_StdImp|Product Description: AutoCAD Mechanical|Company: Autodesk, Inc."
 90
    33792
280
     0
281
     0
  0
CLASS
  1
ACAMGHOLECHARTSTDDIN
  2
AcAmgHoleChartStdDIN
  3
AmgDim|Product Description: AutoCAD Mechanical|Company: Autodesk, Inc.
 90
    33792
280
     0
281
     0
  0
CLASS
  1
ACMTAPERSTANDARDDIN
  2
AcmTaperStdDIN
  3
"Amdt_StdImp|Product Description: AutoCAD Mechanical|Company: Autodesk, Inc."
 90
    33792
280
     0
281
     0
  0
CLASS
  1
ACMANOOTATIONVIEWSTANDARDDIN
  2
AmdtAnViewStdDIN
  3
"Amdt_StdImp|Product Description: AutoCAD Mechanical|Company: Autodesk, Inc."
 90
    33792
280
     0
281
     0
  0
CLASS
  1
AEC_REFEDIT_STATUS_TRACKER
  2
AecDbRefEditStatusTracker
  3
AecArchBase50|Product Desc: Autodesk Architectural Desktop 2007 |Company: Autodesk,Inc. |WEB Address: www.autodesk.com
 90
    32897
280
     0
281
     0
  0
ENDSEC
  0
SECTION
  2
TABLES
  0
TABLE
  2
VPORT
  5
8
330
0
100
AcDbSymbolTable
 70
     1
  0
VPORT
  5
269
330
8
100
AcDbSymbolTableRecord
100
AcDbViewportTableRecord
  2
*Active
 70
     0
 10
0.0
 20
0.0
 11
1.0
 21
1.0
 12
3892.793957937639
 22
267.4277055881729
 13
0.0
 23
0.0
 14
2.5
 24
2.5
 15
10.0
 25
10.0
 16
0.0
 26
0.0
 36
1.0
 17
0.0
 27
0.0
 37
0.0
 40
593.8705756877898
 41
1.923900118906064
 42
50.0
 43
0.0
 44
0.0
 50
0.0
 51
0.0
 71
     0
 72
   100
 73
     1
 74
     3
 75
     0
 76
     0
 77
     0
 78
     0
281
     0
 65
     0
110
0.0
120
0.0
130
0.0
111
1.0
121
0.0
131
0.0
112
0.0
122
1.0
132
0.0
 79
     0
146
0.0
  0
ENDTAB
  0
TABLE
  2
LTYPE
  5
5
330
0
100
AcDbSymbolTable
 70
    19
  0
LTYPE
  5
14
330
5
100
AcDbSymbolTableRecord
100
AcDbLinetypeTableRecord
  2
ByBlock
 70
     0
  3

 72
    65
 73
     0
 40
0.0
  0
LTYPE
  5
15
330
5
100
AcDbSymbolTableRecord
100
AcDbLinetypeTableRecord
  2
ByLayer
 70
     0
  3

 72
    65
 73
     0
 40
0.0
  0
LTYPE
  5
16
330
5
100
AcDbSymbolTableRecord
100
AcDbLinetypeTableRecord
  2
Continuous
 70
     0
  3
Solid line
 72
    65
 73
     0
 40
0.0
  0
LTYPE
  5
64
330
5
100
AcDbSymbolTableRecord
100
AcDbLinetypeTableRecord
  2
AM_ISO02W050
 70
     0
  3
__ __ __ __ __ __ __ __ __ __ __ __ __ __ __
 72
    65
 73
     2
 40
7.5
 49
6.0
 74
     0
 49
-1.5
 74
     0
  0
LTYPE
  5
65
330
5
100
AcDbSymbolTableRecord
100
AcDbLinetypeTableRecord
  2
AM_ISO08W050
 70
     0
  3
____ . ____ . ____ . ____ . ____ . ____ . ____
 72
    65
 73
     4
 40
18.0
 49
12.0
 74
     0
 49
-1.5
 74
     0
 49
3.0
 74
     0
 49
-1.5
 74
     0
  0
LTYPE
  5
66
330
5
100
AcDbSymbolTableRecord
100
AcDbLinetypeTableRecord
  2
AM_ISO09W050
 70
     0
  3
_____ . . _____ . . _____ . . ____ .. ____
 72
    65
 73
     6
 40
22.5
 49
12.0
 74
     0
 49
-1.5
 74
     0
 49
3.0
 74
     0
 49
-1.5
 74
     0
 49
3.0
 74
     0
 49
-1.5
 74
     0
  0
LTYPE
  5
67
330
5
100
AcDbSymbolTableRecord
100
AcDbLinetypeTableRecord
  2
Amconstr
 70
     0
  3
_______________________
 72
    65
 73
     2
 40
9999.0
 49
9999.0
 74
     0
 49
0.0
 74
     0
  0
LTYPE
  5
68
330
5
100
AcDbSymbolTableRecord
100
AcDbLinetypeTableRecord
  2
AM_ISO08W050x2
 70
     0
  3
__ . __ . __ . __ . __ . __
 72
    65
 73
     4
 40
9.0
 49
6.0
 74
     0
 49
-0.75
 74
     0
 49
1.5
 74
     0
 49
-0.75
 74
     0
  0
LTYPE
  5
69
330
5
100
AcDbSymbolTableRecord
100
AcDbLinetypeTableRecord
  2
AM_ISO02W050x2
 70
     0
  3
 _ _ _ _ _ _ _ _ _ _ _ _
 72
    65
 73
     2
 40
3.75
 49
3.0
 74
     0
 49
-0.75
 74
     0
  0
LTYPE
  5
6C
330
5
100
AcDbSymbolTableRecord
100
AcDbLinetypeTableRecord
  2
Amzigzag
 70
     0
  3
/\/-/\/-/\/-/\/-/\/-/\/
 72
    65
 73
     2
 40
11.0001
 49
0.0001
 74
     4
 75
   136
340
22C
 46
0.04
 50
0.0
 44
0.0
 45
0.0
 49
-11.0
 74
     0
  0
LTYPE
  5
7A
330
5
100
AcDbSymbolTableRecord
100
AcDbLinetypeTableRecord
  2
ACISOWELD
 70
     0
  3
_ _ _ _ _
 72
    65
 73
     2
 40
2.0
 49
2.0
 74
     0
 49
-1.0
 74
     0
  0
LTYPE
  5
7B
330
5
100
AcDbSymbolTableRecord
100
AcDbLinetypeTableRecord
  2
ACISOTGB
 70
     0
  3
__ . . __ . .
 72
    65
 73
     6
 40
9.0
 49
4.0
 74
     0
 49
-1.0
 74
     0
 49
1.0
 74
     0
 49
-1.0
 74
     0
 49
1.0
 74
     0
 49
-1.0
 74
     0
  0
LTYPE
  5
7C
330
5
100
AcDbSymbolTableRecord
100
AcDbLinetypeTableRecord
  2
ACISOTGL
 70
     0
  3
_ _ _ _ _
 72
    65
 73
     2
 40
3.0
 49
2.0
 74
     0
 49
-1.0
 74
     0
  0
LTYPE
  5
7E
330
5
100
AcDbSymbolTableRecord
100
AcDbLinetypeTableRecord
  2
CENTER
 70
     0
  3
__ . __
 72
    65
 73
     4
 40
7.0
 49
4.0
 74
     0
 49
-1.0
 74
     0
 49
1.0
 74
     0
 49
-1.0
 74
     0
  0
LTYPE
  5
D8
330
5
100
AcDbSymbolTableRecord
100
AcDbLinetypeTableRecord
  2
HIDDEN
 70
     0
  3
Hidden __ __ __ __ __ __ __ __ __ __ __ __ __ _
 72
    65
 73
     2
 40
9.524999999999996
 49
6.349999999999998
 74
     0
 49
-3.174999999999998
 74
     0
  0
LTYPE
  5
D9
330
5
100
AcDbSymbolTableRecord
100
AcDbLinetypeTableRecord
  2
PHANTOM2
 70
     0
  3
Phantom (.5x) ___ _ _ ___ _ _ ___ _ _ ___ _ _
 72
    65
 73
     6
 40
31.75
 49
15.875
 74
     0
 49
-3.174999999999998
 74
     0
 49
3.174999999999998
 74
     0
 49
-3.174999999999998
 74
     0
 49
3.174999999999998
 74
     0
 49
-3.174999999999998
 74
     0
  0
LTYPE
  5
456
330
5
100
AcDbSymbolTableRecord
100
AcDbLinetypeTableRecord
  2
GEN7A
 70
     0
  3
__ . __ . __
 72
    65
 73
     4
 40
6.875
 49
5.0
 74
     0
 49
-0.625
 74
     0
 49
0.625
 74
     0
 49
-0.625
 74
     0
  0
LTYPE
  5
457
330
5
100
AcDbSymbolTableRecord
100
AcDbLinetypeTableRecord
  2
GEN3
 70
     0
  3
-- -- -- -- -- -- -- -- -- -- -- -- -- -- --
 72
    65
 73
     2
 40
6.25
 49
5.0
 74
     0
 49
-1.25
 74
     0
  0
LTYPE
  5
8E0
330
5
100
AcDbSymbolTableRecord
100
AcDbLinetypeTableRecord
  2
ACDINWELD
 70
     0
  3
_ _ _ _ _
 72
    65
 73
     2
 40
2.0
 49
2.0
 74
     0
 49
-1.0
 74
     0
  0
LTYPE
  5
8E1
330
5
100
AcDbSymbolTableRecord
100
AcDbLinetypeTableRecord
  2
ACDINTGB
 70
     0
  3
__ . . __ . .
 72
    65
 73
     6
 40
9.0
 49
4.0
 74
     0
 49
-1.0
 74
     0
 49
1.0
 74
     0
 49
-1.0
 74
     0
 49
1.0
 74
     0
 49
-1.0
 74
     0
  0
LTYPE
  5
8E2
330
5
100
AcDbSymbolTableRecord
100
AcDbLinetypeTableRecord
  2
ACDINTGL
 70
     0
  3
_ _ _ _ _
 72
    65
 73
     2
 40
3.0
 49
2.0
 74
     0
 49
-1.0
 74
     0
  0
ENDTAB
  0
TABLE
  2
LAYER
  5
2
102
{ACAD_XDICTIONARY
360
47E
102
}
330
0
100
AcDbSymbolTable
 70
    16
  0
LAYER
  5
10
102
{ACAD_XDICTIONARY
360
7B9
102
}
330
2
100
AcDbSymbolTableRecord
100
AcDbLayerTableRecord
  2
0
 70
     0
 62
     7
  6
Continuous
370
    -3
390
F
  0
LAYER
  5
458
102
{ACAD_XDICTIONARY
360
459
102
}
330
2
100
AcDbSymbolTableRecord
100
AcDbLayerTableRecord
  2
AM_7
 70
     0
 62
     4
  6
AM_ISO08W050
370
    25
390
F
1001
AcAecLayerStandard
1000

1000

  0
LAYER
  5
45A
102
{ACAD_XDICTIONARY
360
45B
102
}
330
2
100
AcDbSymbolTableRecord
100
AcDbLayerTableRecord
  2
AM_CL
 70
     0
 62
     1
  6
Amconstr
370
    25
390
F
1001
AcAecLayerStandard
1000

1000

  0
LAYER
  5
45C
330
2
100
AcDbSymbolTableRecord
100
AcDbLayerTableRecord
  2
Defpoints
 70
     0
 62
     7
  6
Continuous
290
     0
370
    -3
390
F
  0
LAYER
  5
45D
102
{ACAD_XDICTIONARY
360
45E
102
}
330
2
100
AcDbSymbolTableRecord
100
AcDbLayerTableRecord
  2
AM_5
 70
     0
 62
     3
  6
Continuous
370
    25
390
F
1001
AcAecLayerStandard
1000

1000

  0
LAYER
  5
45F
102
{ACAD_XDICTIONARY
360
460
102
}
330
2
100
AcDbSymbolTableRecord
100
AcDbLayerTableRecord
  2
AM_0N
 70
     0
 62
     7
  6
Continuous
370
    50
390
F
1001
AcAecLayerStandard
1000

1000

  0
LAYER
  5
461
102
{ACAD_XDICTIONARY
360
462
102
}
330
2
100
AcDbSymbolTableRecord
100
AcDbLayerTableRecord
  2
AM_7N
 70
     0
 62
   142
  6
AM_ISO08W050
370
    25
390
F
1001
AcAecLayerStandard
1000

1000

  0
LAYER
  5
463
102
{ACAD_XDICTIONARY
360
464
102
}
330
2
100
AcDbSymbolTableRecord
100
AcDbLayerTableRecord
  2
AM_4N
 70
     0
 62
    92
  6
Continuous
370
    25
390
F
1001
AcAecLayerStandard
1000

1000

  0
LAYER
  5
465
102
{ACAD_XDICTIONARY
360
466
102
}
330
2
100
AcDbSymbolTableRecord
100
AcDbLayerTableRecord
  2
AM_9N
 70
     0
 62
  -253
  6
Continuous
370
     0
390
F
1001
AcAecLayerStandard
1000

1000

  0
LAYER
  5
467
102
{ACAD_XDICTIONARY
360
468
102
}
330
2
100
AcDbSymbolTableRecord
100
AcDbLayerTableRecord
  2
7A
 70
     0
 62
     4
  6
GEN7A
370
    -3
390
F
  0
LAYER
  5
469
102
{ACAD_XDICTIONARY
360
46A
102
}
330
2
100
AcDbSymbolTableRecord
100
AcDbLayerTableRecord
  2
KLIN
 70
     0
 62
     1
  6
Continuous
370
    -3
390
F
  0
LAYER
  5
46B
102
{ACAD_XDICTIONARY
360
46C
102
}
330
2
100
AcDbSymbolTableRecord
100
AcDbLayerTableRecord
  2
8
 70
     0
 62
     1
  6
Continuous
370
    -3
390
F
  0
LAYER
  5
46D
102
{ACAD_XDICTIONARY
360
46E
102
}
330
2
100
AcDbSymbolTableRecord
100
AcDbLayerTableRecord
  2
3
 70
     0
 62
     6
  6
GEN3
370
    -3
390
F
  0
LAYER
  5
8E3
102
{ACAD_XDICTIONARY
360
8E4
102
}
330
2
100
AcDbSymbolTableRecord
100
AcDbLayerTableRecord
  2
5
 70
     0
 62
     3
  6
Continuous
370
    -3
390
F
  0
LAYER
  5
8E5
102
{ACAD_XDICTIONARY
360
8E6
102
}
330
2
100
AcDbSymbolTableRecord
100
AcDbLayerTableRecord
  2
6
 70
     0
 62
     2
  6
Continuous
370
    -3
390
F
  0
LAYER
  5
8E7
102
{ACAD_XDICTIONARY
360
8E8
102
}
330
2
100
AcDbSymbolTableRecord
100
AcDbLayerTableRecord
  2
4
 70
     0
 62
     3
  6
Continuous
370
    -3
390
F
  0
ENDTAB
  0
TABLE
  2
STYLE
  5
3
330
0
100
AcDbSymbolTable
 70
    10
  0
STYLE
  5
11
330
3
100
AcDbSymbolTableRecord
100
AcDbTextStyleTableRecord
  2
STANDARD
 70
     0
 40
0.0
 41
1.0
 50
0.0
 71
     0
 42
2.5
  3
ISOCP.SHX
  4

  0
STYLE
  5
6B
330
3
100
AcDbSymbolTableRecord
100
AcDbTextStyleTableRecord
  2

 70
     1
 40
0.0
 41
1.0
 50
0.0
 71
     0
 42
2.5
  3
ltypeshp.shx
  4

  0
STYLE
  5
6D
330
3
100
AcDbSymbolTableRecord
100
AcDbTextStyleTableRecord
  2
ACISOTS
 70
     0
 40
1.0
 41
1.0
 50
0.0
 71
     0
 42
2.5
  3
isocp.shx
  4

  0
STYLE
  5
79
330
3
100
AcDbSymbolTableRecord
100
AcDbTextStyleTableRecord
  2
ACISOGDT
 70
     0
 40
0.0
 41
1.0
 50
0.0
 71
     0
 42
2.5
  3
amgdt.shx
  4

  0
STYLE
  5
1ED
330
3
100
AcDbSymbolTableRecord
100
AcDbTextStyleTableRecord
  2
USER1
 70
     0
 40
0.0
 41
1.0
 50
0.0
 71
     0
 42
2.5
  3
TXT.SHX
  4

  0
STYLE
  5
1EE
330
3
100
AcDbSymbolTableRecord
100
AcDbTextStyleTableRecord
  2
USER2
 70
     0
 40
0.0
 41
1.0
 50
0.0
 71
     0
 42
2.5
  3
SIMPLEX.SHX
  4

  0
STYLE
  5
1EF
330
3
100
AcDbSymbolTableRecord
100
AcDbTextStyleTableRecord
  2
USER3
 70
     0
 40
0.0
 41
1.0
 50
0.0
 71
     0
 42
2.5
  3
ITALIC.SHX
  4

  0
STYLE
  5
22C
330
3
100
AcDbSymbolTableRecord
100
AcDbTextStyleTableRecord
  2

 70
     1
 40
0.0
 41
1.0
 50
0.0
 71
     0
 42
2.5
  3
genltshp.shx
  4

  0
STYLE
  5
8E9
330
3
100
AcDbSymbolTableRecord
100
AcDbTextStyleTableRecord
  2
ACDINTS
 70
     0
 40
1.0
 41
1.0
 50
0.0
 71
     0
 42
100.0
  3
isocp.shx
  4

  0
STYLE
  5
8EA
330
3
100
AcDbSymbolTableRecord
100
AcDbTextStyleTableRecord
  2
ACDINGDT
 70
     0
 40
0.0
 41
1.0
 50
0.0
 71
     0
 42
100.0
  3
AMGDT
  4

  0
ENDTAB
  0
TABLE
  2
VIEW
  5
6
330
0
100
AcDbSymbolTable
 70
     0
  0
ENDTAB
  0
TABLE
  2
UCS
  5
7
330
0
100
AcDbSymbolTable
 70
     0
  0
ENDTAB
  0
TABLE
  2
APPID
  5
9
330
0
100
AcDbSymbolTable
 70
    36
  0
APPID
  5
12
330
9
100
AcDbSymbolTableRecord
100
AcDbRegAppTableRecord
  2
ACAD
 70
     0
  0
APPID
  5
46
330
9
100
AcDbSymbolTableRecord
100
AcDbRegAppTableRecord
  2
MCAD_NO_VIS
 70
     0
  0
APPID
  5
47
330
9
100
AcDbSymbolTableRecord
100
AcDbRegAppTableRecord
  2
ACAD_TEMP_GRAPHIC
 70
     0
  0
APPID
  5
58
330
9
100
AcDbSymbolTableRecord
100
AcDbRegAppTableRecord
  2
ACATTRIBSERVICES
 70
     0
  0
APPID
  5
EE
330
9
100
AcDbSymbolTableRecord
100
AcDbRegAppTableRecord
  2
AD_DRAW
 70
     0
  0
APPID
  5
10C
330
9
100
AcDbSymbolTableRecord
100
AcDbRegAppTableRecord
  2
DESIGNERASSEMBLIES
 70
     0
  0
APPID
  5
111
330
9
100
AcDbSymbolTableRecord
100
AcDbRegAppTableRecord
  2
ACADM_DIM_EDIT
 70
     0
  0
APPID
  5
112
330
9
100
AcDbSymbolTableRecord
100
AcDbRegAppTableRecord
  2
AMDT_DM_ADJ
 70
     0
  0
APPID
  5
1A3
330
9
100
AcDbSymbolTableRecord
100
AcDbRegAppTableRecord
  2
ACAD_DSTYLE_DIMARC_LENGTH_SYMBOL
 70
     0
  0
APPID
  5
1A4
330
9
100
AcDbSymbolTableRecord
100
AcDbRegAppTableRecord
  2
ACAD_DSTYLE_DIMJOGGED_JOGANGLE_SYMBOL
 70
     0
  0
APPID
  5
2C6
330
9
100
AcDbSymbolTableRecord
100
AcDbRegAppTableRecord
  2
ACAD_MLEADERVER
 70
     0
  0
APPID
  5
36E
330
9
100
AcDbSymbolTableRecord
100
AcDbRegAppTableRecord
  2
ACAD_EXEMPT_FROM_CAD_STANDARDS
 70
     0
  0
APPID
  5
471
330
9
100
AcDbSymbolTableRecord
100
AcDbRegAppTableRecord
  2
AcAecLayerStandard
 70
     0
  0
APPID
  5
472
330
9
100
AcDbSymbolTableRecord
100
AcDbRegAppTableRecord
  2
GENIUS_GENOENT_13
 70
     0
  0
APPID
  5
473
330
9
100
AcDbSymbolTableRecord
100
AcDbRegAppTableRecord
  2
GENIUS_GENOLIS_13
 70
     0
  0
APPID
  5
474
330
9
100
AcDbSymbolTableRecord
100
AcDbRegAppTableRecord
  2
GENIUS_GENODEF_13
 70
     0
  0
APPID
  5
475
330
9
100
AcDbSymbolTableRecord
100
AcDbRegAppTableRecord
  2
GENIUS_GENOBJ-N-CRS_13
 70
     0
  0
APPID
  5
476
330
9
100
AcDbSymbolTableRecord
100
AcDbRegAppTableRecord
  2
GENIUS_GENOREF_13
 70
     0
  0
APPID
  5
477
330
9
100
AcDbSymbolTableRecord
100
AcDbRegAppTableRecord
  2
ACAD_PSEXT
 70
     0
  0
APPID
  5
478
330
9
100
AcDbSymbolTableRecord
100
AcDbRegAppTableRecord
  2
GENIUS_GENOBJ-N-CEN_13
 70
     0
  0
APPID
  5
479
330
9
100
AcDbSymbolTableRecord
100
AcDbRegAppTableRecord
  2
GENIUS_GENCEN_19
 70
     0
  0
APPID
  5
47A
330
9
100
AcDbSymbolTableRecord
100
AcDbRegAppTableRecord
  2
ACAD_DSTYLE_DIMINSPECT
 70
     0
  0
APPID
  5
47B
330
9
100
AcDbSymbolTableRecord
100
AcDbRegAppTableRecord
  2
GENIUS_GENOBJ-N-FIL_13
 70
     0
  0
APPID
  5
47C
330
9
100
AcDbSymbolTableRecord
100
AcDbRegAppTableRecord
  2
GENIUS_GENOBJ-N-HTC_13
 70
     0
  0
APPID
  5
47D
330
9
100
AcDbSymbolTableRecord
100
AcDbRegAppTableRecord
  2
GENIUS_GENHATCH_13
 70
     0
  0
APPID
  5
726
330
9
100
AcDbSymbolTableRecord
100
AcDbRegAppTableRecord
  2
GENIUS_GENDTOL_13
 70
     0
  0
APPID
  5
8F3
330
9
100
AcDbSymbolTableRecord
100
AcDbRegAppTableRecord
  2
GENIUS_GENHINW_13
 70
     0
  0
APPID
  5
8F4
330
9
100
AcDbSymbolTableRecord
100
AcDbRegAppTableRecord
  2
GENIUS_GENOBJ-N-HINW_13
 70
     0
  0
APPID
  5
8F5
330
9
100
AcDbSymbolTableRecord
100
AcDbRegAppTableRecord
  2
GENIUS_GENTRA_14
 70
     0
  0
APPID
  5
8F6
330
9
100
AcDbSymbolTableRecord
100
AcDbRegAppTableRecord
  2
GENIUS_DIMBRX_14
 70
     0
  0
APPID
  5
8F7
330
9
100
AcDbSymbolTableRecord
100
AcDbRegAppTableRecord
  2
GENIUS_GENOBJ-N-DIMBRX_13
 70
     0
  0
APPID
  5
8F8
330
9
100
AcDbSymbolTableRecord
100
AcDbRegAppTableRecord
  2
GENIUS_FIRSTVISTXT_14
 70
     0
  0
APPID
  5
8F9
330
9
100
AcDbSymbolTableRecord
100
AcDbRegAppTableRecord
  2
GENIUS_SECONDVISTXT_14
 70
     0
  0
APPID
  5
C71
330
9
100
AcDbSymbolTableRecord
100
AcDbRegAppTableRecord
  2
ACAD_DSTYLE_DIM_LINETYPE
 70
     0
  0
APPID
  5
C72
330
9
100
AcDbSymbolTableRecord
100
AcDbRegAppTableRecord
  2
ACAD_DSTYLE_DIM_EXT1_LINETYPE
 70
     0
  0
APPID
  5
C73
330
9
100
AcDbSymbolTableRecord
100
AcDbRegAppTableRecord
  2
ACAD_DSTYLE_DIM_EXT2_LINETYPE
 70
     0
  0
ENDTAB
  0
TABLE
  2
DIMSTYLE
  5
A
330
0
100
AcDbSymbolTable
 70
    19
100
AcDbDimStyleTable
 71
     2
340
81
340
46F
  0
DIMSTYLE
105
27
330
A
100
AcDbSymbolTableRecord
100
AcDbDimStyleTableRecord
  2
ISO-25
 70
     0
 41
2.5
 42
0.625
 43
3.75
 44
1.25
 73
     0
 74
     0
 77
     1
 78
     8
140
2.5
141
2.5
143
0.03937007874016
147
0.625
171
     3
172
     1
271
     2
272
     2
274
     3
278
    44
283
     0
284
     8
340
11
  0
DIMSTYLE
105
81
330
A
100
AcDbSymbolTableRecord
100
AcDbDimStyleTableRecord
  2
AM_ISO
 70
     0
  4
"
 41
3.5
 42
1.0
 43
10.0
 44
1.0
 47
0.1
 48
0.1
 73
     0
 74
     0
 77
     1
 78
     8
 79
     2
140
3.5
141
0.0
143
0.0393701
146
0.71
147
1.5
172
     1
176
   256
177
   256
178
   140
271
     2
272
     3
274
     4
283
     0
284
     8
340
11
371
    -1
372
    -1
1001
ACAD_DSTYLE_DIMJOGGED_JOGANGLE_SYMBOL
1070
   384
1040
0.7853981633974483
1001
ACAD_DSTYLE_DIMARC_LENGTH_SYMBOL
1070
   379
1070
     1
1001
ACAD_DSTYLE_DIM_LINETYPE
1070
   380
1005
14
1001
ACAD_DSTYLE_DIM_EXT1_LINETYPE
1070
   381
1005
14
1001
ACAD_DSTYLE_DIM_EXT2_LINETYPE
1070
   382
1005
14
  0
DIMSTYLE
105
82
330
A
100
AcDbSymbolTableRecord
100
AcDbDimStyleTableRecord
  2
AM_ISO$3
 70
     0
  4
"
 41
3.5
 42
1.0
 43
10.0
 44
1.0
 47
0.1
 48
0.1
 73
     0
 77
     1
 78
     8
 79
     2
140
3.5
141
0.0
143
0.0393701
146
0.71
147
1.5
176
   256
177
   256
178
   140
271
     2
272
     3
274
     4
283
     0
284
     8
288
     1
289
     0
340
11
371
    -1
372
    -1
1001
ACAD_DSTYLE_DIMJOGGED_JOGANGLE_SYMBOL
1070
   384
1040
0.7853981633974483
1001
ACAD_DSTYLE_DIMARC_LENGTH_SYMBOL
1070
   379
1070
     1
1001
ACAD_DSTYLE_DIM_LINETYPE
1070
   380
1005
14
1001
ACAD_DSTYLE_DIM_EXT1_LINETYPE
1070
   381
1005
14
1001
ACAD_DSTYLE_DIM_EXT2_LINETYPE
1070
   382
1005
14
  0
DIMSTYLE
105
83
330
A
100
AcDbSymbolTableRecord
100
AcDbDimStyleTableRecord
  2
AM_ISO$4
 70
     0
  4
"
 41
3.5
 42
1.0
 43
10.0
 44
1.0
 47
0.1
 48
0.1
 73
     0
 74
     0
 77
     1
 78
     8
 79
     2
140
3.5
141
0.0
143
0.0393701
146
0.71
147
1.5
172
     1
176
   256
177
   256
178
   140
271
     2
272
     3
274
     4
283
     0
284
     8
340
11
371
    -1
372
    -1
1001
ACAD_DSTYLE_DIMJOGGED_JOGANGLE_SYMBOL
1070
   384
1040
0.7853981633974483
1001
ACAD_DSTYLE_DIMARC_LENGTH_SYMBOL
1070
   379
1070
     1
1001
ACAD_DSTYLE_DIM_LINETYPE
1070
   380
1005
14
1001
ACAD_DSTYLE_DIM_EXT1_LINETYPE
1070
   381
1005
14
1001
ACAD_DSTYLE_DIM_EXT2_LINETYPE
1070
   382
1005
14
  0
DIMSTYLE
105
84
330
A
100
AcDbSymbolTableRecord
100
AcDbDimStyleTableRecord
  2
AM_ISO$6
 70
     0
  4
"
 41
3.5
 42
1.0
 43
10.0
 44
1.0
 47
0.1
 48
0.1
 73
     0
 74
     0
 78
     8
 79
     2
140
3.5
141
0.0
143
0.0393701
146
0.71
147
1.5
172
     1
176
   256
177
   256
178
   140
271
     2
272
     3
274
     4
283
     0
284
     8
340
11
371
    -1
372
    -1
1001
ACAD_DSTYLE_DIMJOGGED_JOGANGLE_SYMBOL
1070
   384
1040
0.7853981633974483
1001
ACAD_DSTYLE_DIMARC_LENGTH_SYMBOL
1070
   379
1070
     1
1001
ACAD_DSTYLE_DIM_LINETYPE
1070
   380
1005
14
1001
ACAD_DSTYLE_DIM_EXT1_LINETYPE
1070
   381
1005
14
1001
ACAD_DSTYLE_DIM_EXT2_LINETYPE
1070
   382
1005
14
  0
DIMSTYLE
105
85
330
A
100
AcDbSymbolTableRecord
100
AcDbDimStyleTableRecord
  2
AM_ISO$7
 70
     0
  4
"
 41
3.5
 42
1.0
 43
10.0
 44
1.0
 47
0.1
 48
0.1
 73
     0
 74
     0
 77
     1
 78
     8
 79
     2
140
3.5
141
0.0
143
0.0393701
146
0.71
147
1.5
172
     1
176
   256
177
   256
178
   140
271
     2
272
     3
274
     4
283
     0
284
     8
340
11
371
    -1
372
    -1
1001
ACAD_DSTYLE_DIMJOGGED_JOGANGLE_SYMBOL
1070
   384
1040
0.7853981633974483
1001
ACAD_DSTYLE_DIMARC_LENGTH_SYMBOL
1070
   379
1070
     1
1001
ACAD_DSTYLE_DIM_LINETYPE
1070
   380
1005
14
1001
ACAD_DSTYLE_DIM_EXT1_LINETYPE
1070
   381
1005
14
1001
ACAD_DSTYLE_DIM_EXT2_LINETYPE
1070
   382
1005
14
  0
DIMSTYLE
105
86
330
A
100
AcDbSymbolTableRecord
100
AcDbDimStyleTableRecord
  2
AM_ISO$SF
 70
     0
  4
"
 41
3.5
 42
1.0
 43
10.0
 44
1.0
 47
0.1
 48
0.1
 73
     0
 74
     0
 75
     1
 76
     1
 77
     1
 78
     8
 79
     2
140
3.5
141
0.0
143
0.0393701
146
0.71
147
1.5
172
     1
176
   256
177
   256
178
   140
271
     2
272
     3
274
     4
283
     0
284
     8
340
11
371
    -1
372
    -1
1001
ACAD_DSTYLE_DIMJOGGED_JOGANGLE_SYMBOL
1070
   384
1040
0.7853981633974483
1001
ACAD_DSTYLE_DIMARC_LENGTH_SYMBOL
1070
   379
1070
     1
1001
ACAD_DSTYLE_DIM_LINETYPE
1070
   380
1005
14
1001
ACAD_DSTYLE_DIM_EXT1_LINETYPE
1070
   381
1005
14
1001
ACAD_DSTYLE_DIM_EXT2_LINETYPE
1070
   382
1005
14
  0
DIMSTYLE
105
8B
330
A
100
AcDbSymbolTableRecord
100
AcDbDimStyleTableRecord
  2
AM_ISO$SH
 70
     0
  4
"
 41
3.5
 42
1.0
 43
10.0
 44
1.0
 47
0.1
 48
0.1
 73
     0
 74
     0
 75
     1
 76
     1
 77
     1
 78
     8
 79
     2
140
3.5
141
0.0
143
0.0393701
144
2.0
146
0.71
147
1.5
172
     1
173
     1
176
   256
177
   256
178
   140
271
     2
272
     3
274
     4
283
     0
284
     8
340
11
343
87
371
    -1
372
    -1
1001
ACAD_DSTYLE_DIMJOGGED_JOGANGLE_SYMBOL
1070
   384
1040
0.7853981633974483
1001
ACAD_DSTYLE_DIMARC_LENGTH_SYMBOL
1070
   379
1070
     1
1001
ACAD_DSTYLE_DIM_LINETYPE
1070
   380
1005
14
1001
ACAD_DSTYLE_DIM_EXT1_LINETYPE
1070
   381
1005
14
1001
ACAD_DSTYLE_DIM_EXT2_LINETYPE
1070
   382
1005
14
  0
DIMSTYLE
105
46F
330
A
100
AcDbSymbolTableRecord
100
AcDbDimStyleTableRecord
  2
AM_DIN
 70
     0
  4
"
 41
3.5
 42
1.0
 43
10.0
 44
1.0
 47
0.1
 48
0.1
 73
     0
 74
     0
 77
     1
 78
     8
 79
     2
140
3.5
141
0.0
143
0.0393701
146
0.71
147
1.5
172
     1
176
   256
177
   256
178
     2
271
     2
272
     3
274
     4
283
     0
284
     8
340
11
371
    -1
372
    -1
1001
ACAD_DSTYLE_DIMJOGGED_JOGANGLE_SYMBOL
1070
   384
1040
1.570796326794896
1001
ACAD_DSTYLE_DIM_LINETYPE
1070
   380
1005
14
1001
ACAD_DSTYLE_DIM_EXT1_LINETYPE
1070
   381
1005
14
1001
ACAD_DSTYLE_DIM_EXT2_LINETYPE
1070
   382
1005
14
  0
DIMSTYLE
105
470
102
{ACAD_REACTORS
330
602
330
605
330
606
330
607
330
608
330
64B
102
}
330
A
100
AcDbSymbolTableRecord
100
AcDbDimStyleTableRecord
  2
AM_DIN$0
 70
     0
  4
"
 41
3.5
 42
1.0
 43
10.0
 44
1.0
 47
0.1
 48
0.1
 73
     0
 74
     0
 77
     1
 78
     8
 79
     2
140
3.5
141
0.0
143
0.0393701
146
0.71
147
1.5
172
     1
176
   256
177
   256
178
     2
271
     2
272
     3
274
     4
283
     0
284
     8
340
11
371
    -1
372
    -1
1001
ACAD_DSTYLE_DIMJOGGED_JOGANGLE_SYMBOL
1070
   384
1040
1.570796326794896
1001
ACAD_DSTYLE_DIM_LINETYPE
1070
   380
1005
14
1001
ACAD_DSTYLE_DIM_EXT1_LINETYPE
1070
   381
1005
14
1001
ACAD_DSTYLE_DIM_EXT2_LINETYPE
1070
   382
1005
14
  0
DIMSTYLE
105
778
330
A
100
AcDbSymbolTableRecord
100
AcDbDimStyleTableRecord
  2
AM_ISO$0
 70
     0
  4
"
 41
3.5
 42
1.0
 43
10.0
 44
1.0
 47
0.1
 48
0.1
 73
     0
 74
     0
 77
     1
 78
     8
 79
     2
140
3.5
141
0.0
143
0.0393701
146
0.71
147
1.5
172
     1
176
   256
177
   256
178
   140
271
     2
272
     3
274
     4
283
     0
284
     8
340
11
371
    -1
372
    -1
1001
ACAD_DSTYLE_DIMJOGGED_JOGANGLE_SYMBOL
1070
   384
1040
0.7853981633974483
1001
ACAD_DSTYLE_DIMARC_LENGTH_SYMBOL
1070
   379
1070
     1
1001
ACAD_DSTYLE_DIM_LINETYPE
1070
   380
1005
14
1001
ACAD_DSTYLE_DIM_EXT1_LINETYPE
1070
   381
1005
14
1001
ACAD_DSTYLE_DIM_EXT2_LINETYPE
1070
   382
1005
14
  0
DIMSTYLE
105
8EB
330
A
100
AcDbSymbolTableRecord
100
AcDbDimStyleTableRecord
  2
GEN-ISO
 70
     0
  3
<>
  4
"
 40
20.0
 41
2.5
 42
1.0
 43
7.0
 44
1.0
 47
0.1
 48
0.1
 73
     0
 74
     0
 77
     1
 78
     8
140
3.5
141
0.0
143
0.0393701
146
0.71
147
0.6
172
     1
176
   256
177
   256
178
     2
271
     2
272
     3
274
     4
283
     0
340
11
  0
DIMSTYLE
105
8EC
330
A
100
AcDbSymbolTableRecord
100
AcDbDimStyleTableRecord
  2
AM_DIN$3
 70
     0
  4
"
 41
2.5
 42
1.0
 43
10.0
 44
1.0
 47
0.1
 48
0.1
 73
     0
 77
     1
 78
     8
 79
     2
140
3.5
141
0.0
143
0.0393701
146
0.71
147
1.5
176
   256
177
   256
178
     2
271
     2
272
     3
274
     4
283
     0
284
     8
288
     1
289
     0
340
11
371
    -1
372
    -1
1001
ACAD_DSTYLE_DIMJOGGED_JOGANGLE_SYMBOL
1070
   384
1040
1.570796326794896
  0
DIMSTYLE
105
8ED
330
A
100
AcDbSymbolTableRecord
100
AcDbDimStyleTableRecord
  2
AM_DIN$4
 70
     0
  4
"
 41
2.5
 42
1.0
 43
10.0
 44
1.0
 47
0.1
 48
0.1
 73
     0
 77
     1
 78
     8
 79
     2
140
3.5
141
0.0
143
0.0393701
146
0.71
147
1.5
176
   256
177
   256
178
     2
271
     2
272
     3
274
     4
283
     0
284
     8
288
     1
289
     0
340
11
371
    -1
372
    -1
1001
ACAD_DSTYLE_DIMJOGGED_JOGANGLE_SYMBOL
1070
   384
1040
1.570796326794896
  0
DIMSTYLE
105
8EE
330
A
100
AcDbSymbolTableRecord
100
AcDbDimStyleTableRecord
  2
AM_DIN$6
 70
     0
  4
"
 41
2.5
 42
1.0
 43
10.0
 44
1.0
 47
0.1
 48
0.1
 73
     0
 74
     0
 78
     8
 79
     2
140
3.5
141
0.0
143
0.0393701
146
0.71
147
1.5
172
     1
176
   256
177
   256
178
     2
271
     2
272
     3
274
     4
283
     0
284
     8
340
11
371
    -1
372
    -1
1001
ACAD_DSTYLE_DIMJOGGED_JOGANGLE_SYMBOL
1070
   384
1040
1.570796326794896
  0
DIMSTYLE
105
8EF
330
A
100
AcDbSymbolTableRecord
100
AcDbDimStyleTableRecord
  2
AM_DIN$7
 70
     0
  4
"
 41
2.5
 42
1.0
 43
10.0
 44
1.0
 47
0.1
 48
0.1
 73
     0
 74
     0
 77
     1
 78
     8
 79
     2
140
5.0
141
0.0
143
0.0393701
146
0.71
147
1.5
172
     1
176
   256
177
   256
178
     2
271
     2
272
     3
274
     4
283
     0
284
     8
340
11
371
    -1
372
    -1
1001
ACAD_DSTYLE_DIMJOGGED_JOGANGLE_SYMBOL
1070
   384
1040
1.570796326794896
  0
DIMSTYLE
105
8F0
330
A
100
AcDbSymbolTableRecord
100
AcDbDimStyleTableRecord
  2
AM_DIN$SF
 70
     0
  4
"
 41
2.5
 42
1.0
 43
10.0
 44
1.0
 47
0.1
 48
0.1
 73
     0
 74
     0
 75
     1
 76
     1
 77
     1
 78
     8
 79
     2
140
3.5
141
0.0
143
0.0393701
146
0.71
147
1.5
172
     1
176
   256
177
   256
178
     2
271
     2
272
     3
274
     4
283
     0
284
     8
340
11
371
    -1
372
    -1
1001
ACAD_DSTYLE_DIMJOGGED_JOGANGLE_SYMBOL
1070
   384
1040
1.570796326794896
  0
DIMSTYLE
105
8F1
330
A
100
AcDbSymbolTableRecord
100
AcDbDimStyleTableRecord
  2
AM_DIN$SH
 70
     0
  4
"
 41
2.5
 42
1.0
 43
10.0
 44
1.0
 47
0.1
 48
0.1
 73
     0
 74
     0
 75
     1
 76
     1
 77
     1
 78
     8
 79
     2
140
3.5
141
0.0
143
0.0393701
144
2.0
146
0.71
147
1.5
172
     1
173
     1
176
   256
177
   256
178
     2
271
     2
272
     3
274
     4
283
     0
284
     8
340
11
343
87
371
    -1
372
    -1
1001
ACAD_DSTYLE_DIMJOGGED_JOGANGLE_SYMBOL
1070
   384
1040
1.570796326794896
  0
DIMSTYLE
105
8F2
330
A
100
AcDbSymbolTableRecord
100
AcDbDimStyleTableRecord
  2
GEN-ISO$0
 70
     0
  3
<>
  4
"
 40
20.0
 41
2.5
 42
1.0
 43
7.0
 44
1.0
 47
0.1
 48
0.1
 73
     0
 74
     0
 77
     1
 78
     8
140
3.5
141
0.0
143
0.0393701
146
0.71
147
0.6
172
     1
176
   256
177
   256
178
     2
271
     2
272
     3
274
     4
283
     0
340
11
  0
ENDTAB
  0
TABLE
  2
BLOCK_RECORD
  5
1
330
0
100
AcDbSymbolTable
 70
    55
  0
BLOCK_RECORD
  5
1F
102
{ACAD_XDICTIONARY
360
8F
102
}
330
1
100
AcDbSymbolTableRecord
100
AcDbBlockTableRecord
  2
*Model_Space
340
22
  0
BLOCK_RECORD
  5
1B
330
1
100
AcDbSymbolTableRecord
100
AcDbBlockTableRecord
  2
*Paper_Space
340
1E
  0
BLOCK_RECORD
  5
23
330
1
100
AcDbSymbolTableRecord
100
AcDbBlockTableRecord
  2
*Paper_Space0
340
26
  0
BLOCK_RECORD
  5
87
330
1
100
AcDbSymbolTableRecord
100
AcDbBlockTableRecord
  2
GENAXEH
340
0
  0
BLOCK_RECORD
  5
3AE
330
1
100
AcDbSymbolTableRecord
100
AcDbBlockTableRecord
  2
*D2
340
0
  0
BLOCK_RECORD
  5
3BA
330
1
100
AcDbSymbolTableRecord
100
AcDbBlockTableRecord
  2
*D3
340
0
  0
BLOCK_RECORD
  5
3C8
330
1
100
AcDbSymbolTableRecord
100
AcDbBlockTableRecord
  2
*D4
340
0
  0
BLOCK_RECORD
  5
3D4
330
1
100
AcDbSymbolTableRecord
100
AcDbBlockTableRecord
  2
*D5
340
0
  0
BLOCK_RECORD
  5
3E0
330
1
100
AcDbSymbolTableRecord
100
AcDbBlockTableRecord
  2
*D6
340
0
  0
BLOCK_RECORD
  5
3EC
330
1
100
AcDbSymbolTableRecord
100
AcDbBlockTableRecord
  2
*D7
340
0
  0
BLOCK_RECORD
  5
3F8
330
1
100
AcDbSymbolTableRecord
100
AcDbBlockTableRecord
  2
*D8
340
0
  0
BLOCK_RECORD
  5
404
330
1
100
AcDbSymbolTableRecord
100
AcDbBlockTableRecord
  2
befestigung
340
0
310
2800000020000000200000000100080000000000000400000000000000000000000000000000000000000000000080000080000000808000800000008000800080800000C0C0C000C0DCC000F0CAA6000020400000206000002080000020A0000020C0000020E00000400000004020000040400000406000004080000040A0
310
000040C0000040E00000600000006020000060400000606000006080000060A0000060C0000060E00000800000008020000080400000806000008080000080A0000080C0000080E00000A0000000A0200000A0400000A0600000A0800000A0A00000A0C00000A0E00000C0000000C0200000C0400000C0600000C0800000C0
310
A00000C0C00000C0E00000E0000000E0200000E0400000E0600000E0800000E0A00000E0C00000E0E00040000000400020004000400040006000400080004000A0004000C0004000E00040200000402020004020400040206000402080004020A0004020C0004020E000404000004040200040404000404060004040800040
310
40A0004040C0004040E00040600000406020004060400040606000406080004060A0004060C0004060E00040800000408020004080400040806000408080004080A0004080C0004080E00040A0000040A0200040A0400040A0600040A0800040A0A00040A0C00040A0E00040C0000040C0200040C0400040C0600040C08000
310
40C0A00040C0C00040C0E00040E0000040E0200040E0400040E0600040E0800040E0A00040E0C00040E0E00080000000800020008000400080006000800080008000A0008000C0008000E00080200000802020008020400080206000802080008020A0008020C0008020E00080400000804020008040400080406000804080
310
008040A0008040C0008040E00080600000806020008060400080606000806080008060A0008060C0008060E00080800000808020008080400080806000808080008080A0008080C0008080E00080A0000080A0200080A0400080A0600080A0800080A0A00080A0C00080A0E00080C0000080C0200080C0400080C0600080C0
310
800080C0A00080C0C00080C0E00080E0000080E0200080E0400080E0600080E0800080E0A00080E0C00080E0E000C0000000C0002000C0004000C0006000C0008000C000A000C000C000C000E000C0200000C0202000C0204000C0206000C0208000C020A000C020C000C020E000C0400000C0402000C0404000C0406000C0
310
408000C040A000C040C000C040E000C0600000C0602000C0604000C0606000C0608000C060A000C060C000C060E000C0800000C0802000C0804000C0806000C0808000C080A000C080C000C080E000C0A00000C0A02000C0A04000C0A06000C0A08000C0A0A000C0A0C000C0A0E000C0C00000C0C02000C0C04000C0C06000
310
C0C08000C0C0A000F0FBFF00A4A0A000808080000000FF0000FF000000FFFF00FF000000FF00FF00FFFF0000FFFFFF00000000000000000000000000000000000000000000000000000000000000000000000000000000000000000000000000000000000000FF000000000000000000000000000000000000000000000000
310
000000000000FF00FFFFFF00000000000000000000000000000000000000000000000000FFFF0000000000FF0000000000000000000000000000000000000000000000FF00000000000000FF00000000000000000000000000000000000000000000FF000000000000000000FF000000000000000000000000000000000000
310
0000FF00000000000000000000FF00000000000000000000000000000000000000FF0000000000000000000000FF000000000000000000000000000000000000FF0000000000000000000000FF00000000000000000000000000000000FFFFFF0000000000000000000000FF0000000000000000000000FFFFFFFFFF00FFFF
310
FFFFFF00000000000000FFFF0000000000000000000000FFFF000000FF00FFFF000000FFFFFFFFFFFFFF00000000000000000000000000FFFF000000FF00FFFF00000000000000FF000000000000000000000000000000FFFFFFFFFFFF00FFFF00000000000000FF3030303030FFFF0000000000000000FFFF000000FF00FF
310
FF00000000000000FF0000000000FFFF0000000000000000FFFF000000FF00FFFF00000000000000FF0000000000FFFF000000000000E8E8FFFFE8E8E8E8E8FFFFE8E8E8E8E8E8E8FFE8E8E8E8E8FFFFE8E8000000000000FFFF000000FF00FFFF00000000000000FF0000000000FFFF0000000000000000FFFFFFFFFFFF00
310
FFFF00000000000000FFFFFFFFFFFFFFFF0000000000000000FFFF000000FF00FFFF00000000000000FF000000000000000000000000000000FFFF000000FF00FFFF00000000FFFFFFFFFF000000000000000000000000000000FFFFFFFFFF00FFFFFFFFFFFF0000000000FFFFFF0000000000000000000000000000000000
310
00FFFFFF0000000000000000000000FF0000000000000000000000000000000000000000FF0000000000000000000000FF0000000000000000000000000000000000000000FF0000000000000000000000FF0000000000000000000000000000000000000000FF00000000000000000000FF00000000000000000000000000
310
0000000000000000FF000000000000000000FF00000000000000000000000000000000000000000000FF00000000000000FF000000000000000000000000000000000000000000000000FF000000000000FF00000000000000000000000000000000000000000000000000FFFF0000FFFF0000000000000000000000000000
310
0000000000000000000000000000FFFF00000000000000000000000000000000000000000000000000000000000000000000000000000000
102
{BLKREFS
331
69D
331
69E
102
}
1001
ACAD
1000
DesignCenter Data
1002
{
1070
     1
1070
     4
1002
}
  0
BLOCK_RECORD
  5
428
330
1
100
AcDbSymbolTableRecord
100
AcDbBlockTableRecord
  2
*U10
340
0
102
{BLKREFS
331
425
102
}
  0
BLOCK_RECORD
  5
436
330
1
100
AcDbSymbolTableRecord
100
AcDbBlockTableRecord
  2
*U11
340
0
102
{BLKREFS
331
426
102
}
  0
BLOCK_RECORD
  5
43E
330
1
100
AcDbSymbolTableRecord
100
AcDbBlockTableRecord
  2
*D12
340
0
  0
BLOCK_RECORD
  5
44A
330
1
100
AcDbSymbolTableRecord
100
AcDbBlockTableRecord
  2
*D13
340
0
  0
BLOCK_RECORD
  5
6A6
330
1
100
AcDbSymbolTableRecord
100
AcDbBlockTableRecord
  2
*D14
340
0
  0
BLOCK_RECORD
  5
6B2
330
1
100
AcDbSymbolTableRecord
100
AcDbBlockTableRecord
  2
*D15
340
0
  0
BLOCK_RECORD
  5
6C0
330
1
100
AcDbSymbolTableRecord
100
AcDbBlockTableRecord
  2
*D16
340
0
  0
BLOCK_RECORD
  5
6CC
330
1
100
AcDbSymbolTableRecord
100
AcDbBlockTableRecord
  2
*D17
340
0
  0
BLOCK_RECORD
  5
6D8
330
1
100
AcDbSymbolTableRecord
100
AcDbBlockTableRecord
  2
*D18
340
0
  0
BLOCK_RECORD
  5
6E4
330
1
100
AcDbSymbolTableRecord
100
AcDbBlockTableRecord
  2
*D19
340
0
  0
BLOCK_RECORD
  5
6F0
330
1
100
AcDbSymbolTableRecord
100
AcDbBlockTableRecord
  2
*D20
340
0
  0
BLOCK_RECORD
  5
6FC
330
1
100
AcDbSymbolTableRecord
100
AcDbBlockTableRecord
  2
*D21
340
0
  0
BLOCK_RECORD
  5
708
330
1
100
AcDbSymbolTableRecord
100
AcDbBlockTableRecord
  2
*D22
340
0
  0
BLOCK_RECORD
  5
77B
330
1
100
AcDbSymbolTableRecord
100
AcDbBlockTableRecord
  2
*D23
340
0
  0
BLOCK_RECORD
  5
829
330
1
100
AcDbSymbolTableRecord
100
AcDbBlockTableRecord
  2
GENPOS14
340
0
  0
BLOCK_RECORD
  5
835
330
1
100
AcDbSymbolTableRecord
100
AcDbBlockTableRecord
  2
*D25
340
0
  0
BLOCK_RECORD
  5
841
330
1
100
AcDbSymbolTableRecord
100
AcDbBlockTableRecord
  2
*D26
340
0
  0
BLOCK_RECORD
  5
84D
330
1
100
AcDbSymbolTableRecord
100
AcDbBlockTableRecord
  2
*D27
340
0
  0
BLOCK_RECORD
  5
85A
330
1
100
AcDbSymbolTableRecord
100
AcDbBlockTableRecord
  2
*D28
340
0
  0
BLOCK_RECORD
  5
866
330
1
100
AcDbSymbolTableRecord
100
AcDbBlockTableRecord
  2
*D29
340
0
  0
BLOCK_RECORD
  5
872
330
1
100
AcDbSymbolTableRecord
100
AcDbBlockTableRecord
  2
*D30
340
0
  0
BLOCK_RECORD
  5
87E
330
1
100
AcDbSymbolTableRecord
100
AcDbBlockTableRecord
  2
*D31
340
0
  0
BLOCK_RECORD
  5
88A
330
1
100
AcDbSymbolTableRecord
100
AcDbBlockTableRecord
  2
*D32
340
0
  0
BLOCK_RECORD
  5
898
330
1
100
AcDbSymbolTableRecord
100
AcDbBlockTableRecord
  2
*D33
340
0
  0
BLOCK_RECORD
  5
8A4
330
1
100
AcDbSymbolTableRecord
100
AcDbBlockTableRecord
  2
*D34
340
0
  0
BLOCK_RECORD
  5
8B0
330
1
100
AcDbSymbolTableRecord
100
AcDbBlockTableRecord
  2
*D35
340
0
  0
BLOCK_RECORD
  5
8BC
330
1
100
AcDbSymbolTableRecord
100
AcDbBlockTableRecord
  2
*D36
340
0
  0
BLOCK_RECORD
  5
8C8
330
1
100
AcDbSymbolTableRecord
100
AcDbBlockTableRecord
  2
*D37
340
0
  0
BLOCK_RECORD
  5
8D4
330
1
100
AcDbSymbolTableRecord
100
AcDbBlockTableRecord
  2
*D38
340
0
  0
BLOCK_RECORD
  5
9FF
330
1
100
AcDbSymbolTableRecord
100
AcDbBlockTableRecord
  2
*D39
340
0
  0
BLOCK_RECORD
  5
A0B
330
1
100
AcDbSymbolTableRecord
100
AcDbBlockTableRecord
  2
*D40
340
0
  0
BLOCK_RECORD
  5
A17
330
1
100
AcDbSymbolTableRecord
100
AcDbBlockTableRecord
  2
*D41
340
0
  0
BLOCK_RECORD
  5
A23
330
1
100
AcDbSymbolTableRecord
100
AcDbBlockTableRecord
  2
*D42
340
0
  0
BLOCK_RECORD
  5
A2F
330
1
100
AcDbSymbolTableRecord
100
AcDbBlockTableRecord
  2
*D43
340
0
  0
BLOCK_RECORD
  5
A3B
330
1
100
AcDbSymbolTableRecord
100
AcDbBlockTableRecord
  2
*D44
340
0
  0
BLOCK_RECORD
  5
A47
330
1
100
AcDbSymbolTableRecord
100
AcDbBlockTableRecord
  2
*D45
340
0
  0
BLOCK_RECORD
  5
A53
330
1
100
AcDbSymbolTableRecord
100
AcDbBlockTableRecord
  2
*D46
340
0
  0
BLOCK_RECORD
  5
A61
330
1
100
AcDbSymbolTableRecord
100
AcDbBlockTableRecord
  2
*D47
340
0
  0
BLOCK_RECORD
  5
A6D
330
1
100
AcDbSymbolTableRecord
100
AcDbBlockTableRecord
  2
*D48
340
0
  0
BLOCK_RECORD
  5
A79
330
1
100
AcDbSymbolTableRecord
100
AcDbBlockTableRecord
  2
*D49
340
0
  0
BLOCK_RECORD
  5
A85
330
1
100
AcDbSymbolTableRecord
100
AcDbBlockTableRecord
  2
*D50
340
0
  0
BLOCK_RECORD
  5
A91
330
1
100
AcDbSymbolTableRecord
100
AcDbBlockTableRecord
  2
*D51
340
0
  0
BLOCK_RECORD
  5
A9D
330
1
100
AcDbSymbolTableRecord
100
AcDbBlockTableRecord
  2
*D52
340
0
  0
BLOCK_RECORD
  5
AA9
330
1
100
AcDbSymbolTableRecord
100
AcDbBlockTableRecord
  2
*D53
340
0
  0
ENDTAB
  0
ENDSEC
  0
SECTION
  2
BLOCKS
  0
BLOCK
  5
20
330
1F
100
AcDbEntity
  8
0
100
AcDbBlockBegin
  2
*Model_Space
 70
     0
 10
0.0
 20
0.0
 30
0.0
  3
*Model_Space
  1

  0
ENDBLK
  5
21
330
1F
100
AcDbEntity
  8
0
100
AcDbBlockEnd
  0
BLOCK
  5
1C
330
1B
100
AcDbEntity
 67
     1
  8
0
100
AcDbBlockBegin
  2
*Paper_Space
 70
     0
 10
0.0
 20
0.0
 30
0.0
  3
*Paper_Space
  1

  0
ENDBLK
  5
1D
330
1B
100
AcDbEntity
 67
     1
  8
0
100
AcDbBlockEnd
  0
BLOCK
  5
24
330
23
100
AcDbEntity
 67
     1
  8
0
100
AcDbBlockBegin
  2
*Paper_Space0
 70
     0
 10
0.0
 20
0.0
 30
0.0
  3
*Paper_Space0
  1

  0
ENDBLK
  5
25
330
23
100
AcDbEntity
 67
     1
  8
0
100
AcDbBlockEnd
  0
BLOCK
  5
89
330
87
100
AcDbEntity
  8
0
100
AcDbBlockBegin
  2
GENAXEH
 70
     0
 10
0.0
 20
0.0
 30
0.0
  3
GENAXEH
  1

  0
LINE
  5
88
330
87
100
AcDbEntity
  8
0
100
AcDbLine
 10
-1.0
 20
0.0
 30
0.0
 11
1.0
 21
0.0
 31
0.0
  0
ENDBLK
  5
8A
330
87
100
AcDbEntity
  8
0
100
AcDbBlockEnd
  0
BLOCK
  5
3AF
330
3AE
100
AcDbEntity
  8
0
100
AcDbBlockBegin
  2
*D2
 70
     1
 10
0.0
 20
0.0
 30
0.0
  3
*D2
  1

  0
LINE
  5
3B0
330
3AE
100
AcDbEntity
  8
AM_5
  6
ByBlock
100
AcDbLine
 10
5224.534754589623
 20
1466.029034737614
 30
0.0
 11
5346.818442238854
 21
1466.029034737614
 31
0.0
  0
LINE
  5
3B1
330
3AE
100
AcDbEntity
  8
AM_5
  6
ByBlock
100
AcDbLine
 10
5226.605213829589
 20
1592.956463308876
 30
0.0
 11
5346.818442238854
 21
1592.956463308876
 31
0.0
  0
LINE
  5
3B2
330
3AE
100
AcDbEntity
  8
AM_5
  6
ByBlock
100
AcDbLine
 10
5345.818442238854
 20
1473.029034737614
 30
0.0
 11
5345.818442238854
 21
1585.956463308876
 31
0.0
  0
SOLID
  5
3B3
330
3AE
100
AcDbEntity
  8
AM_5
100
AcDbTrace
 10
5344.651775572187
 20
1473.029034737614
 30
0.0
 11
5346.985108905521
 21
1473.029034737614
 31
0.0
 12
5345.818442238854
 22
1466.029034737614
 32
0.0
 13
5345.818442238854
 23
1466.029034737614
 33
0.0
  0
SOLID
  5
3B4
330
3AE
100
AcDbEntity
  8
AM_5
100
AcDbTrace
 10
5344.651775572187
 20
1585.956463308876
 30
0.0
 11
5346.985108905521
 21
1585.956463308876
 31
0.0
 12
5345.818442238854
 22
1592.956463308876
 32
0.0
 13
5345.818442238854
 23
1592.956463308876
 33
0.0
  0
MTEXT
  5
3B5
330
3AE
100
AcDbEntity
  8
AM_5
 62
     2
100
AcDbMText
 10
5339.318442238854
 20
1529.492749023246
 30
0.0
 40
10.0
 41
0.0
 71
     5
 72
     1
  1
107-160
 11
0.0000000000000001
 21
1.0
 31
0.0
 73
     1
 44
1.0
1001
ACAD
1000
MTEXTBEGIN
1070
    73
1070
     1
1070
    44
1040
1.0
1070
    74
1070
     0
1000
MTEXTEND
  0
POINT
  5
3B6
330
3AE
100
AcDbEntity
  8
Defpoints
 62
     0
100
AcDbPoint
 10
5223.534754589621
 20
1466.029034737614
 30
0.0
  0
POINT
  5
3B7
330
3AE
100
AcDbEntity
  8
Defpoints
 62
     0
100
AcDbPoint
 10
5225.605213829589
 20
1592.956463308876
 30
0.0
  0
POINT
  5
3B8
330
3AE
100
AcDbEntity
  8
Defpoints
 62
     0
100
AcDbPoint
 10
5345.818442238854
 20
1592.956463308876
 30
0.0
  0
ENDBLK
  5
3B9
330
3AE
100
AcDbEntity
  8
0
100
AcDbBlockEnd
  0
BLOCK
  5
3BB
330
3BA
100
AcDbEntity
  8
0
100
AcDbBlockBegin
  2
*D3
 70
     1
 10
0.0
 20
0.0
 30
0.0
  3
*D3
  1

  0
LINE
  5
3BC
330
3BA
100
AcDbEntity
  8
AM_5
  6
ByBlock
100
AcDbLine
 10
5248.521040303991
 20
1577.965034737615
 30
0.0
 11
5301.453232450999
 21
1577.965034737615
 31
0.0
  0
LINE
  5
3BD
330
3BA
100
AcDbEntity
  8
AM_5
  6
ByBlock
100
AcDbLine
 10
5226.605213829589
 20
1592.956463308876
 30
0.0
 11
5301.453232450999
 21
1592.956463308876
 31
0.0
  0
LINE
  5
3BE
330
3BA
100
AcDbEntity
  8
AM_5
  6
ByBlock
100
AcDbLine
 10
5300.453232450998
 20
1570.965034737615
 30
0.0
 11
5300.453232450998
 21
1563.965034737615
 31
0.0
  0
LINE
  5
3BF
330
3BA
100
AcDbEntity
  8
AM_5
  6
ByBlock
100
AcDbLine
 10
5300.453232450998
 20
1599.956463308876
 30
0.0
 11
5300.453232450998
 21
1606.956463308876
 31
0.0
  0
LINE
  5
3C0
330
3BA
100
AcDbEntity
  8
AM_5
  6
ByBlock
100
AcDbLine
 10
5300.453232450998
 20
1577.965034737615
 30
0.0
 11
5300.453232450998
 21
1592.956463308876
 31
0.0
  0
SOLID
  5
3C1
330
3BA
100
AcDbEntity
  8
AM_5
100
AcDbTrace
 10
5299.286565784331
 20
1570.965034737615
 30
0.0
 11
5301.619899117665
 21
1570.965034737615
 31
0.0
 12
5300.453232450998
 22
1577.965034737615
 32
0.0
 13
5300.453232450998
 23
1577.965034737615
 33
0.0
  0
SOLID
  5
3C2
330
3BA
100
AcDbEntity
  8
AM_5
100
AcDbTrace
 10
5299.286565784331
 20
1599.956463308876
 30
0.0
 11
5301.619899117665
 21
1599.956463308876
 31
0.0
 12
5300.453232450998
 22
1592.956463308876
 32
0.0
 13
5300.453232450998
 23
1592.956463308876
 33
0.0
  0
MTEXT
  5
3C3
330
3BA
100
AcDbEntity
  8
AM_5
 62
     2
100
AcDbMText
 10
5293.953232450999
 20
1585.460749023246
 30
0.0
 40
10.0
 41
0.0
 71
     5
 72
     1
  1
15
 11
0.0000000000000001
 21
1.0
 31
0.0
 73
     1
 44
1.0
1001
ACAD
1000
MTEXTBEGIN
1070
    73
1070
     1
1070
    44
1040
1.0
1070
    74
1070
     0
1000
MTEXTEND
  0
POINT
  5
3C4
330
3BA
100
AcDbEntity
  8
Defpoints
 62
     0
100
AcDbPoint
 10
5247.521040303991
 20
1577.965034737615
 30
0.0
  0
POINT
  5
3C5
330
3BA
100
AcDbEntity
  8
Defpoints
 62
     0
100
AcDbPoint
 10
5225.605213829589
 20
1592.956463308876
 30
0.0
  0
POINT
  5
3C6
330
3BA
100
AcDbEntity
  8
Defpoints
 62
     0
100
AcDbPoint
 10
5300.453232450998
 20
1592.956463308876
 30
0.0
  0
ENDBLK
  5
3C7
330
3BA
100
AcDbEntity
  8
0
100
AcDbBlockEnd
  0
BLOCK
  5
3C9
330
3C8
100
AcDbEntity
  8
0
100
AcDbBlockBegin
  2
*D4
 70
     1
 10
0.0
 20
0.0
 30
0.0
  3
*D4
  1

  0
LINE
  5
3CA
330
3C8
100
AcDbEntity
  8
AM_5
  6
ByBlock
100
AcDbLine
 10
5226.605213829589
 20
1592.956463308876
 30
0.0
 11
5301.603383023341
 21
1592.956463308876
 31
0.0
  0
LINE
  5
3CB
330
3C8
100
AcDbEntity
  8
AM_5
  6
ByBlock
100
AcDbLine
 10
5248.521040303991
 20
1632.933606165769
 30
0.0
 11
5301.603383023341
 21
1632.933606165769
 31
0.0
  0
LINE
  5
3CC
330
3C8
100
AcDbEntity
  8
AM_5
  6
ByBlock
100
AcDbLine
 10
5300.603383023341
 20
1599.956463308876
 30
0.0
 11
5300.603383023341
 21
1625.933606165769
 31
0.0
  0
SOLID
  5
3CD
330
3C8
100
AcDbEntity
  8
AM_5
100
AcDbTrace
 10
5299.436716356674
 20
1599.956463308876
 30
0.0
 11
5301.770049690008
 21
1599.956463308876
 31
0.0
 12
5300.603383023341
 22
1592.956463308876
 32
0.0
 13
5300.603383023341
 23
1592.956463308876
 33
0.0
  0
SOLID
  5
3CE
330
3C8
100
AcDbEntity
  8
AM_5
100
AcDbTrace
 10
5299.436716356674
 20
1625.933606165769
 30
0.0
 11
5301.770049690008
 21
1625.933606165769
 31
0.0
 12
5300.603383023341
 22
1632.933606165769
 32
0.0
 13
5300.603383023341
 23
1632.933606165769
 33
0.0
  0
MTEXT
  5
3CF
330
3C8
100
AcDbEntity
  8
AM_5
 62
     2
100
AcDbMText
 10
5294.10338302334
 20
1612.945034737323
 30
0.0
 40
10.0
 41
0.0
 71
     5
 72
     1
  1
40
 11
0.0000000000000001
 21
1.0
 31
0.0
 73
     1
 44
1.0
1001
ACAD
1000
MTEXTBEGIN
1070
    73
1070
     1
1070
    44
1040
1.0
1070
    74
1070
     0
1000
MTEXTEND
  0
POINT
  5
3D0
330
3C8
100
AcDbEntity
  8
Defpoints
 62
     0
100
AcDbPoint
 10
5225.605213829589
 20
1592.956463308876
 30
0.0
  0
POINT
  5
3D1
330
3C8
100
AcDbEntity
  8
Defpoints
 62
     0
100
AcDbPoint
 10
5247.521040303991
 20
1632.933606165769
 30
0.0
  0
POINT
  5
3D2
330
3C8
100
AcDbEntity
  8
Defpoints
 62
     0
100
AcDbPoint
 10
5300.603383023341
 20
1632.933606165769
 30
0.0
  0
ENDBLK
  5
3D3
330
3C8
100
AcDbEntity
  8
0
100
AcDbBlockEnd
  0
BLOCK
  5
3D5
330
3D4
100
AcDbEntity
  8
0
100
AcDbBlockBegin
  2
*D5
 70
     1
 10
0.0
 20
0.0
 30
0.0
  3
*D5
  1

  0
LINE
  5
3D6
330
3D4
100
AcDbEntity
  8
AM_5
  6
ByBlock
100
AcDbLine
 10
5226.605213829589
 20
1191.324752817105
 30
0.0
 11
5306.868176114306
 21
1191.324752817105
 31
0.0
  0
LINE
  5
3D7
330
3D4
100
AcDbEntity
  8
AM_5
  6
ByBlock
100
AcDbLine
 10
5226.533040304579
 20
1272.078581388367
 30
0.0
 11
5306.868176114306
 21
1272.078581388367
 31
0.0
  0
LINE
  5
3D8
330
3D4
100
AcDbEntity
  8
AM_5
  6
ByBlock
100
AcDbLine
 10
5305.868176114306
 20
1198.324752817105
 30
0.0
 11
5305.868176114306
 21
1265.078581388367
 31
0.0
  0
SOLID
  5
3D9
330
3D4
100
AcDbEntity
  8
AM_5
100
AcDbTrace
 10
5304.701509447639
 20
1198.324752817105
 30
0.0
 11
5307.034842780973
 21
1198.324752817105
 31
0.0
 12
5305.868176114306
 22
1191.324752817105
 32
0.0
 13
5305.868176114306
 23
1191.324752817105
 33
0.0
  0
SOLID
  5
3DA
330
3D4
100
AcDbEntity
  8
AM_5
100
AcDbTrace
 10
5304.701509447639
 20
1265.078581388367
 30
0.0
 11
5307.034842780973
 21
1265.078581388367
 31
0.0
 12
5305.868176114306
 22
1272.078581388367
 32
0.0
 13
5305.868176114306
 23
1272.078581388367
 33
0.0
  0
MTEXT
  5
3DB
330
3D4
100
AcDbEntity
  8
AM_5
 62
     2
100
AcDbMText
 10
5299.368176114306
 20
1231.701667102737
 30
0.0
 40
10.0
 41
0.0
 71
     5
 72
     1
  1
84
 11
0.0000000000000001
 21
1.0
 31
0.0
 73
     1
 44
1.0
1001
ACAD
1000
MTEXTBEGIN
1070
    73
1070
     1
1070
    44
1040
1.0
1070
    74
1070
     0
1000
MTEXTEND
  0
POINT
  5
3DC
330
3D4
100
AcDbEntity
  8
Defpoints
 62
     0
100
AcDbPoint
 10
5225.605213829589
 20
1191.324752817105
 30
0.0
  0
POINT
  5
3DD
330
3D4
100
AcDbEntity
  8
Defpoints
 62
     0
100
AcDbPoint
 10
5225.533040304579
 20
1272.078581388367
 30
0.0
  0
POINT
  5
3DE
330
3D4
100
AcDbEntity
  8
Defpoints
 62
     0
100
AcDbPoint
 10
5305.868176114306
 20
1272.078581388367
 30
0.0
  0
ENDBLK
  5
3DF
330
3D4
100
AcDbEntity
  8
0
100
AcDbBlockEnd
  0
BLOCK
  5
3E1
330
3E0
100
AcDbEntity
  8
0
100
AcDbBlockBegin
  2
*D6
 70
     1
 10
0.0
 20
0.0
 30
0.0
  3
*D6
  1

  0
LINE
  5
3E2
330
3E0
100
AcDbEntity
  8
AM_5
  6
ByBlock
100
AcDbLine
 10
5257.58692811522
 20
1166.824752817105
 30
0.0
 11
5342.764926054566
 21
1166.824752817105
 31
0.0
  0
LINE
  5
3E3
330
3E0
100
AcDbEntity
  8
AM_5
  6
ByBlock
100
AcDbLine
 10
5255.587499543376
 20
1299.549438531475
 30
0.0
 11
5342.764926054566
 21
1299.549438531475
 31
0.0
  0
LINE
  5
3E4
330
3E0
100
AcDbEntity
  8
AM_5
  6
ByBlock
100
AcDbLine
 10
5341.764926054565
 20
1173.824752817105
 30
0.0
 11
5341.764926054565
 21
1292.549438531475
 31
0.0
  0
SOLID
  5
3E5
330
3E0
100
AcDbEntity
  8
AM_5
100
AcDbTrace
 10
5340.598259387899
 20
1173.824752817105
 30
0.0
 11
5342.931592721233
 21
1173.824752817105
 31
0.0
 12
5341.764926054565
 22
1166.824752817105
 32
0.0
 13
5341.764926054565
 23
1166.824752817105
 33
0.0
  0
SOLID
  5
3E6
330
3E0
100
AcDbEntity
  8
AM_5
100
AcDbTrace
 10
5340.598259387899
 20
1292.549438531475
 30
0.0
 11
5342.931592721233
 21
1292.549438531475
 31
0.0
 12
5341.764926054565
 22
1299.549438531475
 32
0.0
 13
5341.764926054565
 23
1299.549438531475
 33
0.0
  0
MTEXT
  5
3E7
330
3E0
100
AcDbEntity
  8
AM_5
 62
     2
100
AcDbMText
 10
5335.264926054566
 20
1233.187095674291
 30
0.0
 40
10.0
 41
0.0
 71
     5
 72
     1
  1
133
 11
0.0000000000000001
 21
1.0
 31
0.0
 73
     1
 44
1.0
1001
ACAD
1000
MTEXTBEGIN
1070
    73
1070
     1
1070
    44
1040
1.0
1070
    74
1070
     0
1000
MTEXTEND
  0
POINT
  5
3E8
330
3E0
100
AcDbEntity
  8
Defpoints
 62
     0
100
AcDbPoint
 10
5256.58692811522
 20
1166.824752817105
 30
0.0
  0
POINT
  5
3E9
330
3E0
100
AcDbEntity
  8
Defpoints
 62
     0
100
AcDbPoint
 10
5254.587499543376
 20
1299.549438531475
 30
0.0
  0
POINT
  5
3EA
330
3E0
100
AcDbEntity
  8
Defpoints
 62
     0
100
AcDbPoint
 10
5341.764926054565
 20
1299.549438531475
 30
0.0
  0
ENDBLK
  5
3EB
330
3E0
100
AcDbEntity
  8
0
100
AcDbBlockEnd
  0
BLOCK
  5
3ED
330
3EC
100
AcDbEntity
  8
0
100
AcDbBlockBegin
  2
*D7
 70
     1
 10
0.0
 20
0.0
 30
0.0
  3
*D7
  1

  0
LINE
  5
3EE
330
3EC
100
AcDbEntity
  8
AM_5
  6
ByBlock
100
AcDbLine
 10
5225.533040304579
 20
1251.177443584283
 30
0.0
 11
5225.533040304579
 21
1320.77366740422
 31
0.0
  0
LINE
  5
3EF
330
3EC
100
AcDbEntity
  8
AM_5
  6
ByBlock
100
AcDbLine
 10
4525.933040303993
 20
1258.497658502843
 30
0.0
 11
4525.933040303993
 21
1320.77366740422
 31
0.0
  0
LINE
  5
3F0
330
3EC
100
AcDbEntity
  8
AM_5
  6
ByBlock
100
AcDbLine
 10
5218.533040304579
 20
1319.77366740422
 30
0.0
 11
4532.933040303993
 21
1319.77366740422
 31
0.0
  0
SOLID
  5
3F1
330
3EC
100
AcDbEntity
  8
AM_5
100
AcDbTrace
 10
5218.533040304579
 20
1320.940334070887
 30
0.0
 11
5218.533040304579
 21
1318.607000737554
 31
0.0
 12
5225.533040304579
 22
1319.77366740422
 32
0.0
 13
5225.533040304579
 23
1319.77366740422
 33
0.0
  0
SOLID
  5
3F2
330
3EC
100
AcDbEntity
  8
AM_5
100
AcDbTrace
 10
4532.933040303993
 20
1320.940334070887
 30
0.0
 11
4532.933040303993
 21
1318.607000737554
 31
0.0
 12
4525.933040303993
 22
1319.77366740422
 32
0.0
 13
4525.933040303993
 23
1319.77366740422
 33
0.0
  0
MTEXT
  5
3F3
330
3EC
100
AcDbEntity
  8
AM_5
 62
     2
100
AcDbMText
 10
4875.733040304286
 20
1326.27366740422
 30
0.0
 40
10.0
 41
0.0
 71
     5
 72
     1
  1
700
 73
     1
 44
1.0
1001
ACAD
1000
MTEXTBEGIN
1070
    73
1070
     1
1070
    44
1040
1.0
1070
    74
1070
     0
1000
MTEXTEND
  0
POINT
  5
3F4
330
3EC
100
AcDbEntity
  8
Defpoints
 62
     0
100
AcDbPoint
 10
5225.533040304579
 20
1250.177443584283
 30
0.0
  0
POINT
  5
3F5
330
3EC
100
AcDbEntity
  8
Defpoints
 62
     0
100
AcDbPoint
 10
4525.933040303993
 20
1257.497658502843
 30
0.0
  0
POINT
  5
3F6
330
3EC
100
AcDbEntity
  8
Defpoints
 62
     0
100
AcDbPoint
 10
4525.933040303993
 20
1319.77366740422
 30
0.0
  0
ENDBLK
  5
3F7
330
3EC
100
AcDbEntity
  8
0
100
AcDbBlockEnd
  0
BLOCK
  5
3F9
330
3F8
100
AcDbEntity
  8
0
100
AcDbBlockBegin
  2
*D8
 70
     1
 10
0.0
 20
0.0
 30
0.0
  3
*D8
  1

  0
LINE
  5
3FA
330
3F8
100
AcDbEntity
  8
AM_5
  6
ByBlock
100
AcDbLine
 10
5257.58692811522
 20
1295.690238531181
 30
0.0
 11
5257.58692811522
 21
1355.897122471325
 31
0.0
  0
LINE
  5
3FB
330
3F8
100
AcDbEntity
  8
AM_5
  6
ByBlock
100
AcDbLine
 10
4494.023499543959
 20
1295.690238531181
 30
0.0
 11
4494.023499543959
 21
1355.897122471325
 31
0.0
  0
LINE
  5
3FC
330
3F8
100
AcDbEntity
  8
AM_5
  6
ByBlock
100
AcDbLine
 10
5250.58692811522
 20
1354.897122471325
 30
0.0
 11
4501.023499543959
 21
1354.897122471325
 31
0.0
  0
SOLID
  5
3FD
330
3F8
100
AcDbEntity
  8
AM_5
100
AcDbTrace
 10
5250.58692811522
 20
1356.063789137992
 30
0.0
 11
5250.58692811522
 21
1353.730455804659
 31
0.0
 12
5257.58692811522
 22
1354.897122471325
 32
0.0
 13
5257.58692811522
 23
1354.897122471325
 33
0.0
  0
SOLID
  5
3FE
330
3F8
100
AcDbEntity
  8
AM_5
100
AcDbTrace
 10
4501.023499543959
 20
1356.063789137992
 30
0.0
 11
4501.023499543959
 21
1353.730455804659
 31
0.0
 12
4494.023499543959
 22
1354.897122471325
 32
0.0
 13
4494.023499543959
 23
1354.897122471325
 33
0.0
  0
MTEXT
  5
3FF
330
3F8
100
AcDbEntity
  8
AM_5
 62
     2
100
AcDbMText
 10
4875.80521382959
 20
1361.397122471325
 30
0.0
 40
10.0
 41
0.0
 71
     5
 72
     1
  1
764
 73
     1
 44
1.0
1001
ACAD
1000
MTEXTBEGIN
1070
    73
1070
     1
1070
    44
1040
1.0
1070
    74
1070
     0
1000
MTEXTEND
  0
POINT
  5
400
330
3F8
100
AcDbEntity
  8
Defpoints
 62
     0
100
AcDbPoint
 10
5257.58692811522
 20
1294.690238531181
 30
0.0
  0
POINT
  5
401
330
3F8
100
AcDbEntity
  8
Defpoints
 62
     0
100
AcDbPoint
 10
4494.023499543959
 20
1294.690238531181
 30
0.0
  0
POINT
  5
402
330
3F8
100
AcDbEntity
  8
Defpoints
 62
     0
100
AcDbPoint
 10
4494.023499543959
 20
1354.897122471325
 30
0.0
  0
ENDBLK
  5
403
330
3F8
100
AcDbEntity
  8
0
100
AcDbBlockEnd
  0
BLOCK
  5
405
330
404
100
AcDbEntity
  8
0
100
AcDbBlockBegin
  2
befestigung
 70
     0
 10
0.0
 20
0.0
 30
0.0
  3
befestigung
  1

  0
LINE
  5
406
330
404
100
AcDbEntity
  8
AM_7N
  6
AM_ISO08W050x2
100
AcDbLine
 10
2003.869006815402
 20
1351.458312600669
 30
0.0
 11
2040.549006815402
 21
1351.458312600669
 31
0.0
1001
GENIUS_GENOREF_13
1005
0
1005
0
1005
0
  0
LINE
  5
407
330
404
100
AcDbEntity
  8
AM_9N
100
AcDbLine
 10
2015.674006815402
 20
1347.458312600669
 30
0.0
 11
2017.974006815402
 21
1347.458312600669
 31
0.0
1001
GENIUS_GENOREF_13
1005
0
1005
0
1005
0
  0
LINE
  5
408
330
404
100
AcDbEntity
  8
AM_9N
100
AcDbLine
 10
2022.209006815402
 20
1347.458312600669
 30
0.0
 11
2032.209006815401
 21
1347.458312600669
 31
0.0
1001
GENIUS_GENOREF_13
1005
0
1005
0
1005
0
  0
LINE
  5
409
330
404
100
AcDbEntity
  8
AM_0N
100
AcDbLine
 10
2027.974006815401
 20
1347.458312600669
 30
0.0
 11
2036.782194315402
 21
1347.458312600669
 31
0.0
1001
GENIUS_GENOREF_13
1005
0
1005
0
1005
0
  0
LINE
  5
40A
330
404
100
AcDbEntity
  8
AM_9N
100
AcDbLine
 10
2015.674006815402
 20
1348.225125100669
 30
0.0
 11
2017.974006815402
 21
1348.225125100669
 31
0.0
1001
GENIUS_GENOREF_13
1005
0
1005
0
1005
0
  0
LINE
  5
40B
330
404
100
AcDbEntity
  8
AM_9N
100
AcDbLine
 10
2022.209006815402
 20
1348.225125100669
 30
0.0
 11
2032.209006815401
 21
1348.225125100669
 31
0.0
1001
GENIUS_GENOREF_13
1005
0
1005
0
1005
0
  0
LINE
  5
40C
330
404
100
AcDbEntity
  8
AM_4N
100
AcDbLine
 10
2027.974006815401
 20
1348.225125100669
 30
0.0
 11
2037.549006815402
 21
1348.225125100669
 31
0.0
1001
GENIUS_GENOREF_13
1005
0
1005
0
1005
0
  0
LINE
  5
40D
330
404
100
AcDbEntity
  8
AM_9N
100
AcDbLine
 10
2015.674006815402
 20
1354.691500100669
 30
0.0
 11
2017.974006815402
 21
1354.691500100669
 31
0.0
1001
GENIUS_GENOREF_13
1005
0
1005
0
1005
0
  0
LINE
  5
40E
330
404
100
AcDbEntity
  8
AM_9N
100
AcDbLine
 10
2027.974006815401
 20
1354.691500100669
 30
0.0
 11
2032.209006815401
 21
1354.691500100669
 31
0.0
1001
GENIUS_GENOREF_13
1005
0
1005
0
1005
0
  0
LINE
  5
40F
330
404
100
AcDbEntity
  8
AM_4N
100
AcDbLine
 10
2027.974006815401
 20
1354.691500100669
 30
0.0
 11
2037.549006815402
 21
1354.691500100669
 31
0.0
1001
GENIUS_GENOREF_13
1005
0
1005
0
1005
0
  0
LINE
  5
410
330
404
100
AcDbEntity
  8
AM_9N
100
AcDbLine
 10
2015.674006815402
 20
1355.458312600669
 30
0.0
 11
2017.974006815402
 21
1355.458312600669
 31
0.0
1001
GENIUS_GENOREF_13
1005
0
1005
0
1005
0
  0
LINE
  5
411
330
404
100
AcDbEntity
  8
AM_9N
100
AcDbLine
 10
2027.974006815401
 20
1355.458312600669
 30
0.0
 11
2032.209006815401
 21
1355.458312600669
 31
0.0
1001
GENIUS_GENOREF_13
1005
0
1005
0
1005
0
  0
LINE
  5
412
330
404
100
AcDbEntity
  8
AM_0N
100
AcDbLine
 10
2027.974006815401
 20
1355.458312600669
 30
0.0
 11
2036.782194315402
 21
1355.458312600669
 31
0.0
1001
GENIUS_GENOREF_13
1005
0
1005
0
1005
0
  0
ARC
  5
413
330
404
100
AcDbEntity
  8
AM_0N
100
AcDbCircle
 10
2019.27813978905
 20
1351.458312600669
 30
0.0
 40
12.4091329736479
100
AcDbArc
 50
162.3875260144767
 51
197.6124739855233
1001
GENIUS_GENOREF_13
1005
0
1005
0
1005
0
  0
LINE
  5
414
330
404
100
AcDbEntity
  8
AM_0N
100
AcDbLine
 10
2012.549006815402
 20
1347.458312600669
 30
0.0
 11
2012.549006815402
 21
1355.458312600669
 31
0.0
1001
GENIUS_GENOREF_13
1005
0
1005
0
1005
0
  0
LINE
  5
415
330
404
100
AcDbEntity
  8
AM_0N
100
AcDbLine
 10
2012.549006815402
 20
1355.458312600669
 30
0.0
 11
2012.549006815402
 21
1347.458312600669
 31
0.0
1001
GENIUS_GENOREF_13
1005
0
1005
0
1005
0
  0
LINE
  5
416
330
404
100
AcDbEntity
  8
AM_0N
100
AcDbLine
 10
2006.869006815402
 20
1357.958312600669
 30
0.0
 11
2006.869006815402
 21
1344.958312600669
 31
0.0
1001
GENIUS_GENOREF_13
1005
0
1005
0
1005
0
  0
LINE
  5
417
330
404
100
AcDbEntity
  8
AM_0N
100
AcDbLine
 10
2007.45068721161
 20
1343.950812600669
 30
0.0
 11
2012.549006815402
 21
1343.950812600669
 31
0.0
1001
GENIUS_GENOREF_13
1005
0
1005
0
1005
0
  0
LINE
  5
418
330
404
100
AcDbEntity
  8
AM_0N
100
AcDbLine
 10
2007.45068721161
 20
1347.703589350401
 30
0.0
 11
2012.549006815402
 21
1347.703589350401
 31
0.0
1001
GENIUS_GENOREF_13
1005
0
1005
0
1005
0
  0
ARC
  5
419
330
404
100
AcDbEntity
  8
AM_0N
100
AcDbCircle
 10
2010.186279876194
 20
1345.827200975535
 30
0.0
 40
3.317273060791837
100
AcDbArc
 50
145.5531276177371
 51
205.5531276177362
1001
GENIUS_GENOREF_13
1005
0
1005
0
1005
0
  0
LINE
  5
41A
330
404
100
AcDbEntity
  8
AM_0N
100
AcDbLine
 10
2007.45068721161
 20
1343.950812600669
 30
0.0
 11
2006.869006815402
 21
1344.958312600669
 31
0.0
1001
GENIUS_GENOREF_13
1005
0
1005
0
1005
0
  0
LINE
  5
41B
330
404
100
AcDbEntity
  8
AM_0N
100
AcDbLine
 10
2012.549006815402
 20
1343.950812600669
 30
0.0
 11
2012.549006815402
 21
1347.458312600669
 31
0.0
1001
GENIUS_GENOREF_13
1005
0
1005
0
1005
0
  0
LINE
  5
41C
330
404
100
AcDbEntity
  8
AM_0N
100
AcDbLine
 10
2012.549006815402
 20
1355.458312600669
 30
0.0
 11
2012.549006815402
 21
1358.965812600669
 31
0.0
1001
GENIUS_GENOREF_13
1005
0
1005
0
1005
0
  0
LINE
  5
41D
330
404
100
AcDbEntity
  8
AM_0N
100
AcDbLine
 10
2007.45068721161
 20
1358.965812600669
 30
0.0
 11
2006.869006815402
 21
1357.958312600669
 31
0.0
1001
GENIUS_GENOREF_13
1005
0
1005
0
1005
0
  0
LINE
  5
41E
330
404
100
AcDbEntity
  8
AM_0N
100
AcDbLine
 10
2007.45068721161
 20
1355.213035850936
 30
0.0
 11
2012.549006815402
 21
1355.213035850936
 31
0.0
1001
GENIUS_GENOREF_13
1005
0
1005
0
1005
0
  0
ARC
  5
41F
330
404
100
AcDbEntity
  8
AM_0N
100
AcDbCircle
 10
2010.186279876194
 20
1357.089424225803
 30
0.0
 40
3.317273060791837
100
AcDbArc
 50
154.4468723822637
 51
214.4468723822629
1001
GENIUS_GENOREF_13
1005
0
1005
0
1005
0
  0
LINE
  5
420
330
404
100
AcDbEntity
  8
AM_0N
100
AcDbLine
 10
2007.45068721161
 20
1358.965812600669
 30
0.0
 11
2012.549006815402
 21
1358.965812600669
 31
0.0
1001
GENIUS_GENOREF_13
1005
0
1005
0
1005
0
  0
LINE
  5
421
330
404
100
AcDbEntity
  8
AM_0N
100
AcDbLine
 10
2036.782194315402
 20
1347.458312600669
 30
0.0
 11
2036.782194315402
 21
1355.458312600669
 31
0.0
1001
GENIUS_GENOREF_13
1005
0
1005
0
1005
0
  0
LINE
  5
422
330
404
100
AcDbEntity
  8
AM_0N
100
AcDbLine
 10
2037.549006815402
 20
1348.225125100669
 30
0.0
 11
2036.782194315402
 21
1347.458312600669
 31
0.0
1001
GENIUS_GENOREF_13
1005
0
1005
0
1005
0
  0
LINE
  5
423
330
404
100
AcDbEntity
  8
AM_0N
100
AcDbLine
 10
2037.549006815402
 20
1348.225125100669
 30
0.0
 11
2037.549006815402
 21
1354.691500100669
 31
0.0
1001
GENIUS_GENOREF_13
1005
0
1005
0
1005
0
  0
LINE
  5
424
330
404
100
AcDbEntity
  8
AM_0N
100
AcDbLine
 10
2036.782194315402
 20
1355.458312600669
 30
0.0
 11
2037.549006815402
 21
1354.691500100669
 31
0.0
1001
GENIUS_GENOREF_13
1005
0
1005
0
1005
0
  0
INSERT
  5
425
330
404
100
AcDbEntity
  8
AM_0N
100
AcDbBlockReference
  2
*U10
 10
0.0
 20
0.0
 30
0.0
1001
GENIUS_GENOREF_13
1005
0
  0
INSERT
  5
426
330
404
100
AcDbEntity
  8
AM_0N
100
AcDbBlockReference
  2
*U11
 10
0.0
 20
0.0
 30
0.0
1001
GENIUS_GENOREF_13
1005
0
  0
ENDBLK
  5
427
330
404
100
AcDbEntity
  8
0
100
AcDbBlockEnd
  0
BLOCK
  5
429
330
428
100
AcDbEntity
  8
0
100
AcDbBlockBegin
  2
*U10
 70
     1
 10
0.0
 20
0.0
 30
0.0
  3
*U10
  1

  0
ARC
  5
42A
330
428
100
AcDbEntity
  8
AM_0N
100
AcDbCircle
 10
2031.974006815402
 20
1364.958312600669
 30
0.0
 40
6.0
100
AcDbArc
 50
284.6765041088877
 51
134.956760177952
  0
LINE
  5
42B
330
428
100
AcDbEntity
  8
AM_0N
100
AcDbLine
 10
2017.974006815402
 20
1359.458312600669
 30
0.0
 11
2027.734569160611
 21
1369.204153903773
 31
0.0
  0
LINE
  5
42C
330
428
100
AcDbEntity
  8
AM_0N
100
AcDbLine
 10
2027.974006815401
 20
1357.708312600669
 30
0.0
 11
2033.494174408163
 21
1359.154082204663
 31
0.0
  0
ARC
  5
42D
330
428
100
AcDbEntity
  8
AM_0N
100
AcDbCircle
 10
2031.974006815402
 20
1337.958312600669
 30
0.0
 40
6.0
100
AcDbArc
 50
225.043239822048
 51
75.3234958911123
  0
LINE
  5
42E
330
428
100
AcDbEntity
  8
AM_0N
100
AcDbLine
 10
2017.974006815402
 20
1343.458312600669
 30
0.0
 11
2027.734569160611
 21
1333.712471297565
 31
0.0
  0
LINE
  5
42F
330
428
100
AcDbEntity
  8
AM_7N
  6
AM_ISO08W050x2
100
AcDbLine
 10
2030.974006815402
 20
1351.458312600669
 30
0.0
 11
2014.974006815402
 21
1351.458312600669
 31
0.0
  0
LINE
  5
430
330
428
100
AcDbEntity
  8
AM_0N
100
AcDbLine
 10
2017.974006815402
 20
1343.458312600669
 30
0.0
 11
2017.974006815402
 21
1359.458312600669
 31
0.0
  0
LINE
  5
431
330
428
100
AcDbEntity
  8
AM_0N
100
AcDbLine
 10
2027.974006815401
 20
1357.708312600669
 30
0.0
 11
2027.974006815401
 21
1345.208312600669
 31
0.0
  0
LINE
  5
432
330
428
100
AcDbEntity
  8
AM_0N
100
AcDbLine
 10
2027.974006815401
 20
1345.208312600669
 30
0.0
 11
2017.974006815402
 21
1343.458312600669
 31
0.0
  0
LINE
  5
433
330
428
100
AcDbEntity
  8
AM_0N
100
AcDbLine
 10
2027.974006815401
 20
1345.208312600669
 30
0.0
 11
2033.494174408163
 21
1343.762542996675
 31
0.0
  0
LINE
  5
434
330
428
100
AcDbEntity
  8
AM_0N
100
AcDbLine
 10
2017.974006815402
 20
1359.458312600669
 30
0.0
 11
2027.974006815401
 21
1357.708312600669
 31
0.0
  0
ENDBLK
  5
435
330
428
100
AcDbEntity
  8
0
100
AcDbBlockEnd
  0
BLOCK
  5
437
330
436
100
AcDbEntity
  8
0
100
AcDbBlockBegin
  2
*U11
 70
     1
 10
0.0
 20
0.0
 30
0.0
  3
*U11
  1

  0
LINE
  5
438
330
436
100
AcDbEntity
  8
AM_7N
  6
AM_ISO08W050x2
100
AcDbLine
 10
2012.674006815402
 20
1351.458312600669
 30
0.0
 11
2020.974006815402
 21
1351.458312600669
 31
0.0
  0
LINE
  5
439
330
436
100
AcDbEntity
  8
AM_0N
100
AcDbLine
 10
2015.674006815402
 20
1360.858312600669
 30
0.0
 11
2015.674006815402
 21
1342.058312600669
 31
0.0
  0
LINE
  5
43A
330
436
100
AcDbEntity
  8
AM_0N
100
AcDbLine
 10
2017.974006815402
 20
1342.058312600669
 30
0.0
 11
2017.974006815402
 21
1360.858312600669
 31
0.0
  0
LINE
  5
43B
330
436
100
AcDbEntity
  8
AM_0N
100
AcDbLine
 10
2015.674006815402
 20
1342.058312600669
 30
0.0
 11
2017.974006815402
 21
1342.058312600669
 31
0.0
  0
LINE
  5
43C
330
436
100
AcDbEntity
  8
AM_0N
100
AcDbLine
 10
2017.974006815402
 20
1360.858312600669
 30
0.0
 11
2015.674006815402
 21
1360.858312600669
 31
0.0
  0
ENDBLK
  5
43D
330
436
100
AcDbEntity
  8
0
100
AcDbBlockEnd
  0
BLOCK
  5
43F
330
43E
100
AcDbEntity
  8
0
100
AcDbBlockBegin
  2
*D12
 70
     1
 10
0.0
 20
0.0
 30
0.0
  3
*D12
  1

  0
LINE
  5
440
330
43E
100
AcDbEntity
  8
AM_5
  6
ByBlock
100
AcDbLine
 10
5572.596439726106
 20
1592.956463308927
 30
0.0
 11
5572.596439726106
 21
1641.687050807843
 31
0.0
  0
LINE
  5
441
330
43E
100
AcDbEntity
  8
AM_5
  6
ByBlock
100
AcDbLine
 10
5492.596439726203
 20
1592.956463308817
 30
0.0
 11
5492.596439726203
 21
1641.687050807843
 31
0.0
  0
LINE
  5
442
330
43E
100
AcDbEntity
  8
AM_5
  6
ByBlock
100
AcDbLine
 10
5565.596439726106
 20
1640.687050807843
 30
0.0
 11
5499.596439726204
 21
1640.687050807843
 31
0.0
  0
SOLID
  5
443
330
43E
100
AcDbEntity
  8
AM_5
100
AcDbTrace
 10
5565.596439726106
 20
1641.85371747451
 30
0.0
 11
5565.596439726106
 21
1639.520384141176
 31
0.0
 12
5572.596439726106
 22
1640.687050807843
 32
0.0
 13
5572.596439726106
 23
1640.687050807843
 33
0.0
  0
SOLID
  5
444
330
43E
100
AcDbEntity
  8
AM_5
100
AcDbTrace
 10
5499.596439726204
 20
1641.85371747451
 30
0.0
 11
5499.596439726204
 21
1639.520384141176
 31
0.0
 12
5492.596439726203
 22
1640.687050807843
 32
0.0
 13
5492.596439726203
 23
1640.687050807843
 33
0.0
  0
MTEXT
  5
445
330
43E
100
AcDbEntity
  8
AM_5
 62
     2
100
AcDbMText
 10
5532.596439726154
 20
1647.187050807843
 30
0.0
 40
10.0
 41
0.0
 71
     5
 72
     1
  1
80
 73
     1
 44
1.0
1001
ACAD
1000
MTEXTBEGIN
1070
    73
1070
     1
1070
    44
1040
1.0
1070
    74
1070
     0
1000
MTEXTEND
  0
POINT
  5
446
330
43E
100
AcDbEntity
  8
Defpoints
 62
     0
100
AcDbPoint
 10
5572.596439726106
 20
1591.956463308927
 30
0.0
  0
POINT
  5
447
330
43E
100
AcDbEntity
  8
Defpoints
 62
     0
100
AcDbPoint
 10
5492.596439726203
 20
1591.956463308817
 30
0.0
  0
POINT
  5
448
330
43E
100
AcDbEntity
  8
Defpoints
 62
     0
100
AcDbPoint
 10
5492.596439726203
 20
1640.687050807843
 30
0.0
  0
ENDBLK
  5
449
330
43E
100
AcDbEntity
  8
0
100
AcDbBlockEnd
  0
BLOCK
  5
44B
330
44A
100
AcDbEntity
  8
0
100
AcDbBlockBegin
  2
*D13
 70
     1
 10
0.0
 20
0.0
 30
0.0
  3
*D13
  1

  0
LINE
  5
44C
330
44A
100
AcDbEntity
  8
AM_5
  6
ByBlock
100
AcDbLine
 10
5490.596439726124
 20
1592.956463308819
 30
0.0
 11
5490.596439726124
 21
1665.083332214258
 31
0.0
  0
LINE
  5
44D
330
44A
100
AcDbEntity
  8
AM_5
  6
ByBlock
100
AcDbLine
 10
5574.596439726075
 20
1592.956463308923
 30
0.0
 11
5574.596439726075
 21
1665.083332214258
 31
0.0
  0
LINE
  5
44E
330
44A
100
AcDbEntity
  8
AM_5
  6
ByBlock
100
AcDbLine
 10
5497.596439726124
 20
1664.083332214257
 30
0.0
 11
5567.596439726075
 21
1664.083332214257
 31
0.0
  0
SOLID
  5
44F
330
44A
100
AcDbEntity
  8
AM_5
100
AcDbTrace
 10
5497.596439726124
 20
1665.249998880925
 30
0.0
 11
5497.596439726124
 21
1662.916665547591
 31
0.0
 12
5490.596439726124
 22
1664.083332214257
 32
0.0
 13
5490.596439726124
 23
1664.083332214257
 33
0.0
  0
SOLID
  5
450
330
44A
100
AcDbEntity
  8
AM_5
100
AcDbTrace
 10
5567.596439726075
 20
1665.249998880925
 30
0.0
 11
5567.596439726075
 21
1662.916665547591
 31
0.0
 12
5574.596439726075
 22
1664.083332214257
 32
0.0
 13
5574.596439726075
 23
1664.083332214257
 33
0.0
  0
MTEXT
  5
451
330
44A
100
AcDbEntity
  8
AM_5
 62
     2
100
AcDbMText
 10
5532.596439726098
 20
1670.583332214258
 30
0.0
 40
10.0
 41
0.0
 71
     5
 72
     1
  1
84
 73
     1
 44
1.0
1001
ACAD
1000
MTEXTBEGIN
1070
    73
1070
     1
1070
    44
1040
1.0
1070
    74
1070
     0
1000
MTEXTEND
  0
POINT
  5
452
330
44A
100
AcDbEntity
  8
Defpoints
 62
     0
100
AcDbPoint
 10
5490.596439726124
 20
1591.95646330882
 30
0.0
  0
POINT
  5
453
330
44A
100
AcDbEntity
  8
Defpoints
 62
     0
100
AcDbPoint
 10
5574.596439726075
 20
1591.956463308924
 30
0.0
  0
POINT
  5
454
330
44A
100
AcDbEntity
  8
Defpoints
 62
     0
100
AcDbPoint
 10
5574.596439726075
 20
1664.083332214257
 30
0.0
  0
ENDBLK
  5
455
330
44A
100
AcDbEntity
  8
0
100
AcDbBlockEnd
  0
BLOCK
  5
6A7
330
6A6
100
AcDbEntity
  8
0
100
AcDbBlockBegin
  2
*D14
 70
     1
 10
0.0
 20
0.0
 30
0.0
  3
*D14
  1

  0
LINE
  5
C51
330
6A6
100
AcDbEntity
  8
AM_5
  6
ByBlock
100
AcDbLine
 10
4050.651045851334
 20
325.7890823187033
 30
0.0
 11
4174.861988546232
 21
325.7890823187033
 31
0.0
  0
LINE
  5
C52
330
6A6
100
AcDbEntity
  8
AM_5
  6
ByBlock
100
AcDbLine
 10
4054.648760136966
 20
452.7165108899651
 30
0.0
 11
4174.861988546232
 21
452.7165108899651
 31
0.0
  0
LINE
  5
C53
330
6A6
100
AcDbEntity
  8
AM_5
  6
ByBlock
100
AcDbLine
 10
4173.861988546232
 20
332.7890823187033
 30
0.0
 11
4173.861988546232
 21
445.716510889965
 31
0.0
  0
SOLID
  5
C54
330
6A6
100
AcDbEntity
  8
AM_5
100
AcDbTrace
 10
4172.695321879564
 20
332.7890823187033
 30
0.0
 11
4175.028655212899
 21
332.7890823187033
 31
0.0
 12
4173.861988546232
 22
325.7890823187033
 32
0.0
 13
4173.861988546232
 23
325.7890823187033
 33
0.0
  0
SOLID
  5
C55
330
6A6
100
AcDbEntity
  8
AM_5
100
AcDbTrace
 10
4172.695321879564
 20
445.716510889965
 30
0.0
 11
4175.028655212899
 21
445.716510889965
 31
0.0
 12
4173.861988546232
 22
452.7165108899651
 32
0.0
 13
4173.861988546232
 23
452.7165108899651
 33
0.0
  0
MTEXT
  5
C56
330
6A6
100
AcDbEntity
  8
AM_5
 62
     2
100
AcDbMText
 10
4167.361988546232
 20
389.2527966043349
 30
0.0
 40
10.0
 41
0.0
 71
     5
 72
     1
  1
105-160
 11
0.0000000000000001
 21
1.0
 31
0.0
 73
     1
 44
1.0
1001
ACAD
1000
MTEXTBEGIN
1070
    73
1070
     1
1070
    44
1040
1.0
1070
    74
1070
     0
1000
MTEXTEND
  0
POINT
  5
C57
330
6A6
100
AcDbEntity
  8
Defpoints
 62
     0
100
AcDbPoint
 10
4049.651045851335
 20
325.7890823187033
 30
0.0
  0
POINT
  5
C58
330
6A6
100
AcDbEntity
  8
Defpoints
 62
     0
100
AcDbPoint
 10
4053.648760136967
 20
452.7165108899651
 30
0.0
  0
POINT
  5
C59
330
6A6
100
AcDbEntity
  8
Defpoints
 62
     0
100
AcDbPoint
 10
4173.861988546232
 20
452.7165108899651
 30
0.0
  0
ENDBLK
  5
6A8
330
6A6
100
AcDbEntity
  8
0
100
AcDbBlockEnd
  0
BLOCK
  5
6B3
330
6B2
100
AcDbEntity
  8
0
100
AcDbBlockBegin
  2
*D15
 70
     1
 10
0.0
 20
0.0
 30
0.0
  3
*D15
  1

  0
LINE
  5
6B5
330
6B2
100
AcDbEntity
  8
AM_5
  6
ByBlock
100
AcDbLine
 10
4074.365729468266
 20
437.7250823187041
 30
0.0
 11
4127.297921615272
 21
437.7250823187041
 31
0.0
  0
LINE
  5
6B6
330
6B2
100
AcDbEntity
  8
AM_5
  6
ByBlock
100
AcDbLine
 10
4052.449902993864
 20
452.7165108899651
 30
0.0
 11
4127.297921615272
 21
452.7165108899651
 31
0.0
  0
LINE
  5
6B7
330
6B2
100
AcDbEntity
  8
AM_5
  6
ByBlock
100
AcDbLine
 10
4126.297921615273
 20
430.7250823187041
 30
0.0
 11
4126.297921615273
 21
423.7250823187041
 31
0.0
  0
LINE
  5
6B8
330
6B2
100
AcDbEntity
  8
AM_5
  6
ByBlock
100
AcDbLine
 10
4126.297921615273
 20
459.7165108899651
 30
0.0
 11
4126.297921615273
 21
466.7165108899649
 31
0.0
  0
LINE
  5
6B9
330
6B2
100
AcDbEntity
  8
AM_5
  6
ByBlock
100
AcDbLine
 10
4126.297921615273
 20
437.7250823187041
 30
0.0
 11
4126.297921615273
 21
452.7165108899651
 31
0.0
  0
SOLID
  5
6BA
330
6B2
100
AcDbEntity
  8
AM_5
100
AcDbTrace
 10
4125.131254948605
 20
430.7250823187041
 30
0.0
 11
4127.464588281941
 21
430.7250823187041
 31
0.0
 12
4126.297921615273
 22
437.7250823187041
 32
0.0
 13
4126.297921615273
 23
437.7250823187041
 33
0.0
  0
SOLID
  5
6BB
330
6B2
100
AcDbEntity
  8
AM_5
100
AcDbTrace
 10
4125.131254948605
 20
459.7165108899651
 30
0.0
 11
4127.464588281941
 21
459.7165108899651
 31
0.0
 12
4126.297921615273
 22
452.7165108899651
 32
0.0
 13
4126.297921615273
 23
452.7165108899651
 33
0.0
  0
MTEXT
  5
6BC
330
6B2
100
AcDbEntity
  8
AM_5
 62
     2
100
AcDbMText
 10
4119.797921615274
 20
445.2207966043353
 30
0.0
 40
10.0
 41
0.0
 71
     5
 72
     1
  1
15
 11
0.0000000000000001
 21
1.0
 31
0.0
 73
     1
 44
1.0
1001
ACAD
1000
MTEXTBEGIN
1070
    73
1070
     1
1070
    44
1040
1.0
1070
    74
1070
     0
1000
MTEXTEND
  0
POINT
  5
6BD
330
6B2
100
AcDbEntity
  8
Defpoints
 62
     0
100
AcDbPoint
 10
4073.365729468267
 20
437.7250823187041
 30
0.0
  0
POINT
  5
6BE
330
6B2
100
AcDbEntity
  8
Defpoints
 62
     0
100
AcDbPoint
 10
4051.449902993864
 20
452.7165108899651
 30
0.0
  0
POINT
  5
6BF
330
6B2
100
AcDbEntity
  8
Defpoints
 62
     0
100
AcDbPoint
 10
4126.297921615273
 20
452.7165108899651
 30
0.0
  0
ENDBLK
  5
6B4
330
6B2
100
AcDbEntity
  8
0
100
AcDbBlockEnd
  0
BLOCK
  5
6C1
330
6C0
100
AcDbEntity
  8
0
100
AcDbBlockBegin
  2
*D16
 70
     1
 10
0.0
 20
0.0
 30
0.0
  3
*D16
  1

  0
LINE
  5
6C3
330
6C0
100
AcDbEntity
  8
AM_5
  6
ByBlock
100
AcDbLine
 10
4052.449902993864
 20
452.7165108899651
 30
0.0
 11
4127.448072187616
 21
452.7165108899651
 31
0.0
  0
LINE
  5
6C4
330
6C0
100
AcDbEntity
  8
AM_5
  6
ByBlock
100
AcDbLine
 10
4074.365729468266
 20
492.6936537468582
 30
0.0
 11
4127.448072187616
 21
492.6936537468582
 31
0.0
  0
LINE
  5
6C5
330
6C0
100
AcDbEntity
  8
AM_5
  6
ByBlock
100
AcDbLine
 10
4126.448072187616
 20
459.7165108899651
 30
0.0
 11
4126.448072187616
 21
485.6936537468582
 31
0.0
  0
SOLID
  5
6C6
330
6C0
100
AcDbEntity
  8
AM_5
100
AcDbTrace
 10
4125.281405520949
 20
459.7165108899651
 30
0.0
 11
4127.614738854282
 21
459.7165108899651
 31
0.0
 12
4126.448072187616
 22
452.7165108899651
 32
0.0
 13
4126.448072187616
 23
452.7165108899651
 33
0.0
  0
SOLID
  5
6C7
330
6C0
100
AcDbEntity
  8
AM_5
100
AcDbTrace
 10
4125.281405520949
 20
485.6936537468582
 30
0.0
 11
4127.614738854282
 21
485.6936537468582
 31
0.0
 12
4126.448072187616
 22
492.6936537468582
 32
0.0
 13
4126.448072187616
 23
492.6936537468582
 33
0.0
  0
MTEXT
  5
6C8
330
6C0
100
AcDbEntity
  8
AM_5
 62
     2
100
AcDbMText
 10
4119.948072187616
 20
472.7050823184123
 30
0.0
 40
10.0
 41
0.0
 71
     5
 72
     1
  1
40
 11
0.0000000000000001
 21
1.0
 31
0.0
 73
     1
 44
1.0
1001
ACAD
1000
MTEXTBEGIN
1070
    73
1070
     1
1070
    44
1040
1.0
1070
    74
1070
     0
1000
MTEXTEND
  0
POINT
  5
6C9
330
6C0
100
AcDbEntity
  8
Defpoints
 62
     0
100
AcDbPoint
 10
4051.449902993864
 20
452.7165108899651
 30
0.0
  0
POINT
  5
6CA
330
6C0
100
AcDbEntity
  8
Defpoints
 62
     0
100
AcDbPoint
 10
4073.365729468267
 20
492.6936537468582
 30
0.0
  0
POINT
  5
6CB
330
6C0
100
AcDbEntity
  8
Defpoints
 62
     0
100
AcDbPoint
 10
4126.448072187616
 20
492.6936537468582
 30
0.0
  0
ENDBLK
  5
6C2
330
6C0
100
AcDbEntity
  8
0
100
AcDbBlockEnd
  0
BLOCK
  5
6CD
330
6CC
100
AcDbEntity
  8
0
100
AcDbBlockBegin
  2
*D17
 70
     1
 10
0.0
 20
0.0
 30
0.0
  3
*D17
  1

  0
LINE
  5
72F
330
6CC
100
AcDbEntity
  8
AM_5
  6
ByBlock
100
AcDbLine
 10
4052.449902993864
 20
51.08480039819415
 30
0.0
 11
4132.712865278581
 21
51.08480039819411
 31
0.0
  0
LINE
  5
730
330
6CC
100
AcDbEntity
  8
AM_5
  6
ByBlock
100
AcDbLine
 10
4054.44876013697
 20
135.0848003981943
 30
0.0
 11
4132.712865278581
 21
135.0848003981943
 31
0.0
  0
LINE
  5
731
330
6CC
100
AcDbEntity
  8
AM_5
  6
ByBlock
100
AcDbLine
 10
4131.712865278581
 20
58.08480039819411
 30
0.0
 11
4131.712865278581
 21
128.0848003981944
 31
0.0
  0
SOLID
  5
732
330
6CC
100
AcDbEntity
  8
AM_5
100
AcDbTrace
 10
4130.546198611916
 20
58.08480039819411
 30
0.0
 11
4132.879531945247
 21
58.08480039819411
 31
0.0
 12
4131.712865278581
 22
51.08480039819411
 32
0.0
 13
4131.712865278581
 23
51.08480039819411
 33
0.0
  0
SOLID
  5
733
330
6CC
100
AcDbEntity
  8
AM_5
100
AcDbTrace
 10
4130.546198611916
 20
128.0848003981944
 30
0.0
 11
4132.879531945247
 21
128.0848003981944
 31
0.0
 12
4131.712865278581
 22
135.0848003981943
 32
0.0
 13
4131.712865278581
 23
135.0848003981943
 33
0.0
  0
MTEXT
  5
734
330
6CC
100
AcDbEntity
  8
AM_5
 62
     2
100
AcDbMText
 10
4125.212865278581
 20
93.08480039819492
 30
0.0
 40
10.0
 41
0.0
 71
     5
 72
     1
  1
84
 11
0.0000000000000001
 21
1.0
 31
0.0
 73
     1
 44
1.0
1001
ACAD
1000
MTEXTBEGIN
1070
    73
1070
     1
1070
    44
1040
1.0
1070
    74
1070
     0
1000
MTEXTEND
  0
POINT
  5
735
330
6CC
100
AcDbEntity
  8
Defpoints
 62
     0
100
AcDbPoint
 10
4051.449902993864
 20
51.08480039819415
 30
0.0
  0
POINT
  5
736
330
6CC
100
AcDbEntity
  8
Defpoints
 62
     0
100
AcDbPoint
 10
4053.44876013697
 20
135.0848003981943
 30
0.0
  0
POINT
  5
737
330
6CC
100
AcDbEntity
  8
Defpoints
 62
     0
100
AcDbPoint
 10
4131.712865278581
 20
135.0848003981943
 30
0.0
  0
ENDBLK
  5
6CE
330
6CC
100
AcDbEntity
  8
0
100
AcDbBlockEnd
  0
BLOCK
  5
6D9
330
6D8
100
AcDbEntity
  8
0
100
AcDbBlockBegin
  2
*D18
 70
     1
 10
0.0
 20
0.0
 30
0.0
  3
*D18
  1

  0
LINE
  5
76D
330
6D8
100
AcDbEntity
  8
AM_5
  6
ByBlock
100
AcDbLine
 10
4083.431617279495
 20
26.58480039819415
 30
0.0
 11
4168.609615218841
 21
26.58480039819413
 31
0.0
  0
LINE
  5
76E
330
6D8
100
AcDbEntity
  8
AM_5
  6
ByBlock
100
AcDbLine
 10
4084.431617279495
 20
159.5848003981941
 30
0.0
 11
4168.609615218841
 21
159.5848003981941
 31
0.0
  0
LINE
  5
76F
330
6D8
100
AcDbEntity
  8
AM_5
  6
ByBlock
100
AcDbLine
 10
4167.609615218841
 20
33.58480039819413
 30
0.0
 11
4167.609615218841
 21
152.5848003981941
 31
0.0
  0
SOLID
  5
770
330
6D8
100
AcDbEntity
  8
AM_5
100
AcDbTrace
 10
4166.442948552174
 20
33.58480039819413
 30
0.0
 11
4168.776281885508
 21
33.58480039819413
 31
0.0
 12
4167.609615218841
 22
26.58480039819413
 32
0.0
 13
4167.609615218841
 23
26.58480039819413
 33
0.0
  0
SOLID
  5
771
330
6D8
100
AcDbEntity
  8
AM_5
100
AcDbTrace
 10
4166.442948552174
 20
152.5848003981941
 30
0.0
 11
4168.776281885508
 21
152.5848003981941
 31
0.0
 12
4167.609615218841
 22
159.5848003981941
 32
0.0
 13
4167.609615218841
 23
159.5848003981941
 33
0.0
  0
MTEXT
  5
772
330
6D8
100
AcDbEntity
  8
AM_5
 62
     2
100
AcDbMText
 10
4161.10961521884
 20
93.08480039819478
 30
0.0
 40
10.0
 41
0.0
 71
     5
 72
     1
  1
133
 11
0.0000000000000001
 21
1.0
 31
0.0
 73
     1
 44
1.0
1001
ACAD
1000
MTEXTBEGIN
1070
    73
1070
     1
1070
    44
1040
1.0
1070
    74
1070
     0
1000
MTEXTEND
  0
POINT
  5
773
330
6D8
100
AcDbEntity
  8
Defpoints
 62
     0
100
AcDbPoint
 10
4082.431617279495
 20
26.58480039819415
 30
0.0
  0
POINT
  5
774
330
6D8
100
AcDbEntity
  8
Defpoints
 62
     0
100
AcDbPoint
 10
4083.431617279495
 20
159.5848003981941
 30
0.0
  0
POINT
  5
775
330
6D8
100
AcDbEntity
  8
Defpoints
 62
     0
100
AcDbPoint
 10
4167.609615218841
 20
159.5848003981941
 30
0.0
  0
ENDBLK
  5
6DA
330
6D8
100
AcDbEntity
  8
0
100
AcDbBlockEnd
  0
BLOCK
  5
6E5
330
6E4
100
AcDbEntity
  8
0
100
AcDbBlockBegin
  2
*D19
 70
     1
 10
0.0
 20
0.0
 30
0.0
  3
*D19
  1

  0
LINE
  5
C2C
330
6E4
100
AcDbEntity
  8
AM_5
  6
ByBlock
100
AcDbLine
 10
4053.648760136968
 20
158.5853718269321
 30
0.0
 11
4053.648760136968
 21
180.5337149853096
 31
0.0
  0
LINE
  5
C2D
330
6E4
100
AcDbEntity
  8
AM_5
  6
ByBlock
100
AcDbLine
 10
3353.648760136967
 20
158.5853718269321
 30
0.0
 11
3353.648760136967
 21
180.5337149853096
 31
0.0
  0
LINE
  5
C2E
330
6E4
100
AcDbEntity
  8
AM_5
  6
ByBlock
100
AcDbLine
 10
4046.648760136966
 20
179.5337149853096
 30
0.0
 11
3360.648760136967
 21
179.5337149853096
 31
0.0
  0
SOLID
  5
C2F
330
6E4
100
AcDbEntity
  8
AM_5
100
AcDbTrace
 10
4046.648760136966
 20
180.7003816519763
 30
0.0
 11
4046.648760136966
 21
178.367048318643
 31
0.0
 12
4053.648760136968
 22
179.5337149853096
 32
0.0
 13
4053.648760136968
 23
179.5337149853096
 33
0.0
  0
SOLID
  5
C30
330
6E4
100
AcDbEntity
  8
AM_5
100
AcDbTrace
 10
3360.648760136967
 20
180.7003816519763
 30
0.0
 11
3360.648760136967
 21
178.367048318643
 31
0.0
 12
3353.648760136967
 22
179.5337149853096
 32
0.0
 13
3353.648760136967
 23
179.5337149853096
 33
0.0
  0
MTEXT
  5
C31
330
6E4
100
AcDbEntity
  8
AM_5
 62
     2
100
AcDbMText
 10
3703.648760136967
 20
186.0337149853096
 30
0.0
 40
10.0
 41
0.0
 71
     5
 72
     1
  1
700
 73
     1
 44
1.0
1001
ACAD
1000
MTEXTBEGIN
1070
    73
1070
     1
1070
    44
1040
1.0
1070
    74
1070
     0
1000
MTEXTEND
  0
POINT
  5
C32
330
6E4
100
AcDbEntity
  8
Defpoints
 62
     0
100
AcDbPoint
 10
4053.648760136968
 20
157.5853718269321
 30
0.0
  0
POINT
  5
C33
330
6E4
100
AcDbEntity
  8
Defpoints
 62
     0
100
AcDbPoint
 10
3353.648760136967
 20
157.5853718269321
 30
0.0
  0
POINT
  5
C34
330
6E4
100
AcDbEntity
  8
Defpoints
 62
     0
100
AcDbPoint
 10
3353.648760136967
 20
179.5337149853096
 30
0.0
  0
ENDBLK
  5
6E6
330
6E4
100
AcDbEntity
  8
0
100
AcDbBlockEnd
  0
BLOCK
  5
6F1
330
6F0
100
AcDbEntity
  8
0
100
AcDbBlockBegin
  2
*D20
 70
     1
 10
0.0
 20
0.0
 30
0.0
  3
*D20
  1

  0
LINE
  5
C23
330
6F0
100
AcDbEntity
  8
AM_5
  6
ByBlock
100
AcDbLine
 10
4083.648760136967
 20
158.5853718269321
 30
0.0
 11
4083.648760136967
 21
215.6571700524146
 31
0.0
  0
LINE
  5
C24
330
6F0
100
AcDbEntity
  8
AM_5
  6
ByBlock
100
AcDbLine
 10
3323.648760136967
 20
155.4502861122705
 30
0.0
 11
3323.648760136967
 21
215.6571700524146
 31
0.0
  0
LINE
  5
C25
330
6F0
100
AcDbEntity
  8
AM_5
  6
ByBlock
100
AcDbLine
 10
4076.648760136968
 20
214.6571700524146
 30
0.0
 11
3330.648760136968
 21
214.6571700524146
 31
0.0
  0
SOLID
  5
C26
330
6F0
100
AcDbEntity
  8
AM_5
100
AcDbTrace
 10
4076.648760136968
 20
215.8238367190812
 30
0.0
 11
4076.648760136968
 21
213.4905033857479
 31
0.0
 12
4083.648760136967
 22
214.6571700524146
 32
0.0
 13
4083.648760136967
 23
214.6571700524146
 33
0.0
  0
SOLID
  5
C27
330
6F0
100
AcDbEntity
  8
AM_5
100
AcDbTrace
 10
3330.648760136968
 20
215.8238367190812
 30
0.0
 11
3330.648760136968
 21
213.4905033857479
 31
0.0
 12
3323.648760136967
 22
214.6571700524146
 32
0.0
 13
3323.648760136967
 23
214.6571700524146
 33
0.0
  0
MTEXT
  5
C28
330
6F0
100
AcDbEntity
  8
AM_5
 62
     2
100
AcDbMText
 10
3703.648760136967
 20
221.1571700524146
 30
0.0
 40
10.0
 41
0.0
 71
     5
 72
     1
  1
760
 73
     1
 44
1.0
1001
ACAD
1000
MTEXTBEGIN
1070
    73
1070
     1
1070
    44
1040
1.0
1070
    74
1070
     0
1000
MTEXTEND
  0
POINT
  5
C29
330
6F0
100
AcDbEntity
  8
Defpoints
 62
     0
100
AcDbPoint
 10
4083.648760136967
 20
157.5853718269321
 30
0.0
  0
POINT
  5
C2A
330
6F0
100
AcDbEntity
  8
Defpoints
 62
     0
100
AcDbPoint
 10
3323.648760136967
 20
154.4502861122705
 30
0.0
  0
POINT
  5
C2B
330
6F0
100
AcDbEntity
  8
Defpoints
 62
     0
100
AcDbPoint
 10
3323.648760136967
 20
214.6571700524146
 30
0.0
  0
ENDBLK
  5
6F2
330
6F0
100
AcDbEntity
  8
0
100
AcDbBlockEnd
  0
BLOCK
  5
6FD
330
6FC
100
AcDbEntity
  8
0
100
AcDbBlockBegin
  2
*D21
 70
     1
 10
0.0
 20
0.0
 30
0.0
  3
*D21
  1

  0
LINE
  5
BE8
330
6FC
100
AcDbEntity
  8
AM_5
  6
ByBlock
100
AcDbLine
 10
4398.441128890381
 20
452.7165108900164
 30
0.0
 11
4398.441128890381
 21
501.4470983889324
 31
0.0
  0
LINE
  5
BE9
330
6FC
100
AcDbEntity
  8
AM_5
  6
ByBlock
100
AcDbLine
 10
4318.441124743669
 20
451.7165108898518
 30
0.0
 11
4318.441124743669
 21
501.4470983889324
 31
0.0
  0
LINE
  5
BEA
330
6FC
100
AcDbEntity
  8
AM_5
  6
ByBlock
100
AcDbLine
 10
4391.441128890381
 20
500.4470983889325
 30
0.0
 11
4325.441124743669
 21
500.4470983889325
 31
0.0
  0
SOLID
  5
BEB
330
6FC
100
AcDbEntity
  8
AM_5
100
AcDbTrace
 10
4391.441128890381
 20
501.6137650555992
 30
0.0
 11
4391.441128890381
 21
499.2804317222658
 31
0.0
 12
4398.441128890381
 22
500.4470983889325
 32
0.0
 13
4398.441128890381
 23
500.4470983889325
 33
0.0
  0
SOLID
  5
BEC
330
6FC
100
AcDbEntity
  8
AM_5
100
AcDbTrace
 10
4325.441124743669
 20
501.6137650555992
 30
0.0
 11
4325.441124743669
 21
499.2804317222658
 31
0.0
 12
4318.441124743669
 22
500.4470983889325
 32
0.0
 13
4318.441124743669
 23
500.4470983889325
 33
0.0
  0
MTEXT
  5
BED
330
6FC
100
AcDbEntity
  8
AM_5
 62
     2
100
AcDbMText
 10
4358.441126817025
 20
506.9470983889324
 30
0.0
 40
10.0
 41
0.0
 71
     5
 72
     1
  1
80
 73
     1
 44
1.0
1001
ACAD
1000
MTEXTBEGIN
1070
    73
1070
     1
1070
    44
1040
1.0
1070
    74
1070
     0
1000
MTEXTEND
  0
POINT
  5
BEE
330
6FC
100
AcDbEntity
  8
Defpoints
 62
     0
100
AcDbPoint
 10
4398.441128890381
 20
451.7165108900164
 30
0.0
  0
POINT
  5
BEF
330
6FC
100
AcDbEntity
  8
Defpoints
 62
     0
100
AcDbPoint
 10
4318.441124743669
 20
450.7165108898518
 30
0.0
  0
POINT
  5
BF0
330
6FC
100
AcDbEntity
  8
Defpoints
 62
     0
100
AcDbPoint
 10
4318.441124743669
 20
500.4470983889325
 30
0.0
  0
ENDBLK
  5
6FE
330
6FC
100
AcDbEntity
  8
0
100
AcDbBlockEnd
  0
BLOCK
  5
709
330
708
100
AcDbEntity
  8
0
100
AcDbBlockBegin
  2
*D22
 70
     1
 10
0.0
 20
0.0
 30
0.0
  3
*D22
  1

  0
LINE
  5
BF1
330
708
100
AcDbEntity
  8
AM_5
  6
ByBlock
100
AcDbLine
 10
4316.44112474366
 20
453.7165108898518
 30
0.0
 11
4316.44112474366
 21
524.8433797953468
 31
0.0
  0
LINE
  5
BF2
330
708
100
AcDbEntity
  8
AM_5
  6
ByBlock
100
AcDbLine
 10
4400.441128890348
 20
452.7165108900128
 30
0.0
 11
4400.441128890348
 21
524.8433797953468
 31
0.0
  0
LINE
  5
BF3
330
708
100
AcDbEntity
  8
AM_5
  6
ByBlock
100
AcDbLine
 10
4323.44112474366
 20
523.8433797953469
 30
0.0
 11
4393.44112889035
 21
523.8433797953469
 31
0.0
  0
SOLID
  5
BF4
330
708
100
AcDbEntity
  8
AM_5
100
AcDbTrace
 10
4323.44112474366
 20
525.0100464620135
 30
0.0
 11
4323.44112474366
 21
522.6767131286801
 31
0.0
 12
4316.44112474366
 22
523.8433797953469
 32
0.0
 13
4316.44112474366
 23
523.8433797953469
 33
0.0
  0
SOLID
  5
BF5
330
708
100
AcDbEntity
  8
AM_5
100
AcDbTrace
 10
4393.44112889035
 20
525.0100464620135
 30
0.0
 11
4393.44112889035
 21
522.6767131286801
 31
0.0
 12
4400.441128890348
 22
523.8433797953469
 32
0.0
 13
4400.441128890348
 23
523.8433797953469
 33
0.0
  0
MTEXT
  5
BF6
330
708
100
AcDbEntity
  8
AM_5
 62
     2
100
AcDbMText
 10
4358.441126817004
 20
530.3433797953467
 30
0.0
 40
10.0
 41
0.0
 71
     5
 72
     1
  1
84
 73
     1
 44
1.0
1001
ACAD
1000
MTEXTBEGIN
1070
    73
1070
     1
1070
    44
1040
1.0
1070
    74
1070
     0
1000
MTEXTEND
  0
POINT
  5
BF7
330
708
100
AcDbEntity
  8
Defpoints
 62
     0
100
AcDbPoint
 10
4316.44112474366
 20
452.7165108898518
 30
0.0
  0
POINT
  5
BF8
330
708
100
AcDbEntity
  8
Defpoints
 62
     0
100
AcDbPoint
 10
4400.441128890348
 20
451.7165108900128
 30
0.0
  0
POINT
  5
BF9
330
708
100
AcDbEntity
  8
Defpoints
 62
     0
100
AcDbPoint
 10
4400.441128890348
 20
523.8433797953469
 30
0.0
  0
ENDBLK
  5
70A
330
708
100
AcDbEntity
  8
0
100
AcDbBlockEnd
  0
BLOCK
  5
77C
330
77B
100
AcDbEntity
  8
0
100
AcDbBlockBegin
  2
*D23
 70
     1
 10
0.0
 20
0.0
 30
0.0
  3
*D23
  1

  0
LINE
  5
7AC
330
77B
100
AcDbEntity
  8
AM_5
  6
ByBlock
100
AcDbLine
 10
3355.496373351031
 20
436.7256537468581
 30
0.0
 11
3375.077089305576
 21
436.7256537468581
 31
0.0
  0
LINE
  5
7AD
330
77B
100
AcDbEntity
  8
AM_5
  6
ByBlock
100
AcDbLine
 10
3355.554477933667
 20
437.7250823187031
 30
0.0
 11
3375.077089305576
 21
437.7250823187031
 31
0.0
  0
LINE
  5
7AE
330
77B
100
AcDbEntity
  8
AM_5
  6
ByBlock
100
AcDbLine
 10
3374.077089305576
 20
433.2256537468581
 30
0.0
 11
3374.077089305576
 21
429.7256537468581
 31
0.0
  0
LINE
  5
7AF
330
77B
100
AcDbEntity
  8
AM_5
  6
ByBlock
100
AcDbLine
 10
3374.077089305576
 20
441.2250823187031
 30
0.0
 11
3374.077089305576
 21
448.4250823187031
 31
0.0
  0
LINE
  5
7B0
330
77B
100
AcDbEntity
  8
AM_5
  6
ByBlock
100
AcDbLine
 10
3374.077089305576
 20
436.7256537468581
 30
0.0
 11
3374.077089305576
 21
437.7250823187031
 31
0.0
  0
SOLID
  5
7B1
330
77B
100
AcDbEntity
  8
AM_5
100
AcDbTrace
 10
3373.493755972243
 20
433.2256537468581
 30
0.0
 11
3374.66042263891
 21
433.2256537468581
 31
0.0
 12
3374.077089305576
 22
436.7256537468581
 32
0.0
 13
3374.077089305576
 23
436.7256537468581
 33
0.0
  0
SOLID
  5
7B2
330
77B
100
AcDbEntity
  8
AM_5
100
AcDbTrace
 10
3373.493755972243
 20
441.2250823187031
 30
0.0
 11
3374.66042263891
 21
441.2250823187031
 31
0.0
 12
3374.077089305576
 22
437.7250823187031
 32
0.0
 13
3374.077089305576
 23
437.7250823187031
 33
0.0
  0
MTEXT
  5
7B3
330
77B
100
AcDbEntity
  8
AM_5
 62
   140
100
AcDbMText
 10
3370.827089305576
 20
446.5750823187036
 30
0.0
 40
3.5
 41
0.0
 71
     5
 72
     1
  1
1
 11
0.0000000000000001
 21
1.0
 31
0.0
 73
     1
 44
1.0
1001
ACAD
1000
MTEXTBEGIN
1070
    73
1070
     1
1070
    44
1040
1.0
1070
    74
1070
     0
1000
MTEXTEND
  0
POINT
  5
7B4
330
77B
100
AcDbEntity
  8
Defpoints
 62
     0
100
AcDbPoint
 10
3354.496373351032
 20
436.7256537468581
 30
0.0
  0
POINT
  5
7B5
330
77B
100
AcDbEntity
  8
Defpoints
 62
     0
100
AcDbPoint
 10
3354.554477933666
 20
437.7250823187031
 30
0.0
  0
POINT
  5
7B6
330
77B
100
AcDbEntity
  8
Defpoints
 62
     0
100
AcDbPoint
 10
3374.077089305576
 20
437.7250823187031
 30
0.0
  0
ENDBLK
  5
77D
330
77B
100
AcDbEntity
  8
0
100
AcDbBlockEnd
  0
BLOCK
  5
82A
330
829
100
AcDbEntity
  8
0
100
AcDbBlockBegin
  2
GENPOS14
 70
     2
 10
0.0
 20
0.0
 30
0.0
  3
GENPOS14
  1
GENPOS14
  0
ATTDEF
  5
82B
330
829
100
AcDbEntity
  8
0
 62
     0
100
AcDbText
 10
0.0
 20
0.0
 30
0.0
 40
1.0
  1
1
100
AcDbAttributeDefinition
  3
Positionsnummer
  2
1GENPOS
 70
     1
1001
GENIUS_GENTRA_14
1002
{
1070
     3
1000
GENTRAPR,%s,(GENMSG gendwg 31)
1000
Positionsnummer
1000
D
1070
     0
1002
}
  0
ATTDEF
  5
82C
330
829
100
AcDbEntity
  8
0
 62
     0
100
AcDbText
 10
0.0
 20
-1.5
 30
0.0
 40
1.0
  1
1
100
AcDbAttributeDefinition
  3
Menge
  2
2GENPOS
 70
     1
1001
GENIUS_GENTRA_14
1002
{
1070
     3
1000
GENTRAPR,%s,(GENMSG gendwg 32)
1000
Menge
1000
D
1070
     0
1002
}
  0
ATTDEF
  5
82D
330
829
100
AcDbEntity
  8
0
 62
     0
100
AcDbText
 10
0.0
 20
-3.0
 30
0.0
 40
1.0
  1

100
AcDbAttributeDefinition
  3
Benennung
  2
5GENPOS
 70
     1
1001
GENIUS_GENTRA_14
1002
{
1070
     3
1000
GENTRAPR,%s,(GENMSG gendwg 35)
1000
Benennung
1000
D
1070
     0
1002
}
  0
ATTDEF
  5
82E
330
829
100
AcDbEntity
  8
0
 62
     0
100
AcDbText
 10
0.0
 20
-4.5
 30
0.0
 40
1.0
  1

100
AcDbAttributeDefinition
  3
Norm
  2
7GENPOS
 70
     1
1001
GENIUS_GENTRA_14
1002
{
1070
     3
1000
GENTRAPR,%s,(GENMSG gendwg 37)
1000
Norm
1000
D
1070
     0
1002
}
  0
ATTDEF
  5
82F
330
829
100
AcDbEntity
  8
0
 62
     0
100
AcDbText
 10
0.0
 20
-6.0
 30
0.0
 40
1.0
  1

100
AcDbAttributeDefinition
  3
Vorerzeugnis / Werkstoff
  2
9GENPOS
 70
     1
1001
GENIUS_GENTRA_14
1002
{
1070
     3
1000
GENTRAPR,%s,(GENMSG gendwg 39)
1000
Vorerzeugnis / Werkstoff
1000
D
1070
     0
1002
}
  0
ATTDEF
  5
830
330
829
100
AcDbEntity
  8
0
 62
     0
100
AcDbText
 10
0.0
 20
-7.5
 30
0.0
 40
1.0
  1

100
AcDbAttributeDefinition
  3
Sach.-Nr.
  2
11GENPOS
 70
     1
1001
GENIUS_GENTRA_14
1002
{
1070
     3
1000
GENTRAPR,%s,(GENMSG gendwg 41)
1000
Sach.-Nr.
1000
D
1070
     0
1002
}
  0
ATTDEF
  5
831
330
829
100
AcDbEntity
  8
0
 62
     0
100
AcDbText
 10
0.0
 20
-9.0
 30
0.0
 40
1.0
  1

100
AcDbAttributeDefinition
  3
Abmessungen
  2
14GENPOS
 70
     1
1001
GENIUS_GENTRA_14
1002
{
1070
     3
1000
GENTRAPR,%s,(GENMSG gendwg 44)
1000
Abmessungen
1000
D
1070
     0
1002
}
  0
ATTDEF
  5
832
330
829
100
AcDbEntity
  8
0
 62
     0
100
AcDbText
 10
0.0
 20
-10.5
 30
0.0
 40
1.0
  1

100
AcDbAttributeDefinition
  3
1. sichtbare Attribut
  2
GENPOS14_VISIBLE1
 70
     1
1001
GENIUS_FIRSTVISTXT_14
1070
     1
1001
GENIUS_GENTRA_14
1002
{
1070
     3
1000
GENTRAPR,%s,(GENMSG gendwg 107)
1000
1. sichtbare Attribut
1000
D
1070
     0
1002
}
  0
ATTDEF
  5
833
330
829
100
AcDbEntity
  8
0
 62
     0
100
AcDbText
 10
0.0
 20
-12.0
 30
0.0
 40
1.0
  1

100
AcDbAttributeDefinition
  3
2. sichtbare Attribut
  2
GENPOS14_VISIBLE2
 70
     1
1001
GENIUS_SECONDVISTXT_14
1070
     1
1001
GENIUS_GENTRA_14
1002
{
1070
     3
1000
GENTRAPR,%s,(GENMSG gendwg 108)
1000
2. sichtbare Attribut
1000
D
1070
     0
1002
}
  0
ENDBLK
  5
834
330
829
100
AcDbEntity
  8
0
100
AcDbBlockEnd
  0
BLOCK
  5
836
330
835
100
AcDbEntity
  8
0
100
AcDbBlockBegin
  2
*D25
 70
     1
 10
0.0
 20
0.0
 30
0.0
  3
*D25
  1

  0
LINE
  5
837
330
835
100
AcDbEntity
  8
5
  6
ByBlock
370
    -2
100
AcDbLine
 10
2855.843359496524
 20
1550.116345373103
 30
0.0
 11
2855.843359496524
 21
1907.663591883772
 31
0.0
  0
LINE
  5
838
330
835
100
AcDbEntity
  8
5
  6
ByBlock
370
    -2
100
AcDbLine
 10
3575.843359496521
 20
1550.116345374256
 30
0.0
 11
3575.843359496521
 21
1907.663591883772
 31
0.0
  0
LINE
  5
839
330
835
100
AcDbEntity
  8
5
  6
ByBlock
370
    -2
100
AcDbLine
 10
2905.843359496524
 20
1887.663591883772
 30
0.0
 11
3525.843359496521
 21
1887.663591883772
 31
0.0
  0
SOLID
  5
83A
330
835
100
AcDbEntity
  8
5
  6
ByBlock
100
AcDbTrace
 10
2905.843359496524
 20
1895.996925217105
 30
0.0
 11
2905.843359496524
 21
1879.330258550439
 31
0.0
 12
2855.843359496524
 22
1887.663591883772
 32
0.0
 13
2855.843359496524
 23
1887.663591883772
 33
0.0
  0
SOLID
  5
83B
330
835
100
AcDbEntity
  8
5
  6
ByBlock
100
AcDbTrace
 10
3525.843359496521
 20
1895.996925217105
 30
0.0
 11
3525.843359496521
 21
1879.330258550439
 31
0.0
 12
3575.843359496521
 22
1887.663591883772
 32
0.0
 13
3575.843359496521
 23
1887.663591883772
 33
0.0
  0
MTEXT
  5
83C
330
835
100
AcDbEntity
  8
5
  6
ByBlock
 62
     2
100
AcDbMText
 10
3215.843359495948
 20
1934.670481647551
 30
0.0
 40
70.0
 41
0.0
 71
     5
 72
     1
  1
72
 73
     1
 44
1.0
1001
ACAD
1000
MTEXTBEGIN
1070
    73
1070
     1
1070
    44
1040
1.0
1070
    74
1070
     0
1000
MTEXTEND
  0
POINT
  5
83D
330
835
100
AcDbEntity
  8
Defpoints
  6
ByBlock
 62
     0
100
AcDbPoint
 10
2855.843359496524
 20
1530.116345373103
 30
0.0
  0
POINT
  5
83E
330
835
100
AcDbEntity
  8
Defpoints
  6
ByBlock
 62
     0
100
AcDbPoint
 10
3575.843359496521
 20
1530.116345374256
 30
0.0
  0
POINT
  5
83F
330
835
100
AcDbEntity
  8
Defpoints
  6
ByBlock
 62
     0
100
AcDbPoint
 10
3575.843359496521
 20
1887.663591883772
 30
0.0
  0
ENDBLK
  5
840
330
835
100
AcDbEntity
  8
0
100
AcDbBlockEnd
  0
BLOCK
  5
842
330
841
100
AcDbEntity
  8
0
100
AcDbBlockBegin
  2
*D26
 70
     1
 10
0.0
 20
0.0
 30
0.0
  3
*D26
  1

  0
LINE
  5
843
330
841
100
AcDbEntity
  8
5
370
    -2
100
AcDbLine
 10
2815.843359496223
 20
1756.852336337655
 30
0.0
 11
2815.843359496223
 21
2037.958145963331
 31
0.0
  0
LINE
  5
844
330
841
100
AcDbEntity
  8
5
370
    -2
100
AcDbLine
 10
3615.843359496227
 20
1756.852336338944
 30
0.0
 11
3615.843359496227
 21
2037.958145963331
 31
0.0
  0
LINE
  5
845
330
841
100
AcDbEntity
  8
5
370
    -2
100
AcDbLine
 10
2865.843359496223
 20
2017.958145963331
 30
0.0
 11
3565.843359496227
 21
2017.958145963331
 31
0.0
  0
SOLID
  5
846
330
841
100
AcDbEntity
  8
5
100
AcDbTrace
 10
2865.843359496223
 20
2026.291479296665
 30
0.0
 11
2865.843359496223
 21
2009.624812629998
 31
0.0
 12
2815.843359496223
 22
2017.958145963331
 32
0.0
 13
2815.843359496223
 23
2017.958145963331
 33
0.0
  0
SOLID
  5
847
330
841
100
AcDbEntity
  8
5
100
AcDbTrace
 10
3565.843359496227
 20
2026.291479296665
 30
0.0
 11
3565.843359496227
 21
2009.624812629998
 31
0.0
 12
3615.843359496227
 22
2017.958145963331
 32
0.0
 13
3615.843359496227
 23
2017.958145963331
 33
0.0
  0
MTEXT
  5
848
330
841
100
AcDbEntity
  8
5
 62
     2
100
AcDbMText
 10
3215.843359495772
 20
2064.958145963331
 30
0.0
 40
70.0
 41
0.0
 71
     5
 72
     1
  1
80
 73
     1
 44
1.0
1001
ACAD
1000
MTEXTBEGIN
1070
    73
1070
     1
1070
    44
1040
1.0
1070
    74
1070
     0
1000
MTEXTEND
  0
POINT
  5
849
330
841
100
AcDbEntity
  8
Defpoints
 62
     0
100
AcDbPoint
 10
2815.843359496223
 20
1736.852336337656
 30
0.0
  0
POINT
  5
84A
330
841
100
AcDbEntity
  8
Defpoints
 62
     0
100
AcDbPoint
 10
3615.843359496227
 20
1736.852336338944
 30
0.0
  0
POINT
  5
84B
330
841
100
AcDbEntity
  8
Defpoints
 62
     0
100
AcDbPoint
 10
3615.843359496227
 20
2017.958145963331
 30
0.0
  0
ENDBLK
  5
84C
330
841
100
AcDbEntity
  8
0
100
AcDbBlockEnd
  0
BLOCK
  5
84E
330
84D
100
AcDbEntity
  8
0
100
AcDbBlockBegin
  2
*D27
 70
     1
 10
0.0
 20
0.0
 30
0.0
  3
*D27
  1

  0
LINE
  5
84F
330
84D
100
AcDbEntity
  8
5
370
    -2
100
AcDbLine
 10
3650.843359495946
 20
1751.852336340028
 30
0.0
 11
3900.843359496303
 21
1751.852336340028
 31
0.0
  0
LINE
  5
850
330
84D
100
AcDbEntity
  8
5
370
    -2
100
AcDbLine
 10
4269.595115574442
 20
1101.852336341025
 30
0.0
 11
4450.212070468209
 21
1101.852336341025
 31
0.0
  0
LINE
  5
851
330
84D
100
AcDbEntity
  8
5
370
    -2
100
AcDbLine
 10
4430.212070468209
 20
1701.852336340028
 30
0.0
 11
4430.212070468209
 21
1151.852336341025
 31
0.0
  0
SOLID
  5
852
330
84D
100
AcDbEntity
  8
5
100
AcDbTrace
 10
4421.878737134876
 20
1701.852336340028
 30
0.0
 11
4438.545403801541
 21
1701.852336340028
 31
0.0
 12
4430.212070468209
 22
1751.852336340028
 32
0.0
 13
4430.212070468209
 23
1751.852336340028
 33
0.0
  0
SOLID
  5
853
330
84D
100
AcDbEntity
  8
5
100
AcDbTrace
 10
4421.878737134876
 20
1151.852336341025
 30
0.0
 11
4438.545403801541
 21
1151.852336341025
 31
0.0
 12
4430.212070468209
 22
1101.852336341025
 32
0.0
 13
4430.212070468209
 23
1101.852336341025
 33
0.0
  0
MTEXT
  5
854
330
84D
100
AcDbEntity
  8
5
 62
     2
100
AcDbMText
 10
4383.212070468209
 20
1477.685669675158
 30
0.0
 40
70.0
 41
0.0
 71
     5
 72
     1
  1
65
 11
0.0000000000000001
 21
1.0
 31
0.0
 73
     1
 44
1.0
1001
ACAD
1000
MTEXTBEGIN
1070
    73
1070
     1
1070
    44
1040
1.0
1070
    74
1070
     0
1000
MTEXTEND
  0
POINT
  5
855
330
84D
100
AcDbEntity
  8
Defpoints
 62
     0
100
AcDbPoint
 10
3630.843359495946
 20
1751.852336340028
 30
0.0
  0
POINT
  5
856
330
84D
100
AcDbEntity
  8
Defpoints
 62
     0
100
AcDbPoint
 10
4249.595115574442
 20
1101.852336341025
 30
0.0
  0
POINT
  5
857
330
84D
100
AcDbEntity
  8
Defpoints
 62
     0
100
AcDbPoint
 10
4430.212070468209
 20
1101.852336341025
 30
0.0
  0
LINE
  5
858
330
84D
100
AcDbEntity
  8
5
370
    -2
100
AcDbLine
 10
3970.843359496302
 20
1751.852336340028
 30
0.0
 11
4450.212070468209
 21
1751.852336340028
 31
0.0
  0
ENDBLK
  5
859
330
84D
100
AcDbEntity
  8
0
100
AcDbBlockEnd
  0
BLOCK
  5
85B
330
85A
100
AcDbEntity
  8
0
100
AcDbBlockBegin
  2
*D28
 70
     1
 10
0.0
 20
0.0
 30
0.0
  3
*D28
  1

  0
LINE
  5
85C
330
85A
100
AcDbEntity
  8
5
370
    -2
100
AcDbLine
 10
2595.843359496179
 20
1751.852336337007
 30
0.0
 11
2350.461908548691
 21
1751.852336337007
 31
0.0
  0
LINE
  5
85D
330
85A
100
AcDbEntity
  8
5
370
    -2
100
AcDbLine
 10
3195.843359496603
 20
1501.852336338808
 30
0.0
 11
2350.461908548691
 21
1501.852336338808
 31
0.0
  0
LINE
  5
85E
330
85A
100
AcDbEntity
  8
5
370
    -2
100
AcDbLine
 10
2370.461908548691
 20
1701.852336337007
 30
0.0
 11
2370.461908548691
 21
1551.852336338808
 31
0.0
  0
SOLID
  5
85F
330
85A
100
AcDbEntity
  8
5
100
AcDbTrace
 10
2362.128575215357
 20
1701.852336337007
 30
0.0
 11
2378.795241882024
 21
1701.852336337007
 31
0.0
 12
2370.461908548691
 22
1751.852336337007
 32
0.0
 13
2370.461908548691
 23
1751.852336337007
 33
0.0
  0
SOLID
  5
860
330
85A
100
AcDbEntity
  8
5
100
AcDbTrace
 10
2362.128575215357
 20
1551.852336338808
 30
0.0
 11
2378.795241882024
 21
1551.852336338808
 31
0.0
 12
2370.461908548691
 22
1501.852336338808
 32
0.0
 13
2370.461908548691
 23
1501.852336338808
 33
0.0
  0
MTEXT
  5
861
330
85A
100
AcDbEntity
  8
5
 62
     2
100
AcDbMText
 10
2323.455018784911
 20
1625.144887022049
 30
0.0
 40
70.0
 41
0.0
 71
     5
 72
     1
  1
25
 11
0.0000000000000001
 21
1.0
 31
0.0
 73
     1
 44
1.0
1001
ACAD
1000
MTEXTBEGIN
1070
    73
1070
     1
1070
    44
1040
1.0
1070
    74
1070
     0
1000
MTEXTEND
  0
POINT
  5
862
330
85A
100
AcDbEntity
  8
Defpoints
 62
     0
100
AcDbPoint
 10
2615.843359496178
 20
1751.852336337007
 30
0.0
  0
POINT
  5
863
330
85A
100
AcDbEntity
  8
Defpoints
 62
     0
100
AcDbPoint
 10
3215.843359496603
 20
1501.852336338808
 30
0.0
  0
POINT
  5
864
330
85A
100
AcDbEntity
  8
Defpoints
 62
     0
100
AcDbPoint
 10
2370.461908548691
 20
1501.852336338808
 30
0.0
  0
ENDBLK
  5
865
330
85A
100
AcDbEntity
  8
0
100
AcDbBlockEnd
  0
BLOCK
  5
867
330
866
100
AcDbEntity
  8
0
100
AcDbBlockBegin
  2
*D29
 70
     1
 10
0.0
 20
0.0
 30
0.0
  3
*D29
  1

  0
ARC
  5
868
330
866
100
AcDbEntity
  8
5
370
    -2
100
AcDbCircle
 10
3215.843359496576
 20
1518.519003005311
 30
0.0
 40
146.0280237356525
100
AcDbArc
 50
24.47883738073012
 51
155.5211626194543
  0
SOLID
  5
869
330
866
100
AcDbEntity
  8
5
100
AcDbTrace
 10
3356.809027457549
 20
1581.130320659416
 30
0.0
 11
3340.682099758795
 21
1576.923186150402
 31
0.0
 12
3361.366967135213
 22
1530.645970308646
 32
0.0
 13
3361.366967135213
 23
1530.645970308646
 33
0.0
  0
SOLID
  5
86A
330
866
100
AcDbEntity
  8
5
100
AcDbTrace
 10
3091.00461923417
 20
1576.92318615
 30
0.0
 11
3074.877691535403
 21
1581.130320658962
 31
0.0
 12
3070.3197518579
 22
1530.645970308178
 32
0.0
 13
3070.3197518579
 23
1530.645970308178
 33
0.0
  0
MTEXT
  5
86B
330
866
100
AcDbEntity
  8
5
 62
     2
100
AcDbMText
 10
3120.575577874614
 20
1686.399519242668
 30
0.0
 40
70.0
 41
0.0
 71
     5
 72
     1
  1
170°
 11
0.869720950297175
 21
0.4935437859138526
 31
0.0
 73
     1
 44
1.0
1001
ACAD
1000
MTEXTBEGIN
1070
    73
1070
     1
1070
    44
1040
1.0
1070
    74
1070
     0
1000
MTEXTEND
  0
POINT
  5
86C
330
866
100
AcDbEntity
  8
Defpoints
 62
     0
100
AcDbPoint
 10
3285.324992207518
 20
1646.957651518762
 30
0.0
  0
POINT
  5
86D
330
866
100
AcDbEntity
  8
Defpoints
 62
     0
100
AcDbPoint
 10
3215.843359496576
 20
1518.519003005311
 30
0.0
  0
POINT
  5
86E
330
866
100
AcDbEntity
  8
Defpoints
 62
     0
100
AcDbPoint
 10
3215.843359496576
 20
1518.519003005311
 30
0.0
  0
POINT
  5
86F
330
866
100
AcDbEntity
  8
Defpoints
 62
     0
100
AcDbPoint
 10
3802.089041693781
 20
1567.372809855547
 30
0.0
  0
POINT
  5
870
330
866
100
AcDbEntity
  8
Defpoints
 62
     0
100
AcDbPoint
 10
2629.597677299214
 20
1567.372809853658
 30
0.0
  0
ENDBLK
  5
871
330
866
100
AcDbEntity
  8
0
100
AcDbBlockEnd
  0
BLOCK
  5
873
330
872
100
AcDbEntity
  8
0
100
AcDbBlockBegin
  2
*D30
 70
     1
 10
0.0
 20
0.0
 30
0.0
  3
*D30
  1

  0
LINE
  5
874
330
872
100
AcDbEntity
  8
5
370
    -2
100
AcDbLine
 10
2595.843359496179
 20
1751.852336337045
 30
0.0
 11
2190.726149716756
 21
1751.852336337045
 31
0.0
  0
LINE
  5
875
330
872
100
AcDbEntity
  8
5
370
    -2
100
AcDbLine
 10
2885.843359497882
 20
681.8523363377558
 30
0.0
 11
2190.726149716756
 21
681.8523363377559
 31
0.0
  0
LINE
  5
876
330
872
100
AcDbEntity
  8
5
370
    -2
100
AcDbLine
 10
2210.726149716756
 20
1701.852336337045
 30
0.0
 11
2210.726149716756
 21
731.8523363377559
 31
0.0
  0
SOLID
  5
877
330
872
100
AcDbEntity
  8
5
100
AcDbTrace
 10
2202.392816383422
 20
1701.852336337045
 30
0.0
 11
2219.05948305009
 21
1701.852336337045
 31
0.0
 12
2210.726149716756
 22
1751.852336337045
 32
0.0
 13
2210.726149716756
 23
1751.852336337045
 33
0.0
  0
SOLID
  5
878
330
872
100
AcDbEntity
  8
5
100
AcDbTrace
 10
2202.392816383422
 20
731.8523363377559
 30
0.0
 11
2219.059483050089
 21
731.8523363377559
 31
0.0
 12
2210.726149716756
 22
681.8523363377559
 32
0.0
 13
2210.726149716756
 23
681.8523363377559
 33
0.0
  0
MTEXT
  5
879
330
872
100
AcDbEntity
  8
5
 62
     2
100
AcDbMText
 10
2163.726149716756
 20
1213.501287072897
 30
0.0
 40
70.0
 41
0.0
 71
     5
 72
     1
  1
107
 11
0.0000000000000001
 21
1.0
 31
0.0
 73
     1
 44
1.0
1001
ACAD
1000
MTEXTBEGIN
1070
    73
1070
     1
1070
    44
1040
1.0
1070
    74
1070
     0
1000
MTEXTEND
  0
POINT
  5
87A
330
872
100
AcDbEntity
  8
Defpoints
 62
     0
100
AcDbPoint
 10
2615.843359496178
 20
1751.852336337045
 30
0.0
  0
POINT
  5
87B
330
872
100
AcDbEntity
  8
Defpoints
 62
     0
100
AcDbPoint
 10
2905.843359497882
 20
681.8523363377558
 30
0.0
  0
POINT
  5
87C
330
872
100
AcDbEntity
  8
Defpoints
 62
     0
100
AcDbPoint
 10
2210.726149716756
 20
681.8523363377559
 30
0.0
  0
ENDBLK
  5
87D
330
872
100
AcDbEntity
  8
0
100
AcDbBlockEnd
  0
BLOCK
  5
87F
330
87E
100
AcDbEntity
  8
0
100
AcDbBlockBegin
  2
*D31
 70
     1
 10
0.0
 20
0.0
 30
0.0
  3
*D31
  1

  0
LINE
  5
880
330
87E
100
AcDbEntity
  8
5
370
    -2
100
AcDbLine
 10
3610.843359495947
 20
1751.852336340028
 30
0.0
 11
3474.215372869636
 21
1751.852336340028
 31
0.0
  0
LINE
  5
881
330
87E
100
AcDbEntity
  8
5
370
    -2
100
AcDbLine
 10
3591.881593796976
 20
1555.49768722762
 30
0.0
 11
3474.215372869636
 21
1555.49768722762
 31
0.0
  0
LINE
  5
882
330
87E
100
AcDbEntity
  8
5
370
    -2
100
AcDbLine
 10
3494.215372869636
 20
1701.852336340028
 30
0.0
 11
3494.215372869636
 21
1605.49768722762
 31
0.0
  0
SOLID
  5
883
330
87E
100
AcDbEntity
  8
5
100
AcDbTrace
 10
3485.882039536303
 20
1701.852336340028
 30
0.0
 11
3502.548706202969
 21
1701.852336340028
 31
0.0
 12
3494.215372869636
 22
1751.852336340028
 32
0.0
 13
3494.215372869636
 23
1751.852336340028
 33
0.0
  0
SOLID
  5
884
330
87E
100
AcDbEntity
  8
5
100
AcDbTrace
 10
3485.882039536303
 20
1605.49768722762
 30
0.0
 11
3502.548706202969
 21
1605.49768722762
 31
0.0
 12
3494.215372869636
 22
1555.49768722762
 32
0.0
 13
3494.215372869636
 23
1555.49768722762
 33
0.0
  0
MTEXT
  5
885
330
87E
100
AcDbEntity
  8
5
 62
     2
100
AcDbMText
 10
3447.208483105856
 20
1651.279239764178
 30
0.0
 40
70.0
 41
0.0
 71
     5
 72
     1
  1
20
 11
0.0000000000000001
 21
1.0
 31
0.0
 73
     1
 44
1.0
1001
ACAD
1000
MTEXTBEGIN
1070
    73
1070
     1
1070
    44
1040
1.0
1070
    74
1070
     0
1000
MTEXTEND
  0
POINT
  5
886
330
87E
100
AcDbEntity
  8
Defpoints
 62
     0
100
AcDbPoint
 10
3630.843359495946
 20
1751.852336340028
 30
0.0
  0
POINT
  5
887
330
87E
100
AcDbEntity
  8
Defpoints
 62
     0
100
AcDbPoint
 10
3611.881593796976
 20
1555.49768722762
 30
0.0
  0
POINT
  5
888
330
87E
100
AcDbEntity
  8
Defpoints
 62
     0
100
AcDbPoint
 10
3494.215372869636
 20
1555.49768722762
 30
0.0
  0
ENDBLK
  5
889
330
87E
100
AcDbEntity
  8
0
100
AcDbBlockEnd
  0
BLOCK
  5
88B
330
88A
100
AcDbEntity
  8
0
100
AcDbBlockBegin
  2
*D32
 70
     1
 10
0.0
 20
0.0
 30
0.0
  3
*D32
  1

  0
LINE
  5
88C
330
88A
100
AcDbEntity
  8
5
  6
ByBlock
370
    -2
100
AcDbLine
 10
3955.843359496302
 20
1601.852336339142
 30
0.0
 11
4065.041342355164
 21
1601.852336339142
 31
0.0
  0
LINE
  5
88D
330
88A
100
AcDbEntity
  8
5
  6
ByBlock
370
    -2
100
AcDbLine
 10
3955.843359496338
 20
1591.852336339132
 30
0.0
 11
4065.041342355164
 21
1591.852336339132
 31
0.0
  0
LINE
  5
88E
330
88A
100
AcDbEntity
  8
5
  6
ByBlock
370
    -2
100
AcDbLine
 10
4045.041342355164
 20
1651.852336339142
 30
0.0
 11
4045.041342355164
 21
1701.852336339142
 31
0.0
  0
LINE
  5
88F
330
88A
100
AcDbEntity
  8
5
  6
ByBlock
370
    -2
100
AcDbLine
 10
4045.041342355164
 20
1541.852336339133
 30
0.0
 11
4045.041342355164
 21
1453.852336339133
 31
0.0
  0
LINE
  5
890
330
88A
100
AcDbEntity
  8
5
  6
ByBlock
370
    -2
100
AcDbLine
 10
4045.041342355164
 20
1601.852336339142
 30
0.0
 11
4045.041342355164
 21
1591.852336339132
 31
0.0
  0
SOLID
  5
891
330
88A
100
AcDbEntity
  8
5
  6
ByBlock
100
AcDbTrace
 10
4036.708009021831
 20
1651.852336339142
 30
0.0
 11
4053.374675688496
 21
1651.852336339142
 31
0.0
 12
4045.041342355164
 22
1601.852336339142
 32
0.0
 13
4045.041342355164
 23
1601.852336339142
 33
0.0
  0
SOLID
  5
892
330
88A
100
AcDbEntity
  8
5
  6
ByBlock
100
AcDbTrace
 10
4036.708009021831
 20
1541.852336339133
 30
0.0
 11
4053.374675688496
 21
1541.852336339133
 31
0.0
 12
4045.041342355164
 22
1591.852336339132
 32
0.0
 13
4045.041342355164
 23
1591.852336339132
 33
0.0
  0
MTEXT
  5
893
330
88A
100
AcDbEntity
  8
5
  6
ByBlock
 62
     2
100
AcDbMText
 10
3998.041342355164
 20
1472.852336339133
 30
0.0
 40
70.0
 41
0.0
 71
     5
 72
     1
  1
1
 11
0.0000000000000001
 21
1.0
 31
0.0
 73
     1
 44
1.0
1001
ACAD
1000
MTEXTBEGIN
1070
    73
1070
     1
1070
    44
1040
1.0
1070
    74
1070
     0
1000
MTEXTEND
  0
POINT
  5
894
330
88A
100
AcDbEntity
  8
Defpoints
  6
ByBlock
 62
     0
100
AcDbPoint
 10
3935.843359496303
 20
1601.852336339142
 30
0.0
  0
POINT
  5
895
330
88A
100
AcDbEntity
  8
Defpoints
  6
ByBlock
 62
     0
100
AcDbPoint
 10
3935.843359496338
 20
1591.852336339132
 30
0.0
  0
POINT
  5
896
330
88A
100
AcDbEntity
  8
Defpoints
  6
ByBlock
 62
     0
100
AcDbPoint
 10
4045.041342355164
 20
1591.852336339132
 30
0.0
  0
ENDBLK
  5
897
330
88A
100
AcDbEntity
  8
0
100
AcDbBlockEnd
  0
BLOCK
  5
899
330
898
100
AcDbEntity
  8
0
100
AcDbBlockBegin
  2
*D33
 70
     1
 10
0.0
 20
0.0
 30
0.0
  3
*D33
  1

  0
LINE
  5
89A
330
898
100
AcDbEntity
  8
5
  6
ByBlock
370
    -2
100
AcDbLine
 10
3635.843359496271
 20
1696.852336339452
 30
0.0
 11
3635.843359496271
 21
1904.48566381349
 31
0.0
  0
LINE
  5
89B
330
898
100
AcDbEntity
  8
5
  6
ByBlock
370
    -2
100
AcDbLine
 10
3935.843359496303
 20
1621.852336339142
 30
0.0
 11
3935.843359496303
 21
1904.48566381349
 31
0.0
  0
LINE
  5
89C
330
898
100
AcDbEntity
  8
5
  6
ByBlock
370
    -2
100
AcDbLine
 10
3685.843359496271
 20
1884.48566381349
 30
0.0
 11
3885.843359496302
 21
1884.48566381349
 31
0.0
  0
SOLID
  5
89D
330
898
100
AcDbEntity
  8
5
  6
ByBlock
100
AcDbTrace
 10
3685.843359496271
 20
1892.818997146824
 30
0.0
 11
3685.843359496271
 21
1876.152330480157
 31
0.0
 12
3635.843359496271
 22
1884.48566381349
 32
0.0
 13
3635.843359496271
 23
1884.48566381349
 33
0.0
  0
SOLID
  5
89E
330
898
100
AcDbEntity
  8
5
  6
ByBlock
100
AcDbTrace
 10
3885.843359496302
 20
1892.818997146824
 30
0.0
 11
3885.843359496302
 21
1876.152330480157
 31
0.0
 12
3935.843359496303
 22
1884.48566381349
 32
0.0
 13
3935.843359496303
 23
1884.48566381349
 33
0.0
  0
MTEXT
  5
89F
330
898
100
AcDbEntity
  8
5
  6
ByBlock
 62
     2
100
AcDbMText
 10
3785.843359495892
 20
1931.48566381349
 30
0.0
 40
70.0
 41
0.0
 71
     5
 72
     1
  1
30
 73
     1
 44
1.0
1001
ACAD
1000
MTEXTBEGIN
1070
    73
1070
     1
1070
    44
1040
1.0
1070
    74
1070
     0
1000
MTEXTEND
  0
POINT
  5
8A0
330
898
100
AcDbEntity
  8
Defpoints
  6
ByBlock
 62
     0
100
AcDbPoint
 10
3635.843359496271
 20
1676.852336339452
 30
0.0
  0
POINT
  5
8A1
330
898
100
AcDbEntity
  8
Defpoints
  6
ByBlock
 62
     0
100
AcDbPoint
 10
3935.843359496303
 20
1601.852336339142
 30
0.0
  0
POINT
  5
8A2
330
898
100
AcDbEntity
  8
Defpoints
  6
ByBlock
 62
     0
100
AcDbPoint
 10
3935.843359496303
 20
1884.48566381349
 30
0.0
  0
ENDBLK
  5
8A3
330
898
100
AcDbEntity
  8
0
100
AcDbBlockEnd
  0
BLOCK
  5
8A5
330
8A4
100
AcDbEntity
  8
0
100
AcDbBlockBegin
  2
*D34
 70
     1
 10
0.0
 20
0.0
 30
0.0
  3
*D34
  1

  0
LINE
  5
8A6
330
8A4
100
AcDbEntity
  8
5
  6
ByBlock
370
    -2
100
AcDbLine
 10
3645.843359496085
 20
1751.852336339819
 30
0.0
 11
4259.785156057378
 21
1751.852336339819
 31
0.0
  0
LINE
  5
8A7
330
8A4
100
AcDbEntity
  8
5
  6
ByBlock
370
    -2
100
AcDbLine
 10
3955.843359496321
 20
1601.852336339142
 30
0.0
 11
4259.785156057378
 21
1601.852336339142
 31
0.0
  0
LINE
  5
8A8
330
8A4
100
AcDbEntity
  8
5
  6
ByBlock
370
    -2
100
AcDbLine
 10
4239.785156057378
 20
1701.852336339818
 30
0.0
 11
4239.785156057378
 21
1651.852336339142
 31
0.0
  0
SOLID
  5
8A9
330
8A4
100
AcDbEntity
  8
5
  6
ByBlock
100
AcDbTrace
 10
4231.451822724045
 20
1701.852336339818
 30
0.0
 11
4248.118489390711
 21
1701.852336339818
 31
0.0
 12
4239.785156057378
 22
1751.852336339819
 32
0.0
 13
4239.785156057378
 23
1751.852336339819
 33
0.0
  0
SOLID
  5
8AA
330
8A4
100
AcDbEntity
  8
5
  6
ByBlock
100
AcDbTrace
 10
4231.451822724045
 20
1651.852336339142
 30
0.0
 11
4248.118489390711
 21
1651.852336339142
 31
0.0
 12
4239.785156057378
 22
1601.852336339142
 32
0.0
 13
4239.785156057378
 23
1601.852336339142
 33
0.0
  0
MTEXT
  5
8AB
330
8A4
100
AcDbEntity
  8
5
  6
ByBlock
 62
     2
100
AcDbMText
 10
4192.785156057378
 20
1676.852336339481
 30
0.0
 40
70.0
 41
0.0
 71
     5
 72
     1
  1
15
 11
0.0000000000000001
 21
1.0
 31
0.0
 73
     1
 44
1.0
1001
ACAD
1000
MTEXTBEGIN
1070
    73
1070
     1
1070
    44
1040
1.0
1070
    74
1070
     0
1000
MTEXTEND
  0
POINT
  5
8AC
330
8A4
100
AcDbEntity
  8
Defpoints
  6
ByBlock
 62
     0
100
AcDbPoint
 10
3625.843359496084
 20
1751.852336339819
 30
0.0
  0
POINT
  5
8AD
330
8A4
100
AcDbEntity
  8
Defpoints
  6
ByBlock
 62
     0
100
AcDbPoint
 10
3935.843359496323
 20
1601.852336339142
 30
0.0
  0
POINT
  5
8AE
330
8A4
100
AcDbEntity
  8
Defpoints
  6
ByBlock
 62
     0
100
AcDbPoint
 10
4239.785156057378
 20
1601.852336339142
 30
0.0
  0
ENDBLK
  5
8AF
330
8A4
100
AcDbEntity
  8
0
100
AcDbBlockEnd
  0
BLOCK
  5
8B1
330
8B0
100
AcDbEntity
  8
0
100
AcDbBlockBegin
  2
*D35
 70
     1
 10
0.0
 20
0.0
 30
0.0
  3
*D35
  1

  0
LINE
  5
8B2
330
8B0
100
AcDbEntity
  8
5
  6
ByBlock
370
    -2
100
AcDbLine
 10
2835.84335949777
 20
731.8523363376434
 30
0.0
 11
2835.84335949777
 21
483.7449643446425
 31
0.0
  0
LINE
  5
8B3
330
8B0
100
AcDbEntity
  8
5
  6
ByBlock
370
    -2
100
AcDbLine
 10
3595.843359497787
 20
731.8523363388679
 30
0.0
 11
3595.843359497787
 21
483.7449643446425
 31
0.0
  0
LINE
  5
8B4
330
8B0
100
AcDbEntity
  8
5
  6
ByBlock
370
    -2
100
AcDbLine
 10
2885.84335949777
 20
503.7449643446424
 30
0.0
 11
3545.843359497787
 21
503.7449643446424
 31
0.0
  0
SOLID
  5
8B5
330
8B0
100
AcDbEntity
  8
5
  6
ByBlock
100
AcDbTrace
 10
2885.84335949777
 20
512.0782976779757
 30
0.0
 11
2885.84335949777
 21
495.4116310113092
 31
0.0
 12
2835.84335949777
 22
503.7449643446424
 32
0.0
 13
2835.84335949777
 23
503.7449643446424
 33
0.0
  0
SOLID
  5
8B6
330
8B0
100
AcDbEntity
  8
5
  6
ByBlock
100
AcDbTrace
 10
3545.843359497787
 20
512.0782976779757
 30
0.0
 11
3545.843359497787
 21
495.4116310113092
 31
0.0
 12
3595.843359497787
 22
503.7449643446424
 32
0.0
 13
3595.843359497787
 23
503.7449643446424
 33
0.0
  0
MTEXT
  5
8B7
330
8B0
100
AcDbEntity
  8
5
  6
ByBlock
 62
     2
100
AcDbMText
 10
3215.843359497778
 20
550.7449643446425
 30
0.0
 40
70.0
 41
0.0
 71
     5
 72
     1
  1
%%c 75
 73
     1
 44
1.0
1001
ACAD
1000
MTEXTBEGIN
1070
    73
1070
     1
1070
    44
1040
1.0
1070
    74
1070
     0
1000
MTEXTEND
  0
POINT
  5
8B8
330
8B0
100
AcDbEntity
  8
Defpoints
  6
ByBlock
 62
     0
100
AcDbPoint
 10
2835.84335949777
 20
751.8523363376434
 30
0.0
  0
POINT
  5
8B9
330
8B0
100
AcDbEntity
  8
Defpoints
  6
ByBlock
 62
     0
100
AcDbPoint
 10
3595.843359497787
 20
751.852336338868
 30
0.0
  0
POINT
  5
8BA
330
8B0
100
AcDbEntity
  8
Defpoints
  6
ByBlock
 62
     0
100
AcDbPoint
 10
3595.843359497787
 20
503.7449643446424
 30
0.0
  0
ENDBLK
  5
8BB
330
8B0
100
AcDbEntity
  8
0
100
AcDbBlockEnd
  0
BLOCK
  5
8BD
330
8BC
100
AcDbEntity
  8
0
100
AcDbBlockBegin
  2
*D36
 70
     1
 10
0.0
 20
0.0
 30
0.0
  3
*D36
  1

  0
LINE
  5
8BE
330
8BC
100
AcDbEntity
  8
5
370
    -2
100
AcDbLine
 10
4200.84335949681
 20
1351.852336340914
 30
0.0
 11
4620.852456813278
 21
1351.852336340914
 31
0.0
  0
LINE
  5
8BF
330
8BC
100
AcDbEntity
  8
5
370
    -2
100
AcDbLine
 10
4200.843359497623
 20
851.8523363409149
 30
0.0
 11
4620.852456813278
 21
851.8523363409148
 31
0.0
  0
LINE
  5
8C0
330
8BC
100
AcDbEntity
  8
5
370
    -2
100
AcDbLine
 10
4600.852456813277
 20
1301.852336340914
 30
0.0
 11
4600.852456813277
 21
901.8523363409148
 31
0.0
  0
SOLID
  5
8C1
330
8BC
100
AcDbEntity
  8
5
100
AcDbTrace
 10
4592.519123479944
 20
1301.852336340914
 30
0.0
 11
4609.185790146611
 21
1301.852336340914
 31
0.0
 12
4600.852456813277
 22
1351.852336340914
 32
0.0
 13
4600.852456813277
 23
1351.852336340914
 33
0.0
  0
SOLID
  5
8C2
330
8BC
100
AcDbEntity
  8
5
100
AcDbTrace
 10
4592.519123479944
 20
901.8523363409148
 30
0.0
 11
4609.185790146611
 21
901.8523363409148
 31
0.0
 12
4600.852456813277
 22
851.8523363409148
 32
0.0
 13
4600.852456813277
 23
851.8523363409148
 33
0.0
  0
MTEXT
  5
8C3
330
8BC
100
AcDbEntity
  8
5
 62
     2
100
AcDbMText
 10
4553.852456813276
 20
1100.602336341603
 30
0.0
 40
70.0
 41
0.0
 71
     5
 72
     1
  1
%%c 50
 11
0.0000000000000001
 21
1.0
 31
0.0
 73
     1
 44
1.0
1001
ACAD
1000
MTEXTBEGIN
1070
    73
1070
     1
1070
    44
1040
1.0
1070
    74
1070
     0
1000
MTEXTEND
  0
POINT
  5
8C4
330
8BC
100
AcDbEntity
  8
Defpoints
 62
     0
100
AcDbPoint
 10
4180.84335949681
 20
1351.852336340914
 30
0.0
  0
POINT
  5
8C5
330
8BC
100
AcDbEntity
  8
Defpoints
 62
     0
100
AcDbPoint
 10
4180.843359497623
 20
851.8523363409149
 30
0.0
  0
POINT
  5
8C6
330
8BC
100
AcDbEntity
  8
Defpoints
 62
     0
100
AcDbPoint
 10
4600.852456813277
 20
851.8523363409148
 30
0.0
  0
ENDBLK
  5
8C7
330
8BC
100
AcDbEntity
  8
0
100
AcDbBlockEnd
  0
BLOCK
  5
8C9
330
8C8
100
AcDbEntity
  8
0
100
AcDbBlockBegin
  2
*D37
 70
     1
 10
0.0
 20
0.0
 30
0.0
  3
*D37
  1

  0
LINE
  5
8CA
330
8C8
100
AcDbEntity
  8
5
  6
ByBlock
370
    -2
100
AcDbLine
 10
2615.843359495
 20
2131.852336337045
 30
0.0
 11
2615.843359495
 21
1996.949877468938
 31
0.0
  0
LINE
  5
8CB
330
8C8
100
AcDbEntity
  8
5
  6
ByBlock
370
    -2
100
AcDbLine
 10
2815.843359497203
 20
1751.852336337516
 30
0.0
 11
2815.843359497203
 21
2036.949877468938
 31
0.0
  0
LINE
  5
8CC
330
8C8
100
AcDbEntity
  8
5
  6
ByBlock
370
    -2
100
AcDbLine
 10
2665.843359495
 20
2016.949877468938
 30
0.0
 11
2765.843359497202
 21
2016.949877468938
 31
0.0
  0
SOLID
  5
8CD
330
8C8
100
AcDbEntity
  8
5
  6
ByBlock
100
AcDbTrace
 10
2665.843359495
 20
2025.283210802272
 30
0.0
 11
2665.843359495
 21
2008.616544135605
 31
0.0
 12
2615.843359495
 22
2016.949877468938
 32
0.0
 13
2615.843359495
 23
2016.949877468938
 33
0.0
  0
SOLID
  5
8CE
330
8C8
100
AcDbEntity
  8
5
  6
ByBlock
100
AcDbTrace
 10
2765.843359497202
 20
2025.283210802272
 30
0.0
 11
2765.843359497202
 21
2008.616544135605
 31
0.0
 12
2815.843359497203
 22
2016.949877468938
 32
0.0
 13
2815.843359497203
 23
2016.949877468938
 33
0.0
  0
MTEXT
  5
8CF
330
8C8
100
AcDbEntity
  8
5
  6
ByBlock
 62
     2
100
AcDbMText
 10
2715.843359496077
 20
2063.956767232717
 30
0.0
 40
70.0
 41
0.0
 71
     5
 72
     1
  1
20
 73
     1
 44
1.0
1001
ACAD
1000
MTEXTBEGIN
1070
    73
1070
     1
1070
    44
1040
1.0
1070
    74
1070
     0
1000
MTEXTEND
  0
POINT
  5
8D0
330
8C8
100
AcDbEntity
  8
Defpoints
  6
ByBlock
 62
     0
100
AcDbPoint
 10
2615.843359495
 20
2151.852336337045
 30
0.0
  0
POINT
  5
8D1
330
8C8
100
AcDbEntity
  8
Defpoints
  6
ByBlock
 62
     0
100
AcDbPoint
 10
2815.843359497203
 20
1731.852336337516
 30
0.0
  0
POINT
  5
8D2
330
8C8
100
AcDbEntity
  8
Defpoints
  6
ByBlock
 62
     0
100
AcDbPoint
 10
2815.843359497203
 20
2016.949877468938
 30
0.0
  0
ENDBLK
  5
8D3
330
8C8
100
AcDbEntity
  8
0
100
AcDbBlockEnd
  0
BLOCK
  5
8D5
330
8D4
100
AcDbEntity
  8
0
100
AcDbBlockBegin
  2
*D38
 70
     1
 10
0.0
 20
0.0
 30
0.0
  3
*D38
  1

  0
LINE
  5
8D6
330
8D4
100
AcDbEntity
  8
5
  6
ByBlock
370
    -2
100
AcDbLine
 10
2605.843359496177
 20
1751.852336337072
 30
0.0
 11
2350.461908547138
 21
1751.852336337072
 31
0.0
  0
LINE
  5
8D7
330
8D4
100
AcDbEntity
  8
5
  6
ByBlock
370
    -2
100
AcDbLine
 10
2585.843359495
 20
2151.852336337016
 30
0.0
 11
2350.461908547138
 21
2151.852336337016
 31
0.0
  0
LINE
  5
8D8
330
8D4
100
AcDbEntity
  8
5
  6
ByBlock
370
    -2
100
AcDbLine
 10
2370.461908547138
 20
1801.852336337072
 30
0.0
 11
2370.461908547138
 21
2101.852336337016
 31
0.0
  0
SOLID
  5
8D9
330
8D4
100
AcDbEntity
  8
5
  6
ByBlock
100
AcDbTrace
 10
2362.128575213805
 20
1801.852336337072
 30
0.0
 11
2378.795241880472
 21
1801.852336337072
 31
0.0
 12
2370.461908547138
 22
1751.852336337072
 32
0.0
 13
2370.461908547138
 23
1751.852336337072
 33
0.0
  0
SOLID
  5
8DA
330
8D4
100
AcDbEntity
  8
5
  6
ByBlock
100
AcDbTrace
 10
2362.128575213805
 20
2101.852336337016
 30
0.0
 11
2378.795241880472
 21
2101.852336337016
 31
0.0
 12
2370.461908547138
 22
2151.852336337016
 32
0.0
 13
2370.461908547138
 23
2151.852336337016
 33
0.0
  0
MTEXT
  5
8DB
330
8D4
100
AcDbEntity
  8
5
  6
ByBlock
 62
     2
100
AcDbMText
 10
2323.461908547137
 20
1951.852336337044
 30
0.0
 40
70.0
 41
0.0
 71
     5
 72
     1
  1
40
 11
0.0000000000000001
 21
1.0
 31
0.0
 73
     1
 44
1.0
1001
ACAD
1000
MTEXTBEGIN
1070
    73
1070
     1
1070
    44
1040
1.0
1070
    74
1070
     0
1000
MTEXTEND
  0
POINT
  5
8DC
330
8D4
100
AcDbEntity
  8
Defpoints
  6
ByBlock
 62
     0
100
AcDbPoint
 10
2625.843359496176
 20
1751.852336337072
 30
0.0
  0
POINT
  5
8DD
330
8D4
100
AcDbEntity
  8
Defpoints
  6
ByBlock
 62
     0
100
AcDbPoint
 10
2605.843359495001
 20
2151.852336337016
 30
0.0
  0
POINT
  5
8DE
330
8D4
100
AcDbEntity
  8
Defpoints
  6
ByBlock
 62
     0
100
AcDbPoint
 10
2370.461908547138
 20
2151.852336337016
 30
0.0
  0
ENDBLK
  5
8DF
330
8D4
100
AcDbEntity
  8
0
100
AcDbBlockEnd
  0
BLOCK
  5
A00
330
9FF
100
AcDbEntity
  8
0
100
AcDbBlockBegin
  2
*D39
 70
     1
 10
0.0
 20
0.0
 30
0.0
  3
*D39
  1

  0
LINE
  5
BC3
330
9FF
100
AcDbEntity
  8
AM_5
  6
ByBlock
100
AcDbLine
 10
4524.037090063416
 20
431.5520546502551
 30
0.0
 11
4524.037090063416
 21
467.306779301322
 31
0.0
  0
LINE
  5
BC4
330
9FF
100
AcDbEntity
  8
AM_5
  6
ByBlock
100
AcDbLine
 10
4596.037090063416
 20
431.5520546503704
 30
0.0
 11
4596.037090063416
 21
467.306779301322
 31
0.0
  0
LINE
  5
BC5
330
9FF
100
AcDbEntity
  8
AM_5
  6
ByBlock
100
AcDbLine
 10
4531.037090063416
 20
466.3067793013222
 30
0.0
 11
4589.037090063416
 21
466.3067793013222
 31
0.0
  0
SOLID
  5
BC6
330
9FF
100
AcDbEntity
  8
AM_5
100
AcDbTrace
 10
4531.037090063416
 20
467.4734459679888
 30
0.0
 11
4531.037090063416
 21
465.1401126346555
 31
0.0
 12
4524.037090063416
 22
466.3067793013222
 32
0.0
 13
4524.037090063416
 23
466.3067793013222
 33
0.0
  0
SOLID
  5
BC7
330
9FF
100
AcDbEntity
  8
AM_5
100
AcDbTrace
 10
4589.037090063416
 20
467.4734459679888
 30
0.0
 11
4589.037090063416
 21
465.1401126346555
 31
0.0
 12
4596.037090063416
 22
466.3067793013222
 32
0.0
 13
4596.037090063416
 23
466.3067793013222
 33
0.0
  0
MTEXT
  5
BC8
330
9FF
100
AcDbEntity
  8
AM_5
 62
     2
100
AcDbMText
 10
4560.037090063416
 20
472.8077635532907
 30
0.0
 40
10.0
 41
0.0
 71
     5
 72
     1
  1
72
 73
     1
 44
1.0
1001
ACAD
1000
MTEXTBEGIN
1070
    73
1070
     1
1070
    44
1040
1.0
1070
    74
1070
     0
1000
MTEXTEND
  0
POINT
  5
BC9
330
9FF
100
AcDbEntity
  8
Defpoints
 62
     0
100
AcDbPoint
 10
4524.037090063416
 20
430.552054650255
 30
0.0
  0
POINT
  5
BCA
330
9FF
100
AcDbEntity
  8
Defpoints
 62
     0
100
AcDbPoint
 10
4596.037090063416
 20
430.5520546503704
 30
0.0
  0
POINT
  5
BCB
330
9FF
100
AcDbEntity
  8
Defpoints
 62
     0
100
AcDbPoint
 10
4596.037090063416
 20
466.3067793013222
 30
0.0
  0
ENDBLK
  5
A01
330
9FF
100
AcDbEntity
  8
0
100
AcDbBlockEnd
  0
BLOCK
  5
A0C
330
A0B
100
AcDbEntity
  8
0
100
AcDbBlockBegin
  2
*D40
 70
     1
 10
0.0
 20
0.0
 30
0.0
  3
*D40
  1

  0
LINE
  5
BCC
330
A0B
100
AcDbEntity
  8
AM_5
  6
ByBlock
100
AcDbLine
 10
4520.037090063386
 20
452.2256537467103
 30
0.0
 11
4520.037090063386
 21
480.3362347092781
 31
0.0
  0
LINE
  5
BCD
330
A0B
100
AcDbEntity
  8
AM_5
  6
ByBlock
100
AcDbLine
 10
4600.037090063386
 20
452.2256537468393
 30
0.0
 11
4600.037090063386
 21
480.3362347092781
 31
0.0
  0
LINE
  5
BCE
330
A0B
100
AcDbEntity
  8
AM_5
  6
ByBlock
100
AcDbLine
 10
4527.037090063386
 20
479.3362347092782
 30
0.0
 11
4593.037090063385
 21
479.3362347092782
 31
0.0
  0
SOLID
  5
BCF
330
A0B
100
AcDbEntity
  8
AM_5
100
AcDbTrace
 10
4527.037090063386
 20
480.5029013759448
 30
0.0
 11
4527.037090063386
 21
478.1695680426114
 31
0.0
 12
4520.037090063386
 22
479.3362347092782
 32
0.0
 13
4520.037090063386
 23
479.3362347092782
 33
0.0
  0
SOLID
  5
BD0
330
A0B
100
AcDbEntity
  8
AM_5
100
AcDbTrace
 10
4593.037090063385
 20
480.5029013759448
 30
0.0
 11
4593.037090063385
 21
478.1695680426114
 31
0.0
 12
4600.037090063386
 22
479.3362347092782
 32
0.0
 13
4600.037090063386
 23
479.3362347092782
 33
0.0
  0
MTEXT
  5
BD1
330
A0B
100
AcDbEntity
  8
AM_5
 62
     2
100
AcDbMText
 10
4560.037090063386
 20
485.8362347092781
 30
0.0
 40
10.0
 41
0.0
 71
     5
 72
     1
  1
80
 73
     1
 44
1.0
1001
ACAD
1000
MTEXTBEGIN
1070
    73
1070
     1
1070
    44
1040
1.0
1070
    74
1070
     0
1000
MTEXTEND
  0
POINT
  5
BD2
330
A0B
100
AcDbEntity
  8
Defpoints
 62
     0
100
AcDbPoint
 10
4520.037090063386
 20
451.2256537467102
 30
0.0
  0
POINT
  5
BD3
330
A0B
100
AcDbEntity
  8
Defpoints
 62
     0
100
AcDbPoint
 10
4600.037090063386
 20
451.2256537468394
 30
0.0
  0
POINT
  5
BD4
330
A0B
100
AcDbEntity
  8
Defpoints
 62
     0
100
AcDbPoint
 10
4600.037090063386
 20
479.3362347092782
 30
0.0
  0
ENDBLK
  5
A0D
330
A0B
100
AcDbEntity
  8
0
100
AcDbBlockEnd
  0
BLOCK
  5
A18
330
A17
100
AcDbEntity
  8
0
100
AcDbBlockBegin
  2
*D41
 70
     1
 10
0.0
 20
0.0
 30
0.0
  3
*D41
  1

  0
LINE
  5
B40
330
A17
100
AcDbEntity
  8
5
370
    -2
100
AcDbLine
 10
4574.445479948212
 20
3008.425466501936
 30
0.0
 11
4857.695479948571
 21
3008.425466501936
 31
0.0
  0
LINE
  5
B41
330
A17
100
AcDbEntity
  8
5
370
    -2
100
AcDbLine
 10
5193.19723602671
 20
2358.425466502933
 30
0.0
 11
5373.814190920477
 21
2358.425466502933
 31
0.0
  0
LINE
  5
B42
330
A17
100
AcDbEntity
  8
5
370
    -2
100
AcDbLine
 10
5353.814190920478
 20
2958.425466501936
 30
0.0
 11
5353.814190920478
 21
2408.425466502933
 31
0.0
  0
SOLID
  5
B43
330
A17
100
AcDbEntity
  8
5
100
AcDbTrace
 10
5345.480857587144
 20
2958.425466501936
 30
0.0
 11
5362.147524253811
 21
2958.425466501936
 31
0.0
 12
5353.814190920478
 22
3008.425466501936
 32
0.0
 13
5353.814190920478
 23
3008.425466501936
 33
0.0
  0
SOLID
  5
B44
330
A17
100
AcDbEntity
  8
5
100
AcDbTrace
 10
5345.480857587144
 20
2408.425466502933
 30
0.0
 11
5362.147524253811
 21
2408.425466502933
 31
0.0
 12
5353.814190920478
 22
2358.425466502933
 32
0.0
 13
5353.814190920478
 23
2358.425466502933
 33
0.0
  0
MTEXT
  5
B45
330
A17
100
AcDbEntity
  8
5
 62
     2
100
AcDbMText
 10
5306.814190920476
 20
2734.258799837065
 30
0.0
 40
70.0
 41
0.0
 71
     5
 72
     1
  1
65
 11
0.0000000000000001
 21
1.0
 31
0.0
 73
     1
 44
1.0
1001
ACAD
1000
MTEXTBEGIN
1070
    73
1070
     1
1070
    44
1040
1.0
1070
    74
1070
     0
1000
MTEXTEND
  0
POINT
  5
B46
330
A17
100
AcDbEntity
  8
Defpoints
 62
     0
100
AcDbPoint
 10
4554.445479948213
 20
3008.425466501936
 30
0.0
  0
POINT
  5
B47
330
A17
100
AcDbEntity
  8
Defpoints
 62
     0
100
AcDbPoint
 10
5173.19723602671
 20
2358.425466502933
 30
0.0
  0
POINT
  5
B48
330
A17
100
AcDbEntity
  8
Defpoints
 62
     0
100
AcDbPoint
 10
5353.814190920478
 20
2358.425466502933
 30
0.0
  0
LINE
  5
B49
330
A17
100
AcDbEntity
  8
5
370
    -2
100
AcDbLine
 10
4861.19547994857
 20
3008.425466501936
 30
0.0
 11
5373.814190920477
 21
3008.425466501936
 31
0.0
  0
ENDBLK
  5
A19
330
A17
100
AcDbEntity
  8
0
100
AcDbBlockEnd
  0
BLOCK
  5
A24
330
A23
100
AcDbEntity
  8
0
100
AcDbBlockBegin
  2
*D42
 70
     1
 10
0.0
 20
0.0
 30
0.0
  3
*D42
  1

  0
LINE
  5
ADB
330
A23
100
AcDbEntity
  8
5
370
    -2
100
AcDbLine
 10
3519.445479948448
 20
3008.425466498915
 30
0.0
 11
3274.064029000958
 21
3008.425466498915
 31
0.0
  0
LINE
  5
ADC
330
A23
100
AcDbEntity
  8
5
370
    -2
100
AcDbLine
 10
4119.44547994887
 20
2758.425466500716
 30
0.0
 11
3274.064029000958
 21
2758.425466500716
 31
0.0
  0
LINE
  5
ADD
330
A23
100
AcDbEntity
  8
5
370
    -2
100
AcDbLine
 10
3294.064029000959
 20
2958.425466498915
 30
0.0
 11
3294.064029000959
 21
2808.425466500716
 31
0.0
  0
SOLID
  5
ADE
330
A23
100
AcDbEntity
  8
5
100
AcDbTrace
 10
3285.730695667626
 20
2958.425466498915
 30
0.0
 11
3302.397362334293
 21
2958.425466498915
 31
0.0
 12
3294.064029000959
 22
3008.425466498915
 32
0.0
 13
3294.064029000959
 23
3008.425466498915
 33
0.0
  0
SOLID
  5
ADF
330
A23
100
AcDbEntity
  8
5
100
AcDbTrace
 10
3285.730695667626
 20
2808.425466500716
 30
0.0
 11
3302.397362334293
 21
2808.425466500716
 31
0.0
 12
3294.064029000959
 22
2758.425466500716
 32
0.0
 13
3294.064029000959
 23
2758.425466500716
 33
0.0
  0
MTEXT
  5
AE0
330
A23
100
AcDbEntity
  8
5
 62
     2
100
AcDbMText
 10
3247.057139237179
 20
2881.718017183958
 30
0.0
 40
70.0
 41
0.0
 71
     5
 72
     1
  1
25
 11
0.0000000000000001
 21
1.0
 31
0.0
 73
     1
 44
1.0
1001
ACAD
1000
MTEXTBEGIN
1070
    73
1070
     1
1070
    44
1040
1.0
1070
    74
1070
     0
1000
MTEXTEND
  0
POINT
  5
AE1
330
A23
100
AcDbEntity
  8
Defpoints
 62
     0
100
AcDbPoint
 10
3539.445479948446
 20
3008.425466498915
 30
0.0
  0
POINT
  5
AE2
330
A23
100
AcDbEntity
  8
Defpoints
 62
     0
100
AcDbPoint
 10
4139.445479948871
 20
2758.425466500716
 30
0.0
  0
POINT
  5
AE3
330
A23
100
AcDbEntity
  8
Defpoints
 62
     0
100
AcDbPoint
 10
3294.064029000959
 20
2758.425466500716
 30
0.0
  0
ENDBLK
  5
A25
330
A23
100
AcDbEntity
  8
0
100
AcDbBlockEnd
  0
BLOCK
  5
A30
330
A2F
100
AcDbEntity
  8
0
100
AcDbBlockBegin
  2
*D43
 70
     1
 10
0.0
 20
0.0
 30
0.0
  3
*D43
  1

  0
ARC
  5
AE4
330
A2F
100
AcDbEntity
  8
5
370
    -2
100
AcDbCircle
 10
4139.445479948842
 20
2775.09213316722
 30
0.0
 40
146.0280237356524
100
AcDbArc
 50
24.47883738073012
 51
155.5211626194545
  0
SOLID
  5
AE5
330
A2F
100
AcDbEntity
  8
5
100
AcDbTrace
 10
4280.411147909815
 20
2837.703450821324
 30
0.0
 11
4264.284220211062
 21
2833.49631631231
 31
0.0
 12
4284.969087587481
 22
2787.219100470555
 32
0.0
 13
4284.969087587481
 23
2787.219100470555
 33
0.0
  0
SOLID
  5
AE6
330
A2F
100
AcDbEntity
  8
5
100
AcDbTrace
 10
4014.606739686437
 20
2833.496316311908
 30
0.0
 11
3998.479811987671
 21
2837.70345082087
 31
0.0
 12
3993.921872310167
 22
2787.219100470086
 32
0.0
 13
3993.921872310167
 23
2787.219100470086
 33
0.0
  0
MTEXT
  5
AE7
330
A2F
100
AcDbEntity
  8
5
 62
     2
100
AcDbMText
 10
4044.177698326881
 20
2942.972649404576
 30
0.0
 40
70.0
 41
0.0
 71
     5
 72
     1
  1
170°
 11
0.8697209502971759
 21
0.4935437859138512
 31
0.0
 73
     1
 44
1.0
1001
ACAD
1000
MTEXTBEGIN
1070
    73
1070
     1
1070
    44
1040
1.0
1070
    74
1070
     0
1000
MTEXTEND
  0
POINT
  5
AE8
330
A2F
100
AcDbEntity
  8
Defpoints
 62
     0
100
AcDbPoint
 10
4208.927112659785
 20
2903.530781680671
 30
0.0
  0
POINT
  5
AE9
330
A2F
100
AcDbEntity
  8
Defpoints
 62
     0
100
AcDbPoint
 10
4139.445479948842
 20
2775.09213316722
 30
0.0
  0
POINT
  5
AEA
330
A2F
100
AcDbEntity
  8
Defpoints
 62
     0
100
AcDbPoint
 10
4139.445479948842
 20
2775.09213316722
 30
0.0
  0
POINT
  5
AEB
330
A2F
100
AcDbEntity
  8
Defpoints
 62
     0
100
AcDbPoint
 10
4725.691162146048
 20
2823.945940017455
 30
0.0
  0
POINT
  5
AEC
330
A2F
100
AcDbEntity
  8
Defpoints
 62
     0
100
AcDbPoint
 10
3553.199797751483
 20
2823.945940015566
 30
0.0
  0
ENDBLK
  5
A31
330
A2F
100
AcDbEntity
  8
0
100
AcDbBlockEnd
  0
BLOCK
  5
A3C
330
A3B
100
AcDbEntity
  8
0
100
AcDbBlockBegin
  2
*D44
 70
     1
 10
0.0
 20
0.0
 30
0.0
  3
*D44
  1

  0
LINE
  5
AED
330
A3B
100
AcDbEntity
  8
5
370
    -2
100
AcDbLine
 10
3519.445479948448
 20
3008.425466498953
 30
0.0
 11
3114.328270169024
 21
3008.425466498953
 31
0.0
  0
LINE
  5
AEE
330
A3B
100
AcDbEntity
  8
5
370
    -2
100
AcDbLine
 10
3809.445479950149
 20
1938.425466499663
 30
0.0
 11
3114.328270169024
 21
1938.425466499663
 31
0.0
  0
LINE
  5
AEF
330
A3B
100
AcDbEntity
  8
5
370
    -2
100
AcDbLine
 10
3134.328270169024
 20
2958.425466498953
 30
0.0
 11
3134.328270169024
 21
1988.425466499663
 31
0.0
  0
SOLID
  5
AF0
330
A3B
100
AcDbEntity
  8
5
100
AcDbTrace
 10
3125.99493683569
 20
2958.425466498953
 30
0.0
 11
3142.661603502357
 21
2958.425466498953
 31
0.0
 12
3134.328270169024
 22
3008.425466498953
 32
0.0
 13
3134.328270169024
 23
3008.425466498953
 33
0.0
  0
SOLID
  5
AF1
330
A3B
100
AcDbEntity
  8
5
100
AcDbTrace
 10
3125.99493683569
 20
1988.425466499663
 30
0.0
 11
3142.661603502357
 21
1988.425466499663
 31
0.0
 12
3134.328270169024
 22
1938.425466499663
 32
0.0
 13
3134.328270169024
 23
1938.425466499663
 33
0.0
  0
MTEXT
  5
AF2
330
A3B
100
AcDbEntity
  8
5
 62
     2
100
AcDbMText
 10
3087.328270169023
 20
2470.074417234805
 30
0.0
 40
70.0
 41
0.0
 71
     5
 72
     1
  1
107
 11
0.0000000000000001
 21
1.0
 31
0.0
 73
     1
 44
1.0
1001
ACAD
1000
MTEXTBEGIN
1070
    73
1070
     1
1070
    44
1040
1.0
1070
    74
1070
     0
1000
MTEXTEND
  0
POINT
  5
AF3
330
A3B
100
AcDbEntity
  8
Defpoints
 62
     0
100
AcDbPoint
 10
3539.445479948446
 20
3008.425466498953
 30
0.0
  0
POINT
  5
AF4
330
A3B
100
AcDbEntity
  8
Defpoints
 62
     0
100
AcDbPoint
 10
3829.44547995015
 20
1938.425466499663
 30
0.0
  0
POINT
  5
AF5
330
A3B
100
AcDbEntity
  8
Defpoints
 62
     0
100
AcDbPoint
 10
3134.328270169024
 20
1938.425466499663
 30
0.0
  0
ENDBLK
  5
A3D
330
A3B
100
AcDbEntity
  8
0
100
AcDbBlockEnd
  0
BLOCK
  5
A48
330
A47
100
AcDbEntity
  8
0
100
AcDbBlockBegin
  2
*D45
 70
     1
 10
0.0
 20
0.0
 30
0.0
  3
*D45
  1

  0
LINE
  5
AF6
330
A47
100
AcDbEntity
  8
5
370
    -2
100
AcDbLine
 10
4534.445479948213
 20
3008.425466501936
 30
0.0
 11
4397.817493321904
 21
3008.425466501936
 31
0.0
  0
LINE
  5
AF7
330
A47
100
AcDbEntity
  8
5
370
    -2
100
AcDbLine
 10
4515.483714249243
 20
2812.070817389528
 30
0.0
 11
4397.817493321904
 21
2812.070817389528
 31
0.0
  0
LINE
  5
AF8
330
A47
100
AcDbEntity
  8
5
370
    -2
100
AcDbLine
 10
4417.817493321904
 20
2958.425466501936
 30
0.0
 11
4417.817493321904
 21
2862.070817389528
 31
0.0
  0
SOLID
  5
AF9
330
A47
100
AcDbEntity
  8
5
100
AcDbTrace
 10
4409.484159988571
 20
2958.425466501936
 30
0.0
 11
4426.150826655236
 21
2958.425466501936
 31
0.0
 12
4417.817493321904
 22
3008.425466501936
 32
0.0
 13
4417.817493321904
 23
3008.425466501936
 33
0.0
  0
SOLID
  5
AFA
330
A47
100
AcDbEntity
  8
5
100
AcDbTrace
 10
4409.484159988571
 20
2862.070817389528
 30
0.0
 11
4426.150826655236
 21
2862.070817389528
 31
0.0
 12
4417.817493321904
 22
2812.070817389528
 32
0.0
 13
4417.817493321904
 23
2812.070817389528
 33
0.0
  0
MTEXT
  5
AFB
330
A47
100
AcDbEntity
  8
5
 62
     2
100
AcDbMText
 10
4370.810603558124
 20
2907.852369926086
 30
0.0
 40
70.0
 41
0.0
 71
     5
 72
     1
  1
20
 11
0.0000000000000001
 21
1.0
 31
0.0
 73
     1
 44
1.0
1001
ACAD
1000
MTEXTBEGIN
1070
    73
1070
     1
1070
    44
1040
1.0
1070
    74
1070
     0
1000
MTEXTEND
  0
POINT
  5
AFC
330
A47
100
AcDbEntity
  8
Defpoints
 62
     0
100
AcDbPoint
 10
4554.445479948213
 20
3008.425466501936
 30
0.0
  0
POINT
  5
AFD
330
A47
100
AcDbEntity
  8
Defpoints
 62
     0
100
AcDbPoint
 10
4535.483714249243
 20
2812.070817389528
 30
0.0
  0
POINT
  5
AFE
330
A47
100
AcDbEntity
  8
Defpoints
 62
     0
100
AcDbPoint
 10
4417.817493321904
 20
2812.070817389528
 30
0.0
  0
ENDBLK
  5
A49
330
A47
100
AcDbEntity
  8
0
100
AcDbBlockEnd
  0
BLOCK
  5
A54
330
A53
100
AcDbEntity
  8
0
100
AcDbBlockBegin
  2
*D46
 70
     1
 10
0.0
 20
0.0
 30
0.0
  3
*D46
  1

  0
LINE
  5
AFF
330
A53
100
AcDbEntity
  8
5
  6
ByBlock
370
    -2
100
AcDbLine
 10
4879.445479948572
 20
2858.42546650105
 30
0.0
 11
4988.643462807431
 21
2858.42546650105
 31
0.0
  0
LINE
  5
B00
330
A53
100
AcDbEntity
  8
5
  6
ByBlock
370
    -2
100
AcDbLine
 10
4879.445479948604
 20
2848.425466501041
 30
0.0
 11
4988.643462807431
 21
2848.425466501041
 31
0.0
  0
LINE
  5
B01
330
A53
100
AcDbEntity
  8
5
  6
ByBlock
370
    -2
100
AcDbLine
 10
4968.643462807431
 20
2908.42546650105
 30
0.0
 11
4968.643462807431
 21
2958.42546650105
 31
0.0
  0
LINE
  5
B02
330
A53
100
AcDbEntity
  8
5
  6
ByBlock
370
    -2
100
AcDbLine
 10
4968.643462807431
 20
2798.42546650104
 30
0.0
 11
4968.643462807431
 21
2710.425466501041
 31
0.0
  0
LINE
  5
B03
330
A53
100
AcDbEntity
  8
5
  6
ByBlock
370
    -2
100
AcDbLine
 10
4968.643462807431
 20
2858.42546650105
 30
0.0
 11
4968.643462807431
 21
2848.425466501041
 31
0.0
  0
SOLID
  5
B04
330
A53
100
AcDbEntity
  8
5
  6
ByBlock
100
AcDbTrace
 10
4960.310129474098
 20
2908.42546650105
 30
0.0
 11
4976.976796140764
 21
2908.42546650105
 31
0.0
 12
4968.643462807431
 22
2858.42546650105
 32
0.0
 13
4968.643462807431
 23
2858.42546650105
 33
0.0
  0
SOLID
  5
B05
330
A53
100
AcDbEntity
  8
5
  6
ByBlock
100
AcDbTrace
 10
4960.310129474098
 20
2798.42546650104
 30
0.0
 11
4976.976796140764
 21
2798.42546650104
 31
0.0
 12
4968.643462807431
 22
2848.425466501041
 32
0.0
 13
4968.643462807431
 23
2848.425466501041
 33
0.0
  0
MTEXT
  5
B06
330
A53
100
AcDbEntity
  8
5
  6
ByBlock
 62
     2
100
AcDbMText
 10
4921.643462807431
 20
2729.425466501041
 30
0.0
 40
70.0
 41
0.0
 71
     5
 72
     1
  1
1
 11
0.0000000000000001
 21
1.0
 31
0.0
 73
     1
 44
1.0
1001
ACAD
1000
MTEXTBEGIN
1070
    73
1070
     1
1070
    44
1040
1.0
1070
    74
1070
     0
1000
MTEXTEND
  0
POINT
  5
B07
330
A53
100
AcDbEntity
  8
Defpoints
  6
ByBlock
 62
     0
100
AcDbPoint
 10
4859.44547994857
 20
2858.42546650105
 30
0.0
  0
POINT
  5
B08
330
A53
100
AcDbEntity
  8
Defpoints
  6
ByBlock
 62
     0
100
AcDbPoint
 10
4859.445479948605
 20
2848.425466501041
 30
0.0
  0
POINT
  5
B09
330
A53
100
AcDbEntity
  8
Defpoints
  6
ByBlock
 62
     0
100
AcDbPoint
 10
4968.643462807431
 20
2848.425466501041
 30
0.0
  0
ENDBLK
  5
A55
330
A53
100
AcDbEntity
  8
0
100
AcDbBlockEnd
  0
BLOCK
  5
A62
330
A61
100
AcDbEntity
  8
0
100
AcDbBlockBegin
  2
*D47
 70
     1
 10
0.0
 20
0.0
 30
0.0
  3
*D47
  1

  0
LINE
  5
B0A
330
A61
100
AcDbEntity
  8
5
  6
ByBlock
370
    -2
100
AcDbLine
 10
4559.445479948538
 20
2953.42546650136
 30
0.0
 11
4559.445479948538
 21
3161.058793975398
 31
0.0
  0
LINE
  5
B0B
330
A61
100
AcDbEntity
  8
5
  6
ByBlock
370
    -2
100
AcDbLine
 10
4859.44547994857
 20
2878.42546650105
 30
0.0
 11
4859.44547994857
 21
3161.058793975398
 31
0.0
  0
LINE
  5
B0C
330
A61
100
AcDbEntity
  8
5
  6
ByBlock
370
    -2
100
AcDbLine
 10
4609.445479948538
 20
3141.058793975398
 30
0.0
 11
4809.44547994857
 21
3141.058793975398
 31
0.0
  0
SOLID
  5
B0D
330
A61
100
AcDbEntity
  8
5
  6
ByBlock
100
AcDbTrace
 10
4609.445479948538
 20
3149.392127308731
 30
0.0
 11
4609.445479948538
 21
3132.725460642064
 31
0.0
 12
4559.445479948538
 22
3141.058793975398
 32
0.0
 13
4559.445479948538
 23
3141.058793975398
 33
0.0
  0
SOLID
  5
B0E
330
A61
100
AcDbEntity
  8
5
  6
ByBlock
100
AcDbTrace
 10
4809.44547994857
 20
3149.392127308731
 30
0.0
 11
4809.44547994857
 21
3132.725460642064
 31
0.0
 12
4859.44547994857
 22
3141.058793975398
 32
0.0
 13
4859.44547994857
 23
3141.058793975398
 33
0.0
  0
MTEXT
  5
B0F
330
A61
100
AcDbEntity
  8
5
  6
ByBlock
 62
     2
100
AcDbMText
 10
4709.445479948159
 20
3188.058793975398
 30
0.0
 40
70.0
 41
0.0
 71
     5
 72
     1
  1
30
 73
     1
 44
1.0
1001
ACAD
1000
MTEXTBEGIN
1070
    73
1070
     1
1070
    44
1040
1.0
1070
    74
1070
     0
1000
MTEXTEND
  0
POINT
  5
B10
330
A61
100
AcDbEntity
  8
Defpoints
  6
ByBlock
 62
     0
100
AcDbPoint
 10
4559.445479948538
 20
2933.42546650136
 30
0.0
  0
POINT
  5
B11
330
A61
100
AcDbEntity
  8
Defpoints
  6
ByBlock
 62
     0
100
AcDbPoint
 10
4859.44547994857
 20
2858.42546650105
 30
0.0
  0
POINT
  5
B12
330
A61
100
AcDbEntity
  8
Defpoints
  6
ByBlock
 62
     0
100
AcDbPoint
 10
4859.44547994857
 20
3141.058793975398
 30
0.0
  0
ENDBLK
  5
A63
330
A61
100
AcDbEntity
  8
0
100
AcDbBlockEnd
  0
BLOCK
  5
A6E
330
A6D
100
AcDbEntity
  8
0
100
AcDbBlockBegin
  2
*D48
 70
     1
 10
0.0
 20
0.0
 30
0.0
  3
*D48
  1

  0
LINE
  5
B13
330
A6D
100
AcDbEntity
  8
5
  6
ByBlock
370
    -2
100
AcDbLine
 10
4569.445479948352
 20
3008.425466501726
 30
0.0
 11
5183.387276509646
 21
3008.425466501726
 31
0.0
  0
LINE
  5
B14
330
A6D
100
AcDbEntity
  8
5
  6
ByBlock
370
    -2
100
AcDbLine
 10
4879.445479948588
 20
2858.42546650105
 30
0.0
 11
5183.387276509646
 21
2858.42546650105
 31
0.0
  0
LINE
  5
B15
330
A6D
100
AcDbEntity
  8
5
  6
ByBlock
370
    -2
100
AcDbLine
 10
5163.387276509645
 20
2958.425466501726
 30
0.0
 11
5163.387276509645
 21
2908.42546650105
 31
0.0
  0
SOLID
  5
B16
330
A6D
100
AcDbEntity
  8
5
  6
ByBlock
100
AcDbTrace
 10
5155.053943176312
 20
2958.425466501726
 30
0.0
 11
5171.720609842979
 21
2958.425466501726
 31
0.0
 12
5163.387276509645
 22
3008.425466501726
 32
0.0
 13
5163.387276509645
 23
3008.425466501726
 33
0.0
  0
SOLID
  5
B17
330
A6D
100
AcDbEntity
  8
5
  6
ByBlock
100
AcDbTrace
 10
5155.053943176312
 20
2908.42546650105
 30
0.0
 11
5171.720609842979
 21
2908.42546650105
 31
0.0
 12
5163.387276509645
 22
2858.42546650105
 32
0.0
 13
5163.387276509645
 23
2858.42546650105
 33
0.0
  0
MTEXT
  5
B18
330
A6D
100
AcDbEntity
  8
5
  6
ByBlock
 62
     2
100
AcDbMText
 10
5116.387276509644
 20
2933.425466501388
 30
0.0
 40
70.0
 41
0.0
 71
     5
 72
     1
  1
15
 11
0.0000000000000001
 21
1.0
 31
0.0
 73
     1
 44
1.0
1001
ACAD
1000
MTEXTBEGIN
1070
    73
1070
     1
1070
    44
1040
1.0
1070
    74
1070
     0
1000
MTEXTEND
  0
POINT
  5
B19
330
A6D
100
AcDbEntity
  8
Defpoints
  6
ByBlock
 62
     0
100
AcDbPoint
 10
4549.445479948352
 20
3008.425466501726
 30
0.0
  0
POINT
  5
B1A
330
A6D
100
AcDbEntity
  8
Defpoints
  6
ByBlock
 62
     0
100
AcDbPoint
 10
4859.44547994859
 20
2858.42546650105
 30
0.0
  0
POINT
  5
B1B
330
A6D
100
AcDbEntity
  8
Defpoints
  6
ByBlock
 62
     0
100
AcDbPoint
 10
5163.387276509645
 20
2858.42546650105
 30
0.0
  0
ENDBLK
  5
A6F
330
A6D
100
AcDbEntity
  8
0
100
AcDbBlockEnd
  0
BLOCK
  5
A7A
330
A79
100
AcDbEntity
  8
0
100
AcDbBlockBegin
  2
*D49
 70
     1
 10
0.0
 20
0.0
 30
0.0
  3
*D49
  1

  0
LINE
  5
B1C
330
A79
100
AcDbEntity
  8
5
  6
ByBlock
370
    -2
100
AcDbLine
 10
3759.445479950038
 20
1988.425466499551
 30
0.0
 11
3759.445479950038
 21
1740.31809450655
 31
0.0
  0
LINE
  5
B1D
330
A79
100
AcDbEntity
  8
5
  6
ByBlock
370
    -2
100
AcDbLine
 10
4519.445479950053
 20
1988.425466500775
 30
0.0
 11
4519.445479950053
 21
1740.31809450655
 31
0.0
  0
LINE
  5
B1E
330
A79
100
AcDbEntity
  8
5
  6
ByBlock
370
    -2
100
AcDbLine
 10
3809.445479950038
 20
1760.31809450655
 30
0.0
 11
4469.445479950055
 21
1760.31809450655
 31
0.0
  0
SOLID
  5
B1F
330
A79
100
AcDbEntity
  8
5
  6
ByBlock
100
AcDbTrace
 10
3809.445479950038
 20
1768.651427839883
 30
0.0
 11
3809.445479950038
 21
1751.984761173217
 31
0.0
 12
3759.445479950038
 22
1760.31809450655
 32
0.0
 13
3759.445479950038
 23
1760.31809450655
 33
0.0
  0
SOLID
  5
B20
330
A79
100
AcDbEntity
  8
5
  6
ByBlock
100
AcDbTrace
 10
4469.445479950055
 20
1768.651427839883
 30
0.0
 11
4469.445479950055
 21
1751.984761173217
 31
0.0
 12
4519.445479950053
 22
1760.31809450655
 32
0.0
 13
4519.445479950053
 23
1760.31809450655
 33
0.0
  0
MTEXT
  5
B21
330
A79
100
AcDbEntity
  8
5
  6
ByBlock
 62
     2
100
AcDbMText
 10
4139.445479950046
 20
1807.31809450655
 30
0.0
 40
70.0
 41
0.0
 71
     5
 72
     1
  1
%%c 75
 73
     1
 44
1.0
1001
ACAD
1000
MTEXTBEGIN
1070
    73
1070
     1
1070
    44
1040
1.0
1070
    74
1070
     0
1000
MTEXTEND
  0
POINT
  5
B22
330
A79
100
AcDbEntity
  8
Defpoints
  6
ByBlock
 62
     0
100
AcDbPoint
 10
3759.445479950038
 20
2008.425466499551
 30
0.0
  0
POINT
  5
B23
330
A79
100
AcDbEntity
  8
Defpoints
  6
ByBlock
 62
     0
100
AcDbPoint
 10
4519.445479950053
 20
2008.425466500776
 30
0.0
  0
POINT
  5
B24
330
A79
100
AcDbEntity
  8
Defpoints
  6
ByBlock
 62
     0
100
AcDbPoint
 10
4519.445479950053
 20
1760.31809450655
 30
0.0
  0
ENDBLK
  5
A7B
330
A79
100
AcDbEntity
  8
0
100
AcDbBlockEnd
  0
BLOCK
  5
A86
330
A85
100
AcDbEntity
  8
0
100
AcDbBlockBegin
  2
*D50
 70
     1
 10
0.0
 20
0.0
 30
0.0
  3
*D50
  1

  0
LINE
  5
B25
330
A85
100
AcDbEntity
  8
5
370
    -2
100
AcDbLine
 10
5124.445479949077
 20
2608.425466502823
 30
0.0
 11
5544.454577265547
 21
2608.425466502823
 31
0.0
  0
LINE
  5
B26
330
A85
100
AcDbEntity
  8
5
370
    -2
100
AcDbLine
 10
5124.445479949891
 20
2108.425466502822
 30
0.0
 11
5544.454577265547
 21
2108.425466502822
 31
0.0
  0
LINE
  5
B27
330
A85
100
AcDbEntity
  8
5
370
    -2
100
AcDbLine
 10
5524.454577265546
 20
2558.425466502822
 30
0.0
 11
5524.454577265546
 21
2158.425466502822
 31
0.0
  0
SOLID
  5
B28
330
A85
100
AcDbEntity
  8
5
100
AcDbTrace
 10
5516.121243932214
 20
2558.425466502822
 30
0.0
 11
5532.78791059888
 21
2558.425466502822
 31
0.0
 12
5524.454577265546
 22
2608.425466502823
 32
0.0
 13
5524.454577265546
 23
2608.425466502823
 33
0.0
  0
SOLID
  5
B29
330
A85
100
AcDbEntity
  8
5
100
AcDbTrace
 10
5516.121243932214
 20
2158.425466502822
 30
0.0
 11
5532.78791059888
 21
2158.425466502822
 31
0.0
 12
5524.454577265546
 22
2108.425466502822
 32
0.0
 13
5524.454577265546
 23
2108.425466502822
 33
0.0
  0
MTEXT
  5
B2A
330
A85
100
AcDbEntity
  8
5
 62
     2
100
AcDbMText
 10
5477.454577265547
 20
2357.175466503511
 30
0.0
 40
70.0
 41
0.0
 71
     5
 72
     1
  1
%%c 50
 11
0.0000000000000001
 21
1.0
 31
0.0
 73
     1
 44
1.0
1001
ACAD
1000
MTEXTBEGIN
1070
    73
1070
     1
1070
    44
1040
1.0
1070
    74
1070
     0
1000
MTEXTEND
  0
POINT
  5
B2B
330
A85
100
AcDbEntity
  8
Defpoints
 62
     0
100
AcDbPoint
 10
5104.445479949077
 20
2608.425466502823
 30
0.0
  0
POINT
  5
B2C
330
A85
100
AcDbEntity
  8
Defpoints
 62
     0
100
AcDbPoint
 10
5104.445479949891
 20
2108.425466502823
 30
0.0
  0
POINT
  5
B2D
330
A85
100
AcDbEntity
  8
Defpoints
 62
     0
100
AcDbPoint
 10
5524.454577265546
 20
2108.425466502822
 30
0.0
  0
ENDBLK
  5
A87
330
A85
100
AcDbEntity
  8
0
100
AcDbBlockEnd
  0
BLOCK
  5
A92
330
A91
100
AcDbEntity
  8
0
100
AcDbBlockBegin
  2
*D51
 70
     1
 10
0.0
 20
0.0
 30
0.0
  3
*D51
  1

  0
LINE
  5
B2E
330
A91
100
AcDbEntity
  8
5
  6
ByBlock
370
    -2
100
AcDbLine
 10
3539.445479947268
 20
3388.425466498953
 30
0.0
 11
3539.445479947268
 21
3253.523007630846
 31
0.0
  0
LINE
  5
B2F
330
A91
100
AcDbEntity
  8
5
  6
ByBlock
370
    -2
100
AcDbLine
 10
3739.445479949471
 20
3008.425466499424
 30
0.0
 11
3739.445479949471
 21
3293.523007630846
 31
0.0
  0
LINE
  5
B30
330
A91
100
AcDbEntity
  8
5
  6
ByBlock
370
    -2
100
AcDbLine
 10
3589.445479947269
 20
3273.523007630846
 30
0.0
 11
3689.445479949471
 21
3273.523007630846
 31
0.0
  0
SOLID
  5
B31
330
A91
100
AcDbEntity
  8
5
  6
ByBlock
100
AcDbTrace
 10
3589.445479947269
 20
3281.856340964179
 30
0.0
 11
3589.445479947269
 21
3265.189674297513
 31
0.0
 12
3539.445479947268
 22
3273.523007630846
 32
0.0
 13
3539.445479947268
 23
3273.523007630846
 33
0.0
  0
SOLID
  5
B32
330
A91
100
AcDbEntity
  8
5
  6
ByBlock
100
AcDbTrace
 10
3689.445479949471
 20
3281.856340964179
 30
0.0
 11
3689.445479949471
 21
3265.189674297513
 31
0.0
 12
3739.445479949471
 22
3273.523007630846
 32
0.0
 13
3739.445479949471
 23
3273.523007630846
 33
0.0
  0
MTEXT
  5
B33
330
A91
100
AcDbEntity
  8
5
  6
ByBlock
 62
     2
100
AcDbMText
 10
3639.445479948345
 20
3320.529897394625
 30
0.0
 40
70.0
 41
0.0
 71
     5
 72
     1
  1
20
 73
     1
 44
1.0
1001
ACAD
1000
MTEXTBEGIN
1070
    73
1070
     1
1070
    44
1040
1.0
1070
    74
1070
     0
1000
MTEXTEND
  0
POINT
  5
B34
330
A91
100
AcDbEntity
  8
Defpoints
  6
ByBlock
 62
     0
100
AcDbPoint
 10
3539.445479947268
 20
3408.425466498953
 30
0.0
  0
POINT
  5
B35
330
A91
100
AcDbEntity
  8
Defpoints
  6
ByBlock
 62
     0
100
AcDbPoint
 10
3739.445479949471
 20
2988.425466499424
 30
0.0
  0
POINT
  5
B36
330
A91
100
AcDbEntity
  8
Defpoints
  6
ByBlock
 62
     0
100
AcDbPoint
 10
3739.445479949471
 20
3273.523007630846
 30
0.0
  0
ENDBLK
  5
A93
330
A91
100
AcDbEntity
  8
0
100
AcDbBlockEnd
  0
BLOCK
  5
A9E
330
A9D
100
AcDbEntity
  8
0
100
AcDbBlockBegin
  2
*D52
 70
     1
 10
0.0
 20
0.0
 30
0.0
  3
*D52
  1

  0
LINE
  5
B37
330
A9D
100
AcDbEntity
  8
5
  6
ByBlock
370
    -2
100
AcDbLine
 10
3529.445479948445
 20
3008.425466498981
 30
0.0
 11
3274.064028999406
 21
3008.425466498981
 31
0.0
  0
LINE
  5
B38
330
A9D
100
AcDbEntity
  8
5
  6
ByBlock
370
    -2
100
AcDbLine
 10
3509.445479947269
 20
3408.425466498924
 30
0.0
 11
3274.064028999406
 21
3408.425466498924
 31
0.0
  0
LINE
  5
B39
330
A9D
100
AcDbEntity
  8
5
  6
ByBlock
370
    -2
100
AcDbLine
 10
3294.064028999406
 20
3058.42546649898
 30
0.0
 11
3294.064028999406
 21
3358.425466498924
 31
0.0
  0
SOLID
  5
B3A
330
A9D
100
AcDbEntity
  8
5
  6
ByBlock
100
AcDbTrace
 10
3285.730695666072
 20
3058.42546649898
 30
0.0
 11
3302.397362332739
 21
3058.42546649898
 31
0.0
 12
3294.064028999406
 22
3008.425466498981
 32
0.0
 13
3294.064028999406
 23
3008.425466498981
 33
0.0
  0
SOLID
  5
B3B
330
A9D
100
AcDbEntity
  8
5
  6
ByBlock
100
AcDbTrace
 10
3285.730695666074
 20
3358.425466498924
 30
0.0
 11
3302.39736233274
 21
3358.425466498924
 31
0.0
 12
3294.064028999406
 22
3408.425466498924
 32
0.0
 13
3294.064028999406
 23
3408.425466498924
 33
0.0
  0
MTEXT
  5
B3C
330
A9D
100
AcDbEntity
  8
5
  6
ByBlock
 62
     2
100
AcDbMText
 10
3247.064028999405
 20
3208.425466498953
 30
0.0
 40
70.0
 41
0.0
 71
     5
 72
     1
  1
40
 11
0.0000000000000001
 21
1.0
 31
0.0
 73
     1
 44
1.0
1001
ACAD
1000
MTEXTBEGIN
1070
    73
1070
     1
1070
    44
1040
1.0
1070
    74
1070
     0
1000
MTEXTEND
  0
POINT
  5
B3D
330
A9D
100
AcDbEntity
  8
Defpoints
  6
ByBlock
 62
     0
100
AcDbPoint
 10
3549.445479948445
 20
3008.425466498981
 30
0.0
  0
POINT
  5
B3E
330
A9D
100
AcDbEntity
  8
Defpoints
  6
ByBlock
 62
     0
100
AcDbPoint
 10
3529.445479947268
 20
3408.425466498924
 30
0.0
  0
POINT
  5
B3F
330
A9D
100
AcDbEntity
  8
Defpoints
  6
ByBlock
 62
     0
100
AcDbPoint
 10
3294.064028999406
 20
3408.425466498924
 30
0.0
  0
ENDBLK
  5
A9F
330
A9D
100
AcDbEntity
  8
0
100
AcDbBlockEnd
  0
BLOCK
  5
AAA
330
AA9
100
AcDbEntity
  8
0
100
AcDbBlockBegin
  2
*D53
 70
     1
 10
0.0
 20
0.0
 30
0.0
  3
*D53
  1

  0
LINE
  5
AAC
330
AA9
100
AcDbEntity
  8
5
370
    -2
100
AcDbLine
 10
1518.644773854531
 20
1268.107366776162
 30
0.0
 11
1801.894773854888
 21
1268.107366776162
 31
0.0
  0
LINE
  5
AAD
330
AA9
100
AcDbEntity
  8
5
370
    -2
100
AcDbLine
 10
2137.396529933028
 20
618.1073667771587
 30
0.0
 11
2318.013484826796
 21
618.1073667771587
 31
0.0
  0
LINE
  5
AAE
330
AA9
100
AcDbEntity
  8
5
370
    -2
100
AcDbLine
 10
2298.013484826796
 20
1218.107366776162
 30
0.0
 11
2298.013484826796
 21
668.1073667771587
 31
0.0
  0
SOLID
  5
AAF
330
AA9
100
AcDbEntity
  8
5
100
AcDbTrace
 10
2289.680151493462
 20
1218.107366776162
 30
0.0
 11
2306.346818160129
 21
1218.107366776162
 31
0.0
 12
2298.013484826796
 22
1268.107366776162
 32
0.0
 13
2298.013484826796
 23
1268.107366776162
 33
0.0
  0
SOLID
  5
AB0
330
AA9
100
AcDbEntity
  8
5
100
AcDbTrace
 10
2289.680151493462
 20
668.1073667771587
 30
0.0
 11
2306.346818160129
 21
668.1073667771587
 31
0.0
 12
2298.013484826796
 22
618.1073667771587
 32
0.0
 13
2298.013484826796
 23
618.1073667771587
 33
0.0
  0
MTEXT
  5
AB1
330
AA9
100
AcDbEntity
  8
5
 62
     2
100
AcDbMText
 10
2251.013484826795
 20
993.9407001112918
 30
0.0
 40
70.0
 41
0.0
 71
     5
 72
     1
  1
65
 11
0.0000000000000001
 21
1.0
 31
0.0
 73
     1
 44
1.0
1001
ACAD
1000
MTEXTBEGIN
1070
    73
1070
     1
1070
    44
1040
1.0
1070
    74
1070
     0
1000
MTEXTEND
  0
POINT
  5
AB2
330
AA9
100
AcDbEntity
  8
Defpoints
 62
     0
100
AcDbPoint
 10
1498.644773854532
 20
1268.107366776162
 30
0.0
  0
POINT
  5
AB3
330
AA9
100
AcDbEntity
  8
Defpoints
 62
     0
100
AcDbPoint
 10
2117.396529933028
 20
618.1073667771587
 30
0.0
  0
POINT
  5
AB4
330
AA9
100
AcDbEntity
  8
Defpoints
 62
     0
100
AcDbPoint
 10
2298.013484826796
 20
618.1073667771587
 30
0.0
  0
LINE
  5
AB5
330
AA9
100
AcDbEntity
  8
5
370
    -2
100
AcDbLine
 10
1805.394773854888
 20
1268.107366776162
 30
0.0
 11
2318.013484826796
 21
1268.107366776162
 31
0.0
  0
ENDBLK
  5
AAB
330
AA9
100
AcDbEntity
  8
0
100
AcDbBlockEnd
  0
ENDSEC
  0
SECTION
  2
ENTITIES
  0
LINE
  5
597
330
1F
100
AcDbEntity
  8
0
  6
Continuous
 62
     7
100
AcDbLine
 10
3323.648760136967
 20
437.7250823187031
 30
0.0
 11
3323.648760136967
 21
492.6936537468582
 31
0.0
  0
LINE
  5
598
330
1F
100
AcDbEntity
  8
0
  6
Continuous
 62
     7
100
AcDbLine
 10
3351.150188708806
 20
437.8589803577919
 30
0.0
 11
3351.150188708806
 21
451.7170823187042
 31
0.0
  0
LINE
  5
599
330
1F
100
AcDbEntity
  8
0
  6
Continuous
 62
     7
100
AcDbLine
 10
3351.64990299444
 20
438.7245108899642
 30
0.0
 11
3351.64990299444
 21
451.7170823187042
 31
0.0
  0
LINE
  5
59A
330
1F
100
AcDbEntity
  8
0
  6
Continuous
 62
     7
100
AcDbLine
 10
3352.649331565701
 20
440.7333623187033
 30
0.0
 11
3352.649331565701
 21
352.7736537468572
 31
0.0
  0
LINE
  5
59B
330
1F
100
AcDbEntity
  8
0
  6
Continuous
 62
     7
100
AcDbLine
 10
3353.648760136967
 20
437.7250823187031
 30
0.0
 11
3353.648760136967
 21
436.7256537468581
 31
0.0
  0
LINE
  5
59C
330
1F
100
AcDbEntity
  8
0
  6
Continuous
 62
     7
100
AcDbLine
 10
3353.648760136967
 20
352.7736537468572
 30
0.0
 11
3353.648760136967
 21
329.786796604335
 31
0.0
  0
LINE
  5
59D
330
1F
100
AcDbEntity
  8
0
  6
Continuous
 62
     7
100
AcDbLine
 10
3353.648760136967
 20
352.7736537468572
 30
0.0
 11
3353.648760136967
 21
436.7256537468581
 31
0.0
  0
LINE
  5
59E
330
1F
100
AcDbEntity
  8
0
  6
Continuous
 62
     7
100
AcDbLine
 10
3353.648760136967
 20
437.7250823187031
 30
0.0
 11
3353.648760136967
 21
453.7159394612277
 31
0.0
  0
LINE
  5
59F
330
1F
100
AcDbEntity
  8
0
  6
Continuous
 62
     7
100
AcDbLine
 10
3355.647617280068
 20
407.7422251755971
 30
0.0
 11
3355.647617280068
 21
329.786796604335
 31
0.0
  0
LINE
  5
5A0
330
1F
100
AcDbEntity
  8
0
  6
Continuous
 62
     7
100
AcDbLine
 10
3415.613331565704
 20
327.787939461228
 30
0.0
 11
3415.613331565704
 21
325.7890823187033
 31
0.0
  0
LINE
  5
5A1
330
1F
100
AcDbEntity
  8
0
  6
Continuous
 62
     7
100
AcDbLine
 10
3357.646474422596
 20
325.7890823187033
 30
0.0
 11
3415.613331565704
 21
325.7890823187033
 31
0.0
  0
LINE
  5
5A2
330
1F
100
AcDbEntity
  8
0
  6
Continuous
 62
     7
100
AcDbLine
 10
3991.684188708811
 20
325.7890823187033
 30
0.0
 11
4049.651045851335
 21
325.7890823187033
 31
0.0
  0
LINE
  5
5A3
330
1F
100
AcDbEntity
  8
0
  6
Continuous
 62
     7
100
AcDbLine
 10
3357.646474422596
 20
327.787939461228
 30
0.0
 11
3415.613331565704
 21
327.787939461228
 31
0.0
  0
LINE
  5
5A4
330
1F
100
AcDbEntity
  8
0
  6
Continuous
 62
     7
100
AcDbLine
 10
3991.684188708811
 20
327.787939461228
 30
0.0
 11
4049.651045851335
 21
327.787939461228
 31
0.0
  0
LINE
  5
5A5
330
1F
100
AcDbEntity
  8
0
  6
Continuous
 62
     7
100
AcDbLine
 10
3734.569909387855
 20
345.777653746859
 30
0.0
 11
3672.666474422604
 21
345.777653746859
 31
0.0
  0
LINE
  5
5A6
330
1F
100
AcDbEntity
  8
0
  6
Continuous
 62
     7
100
AcDbLine
 10
3353.648760136967
 20
352.7736537468572
 30
0.0
 11
3352.649331565701
 21
352.7736537468572
 31
0.0
  0
LINE
  5
5A7
330
1F
100
AcDbEntity
  8
0
  6
Continuous
 62
     7
100
AcDbLine
 10
4053.648760136967
 20
352.7736537468572
 30
0.0
 11
4054.648188708813
 21
352.7736537468572
 31
0.0
  0
LINE
  5
5A8
330
1F
100
AcDbEntity
  8
0
  6
Continuous
 62
     7
100
AcDbLine
 10
3666.668040818405
 20
427.3487960527531
 30
0.0
 11
3666.669902860355
 21
427.2878172487901
 31
0.0
  0
LINE
  5
5A9
330
1F
100
AcDbEntity
  8
0
  6
Continuous
 62
     7
100
AcDbLine
 10
3666.170188708232
 20
421.7342251755971
 30
0.0
 11
3666.170188708232
 21
352.273939461227
 31
0.0
  0
LINE
  5
5AA
330
1F
100
AcDbEntity
  8
0
  6
Continuous
 62
     7
100
AcDbLine
 10
3666.669902993866
 20
427.2878163754572
 30
0.0
 11
3666.669902993866
 21
421.7342251755971
 31
0.0
  0
LINE
  5
5AB
330
1F
100
AcDbEntity
  8
0
  6
Continuous
 62
     7
100
AcDbLine
 10
3666.657274274069
 20
427.4461935916961
 30
0.0
 11
3666.668040818405
 21
427.3487960527531
 31
0.0
  0
LINE
  5
5AC
330
1F
100
AcDbEntity
  8
0
  6
Continuous
 62
     7
100
AcDbLine
 10
4053.648760136967
 20
407.7422251755971
 30
0.0
 11
4051.649902994443
 21
407.7422251755971
 31
0.0
  0
LINE
  5
5AD
330
1F
100
AcDbEntity
  8
0
  6
Continuous
 62
     7
100
AcDbLine
 10
3353.648760136967
 20
407.7422251755971
 30
0.0
 11
3355.647617280068
 21
407.7422251755971
 31
0.0
  0
LINE
  5
5AE
330
1F
100
AcDbEntity
  8
0
  6
Continuous
 62
     7
100
AcDbLine
 10
3666.170160354026
 20
421.7342251755971
 30
0.0
 11
3741.127359919913
 21
421.7342251755971
 31
0.0
  0
LINE
  5
5AF
330
1F
100
AcDbEntity
  8
0
  6
Continuous
 62
     7
100
AcDbLine
 10
3353.648760136967
 20
422.7336537468572
 30
0.0
 11
3352.649331565701
 21
422.7336537468572
 31
0.0
  0
LINE
  5
5B0
330
1F
100
AcDbEntity
  8
0
  6
Continuous
 62
     7
100
AcDbLine
 10
4053.648760136967
 20
422.7336537468572
 30
0.0
 11
4054.648188708813
 21
422.7336537468572
 31
0.0
  0
LINE
  5
5B1
330
1F
100
AcDbEntity
  8
0
  6
Continuous
 62
     7
100
AcDbLine
 10
3353.648760136967
 20
428.2872449467181
 30
0.0
 11
3705.44761728007
 21
428.2872449467181
 31
0.0
  0
LINE
  5
5B2
330
1F
100
AcDbEntity
  8
0
  6
Continuous
 62
     7
100
AcDbLine
 10
3703.648760136967
 20
428.2872449467181
 30
0.0
 11
4053.648760136967
 21
428.2872449467181
 31
0.0
  0
LINE
  5
5B3
330
1F
100
AcDbEntity
  8
0
  6
Continuous
 62
     7
100
AcDbLine
 10
3352.649986718367
 20
436.7256537468581
 30
0.0
 11
3323.648760136967
 21
436.7256537468581
 31
0.0
  0
LINE
  5
5B4
330
1F
100
AcDbEntity
  8
0
  6
Continuous
 62
     7
100
AcDbLine
 10
3353.648760136967
 20
436.7256537468581
 30
0.0
 11
4053.648760136968
 21
436.7256537468581
 31
0.0
  0
LINE
  5
5B5
330
1F
100
AcDbEntity
  8
0
  6
Continuous
 62
     7
100
AcDbLine
 10
4054.648188708813
 20
436.7256537468581
 30
0.0
 11
4085.847617280069
 21
436.7256537468581
 31
0.0
  0
LINE
  5
5B6
330
1F
100
AcDbEntity
  8
0
  6
Continuous
 62
     7
100
AcDbLine
 10
3352.649986718367
 20
437.7250823187031
 30
0.0
 11
3323.648760136967
 21
437.7250823187031
 31
0.0
  0
LINE
  5
5B7
330
1F
100
AcDbEntity
  8
0
  6
Continuous
 62
     7
100
AcDbLine
 10
3353.648760136967
 20
437.7250823187031
 30
0.0
 11
4053.648760136968
 21
437.7250823187033
 31
0.0
  0
LINE
  5
5B8
330
1F
100
AcDbEntity
  8
0
  6
Continuous
 62
     7
100
AcDbLine
 10
4054.648188708813
 20
437.7250823187031
 30
0.0
 11
4085.847617280069
 21
437.7250823187031
 31
0.0
  0
LWPOLYLINE
  5
5B9
330
1F
100
AcDbEntity
  8
0
  6
Continuous
 62
     7
100
AcDbPolyline
 90
       16
 70
     0
 43
0.0
 10
3665.670474422598
 20
428.287245121619
 10
3665.705917272132
 20
428.2866164674721
 10
3665.803787656139
 20
428.2783139277429
 10
3665.900367134145
 20
428.2604453654372
 10
3665.994725264385
 20
428.2331835986641
 10
3666.085952909664
 20
428.1967912916569
 10
3666.173170950287
 20
428.1516184024119
 10
3666.255537987251
 20
428.0980992455228
 10
3666.332261437292
 20
428.0367460179711
 10
3666.402592773315
 20
427.9681547737119
 10
3666.4658510653
 20
427.8929887154702
 10
3666.521417286769
 20
427.8119859608908
 10
3666.568752964927
 20
427.7259409203472
 10
3666.607403230349
 20
427.635698266396
 10
3666.637001887914
 20
427.5421429440621
 10
3666.657274274069
 20
427.4461935916961
  0
LINE
  5
5BA
330
1F
100
AcDbEntity
  8
0
  6
Continuous
 62
     7
100
AcDbLine
 10
3740.627617279494
 20
427.2878163754572
 30
0.0
 11
3740.627617279494
 21
421.7342251755971
 31
0.0
  0
LINE
  5
5BB
330
1F
100
AcDbEntity
  8
0
  6
Continuous
 62
     7
100
AcDbLine
 10
3741.12733156571
 20
421.7342251755971
 30
0.0
 11
3741.12733156571
 21
352.273939461227
 31
0.0
  0
LINE
  5
5BC
330
1F
100
AcDbEntity
  8
0
  6
Continuous
 62
     7
100
AcDbLine
 10
3740.627617352953
 20
427.287817013258
 30
0.0
 11
3740.629483625149
 21
427.3488650974431
 31
0.0
  0
LINE
  5
5BD
330
1F
100
AcDbEntity
  8
0
  6
Continuous
 62
     7
100
AcDbLine
 10
3740.629483625149
 20
427.3488650974431
 30
0.0
 11
3740.640264900152
 21
427.446311565245
 31
0.0
  0
LWPOLYLINE
  5
5BE
330
1F
100
AcDbEntity
  8
0
  6
Continuous
 62
     7
100
AcDbPolyline
 90
       16
 70
     0
 43
0.0
 10
3740.640264900152
 20
427.446311565245
 10
3740.660556354493
 20
427.5422873036078
 10
3740.690173948472
 20
427.6358515289321
 10
3740.728839905925
 20
427.7260897375112
 10
3740.776186066423
 20
427.8121207872191
 10
3740.831756939647
 20
427.8931039646598
 10
3740.895014606075
 20
427.9682484454881
 10
3740.965342328663
 20
428.0368197260801
 10
3741.042059809371
 20
428.0981551464798
 10
3741.124420752817
 20
428.1516598939389
 10
3741.211632031221
 20
428.1968207693041
 10
3741.302852239171
 20
428.233203145487
 10
3741.397202000444
 20
428.2604568312971
 10
3741.493771875854
 20
428.2783191286862
 10
3741.591631100661
 20
428.2866173827811
 10
3741.627045851338
 20
428.2872450405808
  0
LINE
  5
5BF
330
1F
100
AcDbEntity
  8
0
  6
Continuous
 62
     7
100
AcDbLine
 10
4055.647617280071
 20
439.7339337468589
 30
0.0
 11
4054.648188708813
 21
439.7339337468589
 31
0.0
  0
LINE
  5
5C0
330
1F
100
AcDbEntity
  8
0
  6
Continuous
 62
     7
100
AcDbLine
 10
3351.64990299444
 20
439.7339337474423
 30
0.0
 11
3352.649331565701
 21
439.7339337474423
 31
0.0
  0
LINE
  5
5C1
330
1F
100
AcDbEntity
  8
0
  6
Continuous
 62
     7
100
AcDbLine
 10
4055.647617280071
 20
440.7333623187033
 30
0.0
 11
4054.648188708813
 21
440.7333623187033
 31
0.0
  0
LINE
  5
5C2
330
1F
100
AcDbEntity
  8
0
  6
Continuous
 62
     7
100
AcDbLine
 10
3351.64990299444
 20
440.7333623187033
 30
0.0
 11
3352.649331565701
 21
440.7333623187033
 31
0.0
  0
LINE
  5
5C3
330
1F
100
AcDbEntity
  8
0
  6
Continuous
 62
     7
100
AcDbLine
 10
4053.648760136967
 20
452.716510889965
 30
0.0
 11
3353.648760136967
 21
452.7165108899651
 31
0.0
  0
LINE
  5
5C4
330
1F
100
AcDbEntity
  8
0
  6
Continuous
 62
     7
100
AcDbLine
 10
4054.648188708813
 20
453.2162251755961
 30
0.0
 11
4053.648760136967
 21
453.2162251755961
 31
0.0
  0
LINE
  5
5C5
330
1F
100
AcDbEntity
  8
0
  6
Continuous
 62
     7
100
AcDbLine
 10
3353.648760136967
 20
453.2162251755961
 30
0.0
 11
3352.649331565701
 21
453.2162251755961
 31
0.0
  0
LINE
  5
5C6
330
1F
100
AcDbEntity
  8
0
  6
Continuous
 62
     7
100
AcDbLine
 10
4083.648760136967
 20
492.6936537468582
 30
0.0
 11
3323.648760136967
 21
492.6936537468582
 31
0.0
  0
LINE
  5
5C7
330
1F
100
AcDbEntity
  8
0
  6
Continuous
 62
     7
100
AcDbLine
 10
3991.684188708811
 20
327.787939461228
 30
0.0
 11
3991.684188708811
 21
325.7890823187033
 31
0.0
  0
LINE
  5
5C8
330
1F
100
AcDbEntity
  8
0
  6
Continuous
 62
     7
100
AcDbLine
 10
4051.649902994443
 20
329.786796604335
 30
0.0
 11
4051.649902994443
 21
407.7422251755971
 31
0.0
  0
LINE
  5
5C9
330
1F
100
AcDbEntity
  8
0
  6
Continuous
 62
     7
100
AcDbLine
 10
4053.648760136967
 20
437.7250823187031
 30
0.0
 11
4053.648760136967
 21
436.7256537468581
 31
0.0
  0
LINE
  5
5CA
330
1F
100
AcDbEntity
  8
0
  6
Continuous
 62
     7
100
AcDbLine
 10
4053.648760136967
 20
329.786796604335
 30
0.0
 11
4053.648760136967
 21
352.7736537468572
 31
0.0
  0
LINE
  5
5CB
330
1F
100
AcDbEntity
  8
0
  6
Continuous
 62
     7
100
AcDbLine
 10
4053.648760136967
 20
352.7736537468572
 30
0.0
 11
4053.648760136967
 21
436.7256537468581
 31
0.0
  0
LINE
  5
5CC
330
1F
100
AcDbEntity
  8
0
  6
Continuous
 62
     7
100
AcDbLine
 10
4053.648760136968
 20
428.2872449467181
 30
0.0
 11
4053.648760136967
 21
453.2162251755961
 31
0.0
  0
LINE
  5
5CD
330
1F
100
AcDbEntity
  8
0
  6
Continuous
 62
     7
100
AcDbLine
 10
4054.648188708813
 20
352.7736537468572
 30
0.0
 11
4054.648188708813
 21
440.7333623187033
 31
0.0
  0
LINE
  5
5CE
330
1F
100
AcDbEntity
  8
0
  6
Continuous
 62
     7
100
AcDbLine
 10
4055.647617280071
 20
438.7245108899642
 30
0.0
 11
4055.647617280071
 21
451.7170823187042
 31
0.0
  0
LINE
  5
5CF
330
1F
100
AcDbEntity
  8
0
  6
Continuous
 62
     7
100
AcDbLine
 10
4056.147331565703
 20
437.8589803577919
 30
0.0
 11
4056.147331565703
 21
451.7170823187042
 31
0.0
  0
LINE
  5
5D0
330
1F
100
AcDbEntity
  8
0
  6
Continuous
 62
     7
100
AcDbLine
 10
4083.648760136967
 20
492.6936537468582
 30
0.0
 11
4083.648760136967
 21
437.7250823187031
 31
0.0
  0
LINE
  5
5D1
330
1F
100
AcDbEntity
  8
0
  6
Continuous
 62
     7
100
AcDbLine
 10
4083.648760136967
 20
436.7256537468581
 30
0.0
 11
4083.648760136967
 21
437.7250823187031
 31
0.0
  0
CIRCLE
  5
5D2
330
1F
100
AcDbEntity
  8
0
  6
Continuous
 62
     7
100
AcDbCircle
 10
3703.648760136967
 20
388.7530823187042
 30
0.0
 40
24.985714285631
  0
CIRCLE
  5
5D3
330
1F
100
AcDbEntity
  8
0
  6
Continuous
 62
     7
100
AcDbCircle
 10
3703.648760136967
 20
388.7530823187042
 30
0.0
 40
23.48657142873801
  0
ARC
  5
5D4
330
1F
100
AcDbEntity
  8
0
  6
Continuous
 62
     7
100
AcDbCircle
 10
3350.650474422599
 20
438.7245108899642
 30
0.0
 40
1.998857143106999
100
AcDbArc
 50
329.9616926243954
 51
0.0
  0
ARC
  5
5D5
330
1F
100
AcDbEntity
  8
0
  6
Continuous
 62
     7
100
AcDbCircle
 10
4056.647045851335
 20
438.7245108899642
 30
0.0
 40
1.998857143106999
100
AcDbArc
 50
180.0
 51
210.0383073756046
  0
ARC
  5
5D6
330
1F
100
AcDbEntity
  8
0
  6
Continuous
 62
     7
100
AcDbCircle
 10
4049.651045851335
 20
329.786796604335
 30
0.0
 40
3.997714285630998
100
AcDbArc
 50
270.0
 51
0.0
  0
ARC
  5
5D7
330
1F
100
AcDbEntity
  8
0
  6
Continuous
 62
     7
100
AcDbCircle
 10
3357.646474422596
 20
329.786796604335
 30
0.0
 40
3.997714285630998
100
AcDbArc
 50
180.0
 51
270.0
  0
ARC
  5
5D8
330
1F
100
AcDbEntity
  8
0
  6
Continuous
 62
     7
100
AcDbCircle
 10
3672.666474422604
 20
352.273939461227
 30
0.0
 40
6.496285714368996
100
AcDbArc
 50
180.0
 51
270.0
  0
ARC
  5
5D9
330
1F
100
AcDbEntity
  8
0
  6
Continuous
 62
     7
100
AcDbCircle
 10
3734.631045851342
 20
352.273939461227
 30
0.0
 40
6.496285714368996
100
AcDbArc
 50
270.0
 51
0.0
  0
CIRCLE
  5
5DA
330
1F
100
AcDbEntity
  8
0
  6
Continuous
 62
     7
100
AcDbCircle
 10
3703.648760136967
 20
388.7530823187042
 30
0.0
 40
25.085657143107
  0
ARC
  5
5DB
330
1F
100
AcDbEntity
  8
0
  6
Continuous
 62
     7
100
AcDbCircle
 10
3352.649331565701
 20
451.7170823187042
 30
0.0
 40
0.9994285712619999
100
AcDbArc
 50
0.0
 51
180.0
  0
ARC
  5
5DC
330
1F
100
AcDbEntity
  8
0
  6
Continuous
 62
     7
100
AcDbCircle
 10
3350.650474422599
 20
438.7245108899642
 30
0.0
 40
0.9994285712619999
100
AcDbArc
 50
270.0
 51
0.0
  0
ARC
  5
5DD
330
1F
100
AcDbEntity
  8
0
  6
Continuous
 62
     7
100
AcDbCircle
 10
4056.647045851335
 20
438.7245108899642
 30
0.0
 40
0.9994285712619999
100
AcDbArc
 50
180.0
 51
270.0
  0
ARC
  5
5DE
330
1F
100
AcDbEntity
  8
0
  6
Continuous
 62
     7
100
AcDbCircle
 10
4054.648188708813
 20
451.7170823187042
 30
0.0
 40
0.9994285712619999
100
AcDbArc
 50
0.0
 51
180.0
  0
ARC
  5
5DF
330
1F
100
AcDbEntity
  8
0
  6
Continuous
 62
     7
100
AcDbCircle
 10
4049.651045851335
 20
329.786796604335
 30
0.0
 40
1.998857143106999
100
AcDbArc
 50
270.0
 51
0.0
  0
ARC
  5
5E0
330
1F
100
AcDbEntity
  8
0
  6
Continuous
 62
     7
100
AcDbCircle
 10
3357.646474422596
 20
329.786796604335
 30
0.0
 40
1.998857143106999
100
AcDbArc
 50
180.0
 51
270.0
  0
ARC
  5
5E1
330
1F
100
AcDbEntity
  8
0
  6
Continuous
 62
     7
100
AcDbCircle
 10
3352.649331565701
 20
451.7170823187042
 30
0.0
 40
1.499142856893
100
AcDbArc
 50
90.0
 51
180.0
  0
ARC
  5
5E2
330
1F
100
AcDbEntity
  8
0
  6
Continuous
 62
     7
100
AcDbCircle
 10
4054.648188708813
 20
451.7170823187042
 30
0.0
 40
1.499142856893
100
AcDbArc
 50
0.0
 51
90.0
  0
LINE
  5
5E3
330
1F
100
AcDbEntity
  8
AM_7
100
AcDbLine
 10
3703.648760136967
 20
388.7530823187042
 30
0.0
 11
3728.734417280073
 21
388.7530823187042
 31
0.0
1001
GENIUS_GENOREF_13
1005
6A5
  0
LINE
  5
5E4
330
1F
100
AcDbEntity
  8
AM_7
100
AcDbLine
 10
3703.648760136967
 20
388.7530823187042
 30
0.0
 11
3703.648760136967
 21
458.177929856701
 31
0.0
1001
GENIUS_GENOREF_13
1005
6A5
  0
LINE
  5
5E5
330
1F
100
AcDbEntity
  8
AM_7
100
AcDbLine
 10
3703.648760136967
 20
388.7530823187042
 30
0.0
 11
3678.563102993861
 21
388.7530823187042
 31
0.0
1001
GENIUS_GENOREF_13
1005
6A5
  0
LINE
  5
5E6
330
1F
100
AcDbEntity
  8
AM_7
100
AcDbLine
 10
3703.648760136967
 20
388.7530823187042
 30
0.0
 11
3703.648760136967
 21
341.8789908392273
 31
0.0
1001
GENIUS_GENOREF_13
1005
6A5
  0
LINE
  5
5E7
330
1F
100
AcDbEntity
  8
0
  6
Continuous
 62
     7
100
AcDbLine
 10
3323.648760136967
 20
159.309486112563
 30
0.0
 11
3323.648760136967
 21
26.58480039819415
 31
0.0
  0
LINE
  5
5E8
330
1F
100
AcDbEntity
  8
0
  6
Continuous
 62
     7
100
AcDbLine
 10
3323.648760136967
 20
152.4508575410086
 30
0.0
 11
3323.648760136967
 21
153.4502861122705
 31
0.0
  0
LINE
  5
5E9
330
1F
100
AcDbEntity
  8
0
  6
Continuous
 62
     7
100
AcDbLine
 10
3353.648760136967
 20
51.48457182634889
 30
0.0
 11
3353.648760136967
 21
157.5853718269321
 31
0.0
  0
LINE
  5
5EA
330
1F
100
AcDbEntity
  8
0
  6
Continuous
 62
     7
100
AcDbLine
 10
3355.647617279494
 20
26.58480039819415
 30
0.0
 11
3355.647617279494
 21
157.5853718269321
 31
0.0
  0
LINE
  5
5EB
330
1F
100
AcDbEntity
  8
0
  6
Continuous
 62
     7
100
AcDbLine
 10
3678.663045851346
 20
0.0000003981951977
 30
0.0
 11
3728.634474422603
 21
0.0000003981951977
 31
0.0
  0
LINE
  5
5EC
330
1F
100
AcDbEntity
  8
0
  6
Continuous
 62
     7
100
AcDbLine
 10
3355.630474422599
 20
26.58480039819415
 30
0.0
 11
3323.648760136967
 21
26.58480039819415
 31
0.0
  0
LINE
  5
5ED
330
1F
100
AcDbEntity
  8
0
  6
Continuous
 62
     7
100
AcDbLine
 10
3351.849902993865
 20
26.58480039819415
 30
0.0
 11
4083.431617279495
 21
26.58480039819415
 31
0.0
  0
LINE
  5
5EE
330
1F
100
AcDbEntity
  8
0
  6
Continuous
 62
     7
100
AcDbLine
 10
3678.663045851346
 20
0.0000003981951977
 30
0.0
 11
3678.663045851346
 21
26.58480039819415
 31
0.0
  0
LINE
  5
5EF
330
1F
100
AcDbEntity
  8
0
  6
Continuous
 62
     7
100
AcDbLine
 10
4055.247617279492
 20
51.08480039819415
 30
0.0
 11
3355.647617279494
 21
51.08480039819415
 31
0.0
  0
LINE
  5
5F2
330
1F
100
AcDbEntity
  8
0
  6
Continuous
 62
     7
100
AcDbLine
 10
4053.648760136967
 20
53.08365754071792
 30
0.0
 11
3355.647617279494
 21
53.08365754071792
 31
0.0
  0
LINE
  5
5F3
330
1F
100
AcDbEntity
  8
0
  6
Continuous
 62
     7
100
AcDbLine
 10
3728.634474422603
 20
0.0000003981951977
 30
0.0
 11
3728.634474422603
 21
26.58480039819415
 31
0.0
  0
LINE
  5
5F4
330
1F
100
AcDbEntity
  8
0
  6
Continuous
 62
     7
100
AcDbLine
 10
4055.247617279492
 20
135.0848003981943
 30
0.0
 11
3355.647617279494
 21
135.0848003981943
 31
0.0
  0
LINE
  5
5F5
330
1F
100
AcDbEntity
  8
AM_CL
 62
     0
100
AcDbLine
 10
4083.648760136967
 20
157.5853718269321
 30
0.0
 11
3323.648760136967
 21
157.5853718269321
 31
0.0
  0
LINE
  5
5F6
330
1F
100
AcDbEntity
  8
AM_CL
 62
     0
100
AcDbLine
 10
4083.648760136967
 20
159.5848003981941
 30
0.0
 11
3323.648760136967
 21
159.5848003981941
 31
0.0
  0
LINE
  5
5F7
330
1F
100
AcDbEntity
  8
0
  6
Continuous
 62
     7
100
AcDbLine
 10
4051.649902993861
 20
26.58480039819415
 30
0.0
 11
4051.649902993861
 21
157.5853718269323
 31
0.0
  0
LINE
  5
5F8
330
1F
100
AcDbEntity
  8
0
  6
Continuous
 62
     7
100
AcDbLine
 10
4053.648760136968
 20
157.5853718269321
 30
0.0
 11
4053.648760136967
 21
51.08480039819415
 31
0.0
  0
LINE
  5
5FA
330
1F
100
AcDbEntity
  8
0
  6
Continuous
 62
     7
100
AcDbLine
 10
4083.648760136967
 20
26.58480039819415
 30
0.0
 11
4083.648760136967
 21
159.5848003981941
 31
0.0
  0
CIRCLE
  5
5FB
330
1F
100
AcDbEntity
  8
0
  6
Continuous
 62
     7
100
AcDbCircle
 10
3703.648760136967
 20
93.0848003979038
 30
0.0
 40
35.97942857126201
  0
CIRCLE
  5
5FC
330
1F
100
AcDbEntity
  8
0
100
AcDbCircle
 10
3703.648760136967
 20
93.0848003979038
 30
0.0
 40
17.5
  0
CIRCLE
  5
5FD
330
1F
100
AcDbEntity
  8
0
100
AcDbCircle
 10
3703.648760136967
 20
93.0848003979038
 30
0.0
 40
30.0
  0
LINE
  5
5FE
330
1F
100
AcDbEntity
  8
0
100
AcDbLine
 10
3704.648760136967
 20
110.5562056075587
 30
0.0
 11
3704.648760136967
 21
75.61339518824661
 31
0.0
  0
LINE
  5
5FF
330
1F
100
AcDbEntity
  8
0
100
AcDbLine
 10
3702.648760136967
 20
110.5562056075587
 30
0.0
 11
3702.648760136967
 21
75.61339518824661
 31
0.0
  0
LINE
  5
600
330
1F
100
AcDbEntity
  8
0
100
AcDbLine
 10
4051.449902993859
 20
93.0848003981946
 30
0.0
 11
3739.62818870823
 21
93.0848003981937
 31
0.0
1001
GENIUS_GENOBJ-N-CEN_13
1002
{
1000
OWNER
1000
GEN
1002
}
1001
GENIUS_GENODEF_13
1002
{
1000
HIER
1070
     0
1002
}
1002
{
1000
MANEDIT
1070
     0
1002
}
1002
{
1000
NOSEL
1070
     0
1002
}
1002
{
1000
BEHIND
1070
     0
1002
}
1002
{
1000
OTHER
1070
     0
1002
}
1002
{
1000
REACTOR
1002
}
1001
GENIUS_GENCEN_19
1002
{
1040
3.0
1002
}
  0
LINE
  5
601
330
1F
100
AcDbEntity
  8
0
100
AcDbLine
 10
3667.669331565706
 20
93.08480039819368
 30
0.0
 11
3355.64761727949
 21
93.0848003981937
 31
0.0
1001
GENIUS_GENOBJ-N-CEN_13
1002
{
1000
OWNER
1000
GEN
1002
}
1001
GENIUS_GENODEF_13
1002
{
1000
HIER
1070
     0
1002
}
1002
{
1000
MANEDIT
1070
     0
1002
}
1002
{
1000
NOSEL
1070
     0
1002
}
1002
{
1000
BEHIND
1070
     0
1002
}
1002
{
1000
OTHER
1070
     0
1002
}
1002
{
1000
REACTOR
1002
}
1001
GENIUS_GENCEN_19
1002
{
1040
3.0
1002
}
  0
DIMENSION
  5
602
330
1F
100
AcDbEntity
  8
AM_5
100
AcDbDimension
  2
*D14
 10
4173.861988546232
 20
452.7165108899651
 30
0.0
 11
4167.361988546232
 21
389.2527966043349
 31
0.0
 70
    32
  1
105-160
 71
     5
 42
126.9274285712618
  3
AM_DIN$0
100
AcDbAlignedDimension
 13
4049.651045851335
 23
325.7890823187033
 33
0.0
 14
4053.648760136967
 24
452.7165108899651
 34
0.0
 50
90.0
100
AcDbRotatedDimension
1001
ACAD
1000
DSTYLE
1002
{
1070
    41
1040
7.0
1070
   140
1040
10.0
1002
}
1001
ACAD_DSTYLE_DIMINSPECT
1070
   396
1000
100%
1070
   395
1000

1070
   394
1070
    33
1070
   393
1070
     0
  0
DIMENSION
  5
605
330
1F
100
AcDbEntity
  8
AM_5
100
AcDbDimension
  2
*D17
 10
4131.712865278581
 20
135.0848003981943
 30
0.0
 11
4125.212865278581
 21
93.08480039819492
 31
0.0
 70
    32
  1
<>
 71
     5
 42
84.00000000000025
  3
AM_DIN$0
100
AcDbAlignedDimension
 13
4051.449902993864
 23
51.08480039819415
 33
0.0
 14
4053.44876013697
 24
135.0848003981943
 34
0.0
 50
90.0
100
AcDbRotatedDimension
1001
ACAD
1000
DSTYLE
1002
{
1070
    41
1040
7.0
1070
   140
1040
10.0
1002
}
1001
ACAD_DSTYLE_DIMINSPECT
1070
   396
1000
100%
1070
   395
1000

1070
   394
1070
    33
1070
   393
1070
     0
  0
DIMENSION
  5
606
330
1F
100
AcDbEntity
  8
AM_5
100
AcDbDimension
  2
*D18
 10
4167.609615218841
 20
159.5848003981941
 30
0.0
 11
4161.10961521884
 21
93.08480039819478
 31
0.0
 70
    32
  1
<>
 71
     5
 42
133.0
  3
AM_DIN$0
100
AcDbAlignedDimension
 13
4082.431617279495
 23
26.58480039819415
 33
0.0
 14
4083.431617279495
 24
159.5848003981941
 34
0.0
 50
90.0
100
AcDbRotatedDimension
1001
ACAD
1000
DSTYLE
1002
{
1070
    41
1040
7.0
1070
   140
1040
10.0
1002
}
1001
ACAD_DSTYLE_DIMINSPECT
1070
   396
1000
100%
1070
   395
1000

1070
   394
1070
    33
1070
   393
1070
     0
  0
DIMENSION
  5
607
330
1F
100
AcDbEntity
  8
AM_5
100
AcDbDimension
  2
*D19
 10
3353.648760136967
 20
179.5337149853096
 30
0.0
 11
3703.648760136967
 21
186.0337149853096
 31
0.0
 70
    32
  1
<>
 71
     5
 42
700.0000000000003
  3
AM_DIN$0
100
AcDbAlignedDimension
 13
4053.648760136968
 23
157.5853718269321
 33
0.0
 14
3353.648760136967
 24
157.5853718269321
 34
0.0
100
AcDbRotatedDimension
1001
ACAD_DSTYLE_DIMINSPECT
1070
   396
1000
100%
1070
   395
1000

1070
   394
1070
    33
1070
   393
1070
     0
1001
ACAD
1000
DSTYLE
1002
{
1070
    41
1040
7.0
1070
   140
1040
10.0
1070
   271
1070
     0
1002
}
  0
DIMENSION
  5
608
330
1F
100
AcDbEntity
  8
AM_5
100
AcDbDimension
  2
*D20
 10
3323.648760136967
 20
214.6571700524146
 30
0.0
 11
3703.648760136967
 21
221.1571700524146
 31
0.0
 70
    32
  1
<>
 71
     5
 42
760.0
  3
AM_DIN$0
100
AcDbAlignedDimension
 13
4083.648760136967
 23
157.5853718269321
 33
0.0
 14
3323.648760136967
 24
154.4502861122705
 34
0.0
100
AcDbRotatedDimension
1001
ACAD_DSTYLE_DIMINSPECT
1070
   396
1000
100%
1070
   395
1000

1070
   394
1070
    33
1070
   393
1070
     0
1001
ACAD
1000
DSTYLE
1002
{
1070
    41
1040
7.0
1070
   140
1040
10.0
1070
   271
1070
     0
1002
}
  0
LINE
  5
60A
330
1F
100
AcDbEntity
  8
0
100
AcDbLine
 10
4399.441128890365
 20
452.7165108900218
 30
0.0
 11
4299.441124743565
 21
452.7165108898881
 31
0.0
  0
LINE
  5
60B
330
1F
100
AcDbEntity
  8
0
100
AcDbLine
 10
4317.441128890427
 20
433.6366437714739
 30
0.0
 11
4317.441124743573
 21
450.7165108898599
 31
0.0
  0
LINE
  5
60C
330
1F
100
AcDbEntity
  8
0
100
AcDbLine
 10
4318.441128890422
 20
433.636643771483
 30
0.0
 11
4318.441124743669
 21
450.7165108898518
 31
0.0
  0
LINE
  5
60F
330
1F
100
AcDbEntity
  8
0
100
AcDbLine
 10
4320.607219850077
 20
432.5360033099448
 30
0.0
 11
4319.358083410572
 21
432.6400980132358
 31
0.0
  0
LINE
  5
610
330
1F
100
AcDbEntity
  8
0
100
AcDbLine
 10
4430.441128890361
 20
437.7165108898744
 30
0.0
 11
4430.441128890362
 21
436.7165108898832
 31
0.0
  0
LINE
  5
611
330
1F
100
AcDbEntity
  8
0
100
AcDbLine
 10
4401.441128890336
 20
436.7165108899105
 30
0.0
 11
4430.441128890362
 21
436.7165108898849
 31
0.0
  0
LINE
  5
612
330
1F
100
AcDbEntity
  8
0
100
AcDbLine
 10
4401.441128890389
 20
437.7165108899105
 30
0.0
 11
4430.441128890361
 21
437.7165108898849
 31
0.0
  0
LINE
  5
613
330
1F
100
AcDbEntity
  8
0
100
AcDbLine
 10
4396.275037930665
 20
432.5360033099435
 30
0.0
 11
4397.524174370174
 21
432.6400980132358
 31
0.0
  0
LINE
  5
614
330
1F
100
AcDbEntity
  8
0
100
AcDbLine
 10
4399.441128890322
 20
433.6366437714739
 30
0.0
 11
4399.441128890377
 21
451.7165108900218
 31
0.0
  0
LINE
  5
615
330
1F
100
AcDbEntity
  8
0
100
AcDbLine
 10
4398.441128890322
 20
433.6366437714762
 30
0.0
 11
4398.441128890381
 21
451.7165108900205
 31
0.0
  0
LINE
  5
616
330
1F
100
AcDbEntity
  8
0
100
AcDbLine
 10
4400.441128890351
 20
451.7165108900195
 30
0.0
 11
4400.441128890388
 21
438.7165108899076
 31
0.0
  0
LINE
  5
617
330
1F
100
AcDbEntity
  8
7A
100
AcDbLine
 10
4358.441128890435
 20
339.8447758684058
 30
0.0
 11
4358.441128890418
 21
369.2993505521264
 31
0.0
1001
GENIUS_GENOBJ-N-CEN_13
1002
{
1000
OWNER
1000
GEN
1002
}
1001
GENIUS_GENODEF_13
1002
{
1000
HIER
1070
     0
1002
}
1002
{
1000
MANEDIT
1070
     0
1002
}
1002
{
1000
NOSEL
1070
     0
1002
}
1002
{
1000
BEHIND
1070
     0
1002
}
1002
{
1000
OTHER
1070
     0
1002
}
1002
{
1000
REACTOR
1002
}
  0
LINE
  5
618
330
1F
100
AcDbEntity
  8
7A
100
AcDbLine
 10
4358.441128890418
 20
369.2993505521264
 30
0.0
 11
4358.441128890389
 21
458.1855314965162
 31
0.0
1001
GENIUS_GENOBJ-N-CEN_13
1002
{
1000
OWNER
1000
GEN
1002
}
1001
GENIUS_GENODEF_13
1002
{
1000
HIER
1070
     0
1002
}
1002
{
1000
MANEDIT
1070
     0
1002
}
1002
{
1000
NOSEL
1070
     0
1002
}
1002
{
1000
BEHIND
1070
     0
1002
}
1002
{
1000
OTHER
1070
     0
1002
}
1002
{
1000
REACTOR
1002
}
  0
LINE
  5
619
330
1F
100
AcDbEntity
  8
0
100
AcDbLine
 10
4320.441128890371
 20
420.7165108899109
 30
0.0
 11
4320.441128890371
 21
353.6919394610629
 31
0.0
1001
GENIUS_GENODEF_13
1002
{
1000
HIER
1070
     0
1002
}
1002
{
1000
MANEDIT
1070
     0
1002
}
1002
{
1000
NOSEL
1070
     0
1002
}
1002
{
1000
BEHIND
1070
     0
1002
}
1002
{
1000
REACTOR
1002
}
1001
GENIUS_GENOBJ-N-CEN_13
1002
{
1000
OWNER
1000
GEN
1002
}
  0
LINE
  5
61A
330
1F
100
AcDbEntity
  8
0
100
AcDbLine
 10
4396.441128890371
 20
420.7165108899109
 30
0.0
 11
4396.441128890371
 21
413.6919394611727
 31
0.0
1001
GENIUS_GENODEF_13
1002
{
1000
HIER
1070
     0
1002
}
1002
{
1000
MANEDIT
1070
     0
1002
}
1002
{
1000
NOSEL
1070
     0
1002
}
1002
{
1000
BEHIND
1070
     0
1002
}
1002
{
1000
REACTOR
1002
}
1001
GENIUS_GENOBJ-N-CEN_13
1002
{
1000
OWNER
1000
GEN
1002
}
  0
LINE
  5
61B
330
1F
100
AcDbEntity
  8
7A
100
AcDbLine
 10
4389.229300626873
 20
388.6919394611735
 30
0.0
 11
4461.816304498094
 21
388.6919394611735
 31
0.0
1001
GENIUS_GENOBJ-N-CEN_13
1002
{
1000
OWNER
1000
GEN
1002
}
1001
GENIUS_GENODEF_13
1002
{
1000
HIER
1070
     0
1002
}
1002
{
1000
MANEDIT
1070
     0
1002
}
1002
{
1000
NOSEL
1070
     0
1002
}
1002
{
1000
BEHIND
1070
     0
1002
}
1002
{
1000
OTHER
1070
     0
1002
}
1002
{
1000
REACTOR
1002
}
  0
LINE
  5
61C
330
1F
100
AcDbEntity
  8
0
100
AcDbLine
 10
4327.441128890371
 20
346.6919394610616
 30
0.0
 11
4389.441128890373
 21
346.6919394610616
 31
0.0
  0
LINE
  5
61D
330
1F
100
AcDbEntity
  8
0
100
AcDbLine
 10
4456.441128890371
 20
413.6919394611727
 30
0.0
 11
4456.441128890371
 21
363.6919394611734
 31
0.0
1001
GENIUS_GENODEF_13
1002
{
1000
HIER
1070
     0
1002
}
1002
{
1000
MANEDIT
1070
     0
1002
}
1002
{
1000
NOSEL
1070
     0
1002
}
1002
{
1000
BEHIND
1070
     0
1002
}
1002
{
1000
REACTOR
1002
}
1001
GENIUS_GENOBJ-N-CEN_13
1002
{
1000
OWNER
1000
GEN
1002
}
  0
LINE
  5
61E
330
1F
100
AcDbEntity
  8
0
100
AcDbLine
 10
4394.441128890371
 20
413.6919394611727
 30
0.0
 11
4456.441128890371
 21
413.6919394611727
 31
0.0
1001
GENIUS_GENOBJ-N-CEN_13
1002
{
1000
OWNER
1000
GEN
1002
}
1001
GENIUS_GENODEF_13
1002
{
1000
HIER
1070
     0
1002
}
1002
{
1000
MANEDIT
1070
     0
1002
}
1002
{
1000
NOSEL
1070
     0
1002
}
1002
{
1000
BEHIND
1070
     0
1002
}
1002
{
1000
OTHER
1070
     0
1002
}
1002
{
1000
REACTOR
1002
}
  0
LINE
  5
61F
330
1F
100
AcDbEntity
  8
0
100
AcDbLine
 10
4394.441128890371
 20
363.6919394611734
 30
0.0
 11
4456.441128890371
 21
363.6919394611734
 31
0.0
1001
GENIUS_GENOBJ-N-CEN_13
1002
{
1000
OWNER
1000
GEN
1002
}
1001
GENIUS_GENODEF_13
1002
{
1000
HIER
1070
     0
1002
}
1002
{
1000
MANEDIT
1070
     0
1002
}
1002
{
1000
NOSEL
1070
     0
1002
}
1002
{
1000
BEHIND
1070
     0
1002
}
1002
{
1000
OTHER
1070
     0
1002
}
1002
{
1000
REACTOR
1002
}
  0
ARC
  5
620
330
1F
100
AcDbEntity
  8
0
100
AcDbCircle
 10
4445.524462223705
 20
388.6919394611735
 30
0.0
 40
55.08333333333284
100
AcDbArc
 50
154.7463521009456
 51
205.2536478990543
  0
LINE
  5
621
330
1F
100
AcDbEntity
  8
0
100
AcDbLine
 10
4396.441128890371
 20
363.6919394611734
 30
0.0
 11
4396.441128890373
 21
353.6919394610629
 31
0.0
1001
GENIUS_GENODEF_13
1002
{
1000
HIER
1070
     0
1002
}
1002
{
1000
MANEDIT
1070
     0
1002
}
1002
{
1000
NOSEL
1070
     0
1002
}
1002
{
1000
BEHIND
1070
     0
1002
}
1002
{
1000
REACTOR
1002
}
1001
GENIUS_GENOBJ-N-CEN_13
1002
{
1000
OWNER
1000
GEN
1002
}
  0
LINE
  5
622
330
1F
100
AcDbEntity
  8
0
100
AcDbLine
 10
4395.705554055107
 20
412.1919394611733
 30
0.0
 11
4456.441128890371
 21
412.1919394611733
 31
0.0
1001
GENIUS_GENOBJ-N-CEN_13
1002
{
1000
OWNER
1000
GEN
1002
}
1001
GENIUS_GENODEF_13
1002
{
1000
HIER
1070
     0
1002
}
1002
{
1000
MANEDIT
1070
     0
1002
}
1002
{
1000
NOSEL
1070
     0
1002
}
1002
{
1000
BEHIND
1070
     0
1002
}
1002
{
1000
OTHER
1070
     0
1002
}
1002
{
1000
REACTOR
1002
}
  0
LINE
  5
623
330
1F
100
AcDbEntity
  8
0
100
AcDbLine
 10
4395.705554055107
 20
365.1919394611734
 30
0.0
 11
4456.441128890371
 21
365.1919394611734
 31
0.0
1001
GENIUS_GENOBJ-N-CEN_13
1002
{
1000
OWNER
1000
GEN
1002
}
1001
GENIUS_GENODEF_13
1002
{
1000
HIER
1070
     0
1002
}
1002
{
1000
MANEDIT
1070
     0
1002
}
1002
{
1000
NOSEL
1070
     0
1002
}
1002
{
1000
BEHIND
1070
     0
1002
}
1002
{
1000
OTHER
1070
     0
1002
}
1002
{
1000
REACTOR
1002
}
  0
ARC
  5
624
330
1F
100
AcDbEntity
  8
0
100
AcDbCircle
 10
4454.463768466311
 20
388.6919394611735
 30
0.0
 40
65.02089865314991
100
AcDbArc
 50
157.3878080414792
 51
202.6121919585207
  0
LINE
  5
625
330
1F
100
AcDbEntity
  8
0
100
AcDbLine
 10
4394.441128890371
 20
413.6919394611727
 30
0.0
 11
4395.705554055107
 21
412.1919394611733
 31
0.0
  0
LINE
  5
626
330
1F
100
AcDbEntity
  8
0
100
AcDbLine
 10
4394.441128890371
 20
363.6919394611734
 30
0.0
 11
4395.705554055107
 21
365.1919394611734
 31
0.0
  0
LINE
  5
627
330
1F
100
AcDbEntity
  8
0
100
AcDbLine
 10
4358.482651630301
 20
428.3762511133907
 30
0.0
 11
4322.250242255569
 21
431.3956185612561
 31
0.0
  0
LINE
  5
628
330
1F
100
AcDbEntity
  8
0
100
AcDbLine
 10
4358.399606150449
 20
428.3762511133907
 30
0.0
 11
4394.632015525172
 21
431.3956185612553
 31
0.0
  0
ARC
  5
62A
330
1F
100
AcDbEntity
  8
0
100
AcDbCircle
 10
4399.441128890365
 20
451.7165108900164
 30
0.0
 40
0.9999999999848339
100
AcDbArc
 50
359.9999999997655
 51
179.9999999997655
  0
ARC
  5
62C
330
1F
100
AcDbEntity
  8
0
100
AcDbCircle
 10
4319.441128890427
 20
433.6366437714803
 30
0.0
 40
2.0
100
AcDbArc
 50
180.0000000001563
 51
265.2363583092435
  0
ARC
  5
62D
330
1F
100
AcDbEntity
  8
0
100
AcDbCircle
 10
4397.441128890322
 20
433.6366437714803
 30
0.0
 40
2.0
100
AcDbArc
 50
274.7636416907564
 51
359.9999999997655
  0
ARC
  5
62E
330
1F
100
AcDbEntity
  8
0
100
AcDbCircle
 10
4401.441128890338
 20
438.7165108899105
 30
0.0
 40
2.0
100
AcDbArc
 50
179.9999999997655
 51
269.9999999998958
  0
ARC
  5
630
330
1F
100
AcDbEntity
  8
0
100
AcDbCircle
 10
4319.441128890423
 20
433.6366437714803
 30
0.0
 40
1.0
100
AcDbArc
 50
179.9999999998437
 51
265.2363583092435
  0
ARC
  5
631
330
1F
100
AcDbEntity
  8
0
100
AcDbCircle
 10
4397.441128890322
 20
433.6366437714803
 30
0.0
 40
1.0
100
AcDbArc
 50
274.7636416907564
 51
359.9999999997655
  0
ARC
  5
632
330
1F
100
AcDbEntity
  8
0
100
AcDbCircle
 10
4401.441128890389
 20
438.7165108899105
 30
0.0
 40
1.0
100
AcDbArc
 50
180.0000000001302
 51
269.9999999998958
  0
ARC
  5
633
330
1F
100
AcDbEntity
  8
0
100
AcDbCircle
 10
4327.441128890371
 20
353.6919394610616
 30
0.0
 40
7.0
100
AcDbArc
 50
180.0
 51
270.0
  0
ARC
  5
634
330
1F
100
AcDbEntity
  8
0
100
AcDbCircle
 10
4389.441128890373
 20
353.6919394610616
 30
0.0
 40
7.0
100
AcDbArc
 50
270.0
 51
0.0
1001
GENIUS_GENODEF_13
1002
{
1000
HIER
1070
     0
1002
}
1002
{
1000
MANEDIT
1070
     0
1002
}
1002
{
1000
NOSEL
1070
     0
1002
}
1002
{
1000
BEHIND
1070
     0
1002
}
1002
{
1000
REACTOR
1002
}
1001
GENIUS_GENOBJ-N-CEN_13
1002
{
1000
OWNER
1000
GEN
1002
}
  0
LINE
  5
635
330
1F
100
AcDbEntity
  8
0
100
AcDbLine
 10
4394.441128890371
 20
430.5429117934552
 30
0.0
 11
4394.441128890371
 21
413.6919394611727
 31
0.0
1001
GENIUS_GENODEF_13
1002
{
1000
HIER
1070
     0
1002
}
1002
{
1000
MANEDIT
1070
     0
1002
}
1002
{
1000
NOSEL
1070
     0
1002
}
1002
{
1000
BEHIND
1070
     0
1002
}
1002
{
1000
REACTOR
1002
}
1001
GENIUS_GENOBJ-N-CEN_13
1002
{
1000
OWNER
1000
GEN
1002
}
  0
LINE
  5
636
330
1F
100
AcDbEntity
  8
0
100
AcDbLine
 10
4394.441128890371
 20
363.6919394611734
 30
0.0
 11
4394.441128890373
 21
353.6919394610629
 31
0.0
1001
GENIUS_GENODEF_13
1002
{
1000
HIER
1070
     0
1002
}
1002
{
1000
MANEDIT
1070
     0
1002
}
1002
{
1000
NOSEL
1070
     0
1002
}
1002
{
1000
BEHIND
1070
     0
1002
}
1002
{
1000
REACTOR
1002
}
1001
GENIUS_GENOBJ-N-CEN_13
1002
{
1000
OWNER
1000
GEN
1002
}
  0
ARC
  5
637
330
1F
100
AcDbEntity
  8
0
100
AcDbCircle
 10
4389.441128890373
 20
353.6919394610616
 30
0.0
 40
5.0
100
AcDbArc
 50
270.0
 51
0.0
1001
GENIUS_GENODEF_13
1002
{
1000
HIER
1070
     0
1002
}
1002
{
1000
MANEDIT
1070
     0
1002
}
1002
{
1000
NOSEL
1070
     0
1002
}
1002
{
1000
BEHIND
1070
     0
1002
}
1002
{
1000
REACTOR
1002
}
1001
GENIUS_GENOBJ-N-CEN_13
1002
{
1000
OWNER
1000
GEN
1002
}
  0
LINE
  5
638
330
1F
100
AcDbEntity
  8
0
100
AcDbLine
 10
4327.441128890371
 20
348.6919394610616
 30
0.0
 11
4389.441128890373
 21
348.6919394610616
 31
0.0
  0
ARC
  5
639
330
1F
100
AcDbEntity
  8
0
100
AcDbCircle
 10
4327.441128890371
 20
353.6919394610616
 30
0.0
 40
5.0
100
AcDbArc
 50
180.0
 51
270.0
  0
LINE
  5
63A
330
1F
100
AcDbEntity
  8
0
100
AcDbLine
 10
4322.44112889037
 20
430.5429117934552
 30
0.0
 11
4322.44112889037
 21
353.6919394610616
 31
0.0
1001
GENIUS_GENODEF_13
1002
{
1000
HIER
1070
     0
1002
}
1002
{
1000
MANEDIT
1070
     0
1002
}
1002
{
1000
NOSEL
1070
     0
1002
}
1002
{
1000
BEHIND
1070
     0
1002
}
1002
{
1000
REACTOR
1002
}
1001
GENIUS_GENOBJ-N-CEN_13
1002
{
1000
OWNER
1000
GEN
1002
}
  0
LINE
  5
63B
330
1F
100
AcDbEntity
  8
0
  6
ByBlock
100
AcDbLine
 10
4320.441128890371
 20
420.7165108899109
 30
0.0
 11
4327.842843175029
 21
420.7165108899113
 31
0.0
  0
LINE
  5
63C
330
1F
100
AcDbEntity
  8
0
  6
ByBlock
100
AcDbLine
 10
4389.039414605829
 20
420.7165108899113
 30
0.0
 11
4396.441128890371
 21
420.7165108899109
 31
0.0
  0
LINE
  5
63D
330
1F
100
AcDbEntity
  8
0
100
AcDbLine
 10
4321.441128890371
 20
430.5429117934552
 30
0.0
 11
4321.441128890371
 21
420.7165108899123
 31
0.0
1001
GENIUS_GENODEF_13
1002
{
1000
HIER
1070
     0
1002
}
1002
{
1000
MANEDIT
1070
     0
1002
}
1002
{
1000
NOSEL
1070
     0
1002
}
1002
{
1000
BEHIND
1070
     0
1002
}
1002
{
1000
REACTOR
1002
}
1001
GENIUS_GENOBJ-N-CEN_13
1002
{
1000
OWNER
1000
GEN
1002
}
  0
LINE
  5
63E
330
1F
100
AcDbEntity
  8
0
100
AcDbLine
 10
4395.441128890372
 20
430.5429117934552
 30
0.0
 11
4395.441128890372
 21
420.7165108899109
 31
0.0
1001
GENIUS_GENODEF_13
1002
{
1000
HIER
1070
     0
1002
}
1002
{
1000
MANEDIT
1070
     0
1002
}
1002
{
1000
NOSEL
1070
     0
1002
}
1002
{
1000
BEHIND
1070
     0
1002
}
1002
{
1000
REACTOR
1002
}
1001
GENIUS_GENOBJ-N-CEN_13
1002
{
1000
OWNER
1000
GEN
1002
}
  0
ARC
  5
63F
330
1F
100
AcDbEntity
  8
0
100
AcDbCircle
 10
4320.441128890371
 20
430.5429117934552
 30
0.0
 40
2.0
100
AcDbArc
 50
0.0
 51
85.23635830924353
1001
GENIUS_GENODEF_13
1002
{
1000
HIER
1070
     0
1002
}
1002
{
1000
MANEDIT
1070
     0
1002
}
1002
{
1000
NOSEL
1070
     0
1002
}
1002
{
1000
BEHIND
1070
     0
1002
}
1002
{
1000
REACTOR
1002
}
1001
GENIUS_GENOBJ-N-CEN_13
1002
{
1000
OWNER
1000
GEN
1002
}
  0
LINE
  5
640
330
1F
100
AcDbEntity
  8
0
  6
ByBlock
100
AcDbLine
 10
4320.607219850077
 20
432.5360033099448
 30
0.0
 11
4358.441128890373
 21
429.3831775566183
 31
0.0
  0
ARC
  5
641
330
1F
100
AcDbEntity
  8
0
100
AcDbCircle
 10
4396.441128890371
 20
430.5429117934552
 30
0.0
 40
2.0
100
AcDbArc
 50
94.76364169075649
 51
180.0
1001
GENIUS_GENODEF_13
1002
{
1000
HIER
1070
     0
1002
}
1002
{
1000
MANEDIT
1070
     0
1002
}
1002
{
1000
NOSEL
1070
     0
1002
}
1002
{
1000
BEHIND
1070
     0
1002
}
1002
{
1000
REACTOR
1002
}
1001
GENIUS_GENOBJ-N-CEN_13
1002
{
1000
OWNER
1000
GEN
1002
}
  0
LINE
  5
642
330
1F
100
AcDbEntity
  8
0
  6
ByBlock
100
AcDbLine
 10
4396.275037930665
 20
432.5360033099435
 30
0.0
 11
4358.441128890373
 21
429.3831775566183
 31
0.0
  0
LINE
  5
643
330
1F
100
AcDbEntity
  8
0
100
AcDbLine
 10
4396.358083410517
 20
431.539457551699
 30
0.0
 11
4397.607219850029
 21
431.6435522549912
 31
0.0
  0
LINE
  5
644
330
1F
100
AcDbEntity
  8
0
100
AcDbLine
 10
4320.524174370223
 20
431.539457551699
 30
0.0
 11
4319.275037930721
 21
431.6435522549912
 31
0.0
  0
ARC
  5
645
330
1F
100
AcDbEntity
  8
0
100
AcDbCircle
 10
4320.441128890371
 20
430.5429117934552
 30
0.0
 40
1.0
100
AcDbArc
 50
0.0
 51
85.23635830924353
1001
GENIUS_GENODEF_13
1002
{
1000
HIER
1070
     0
1002
}
1002
{
1000
MANEDIT
1070
     0
1002
}
1002
{
1000
NOSEL
1070
     0
1002
}
1002
{
1000
BEHIND
1070
     0
1002
}
1002
{
1000
REACTOR
1002
}
1001
GENIUS_GENOBJ-N-CEN_13
1002
{
1000
OWNER
1000
GEN
1002
}
  0
ARC
  5
646
330
1F
100
AcDbEntity
  8
0
100
AcDbCircle
 10
4396.441128890371
 20
430.5429117934552
 30
0.0
 40
1.0
100
AcDbArc
 50
94.76364169075649
 51
180.0
  0
HATCH
  5
648
330
1F
100
AcDbEntity
  8
KLIN
  6
ByBlock
100
AcDbHatch
 10
0.0
 20
0.0
 30
0.0
210
0.0
220
0.0
230
1.0
  2
LINE
 70
     0
 71
     0
 91
        4
 92
        7
 72
     0
 73
     1
 93
        4
 10
4396.441128890371
 20
421.6919394610611
 10
4394.441128890371
 20
421.6919394610624
 10
4394.441128890371
 20
413.6919394611727
 10
4396.441128890371
 20
413.6919394611727
 97
        0
 92
        7
 72
     1
 73
     1
 93
        8
 10
4322.44112889037
 20
396.1185719317602
 42
0.0
 10
4320.441128890371
 20
395.4439793277832
 42
0.0
 10
4320.441128890371
 20
353.6919394610629
 42
0.4142135623730982
 10
4327.441128890371
 20
346.6919394610616
 42
0.0
 10
4358.441128890431
 20
346.6919394610616
 42
0.0
 10
4358.441128890429
 20
348.6919394610616
 42
0.0
 10
4327.441128890371
 20
348.6919394610616
 42
-0.4142135623730974
 10
4322.44112889037
 20
353.6919394610629
 42
0.0
 97
        0
 92
        7
 72
     1
 73
     1
 93
        8
 10
4396.441128890373
 20
353.6919394610629
 42
0.0
 10
4396.441128890371
 20
363.6919394611734
 42
0.0
 10
4394.441128890371
 20
363.6919394611734
 42
0.0
 10
4394.441128890373
 20
353.6919394610629
 42
-0.4142135623731005
 10
4389.441128890373
 20
348.6919394610616
 42
0.0
 10
4358.441128890429
 20
348.6919394610616
 42
0.0
 10
4358.441128890431
 20
346.6919394610616
 42
0.0
 10
4389.441128890373
 20
346.6919394610616
 42
0.4142135623730998
 97
        0
 92
        1
 93
        4
 72
     1
 10
4322.44112889037
 20
420.7165108899109
 11
4320.441128890371
 21
420.7165108899109
 72
     1
 10
4320.441128890371
 20
420.7165108899109
 11
4320.441128890371
 21
395.4439793277832
 72
     1
 10
4320.441128890371
 20
395.4439793277832
 11
4322.441128890373
 21
396.1185719317602
 72
     1
 10
4322.44112889037
 20
396.1185719317602
 11
4322.44112889037
 21
420.7165108899113
 97
        0
 75
     0
 76
     1
 52
135.0
 41
1.0
 77
     0
 78
     1
 53
135.0
 43
4136.353417122562
 44
165.8506798413164
 45
-2.245064030267287
 46
-2.245064030267287
 79
     0
 47
2.718374431718904
 98
        4
 10
4395.661196441801
 20
417.8180483169142
 10
4321.679707613713
 20
411.2939493436358
 10
4321.679707613713
 20
378.1297806000664
 10
4382.061656113146
 20
347.9558250960529
  0
HATCH
  5
649
330
1F
100
AcDbEntity
  8
KLIN
  6
ByBlock
100
AcDbHatch
 10
0.0
 20
0.0
 30
0.0
210
0.0
220
0.0
230
1.0
  2
LINE
 70
     0
 71
     0
 91
        3
 92
        7
 72
     0
 73
     1
 93
        4
 10
4456.441128890371
 20
413.6919394611727
 10
4394.441128890371
 20
413.6919394611727
 10
4395.705554055107
 20
412.1919394611733
 10
4456.441128890371
 20
412.1919394611733
 97
        0
 92
        7
 72
     0
 73
     1
 93
        4
 10
4428.763618020265
 20
365.1919394611734
 10
4395.705554055107
 20
365.1919394611734
 10
4394.441128890371
 20
363.6919394611734
 10
4429.521642565383
 20
363.6919394611734
 97
        0
 92
        7
 72
     0
 73
     1
 93
        4
 10
4456.441128890371
 20
365.1919394611734
 10
4428.763618020265
 20
365.1919394611734
 10
4429.521642565383
 20
363.6919394611734
 10
4456.441128890371
 20
363.6919394611734
 97
        0
 75
     0
 76
     1
 52
45.0
 41
0.5
 77
     0
 78
     1
 53
45.0
 43
4136.353417122562
 44
165.8506798413164
 45
-1.122532015133643
 46
1.122532015133643
 79
     0
 47
2.718374431718904
 98
        3
 10
4413.884577465114
 20
412.9249737412008
 10
4414.156567601223
 20
364.5379087763306
 10
4438.091756149229
 20
364.2660718377417
  0
DIMENSION
  5
64B
330
1F
100
AcDbEntity
  8
AM_5
100
AcDbDimension
  2
*D21
 10
4318.441124743669
 20
500.4470983889325
 30
0.0
 11
4358.441126817025
 21
506.9470983889324
 31
0.0
 70
    32
 71
     5
 42
80.00000414671195
  3
AM_DIN$0
100
AcDbAlignedDimension
 13
4398.441128890381
 23
451.7165108900164
 33
0.0
 14
4318.441124743669
 24
450.7165108898518
 34
0.0
100
AcDbRotatedDimension
1001
ACAD_DSTYLE_DIMINSPECT
1070
   396
1000
100%
1070
   395
1000

1070
   394
1070
    33
1070
   393
1070
     0
1001
ACAD
1000
DSTYLE
1002
{
1070
    41
1040
7.0
1070
   140
1040
10.0
1070
   271
1070
     0
1002
}
  0
LINE
  5
651
330
1F
100
AcDbEntity
  8
0
100
AcDbLine
 10
4333.441128890438
 20
325.7279394611735
 30
0.0
 11
4383.441128890438
 21
325.7279394611735
 31
0.0
  0
LINE
  5
652
330
1F
100
AcDbEntity
  8
0
100
AcDbLine
 10
4333.441128890437
 20
327.7267966042807
 30
0.0
 11
4383.441128890438
 21
327.7267966042807
 31
0.0
  0
LINE
  5
653
330
1F
100
AcDbEntity
  8
0
100
AcDbLine
 10
4333.441128890438
 20
325.7279394611735
 30
0.0
 11
4333.441128890427
 21
346.6919394610616
 31
0.0
  0
LINE
  5
654
330
1F
100
AcDbEntity
  8
0
100
AcDbLine
 10
4383.441128890438
 20
325.7279394611735
 30
0.0
 11
4383.441128890431
 21
346.6919394610616
 31
0.0
  0
LINE
  5
655
330
1F
100
AcDbEntity
  8
0
100
AcDbLine
 10
4338.441128890429
 20
420.691939461061
 30
0.0
 11
4338.441128890429
 21
363.6919394610615
 31
0.0
  0
LINE
  5
656
330
1F
100
AcDbEntity
  8
0
100
AcDbLine
 10
4338.441128890429
 20
363.6919394610615
 30
0.0
 11
4378.441128890429
 21
363.6919394610615
 31
0.0
  0
LINE
  5
657
330
1F
100
AcDbEntity
  8
0
100
AcDbLine
 10
4378.441128890429
 20
363.6919394610615
 30
0.0
 11
4378.441128890429
 21
420.691939461061
 31
0.0
  0
LINE
  5
658
330
1F
100
AcDbEntity
  8
0
100
AcDbLine
 10
4339.941128890429
 20
420.691939461061
 30
0.0
 11
4339.941128890429
 21
363.6919394610615
 31
0.0
  0
LINE
  5
659
330
1F
100
AcDbEntity
  8
0
100
AcDbLine
 10
4376.941128890429
 20
363.6919394610615
 30
0.0
 11
4376.941128890429
 21
420.691939461061
 31
0.0
  0
HATCH
  5
65A
330
1F
100
AcDbEntity
  8
8
100
AcDbHatch
 10
0.0
 20
0.0
 30
0.0
210
0.0
220
0.0
230
1.0
  2
LINE
 70
     0
 71
     0
 91
        4
 92
        7
 72
     0
 73
     1
 93
        6
 10
4330.941128890429
 20
410.6919394610614
 10
4331.414101863401
 20
413.5297772988989
 10
4330.44112889043
 20
413.6919394610614
 10
4329.941128890429
 20
410.6919394610614
 10
4329.941128890429
 20
389.2080370730716
 10
4330.941128890429
 20
389.4643034904591
 97
        0
 92
        7
 72
     0
 73
     1
 93
        4
 10
4330.941128890429
 20
389.4643034904591
 10
4329.941128890429
 20
389.2080370730716
 10
4329.941128890429
 20
376.0287163987889
 10
4330.941128890429
 20
376.2849828161764
 97
        0
 92
        7
 72
     1
 73
     1
 93
        8
 10
4330.941128890429
 20
376.2849828161764
 42
0.0
 10
4329.941128890429
 20
376.0287163987889
 42
0.0
 10
4329.941128890429
 20
354.6919394610616
 42
0.4142135623730951
 10
4335.941128890429
 20
348.6919394610616
 42
0.0
 10
4358.441128890429
 20
348.6919394610616
 42
0.0
 10
4358.441128890429
 20
349.6919394610616
 42
0.0
 10
4335.941128890429
 20
349.6919394610616
 42
-0.4142135623730951
 10
4330.941128890429
 20
354.6919394610616
 42
0.0
 97
        0
 92
        7
 72
     1
 73
     1
 93
       10
 10
4386.94112889043
 20
354.6919394610616
 42
0.0
 10
4386.94112889043
 20
410.6919394610614
 42
0.0
 10
4386.441128890429
 20
413.6919394610614
 42
0.0
 10
4385.468155917457
 20
413.5297772988989
 42
0.0
 10
4385.941128890429
 20
410.6919394610614
 42
0.0
 10
4385.941128890429
 20
354.6919394610616
 42
-0.4142135623730951
 10
4380.941128890429
 20
349.6919394610616
 42
0.0
 10
4358.441128890429
 20
349.6919394610616
 42
0.0
 10
4358.441128890429
 20
348.6919394610616
 42
0.0
 10
4380.941128890429
 20
348.6919394610616
 42
0.4142135623730951
 97
        0
 75
     0
 76
     1
 52
45.0
 41
1.0
 77
     0
 78
     1
 53
45.0
 43
4240.377521895552
 44
220.9775801235198
 45
-2.245064030267287
 46
2.245064030267287
 79
     0
 47
0.144641785732262
 98
        4
 10
4330.262581984448
 20
407.3393381453495
 10
4330.407287455336
 20
379.8573968489683
 10
4330.551990424399
 20
372.0467410125859
 10
4364.99138212354
 20
349.3379803940031
  0
LINE
  5
65B
330
1F
100
AcDbEntity
  8
0
100
AcDbLine
 10
4329.941128890429
 20
410.6919394610614
 30
0.0
 11
4329.941128890429
 21
354.6919394610616
 31
0.0
  0
LINE
  5
65C
330
1F
100
AcDbEntity
  8
0
100
AcDbLine
 10
4386.94112889043
 20
354.6919394610616
 30
0.0
 11
4386.94112889043
 21
410.6919394610614
 31
0.0
  0
LINE
  5
65D
330
1F
100
AcDbEntity
  8
0
100
AcDbLine
 10
4335.941128890429
 20
348.6919394610616
 30
0.0
 11
4380.941128890429
 21
348.6919394610616
 31
0.0
  0
LINE
  5
65E
330
1F
100
AcDbEntity
  8
0
100
AcDbLine
 10
4378.441128890429
 20
413.6919394610614
 30
0.0
 11
4386.441128890429
 21
413.6919394610614
 31
0.0
  0
LINE
  5
65F
330
1F
100
AcDbEntity
  8
0
100
AcDbLine
 10
4325.94112889043
 20
424.1919394610611
 30
0.0
 11
4325.94112889043
 21
422.6919394610614
 31
0.0
  0
LINE
  5
660
330
1F
100
AcDbEntity
  8
0
100
AcDbLine
 10
4321.941128890429
 20
422.6919394610614
 30
0.0
 11
4324.941128890428
 21
422.6919394610614
 31
0.0
  0
LINE
  5
661
330
1F
100
AcDbEntity
  8
0
100
AcDbLine
 10
4390.941128890429
 20
422.6919394610614
 30
0.0
 11
4390.941128890429
 21
424.1919394610611
 31
0.0
  0
LINE
  5
662
330
1F
100
AcDbEntity
  8
0
100
AcDbLine
 10
4390.941128890429
 20
424.1919394610611
 30
0.0
 11
4325.94112889043
 21
424.1919394610611
 31
0.0
  0
CIRCLE
  5
663
330
1F
100
AcDbEntity
  8
0
100
AcDbCircle
 10
4358.441128890429
 20
421.1919394610609
 30
0.0
 40
1.5
  0
LINE
  5
664
330
1F
100
AcDbEntity
  8
7A
100
AcDbLine
 10
4353.941128890429
 20
421.1919394610609
 30
0.0
 11
4362.941128890429
 21
421.1919394610609
 31
0.0
1001
GENIUS_GENOBJ-N-CEN_13
1002
{
1000
OWNER
1000
GEN
1002
}
1001
GENIUS_GENODEF_13
1002
{
1000
HIER
1070
     0
1002
}
1002
{
1000
MANEDIT
1070
     0
1002
}
1002
{
1000
NOSEL
1070
     0
1002
}
1002
{
1000
BEHIND
1070
     0
1002
}
1002
{
1000
OTHER
1070
     0
1002
}
1002
{
1000
REACTOR
1002
}
  0
LINE
  5
665
330
1F
100
AcDbEntity
  8
0
100
AcDbLine
 10
4386.94112889043
 20
426.6919394610614
 30
0.0
 11
4329.941128890429
 21
426.6919394610614
 31
0.0
  0
LINE
  5
666
330
1F
100
AcDbEntity
  8
0
100
AcDbLine
 10
4329.941128890429
 20
426.6919394610614
 30
0.0
 11
4329.941128890429
 21
424.1919394610611
 31
0.0
  0
LINE
  5
667
330
1F
100
AcDbEntity
  8
0
100
AcDbLine
 10
4329.941128890429
 20
422.6919394610614
 30
0.0
 11
4329.941128890429
 21
420.1919394610611
 31
0.0
  0
LINE
  5
668
330
1F
100
AcDbEntity
  8
0
100
AcDbLine
 10
4386.94112889043
 20
426.6919394610614
 30
0.0
 11
4386.94112889043
 21
424.1919394610611
 31
0.0
  0
LINE
  5
669
330
1F
100
AcDbEntity
  8
0
100
AcDbLine
 10
4386.94112889043
 20
422.6919394610614
 30
0.0
 11
4386.94112889043
 21
420.1919394610611
 31
0.0
  0
LINE
  5
66A
330
1F
100
AcDbEntity
  8
0
100
AcDbLine
 10
4378.441128890429
 20
420.1919394610611
 30
0.0
 11
4386.94112889043
 21
420.1919394610611
 31
0.0
  0
LINE
  5
66B
330
1F
100
AcDbEntity
  8
0
100
AcDbLine
 10
4324.941128890428
 20
424.1919394610611
 30
0.0
 11
4324.941128890428
 21
422.6919394610614
 31
0.0
  0
LINE
  5
66C
330
1F
100
AcDbEntity
  8
0
100
AcDbLine
 10
4321.941128890429
 20
424.1919394610611
 30
0.0
 11
4323.941128890429
 21
425.1919394610609
 31
0.0
  0
LINE
  5
66D
330
1F
100
AcDbEntity
  8
0
100
AcDbLine
 10
4323.941128890429
 20
425.1919394610609
 30
0.0
 11
4329.941128890429
 21
426.6919394610614
 31
0.0
  0
LINE
  5
66E
330
1F
100
AcDbEntity
  8
0
100
AcDbLine
 10
4323.941128890429
 20
421.6919394610611
 30
0.0
 11
4329.941128890429
 21
420.1919394610611
 31
0.0
  0
LINE
  5
66F
330
1F
100
AcDbEntity
  8
0
100
AcDbLine
 10
4321.941128890429
 20
422.6919394610614
 30
0.0
 11
4323.941128890429
 21
421.6919394610611
 31
0.0
  0
LINE
  5
670
330
1F
100
AcDbEntity
  8
0
100
AcDbLine
 10
4324.941128890428
 20
424.1919394610611
 30
0.0
 11
4321.941128890429
 21
424.1919394610611
 31
0.0
  0
LINE
  5
671
330
1F
100
AcDbEntity
  8
0
100
AcDbLine
 10
4325.94112889043
 20
422.6919394610614
 30
0.0
 11
4336.441128890429
 21
422.6919394610614
 31
0.0
  0
LINE
  5
672
330
1F
100
AcDbEntity
  8
0
100
AcDbLine
 10
4394.941128890429
 20
422.6919394610614
 30
0.0
 11
4391.941128890429
 21
422.6919394610614
 31
0.0
  0
LINE
  5
673
330
1F
100
AcDbEntity
  8
0
100
AcDbLine
 10
4391.941128890429
 20
424.1919394610611
 30
0.0
 11
4394.941128890429
 21
424.1919394610611
 31
0.0
  0
LINE
  5
674
330
1F
100
AcDbEntity
  8
0
100
AcDbLine
 10
4394.941128890429
 20
422.6919394610614
 30
0.0
 11
4392.94112889043
 21
421.6919394610611
 31
0.0
  0
LINE
  5
675
330
1F
100
AcDbEntity
  8
0
100
AcDbLine
 10
4394.941128890429
 20
424.1919394610611
 30
0.0
 11
4392.94112889043
 21
425.1919394610609
 31
0.0
  0
LINE
  5
676
330
1F
100
AcDbEntity
  8
0
100
AcDbLine
 10
4391.941128890429
 20
424.1919394610611
 30
0.0
 11
4391.941128890429
 21
422.6919394610614
 31
0.0
  0
LINE
  5
677
330
1F
100
AcDbEntity
  8
0
100
AcDbLine
 10
4392.94112889043
 20
425.1919394610609
 30
0.0
 11
4386.94112889043
 21
426.6919394610614
 31
0.0
  0
LINE
  5
678
330
1F
100
AcDbEntity
  8
0
100
AcDbLine
 10
4392.94112889043
 20
421.6919394610611
 30
0.0
 11
4386.94112889043
 21
420.1919394610611
 31
0.0
  0
HATCH
  5
679
330
1F
100
AcDbEntity
  8
8
100
AcDbHatch
 10
0.0
 20
0.0
 30
0.0
210
0.0
220
0.0
230
1.0
  2
NET
 70
     0
 71
     0
 91
        2
 92
        7
 72
     0
 73
     1
 93
       12
 10
4321.941128890429
 20
422.6919394610614
 10
4323.941128890429
 20
421.6919394610611
 10
4329.941128890429
 20
420.1919394610611
 10
4329.941128890429
 20
422.6919394610614
 10
4325.94112889043
 20
422.6919394610614
 10
4325.94112889043
 20
424.1919394610611
 10
4329.941128890429
 20
424.1919394610611
 10
4329.941128890429
 20
426.6919394610614
 10
4323.941128890429
 20
425.1919394610609
 10
4321.941128890429
 20
424.1919394610611
 10
4324.941128890428
 20
424.1919394610611
 10
4324.941128890428
 20
422.6919394610614
 97
        0
 92
        7
 72
     0
 73
     1
 93
       12
 10
4390.941128890429
 20
422.6919394610614
 10
4386.94112889043
 20
422.6919394610614
 10
4386.94112889043
 20
420.1919394610611
 10
4392.94112889043
 20
421.6919394610611
 10
4394.941128890429
 20
422.6919394610614
 10
4391.941128890429
 20
422.6919394610614
 10
4391.941128890429
 20
424.1919394610611
 10
4394.941128890429
 20
424.1919394610611
 10
4392.94112889043
 20
425.1919394610609
 10
4386.94112889043
 20
426.6919394610614
 10
4386.94112889043
 20
424.1919394610611
 10
4390.941128890429
 20
424.1919394610611
 97
        0
 75
     0
 76
     1
 52
135.0
 41
0.5
 77
     0
 78
     2
 53
135.0
 43
4240.377521895552
 44
221.887550416622
 45
-1.122532015133643
 46
-1.122532015133643
 79
     0
 53
225.0
 43
4240.377521895552
 44
221.887550416622
 45
1.122532015133643
 46
-1.122532015133643
 79
     0
 47
0.1492324330864038
 98
        2
 10
4328.473518033852
 20
421.6575827169656
 10
4389.394525916381
 20
421.5083492717392
  0
LINE
  5
67A
330
1F
100
AcDbEntity
  8
0
100
AcDbLine
 10
4330.941128890429
 20
410.6919394610614
 30
0.0
 11
4330.941128890429
 21
354.6919394610616
 31
0.0
  0
LINE
  5
67B
330
1F
100
AcDbEntity
  8
0
100
AcDbLine
 10
4335.941128890429
 20
349.6919394610616
 30
0.0
 11
4380.941128890429
 21
349.6919394610616
 31
0.0
  0
LINE
  5
67C
330
1F
100
AcDbEntity
  8
0
100
AcDbLine
 10
4385.941128890429
 20
354.6919394610616
 30
0.0
 11
4385.941128890429
 21
410.6919394610614
 31
0.0
  0
ARC
  5
67D
330
1F
100
AcDbEntity
  8
0
100
AcDbCircle
 10
4335.941128890429
 20
354.6919394610616
 30
0.0
 40
5.0
100
AcDbArc
 50
180.0
 51
270.0
1001
GENIUS_GENOBJ-N-FIL_13
1002
{
1000
OWNER
1000
GEN
1002
}
1001
GENIUS_GENODEF_13
1002
{
1000
HIER
1070
     0
1002
}
1002
{
1000
MANEDIT
1070
     0
1002
}
1002
{
1000
NOSEL
1070
     0
1002
}
1002
{
1000
BEHIND
1070
     0
1002
}
1002
{
1000
OTHER
1070
     0
1002
}
1002
{
1000
REACTOR
1002
}
  0
ARC
  5
67E
330
1F
100
AcDbEntity
  8
0
100
AcDbCircle
 10
4380.941128890429
 20
354.6919394610616
 30
0.0
 40
5.0
100
AcDbArc
 50
270.0
 51
0.0
1001
GENIUS_GENOBJ-N-FIL_13
1002
{
1000
OWNER
1000
GEN
1002
}
1001
GENIUS_GENODEF_13
1002
{
1000
HIER
1070
     0
1002
}
1002
{
1000
MANEDIT
1070
     0
1002
}
1002
{
1000
NOSEL
1070
     0
1002
}
1002
{
1000
BEHIND
1070
     0
1002
}
1002
{
1000
OTHER
1070
     0
1002
}
1002
{
1000
REACTOR
1002
}
  0
ARC
  5
67F
330
1F
100
AcDbEntity
  8
0
100
AcDbCircle
 10
4335.941128890429
 20
354.6919394610616
 30
0.0
 40
6.0
100
AcDbArc
 50
180.0
 51
270.0
1001
GENIUS_GENOBJ-N-FIL_13
1002
{
1000
OWNER
1000
GEN
1002
}
1001
GENIUS_GENODEF_13
1002
{
1000
HIER
1070
     0
1002
}
1002
{
1000
MANEDIT
1070
     0
1002
}
1002
{
1000
NOSEL
1070
     0
1002
}
1002
{
1000
BEHIND
1070
     0
1002
}
1002
{
1000
OTHER
1070
     0
1002
}
1002
{
1000
REACTOR
1002
}
  0
ARC
  5
680
330
1F
100
AcDbEntity
  8
0
100
AcDbCircle
 10
4380.941128890429
 20
354.6919394610616
 30
0.0
 40
6.0
100
AcDbArc
 50
270.0
 51
0.0
1001
GENIUS_GENODEF_13
1002
{
1000
HIER
1070
     0
1002
}
1002
{
1000
MANEDIT
1070
     0
1002
}
1002
{
1000
NOSEL
1070
     0
1002
}
1002
{
1000
BEHIND
1070
     0
1002
}
1002
{
1000
OTHER
1070
     0
1002
}
1002
{
1000
REACTOR
1002
}
1001
GENIUS_GENOBJ-N-FIL_13
1002
{
1000
OWNER
1000
GEN
1002
}
  0
ARC
  5
681
330
1F
100
AcDbEntity
  8
0
100
AcDbCircle
 10
4336.441128890429
 20
420.691939461061
 30
0.0
 40
2.0
100
AcDbArc
 50
0.0
 51
90.0
1001
GENIUS_GENODEF_13
1002
{
1000
HIER
1070
     0
1002
}
1002
{
1000
MANEDIT
1070
     0
1002
}
1002
{
1000
NOSEL
1070
     0
1002
}
1002
{
1000
BEHIND
1070
     0
1002
}
1002
{
1000
OTHER
1070
     0
1002
}
1002
{
1000
REACTOR
1002
}
1001
GENIUS_GENOBJ-N-FIL_13
1002
{
1000
OWNER
1000
GEN
1002
}
  0
LINE
  5
682
330
1F
100
AcDbEntity
  8
0
100
AcDbLine
 10
4390.941128890429
 20
422.6919394610614
 30
0.0
 11
4380.441128890431
 21
422.6919394610614
 31
0.0
  0
ARC
  5
683
330
1F
100
AcDbEntity
  8
0
100
AcDbCircle
 10
4380.441128890431
 20
420.691939461061
 30
0.0
 40
2.0
100
AcDbArc
 50
90.0
 51
180.0
1001
GENIUS_GENODEF_13
1002
{
1000
HIER
1070
     0
1002
}
1002
{
1000
MANEDIT
1070
     0
1002
}
1002
{
1000
NOSEL
1070
     0
1002
}
1002
{
1000
BEHIND
1070
     0
1002
}
1002
{
1000
OTHER
1070
     0
1002
}
1002
{
1000
REACTOR
1002
}
1001
GENIUS_GENOBJ-N-FIL_13
1002
{
1000
OWNER
1000
GEN
1002
}
  0
ARC
  5
684
330
1F
100
AcDbEntity
  8
0
100
AcDbCircle
 10
4336.441128890429
 20
420.691939461061
 30
0.0
 40
3.5
100
AcDbArc
 50
0.0
 51
90.0
1001
GENIUS_GENODEF_13
1002
{
1000
HIER
1070
     0
1002
}
1002
{
1000
MANEDIT
1070
     0
1002
}
1002
{
1000
NOSEL
1070
     0
1002
}
1002
{
1000
BEHIND
1070
     0
1002
}
1002
{
1000
OTHER
1070
     0
1002
}
1002
{
1000
REACTOR
1002
}
1001
GENIUS_GENOBJ-N-FIL_13
1002
{
1000
OWNER
1000
GEN
1002
}
  0
ARC
  5
685
330
1F
100
AcDbEntity
  8
0
100
AcDbCircle
 10
4380.441128890431
 20
420.691939461061
 30
0.0
 40
3.5
100
AcDbArc
 50
90.0
 51
180.0
1001
GENIUS_GENODEF_13
1002
{
1000
HIER
1070
     0
1002
}
1002
{
1000
MANEDIT
1070
     0
1002
}
1002
{
1000
NOSEL
1070
     0
1002
}
1002
{
1000
BEHIND
1070
     0
1002
}
1002
{
1000
OTHER
1070
     0
1002
}
1002
{
1000
REACTOR
1002
}
1001
GENIUS_GENOBJ-N-FIL_13
1002
{
1000
OWNER
1000
GEN
1002
}
  0
HATCH
  5
686
330
1F
100
AcDbEntity
  8
8
100
AcDbHatch
 10
0.0
 20
0.0
 30
0.0
210
0.0
220
0.0
230
1.0
  2
_U
 70
     0
 71
     0
 91
        1
 92
        1
 93
        8
 72
     1
 10
4378.441128890429
 20
363.6919394610615
 11
4378.441128890429
 21
420.691939461061
 72
     2
 10
4380.441128890431
 20
420.691939461061
 40
2.0
 50
180.0
 51
270.0
 73
     0
 72
     1
 10
4380.441128890431
 20
422.6919394610614
 11
4390.941128890429
 21
422.6919394610614
 72
     1
 10
4390.941128890429
 20
422.6919394610614
 11
4390.941128890429
 21
424.1919394610613
 72
     1
 10
4390.941128890429
 20
424.1919394610611
 11
4380.441128890431
 21
424.1919394610611
 72
     2
 10
4380.441128890431
 20
420.691939461061
 40
3.5
 50
90.0
 51
180.0
 73
     1
 72
     1
 10
4376.941128890429
 20
420.691939461061
 11
4376.941128890429
 21
363.6919394610615
 72
     1
 10
4376.941128890429
 20
363.6919394610615
 11
4378.441128890429
 21
363.6919394610615
 97
        0
 75
     0
 76
     0
 52
45.0
 41
5.0
 77
     0
 78
     1
 53
45.0
 43
4240.377521895552
 44
220.9775801235198
 45
-3.535533905932736
 46
3.535533905932736
 79
     0
 98
        1
 10
4240.377521895552
 20
220.9775801235198
1001
GENIUS_GENODEF_13
1002
{
1000
HIER
1070
     0
1002
}
1002
{
1000
MANEDIT
1070
     0
1002
}
1002
{
1000
NOSEL
1070
     0
1002
}
1002
{
1000
BEHIND
1070
     0
1002
}
1002
{
1000
OTHER
1070
     0
1002
}
1002
{
1000
REACTOR
1002
}
1001
GENIUS_GENOBJ-N-HTC_13
1002
{
1000
OWNER
1000
GEN
1002
}
1001
GENIUS_GENHATCH_13
1002
{
1000
DATA
1040
45.0
1042
5.0
1000
_U
1070
     0
1011
4377.670807819519
1021
403.6591400381986
1031
0.0
1002
}
1002
{
1000
UCS
1010
0.0
1020
0.0
1030
0.0
1010
1.0
1020
0.0
1030
0.0
1010
0.0
1020
1.0
1030
0.0
1002
}
  0
HATCH
  5
687
330
1F
100
AcDbEntity
  8
8
100
AcDbHatch
 10
0.0
 20
0.0
 30
0.0
210
0.0
220
0.0
230
1.0
  2
_U
 70
     0
 71
     0
 91
        1
 92
        1
 93
        8
 72
     1
 10
4336.441128890429
 20
424.1919394610611
 11
4325.94112889043
 21
424.1919394610611
 72
     1
 10
4325.94112889043
 20
424.1919394610611
 11
4325.94112889043
 21
422.6919394610611
 72
     1
 10
4325.94112889043
 20
422.6919394610614
 11
4336.441128890429
 21
422.6919394610614
 72
     2
 10
4336.441128890429
 20
420.691939461061
 40
2.0
 50
270.0
 51
360.0
 73
     0
 72
     1
 10
4338.441128890429
 20
420.691939461061
 11
4338.441128890429
 21
363.6919394610615
 72
     1
 10
4338.441128890429
 20
363.6919394610615
 11
4339.941128890429
 21
363.6919394610615
 72
     1
 10
4339.941128890429
 20
363.6919394610615
 11
4339.941128890429
 21
420.691939461061
 72
     2
 10
4336.441128890429
 20
420.691939461061
 40
3.5
 50
0.0
 51
90.0
 73
     1
 97
        0
 75
     0
 76
     0
 52
45.0
 41
5.0
 77
     0
 78
     1
 53
45.0
 43
4240.377521895552
 44
220.9775801235198
 45
-3.535533905932736
 46
3.535533905932736
 79
     0
 98
        1
 10
4240.377521895552
 20
220.9775801235198
1001
GENIUS_GENODEF_13
1002
{
1000
HIER
1070
     0
1002
}
1002
{
1000
MANEDIT
1070
     0
1002
}
1002
{
1000
NOSEL
1070
     0
1002
}
1002
{
1000
BEHIND
1070
     0
1002
}
1002
{
1000
OTHER
1070
     0
1002
}
1002
{
1000
REACTOR
1002
}
1001
GENIUS_GENOBJ-N-HTC_13
1002
{
1000
OWNER
1000
GEN
1002
}
1001
GENIUS_GENHATCH_13
1002
{
1000
DATA
1040
45.0
1042
5.0
1000
_U
1070
     0
1011
4339.303860920529
1021
401.4396007193679
1031
0.0
1002
}
1002
{
1000
UCS
1010
0.0
1020
0.0
1030
0.0
1010
1.0
1020
0.0
1030
0.0
1010
0.0
1020
1.0
1030
0.0
1002
}
  0
LINE
  5
688
330
1F
100
AcDbEntity
  8
0
100
AcDbLine
 10
4329.941128890429
 20
413.6919394610614
 30
0.0
 11
4330.941128890429
 21
413.6919394610614
 31
0.0
  0
LINE
  5
689
330
1F
100
AcDbEntity
  8
0
100
AcDbLine
 10
4329.941128890429
 20
422.6919394610614
 30
0.0
 11
4336.441128890429
 21
422.6919394610614
 31
0.0
  0
LINE
  5
68A
330
1F
100
AcDbEntity
  8
0
100
AcDbLine
 10
4329.941128890429
 20
413.6919394610614
 30
0.0
 11
4331.701833446245
 21
413.6919394610614
 31
0.0
  0
LINE
  5
68B
330
1F
100
AcDbEntity
  8
0
100
AcDbLine
 10
4338.441128890429
 20
420.691939461061
 30
0.0
 11
4338.441128890429
 21
402.6919394610614
 31
0.0
  0
LINE
  5
68C
330
1F
100
AcDbEntity
  8
0
100
AcDbLine
 10
4331.441128890429
 20
411.211939461061
 30
0.0
 11
4331.441128890429
 21
409.2119394610614
 31
0.0
  0
LINE
  5
68D
330
1F
100
AcDbEntity
  8
0
100
AcDbLine
 10
4338.441128890429
 20
402.6919394610614
 30
0.0
 11
4335.205452645546
 21
402.6919394610614
 31
0.0
  0
LINE
  5
68E
330
1F
100
AcDbEntity
  8
0
100
AcDbLine
 10
4329.941128890429
 20
413.6919394610614
 30
0.0
 11
4329.941128890429
 21
422.6919394610614
 31
0.0
  0
LINE
  5
68F
330
1F
100
AcDbEntity
  8
0
100
AcDbLine
 10
4331.441128890429
 20
411.211939461061
 30
0.0
 11
4332.165425373528
 21
413.0046361643533
 31
0.0
  0
ARC
  5
690
330
1F
100
AcDbEntity
  8
0
100
AcDbCircle
 10
4331.701833446245
 20
413.1919394610609
 30
0.0
 40
0.5
100
AcDbArc
 50
337.9999999999908
 51
90.0
  0
LINE
  5
691
330
1F
100
AcDbEntity
  8
0
100
AcDbLine
 10
4331.441128890429
 20
409.2119394610614
 30
0.0
 11
4335.205452645546
 21
402.6919394610614
 31
0.0
  0
LINE
  5
692
330
1F
100
AcDbEntity
  8
0
100
AcDbLine
 10
4336.441128890429
 20
422.6919394610614
 30
0.0
 11
4338.441128890429
 21
420.691939461061
 31
0.0
  0
LINE
  5
693
330
1F
100
AcDbEntity
  8
3
100
AcDbLine
 10
4329.941128890429
 20
420.1919394610611
 30
0.0
 11
4338.441128890429
 21
420.1919394610611
 31
0.0
  0
LINE
  5
694
330
1F
100
AcDbEntity
  8
3
100
AcDbLine
 10
4331.701833446245
 20
413.6919394610614
 30
0.0
 11
4338.441128890429
 21
413.6919394610614
 31
0.0
  0
LINE
  5
695
330
1F
100
AcDbEntity
  8
0
100
AcDbLine
 10
4330.941128890429
 20
410.6919394610614
 30
0.0
 11
4331.414101863401
 21
413.5297772988989
 31
0.0
  0
LINE
  5
696
330
1F
100
AcDbEntity
  8
0
100
AcDbLine
 10
4329.941128890429
 20
410.6919394610614
 30
0.0
 11
4330.44112889043
 21
413.6919394610614
 31
0.0
  0
LINE
  5
697
330
1F
100
AcDbEntity
  8
0
100
AcDbLine
 10
4330.44112889043
 20
413.6919394610614
 30
0.0
 11
4331.414101863401
 21
413.5297772988989
 31
0.0
  0
LINE
  5
698
330
1F
100
AcDbEntity
  8
0
100
AcDbLine
 10
4331.414101863401
 20
413.5297772988989
 30
0.0
 11
4332.07043295157
 21
413.5297772988989
 31
0.0
  0
LINE
  5
699
330
1F
100
AcDbEntity
  8
0
100
AcDbLine
 10
4385.941128890429
 20
410.6919394610614
 30
0.0
 11
4385.468155917457
 21
413.5297772988989
 31
0.0
  0
LINE
  5
69A
330
1F
100
AcDbEntity
  8
0
100
AcDbLine
 10
4386.94112889043
 20
410.6919394610614
 30
0.0
 11
4386.441128890429
 21
413.6919394610614
 31
0.0
  0
LINE
  5
69B
330
1F
100
AcDbEntity
  8
0
100
AcDbLine
 10
4386.441128890429
 20
413.6919394610614
 30
0.0
 11
4385.468155917457
 21
413.5297772988989
 31
0.0
  0
LINE
  5
69C
330
1F
100
AcDbEntity
  8
0
100
AcDbLine
 10
4385.468155917457
 20
413.5297772988989
 30
0.0
 11
4378.441128890429
 21
413.5297772988989
 31
0.0
  0
INSERT
  5
69D
330
1F
100
AcDbEntity
  8
0
100
AcDbBlockReference
  2
befestigung
 10
6067.323909809852
 20
-974.3413271131663
 30
0.0
 41
-1.0
  0
INSERT
  5
69E
330
1F
100
AcDbEntity
  8
0
100
AcDbBlockReference
  2
befestigung
 10
1339.973610464091
 20
-974.341327113168
 30
0.0
  0
POINT
  5
6A5
330
1F
100
AcDbEntity
  8
0
 60
     1
100
AcDbPoint
 10
2293.918386336383
 20
-829.0700050067567
 30
0.0
1001
GENIUS_GENOENT_13
1002
{
1000
MYREF
1005
6A5
1002
}
1002
{
1000
GRP
1005
0
1002
}
1001
GENIUS_GENOLIS_13
1002
{
1000
ENT
1005
5E6
1005
5E5
1005
5E4
1005
5E3
1002
}
1001
GENIUS_GENODEF_13
1002
{
1000
HIER
1070
    10
1002
}
1002
{
1000
MANEDIT
1070
     0
1002
}
1002
{
1000
NOSEL
1070
     0
1002
}
1002
{
1000
BEHIND
1070
     0
1002
}
1002
{
1000
OTHER
1070
     0
1002
}
1002
{
1000
REACTOR
1002
}
1001
GENIUS_GENOBJ-N-CRS_13
1002
{
1000
OWNER
1000
GEN
1002
}
  0
ARC
  5
BDF
330
1F
100
AcDbEntity
  8
0
100
AcDbCircle
 10
4316.441124743669
 20
450.7165108898518
 30
0.0
 40
2.0
100
AcDbArc
 50
0.0
 51
90.00000000026053
  0
LINE
  5
BE0
330
1F
100
AcDbEntity
  8
0
  6
ByBlock
100
AcDbLine
 10
4298.441124743564
 20
453.7165108898023
 30
0.0
 11
4298.441124743449
 21
492.7165108898023
 31
0.0
  0
ARC
  5
BE1
330
1F
100
AcDbEntity
  8
0
  6
ByBlock
100
AcDbCircle
 10
4299.441124743562
 20
453.7165108898049
 30
0.0
 40
1.0
100
AcDbArc
 50
180.0000000002605
 51
270.0000000002606
  0
LINE
  5
BE2
330
1F
100
AcDbEntity
  8
0
  6
ByBlock
100
AcDbLine
 10
4298.441124743449
 20
492.7165108898023
 30
0.0
 11
4297.441124743449
 21
492.7165108897995
 31
0.0
  0
LINE
  5
BE3
330
1F
100
AcDbEntity
  8
0
  6
ByBlock
100
AcDbLine
 10
4297.441124743449
 20
492.7165108897995
 30
0.0
 11
4297.441124743563
 21
453.7165108897997
 31
0.0
  0
ARC
  5
BE4
330
1F
100
AcDbEntity
  8
0
  6
ByBlock
100
AcDbCircle
 10
4299.441124743562
 20
453.7165108898049
 30
0.0
 40
2.0
100
AcDbArc
 50
180.0000000002605
 51
270.0000000002606
  0
LINE
  5
BE5
330
1F
100
AcDbEntity
  8
0
  6
ByBlock
100
AcDbLine
 10
4299.441124743569
 20
451.716510889805
 30
0.0
 11
4316.441124743571
 21
451.7165108898555
 31
0.0
  0
ARC
  5
BE6
330
1F
100
AcDbEntity
  8
0
  6
ByBlock
100
AcDbCircle
 10
4316.441124743572
 20
450.7165108898554
 30
0.0
 40
1.0
100
AcDbArc
 50
0.000000000260551
 51
90.00000000026053
  0
ENDSEC
  0
SECTION
  2
OBJECTS
  0
DICTIONARY
  5
C
330
0
100
AcDbDictionary
281
     1
  3
ACAD_2007HEADERVARS_RT
350
CE8
  3
ACAD_COLOR
350
BE
  3
ACAD_GROUP
350
D
  3
ACAD_LAYOUT
350
1A
  3
ACAD_MATERIAL
350
BD
  3
ACAD_MLEADERSTYLE
350
2C4
  3
ACAD_MLINESTYLE
350
17
  3
ACAD_PLOTSETTINGS
350
19
  3
ACAD_PLOTSTYLENAME
350
E
  3
ACAD_SCALELIST
350
2A2
  3
ACAD_TABLESTYLE
350
11A
  3
ACAD_VISUALSTYLE
350
26E
  3
ACDB_RECOMPOSE_DATA
350
2E6
  3
AcDbVariableDictionary
350
94
  3
AcmDictionary
350
5B
  3
AEC_PROPERTY_SET_DEFS
350
98A
  3
AMG
350
41
  3
AMGSNAPSETTINGS
350
364
  3
DWGPROPS
350
CE7
  0
DICTIONARY
  5
47E
330
2
100
AcDbDictionary
280
     1
281
     1
  3
ACAD_LAYERSTATES
360
47F
  0
DICTIONARY
  5
7B9
330
10
100
AcDbDictionary
280
     1
281
     1
  3
ADSK_XREC_LAYER_RECONCILED
360
7BA
  0
DICTIONARY
  5
459
330
458
100
AcDbDictionary
280
     1
281
     1
  3
ADSK_XREC_LAYER_RECONCILED
360
7BB
  0
DICTIONARY
  5
45B
330
45A
100
AcDbDictionary
280
     1
281
     1
  3
ADSK_XREC_LAYER_RECONCILED
360
7BC
  0
DICTIONARY
  5
45E
330
45D
100
AcDbDictionary
280
     1
281
     1
  3
ADSK_XREC_LAYER_RECONCILED
360
7BD
  0
DICTIONARY
  5
460
330
45F
100
AcDbDictionary
280
     1
281
     1
  3
ADSK_XREC_LAYER_RECONCILED
360
7BE
  0
DICTIONARY
  5
462
330
461
100
AcDbDictionary
280
     1
281
     1
  3
ADSK_XREC_LAYER_RECONCILED
360
7BF
  0
DICTIONARY
  5
464
330
463
100
AcDbDictionary
280
     1
281
     1
  3
ADSK_XREC_LAYER_RECONCILED
360
7C0
  0
DICTIONARY
  5
466
330
465
100
AcDbDictionary
280
     1
281
     1
  3
ADSK_XREC_LAYER_RECONCILED
360
7C1
  0
DICTIONARY
  5
468
330
467
100
AcDbDictionary
280
     1
281
     1
  3
ADSK_XREC_LAYER_RECONCILED
360
7C2
  0
DICTIONARY
  5
46A
330
469
100
AcDbDictionary
280
     1
281
     1
  3
ADSK_XREC_LAYER_RECONCILED
360
7C3
  0
DICTIONARY
  5
46C
330
46B
100
AcDbDictionary
280
     1
281
     1
  3
ADSK_XREC_LAYER_RECONCILED
360
7C4
  0
DICTIONARY
  5
46E
330
46D
100
AcDbDictionary
280
     1
281
     1
  3
ADSK_XREC_LAYER_RECONCILED
360
7C5
  0
DICTIONARY
  5
8E4
330
8E3
100
AcDbDictionary
280
     1
281
     1
  0
DICTIONARY
  5
8E6
330
8E5
100
AcDbDictionary
280
     1
281
     1
  0
DICTIONARY
  5
8E8
330
8E7
100
AcDbDictionary
280
     1
281
     1
  0
DICTIONARY
  5
8F
330
1F
100
AcDbDictionary
280
     1
281
     1
  0
DICTIONARY
  5
CE8
102
{ACAD_REACTORS
330
C
102
}
330
C
100
AcDbDictionary
281
     1
  3
DIMARCSYM
350
CE9
  3
DIMJOGANG
350
CEA
  3
DIMLTEX1
350
CEC
  3
DIMLTEX2
350
CED
  3
DIMLTYPE
350
CEB
  0
DICTIONARY
  5
BE
102
{ACAD_REACTORS
330
C
102
}
330
C
100
AcDbDictionary
281
     1
  0
DICTIONARY
  5
D
102
{ACAD_REACTORS
330
C
102
}
330
C
100
AcDbDictionary
281
     1
  0
DICTIONARY
  5
1A
102
{ACAD_REACTORS
330
C
102
}
330
C
100
AcDbDictionary
281
     1
  3
Layout1
350
1E
  3
Layout2
350
26
  3
Model
350
22
  0
DICTIONARY
  5
BD
102
{ACAD_REACTORS
330
C
102
}
330
C
100
AcDbDictionary
281
     1
  3
ByBlock
350
26C
  3
ByLayer
350
26B
  3
Global
350
26D
  0
DICTIONARY
  5
2C4
102
{ACAD_REACTORS
330
C
102
}
330
C
100
AcDbDictionary
281
     1
  3
Standard
350
2C5
  0
DICTIONARY
  5
17
102
{ACAD_REACTORS
330
C
102
}
330
C
100
AcDbDictionary
281
     1
  3
Standard
350
18
  0
DICTIONARY
  5
19
102
{ACAD_REACTORS
330
C
102
}
330
C
100
AcDbDictionary
281
     1
  0
ACDBDICTIONARYWDFLT
  5
E
102
{ACAD_REACTORS
330
C
102
}
330
C
100
AcDbDictionary
281
     1
  3
Normal
350
F
100
AcDbDictionaryWithDefault
340
F
  0
DICTIONARY
  5
2A2
102
{ACAD_REACTORS
330
C
102
}
330
C
100
AcDbDictionary
281
     1
  3
A0
350
2A3
  3
A1
350
2A4
  3
A2
350
2A5
  3
A3
350
2A6
  3
A4
350
2A7
  3
A5
350
2A8
  3
A6
350
2A9
  3
A7
350
2AA
  3
A8
350
2AB
  3
A9
350
2AC
  3
B0
350
2AD
  3
B1
350
2AE
  3
B2
350
2AF
  3
B3
350
2B0
  3
B4
350
2B1
  3
B5
350
2B2
  3
B6
350
2B3
  3
B7
350
2B4
  3
B8
350
2B5
  3
B9
350
2B6
  3
C0
350
2B7
  3
C1
350
2B8
  3
C2
350
2B9
  3
C3
350
2BA
  3
C4
350
2BB
  3
C5
350
2BC
  3
C6
350
2BD
  3
C7
350
2BE
  3
C8
350
2BF
  3
C9
350
2C0
  3
D0
350
2C1
  3
D1
350
2C2
  3
D2
350
2C3
  0
DICTIONARY
  5
11A
102
{ACAD_REACTORS
330
C
102
}
330
C
100
AcDbDictionary
281
     1
  3
Standard
350
11B
  0
DICTIONARY
  5
26E
102
{ACAD_REACTORS
330
C
102
}
330
C
100
AcDbDictionary
281
     1
  3
2dWireframe
350
274
  3
3D Hidden
350
276
  3
3dWireframe
350
275
  3
Basic
350
273
  3
Brighten
350
27A
  3
ColorChange
350
27E
  3
Conceptual
350
277
  3
Dim
350
279
  3
Facepattern
350
27D
  3
Flat
350
26F
  3
FlatWithEdges
350
270
  3
Gouraud
350
271
  3
GouraudWithEdges
350
272
  3
Linepattern
350
27C
  3
Realistic
350
278
  3
Thicken
350
27B
  0
XRECORD
  5
2E6
102
{ACAD_REACTORS
330
C
102
}
330
C
100
AcDbXrecord
280
     1
 90
        1
330
11B
  0
DICTIONARY
  5
94
102
{ACAD_REACTORS
330
C
102
}
330
C
100
AcDbDictionary
281
     1
  3
CANNOSCALE
350
2E9
  3
CMLEADERSTYLE
350
2E7
  3
CTABLESTYLE
350
138
  3
DIMASSOC
350
96
  3
INDEXCTL
350
95
  3
LAYEREVAL
350
346
  3
LAYERNOTIFY
350
347
  3
LIGHTINGUNITS
350
2EA
  3
MSLTSCALE
350
2E8
  3
SORTENTS
350
C63
  0
DICTIONARY
  5
5B
102
{ACAD_REACTORS
330
C
102
}
330
C
100
AcDbDictionary
281
     1
  3
AcmBOM
350
36B
  3
AcmStdDictionary
350
61
  3
AMDTSECTSYM_ARROWCOLOR
350
123
  0
DICTIONARY
  5
98A
102
{ACAD_REACTORS
330
C
102
}
330
C
100
AcDbDictionary
281
     1
  0
DICTIONARY
  5
41
102
{ACAD_REACTORS
330
C
102
}
330
C
100
AcDbDictionary
281
     1
  0
DICTIONARY
  5
364
102
{ACAD_REACTORS
330
C
102
}
330
C
100
AcDbDictionary
281
     1
  0
XRECORD
  5
CE7
102
{ACAD_REACTORS
330
C
102
}
330
C
100
AcDbXrecord
280
     1
  1
DWGPROPS COOKIE
  2

  3

  4

  6

  7

  8
nlazaar
  9

300
AmdtFileType=84
301
=
302
=
303
=
304
=
305
=
306
=
307
=
308
=
309
=
 40
0.0957307060185185
 41
2455097.591265521
 42
2455097.707104271
  1

 90
        1
  0
DICTIONARY
  5
47F
102
{ACAD_REACTORS
330
47E
102
}
330
47E
100
AcDbDictionary
281
     1
  0
XRECORD
  5
7BA
102
{ACAD_REACTORS
330
7B9
102
}
330
7B9
100
AcDbXrecord
280
     1
290
     1
  0
XRECORD
  5
7BB
102
{ACAD_REACTORS
330
459
102
}
330
459
100
AcDbXrecord
280
     1
290
     1
  0
XRECORD
  5
7BC
102
{ACAD_REACTORS
330
45B
102
}
330
45B
100
AcDbXrecord
280
     1
290
     1
  0
XRECORD
  5
7BD
102
{ACAD_REACTORS
330
45E
102
}
330
45E
100
AcDbXrecord
280
     1
290
     1
  0
XRECORD
  5
7BE
102
{ACAD_REACTORS
330
460
102
}
330
460
100
AcDbXrecord
280
     1
290
     1
  0
XRECORD
  5
7BF
102
{ACAD_REACTORS
330
462
102
}
330
462
100
AcDbXrecord
280
     1
290
     1
  0
XRECORD
  5
7C0
102
{ACAD_REACTORS
330
464
102
}
330
464
100
AcDbXrecord
280
     1
290
     1
  0
XRECORD
  5
7C1
102
{ACAD_REACTORS
330
466
102
}
330
466
100
AcDbXrecord
280
     1
290
     1
  0
XRECORD
  5
7C2
102
{ACAD_REACTORS
330
468
102
}
330
468
100
AcDbXrecord
280
     1
290
     1
  0
XRECORD
  5
7C3
102
{ACAD_REACTORS
330
46A
102
}
330
46A
100
AcDbXrecord
280
     1
290
     1
  0
XRECORD
  5
7C4
102
{ACAD_REACTORS
330
46C
102
}
330
46C
100
AcDbXrecord
280
     1
290
     1
  0
XRECORD
  5
7C5
102
{ACAD_REACTORS
330
46E
102
}
330
46E
100
AcDbXrecord
280
     1
290
     1
  0
XRECORD
  5
CE9
102
{ACAD_REACTORS
330
CE8
102
}
330
CE8
100
AcDbXrecord
280
     1
 70
     1
  0
XRECORD
  5
CEA
102
{ACAD_REACTORS
330
CE8
102
}
330
CE8
100
AcDbXrecord
280
     1
 40
1.570796326794896
  0
XRECORD
  5
CEC
102
{ACAD_REACTORS
330
CE8
102
}
330
CE8
100
AcDbXrecord
280
     1
340
14
  0
XRECORD
  5
CED
102
{ACAD_REACTORS
330
CE8
102
}
330
CE8
100
AcDbXrecord
280
     1
340
14
  0
XRECORD
  5
CEB
102
{ACAD_REACTORS
330
CE8
102
}
330
CE8
100
AcDbXrecord
280
     1
340
14
  0
LAYOUT
  5
1E
102
{ACAD_XDICTIONARY
360
CEE
102
}
102
{ACAD_REACTORS
330
1A
102
}
330
1A
100
AcDbPlotSettings
  1

  2

  4

  6

 40
0.0
 41
0.0
 42
0.0
 43
0.0
 44
0.0
 45
0.0
 46
0.0
 47
0.0
 48
0.0
 49
0.0
140
0.0
141
0.0
142
1.0
143
1.0
 70
   688
 72
     0
 73
     0
 74
     5
  7

 75
    16
147
1.0
148
0.0
149
0.0
100
AcDbLayout
  1
Layout1
 70
     1
 71
     1
 10
0.0
 20
0.0
 11
420.0
 21
297.0
 12
0.0
 22
0.0
 32
0.0
 14
1.000000000000000E+20
 24
1.000000000000000E+20
 34
1.000000000000000E+20
 15
-1.000000000000000E+20
 25
-1.000000000000000E+20
 35
-1.000000000000000E+20
146
0.0
 13
0.0
 23
0.0
 33
0.0
 16
1.0
 26
0.0
 36
0.0
 17
0.0
 27
1.0
 37
0.0
 76
     0
330
1B
  0
LAYOUT
  5
26
102
{ACAD_XDICTIONARY
360
CF2
102
}
102
{ACAD_REACTORS
330
1A
102
}
330
1A
100
AcDbPlotSettings
  1

  2

  4

  6

 40
0.0
 41
0.0
 42
0.0
 43
0.0
 44
0.0
 45
0.0
 46
0.0
 47
0.0
 48
0.0
 49
0.0
140
0.0
141
0.0
142
1.0
143
1.0
 70
   688
 72
     0
 73
     0
 74
     5
  7

 75
    16
147
1.0
148
0.0
149
0.0
100
AcDbLayout
  1
Layout2
 70
     1
 71
     2
 10
0.0
 20
0.0
 11
12.0
 21
9.0
 12
0.0
 22
0.0
 32
0.0
 14
0.0
 24
0.0
 34
0.0
 15
0.0
 25
0.0
 35
0.0
146
0.0
 13
0.0
 23
0.0
 33
0.0
 16
1.0
 26
0.0
 36
0.0
 17
0.0
 27
1.0
 37
0.0
 76
     0
330
23
  0
LAYOUT
  5
22
102
{ACAD_XDICTIONARY
360
CF0
102
}
102
{ACAD_REACTORS
330
1A
102
}
330
1A
100
AcDbPlotSettings
  1

  2

  4

  6

 40
0.0
 41
0.0
 42
0.0
 43
0.0
 44
0.0
 45
0.0
 46
0.0
 47
0.0
 48
0.0
 49
0.0
140
0.0
141
0.0
142
1.0
143
1.0
 70
  1712
 72
     0
 73
     0
 74
     0
  7

 75
     0
147
1.0
148
0.0
149
0.0
100
AcDbLayout
  1
Model
 70
     1
 71
     0
 10
0.0
 20
0.0
 11
12.0
 21
9.0
 12
0.0
 22
0.0
 32
0.0
 14
0.0
 24
0.0
 34
0.0
 15
0.0
 25
0.0
 35
0.0
146
0.0
 13
0.0
 23
0.0
 33
0.0
 16
1.0
 26
0.0
 36
0.0
 17
0.0
 27
1.0
 37
0.0
 76
     0
330
1F
331
269
  0
MATERIAL
  5
26C
102
{ACAD_XDICTIONARY
360
C79
102
}
102
{ACAD_REACTORS
330
BD
102
}
330
BD
100
AcDbMaterial
  1
ByBlock
 73
     1
 78
     1
172
     1
176
     1
270
     1
274
     1
  0
MATERIAL
  5
26B
102
{ACAD_XDICTIONARY
360
C77
102
}
102
{ACAD_REACTORS
330
BD
102
}
330
BD
100
AcDbMaterial
  1
ByLayer
 73
     1
 78
     1
172
     1
176
     1
270
     1
274
     1
  0
MATERIAL
  5
26D
102
{ACAD_XDICTIONARY
360
C7B
102
}
102
{ACAD_REACTORS
330
BD
102
}
330
BD
100
AcDbMaterial
  1
Global
 73
     1
 78
     1
172
     1
176
     1
270
     1
274
     1
  0
MLEADERSTYLE
  5
2C5
102
{ACAD_REACTORS
330
2C4
102
}
330
2C4
100
AcDbMLeaderStyle
170
     2
171
     1
172
     0
 90
        2
 40
0.0
 41
0.0
173
     1
 91
-1056964608
340
14
 92
       -2
290
     1
 42
2.0
291
     1
 43
0.36
  3
Standard
 44
4.0
300

342
11
174
     1
178
     6
175
     1
176
     0
 93
-1056964608
 45
4.0
292
     0
297
     0
 46
4.0
 94
-1056964608
 47
1.0
 49
1.0
140
1.0
293
     1
141
0.0
294
     1
177
     0
142
1.0
295
     0
296
     0
143
0.125
1001
ACAD_MLEADERVER
1070
     2
  0
MLINESTYLE
  5
18
102
{ACAD_REACTORS
330
17
102
}
330
17
100
AcDbMlineStyle
  2
STANDARD
 70
     0
  3

 62
   256
 51
90.0
 52
90.0
 71
     2
 49
0.5
 62
   256
  6
BYLAYER
 49
-0.5
 62
   256
  6
BYLAYER
  0
ACDBPLACEHOLDER
  5
F
102
{ACAD_REACTORS
330
E
102
}
330
E
  0
SCALE
  5
2A3
102
{ACAD_REACTORS
330
2A2
102
}
330
2A2
100
AcDbScale
 70
     0
300
1:1
140
1.0
141
1.0
290
     1
  0
SCALE
  5
2A4
102
{ACAD_REACTORS
330
2A2
102
}
330
2A2
100
AcDbScale
 70
     0
300
1:2
140
1.0
141
2.0
290
     0
  0
SCALE
  5
2A5
102
{ACAD_REACTORS
330
2A2
102
}
330
2A2
100
AcDbScale
 70
     0
300
1:4
140
1.0
141
4.0
290
     0
  0
SCALE
  5
2A6
102
{ACAD_REACTORS
330
2A2
102
}
330
2A2
100
AcDbScale
 70
     0
300
1:5
140
1.0
141
5.0
290
     0
  0
SCALE
  5
2A7
102
{ACAD_REACTORS
330
2A2
102
}
330
2A2
100
AcDbScale
 70
     0
300
1:8
140
1.0
141
8.0
290
     0
  0
SCALE
  5
2A8
102
{ACAD_REACTORS
330
2A2
102
}
330
2A2
100
AcDbScale
 70
     0
300
1:10
140
1.0
141
10.0
290
     0
  0
SCALE
  5
2A9
102
{ACAD_REACTORS
330
2A2
102
}
330
2A2
100
AcDbScale
 70
     0
300
1:16
140
1.0
141
16.0
290
     0
  0
SCALE
  5
2AA
102
{ACAD_REACTORS
330
2A2
102
}
330
2A2
100
AcDbScale
 70
     0
300
1:20
140
1.0
141
20.0
290
     0
  0
SCALE
  5
2AB
102
{ACAD_REACTORS
330
2A2
102
}
330
2A2
100
AcDbScale
 70
     0
300
1:30
140
1.0
141
30.0
290
     0
  0
SCALE
  5
2AC
102
{ACAD_REACTORS
330
2A2
102
}
330
2A2
100
AcDbScale
 70
     0
300
1:40
140
1.0
141
40.0
290
     0
  0
SCALE
  5
2AD
102
{ACAD_REACTORS
330
2A2
102
}
330
2A2
100
AcDbScale
 70
     0
300
1:50
140
1.0
141
50.0
290
     0
  0
SCALE
  5
2AE
102
{ACAD_REACTORS
330
2A2
102
}
330
2A2
100
AcDbScale
 70
     0
300
1:100
140
1.0
141
100.0
290
     0
  0
SCALE
  5
2AF
102
{ACAD_REACTORS
330
2A2
102
}
330
2A2
100
AcDbScale
 70
     0
300
2:1
140
2.0
141
1.0
290
     0
  0
SCALE
  5
2B0
102
{ACAD_REACTORS
330
2A2
102
}
330
2A2
100
AcDbScale
 70
     0
300
4:1
140
4.0
141
1.0
290
     0
  0
SCALE
  5
2B1
102
{ACAD_REACTORS
330
2A2
102
}
330
2A2
100
AcDbScale
 70
     0
300
8:1
140
8.0
141
1.0
290
     0
  0
SCALE
  5
2B2
102
{ACAD_REACTORS
330
2A2
102
}
330
2A2
100
AcDbScale
 70
     0
300
10:1
140
10.0
141
1.0
290
     0
  0
SCALE
  5
2B3
102
{ACAD_REACTORS
330
2A2
102
}
330
2A2
100
AcDbScale
 70
     0
300
100:1
140
100.0
141
1.0
290
     0
  0
SCALE
  5
2B4
102
{ACAD_REACTORS
330
2A2
102
}
330
2A2
100
AcDbScale
 70
     0
300
1/128" = 1'-0"
140
0.0078125
141
12.0
290
     0
  0
SCALE
  5
2B5
102
{ACAD_REACTORS
330
2A2
102
}
330
2A2
100
AcDbScale
 70
     0
300
1/64" = 1'-0"
140
0.015625
141
12.0
290
     0
  0
SCALE
  5
2B6
102
{ACAD_REACTORS
330
2A2
102
}
330
2A2
100
AcDbScale
 70
     0
300
1/32" = 1'-0"
140
0.03125
141
12.0
290
     0
  0
SCALE
  5
2B7
102
{ACAD_REACTORS
330
2A2
102
}
330
2A2
100
AcDbScale
 70
     0
300
1/16" = 1'-0"
140
0.0625
141
12.0
290
     0
  0
SCALE
  5
2B8
102
{ACAD_REACTORS
330
2A2
102
}
330
2A2
100
AcDbScale
 70
     0
300
3/32" = 1'-0"
140
0.09375
141
12.0
290
     0
  0
SCALE
  5
2B9
102
{ACAD_REACTORS
330
2A2
102
}
330
2A2
100
AcDbScale
 70
     0
300
1/8" = 1'-0"
140
0.125
141
12.0
290
     0
  0
SCALE
  5
2BA
102
{ACAD_REACTORS
330
2A2
102
}
330
2A2
100
AcDbScale
 70
     0
300
3/16" = 1'-0"
140
0.1875
141
12.0
290
     0
  0
SCALE
  5
2BB
102
{ACAD_REACTORS
330
2A2
102
}
330
2A2
100
AcDbScale
 70
     0
300
1/4" = 1'-0"
140
0.25
141
12.0
290
     0
  0
SCALE
  5
2BC
102
{ACAD_REACTORS
330
2A2
102
}
330
2A2
100
AcDbScale
 70
     0
300
3/8" = 1'-0"
140
0.375
141
12.0
290
     0
  0
SCALE
  5
2BD
102
{ACAD_REACTORS
330
2A2
102
}
330
2A2
100
AcDbScale
 70
     0
300
1/2" = 1'-0"
140
0.5
141
12.0
290
     0
  0
SCALE
  5
2BE
102
{ACAD_REACTORS
330
2A2
102
}
330
2A2
100
AcDbScale
 70
     0
300
3/4" = 1'-0"
140
0.75
141
12.0
290
     0
  0
SCALE
  5
2BF
102
{ACAD_REACTORS
330
2A2
102
}
330
2A2
100
AcDbScale
 70
     0
300
1" = 1'-0"
140
1.0
141
12.0
290
     0
  0
SCALE
  5
2C0
102
{ACAD_REACTORS
330
2A2
102
}
330
2A2
100
AcDbScale
 70
     0
300
1-1/2" = 1'-0"
140
1.5
141
12.0
290
     0
  0
SCALE
  5
2C1
102
{ACAD_REACTORS
330
2A2
102
}
330
2A2
100
AcDbScale
 70
     0
300
3" = 1'-0"
140
3.0
141
12.0
290
     0
  0
SCALE
  5
2C2
102
{ACAD_REACTORS
330
2A2
102
}
330
2A2
100
AcDbScale
 70
     0
300
6" = 1'-0"
140
6.0
141
12.0
290
     0
  0
SCALE
  5
2C3
102
{ACAD_REACTORS
330
2A2
102
}
330
2A2
100
AcDbScale
 70
     0
300
1'-0" = 1'-0"
140
12.0
141
12.0
290
     0
  0
TABLESTYLE
  5
11B
102
{ACAD_XDICTIONARY
360
2E4
102
}
102
{ACAD_REACTORS
330
11A
102
}
330
11A
100
AcDbTableStyle
  3
Standard
 70
     0
 71
     0
 40
1.5
 41
1.5
280
     0
281
     0
  7
STANDARD
140
4.5
170
     2
 62
     0
 63
     7
283
     0
274
    -2
284
     1
 64
     0
275
    -2
285
     1
 65
     0
276
    -2
286
     1
 66
     0
277
    -2
287
     1
 67
     0
278
    -2
288
     1
 68
     0
279
    -2
289
     1
 69
     0
  7
STANDARD
140
6.0
170
     5
 62
     0
 63
     7
283
     0
274
    -2
284
     1
 64
     0
275
    -2
285
     1
 65
     0
276
    -2
286
     1
 66
     0
277
    -2
287
     1
 67
     0
278
    -2
288
     1
 68
     0
279
    -2
289
     1
 69
     0
  7
STANDARD
140
4.5
170
     5
 62
     0
 63
     7
283
     0
274
    -2
284
     1
 64
     0
275
    -2
285
     1
 65
     0
276
    -2
286
     1
 66
     0
277
    -2
287
     1
 67
     0
278
    -2
288
     1
 68
     0
279
    -2
289
     1
 69
     0
  0
VISUALSTYLE
  5
274
102
{ACAD_REACTORS
330
26E
102
}
330
26E
100
AcDbVisualStyle
  2
2dWireframe
 70
     4
 71
     0
 72
     2
 73
     0
 90
        0
 40
-0.6
 41
-30.0
 62
     5
 63
     7
 74
     1
 91
        4
 64
     7
 65
   257
 75
     1
175
     1
 42
1.0
 92
        0
 66
   257
 43
1.0
 76
     1
 77
     6
 78
     2
 67
     7
 79
     5
170
     0
171
     0
290
     0
174
     0
 93
        1
 44
0.0
173
     0
291
     0
 45
0.0
1001
ACAD
1000
AcDbSavedByObjectVersion
1070
     0
1000
AcDbSavedByObjectVersion
1070
     0
  0
VISUALSTYLE
  5
276
102
{ACAD_REACTORS
330
26E
102
}
330
26E
100
AcDbVisualStyle
  2
3D Hidden
 70
     6
 71
     1
 72
     2
 73
     2
 90
        0
 40
-0.6
 41
-30.0
 62
     5
 63
     7
 74
     2
 91
        2
 64
     7
 65
   257
 75
     2
175
     1
 42
40.0
 92
        0
 66
   257
 43
1.0
 76
     1
 77
     6
 78
     2
 67
     7
 79
     3
170
     0
171
     0
290
     0
174
     0
 93
        1
 44
0.0
173
     0
291
     0
 45
0.0
1001
ACAD
1000
AcDbSavedByObjectVersion
1070
     0
1000
AcDbSavedByObjectVersion
1070
     0
  0
VISUALSTYLE
  5
275
102
{ACAD_REACTORS
330
26E
102
}
330
26E
100
AcDbVisualStyle
  2
3dWireframe
 70
     5
 71
     0
 72
     2
 73
     0
 90
        0
 40
-0.6
 41
-30.0
 62
     5
 63
     7
 74
     1
 91
        4
 64
     7
 65
   257
 75
     1
175
     1
 42
1.0
 92
        0
 66
   257
 43
1.0
 76
     1
 77
     6
 78
     2
 67
     7
 79
     5
170
     0
171
     0
290
     0
174
     0
 93
        1
 44
0.0
173
     0
291
     0
 45
0.0
1001
ACAD
1000
AcDbSavedByObjectVersion
1070
     0
1000
AcDbSavedByObjectVersion
1070
     0
  0
VISUALSTYLE
  5
273
102
{ACAD_REACTORS
330
26E
102
}
330
26E
100
AcDbVisualStyle
  2
Basic
 70
     7
 71
     1
 72
     0
 73
     1
 90
        0
 40
-0.6
 41
-30.0
 62
     5
 63
     7
 74
     0
 91
        4
 64
     7
 65
   257
 75
     1
175
     1
 42
1.0
 92
        8
 66
     7
 43
1.0
 76
     1
 77
     6
 78
     2
 67
     7
 79
     5
170
     0
171
     0
290
     0
174
     0
 93
        1
 44
0.0
173
     0
291
     1
 45
0.0
1001
ACAD
1000
AcDbSavedByObjectVersion
1070
     0
1000
AcDbSavedByObjectVersion
1070
     0
  0
VISUALSTYLE
  5
27A
102
{ACAD_REACTORS
330
26E
102
}
330
26E
100
AcDbVisualStyle
  2
Brighten
 70
    12
 71
     2
 72
     2
 73
     0
 90
        0
 40
-0.6
 41
-30.0
 62
     5
 63
     7
 74
     1
 91
        4
 64
     7
 65
   257
 75
     1
175
     1
 42
1.0
 92
        8
 66
     7
 43
1.0
 76
     1
 77
     6
 78
     2
 67
     7
 79
     5
170
     0
171
     0
290
     0
174
     0
 93
        1
 44
50.0
173
     0
291
     1
 45
0.0
1001
ACAD
1000
AcDbSavedByObjectVersion
1070
     0
1000
AcDbSavedByObjectVersion
1070
     0
  0
VISUALSTYLE
  5
27E
102
{ACAD_REACTORS
330
26E
102
}
330
26E
100
AcDbVisualStyle
  2
ColorChange
 70
    16
 71
     2
 72
     2
 73
     3
 90
        0
 40
-0.6
 41
-30.0
 62
     5
 63
     8
 74
     1
 91
        4
 64
     7
 65
   257
 75
     1
175
     1
 42
1.0
 92
        8
 66
     8
 43
1.0
 76
     1
 77
     6
 78
     2
 67
     7
 79
     5
170
     0
171
     0
290
     0
174
     0
 93
        1
 44
0.0
173
     0
291
     1
 45
0.0
1001
ACAD
1000
AcDbSavedByObjectVersion
1070
     0
1000
AcDbSavedByObjectVersion
1070
     0
  0
VISUALSTYLE
  5
277
102
{ACAD_REACTORS
330
26E
102
}
330
26E
100
AcDbVisualStyle
  2
Conceptual
 70
     9
 71
     3
 72
     2
 73
     0
 90
        0
 40
-0.6
 41
-30.0
 62
     5
 63
     7
 74
     2
 91
        2
 64
     7
 65
   257
 75
     1
175
     1
 42
40.0
 92
        8
 66
     7
 43
1.0
 76
     1
 77
     6
 78
     2
 67
     7
 79
     3
170
     0
171
     0
290
     0
174
     0
 93
        1
 44
0.0
173
     0
291
     0
 45
0.0
1001
ACAD
1000
AcDbSavedByObjectVersion
1070
     0
1000
AcDbSavedByObjectVersion
1070
     0
  0
VISUALSTYLE
  5
279
102
{ACAD_REACTORS
330
26E
102
}
330
26E
100
AcDbVisualStyle
  2
Dim
 70
    11
 71
     2
 72
     2
 73
     0
 90
        0
 40
-0.6
 41
-30.0
 62
     5
 63
     7
 74
     1
 91
        4
 64
     7
 65
   257
 75
     1
175
     1
 42
1.0
 92
        8
 66
     7
 43
1.0
 76
     1
 77
     6
 78
     2
 67
     7
 79
     5
170
     0
171
     0
290
     0
174
     0
 93
        1
 44
-50.0
173
     0
291
     1
 45
0.0
1001
ACAD
1000
AcDbSavedByObjectVersion
1070
     0
1000
AcDbSavedByObjectVersion
1070
     0
  0
VISUALSTYLE
  5
27D
102
{ACAD_REACTORS
330
26E
102
}
330
26E
100
AcDbVisualStyle
  2
Facepattern
 70
    15
 71
     2
 72
     2
 73
     0
 90
        0
 40
-0.6
 41
-30.0
 62
     5
 63
     7
 74
     1
 91
        4
 64
     7
 65
   257
 75
     1
175
     1
 42
1.0
 92
        8
 66
     7
 43
1.0
 76
     1
 77
     6
 78
     2
 67
     7
 79
     5
170
     0
171
     0
290
     0
174
     0
 93
        1
 44
0.0
173
     0
291
     1
 45
0.0
1001
ACAD
1000
AcDbSavedByObjectVersion
1070
     0
1000
AcDbSavedByObjectVersion
1070
     0
  0
VISUALSTYLE
  5
26F
102
{ACAD_REACTORS
330
26E
102
}
330
26E
100
AcDbVisualStyle
  2
Flat
 70
     0
 71
     2
 72
     1
 73
     1
 90
        2
 40
-0.6
 41
30.0
 62
     5
 63
     7
 74
     0
 91
        4
 64
     7
 65
   257
 75
     1
175
     1
 42
1.0
 92
        8
 66
     7
 43
1.0
 76
     1
 77
     6
 78
     2
 67
     7
 79
     5
170
     0
171
     0
290
     0
174
     0
 93
       13
 44
0.0
173
     0
291
     1
 45
0.0
1001
ACAD
1000
AcDbSavedByObjectVersion
1070
     0
1000
AcDbSavedByObjectVersion
1070
     0
  0
VISUALSTYLE
  5
270
102
{ACAD_REACTORS
330
26E
102
}
330
26E
100
AcDbVisualStyle
  2
FlatWithEdges
 70
     1
 71
     2
 72
     1
 73
     1
 90
        2
 40
-0.6
 41
30.0
 62
     5
 63
     7
 74
     1
 91
        4
 64
     7
 65
   257
 75
     1
175
     1
 42
1.0
 92
        0
 66
   257
 43
1.0
 76
     1
 77
     6
 78
     2
 67
     7
 79
     5
170
     0
171
     0
290
     0
174
     0
 93
       13
 44
0.0
173
     0
291
     1
 45
0.0
1001
ACAD
1000
AcDbSavedByObjectVersion
1070
     0
1000
AcDbSavedByObjectVersion
1070
     0
  0
VISUALSTYLE
  5
271
102
{ACAD_REACTORS
330
26E
102
}
330
26E
100
AcDbVisualStyle
  2
Gouraud
 70
     2
 71
     2
 72
     2
 73
     1
 90
        2
 40
-0.6
 41
30.0
 62
     5
 63
     7
 74
     0
 91
        4
 64
     7
 65
   257
 75
     1
175
     1
 42
1.0
 92
        0
 66
     7
 43
1.0
 76
     1
 77
     6
 78
     2
 67
     7
 79
     5
170
     0
171
     0
290
     0
174
     0
 93
       13
 44
0.0
173
     0
291
     1
 45
0.0
1001
ACAD
1000
AcDbSavedByObjectVersion
1070
     0
1000
AcDbSavedByObjectVersion
1070
     0
  0
VISUALSTYLE
  5
272
102
{ACAD_REACTORS
330
26E
102
}
330
26E
100
AcDbVisualStyle
  2
GouraudWithEdges
 70
     3
 71
     2
 72
     2
 73
     1
 90
        2
 40
-0.6
 41
30.0
 62
     5
 63
     7
 74
     1
 91
        4
 64
     7
 65
   257
 75
     1
175
     1
 42
1.0
 92
        0
 66
   257
 43
1.0
 76
     1
 77
     6
 78
     2
 67
     7
 79
     5
170
     0
171
     0
290
     0
174
     0
 93
       13
 44
0.0
173
     0
291
     1
 45
0.0
1001
ACAD
1000
AcDbSavedByObjectVersion
1070
     0
1000
AcDbSavedByObjectVersion
1070
     0
  0
VISUALSTYLE
  5
27C
102
{ACAD_REACTORS
330
26E
102
}
330
26E
100
AcDbVisualStyle
  2
Linepattern
 70
    14
 71
     2
 72
     2
 73
     0
 90
        0
 40
-0.6
 41
-30.0
 62
     5
 63
     7
 74
     1
 91
        4
 64
     7
 65
   257
 75
     7
175
     7
 42
1.0
 92
        8
 66
     7
 43
1.0
 76
     1
 77
     6
 78
     2
 67
     7
 79
     5
170
     0
171
     0
290
     0
174
     0
 93
        1
 44
0.0
173
     0
291
     1
 45
0.0
1001
ACAD
1000
AcDbSavedByObjectVersion
1070
     0
1000
AcDbSavedByObjectVersion
1070
     0
  0
VISUALSTYLE
  5
278
102
{ACAD_REACTORS
330
26E
102
}
330
26E
100
AcDbVisualStyle
  2
Realistic
 70
     8
 71
     2
 72
     2
 73
     0
 90
        0
 40
-0.6
 41
-30.0
 62
     5
 63
     7
 74
     1
 91
        0
 64
     7
 65
   257
 75
     1
175
     1
 42
1.0
 92
        8
 66
     8
 43
1.0
 76
     1
 77
     6
 78
     2
 67
     7
 79
     5
170
     0
171
     0
290
     0
174
     0
 93
       13
 44
0.0
173
     0
291
     0
 45
0.0
1001
ACAD
1000
AcDbSavedByObjectVersion
1070
     0
1000
AcDbSavedByObjectVersion
1070
     0
  0
VISUALSTYLE
  5
27B
102
{ACAD_REACTORS
330
26E
102
}
330
26E
100
AcDbVisualStyle
  2
Thicken
 70
    13
 71
     2
 72
     2
 73
     0
 90
        0
 40
-0.6
 41
-30.0
 62
     5
 63
     7
 74
     1
 91
        4
 64
     7
 65
   257
 75
     1
175
     1
 42
1.0
 92
       12
 66
     7
 43
1.0
 76
     1
 77
     6
 78
     2
 67
     7
 79
     5
170
     0
171
     0
290
     0
174
     0
 93
        1
 44
0.0
173
     0
291
     1
 45
0.0
1001
ACAD
1000
AcDbSavedByObjectVersion
1070
     0
1000
AcDbSavedByObjectVersion
1070
     0
  0
DICTIONARYVAR
  5
2E9
102
{ACAD_REACTORS
330
94
102
}
330
94
100
DictionaryVariables
280
     0
  1
1:1
  0
DICTIONARYVAR
  5
2E7
102
{ACAD_REACTORS
330
94
102
}
330
94
100
DictionaryVariables
280
     0
  1
STANDARD
  0
DICTIONARYVAR
  5
138
102
{ACAD_REACTORS
330
94
102
}
330
94
100
DictionaryVariables
280
     0
  1
STANDARD
  0
DICTIONARYVAR
  5
96
102
{ACAD_REACTORS
330
94
102
}
330
94
100
DictionaryVariables
280
     0
  1
2
  0
DICTIONARYVAR
  5
95
102
{ACAD_REACTORS
330
94
102
}
330
94
100
DictionaryVariables
280
     0
  1
0
  0
DICTIONARYVAR
  5
346
102
{ACAD_REACTORS
330
94
102
}
330
94
100
DictionaryVariables
280
     0
  1
1
  0
DICTIONARYVAR
  5
347
102
{ACAD_REACTORS
330
94
102
}
330
94
100
DictionaryVariables
280
     0
  1
15
  0
DICTIONARYVAR
  5
2EA
102
{ACAD_REACTORS
330
94
102
}
330
94
100
DictionaryVariables
280
     0
  1
0
  0
DICTIONARYVAR
  5
2E8
102
{ACAD_REACTORS
330
94
102
}
330
94
100
DictionaryVariables
280
     0
  1
0
  0
DICTIONARYVAR
  5
C63
102
{ACAD_REACTORS
330
94
102
}
330
94
100
DictionaryVariables
280
     0
  1
127
  0
DICTIONARY
  5
36B
102
{ACAD_REACTORS
330
5B
102
}
330
5B
100
AcDbDictionary
281
     1
  0
DICTIONARY
  5
61
102
{ACAD_REACTORS
330
5B
102
}
330
5B
100
AcDbDictionary
281
     1
  0
XRECORD
  5
123
102
{ACAD_REACTORS
330
5B
102
}
330
5B
100
AcDbXrecord
280
     1
 90
-1023410169
  0
DICTIONARY
  5
CEE
330
1E
100
AcDbDictionary
280
     1
281
     1
  3
ACAD_XREC_ROUNDTRIP
360
CEF
  0
DICTIONARY
  5
CF2
330
26
100
AcDbDictionary
280
     1
281
     1
  3
ACAD_XREC_ROUNDTRIP
360
CF3
  0
DICTIONARY
  5
CF0
330
22
100
AcDbDictionary
280
     1
281
     1
  3
ACAD_XREC_ROUNDTRIP
360
CF1
  0
DICTIONARY
  5
C79
330
26C
100
AcDbDictionary
280
     1
281
     1
  3
ACAD_XREC_ROUNDTRIP
360
C7A
  0
DICTIONARY
  5
C77
330
26B
100
AcDbDictionary
280
     1
281
     1
  3
ACAD_XREC_ROUNDTRIP
360
C78
  0
DICTIONARY
  5
C7B
330
26D
100
AcDbDictionary
280
     1
281
     1
  3
ACAD_XREC_ROUNDTRIP
360
C7C
  0
DICTIONARY
  5
2E4
330
11B
100
AcDbDictionary
280
     1
281
     1
  3
ACAD_ROUNDTRIP_2008_TABLESTYLE_CELLSTYLEMAP
360
CE6
  3
ACAD_XREC_ROUNDTRIP
360
CF4
  0
XRECORD
  5
CEF
102
{ACAD_REACTORS
330
CEE
102
}
330
CEE
100
AcDbXrecord
280
     1
102
SHADEPLOT
 70
     0
102
SHADEPLOTRESLEVEL
 70
     2
102
SHADEPLOTCUSTOMDPI
 70
   300
  0
XRECORD
  5
CF3
102
{ACAD_REACTORS
330
CF2
102
}
330
CF2
100
AcDbXrecord
280
     1
102
SHADEPLOT
 70
     0
102
SHADEPLOTRESLEVEL
 70
     2
102
SHADEPLOTCUSTOMDPI
 70
   300
  0
XRECORD
  5
CF1
102
{ACAD_REACTORS
330
CF0
102
}
330
CF0
100
AcDbXrecord
280
     1
102
SHADEPLOT
 70
     0
102
SHADEPLOTRESLEVEL
 70
     2
102
SHADEPLOTCUSTOMDPI
 70
   300
  0
XRECORD
  5
C7A
102
{ACAD_REACTORS
330
C79
102
}
330
C79
100
AcDbXrecord
280
     1
102
MATERIAL
148
0.0
149
0.0
149
0.0
 93
        0
 94
      127
282
     0
 72
     1
 77
     1
171
     1
175
     1
179
     1
273
     0
  0
XRECORD
  5
C78
102
{ACAD_REACTORS
330
C77
102
}
330
C77
100
AcDbXrecord
280
     1
102
MATERIAL
148
0.0
149
0.0
149
0.0
 93
        0
 94
      127
282
     0
 72
     1
 77
     1
171
     1
175
     1
179
     1
273
     0
  0
XRECORD
  5
C7C
102
{ACAD_REACTORS
330
C7B
102
}
330
C7B
100
AcDbXrecord
280
     1
102
MATERIAL
148
0.0
149
0.0
149
0.0
 93
        0
 94
      127
282
     0
 72
     1
 77
     1
171
     1
175
     1
179
     1
273
     0
  0
CELLSTYLEMAP
  5
CE6
102
{ACAD_REACTORS
330
2E4
102
}
330
2E4
100
AcDbCellStyleMap
 90
        3
300
CELLSTYLE
  1
TABLEFORMAT_BEGIN
 90
        5
170
     1
 91
        0
 92
    32768
 62
   257
 93
        1
300
CONTENTFORMAT
  1
CONTENTFORMAT_BEGIN
 90
        0
 91
        0
 92
      512
 93
        0
300

 40
0.0
140
1.0
 94
        5
 62
     0
340
11
144
6.0
309
CONTENTFORMAT_END
171
     1
301
MARGIN
  1
CELLMARGIN_BEGIN
 40
1.5
 40
1.5
 40
1.5
 40
1.5
 40
0.18
 40
0.18
309
CELLMARGIN_END
 94
        6
 95
        1
302
GRIDFORMAT
  1
GRIDFORMAT_BEGIN
 90
        0
 91
        1
 62
     0
 92
       -2
340
0
 93
        0
 40
0.045
309
GRIDFORMAT_END
 95
        2
302
GRIDFORMAT
  1
GRIDFORMAT_BEGIN
 90
        0
 91
        1
 62
     0
 92
       -2
340
0
 93
        0
 40
0.045
309
GRIDFORMAT_END
 95
        4
302
GRIDFORMAT
  1
GRIDFORMAT_BEGIN
 90
        0
 91
        1
 62
     0
 92
       -2
340
0
 93
        0
 40
0.045
309
GRIDFORMAT_END
 95
        8
302
GRIDFORMAT
  1
GRIDFORMAT_BEGIN
 90
        0
 91
        1
 62
     0
 92
       -2
340
0
 93
        0
 40
0.045
309
GRIDFORMAT_END
 95
       16
302
GRIDFORMAT
  1
GRIDFORMAT_BEGIN
 90
        0
 91
        1
 62
     0
 92
       -2
340
0
 93
        0
 40
0.045
309
GRIDFORMAT_END
 95
       32
302
GRIDFORMAT
  1
GRIDFORMAT_BEGIN
 90
        0
 91
        1
 62
     0
 92
       -2
340
0
 93
        0
 40
0.045
309
GRIDFORMAT_END
309
TABLEFORMAT_END
  1
CELLSTYLE_BEGIN
 90
        1
 91
        1
300
_TITLE
309
CELLSTYLE_END
300
CELLSTYLE
  1
TABLEFORMAT_BEGIN
 90
        5
170
     1
 91
        0
 92
        0
 62
   257
 93
        1
300
CONTENTFORMAT
  1
CONTENTFORMAT_BEGIN
 90
        0
 91
        0
 92
      512
 93
        0
300

 40
0.0
140
1.0
 94
        5
 62
     0
340
11
144
4.5
309
CONTENTFORMAT_END
171
     1
301
MARGIN
  1
CELLMARGIN_BEGIN
 40
1.5
 40
1.5
 40
1.5
 40
1.5
 40
0.18
 40
0.18
309
CELLMARGIN_END
 94
        6
 95
        1
302
GRIDFORMAT
  1
GRIDFORMAT_BEGIN
 90
        0
 91
        1
 62
     0
 92
       -2
340
0
 93
        0
 40
0.045
309
GRIDFORMAT_END
 95
        2
302
GRIDFORMAT
  1
GRIDFORMAT_BEGIN
 90
        0
 91
        1
 62
     0
 92
       -2
340
0
 93
        0
 40
0.045
309
GRIDFORMAT_END
 95
        4
302
GRIDFORMAT
  1
GRIDFORMAT_BEGIN
 90
        0
 91
        1
 62
     0
 92
       -2
340
0
 93
        0
 40
0.045
309
GRIDFORMAT_END
 95
        8
302
GRIDFORMAT
  1
GRIDFORMAT_BEGIN
 90
        0
 91
        1
 62
     0
 92
       -2
340
0
 93
        0
 40
0.045
309
GRIDFORMAT_END
 95
       16
302
GRIDFORMAT
  1
GRIDFORMAT_BEGIN
 90
        0
 91
        1
 62
     0
 92
       -2
340
0
 93
        0
 40
0.045
309
GRIDFORMAT_END
 95
       32
302
GRIDFORMAT
  1
GRIDFORMAT_BEGIN
 90
        0
 91
        1
 62
     0
 92
       -2
340
0
 93
        0
 40
0.045
309
GRIDFORMAT_END
309
TABLEFORMAT_END
  1
CELLSTYLE_BEGIN
 90
        2
 91
        1
300
_HEADER
309
CELLSTYLE_END
300
CELLSTYLE
  1
TABLEFORMAT_BEGIN
 90
        5
170
     1
 91
        0
 92
        0
 62
   257
 93
        1
300
CONTENTFORMAT
  1
CONTENTFORMAT_BEGIN
 90
        0
 91
        0
 92
      512
 93
        0
300

 40
0.0
140
1.0
 94
        2
 62
     0
340
11
144
4.5
309
CONTENTFORMAT_END
171
     1
301
MARGIN
  1
CELLMARGIN_BEGIN
 40
1.5
 40
1.5
 40
1.5
 40
1.5
 40
0.18
 40
0.18
309
CELLMARGIN_END
 94
        6
 95
        1
302
GRIDFORMAT
  1
GRIDFORMAT_BEGIN
 90
        0
 91
        1
 62
     0
 92
       -2
340
0
 93
        0
 40
0.045
309
GRIDFORMAT_END
 95
        2
302
GRIDFORMAT
  1
GRIDFORMAT_BEGIN
 90
        0
 91
        1
 62
     0
 92
       -2
340
0
 93
        0
 40
0.045
309
GRIDFORMAT_END
 95
        4
302
GRIDFORMAT
  1
GRIDFORMAT_BEGIN
 90
        0
 91
        1
 62
     0
 92
       -2
340
0
 93
        0
 40
0.045
309
GRIDFORMAT_END
 95
        8
302
GRIDFORMAT
  1
GRIDFORMAT_BEGIN
 90
        0
 91
        1
 62
     0
 92
       -2
340
0
 93
        0
 40
0.045
309
GRIDFORMAT_END
 95
       16
302
GRIDFORMAT
  1
GRIDFORMAT_BEGIN
 90
        0
 91
        1
 62
     0
 92
       -2
340
0
 93
        0
 40
0.045
309
GRIDFORMAT_END
 95
       32
302
GRIDFORMAT
  1
GRIDFORMAT_BEGIN
 90
        0
 91
        1
 62
     0
 92
       -2
340
0
 93
        0
 40
0.045
309
GRIDFORMAT_END
309
TABLEFORMAT_END
  1
CELLSTYLE_BEGIN
 90
        3
 91
        2
300
_DATA
309
CELLSTYLE_END
  0
XRECORD
  5
CF4
102
{ACAD_REACTORS
330
2E4
102
}
330
2E4
100
AcDbXrecord
280
     1
102
ACAD_ROUNDTRIP_PRE2007_TABLESTYLE
 90
      512
 91
        0
  1

 92
      512
 93
        0
  2

 94
      512
 95
        0
  3

  0
ENDSEC
  0
EOF
